  0
SECTION
  2
HEADER
  9
$ACADVER
  1
AC1021
  9
$ACADMAINTVER
 70
    25
  9
$DWGCODEPAGE
  3
ANSI_932
  9
$LASTSAVEDBY
  1
tform
  9
$INSBASE
 10
0.0
 20
0.0
 30
0.0
  9
$EXTMIN
 10
0.0
 20
0.0
 30
-0.0000000000000142
  9
$EXTMAX
 10
2100.0
 20
2970.0
 30
0.0000000000000142
  9
$LIMMIN
 10
0.0
 20
0.0
  9
$LIMMAX
 10
2100.0
 20
2970.0
  9
$ORTHOMODE
 70
     1
  9
$REGENMODE
 70
     1
  9
$FILLMODE
 70
     1
  9
$QTEXTMODE
 70
     0
  9
$MIRRTEXT
 70
     1
  9
$LTSCALE
 40
5.0
  9
$ATTMODE
 70
     1
  9
$TEXTSIZE
 40
2.5
  9
$TRACEWID
 40
1.0
  9
$TEXTSTYLE
  7
ＭＳ ゴシック
  9
$CLAYER
  8
DIM
  9
$CELTYPE
  6
ByLayer
  9
$CECOLOR
 62
   256
  9
$CELTSCALE
 40
1.0
  9
$DISPSILH
 70
     0
  9
$DIMSCALE
 40
1.0
  9
$DIMASZ
 40
10.0
  9
$DIMEXO
 40
30.0
  9
$DIMDLI
 40
0.9999999999999999
  9
$DIMRND
 40
0.0
  9
$DIMDLE
 40
0.0
  9
$DIMEXE
 40
0.0
  9
$DIMTP
 40
0.0
  9
$DIMTM
 40
0.0
  9
$DIMTXT
 40
24.0
  9
$DIMCEN
 40
0.0
  9
$DIMTSZ
 40
0.0
  9
$DIMTOL
 70
     0
  9
$DIMLIM
 70
     0
  9
$DIMTIH
 70
     0
  9
$DIMTOH
 70
     0
  9
$DIMSE1
 70
     0
  9
$DIMSE2
 70
     0
  9
$DIMTAD
 70
     1
  9
$DIMZIN
 70
    11
  9
$DIMBLK
  1
DOT
  9
$DIMASO
 70
     1
  9
$DIMSHO
 70
     1
  9
$DIMPOST
  1
<>
  9
$DIMAPOST
  1
[]
  9
$DIMALT
 70
     0
  9
$DIMALTD
 70
     1
  9
$DIMALTF
 40
1.0
  9
$DIMLFAC
 40
1.0
  9
$DIMTOFL
 70
     0
  9
$DIMTVP
 40
0.0
  9
$DIMTIX
 70
     1
  9
$DIMSOXD
 70
     0
  9
$DIMSAH
 70
     0
  9
$DIMBLK1
  1

  9
$DIMBLK2
  1

  9
$DIMSTYLE
  2
tfrom線あり
  9
$DIMCLRD
 70
     0
  9
$DIMCLRE
 70
     0
  9
$DIMCLRT
 70
     0
  9
$DIMTFAC
 40
1.0
  9
$DIMGAP
 40
20.0
  9
$DIMJUST
 70
     0
  9
$DIMSD1
 70
     0
  9
$DIMSD2
 70
     0
  9
$DIMTOLJ
 70
     1
  9
$DIMTZIN
 70
    11
  9
$DIMALTZ
 70
    11
  9
$DIMALTTZ
 70
    11
  9
$DIMUPT
 70
     0
  9
$DIMDEC
 70
     0
  9
$DIMTDEC
 70
     1
  9
$DIMALTU
 70
     2
  9
$DIMALTTD
 70
     2
  9
$DIMTXSTY
  7
ＭＳ ゴシック
  9
$DIMAUNIT
 70
     0
  9
$DIMADEC
 70
     2
  9
$DIMALTRND
 40
0.0
  9
$DIMAZIN
 70
     0
  9
$DIMDSEP
 70
    46
  9
$DIMATFIT
 70
     0
  9
$DIMFRAC
 70
     2
  9
$DIMLDRBLK
  1
DOT
  9
$DIMLUNIT
 70
     2
  9
$DIMLWD
 70
    -2
  9
$DIMLWE
 70
    -2
  9
$DIMTMOVE
 70
     0
  9
$DIMFXL
 40
1.0
  9
$DIMFXLON
 70
     0
  9
$DIMJOGANG
 40
0.7853981633974483
  9
$DIMTFILL
 70
     0
  9
$DIMTFILLCLR
 70
     0
  9
$DIMARCSYM
 70
     0
  9
$DIMLTYPE
  6

  9
$DIMLTEX1
  6

  9
$DIMLTEX2
  6

  9
$LUNITS
 70
     2
  9
$LUPREC
 70
     0
  9
$SKETCHINC
 40
0.1
  9
$FILLETRAD
 40
0.0
  9
$AUNITS
 70
     0
  9
$AUPREC
 70
     0
  9
$MENU
  1
acad
  9
$ELEVATION
 40
0.0
  9
$PELEVATION
 40
0.0
  9
$THICKNESS
 40
0.0
  9
$LIMCHECK
 70
     0
  9
$CHAMFERA
 40
0.0
  9
$CHAMFERB
 40
0.0
  9
$CHAMFERC
 40
0.0
  9
$CHAMFERD
 40
0.0
  9
$SKPOLY
 70
     0
  9
$TDCREATE
 40
2447893.375
  9
$TDUCREATE
 40
0.0
  9
$TDUPDATE
 40
2459734.576242535
  9
$TDUUPDATE
 40
2459734.201242535
  9
$TDINDWG
 40
0.1793331134
  9
$TDUSRTIMER
 40
0.0072515741
  9
$USRTIMER
 70
     1
  9
$ANGBASE
 50
0.0
  9
$ANGDIR
 70
     0
  9
$PDMODE
 70
     1
  9
$PDSIZE
 40
-2.0
  9
$PLINEWID
 40
0.0
  9
$SPLFRAME
 70
     0
  9
$SPLINETYPE
 70
     6
  9
$SPLINESEGS
 70
     8
  9
$HANDSEED
  5
46A9
  9
$SURFTAB1
 70
     6
  9
$SURFTAB2
 70
     6
  9
$SURFTYPE
 70
     6
  9
$SURFU
 70
     6
  9
$SURFV
 70
     6
  9
$UCSBASE
  2

  9
$UCSNAME
  2

  9
$UCSORG
 10
0.0
 20
0.0
 30
0.0
  9
$UCSXDIR
 10
1.0
 20
0.0
 30
0.0
  9
$UCSYDIR
 10
0.0
 20
1.0
 30
0.0
  9
$UCSORTHOREF
  2

  9
$UCSORTHOVIEW
 70
     0
  9
$UCSORGTOP
 10
0.0
 20
0.0
 30
0.0
  9
$UCSORGBOTTOM
 10
0.0
 20
0.0
 30
0.0
  9
$UCSORGLEFT
 10
0.0
 20
0.0
 30
0.0
  9
$UCSORGRIGHT
 10
0.0
 20
0.0
 30
0.0
  9
$UCSORGFRONT
 10
0.0
 20
0.0
 30
0.0
  9
$UCSORGBACK
 10
0.0
 20
0.0
 30
0.0
  9
$PUCSBASE
  2

  9
$PUCSNAME
  2

  9
$PUCSORG
 10
0.0
 20
0.0
 30
0.0
  9
$PUCSXDIR
 10
1.0
 20
0.0
 30
0.0
  9
$PUCSYDIR
 10
0.0
 20
1.0
 30
0.0
  9
$PUCSORTHOREF
  2

  9
$PUCSORTHOVIEW
 70
     0
  9
$PUCSORGTOP
 10
0.0
 20
0.0
 30
0.0
  9
$PUCSORGBOTTOM
 10
0.0
 20
0.0
 30
0.0
  9
$PUCSORGLEFT
 10
0.0
 20
0.0
 30
0.0
  9
$PUCSORGRIGHT
 10
0.0
 20
0.0
 30
0.0
  9
$PUCSORGFRONT
 10
0.0
 20
0.0
 30
0.0
  9
$PUCSORGBACK
 10
0.0
 20
0.0
 30
0.0
  9
$USERI1
 70
     0
  9
$USERI2
 70
     0
  9
$USERI3
 70
     0
  9
$USERI4
 70
     0
  9
$USERI5
 70
     0
  9
$USERR1
 40
0.0
  9
$USERR2
 40
0.0
  9
$USERR3
 40
0.0
  9
$USERR4
 40
0.0
  9
$USERR5
 40
0.0
  9
$WORLDVIEW
 70
     1
  9
$SHADEDGE
 70
     3
  9
$SHADEDIF
 70
    70
  9
$TILEMODE
 70
     1
  9
$MAXACTVP
 70
    64
  9
$PINSBASE
 10
0.0
 20
0.0
 30
0.0
  9
$PLIMCHECK
 70
     0
  9
$PEXTMIN
 10
0.0
 20
0.0
 30
0.0
  9
$PEXTMAX
 10
0.0
 20
0.0
 30
0.0
  9
$PLIMMIN
 10
-7.5
 20
-20.0
  9
$PLIMMAX
 10
412.5
 20
277.0
  9
$UNITMODE
 70
     0
  9
$VISRETAIN
 70
     0
  9
$PLINEGEN
 70
     1
  9
$PSLTSCALE
 70
     0
  9
$TREEDEPTH
 70
  3020
  9
$CMLSTYLE
  2
Standard
  9
$CMLJUST
 70
     0
  9
$CMLSCALE
 40
1.0
  9
$PROXYGRAPHICS
 70
     0
  9
$MEASUREMENT
 70
     1
  9
$CELWEIGHT
370
    -1
  9
$ENDCAPS
280
     0
  9
$JOINSTYLE
280
     0
  9
$LWDISPLAY
290
     1
  9
$INSUNITS
 70
     4
  9
$HYPERLINKBASE
  1

  9
$STYLESHEET
  1

  9
$XEDIT
290
     1
  9
$CEPSNTYPE
380
     0
  9
$PSTYLEMODE
290
     1
  9
$FINGERPRINTGUID
  2

  9
$VERSIONGUID
  2

  9
$EXTNAMES
290
     1
  9
$PSVPSCALE
 40
0.0
  9
$OLESTARTUP
290
     0
  9
$SORTENTS
280
   127
  9
$INDEXCTL
280
     0
  9
$HIDETEXT
280
     1
  9
$XCLIPFRAME
290
     0
  9
$HALOGAP
280
     0
  9
$OBSCOLOR
 70
   257
  9
$OBSLTYPE
280
     0
  9
$INTERSECTIONDISPLAY
280
     0
  9
$INTERSECTIONCOLOR
 70
   257
  9
$DIMASSOC
280
     2
  9
$PROJECTNAME
  1

  9
$CAMERADISPLAY
290
     0
  9
$LENSLENGTH
 40
50.0
  9
$CAMERAHEIGHT
 40
0.0
  9
$STEPSPERSEC
 40
2.0
  9
$STEPSIZE
 40
6.0
  9
$3DDWFPREC
 40
2.0
  9
$PSOLWIDTH
 40
0.25
  9
$PSOLHEIGHT
 40
4.0
  9
$LOFTANG1
 40
1.570796326794897
  9
$LOFTANG2
 40
1.570796326794897
  9
$LOFTMAG1
 40
0.0
  9
$LOFTMAG2
 40
0.0
  9
$LOFTPARAM
 70
     7
  9
$LOFTNORMALS
280
     1
  9
$LATITUDE
 40
37.795
  9
$LONGITUDE
 40
-122.394
  9
$NORTHDIRECTION
 40
0.0
  9
$TIMEZONE
 70
 -8000
  9
$LIGHTGLYPHDISPLAY
280
     1
  9
$TILEMODELIGHTSYNCH
280
     1
  9
$SOLIDHIST
280
     1
  9
$SHOWHIST
280
     1
  9
$DWFFRAME
280
     2
  9
$DGNFRAME
280
     2
  9
$REALWORLDSCALE
290
     1
  9
$INTERFERECOLOR
 62
   256
  9
$CSHADOW
280
     0
  9
$SHADOWPLANELOCATION
 40
0.0
  0
ENDSEC
  0
SECTION
  2
CLASSES
  0
CLASS
  1
LWPOLYLINE
  2
AcDbPolyline
  3
ObjectDBX Classes
 90
        0
 91
        1
280
     0
281
     1
  0
CLASS
  1
IMAGE
  2
AcDbRasterImage
  3
ISM
 90
      127
 91
        4
280
     0
281
     1
  0
CLASS
  1
OLE2FRAME
  2
AcDbOle2Frame
  3
ObjectDBX Classes
 90
        0
 91
        1
280
     0
281
     1
  0
CLASS
  1
HATCH
  2
AcDbHatch
  3
ObjectDBX Classes
 90
        0
 91
        1
280
     0
281
     1
  0
CLASS
  1
DICTIONARYVAR
  2
AcDbDictionaryVar
  3
ObjectDBX Classes
 90
        0
 91
        3
280
     0
281
     0
  0
CLASS
  1
RASTERVARIABLES
  2
AcDbRasterVariables
  3
ISM
 90
        0
 91
        3
280
     0
281
     0
  0
CLASS
  1
IMAGEDEF
  2
AcDbRasterImageDef
  3
ISM
 90
        0
 91
        3
280
     0
281
     0
  0
CLASS
  1
IMAGEDEF_REACTOR
  2
AcDbRasterImageDefReactor
  3
ISM
 90
        1
 91
        3
280
     0
281
     0
  0
CLASS
  1
IDBUFFER
  2
AcDbIdBuffer
  3
ObjectDBX Classes
 90
        0
 91
        3
280
     0
281
     0
  0
CLASS
  1
SPATIAL_FILTER
  2
AcDbSpatialFilter
  3
ObjectDBX Classes
 90
        0
 91
        3
280
     0
281
     0
  0
CLASS
  1
XRECORD
  2
AcDbXrecord
  3
ObjectDBX Classes
 90
        0
 91
        1
280
     0
281
     0
  0
CLASS
  1
SORTENTSTABLE
  2
AcDbSortentsTable
  3
ObjectDBX Classes
 90
        0
 91
        3
280
     0
281
     0
  0
CLASS
  1
LAYER_INDEX
  2
AcDbLayerIndex
  3
ObjectDBX Classes
 90
        0
 91
        3
280
     0
281
     0
  0
CLASS
  1
SPATIAL_INDEX
  2
AcDbSpatialIndex
  3
AutoCAD 2000
 90
        0
 91
        3
280
     0
281
     0
  0
CLASS
  1
OBJECT_PTR
  2
CAseDLPNTableRecord
  3
ASE-LPNTableRecord
 90
        1
 91
        3
280
     0
281
     0
  0
CLASS
  1
LAYOUT
  2
AcDbLayout
  3
ObjectDBX Classes
 90
        0
 91
        1
280
     0
281
     0
  0
CLASS
  1
PLOTSETTINGS
  2
AcDbPlotSettings
  3
ObjectDBX Classes
 90
        0
 91
        3
280
     0
281
     0
  0
CLASS
  1
ACDBDICTIONARYWDFLT
  2
AcDbDictionaryWithDefault
  3
ObjectDBX Classes
 90
        0
 91
        3
280
     0
281
     0
  0
CLASS
  1
ACDBPLACEHOLDER
  2
AcDbPlaceHolder
  3
ObjectDBX Classes
 90
        0
 91
        1
280
     0
281
     0
  0
CLASS
  1
SCALE
  2
AcDbScale
  3
ObjectDBX Classes
 90
     1153
 91
        3
280
     0
281
     0
  0
CLASS
  1
MATERIAL
  2
AcDbMaterial
  3
ObjectDBX Classes
 90
     1153
 91
        3
280
     0
281
     0
  0
CLASS
  1
VISUALSTYLE
  2
AcDbVisualStyle
  3
ObjectDBX Classes
 90
     4095
 91
        3
280
     0
281
     0
  0
CLASS
  1
TABLESTYLE
  2
AcDbTableStyle
  3
ObjectDBX Classes
 90
     4095
 91
        3
280
     0
281
     0
  0
CLASS
  1
DIMASSOC
  2
AcDbDimAssoc
  3
"AcDbDimAssoc|Product Desc:     AcDim ARX App For Dimension|Company:          Autodesk, Inc.|WEB Address:      www.autodesk.com"
 90
        0
 91
        3
280
     0
281
     0
  0
CLASS
  1
CELLSTYLEMAP
  2
AcDbCellStyleMap
  3
ObjectDBX Classes
 90
     1152
 91
        3
280
     0
281
     0
  0
CLASS
  1
SUN
  2
AcDbSun
  3
SCENEOE
 90
     1153
 91
        3
280
     0
281
     0
  0
CLASS
  1
MLEADERSTYLE
  2
AcDbMLeaderStyle
  3
ACDB_MLEADERSTYLE_CLASS
 90
     4095
 91
        3
280
     0
281
     0
  0
CLASS
  1
FIELD
  2
AcDbField
  3
ObjectDBX Classes
 90
     1152
 91
        3
280
     0
281
     0
  0
CLASS
  1
FIELDLIST
  2
AcDbFieldList
  3
ObjectDBX Classes
 90
     1152
 91
        3
280
     0
281
     0
  0
CLASS
  1
MULTILEADER
  2
AcDbMLeader
  3
ACDB_MLEADER_CLASS
 90
     1025
 91
        3
280
     0
281
     1
  0
ENDSEC
  0
SECTION
  2
TABLES
  0
TABLE
  2
VPORT
  5
7
330
0
100
AcDbSymbolTable
 70
     1
  0
VPORT
  5
15
330
7
100
AcDbSymbolTableRecord
100
AcDbViewportTableRecord
  2
*ACTIVE
 70
     0
 10
0.0
 20
0.0
 11
1.0
 21
1.0
 12
1141.020135670899
 22
1411.401285469834
 13
0.0
 23
0.0
 14
1.0
 24
1.0
 15
0.0
 25
0.0
 16
0.0
 26
0.0
 36
1.0
 17
-91.02013567089944
 27
73.59871453016603
 37
-46.86809886248109
 40
3029.4
 41
2.338709677419355
 42
50.0
 43
0.0
 44
0.0
 50
0.0
 51
0.0
 71
    16
 72
  2000
 73
     1
 74
     1
 75
     0
 76
     0
 77
     0
 78
     0
281
     0
 65
     1
110
0.0
120
0.0
130
0.0
111
1.0
121
0.0
131
0.0
112
0.0
122
1.0
132
0.0
 79
     0
146
0.0
348
26C
 60
     3
 61
     5
292
     1
282
     1
141
0.0
142
0.0
 63
   256
361
904
  0
ENDTAB
  0
TABLE
  2
LTYPE
  5
4
330
0
100
AcDbSymbolTable
 70
     5
  0
LTYPE
  5
11
330
4
100
AcDbSymbolTableRecord
100
AcDbLinetypeTableRecord
  2
ByBlock
 70
     0
  3

 72
    65
 73
     0
 40
0.0
  0
LTYPE
  5
12
330
4
100
AcDbSymbolTableRecord
100
AcDbLinetypeTableRecord
  2
ByLayer
 70
     0
  3

 72
    65
 73
     0
 40
0.0
  0
LTYPE
  5
13
330
4
100
AcDbSymbolTableRecord
100
AcDbLinetypeTableRecord
  2
Continuous
 70
     0
  3
Solid line
 72
    65
 73
     0
 40
0.0
  0
LTYPE
  5
DAF
330
4
100
AcDbSymbolTableRecord
100
AcDbLinetypeTableRecord
  2
BORDER
 70
     0
  3
Border __  __  . __  __  . __  __  . __  __  . 
 72
    65
 73
     6
 40
44.45
 49
12.7
 74
     0
 49
-6.35
 74
     0
 49
12.7
 74
     0
 49
-6.35
 74
     0
 49
0.0
 74
     0
 49
-6.35
 74
     0
  0
LTYPE
  5
33DD
330
4
100
AcDbSymbolTableRecord
100
AcDbLinetypeTableRecord
  2
HIDDEN
 70
     0
  3
Hidden _ _ _ _ _ _ _ _ _ _ _ _ _ _ _ _ _ _ _ _ 
 72
    65
 73
     2
 40
9.524999999999999
 49
6.35
 74
     0
 49
-3.175
 74
     0
  0
LTYPE
  5
377F
330
4
100
AcDbSymbolTableRecord
100
AcDbLinetypeTableRecord
  2
JIS_02_1.0
 70
     0
  3
HIDDEN01 _ _ _ _ _ _ _ _ _ _ _ _ _ _ _ _ _
 72
    65
 73
     2
 40
2.0
 49
1.0
 74
     0
 49
-1.0
 74
     0
  0
LTYPE
  5
3780
330
4
100
AcDbSymbolTableRecord
100
AcDbLinetypeTableRecord
  2
STYLE_23
 70
     0
  3

 72
    65
 73
     2
 40
3.937007874015748
 49
1.968503937007874
 74
     0
 49
-1.968503937007874
 74
     0
  0
ENDTAB
  0
TABLE
  2
LAYER
  5
2
102
{ACAD_XDICTIONARY
360
2E1
102
}
330
0
100
AcDbSymbolTable
 70
    14
  0
LAYER
  5
14
330
2
100
AcDbSymbolTableRecord
100
AcDbLayerTableRecord
  2
0
 70
     0
 62
     7
  6
Continuous
370
    -3
390
1D
347
266
  0
LAYER
  5
4B
330
2
100
AcDbSymbolTableRecord
100
AcDbLayerTableRecord
  2
TEMPLATE
 70
     0
 62
     7
  6
Continuous
370
    20
390
1D
347
266
  0
LAYER
  5
4C
330
2
100
AcDbSymbolTableRecord
100
AcDbLayerTableRecord
  2
DIM
 70
     0
 62
     3
  6
Continuous
370
    13
390
1D
347
266
  0
LAYER
  5
4D
330
2
100
AcDbSymbolTableRecord
100
AcDbLayerTableRecord
  2
MODEL
 70
     0
 62
     7
  6
Continuous
370
    20
390
1D
347
266
  0
LAYER
  5
D5D
330
2
100
AcDbSymbolTableRecord
100
AcDbLayerTableRecord
  2
Defpoints
 70
     0
 62
     7
  6
Continuous
290
     0
370
    -3
390
1D
347
266
  0
LAYER
  5
DAE
330
2
100
AcDbSymbolTableRecord
100
AcDbLayerTableRecord
  2
BORDER
 70
     0
 62
     4
  6
BORDER
290
     0
370
    20
390
1D
347
266
1001
AcAecLayerStandard
1000

1000

  0
LAYER
  5
157B
330
2
100
AcDbSymbolTableRecord
100
AcDbLayerTableRecord
  2
Layer3
 70
     0
 62
     7
  6
Continuous
370
    -3
390
1D
347
266
  0
LAYER
  5
157F
330
2
100
AcDbSymbolTableRecord
100
AcDbLayerTableRecord
  2
Layer9
 70
     0
 62
     7
  6
Continuous
370
    -3
390
1D
347
266
  0
LAYER
  5
1582
330
2
100
AcDbSymbolTableRecord
100
AcDbLayerTableRecord
  2
Standard
 70
     0
 62
     7
  6
Continuous
370
    -3
390
1D
347
266
  0
LAYER
  5
33DC
330
2
100
AcDbSymbolTableRecord
100
AcDbLayerTableRecord
  2
HIDDEN
 70
     0
 62
     8
  6
HIDDEN
370
    20
390
1D
347
266
1001
AcAecLayerStandard
1000

1000

  0
LAYER
  5
377D
330
2
100
AcDbSymbolTableRecord
100
AcDbLayerTableRecord
  2
notes
 70
     0
 62
     7
  6
Continuous
370
    -3
390
1D
347
266
  0
LAYER
  5
377E
330
2
100
AcDbSymbolTableRecord
100
AcDbLayerTableRecord
  2
ADF70-0001
 70
     0
 62
     7
  6
Continuous
370
    -3
390
1D
347
266
  0
LAYER
  5
3ABC
330
2
100
AcDbSymbolTableRecord
100
AcDbLayerTableRecord
  2
Quote
 70
     0
 62
     5
420
      255
  6
Continuous
370
    -3
390
1D
347
266
  0
LAYER
  5
3ABE
330
2
100
AcDbSymbolTableRecord
100
AcDbLayerTableRecord
  2
Hatch
 70
     0
 62
   253
420
 11382189
  6
Continuous
370
    -3
390
1D
347
266
  0
ENDTAB
  0
TABLE
  2
STYLE
  5
3
330
0
100
AcDbSymbolTable
 70
     2
  0
STYLE
  5
17
330
3
100
AcDbSymbolTableRecord
100
AcDbTextStyleTableRecord
  2
Standard
 70
     0
 40
0.0
 41
1.0
 50
0.0
 71
     0
 42
2.5
  3
txt
  4
BIGFONT.SHX
  0
STYLE
  5
39
330
3
100
AcDbSymbolTableRecord
100
AcDbTextStyleTableRecord
  2
ＭＳ ゴシック
 70
     0
 40
0.0
 41
1.0
 50
0.0
 71
     0
 42
2.5
  3
msgothic.ttc
  4
ＭＳ ゴシック
1001
ACAD
1000
ＭＳ ゴシック
1071
        0
  0
ENDTAB
  0
TABLE
  2
VIEW
  5
5
330
0
100
AcDbSymbolTable
 70
     0
  0
ENDTAB
  0
TABLE
  2
UCS
  5
6
330
0
100
AcDbSymbolTable
 70
     0
  0
ENDTAB
  0
TABLE
  2
APPID
  5
8
330
0
100
AcDbSymbolTable
 70
     8
  0
APPID
  5
16
330
8
100
AcDbSymbolTableRecord
100
AcDbRegAppTableRecord
  2
ACAD
 70
     0
  0
APPID
  5
7AC
330
8
100
AcDbSymbolTableRecord
100
AcDbRegAppTableRecord
  2
AcAecLayerStandard
 70
     0
  0
APPID
  5
F3A
330
8
100
AcDbSymbolTableRecord
100
AcDbRegAppTableRecord
  2
ACAD_MLEADERVER
 70
     0
  0
APPID
  5
378F
330
8
100
AcDbSymbolTableRecord
100
AcDbRegAppTableRecord
  2
ACAD_DSTYLE_DIMJAG
 70
     0
  0
APPID
  5
3790
330
8
100
AcDbSymbolTableRecord
100
AcDbRegAppTableRecord
  2
ACAD_DSTYLE_DIMTALN
 70
     0
  0
APPID
  5
3791
330
8
100
AcDbSymbolTableRecord
100
AcDbRegAppTableRecord
  2
GradientColor1ACI
 70
     0
  0
APPID
  5
3792
330
8
100
AcDbSymbolTableRecord
100
AcDbRegAppTableRecord
  2
GradientColor2ACI
 70
     0
  0
APPID
  5
4687
330
8
100
AcDbSymbolTableRecord
100
AcDbRegAppTableRecord
  2
PLOTTRANSPARENCY
 70
     0
  0
ENDTAB
  0
TABLE
  2
DIMSTYLE
  5
9
330
0
100
AcDbSymbolTable
 70
     3
100
AcDbDimStyleTable
  0
DIMSTYLE
105
18
330
9
100
AcDbSymbolTableRecord
100
AcDbDimStyleTableRecord
  2
Standard
 70
     0
178
     0
340
17
  0
DIMSTYLE
105
57
102
{ACAD_REACTORS
330
4573
330
4582
330
4591
330
45A0
330
45B3
330
45C3
330
45D2
330
45F0
330
4675
102
}
330
9
100
AcDbSymbolTableRecord
100
AcDbDimStyleTableRecord
  2
tfrom線あり
 70
     0
  3
<>
  4
[]
 41
10.0
 42
30.0
 43
0.9999999999999999
 44
0.0
 73
     0
 74
     0
 77
     1
 78
    11
140
24.0
141
0.0
143
1.0
147
20.0
171
     1
174
     1
178
     0
179
     2
271
     0
272
     1
276
     2
284
    11
285
    11
286
    11
289
     0
340
39
341
4E
342
4E
  0
DIMSTYLE
105
378E
330
9
100
AcDbSymbolTableRecord
100
AcDbDimStyleTableRecord
  2
ISO-25
 70
     0
 41
6.0
 42
0.645
 43
3.75
 44
1.25
 49
25.0
290
     1
 73
     0
 74
     0
 77
     1
 78
     8
140
10.0
141
0.0
143
0.03937007874016
147
2.0
171
     3
172
     1
176
   256
178
     0
271
     0
272
     0
274
     3
278
    44
283
     0
284
     8
340
17
346
377F
347
377F
1001
ACAD_DSTYLE_DIMJAG
1070
   388
1040
1.5
1001
ACAD_DSTYLE_DIMTALN
1070
   392
1070
     0
  0
ENDTAB
  0
TABLE
  2
BLOCK_RECORD
  5
1
330
0
100
AcDbSymbolTable
 70
    63
  0
BLOCK_RECORD
  5
A
102
{ACAD_XDICTIONARY
360
374D
102
}
330
1
100
AcDbSymbolTableRecord
100
AcDbBlockTableRecord
  2
*MODEL_SPACE
340
20
 70
     0
280
     1
281
     0
  0
BLOCK_RECORD
  5
B
330
1
100
AcDbSymbolTableRecord
100
AcDbBlockTableRecord
  2
*PAPER_SPACE
340
21
 70
     0
280
     1
281
     0
  0
BLOCK_RECORD
  5
4E
330
1
100
AcDbSymbolTableRecord
100
AcDbBlockTableRecord
  2
_DOT
340
0
102
{BLKREFS
331
373A
331
373B
331
3746
331
3747
331
37F9
331
37FA
331
3808
331
3809
331
3817
331
3818
331
3826
331
3827
331
3837
331
3838
331
3844
331
3845
331
3865
331
3866
331
3874
331
3875
331
3881
331
3882
331
388E
331
388F
331
389B
331
389C
331
38AA
331
38AB
331
38B9
331
38BA
331
38C8
331
38C9
331
38D8
331
38D9
331
39A6
331
39A7
331
39B2
331
39B3
331
39BE
331
39BF
331
39CA
331
39CB
331
39D6
331
39D7
331
39E2
331
39E3
331
39EE
331
39EF
331
39FA
331
39FB
331
3A06
331
3A07
331
3A12
331
3A13
331
3A1E
331
3A1F
331
3A2A
331
3A2B
331
3A36
331
3A37
331
3A42
331
3A43
331
3A4E
331
3A4F
331
3A9F
331
3AA0
331
3AAE
331
3AAF
331
4521
331
4522
331
4530
331
4531
331
455F
331
4560
331
457C
331
457D
331
458B
331
458C
331
459A
331
459B
331
45A9
331
45AA
331
45BC
331
45BD
331
45CC
331
45CD
331
45DB
331
45DC
331
45EA
331
45EB
331
45F9
331
45FA
331
467E
331
467F
102
}
 70
     0
280
     1
281
     0
  0
BLOCK_RECORD
  5
68D
330
1
100
AcDbSymbolTableRecord
100
AcDbBlockTableRecord
  2
block 2
340
0
102
{BLKREFS
331
68C
102
}
 70
     0
280
     1
281
     0
  0
BLOCK_RECORD
  5
199A
330
1
100
AcDbSymbolTableRecord
100
AcDbBlockTableRecord
  2
SEANNOT_GROUP
340
0
102
{BLKREFS
331
28CA
102
}
 70
     0
280
     1
281
     0
  0
BLOCK_RECORD
  5
1F2F
330
1
100
AcDbSymbolTableRecord
100
AcDbBlockTableRecord
  2
SEANNOT_GROUP1
340
0
102
{BLKREFS
331
2B9B
102
}
 70
     0
280
     1
281
     0
  0
BLOCK_RECORD
  5
3734
330
1
100
AcDbSymbolTableRecord
100
AcDbBlockTableRecord
  2
*D4
340
0
 70
     0
280
     1
281
     0
  0
BLOCK_RECORD
  5
3740
330
1
100
AcDbSymbolTableRecord
100
AcDbBlockTableRecord
  2
*D5
340
0
 70
     0
280
     1
281
     0
  0
BLOCK_RECORD
  5
37F4
330
1
100
AcDbSymbolTableRecord
100
AcDbBlockTableRecord
  2
*D6
340
0
 70
     0
280
     1
281
     0
  0
BLOCK_RECORD
  5
3803
330
1
100
AcDbSymbolTableRecord
100
AcDbBlockTableRecord
  2
*D7
340
0
 70
     0
280
     1
281
     0
  0
BLOCK_RECORD
  5
3812
330
1
100
AcDbSymbolTableRecord
100
AcDbBlockTableRecord
  2
*D8
340
0
 70
     0
280
     1
281
     0
  0
BLOCK_RECORD
  5
3821
330
1
100
AcDbSymbolTableRecord
100
AcDbBlockTableRecord
  2
*D9
340
0
 70
     0
280
     1
281
     0
  0
BLOCK_RECORD
  5
3832
330
1
100
AcDbSymbolTableRecord
100
AcDbBlockTableRecord
  2
*D10
340
0
 70
     0
280
     1
281
     0
  0
BLOCK_RECORD
  5
383F
330
1
100
AcDbSymbolTableRecord
100
AcDbBlockTableRecord
  2
*D11
340
0
 70
     0
280
     1
281
     0
  0
BLOCK_RECORD
  5
3860
330
1
100
AcDbSymbolTableRecord
100
AcDbBlockTableRecord
  2
*D12
340
0
 70
     0
280
     1
281
     0
  0
BLOCK_RECORD
  5
386F
330
1
100
AcDbSymbolTableRecord
100
AcDbBlockTableRecord
  2
*D13
340
0
 70
     0
280
     1
281
     0
  0
BLOCK_RECORD
  5
387C
330
1
100
AcDbSymbolTableRecord
100
AcDbBlockTableRecord
  2
*D14
340
0
 70
     0
280
     1
281
     0
  0
BLOCK_RECORD
  5
3889
330
1
100
AcDbSymbolTableRecord
100
AcDbBlockTableRecord
  2
*D15
340
0
 70
     0
280
     1
281
     0
  0
BLOCK_RECORD
  5
3896
330
1
100
AcDbSymbolTableRecord
100
AcDbBlockTableRecord
  2
*D16
340
0
 70
     0
280
     1
281
     0
  0
BLOCK_RECORD
  5
38A5
330
1
100
AcDbSymbolTableRecord
100
AcDbBlockTableRecord
  2
*D17
340
0
 70
     0
280
     1
281
     0
  0
BLOCK_RECORD
  5
38B4
330
1
100
AcDbSymbolTableRecord
100
AcDbBlockTableRecord
  2
*D18
340
0
 70
     0
280
     1
281
     0
  0
BLOCK_RECORD
  5
38C3
330
1
100
AcDbSymbolTableRecord
100
AcDbBlockTableRecord
  2
*D19
340
0
 70
     0
280
     1
281
     0
  0
BLOCK_RECORD
  5
38D3
330
1
100
AcDbSymbolTableRecord
100
AcDbBlockTableRecord
  2
*D20
340
0
 70
     0
280
     1
281
     0
  0
BLOCK_RECORD
  5
39A0
330
1
100
AcDbSymbolTableRecord
100
AcDbBlockTableRecord
  2
*D21
340
0
 70
     0
280
     1
281
     0
  0
BLOCK_RECORD
  5
39AC
330
1
100
AcDbSymbolTableRecord
100
AcDbBlockTableRecord
  2
*D22
340
0
 70
     0
280
     1
281
     0
  0
BLOCK_RECORD
  5
39B8
330
1
100
AcDbSymbolTableRecord
100
AcDbBlockTableRecord
  2
*D23
340
0
 70
     0
280
     1
281
     0
  0
BLOCK_RECORD
  5
39C4
330
1
100
AcDbSymbolTableRecord
100
AcDbBlockTableRecord
  2
*D24
340
0
 70
     0
280
     1
281
     0
  0
BLOCK_RECORD
  5
39D0
330
1
100
AcDbSymbolTableRecord
100
AcDbBlockTableRecord
  2
*D25
340
0
 70
     0
280
     1
281
     0
  0
BLOCK_RECORD
  5
39DC
330
1
100
AcDbSymbolTableRecord
100
AcDbBlockTableRecord
  2
*D26
340
0
 70
     0
280
     1
281
     0
  0
BLOCK_RECORD
  5
39E8
330
1
100
AcDbSymbolTableRecord
100
AcDbBlockTableRecord
  2
*D27
340
0
 70
     0
280
     1
281
     0
  0
BLOCK_RECORD
  5
39F4
330
1
100
AcDbSymbolTableRecord
100
AcDbBlockTableRecord
  2
*D28
340
0
 70
     0
280
     1
281
     0
  0
BLOCK_RECORD
  5
3A00
330
1
100
AcDbSymbolTableRecord
100
AcDbBlockTableRecord
  2
*D29
340
0
 70
     0
280
     1
281
     0
  0
BLOCK_RECORD
  5
3A0C
330
1
100
AcDbSymbolTableRecord
100
AcDbBlockTableRecord
  2
*D30
340
0
 70
     0
280
     1
281
     0
  0
BLOCK_RECORD
  5
3A18
330
1
100
AcDbSymbolTableRecord
100
AcDbBlockTableRecord
  2
*D31
340
0
 70
     0
280
     1
281
     0
  0
BLOCK_RECORD
  5
3A24
330
1
100
AcDbSymbolTableRecord
100
AcDbBlockTableRecord
  2
*D32
340
0
 70
     0
280
     1
281
     0
  0
BLOCK_RECORD
  5
3A30
330
1
100
AcDbSymbolTableRecord
100
AcDbBlockTableRecord
  2
*D33
340
0
 70
     0
280
     1
281
     0
  0
BLOCK_RECORD
  5
3A3C
330
1
100
AcDbSymbolTableRecord
100
AcDbBlockTableRecord
  2
*D34
340
0
 70
     0
280
     1
281
     0
  0
BLOCK_RECORD
  5
3A48
330
1
100
AcDbSymbolTableRecord
100
AcDbBlockTableRecord
  2
*D35
340
0
 70
     0
280
     1
281
     0
  0
BLOCK_RECORD
  5
3A99
330
1
100
AcDbSymbolTableRecord
100
AcDbBlockTableRecord
  2
*D36
340
0
 70
     0
280
     1
281
     0
  0
BLOCK_RECORD
  5
3AA8
330
1
100
AcDbSymbolTableRecord
100
AcDbBlockTableRecord
  2
*D37
340
0
 70
     0
280
     1
281
     0
  0
BLOCK_RECORD
  5
3AC8
330
1
100
AcDbSymbolTableRecord
100
AcDbBlockTableRecord
  2
*D38
340
0
 70
     0
280
     1
281
     0
  0
BLOCK_RECORD
  5
3B3A
330
1
100
AcDbSymbolTableRecord
100
AcDbBlockTableRecord
  2
*D39
340
0
 70
     0
280
     1
281
     0
  0
BLOCK_RECORD
  5
3B48
330
1
100
AcDbSymbolTableRecord
100
AcDbBlockTableRecord
  2
*D40
340
0
 70
     0
280
     1
281
     0
  0
BLOCK_RECORD
  5
3B56
330
1
100
AcDbSymbolTableRecord
100
AcDbBlockTableRecord
  2
*D41
340
0
 70
     0
280
     1
281
     0
  0
BLOCK_RECORD
  5
3BFE
330
1
100
AcDbSymbolTableRecord
100
AcDbBlockTableRecord
  2
*D42
340
0
 70
     0
280
     1
281
     0
  0
BLOCK_RECORD
  5
3C0C
330
1
100
AcDbSymbolTableRecord
100
AcDbBlockTableRecord
  2
*D43
340
0
 70
     0
280
     1
281
     0
  0
BLOCK_RECORD
  5
3D21
330
1
100
AcDbSymbolTableRecord
100
AcDbBlockTableRecord
  2
*D44
340
0
 70
     0
280
     1
281
     0
  0
BLOCK_RECORD
  5
3D2E
330
1
100
AcDbSymbolTableRecord
100
AcDbBlockTableRecord
  2
*D45
340
0
 70
     0
280
     1
281
     0
  0
BLOCK_RECORD
  5
3D3B
330
1
100
AcDbSymbolTableRecord
100
AcDbBlockTableRecord
  2
*D46
340
0
 70
     0
280
     1
281
     0
  0
BLOCK_RECORD
  5
3D48
330
1
100
AcDbSymbolTableRecord
100
AcDbBlockTableRecord
  2
*D47
340
0
 70
     0
280
     1
281
     0
  0
BLOCK_RECORD
  5
3D55
330
1
100
AcDbSymbolTableRecord
100
AcDbBlockTableRecord
  2
*D48
340
0
 70
     0
280
     1
281
     0
  0
BLOCK_RECORD
  5
3D62
330
1
100
AcDbSymbolTableRecord
100
AcDbBlockTableRecord
  2
*D49
340
0
 70
     0
280
     1
281
     0
  0
BLOCK_RECORD
  5
451A
330
1
100
AcDbSymbolTableRecord
100
AcDbBlockTableRecord
  2
*D50
340
0
 70
     0
280
     1
281
     0
  0
BLOCK_RECORD
  5
452A
330
1
100
AcDbSymbolTableRecord
100
AcDbBlockTableRecord
  2
*D51
340
0
 70
     0
280
     1
281
     0
  0
BLOCK_RECORD
  5
4558
330
1
100
AcDbSymbolTableRecord
100
AcDbBlockTableRecord
  2
*D52
340
0
 70
     0
280
     1
281
     0
  0
BLOCK_RECORD
  5
4576
330
1
100
AcDbSymbolTableRecord
100
AcDbBlockTableRecord
  2
*D53
340
0
 70
     0
280
     1
281
     0
  0
BLOCK_RECORD
  5
4585
330
1
100
AcDbSymbolTableRecord
100
AcDbBlockTableRecord
  2
*D54
340
0
 70
     0
280
     1
281
     0
  0
BLOCK_RECORD
  5
4594
330
1
100
AcDbSymbolTableRecord
100
AcDbBlockTableRecord
  2
*D55
340
0
 70
     0
280
     1
281
     0
  0
BLOCK_RECORD
  5
45A3
330
1
100
AcDbSymbolTableRecord
100
AcDbBlockTableRecord
  2
*D56
340
0
 70
     0
280
     1
281
     0
  0
BLOCK_RECORD
  5
45B6
330
1
100
AcDbSymbolTableRecord
100
AcDbBlockTableRecord
  2
*D57
340
0
 70
     0
280
     1
281
     0
  0
BLOCK_RECORD
  5
45C6
330
1
100
AcDbSymbolTableRecord
100
AcDbBlockTableRecord
  2
*D58
340
0
 70
     0
280
     1
281
     0
  0
BLOCK_RECORD
  5
45D5
330
1
100
AcDbSymbolTableRecord
100
AcDbBlockTableRecord
  2
*D59
340
0
 70
     0
280
     1
281
     0
  0
BLOCK_RECORD
  5
45E4
330
1
100
AcDbSymbolTableRecord
100
AcDbBlockTableRecord
  2
*D60
340
0
 70
     0
280
     1
281
     0
  0
BLOCK_RECORD
  5
45F3
330
1
100
AcDbSymbolTableRecord
100
AcDbBlockTableRecord
  2
*D61
340
0
 70
     0
280
     1
281
     0
  0
BLOCK_RECORD
  5
4678
330
1
100
AcDbSymbolTableRecord
100
AcDbBlockTableRecord
  2
*D62
340
0
 70
     0
280
     1
281
     0
  0
ENDTAB
  0
ENDSEC
  0
SECTION
  2
BLOCKS
  0
BLOCK
  5
D
330
A
100
AcDbEntity
  8
0
390
1D
100
AcDbBlockBegin
  2
*MODEL_SPACE
 70
     0
 10
0.0
 20
0.0
 30
0.0
  3
*MODEL_SPACE
  1
*MODEL_SPACE
  0
ENDBLK
  5
E
330
A
100
AcDbEntity
  8
0
390
1D
100
AcDbBlockEnd
  0
BLOCK
  5
F
330
B
100
AcDbEntity
 67
     1
  8
0
390
1D
100
AcDbBlockBegin
  2
*PAPER_SPACE
 70
     0
 10
0.0
 20
0.0
 30
0.0
  3
*PAPER_SPACE
  1
*PAPER_SPACE
  0
ENDBLK
  5
10
330
B
100
AcDbEntity
 67
     1
  8
0
390
1D
100
AcDbBlockEnd
  0
BLOCK
  5
EC4
330
4E
100
AcDbEntity
  8
0
390
1D
100
AcDbBlockBegin
  2
_DOT
 70
     0
 10
0.0
 20
0.0
 30
0.0
  3
_DOT
  1
_DOT
  0
POLYLINE
  5
EC6
330
4E
100
AcDbEntity
  8
0
  6
ByBlock
 62
     0
370
    -2
390
1D
100
AcDb2dPolyline
 66
     1
 10
0.0
 20
0.0
 30
0.0
 70
     1
 40
0.5
 41
0.5
  0
VERTEX
  5
EC7
330
EC6
100
AcDbEntity
  8
0
  6
ByBlock
 62
     0
370
    -2
390
1D
100
AcDbVertex
100
AcDb2dVertex
 10
-0.25
 20
0.0
 30
0.0
 42
1.0
  0
VERTEX
  5
EC8
330
EC6
100
AcDbEntity
  8
0
  6
ByBlock
 62
     0
370
    -2
390
1D
100
AcDbVertex
100
AcDb2dVertex
 10
0.25
 20
0.0
 30
0.0
 42
1.0
  0
SEQEND
  5
EC9
330
EC6
100
AcDbEntity
  8
0
390
1D
  0
LINE
  5
ECA
330
4E
100
AcDbEntity
  8
0
  6
ByBlock
 62
     0
370
    -2
390
1D
100
AcDbLine
 10
-0.5
 20
0.0
 30
0.0
 11
-1.0
 21
0.0
 31
0.0
  0
ENDBLK
  5
ECB
330
4E
100
AcDbEntity
  8
0
390
1D
100
AcDbBlockEnd
  0
BLOCK
  5
68E
330
68D
100
AcDbEntity
  8
0
100
AcDbBlockBegin
  2
block 2
 70
     0
 10
0.0
 20
0.0
 30
0.0
  3
block 2
  1
block 2
  0
ENDBLK
  5
6B0
330
68D
100
AcDbEntity
  8
0
100
AcDbBlockEnd
  0
BLOCK
  5
199B
330
199A
100
AcDbEntity
  8
0
100
AcDbBlockBegin
  2
SEANNOT_GROUP
 70
     0
 10
0.0
 20
0.0
 30
0.0
  3
SEANNOT_GROUP
  1
SEANNOT_GROUP
  0
ENDBLK
  5
199C
330
199A
100
AcDbEntity
  8
0
100
AcDbBlockEnd
  0
BLOCK
  5
1F30
330
1F2F
100
AcDbEntity
  8
0
100
AcDbBlockBegin
  2
SEANNOT_GROUP1
 70
     0
 10
0.0
 20
0.0
 30
0.0
  3
SEANNOT_GROUP1
  1
SEANNOT_GROUP1
  0
ENDBLK
  5
1F31
330
1F2F
100
AcDbEntity
  8
0
100
AcDbBlockEnd
  0
BLOCK
  5
3735
330
3734
100
AcDbEntity
  8
0
100
AcDbBlockBegin
  2
*D4
 70
     1
 10
0.0
 20
0.0
 30
0.0
  3
*D4
  1

  0
LINE
  5
3737
330
3734
100
AcDbEntity
  8
DIM
 62
     0
370
    -2
100
AcDbLine
 10
792.5747720364734
 20
1624.375151854103
 30
0.0
 11
792.5747720364734
 21
1945.106376948328
 31
0.0
  0
LINE
  5
3738
330
3734
100
AcDbEntity
  8
DIM
 62
     0
370
    -2
100
AcDbLine
 10
1363.464741641327
 20
1624.375151854103
 30
0.0
 11
1363.464741641327
 21
1945.106376948328
 31
0.0
  0
LINE
  5
3739
330
3734
100
AcDbEntity
  8
DIM
 62
     0
370
    -2
100
AcDbLine
 10
802.5747720364734
 20
1945.106376948328
 30
0.0
 11
1353.464741641327
 21
1945.106376948328
 31
0.0
  0
INSERT
  5
373A
330
3734
100
AcDbEntity
  8
DIM
 62
     0
370
    -2
100
AcDbBlockReference
  2
_DOT
 10
792.5747720364734
 20
1945.106376948328
 30
0.0
 41
10.0
 42
10.0
 43
10.0
 50
180.0
  0
INSERT
  5
373B
330
3734
100
AcDbEntity
  8
DIM
 62
     0
370
    -2
100
AcDbBlockReference
  2
_DOT
 10
1363.464741641327
 20
1945.106376948328
 30
0.0
 41
10.0
 42
10.0
 43
10.0
  0
MTEXT
  5
373C
330
3734
100
AcDbEntity
  8
DIM
 62
     0
100
AcDbMText
 10
1078.019756838897
 20
1977.106376948328
 30
0.0
 40
24.0
 41
0.0
 46
0.0
 71
     5
 72
     1
  1
\A1;571
  7
ＭＳ ゴシック
 73
     1
 44
1.0
  0
POINT
  5
373D
330
3734
100
AcDbEntity
  8
Defpoints
 62
     0
100
AcDbPoint
 10
792.5747720364734
 20
1594.375151854103
 30
0.0
  0
POINT
  5
373E
330
3734
100
AcDbEntity
  8
Defpoints
 62
     0
100
AcDbPoint
 10
1363.464741641327
 20
1594.375151854103
 30
0.0
  0
POINT
  5
373F
330
3734
100
AcDbEntity
  8
Defpoints
 62
     0
100
AcDbPoint
 10
1363.464741641327
 20
1945.106376948328
 30
0.0
  0
ENDBLK
  5
3736
330
3734
100
AcDbEntity
  8
0
100
AcDbBlockEnd
  0
BLOCK
  5
3741
330
3740
100
AcDbEntity
  8
0
100
AcDbBlockBegin
  2
*D5
 70
     1
 10
0.0
 20
0.0
 30
0.0
  3
*D5
  1

  0
LINE
  5
3743
330
3740
100
AcDbEntity
  8
DIM
 62
     0
370
    -2
100
AcDbLine
 10
888.5851999139768
 20
1564.375151854103
 30
0.0
 11
888.5851999139768
 21
1160.881823708206
 31
0.0
  0
LINE
  5
3744
330
3740
100
AcDbEntity
  8
DIM
 62
     0
370
    -2
100
AcDbLine
 10
1267.454313763824
 20
1564.375151854103
 30
0.0
 11
1267.454313763824
 21
1160.881823708206
 31
0.0
  0
LINE
  5
3745
330
3740
100
AcDbEntity
  8
DIM
 62
     0
370
    -2
100
AcDbLine
 10
898.5851999139768
 20
1160.881823708206
 30
0.0
 11
1257.454313763824
 21
1160.881823708206
 31
0.0
  0
INSERT
  5
3746
330
3740
100
AcDbEntity
  8
DIM
 62
     0
370
    -2
100
AcDbBlockReference
  2
_DOT
 10
888.5851999139768
 20
1160.881823708206
 30
0.0
 41
10.0
 42
10.0
 43
10.0
 50
180.0
  0
INSERT
  5
3747
330
3740
100
AcDbEntity
  8
DIM
 62
     0
370
    -2
100
AcDbBlockReference
  2
_DOT
 10
1267.454313763824
 20
1160.881823708206
 30
0.0
 41
10.0
 42
10.0
 43
10.0
  0
MTEXT
  5
3748
330
3740
100
AcDbEntity
  8
DIM
 62
     0
100
AcDbMText
 10
1078.0197568389
 20
1192.881823708206
 30
0.0
 40
24.0
 41
0.0
 46
0.0
 71
     5
 72
     1
  1
\A1;379
  7
ＭＳ ゴシック
 73
     1
 44
1.0
  0
POINT
  5
3749
330
3740
100
AcDbEntity
  8
Defpoints
 62
     0
100
AcDbPoint
 10
888.5851999139768
 20
1594.375151854103
 30
0.0
  0
POINT
  5
374A
330
3740
100
AcDbEntity
  8
Defpoints
 62
     0
100
AcDbPoint
 10
1267.454313763824
 20
1594.375151854103
 30
0.0
  0
POINT
  5
374B
330
3740
100
AcDbEntity
  8
Defpoints
 62
     0
100
AcDbPoint
 10
1267.454313763824
 20
1160.881823708206
 30
0.0
  0
ENDBLK
  5
3742
330
3740
100
AcDbEntity
  8
0
100
AcDbBlockEnd
  0
BLOCK
  5
37F5
330
37F4
100
AcDbEntity
  8
0
100
AcDbBlockBegin
  2
*D6
 70
     1
 10
0.0
 20
0.0
 30
0.0
  3
*D6
  1

  0
LINE
  5
37F6
330
37F4
100
AcDbEntity
  8
DIM
 62
     0
370
    -2
100
AcDbLine
 10
1378.586132818006
 20
1356.331565936492
 30
0.0
 11
1378.586132818006
 21
1292.147315771295
 31
0.0
  0
LINE
  5
37F7
330
37F4
100
AcDbEntity
  8
DIM
 62
     0
370
    -2
100
AcDbLine
 10
1498.590535145892
 20
1359.997850152935
 30
0.0
 11
1498.590535145892
 21
1292.147315771295
 31
0.0
  0
LINE
  5
37F8
330
37F4
100
AcDbEntity
  8
DIM
 62
     0
370
    -2
100
AcDbLine
 10
1388.586132818006
 20
1292.147315771295
 30
0.0
 11
1488.590535145892
 21
1292.147315771295
 31
0.0
  0
INSERT
  5
37F9
330
37F4
100
AcDbEntity
  8
DIM
 62
     0
370
    -2
100
AcDbBlockReference
  2
_DOT
 10
1378.586132818006
 20
1292.147315771295
 30
0.0
 41
10.0
 42
10.0
 43
10.0
 50
180.0
  0
INSERT
  5
37FA
330
37F4
100
AcDbEntity
  8
DIM
 62
     0
370
    -2
100
AcDbBlockReference
  2
_DOT
 10
1498.590535145892
 20
1292.147315771295
 30
0.0
 41
10.0
 42
10.0
 43
10.0
  0
MTEXT
  5
37FB
330
37F4
100
AcDbEntity
  8
DIM
 62
     0
100
AcDbMText
 10
1438.588333981949
 20
1324.151817459428
 30
0.0
 40
24.0
 41
0.0
 46
0.0
 71
     5
 72
     1
  1
\A1;120
  7
ＭＳ ゴシック
 73
     1
 44
1.0
  0
POINT
  5
37FC
330
37F4
100
AcDbEntity
  8
Defpoints
 62
     0
100
AcDbPoint
 10
1378.586132818006
 20
1386.331565936492
 30
0.0
  0
POINT
  5
37FD
330
37F4
100
AcDbEntity
  8
Defpoints
 62
     0
100
AcDbPoint
 10
1498.590535145892
 20
1389.997850152935
 30
0.0
  0
POINT
  5
37FE
330
37F4
100
AcDbEntity
  8
Defpoints
 62
     0
100
AcDbPoint
 10
1498.590535145892
 20
1292.147315771295
 30
0.0
  0
ENDBLK
  5
37FF
330
37F4
100
AcDbEntity
  8
0
100
AcDbBlockEnd
  0
BLOCK
  5
3804
330
3803
100
AcDbEntity
  8
0
100
AcDbBlockBegin
  2
*D7
 70
     1
 10
0.0
 20
0.0
 30
0.0
  3
*D7
  1

  0
LINE
  5
3805
330
3803
100
AcDbEntity
  8
DIM
 62
     0
370
    -2
100
AcDbLine
 10
1352.133536229466
 20
1850.999534706263
 30
0.0
 11
1295.935993693706
 21
1850.999534706263
 31
0.0
  0
LINE
  5
3806
330
3803
100
AcDbEntity
  8
DIM
 62
     0
370
    -2
100
AcDbLine
 10
1352.133536229466
 20
1785.976736549525
 30
0.0
 11
1295.935993693706
 21
1785.976736549525
 31
0.0
  0
LINE
  5
3807
330
3803
100
AcDbEntity
  8
DIM
 62
     0
370
    -2
100
AcDbLine
 10
1295.935993693706
 20
1840.999534706263
 30
0.0
 11
1295.935993693706
 21
1795.976736549525
 31
0.0
  0
INSERT
  5
3808
330
3803
100
AcDbEntity
  8
DIM
 62
     0
370
    -2
100
AcDbBlockReference
  2
_DOT
 10
1295.935993693706
 20
1850.999534706263
 30
0.0
 41
10.0
 42
10.0
 43
10.0
 50
90.0
  0
INSERT
  5
3809
330
3803
100
AcDbEntity
  8
DIM
 62
     0
370
    -2
100
AcDbBlockReference
  2
_DOT
 10
1295.935993693706
 20
1785.976736549525
 30
0.0
 41
10.0
 42
10.0
 43
10.0
 50
270.0
  0
MTEXT
  5
380A
330
3803
100
AcDbEntity
  8
DIM
 62
     0
100
AcDbMText
 10
1263.931492005573
 20
1818.488135627894
 30
0.0
 40
24.0
 41
0.0
 46
0.0
 71
     5
 72
     1
  1
\A1;65
  7
ＭＳ ゴシック
 11
0.0
 21
1.0
 31
0.0
 73
     1
 44
1.0
  0
POINT
  5
380B
330
3803
100
AcDbEntity
  8
Defpoints
 62
     0
100
AcDbPoint
 10
1382.133536229466
 20
1850.999534706263
 30
0.0
  0
POINT
  5
380C
330
3803
100
AcDbEntity
  8
Defpoints
 62
     0
100
AcDbPoint
 10
1382.133536229466
 20
1785.976736549525
 30
0.0
  0
POINT
  5
380D
330
3803
100
AcDbEntity
  8
Defpoints
 62
     0
100
AcDbPoint
 10
1295.935993693706
 20
1785.976736549525
 30
0.0
  0
ENDBLK
  5
380E
330
3803
100
AcDbEntity
  8
0
100
AcDbBlockEnd
  0
BLOCK
  5
3813
330
3812
100
AcDbEntity
  8
0
100
AcDbBlockBegin
  2
*D8
 70
     1
 10
0.0
 20
0.0
 30
0.0
  3
*D8
  1

  0
LINE
  5
3814
330
3812
100
AcDbEntity
  8
DIM
 62
     0
370
    -2
100
AcDbLine
 10
1378.893813859338
 20
1642.144935089953
 30
0.0
 11
1213.207306419049
 21
1642.144935089953
 31
0.0
  0
LINE
  5
3815
330
3812
100
AcDbEntity
  8
DIM
 62
     0
370
    -2
100
AcDbLine
 10
1473.978358989568
 20
1642.144935089953
 30
0.0
 11
1388.893813859338
 21
1642.144935089953
 31
0.0
  0
LINE
  5
3816
330
3812
100
AcDbEntity
  8
DIM
 62
     0
370
    -2
100
AcDbLine
 10
1388.893813859338
 20
1642.144935089953
 30
0.0
 11
1398.893813859338
 21
1642.144935089953
 31
0.0
  0
INSERT
  5
3817
330
3812
100
AcDbEntity
  8
DIM
 62
     0
370
    -2
100
AcDbBlockReference
  2
_DOT
 10
1483.978358989568
 20
1642.144935089953
 30
0.0
 41
10.0
 42
10.0
 43
10.0
  0
INSERT
  5
3818
330
3812
100
AcDbEntity
  8
DIM
 62
     0
370
    -2
100
AcDbBlockReference
  2
_DOT
 10
1378.893813859338
 20
1642.144935089953
 30
0.0
 41
10.0
 42
10.0
 43
10.0
 50
180.0
  0
MTEXT
  5
3819
330
3812
100
AcDbEntity
  8
DIM
 62
     0
100
AcDbMText
 10
1286.050560139194
 20
1675.848824048313
 30
0.0
 40
24.0
 41
0.0
 46
0.0
 71
     5
 72
     1
  1
\A1;深さ105
  7
ＭＳ ゴシック
 73
     1
 44
1.0
  0
POINT
  5
381A
330
3812
100
AcDbEntity
  8
Defpoints
 62
     0
100
AcDbPoint
 10
1483.978358989568
 20
1677.386392378222
 30
0.0
  0
POINT
  5
381B
330
3812
100
AcDbEntity
  8
Defpoints
 62
     0
100
AcDbPoint
 10
1378.893813859338
 20
1647.510187052286
 30
0.0
  0
POINT
  5
381C
330
3812
100
AcDbEntity
  8
Defpoints
 62
     0
100
AcDbPoint
 10
1378.893813859338
 20
1642.144935089953
 30
0.0
  0
ENDBLK
  5
381D
330
3812
100
AcDbEntity
  8
0
100
AcDbBlockEnd
  0
BLOCK
  5
3822
330
3821
100
AcDbEntity
  8
0
100
AcDbBlockBegin
  2
*D9
 70
     1
 10
0.0
 20
0.0
 30
0.0
  3
*D9
  1

  0
LINE
  5
3823
330
3821
100
AcDbEntity
  8
DIM
 62
     0
370
    -2
100
AcDbLine
 10
1526.133457125069
 20
1850.865237288559
 30
0.0
 11
1644.496599067429
 21
1850.865237288559
 31
0.0
  0
LINE
  5
3824
330
3821
100
AcDbEntity
  8
DIM
 62
     0
370
    -2
100
AcDbLine
 10
1562.886041470857
 20
1640.821795248814
 30
0.0
 11
1644.496599067429
 21
1640.821795248814
 31
0.0
  0
LINE
  5
3825
330
3821
100
AcDbEntity
  8
DIM
 62
     0
370
    -2
100
AcDbLine
 10
1644.496599067429
 20
1840.865237288559
 30
0.0
 11
1644.496599067429
 21
1650.821795248814
 31
0.0
  0
INSERT
  5
3826
330
3821
100
AcDbEntity
  8
DIM
 62
     0
370
    -2
100
AcDbBlockReference
  2
_DOT
 10
1644.496599067429
 20
1850.865237288559
 30
0.0
 41
10.0
 42
10.0
 43
10.0
 50
90.0
  0
INSERT
  5
3827
330
3821
100
AcDbEntity
  8
DIM
 62
     0
370
    -2
100
AcDbBlockReference
  2
_DOT
 10
1644.496599067429
 20
1640.821795248814
 30
0.0
 41
10.0
 42
10.0
 43
10.0
 50
270.0
  0
MTEXT
  5
3828
330
3821
100
AcDbEntity
  8
DIM
 62
     0
100
AcDbMText
 10
1612.492097379296
 20
1745.843516268687
 30
0.0
 40
24.0
 41
0.0
 46
0.0
 71
     5
 72
     1
  1
\A1;210
  7
ＭＳ ゴシック
 11
0.0
 21
1.0
 31
0.0
 73
     1
 44
1.0
  0
POINT
  5
3829
330
3821
100
AcDbEntity
  8
Defpoints
 62
     0
100
AcDbPoint
 10
1496.133457125069
 20
1850.865237288559
 30
0.0
  0
POINT
  5
382A
330
3821
100
AcDbEntity
  8
Defpoints
 62
     0
100
AcDbPoint
 10
1532.886041470857
 20
1640.821795248814
 30
0.0
  0
POINT
  5
382B
330
3821
100
AcDbEntity
  8
Defpoints
 62
     0
100
AcDbPoint
 10
1644.496599067429
 20
1640.821795248814
 30
0.0
  0
ENDBLK
  5
382C
330
3821
100
AcDbEntity
  8
0
100
AcDbBlockEnd
  0
BLOCK
  5
3833
330
3832
100
AcDbEntity
  8
0
100
AcDbBlockBegin
  2
*D10
 70
     1
 10
0.0
 20
0.0
 30
0.0
  3
*D10
  1

  0
LINE
  5
3834
330
3832
100
AcDbEntity
  8
DIM
 62
     0
370
    -2
100
AcDbLine
 10
553.0747567904014
 20
1779.540986698607
 30
0.0
 11
691.5369668286219
 21
1779.540986698607
 31
0.0
  0
LINE
  5
3835
330
3832
100
AcDbEntity
  8
DIM
 62
     0
370
    -2
100
AcDbLine
 10
553.0747567904032
 20
1449.540986698607
 30
0.0
 11
691.5369668286219
 21
1449.540986698607
 31
0.0
  0
LINE
  5
3836
330
3832
100
AcDbEntity
  8
DIM
 62
     0
370
    -2
100
AcDbLine
 10
691.5369668286219
 20
1769.540986698607
 30
0.0
 11
691.5369668286219
 21
1459.540986698607
 31
0.0
  0
INSERT
  5
3837
330
3832
100
AcDbEntity
  8
DIM
 62
     0
370
    -2
100
AcDbBlockReference
  2
_DOT
 10
691.5369668286219
 20
1779.540986698607
 30
0.0
 41
10.0
 42
10.0
 43
10.0
 50
90.0
  0
INSERT
  5
3838
330
3832
100
AcDbEntity
  8
DIM
 62
     0
370
    -2
100
AcDbBlockReference
  2
_DOT
 10
691.5369668286219
 20
1449.540986698607
 30
0.0
 41
10.0
 42
10.0
 43
10.0
 50
270.0
  0
MTEXT
  5
3839
330
3832
100
AcDbEntity
  8
DIM
 62
     0
100
AcDbMText
 10
659.5324651404887
 20
1614.540986698607
 30
0.0
 40
24.0
 41
0.0
 46
0.0
 71
     5
 72
     1
  1
\A1;330
  7
ＭＳ ゴシック
 11
0.0
 21
1.0
 31
0.0
 73
     1
 44
1.0
  0
POINT
  5
383A
330
3832
100
AcDbEntity
  8
Defpoints
 62
     0
100
AcDbPoint
 10
523.0747567904014
 20
1779.540986698607
 30
0.0
  0
POINT
  5
383B
330
3832
100
AcDbEntity
  8
Defpoints
 62
     0
100
AcDbPoint
 10
523.0747567904032
 20
1449.540986698607
 30
0.0
  0
POINT
  5
383C
330
3832
100
AcDbEntity
  8
Defpoints
 62
     0
100
AcDbPoint
 10
691.5369668286219
 20
1449.540986698607
 30
0.0
  0
ENDBLK
  5
383D
330
3832
100
AcDbEntity
  8
0
100
AcDbBlockEnd
  0
BLOCK
  5
3840
330
383F
100
AcDbEntity
  8
0
100
AcDbBlockBegin
  2
*D11
 70
     1
 10
0.0
 20
0.0
 30
0.0
  3
*D11
  1

  0
LINE
  5
3841
330
383F
100
AcDbEntity
  8
DIM
 62
     0
370
    -2
100
AcDbLine
 10
223.7793982281573
 20
1770.635359258321
 30
0.0
 11
223.7793982281573
 21
1865.076809990926
 31
0.0
  0
LINE
  5
3842
330
383F
100
AcDbEntity
  8
DIM
 62
     0
370
    -2
100
AcDbLine
 10
523.0747567904014
 20
1810.635359258305
 30
0.0
 11
523.0747567904014
 21
1865.076809990926
 31
0.0
  0
LINE
  5
3843
330
383F
100
AcDbEntity
  8
DIM
 62
     0
370
    -2
100
AcDbLine
 10
233.7793982281573
 20
1865.076809990926
 30
0.0
 11
513.0747567904014
 21
1865.076809990926
 31
0.0
  0
INSERT
  5
3844
330
383F
100
AcDbEntity
  8
DIM
 62
     0
370
    -2
100
AcDbBlockReference
  2
_DOT
 10
223.7793982281573
 20
1865.076809990926
 30
0.0
 41
10.0
 42
10.0
 43
10.0
 50
180.0
  0
INSERT
  5
3845
330
383F
100
AcDbEntity
  8
DIM
 62
     0
370
    -2
100
AcDbBlockReference
  2
_DOT
 10
523.0747567904014
 20
1865.076809990926
 30
0.0
 41
10.0
 42
10.0
 43
10.0
  0
MTEXT
  5
3846
330
383F
100
AcDbEntity
  8
DIM
 62
     0
100
AcDbMText
 10
373.4270775092793
 20
1897.08131167906
 30
0.0
 40
24.0
 41
0.0
 46
0.0
 71
     5
 72
     1
  1
\A1;300
  7
ＭＳ ゴシック
 73
     1
 44
1.0
  0
POINT
  5
3847
330
383F
100
AcDbEntity
  8
Defpoints
 62
     0
100
AcDbPoint
 10
223.7793982281573
 20
1740.635359258321
 30
0.0
  0
POINT
  5
3848
330
383F
100
AcDbEntity
  8
Defpoints
 62
     0
100
AcDbPoint
 10
523.0747567904014
 20
1780.635359258305
 30
0.0
  0
POINT
  5
3849
330
383F
100
AcDbEntity
  8
Defpoints
 62
     0
100
AcDbPoint
 10
523.0747567904014
 20
1865.076809990926
 30
0.0
  0
ENDBLK
  5
384A
330
383F
100
AcDbEntity
  8
0
100
AcDbBlockEnd
  0
BLOCK
  5
3861
330
3860
100
AcDbEntity
  8
0
100
AcDbBlockBegin
  2
*D12
 70
     1
 10
0.0
 20
0.0
 30
0.0
  3
*D12
  1

  0
LINE
  5
3862
330
3860
100
AcDbEntity
  8
DIM
 62
     0
370
    -2
100
AcDbLine
 10
1393.908516749515
 20
576.1720432918244
 30
0.0
 11
1293.494343692616
 21
576.1720432918244
 31
0.0
  0
LINE
  5
3863
330
3860
100
AcDbEntity
  8
DIM
 62
     0
370
    -2
100
AcDbLine
 10
1393.93959668047
 20
295.9481984716468
 30
0.0
 11
1293.494343692616
 21
295.9481984716468
 31
0.0
  0
LINE
  5
3864
330
3860
100
AcDbEntity
  8
DIM
 62
     0
370
    -2
100
AcDbLine
 10
1293.494343692616
 20
566.1720432918244
 30
0.0
 11
1293.494343692616
 21
305.9481984716468
 31
0.0
  0
INSERT
  5
3865
330
3860
100
AcDbEntity
  8
DIM
 62
     0
370
    -2
100
AcDbBlockReference
  2
_DOT
 10
1293.494343692616
 20
576.1720432918244
 30
0.0
 41
10.0
 42
10.0
 43
10.0
 50
90.0
  0
INSERT
  5
3866
330
3860
100
AcDbEntity
  8
DIM
 62
     0
370
    -2
100
AcDbBlockReference
  2
_DOT
 10
1293.494343692616
 20
295.9481984716468
 30
0.0
 41
10.0
 42
10.0
 43
10.0
 50
270.0
  0
MTEXT
  5
3867
330
3860
100
AcDbEntity
  8
DIM
 62
     0
100
AcDbMText
 10
1261.489842004483
 20
436.0601208817356
 30
0.0
 40
24.0
 41
0.0
 46
0.0
 71
     5
 72
     1
  1
\A1;280
  7
ＭＳ ゴシック
 11
0.0
 21
1.0
 31
0.0
 73
     1
 44
1.0
  0
POINT
  5
3868
330
3860
100
AcDbEntity
  8
Defpoints
 62
     0
100
AcDbPoint
 10
1423.908516749515
 20
576.1720432918244
 30
0.0
  0
POINT
  5
3869
330
3860
100
AcDbEntity
  8
Defpoints
 62
     0
100
AcDbPoint
 10
1423.93959668047
 20
295.9481984716468
 30
0.0
  0
POINT
  5
386A
330
3860
100
AcDbEntity
  8
Defpoints
 62
     0
100
AcDbPoint
 10
1293.494343692616
 20
295.9481984716468
 30
0.0
  0
ENDBLK
  5
386B
330
3860
100
AcDbEntity
  8
0
100
AcDbBlockEnd
  0
BLOCK
  5
3870
330
386F
100
AcDbEntity
  8
0
100
AcDbBlockBegin
  2
*D13
 70
     1
 10
0.0
 20
0.0
 30
0.0
  3
*D13
  1

  0
LINE
  5
3871
330
386F
100
AcDbEntity
  8
DIM
 62
     0
370
    -2
100
AcDbLine
 10
1379.044545979061
 20
764.1317229323463
 30
0.0
 11
1379.044545979061
 21
859.7053371957984
 31
0.0
  0
LINE
  5
3872
330
386F
100
AcDbEntity
  8
DIM
 62
     0
370
    -2
100
AcDbLine
 10
1532.908516749514
 20
501.7767623090094
 30
0.0
 11
1532.908516749514
 21
859.7053371957984
 31
0.0
  0
LINE
  5
3873
330
386F
100
AcDbEntity
  8
DIM
 62
     0
370
    -2
100
AcDbLine
 10
1389.044545979061
 20
859.7053371957984
 30
0.0
 11
1522.908516749514
 21
859.7053371957984
 31
0.0
  0
INSERT
  5
3874
330
386F
100
AcDbEntity
  8
DIM
 62
     0
370
    -2
100
AcDbBlockReference
  2
_DOT
 10
1379.044545979061
 20
859.7053371957984
 30
0.0
 41
10.0
 42
10.0
 43
10.0
 50
180.0
  0
INSERT
  5
3875
330
386F
100
AcDbEntity
  8
DIM
 62
     0
370
    -2
100
AcDbBlockReference
  2
_DOT
 10
1532.908516749514
 20
859.7053371957984
 30
0.0
 41
10.0
 42
10.0
 43
10.0
  0
MTEXT
  5
3876
330
386F
100
AcDbEntity
  8
DIM
 62
     0
100
AcDbMText
 10
1455.976531364287
 20
891.7098388839314
 30
0.0
 40
24.0
 41
0.0
 46
0.0
 71
     5
 72
     1
  1
\A1;154
  7
ＭＳ ゴシック
 73
     1
 44
1.0
  0
POINT
  5
3877
330
386F
100
AcDbEntity
  8
Defpoints
 62
     0
100
AcDbPoint
 10
1379.044545979061
 20
734.1317229323463
 30
0.0
  0
POINT
  5
3878
330
386F
100
AcDbEntity
  8
Defpoints
 62
     0
100
AcDbPoint
 10
1532.908516749514
 20
471.7767623090094
 30
0.0
  0
POINT
  5
3879
330
386F
100
AcDbEntity
  8
Defpoints
 62
     0
100
AcDbPoint
 10
1532.908516749514
 20
859.7053371957984
 30
0.0
  0
ENDBLK
  5
387A
330
386F
100
AcDbEntity
  8
0
100
AcDbBlockEnd
  0
BLOCK
  5
387D
330
387C
100
AcDbEntity
  8
0
100
AcDbBlockBegin
  2
*D14
 70
     1
 10
0.0
 20
0.0
 30
0.0
  3
*D14
  1

  0
LINE
  5
387E
330
387C
100
AcDbEntity
  8
DIM
 62
     0
370
    -2
100
AcDbLine
 10
223.7793982281546
 20
763.2233200799294
 30
0.0
 11
223.7793982281546
 21
859.7053371957984
 31
0.0
  0
LINE
  5
387F
330
387C
100
AcDbEntity
  8
DIM
 62
     0
370
    -2
100
AcDbLine
 10
694.5242370003821
 20
764.3438604215853
 30
0.0
 11
694.5242370003821
 21
859.7053371957984
 31
0.0
  0
LINE
  5
3880
330
387C
100
AcDbEntity
  8
DIM
 62
     0
370
    -2
100
AcDbLine
 10
233.7793982281546
 20
859.7053371957984
 30
0.0
 11
684.5242370003821
 21
859.7053371957984
 31
0.0
  0
INSERT
  5
3881
330
387C
100
AcDbEntity
  8
DIM
 62
     0
370
    -2
100
AcDbBlockReference
  2
_DOT
 10
223.7793982281546
 20
859.7053371957984
 30
0.0
 41
10.0
 42
10.0
 43
10.0
 50
180.0
  0
INSERT
  5
3882
330
387C
100
AcDbEntity
  8
DIM
 62
     0
370
    -2
100
AcDbBlockReference
  2
_DOT
 10
694.5242370003821
 20
859.7053371957984
 30
0.0
 41
10.0
 42
10.0
 43
10.0
  0
MTEXT
  5
3883
330
387C
100
AcDbEntity
  8
DIM
 62
     0
100
AcDbMText
 10
459.591157442489
 20
891.7098388839314
 30
0.0
 40
24.0
 41
0.0
 46
0.0
 71
     5
 72
     1
  1
\A1;471
  7
ＭＳ ゴシック
 73
     1
 44
1.0
  0
POINT
  5
3884
330
387C
100
AcDbEntity
  8
Defpoints
 62
     0
100
AcDbPoint
 10
223.7793982281546
 20
733.2233200799294
 30
0.0
  0
POINT
  5
3885
330
387C
100
AcDbEntity
  8
Defpoints
 62
     0
100
AcDbPoint
 10
694.5242370003821
 20
734.3438604215853
 30
0.0
  0
POINT
  5
3886
330
387C
100
AcDbEntity
  8
Defpoints
 62
     0
100
AcDbPoint
 10
694.5242370003821
 20
859.7053371957984
 30
0.0
  0
ENDBLK
  5
3887
330
387C
100
AcDbEntity
  8
0
100
AcDbBlockEnd
  0
BLOCK
  5
388A
330
3889
100
AcDbEntity
  8
0
100
AcDbBlockBegin
  2
*D15
 70
     1
 10
0.0
 20
0.0
 30
0.0
  3
*D15
  1

  0
LINE
  5
388B
330
3889
100
AcDbEntity
  8
DIM
 62
     0
370
    -2
100
AcDbLine
 10
348.7943591562769
 20
106.2228631653898
 30
0.0
 11
348.7943591562769
 21
38.35049005015605
 31
0.0
  0
LINE
  5
388C
330
3889
100
AcDbEntity
  8
DIM
 62
     0
370
    -2
100
AcDbLine
 10
689.0728439889269
 20
106.2228631653908
 30
0.0
 11
689.0728439889269
 21
38.35049005015605
 31
0.0
  0
LINE
  5
388D
330
3889
100
AcDbEntity
  8
DIM
 62
     0
370
    -2
100
AcDbLine
 10
358.7943591562769
 20
38.35049005015605
 30
0.0
 11
679.0728439889269
 21
38.35049005015605
 31
0.0
  0
INSERT
  5
388E
330
3889
100
AcDbEntity
  8
DIM
 62
     0
370
    -2
100
AcDbBlockReference
  2
_DOT
 10
348.7943591562769
 20
38.35049005015605
 30
0.0
 41
10.0
 42
10.0
 43
10.0
 50
180.0
  0
INSERT
  5
388F
330
3889
100
AcDbEntity
  8
DIM
 62
     0
370
    -2
100
AcDbBlockReference
  2
_DOT
 10
689.0728439889269
 20
38.35049005015605
 30
0.0
 41
10.0
 42
10.0
 43
10.0
  0
MTEXT
  5
3890
330
3889
100
AcDbEntity
  8
DIM
 62
     0
100
AcDbMText
 10
518.9336015726019
 20
70.3549917382891
 30
0.0
 40
24.0
 41
0.0
 46
0.0
 71
     5
 72
     1
  1
\A1;340
  7
ＭＳ ゴシック
 73
     1
 44
1.0
  0
POINT
  5
3891
330
3889
100
AcDbEntity
  8
Defpoints
 62
     0
100
AcDbPoint
 10
348.7943591562769
 20
136.2228631653898
 30
0.0
  0
POINT
  5
3892
330
3889
100
AcDbEntity
  8
Defpoints
 62
     0
100
AcDbPoint
 10
689.0728439889269
 20
136.2228631653908
 30
0.0
  0
POINT
  5
3893
330
3889
100
AcDbEntity
  8
Defpoints
 62
     0
100
AcDbPoint
 10
689.0728439889269
 20
38.35049005015605
 30
0.0
  0
ENDBLK
  5
3894
330
3889
100
AcDbEntity
  8
0
100
AcDbBlockEnd
  0
BLOCK
  5
3897
330
3896
100
AcDbEntity
  8
0
100
AcDbBlockBegin
  2
*D16
 70
     1
 10
0.0
 20
0.0
 30
0.0
  3
*D16
  1

  0
LINE
  5
3898
330
3896
100
AcDbEntity
  8
DIM
 62
     0
370
    -2
100
AcDbLine
 10
348.7943591562769
 20
106.2228631653898
 30
0.0
 11
348.7943591562769
 21
38.35049005015605
 31
0.0
  0
LINE
  5
3899
330
3896
100
AcDbEntity
  8
DIM
 62
     0
370
    -2
100
AcDbLine
 10
223.7793982281543
 20
106.2996043825076
 30
0.0
 11
223.7793982281543
 21
38.35049005015605
 31
0.0
  0
LINE
  5
389A
330
3896
100
AcDbEntity
  8
DIM
 62
     0
370
    -2
100
AcDbLine
 10
338.7943591562769
 20
38.35049005015605
 30
0.0
 11
233.7793982281543
 21
38.35049005015605
 31
0.0
  0
INSERT
  5
389B
330
3896
100
AcDbEntity
  8
DIM
 62
     0
370
    -2
100
AcDbBlockReference
  2
_DOT
 10
348.7943591562769
 20
38.35049005015605
 30
0.0
 41
10.0
 42
10.0
 43
10.0
  0
INSERT
  5
389C
330
3896
100
AcDbEntity
  8
DIM
 62
     0
370
    -2
100
AcDbBlockReference
  2
_DOT
 10
223.7793982281543
 20
38.35049005015605
 30
0.0
 41
10.0
 42
10.0
 43
10.0
 50
180.0
  0
MTEXT
  5
389D
330
3896
100
AcDbEntity
  8
DIM
 62
     0
100
AcDbMText
 10
286.2868786922156
 20
70.3549917382891
 30
0.0
 40
24.0
 41
0.0
 46
0.0
 71
     5
 72
     1
  1
\A1;125
  7
ＭＳ ゴシック
 73
     1
 44
1.0
  0
POINT
  5
389E
330
3896
100
AcDbEntity
  8
Defpoints
 62
     0
100
AcDbPoint
 10
348.7943591562769
 20
136.2228631653898
 30
0.0
  0
POINT
  5
389F
330
3896
100
AcDbEntity
  8
Defpoints
 62
     0
100
AcDbPoint
 10
223.7793982281543
 20
136.2996043825076
 30
0.0
  0
POINT
  5
38A0
330
3896
100
AcDbEntity
  8
Defpoints
 62
     0
100
AcDbPoint
 10
223.7793982281543
 20
38.35049005015605
 30
0.0
  0
ENDBLK
  5
38A1
330
3896
100
AcDbEntity
  8
0
100
AcDbBlockEnd
  0
BLOCK
  5
38A6
330
38A5
100
AcDbEntity
  8
0
100
AcDbBlockBegin
  2
*D17
 70
     1
 10
0.0
 20
0.0
 30
0.0
  3
*D17
  1

  0
LINE
  5
38A7
330
38A5
100
AcDbEntity
  8
DIM
 62
     0
370
    -2
100
AcDbLine
 10
260.7809583136825
 20
336.2228631653899
 30
0.0
 11
139.5171064397923
 21
336.2228631653899
 31
0.0
  0
LINE
  5
38A8
330
38A5
100
AcDbEntity
  8
DIM
 62
     0
370
    -2
100
AcDbLine
 10
260.7809583136825
 20
436.2228631653904
 30
0.0
 11
139.5171064397923
 21
436.2228631653904
 31
0.0
  0
LINE
  5
38A9
330
38A5
100
AcDbEntity
  8
DIM
 62
     0
370
    -2
100
AcDbLine
 10
139.5171064397923
 20
346.2228631653899
 30
0.0
 11
139.5171064397923
 21
426.2228631653904
 31
0.0
  0
INSERT
  5
38AA
330
38A5
100
AcDbEntity
  8
DIM
 62
     0
370
    -2
100
AcDbBlockReference
  2
_DOT
 10
139.5171064397923
 20
336.2228631653899
 30
0.0
 41
10.0
 42
10.0
 43
10.0
 50
270.0
  0
INSERT
  5
38AB
330
38A5
100
AcDbEntity
  8
DIM
 62
     0
370
    -2
100
AcDbBlockReference
  2
_DOT
 10
139.5171064397923
 20
436.2228631653904
 30
0.0
 41
10.0
 42
10.0
 43
10.0
 50
90.0
  0
MTEXT
  5
38AC
330
38A5
100
AcDbEntity
  8
DIM
 62
     0
100
AcDbMText
 10
107.5126047516592
 20
386.2228631653902
 30
0.0
 40
24.0
 41
0.0
 46
0.0
 71
     5
 72
     1
  1
\A1;100
  7
ＭＳ ゴシック
 11
0.0
 21
1.0
 31
0.0
 73
     1
 44
1.0
  0
POINT
  5
38AD
330
38A5
100
AcDbEntity
  8
Defpoints
 62
     0
100
AcDbPoint
 10
290.7809583136825
 20
336.2228631653899
 30
0.0
  0
POINT
  5
38AE
330
38A5
100
AcDbEntity
  8
Defpoints
 62
     0
100
AcDbPoint
 10
290.7809583136825
 20
436.2228631653904
 30
0.0
  0
POINT
  5
38AF
330
38A5
100
AcDbEntity
  8
Defpoints
 62
     0
100
AcDbPoint
 10
139.5171064397923
 20
436.2228631653904
 30
0.0
  0
ENDBLK
  5
38B0
330
38A5
100
AcDbEntity
  8
0
100
AcDbBlockEnd
  0
BLOCK
  5
38B5
330
38B4
100
AcDbEntity
  8
0
100
AcDbBlockBegin
  2
*D18
 70
     1
 10
0.0
 20
0.0
 30
0.0
  3
*D18
  1

  0
LINE
  5
38B6
330
38B4
100
AcDbEntity
  8
DIM
 62
     0
370
    -2
100
AcDbLine
 10
260.7809583136825
 20
436.2228631653904
 30
0.0
 11
139.5171064397923
 21
436.2228631653904
 31
0.0
  0
LINE
  5
38B7
330
38B4
100
AcDbEntity
  8
DIM
 62
     0
370
    -2
100
AcDbLine
 10
260.7809583136825
 20
536.2228631653904
 30
0.0
 11
139.5171064397923
 21
536.2228631653904
 31
0.0
  0
LINE
  5
38B8
330
38B4
100
AcDbEntity
  8
DIM
 62
     0
370
    -2
100
AcDbLine
 10
139.5171064397923
 20
446.2228631653904
 30
0.0
 11
139.5171064397923
 21
526.2228631653904
 31
0.0
  0
INSERT
  5
38B9
330
38B4
100
AcDbEntity
  8
DIM
 62
     0
370
    -2
100
AcDbBlockReference
  2
_DOT
 10
139.5171064397923
 20
436.2228631653904
 30
0.0
 41
10.0
 42
10.0
 43
10.0
 50
270.0
  0
INSERT
  5
38BA
330
38B4
100
AcDbEntity
  8
DIM
 62
     0
370
    -2
100
AcDbBlockReference
  2
_DOT
 10
139.5171064397923
 20
536.2228631653904
 30
0.0
 41
10.0
 42
10.0
 43
10.0
 50
90.0
  0
MTEXT
  5
38BB
330
38B4
100
AcDbEntity
  8
DIM
 62
     0
100
AcDbMText
 10
107.5126047516592
 20
486.2228631653904
 30
0.0
 40
24.0
 41
0.0
 46
0.0
 71
     5
 72
     1
  1
\A1;100
  7
ＭＳ ゴシック
 11
0.0
 21
1.0
 31
0.0
 73
     1
 44
1.0
  0
POINT
  5
38BC
330
38B4
100
AcDbEntity
  8
Defpoints
 62
     0
100
AcDbPoint
 10
290.7809583136825
 20
436.2228631653904
 30
0.0
  0
POINT
  5
38BD
330
38B4
100
AcDbEntity
  8
Defpoints
 62
     0
100
AcDbPoint
 10
290.7809583136825
 20
536.2228631653904
 30
0.0
  0
POINT
  5
38BE
330
38B4
100
AcDbEntity
  8
Defpoints
 62
     0
100
AcDbPoint
 10
139.5171064397923
 20
536.2228631653904
 30
0.0
  0
ENDBLK
  5
38BF
330
38B4
100
AcDbEntity
  8
0
100
AcDbBlockEnd
  0
BLOCK
  5
38C4
330
38C3
100
AcDbEntity
  8
0
100
AcDbBlockBegin
  2
*D19
 70
     1
 10
0.0
 20
0.0
 30
0.0
  3
*D19
  1

  0
LINE
  5
38C5
330
38C3
100
AcDbEntity
  8
DIM
 62
     0
370
    -2
100
AcDbLine
 10
196.7793982281546
 20
136.2228631653817
 30
0.0
 11
43.99999999999999
 21
136.2228631653817
 31
0.0
  0
LINE
  5
38C6
330
38C3
100
AcDbEntity
  8
DIM
 62
     0
370
    -2
100
AcDbLine
 10
196.7793982281546
 20
736.2228631653984
 30
0.0
 11
44.00000000000003
 21
736.2228631653984
 31
0.0
  0
LINE
  5
38C7
330
38C3
100
AcDbEntity
  8
DIM
 62
     0
370
    -2
100
AcDbLine
 10
43.99999999999999
 20
146.2228631653817
 30
0.0
 11
44.00000000000003
 21
726.2228631653984
 31
0.0
  0
INSERT
  5
38C8
330
38C3
100
AcDbEntity
  8
DIM
 62
     0
370
    -2
100
AcDbBlockReference
  2
_DOT
 10
43.99999999999999
 20
136.2228631653817
 30
0.0
 41
10.0
 42
10.0
 43
10.0
 50
270.0
  0
INSERT
  5
38C9
330
38C3
100
AcDbEntity
  8
DIM
 62
     0
370
    -2
100
AcDbBlockReference
  2
_DOT
 10
44.00000000000003
 20
736.2228631653984
 30
0.0
 41
10.0
 42
10.0
 43
10.0
 50
90.0
  0
MTEXT
  5
38CA
330
38C3
100
AcDbEntity
  8
DIM
 62
     0
100
AcDbMText
 10
12.00000000000001
 20
436.22286316539
 30
0.0
 40
24.0
 41
0.0
 46
0.0
 71
     5
 72
     1
  1
\A1;600
  7
ＭＳ ゴシック
 11
5.921189464667336E-17
 21
1.0
 31
0.0
 73
     1
 44
1.0
  0
POINT
  5
38CB
330
38C3
100
AcDbEntity
  8
Defpoints
 62
     0
100
AcDbPoint
 10
226.7793982281546
 20
136.2228631653817
 30
0.0
  0
POINT
  5
38CC
330
38C3
100
AcDbEntity
  8
Defpoints
 62
     0
100
AcDbPoint
 10
226.7793982281546
 20
736.2228631653984
 30
0.0
  0
POINT
  5
38CD
330
38C3
100
AcDbEntity
  8
Defpoints
 62
     0
100
AcDbPoint
 10
44.00000000000003
 20
736.2228631653984
 30
0.0
  0
ENDBLK
  5
38CE
330
38C3
100
AcDbEntity
  8
0
100
AcDbBlockEnd
  0
BLOCK
  5
38D4
330
38D3
100
AcDbEntity
  8
0
100
AcDbBlockBegin
  2
*D20
 70
     1
 10
0.0
 20
0.0
 30
0.0
  3
*D20
  1

  0
LINE
  5
38D5
330
38D3
100
AcDbEntity
  8
DIM
 62
     0
370
    -2
100
AcDbLine
 10
1512.613182869854
 20
36.22286316538998
 30
0.0
 11
1624.341701384101
 21
36.22286316538998
 31
0.0
  0
LINE
  5
38D6
330
38D3
100
AcDbEntity
  8
DIM
 62
     0
370
    -2
100
AcDbLine
 10
1562.908516749514
 20
436.1720432918244
 30
0.0
 11
1624.341701384101
 21
436.1720432918244
 31
0.0
  0
LINE
  5
38D7
330
38D3
100
AcDbEntity
  8
DIM
 62
     0
370
    -2
100
AcDbLine
 10
1624.341701384101
 20
46.22286316538998
 30
0.0
 11
1624.341701384101
 21
426.1720432918244
 31
0.0
  0
INSERT
  5
38D8
330
38D3
100
AcDbEntity
  8
DIM
 62
     0
370
    -2
100
AcDbBlockReference
  2
_DOT
 10
1624.341701384101
 20
36.22286316538998
 30
0.0
 41
10.0
 42
10.0
 43
10.0
 50
270.0
  0
INSERT
  5
38D9
330
38D3
100
AcDbEntity
  8
DIM
 62
     0
370
    -2
100
AcDbBlockReference
  2
_DOT
 10
1624.341701384101
 20
436.1720432918244
 30
0.0
 41
10.0
 42
10.0
 43
10.0
 50
90.0
  0
MTEXT
  5
38DA
330
38D3
100
AcDbEntity
  8
DIM
 62
     0
100
AcDbMText
 10
1592.341701384101
 20
236.1974532286072
 30
0.0
 40
24.0
 41
0.0
 46
0.0
 71
     5
 72
     1
  1
\A1;400
  7
ＭＳ ゴシック
 11
0.0
 21
1.0
 31
0.0
 73
     1
 44
1.0
  0
POINT
  5
38DB
330
38D3
100
AcDbEntity
  8
Defpoints
 62
     0
100
AcDbPoint
 10
1482.613182869854
 20
36.22286316538998
 30
0.0
  0
POINT
  5
38DC
330
38D3
100
AcDbEntity
  8
Defpoints
 62
     0
100
AcDbPoint
 10
1532.908516749514
 20
436.1720432918244
 30
0.0
  0
POINT
  5
38DD
330
38D3
100
AcDbEntity
  8
Defpoints
 62
     0
100
AcDbPoint
 10
1624.341701384101
 20
436.1720432918244
 30
0.0
  0
ENDBLK
  5
38DE
330
38D3
100
AcDbEntity
  8
0
100
AcDbBlockEnd
  0
BLOCK
  5
39A1
330
39A0
100
AcDbEntity
  8
0
100
AcDbBlockBegin
  2
*D21
 70
     1
 10
0.0
 20
0.0
 30
0.0
  3
*D21
  1

  0
LINE
  5
39A3
330
39A0
100
AcDbEntity
  8
DIM
 62
     0
370
    -2
100
AcDbLine
 10
1622.91778373543
 20
2067.609818454832
 30
0.0
 11
1622.91778373543
 21
2003.425568289635
 31
0.0
  0
LINE
  5
39A4
330
39A0
100
AcDbEntity
  8
DIM
 62
     0
370
    -2
100
AcDbLine
 10
1742.922186063315
 20
2071.276102671275
 30
0.0
 11
1742.922186063315
 21
2003.425568289635
 31
0.0
  0
LINE
  5
39A5
330
39A0
100
AcDbEntity
  8
DIM
 62
     0
370
    -2
100
AcDbLine
 10
1632.91778373543
 20
2003.425568289635
 30
0.0
 11
1732.922186063315
 21
2003.425568289635
 31
0.0
  0
INSERT
  5
39A6
330
39A0
100
AcDbEntity
  8
DIM
 62
     0
370
    -2
100
AcDbBlockReference
  2
_DOT
 10
1622.91778373543
 20
2003.425568289635
 30
0.0
 41
10.0
 42
10.0
 43
10.0
 50
180.0
  0
INSERT
  5
39A7
330
39A0
100
AcDbEntity
  8
DIM
 62
     0
370
    -2
100
AcDbBlockReference
  2
_DOT
 10
1742.922186063315
 20
2003.425568289635
 30
0.0
 41
10.0
 42
10.0
 43
10.0
  0
MTEXT
  5
39A8
330
39A0
100
AcDbEntity
  8
DIM
 62
     0
100
AcDbMText
 10
1682.919984899372
 20
2035.430069977768
 30
0.0
 40
24.0
 41
0.0
 46
0.0
 71
     5
 72
     1
  1
\A1;120
  7
ＭＳ ゴシック
 73
     1
 44
1.0
  0
POINT
  5
39A9
330
39A0
100
AcDbEntity
  8
Defpoints
 62
     0
100
AcDbPoint
 10
1622.91778373543
 20
2097.609818454832
 30
0.0
  0
POINT
  5
39AA
330
39A0
100
AcDbEntity
  8
Defpoints
 62
     0
100
AcDbPoint
 10
1742.922186063315
 20
2101.276102671275
 30
0.0
  0
POINT
  5
39AB
330
39A0
100
AcDbEntity
  8
Defpoints
 62
     0
100
AcDbPoint
 10
1742.922186063315
 20
2003.425568289635
 30
0.0
  0
ENDBLK
  5
39A2
330
39A0
100
AcDbEntity
  8
0
100
AcDbBlockEnd
  0
BLOCK
  5
39AD
330
39AC
100
AcDbEntity
  8
0
100
AcDbBlockBegin
  2
*D22
 70
     1
 10
0.0
 20
0.0
 30
0.0
  3
*D22
  1

  0
LINE
  5
39AF
330
39AC
100
AcDbEntity
  8
DIM
 62
     0
370
    -2
100
AcDbLine
 10
1596.46518714689
 20
2562.277787224603
 30
0.0
 11
1540.26764461113
 21
2562.277787224603
 31
0.0
  0
LINE
  5
39B0
330
39AC
100
AcDbEntity
  8
DIM
 62
     0
370
    -2
100
AcDbLine
 10
1596.46518714689
 20
2497.254989067866
 30
0.0
 11
1540.26764461113
 21
2497.254989067866
 31
0.0
  0
LINE
  5
39B1
330
39AC
100
AcDbEntity
  8
DIM
 62
     0
370
    -2
100
AcDbLine
 10
1540.26764461113
 20
2552.277787224603
 30
0.0
 11
1540.26764461113
 21
2507.254989067866
 31
0.0
  0
INSERT
  5
39B2
330
39AC
100
AcDbEntity
  8
DIM
 62
     0
370
    -2
100
AcDbBlockReference
  2
_DOT
 10
1540.26764461113
 20
2562.277787224603
 30
0.0
 41
10.0
 42
10.0
 43
10.0
 50
90.0
  0
INSERT
  5
39B3
330
39AC
100
AcDbEntity
  8
DIM
 62
     0
370
    -2
100
AcDbBlockReference
  2
_DOT
 10
1540.26764461113
 20
2497.254989067866
 30
0.0
 41
10.0
 42
10.0
 43
10.0
 50
270.0
  0
MTEXT
  5
39B4
330
39AC
100
AcDbEntity
  8
DIM
 62
     0
100
AcDbMText
 10
1508.263142922997
 20
2529.766388146234
 30
0.0
 40
24.0
 41
0.0
 46
0.0
 71
     5
 72
     1
  1
\A1;65
  7
ＭＳ ゴシック
 11
0.0
 21
1.0
 31
0.0
 73
     1
 44
1.0
  0
POINT
  5
39B5
330
39AC
100
AcDbEntity
  8
Defpoints
 62
     0
100
AcDbPoint
 10
1626.46518714689
 20
2562.277787224603
 30
0.0
  0
POINT
  5
39B6
330
39AC
100
AcDbEntity
  8
Defpoints
 62
     0
100
AcDbPoint
 10
1626.46518714689
 20
2497.254989067866
 30
0.0
  0
POINT
  5
39B7
330
39AC
100
AcDbEntity
  8
Defpoints
 62
     0
100
AcDbPoint
 10
1540.26764461113
 20
2497.254989067866
 30
0.0
  0
ENDBLK
  5
39AE
330
39AC
100
AcDbEntity
  8
0
100
AcDbBlockEnd
  0
BLOCK
  5
39B9
330
39B8
100
AcDbEntity
  8
0
100
AcDbBlockBegin
  2
*D23
 70
     1
 10
0.0
 20
0.0
 30
0.0
  3
*D23
  1

  0
LINE
  5
39BB
330
39B8
100
AcDbEntity
  8
DIM
 62
     0
370
    -2
100
AcDbLine
 10
1623.225464776762
 20
2353.423187608293
 30
0.0
 11
1457.538957336472
 21
2353.423187608293
 31
0.0
  0
LINE
  5
39BC
330
39B8
100
AcDbEntity
  8
DIM
 62
     0
370
    -2
100
AcDbLine
 10
1718.310009906991
 20
2353.423187608293
 30
0.0
 11
1633.225464776762
 21
2353.423187608293
 31
0.0
  0
LINE
  5
39BD
330
39B8
100
AcDbEntity
  8
DIM
 62
     0
370
    -2
100
AcDbLine
 10
1633.225464776762
 20
2353.423187608293
 30
0.0
 11
1643.225464776762
 21
2353.423187608293
 31
0.0
  0
INSERT
  5
39BE
330
39B8
100
AcDbEntity
  8
DIM
 62
     0
370
    -2
100
AcDbBlockReference
  2
_DOT
 10
1728.310009906991
 20
2353.423187608293
 30
0.0
 41
10.0
 42
10.0
 43
10.0
  0
INSERT
  5
39BF
330
39B8
100
AcDbEntity
  8
DIM
 62
     0
370
    -2
100
AcDbBlockReference
  2
_DOT
 10
1623.225464776762
 20
2353.423187608293
 30
0.0
 41
10.0
 42
10.0
 43
10.0
 50
180.0
  0
MTEXT
  5
39C0
330
39B8
100
AcDbEntity
  8
DIM
 62
     0
100
AcDbMText
 10
1530.382211056617
 20
2387.127076566653
 30
0.0
 40
24.0
 41
0.0
 46
0.0
 71
     5
 72
     1
  1
\A1;深さ105
  7
ＭＳ ゴシック
 73
     1
 44
1.0
  0
POINT
  5
39C1
330
39B8
100
AcDbEntity
  8
Defpoints
 62
     0
100
AcDbPoint
 10
1728.310009906991
 20
2388.664644896562
 30
0.0
  0
POINT
  5
39C2
330
39B8
100
AcDbEntity
  8
Defpoints
 62
     0
100
AcDbPoint
 10
1623.225464776762
 20
2358.788439570626
 30
0.0
  0
POINT
  5
39C3
330
39B8
100
AcDbEntity
  8
Defpoints
 62
     0
100
AcDbPoint
 10
1623.225464776762
 20
2353.423187608293
 30
0.0
  0
ENDBLK
  5
39BA
330
39B8
100
AcDbEntity
  8
0
100
AcDbBlockEnd
  0
BLOCK
  5
39C5
330
39C4
100
AcDbEntity
  8
0
100
AcDbBlockBegin
  2
*D24
 70
     1
 10
0.0
 20
0.0
 30
0.0
  3
*D24
  1

  0
LINE
  5
39C7
330
39C4
100
AcDbEntity
  8
DIM
 62
     0
370
    -2
100
AcDbLine
 10
1770.465108042492
 20
2562.143489806899
 30
0.0
 11
1888.828249984852
 21
2562.143489806899
 31
0.0
  0
LINE
  5
39C8
330
39C4
100
AcDbEntity
  8
DIM
 62
     0
370
    -2
100
AcDbLine
 10
1807.21769238828
 20
2352.100047767154
 30
0.0
 11
1888.828249984852
 21
2352.100047767154
 31
0.0
  0
LINE
  5
39C9
330
39C4
100
AcDbEntity
  8
DIM
 62
     0
370
    -2
100
AcDbLine
 10
1888.828249984852
 20
2552.143489806899
 30
0.0
 11
1888.828249984852
 21
2362.100047767154
 31
0.0
  0
INSERT
  5
39CA
330
39C4
100
AcDbEntity
  8
DIM
 62
     0
370
    -2
100
AcDbBlockReference
  2
_DOT
 10
1888.828249984852
 20
2562.143489806899
 30
0.0
 41
10.0
 42
10.0
 43
10.0
 50
90.0
  0
INSERT
  5
39CB
330
39C4
100
AcDbEntity
  8
DIM
 62
     0
370
    -2
100
AcDbBlockReference
  2
_DOT
 10
1888.828249984852
 20
2352.100047767154
 30
0.0
 41
10.0
 42
10.0
 43
10.0
 50
270.0
  0
MTEXT
  5
39CC
330
39C4
100
AcDbEntity
  8
DIM
 62
     0
100
AcDbMText
 10
1856.823748296719
 20
2457.121768787027
 30
0.0
 40
24.0
 41
0.0
 46
0.0
 71
     5
 72
     1
  1
\A1;210
  7
ＭＳ ゴシック
 11
0.0
 21
1.0
 31
0.0
 73
     1
 44
1.0
  0
POINT
  5
39CD
330
39C4
100
AcDbEntity
  8
Defpoints
 62
     0
100
AcDbPoint
 10
1740.465108042492
 20
2562.143489806899
 30
0.0
  0
POINT
  5
39CE
330
39C4
100
AcDbEntity
  8
Defpoints
 62
     0
100
AcDbPoint
 10
1777.21769238828
 20
2352.100047767154
 30
0.0
  0
POINT
  5
39CF
330
39C4
100
AcDbEntity
  8
Defpoints
 62
     0
100
AcDbPoint
 10
1888.828249984852
 20
2352.100047767154
 30
0.0
  0
ENDBLK
  5
39C6
330
39C4
100
AcDbEntity
  8
0
100
AcDbBlockEnd
  0
BLOCK
  5
39D1
330
39D0
100
AcDbEntity
  8
0
100
AcDbBlockBegin
  2
*D25
 70
     1
 10
0.0
 20
0.0
 30
0.0
  3
*D25
  1

  0
LINE
  5
39D3
330
39D0
100
AcDbEntity
  8
DIM
 62
     0
370
    -2
100
AcDbLine
 10
797.4064077078247
 20
2490.819239216947
 30
0.0
 11
935.8686177460452
 21
2490.819239216947
 31
0.0
  0
LINE
  5
39D4
330
39D0
100
AcDbEntity
  8
DIM
 62
     0
370
    -2
100
AcDbLine
 10
797.4064077078265
 20
2160.819239216947
 30
0.0
 11
935.8686177460452
 21
2160.819239216947
 31
0.0
  0
LINE
  5
39D5
330
39D0
100
AcDbEntity
  8
DIM
 62
     0
370
    -2
100
AcDbLine
 10
935.8686177460452
 20
2480.819239216947
 30
0.0
 11
935.8686177460452
 21
2170.819239216947
 31
0.0
  0
INSERT
  5
39D6
330
39D0
100
AcDbEntity
  8
DIM
 62
     0
370
    -2
100
AcDbBlockReference
  2
_DOT
 10
935.8686177460452
 20
2490.819239216947
 30
0.0
 41
10.0
 42
10.0
 43
10.0
 50
90.0
  0
INSERT
  5
39D7
330
39D0
100
AcDbEntity
  8
DIM
 62
     0
370
    -2
100
AcDbBlockReference
  2
_DOT
 10
935.8686177460452
 20
2160.819239216947
 30
0.0
 41
10.0
 42
10.0
 43
10.0
 50
270.0
  0
MTEXT
  5
39D8
330
39D0
100
AcDbEntity
  8
DIM
 62
     0
100
AcDbMText
 10
903.864116057912
 20
2325.819239216947
 30
0.0
 40
24.0
 41
0.0
 46
0.0
 71
     5
 72
     1
  1
\A1;330
  7
ＭＳ ゴシック
 11
0.0
 21
1.0
 31
0.0
 73
     1
 44
1.0
  0
POINT
  5
39D9
330
39D0
100
AcDbEntity
  8
Defpoints
 62
     0
100
AcDbPoint
 10
767.4064077078247
 20
2490.819239216947
 30
0.0
  0
POINT
  5
39DA
330
39D0
100
AcDbEntity
  8
Defpoints
 62
     0
100
AcDbPoint
 10
767.4064077078265
 20
2160.819239216947
 30
0.0
  0
POINT
  5
39DB
330
39D0
100
AcDbEntity
  8
Defpoints
 62
     0
100
AcDbPoint
 10
935.8686177460452
 20
2160.819239216947
 30
0.0
  0
ENDBLK
  5
39D2
330
39D0
100
AcDbEntity
  8
0
100
AcDbBlockEnd
  0
BLOCK
  5
39DD
330
39DC
100
AcDbEntity
  8
0
100
AcDbBlockBegin
  2
*D26
 70
     1
 10
0.0
 20
0.0
 30
0.0
  3
*D26
  1

  0
LINE
  5
39DF
330
39DC
100
AcDbEntity
  8
DIM
 62
     0
370
    -2
100
AcDbLine
 10
468.1110491455806
 20
2481.913611776661
 30
0.0
 11
468.1110491455806
 21
2576.355062509267
 31
0.0
  0
LINE
  5
39E0
330
39DC
100
AcDbEntity
  8
DIM
 62
     0
370
    -2
100
AcDbLine
 10
767.4064077078247
 20
2521.913611776646
 30
0.0
 11
767.4064077078247
 21
2576.355062509267
 31
0.0
  0
LINE
  5
39E1
330
39DC
100
AcDbEntity
  8
DIM
 62
     0
370
    -2
100
AcDbLine
 10
478.1110491455806
 20
2576.355062509267
 30
0.0
 11
757.4064077078247
 21
2576.355062509267
 31
0.0
  0
INSERT
  5
39E2
330
39DC
100
AcDbEntity
  8
DIM
 62
     0
370
    -2
100
AcDbBlockReference
  2
_DOT
 10
468.1110491455806
 20
2576.355062509267
 30
0.0
 41
10.0
 42
10.0
 43
10.0
 50
180.0
  0
INSERT
  5
39E3
330
39DC
100
AcDbEntity
  8
DIM
 62
     0
370
    -2
100
AcDbBlockReference
  2
_DOT
 10
767.4064077078247
 20
2576.355062509267
 30
0.0
 41
10.0
 42
10.0
 43
10.0
  0
MTEXT
  5
39E4
330
39DC
100
AcDbEntity
  8
DIM
 62
     0
100
AcDbMText
 10
617.7587284267026
 20
2608.3595641974
 30
0.0
 40
24.0
 41
0.0
 46
0.0
 71
     5
 72
     1
  1
\A1;300
  7
ＭＳ ゴシック
 73
     1
 44
1.0
  0
POINT
  5
39E5
330
39DC
100
AcDbEntity
  8
Defpoints
 62
     0
100
AcDbPoint
 10
468.1110491455806
 20
2451.913611776661
 30
0.0
  0
POINT
  5
39E6
330
39DC
100
AcDbEntity
  8
Defpoints
 62
     0
100
AcDbPoint
 10
767.4064077078247
 20
2491.913611776646
 30
0.0
  0
POINT
  5
39E7
330
39DC
100
AcDbEntity
  8
Defpoints
 62
     0
100
AcDbPoint
 10
767.4064077078247
 20
2576.355062509267
 30
0.0
  0
ENDBLK
  5
39DE
330
39DC
100
AcDbEntity
  8
0
100
AcDbBlockEnd
  0
BLOCK
  5
39E9
330
39E8
100
AcDbEntity
  8
0
100
AcDbBlockBegin
  2
*D27
 70
     1
 10
0.0
 20
0.0
 30
0.0
  3
*D27
  1

  0
LINE
  5
39EB
330
39E8
100
AcDbEntity
  8
DIM
 62
     0
370
    -2
100
AcDbLine
 10
1638.240167666938
 20
1287.450295810164
 30
0.0
 11
1537.82599461004
 21
1287.450295810164
 31
0.0
  0
LINE
  5
39EC
330
39E8
100
AcDbEntity
  8
DIM
 62
     0
370
    -2
100
AcDbLine
 10
1638.271247597894
 20
1007.226450989987
 30
0.0
 11
1537.82599461004
 21
1007.226450989987
 31
0.0
  0
LINE
  5
39ED
330
39E8
100
AcDbEntity
  8
DIM
 62
     0
370
    -2
100
AcDbLine
 10
1537.82599461004
 20
1277.450295810164
 30
0.0
 11
1537.82599461004
 21
1017.226450989987
 31
0.0
  0
INSERT
  5
39EE
330
39E8
100
AcDbEntity
  8
DIM
 62
     0
370
    -2
100
AcDbBlockReference
  2
_DOT
 10
1537.82599461004
 20
1287.450295810164
 30
0.0
 41
10.0
 42
10.0
 43
10.0
 50
90.0
  0
INSERT
  5
39EF
330
39E8
100
AcDbEntity
  8
DIM
 62
     0
370
    -2
100
AcDbBlockReference
  2
_DOT
 10
1537.82599461004
 20
1007.226450989987
 30
0.0
 41
10.0
 42
10.0
 43
10.0
 50
270.0
  0
MTEXT
  5
39F0
330
39E8
100
AcDbEntity
  8
DIM
 62
     0
100
AcDbMText
 10
1505.821492921907
 20
1147.338373400076
 30
0.0
 40
24.0
 41
0.0
 46
0.0
 71
     5
 72
     1
  1
\A1;280
  7
ＭＳ ゴシック
 11
0.0
 21
1.0
 31
0.0
 73
     1
 44
1.0
  0
POINT
  5
39F1
330
39E8
100
AcDbEntity
  8
Defpoints
 62
     0
100
AcDbPoint
 10
1668.240167666938
 20
1287.450295810164
 30
0.0
  0
POINT
  5
39F2
330
39E8
100
AcDbEntity
  8
Defpoints
 62
     0
100
AcDbPoint
 10
1668.271247597894
 20
1007.226450989987
 30
0.0
  0
POINT
  5
39F3
330
39E8
100
AcDbEntity
  8
Defpoints
 62
     0
100
AcDbPoint
 10
1537.82599461004
 20
1007.226450989987
 30
0.0
  0
ENDBLK
  5
39EA
330
39E8
100
AcDbEntity
  8
0
100
AcDbBlockEnd
  0
BLOCK
  5
39F5
330
39F4
100
AcDbEntity
  8
0
100
AcDbBlockBegin
  2
*D28
 70
     1
 10
0.0
 20
0.0
 30
0.0
  3
*D28
  1

  0
LINE
  5
39F7
330
39F4
100
AcDbEntity
  8
DIM
 62
     0
370
    -2
100
AcDbLine
 10
1623.376196896485
 20
1425.394697128212
 30
0.0
 11
1623.376196896485
 21
1521.733202328529
 31
0.0
  0
LINE
  5
39F8
330
39F4
100
AcDbEntity
  8
DIM
 62
     0
370
    -2
100
AcDbLine
 10
1777.240167666937
 20
1213.055014827349
 30
0.0
 11
1777.240167666937
 21
1521.733202328529
 31
0.0
  0
LINE
  5
39F9
330
39F4
100
AcDbEntity
  8
DIM
 62
     0
370
    -2
100
AcDbLine
 10
1633.376196896485
 20
1521.733202328529
 30
0.0
 11
1767.240167666937
 21
1521.733202328529
 31
0.0
  0
INSERT
  5
39FA
330
39F4
100
AcDbEntity
  8
DIM
 62
     0
370
    -2
100
AcDbBlockReference
  2
_DOT
 10
1623.376196896485
 20
1521.733202328529
 30
0.0
 41
10.0
 42
10.0
 43
10.0
 50
180.0
  0
INSERT
  5
39FB
330
39F4
100
AcDbEntity
  8
DIM
 62
     0
370
    -2
100
AcDbBlockReference
  2
_DOT
 10
1777.240167666937
 20
1521.733202328529
 30
0.0
 41
10.0
 42
10.0
 43
10.0
  0
MTEXT
  5
39FC
330
39F4
100
AcDbEntity
  8
DIM
 62
     0
100
AcDbMText
 10
1700.308182281711
 20
1553.737704016663
 30
0.0
 40
24.0
 41
0.0
 46
0.0
 71
     5
 72
     1
  1
\A1;154
  7
ＭＳ ゴシック
 73
     1
 44
1.0
  0
POINT
  5
39FD
330
39F4
100
AcDbEntity
  8
Defpoints
 62
     0
100
AcDbPoint
 10
1623.376196896485
 20
1395.394697128212
 30
0.0
  0
POINT
  5
39FE
330
39F4
100
AcDbEntity
  8
Defpoints
 62
     0
100
AcDbPoint
 10
1777.240167666937
 20
1183.055014827349
 30
0.0
  0
POINT
  5
39FF
330
39F4
100
AcDbEntity
  8
Defpoints
 62
     0
100
AcDbPoint
 10
1777.240167666937
 20
1521.733202328529
 30
0.0
  0
ENDBLK
  5
39F6
330
39F4
100
AcDbEntity
  8
0
100
AcDbBlockEnd
  0
BLOCK
  5
3A01
330
3A00
100
AcDbEntity
  8
0
100
AcDbBlockBegin
  2
*D29
 70
     1
 10
0.0
 20
0.0
 30
0.0
  3
*D29
  1

  0
LINE
  5
3A03
330
3A00
100
AcDbEntity
  8
DIM
 62
     0
370
    -2
100
AcDbLine
 10
468.111049145578
 20
1425.251185212661
 30
0.0
 11
468.111049145578
 21
1521.73320232853
 31
0.0
  0
LINE
  5
3A04
330
3A00
100
AcDbEntity
  8
DIM
 62
     0
370
    -2
100
AcDbLine
 10
937.972926621457
 20
1427.765777204358
 30
0.0
 11
937.972926621457
 21
1521.73320232853
 31
0.0
  0
LINE
  5
3A05
330
3A00
100
AcDbEntity
  8
DIM
 62
     0
370
    -2
100
AcDbLine
 10
478.111049145578
 20
1521.73320232853
 30
0.0
 11
927.972926621457
 21
1521.73320232853
 31
0.0
  0
INSERT
  5
3A06
330
3A00
100
AcDbEntity
  8
DIM
 62
     0
370
    -2
100
AcDbBlockReference
  2
_DOT
 10
468.111049145578
 20
1521.73320232853
 30
0.0
 41
10.0
 42
10.0
 43
10.0
 50
180.0
  0
INSERT
  5
3A07
330
3A00
100
AcDbEntity
  8
DIM
 62
     0
370
    -2
100
AcDbBlockReference
  2
_DOT
 10
937.972926621457
 20
1521.73320232853
 30
0.0
 41
10.0
 42
10.0
 43
10.0
  0
MTEXT
  5
3A08
330
3A00
100
AcDbEntity
  8
DIM
 62
     0
100
AcDbMText
 10
703.9228083599124
 20
1553.737704016663
 30
0.0
 40
24.0
 41
0.0
 46
0.0
 71
     5
 72
     1
  1
\A1;470
  7
ＭＳ ゴシック
 73
     1
 44
1.0
  0
POINT
  5
3A09
330
3A00
100
AcDbEntity
  8
Defpoints
 62
     0
100
AcDbPoint
 10
468.111049145578
 20
1395.251185212661
 30
0.0
  0
POINT
  5
3A0A
330
3A00
100
AcDbEntity
  8
Defpoints
 62
     0
100
AcDbPoint
 10
937.972926621457
 20
1397.765777204358
 30
0.0
  0
POINT
  5
3A0B
330
3A00
100
AcDbEntity
  8
Defpoints
 62
     0
100
AcDbPoint
 10
937.972926621457
 20
1521.73320232853
 30
0.0
  0
ENDBLK
  5
3A02
330
3A00
100
AcDbEntity
  8
0
100
AcDbBlockEnd
  0
BLOCK
  5
3A0D
330
3A0C
100
AcDbEntity
  8
0
100
AcDbBlockBegin
  2
*D30
 70
     1
 10
0.0
 20
0.0
 30
0.0
  3
*D30
  1

  0
LINE
  5
3A0F
330
3A0C
100
AcDbEntity
  8
DIM
 62
     0
370
    -2
100
AcDbLine
 10
593.1260100737001
 20
867.5011156837307
 30
0.0
 11
593.1260100737001
 21
799.628742568497
 31
0.0
  0
LINE
  5
3A10
330
3A0C
100
AcDbEntity
  8
DIM
 62
     0
370
    -2
100
AcDbLine
 10
933.4044949063501
 20
867.5011156837318
 30
0.0
 11
933.4044949063501
 21
799.628742568497
 31
0.0
  0
LINE
  5
3A11
330
3A0C
100
AcDbEntity
  8
DIM
 62
     0
370
    -2
100
AcDbLine
 10
603.1260100737001
 20
799.628742568497
 30
0.0
 11
923.4044949063501
 21
799.628742568497
 31
0.0
  0
INSERT
  5
3A12
330
3A0C
100
AcDbEntity
  8
DIM
 62
     0
370
    -2
100
AcDbBlockReference
  2
_DOT
 10
593.1260100737001
 20
799.628742568497
 30
0.0
 41
10.0
 42
10.0
 43
10.0
 50
180.0
  0
INSERT
  5
3A13
330
3A0C
100
AcDbEntity
  8
DIM
 62
     0
370
    -2
100
AcDbBlockReference
  2
_DOT
 10
933.4044949063501
 20
799.628742568497
 30
0.0
 41
10.0
 42
10.0
 43
10.0
  0
MTEXT
  5
3A14
330
3A0C
100
AcDbEntity
  8
DIM
 62
     0
100
AcDbMText
 10
763.2652524900251
 20
831.6332442566301
 30
0.0
 40
24.0
 41
0.0
 46
0.0
 71
     5
 72
     1
  1
\A1;340
  7
ＭＳ ゴシック
 73
     1
 44
1.0
  0
POINT
  5
3A15
330
3A0C
100
AcDbEntity
  8
Defpoints
 62
     0
100
AcDbPoint
 10
593.1260100737001
 20
897.5011156837307
 30
0.0
  0
POINT
  5
3A16
330
3A0C
100
AcDbEntity
  8
Defpoints
 62
     0
100
AcDbPoint
 10
933.4044949063501
 20
897.5011156837318
 30
0.0
  0
POINT
  5
3A17
330
3A0C
100
AcDbEntity
  8
Defpoints
 62
     0
100
AcDbPoint
 10
933.4044949063501
 20
799.628742568497
 30
0.0
  0
ENDBLK
  5
3A0E
330
3A0C
100
AcDbEntity
  8
0
100
AcDbBlockEnd
  0
BLOCK
  5
3A19
330
3A18
100
AcDbEntity
  8
0
100
AcDbBlockBegin
  2
*D31
 70
     1
 10
0.0
 20
0.0
 30
0.0
  3
*D31
  1

  0
LINE
  5
3A1B
330
3A18
100
AcDbEntity
  8
DIM
 62
     0
370
    -2
100
AcDbLine
 10
593.1260100737001
 20
867.5011156837307
 30
0.0
 11
593.1260100737001
 21
799.628742568497
 31
0.0
  0
LINE
  5
3A1C
330
3A18
100
AcDbEntity
  8
DIM
 62
     0
370
    -2
100
AcDbLine
 10
468.1110491455775
 20
867.5778569008486
 30
0.0
 11
468.1110491455775
 21
799.628742568497
 31
0.0
  0
LINE
  5
3A1D
330
3A18
100
AcDbEntity
  8
DIM
 62
     0
370
    -2
100
AcDbLine
 10
583.1260100737001
 20
799.628742568497
 30
0.0
 11
478.1110491455775
 21
799.628742568497
 31
0.0
  0
INSERT
  5
3A1E
330
3A18
100
AcDbEntity
  8
DIM
 62
     0
370
    -2
100
AcDbBlockReference
  2
_DOT
 10
593.1260100737001
 20
799.628742568497
 30
0.0
 41
10.0
 42
10.0
 43
10.0
  0
INSERT
  5
3A1F
330
3A18
100
AcDbEntity
  8
DIM
 62
     0
370
    -2
100
AcDbBlockReference
  2
_DOT
 10
468.1110491455775
 20
799.628742568497
 30
0.0
 41
10.0
 42
10.0
 43
10.0
 50
180.0
  0
MTEXT
  5
3A20
330
3A18
100
AcDbEntity
  8
DIM
 62
     0
100
AcDbMText
 10
530.6185296096388
 20
831.6332442566301
 30
0.0
 40
24.0
 41
0.0
 46
0.0
 71
     5
 72
     1
  1
\A1;125
  7
ＭＳ ゴシック
 73
     1
 44
1.0
  0
POINT
  5
3A21
330
3A18
100
AcDbEntity
  8
Defpoints
 62
     0
100
AcDbPoint
 10
593.1260100737001
 20
897.5011156837307
 30
0.0
  0
POINT
  5
3A22
330
3A18
100
AcDbEntity
  8
Defpoints
 62
     0
100
AcDbPoint
 10
468.1110491455775
 20
897.5778569008486
 30
0.0
  0
POINT
  5
3A23
330
3A18
100
AcDbEntity
  8
Defpoints
 62
     0
100
AcDbPoint
 10
468.1110491455775
 20
799.628742568497
 30
0.0
  0
ENDBLK
  5
3A1A
330
3A18
100
AcDbEntity
  8
0
100
AcDbBlockEnd
  0
BLOCK
  5
3A25
330
3A24
100
AcDbEntity
  8
0
100
AcDbBlockBegin
  2
*D32
 70
     1
 10
0.0
 20
0.0
 30
0.0
  3
*D32
  1

  0
LINE
  5
3A27
330
3A24
100
AcDbEntity
  8
DIM
 62
     0
370
    -2
100
AcDbLine
 10
505.1126092311058
 20
1047.50111568373
 30
0.0
 11
383.8487573572156
 21
1047.50111568373
 31
0.0
  0
LINE
  5
3A28
330
3A24
100
AcDbEntity
  8
DIM
 62
     0
370
    -2
100
AcDbLine
 10
505.1126092311058
 20
1147.50111568373
 30
0.0
 11
383.8487573572156
 21
1147.50111568373
 31
0.0
  0
LINE
  5
3A29
330
3A24
100
AcDbEntity
  8
DIM
 62
     0
370
    -2
100
AcDbLine
 10
383.8487573572156
 20
1057.50111568373
 30
0.0
 11
383.8487573572156
 21
1137.50111568373
 31
0.0
  0
INSERT
  5
3A2A
330
3A24
100
AcDbEntity
  8
DIM
 62
     0
370
    -2
100
AcDbBlockReference
  2
_DOT
 10
383.8487573572156
 20
1047.50111568373
 30
0.0
 41
10.0
 42
10.0
 43
10.0
 50
270.0
  0
INSERT
  5
3A2B
330
3A24
100
AcDbEntity
  8
DIM
 62
     0
370
    -2
100
AcDbBlockReference
  2
_DOT
 10
383.8487573572156
 20
1147.50111568373
 30
0.0
 41
10.0
 42
10.0
 43
10.0
 50
90.0
  0
MTEXT
  5
3A2C
330
3A24
100
AcDbEntity
  8
DIM
 62
     0
100
AcDbMText
 10
351.8442556690825
 20
1097.50111568373
 30
0.0
 40
24.0
 41
0.0
 46
0.0
 71
     5
 72
     1
  1
\A1;100
  7
ＭＳ ゴシック
 11
0.0
 21
1.0
 31
0.0
 73
     1
 44
1.0
  0
POINT
  5
3A2D
330
3A24
100
AcDbEntity
  8
Defpoints
 62
     0
100
AcDbPoint
 10
535.1126092311058
 20
1047.50111568373
 30
0.0
  0
POINT
  5
3A2E
330
3A24
100
AcDbEntity
  8
Defpoints
 62
     0
100
AcDbPoint
 10
535.1126092311058
 20
1147.50111568373
 30
0.0
  0
POINT
  5
3A2F
330
3A24
100
AcDbEntity
  8
Defpoints
 62
     0
100
AcDbPoint
 10
383.8487573572156
 20
1147.50111568373
 30
0.0
  0
ENDBLK
  5
3A26
330
3A24
100
AcDbEntity
  8
0
100
AcDbBlockEnd
  0
BLOCK
  5
3A31
330
3A30
100
AcDbEntity
  8
0
100
AcDbBlockBegin
  2
*D33
 70
     1
 10
0.0
 20
0.0
 30
0.0
  3
*D33
  1

  0
LINE
  5
3A33
330
3A30
100
AcDbEntity
  8
DIM
 62
     0
370
    -2
100
AcDbLine
 10
505.1126092311058
 20
1147.50111568373
 30
0.0
 11
383.8487573572156
 21
1147.50111568373
 31
0.0
  0
LINE
  5
3A34
330
3A30
100
AcDbEntity
  8
DIM
 62
     0
370
    -2
100
AcDbLine
 10
505.1126092311058
 20
1247.50111568373
 30
0.0
 11
383.8487573572156
 21
1247.50111568373
 31
0.0
  0
LINE
  5
3A35
330
3A30
100
AcDbEntity
  8
DIM
 62
     0
370
    -2
100
AcDbLine
 10
383.8487573572156
 20
1157.50111568373
 30
0.0
 11
383.8487573572156
 21
1237.50111568373
 31
0.0
  0
INSERT
  5
3A36
330
3A30
100
AcDbEntity
  8
DIM
 62
     0
370
    -2
100
AcDbBlockReference
  2
_DOT
 10
383.8487573572156
 20
1147.50111568373
 30
0.0
 41
10.0
 42
10.0
 43
10.0
 50
270.0
  0
INSERT
  5
3A37
330
3A30
100
AcDbEntity
  8
DIM
 62
     0
370
    -2
100
AcDbBlockReference
  2
_DOT
 10
383.8487573572156
 20
1247.50111568373
 30
0.0
 41
10.0
 42
10.0
 43
10.0
 50
90.0
  0
MTEXT
  5
3A38
330
3A30
100
AcDbEntity
  8
DIM
 62
     0
100
AcDbMText
 10
351.8442556690825
 20
1197.50111568373
 30
0.0
 40
24.0
 41
0.0
 46
0.0
 71
     5
 72
     1
  1
\A1;100
  7
ＭＳ ゴシック
 11
0.0
 21
1.0
 31
0.0
 73
     1
 44
1.0
  0
POINT
  5
3A39
330
3A30
100
AcDbEntity
  8
Defpoints
 62
     0
100
AcDbPoint
 10
535.1126092311058
 20
1147.50111568373
 30
0.0
  0
POINT
  5
3A3A
330
3A30
100
AcDbEntity
  8
Defpoints
 62
     0
100
AcDbPoint
 10
535.1126092311058
 20
1247.50111568373
 30
0.0
  0
POINT
  5
3A3B
330
3A30
100
AcDbEntity
  8
Defpoints
 62
     0
100
AcDbPoint
 10
383.8487573572156
 20
1247.50111568373
 30
0.0
  0
ENDBLK
  5
3A32
330
3A30
100
AcDbEntity
  8
0
100
AcDbBlockEnd
  0
BLOCK
  5
3A3D
330
3A3C
100
AcDbEntity
  8
0
100
AcDbBlockBegin
  2
*D34
 70
     1
 10
0.0
 20
0.0
 30
0.0
  3
*D34
  1

  0
LINE
  5
3A3F
330
3A3C
100
AcDbEntity
  8
DIM
 62
     0
370
    -2
100
AcDbLine
 10
441.1109497120649
 20
897.5011156837227
 30
0.0
 11
302.3243062446276
 21
897.5011156837227
 31
0.0
  0
LINE
  5
3A40
330
3A3C
100
AcDbEntity
  8
DIM
 62
     0
370
    -2
100
AcDbLine
 10
441.1109497120649
 20
1397.501115683738
 30
0.0
 11
302.3243062446277
 21
1397.501115683738
 31
0.0
  0
LINE
  5
3A41
330
3A3C
100
AcDbEntity
  8
DIM
 62
     0
370
    -2
100
AcDbLine
 10
302.3243062446276
 20
907.5011156837227
 30
0.0
 11
302.3243062446277
 21
1387.501115683738
 31
0.0
  0
INSERT
  5
3A42
330
3A3C
100
AcDbEntity
  8
DIM
 62
     0
370
    -2
100
AcDbBlockReference
  2
_DOT
 10
302.3243062446276
 20
897.5011156837227
 30
0.0
 41
10.0
 42
10.0
 43
10.0
 50
270.0
  0
INSERT
  5
3A43
330
3A3C
100
AcDbEntity
  8
DIM
 62
     0
370
    -2
100
AcDbBlockReference
  2
_DOT
 10
302.3243062446277
 20
1397.501115683738
 30
0.0
 41
10.0
 42
10.0
 43
10.0
 50
90.0
  0
MTEXT
  5
3A44
330
3A3C
100
AcDbEntity
  8
DIM
 62
     0
100
AcDbMText
 10
270.3198045564945
 20
1147.501115683731
 30
0.0
 40
24.0
 41
0.0
 46
0.0
 71
     5
 72
     1
  1
\A1;500
  7
ＭＳ ゴシック
 11
1.136868377216125E-16
 21
1.0
 31
0.0
 73
     1
 44
1.0
  0
POINT
  5
3A45
330
3A3C
100
AcDbEntity
  8
Defpoints
 62
     0
100
AcDbPoint
 10
471.1109497120649
 20
897.5011156837227
 30
0.0
  0
POINT
  5
3A46
330
3A3C
100
AcDbEntity
  8
Defpoints
 62
     0
100
AcDbPoint
 10
471.1109497120649
 20
1397.501115683738
 30
0.0
  0
POINT
  5
3A47
330
3A3C
100
AcDbEntity
  8
Defpoints
 62
     0
100
AcDbPoint
 10
302.3243062446277
 20
1397.501115683738
 30
0.0
  0
ENDBLK
  5
3A3E
330
3A3C
100
AcDbEntity
  8
0
100
AcDbBlockEnd
  0
BLOCK
  5
3A49
330
3A48
100
AcDbEntity
  8
0
100
AcDbBlockBegin
  2
*D35
 70
     1
 10
0.0
 20
0.0
 30
0.0
  3
*D35
  1

  0
LINE
  5
3A4B
330
3A48
100
AcDbEntity
  8
DIM
 62
     0
370
    -2
100
AcDbLine
 10
1755.261751435402
 20
897.5011156837315
 30
0.0
 11
1868.673352301524
 21
897.5011156837315
 31
0.0
  0
LINE
  5
3A4C
330
3A48
100
AcDbEntity
  8
DIM
 62
     0
370
    -2
100
AcDbLine
 10
1807.240167666937
 20
1147.450295810164
 30
0.0
 11
1868.673352301524
 21
1147.450295810164
 31
0.0
  0
LINE
  5
3A4D
330
3A48
100
AcDbEntity
  8
DIM
 62
     0
370
    -2
100
AcDbLine
 10
1868.673352301524
 20
907.5011156837315
 30
0.0
 11
1868.673352301524
 21
1137.450295810164
 31
0.0
  0
INSERT
  5
3A4E
330
3A48
100
AcDbEntity
  8
DIM
 62
     0
370
    -2
100
AcDbBlockReference
  2
_DOT
 10
1868.673352301524
 20
897.5011156837315
 30
0.0
 41
10.0
 42
10.0
 43
10.0
 50
270.0
  0
INSERT
  5
3A4F
330
3A48
100
AcDbEntity
  8
DIM
 62
     0
370
    -2
100
AcDbBlockReference
  2
_DOT
 10
1868.673352301524
 20
1147.450295810164
 30
0.0
 41
10.0
 42
10.0
 43
10.0
 50
90.0
  0
MTEXT
  5
3A50
330
3A48
100
AcDbEntity
  8
DIM
 62
     0
100
AcDbMText
 10
1836.668850613391
 20
1022.475705746948
 30
0.0
 40
24.0
 41
0.0
 46
0.0
 71
     5
 72
     1
  1
\A1;250
  7
ＭＳ ゴシック
 11
0.0
 21
1.0
 31
0.0
 73
     1
 44
1.0
  0
POINT
  5
3A51
330
3A48
100
AcDbEntity
  8
Defpoints
 62
     0
100
AcDbPoint
 10
1725.261751435402
 20
897.5011156837315
 30
0.0
  0
POINT
  5
3A52
330
3A48
100
AcDbEntity
  8
Defpoints
 62
     0
100
AcDbPoint
 10
1777.240167666937
 20
1147.450295810164
 30
0.0
  0
POINT
  5
3A53
330
3A48
100
AcDbEntity
  8
Defpoints
 62
     0
100
AcDbPoint
 10
1868.673352301524
 20
1147.450295810164
 30
0.0
  0
ENDBLK
  5
3A4A
330
3A48
100
AcDbEntity
  8
0
100
AcDbBlockEnd
  0
BLOCK
  5
3A9A
330
3A99
100
AcDbEntity
  8
0
100
AcDbBlockBegin
  2
*D36
 70
     1
 10
0.0
 20
0.0
 30
0.0
  3
*D36
  1

  0
LINE
  5
3A9C
330
3A99
100
AcDbEntity
  8
DIM
 62
     0
370
    -2
100
AcDbLine
 10
967.87410567034
 20
900.5992201190248
 30
0.0
 11
1059.997191841641
 21
900.5992201190248
 31
0.0
  0
LINE
  5
3A9D
330
3A99
100
AcDbEntity
  8
DIM
 62
     0
370
    -2
100
AcDbLine
 10
967.8754138527121
 20
1394.397339948715
 30
0.0
 11
1059.997191841641
 21
1394.397339948715
 31
0.0
  0
LINE
  5
3A9E
330
3A99
100
AcDbEntity
  8
DIM
 62
     0
370
    -2
100
AcDbLine
 10
1059.997191841641
 20
910.5992201190248
 30
0.0
 11
1059.997191841641
 21
1384.397339948715
 31
0.0
  0
INSERT
  5
3A9F
330
3A99
100
AcDbEntity
  8
DIM
 62
     0
370
    -2
100
AcDbBlockReference
  2
_DOT
 10
1059.997191841641
 20
900.5992201190248
 30
0.0
 41
10.0
 42
10.0
 43
10.0
 50
270.0
  0
INSERT
  5
3AA0
330
3A99
100
AcDbEntity
  8
DIM
 62
     0
370
    -2
100
AcDbBlockReference
  2
_DOT
 10
1059.997191841641
 20
1394.397339948715
 30
0.0
 41
10.0
 42
10.0
 43
10.0
 50
90.0
  0
MTEXT
  5
3AA1
330
3A99
100
AcDbEntity
  8
DIM
 62
     0
100
AcDbMText
 10
1027.992690153508
 20
1147.49828003387
 30
0.0
 40
24.0
 41
0.0
 46
0.0
 71
     5
 72
     1
  1
\A1;493
  7
ＭＳ ゴシック
 11
0.0
 21
1.0
 31
0.0
 73
     1
 44
1.0
  0
POINT
  5
3AA2
330
3A99
100
AcDbEntity
  8
Defpoints
 62
     0
100
AcDbPoint
 10
937.87410567034
 20
900.5992201190248
 30
0.0
  0
POINT
  5
3AA3
330
3A99
100
AcDbEntity
  8
Defpoints
 62
     0
100
AcDbPoint
 10
937.8754138527121
 20
1394.397339948715
 30
0.0
  0
POINT
  5
3AA4
330
3A99
100
AcDbEntity
  8
Defpoints
 62
     0
100
AcDbPoint
 10
1059.997191841641
 20
1394.397339948715
 30
0.0
  0
ENDBLK
  5
3A9B
330
3A99
100
AcDbEntity
  8
0
100
AcDbBlockEnd
  0
BLOCK
  5
3AA9
330
3AA8
100
AcDbEntity
  8
0
100
AcDbBlockBegin
  2
*D37
 70
     1
 10
0.0
 20
0.0
 30
0.0
  3
*D37
  1

  0
LINE
  5
3AAB
330
3AA8
100
AcDbEntity
  8
DIM
 62
     0
370
    -2
100
AcDbLine
 10
1623.034186672523
 20
867.5011156837315
 30
0.0
 11
1623.034186672523
 21
807.5806088997715
 31
0.0
  0
LINE
  5
3AAC
330
3AA8
100
AcDbEntity
  8
DIM
 62
     0
370
    -2
100
AcDbLine
 10
1668.271247597894
 20
868.2338570142767
 30
0.0
 11
1668.271247597894
 21
807.5806088997715
 31
0.0
  0
LINE
  5
3AAD
330
3AA8
100
AcDbEntity
  8
DIM
 62
     0
370
    -2
100
AcDbLine
 10
1633.034186672523
 20
807.5806088997715
 30
0.0
 11
1658.271247597894
 21
807.5806088997715
 31
0.0
  0
INSERT
  5
3AAE
330
3AA8
100
AcDbEntity
  8
DIM
 62
     0
370
    -2
100
AcDbBlockReference
  2
_DOT
 10
1623.034186672523
 20
807.5806088997715
 30
0.0
 41
10.0
 42
10.0
 43
10.0
 50
180.0
  0
INSERT
  5
3AAF
330
3AA8
100
AcDbEntity
  8
DIM
 62
     0
370
    -2
100
AcDbBlockReference
  2
_DOT
 10
1668.271247597894
 20
807.5806088997715
 30
0.0
 41
10.0
 42
10.0
 43
10.0
  0
MTEXT
  5
3AB0
330
3AA8
100
AcDbEntity
  8
DIM
 62
     0
100
AcDbMText
 10
1645.758736783687
 20
839.5851105879045
 30
0.0
 40
24.0
 41
0.0
 46
0.0
 71
     5
 72
     1
  1
\A1;45
  7
ＭＳ ゴシック
 73
     1
 44
1.0
  0
POINT
  5
3AB1
330
3AA8
100
AcDbEntity
  8
Defpoints
 62
     0
100
AcDbPoint
 10
1623.034186672523
 20
897.5011156837315
 30
0.0
  0
POINT
  5
3AB2
330
3AA8
100
AcDbEntity
  8
Defpoints
 62
     0
100
AcDbPoint
 10
1668.271247597894
 20
898.2338570142767
 30
0.0
  0
POINT
  5
3AB3
330
3AA8
100
AcDbEntity
  8
Defpoints
 62
     0
100
AcDbPoint
 10
1668.271247597894
 20
807.5806088997715
 30
0.0
  0
ENDBLK
  5
3AAA
330
3AA8
100
AcDbEntity
  8
0
100
AcDbBlockEnd
  0
BLOCK
  5
3AC9
330
3AC8
100
AcDbEntity
  8
0
100
AcDbBlockBegin
  2
*D38
 70
     1
 10
0.0
 20
0.0
 30
0.0
  3
*D38
  1

  0
LINE
  5
3ACA
330
3AC8
100
AcDbEntity
  8
Quote
 62
     0
370
    -2
100
AcDbLine
 10
784.2012817891609
 20
593.3001169809913
 30
0.0
 11
732.9406231629431
 21
593.3001169809913
 31
0.0
  0
LINE
  5
3ACB
330
3AC8
100
AcDbEntity
  8
Quote
 62
     0
370
    -2
100
AcDbLine
 10
886.0877435701582
 20
443.4041987028854
 30
0.0
 11
732.9406231629431
 21
443.4041987028854
 31
0.0
  0
LINE
  5
3ACC
330
3AC8
100
AcDbEntity
  8
Quote
 62
     0
370
    -2
100
AcDbLine
 10
733.120623162943
 20
593.1201169809914
 30
0.0
 11
733.120623162943
 21
518.5321578419384
 31
0.0
  0
LINE
  5
3ACD
330
3AC8
100
AcDbEntity
  8
Quote
 62
     0
370
    -2
100
AcDbLine
 10
733.120623162943
 20
443.5841987028854
 30
0.0
 11
733.120623162943
 21
518.1721578419383
 31
0.0
  0
SOLID
  5
3ACE
330
3AC8
100
AcDbEntity
  8
Quote
 62
     0
100
AcDbTrace
 10
733.150623162943
 20
593.1201169809914
 30
0.0
 11
733.0906231629431
 21
593.1201169809914
 31
0.0
 12
733.120623162943
 22
593.3001169809913
 32
0.0
 13
733.120623162943
 23
593.3001169809913
 33
0.0
  0
SOLID
  5
3ACF
330
3AC8
100
AcDbEntity
  8
Quote
 62
     0
100
AcDbTrace
 10
733.0906231629431
 20
443.5841987028854
 30
0.0
 11
733.150623162943
 21
443.5841987028854
 31
0.0
 12
733.120623162943
 22
443.4041987028854
 32
0.0
 13
733.120623162943
 23
443.4041987028854
 33
0.0
  0
MTEXT
  5
3AD0
330
3AC8
100
AcDbEntity
  8
Quote
 62
     0
100
AcDbMText
 10
733.120623162943
 20
518.3521578419384
 30
0.0
 40
0.18
 41
0.0
 46
0.0
 71
     5
 72
     1
  1
\A1;149.8959
 73
     1
 44
1.0
  0
POINT
  5
3AD1
330
3AC8
100
AcDbEntity
  8
Defpoints
 62
     0
100
AcDbPoint
 10
784.2637817891609
 20
593.3001169809913
 30
0.0
  0
POINT
  5
3AD2
330
3AC8
100
AcDbEntity
  8
Defpoints
 62
     0
100
AcDbPoint
 10
886.1502435701582
 20
443.4041987028854
 30
0.0
  0
POINT
  5
3AD3
330
3AC8
100
AcDbEntity
  8
Defpoints
 62
     0
100
AcDbPoint
 10
733.120623162943
 20
443.4041987028854
 30
0.0
  0
ENDBLK
  5
3AD4
330
3AC8
100
AcDbEntity
  8
0
100
AcDbBlockEnd
  0
BLOCK
  5
3B3B
330
3B3A
100
AcDbEntity
  8
0
100
AcDbBlockBegin
  2
*D39
 70
     1
 10
0.0
 20
0.0
 30
0.0
  3
*D39
  1

  0
LINE
  5
3B3C
330
3B3A
100
AcDbEntity
  8
Quote
 62
     0
370
    -2
100
AcDbLine
 10
290.704827303719
 20
0.0
 30
0.0
 11
579.4640275295056
 21
-0.0000000000000178
 31
0.0
  0
LINE
  5
3B3D
330
3B3A
100
AcDbEntity
  8
Quote
 62
     0
370
    -2
100
AcDbLine
 10
444.5669117505477
 20
11.0
 30
0.0
 11
579.4640275295056
 21
10.99999999999999
 31
0.0
  0
LINE
  5
3B3E
330
3B3A
100
AcDbEntity
  8
Quote
 62
     0
370
    -2
100
AcDbLine
 10
579.2840275295057
 20
0.1799999999999822
 30
0.0
 11
579.2840275295057
 21
5.319999999999987
 31
0.0
  0
LINE
  5
3B3F
330
3B3A
100
AcDbEntity
  8
Quote
 62
     0
370
    -2
100
AcDbLine
 10
579.2840275295057
 20
10.81999999999999
 30
0.0
 11
579.2840275295057
 21
5.679999999999986
 31
0.0
  0
SOLID
  5
3B40
330
3B3A
100
AcDbEntity
  8
Quote
 62
     0
100
AcDbTrace
 10
579.2540275295057
 20
0.1799999999999822
 30
0.0
 11
579.3140275295057
 21
0.1799999999999822
 31
0.0
 12
579.2840275295057
 22
-0.0000000000000178
 32
0.0
 13
579.2840275295057
 23
-0.0000000000000178
 33
0.0
  0
SOLID
  5
3B41
330
3B3A
100
AcDbEntity
  8
Quote
 62
     0
100
AcDbTrace
 10
579.3140275295057
 20
10.81999999999999
 30
0.0
 11
579.2540275295057
 21
10.81999999999999
 31
0.0
 12
579.2840275295057
 22
10.99999999999999
 32
0.0
 13
579.2840275295057
 23
10.99999999999999
 33
0.0
  0
MTEXT
  5
3B42
330
3B3A
100
AcDbEntity
  8
Quote
 62
     0
100
AcDbMText
 10
579.2840275295057
 20
5.499999999999987
 30
0.0
 40
0.18
 41
0.0
 46
0.0
 71
     5
 72
     1
  1
\A1;10
 73
     1
 44
1.0
  0
POINT
  5
3B43
330
3B3A
100
AcDbEntity
  8
Defpoints
 62
     0
100
AcDbPoint
 10
290.642327303719
 20
0.0
 30
0.0
  0
POINT
  5
3B44
330
3B3A
100
AcDbEntity
  8
Defpoints
 62
     0
100
AcDbPoint
 10
444.5044117505477
 20
11.0
 30
0.0
  0
POINT
  5
3B45
330
3B3A
100
AcDbEntity
  8
Defpoints
 62
     0
100
AcDbPoint
 10
579.2840275295057
 20
10.99999999999999
 30
0.0
  0
ENDBLK
  5
3B46
330
3B3A
100
AcDbEntity
  8
0
100
AcDbBlockEnd
  0
BLOCK
  5
3B49
330
3B48
100
AcDbEntity
  8
0
100
AcDbBlockBegin
  2
*D40
 70
     1
 10
0.0
 20
0.0
 30
0.0
  3
*D40
  1

  0
LINE
  5
3B4A
330
3B48
100
AcDbEntity
  8
Quote
 62
     0
370
    -2
100
AcDbLine
 10
523.2025571321333
 20
111.9999999984315
 30
0.0
 11
579.464027529512
 21
111.9999999984315
 31
0.0
  0
LINE
  5
3B4B
330
3B48
100
AcDbEntity
  8
Quote
 62
     0
370
    -2
100
AcDbLine
 10
496.429840323749
 20
11.0
 30
0.0
 11
579.464027529512
 21
10.99999999999999
 31
0.0
  0
LINE
  5
3B4C
330
3B48
100
AcDbEntity
  8
Quote
 62
     0
370
    -2
100
AcDbLine
 10
579.2840275295121
 20
111.8199999984315
 30
0.0
 11
579.2840275295121
 21
61.67999999921574
 31
0.0
  0
LINE
  5
3B4D
330
3B48
100
AcDbEntity
  8
Quote
 62
     0
370
    -2
100
AcDbLine
 10
579.2840275295121
 20
11.17999999999999
 30
0.0
 11
579.2840275295121
 21
61.31999999921572
 31
0.0
  0
SOLID
  5
3B4E
330
3B48
100
AcDbEntity
  8
Quote
 62
     0
100
AcDbTrace
 10
579.314027529512
 20
111.8199999984315
 30
0.0
 11
579.2540275295121
 21
111.8199999984315
 31
0.0
 12
579.2840275295121
 22
111.9999999984315
 32
0.0
 13
579.2840275295121
 23
111.9999999984315
 33
0.0
  0
SOLID
  5
3B4F
330
3B48
100
AcDbEntity
  8
Quote
 62
     0
100
AcDbTrace
 10
579.2540275295121
 20
11.17999999999999
 30
0.0
 11
579.314027529512
 21
11.17999999999999
 31
0.0
 12
579.2840275295121
 22
10.99999999999999
 32
0.0
 13
579.2840275295121
 23
10.99999999999999
 33
0.0
  0
MTEXT
  5
3B50
330
3B48
100
AcDbEntity
  8
Quote
 62
     0
100
AcDbMText
 10
579.2840275295121
 20
61.49999999921573
 30
0.0
 40
0.18
 41
0.0
 46
0.0
 71
     5
 72
     1
  1
\A1;100
 73
     1
 44
1.0
  0
POINT
  5
3B51
330
3B48
100
AcDbEntity
  8
Defpoints
 62
     0
100
AcDbPoint
 10
523.1400571321333
 20
111.9999999984315
 30
0.0
  0
POINT
  5
3B52
330
3B48
100
AcDbEntity
  8
Defpoints
 62
     0
100
AcDbPoint
 10
496.367340323749
 20
11.0
 30
0.0
  0
POINT
  5
3B53
330
3B48
100
AcDbEntity
  8
Defpoints
 62
     0
100
AcDbPoint
 10
579.2840275295121
 20
10.99999999999999
 30
0.0
  0
ENDBLK
  5
3B54
330
3B48
100
AcDbEntity
  8
0
100
AcDbBlockEnd
  0
BLOCK
  5
3B57
330
3B56
100
AcDbEntity
  8
0
100
AcDbBlockBegin
  2
*D41
 70
     1
 10
0.0
 20
0.0
 30
0.0
  3
*D41
  1

  0
LINE
  5
3B58
330
3B56
100
AcDbEntity
  8
Quote
 62
     0
370
    -2
100
AcDbLine
 10
290.6423273037153
 20
21.27852092904322
 30
0.0
 11
290.6423273037153
 21
157.7982589166638
 31
0.0
  0
LINE
  5
3B59
330
3B56
100
AcDbEntity
  8
Quote
 62
     0
370
    -2
100
AcDbLine
 10
540.5382455818121
 20
109.0819894494974
 30
0.0
 11
540.5382455818121
 21
157.7982589166638
 31
0.0
  0
LINE
  5
3B5A
330
3B56
100
AcDbEntity
  8
Quote
 62
     0
370
    -2
100
AcDbLine
 10
290.8223273037153
 20
157.6182589166638
 30
0.0
 11
414.8702864427638
 21
157.6182589166638
 31
0.0
  0
LINE
  5
3B5B
330
3B56
100
AcDbEntity
  8
Quote
 62
     0
370
    -2
100
AcDbLine
 10
540.3582455818122
 20
157.6182589166638
 30
0.0
 11
416.3102864427636
 21
157.6182589166638
 31
0.0
  0
SOLID
  5
3B5C
330
3B56
100
AcDbEntity
  8
Quote
 62
     0
100
AcDbTrace
 10
290.8223273037153
 20
157.6482589166638
 30
0.0
 11
290.8223273037153
 21
157.5882589166638
 31
0.0
 12
290.6423273037153
 22
157.6182589166638
 32
0.0
 13
290.6423273037153
 23
157.6182589166638
 33
0.0
  0
SOLID
  5
3B5D
330
3B56
100
AcDbEntity
  8
Quote
 62
     0
100
AcDbTrace
 10
540.3582455818122
 20
157.5882589166638
 30
0.0
 11
540.3582455818122
 21
157.6482589166638
 31
0.0
 12
540.5382455818121
 22
157.6182589166638
 32
0.0
 13
540.5382455818121
 23
157.6182589166638
 33
0.0
  0
MTEXT
  5
3B5E
330
3B56
100
AcDbEntity
  8
Quote
 62
     0
100
AcDbMText
 10
415.5902864427637
 20
157.6182589166638
 30
0.0
 40
0.18
 41
0.0
 46
0.0
 71
     5
 72
     1
  1
\A1;249.8959
 73
     1
 44
1.0
  0
POINT
  5
3B5F
330
3B56
100
AcDbEntity
  8
Defpoints
 62
     0
100
AcDbPoint
 10
290.6423273037153
 20
21.21602092904322
 30
0.0
  0
POINT
  5
3B60
330
3B56
100
AcDbEntity
  8
Defpoints
 62
     0
100
AcDbPoint
 10
540.5382455818121
 20
109.0194894494974
 30
0.0
  0
POINT
  5
3B61
330
3B56
100
AcDbEntity
  8
Defpoints
 62
     0
100
AcDbPoint
 10
540.5382455818121
 20
157.6182589166638
 30
0.0
  0
ENDBLK
  5
3B62
330
3B56
100
AcDbEntity
  8
0
100
AcDbBlockEnd
  0
BLOCK
  5
3BFF
330
3BFE
100
AcDbEntity
  8
0
100
AcDbBlockBegin
  2
*D42
 70
     1
 10
0.0
 20
0.0
 30
0.0
  3
*D42
  1

  0
LINE
  5
3C00
330
3BFE
100
AcDbEntity
  8
Quote
 62
     0
370
    -2
100
AcDbLine
 10
44.475063308073
 20
293.5082804247904
 30
0.0
 11
0.3599999999999453
 21
293.5082804247904
 31
0.0
  0
LINE
  5
3C01
330
3BFE
100
AcDbEntity
  8
Quote
 62
     0
370
    -2
100
AcDbLine
 10
44.475063308073
 20
593.5082804247903
 30
0.0
 11
0.3599999999999636
 21
593.5082804247903
 31
0.0
  0
LINE
  5
3C02
330
3BFE
100
AcDbEntity
  8
Quote
 62
     0
370
    -2
100
AcDbLine
 10
0.5399999999999453
 20
293.6882804247904
 30
0.0
 11
0.5399999999999544
 21
443.3282804247904
 31
0.0
  0
LINE
  5
3C03
330
3BFE
100
AcDbEntity
  8
Quote
 62
     0
370
    -2
100
AcDbLine
 10
0.5399999999999636
 20
593.3282804247904
 30
0.0
 11
0.5399999999999545
 21
443.6882804247903
 31
0.0
  0
SOLID
  5
3C04
330
3BFE
100
AcDbEntity
  8
Quote
 62
     0
100
AcDbTrace
 10
0.5099999999999453
 20
293.6882804247904
 30
0.0
 11
0.5699999999999453
 21
293.6882804247904
 31
0.0
 12
0.5399999999999453
 22
293.5082804247904
 32
0.0
 13
0.5399999999999453
 23
293.5082804247904
 33
0.0
  0
SOLID
  5
3C05
330
3BFE
100
AcDbEntity
  8
Quote
 62
     0
100
AcDbTrace
 10
0.5699999999999636
 20
593.3282804247904
 30
0.0
 11
0.5099999999999636
 21
593.3282804247904
 31
0.0
 12
0.5399999999999636
 22
593.5082804247903
 32
0.0
 13
0.5399999999999636
 23
593.5082804247903
 33
0.0
  0
MTEXT
  5
3C06
330
3BFE
100
AcDbEntity
  8
Quote
 62
     0
100
AcDbMText
 10
0.5399999999999545
 20
443.5082804247903
 30
0.0
 40
0.18
 41
0.0
 46
0.0
 71
     5
 72
     1
  1
\A1;300.0000
 73
     1
 44
1.0
  0
POINT
  5
3C07
330
3BFE
100
AcDbEntity
  8
Defpoints
 62
     0
100
AcDbPoint
 10
44.537563308073
 20
293.5082804247904
 30
0.0
  0
POINT
  5
3C08
330
3BFE
100
AcDbEntity
  8
Defpoints
 62
     0
100
AcDbPoint
 10
44.537563308073
 20
593.5082804247903
 30
0.0
  0
POINT
  5
3C09
330
3BFE
100
AcDbEntity
  8
Defpoints
 62
     0
100
AcDbPoint
 10
0.5399999999999636
 20
593.5082804247903
 30
0.0
  0
ENDBLK
  5
3C0A
330
3BFE
100
AcDbEntity
  8
0
100
AcDbBlockEnd
  0
BLOCK
  5
3C0D
330
3C0C
100
AcDbEntity
  8
0
100
AcDbBlockBegin
  2
*D43
 70
     1
 10
0.0
 20
0.0
 30
0.0
  3
*D43
  1

  0
LINE
  5
3C0E
330
3C0C
100
AcDbEntity
  8
Quote
 62
     0
370
    -2
100
AcDbLine
 10
40.53999999999724
 20
589.5732171167145
 30
0.0
 11
40.53999999999724
 21
638.5360338754564
 31
0.0
  0
LINE
  5
3C0F
330
3C0C
100
AcDbEntity
  8
Quote
 62
     0
370
    -2
100
AcDbLine
 10
540.53999999999
 20
589.5732171167148
 30
0.0
 11
540.53999999999
 21
638.5360338754564
 31
0.0
  0
LINE
  5
3C10
330
3C0C
100
AcDbEntity
  8
Quote
 62
     0
370
    -2
100
AcDbLine
 10
40.71999999999723
 20
638.3560338754564
 30
0.0
 11
289.9099999999936
 21
638.3560338754564
 31
0.0
  0
LINE
  5
3C11
330
3C0C
100
AcDbEntity
  8
Quote
 62
     0
370
    -2
100
AcDbLine
 10
540.35999999999
 20
638.3560338754564
 30
0.0
 11
291.1699999999936
 21
638.3560338754564
 31
0.0
  0
SOLID
  5
3C12
330
3C0C
100
AcDbEntity
  8
Quote
 62
     0
100
AcDbTrace
 10
40.71999999999723
 20
638.3860338754564
 30
0.0
 11
40.71999999999723
 21
638.3260338754565
 31
0.0
 12
40.53999999999724
 22
638.3560338754564
 32
0.0
 13
40.53999999999724
 23
638.3560338754564
 33
0.0
  0
SOLID
  5
3C13
330
3C0C
100
AcDbEntity
  8
Quote
 62
     0
100
AcDbTrace
 10
540.35999999999
 20
638.3260338754565
 30
0.0
 11
540.35999999999
 21
638.3860338754564
 31
0.0
 12
540.53999999999
 22
638.3560338754564
 32
0.0
 13
540.53999999999
 23
638.3560338754564
 33
0.0
  0
MTEXT
  5
3C14
330
3C0C
100
AcDbEntity
  8
Quote
 62
     0
100
AcDbMText
 10
290.5399999999936
 20
638.3560338754564
 30
0.0
 40
0.18
 41
0.0
 46
0.0
 71
     5
 72
     1
  1
\A1;500.0000
 73
     1
 44
1.0
  0
POINT
  5
3C15
330
3C0C
100
AcDbEntity
  8
Defpoints
 62
     0
100
AcDbPoint
 10
40.53999999999724
 20
589.5107171167145
 30
0.0
  0
POINT
  5
3C16
330
3C0C
100
AcDbEntity
  8
Defpoints
 62
     0
100
AcDbPoint
 10
540.53999999999
 20
589.5107171167148
 30
0.0
  0
POINT
  5
3C17
330
3C0C
100
AcDbEntity
  8
Defpoints
 62
     0
100
AcDbPoint
 10
540.53999999999
 20
638.3560338754564
 30
0.0
  0
ENDBLK
  5
3C18
330
3C0C
100
AcDbEntity
  8
0
100
AcDbBlockEnd
  0
BLOCK
  5
3D22
330
3D21
100
AcDbEntity
  8
0
100
AcDbBlockBegin
  2
*D44
 70
     1
 10
0.0
 20
0.0
 30
0.0
  3
*D44
  1

  0
LINE
  5
3D24
330
3D21
100
AcDbEntity
  8
Quote
 62
     0
370
    -2
100
AcDbLine
 10
3489.710636627869
 20
2236.219807303572
 30
0.0
 11
3438.449978001652
 21
2236.219807303572
 31
0.0
  0
LINE
  5
3D25
330
3D21
100
AcDbEntity
  8
Quote
 62
     0
370
    -2
100
AcDbLine
 10
3591.597098408867
 20
2086.323889025466
 30
0.0
 11
3438.449978001652
 21
2086.323889025466
 31
0.0
  0
LINE
  5
3D26
330
3D21
100
AcDbEntity
  8
Quote
 62
     0
370
    -2
100
AcDbLine
 10
3438.629978001652
 20
2236.039807303572
 30
0.0
 11
3438.629978001652
 21
2161.451848164519
 31
0.0
  0
LINE
  5
3D27
330
3D21
100
AcDbEntity
  8
Quote
 62
     0
370
    -2
100
AcDbLine
 10
3438.629978001652
 20
2086.503889025466
 30
0.0
 11
3438.629978001652
 21
2161.091848164519
 31
0.0
  0
SOLID
  5
3D28
330
3D21
100
AcDbEntity
  8
Quote
 62
     0
100
AcDbTrace
 10
3438.659978001652
 20
2236.039807303572
 30
0.0
 11
3438.599978001651
 21
2236.039807303572
 31
0.0
 12
3438.629978001652
 22
2236.219807303572
 32
0.0
 13
3438.629978001652
 23
2236.219807303572
 33
0.0
  0
SOLID
  5
3D29
330
3D21
100
AcDbEntity
  8
Quote
 62
     0
100
AcDbTrace
 10
3438.599978001651
 20
2086.503889025466
 30
0.0
 11
3438.659978001652
 21
2086.503889025466
 31
0.0
 12
3438.629978001652
 22
2086.323889025466
 32
0.0
 13
3438.629978001652
 23
2086.323889025466
 33
0.0
  0
MTEXT
  5
3D2A
330
3D21
100
AcDbEntity
  8
Quote
 62
     0
100
AcDbMText
 10
3438.629978001652
 20
2161.271848164519
 30
0.0
 40
0.18
 41
0.0
 46
0.0
 71
     5
 72
     1
  1
\A1;149.8959
 73
     1
 44
1.0
  0
POINT
  5
3D2B
330
3D21
100
AcDbEntity
  8
Defpoints
 62
     0
100
AcDbPoint
 10
3489.773136627869
 20
2236.219807303572
 30
0.0
  0
POINT
  5
3D2C
330
3D21
100
AcDbEntity
  8
Defpoints
 62
     0
100
AcDbPoint
 10
3591.659598408867
 20
2086.323889025466
 30
0.0
  0
POINT
  5
3D2D
330
3D21
100
AcDbEntity
  8
Defpoints
 62
     0
100
AcDbPoint
 10
3438.629978001652
 20
2086.323889025466
 30
0.0
  0
ENDBLK
  5
3D23
330
3D21
100
AcDbEntity
  8
0
100
AcDbBlockEnd
  0
BLOCK
  5
3D2F
330
3D2E
100
AcDbEntity
  8
0
100
AcDbBlockBegin
  2
*D45
 70
     1
 10
0.0
 20
0.0
 30
0.0
  3
*D45
  1

  0
LINE
  5
3D31
330
3D2E
100
AcDbEntity
  8
Quote
 62
     0
370
    -2
100
AcDbLine
 10
2996.214182142427
 20
1642.919690322581
 30
0.0
 11
3284.973382368214
 21
1642.919690322581
 31
0.0
  0
LINE
  5
3D32
330
3D2E
100
AcDbEntity
  8
Quote
 62
     0
370
    -2
100
AcDbLine
 10
3150.076266589256
 20
1653.919690322581
 30
0.0
 11
3284.973382368214
 21
1653.919690322581
 31
0.0
  0
LINE
  5
3D33
330
3D2E
100
AcDbEntity
  8
Quote
 62
     0
370
    -2
100
AcDbLine
 10
3284.793382368214
 20
1643.099690322581
 30
0.0
 11
3284.793382368214
 21
1648.239690322581
 31
0.0
  0
LINE
  5
3D34
330
3D2E
100
AcDbEntity
  8
Quote
 62
     0
370
    -2
100
AcDbLine
 10
3284.793382368214
 20
1653.739690322581
 30
0.0
 11
3284.793382368214
 21
1648.59969032258
 31
0.0
  0
SOLID
  5
3D35
330
3D2E
100
AcDbEntity
  8
Quote
 62
     0
100
AcDbTrace
 10
3284.763382368214
 20
1643.099690322581
 30
0.0
 11
3284.823382368214
 21
1643.099690322581
 31
0.0
 12
3284.793382368214
 22
1642.919690322581
 32
0.0
 13
3284.793382368214
 23
1642.919690322581
 33
0.0
  0
SOLID
  5
3D36
330
3D2E
100
AcDbEntity
  8
Quote
 62
     0
100
AcDbTrace
 10
3284.823382368214
 20
1653.739690322581
 30
0.0
 11
3284.763382368214
 21
1653.739690322581
 31
0.0
 12
3284.793382368214
 22
1653.919690322581
 32
0.0
 13
3284.793382368214
 23
1653.919690322581
 33
0.0
  0
MTEXT
  5
3D37
330
3D2E
100
AcDbEntity
  8
Quote
 62
     0
100
AcDbMText
 10
3284.793382368214
 20
1648.419690322581
 30
0.0
 40
0.18
 41
0.0
 46
0.0
 71
     5
 72
     1
  1
\A1;10
 73
     1
 44
1.0
  0
POINT
  5
3D38
330
3D2E
100
AcDbEntity
  8
Defpoints
 62
     0
100
AcDbPoint
 10
2996.151682142427
 20
1642.919690322581
 30
0.0
  0
POINT
  5
3D39
330
3D2E
100
AcDbEntity
  8
Defpoints
 62
     0
100
AcDbPoint
 10
3150.013766589256
 20
1653.919690322581
 30
0.0
  0
POINT
  5
3D3A
330
3D2E
100
AcDbEntity
  8
Defpoints
 62
     0
100
AcDbPoint
 10
3284.793382368214
 20
1653.919690322581
 30
0.0
  0
ENDBLK
  5
3D30
330
3D2E
100
AcDbEntity
  8
0
100
AcDbBlockEnd
  0
BLOCK
  5
3D3C
330
3D3B
100
AcDbEntity
  8
0
100
AcDbBlockBegin
  2
*D46
 70
     1
 10
0.0
 20
0.0
 30
0.0
  3
*D46
  1

  0
LINE
  5
3D3E
330
3D3B
100
AcDbEntity
  8
Quote
 62
     0
370
    -2
100
AcDbLine
 10
3228.711911970842
 20
1754.919690321012
 30
0.0
 11
3284.97338236822
 21
1754.919690321012
 31
0.0
  0
LINE
  5
3D3F
330
3D3B
100
AcDbEntity
  8
Quote
 62
     0
370
    -2
100
AcDbLine
 10
3201.939195162458
 20
1653.919690322581
 30
0.0
 11
3284.97338236822
 21
1653.919690322581
 31
0.0
  0
LINE
  5
3D40
330
3D3B
100
AcDbEntity
  8
Quote
 62
     0
370
    -2
100
AcDbLine
 10
3284.793382368221
 20
1754.739690321012
 30
0.0
 11
3284.793382368221
 21
1704.599690321796
 31
0.0
  0
LINE
  5
3D41
330
3D3B
100
AcDbEntity
  8
Quote
 62
     0
370
    -2
100
AcDbLine
 10
3284.793382368221
 20
1654.099690322581
 30
0.0
 11
3284.793382368221
 21
1704.239690321797
 31
0.0
  0
SOLID
  5
3D42
330
3D3B
100
AcDbEntity
  8
Quote
 62
     0
100
AcDbTrace
 10
3284.823382368221
 20
1754.739690321012
 30
0.0
 11
3284.76338236822
 21
1754.739690321012
 31
0.0
 12
3284.793382368221
 22
1754.919690321012
 32
0.0
 13
3284.793382368221
 23
1754.919690321012
 33
0.0
  0
SOLID
  5
3D43
330
3D3B
100
AcDbEntity
  8
Quote
 62
     0
100
AcDbTrace
 10
3284.76338236822
 20
1654.099690322581
 30
0.0
 11
3284.823382368221
 21
1654.099690322581
 31
0.0
 12
3284.793382368221
 22
1653.919690322581
 32
0.0
 13
3284.793382368221
 23
1653.919690322581
 33
0.0
  0
MTEXT
  5
3D44
330
3D3B
100
AcDbEntity
  8
Quote
 62
     0
100
AcDbMText
 10
3284.793382368221
 20
1704.419690321796
 30
0.0
 40
0.18
 41
0.0
 46
0.0
 71
     5
 72
     1
  1
\A1;100
 73
     1
 44
1.0
  0
POINT
  5
3D45
330
3D3B
100
AcDbEntity
  8
Defpoints
 62
     0
100
AcDbPoint
 10
3228.649411970842
 20
1754.919690321012
 30
0.0
  0
POINT
  5
3D46
330
3D3B
100
AcDbEntity
  8
Defpoints
 62
     0
100
AcDbPoint
 10
3201.876695162458
 20
1653.919690322581
 30
0.0
  0
POINT
  5
3D47
330
3D3B
100
AcDbEntity
  8
Defpoints
 62
     0
100
AcDbPoint
 10
3284.793382368221
 20
1653.919690322581
 30
0.0
  0
ENDBLK
  5
3D3D
330
3D3B
100
AcDbEntity
  8
0
100
AcDbBlockEnd
  0
BLOCK
  5
3D49
330
3D48
100
AcDbEntity
  8
0
100
AcDbBlockBegin
  2
*D47
 70
     1
 10
0.0
 20
0.0
 30
0.0
  3
*D47
  1

  0
LINE
  5
3D4B
330
3D48
100
AcDbEntity
  8
Quote
 62
     0
370
    -2
100
AcDbLine
 10
2996.151682142424
 20
1664.198211251624
 30
0.0
 11
2996.151682142424
 21
1800.717949239244
 31
0.0
  0
LINE
  5
3D4C
330
3D48
100
AcDbEntity
  8
Quote
 62
     0
370
    -2
100
AcDbLine
 10
3246.047600420521
 20
1752.001679772078
 30
0.0
 11
3246.047600420521
 21
1800.717949239244
 31
0.0
  0
LINE
  5
3D4D
330
3D48
100
AcDbEntity
  8
Quote
 62
     0
370
    -2
100
AcDbLine
 10
2996.331682142424
 20
1800.537949239244
 30
0.0
 11
3120.379641281472
 21
1800.537949239244
 31
0.0
  0
LINE
  5
3D4E
330
3D48
100
AcDbEntity
  8
Quote
 62
     0
370
    -2
100
AcDbLine
 10
3245.867600420521
 20
1800.537949239244
 30
0.0
 11
3121.819641281472
 21
1800.537949239244
 31
0.0
  0
SOLID
  5
3D4F
330
3D48
100
AcDbEntity
  8
Quote
 62
     0
100
AcDbTrace
 10
2996.331682142424
 20
1800.567949239244
 30
0.0
 11
2996.331682142424
 21
1800.507949239244
 31
0.0
 12
2996.151682142424
 22
1800.537949239244
 32
0.0
 13
2996.151682142424
 23
1800.537949239244
 33
0.0
  0
SOLID
  5
3D50
330
3D48
100
AcDbEntity
  8
Quote
 62
     0
100
AcDbTrace
 10
3245.867600420521
 20
1800.507949239244
 30
0.0
 11
3245.867600420521
 21
1800.567949239244
 31
0.0
 12
3246.047600420521
 22
1800.537949239244
 32
0.0
 13
3246.047600420521
 23
1800.537949239244
 33
0.0
  0
MTEXT
  5
3D51
330
3D48
100
AcDbEntity
  8
Quote
 62
     0
100
AcDbMText
 10
3121.099641281472
 20
1800.537949239244
 30
0.0
 40
0.18
 41
0.0
 46
0.0
 71
     5
 72
     1
  1
\A1;249.8959
 73
     1
 44
1.0
  0
POINT
  5
3D52
330
3D48
100
AcDbEntity
  8
Defpoints
 62
     0
100
AcDbPoint
 10
2996.151682142424
 20
1664.135711251624
 30
0.0
  0
POINT
  5
3D53
330
3D48
100
AcDbEntity
  8
Defpoints
 62
     0
100
AcDbPoint
 10
3246.047600420521
 20
1751.939179772078
 30
0.0
  0
POINT
  5
3D54
330
3D48
100
AcDbEntity
  8
Defpoints
 62
     0
100
AcDbPoint
 10
3246.047600420521
 20
1800.537949239244
 30
0.0
  0
ENDBLK
  5
3D4A
330
3D48
100
AcDbEntity
  8
0
100
AcDbBlockEnd
  0
BLOCK
  5
3D56
330
3D55
100
AcDbEntity
  8
0
100
AcDbBlockBegin
  2
*D48
 70
     1
 10
0.0
 20
0.0
 30
0.0
  3
*D48
  1

  0
LINE
  5
3D58
330
3D55
100
AcDbEntity
  8
Quote
 62
     0
370
    -2
100
AcDbLine
 10
2749.984418146782
 20
1936.427970747371
 30
0.0
 11
2705.869354838709
 21
1936.427970747371
 31
0.0
  0
LINE
  5
3D59
330
3D55
100
AcDbEntity
  8
Quote
 62
     0
370
    -2
100
AcDbLine
 10
2749.984418146782
 20
2236.427970747371
 30
0.0
 11
2705.869354838709
 21
2236.427970747371
 31
0.0
  0
LINE
  5
3D5A
330
3D55
100
AcDbEntity
  8
Quote
 62
     0
370
    -2
100
AcDbLine
 10
2706.049354838708
 20
1936.607970747371
 30
0.0
 11
2706.049354838708
 21
2086.247970747371
 31
0.0
  0
LINE
  5
3D5B
330
3D55
100
AcDbEntity
  8
Quote
 62
     0
370
    -2
100
AcDbLine
 10
2706.049354838708
 20
2236.247970747371
 30
0.0
 11
2706.049354838708
 21
2086.607970747371
 31
0.0
  0
SOLID
  5
3D5C
330
3D55
100
AcDbEntity
  8
Quote
 62
     0
100
AcDbTrace
 10
2706.019354838708
 20
1936.607970747371
 30
0.0
 11
2706.079354838709
 21
1936.607970747371
 31
0.0
 12
2706.049354838708
 22
1936.427970747371
 32
0.0
 13
2706.049354838708
 23
1936.427970747371
 33
0.0
  0
SOLID
  5
3D5D
330
3D55
100
AcDbEntity
  8
Quote
 62
     0
100
AcDbTrace
 10
2706.079354838709
 20
2236.247970747371
 30
0.0
 11
2706.019354838708
 21
2236.247970747371
 31
0.0
 12
2706.049354838708
 22
2236.427970747371
 32
0.0
 13
2706.049354838708
 23
2236.427970747371
 33
0.0
  0
MTEXT
  5
3D5E
330
3D55
100
AcDbEntity
  8
Quote
 62
     0
100
AcDbMText
 10
2706.049354838708
 20
2086.427970747371
 30
0.0
 40
0.18
 41
0.0
 46
0.0
 71
     5
 72
     1
  1
\A1;300.0000
 73
     1
 44
1.0
  0
POINT
  5
3D5F
330
3D55
100
AcDbEntity
  8
Defpoints
 62
     0
100
AcDbPoint
 10
2750.046918146782
 20
1936.427970747371
 30
0.0
  0
POINT
  5
3D60
330
3D55
100
AcDbEntity
  8
Defpoints
 62
     0
100
AcDbPoint
 10
2750.046918146782
 20
2236.427970747371
 30
0.0
  0
POINT
  5
3D61
330
3D55
100
AcDbEntity
  8
Defpoints
 62
     0
100
AcDbPoint
 10
2706.049354838708
 20
2236.427970747371
 30
0.0
  0
ENDBLK
  5
3D57
330
3D55
100
AcDbEntity
  8
0
100
AcDbBlockEnd
  0
BLOCK
  5
3D63
330
3D62
100
AcDbEntity
  8
0
100
AcDbBlockBegin
  2
*D49
 70
     1
 10
0.0
 20
0.0
 30
0.0
  3
*D49
  1

  0
LINE
  5
3D65
330
3D62
100
AcDbEntity
  8
Quote
 62
     0
370
    -2
100
AcDbLine
 10
2746.049354838706
 20
2232.492907439295
 30
0.0
 11
2746.049354838706
 21
2281.455724198037
 31
0.0
  0
LINE
  5
3D66
330
3D62
100
AcDbEntity
  8
Quote
 62
     0
370
    -2
100
AcDbLine
 10
3246.049354838698
 20
2232.492907439295
 30
0.0
 11
3246.049354838698
 21
2281.455724198037
 31
0.0
  0
LINE
  5
3D67
330
3D62
100
AcDbEntity
  8
Quote
 62
     0
370
    -2
100
AcDbLine
 10
2746.229354838706
 20
2281.275724198037
 30
0.0
 11
2995.419354838702
 21
2281.275724198037
 31
0.0
  0
LINE
  5
3D68
330
3D62
100
AcDbEntity
  8
Quote
 62
     0
370
    -2
100
AcDbLine
 10
3245.869354838699
 20
2281.275724198037
 30
0.0
 11
2996.679354838702
 21
2281.275724198037
 31
0.0
  0
SOLID
  5
3D69
330
3D62
100
AcDbEntity
  8
Quote
 62
     0
100
AcDbTrace
 10
2746.229354838706
 20
2281.305724198037
 30
0.0
 11
2746.229354838706
 21
2281.245724198037
 31
0.0
 12
2746.049354838706
 22
2281.275724198037
 32
0.0
 13
2746.049354838706
 23
2281.275724198037
 33
0.0
  0
SOLID
  5
3D6A
330
3D62
100
AcDbEntity
  8
Quote
 62
     0
100
AcDbTrace
 10
3245.869354838699
 20
2281.245724198037
 30
0.0
 11
3245.869354838699
 21
2281.305724198037
 31
0.0
 12
3246.049354838698
 22
2281.275724198037
 32
0.0
 13
3246.049354838698
 23
2281.275724198037
 33
0.0
  0
MTEXT
  5
3D6B
330
3D62
100
AcDbEntity
  8
Quote
 62
     0
100
AcDbMText
 10
2996.049354838702
 20
2281.275724198037
 30
0.0
 40
0.18
 41
0.0
 46
0.0
 71
     5
 72
     1
  1
\A1;500.0000
 73
     1
 44
1.0
  0
POINT
  5
3D6C
330
3D62
100
AcDbEntity
  8
Defpoints
 62
     0
100
AcDbPoint
 10
2746.049354838706
 20
2232.430407439295
 30
0.0
  0
POINT
  5
3D6D
330
3D62
100
AcDbEntity
  8
Defpoints
 62
     0
100
AcDbPoint
 10
3246.049354838698
 20
2232.430407439295
 30
0.0
  0
POINT
  5
3D6E
330
3D62
100
AcDbEntity
  8
Defpoints
 62
     0
100
AcDbPoint
 10
3246.049354838698
 20
2281.275724198037
 30
0.0
  0
ENDBLK
  5
3D64
330
3D62
100
AcDbEntity
  8
0
100
AcDbBlockEnd
  0
BLOCK
  5
451B
330
451A
100
AcDbEntity
  8
0
100
AcDbBlockBegin
  2
*D50
 70
     1
 10
0.0
 20
0.0
 30
0.0
  3
*D50
  1

  0
LINE
  5
451D
330
451A
100
AcDbEntity
  8
DIM
 62
     0
370
    -2
100
AcDbLine
 10
3587.792626077362
 20
1949.021143929436
 30
0.0
 11
3587.792626077362
 21
1898.171074583187
 31
0.0
  0
LINE
  5
451E
330
451A
100
AcDbEntity
  8
DIM
 62
     0
370
    -2
100
AcDbLine
 10
3586.792626077369
 20
1941.767966258877
 30
0.0
 11
3586.792626077369
 21
1898.171074583187
 31
0.0
  0
LINE
  5
451F
330
451A
100
AcDbEntity
  8
DIM
 62
     0
370
    -2
100
AcDbLine
 10
3597.792626077362
 20
1898.171074583187
 30
0.0
 11
3607.792626077362
 21
1898.171074583187
 31
0.0
  0
LINE
  5
4520
330
451A
100
AcDbEntity
  8
DIM
 62
     0
370
    -2
100
AcDbLine
 10
3576.792626077369
 20
1898.171074583187
 30
0.0
 11
3566.792626077369
 21
1898.171074583187
 31
0.0
  0
INSERT
  5
4521
330
451A
100
AcDbEntity
  8
DIM
 62
     0
370
    -2
100
AcDbBlockReference
  2
_DOT
 10
3587.792626077362
 20
1898.171074583187
 30
0.0
 41
10.0
 42
10.0
 43
10.0
 50
180.0
  0
INSERT
  5
4522
330
451A
100
AcDbEntity
  8
DIM
 62
     0
370
    -2
100
AcDbBlockReference
  2
_DOT
 10
3586.792626077369
 20
1898.171074583187
 30
0.0
 41
10.0
 42
10.0
 43
10.0
  0
MTEXT
  5
4523
330
451A
100
AcDbEntity
  8
DIM
 62
     0
100
AcDbMText
 10
3587.292626077365
 20
1930.17557627132
 30
0.0
 40
24.0
 41
0.0
 46
0.0
 71
     5
 72
     1
  1
\A1;1
  7
ＭＳ ゴシック
 73
     1
 44
1.0
  0
POINT
  5
4524
330
451A
100
AcDbEntity
  8
Defpoints
 62
     0
100
AcDbPoint
 10
3587.792626077362
 20
1979.021143929436
 30
0.0
  0
POINT
  5
4525
330
451A
100
AcDbEntity
  8
Defpoints
 62
     0
100
AcDbPoint
 10
3586.792626077369
 20
1971.767966258877
 30
0.0
  0
POINT
  5
4526
330
451A
100
AcDbEntity
  8
Defpoints
 62
     0
100
AcDbPoint
 10
3586.792626077369
 20
1898.171074583187
 30
0.0
  0
ENDBLK
  5
451C
330
451A
100
AcDbEntity
  8
0
100
AcDbBlockEnd
  0
BLOCK
  5
452B
330
452A
100
AcDbEntity
  8
0
100
AcDbBlockBegin
  2
*D51
 70
     1
 10
0.0
 20
0.0
 30
0.0
  3
*D51
  1

  0
LINE
  5
452D
330
452A
100
AcDbEntity
  8
DIM
 62
     0
370
    -2
100
AcDbLine
 10
2746.049354838706
 20
2189.328080995001
 30
0.0
 11
2746.049354838706
 21
2317.690117020808
 31
0.0
  0
LINE
  5
452E
330
452A
100
AcDbEntity
  8
DIM
 62
     0
370
    -2
100
AcDbLine
 10
3246.049354838706
 20
2189.328080995001
 30
0.0
 11
3246.049354838706
 21
2317.690117020808
 31
0.0
  0
LINE
  5
452F
330
452A
100
AcDbEntity
  8
DIM
 62
     0
370
    -2
100
AcDbLine
 10
2756.049354838706
 20
2317.690117020808
 30
0.0
 11
3236.049354838706
 21
2317.690117020808
 31
0.0
  0
INSERT
  5
4530
330
452A
100
AcDbEntity
  8
DIM
 62
     0
370
    -2
100
AcDbBlockReference
  2
_DOT
 10
2746.049354838706
 20
2317.690117020808
 30
0.0
 41
10.0
 42
10.0
 43
10.0
 50
180.0
  0
INSERT
  5
4531
330
452A
100
AcDbEntity
  8
DIM
 62
     0
370
    -2
100
AcDbBlockReference
  2
_DOT
 10
3246.049354838706
 20
2317.690117020808
 30
0.0
 41
10.0
 42
10.0
 43
10.0
  0
MTEXT
  5
4532
330
452A
100
AcDbEntity
  8
DIM
 62
     0
100
AcDbMText
 10
2996.049354838706
 20
2349.694618708941
 30
0.0
 40
24.0
 41
0.0
 46
0.0
 71
     5
 72
     1
  1
\A1;500
  7
ＭＳ ゴシック
 73
     1
 44
1.0
  0
POINT
  5
4533
330
452A
100
AcDbEntity
  8
Defpoints
 62
     0
100
AcDbPoint
 10
2746.049354838706
 20
2159.328080995001
 30
0.0
  0
POINT
  5
4534
330
452A
100
AcDbEntity
  8
Defpoints
 62
     0
100
AcDbPoint
 10
3246.049354838706
 20
2159.328080995001
 30
0.0
  0
POINT
  5
4535
330
452A
100
AcDbEntity
  8
Defpoints
 62
     0
100
AcDbPoint
 10
3246.049354838706
 20
2317.690117020808
 30
0.0
  0
ENDBLK
  5
452C
330
452A
100
AcDbEntity
  8
0
100
AcDbBlockEnd
  0
BLOCK
  5
4559
330
4558
100
AcDbEntity
  8
0
100
AcDbBlockBegin
  2
*D52
 70
     1
 10
0.0
 20
0.0
 30
0.0
  3
*D52
  1

  0
LINE
  5
455B
330
4558
100
AcDbEntity
  8
DIM
 62
     0
370
    -2
100
AcDbLine
 10
3586.792626077362
 20
1998.600600694352
 30
0.0
 11
3586.792626077362
 21
1997.480220381593
 31
0.0
  0
LINE
  5
455C
330
4558
100
AcDbEntity
  8
DIM
 62
     0
370
    -2
100
AcDbLine
 10
3587.792626077362
 20
1998.600600694352
 30
0.0
 11
3587.792626077362
 21
1997.480220381593
 31
0.0
  0
LINE
  5
455D
330
4558
100
AcDbEntity
  8
DIM
 62
     0
370
    -2
100
AcDbLine
 10
3576.792626077362
 20
1997.480220381593
 30
0.0
 11
3566.792626077362
 21
1997.480220381593
 31
0.0
  0
LINE
  5
455E
330
4558
100
AcDbEntity
  8
DIM
 62
     0
370
    -2
100
AcDbLine
 10
3597.792626077362
 20
1997.480220381593
 30
0.0
 11
3607.792626077362
 21
1997.480220381593
 31
0.0
  0
INSERT
  5
455F
330
4558
100
AcDbEntity
  8
DIM
 62
     0
370
    -2
100
AcDbBlockReference
  2
_DOT
 10
3586.792626077362
 20
1997.480220381593
 30
0.0
 41
10.0
 42
10.0
 43
10.0
  0
INSERT
  5
4560
330
4558
100
AcDbEntity
  8
DIM
 62
     0
370
    -2
100
AcDbBlockReference
  2
_DOT
 10
3587.792626077362
 20
1997.480220381593
 30
0.0
 41
10.0
 42
10.0
 43
10.0
 50
180.0
  0
MTEXT
  5
4561
330
4558
100
AcDbEntity
  8
DIM
 62
     0
100
AcDbMText
 10
3587.292626077362
 20
2029.484722069727
 30
0.0
 40
24.0
 41
0.0
 46
0.0
 71
     5
 72
     1
  1
\A1;1
  7
ＭＳ ゴシック
 73
     1
 44
1.0
  0
POINT
  5
4562
330
4558
100
AcDbEntity
  8
Defpoints
 62
     0
100
AcDbPoint
 10
3586.792626077362
 20
2028.600600694352
 30
0.0
  0
POINT
  5
4563
330
4558
100
AcDbEntity
  8
Defpoints
 62
     0
100
AcDbPoint
 10
3587.792626077362
 20
2028.600600694352
 30
0.0
  0
POINT
  5
4564
330
4558
100
AcDbEntity
  8
Defpoints
 62
     0
100
AcDbPoint
 10
3587.792626077362
 20
1997.480220381593
 30
0.0
  0
ENDBLK
  5
455A
330
4558
100
AcDbEntity
  8
0
100
AcDbBlockEnd
  0
BLOCK
  5
4577
330
4576
100
AcDbEntity
  8
0
100
AcDbBlockBegin
  2
*D53
 70
     1
 10
0.0
 20
0.0
 30
0.0
  3
*D53
  1

  0
LINE
  5
4579
330
4576
100
AcDbEntity
  8
DIM
 62
     0
370
    -2
100
AcDbLine
 10
329.5611564943403
 20
2302.316937771478
 30
0.0
 11
329.5611564943403
 21
2394.53278318191
 31
0.0
  0
LINE
  5
457A
330
4576
100
AcDbEntity
  8
DIM
 62
     0
370
    -2
100
AcDbLine
 10
829.5611564943403
 20
2302.316937771478
 30
0.0
 11
829.5611564943403
 21
2394.53278318191
 31
0.0
  0
LINE
  5
457B
330
4576
100
AcDbEntity
  8
DIM
 62
     0
370
    -2
100
AcDbLine
 10
339.5611564943403
 20
2394.53278318191
 30
0.0
 11
819.5611564943403
 21
2394.53278318191
 31
0.0
  0
INSERT
  5
457C
330
4576
100
AcDbEntity
  8
DIM
 62
     0
370
    -2
100
AcDbBlockReference
  2
_DOT
 10
329.5611564943403
 20
2394.53278318191
 30
0.0
 41
10.0
 42
10.0
 43
10.0
 50
180.0
  0
INSERT
  5
457D
330
4576
100
AcDbEntity
  8
DIM
 62
     0
370
    -2
100
AcDbBlockReference
  2
_DOT
 10
829.5611564943403
 20
2394.53278318191
 30
0.0
 41
10.0
 42
10.0
 43
10.0
  0
MTEXT
  5
457E
330
4576
100
AcDbEntity
  8
DIM
 62
     0
100
AcDbMText
 10
579.5611564943403
 20
2426.537284870043
 30
0.0
 40
24.0
 41
0.0
 46
0.0
 71
     5
 72
     1
  1
\A1;500
  7
ＭＳ ゴシック
 73
     1
 44
1.0
  0
POINT
  5
457F
330
4576
100
AcDbEntity
  8
Defpoints
 62
     0
100
AcDbPoint
 10
329.5611564943403
 20
2272.316937771478
 30
0.0
  0
POINT
  5
4580
330
4576
100
AcDbEntity
  8
Defpoints
 62
     0
100
AcDbPoint
 10
829.5611564943403
 20
2272.316937771478
 30
0.0
  0
POINT
  5
4581
330
4576
100
AcDbEntity
  8
Defpoints
 62
     0
100
AcDbPoint
 10
829.5611564943403
 20
2394.53278318191
 30
0.0
  0
ENDBLK
  5
4578
330
4576
100
AcDbEntity
  8
0
100
AcDbBlockEnd
  0
BLOCK
  5
4586
330
4585
100
AcDbEntity
  8
0
100
AcDbBlockBegin
  2
*D54
 70
     1
 10
0.0
 20
0.0
 30
0.0
  3
*D54
  1

  0
LINE
  5
4588
330
4585
100
AcDbEntity
  8
DIM
 62
     0
370
    -2
100
AcDbLine
 10
855.5635931862572
 20
1979.066593066427
 30
0.0
 11
954.1988477085138
 21
1979.066593066427
 31
0.0
  0
LINE
  5
4589
330
4585
100
AcDbEntity
  8
DIM
 62
     0
370
    -2
100
AcDbLine
 10
855.5635931862572
 20
2279.066593066427
 30
0.0
 11
954.1988477085138
 21
2279.066593066427
 31
0.0
  0
LINE
  5
458A
330
4585
100
AcDbEntity
  8
DIM
 62
     0
370
    -2
100
AcDbLine
 10
954.1988477085138
 20
1989.066593066427
 30
0.0
 11
954.1988477085138
 21
2269.066593066427
 31
0.0
  0
INSERT
  5
458B
330
4585
100
AcDbEntity
  8
DIM
 62
     0
370
    -2
100
AcDbBlockReference
  2
_DOT
 10
954.1988477085138
 20
1979.066593066427
 30
0.0
 41
10.0
 42
10.0
 43
10.0
 50
270.0
  0
INSERT
  5
458C
330
4585
100
AcDbEntity
  8
DIM
 62
     0
370
    -2
100
AcDbBlockReference
  2
_DOT
 10
954.1988477085138
 20
2279.066593066427
 30
0.0
 41
10.0
 42
10.0
 43
10.0
 50
90.0
  0
MTEXT
  5
458D
330
4585
100
AcDbEntity
  8
DIM
 62
     0
100
AcDbMText
 10
922.1943460203806
 20
2129.066593066426
 30
0.0
 40
24.0
 41
0.0
 46
0.0
 71
     5
 72
     1
  1
\A1;300
  7
ＭＳ ゴシック
 11
0.0
 21
1.0
 31
0.0
 73
     1
 44
1.0
  0
POINT
  5
458E
330
4585
100
AcDbEntity
  8
Defpoints
 62
     0
100
AcDbPoint
 10
825.5635931862572
 20
1979.066593066427
 30
0.0
  0
POINT
  5
458F
330
4585
100
AcDbEntity
  8
Defpoints
 62
     0
100
AcDbPoint
 10
825.5635931862572
 20
2279.066593066427
 30
0.0
  0
POINT
  5
4590
330
4585
100
AcDbEntity
  8
Defpoints
 62
     0
100
AcDbPoint
 10
954.1988477085138
 20
2279.066593066427
 30
0.0
  0
ENDBLK
  5
4587
330
4585
100
AcDbEntity
  8
0
100
AcDbBlockEnd
  0
BLOCK
  5
4595
330
4594
100
AcDbEntity
  8
0
100
AcDbBlockBegin
  2
*D55
 70
     1
 10
0.0
 20
0.0
 30
0.0
  3
*D55
  1

  0
LINE
  5
4597
330
4594
100
AcDbEntity
  8
DIM
 62
     0
370
    -2
100
AcDbLine
 10
335.4123636168105
 20
1949.066593066427
 30
0.0
 11
335.4123636168105
 21
1856.480465619673
 31
0.0
  0
LINE
  5
4598
330
4594
100
AcDbEntity
  8
DIM
 62
     0
370
    -2
100
AcDbLine
 10
823.718704014984
 20
1949.066593066427
 30
0.0
 11
823.718704014984
 21
1856.480465619673
 31
0.0
  0
LINE
  5
4599
330
4594
100
AcDbEntity
  8
DIM
 62
     0
370
    -2
100
AcDbLine
 10
345.4123636168105
 20
1856.480465619673
 30
0.0
 11
813.718704014984
 21
1856.480465619673
 31
0.0
  0
INSERT
  5
459A
330
4594
100
AcDbEntity
  8
DIM
 62
     0
370
    -2
100
AcDbBlockReference
  2
_DOT
 10
335.4123636168105
 20
1856.480465619673
 30
0.0
 41
10.0
 42
10.0
 43
10.0
 50
180.0
  0
INSERT
  5
459B
330
4594
100
AcDbEntity
  8
DIM
 62
     0
370
    -2
100
AcDbBlockReference
  2
_DOT
 10
823.718704014984
 20
1856.480465619673
 30
0.0
 41
10.0
 42
10.0
 43
10.0
  0
MTEXT
  5
459C
330
4594
100
AcDbEntity
  8
DIM
 62
     0
100
AcDbMText
 10
579.5655338158973
 20
1888.480465619673
 30
0.0
 40
24.0
 41
0.0
 46
0.0
 71
     5
 72
     1
  1
\A1;488
  7
ＭＳ ゴシック
 73
     1
 44
1.0
  0
POINT
  5
459D
330
4594
100
AcDbEntity
  8
Defpoints
 62
     0
100
AcDbPoint
 10
335.4123636168105
 20
1979.066593066427
 30
0.0
  0
POINT
  5
459E
330
4594
100
AcDbEntity
  8
Defpoints
 62
     0
100
AcDbPoint
 10
823.718704014984
 20
1979.066593066427
 30
0.0
  0
POINT
  5
459F
330
4594
100
AcDbEntity
  8
Defpoints
 62
     0
100
AcDbPoint
 10
823.718704014984
 20
1856.480465619673
 30
0.0
  0
ENDBLK
  5
4596
330
4594
100
AcDbEntity
  8
0
100
AcDbBlockEnd
  0
BLOCK
  5
45A4
330
45A3
100
AcDbEntity
  8
0
100
AcDbBlockBegin
  2
*D56
 70
     1
 10
0.0
 20
0.0
 30
0.0
  3
*D56
  1

  0
LINE
  5
45A6
330
45A3
100
AcDbEntity
  8
DIM
 62
     0
370
    -2
100
AcDbLine
 10
299.5611564943403
 20
2272.316937771478
 30
0.0
 11
208.628331456206
 21
2272.316937771478
 31
0.0
  0
LINE
  5
45A7
330
45A3
100
AcDbEntity
  8
DIM
 62
     0
370
    -2
100
AcDbLine
 10
299.5611564943403
 20
1984.462753592308
 30
0.0
 11
208.628331456206
 21
1984.462753592308
 31
0.0
  0
LINE
  5
45A8
330
45A3
100
AcDbEntity
  8
DIM
 62
     0
370
    -2
100
AcDbLine
 10
208.628331456206
 20
2262.316937771478
 30
0.0
 11
208.628331456206
 21
1994.462753592308
 31
0.0
  0
INSERT
  5
45A9
330
45A3
100
AcDbEntity
  8
DIM
 62
     0
370
    -2
100
AcDbBlockReference
  2
_DOT
 10
208.628331456206
 20
2272.316937771478
 30
0.0
 41
10.0
 42
10.0
 43
10.0
 50
90.0
  0
INSERT
  5
45AA
330
45A3
100
AcDbEntity
  8
DIM
 62
     0
370
    -2
100
AcDbBlockReference
  2
_DOT
 10
208.628331456206
 20
1984.462753592308
 30
0.0
 41
10.0
 42
10.0
 43
10.0
 50
270.0
  0
MTEXT
  5
45AB
330
45A3
100
AcDbEntity
  8
DIM
 62
     0
100
AcDbMText
 10
176.6238297680728
 20
2128.389845681893
 30
0.0
 40
24.0
 41
0.0
 46
0.0
 71
     5
 72
     1
  1
\A1;288
  7
ＭＳ ゴシック
 11
9.873648184566016E-17
 21
1.0
 31
0.0
 73
     1
 44
1.0
  0
POINT
  5
45AC
330
45A3
100
AcDbEntity
  8
Defpoints
 62
     0
100
AcDbPoint
 10
329.5611564943403
 20
2272.316937771478
 30
0.0
  0
POINT
  5
45AD
330
45A3
100
AcDbEntity
  8
Defpoints
 62
     0
100
AcDbPoint
 10
329.5611564943403
 20
1984.462753592308
 30
0.0
  0
POINT
  5
45AE
330
45A3
100
AcDbEntity
  8
Defpoints
 62
     0
100
AcDbPoint
 10
208.628331456206
 20
1984.462753592308
 30
0.0
  0
ENDBLK
  5
45A5
330
45A3
100
AcDbEntity
  8
0
100
AcDbBlockEnd
  0
BLOCK
  5
45B7
330
45B6
100
AcDbEntity
  8
0
100
AcDbBlockBegin
  2
*D57
 70
     1
 10
0.0
 20
0.0
 30
0.0
  3
*D57
  1

  0
LINE
  5
45B9
330
45B6
100
AcDbEntity
  8
DIM
 62
     0
370
    -2
100
AcDbLine
 10
853.8464773101045
 20
1278.192399518042
 30
0.0
 11
954.1988477085142
 21
1278.192399518042
 31
0.0
  0
LINE
  5
45BA
330
45B6
100
AcDbEntity
  8
DIM
 62
     0
370
    -2
100
AcDbLine
 10
636.309471535215
 20
1166.192399518042
 30
0.0
 11
954.1988477085142
 21
1166.192399518042
 31
0.0
  0
LINE
  5
45BB
330
45B6
100
AcDbEntity
  8
DIM
 62
     0
370
    -2
100
AcDbLine
 10
954.1988477085142
 20
1268.192399518042
 30
0.0
 11
954.1988477085142
 21
1176.192399518042
 31
0.0
  0
INSERT
  5
45BC
330
45B6
100
AcDbEntity
  8
DIM
 62
     0
370
    -2
100
AcDbBlockReference
  2
_DOT
 10
954.1988477085142
 20
1278.192399518042
 30
0.0
 41
10.0
 42
10.0
 43
10.0
 50
90.0
  0
INSERT
  5
45BD
330
45B6
100
AcDbEntity
  8
DIM
 62
     0
370
    -2
100
AcDbBlockReference
  2
_DOT
 10
954.1988477085142
 20
1166.192399518042
 30
0.0
 41
10.0
 42
10.0
 43
10.0
 50
270.0
  0
MTEXT
  5
45BE
330
45B6
100
AcDbEntity
  8
DIM
 62
     0
100
AcDbMText
 10
922.1943460203811
 20
1228.192399518042
 30
0.0
 40
24.0
 41
0.0
 46
0.0
 71
     5
 72
     1
  1
\A1;112
  7
ＭＳ ゴシック
 11
0.0
 21
1.0
 31
0.0
 73
     1
 44
1.0
  0
POINT
  5
45BF
330
45B6
100
AcDbEntity
  8
Defpoints
 62
     0
100
AcDbPoint
 10
823.8464773101045
 20
1278.192399518042
 30
0.0
  0
POINT
  5
45C0
330
45B6
100
AcDbEntity
  8
Defpoints
 62
     0
100
AcDbPoint
 10
606.309471535215
 20
1166.192399518042
 30
0.0
  0
POINT
  5
45C1
330
45B6
100
AcDbEntity
  8
Defpoints
 62
     0
100
AcDbPoint
 10
954.1988477085142
 20
1166.192399518042
 30
0.0
  0
ENDBLK
  5
45B8
330
45B6
100
AcDbEntity
  8
0
100
AcDbBlockEnd
  0
BLOCK
  5
45C7
330
45C6
100
AcDbEntity
  8
0
100
AcDbBlockBegin
  2
*D58
 70
     1
 10
0.0
 20
0.0
 30
0.0
  3
*D58
  1

  0
LINE
  5
45C9
330
45C6
100
AcDbEntity
  8
DIM
 62
     0
370
    -2
100
AcDbLine
 10
329.7675655199656
 20
1171.06535792396
 30
0.0
 11
329.7675655199656
 21
1045.907739876556
 31
0.0
  0
LINE
  5
45CA
330
45C6
100
AcDbEntity
  8
DIM
 62
     0
370
    -2
100
AcDbLine
 10
579.6634837980624
 20
1136.192399518042
 30
0.0
 11
579.6634837980624
 21
1045.907739876556
 31
0.0
  0
LINE
  5
45CB
330
45C6
100
AcDbEntity
  8
DIM
 62
     0
370
    -2
100
AcDbLine
 10
339.7675655199656
 20
1045.907739876556
 30
0.0
 11
569.6634837980624
 21
1045.907739876556
 31
0.0
  0
INSERT
  5
45CC
330
45C6
100
AcDbEntity
  8
DIM
 62
     0
370
    -2
100
AcDbBlockReference
  2
_DOT
 10
329.7675655199656
 20
1045.907739876556
 30
0.0
 41
10.0
 42
10.0
 43
10.0
 50
180.0
  0
INSERT
  5
45CD
330
45C6
100
AcDbEntity
  8
DIM
 62
     0
370
    -2
100
AcDbBlockReference
  2
_DOT
 10
579.6634837980624
 20
1045.907739876556
 30
0.0
 41
10.0
 42
10.0
 43
10.0
  0
MTEXT
  5
45CE
330
45C6
100
AcDbEntity
  8
DIM
 62
     0
100
AcDbMText
 10
454.715524659014
 20
1077.91224156469
 30
0.0
 40
24.0
 41
0.0
 46
0.0
 71
     5
 72
     1
  1
\A1;250
  7
ＭＳ ゴシック
 73
     1
 44
1.0
  0
POINT
  5
45CF
330
45C6
100
AcDbEntity
  8
Defpoints
 62
     0
100
AcDbPoint
 10
329.7675655199656
 20
1201.06535792396
 30
0.0
  0
POINT
  5
45D0
330
45C6
100
AcDbEntity
  8
Defpoints
 62
     0
100
AcDbPoint
 10
579.6634837980624
 20
1166.192399518042
 30
0.0
  0
POINT
  5
45D1
330
45C6
100
AcDbEntity
  8
Defpoints
 62
     0
100
AcDbPoint
 10
579.6634837980624
 20
1045.907739876556
 30
0.0
  0
ENDBLK
  5
45C8
330
45C6
100
AcDbEntity
  8
0
100
AcDbBlockEnd
  0
BLOCK
  5
45D6
330
45D5
100
AcDbEntity
  8
0
100
AcDbBlockBegin
  2
*D59
 70
     1
 10
0.0
 20
0.0
 30
0.0
  3
*D59
  1

  0
LINE
  5
45D8
330
45D5
100
AcDbEntity
  8
DIM
 62
     0
370
    -2
100
AcDbLine
 10
1661.092509744767
 20
1167.063456119449
 30
0.0
 11
1661.092509744767
 21
1045.907739876556
 31
0.0
  0
LINE
  5
45D9
330
45D5
100
AcDbEntity
  8
DIM
 62
     0
370
    -2
100
AcDbLine
 10
1511.196591466665
 20
1136.192399518049
 30
0.0
 11
1511.196591466665
 21
1045.907739876556
 31
0.0
  0
LINE
  5
45DA
330
45D5
100
AcDbEntity
  8
DIM
 62
     0
370
    -2
100
AcDbLine
 10
1651.092509744767
 20
1045.907739876556
 30
0.0
 11
1521.196591466665
 21
1045.907739876556
 31
0.0
  0
INSERT
  5
45DB
330
45D5
100
AcDbEntity
  8
DIM
 62
     0
370
    -2
100
AcDbBlockReference
  2
_DOT
 10
1661.092509744767
 20
1045.907739876556
 30
0.0
 41
10.0
 42
10.0
 43
10.0
  0
INSERT
  5
45DC
330
45D5
100
AcDbEntity
  8
DIM
 62
     0
370
    -2
100
AcDbBlockReference
  2
_DOT
 10
1511.196591466665
 20
1045.907739876556
 30
0.0
 41
10.0
 42
10.0
 43
10.0
 50
180.0
  0
MTEXT
  5
45DD
330
45D5
100
AcDbEntity
  8
DIM
 62
     0
100
AcDbMText
 10
1586.144550605716
 20
1077.91224156469
 30
0.0
 40
24.0
 41
0.0
 46
0.0
 71
     5
 72
     1
  1
\A1;150
  7
ＭＳ ゴシック
 73
     1
 44
1.0
  0
POINT
  5
45DE
330
45D5
100
AcDbEntity
  8
Defpoints
 62
     0
100
AcDbPoint
 10
1661.092509744767
 20
1197.063456119449
 30
0.0
  0
POINT
  5
45DF
330
45D5
100
AcDbEntity
  8
Defpoints
 62
     0
100
AcDbPoint
 10
1511.196591466665
 20
1166.192399518049
 30
0.0
  0
POINT
  5
45E0
330
45D5
100
AcDbEntity
  8
Defpoints
 62
     0
100
AcDbPoint
 10
1511.196591466665
 20
1045.907739876556
 30
0.0
  0
ENDBLK
  5
45D7
330
45D5
100
AcDbEntity
  8
0
100
AcDbBlockEnd
  0
BLOCK
  5
45E5
330
45E4
100
AcDbEntity
  8
0
100
AcDbBlockBegin
  2
*D60
 70
     1
 10
0.0
 20
0.0
 30
0.0
  3
*D60
  1

  0
LINE
  5
45E7
330
45E4
100
AcDbEntity
  8
DIM
 62
     0
370
    -2
100
AcDbLine
 10
1334.1966526484
 20
1278.192399518042
 30
0.0
 11
1238.124260935661
 21
1278.192399518042
 31
0.0
  0
LINE
  5
45E8
330
45E4
100
AcDbEntity
  8
DIM
 62
     0
370
    -2
100
AcDbLine
 10
1339.593776780284
 20
1178.192399518049
 30
0.0
 11
1238.124260935661
 21
1178.192399518049
 31
0.0
  0
LINE
  5
45E9
330
45E4
100
AcDbEntity
  8
DIM
 62
     0
370
    -2
100
AcDbLine
 10
1238.124260935661
 20
1268.192399518042
 30
0.0
 11
1238.124260935661
 21
1188.192399518049
 31
0.0
  0
INSERT
  5
45EA
330
45E4
100
AcDbEntity
  8
DIM
 62
     0
370
    -2
100
AcDbBlockReference
  2
_DOT
 10
1238.124260935661
 20
1278.192399518042
 30
0.0
 41
10.0
 42
10.0
 43
10.0
 50
90.0
  0
INSERT
  5
45EB
330
45E4
100
AcDbEntity
  8
DIM
 62
     0
370
    -2
100
AcDbBlockReference
  2
_DOT
 10
1238.124260935661
 20
1178.192399518049
 30
0.0
 41
10.0
 42
10.0
 43
10.0
 50
270.0
  0
MTEXT
  5
45EC
330
45E4
100
AcDbEntity
  8
DIM
 62
     0
100
AcDbMText
 10
1206.119759247528
 20
1228.192399518045
 30
0.0
 40
24.0
 41
0.0
 46
0.0
 71
     5
 72
     1
  1
\A1;100
  7
ＭＳ ゴシック
 11
0.0
 21
1.0
 31
0.0
 73
     1
 44
1.0
  0
POINT
  5
45ED
330
45E4
100
AcDbEntity
  8
Defpoints
 62
     0
100
AcDbPoint
 10
1364.1966526484
 20
1278.192399518042
 30
0.0
  0
POINT
  5
45EE
330
45E4
100
AcDbEntity
  8
Defpoints
 62
     0
100
AcDbPoint
 10
1369.593776780284
 20
1178.192399518049
 30
0.0
  0
POINT
  5
45EF
330
45E4
100
AcDbEntity
  8
Defpoints
 62
     0
100
AcDbPoint
 10
1238.124260935661
 20
1178.192399518049
 30
0.0
  0
ENDBLK
  5
45E6
330
45E4
100
AcDbEntity
  8
0
100
AcDbBlockEnd
  0
BLOCK
  5
45F4
330
45F3
100
AcDbEntity
  8
0
100
AcDbBlockBegin
  2
*D61
 70
     1
 10
0.0
 20
0.0
 30
0.0
  3
*D61
  1

  0
LINE
  5
45F6
330
45F3
100
AcDbEntity
  8
DIM
 62
     0
370
    -2
100
AcDbLine
 10
1507.94940908246
 20
1278.192399518042
 30
0.0
 11
1507.94940908246
 21
1428.404354000973
 31
0.0
  0
LINE
  5
45F7
330
45F3
100
AcDbEntity
  8
DIM
 62
     0
370
    -2
100
AcDbLine
 10
1507.94940908246
 20
1202.692399518049
 30
0.0
 11
1507.94940908246
 21
1268.192399518042
 31
0.0
  0
LINE
  5
45F8
330
45F3
100
AcDbEntity
  8
DIM
 62
     0
370
    -2
100
AcDbLine
 10
1507.94940908246
 20
1268.192399518042
 30
0.0
 11
1507.94940908246
 21
1258.192399518042
 31
0.0
  0
INSERT
  5
45F9
330
45F3
100
AcDbEntity
  8
DIM
 62
     0
370
    -2
100
AcDbBlockReference
  2
_DOT
 10
1507.94940908246
 20
1192.692399518049
 30
0.0
 41
10.0
 42
10.0
 43
10.0
 50
270.0
  0
INSERT
  5
45FA
330
45F3
100
AcDbEntity
  8
DIM
 62
     0
370
    -2
100
AcDbBlockReference
  2
_DOT
 10
1507.94940908246
 20
1278.192399518042
 30
0.0
 41
10.0
 42
10.0
 43
10.0
 50
90.0
  0
MTEXT
  5
45FB
330
45F3
100
AcDbEntity
  8
DIM
 62
     0
100
AcDbMText
 10
1474.2455201241
 20
1363.298376759507
 30
0.0
 40
24.0
 41
0.0
 46
0.0
 71
     5
 72
     1
  1
\A1;深さ86
  7
ＭＳ ゴシック
 11
0.0
 21
1.0
 31
0.0
 73
     1
 44
1.0
  0
POINT
  5
45FC
330
45F3
100
AcDbEntity
  8
Defpoints
 62
     0
100
AcDbPoint
 10
1511.196591466854
 20
1192.692399518049
 30
0.0
  0
POINT
  5
45FD
330
45F3
100
AcDbEntity
  8
Defpoints
 62
     0
100
AcDbPoint
 10
1511.196591466664
 20
1278.192399518042
 30
0.0
  0
POINT
  5
45FE
330
45F3
100
AcDbEntity
  8
Defpoints
 62
     0
100
AcDbPoint
 10
1507.94940908246
 20
1278.192399518042
 30
0.0
  0
ENDBLK
  5
45F5
330
45F3
100
AcDbEntity
  8
0
100
AcDbBlockEnd
  0
BLOCK
  5
4679
330
4678
100
AcDbEntity
  8
0
100
AcDbBlockBegin
  2
*D62
 70
     1
 10
0.0
 20
0.0
 30
0.0
  3
*D62
  1

  0
LINE
  5
467B
330
4678
100
AcDbEntity
  8
DIM
 62
     0
370
    -2
100
AcDbLine
 10
1688.196530284932
 20
1278.192399518042
 30
0.0
 11
1775.438212200711
 21
1278.192399518042
 31
0.0
  0
LINE
  5
467C
330
4678
100
AcDbEntity
  8
DIM
 62
     0
370
    -2
100
AcDbLine
 10
1683.057580844838
 20
1178.192399518042
 30
0.0
 11
1775.438212200711
 21
1178.192399518042
 31
0.0
  0
LINE
  5
467D
330
4678
100
AcDbEntity
  8
DIM
 62
     0
370
    -2
100
AcDbLine
 10
1775.438212200711
 20
1268.192399518042
 30
0.0
 11
1775.438212200711
 21
1188.192399518042
 31
0.0
  0
INSERT
  5
467E
330
4678
100
AcDbEntity
  8
DIM
 62
     0
370
    -2
100
AcDbBlockReference
  2
_DOT
 10
1775.438212200711
 20
1278.192399518042
 30
0.0
 41
10.0
 42
10.0
 43
10.0
 50
90.0
  0
INSERT
  5
467F
330
4678
100
AcDbEntity
  8
DIM
 62
     0
370
    -2
100
AcDbBlockReference
  2
_DOT
 10
1775.438212200711
 20
1178.192399518042
 30
0.0
 41
10.0
 42
10.0
 43
10.0
 50
270.0
  0
MTEXT
  5
4680
330
4678
100
AcDbEntity
  8
DIM
 62
     0
100
AcDbMText
 10
1743.433710512578
 20
1228.192399518042
 30
0.0
 40
24.0
 41
0.0
 46
0.0
 71
     5
 72
     1
  1
\A1;100
  7
ＭＳ ゴシック
 11
0.0
 21
1.0
 31
0.0
 73
     1
 44
1.0
  0
POINT
  5
4681
330
4678
100
AcDbEntity
  8
Defpoints
 62
     0
100
AcDbPoint
 10
1658.196530284932
 20
1278.192399518042
 30
0.0
  0
POINT
  5
4682
330
4678
100
AcDbEntity
  8
Defpoints
 62
     0
100
AcDbPoint
 10
1653.057580844838
 20
1178.192399518042
 30
0.0
  0
POINT
  5
4683
330
4678
100
AcDbEntity
  8
Defpoints
 62
     0
100
AcDbPoint
 10
1775.438212200711
 20
1178.192399518042
 30
0.0
  0
ENDBLK
  5
467A
330
4678
100
AcDbEntity
  8
0
100
AcDbBlockEnd
  0
ENDSEC
  0
SECTION
  2
ENTITIES
  0
MTEXT
  5
177
330
A
100
AcDbEntity
  8
TEMPLATE
390
1D
100
AcDbMText
 10
79.20214454773075
 20
343.7317516314282
 30
0.0
 40
16.28841145833333
 41
0.0
 46
0.0
 71
     1
 72
     1
  1
品名
  7
ＭＳ ゴシック
 73
     1
 44
0.7828267384257843
  0
MTEXT
  5
178
330
A
100
AcDbEntity
  8
TEMPLATE
390
1D
100
AcDbMText
 10
79.20214454773075
 20
258.731751631428
 30
0.0
 40
16.28841145833333
 41
0.0
 46
0.0
 71
     1
 72
     1
  1
仕様
  7
ＭＳ ゴシック
 73
     1
 44
0.7828267384257843
  0
LINE
  5
179
330
A
100
AcDbEntity
  8
TEMPLATE
390
1D
100
AcDbLine
 10
2022.202144547248
 20
267.1466735064284
 30
0.0
 11
72.20214454724874
 21
267.1466735064284
 31
0.0
  0
LWPOLYLINE
  5
17A
330
A
100
AcDbEntity
  8
TEMPLATE
390
1D
100
AcDbPolyline
 90
        5
 70
   128
 43
0.0
 10
2022.202144547248
 20
2897.146673506426
 10
72.20214454724874
 20
2897.146673506426
 10
72.20214454724874
 20
97.14667350642826
 10
2022.202144547248
 20
97.14667350642826
 10
2022.202144547248
 20
2897.146673506426
  0
LINE
  5
17B
330
A
100
AcDbEntity
  8
TEMPLATE
390
1D
100
AcDbLine
 10
2022.202144547248
 20
352.1466735064282
 30
0.0
 11
72.20214454724874
 21
352.1466735064282
 31
0.0
  0
LINE
  5
17C
330
A
100
AcDbEntity
  8
TEMPLATE
390
1D
100
AcDbLine
 10
2022.202144547732
 20
182.1466735064282
 30
0.0
 11
1269.20214454773
 21
182.1466735064282
 31
0.0
  0
MTEXT
  5
17E
330
A
100
AcDbEntity
  8
TEMPLATE
390
1D
100
AcDbMText
 10
1299.073550799991
 20
152.2362790331201
 30
0.0
 40
24.4326171875
 41
0.0
 46
0.0
 71
     1
 72
     1
  1
大洋金物株式会社 ティーフォルム事業部
  7
ＭＳ ゴシック
 73
     1
 44
0.7828267384257843
  0
MTEXT
  5
180
330
A
100
AcDbEntity
  8
TEMPLATE
390
1D
100
AcDbMText
 10
1831.20214454799
 20
230.1492906939282
 30
0.0
 40
24.4326171875
 41
0.0
 46
24.4326171875
 71
     1
 72
     1
  1
{1:10}
  7
ＭＳ ゴシック
 73
     1
 44
0.7828267384257843
1001
ACAD
1000
ACAD_MTEXT_DEFINED_HEIGHT_BEGIN
1070
    46
1040
24.4326171875
1000
ACAD_MTEXT_DEFINED_HEIGHT_END
  0
MTEXT
  5
181
330
A
100
AcDbEntity
  8
TEMPLATE
390
1D
100
AcDbMText
 10
1778.20214454799
 20
258.731751631428
 30
0.0
 40
16.28841145833333
 41
0.0
 46
0.0
 71
     1
 72
     1
  1
縮尺
  7
ＭＳ ゴシック
 73
     1
 44
0.7828267384257843
  0
LINE
  5
182
330
A
100
AcDbEntity
  8
TEMPLATE
390
1D
100
AcDbLine
 10
1771.20214454799
 20
182.1466735064282
 30
0.0
 11
1771.20214454799
 21
267.1466735064284
 31
0.0
  0
MTEXT
  5
183
330
A
100
AcDbEntity
  8
TEMPLATE
390
1D
100
AcDbMText
 10
1527.20214454799
 20
258.731751631428
 30
0.0
 40
16.28841145833333
 41
0.0
 46
0.0
 71
     1
 72
     1
  1
容量
  7
ＭＳ ゴシック
 73
     1
 44
0.7828267384257843
  0
LINE
  5
184
330
A
100
AcDbEntity
  8
TEMPLATE
390
1D
100
AcDbLine
 10
1520.20214454799
 20
182.1466735064282
 30
0.0
 11
1520.20214454799
 21
267.1466735064284
 31
0.0
  0
MTEXT
  5
185
330
A
100
AcDbEntity
  8
TEMPLATE
390
1D
100
AcDbMText
 10
1276.20214454799
 20
343.7317516314282
 30
0.0
 40
16.28841145833333
 41
0.0
 46
0.0
 71
     1
 72
     1
  1
品番
  7
ＭＳ ゴシック
 73
     1
 44
0.7828267384257843
  0
MTEXT
  5
186
330
A
100
AcDbEntity
  8
TEMPLATE
390
1D
100
AcDbMText
 10
1276.20214454799
 20
258.731751631428
 30
0.0
 40
16.28841145833333
 41
0.0
 46
0.0
 71
     1
 72
     1
  1
重量
  7
ＭＳ ゴシック
 73
     1
 44
0.7828267384257843
  0
MTEXT
  5
187
330
A
100
AcDbEntity
  8
TEMPLATE
390
1D
100
AcDbMText
 10
1329.20214454799
 20
315.1492906939282
 30
0.0
 40
24.4326171875
 41
0.0
 46
24.4326171875
 71
     1
 72
     1
  1
{ADF70-3106-001}
  7
ＭＳ ゴシック
 73
     1
 44
0.7828267384257843
1001
ACAD
1000
ACAD_MTEXT_DEFINED_HEIGHT_BEGIN
1070
    46
1040
24.4326171875
1000
ACAD_MTEXT_DEFINED_HEIGHT_END
  0
LINE
  5
188
330
A
100
AcDbEntity
  8
TEMPLATE
390
1D
100
AcDbLine
 10
1269.20214454799
 20
97.14667350642826
 30
0.0
 11
1269.20214454799
 21
352.1466735064282
 31
0.0
  0
INSERT
  5
68C
330
A
100
AcDbEntity
  8
TEMPLATE
100
AcDbBlockReference
  2
block 2
 10
919.2743017702577
 20
8.373076514336368
 30
0.0
 41
0.3809999999999999
 42
0.3809999999999999
 43
0.3809999999999999
  0
LWPOLYLINE
  5
DAC
330
A
100
AcDbEntity
  8
BORDER
100
AcDbPolyline
 90
        4
 70
     1
 43
0.0
 10
0.0
 20
0.0
 10
0.0
 20
2970.0
 10
2100.0
 20
2970.0
 10
2100.0
 20
0.0
  0
MTEXT
  5
121B
330
A
100
AcDbEntity
  8
TEMPLATE
390
1D
100
AcDbMText
 10
1329.20214454799
 20
227.1688729773101
 30
0.0
 40
24.4326171875
 41
0.0
 46
28.40135167875453
 71
     1
 72
     1
  1
{8kg}
  7
ＭＳ ゴシック
 73
     1
 44
0.7828267384257843
1001
ACAD
1000
ACAD_MTEXT_DEFINED_HEIGHT_BEGIN
1070
    46
1040
28.40135167875453
1000
ACAD_MTEXT_DEFINED_HEIGHT_END
  0
MTEXT
  5
1466
102
{ACAD_XDICTIONARY
360
1468
102
}
330
A
100
AcDbEntity
  8
TEMPLATE
 48
0.05
100
AcDbMText
 10
74.728656548571
 20
83.86172105142839
 30
0.0
 40
22.0
 41
0.0
 46
22.0
 71
     1
 72
     1
  1
{20220602M}
  7
ＭＳ ゴシック
 73
     1
 44
1.0
1001
ACAD
1000
ACAD_MTEXT_DEFINED_HEIGHT_BEGIN
1070
    46
1040
22.0
1000
ACAD_MTEXT_DEFINED_HEIGHT_END
  0
MTEXT
  5
146D
330
A
100
AcDbEntity
  8
TEMPLATE
390
1D
100
AcDbMText
 10
1583.904999862276
 20
227.1688729773101
 30
0.0
 40
24.4326171875
 41
0.0
 46
24.4326171875
 71
     1
 72
     1
  1
{8L}
  7
ＭＳ ゴシック
 73
     1
 44
0.7828267384257843
1001
ACAD
1000
ACAD_MTEXT_DEFINED_HEIGHT_BEGIN
1070
    46
1040
24.4326171875
1000
ACAD_MTEXT_DEFINED_HEIGHT_END
  0
POINT
  5
262A
330
A
100
AcDbEntity
  8
Layer9
  6
Continuous
 62
     7
100
AcDbPoint
 10
1037.460145007193
 20
1010.220672371878
 30
0.0
  0
POINT
  5
262B
330
A
100
AcDbEntity
  8
Layer9
  6
Continuous
 62
     7
100
AcDbPoint
 10
1037.460146257193
 20
1010.220672788578
 30
0.0
  0
POINT
  5
262C
330
A
100
AcDbEntity
  8
Layer9
  6
Continuous
 62
     7
100
AcDbPoint
 10
1037.853693340493
 20
1015.267975288578
 30
0.0
  0
POINT
  5
2812
330
A
100
AcDbEntity
  8
Layer9
  6
Continuous
 62
     7
100
AcDbPoint
 10
925.7934783404928
 20
1010.220672371878
 30
0.0
  0
POINT
  5
2813
330
A
100
AcDbEntity
  8
Layer9
  6
Continuous
 62
     7
100
AcDbPoint
 10
925.7934795904928
 20
1010.220672788578
 30
0.0
  0
POINT
  5
2814
330
A
100
AcDbEntity
  8
Layer9
  6
Continuous
 62
     7
100
AcDbPoint
 10
926.1870266737928
 20
1015.267975288578
 30
0.0
  0
INSERT
  5
28CA
330
A
100
AcDbEntity
  8
Layer3
100
AcDbBlockReference
  2
SEANNOT_GROUP
 10
859.7083018867928
 20
826.1905269541776
 30
0.0
  0
POINT
  5
2A52
330
A
100
AcDbEntity
  8
Standard
  6
Continuous
 62
     7
100
AcDbPoint
 10
1036.111241014893
 20
1018.794321538578
 30
0.0
  0
INSERT
  5
2B9B
330
A
100
AcDbEntity
  8
Layer3
100
AcDbBlockReference
  2
SEANNOT_GROUP1
 10
859.7083018867928
 20
826.1905269541776
 30
0.0
  0
HATCH
  5
369B
102
{ACAD_REACTORS
330
36AC
102
}
330
A
100
AcDbEntity
  8
TEMPLATE
100
AcDbHatch
 10
0.0
 20
0.0
 30
0.0
210
0.0
220
0.0
230
1.0
  2
SOLID
 70
     1
 71
     1
 91
        6
 92
        1
 93
        8
 72
     1
 10
1934.476782902687
 20
153.1053194253001
 11
1934.476782902687
 21
147.1959117946397
 72
     1
 10
1934.476782902687
 20
147.1959117946397
 11
1925.116191352377
 21
147.1959117946397
 72
     1
 10
1925.116191352377
 20
147.1959117946397
 11
1925.116191352377
 21
123.105319426746
 72
     1
 10
1925.116191352377
 20
123.105319426746
 11
1916.883578199102
 21
123.105319426746
 72
     1
 10
1916.883578199102
 20
123.105319426746
 11
1916.883578199102
 21
147.1959117946397
 72
     1
 10
1916.883578199102
 20
147.1959117946397
 11
1907.688876764557
 21
147.1959117946397
 72
     1
 10
1907.688876764557
 20
147.1959117946397
 11
1907.688876764557
 21
153.1053194253001
 72
     1
 10
1907.688876764557
 20
153.1053194253001
 11
1934.476782902687
 21
153.1053194253001
 97
        1
330
369C
 92
        1
 93
        1
 72
     4
 94
        3
 73
     0
 74
     1
 95
       56
 96
       52
 40
0.0
 40
0.0
 40
0.0
 40
0.0
 40
1.0
 40
1.0
 40
1.0
 40
2.0
 40
2.0
 40
2.0
 40
3.0
 40
3.0
 40
3.0
 40
4.0
 40
4.0
 40
4.0
 40
5.0
 40
5.0
 40
5.0
 40
6.0
 40
6.0
 40
6.0
 40
7.0
 40
7.0
 40
7.0
 40
8.0
 40
8.0
 40
8.0
 40
9.0
 40
9.0
 40
9.0
 40
10.0
 40
10.0
 40
10.0
 40
11.0
 40
11.0
 40
11.0
 40
12.0
 40
12.0
 40
12.0
 40
13.0
 40
13.0
 40
13.0
 40
14.0
 40
14.0
 40
14.0
 40
15.0
 40
15.0
 40
15.0
 40
16.0
 40
16.0
 40
16.0
 40
17.0
 40
17.0
 40
17.0
 40
17.0
 10
1947.01896833698
 20
152.3909504648878
 10
1948.1728345189
 20
152.715738018898
 10
1949.662423612235
 20
152.4440650580081
 10
1949.662423612235
 20
152.4440650580081
 10
1949.662423612235
 20
152.4440650580081
 10
1948.946790018651
 20
150.2964947655846
 10
1948.946790018651
 20
150.2964947655846
 10
1948.946790018651
 20
150.2964947655846
 10
1947.484427733556
 20
150.6348957237139
 10
1946.356523726704
 20
149.7454866546012
 10
1945.480058550036
 20
149.0499384113589
 10
1944.912238256914
 20
147.2017886193686
 10
1944.69442379101
 20
146.4990989182278
 10
1944.69442379101
 20
146.4990989182278
 10
1943.723334297183
 20
143.518432927829
 10
1943.723334297183
 20
143.518432927829
 10
1943.723334297183
 20
143.518432927829
 10
1946.907457447503
 20
143.518432927829
 10
1946.907457447503
 20
143.518432927829
 10
1946.907457447503
 20
143.518432927829
 10
1946.412241976351
 20
141.642461206109
 10
1946.412241976351
 20
141.642461206109
 10
1946.412241976351
 20
141.642461206109
 10
1943.202156650962
 20
141.642461206109
 10
1943.202156650962
 20
141.642461206109
 10
1943.202156650962
 20
141.642461206109
 10
1937.458713526257
 20
123.105319426746
 10
1937.458713526257
 20
123.105319426746
 10
1937.458713526257
 20
123.105319426746
 10
1935.660479549369
 20
123.105319426746
 10
1935.660479549369
 20
123.105319426746
 10
1935.660479549369
 20
123.105319426746
 10
1941.409129987127
 20
141.642461206109
 10
1941.409129987127
 20
141.642461206109
 10
1941.409129987127
 20
141.642461206109
 10
1939.040397670409
 20
141.642461206109
 10
1939.040397670409
 20
141.642461206109
 10
1939.040397670409
 20
141.642461206109
 10
1939.536952164915
 20
143.518432927829
 10
1939.536952164915
 20
143.518432927829
 10
1939.536952164915
 20
143.518432927829
 10
1941.930307633347
 20
143.518432927829
 10
1941.930307633347
 20
143.518432927829
 10
1941.930307633347
 20
143.518432927829
 10
1942.77686795507
 20
146.1179236028939
 10
1942.77686795507
 20
146.1179236028939
 10
1943.461406450716
 20
148.2973328951149
 10
1944.042245026465
 20
149.4674161376772
 10
1944.540138544327
 20
150.3496093587049
 10
1945.032750358952
 20
151.232546481597
 10
1946.007708142475
 20
152.0998616653363
 10
1947.01896833698
 20
152.3909504648878
 97
        1
330
36A7
 92
        1
 93
        1
 72
     4
 94
        3
 73
     0
 74
     1
 95
       32
 96
       28
 40
0.0
 40
0.0
 40
0.0
 40
0.0
 40
1.0
 40
1.0
 40
1.0
 40
2.0
 40
2.0
 40
2.0
 40
3.0
 40
3.0
 40
3.0
 40
4.0
 40
4.0
 40
4.0
 40
5.0
 40
5.0
 40
5.0
 40
6.0
 40
6.0
 40
6.0
 40
7.0
 40
7.0
 40
7.0
 40
8.0
 40
8.0
 40
8.0
 40
9.0
 40
9.0
 40
9.0
 40
9.0
 10
1951.394524713372
 20
142.3847264864374
 10
1950.311998720255
 20
140.9844800070205
 10
1949.478382290974
 20
139.7243102486757
 10
1948.128795528524
 20
135.7635535518901
 10
1946.888041608841
 20
132.1406026917421
 10
1946.098464169936
 20
129.5048096056932
 10
1945.979216701069
 20
126.2947242803041
 10
1945.888460673606
 20
123.9059066132458
 10
1947.343086379314
 20
123.105319426746
 10
1949.475853024634
 20
123.105319426746
 10
1950.395018168326
 20
123.105319426746
 10
1952.714504181618
 20
123.1637901132903
 10
1954.3662638814
 20
125.2056519507783
 10
1955.522584939468
 20
126.6401923061455
 10
1956.588298750451
 20
128.1272521331414
 10
1958.017036671275
 20
133.0053142189559
 10
1959.205940631009
 20
137.0833842397621
 10
1960.029142434186
 20
139.7191029356247
 10
1959.968291261677
 20
141.2197761667398
 10
1959.968291261677
 20
141.2197761667398
 10
1959.968291261677
 20
141.2197761667398
 10
1959.968291261677
 20
141.2197761667398
 10
1959.580569609936
 20
143.7233035012931
 10
1957.762919794387
 20
144.2522921170894
 10
1956.724432791643
 20
144.2522921170894
 10
1955.70156772805
 20
144.2522921170894
 10
1952.960735698745
 20
144.4292663706373
 10
1951.394524713372
 20
142.3847264864374
 97
        1
330
36AA
 92
        1
 93
        1
 72
     4
 94
        3
 73
     0
 74
     1
 95
       38
 96
       34
 40
0.0
 40
0.0
 40
0.0
 40
0.0
 40
1.0
 40
1.0
 40
1.0
 40
2.0
 40
2.0
 40
2.0
 40
3.0
 40
3.0
 40
3.0
 40
4.0
 40
4.0
 40
4.0
 40
5.0
 40
5.0
 40
5.0
 40
6.0
 40
6.0
 40
6.0
 40
7.0
 40
7.0
 40
7.0
 40
8.0
 40
8.0
 40
8.0
 40
9.0
 40
9.0
 40
9.0
 40
10.0
 40
10.0
 40
10.0
 40
11.0
 40
11.0
 40
11.0
 40
11.0
 10
1966.542747159137
 20
143.4464976175386
 10
1966.542747159137
 20
143.4464976175386
 10
1968.39149207262
 20
143.4464976175386
 10
1968.39149207262
 20
143.4464976175386
 10
1968.39149207262
 20
143.4464976175386
 10
1967.56561222273
 20
140.8022984404216
 10
1967.56561222273
 20
140.8022984404216
 10
1968.193167835563
 20
141.54456372075
 10
1969.183598777865
 20
142.5331349083912
 10
1970.034176169654
 20
143.0316235477459
 10
1971.304760554101
 20
143.7738888280742
 10
1972.030808773784
 20
143.8717863134333
 10
1972.829313035064
 20
143.8522960845852
 10
1972.829313035064
 20
143.8522960845852
 10
1972.048959979278
 20
141.3520419182353
 10
1972.048959979278
 20
141.3520419182353
 10
1971.540726225497
 20
141.5672527276151
 10
1969.974515240128
 20
141.1575859708734
 10
1969.076030568268
 20
140.5112840310564
 10
1968.265772657532
 20
139.9285113104618
 10
1967.705614553615
 20
139.4326263276327
 10
1967.04190531017
 20
138.1859955832205
 10
1966.383254599404
 20
136.9375050841474
 10
1965.86341597654
 20
134.9467493047458
 10
1964.968799594376
 20
132.058773486655
 10
1964.968799594376
 20
132.058773486655
 10
1962.174852971949
 20
123.105319426746
 10
1962.174852971949
 20
123.105319426746
 10
1962.174852971949
 20
123.105319426746
 10
1960.380561674943
 20
123.105319426746
 10
1960.380561674943
 20
123.105319426746
 10
1960.380561674943
 20
123.105319426746
 10
1966.542747159137
 20
143.4464976175386
 10
1966.542747159137
 20
143.4464976175386
 97
        1
330
36A8
 92
        1
 93
        1
 72
     4
 94
        3
 73
     0
 74
     1
 95
      104
 96
      100
 40
0.0
 40
0.0
 40
0.0
 40
0.0
 40
1.0
 40
1.0
 40
1.0
 40
2.0
 40
2.0
 40
2.0
 40
3.0
 40
3.0
 40
3.0
 40
4.0
 40
4.0
 40
4.0
 40
5.0
 40
5.0
 40
5.0
 40
6.0
 40
6.0
 40
6.0
 40
7.0
 40
7.0
 40
7.0
 40
8.0
 40
8.0
 40
8.0
 40
9.0
 40
9.0
 40
9.0
 40
10.0
 40
10.0
 40
10.0
 40
11.0
 40
11.0
 40
11.0
 40
12.0
 40
12.0
 40
12.0
 40
13.0
 40
13.0
 40
13.0
 40
14.0
 40
14.0
 40
14.0
 40
15.0
 40
15.0
 40
15.0
 40
16.0
 40
16.0
 40
16.0
 40
17.0
 40
17.0
 40
17.0
 40
18.0
 40
18.0
 40
18.0
 40
19.0
 40
19.0
 40
19.0
 40
20.0
 40
20.0
 40
20.0
 40
21.0
 40
21.0
 40
21.0
 40
22.0
 40
22.0
 40
22.0
 40
23.0
 40
23.0
 40
23.0
 40
24.0
 40
24.0
 40
24.0
 40
25.0
 40
25.0
 40
25.0
 40
26.0
 40
26.0
 40
26.0
 40
27.0
 40
27.0
 40
27.0
 40
28.0
 40
28.0
 40
28.0
 40
29.0
 40
29.0
 40
29.0
 40
30.0
 40
30.0
 40
30.0
 40
31.0
 40
31.0
 40
31.0
 40
32.0
 40
32.0
 40
32.0
 40
33.0
 40
33.0
 40
33.0
 40
33.0
 10
1976.718878323425
 20
143.4575073651321
 10
1976.718878323425
 20
143.4575073651321
 10
1978.332996588864
 20
143.4575073651321
 10
1978.332996588864
 20
143.4575073651321
 10
1978.332996588864
 20
143.4575073651321
 10
1977.517531365076
 20
140.810778921676
 10
1977.517531365076
 20
140.810778921676
 10
1978.225279598895
 20
141.920531723033
 10
1978.860571791119
 20
142.4151520726926
 10
1979.704602846502
 20
143.054312554611
 10
1980.551163168223
 20
143.6843974337833
 10
1981.556025806694
 20
143.812794895584
 10
1982.253508194784
 20
143.812794895584
 10
1983.117029479015
 20
143.812794895584
 10
1983.950645908296
 20
143.6422925882567
 10
1984.388804106443
 20
142.6958262461422
 10
1984.72460140805
 20
141.9536353560001
 10
1984.740223347202
 20
141.8660781065566
 10
1984.644260006691
 20
140.4010377747479
 10
1985.521915426345
 20
141.9030500292188
 10
1986.170151511008
 20
142.5500214807137
 10
1987.272167732975
 20
143.1716258786317
 10
1988.42863757142
 20
143.812794895584
 10
1989.102761440966
 20
143.8607765658398
 10
1989.885941323838
 20
143.7453229964802
 10
1991.039733115569
 20
143.5748950793392
 10
1991.776195961356
 20
143.1632197875635
 10
1992.161239566385
 20
141.9121256319649
 10
1992.54762219477
 20
140.6648997660613
 10
1992.338883331611
 20
139.9959088193793
 10
1991.861744675765
 20
138.0103603530286
 10
1991.64393020986
 20
137.1060732466272
 10
1991.328813380087
 20
136.0111240923725
 10
1990.916542966819
 20
134.7082543670094
 10
1990.916542966819
 20
134.7082543670094
 10
1987.272167732975
 20
123.105319426746
 10
1987.272167732975
 20
123.105319426746
 10
1987.272167732975
 20
123.105319426746
 10
1985.376705782409
 20
123.105319426746
 10
1985.376705782409
 20
123.105319426746
 10
1985.376705782409
 20
123.105319426746
 10
1988.567449659321
 20
133.2490164697431
 10
1988.567449659321
 20
133.2490164697431
 10
1989.233836949479
 20
135.3713684889626
 10
1989.684939040069
 20
136.9212880235028
 10
1989.918375445127
 20
137.893047029008
 10
1990.211323999339
 20
139.1052351170969
 10
1990.327967811683
 20
139.505231149601
 10
1990.189304504152
 20
140.3874987608153
 10
1990.062246065708
 20
141.2087664191461
 10
1989.647297605728
 20
141.7435574694851
 10
1988.936871325198
 20
141.7435574694851
 10
1988.17972800758
 20
141.7435574694851
 10
1987.566455310545
 20
141.659273388245
 10
1986.708290119737
 20
140.7971655175569
 10
1985.84997614856
 20
139.9285113104618
 10
1985.140740111011
 20
138.9088450248874
 10
1984.584599077163
 20
137.7361581257997
 10
1984.029648286297
 20
136.5563297688134
 10
1983.466960916042
 20
135.0608638507494
 10
1982.896536966398
 20
133.2490164697431
 10
1982.896536966398
 20
133.2490164697431
 10
1979.704602846502
 20
123.105319426746
 10
1979.704602846502
 20
123.105319426746
 10
1979.704602846502
 20
123.105319426746
 10
1977.921916418581
 20
123.105319426746
 10
1977.921916418581
 20
123.105319426746
 10
1977.921916418581
 20
123.105319426746
 10
1981.571498965475
 20
134.7030470539584
 10
1981.571498965475
 20
134.7030470539584
 10
1981.956542570504
 20
135.9373290274211
 10
1982.245771615394
 20
136.9433819088763
 10
1982.436359273062
 20
137.729686179579
 10
1982.760402925207
 20
139.0832156219098
 10
1982.851158952669
 20
139.9985124759046
 10
1982.606117678524
 20
140.810778921676
 10
1982.364944694076
 20
141.6204417109219
 10
1981.941069411725
 20
141.8272464292334
 10
1981.233172397533
 20
141.8272464292334
 10
1980.639389929345
 20
141.8272464292334
 10
1980.059890376953
 20
141.5724600406662
 10
1979.398710399847
 20
141.0654909200569
 10
1978.566284213549
 20
140.4276694614944
 10
1978.233164958657
 20
139.9038881587491
 10
1977.824762835085
 20
139.2815398589669
 10
1977.273680333915
 20
138.458263665602
 10
1977.015695167332
 20
137.9040567766015
 10
1976.550310160944
 20
136.687926008631
 10
1976.084776374184
 20
135.4646537827621
 10
1975.644088909695
 20
134.0411231749885
 10
1975.336708659311
 20
133.0564946672286
 10
1975.336708659311
 20
133.0564946672286
 10
1972.205774492298
 20
123.105319426746
 10
1972.205774492298
 20
123.105319426746
 10
1972.205774492298
 20
123.105319426746
 10
1970.338878373326
 20
123.105319426746
 10
1970.338878373326
 20
123.105319426746
 10
1970.338878373326
 20
123.105319426746
 10
1976.718878323425
 20
143.4575073651321
 10
1976.718878323425
 20
143.4575073651321
 97
        1
330
36A9
 92
       16
 93
        1
 72
     4
 94
        3
 73
     0
 74
     1
 95
       29
 96
       25
 40
0.0
 40
0.0
 40
0.0
 40
0.0
 40
1.0
 40
1.0
 40
1.0
 40
2.0
 40
2.0
 40
2.0
 40
3.0
 40
3.0
 40
3.0
 40
4.0
 40
4.0
 40
4.0
 40
5.0
 40
5.0
 40
5.0
 40
6.0
 40
6.0
 40
6.0
 40
7.0
 40
7.0
 40
7.0
 40
8.0
 40
8.0
 40
8.0
 40
8.0
 10
1947.916188375669
 20
126.8949043045264
 10
1947.908303015907
 20
128.3120373562658
 10
1948.355685597176
 20
130.8298476066162
 10
1949.501740809517
 20
134.1986815898748
 10
1951.062744481836
 20
138.7603622127471
 10
1951.998870588036
 20
140.4276694614944
 10
1952.818055321147
 20
141.2392663955878
 10
1954.014844640642
 20
142.4210288974216
 10
1955.623755593032
 20
142.4799459250845
 10
1956.098364982539
 20
142.4210288974216
 10
1956.77382787544
 20
142.3399435941987
 10
1957.727956406759
 20
141.8978427161679
 10
1957.784939289575
 20
140.4095182560024
 10
1957.830466083678
 20
139.1357350935386
 10
1957.463424903768
 20
136.7501905946838
 10
1956.178706383896
 20
133.0053142189559
 10
1954.698044112936
 20
128.6536370924121
 10
1953.808635043822
 20
126.9429603649685
 10
1953.095679496951
 20
126.1974219164366
 10
1951.752490290537
 20
124.7997790935452
 10
1950.311998720255
 20
124.9339789898883
 10
1950.0993915674
 20
124.9339789898883
 10
1949.823255195324
 20
124.9339789898883
 10
1947.920056665365
 20
125.2336226608809
 10
1947.916188375669
 20
126.8949043045264
 97
        1
330
36AB
 75
     0
 76
     1
 98
        1
 10
1859.334883625664
 20
72.26751235270598
1001
ACAD
1010
0.0
1020
0.0
1030
0.0
  0
POLYLINE
  5
369C
102
{ACAD_REACTORS
330
369B
330
36AC
102
}
330
A
100
AcDbEntity
  8
TEMPLATE
100
AcDb2dPolyline
 66
     1
 10
0.0
 20
0.0
 30
0.0
  0
VERTEX
  5
369D
330
369C
100
AcDbEntity
  8
TEMPLATE
100
AcDbVertex
100
AcDb2dVertex
 10
1934.476782902687
 20
153.1053194253001
 30
0.0
  0
VERTEX
  5
369E
330
369C
100
AcDbEntity
  8
TEMPLATE
100
AcDbVertex
100
AcDb2dVertex
 10
1934.476782902687
 20
147.1959117946397
 30
0.0
  0
VERTEX
  5
369F
330
369C
100
AcDbEntity
  8
TEMPLATE
100
AcDbVertex
100
AcDb2dVertex
 10
1925.116191352377
 20
147.1959117946397
 30
0.0
  0
VERTEX
  5
36A0
330
369C
100
AcDbEntity
  8
TEMPLATE
100
AcDbVertex
100
AcDb2dVertex
 10
1925.116191352377
 20
123.105319426746
 30
0.0
  0
VERTEX
  5
36A1
330
369C
100
AcDbEntity
  8
TEMPLATE
100
AcDbVertex
100
AcDb2dVertex
 10
1916.883578199102
 20
123.105319426746
 30
0.0
  0
VERTEX
  5
36A2
330
369C
100
AcDbEntity
  8
TEMPLATE
100
AcDbVertex
100
AcDb2dVertex
 10
1916.883578199102
 20
147.1959117946397
 30
0.0
  0
VERTEX
  5
36A3
330
369C
100
AcDbEntity
  8
TEMPLATE
100
AcDbVertex
100
AcDb2dVertex
 10
1907.688876764557
 20
147.1959117946397
 30
0.0
  0
VERTEX
  5
36A4
330
369C
100
AcDbEntity
  8
TEMPLATE
100
AcDbVertex
100
AcDb2dVertex
 10
1907.688876764557
 20
153.1053194253001
 30
0.0
  0
VERTEX
  5
36A5
330
369C
100
AcDbEntity
  8
TEMPLATE
100
AcDbVertex
100
AcDb2dVertex
 10
1934.476782902687
 20
153.1053194253001
 30
0.0
  0
SEQEND
  5
36A6
330
369C
100
AcDbEntity
  8
TEMPLATE
  0
SPLINE
  5
36A7
102
{ACAD_REACTORS
330
369B
330
36AC
102
}
330
A
100
AcDbEntity
  8
TEMPLATE
100
AcDbSpline
210
0.0
220
0.0
230
1.0
 70
    11
 71
     3
 72
    56
 73
    52
 74
     0
 42
0.000000001
 43
0.0000000001
 40
0.0
 40
0.0
 40
0.0
 40
0.0
 40
1.0
 40
1.0
 40
1.0
 40
2.0
 40
2.0
 40
2.0
 40
3.0
 40
3.0
 40
3.0
 40
4.0
 40
4.0
 40
4.0
 40
5.0
 40
5.0
 40
5.0
 40
6.0
 40
6.0
 40
6.0
 40
7.0
 40
7.0
 40
7.0
 40
8.0
 40
8.0
 40
8.0
 40
9.0
 40
9.0
 40
9.0
 40
10.0
 40
10.0
 40
10.0
 40
11.0
 40
11.0
 40
11.0
 40
12.0
 40
12.0
 40
12.0
 40
13.0
 40
13.0
 40
13.0
 40
14.0
 40
14.0
 40
14.0
 40
15.0
 40
15.0
 40
15.0
 40
16.0
 40
16.0
 40
16.0
 40
17.0
 40
17.0
 40
17.0
 40
17.0
 10
1947.01896833698
 20
152.3909504648878
 30
0.0
 10
1948.1728345189
 20
152.715738018898
 30
0.0
 10
1949.662423612235
 20
152.4440650580081
 30
0.0
 10
1949.662423612235
 20
152.4440650580081
 30
0.0
 10
1949.662423612235
 20
152.4440650580081
 30
0.0
 10
1948.946790018651
 20
150.2964947655846
 30
0.0
 10
1948.946790018651
 20
150.2964947655846
 30
0.0
 10
1948.946790018651
 20
150.2964947655846
 30
0.0
 10
1947.484427733556
 20
150.6348957237139
 30
0.0
 10
1946.356523726704
 20
149.7454866546012
 30
0.0
 10
1945.480058550036
 20
149.0499384113589
 30
0.0
 10
1944.912238256914
 20
147.2017886193686
 30
0.0
 10
1944.69442379101
 20
146.4990989182278
 30
0.0
 10
1944.69442379101
 20
146.4990989182278
 30
0.0
 10
1943.723334297183
 20
143.518432927829
 30
0.0
 10
1943.723334297183
 20
143.518432927829
 30
0.0
 10
1943.723334297183
 20
143.518432927829
 30
0.0
 10
1946.907457447503
 20
143.518432927829
 30
0.0
 10
1946.907457447503
 20
143.518432927829
 30
0.0
 10
1946.907457447503
 20
143.518432927829
 30
0.0
 10
1946.412241976351
 20
141.642461206109
 30
0.0
 10
1946.412241976351
 20
141.642461206109
 30
0.0
 10
1946.412241976351
 20
141.642461206109
 30
0.0
 10
1943.202156650962
 20
141.642461206109
 30
0.0
 10
1943.202156650962
 20
141.642461206109
 30
0.0
 10
1943.202156650962
 20
141.642461206109
 30
0.0
 10
1937.458713526257
 20
123.105319426746
 30
0.0
 10
1937.458713526257
 20
123.105319426746
 30
0.0
 10
1937.458713526257
 20
123.105319426746
 30
0.0
 10
1935.660479549369
 20
123.105319426746
 30
0.0
 10
1935.660479549369
 20
123.105319426746
 30
0.0
 10
1935.660479549369
 20
123.105319426746
 30
0.0
 10
1941.409129987127
 20
141.642461206109
 30
0.0
 10
1941.409129987127
 20
141.642461206109
 30
0.0
 10
1941.409129987127
 20
141.642461206109
 30
0.0
 10
1939.040397670409
 20
141.642461206109
 30
0.0
 10
1939.040397670409
 20
141.642461206109
 30
0.0
 10
1939.040397670409
 20
141.642461206109
 30
0.0
 10
1939.536952164915
 20
143.518432927829
 30
0.0
 10
1939.536952164915
 20
143.518432927829
 30
0.0
 10
1939.536952164915
 20
143.518432927829
 30
0.0
 10
1941.930307633347
 20
143.518432927829
 30
0.0
 10
1941.930307633347
 20
143.518432927829
 30
0.0
 10
1941.930307633347
 20
143.518432927829
 30
0.0
 10
1942.77686795507
 20
146.1179236028939
 30
0.0
 10
1942.77686795507
 20
146.1179236028939
 30
0.0
 10
1943.461406450716
 20
148.2973328951149
 30
0.0
 10
1944.042245026465
 20
149.4674161376772
 30
0.0
 10
1944.540138544327
 20
150.3496093587049
 30
0.0
 10
1945.032750358952
 20
151.232546481597
 30
0.0
 10
1946.007708142475
 20
152.0998616653363
 30
0.0
 10
1947.01896833698
 20
152.3909504648878
 30
0.0
  0
SPLINE
  5
36A8
102
{ACAD_REACTORS
330
369B
330
36AC
102
}
330
A
100
AcDbEntity
  8
TEMPLATE
100
AcDbSpline
210
0.0
220
0.0
230
1.0
 70
    11
 71
     3
 72
    38
 73
    34
 74
     0
 42
0.000000001
 43
0.0000000001
 40
0.0
 40
0.0
 40
0.0
 40
0.0
 40
1.0
 40
1.0
 40
1.0
 40
2.0
 40
2.0
 40
2.0
 40
3.0
 40
3.0
 40
3.0
 40
4.0
 40
4.0
 40
4.0
 40
5.0
 40
5.0
 40
5.0
 40
6.0
 40
6.0
 40
6.0
 40
7.0
 40
7.0
 40
7.0
 40
8.0
 40
8.0
 40
8.0
 40
9.0
 40
9.0
 40
9.0
 40
10.0
 40
10.0
 40
10.0
 40
11.0
 40
11.0
 40
11.0
 40
11.0
 10
1966.542747159137
 20
143.4464976175386
 30
0.0
 10
1966.542747159137
 20
143.4464976175386
 30
0.0
 10
1968.39149207262
 20
143.4464976175386
 30
0.0
 10
1968.39149207262
 20
143.4464976175386
 30
0.0
 10
1968.39149207262
 20
143.4464976175386
 30
0.0
 10
1967.56561222273
 20
140.8022984404216
 30
0.0
 10
1967.56561222273
 20
140.8022984404216
 30
0.0
 10
1968.193167835563
 20
141.54456372075
 30
0.0
 10
1969.183598777865
 20
142.5331349083912
 30
0.0
 10
1970.034176169654
 20
143.0316235477459
 30
0.0
 10
1971.304760554101
 20
143.7738888280742
 30
0.0
 10
1972.030808773784
 20
143.8717863134333
 30
0.0
 10
1972.829313035064
 20
143.8522960845852
 30
0.0
 10
1972.829313035064
 20
143.8522960845852
 30
0.0
 10
1972.048959979278
 20
141.3520419182353
 30
0.0
 10
1972.048959979278
 20
141.3520419182353
 30
0.0
 10
1971.540726225497
 20
141.5672527276151
 30
0.0
 10
1969.974515240128
 20
141.1575859708734
 30
0.0
 10
1969.076030568268
 20
140.5112840310564
 30
0.0
 10
1968.265772657532
 20
139.9285113104618
 30
0.0
 10
1967.705614553615
 20
139.4326263276327
 30
0.0
 10
1967.04190531017
 20
138.1859955832205
 30
0.0
 10
1966.383254599404
 20
136.9375050841474
 30
0.0
 10
1965.86341597654
 20
134.9467493047458
 30
0.0
 10
1964.968799594376
 20
132.058773486655
 30
0.0
 10
1964.968799594376
 20
132.058773486655
 30
0.0
 10
1962.174852971949
 20
123.105319426746
 30
0.0
 10
1962.174852971949
 20
123.105319426746
 30
0.0
 10
1962.174852971949
 20
123.105319426746
 30
0.0
 10
1960.380561674943
 20
123.105319426746
 30
0.0
 10
1960.380561674943
 20
123.105319426746
 30
0.0
 10
1960.380561674943
 20
123.105319426746
 30
0.0
 10
1966.542747159137
 20
143.4464976175386
 30
0.0
 10
1966.542747159137
 20
143.4464976175386
 30
0.0
  0
SPLINE
  5
36A9
102
{ACAD_REACTORS
330
369B
330
36AC
102
}
330
A
100
AcDbEntity
  8
TEMPLATE
100
AcDbSpline
210
0.0
220
0.0
230
1.0
 70
    11
 71
     3
 72
   104
 73
   100
 74
     0
 42
0.000000001
 43
0.0000000001
 40
0.0
 40
0.0
 40
0.0
 40
0.0
 40
1.0
 40
1.0
 40
1.0
 40
2.0
 40
2.0
 40
2.0
 40
3.0
 40
3.0
 40
3.0
 40
4.0
 40
4.0
 40
4.0
 40
5.0
 40
5.0
 40
5.0
 40
6.0
 40
6.0
 40
6.0
 40
7.0
 40
7.0
 40
7.0
 40
8.0
 40
8.0
 40
8.0
 40
9.0
 40
9.0
 40
9.0
 40
10.0
 40
10.0
 40
10.0
 40
11.0
 40
11.0
 40
11.0
 40
12.0
 40
12.0
 40
12.0
 40
13.0
 40
13.0
 40
13.0
 40
14.0
 40
14.0
 40
14.0
 40
15.0
 40
15.0
 40
15.0
 40
16.0
 40
16.0
 40
16.0
 40
17.0
 40
17.0
 40
17.0
 40
18.0
 40
18.0
 40
18.0
 40
19.0
 40
19.0
 40
19.0
 40
20.0
 40
20.0
 40
20.0
 40
21.0
 40
21.0
 40
21.0
 40
22.0
 40
22.0
 40
22.0
 40
23.0
 40
23.0
 40
23.0
 40
24.0
 40
24.0
 40
24.0
 40
25.0
 40
25.0
 40
25.0
 40
26.0
 40
26.0
 40
26.0
 40
27.0
 40
27.0
 40
27.0
 40
28.0
 40
28.0
 40
28.0
 40
29.0
 40
29.0
 40
29.0
 40
30.0
 40
30.0
 40
30.0
 40
31.0
 40
31.0
 40
31.0
 40
32.0
 40
32.0
 40
32.0
 40
33.0
 40
33.0
 40
33.0
 40
33.0
 10
1976.718878323425
 20
143.4575073651321
 30
0.0
 10
1976.718878323425
 20
143.4575073651321
 30
0.0
 10
1978.332996588864
 20
143.4575073651321
 30
0.0
 10
1978.332996588864
 20
143.4575073651321
 30
0.0
 10
1978.332996588864
 20
143.4575073651321
 30
0.0
 10
1977.517531365076
 20
140.810778921676
 30
0.0
 10
1977.517531365076
 20
140.810778921676
 30
0.0
 10
1978.225279598895
 20
141.920531723033
 30
0.0
 10
1978.860571791119
 20
142.4151520726926
 30
0.0
 10
1979.704602846502
 20
143.054312554611
 30
0.0
 10
1980.551163168223
 20
143.6843974337833
 30
0.0
 10
1981.556025806694
 20
143.812794895584
 30
0.0
 10
1982.253508194784
 20
143.812794895584
 30
0.0
 10
1983.117029479015
 20
143.812794895584
 30
0.0
 10
1983.950645908296
 20
143.6422925882567
 30
0.0
 10
1984.388804106443
 20
142.6958262461422
 30
0.0
 10
1984.72460140805
 20
141.9536353560001
 30
0.0
 10
1984.740223347202
 20
141.8660781065566
 30
0.0
 10
1984.644260006691
 20
140.4010377747479
 30
0.0
 10
1985.521915426345
 20
141.9030500292188
 30
0.0
 10
1986.170151511008
 20
142.5500214807137
 30
0.0
 10
1987.272167732975
 20
143.1716258786317
 30
0.0
 10
1988.42863757142
 20
143.812794895584
 30
0.0
 10
1989.102761440966
 20
143.8607765658398
 30
0.0
 10
1989.885941323838
 20
143.7453229964802
 30
0.0
 10
1991.039733115569
 20
143.5748950793392
 30
0.0
 10
1991.776195961356
 20
143.1632197875635
 30
0.0
 10
1992.161239566385
 20
141.9121256319649
 30
0.0
 10
1992.54762219477
 20
140.6648997660613
 30
0.0
 10
1992.338883331611
 20
139.9959088193793
 30
0.0
 10
1991.861744675765
 20
138.0103603530286
 30
0.0
 10
1991.64393020986
 20
137.1060732466272
 30
0.0
 10
1991.328813380087
 20
136.0111240923725
 30
0.0
 10
1990.916542966819
 20
134.7082543670094
 30
0.0
 10
1990.916542966819
 20
134.7082543670094
 30
0.0
 10
1987.272167732975
 20
123.105319426746
 30
0.0
 10
1987.272167732975
 20
123.105319426746
 30
0.0
 10
1987.272167732975
 20
123.105319426746
 30
0.0
 10
1985.376705782409
 20
123.105319426746
 30
0.0
 10
1985.376705782409
 20
123.105319426746
 30
0.0
 10
1985.376705782409
 20
123.105319426746
 30
0.0
 10
1988.567449659321
 20
133.2490164697431
 30
0.0
 10
1988.567449659321
 20
133.2490164697431
 30
0.0
 10
1989.233836949479
 20
135.3713684889626
 30
0.0
 10
1989.684939040069
 20
136.9212880235028
 30
0.0
 10
1989.918375445127
 20
137.893047029008
 30
0.0
 10
1990.211323999339
 20
139.1052351170969
 30
0.0
 10
1990.327967811683
 20
139.505231149601
 30
0.0
 10
1990.189304504152
 20
140.3874987608153
 30
0.0
 10
1990.062246065708
 20
141.2087664191461
 30
0.0
 10
1989.647297605728
 20
141.7435574694851
 30
0.0
 10
1988.936871325198
 20
141.7435574694851
 30
0.0
 10
1988.17972800758
 20
141.7435574694851
 30
0.0
 10
1987.566455310545
 20
141.659273388245
 30
0.0
 10
1986.708290119737
 20
140.7971655175569
 30
0.0
 10
1985.84997614856
 20
139.9285113104618
 30
0.0
 10
1985.140740111011
 20
138.9088450248874
 30
0.0
 10
1984.584599077163
 20
137.7361581257997
 30
0.0
 10
1984.029648286297
 20
136.5563297688134
 30
0.0
 10
1983.466960916042
 20
135.0608638507494
 30
0.0
 10
1982.896536966398
 20
133.2490164697431
 30
0.0
 10
1982.896536966398
 20
133.2490164697431
 30
0.0
 10
1979.704602846502
 20
123.105319426746
 30
0.0
 10
1979.704602846502
 20
123.105319426746
 30
0.0
 10
1979.704602846502
 20
123.105319426746
 30
0.0
 10
1977.921916418581
 20
123.105319426746
 30
0.0
 10
1977.921916418581
 20
123.105319426746
 30
0.0
 10
1977.921916418581
 20
123.105319426746
 30
0.0
 10
1981.571498965475
 20
134.7030470539584
 30
0.0
 10
1981.571498965475
 20
134.7030470539584
 30
0.0
 10
1981.956542570504
 20
135.9373290274211
 30
0.0
 10
1982.245771615394
 20
136.9433819088763
 30
0.0
 10
1982.436359273062
 20
137.729686179579
 30
0.0
 10
1982.760402925207
 20
139.0832156219098
 30
0.0
 10
1982.851158952669
 20
139.9985124759046
 30
0.0
 10
1982.606117678524
 20
140.810778921676
 30
0.0
 10
1982.364944694076
 20
141.6204417109219
 30
0.0
 10
1981.941069411725
 20
141.8272464292334
 30
0.0
 10
1981.233172397533
 20
141.8272464292334
 30
0.0
 10
1980.639389929345
 20
141.8272464292334
 30
0.0
 10
1980.059890376953
 20
141.5724600406662
 30
0.0
 10
1979.398710399847
 20
141.0654909200569
 30
0.0
 10
1978.566284213549
 20
140.4276694614944
 30
0.0
 10
1978.233164958657
 20
139.9038881587491
 30
0.0
 10
1977.824762835085
 20
139.2815398589669
 30
0.0
 10
1977.273680333915
 20
138.458263665602
 30
0.0
 10
1977.015695167332
 20
137.9040567766015
 30
0.0
 10
1976.550310160944
 20
136.687926008631
 30
0.0
 10
1976.084776374184
 20
135.4646537827621
 30
0.0
 10
1975.644088909695
 20
134.0411231749885
 30
0.0
 10
1975.336708659311
 20
133.0564946672286
 30
0.0
 10
1975.336708659311
 20
133.0564946672286
 30
0.0
 10
1972.205774492298
 20
123.105319426746
 30
0.0
 10
1972.205774492298
 20
123.105319426746
 30
0.0
 10
1972.205774492298
 20
123.105319426746
 30
0.0
 10
1970.338878373326
 20
123.105319426746
 30
0.0
 10
1970.338878373326
 20
123.105319426746
 30
0.0
 10
1970.338878373326
 20
123.105319426746
 30
0.0
 10
1976.718878323425
 20
143.4575073651321
 30
0.0
 10
1976.718878323425
 20
143.4575073651321
 30
0.0
  0
SPLINE
  5
36AA
102
{ACAD_REACTORS
330
369B
330
36AC
102
}
330
A
100
AcDbEntity
  8
TEMPLATE
100
AcDbSpline
210
0.0
220
0.0
230
1.0
 70
    11
 71
     3
 72
    32
 73
    28
 74
     0
 42
0.000000001
 43
0.0000000001
 40
0.0
 40
0.0
 40
0.0
 40
0.0
 40
1.0
 40
1.0
 40
1.0
 40
2.0
 40
2.0
 40
2.0
 40
3.0
 40
3.0
 40
3.0
 40
4.0
 40
4.0
 40
4.0
 40
5.0
 40
5.0
 40
5.0
 40
6.0
 40
6.0
 40
6.0
 40
7.0
 40
7.0
 40
7.0
 40
8.0
 40
8.0
 40
8.0
 40
9.0
 40
9.0
 40
9.0
 40
9.0
 10
1951.394524713372
 20
142.3847264864374
 30
0.0
 10
1950.311998720255
 20
140.9844800070205
 30
0.0
 10
1949.478382290974
 20
139.7243102486757
 30
0.0
 10
1948.128795528524
 20
135.7635535518901
 30
0.0
 10
1946.888041608841
 20
132.1406026917421
 30
0.0
 10
1946.098464169936
 20
129.5048096056932
 30
0.0
 10
1945.979216701069
 20
126.2947242803041
 30
0.0
 10
1945.888460673606
 20
123.9059066132458
 30
0.0
 10
1947.343086379314
 20
123.105319426746
 30
0.0
 10
1949.475853024634
 20
123.105319426746
 30
0.0
 10
1950.395018168326
 20
123.105319426746
 30
0.0
 10
1952.714504181618
 20
123.1637901132903
 30
0.0
 10
1954.3662638814
 20
125.2056519507783
 30
0.0
 10
1955.522584939468
 20
126.6401923061455
 30
0.0
 10
1956.588298750451
 20
128.1272521331414
 30
0.0
 10
1958.017036671275
 20
133.0053142189559
 30
0.0
 10
1959.205940631009
 20
137.0833842397621
 30
0.0
 10
1960.029142434186
 20
139.7191029356247
 30
0.0
 10
1959.968291261677
 20
141.2197761667398
 30
0.0
 10
1959.968291261677
 20
141.2197761667398
 30
0.0
 10
1959.968291261677
 20
141.2197761667398
 30
0.0
 10
1959.968291261677
 20
141.2197761667398
 30
0.0
 10
1959.580569609936
 20
143.7233035012931
 30
0.0
 10
1957.762919794387
 20
144.2522921170894
 30
0.0
 10
1956.724432791643
 20
144.2522921170894
 30
0.0
 10
1955.70156772805
 20
144.2522921170894
 30
0.0
 10
1952.960735698745
 20
144.4292663706373
 30
0.0
 10
1951.394524713372
 20
142.3847264864374
 30
0.0
  0
SPLINE
  5
36AB
102
{ACAD_REACTORS
330
369B
330
36AC
102
}
330
A
100
AcDbEntity
  8
TEMPLATE
100
AcDbSpline
210
0.0
220
0.0
230
1.0
 70
    11
 71
     3
 72
    29
 73
    25
 74
     0
 42
0.000000001
 43
0.0000000001
 40
0.0
 40
0.0
 40
0.0
 40
0.0
 40
1.0
 40
1.0
 40
1.0
 40
2.0
 40
2.0
 40
2.0
 40
3.0
 40
3.0
 40
3.0
 40
4.0
 40
4.0
 40
4.0
 40
5.0
 40
5.0
 40
5.0
 40
6.0
 40
6.0
 40
6.0
 40
7.0
 40
7.0
 40
7.0
 40
8.0
 40
8.0
 40
8.0
 40
8.0
 10
1947.916188375669
 20
126.8949043045264
 30
0.0
 10
1947.908303015907
 20
128.3120373562658
 30
0.0
 10
1948.355685597176
 20
130.8298476066162
 30
0.0
 10
1949.501740809517
 20
134.1986815898748
 30
0.0
 10
1951.062744481836
 20
138.7603622127471
 30
0.0
 10
1951.998870588036
 20
140.4276694614944
 30
0.0
 10
1952.818055321147
 20
141.2392663955878
 30
0.0
 10
1954.014844640642
 20
142.4210288974216
 30
0.0
 10
1955.623755593032
 20
142.4799459250845
 30
0.0
 10
1956.098364982539
 20
142.4210288974216
 30
0.0
 10
1956.77382787544
 20
142.3399435941987
 30
0.0
 10
1957.727956406759
 20
141.8978427161679
 30
0.0
 10
1957.784939289575
 20
140.4095182560024
 30
0.0
 10
1957.830466083678
 20
139.1357350935386
 30
0.0
 10
1957.463424903768
 20
136.7501905946838
 30
0.0
 10
1956.178706383896
 20
133.0053142189559
 30
0.0
 10
1954.698044112936
 20
128.6536370924121
 30
0.0
 10
1953.808635043822
 20
126.9429603649685
 30
0.0
 10
1953.095679496951
 20
126.1974219164366
 30
0.0
 10
1951.752490290537
 20
124.7997790935452
 30
0.0
 10
1950.311998720255
 20
124.9339789898883
 30
0.0
 10
1950.0993915674
 20
124.9339789898883
 30
0.0
 10
1949.823255195324
 20
124.9339789898883
 30
0.0
 10
1947.920056665365
 20
125.2336226608809
 30
0.0
 10
1947.916188375669
 20
126.8949043045264
 30
0.0
  0
MTEXT
  5
3A8C
330
A
100
AcDbEntity
  8
TEMPLATE
 62
     7
390
1D
100
AcDbMText
 10
131.0148745246561
 20
313.234425358175
 30
0.0
 40
24.4326171875
 41
0.0
 46
27.53672361022102
 71
     1
 72
     1
  1
{洗面器 -CATALANO,New Premium-}
  7
ＭＳ ゴシック
 73
     1
 44
0.7828267384257843
1001
ACAD
1000
ACAD_MTEXT_DEFINED_HEIGHT_BEGIN
1070
    46
1040
27.53672361022102
1000
ACAD_MTEXT_DEFINED_HEIGHT_END
  0
MTEXT
  5
3A8D
330
A
100
AcDbEntity
  8
TEMPLATE
 62
     7
390
1D
100
AcDbMText
 10
127.2893172537309
 20
220.0533191849353
 30
0.0
 40
24.4326171875
 41
0.0
 46
74.88994710897406
 71
     1
 72
     1
  1
{カウンター置き/オーバーフローなし\P陶器/ホワイト}
  7
ＭＳ ゴシック
 73
     1
 44
1.130749733281688
1001
ACAD
1000
ACAD_MTEXT_DEFINED_HEIGHT_BEGIN
1070
    46
1040
74.88994710897406
1000
ACAD_MTEXT_DEFINED_HEIGHT_END
  0
LINE
  5
3C1C
330
A
100
AcDbEntity
  8
0
100
AcDbLine
 10
1472.288626193214
 20
1187.408420447092
 30
0.0
 11
1550.104556740865
 21
1187.408420447092
 31
0.0
  0
SPLINE
  5
3C22
330
A
100
AcDbEntity
  8
HIDDEN
 48
0.8
100
AcDbSpline
210
0.0
220
0.0
230
1.0
 70
     8
 71
     3
 72
    55
 73
    51
 74
     0
 42
0.000000001
 43
0.0000000001
 40
0.0
 40
0.0
 40
0.0
 40
0.0
 40
0.0019992880814809
 40
0.0039985761629618
 40
0.0079971523259237
 40
0.0159943046518474
 40
0.0239914569777711
 40
0.0319886093036948
 40
0.0479829139555422
 40
0.0639772186073896
 40
0.079971523259237
 40
0.0959658279110844
 40
0.1279544372147791
 40
0.1599430465184739
 40
0.1919316558221687
 40
0.2239202651258635
 40
0.2559088744295583
 40
0.3038917883851004
 40
0.3198860930369479
 40
0.3518747023406427
 40
0.3998576162961848
 40
0.4158519209480322
 40
0.4238490732739559
 40
0.447840530251727
 40
0.4718319872294981
 40
0.4958234442072692
 40
0.5078191726961547
 40
0.5118177488591166
 40
0.5198149011850403
 40
0.5318106296739258
 40
0.5438063581628113
 40
0.555802086651697
 40
0.5677978151405825
 40
0.5757949674665062
 40
0.5917892721183535
 40
0.603785000607239
 40
0.6157807290961246
 40
0.6397721860738957
 40
0.6637636430516668
 40
0.6877551000294378
 40
0.711746557007209
 40
0.7237422854960945
 40
0.7357380139849801
 40
0.7597294709627511
 40
0.7677266232886749
 40
0.7837209279405223
 40
0.8317038418960644
 40
0.8796867558516066
 40
0.9276696698071488
 40
1.0
 40
1.0
 40
1.0
 40
1.0
 10
1658.196591466668
 20
1278.192399518042
 30
0.0
 10
1658.07533607162
 20
1278.192399518042
 30
0.0
 10
1657.832961432542
 20
1278.179043261561
 30
0.0
 10
1657.3510634276
 20
1278.123025081085
 30
0.0
 10
1656.517237800547
 20
1277.959477301368
 30
0.0
 10
1655.361275340108
 20
1277.583653296069
 30
0.0
 10
1654.040804703095
 20
1276.967971256412
 30
0.0
 10
1652.370388659982
 20
1275.977754020716
 30
0.0
 10
1650.444796194549
 20
1274.494979865683
 30
0.0
 10
1648.353667627803
 20
1272.466483617639
 30
0.0
 10
1646.440890129478
 20
1270.270508279625
 30
0.0
 10
1644.083149076993
 20
1267.185096528986
 30
0.0
 10
1641.42759215352
 20
1263.119316081292
 30
0.0
 10
1638.551659454258
 20
1258.059133547294
 30
0.0
 10
1635.882274343491
 20
1252.897771995902
 30
0.0
 10
1633.3450331494
 20
1247.685446141718
 30
0.0
 10
1630.473033233929
 20
1241.585415744428
 30
0.0
 10
1628.046559206751
 20
1236.371052375552
 30
0.0
 10
1625.582378042117
 20
1231.205693025216
 30
0.0
 10
1623.070509484561
 20
1226.085950276881
 30
0.0
 10
1620.414468285998
 20
1221.071781851382
 30
0.0
 10
1618.255551266396
 20
1217.423134913997
 30
0.0
 10
1616.76578120877
 20
1215.026498762972
 30
0.0
 10
1614.94235141162
 20
1212.292171431932
 30
0.0
 10
1612.413253214597
 20
1208.974221715647
 30
0.0
 10
1610.140162803103
 20
1206.446029842702
 30
0.0
 10
1608.546487801811
 20
1204.916868897731
 30
0.0
 10
1607.570758270072
 20
1204.044645571784
 30
0.0
 10
1606.58266174851
 20
1203.208770695617
 30
0.0
 10
1605.247834923522
 20
1202.185683166326
 30
0.0
 10
1603.760250075736
 20
1201.172280253698
 30
0.0
 10
1602.324298363518
 20
1200.310611844202
 30
0.0
 10
1601.130705331304
 20
1199.674568603843
 30
0.0
 10
1599.900151475381
 20
1199.076107479328
 30
0.0
 10
1598.797263074751
 20
1198.599276722301
 30
0.0
 10
1597.719122496795
 20
1198.178198985917
 30
0.0
 10
1596.556500092141
 20
1197.762085513119
 30
0.0
 10
1595.310959497238
 20
1197.366666260853
 30
0.0
 10
1593.998296635472
 20
1196.999302800637
 30
0.0
 10
1592.70958430271
 20
1196.677977969362
 30
0.0
 10
1591.517167797742
 20
1196.414167948207
 30
0.0
 10
1590.407371862301
 20
1196.19344965819
 30
0.0
 10
1589.165225378111
 20
1195.96463539386
 30
0.0
 10
1587.854298016781
 20
1195.750909269316
 30
0.0
 10
1586.276759140536
 20
1195.52337251905
 30
0.0
 10
1583.752403699184
 20
1195.190123650152
 30
0.0
 10
1579.234891519988
 20
1194.719549417599
 30
0.0
 10
1572.663070944532
 20
1194.188085976094
 30
0.0
 10
1564.523681065038
 20
1193.599800011516
 30
0.0
 10
1558.678355524466
 20
1193.191701779536
 30
0.0
 10
1555.078932398131
 20
1192.940669170793
 30
0.0
  0
SPLINE
  5
3C29
330
A
100
AcDbEntity
  8
0
100
AcDbSpline
210
0.0
220
0.0
230
1.0
 70
     8
 71
     3
 72
    27
 73
    23
 74
     0
 42
0.000000001
 43
0.0000000001
 40
0.0
 40
0.0
 40
0.0
 40
0.0
 40
0.1013068355528105
 40
0.202613671105621
 40
0.3039205066584315
 40
0.3545739244348367
 40
0.405227342211242
 40
0.4558807599876472
 40
0.5065341777640524
 40
0.5571875955404577
 40
0.6078410133168629
 40
0.6584944310932681
 40
0.7091478488696734
 40
0.7344745577578761
 40
0.7598012666460786
 40
0.7851279755342813
 40
0.8104546844224839
 40
0.8357813933106865
 40
0.8611081021988891
 40
0.9117615199752943
 40
0.9624149377516996
 40
1.0
 40
1.0
 40
1.0
 40
1.0
 10
1606.049546455703
 20
1278.192399514106
 30
0.0
 10
1608.173222644436
 20
1278.192399479356
 30
0.0
 10
1612.420420217416
 20
1278.192399531502
 30
0.0
 10
1618.79069948849
 20
1278.192399509915
 30
0.0
 10
1624.09867366136
 20
1278.192399513698
 30
0.0
 10
1628.344273130923
 20
1278.192399514578
 30
0.0
 10
1631.52755006644
 20
1278.192399514709
 30
0.0
 10
1634.709290697919
 20
1278.192399514855
 30
0.0
 10
1637.887777313793
 20
1278.192399515008
 30
0.0
 10
1641.0591083421
 20
1278.192399515175
 30
0.0
 10
1644.214148173564
 20
1278.192399515342
 30
0.0
 10
1647.328144798977
 20
1278.192399515517
 30
0.0
 10
1649.832750649238
 20
1278.19239951567
 30
0.0
 10
1651.680524981254
 20
1278.192399515794
 30
0.0
 10
1652.94168752257
 20
1278.192399515881
 30
0.0
 10
1654.032714632879
 20
1278.192399515983
 30
0.0
 10
1654.928474607573
 20
1278.19239951607
 30
0.0
 10
1655.636150296618
 20
1278.192399516165
 30
0.0
 10
1656.366755338805
 20
1278.192399516288
 30
0.0
 10
1656.966884882198
 20
1278.192399516441
 30
0.0
 10
1657.35967977732
 20
1278.192399516601
 30
0.0
 10
1657.52314644188
 20
1278.19239951671
 30
0.0
 10
1657.581791455411
 20
1278.192399516747
 30
0.0
  0
SPLINE
  5
3C2A
102
{ACAD_REACTORS
330
4677
102
}
330
A
100
AcDbEntity
  8
0
100
AcDbSpline
210
0.0
220
0.0
230
1.0
 70
     8
 71
     2
 72
     6
 73
     3
 74
     0
 42
0.000000001
 43
0.0000000001
 40
0.0
 40
0.0
 40
0.0
 40
1.0
 40
1.0
 40
1.0
 10
1658.196530284932
 20
1278.192399518042
 30
0.0
 10
1656.764477036751
 20
1278.125626923292
 30
0.0
 10
1655.382346868152
 20
1277.560122010329
 30
0.0
  0
ARC
  5
3C2B
330
A
100
AcDbEntity
  8
0
100
AcDbCircle
 10
1544.79863377152
 20
1190.788666176764
 30
0.0
 40
6.000000000000001
100
AcDbArc
 50
309.9999999999592
 51
344.9999999999787
  0
ARC
  5
3C2C
330
A
100
AcDbEntity
  8
0
100
AcDbCircle
 10
1555.426799689004
 20
1187.952785015362
 30
0.0
 40
5.0
100
AcDbArc
 50
93.98948844187922
 51
164.9999999999784
  0
ARC
  5
3C2D
330
A
100
AcDbEntity
  8
0
100
AcDbCircle
 10
1658.214264162952
 20
1275.312399518044
 30
0.0
 40
2.88
100
AcDbArc
 50
357.999999999999
 51
90.0
  0
ARC
  5
3C2E
330
A
100
AcDbEntity
  8
0
100
AcDbCircle
 10
1654.807448193072
 20
1181.192399518049
 30
0.0
 40
3.0
100
AcDbArc
 50
270.0
 51
357.9999999999964
  0
ARC
  5
3C37
330
A
100
AcDbEntity
  8
0
100
AcDbCircle
 10
1550.305990824893
 20
1164.732816149693
 30
0.0
 40
6.000000000000001
100
AcDbArc
 50
129.9999999999592
 51
150.2966626678269
  0
ARC
  5
3C38
330
A
100
AcDbEntity
  8
0
100
AcDbCircle
 10
1542.488566940982
 20
1169.192399518042
 30
0.0
 40
3.0
100
AcDbArc
 50
270.0
 51
330.296662667828
  0
ARC
  5
3C39
330
A
100
AcDbEntity
  8
0
100
AcDbCircle
 10
1536.29678145372
 20
1171.906099428577
 30
0.0
 40
3.0
100
AcDbArc
 50
129.9999999999565
 51
179.0000000000243
  0
LINE
  5
3C3A
330
A
100
AcDbEntity
  8
0
100
AcDbLine
 10
1550.59717055756
 20
1189.246880240878
 30
0.0
 11
1550.594188729255
 21
1189.235751906142
 31
0.0
  0
LINE
  5
3C3B
330
A
100
AcDbEntity
  8
0
100
AcDbLine
 10
1658.214264162952
 20
1278.192399518042
 30
0.0
 11
1658.196591466668
 21
1278.192399518042
 31
0.0
  0
LINE
  5
3C3D
330
A
100
AcDbEntity
  8
0
100
AcDbLine
 10
1657.805620674128
 20
1181.087701027938
 30
0.0
 11
1661.092509744766
 21
1275.211888967542
 31
0.0
  0
LINE
  5
3C3E
330
A
100
AcDbEntity
  8
0
100
AcDbLine
 10
1648.305137132123
 20
1178.192399518042
 30
0.0
 11
1654.807448193072
 21
1178.192399518042
 31
0.0
  0
LINE
  5
3C45
330
A
100
AcDbEntity
  8
0
100
AcDbLine
 10
1546.449265166774
 20
1169.329082808408
 30
0.0
 11
1557.01215469778
 21
1178.192399518044
 31
0.0
  0
LINE
  5
3C46
330
A
100
AcDbEntity
  8
0
100
AcDbLine
 10
1533.196591466668
 20
1166.192399518049
 30
0.0
 11
1542.488566940982
 21
1166.192399518049
 31
0.0
  0
LINE
  5
3C47
330
A
100
AcDbEntity
  8
0
100
AcDbLine
 10
1533.297238368249
 20
1171.958456647889
 30
0.0
 11
1533.196591466668
 21
1166.192399518049
 31
0.0
  0
LINE
  5
3C48
330
A
100
AcDbEntity
  8
0
100
AcDbLine
 10
1548.655359429639
 20
1186.192399518049
 30
0.0
 11
1534.368418624658
 21
1174.204232757934
 31
0.0
  0
LINE
  5
3C4B
330
A
100
AcDbEntity
  8
0
100
AcDbLine
 10
1625.752514233261
 20
1178.192399518042
 30
0.0
 11
1648.305137132123
 21
1178.192399518042
 31
0.0
  0
LINE
  5
3C4C
330
A
100
AcDbEntity
  8
0
100
AcDbLine
 10
1621.567643179694
 20
1178.192399518042
 30
0.0
 11
1625.752514233261
 21
1178.192399518042
 31
0.0
  0
SPLINE
  5
3C50
330
A
100
AcDbEntity
  8
0
100
AcDbSpline
210
0.0
220
0.0
230
1.0
 70
    24
 71
     3
 72
    46
 73
    42
 74
     0
 42
0.000000001
 43
0.0000000001
 40
0.0
 40
0.0
 40
0.0
 40
0.0
 40
0.0625
 40
0.125
 40
0.1874999999999999
 40
0.25
 40
0.3124999999999999
 40
0.375
 40
0.4062500000000003
 40
0.4375
 40
0.46875
 40
0.5
 40
0.515625
 40
0.53125
 40
0.5390625
 40
0.546875
 40
0.5625
 40
0.578125
 40
0.59375
 40
0.609375
 40
0.625
 40
0.640625
 40
0.65625
 40
0.671875
 40
0.6875
 40
0.703125
 40
0.7109375
 40
0.71875
 40
0.7265625
 40
0.734375
 40
0.75
 40
0.765625
 40
0.78125
 40
0.796875
 40
0.8125
 40
0.828125
 40
0.84375
 40
0.875
 40
0.90625
 40
0.9375
 40
1.0
 40
1.0
 40
1.0
 40
1.0
 10
1511.196591466475
 20
1192.692399518049
 30
0.0
 10
1512.516184837382
 20
1192.692399518049
 30
0.0
 10
1515.155369537518
 20
1192.692399518047
 30
0.0
 10
1519.07602242739
 20
1192.692399518047
 30
0.0
 10
1522.92079205191
 20
1192.692399518047
 30
0.0
 10
1526.652651275624
 20
1192.692399518047
 30
0.0
 10
1530.235660116988
 20
1192.692399518047
 30
0.0
 10
1533.068703697222
 20
1192.692399518047
 30
0.0
 10
1535.227089932326
 20
1192.692399518047
 30
0.0
 10
1536.788022901353
 20
1192.692399518047
 30
0.0
 10
1538.287266770704
 20
1192.692399518047
 30
0.0
 10
1539.482282907308
 20
1192.692399518047
 30
0.0
 10
1540.403915862923
 20
1192.692399518049
 30
0.0
 10
1540.965277702692
 20
1192.692399518049
 30
0.0
 10
1541.40537165648
 20
1192.692399518049
 30
0.0
 10
1541.839401842785
 20
1192.692399518049
 30
0.0
 10
1542.370444847241
 20
1192.692399518049
 30
0.0
 10
1542.988904356526
 20
1192.692399518049
 30
0.0
 10
1543.588216473515
 20
1192.692399518049
 30
0.0
 10
1544.168025904756
 20
1192.692399518049
 30
0.0
 10
1544.727977356662
 20
1192.692399518049
 30
0.0
 10
1545.267715533329
 20
1192.692399518049
 30
0.0
 10
1545.786933815477
 20
1192.692399518049
 30
0.0
 10
1546.285325586038
 20
1192.692399518049
 30
0.0
 10
1546.762584227769
 20
1192.692399518049
 30
0.0
 10
1547.142433305736
 20
1192.692399518049
 30
0.0
 10
1547.435465188703
 20
1192.692399518049
 30
0.0
 10
1547.649783535219
 20
1192.692399518049
 30
0.0
 10
1547.85861443969
 20
1192.692399518049
 30
0.0
 10
1548.129696554576
 20
1192.692399518049
 30
0.0
 10
1548.454671212318
 20
1192.692399518049
 30
0.0
 10
1548.822181013637
 20
1192.692399518049
 30
0.0
 10
1549.16703010258
 20
1192.692399518049
 30
0.0
 10
1549.489017556421
 20
1192.692399518049
 30
0.0
 10
1549.787942452195
 20
1192.692399518049
 30
0.0
 10
1550.063603865702
 20
1192.692399518049
 30
0.0
 10
1550.399941206108
 20
1192.692399518049
 30
0.0
 10
1550.761479549684
 20
1192.692399518049
 30
0.0
 10
1551.099952826254
 20
1192.692399518049
 30
0.0
 10
1551.423153467723
 20
1192.692399518049
 30
0.0
 10
1551.520449670867
 20
1192.692399518047
 30
0.0
 10
1551.520370912999
 20
1192.692399518049
 30
0.0
  0
SPLINE
  5
3C51
102
{ACAD_REACTORS
330
45F2
102
}
330
A
100
AcDbEntity
  8
0
100
AcDbSpline
210
0.0
220
0.0
230
1.0
 70
    24
 71
     3
 72
    46
 73
    42
 74
     0
 42
0.000000001
 43
0.0000000001
 40
0.0
 40
0.0
 40
0.0
 40
0.0
 40
0.0625
 40
0.125
 40
0.1874999999999999
 40
0.25
 40
0.3124999999999999
 40
0.375
 40
0.4062500000000003
 40
0.4375
 40
0.46875
 40
0.5
 40
0.515625
 40
0.53125
 40
0.5390625
 40
0.546875
 40
0.5625
 40
0.578125
 40
0.59375
 40
0.609375
 40
0.625
 40
0.640625
 40
0.65625
 40
0.671875
 40
0.6875
 40
0.703125
 40
0.7109375
 40
0.71875
 40
0.7265625
 40
0.734375
 40
0.75
 40
0.765625
 40
0.78125
 40
0.796875
 40
0.8125
 40
0.828125
 40
0.84375
 40
0.875
 40
0.90625
 40
0.9375
 40
1.0
 40
1.0
 40
1.0
 40
1.0
 10
1511.196591466854
 20
1192.692399518049
 30
0.0
 10
1509.87699809594
 20
1192.692399518049
 30
0.0
 10
1507.237813395811
 20
1192.692399518047
 30
0.0
 10
1503.317160505931
 20
1192.692399518047
 30
0.0
 10
1499.472390881411
 20
1192.692399518047
 30
0.0
 10
1495.740531657705
 20
1192.692399518047
 30
0.0
 10
1492.157522816334
 20
1192.692399518047
 30
0.0
 10
1489.324479236099
 20
1192.692399518047
 30
0.0
 10
1487.166093000996
 20
1192.692399518047
 30
0.0
 10
1485.605160031976
 20
1192.692399518047
 30
0.0
 10
1484.105916162617
 20
1192.692399518047
 30
0.0
 10
1482.91090002602
 20
1192.692399518047
 30
0.0
 10
1481.989267070398
 20
1192.692399518049
 30
0.0
 10
1481.427905230636
 20
1192.692399518049
 30
0.0
 10
1480.987811276848
 20
1192.692399518049
 30
0.0
 10
1480.553781090543
 20
1192.692399518049
 30
0.0
 10
1480.022738086088
 20
1192.692399518049
 30
0.0
 10
1479.404278576795
 20
1192.692399518049
 30
0.0
 10
1478.804966459807
 20
1192.692399518049
 30
0.0
 10
1478.225157028565
 20
1192.692399518049
 30
0.0
 10
1477.66520557666
 20
1192.692399518049
 30
0.0
 10
1477.1254674
 20
1192.692399518049
 30
0.0
 10
1476.606249117845
 20
1192.692399518049
 30
0.0
 10
1476.107857347291
 20
1192.692399518049
 30
0.0
 10
1475.630598705552
 20
1192.692399518049
 30
0.0
 10
1475.250749627586
 20
1192.692399518049
 30
0.0
 10
1474.957717744618
 20
1192.692399518049
 30
0.0
 10
1474.743399398102
 20
1192.692399518049
 30
0.0
 10
1474.534568493632
 20
1192.692399518049
 30
0.0
 10
1474.263486378753
 20
1192.692399518049
 30
0.0
 10
1473.938511721003
 20
1192.692399518049
 30
0.0
 10
1473.571001919684
 20
1192.692399518049
 30
0.0
 10
1473.226152830742
 20
1192.692399518049
 30
0.0
 10
1472.904165376901
 20
1192.692399518049
 30
0.0
 10
1472.605240481126
 20
1192.692399518049
 30
0.0
 10
1472.329579067619
 20
1192.692399518049
 30
0.0
 10
1471.99324172722
 20
1192.692399518049
 30
0.0
 10
1471.631703383638
 20
1192.692399518049
 30
0.0
 10
1471.293230107075
 20
1192.692399518049
 30
0.0
 10
1470.970029465606
 20
1192.692399518049
 30
0.0
 10
1470.872733262454
 20
1192.692399518047
 30
0.0
 10
1470.87281202033
 20
1192.692399518049
 30
0.0
  0
LINE
  5
3C52
330
A
100
AcDbEntity
  8
0
100
AcDbLine
 10
1489.072084005572
 20
1173.325427186544
 30
0.0
 11
1533.32109892775
 21
1173.325427186544
 31
0.0
  0
SPLINE
  5
3C54
330
A
100
AcDbEntity
  8
HIDDEN
 48
0.8
100
AcDbSpline
210
0.0
220
0.0
230
1.0
 70
     8
 71
     3
 72
    55
 73
    51
 74
     0
 42
0.000000001
 43
0.0000000001
 40
0.0
 40
0.0
 40
0.0
 40
0.0
 40
0.0019992880814809
 40
0.0039985761629618
 40
0.0079971523259237
 40
0.0159943046518474
 40
0.0239914569777711
 40
0.0319886093036948
 40
0.0479829139555422
 40
0.0639772186073896
 40
0.079971523259237
 40
0.0959658279110844
 40
0.1279544372147791
 40
0.1599430465184739
 40
0.1919316558221687
 40
0.2239202651258635
 40
0.2559088744295583
 40
0.3038917883851004
 40
0.3198860930369479
 40
0.3518747023406427
 40
0.3998576162961848
 40
0.4158519209480322
 40
0.4238490732739559
 40
0.447840530251727
 40
0.4718319872294981
 40
0.4958234442072692
 40
0.5078191726961547
 40
0.5118177488591166
 40
0.5198149011850403
 40
0.5318106296739258
 40
0.5438063581628113
 40
0.555802086651697
 40
0.5677978151405825
 40
0.5757949674665062
 40
0.5917892721183535
 40
0.603785000607239
 40
0.6157807290961246
 40
0.6397721860738957
 40
0.6637636430516668
 40
0.6877551000294378
 40
0.711746557007209
 40
0.7237422854960945
 40
0.7357380139849801
 40
0.7597294709627511
 40
0.7677266232886749
 40
0.7837209279405223
 40
0.8317038418960644
 40
0.8796867558516066
 40
0.9276696698071488
 40
1.0
 40
1.0
 40
1.0
 40
1.0
 10
1364.196591466664
 20
1278.192399518042
 30
0.0
 10
1364.317846861712
 20
1278.192399518042
 30
0.0
 10
1364.56022150079
 20
1278.179043261561
 30
0.0
 10
1365.042119505732
 20
1278.123025081085
 30
0.0
 10
1365.875945132785
 20
1277.959477301368
 30
0.0
 10
1367.031907593225
 20
1277.583653296069
 30
0.0
 10
1368.352378230237
 20
1276.967971256412
 30
0.0
 10
1370.02279427335
 20
1275.977754020716
 30
0.0
 10
1371.948386738783
 20
1274.494979865683
 30
0.0
 10
1374.03951530553
 20
1272.466483617639
 30
0.0
 10
1375.952292803854
 20
1270.270508279625
 30
0.0
 10
1378.310033856339
 20
1267.185096528986
 30
0.0
 10
1380.965590779812
 20
1263.119316081292
 30
0.0
 10
1383.841523479075
 20
1258.059133547294
 30
0.0
 10
1386.510908589841
 20
1252.897771995902
 30
0.0
 10
1389.048149783933
 20
1247.685446141718
 30
0.0
 10
1391.920149699404
 20
1241.585415744428
 30
0.0
 10
1394.346623726581
 20
1236.371052375552
 30
0.0
 10
1396.810804891215
 20
1231.205693025216
 30
0.0
 10
1399.322673448772
 20
1226.085950276881
 30
0.0
 10
1401.978714647335
 20
1221.071781851382
 30
0.0
 10
1404.137631666937
 20
1217.423134913997
 30
0.0
 10
1405.627401724562
 20
1215.026498762972
 30
0.0
 10
1407.450831521713
 20
1212.292171431932
 30
0.0
 10
1409.979929718736
 20
1208.974221715647
 30
0.0
 10
1412.25302013023
 20
1206.446029842702
 30
0.0
 10
1413.846695131521
 20
1204.916868897731
 30
0.0
 10
1414.822424663261
 20
1204.044645571784
 30
0.0
 10
1415.810521184822
 20
1203.208770695617
 30
0.0
 10
1417.145348009811
 20
1202.185683166326
 30
0.0
 10
1418.632932857597
 20
1201.172280253698
 30
0.0
 10
1420.068884569814
 20
1200.310611844202
 30
0.0
 10
1421.262477602028
 20
1199.674568603843
 30
0.0
 10
1422.493031457951
 20
1199.076107479328
 30
0.0
 10
1423.595919858582
 20
1198.599276722301
 30
0.0
 10
1424.674060436538
 20
1198.178198985917
 30
0.0
 10
1425.836682841192
 20
1197.762085513119
 30
0.0
 10
1427.082223436094
 20
1197.366666260853
 30
0.0
 10
1428.39488629786
 20
1196.999302800637
 30
0.0
 10
1429.683598630622
 20
1196.677977969362
 30
0.0
 10
1430.87601513559
 20
1196.414167948207
 30
0.0
 10
1431.985811071031
 20
1196.19344965819
 30
0.0
 10
1433.227957555221
 20
1195.96463539386
 30
0.0
 10
1434.538884916551
 20
1195.750909269316
 30
0.0
 10
1436.116423792796
 20
1195.52337251905
 30
0.0
 10
1438.640779234148
 20
1195.190123650152
 30
0.0
 10
1443.158291413344
 20
1194.719549417599
 30
0.0
 10
1449.730111988801
 20
1194.188085976094
 30
0.0
 10
1457.869501868295
 20
1193.599800011516
 30
0.0
 10
1463.714827408866
 20
1193.191701779536
 30
0.0
 10
1467.314250535202
 20
1192.940669170793
 30
0.0
  0
SPLINE
  5
3C5B
330
A
100
AcDbEntity
  8
0
100
AcDbSpline
210
0.0
220
0.0
230
1.0
 70
    24
 71
     3
 72
    18
 73
    14
 74
     0
 42
0.000000001
 43
0.0000000001
 40
0.0
 40
0.0
 40
0.0
 40
0.0
 40
0.0118578564984743
 40
0.0736167404673196
 40
0.135375624436165
 40
0.1971345084050103
 40
0.2588933923738557
 40
0.3206522763427011
 40
0.3824111603115464
 40
0.5059289282492372
 40
0.6294466961869278
 40
0.7529644641246186
 40
1.0
 40
1.0
 40
1.0
 40
1.0
 10
1606.049548072225
 20
1278.192399518042
 30
0.0
 10
1605.674645379971
 20
1278.192399518042
 30
0.0
 10
1603.347132147545
 20
1278.192399518042
 30
0.0
 10
1599.066855700989
 20
1278.192399518042
 30
0.0
 10
1593.208843250978
 20
1278.192399518042
 30
0.0
 10
1587.350826546183
 20
1278.192399518042
 30
0.0
 10
1581.492807907886
 20
1278.192399518042
 30
0.0
 10
1575.634789657365
 20
1278.192399518042
 30
0.0
 10
1567.824099009901
 20
1278.192399518042
 30
0.0
 10
1558.060736055745
 20
1278.192399518042
 30
0.0
 10
1546.344700096211
 20
1278.192399518042
 30
0.0
 10
1530.723318489784
 20
1278.192399518042
 30
0.0
 10
1519.007282170917
 20
1278.192399518042
 30
0.0
 10
1511.196591466664
 20
1278.192399518042
 30
0.0
  0
SPLINE
  5
3C5C
102
{ACAD_REACTORS
330
45F2
102
}
330
A
100
AcDbEntity
  8
0
100
AcDbSpline
210
0.0
220
0.0
230
1.0
 70
    24
 71
     3
 72
    18
 73
    14
 74
     0
 42
0.000000001
 43
0.0000000001
 40
0.0
 40
0.0
 40
0.0
 40
0.0
 40
0.2470355358753814
 40
0.3705533038130722
 40
0.4940710717507628
 40
0.6175888396884536
 40
0.6793477236572989
 40
0.7411066076261443
 40
0.8028654915949897
 40
0.864624375563835
 40
0.9263832595326804
 40
0.9881421435015257
 40
1.0
 40
1.0
 40
1.0
 40
1.0
 10
1511.196591466664
 20
1278.192399518042
 30
0.0
 10
1503.385900762413
 20
1278.192399518042
 30
0.0
 10
1491.669864443546
 20
1278.192399518042
 30
0.0
 10
1476.048482837116
 20
1278.192399518042
 30
0.0
 10
1464.332446877584
 20
1278.192399518042
 30
0.0
 10
1454.569083923428
 20
1278.192399518042
 30
0.0
 10
1446.758393275962
 20
1278.192399518042
 30
0.0
 10
1440.900375025442
 20
1278.192399518042
 30
0.0
 10
1435.042356387144
 20
1278.192399518042
 30
0.0
 10
1429.184339682351
 20
1278.192399518042
 30
0.0
 10
1423.326327232337
 20
1278.192399518042
 30
0.0
 10
1419.046050785783
 20
1278.192399518042
 30
0.0
 10
1416.71853755336
 20
1278.192399518042
 30
0.0
 10
1416.343634861106
 20
1278.192399518042
 30
0.0
  0
SPLINE
  5
3C5D
330
A
100
AcDbEntity
  8
0
100
AcDbSpline
210
0.0
220
0.0
230
1.0
 70
     8
 71
     3
 72
    27
 73
    23
 74
     0
 42
0.000000001
 43
0.0000000001
 40
0.0
 40
0.0
 40
0.0
 40
0.0
 40
0.1013068355528105
 40
0.202613671105621
 40
0.3039205066584315
 40
0.3545739244348367
 40
0.405227342211242
 40
0.4558807599876472
 40
0.5065341777640524
 40
0.5571875955404577
 40
0.6078410133168629
 40
0.6584944310932681
 40
0.7091478488696734
 40
0.7344745577578761
 40
0.7598012666460786
 40
0.7851279755342813
 40
0.8104546844224839
 40
0.8357813933106865
 40
0.8611081021988891
 40
0.9117615199752943
 40
0.9624149377516996
 40
1.0
 40
1.0
 40
1.0
 40
1.0
 10
1416.343636477629
 20
1278.192399514106
 30
0.0
 10
1414.219960288897
 20
1278.192399479356
 30
0.0
 10
1409.972762715916
 20
1278.192399531502
 30
0.0
 10
1403.602483444843
 20
1278.192399509915
 30
0.0
 10
1398.294509271972
 20
1278.192399513698
 30
0.0
 10
1394.048909802409
 20
1278.192399514578
 30
0.0
 10
1390.865632866892
 20
1278.192399514709
 30
0.0
 10
1387.683892235414
 20
1278.192399514855
 30
0.0
 10
1384.505405619539
 20
1278.192399515008
 30
0.0
 10
1381.334074591233
 20
1278.192399515175
 30
0.0
 10
1378.179034759768
 20
1278.192399515342
 30
0.0
 10
1375.065038134356
 20
1278.192399515517
 30
0.0
 10
1372.560432284095
 20
1278.19239951567
 30
0.0
 10
1370.712657952078
 20
1278.192399515794
 30
0.0
 10
1369.451495410763
 20
1278.192399515881
 30
0.0
 10
1368.360468300453
 20
1278.192399515983
 30
0.0
 10
1367.46470832576
 20
1278.19239951607
 30
0.0
 10
1366.757032636714
 20
1278.192399516165
 30
0.0
 10
1366.026427594527
 20
1278.192399516288
 30
0.0
 10
1365.426298051135
 20
1278.192399516441
 30
0.0
 10
1365.033503156013
 20
1278.192399516601
 30
0.0
 10
1364.870036491452
 20
1278.19239951671
 30
0.0
 10
1364.811391477921
 20
1278.192399516747
 30
0.0
  0
SPLINE
  5
3C5E
330
A
100
AcDbEntity
  8
0
100
AcDbSpline
210
0.0
220
0.0
230
1.0
 70
     8
 71
     2
 72
     6
 73
     3
 74
     0
 42
0.000000001
 43
0.0000000001
 40
0.0
 40
0.0
 40
0.0
 40
1.0
 40
1.0
 40
1.0
 10
1364.1966526484
 20
1278.192399518042
 30
0.0
 10
1365.628705896582
 20
1278.125626923292
 30
0.0
 10
1367.01083606518
 20
1277.560122010329
 30
0.0
  0
ARC
  5
3C5F
330
A
100
AcDbEntity
  8
0
100
AcDbCircle
 10
1477.594549161812
 20
1190.788666176764
 30
0.0
 40
6.000000000000001
100
AcDbArc
 50
194.9999999999944
 51
230.0000000000408
  0
ARC
  5
3C60
330
A
100
AcDbEntity
  8
0
100
AcDbCircle
 10
1466.966383244328
 20
1187.952785015362
 30
0.0
 40
5.0
100
AcDbArc
 50
14.99999999999445
 51
86.01051155812078
  0
ARC
  5
3C61
330
A
100
AcDbEntity
  8
0
100
AcDbCircle
 10
1364.178918770381
 20
1275.312399518044
 30
0.0
 40
2.88
100
AcDbArc
 50
90.0
 51
182.0000000000011
  0
ARC
  5
3C62
330
A
100
AcDbEntity
  8
0
100
AcDbCircle
 10
1367.585734740261
 20
1181.192399518049
 30
0.0
 40
3.0
100
AcDbArc
 50
182.0000000000036
 51
270.0
  0
ARC
  5
3C6B
330
A
100
AcDbEntity
  8
0
100
AcDbCircle
 10
1472.087192108439
 20
1164.732816149693
 30
0.0
 40
6.000000000000001
100
AcDbArc
 50
29.70333733224311
 51
50.00000000004078
  0
ARC
  5
3C6C
330
A
100
AcDbEntity
  8
0
100
AcDbCircle
 10
1479.90461599235
 20
1169.192399518042
 30
0.0
 40
3.0
100
AcDbArc
 50
209.703337332242
 51
270.0
  0
ARC
  5
3C6D
330
A
100
AcDbEntity
  8
0
100
AcDbCircle
 10
1486.096401479613
 20
1171.906099428577
 30
0.0
 40
3.0
100
AcDbArc
 50
0.9999999999757105
 51
50.00000000004356
  0
LINE
  5
3C6E
330
A
100
AcDbEntity
  8
0
100
AcDbLine
 10
1471.796012375772
 20
1189.246880240878
 30
0.0
 11
1471.798994204078
 21
1189.235751906142
 31
0.0
  0
LINE
  5
3C6F
330
A
100
AcDbEntity
  8
0
100
AcDbLine
 10
1364.178918770381
 20
1278.192399518042
 30
0.0
 11
1364.196591466664
 21
1278.192399518042
 31
0.0
  0
LINE
  5
3C71
330
A
100
AcDbEntity
  8
0
100
AcDbLine
 10
1364.587562259204
 20
1181.087701027938
 30
0.0
 11
1361.300673188566
 21
1275.211888967542
 31
0.0
  0
LINE
  5
3C79
330
A
100
AcDbEntity
  8
0
100
AcDbLine
 10
1475.943917766558
 20
1169.329082808408
 30
0.0
 11
1465.381028235549
 21
1178.192399518047
 31
0.0
  0
LINE
  5
3C7A
330
A
100
AcDbEntity
  8
0
100
AcDbLine
 10
1489.196591466664
 20
1166.192399518049
 30
0.0
 11
1479.90461599235
 21
1166.192399518049
 31
0.0
  0
LINE
  5
3C7B
330
A
100
AcDbEntity
  8
0
100
AcDbLine
 10
1489.095944565083
 20
1171.958456647889
 30
0.0
 11
1489.196591466664
 21
1166.192399518049
 31
0.0
  0
LINE
  5
3C7C
330
A
100
AcDbEntity
  8
0
100
AcDbLine
 10
1473.737823503693
 20
1186.192399518049
 30
0.0
 11
1488.024764308674
 21
1174.204232757934
 31
0.0
  0
LINE
  5
3C7D
102
{ACAD_REACTORS
330
45D4
102
}
330
A
100
AcDbEntity
  8
0
100
AcDbLine
 10
1489.196591466664
 20
1166.192399518049
 30
0.0
 11
1533.196591466666
 21
1166.192399518049
 31
0.0
  0
SPLINE
  5
3CA0
330
A
100
AcDbEntity
  8
HIDDEN
 48
0.8
100
AcDbSpline
210
0.0
220
0.0
230
1.0
 70
     8
 71
     3
 72
    55
 73
    51
 74
     0
 42
0.000000001
 43
0.0000000001
 40
0.0
 40
0.0
 40
0.0
 40
0.0
 40
0.0019837236288936
 40
0.0039674472577873
 40
0.0079348945155746
 40
0.0158697890311491
 40
0.0238046835467237
 40
0.0317395780622982
 40
0.0476093670934473
 40
0.0634791561245964
 40
0.0793489451557456
 40
0.0952187341868947
 40
0.1269583122491929
 40
0.1586978903114911
 40
0.1904374683737893
 40
0.2221770464360876
 40
0.2539166244983858
 40
0.3015259915918331
 40
0.3173957806229822
 40
0.3491353586852805
 40
0.3967447257787278
 40
0.4126145148098769
 40
0.4205494093254514
 40
0.4443540928721751
 40
0.4681587764188988
 40
0.4919634599656225
 40
0.5038658017389843
 40
0.5078332489967715
 40
0.5157681435123461
 40
0.5276704852857079
 40
0.5395728270590698
 40
0.5514751688324316
 40
0.5633775106057934
 40
0.571312405121368
 40
0.5871821941525172
 40
0.599084535925879
 40
0.6109868776992408
 40
0.6347915612459645
 40
0.6585962447926881
 40
0.6824009283394118
 40
0.7062056118861355
 40
0.7181079536594973
 40
0.7300102954328591
 40
0.7538149789795828
 40
0.7617498734951573
 40
0.7776196625263064
 40
0.8252290296197538
 40
0.8728383967132011
 40
0.9204477638066485
 40
1.0
 40
1.0
 40
1.0
 40
1.0
 10
826.6634837980588
 20
1278.192399518042
 30
0.0
 10
826.5422090377602
 20
1278.192399518042
 30
0.0
 10
826.2997982859948
 20
1278.178844175312
 30
0.0
 10
825.8178693828946
 20
1278.121957185356
 30
0.0
 10
824.9839725430417
 20
1277.957598929973
 30
0.0
 10
823.8271262456025
 20
1277.582979669836
 30
0.0
 10
822.5040859753414
 20
1276.971292245896
 30
0.0
 10
820.8292412943107
 20
1275.985738229157
 30
0.0
 10
818.8994223266187
 20
1274.505338940054
 30
0.0
 10
816.8098007070136
 20
1272.473355906608
 30
0.0
 10
814.9046725658906
 20
1270.270415258526
 30
0.0
 10
812.5613327259331
 20
1267.177614029455
 30
0.0
 10
809.9215241659173
 20
1263.106803663198
 30
0.0
 10
807.0283661923737
 20
1258.051179341804
 30
0.0
 10
804.2830848038853
 20
1252.898323946057
 30
0.0
 10
801.5895910932437
 20
1247.694060967058
 30
0.0
 10
798.4200839822794
 20
1241.598262949381
 30
0.0
 10
795.5988735944908
 20
1236.376452246377
 30
0.0
 10
792.617037633942
 20
1231.191040239735
 30
0.0
 10
789.4970205971391
 20
1226.048274040702
 30
0.0
 10
786.087666770835
 20
1221.02773265311
 30
0.0
 10
783.2910370382293
 20
1217.408258593053
 30
0.0
 10
781.359131204858
 20
1215.040660265356
 30
0.0
 10
778.9943646969101
 20
1212.355985000287
 30
0.0
 10
775.6529796215242
 20
1209.063020384575
 30
0.0
 10
772.5302998433605
 20
1206.499261931885
 30
0.0
 10
770.2298738103478
 20
1204.932664003854
 30
0.0
 10
768.7869033920784
 20
1204.041839389199
 30
0.0
 10
767.2929621241043
 20
1203.189202629591
 30
0.0
 10
765.1702845122769
 20
1202.14315764523
 30
0.0
 10
762.5510943910255
 20
1201.109073433513
 30
0.0
 10
759.6571702416537
 20
1200.255444653232
 30
0.0
 10
756.8061455923149
 20
1199.671573248833
 30
0.0
 10
753.3256670128309
 20
1199.152574819239
 30
0.0
 10
749.5505095656832
 20
1198.765992389948
 30
0.0
 10
745.0594850653857
 20
1198.422522614506
 30
0.0
 10
739.4102645604568
 20
1198.061817092702
 30
0.0
 10
731.959306465417
 20
1197.664537480382
 30
0.0
 10
722.6780662735752
 20
1197.218109393341
 30
0.0
 10
713.3396895665124
 20
1196.790014316007
 30
0.0
 10
705.744786345697
 20
1196.449617158608
 30
0.0
 10
699.9217590575123
 20
1196.19109319442
 30
0.0
 10
694.3144307065146
 20
1195.943247295494
 30
0.0
 10
689.4536194344097
 20
1195.729297430622
 30
0.0
 10
684.3883228694236
 20
1195.506842780112
 30
0.0
 10
677.0449532664194
 20
1195.184812700148
 30
0.0
 10
666.5741876117014
 20
1194.72671848966
 30
0.0
 10
654.3472406768984
 20
1194.192651431643
 30
0.0
 10
640.161228110314
 20
1193.573226721389
 30
0.0
 10
629.8878246611117
 20
1193.124673053131
 30
0.0
 10
623.649580634045
 20
1192.852301240671
 30
0.0
  0
ARC
  5
3CA8
330
A
100
AcDbEntity
  8
0
100
AcDbCircle
 10
618.7728831562841
 20
1164.732816149695
 30
0.0
 40
6.000000000000001
100
AcDbArc
 50
129.9999999999701
 51
150.2966626678474
  0
ARC
  5
3CA9
330
A
100
AcDbEntity
  8
0
100
AcDbCircle
 10
613.2655261029055
 20
1190.788666176757
 30
0.0
 40
6.000000000000001
100
AcDbArc
 50
309.9999999999701
 51
344.5433256024849
  0
ARC
  5
3CAA
330
A
100
AcDbEntity
  8
0
100
AcDbCircle
 10
623.867680924514
 20
1187.857060279186
 30
0.0
 40
5.0
100
AcDbArc
 50
92.50003846660597
 51
164.5433256024837
  0
ARC
  5
3CAB
330
A
100
AcDbEntity
  8
0
100
AcDbCircle
 10
826.6811564943406
 20
1275.312399518043
 30
0.0
 40
2.88
100
AcDbArc
 50
357.999999999999
 51
90.0
  0
ARC
  5
3CAC
330
A
100
AcDbEntity
  8
0
100
AcDbCircle
 10
823.2743405244606
 20
1181.192399518042
 30
0.0
 40
3.0
100
AcDbArc
 50
270.0
 51
357.9999999999964
  0
ARC
  5
3CB2
330
A
100
AcDbEntity
  8
0
100
AcDbCircle
 10
610.9554592723713
 20
1169.192399518042
 30
0.0
 40
3.0
100
AcDbArc
 50
270.0
 51
330.2966626678474
  0
ARC
  5
3CB3
330
A
100
AcDbEntity
  8
0
100
AcDbCircle
 10
604.7636737851122
 20
1171.906099428575
 30
0.0
 40
3.0
100
AcDbArc
 50
129.9999999999748
 51
179.0000000000069
  0
LINE
  5
3CB6
330
A
100
AcDbEntity
  8
0
100
AcDbLine
 10
617.1222517610282
 20
1186.192399518042
 30
0.0
 11
602.8353109560545
 21
1174.204232757932
 31
0.0
  0
LINE
  5
3CB7
330
A
100
AcDbEntity
  8
0
100
AcDbLine
 10
826.6811564943406
 20
1278.192399518042
 30
0.0
 11
826.6634837980588
 21
1278.192399518042
 31
0.0
  0
LINE
  5
3CB9
330
A
100
AcDbEntity
  8
0
100
AcDbLine
 10
826.2725130055175
 20
1181.087701027934
 30
0.0
 11
829.5594020761552
 21
1275.21188896754
 31
0.0
  0
LINE
  5
3CBA
330
A
100
AcDbEntity
  8
0
100
AcDbLine
 10
625.4999479595291
 20
1178.192399518042
 30
0.0
 11
823.2743405244606
 21
1178.192399518042
 31
0.0
  0
LINE
  5
3CC0
330
A
100
AcDbEntity
  8
0
100
AcDbLine
 10
614.9161574981614
 20
1169.329082808408
 30
0.0
 11
625.4999479595291
 21
1178.192399518042
 31
0.0
  0
LINE
  5
3CC1
330
A
100
AcDbEntity
  8
0
100
AcDbLine
 10
601.6634837980588
 20
1166.192399518042
 30
0.0
 11
610.9554592723713
 21
1166.192399518042
 31
0.0
  0
LINE
  5
3CC2
330
A
100
AcDbEntity
  8
0
100
AcDbLine
 10
601.7641306996362
 20
1171.958456647887
 30
0.0
 11
601.6634837980588
 21
1166.192399518042
 31
0.0
  0
LINE
  5
3CC9
330
A
100
AcDbEntity
  8
0
100
AcDbLine
 10
790.0355660706979
 20
1178.192399518042
 30
0.0
 11
794.2194065646532
 21
1178.192399518042
 31
0.0
  0
LINE
  5
3CCF
330
A
100
AcDbEntity
  8
0
100
AcDbLine
 10
540.7555185242333
 20
1187.408420447085
 30
0.0
 11
618.5714490718843
 21
1187.408420447085
 31
0.0
  0
LINE
  5
3CD0
330
A
100
AcDbEntity
  8
0
100
AcDbLine
 10
557.53897633697
 20
1173.325427186537
 30
0.0
 11
601.7879912591476
 21
1173.325427186537
 31
0.0
  0
SPLINE
  5
3CE9
330
A
100
AcDbEntity
  8
HIDDEN
 48
0.8
100
AcDbSpline
210
0.0
220
0.0
230
1.0
 70
     8
 71
     3
 72
    55
 73
    51
 74
     0
 42
0.000000001
 43
0.0000000001
 40
0.0
 40
0.0
 40
0.0
 40
0.0
 40
0.0019837236288936
 40
0.0039674472577873
 40
0.0079348945155746
 40
0.0158697890311491
 40
0.0238046835467237
 40
0.0317395780622982
 40
0.0476093670934473
 40
0.0634791561245964
 40
0.0793489451557456
 40
0.0952187341868947
 40
0.1269583122491929
 40
0.1586978903114911
 40
0.1904374683737893
 40
0.2221770464360876
 40
0.2539166244983858
 40
0.3015259915918331
 40
0.3173957806229822
 40
0.3491353586852805
 40
0.3967447257787278
 40
0.4126145148098769
 40
0.4205494093254514
 40
0.4443540928721751
 40
0.4681587764188988
 40
0.4919634599656225
 40
0.5038658017389843
 40
0.5078332489967715
 40
0.5157681435123461
 40
0.5276704852857079
 40
0.5395728270590698
 40
0.5514751688324316
 40
0.5633775106057934
 40
0.571312405121368
 40
0.5871821941525172
 40
0.599084535925879
 40
0.6109868776992408
 40
0.6347915612459645
 40
0.6585962447926881
 40
0.6824009283394118
 40
0.7062056118861355
 40
0.7181079536594973
 40
0.7300102954328591
 40
0.7538149789795828
 40
0.7617498734951573
 40
0.7776196625263064
 40
0.8252290296197538
 40
0.8728383967132011
 40
0.9204477638066485
 40
1.0
 40
1.0
 40
1.0
 40
1.0
 10
332.6634837980624
 20
1278.192399518042
 30
0.0
 10
332.784758558361
 20
1278.192399518042
 30
0.0
 10
333.0271693101264
 20
1278.178844175312
 30
0.0
 10
333.5090982132266
 20
1278.121957185356
 30
0.0
 10
334.3429950530796
 20
1277.957598929973
 30
0.0
 10
335.4998413505188
 20
1277.582979669836
 30
0.0
 10
336.8228816207799
 20
1276.971292245896
 30
0.0
 10
338.4977263018105
 20
1275.985738229157
 30
0.0
 10
340.4275452695025
 20
1274.505338940054
 30
0.0
 10
342.5171668891077
 20
1272.473355906608
 30
0.0
 10
344.4222950302307
 20
1270.270415258526
 30
0.0
 10
346.7656348701881
 20
1267.177614029455
 30
0.0
 10
349.4054434302039
 20
1263.106803663198
 30
0.0
 10
352.2986014037475
 20
1258.051179341804
 30
0.0
 10
355.0438827922359
 20
1252.898323946057
 30
0.0
 10
357.7373765028775
 20
1247.694060967058
 30
0.0
 10
360.9068836138418
 20
1241.598262949381
 30
0.0
 10
363.7280940016304
 20
1236.376452246377
 30
0.0
 10
366.7099299621792
 20
1231.191040239735
 30
0.0
 10
369.8299469989821
 20
1226.048274040702
 30
0.0
 10
373.2393008252863
 20
1221.02773265311
 30
0.0
 10
376.0359305578919
 20
1217.408258593053
 30
0.0
 10
377.9678363912632
 20
1215.040660265356
 30
0.0
 10
380.3326028992111
 20
1212.355985000287
 30
0.0
 10
383.673987974597
 20
1209.063020384575
 30
0.0
 10
386.7966677527608
 20
1206.499261931885
 30
0.0
 10
389.0970937857734
 20
1204.932664003854
 30
0.0
 10
390.5400642040428
 20
1204.041839389199
 30
0.0
 10
392.0340054720169
 20
1203.189202629591
 30
0.0
 10
394.1566830838443
 20
1202.14315764523
 30
0.0
 10
396.7758732050958
 20
1201.109073433513
 30
0.0
 10
399.6697973544675
 20
1200.255444653232
 30
0.0
 10
402.5208220038063
 20
1199.671573248833
 30
0.0
 10
406.0013005832903
 20
1199.152574819239
 30
0.0
 10
409.776458030438
 20
1198.765992389948
 30
0.0
 10
414.2674825307355
 20
1198.422522614506
 30
0.0
 10
419.9167030356645
 20
1198.061817092702
 30
0.0
 10
427.3676611307043
 20
1197.664537480382
 30
0.0
 10
436.6489013225461
 20
1197.218109393341
 30
0.0
 10
445.9872780296088
 20
1196.790014316007
 30
0.0
 10
453.5821812504242
 20
1196.449617158608
 30
0.0
 10
459.4052085386089
 20
1196.19109319442
 30
0.0
 10
465.0125368896066
 20
1195.943247295494
 30
0.0
 10
469.8733481617115
 20
1195.729297430622
 30
0.0
 10
474.9386447266976
 20
1195.506842780112
 30
0.0
 10
482.2820143297018
 20
1195.184812700148
 30
0.0
 10
492.7527799844198
 20
1194.72671848966
 30
0.0
 10
504.9797269192228
 20
1194.192651431643
 30
0.0
 10
519.1657394858072
 20
1193.573226721389
 30
0.0
 10
529.4391429350095
 20
1193.124673053131
 30
0.0
 10
535.6773869620762
 20
1192.852301240671
 30
0.0
  0
SPLINE
  5
3CEF
330
A
100
AcDbEntity
  8
0
100
AcDbSpline
210
0.0
220
0.0
230
1.0
 70
    24
 71
     3
 72
    27
 73
    23
 74
     0
 42
0.000000001
 43
0.0000000001
 40
-0.3097888783979006
 40
-0.3097888783979006
 40
-0.3097888783979006
 40
-0.3097888783979006
 40
-0.0798364468377021
 40
-0.0798364468377021
 40
-0.0798364468377021
 40
0.0
 40
0.0
 40
0.0
 40
0.0059638325395306
 40
0.0680910930058098
 40
0.1302183534720892
 40
0.1923456139383679
 40
0.2544728744046479
 40
0.3787273953372068
 40
0.5029819162697653
 40
0.6272364372023241
 40
0.7514909581348826
 40
0.8757454790674414
 40
1.000000647520197
 40
1.000000647520197
 40
1.000000647520197
 40
2.309780309530601
 40
2.309780309530601
 40
2.309780309530601
 40
2.309780309530601
 10
826.6634837980583
 20
1278.192399518042
 30
0.0
 10
812.2089881966664
 20
1278.192399518042
 30
0.0
 10
797.7544925952744
 20
1278.192399518042
 30
0.0
 10
783.2999969938825
 20
1278.192399518042
 30
0.0
 10
778.2815870478922
 20
1278.192399518042
 30
0.0
 10
773.263177101902
 20
1278.192399518042
 30
0.0
 10
768.2446823448796
 20
1278.192399518042
 30
0.0
 10
767.8697976460122
 20
1278.192399518042
 30
0.0
 10
763.5896068538156
 20
1278.192399518042
 30
0.0
 10
755.4040222683931
 20
1278.192399518042
 30
0.0
 10
743.6879883363678
 20
1278.192399518042
 30
0.0
 10
731.9719527794247
 20
1278.192399518042
 30
0.0
 10
716.3505710488122
 20
1278.192399518042
 30
0.0
 10
696.8238442428288
 20
1278.192399518042
 30
0.0
 10
673.391772287711
 20
1278.192399518042
 30
0.0
 10
649.9597001850804
 20
1278.192399518042
 30
0.0
 10
626.5276280273052
 20
1278.192399518042
 30
0.0
 10
603.0955559067248
 20
1278.192399518042
 30
0.0
 10
587.4741745020607
 20
1278.192399518042
 30
0.0
 10
579.6633616878981
 20
1278.192399518042
 30
0.0
 10
497.3300690579532
 20
1278.192399518042
 30
0.0
 10
414.9967764280078
 20
1278.192399518042
 30
0.0
 10
332.6634837980624
 20
1278.192399518042
 30
0.0
  0
ARC
  5
3CF2
330
A
100
AcDbEntity
  8
0
100
AcDbCircle
 10
540.5540844398371
 20
1164.732816149695
 30
0.0
 40
6.000000000000001
100
AcDbArc
 50
29.70333733217794
 51
50.00000000001298
  0
ARC
  5
3CF3
330
A
100
AcDbEntity
  8
0
100
AcDbCircle
 10
546.0614414932157
 20
1190.788666176757
 30
0.0
 40
6.000000000000001
100
AcDbArc
 50
195.4566743975446
 51
230.000000000013
  0
ARC
  5
3CF4
330
A
100
AcDbEntity
  8
0
100
AcDbCircle
 10
535.4592866716072
 20
1187.857060279186
 30
0.0
 40
5.0
100
AcDbArc
 50
15.45667439754311
 51
87.49996153349838
  0
ARC
  5
3CF5
330
A
100
AcDbEntity
  8
0
100
AcDbCircle
 10
332.6458111017806
 20
1275.312399518043
 30
0.0
 40
2.88
100
AcDbArc
 50
90.0
 51
182.0000000000011
  0
ARC
  5
3CF6
330
A
100
AcDbEntity
  8
0
100
AcDbCircle
 10
336.0526270716606
 20
1181.192399518042
 30
0.0
 40
3.0
100
AcDbArc
 50
182.0000000000036
 51
270.0
  0
ARC
  5
3CFC
330
A
100
AcDbEntity
  8
0
100
AcDbCircle
 10
548.3715083237499
 20
1169.192399518042
 30
0.0
 40
3.0
100
AcDbArc
 50
209.7033373321779
 51
270.0
  0
ARC
  5
3CFD
330
A
100
AcDbEntity
  8
0
100
AcDbCircle
 10
554.563293811009
 20
1171.906099428575
 30
0.0
 40
3.0
100
AcDbArc
 50
0.9999999999930778
 51
50.00000000001298
  0
LINE
  5
3D00
330
A
100
AcDbEntity
  8
0
100
AcDbLine
 10
542.204715835093
 20
1186.192399518042
 30
0.0
 11
556.4916566400667
 21
1174.204232757932
 31
0.0
  0
LINE
  5
3D01
330
A
100
AcDbEntity
  8
0
100
AcDbLine
 10
332.6458111017806
 20
1278.192399518042
 30
0.0
 11
332.6634837980624
 21
1278.192399518042
 31
0.0
  0
LINE
  5
3D03
330
A
100
AcDbEntity
  8
0
100
AcDbLine
 10
333.0544545906038
 20
1181.087701027934
 30
0.0
 11
329.7675655199661
 21
1275.21188896754
 31
0.0
  0
LINE
  5
3D04
330
A
100
AcDbEntity
  8
0
100
AcDbLine
 10
533.9629385923464
 20
1178.192399518042
 30
0.0
 11
336.0526270716606
 21
1178.192399518042
 31
0.0
  0
LINE
  5
3D0A
330
A
100
AcDbEntity
  8
0
100
AcDbLine
 10
544.4108100979598
 20
1169.329082808408
 30
0.0
 11
533.9629385923469
 21
1178.192399518041
 31
0.0
  0
LINE
  5
3D0B
330
A
100
AcDbEntity
  8
0
100
AcDbLine
 10
557.6634837980624
 20
1166.192399518042
 30
0.0
 11
548.3715083237499
 21
1166.192399518042
 31
0.0
  0
LINE
  5
3D0C
330
A
100
AcDbEntity
  8
0
100
AcDbLine
 10
557.562836896485
 20
1171.958456647887
 30
0.0
 11
557.6634837980624
 21
1166.192399518042
 31
0.0
  0
LINE
  5
3D0D
102
{ACAD_REACTORS
330
45C5
102
}
330
A
100
AcDbEntity
  8
0
100
AcDbLine
 10
557.6634837980624
 20
1166.192399518042
 30
0.0
 11
601.6634837980624
 21
1166.192399518042
 31
0.0
  0
SPLINE
  5
3D15
330
A
100
AcDbEntity
  8
0
100
AcDbSpline
210
0.0
220
0.0
230
1.0
 70
    12
 71
     2
 72
     8
 73
     5
 74
     0
 42
0.000000001
 43
0.0000000001
 40
5.49836450023482
 40
5.49836450023482
 40
5.49836450023482
 40
6.283185307179586
 40
6.283185307179586
 40
7.068006114124438
 40
7.068006114124438
 40
7.068006114124438
 10
829.5611564943334
 20
2275.069029758351
 30
0.0
 41
0.8535534697317357
 10
829.5611564943333
 20
2276.72546506883
 30
0.0
 41
0.8536610454094611
 10
828.3905924955353
 20
2277.896029067629
 30
0.0
 41
1.0
 10
827.2200284967369
 20
2279.066593066428
 30
0.0
 41
0.853661045409445
 10
825.5635931862566
 20
2279.066593066427
 30
0.0
 41
0.8535534697317357
  0
SPLINE
  5
3D16
330
A
100
AcDbEntity
  8
0
100
AcDbSpline
210
0.0
220
0.0
230
1.0
 70
    12
 71
     2
 72
     8
 73
     5
 74
     0
 42
0.000000001
 43
0.0000000001
 40
5.498364500234737
 40
5.498364500234737
 40
5.498364500234737
 40
6.283185307179586
 40
6.283185307179586
 40
7.068006114124339
 40
7.068006114124339
 40
7.068006114124339
 10
825.5635931862575
 20
1979.066593066428
 30
0.0
 41
0.853553469731736
 10
827.2200284967369
 20
1979.066593066428
 30
0.0
 41
0.8536610454094455
 10
828.3905924955353
 20
1980.237157065226
 30
0.0
 41
1.0
 10
829.5611564943342
 20
1981.407721064025
 30
0.0
 41
0.8536610454094635
 10
829.5611564943334
 20
1983.064156374504
 30
0.0
 41
0.8535534697317357
  0
SPLINE
  5
3D17
330
A
100
AcDbEntity
  8
0
100
AcDbSpline
210
0.0
220
0.0
230
1.0
 70
    12
 71
     2
 72
     8
 73
     5
 74
     0
 42
0.000000001
 43
0.0000000001
 40
5.498364500234796
 40
5.498364500234796
 40
5.498364500234796
 40
6.283185307179586
 40
6.283185307179586
 40
7.068006114124223
 40
7.068006114124223
 40
7.068006114124223
 10
329.5611564943401
 20
1983.064156374504
 30
0.0
 41
0.8535534697317358
 10
329.5611564943389
 20
1981.407721064025
 30
0.0
 41
0.8536610454094566
 10
330.7317204931379
 20
1980.237157065226
 30
0.0
 41
1.0
 10
331.902284491936
 20
1979.066593066427
 30
0.0
 41
0.8536610454094853
 10
333.5587198024158
 20
1979.066593066428
 30
0.0
 41
0.853553469731736
  0
SPLINE
  5
3D18
330
A
100
AcDbEntity
  8
0
100
AcDbSpline
210
0.0
220
0.0
230
1.0
 70
    12
 71
     2
 72
     8
 73
     5
 74
     0
 42
0.000000001
 43
0.0000000001
 40
5.498364500234948
 40
5.498364500234948
 40
5.498364500234948
 40
6.283185307179586
 40
6.283185307179586
 40
7.06800611412435
 40
7.06800611412435
 40
7.06800611412435
 10
333.5587198024158
 20
2279.066593066428
 30
0.0
 41
0.853553469731736
 10
331.9022844919366
 20
2279.066593066427
 30
0.0
 41
0.8536610454094851
 10
330.7317204931379
 20
2277.896029067629
 30
0.0
 41
1.0
 10
329.5611564943392
 20
2276.72546506883
 30
0.0
 41
0.8536610454094616
 10
329.5611564943396
 20
2275.069029758351
 30
0.0
 41
0.853553469731736
  0
CIRCLE
  5
3D19
330
A
100
AcDbEntity
  8
0
100
AcDbCircle
 10
579.5611564943403
 20
2129.066593066427
 30
0.0
 40
22.0
  0
CIRCLE
  5
3D1A
330
A
100
AcDbEntity
  8
0
100
AcDbCircle
 10
579.5611564943403
 20
2129.066593066427
 30
0.0
 40
38.9079652738284
  0
LINE
  5
3D1B
102
{ACAD_REACTORS
330
4575
102
}
330
A
100
AcDbEntity
  8
0
100
AcDbLine
 10
829.5611564943403
 20
1983.064156374504
 30
0.0
 11
829.5611564943403
 21
2275.069029758351
 31
0.0
  0
LINE
  5
3D1C
102
{ACAD_REACTORS
330
4584
102
}
330
A
100
AcDbEntity
  8
0
100
AcDbLine
 10
333.558719802416
 20
1979.066593066427
 30
0.0
 11
825.5635931862572
 21
1979.066593066427
 31
0.0
  0
LINE
  5
3D1D
102
{ACAD_REACTORS
330
4575
102
}
330
A
100
AcDbEntity
  8
0
100
AcDbLine
 10
329.5611564943403
 20
2275.069029758351
 30
0.0
 11
329.5611564943403
 21
1983.064156374504
 31
0.0
  0
LINE
  5
3D1E
102
{ACAD_REACTORS
330
4584
102
}
330
A
100
AcDbEntity
  8
0
100
AcDbLine
 10
825.5635931862572
 20
2279.066593066427
 30
0.0
 11
333.558719802416
 21
2279.066593066427
 31
0.0
  0
SPLINE
  5
4550
330
A
100
AcDbEntity
  8
MODEL
100
AcDbSpline
210
0.0
220
0.0
230
1.0
 70
     8
 71
     3
 72
    31
 73
    27
 74
     0
 42
0.000000001
 43
0.0000000001
 40
0.164540177813028
 40
0.164540177813028
 40
0.164540177813028
 40
0.164540177813028
 40
0.1875
 40
0.25
 40
0.3125
 40
0.34375
 40
0.375
 40
0.40625
 40
0.4375
 40
0.46875
 40
0.5
 40
0.515625
 40
0.53125
 40
0.546875
 40
0.5625
 40
0.59375
 40
0.625
 40
0.65625
 40
0.6875
 40
0.71875
 40
0.75
 40
0.78125
 40
0.8125
 40
0.875
 40
0.9375
 40
1.0
 40
1.0
 40
1.0
 40
1.0
 10
662.6213427708254
 20
1984.314888971737
 30
0.0
 10
690.2967576062202
 20
1984.349930668557
 30
0.0
 10
786.6456554943444
 20
1984.486656991366
 30
0.0
 10
791.6047797405614
 20
1984.768896384822
 30
0.0
 10
796.8343977551832
 20
1985.183359840058
 30
0.0
 10
801.0052728960715
 20
1985.647230346922
 30
0.0
 10
804.1216704985114
 20
1986.090108293133
 30
0.0
 10
807.2159978058618
 20
1986.670163857113
 30
0.0
 10
810.2667446254915
 20
1987.453551724541
 30
0.0
 10
813.2259628066814
 20
1988.543115903466
 30
0.0
 10
815.5243836567953
 20
1989.831459842996
 30
0.0
 10
817.1592444353724
 20
1991.153062368673
 30
0.0
 10
818.2541196342482
 20
1992.287636852716
 30
0.0
 10
819.1987891830632
 20
1993.549781209064
 30
0.0
 10
820.2542100926504
 20
1995.367133525021
 30
0.0
 10
821.2185894947894
 20
1997.81598124705
 30
0.0
 10
821.9755902974413
 20
2000.874996629029
 30
0.0
 10
822.4788825068664
 20
2003.983311518447
 30
0.0
 10
822.8220717680216
 20
2007.112315395049
 30
0.0
 10
823.0636013327877
 20
2010.250485506151
 30
0.0
 10
823.2401027123698
 20
2013.392823864417
 30
0.0
 10
823.3757860217285
 20
2016.537089719498
 30
0.0
 10
823.5195089965115
 20
2020.730957997194
 30
0.0
 10
823.6592284330237
 20
2025.974415576713
 30
0.0
 10
823.7961378271567
 20
2032.267316187218
 30
0.0
 10
823.8672386756936
 20
2036.462987032379
 30
0.0
 10
823.8930833013425
 20
2038.560952475122
 30
0.0
  0
LINE
  5
4554
330
A
100
AcDbEntity
  8
MODEL
100
AcDbLine
 10
1367.585734740261
 20
1178.192399518049
 30
0.0
 11
1465.381028235549
 21
1178.192399518046
 31
0.0
  0
LINE
  5
4565
102
{ACAD_REACTORS
330
4677
102
}
330
A
100
AcDbEntity
  8
MODEL
100
AcDbLine
 10
1557.012154697781
 20
1178.192399518044
 30
0.0
 11
1654.807448193072
 21
1178.192399518042
 31
0.0
  0
SPLINE
  5
4568
330
A
100
AcDbEntity
  8
MODEL
100
AcDbSpline
210
0.0
220
0.0
230
1.0
 70
     8
 71
     3
 72
    31
 73
    27
 74
     0
 42
0.000000001
 43
0.0000000001
 40
0.164540177813028
 40
0.164540177813028
 40
0.164540177813028
 40
0.164540177813028
 40
0.1875
 40
0.25
 40
0.3125
 40
0.34375
 40
0.375
 40
0.40625
 40
0.4375
 40
0.46875
 40
0.5
 40
0.515625
 40
0.53125
 40
0.546875
 40
0.5625
 40
0.59375
 40
0.625
 40
0.65625
 40
0.6875
 40
0.71875
 40
0.75
 40
0.78125
 40
0.8125
 40
0.875
 40
0.9375
 40
1.0
 40
1.0
 40
1.0
 40
1.0
 10
662.6213427708254
 20
2273.818297161118
 30
0.0
 10
690.2967576062202
 20
2273.783255464299
 30
0.0
 10
786.6456554943444
 20
2273.646529141489
 30
0.0
 10
791.6047797405614
 20
2273.364289748034
 30
0.0
 10
796.8343977551832
 20
2272.949826292798
 30
0.0
 10
801.0052728960715
 20
2272.485955785933
 30
0.0
 10
804.1216704985114
 20
2272.043077839723
 30
0.0
 10
807.2159978058618
 20
2271.463022275743
 30
0.0
 10
810.2667446254915
 20
2270.679634408315
 30
0.0
 10
813.2259628066814
 20
2269.59007022939
 30
0.0
 10
815.5243836567953
 20
2268.30172628986
 30
0.0
 10
817.1592444353724
 20
2266.980123764183
 30
0.0
 10
818.2541196342482
 20
2265.845549280139
 30
0.0
 10
819.1987891830632
 20
2264.583404923791
 30
0.0
 10
820.2542100926504
 20
2262.766052607835
 30
0.0
 10
821.2185894947894
 20
2260.317204885805
 30
0.0
 10
821.9755902974413
 20
2257.258189503826
 30
0.0
 10
822.4788825068664
 20
2254.149874614408
 30
0.0
 10
822.8220717680216
 20
2251.020870737806
 30
0.0
 10
823.0636013327877
 20
2247.882700626704
 30
0.0
 10
823.2401027123698
 20
2244.740362268438
 30
0.0
 10
823.3757860217285
 20
2241.596096413358
 30
0.0
 10
823.5195089965115
 20
2237.402228135662
 30
0.0
 10
823.6592284330237
 20
2232.158770556142
 30
0.0
 10
823.7961378271567
 20
2225.865869945638
 30
0.0
 10
823.8672386756936
 20
2221.670199100476
 30
0.0
 10
823.8930833013425
 20
2219.572233657733
 30
0.0
  0
SPLINE
  5
4569
330
A
100
AcDbEntity
  8
MODEL
100
AcDbSpline
210
0.0
220
0.0
230
1.0
 70
     8
 71
     3
 72
    31
 73
    27
 74
     0
 42
0.000000001
 43
0.0000000001
 40
0.164540177813028
 40
0.164540177813028
 40
0.164540177813028
 40
0.164540177813028
 40
0.1875
 40
0.25
 40
0.3125
 40
0.34375
 40
0.375
 40
0.40625
 40
0.4375
 40
0.46875
 40
0.5
 40
0.515625
 40
0.53125
 40
0.546875
 40
0.5625
 40
0.59375
 40
0.625
 40
0.65625
 40
0.6875
 40
0.71875
 40
0.75
 40
0.78125
 40
0.8125
 40
0.875
 40
0.9375
 40
1.0
 40
1.0
 40
1.0
 40
1.0
 10
496.5009702178478
 20
1984.314888971737
 30
0.0
 10
468.825555382453
 20
1984.349930668557
 30
0.0
 10
372.4766574943288
 20
1984.486656991366
 30
0.0
 10
367.5175332481118
 20
1984.768896384822
 30
0.0
 10
362.28791523349
 20
1985.183359840058
 30
0.0
 10
358.1170400926018
 20
1985.647230346922
 30
0.0
 10
355.0006424901618
 20
1986.090108293133
 30
0.0
 10
351.9063151828115
 20
1986.670163857113
 30
0.0
 10
348.8555683631818
 20
1987.453551724541
 30
0.0
 10
345.8963501819918
 20
1988.543115903466
 30
0.0
 10
343.5979293318779
 20
1989.831459842996
 30
0.0
 10
341.9630685533008
 20
1991.153062368673
 30
0.0
 10
340.868193354425
 20
1992.287636852716
 30
0.0
 10
339.92352380561
 20
1993.549781209064
 30
0.0
 10
338.8681028960228
 20
1995.367133525021
 30
0.0
 10
337.9037234938838
 20
1997.81598124705
 30
0.0
 10
337.146722691232
 20
2000.874996629029
 30
0.0
 10
336.6434304818068
 20
2003.983311518447
 30
0.0
 10
336.3002412206516
 20
2007.112315395049
 30
0.0
 10
336.0587116558855
 20
2010.250485506151
 30
0.0
 10
335.8822102763035
 20
2013.392823864417
 30
0.0
 10
335.7465269669448
 20
2016.537089719498
 30
0.0
 10
335.6028039921617
 20
2020.730957997194
 30
0.0
 10
335.4630845556495
 20
2025.974415576713
 30
0.0
 10
335.3261751615165
 20
2032.267316187218
 30
0.0
 10
335.2550743129797
 20
2036.462987032379
 30
0.0
 10
335.2292296873308
 20
2038.560952475122
 30
0.0
  0
SPLINE
  5
456A
330
A
100
AcDbEntity
  8
MODEL
100
AcDbSpline
210
0.0
220
0.0
230
1.0
 70
     8
 71
     3
 72
    31
 73
    27
 74
     0
 42
0.000000001
 43
0.0000000001
 40
0.164540177813028
 40
0.164540177813028
 40
0.164540177813028
 40
0.164540177813028
 40
0.1875
 40
0.25
 40
0.3125
 40
0.34375
 40
0.375
 40
0.40625
 40
0.4375
 40
0.46875
 40
0.5
 40
0.515625
 40
0.53125
 40
0.546875
 40
0.5625
 40
0.59375
 40
0.625
 40
0.65625
 40
0.6875
 40
0.71875
 40
0.75
 40
0.78125
 40
0.8125
 40
0.875
 40
0.9375
 40
1.0
 40
1.0
 40
1.0
 40
1.0
 10
496.5009702178478
 20
2273.818297161118
 30
0.0
 10
468.825555382453
 20
2273.783255464299
 30
0.0
 10
372.4766574943288
 20
2273.646529141489
 30
0.0
 10
367.5175332481118
 20
2273.364289748034
 30
0.0
 10
362.28791523349
 20
2272.949826292798
 30
0.0
 10
358.1170400926018
 20
2272.485955785933
 30
0.0
 10
355.0006424901618
 20
2272.043077839723
 30
0.0
 10
351.9063151828115
 20
2271.463022275743
 30
0.0
 10
348.8555683631818
 20
2270.679634408315
 30
0.0
 10
345.8963501819918
 20
2269.59007022939
 30
0.0
 10
343.5979293318779
 20
2268.30172628986
 30
0.0
 10
341.9630685533008
 20
2266.980123764183
 30
0.0
 10
340.868193354425
 20
2265.845549280139
 30
0.0
 10
339.92352380561
 20
2264.583404923791
 30
0.0
 10
338.8681028960228
 20
2262.766052607835
 30
0.0
 10
337.9037234938838
 20
2260.317204885805
 30
0.0
 10
337.146722691232
 20
2257.258189503826
 30
0.0
 10
336.6434304818068
 20
2254.149874614408
 30
0.0
 10
336.3002412206516
 20
2251.020870737806
 30
0.0
 10
336.0587116558855
 20
2247.882700626704
 30
0.0
 10
335.8822102763035
 20
2244.740362268438
 30
0.0
 10
335.7465269669448
 20
2241.596096413358
 30
0.0
 10
335.6028039921617
 20
2237.402228135662
 30
0.0
 10
335.4630845556495
 20
2232.158770556142
 30
0.0
 10
335.3261751615165
 20
2225.865869945638
 30
0.0
 10
335.2550743129797
 20
2221.670199100476
 30
0.0
 10
335.2292296873308
 20
2219.572233657733
 30
0.0
  0
LINE
  5
456B
330
A
100
AcDbEntity
  8
MODEL
100
AcDbLine
 10
335.2292296873308
 20
2038.560952475122
 30
0.0
 11
335.2292296873308
 21
2219.572233657733
 31
0.0
  0
LINE
  5
456C
330
A
100
AcDbEntity
  8
MODEL
100
AcDbLine
 10
496.5009702178478
 20
2273.818297161118
 30
0.0
 11
662.6213427708254
 21
2273.818297161118
 31
0.0
  0
LINE
  5
456D
330
A
100
AcDbEntity
  8
MODEL
100
AcDbLine
 10
496.5009702178478
 20
1984.314888971737
 30
0.0
 11
662.6213427708254
 21
1984.314888971737
 31
0.0
  0
LINE
  5
456E
330
A
100
AcDbEntity
  8
MODEL
100
AcDbLine
 10
823.8930833013425
 20
2038.560952475122
 30
0.0
 11
823.8930833013425
 21
2219.572233657733
 31
0.0
  0
CIRCLE
  5
456F
330
A
100
AcDbEntity
  8
DIM
100
AcDbCircle
 10
1511.196591466664
 20
2129.066593066427
 30
0.0
 40
60.0
  0
DIMENSION
  5
4573
102
{ACAD_REACTORS
330
4575
102
}
102
{ACAD_XDICTIONARY
360
4574
102
}
330
A
100
AcDbEntity
  8
DIM
100
AcDbDimension
  2
*D53
 10
829.5611564943403
 20
2394.53278318191
 30
0.0
 11
579.5611564943403
 21
2426.537284870043
 31
0.0
 70
    32
 71
     5
 42
500.0
 73
     0
 74
     0
 75
     0
  3
tfrom線あり
100
AcDbAlignedDimension
 13
329.5611564943403
 23
2272.316937771478
 33
0.0
 14
829.5611564943403
 24
2272.316937771478
 34
0.0
100
AcDbRotatedDimension
  0
DIMENSION
  5
4582
102
{ACAD_REACTORS
330
4584
102
}
102
{ACAD_XDICTIONARY
360
4583
102
}
330
A
100
AcDbEntity
  8
DIM
100
AcDbDimension
  2
*D54
 10
954.1988477085138
 20
2279.066593066427
 30
0.0
 11
954.1988477085138
 21
2129.066593066426
 31
0.0
 70
   160
 71
     5
 42
300.0
 73
     0
 74
     0
 75
     0
  3
tfrom線あり
100
AcDbAlignedDimension
 13
825.5635931862572
 23
1979.066593066427
 33
0.0
 14
825.5635931862572
 24
2279.066593066427
 34
0.0
 50
90.0
100
AcDbRotatedDimension
  0
DIMENSION
  5
4591
330
A
100
AcDbEntity
  8
DIM
100
AcDbDimension
  2
*D55
 10
823.718704014984
 20
1856.480465619673
 30
0.0
 11
579.5655338158973
 21
1856.480465619673
 31
0.0
 70
   160
 71
     5
 42
488.3063403981736
 73
     0
 74
     0
 75
     0
  3
tfrom線あり
100
AcDbAlignedDimension
 13
335.4123636168105
 23
1979.066593066427
 33
0.0
 14
823.718704014984
 24
1979.066593066427
 34
0.0
100
AcDbRotatedDimension
  0
DIMENSION
  5
45A0
330
A
100
AcDbEntity
  8
DIM
100
AcDbDimension
  2
*D56
 10
208.628331456206
 20
1984.462753592308
 30
0.0
 11
176.6238297680728
 21
2128.389845681893
 31
0.0
 70
    32
 71
     5
 42
287.8541841791707
 73
     0
 74
     0
 75
     0
  3
tfrom線あり
100
AcDbAlignedDimension
 13
329.5611564943403
 23
2272.316937771478
 33
0.0
 14
329.5611564943403
 24
1984.462753592308
 34
0.0
 50
90.0
100
AcDbRotatedDimension
  0
HATCH
  5
45B2
330
A
100
AcDbEntity
  8
DIM
 48
0.3
100
AcDbHatch
 10
0.0
 20
0.0
 30
0.0
210
0.0
220
0.0
230
1.0
  2
ANSI31
 70
     0
 71
     0
 91
        1
 92
        1
 93
        1
 72
     2
 10
1511.196591466664
 20
2129.066593066427
 40
60.0
 50
0.0
 51
360.0
 73
     1
 97
        0
 75
     0
 76
     1
 52
0.0
 41
3.0
 77
     0
 78
     1
 53
45.0
 43
0.0
 44
0.0
 45
-6.735192090801865
 46
6.735192090801865
 79
     0
 98
        0
1001
ACAD
1010
0.0
1020
0.0
1030
0.0
  0
DIMENSION
  5
45B3
330
A
100
AcDbEntity
  8
DIM
100
AcDbDimension
  2
*D57
 10
954.1988477085142
 20
1166.192399518042
 30
0.0
 11
954.1988477085142
 21
1228.192399518042
 31
0.0
 70
   160
 71
     5
 42
112.0
 73
     0
 74
     0
 75
     0
  3
tfrom線あり
100
AcDbAlignedDimension
 13
823.8464773101045
 23
1278.192399518042
 33
0.0
 14
606.309471535215
 24
1166.192399518042
 34
0.0
 50
90.0
100
AcDbRotatedDimension
  0
DIMENSION
  5
45C3
102
{ACAD_REACTORS
330
45C5
102
}
102
{ACAD_XDICTIONARY
360
45C4
102
}
330
A
100
AcDbEntity
  8
DIM
100
AcDbDimension
  2
*D58
 10
579.6634837980624
 20
1045.907739876556
 30
0.0
 11
454.715524659014
 21
1077.91224156469
 31
0.0
 70
    32
 71
     5
 42
249.8959182780968
 73
     0
 74
     0
 75
     0
  3
tfrom線あり
100
AcDbAlignedDimension
 13
329.7675655199656
 23
1201.06535792396
 33
0.0
 14
579.6634837980624
 24
1166.192399518042
 34
0.0
100
AcDbRotatedDimension
  0
DIMENSION
  5
45D2
102
{ACAD_REACTORS
330
45D4
102
}
102
{ACAD_XDICTIONARY
360
45D3
102
}
330
A
100
AcDbEntity
  8
DIM
100
AcDbDimension
  2
*D59
 10
1511.196591466665
 20
1045.907739876556
 30
0.0
 11
1586.144550605716
 21
1077.91224156469
 31
0.0
 70
    32
 71
     5
 42
149.8959182781016
 73
     0
 74
     0
 75
     0
  3
tfrom線あり
100
AcDbAlignedDimension
 13
1661.092509744767
 23
1197.063456119449
 33
0.0
 14
1511.196591466665
 24
1166.192399518049
 34
0.0
100
AcDbRotatedDimension
  0
DIMENSION
  5
45F0
102
{ACAD_REACTORS
330
45F2
102
}
102
{ACAD_XDICTIONARY
360
45F1
102
}
330
A
100
AcDbEntity
  8
DIM
100
AcDbDimension
  2
*D61
 10
1507.94940908246
 20
1278.192399518042
 30
0.0
 11
1507.94940908246
 21
1363.298376759507
 31
0.0
 70
   160
 71
     5
 42
85.49999999999272
 73
     0
 74
     1
 75
     1
  3
tfrom線あり
100
AcDbAlignedDimension
 13
1511.196591466854
 23
1192.692399518049
 33
0.0
 14
1511.196591466664
 24
1278.192399518042
 34
0.0
 50
90.0
100
AcDbRotatedDimension
1001
ACAD
1000
DSTYLE
1002
{
1070
    76
1070
     1
1070
    75
1070
     1
1070
     3
1000
深さ<>
1070
   172
1070
     1
1002
}
  0
MTEXT
  5
461C
330
A
100
AcDbEntity
  8
notes
 62
     7
390
1D
100
AcDbMText
 10
1379.179530079457
 20
2473.612480667661
 30
0.0
 40
24.4326171875
 41
0.0
 46
0.0
 71
     1
 72
     1
  1
カウンター切込寸法
  7
ＭＳ ゴシック
 73
     1
 44
0.7828267384257843
  0
MTEXT
  5
4637
330
A
100
AcDbEntity
  8
notes
 62
     7
390
1D
100
AcDbMText
 10
1183.653975323445
 20
1923.114851654623
 30
0.0
 40
24.4326171875
 41
764.7717154610109
 46
0.0
 71
     1
 72
     1
  1
※陶器製品には寸法公差があります。\P  洗面器の収め方をご確認の上、必ず現物を合わせて\P  カウンターに切込を行ってください。
  7
ＭＳ ゴシック
 73
     1
 44
1.043768984567712
  0
LINE
  5
4638
330
A
100
AcDbEntity
  8
DIM
100
AcDbLine
 10
1556.62422176817
 20
2168.262643954108
 30
0.0
 11
1678.978565296684
 21
2322.936343377339
 31
0.0
  0
LINE
  5
4639
330
A
100
AcDbEntity
  8
DIM
100
AcDbLine
 10
1678.978565296684
 20
2322.936343377339
 30
0.0
 11
1796.211911889716
 21
2322.936343377339
 31
0.0
  0
MTEXT
  5
4674
330
A
100
AcDbEntity
  8
DIM
390
1D
100
AcDbMText
 10
1718.651515716008
 20
2354.650390482561
 30
0.0
 40
24.4326171875
 41
842.8831565639148
 46
28.40135167875453
 71
     1
 72
     1
  1
{φ120}
  7
ＭＳ ゴシック
 73
     1
 44
1.043768984567712
1001
ACAD
1000
ACAD_MTEXT_DEFINED_HEIGHT_BEGIN
1070
    46
1040
28.40135167875453
1000
ACAD_MTEXT_DEFINED_HEIGHT_END
  0
DIMENSION
  5
4675
102
{ACAD_REACTORS
330
4677
102
}
102
{ACAD_XDICTIONARY
360
4676
102
}
330
A
100
AcDbEntity
  8
DIM
100
AcDbDimension
  2
*D62
 10
1775.438212200711
 20
1178.192399518042
 30
0.0
 11
1743.433710512578
 21
1228.192399518042
 31
0.0
 70
    32
 71
     5
 42
100.0
 73
     0
 74
     0
 75
     0
  3
tfrom線あり
100
AcDbAlignedDimension
 13
1658.196530284932
 23
1278.192399518042
 33
0.0
 14
1653.057580844838
 24
1178.192399518042
 34
0.0
 50
90.0
100
AcDbRotatedDimension
  0
SPLINE
  5
4688
330
A
100
AcDbEntity
  8
HIDDEN
100
AcDbSpline
210
0.0
220
0.0
230
1.0
 70
    12
 71
     2
 72
     8
 73
     5
 74
     0
 42
0.000000001
 43
0.0000000001
 40
5.49836450023482
 40
5.49836450023482
 40
5.49836450023482
 40
6.283185307179586
 40
6.283185307179586
 40
7.068006114124438
 40
7.068006114124438
 40
7.068006114124438
 10
1761.196591466657
 20
2275.069029758351
 30
0.0
 41
0.8535534697317357
 10
1761.196591466657
 20
2276.72546506883
 30
0.0
 41
0.8536610454094611
 10
1760.026027467859
 20
2277.896029067629
 30
0.0
 41
1.0
 10
1758.85546346906
 20
2279.066593066428
 30
0.0
 41
0.853661045409445
 10
1757.19902815858
 20
2279.066593066427
 30
0.0
 41
0.8535534697317357
  0
SPLINE
  5
4689
330
A
100
AcDbEntity
  8
HIDDEN
100
AcDbSpline
210
0.0
220
0.0
230
1.0
 70
    12
 71
     2
 72
     8
 73
     5
 74
     0
 42
0.000000001
 43
0.0000000001
 40
5.498364500234737
 40
5.498364500234737
 40
5.498364500234737
 40
6.283185307179586
 40
6.283185307179586
 40
7.068006114124339
 40
7.068006114124339
 40
7.068006114124339
 10
1757.199028158581
 20
1979.066593066428
 30
0.0
 41
0.853553469731736
 10
1758.855463469061
 20
1979.066593066428
 30
0.0
 41
0.8536610454094455
 10
1760.026027467859
 20
1980.237157065226
 30
0.0
 41
1.0
 10
1761.196591466658
 20
1981.407721064025
 30
0.0
 41
0.8536610454094635
 10
1761.196591466657
 20
1983.064156374504
 30
0.0
 41
0.8535534697317357
  0
SPLINE
  5
468A
330
A
100
AcDbEntity
  8
HIDDEN
100
AcDbSpline
210
0.0
220
0.0
230
1.0
 70
    12
 71
     2
 72
     8
 73
     5
 74
     0
 42
0.000000001
 43
0.0000000001
 40
5.498364500234796
 40
5.498364500234796
 40
5.498364500234796
 40
6.283185307179586
 40
6.283185307179586
 40
7.068006114124223
 40
7.068006114124223
 40
7.068006114124223
 10
1261.196591466664
 20
1983.064156374504
 30
0.0
 41
0.8535534697317358
 10
1261.196591466663
 20
1981.407721064025
 30
0.0
 41
0.8536610454094566
 10
1262.367155465462
 20
1980.237157065226
 30
0.0
 41
1.0
 10
1263.53771946426
 20
1979.066593066427
 30
0.0
 41
0.8536610454094853
 10
1265.194154774739
 20
1979.066593066428
 30
0.0
 41
0.853553469731736
  0
SPLINE
  5
468B
330
A
100
AcDbEntity
  8
HIDDEN
100
AcDbSpline
210
0.0
220
0.0
230
1.0
 70
    12
 71
     2
 72
     8
 73
     5
 74
     0
 42
0.000000001
 43
0.0000000001
 40
5.498364500234948
 40
5.498364500234948
 40
5.498364500234948
 40
6.283185307179586
 40
6.283185307179586
 40
7.06800611412435
 40
7.06800611412435
 40
7.06800611412435
 10
1265.194154774739
 20
2279.066593066428
 30
0.0
 41
0.853553469731736
 10
1263.53771946426
 20
2279.066593066427
 30
0.0
 41
0.8536610454094851
 10
1262.367155465462
 20
2277.896029067629
 30
0.0
 41
1.0
 10
1261.196591466663
 20
2276.72546506883
 30
0.0
 41
0.8536610454094616
 10
1261.196591466663
 20
2275.069029758351
 30
0.0
 41
0.853553469731736
  0
CIRCLE
  5
468C
330
A
100
AcDbEntity
  8
Hatch
100
AcDbCircle
 10
1511.196591466664
 20
2129.066593066427
 30
0.0
 40
22.0
  0
LINE
  5
468E
102
{ACAD_REACTORS
330
4575
102
}
330
A
100
AcDbEntity
  8
HIDDEN
100
AcDbLine
 10
1761.196591466664
 20
1983.064156374504
 30
0.0
 11
1761.196591466664
 21
2275.069029758351
 31
0.0
  0
LINE
  5
468F
102
{ACAD_REACTORS
330
4584
102
}
330
A
100
AcDbEntity
  8
HIDDEN
100
AcDbLine
 10
1265.19415477474
 20
1979.066593066427
 30
0.0
 11
1757.199028158581
 21
1979.066593066427
 31
0.0
  0
LINE
  5
4690
102
{ACAD_REACTORS
330
4575
102
}
330
A
100
AcDbEntity
  8
HIDDEN
100
AcDbLine
 10
1261.196591466664
 20
2275.069029758351
 30
0.0
 11
1261.196591466664
 21
1983.064156374504
 31
0.0
  0
LINE
  5
4691
102
{ACAD_REACTORS
330
4584
102
}
330
A
100
AcDbEntity
  8
HIDDEN
100
AcDbLine
 10
1757.199028158581
 20
2279.066593066427
 30
0.0
 11
1265.19415477474
 21
2279.066593066427
 31
0.0
  0
VIEWPORT
  5
349
330
B
100
AcDbEntity
 67
     1
  8
0
100
AcDbViewport
 10
202.5
 20
128.5
 30
0.0
 40
486.0
 41
308.4
 68
     1
 69
     1
 12
202.5
 22
128.5
 13
0.0
 23
0.0
 14
0.5
 24
0.5
 15
0.0
 25
0.0
 16
0.0
 26
0.0
 36
1.0
 17
0.0
 27
0.0
 37
0.0
 42
50.0
 43
0.0
 44
0.0
 45
308.4
 50
0.0
 51
0.0
 72
   100
 90
   557152
  1

281
     0
 71
     1
 74
     0
110
0.0
120
0.0
130
0.0
111
1.0
121
0.0
131
0.0
112
0.0
122
1.0
132
0.0
 79
     0
146
0.0
170
     0
 61
     5
348
26C
292
     1
282
     1
141
0.0
142
0.0
 63
   256
  0
VIEWPORT
  5
34A
330
B
100
AcDbEntity
 67
     1
  8
0
100
AcDbViewport
 10
202.5
 20
128.5
 30
0.0
 40
324.0
 41
205.6
 68
     2
 69
     2
 12
986.6781359294573
 22
1427.077061889956
 13
0.0
 23
0.0
 14
0.5
 24
0.5
 15
0.0
 25
0.0
 16
0.0
 26
0.0
 36
1.0
 17
0.0
 27
0.0
 37
0.0
 42
50.0
 43
0.0
 44
0.0
 45
2890.021615685494
 50
0.0
 51
0.0
 72
   100
 90
   557152
  1

281
     0
 71
     1
 74
     0
110
0.0
120
0.0
130
0.0
111
1.0
121
0.0
131
0.0
112
0.0
122
1.0
132
0.0
 79
     0
146
0.0
170
     0
 61
     5
348
26C
292
     1
282
     1
141
0.0
142
0.0
 63
   256
  0
ENDSEC
  0
SECTION
  2
OBJECTS
  0
DICTIONARY
  5
19
330
0
100
AcDbDictionary
281
     1
  3
ACAD_COLOR
350
674
  3
ACAD_DETAILVIEWSTYLE
350
BBF
  3
ACAD_FIELDLIST
350
146A
  3
ACAD_GROUP
350
1A
  3
ACAD_IMAGE_VARS
350
27B
  3
ACAD_LAYOUT
350
1E
  3
ACAD_MATERIAL
350
263
  3
ACAD_MLEADERSTYLE
350
336
  3
ACAD_MLINESTYLE
350
1B
  3
ACAD_PLOTSETTINGS
350
22
  3
ACAD_PLOTSTYLENAME
350
1F
  3
ACAD_SCALELIST
350
241
  3
ACAD_SECTIONVIEWSTYLE
350
BC0
  3
ACAD_TABLESTYLE
350
278
  3
ACAD_VISUALSTYLE
350
267
  3
ACDB_RECOMPOSE_DATA
350
46A8
  3
AcDbVariableDictionary
350
330
  3
APPDATA
350
27A
  3
DimOffsetDictionary
350
E3E
  0
SUN
  5
904
330
15
100
AcDbSun
 90
        1
290
     0
 63
     7
421
 16777215
 40
1.0
291
     1
 91
  2455826
 92
 54000000
292
     0
 70
     2
 71
   256
280
     1
  0
DICTIONARY
  5
2E1
330
2
100
AcDbDictionary
280
     1
281
     1
  3
ACAD_LAYERSTATES
360
2E2
  3
ACLYDICTIONARY
360
DF9
  0
DICTIONARY
  5
374D
330
A
100
AcDbDictionary
280
     1
281
     1
  3
ACAD_SORTENTS
360
374E
  0
DICTIONARY
  5
1468
330
1466
100
AcDbDictionary
280
     1
281
     1
  0
DICTIONARY
  5
4574
330
4573
100
AcDbDictionary
280
     1
281
     1
  3
ACAD_DIMASSOC
360
4575
  0
DICTIONARY
  5
4583
330
4582
100
AcDbDictionary
280
     1
281
     1
  3
ACAD_DIMASSOC
360
4584
  0
DICTIONARY
  5
45C4
330
45C3
100
AcDbDictionary
280
     1
281
     1
  3
ACAD_DIMASSOC
360
45C5
  0
DICTIONARY
  5
45D3
330
45D2
100
AcDbDictionary
280
     1
281
     1
  3
ACAD_DIMASSOC
360
45D4
  0
DICTIONARY
  5
45F1
330
45F0
100
AcDbDictionary
280
     1
281
     1
  3
ACAD_DIMASSOC
360
45F2
  0
DICTIONARY
  5
4676
330
4675
100
AcDbDictionary
280
     1
281
     1
  3
ACAD_DIMASSOC
360
4677
  0
DICTIONARY
  5
674
102
{ACAD_REACTORS
330
19
102
}
330
19
100
AcDbDictionary
281
     1
  0
DICTIONARY
  5
BBF
102
{ACAD_REACTORS
330
19
102
}
330
19
100
AcDbDictionary
281
     1
  0
FIELDLIST
  5
146A
102
{ACAD_REACTORS
330
19
102
}
330
19
100
AcDbIdSet
 90
        0
100
AcDbFieldList
  0
DICTIONARY
  5
1A
102
{ACAD_REACTORS
330
19
102
}
330
19
100
AcDbDictionary
281
     1
  3
*A1
350
36AC
  0
RASTERVARIABLES
  5
27B
102
{ACAD_REACTORS
330
19
102
}
330
19
100
AcDbRasterVariables
 90
        0
 70
     1
 71
     1
 72
     1
  0
DICTIONARY
  5
1E
102
{ACAD_REACTORS
330
19
102
}
330
19
100
AcDbDictionary
281
     1
  3
Layout1
350
21
  3
Model
350
20
  0
DICTIONARY
  5
263
102
{ACAD_REACTORS
330
19
102
}
330
19
100
AcDbDictionary
281
     1
  3
ByBlock
350
265
  3
ByLayer
350
264
  3
Global
350
266
  0
DICTIONARY
  5
336
102
{ACAD_REACTORS
330
19
102
}
330
19
100
AcDbDictionary
281
     1
  3
Standard
350
DAB
  0
DICTIONARY
  5
1B
102
{ACAD_REACTORS
330
19
102
}
330
19
100
AcDbDictionary
281
     1
  3
Standard
350
1C
  0
DICTIONARY
  5
22
102
{ACAD_REACTORS
330
19
102
}
330
19
100
AcDbDictionary
281
     1
  0
ACDBDICTIONARYWDFLT
  5
1F
102
{ACAD_REACTORS
330
19
102
}
330
19
100
AcDbDictionary
281
     1
  3
Normal
350
1D
100
AcDbDictionaryWithDefault
340
1D
  0
DICTIONARY
  5
241
102
{ACAD_REACTORS
330
19
102
}
330
19
100
AcDbDictionary
281
     1
  3
A0
350
242
  3
A1
350
243
  3
A2
350
244
  3
A3
350
245
  3
A4
350
246
  3
A5
350
247
  3
A6
350
248
  3
A7
350
249
  3
A8
350
24A
  3
A9
350
24B
  3
B0
350
24C
  3
B1
350
24D
  3
B2
350
24E
  3
B3
350
24F
  3
B4
350
250
  3
B5
350
251
  3
B6
350
252
  3
B7
350
253
  3
B8
350
254
  3
B9
350
255
  3
C0
350
256
  3
C1
350
257
  3
C2
350
258
  3
C3
350
259
  3
C4
350
25A
  3
C5
350
25B
  3
C6
350
25C
  3
C7
350
25D
  3
C8
350
25E
  3
C9
350
25F
  3
D0
350
260
  3
D1
350
261
  3
D2
350
262
  0
DICTIONARY
  5
BC0
102
{ACAD_REACTORS
330
19
102
}
330
19
100
AcDbDictionary
281
     1
  0
DICTIONARY
  5
278
102
{ACAD_REACTORS
330
19
102
}
330
19
100
AcDbDictionary
281
     1
  3
Standard
350
279
  0
DICTIONARY
  5
267
102
{ACAD_REACTORS
330
19
102
}
330
19
100
AcDbDictionary
281
     1
  3
2dWireframe
350
26C
  3
3D Hidden
350
26E
  3
3dWireframe
350
26D
  3
Basic
350
26F
  3
Brighten
350
273
  3
ColorChange
350
277
  3
Conceptual
350
271
  3
Dim
350
272
  3
EdgeColorOff
350
8FE
  3
Facepattern
350
276
  3
Flat
350
268
  3
FlatWithEdges
350
269
  3
Gouraud
350
26A
  3
GouraudWithEdges
350
26B
  3
Hidden
350
8FB
  3
JitterOff
350
8FC
  3
Linepattern
350
275
  3
OverhangOff
350
8FD
  3
Realistic
350
270
  3
Shaded
350
903
  3
Shaded with edges
350
902
  3
Shades of Gray
350
8FF
  3
Sketchy
350
900
  3
Thicken
350
274
  3
Wireframe
350
8FA
  3
X-Ray
350
901
  0
XRECORD
  5
46A8
102
{ACAD_REACTORS
330
19
102
}
330
19
100
AcDbXrecord
280
     1
 90
        1
330
279
  0
DICTIONARY
  5
330
102
{ACAD_REACTORS
330
19
102
}
330
19
100
AcDbDictionary
281
     1
  3
CANNOSCALE
350
331
  3
CMLEADERSTYLE
350
DB1
  3
CTABLESTYLE
350
335
  3
HPTRANSPARENCY
350
D52
  3
XCLIPFRAME
350
896
  0
DICTIONARY
  5
27A
102
{ACAD_REACTORS
330
19
102
}
330
19
100
AcDbDictionary
281
     1
  0
DICTIONARY
  5
E3E
102
{ACAD_REACTORS
330
19
102
}
330
19
100
AcDbDictionary
281
     1
  3
DIMRAILANGLE
350
ECE
  3
DIMRAILFIRSTOFFSET
350
ECC
  3
DIMRAILOFFSET
350
ECD
  3
DIMRAILSENABLED
350
ECF
  0
DICTIONARY
  5
2E2
102
{ACAD_REACTORS
330
2E1
102
}
330
2E1
100
AcDbDictionary
281
     1
  0
DICTIONARY
  5
DF9
102
{ACAD_REACTORS
330
2E1
102
}
330
2E1
100
AcDbDictionary
281
     1
1001
ACAD
1000
<All
  0
SORTENTSTABLE
  5
374E
102
{ACAD_REACTORS
330
374D
102
}
330
374D
100
AcDbSortentsTable
330
A
331
369B
  5
35AE
331
369C
  5
369A
331
36A7
  5
369B
331
36A8
  5
369C
331
36A9
  5
36A7
331
36AA
  5
36A8
331
36AB
  5
36A9
331
4565
  5
4555
331
456F
  5
4573
331
4573
  5
45AF
331
4582
  5
45B0
331
4591
  5
45B1
331
45A0
  5
45B2
331
45B2
  5
4572
  0
DIMASSOC
  5
4575
102
{ACAD_REACTORS
330
4574
102
}
330
4574
100
AcDbDimAssoc
330
4573
 90
        3
 70
     0
 71
     1
  1
AcDbOsnapPointRef
 72
    10
331
3D1D
 73
     0
 91
        0
 40
0.0094248152607194
 10
0.0
 20
0.0
 30
0.0
 75
     0
  1
AcDbOsnapPointRef
 72
     8
331
3D1B
 73
     0
 91
        0
 40
0.9905751847392804
 10
0.0
 20
0.0
 30
0.0
 75
     1
  1
AcDbOsnapPointRef
 72
    10
331
3D1D
 73
     0
 91
        0
 40
0.0094248152607194
 10
0.0
 20
0.0
 30
0.0
 75
     0
  0
DIMASSOC
  5
4584
102
{ACAD_REACTORS
330
4583
102
}
330
4583
100
AcDbDimAssoc
330
4582
 90
        3
 70
     0
 71
     1
  1
AcDbOsnapPointRef
 72
     1
331
3D1C
 73
     0
 91
        0
 40
0.0
 10
0.0
 20
0.0
 30
0.0
 75
     0
  1
AcDbOsnapPointRef
 72
    13
331
3D1E
 73
     0
 91
        0
 40
0.0
 10
0.0
 20
0.0
 30
0.0
 75
     0
  0
DIMASSOC
  5
45C5
102
{ACAD_REACTORS
330
45C4
102
}
330
45C4
100
AcDbDimAssoc
330
45C3
 90
        2
 70
     0
 71
     1
  1
AcDbOsnapPointRef
 72
     2
331
3D0D
 73
     0
 91
        0
 40
0.5
 10
0.0
 20
0.0
 30
0.0
 75
     0
  0
DIMASSOC
  5
45D4
102
{ACAD_REACTORS
330
45D3
102
}
330
45D3
100
AcDbDimAssoc
330
45D2
 90
        2
 70
     0
 71
     1
  1
AcDbOsnapPointRef
 72
     2
331
3C7D
 73
     0
 91
        0
 40
0.5
 10
0.0
 20
0.0
 30
0.0
 75
     0
  0
DIMASSOC
  5
45F2
102
{ACAD_REACTORS
330
45F1
102
}
330
45F1
100
AcDbDimAssoc
330
45F0
 90
        3
 70
     0
 71
     1
  1
AcDbOsnapPointRef
 72
    13
331
3C51
 73
     0
 91
        0
 40
0.0
 10
0.0
 20
0.0
 30
0.0
 75
     0
  1
AcDbOsnapPointRef
 72
    13
331
3C5C
 73
     0
 91
        0
 40
0.0
 10
0.0
 20
0.0
 30
0.0
 75
     0
  0
DIMASSOC
  5
4677
102
{ACAD_REACTORS
330
4676
102
}
330
4676
100
AcDbDimAssoc
330
4675
 90
        3
 70
     0
 71
     1
  1
AcDbOsnapPointRef
 72
    13
331
3C2A
 73
     0
 91
        0
 40
0.0
 10
0.0
 20
0.0
 30
0.0
 75
     0
  1
AcDbOsnapPointRef
 72
    10
331
4565
 73
     0
 91
        0
 40
0.9821068347392659
 10
0.0
 20
0.0
 30
0.0
 75
     0
  0
GROUP
  5
36AC
102
{ACAD_REACTORS
330
1A
102
}
330
1A
100
AcDbGroup
300

 70
     1
 71
     1
340
369B
340
369C
340
36A7
340
36A8
340
36A9
340
36AA
340
36AB
  0
LAYOUT
  5
21
102
{ACAD_REACTORS
330
1E
102
}
330
1E
100
AcDbPlotSettings
  1

  2
none_device
  4
ISO_A3_(420.00_x_297.00_MM)
  6

 40
7.5
 41
20.0
 42
7.5
 43
20.0
 44
420.0
 45
297.0
 46
0.0
 47
0.0
 48
0.0
 49
0.0
140
0.0
141
0.0
142
1.0
143
1.0
 70
     0
 72
     1
 73
     0
 74
     0
  7

 75
     0
 76
     0
 77
     2
 78
   300
147
1.0
148
0.0
149
0.0
100
AcDbLayout
  1
Layout1
 70
     0
 71
     0
 10
-7.5
 20
-20.0
 11
412.5
 21
277.0
 12
0.0
 22
0.0
 32
0.0
 14
0.0
 24
0.0
 34
0.0
 15
0.0
 25
0.0
 35
0.0
146
0.0
 13
0.0
 23
0.0
 33
0.0
 16
0.0
 26
0.0
 36
0.0
 17
0.0
 27
0.0
 37
0.0
 76
     0
330
B
331
349
  0
LAYOUT
  5
20
102
{ACAD_REACTORS
330
1E
102
}
330
1E
100
AcDbPlotSettings
  1

  2
none_device
  4
ISO_A3_(420.00_x_297.00_MM)
  6

 40
7.5
 41
20.0
 42
7.5
 43
20.0
 44
420.0
 45
297.0
 46
0.0
 47
0.0
 48
0.0
 49
0.0
140
0.0
141
0.0
142
1.0
143
1.0
 70
  1024
 72
     1
 73
     0
 74
     0
  7

 75
     0
 76
     0
 77
     2
 78
   300
147
1.0
148
0.0
149
0.0
100
AcDbLayout
  1
Model
 70
     0
 71
     1
 10
0.0
 20
0.0
 11
2100.0
 21
2970.0
 12
0.0
 22
0.0
 32
0.0
 14
0.0
 24
0.0
 34
-0.0000000000000142
 15
2100.0
 25
2970.0
 35
0.0000000000000142
146
0.0
 13
0.0
 23
0.0
 33
0.0
 16
0.0
 26
0.0
 36
0.0
 17
0.0
 27
0.0
 37
0.0
 76
     0
330
A
331
15
  0
MATERIAL
  5
265
102
{ACAD_REACTORS
330
263
102
}
330
263
100
AcDbMaterial
  1
ByBlock
 72
     1
 94
      127
  0
MATERIAL
  5
264
102
{ACAD_REACTORS
330
263
102
}
330
263
100
AcDbMaterial
  1
ByLayer
 72
     1
 94
      127
  0
MATERIAL
  5
266
102
{ACAD_REACTORS
330
263
102
}
330
263
100
AcDbMaterial
  1
Global
 72
     1
 94
      127
  0
MLEADERSTYLE
  5
DAB
102
{ACAD_REACTORS
330
336
102
}
330
336
100
AcDbMLeaderStyle
170
     2
171
     1
172
     0
 90
        2
 40
0.0
 41
0.0
173
     1
 91
-1056964608
340
11
 92
       -2
290
     1
 42
2.0
291
     1
 43
8.0
  3
Standard
341
0
 44
4.0
300

342
17
174
     1
178
     6
175
     1
176
     0
 93
-1056964608
 45
4.0
292
     0
297
     0
 46
4.0
343
0
 94
-1056964608
 47
1.0
 49
1.0
140
1.0
293
     1
141
0.0
294
     1
177
     0
142
1.0
295
     0
296
     0
143
3.75
1001
ACAD_MLEADERVER
1070
     2
  0
MLINESTYLE
  5
1C
102
{ACAD_REACTORS
330
1B
102
}
330
1B
100
AcDbMlineStyle
  2
Standard
 70
     0
  3

 62
     0
 51
90.0
 52
90.0
 71
     2
 49
0.5
 62
   256
  6
BYLAYER
 49
-0.5
 62
   256
  6
BYLAYER
  0
ACDBPLACEHOLDER
  5
1D
102
{ACAD_REACTORS
330
1F
102
}
330
1F
  0
SCALE
  5
242
102
{ACAD_REACTORS
330
241
102
}
330
241
100
AcDbScale
 70
     0
300
1:1
140
1.0
141
1.0
290
     1
  0
SCALE
  5
243
102
{ACAD_REACTORS
330
241
102
}
330
241
100
AcDbScale
 70
     0
300
1:2
140
1.0
141
2.0
290
     0
  0
SCALE
  5
244
102
{ACAD_REACTORS
330
241
102
}
330
241
100
AcDbScale
 70
     0
300
1:4
140
1.0
141
4.0
290
     0
  0
SCALE
  5
245
102
{ACAD_REACTORS
330
241
102
}
330
241
100
AcDbScale
 70
     0
300
1:5
140
1.0
141
5.0
290
     0
  0
SCALE
  5
246
102
{ACAD_REACTORS
330
241
102
}
330
241
100
AcDbScale
 70
     0
300
1:8
140
1.0
141
8.0
290
     0
  0
SCALE
  5
247
102
{ACAD_REACTORS
330
241
102
}
330
241
100
AcDbScale
 70
     0
300
1:10
140
1.0
141
10.0
290
     0
  0
SCALE
  5
248
102
{ACAD_REACTORS
330
241
102
}
330
241
100
AcDbScale
 70
     0
300
1:16
140
1.0
141
16.0
290
     0
  0
SCALE
  5
249
102
{ACAD_REACTORS
330
241
102
}
330
241
100
AcDbScale
 70
     0
300
1:20
140
1.0
141
20.0
290
     0
  0
SCALE
  5
24A
102
{ACAD_REACTORS
330
241
102
}
330
241
100
AcDbScale
 70
     0
300
1:30
140
1.0
141
30.0
290
     0
  0
SCALE
  5
24B
102
{ACAD_REACTORS
330
241
102
}
330
241
100
AcDbScale
 70
     0
300
1:40
140
1.0
141
40.0
290
     0
  0
SCALE
  5
24C
102
{ACAD_REACTORS
330
241
102
}
330
241
100
AcDbScale
 70
     0
300
1:50
140
1.0
141
50.0
290
     0
  0
SCALE
  5
24D
102
{ACAD_REACTORS
330
241
102
}
330
241
100
AcDbScale
 70
     0
300
1:100
140
1.0
141
100.0
290
     0
  0
SCALE
  5
24E
102
{ACAD_REACTORS
330
241
102
}
330
241
100
AcDbScale
 70
     0
300
2:1
140
2.0
141
1.0
290
     0
  0
SCALE
  5
24F
102
{ACAD_REACTORS
330
241
102
}
330
241
100
AcDbScale
 70
     0
300
4:1
140
4.0
141
1.0
290
     0
  0
SCALE
  5
250
102
{ACAD_REACTORS
330
241
102
}
330
241
100
AcDbScale
 70
     0
300
8:1
140
8.0
141
1.0
290
     0
  0
SCALE
  5
251
102
{ACAD_REACTORS
330
241
102
}
330
241
100
AcDbScale
 70
     0
300
10:1
140
10.0
141
1.0
290
     0
  0
SCALE
  5
252
102
{ACAD_REACTORS
330
241
102
}
330
241
100
AcDbScale
 70
     0
300
100:1
140
100.0
141
1.0
290
     0
  0
SCALE
  5
253
102
{ACAD_REACTORS
330
241
102
}
330
241
100
AcDbScale
 70
     0
300
1/128" = 1'-0"
140
0.0078125
141
12.0
290
     0
  0
SCALE
  5
254
102
{ACAD_REACTORS
330
241
102
}
330
241
100
AcDbScale
 70
     0
300
1/64" = 1'-0"
140
0.015625
141
12.0
290
     0
  0
SCALE
  5
255
102
{ACAD_REACTORS
330
241
102
}
330
241
100
AcDbScale
 70
     0
300
1/32" = 1'-0"
140
0.03125
141
12.0
290
     0
  0
SCALE
  5
256
102
{ACAD_REACTORS
330
241
102
}
330
241
100
AcDbScale
 70
     0
300
1/16" = 1'-0"
140
0.0625
141
12.0
290
     0
  0
SCALE
  5
257
102
{ACAD_REACTORS
330
241
102
}
330
241
100
AcDbScale
 70
     0
300
3/32" = 1'-0"
140
0.09375
141
12.0
290
     0
  0
SCALE
  5
258
102
{ACAD_REACTORS
330
241
102
}
330
241
100
AcDbScale
 70
     0
300
1/8" = 1'-0"
140
0.125
141
12.0
290
     0
  0
SCALE
  5
259
102
{ACAD_REACTORS
330
241
102
}
330
241
100
AcDbScale
 70
     0
300
3/16" = 1'-0"
140
0.1875
141
12.0
290
     0
  0
SCALE
  5
25A
102
{ACAD_REACTORS
330
241
102
}
330
241
100
AcDbScale
 70
     0
300
1/4" = 1'-0"
140
0.25
141
12.0
290
     0
  0
SCALE
  5
25B
102
{ACAD_REACTORS
330
241
102
}
330
241
100
AcDbScale
 70
     0
300
3/8" = 1'-0"
140
0.375
141
12.0
290
     0
  0
SCALE
  5
25C
102
{ACAD_REACTORS
330
241
102
}
330
241
100
AcDbScale
 70
     0
300
1/2" = 1'-0"
140
0.5
141
12.0
290
     0
  0
SCALE
  5
25D
102
{ACAD_REACTORS
330
241
102
}
330
241
100
AcDbScale
 70
     0
300
3/4" = 1'-0"
140
0.75
141
12.0
290
     0
  0
SCALE
  5
25E
102
{ACAD_REACTORS
330
241
102
}
330
241
100
AcDbScale
 70
     0
300
1" = 1'-0"
140
1.0
141
12.0
290
     0
  0
SCALE
  5
25F
102
{ACAD_REACTORS
330
241
102
}
330
241
100
AcDbScale
 70
     0
300
1-1/2" = 1'-0"
140
1.5
141
12.0
290
     0
  0
SCALE
  5
260
102
{ACAD_REACTORS
330
241
102
}
330
241
100
AcDbScale
 70
     0
300
3" = 1'-0"
140
3.0
141
12.0
290
     0
  0
SCALE
  5
261
102
{ACAD_REACTORS
330
241
102
}
330
241
100
AcDbScale
 70
     0
300
6" = 1'-0"
140
6.0
141
12.0
290
     0
  0
SCALE
  5
262
102
{ACAD_REACTORS
330
241
102
}
330
241
100
AcDbScale
 70
     0
300
1'-0" = 1'-0"
140
12.0
141
12.0
290
     0
  0
TABLESTYLE
  5
279
102
{ACAD_REACTORS
330
278
102
}
102
{ACAD_XDICTIONARY
360
46A6
102
}
330
278
100
AcDbTableStyle
  3
Standard
 70
     0
 71
     0
 40
0.06
 41
0.06
280
     0
281
     0
  7
Standard
140
4.5
170
     2
 62
     0
 63
   257
283
     0
 90
        4
 91
        0
  1

274
    -2
284
     1
 64
     0
275
    -2
285
     1
 65
     0
276
    -2
286
     1
 66
     0
277
    -2
287
     1
 67
     0
278
    -2
288
     1
 68
     0
279
    -2
289
     1
 69
     0
  7
Standard
140
6.0
170
     5
 62
     0
 63
   257
283
     0
 90
        4
 91
        0
  1

274
    -2
284
     1
 64
     0
275
    -2
285
     1
 65
     0
276
    -2
286
     1
 66
     0
277
    -2
287
     1
 67
     0
278
    -2
288
     1
 68
     0
279
    -2
289
     1
 69
     0
  7
Standard
140
4.5
170
     5
 62
     0
 63
   257
283
     0
 90
        4
 91
        0
  1

274
    -2
284
     1
 64
     0
275
    -2
285
     1
 65
     0
276
    -2
286
     1
 66
     0
277
    -2
287
     1
 67
     0
278
    -2
288
     1
 68
     0
279
    -2
289
     1
 69
     0
  0
VISUALSTYLE
  5
26C
102
{ACAD_REACTORS
330
267
102
}
330
267
100
AcDbVisualStyle
  2
2dWireframe
 70
     4
 71
     0
 72
     2
 73
     0
 90
        0
 40
-0.6
 41
-30.0
 62
     5
 63
     7
421
 16777215
 74
     1
 91
        4
 64
     7
 65
   257
 75
     1
175
     1
 42
1.0
 92
        0
 66
   257
 43
1.0
 76
     1
 77
     6
 78
     2
 67
     7
 79
     5
170
     0
171
     0
290
     0
174
     0
 93
        1
 44
0.0
173
     0
291
     0
 45
0.0
  0
VISUALSTYLE
  5
26E
102
{ACAD_REACTORS
330
267
102
}
330
267
100
AcDbVisualStyle
  2
3D Hidden
 70
     6
 71
     1
 72
     2
 73
     2
 90
        0
 40
-0.6
 41
-30.0
 62
     5
 63
     7
421
 16777215
 74
     2
 91
        2
 64
     7
 65
   257
 75
     2
175
     1
 42
40.0
 92
        0
 66
   257
 43
1.0
 76
     1
 77
     6
 78
     2
 67
     7
 79
     3
170
     0
171
     0
290
     0
174
     0
 93
        1
 44
0.0
173
     0
291
     0
 45
0.0
  0
VISUALSTYLE
  5
26D
102
{ACAD_REACTORS
330
267
102
}
330
267
100
AcDbVisualStyle
  2
3dWireframe
 70
     5
 71
     0
 72
     2
 73
     0
 90
        0
 40
-0.6
 41
-30.0
 62
     5
 63
     7
421
 16777215
 74
     1
 91
        4
 64
     7
 65
   257
 75
     1
175
     1
 42
1.0
 92
        0
 66
   257
 43
1.0
 76
     1
 77
     6
 78
     2
 67
     7
 79
     5
170
     0
171
     0
290
     0
174
     0
 93
        1
 44
0.0
173
     0
291
     0
 45
0.0
  0
VISUALSTYLE
  5
26F
102
{ACAD_REACTORS
330
267
102
}
330
267
100
AcDbVisualStyle
  2
Basic
 70
     7
 71
     1
 72
     0
 73
     1
 90
        0
 40
-0.6
 41
-30.0
 62
     5
 63
     7
421
 16777215
 74
     0
 91
        4
 64
     7
 65
   257
 75
     1
175
     1
 42
1.0
 92
        8
 66
     7
 43
1.0
 76
     1
 77
     6
 78
     2
 67
     7
 79
     5
170
     0
171
     0
290
     0
174
     0
 93
        1
 44
0.0
173
     0
291
     1
 45
0.0
  0
VISUALSTYLE
  5
273
102
{ACAD_REACTORS
330
267
102
}
330
267
100
AcDbVisualStyle
  2
Brighten
 70
    12
 71
     2
 72
     2
 73
     0
 90
        0
 40
-0.6
 41
-30.0
 62
     5
 63
     7
421
 16777215
 74
     1
 91
        4
 64
     7
 65
   257
 75
     1
175
     1
 42
1.0
 92
        8
 66
     7
 43
1.0
 76
     1
 77
     6
 78
     2
 67
     7
 79
     5
170
     0
171
     0
290
     0
174
     0
 93
        1
 44
50.0
173
     0
291
     1
 45
0.0
  0
VISUALSTYLE
  5
277
102
{ACAD_REACTORS
330
267
102
}
330
267
100
AcDbVisualStyle
  2
ColorChange
 70
    16
 71
     2
 72
     2
 73
     3
 90
        0
 40
-0.6
 41
-30.0
 62
     5
 63
     8
421
  8421504
 74
     1
 91
        4
 64
     7
 65
   257
 75
     1
175
     1
 42
1.0
 92
        8
 66
     8
424
  8421504
 43
1.0
 76
     1
 77
     6
 78
     2
 67
     7
 79
     5
170
     0
171
     0
290
     0
174
     0
 93
        1
 44
0.0
173
     0
291
     1
 45
0.0
  0
VISUALSTYLE
  5
271
102
{ACAD_REACTORS
330
267
102
}
330
267
100
AcDbVisualStyle
  2
Conceptual
 70
     9
 71
     3
 72
     2
 73
     0
 90
        0
 40
-0.6
 41
-30.0
 62
     5
 63
     7
421
 16777215
 74
     2
 91
        2
 64
     7
 65
   257
 75
     1
175
     1
 42
40.0
 92
        8
 66
     7
 43
1.0
 76
     1
 77
     6
 78
     2
 67
     7
 79
     3
170
     0
171
     0
290
     0
174
     0
 93
        1
 44
0.0
173
     0
291
     0
 45
0.0
  0
VISUALSTYLE
  5
272
102
{ACAD_REACTORS
330
267
102
}
330
267
100
AcDbVisualStyle
  2
Dim
 70
    11
 71
     2
 72
     2
 73
     0
 90
        0
 40
-0.6
 41
-30.0
 62
     5
 63
     7
421
 16777215
 74
     1
 91
        4
 64
     7
 65
   257
 75
     1
175
     1
 42
1.0
 92
        8
 66
     7
 43
1.0
 76
     1
 77
     6
 78
     2
 67
     7
 79
     5
170
     0
171
     0
290
     0
174
     0
 93
        1
 44
-50.0
173
     0
291
     1
 45
0.0
  0
VISUALSTYLE
  5
8FE
102
{ACAD_REACTORS
330
267
102
}
330
267
100
AcDbVisualStyle
  2
EdgeColorOff
 70
    22
 71
     2
 72
     2
 73
     0
 90
        0
 40
0.6
 41
30.0
 62
     5
 63
     7
421
 16777215
 74
     1
 91
        4
 64
     7
 65
   257
 75
     1
175
     1
 42
1.0
 92
        8
 66
     7
 43
1.0
 76
     1
 77
     6
 78
     2
 67
     7
 79
     5
170
     0
171
     0
290
     0
174
     0
 93
        1
 44
0.0
173
     0
291
     1
 45
0.0
  0
VISUALSTYLE
  5
276
102
{ACAD_REACTORS
330
267
102
}
330
267
100
AcDbVisualStyle
  2
Facepattern
 70
    15
 71
     2
 72
     2
 73
     0
 90
        0
 40
-0.6
 41
-30.0
 62
     5
 63
     7
421
 16777215
 74
     1
 91
        4
 64
     7
 65
   257
 75
     1
175
     1
 42
1.0
 92
        8
 66
     7
 43
1.0
 76
     1
 77
     6
 78
     2
 67
     7
 79
     5
170
     0
171
     0
290
     0
174
     0
 93
        1
 44
0.0
173
     0
291
     1
 45
0.0
  0
VISUALSTYLE
  5
268
102
{ACAD_REACTORS
330
267
102
}
330
267
100
AcDbVisualStyle
  2
Flat
 70
     0
 71
     2
 72
     1
 73
     1
 90
        2
 40
-0.6
 41
30.0
 62
     5
 63
     7
421
 16777215
 74
     0
 91
        4
 64
     7
 65
   257
 75
     1
175
     1
 42
1.0
 92
        8
 66
     7
 43
1.0
 76
     1
 77
     6
 78
     2
 67
     7
 79
     5
170
     0
171
     0
290
     0
174
     0
 93
       13
 44
0.0
173
     0
291
     1
 45
0.0
  0
VISUALSTYLE
  5
269
102
{ACAD_REACTORS
330
267
102
}
330
267
100
AcDbVisualStyle
  2
FlatWithEdges
 70
     1
 71
     2
 72
     1
 73
     1
 90
        2
 40
-0.6
 41
30.0
 62
     5
 63
     7
421
 16777215
 74
     1
 91
        4
 64
     7
 65
   257
 75
     1
175
     1
 42
1.0
 92
        0
 66
   257
 43
1.0
 76
     1
 77
     6
 78
     2
 67
     7
 79
     5
170
     0
171
     0
290
     0
174
     0
 93
       13
 44
0.0
173
     0
291
     1
 45
0.0
  0
VISUALSTYLE
  5
26A
102
{ACAD_REACTORS
330
267
102
}
330
267
100
AcDbVisualStyle
  2
Gouraud
 70
     2
 71
     2
 72
     2
 73
     1
 90
        2
 40
-0.6
 41
30.0
 62
     5
 63
     7
421
 16777215
 74
     0
 91
        4
 64
     7
 65
   257
 75
     1
175
     1
 42
1.0
 92
        0
 66
     7
 43
1.0
 76
     1
 77
     6
 78
     2
 67
     7
 79
     5
170
     0
171
     0
290
     0
174
     0
 93
       13
 44
0.0
173
     0
291
     1
 45
0.0
  0
VISUALSTYLE
  5
26B
102
{ACAD_REACTORS
330
267
102
}
330
267
100
AcDbVisualStyle
  2
GouraudWithEdges
 70
     3
 71
     2
 72
     2
 73
     1
 90
        2
 40
-0.6
 41
30.0
 62
     5
 63
     7
421
 16777215
 74
     1
 91
        4
 64
     7
 65
   257
 75
     1
175
     1
 42
1.0
 92
        0
 66
   257
 43
1.0
 76
     1
 77
     6
 78
     2
 67
     7
 79
     5
170
     0
171
     0
290
     0
174
     0
 93
       13
 44
0.0
173
     0
291
     1
 45
0.0
  0
VISUALSTYLE
  5
8FB
102
{ACAD_REACTORS
330
267
102
}
330
267
100
AcDbVisualStyle
  2
Hidden
 70
     6
 71
     1
 72
     2
 73
     2
 90
        0
 40
0.6
 41
30.0
 62
     5
 63
     7
421
 16777215
 74
     2
 91
        2
 64
     7
 65
   257
 75
     2
175
     1
 42
40.0
 92
        0
 66
   257
 43
1.0
 76
     1
 77
     6
 78
     2
 67
     7
 79
     3
170
     0
171
     0
290
     0
174
     0
 93
        1
 44
0.0
173
     0
291
     0
 45
0.0
  0
VISUALSTYLE
  5
8FC
102
{ACAD_REACTORS
330
267
102
}
330
267
100
AcDbVisualStyle
  2
JitterOff
 70
    20
 71
     2
 72
     2
 73
     0
 90
        0
 40
0.6
 41
30.0
 62
     5
 63
     7
421
 16777215
 74
     1
 91
        4
 64
     7
 65
   257
 75
     1
175
     1
 42
1.0
 92
       10
 66
     7
 43
1.0
 76
     1
 77
     6
 78
     2
 67
     7
 79
     5
170
     0
171
     0
290
     0
174
     0
 93
        1
 44
0.0
173
     0
291
     1
 45
0.0
  0
VISUALSTYLE
  5
275
102
{ACAD_REACTORS
330
267
102
}
330
267
100
AcDbVisualStyle
  2
Linepattern
 70
    14
 71
     2
 72
     2
 73
     0
 90
        0
 40
-0.6
 41
-30.0
 62
     5
 63
     7
421
 16777215
 74
     1
 91
        4
 64
     7
 65
   257
 75
     7
175
     7
 42
1.0
 92
        8
 66
     7
 43
1.0
 76
     1
 77
     6
 78
     2
 67
     7
 79
     5
170
     0
171
     0
290
     0
174
     0
 93
        1
 44
0.0
173
     0
291
     1
 45
0.0
  0
VISUALSTYLE
  5
8FD
102
{ACAD_REACTORS
330
267
102
}
330
267
100
AcDbVisualStyle
  2
OverhangOff
 70
    21
 71
     2
 72
     2
 73
     0
 90
        0
 40
0.6
 41
30.0
 62
     5
 63
     7
421
 16777215
 74
     1
 91
        4
 64
     7
 65
   257
 75
     1
175
     1
 42
1.0
 92
        9
 66
     7
 43
1.0
 76
     1
 77
     6
 78
     2
 67
     7
 79
     5
170
     0
171
     0
290
     0
174
     0
 93
        1
 44
0.0
173
     0
291
     1
 45
0.0
  0
VISUALSTYLE
  5
270
102
{ACAD_REACTORS
330
267
102
}
330
267
100
AcDbVisualStyle
  2
Realistic
 70
     8
 71
     2
 72
     2
 73
     0
 90
        0
 40
-0.6
 41
-30.0
 62
     5
 63
     7
421
 16777215
 74
     1
 91
        0
 64
     7
 65
   257
 75
     1
175
     1
 42
1.0
 92
        8
 66
     8
424
  7895160
 43
1.0
 76
     1
 77
     6
 78
     2
 67
     7
 79
     5
170
     0
171
     0
290
     0
174
     0
 93
       13
 44
0.0
173
     0
291
     0
 45
0.0
  0
VISUALSTYLE
  5
903
102
{ACAD_REACTORS
330
267
102
}
330
267
100
AcDbVisualStyle
  2
Shaded
 70
    27
 71
     2
 72
     2
 73
     1
 90
        2
 40
0.6
 41
30.0
 62
     5
 63
     7
421
 16777215
 74
     0
 91
        4
 64
     7
 65
   257
 75
     1
175
     1
 42
1.0
 92
        8
 66
   257
 43
1.0
 76
     1
 77
     6
 78
     2
 67
     8
425
  7895160
 79
     3
170
     0
171
     0
290
     0
174
     0
 93
        5
 44
0.0
173
     0
291
     0
 45
0.0
  0
VISUALSTYLE
  5
902
102
{ACAD_REACTORS
330
267
102
}
330
267
100
AcDbVisualStyle
  2
Shaded with edges
 70
    26
 71
     2
 72
     2
 73
     1
 90
        2
 40
0.6
 41
30.0
 62
     5
 63
     7
421
 16777215
 74
     1
 91
       10
 64
     7
 65
   257
 75
     2
175
     1
 42
1.0
 92
        8
 66
   257
 43
1.0
 76
     1
 77
     6
 78
     2
 67
     7
 79
     3
170
     0
171
     0
290
     0
174
     0
 93
        5
 44
0.0
173
     0
291
     0
 45
0.0
  0
VISUALSTYLE
  5
8FF
102
{ACAD_REACTORS
330
267
102
}
330
267
100
AcDbVisualStyle
  2
Shades of Gray
 70
    23
 71
     2
 72
     2
 73
     3
 90
        0
 40
0.6
 41
30.0
 62
     5
 63
     7
421
 16777215
 74
     2
 91
        2
 64
     7
 65
     7
 75
     1
175
     1
 42
40.0
 92
        8
 66
     7
 43
1.0
 76
     1
 77
     6
 78
     2
 67
     7
 79
     3
170
     0
171
     0
290
     0
174
     0
 93
        1
 44
0.0
173
     0
291
     0
 45
0.0
  0
VISUALSTYLE
  5
900
102
{ACAD_REACTORS
330
267
102
}
330
267
100
AcDbVisualStyle
  2
Sketchy
 70
    24
 71
     1
 72
     2
 73
     2
 90
        0
 40
0.6
 41
30.0
 62
     5
 63
     7
421
 16777215
 74
     2
 91
        2
 64
     7
 65
     7
 75
     1
175
     1
 42
40.0
 92
       11
 66
     7
 43
1.0
 76
     1
 77
     6
 78
     2
 67
     7
 79
     6
170
     0
171
     0
290
     0
174
     0
 93
        1
 44
0.0
173
     0
291
     0
 45
0.0
  0
VISUALSTYLE
  5
274
102
{ACAD_REACTORS
330
267
102
}
330
267
100
AcDbVisualStyle
  2
Thicken
 70
    13
 71
     2
 72
     2
 73
     0
 90
        0
 40
-0.6
 41
-30.0
 62
     5
 63
     7
421
 16777215
 74
     1
 91
        4
 64
     7
 65
   257
 75
     1
175
     1
 42
1.0
 92
       12
 66
     7
 43
1.0
 76
     1
 77
     6
 78
     2
 67
     7
 79
     5
170
     0
171
     0
290
     0
174
     0
 93
        1
 44
0.0
173
     0
291
     1
 45
0.0
  0
VISUALSTYLE
  5
8FA
102
{ACAD_REACTORS
330
267
102
}
330
267
100
AcDbVisualStyle
  2
Wireframe
 70
     5
 71
     0
 72
     2
 73
     0
 90
        0
 40
0.6
 41
30.0
 62
     5
 63
     7
421
 16777215
 74
     1
 91
        4
 64
     7
 65
   257
 75
     1
175
     1
 42
1.0
 92
        0
 66
   257
 43
1.0
 76
     1
 77
     6
 78
     2
 67
     7
 79
     3
170
     0
171
     0
290
     0
174
     0
 93
        1
 44
0.0
173
     0
291
     0
 45
0.0
  0
VISUALSTYLE
  5
901
102
{ACAD_REACTORS
330
267
102
}
330
267
100
AcDbVisualStyle
  2
X-Ray
 70
    25
 71
     2
 72
     2
 73
     1
 90
        1
 40
0.5
 41
30.0
 62
     5
 63
     7
421
 16777215
 74
     1
 91
        0
 64
     7
 65
   257
 75
     1
175
     1
 42
1.0
 92
        8
 66
     7
 43
1.0
 76
     1
 77
     6
 78
     2
 67
     7
 79
     3
170
     0
171
     0
290
     0
174
     0
 93
       13
 44
0.0
173
     0
291
     0
 45
0.0
  0
DICTIONARYVAR
  5
331
102
{ACAD_REACTORS
330
330
102
}
330
330
100
DictionaryVariables
280
     0
  1
1:1
  0
DICTIONARYVAR
  5
DB1
102
{ACAD_REACTORS
330
330
102
}
330
330
100
DictionaryVariables
280
     0
  1
Standard
  0
DICTIONARYVAR
  5
335
102
{ACAD_REACTORS
330
330
102
}
330
330
100
DictionaryVariables
280
     0
  1
Standard
  0
DICTIONARYVAR
  5
D52
102
{ACAD_REACTORS
330
330
102
}
330
330
100
DictionaryVariables
280
     0
  1
ByLayer
  0
DICTIONARYVAR
  5
896
102
{ACAD_REACTORS
330
330
102
}
330
330
100
DictionaryVariables
280
     0
  1
0
  0
DICTIONARYVAR
  5
ECE
102
{ACAD_REACTORS
330
E3E
102
}
330
E3E
100
DictionaryVariables
280
     0
  1
0.261799
  0
DICTIONARYVAR
  5
ECC
102
{ACAD_REACTORS
330
E3E
102
}
330
E3E
100
DictionaryVariables
280
     0
  1
0.400000
  0
DICTIONARYVAR
  5
ECD
102
{ACAD_REACTORS
330
E3E
102
}
330
E3E
100
DictionaryVariables
280
     0
  1
0.250000
  0
DICTIONARYVAR
  5
ECF
102
{ACAD_REACTORS
330
E3E
102
}
330
E3E
100
DictionaryVariables
280
     0
  1
1
  0
DICTIONARY
  5
46A6
330
279
100
AcDbDictionary
280
     1
281
     1
  3
ACAD_ROUNDTRIP_2008_TABLESTYLE_CELLSTYLEMAP
360
46A7
  0
CELLSTYLEMAP
  5
46A7
102
{ACAD_REACTORS
330
46A6
102
}
330
46A6
100
AcDbCellStyleMap
 90
        3
300
CELLSTYLE
  1
TABLEFORMAT_BEGIN
 90
        5
170
     1
 91
        0
 92
    32768
 62
   257
 93
        1
300
CONTENTFORMAT
  1
CONTENTFORMAT_BEGIN
 90
        0
 91
        0
 92
        4
 93
        0
300

 40
0.0
140
1.0
 94
        5
 62
     0
340
17
144
6.0
309
CONTENTFORMAT_END
171
     1
301
MARGIN
  1
CELLMARGIN_BEGIN
 40
0.06
 40
0.06
 40
0.06
 40
0.06
 40
0.18
 40
0.18
309
CELLMARGIN_END
 94
        6
 95
        1
302
GRIDFORMAT
  1
GRIDFORMAT_BEGIN
 90
        0
 91
        1
 62
     0
 92
       -2
340
0
 93
        0
 40
0.045
309
GRIDFORMAT_END
 95
        2
302
GRIDFORMAT
  1
GRIDFORMAT_BEGIN
 90
        0
 91
        1
 62
     0
 92
       -2
340
0
 93
        0
 40
0.045
309
GRIDFORMAT_END
 95
        4
302
GRIDFORMAT
  1
GRIDFORMAT_BEGIN
 90
        0
 91
        1
 62
     0
 92
       -2
340
0
 93
        0
 40
0.045
309
GRIDFORMAT_END
 95
        8
302
GRIDFORMAT
  1
GRIDFORMAT_BEGIN
 90
        0
 91
        1
 62
     0
 92
       -2
340
0
 93
        0
 40
0.045
309
GRIDFORMAT_END
 95
       16
302
GRIDFORMAT
  1
GRIDFORMAT_BEGIN
 90
        0
 91
        1
 62
     0
 92
       -2
340
0
 93
        0
 40
0.045
309
GRIDFORMAT_END
 95
       32
302
GRIDFORMAT
  1
GRIDFORMAT_BEGIN
 90
        0
 91
        1
 62
     0
 92
       -2
340
0
 93
        0
 40
0.045
309
GRIDFORMAT_END
309
TABLEFORMAT_END
  1
CELLSTYLE_BEGIN
 90
        1
 91
        1
300
_TITLE
309
CELLSTYLE_END
300
CELLSTYLE
  1
TABLEFORMAT_BEGIN
 90
        5
170
     1
 91
        0
 92
        0
 62
   257
 93
        1
300
CONTENTFORMAT
  1
CONTENTFORMAT_BEGIN
 90
        0
 91
        0
 92
        4
 93
        0
300

 40
0.0
140
1.0
 94
        5
 62
     0
340
17
144
4.5
309
CONTENTFORMAT_END
171
     1
301
MARGIN
  1
CELLMARGIN_BEGIN
 40
0.06
 40
0.06
 40
0.06
 40
0.06
 40
0.18
 40
0.18
309
CELLMARGIN_END
 94
        6
 95
        1
302
GRIDFORMAT
  1
GRIDFORMAT_BEGIN
 90
        0
 91
        1
 62
     0
 92
       -2
340
0
 93
        0
 40
0.045
309
GRIDFORMAT_END
 95
        2
302
GRIDFORMAT
  1
GRIDFORMAT_BEGIN
 90
        0
 91
        1
 62
     0
 92
       -2
340
0
 93
        0
 40
0.045
309
GRIDFORMAT_END
 95
        4
302
GRIDFORMAT
  1
GRIDFORMAT_BEGIN
 90
        0
 91
        1
 62
     0
 92
       -2
340
0
 93
        0
 40
0.045
309
GRIDFORMAT_END
 95
        8
302
GRIDFORMAT
  1
GRIDFORMAT_BEGIN
 90
        0
 91
        1
 62
     0
 92
       -2
340
0
 93
        0
 40
0.045
309
GRIDFORMAT_END
 95
       16
302
GRIDFORMAT
  1
GRIDFORMAT_BEGIN
 90
        0
 91
        1
 62
     0
 92
       -2
340
0
 93
        0
 40
0.045
309
GRIDFORMAT_END
 95
       32
302
GRIDFORMAT
  1
GRIDFORMAT_BEGIN
 90
        0
 91
        1
 62
     0
 92
       -2
340
0
 93
        0
 40
0.045
309
GRIDFORMAT_END
309
TABLEFORMAT_END
  1
CELLSTYLE_BEGIN
 90
        2
 91
        1
300
_HEADER
309
CELLSTYLE_END
300
CELLSTYLE
  1
TABLEFORMAT_BEGIN
 90
        5
170
     1
 91
        0
 92
        0
 62
   257
 93
        1
300
CONTENTFORMAT
  1
CONTENTFORMAT_BEGIN
 90
        0
 91
        0
 92
        4
 93
        0
300

 40
0.0
140
1.0
 94
        2
 62
     0
340
17
144
4.5
309
CONTENTFORMAT_END
171
     1
301
MARGIN
  1
CELLMARGIN_BEGIN
 40
0.06
 40
0.06
 40
0.06
 40
0.06
 40
0.18
 40
0.18
309
CELLMARGIN_END
 94
        6
 95
        1
302
GRIDFORMAT
  1
GRIDFORMAT_BEGIN
 90
        0
 91
        1
 62
     0
 92
       -2
340
0
 93
        0
 40
0.045
309
GRIDFORMAT_END
 95
        2
302
GRIDFORMAT
  1
GRIDFORMAT_BEGIN
 90
        0
 91
        1
 62
     0
 92
       -2
340
0
 93
        0
 40
0.045
309
GRIDFORMAT_END
 95
        4
302
GRIDFORMAT
  1
GRIDFORMAT_BEGIN
 90
        0
 91
        1
 62
     0
 92
       -2
340
0
 93
        0
 40
0.045
309
GRIDFORMAT_END
 95
        8
302
GRIDFORMAT
  1
GRIDFORMAT_BEGIN
 90
        0
 91
        1
 62
     0
 92
       -2
340
0
 93
        0
 40
0.045
309
GRIDFORMAT_END
 95
       16
302
GRIDFORMAT
  1
GRIDFORMAT_BEGIN
 90
        0
 91
        1
 62
     0
 92
       -2
340
0
 93
        0
 40
0.045
309
GRIDFORMAT_END
 95
       32
302
GRIDFORMAT
  1
GRIDFORMAT_BEGIN
 90
        0
 91
        1
 62
     0
 92
       -2
340
0
 93
        0
 40
0.045
309
GRIDFORMAT_END
309
TABLEFORMAT_END
  1
CELLSTYLE_BEGIN
 90
        3
 91
        2
300
_DATA
309
CELLSTYLE_END
  0
ENDSEC
  0
EOF
