  0
SECTION
  2
HEADER
  9
$ACADVER
  1
AC1021
  9
$ACADMAINTVER
 70
    25
  9
$DWGCODEPAGE
  3
ANSI_932
  9
$LASTSAVEDBY
  1
tform
  9
$INSBASE
 10
0.0
 20
0.0
 30
0.0
  9
$EXTMIN
 10
0.0
 20
0.0
 30
0.0
  9
$EXTMAX
 10
2100.0
 20
2970.0
 30
34.99521132346015
  9
$LIMMIN
 10
0.0
 20
0.0
  9
$LIMMAX
 10
2100.0
 20
2970.0
  9
$ORTHOMODE
 70
     1
  9
$REGENMODE
 70
     1
  9
$FILLMODE
 70
     1
  9
$QTEXTMODE
 70
     0
  9
$MIRRTEXT
 70
     1
  9
$LTSCALE
 40
5.0
  9
$ATTMODE
 70
     1
  9
$TEXTSIZE
 40
533.0403732820173
  9
$TRACEWID
 40
1.0
  9
$TEXTSTYLE
  7
Standard
  9
$CLAYER
  8
Dim
  9
$CELTYPE
  6
ByLayer
  9
$CECOLOR
 62
   256
  9
$CELTSCALE
 40
1.0
  9
$DISPSILH
 70
     0
  9
$DIMSCALE
 40
1.0
  9
$DIMASZ
 40
9.999389648437498
  9
$DIMEXO
 40
25.0
  9
$DIMDLI
 40
0.9999999999999999
  9
$DIMRND
 40
0.0
  9
$DIMDLE
 40
0.0
  9
$DIMEXE
 40
0.0
  9
$DIMTP
 40
0.0
  9
$DIMTM
 40
0.0
  9
$DIMTXT
 40
24.4326171875
  9
$DIMCEN
 40
0.0
  9
$DIMTSZ
 40
0.0
  9
$DIMTOL
 70
     0
  9
$DIMLIM
 70
     0
  9
$DIMTIH
 70
     0
  9
$DIMTOH
 70
     0
  9
$DIMSE1
 70
     0
  9
$DIMSE2
 70
     0
  9
$DIMTAD
 70
     1
  9
$DIMZIN
 70
    11
  9
$DIMBLK
  1
DOT
  9
$DIMASO
 70
     1
  9
$DIMSHO
 70
     1
  9
$DIMPOST
  1
<>
  9
$DIMAPOST
  1
[]
  9
$DIMALT
 70
     0
  9
$DIMALTD
 70
     1
  9
$DIMALTF
 40
1.0
  9
$DIMLFAC
 40
1.0
  9
$DIMTOFL
 70
     1
  9
$DIMTVP
 40
0.0
  9
$DIMTIX
 70
     1
  9
$DIMSOXD
 70
     0
  9
$DIMSAH
 70
     0
  9
$DIMBLK1
  1

  9
$DIMBLK2
  1

  9
$DIMSTYLE
  2
tform線あり
  9
$DIMCLRD
 70
     0
  9
$DIMCLRE
 70
     0
  9
$DIMCLRT
 70
     0
  9
$DIMTFAC
 40
0.8
  9
$DIMGAP
 40
10.0
  9
$DIMJUST
 70
     0
  9
$DIMSD1
 70
     0
  9
$DIMSD2
 70
     0
  9
$DIMTOLJ
 70
     1
  9
$DIMTZIN
 70
    11
  9
$DIMALTZ
 70
    11
  9
$DIMALTTZ
 70
    11
  9
$DIMUPT
 70
     0
  9
$DIMDEC
 70
     1
  9
$DIMTDEC
 70
     1
  9
$DIMALTU
 70
     2
  9
$DIMALTTD
 70
     2
  9
$DIMTXSTY
  7
ＭＳ ゴシック
  9
$DIMAUNIT
 70
     0
  9
$DIMADEC
 70
     2
  9
$DIMALTRND
 40
0.0
  9
$DIMAZIN
 70
     0
  9
$DIMDSEP
 70
    46
  9
$DIMATFIT
 70
     0
  9
$DIMFRAC
 70
     2
  9
$DIMLDRBLK
  1
DOT
  9
$DIMLUNIT
 70
     2
  9
$DIMLWD
 70
    -2
  9
$DIMLWE
 70
    -2
  9
$DIMTMOVE
 70
     0
  9
$DIMFXL
 40
1.0
  9
$DIMFXLON
 70
     0
  9
$DIMJOGANG
 40
0.7853981633974483
  9
$DIMTFILL
 70
     0
  9
$DIMTFILLCLR
 70
     0
  9
$DIMARCSYM
 70
     0
  9
$DIMLTYPE
  6

  9
$DIMLTEX1
  6

  9
$DIMLTEX2
  6

  9
$LUNITS
 70
     2
  9
$LUPREC
 70
     0
  9
$SKETCHINC
 40
0.1
  9
$FILLETRAD
 40
0.0
  9
$AUNITS
 70
     0
  9
$AUPREC
 70
     0
  9
$MENU
  1
acad
  9
$ELEVATION
 40
0.0
  9
$PELEVATION
 40
0.0
  9
$THICKNESS
 40
0.0
  9
$LIMCHECK
 70
     0
  9
$CHAMFERA
 40
0.0
  9
$CHAMFERB
 40
0.0
  9
$CHAMFERC
 40
0.0
  9
$CHAMFERD
 40
0.0
  9
$SKPOLY
 70
     0
  9
$TDCREATE
 40
2447893.375
  9
$TDUCREATE
 40
0.0
  9
$TDUPDATE
 40
2460108.719281111
  9
$TDUUPDATE
 40
2460108.344281111
  9
$TDINDWG
 40
0.0073783218
  9
$TDUSRTIMER
 40
0.004045081
  9
$USRTIMER
 70
     1
  9
$ANGBASE
 50
0.0
  9
$ANGDIR
 70
     0
  9
$PDMODE
 70
     1
  9
$PDSIZE
 40
-2.0
  9
$PLINEWID
 40
0.0
  9
$SPLFRAME
 70
     0
  9
$SPLINETYPE
 70
     6
  9
$SPLINESEGS
 70
     8
  9
$HANDSEED
  5
BEF1
  9
$SURFTAB1
 70
     6
  9
$SURFTAB2
 70
     6
  9
$SURFTYPE
 70
     6
  9
$SURFU
 70
     6
  9
$SURFV
 70
     6
  9
$UCSBASE
  2

  9
$UCSNAME
  2

  9
$UCSORG
 10
0.0
 20
0.0
 30
0.0
  9
$UCSXDIR
 10
1.0
 20
0.0
 30
0.0
  9
$UCSYDIR
 10
0.0
 20
1.0
 30
0.0
  9
$UCSORTHOREF
  2

  9
$UCSORTHOVIEW
 70
     0
  9
$UCSORGTOP
 10
0.0
 20
0.0
 30
0.0
  9
$UCSORGBOTTOM
 10
0.0
 20
0.0
 30
0.0
  9
$UCSORGLEFT
 10
0.0
 20
0.0
 30
0.0
  9
$UCSORGRIGHT
 10
0.0
 20
0.0
 30
0.0
  9
$UCSORGFRONT
 10
0.0
 20
0.0
 30
0.0
  9
$UCSORGBACK
 10
0.0
 20
0.0
 30
0.0
  9
$PUCSBASE
  2

  9
$PUCSNAME
  2

  9
$PUCSORG
 10
0.0
 20
0.0
 30
0.0
  9
$PUCSXDIR
 10
1.0
 20
0.0
 30
0.0
  9
$PUCSYDIR
 10
0.0
 20
1.0
 30
0.0
  9
$PUCSORTHOREF
  2

  9
$PUCSORTHOVIEW
 70
     0
  9
$PUCSORGTOP
 10
0.0
 20
0.0
 30
0.0
  9
$PUCSORGBOTTOM
 10
0.0
 20
0.0
 30
0.0
  9
$PUCSORGLEFT
 10
0.0
 20
0.0
 30
0.0
  9
$PUCSORGRIGHT
 10
0.0
 20
0.0
 30
0.0
  9
$PUCSORGFRONT
 10
0.0
 20
0.0
 30
0.0
  9
$PUCSORGBACK
 10
0.0
 20
0.0
 30
0.0
  9
$USERI1
 70
     0
  9
$USERI2
 70
     0
  9
$USERI3
 70
     0
  9
$USERI4
 70
     0
  9
$USERI5
 70
     0
  9
$USERR1
 40
0.0
  9
$USERR2
 40
0.0
  9
$USERR3
 40
0.0
  9
$USERR4
 40
0.0
  9
$USERR5
 40
0.0
  9
$WORLDVIEW
 70
     1
  9
$SHADEDGE
 70
     3
  9
$SHADEDIF
 70
    70
  9
$TILEMODE
 70
     1
  9
$MAXACTVP
 70
    64
  9
$PINSBASE
 10
0.0
 20
0.0
 30
0.0
  9
$PLIMCHECK
 70
     0
  9
$PEXTMIN
 10
0.0
 20
0.0
 30
0.0
  9
$PEXTMAX
 10
0.0
 20
0.0
 30
0.0
  9
$PLIMMIN
 10
-7.5
 20
-20.0
  9
$PLIMMAX
 10
412.5
 20
277.0
  9
$UNITMODE
 70
     0
  9
$VISRETAIN
 70
     0
  9
$PLINEGEN
 70
     1
  9
$PSLTSCALE
 70
     0
  9
$TREEDEPTH
 70
  3020
  9
$CMLSTYLE
  2
Standard
  9
$CMLJUST
 70
     0
  9
$CMLSCALE
 40
1.0
  9
$PROXYGRAPHICS
 70
     0
  9
$MEASUREMENT
 70
     1
  9
$CELWEIGHT
370
    -1
  9
$ENDCAPS
280
     0
  9
$JOINSTYLE
280
     0
  9
$LWDISPLAY
290
     1
  9
$INSUNITS
 70
     4
  9
$HYPERLINKBASE
  1

  9
$STYLESHEET
  1

  9
$XEDIT
290
     1
  9
$CEPSNTYPE
380
     0
  9
$PSTYLEMODE
290
     1
  9
$FINGERPRINTGUID
  2

  9
$VERSIONGUID
  2

  9
$EXTNAMES
290
     1
  9
$PSVPSCALE
 40
0.0
  9
$OLESTARTUP
290
     0
  9
$SORTENTS
280
   127
  9
$INDEXCTL
280
     0
  9
$HIDETEXT
280
     1
  9
$XCLIPFRAME
290
     0
  9
$HALOGAP
280
     0
  9
$OBSCOLOR
 70
   257
  9
$OBSLTYPE
280
     0
  9
$INTERSECTIONDISPLAY
280
     0
  9
$INTERSECTIONCOLOR
 70
   257
  9
$DIMASSOC
280
     2
  9
$PROJECTNAME
  1

  9
$CAMERADISPLAY
290
     0
  9
$LENSLENGTH
 40
50.0
  9
$CAMERAHEIGHT
 40
0.0
  9
$STEPSPERSEC
 40
2.0
  9
$STEPSIZE
 40
6.0
  9
$3DDWFPREC
 40
2.0
  9
$PSOLWIDTH
 40
0.25
  9
$PSOLHEIGHT
 40
4.0
  9
$LOFTANG1
 40
1.570796326794897
  9
$LOFTANG2
 40
1.570796326794897
  9
$LOFTMAG1
 40
0.0
  9
$LOFTMAG2
 40
0.0
  9
$LOFTPARAM
 70
     7
  9
$LOFTNORMALS
280
     1
  9
$LATITUDE
 40
37.795
  9
$LONGITUDE
 40
-122.394
  9
$NORTHDIRECTION
 40
0.0
  9
$TIMEZONE
 70
 -8000
  9
$LIGHTGLYPHDISPLAY
280
     1
  9
$TILEMODELIGHTSYNCH
280
     1
  9
$SOLIDHIST
280
     1
  9
$SHOWHIST
280
     1
  9
$DWFFRAME
280
     2
  9
$DGNFRAME
280
     2
  9
$REALWORLDSCALE
290
     1
  9
$INTERFERECOLOR
 62
   256
  9
$CSHADOW
280
     0
  9
$SHADOWPLANELOCATION
 40
0.0
  0
ENDSEC
  0
SECTION
  2
CLASSES
  0
CLASS
  1
LWPOLYLINE
  2
AcDbPolyline
  3
ObjectDBX Classes
 90
        0
 91
        1
280
     0
281
     1
  0
CLASS
  1
IMAGE
  2
AcDbRasterImage
  3
ISM
 90
      127
 91
        4
280
     0
281
     1
  0
CLASS
  1
OLE2FRAME
  2
AcDbOle2Frame
  3
ObjectDBX Classes
 90
        0
 91
        1
280
     0
281
     1
  0
CLASS
  1
HATCH
  2
AcDbHatch
  3
ObjectDBX Classes
 90
        0
 91
        1
280
     0
281
     1
  0
CLASS
  1
DICTIONARYVAR
  2
AcDbDictionaryVar
  3
ObjectDBX Classes
 90
        0
 91
        3
280
     0
281
     0
  0
CLASS
  1
RASTERVARIABLES
  2
AcDbRasterVariables
  3
ISM
 90
        0
 91
        3
280
     0
281
     0
  0
CLASS
  1
IMAGEDEF
  2
AcDbRasterImageDef
  3
ISM
 90
        0
 91
        3
280
     0
281
     0
  0
CLASS
  1
IMAGEDEF_REACTOR
  2
AcDbRasterImageDefReactor
  3
ISM
 90
        1
 91
        3
280
     0
281
     0
  0
CLASS
  1
IDBUFFER
  2
AcDbIdBuffer
  3
ObjectDBX Classes
 90
        0
 91
        3
280
     0
281
     0
  0
CLASS
  1
SPATIAL_FILTER
  2
AcDbSpatialFilter
  3
ObjectDBX Classes
 90
        0
 91
        3
280
     0
281
     0
  0
CLASS
  1
XRECORD
  2
AcDbXrecord
  3
ObjectDBX Classes
 90
        0
 91
        1
280
     0
281
     0
  0
CLASS
  1
SORTENTSTABLE
  2
AcDbSortentsTable
  3
ObjectDBX Classes
 90
        0
 91
        3
280
     0
281
     0
  0
CLASS
  1
LAYER_INDEX
  2
AcDbLayerIndex
  3
ObjectDBX Classes
 90
        0
 91
        3
280
     0
281
     0
  0
CLASS
  1
SPATIAL_INDEX
  2
AcDbSpatialIndex
  3
AutoCAD 2000
 90
        0
 91
        3
280
     0
281
     0
  0
CLASS
  1
OBJECT_PTR
  2
CAseDLPNTableRecord
  3
ASE-LPNTableRecord
 90
        1
 91
        3
280
     0
281
     0
  0
CLASS
  1
LAYOUT
  2
AcDbLayout
  3
ObjectDBX Classes
 90
        0
 91
        1
280
     0
281
     0
  0
CLASS
  1
PLOTSETTINGS
  2
AcDbPlotSettings
  3
ObjectDBX Classes
 90
        0
 91
        3
280
     0
281
     0
  0
CLASS
  1
ACDBDICTIONARYWDFLT
  2
AcDbDictionaryWithDefault
  3
ObjectDBX Classes
 90
        0
 91
        3
280
     0
281
     0
  0
CLASS
  1
ACDBPLACEHOLDER
  2
AcDbPlaceHolder
  3
ObjectDBX Classes
 90
        0
 91
        1
280
     0
281
     0
  0
CLASS
  1
SCALE
  2
AcDbScale
  3
ObjectDBX Classes
 90
     1153
 91
        3
280
     0
281
     0
  0
CLASS
  1
MATERIAL
  2
AcDbMaterial
  3
ObjectDBX Classes
 90
     1153
 91
        3
280
     0
281
     0
  0
CLASS
  1
VISUALSTYLE
  2
AcDbVisualStyle
  3
ObjectDBX Classes
 90
     4095
 91
        3
280
     0
281
     0
  0
CLASS
  1
TABLESTYLE
  2
AcDbTableStyle
  3
ObjectDBX Classes
 90
     4095
 91
        3
280
     0
281
     0
  0
CLASS
  1
DIMASSOC
  2
AcDbDimAssoc
  3
"AcDbDimAssoc|Product Desc:     AcDim ARX App For Dimension|Company:          Autodesk, Inc.|WEB Address:      www.autodesk.com"
 90
        0
 91
        3
280
     0
281
     0
  0
CLASS
  1
CELLSTYLEMAP
  2
AcDbCellStyleMap
  3
ObjectDBX Classes
 90
     1152
 91
        3
280
     0
281
     0
  0
CLASS
  1
SUN
  2
AcDbSun
  3
SCENEOE
 90
     1153
 91
        3
280
     0
281
     0
  0
CLASS
  1
MLEADERSTYLE
  2
AcDbMLeaderStyle
  3
ACDB_MLEADERSTYLE_CLASS
 90
     4095
 91
        3
280
     0
281
     0
  0
CLASS
  1
FIELD
  2
AcDbField
  3
ObjectDBX Classes
 90
     1152
 91
        3
280
     0
281
     0
  0
CLASS
  1
FIELDLIST
  2
AcDbFieldList
  3
ObjectDBX Classes
 90
     1152
 91
        3
280
     0
281
     0
  0
CLASS
  1
ACDB_ALDIMOBJECTCONTEXTDATA_CLASS
  2
AcDbAlignedDimensionObjectContextData
  3
ObjectDBX Classes
 90
     1153
 91
        3
280
     0
281
     0
  0
ENDSEC
  0
SECTION
  2
TABLES
  0
TABLE
  2
VPORT
  5
7
330
0
100
AcDbSymbolTable
 70
     1
  0
VPORT
  5
15
330
7
100
AcDbSymbolTableRecord
100
AcDbViewportTableRecord
  2
*ACTIVE
 70
     0
 10
0.0
 20
0.0
 11
1.0
 21
1.0
 12
672.9525617540412
 22
1782.612370234518
 13
0.0
 23
0.0
 14
1.0
 24
1.0
 15
0.0
 25
0.0
 16
0.0
 26
0.0
 36
1.0
 17
377.0474382459588
 27
-297.6123702345185
 37
0.0
 40
3029.4
 41
2.120713305898491
 42
50.0
 43
0.0
 44
0.0
 50
0.0
 51
0.0
 71
    16
 72
  2000
 73
     1
 74
     1
 75
     0
 76
     0
 77
     0
 78
     0
281
     0
 65
     1
110
0.0
120
0.0
130
0.0
111
1.0
121
0.0
131
0.0
112
0.0
122
1.0
132
0.0
 79
     0
146
0.0
348
26C
 60
     3
 61
     5
292
     1
282
     1
141
0.0
142
0.0
 63
   256
361
8C2
  0
ENDTAB
  0
TABLE
  2
LTYPE
  5
4
330
0
100
AcDbSymbolTable
 70
     4
  0
LTYPE
  5
11
330
4
100
AcDbSymbolTableRecord
100
AcDbLinetypeTableRecord
  2
ByBlock
 70
     0
  3

 72
    65
 73
     0
 40
0.0
  0
LTYPE
  5
12
330
4
100
AcDbSymbolTableRecord
100
AcDbLinetypeTableRecord
  2
ByLayer
 70
     0
  3

 72
    65
 73
     0
 40
0.0
  0
LTYPE
  5
13
330
4
100
AcDbSymbolTableRecord
100
AcDbLinetypeTableRecord
  2
Continuous
 70
     0
  3
Solid line
 72
    65
 73
     0
 40
0.0
  0
LTYPE
  5
8D4
330
4
100
AcDbSymbolTableRecord
100
AcDbLinetypeTableRecord
  2
HIDDEN
 70
     0
  3
Hidden _ _ _ _ _ _ _ _ _ _ _ _ _ _ _ _ _ _ _ _ 
 72
    65
 73
     2
 40
9.524999999999999
 49
6.35
 74
     0
 49
-3.175
 74
     0
  0
LTYPE
  5
BF2
330
4
100
AcDbSymbolTableRecord
100
AcDbLinetypeTableRecord
  2
BORDER
 70
     0
  3
Border __  __  . __  __  . __  __  . __  __  . 
 72
    65
 73
     6
 40
44.45
 49
12.7
 74
     0
 49
-6.35
 74
     0
 49
12.7
 74
     0
 49
-6.35
 74
     0
 49
0.0
 74
     0
 49
-6.35
 74
     0
  0
LTYPE
  5
4115
330
4
100
AcDbSymbolTableRecord
100
AcDbLinetypeTableRecord
  2
CENTER
 70
     0
  3
 Center _____  _  _____  _  _____  _  _____  _ 
 72
    65
 73
     4
 40
50.8
 49
31.75
 74
     0
 49
-6.35
 74
     0
 49
6.35
 74
     0
 49
-6.35
 74
     0
  0
ENDTAB
  0
TABLE
  2
LAYER
  5
2
102
{ACAD_XDICTIONARY
360
2E1
102
}
330
0
100
AcDbSymbolTable
 70
     9
  0
LAYER
  5
14
330
2
100
AcDbSymbolTableRecord
100
AcDbLayerTableRecord
  2
0
 70
     0
 62
     7
  6
Continuous
370
    -3
390
1D
347
266
  0
LAYER
  5
4A
330
2
100
AcDbSymbolTableRecord
100
AcDbLayerTableRecord
  2
Defpoints
 70
     0
 62
     7
  6
Continuous
290
     0
370
    20
390
1D
347
266
  0
LAYER
  5
4B
330
2
100
AcDbSymbolTableRecord
100
AcDbLayerTableRecord
  2
template
 70
     0
 62
     7
  6
Continuous
370
    20
390
1D
347
266
  0
LAYER
  5
4D
330
2
100
AcDbSymbolTableRecord
100
AcDbLayerTableRecord
  2
MODEL
 70
     0
 62
     7
  6
Continuous
370
    20
390
1D
347
266
  0
LAYER
  5
382
330
2
100
AcDbSymbolTableRecord
100
AcDbLayerTableRecord
  2
レイヤー 1
 70
     0
 62
     7
  6
Continuous
370
    -3
390
1D
347
266
  0
LAYER
  5
5C4
330
2
100
AcDbSymbolTableRecord
100
AcDbLayerTableRecord
  2
HIDDEN
 70
     0
 62
   253
  6
HIDDEN
370
    20
390
1D
347
266
1001
AcAecLayerStandard
1000

1000

  0
LAYER
  5
5EB
330
2
100
AcDbSymbolTableRecord
100
AcDbLayerTableRecord
  2
Dim
 70
     0
 62
     3
  6
Continuous
370
    13
390
1D
347
266
1001
AcAecLayerStandard
1000

1000

  0
LAYER
  5
BF1
330
2
100
AcDbSymbolTableRecord
100
AcDbLayerTableRecord
  2
PRINT BORDER
 70
     0
 62
     4
  6
BORDER
290
     0
370
    20
390
1D
347
266
1001
AcAecLayerStandard
1000

1000

  0
LAYER
  5
1BD2
330
2
100
AcDbSymbolTableRecord
100
AcDbLayerTableRecord
  2
retino
 70
     0
 62
   253
  6
Continuous
370
     0
390
1D
347
266
  0
ENDTAB
  0
TABLE
  2
STYLE
  5
3
330
0
100
AcDbSymbolTable
 70
     2
  0
STYLE
  5
17
330
3
100
AcDbSymbolTableRecord
100
AcDbTextStyleTableRecord
  2
Standard
 70
     0
 40
0.0
 41
1.0
 50
0.0
 71
     0
 42
533.0403732820173
  3
txt
  4
BIGFONT.SHX
  0
STYLE
  5
39
330
3
100
AcDbSymbolTableRecord
100
AcDbTextStyleTableRecord
  2
ＭＳ ゴシック
 70
     0
 40
0.0
 41
1.0
 50
0.0
 71
     0
 42
533.0403732820173
  3
msgothic.ttc
  4
ＭＳ ゴシック
1001
ACAD
1000
ＭＳ ゴシック
1071
        0
  0
ENDTAB
  0
TABLE
  2
VIEW
  5
5
330
0
100
AcDbSymbolTable
 70
     0
  0
ENDTAB
  0
TABLE
  2
UCS
  5
6
330
0
100
AcDbSymbolTable
 70
     0
  0
ENDTAB
  0
TABLE
  2
APPID
  5
8
330
0
100
AcDbSymbolTable
 70
    17
  0
APPID
  5
16
330
8
100
AcDbSymbolTableRecord
100
AcDbRegAppTableRecord
  2
ACAD
 70
     0
  0
APPID
  5
5C5
330
8
100
AcDbSymbolTableRecord
100
AcDbRegAppTableRecord
  2
AcAecLayerStandard
 70
     0
  0
APPID
  5
913
330
8
100
AcDbSymbolTableRecord
100
AcDbRegAppTableRecord
  2
ACAD_DSTYLE_DIMBREAK
 70
     0
  0
APPID
  5
914
330
8
100
AcDbSymbolTableRecord
100
AcDbRegAppTableRecord
  2
ACAD_DSTYLE_DIMJAG
 70
     0
  0
APPID
  5
915
330
8
100
AcDbSymbolTableRecord
100
AcDbRegAppTableRecord
  2
ACAD_DSTYLE_DIMTALN
 70
     0
  0
APPID
  5
E4F
330
8
100
AcDbSymbolTableRecord
100
AcDbRegAppTableRecord
  2
ACAD_MLEADERVER
 70
     0
  0
APPID
  5
E79
330
8
100
AcDbSymbolTableRecord
100
AcDbRegAppTableRecord
  2
ACAD_PSEXT
 70
     0
  0
APPID
  5
E7A
330
8
100
AcDbSymbolTableRecord
100
AcDbRegAppTableRecord
  2
ACAD_NAV_VCDISPLAY
 70
     0
  0
APPID
  5
166E
330
8
100
AcDbSymbolTableRecord
100
AcDbRegAppTableRecord
  2
AcadAnnotative
 70
     0
  0
APPID
  5
166F
330
8
100
AcDbSymbolTableRecord
100
AcDbRegAppTableRecord
  2
GradientColor1ACI
 70
     0
  0
APPID
  5
1670
330
8
100
AcDbSymbolTableRecord
100
AcDbRegAppTableRecord
  2
GradientColor2ACI
 70
     0
  0
APPID
  5
20FE
330
8
100
AcDbSymbolTableRecord
100
AcDbRegAppTableRecord
  2
AcLayerTools
 70
     0
  0
APPID
  5
27AB
330
8
100
AcDbSymbolTableRecord
100
AcDbRegAppTableRecord
  2
ACAD_DSTYLE_DIMRADIAL_EXTENSION
 70
     0
  0
APPID
  5
4377
330
8
100
AcDbSymbolTableRecord
100
AcDbRegAppTableRecord
  2
RAK
 70
     0
  0
APPID
  5
500B
330
8
100
AcDbSymbolTableRecord
100
AcDbRegAppTableRecord
  2
AcadAnnoAV
 70
     0
  0
APPID
  5
68CA
330
8
100
AcDbSymbolTableRecord
100
AcDbRegAppTableRecord
  2
PLOTTRANSPARENCY
 70
     0
  0
APPID
  5
BCFB
330
8
100
AcDbSymbolTableRecord
100
AcDbRegAppTableRecord
  2
HATCHBACKGROUNDCOLOR
 70
     0
  0
ENDTAB
  0
TABLE
  2
DIMSTYLE
  5
9
330
0
100
AcDbSymbolTable
 70
     1
100
AcDbDimStyleTable
  0
DIMSTYLE
105
56
102
{ACAD_REACTORS
330
BBC1
330
BBD0
330
BBDF
330
BBEE
330
BBFD
330
BCEA
330
BD47
330
BDAF
330
BDCE
330
BDDF
330
BE12
330
BE5D
330
BEC6
102
}
330
9
100
AcDbSymbolTableRecord
100
AcDbDimStyleTableRecord
  2
tform線あり
 70
     0
  3
<>
  4
[]
 41
9.999389648437498
 42
25.0
 43
0.9999999999999999
 44
0.0
 73
     0
 74
     0
 77
     1
 78
    11
140
24.4326171875
141
0.0
143
1.0
146
0.8
147
10.0
171
     1
172
     1
174
     1
178
     0
179
     2
271
     1
272
     1
276
     2
284
    11
285
    11
286
    11
289
     0
340
39
341
4E
342
4E
  0
ENDTAB
  0
TABLE
  2
BLOCK_RECORD
  5
1
330
0
100
AcDbSymbolTable
 70
    28
  0
BLOCK_RECORD
  5
A
102
{ACAD_XDICTIONARY
360
560A
102
}
330
1
100
AcDbSymbolTableRecord
100
AcDbBlockTableRecord
  2
*MODEL_SPACE
340
20
 70
     0
280
     1
281
     0
  0
BLOCK_RECORD
  5
B
330
1
100
AcDbSymbolTableRecord
100
AcDbBlockTableRecord
  2
*PAPER_SPACE
340
21
 70
     0
280
     1
281
     0
  0
BLOCK_RECORD
  5
4E
330
1
100
AcDbSymbolTableRecord
100
AcDbBlockTableRecord
  2
_DOT
340
0
102
{BLKREFS
331
BB9A
331
BB9B
331
BBA6
331
BBA7
331
BBCA
331
BBCB
331
BBD9
331
BBDA
331
BBE8
331
BBE9
331
BBF7
331
BBF8
331
BC06
331
BC07
331
BCF3
331
BCF4
331
BD50
331
BD51
331
BDB8
331
BDB9
331
BDC8
331
BDC9
331
BDD7
331
BDD8
331
BDE8
331
BDE9
331
BE1B
331
BE1C
331
BE64
331
BE65
331
BE7B
331
BE7C
331
BEC0
331
BEC1
331
BECF
331
BED0
102
}
 70
     0
280
     1
281
     0
  0
BLOCK_RECORD
  5
3A5
330
1
100
AcDbSymbolTableRecord
100
AcDbBlockTableRecord
  2
名称未設定-1
340
0
102
{BLKREFS
331
3D0
102
}
 70
     1
280
     1
281
     0
  0
BLOCK_RECORD
  5
3A8
330
1
100
AcDbSymbolTableRecord
100
AcDbBlockTableRecord
  2
block 2
340
0
102
{BLKREFS
331
3A7
102
}
 70
     0
280
     1
281
     0
  0
BLOCK_RECORD
  5
3AB
330
1
100
AcDbSymbolTableRecord
100
AcDbBlockTableRecord
  2
block 3
340
0
102
{BLKREFS
331
3AA
102
}
 70
     0
280
     1
281
     0
  0
BLOCK_RECORD
  5
3AE
330
1
100
AcDbSymbolTableRecord
100
AcDbBlockTableRecord
  2
block 4
340
0
102
{BLKREFS
331
3AD
102
}
 70
     0
280
     1
281
     0
  0
BLOCK_RECORD
  5
3BD
330
1
100
AcDbSymbolTableRecord
100
AcDbBlockTableRecord
  2
block 5
340
0
102
{BLKREFS
331
3BC
102
}
 70
     0
280
     1
281
     0
  0
BLOCK_RECORD
  5
11F0
330
1
100
AcDbSymbolTableRecord
100
AcDbBlockTableRecord
  2
BLOCK_2
340
0
102
{BLKREFS
331
1273
331
127B
331
127C
102
}
 70
     0
280
     1
281
     0
  0
BLOCK_RECORD
  5
38B6
330
1
100
AcDbSymbolTableRecord
100
AcDbBlockTableRecord
  2
mobile_latù
340
0
310
2800000020000000200000000100080000000000000400000000000000000000000000000000000000000000000080000080000000808000800000008000800080800000C0C0C000C0DCC000F0CAA6000020400000206000002080000020A0000020C0000020E00000400000004020000040400000406000004080000040A0
310
000040C0000040E00000600000006020000060400000606000006080000060A0000060C0000060E00000800000008020000080400000806000008080000080A0000080C0000080E00000A0000000A0200000A0400000A0600000A0800000A0A00000A0C00000A0E00000C0000000C0200000C0400000C0600000C0800000C0
310
A00000C0C00000C0E00000E0000000E0200000E0400000E0600000E0800000E0A00000E0C00000E0E00040000000400020004000400040006000400080004000A0004000C0004000E00040200000402020004020400040206000402080004020A0004020C0004020E000404000004040200040404000404060004040800040
310
40A0004040C0004040E00040600000406020004060400040606000406080004060A0004060C0004060E00040800000408020004080400040806000408080004080A0004080C0004080E00040A0000040A0200040A0400040A0600040A0800040A0A00040A0C00040A0E00040C0000040C0200040C0400040C0600040C08000
310
40C0A00040C0C00040C0E00040E0000040E0200040E0400040E0600040E0800040E0A00040E0C00040E0E00080000000800020008000400080006000800080008000A0008000C0008000E00080200000802020008020400080206000802080008020A0008020C0008020E00080400000804020008040400080406000804080
310
008040A0008040C0008040E00080600000806020008060400080606000806080008060A0008060C0008060E00080800000808020008080400080806000808080008080A0008080C0008080E00080A0000080A0200080A0400080A0600080A0800080A0A00080A0C00080A0E00080C0000080C0200080C0400080C0600080C0
310
800080C0A00080C0C00080C0E00080E0000080E0200080E0400080E0600080E0800080E0A00080E0C00080E0E000C0000000C0002000C0004000C0006000C0008000C000A000C000C000C000E000C0200000C0202000C0204000C0206000C0208000C020A000C020C000C020E000C0400000C0402000C0404000C0406000C0
310
408000C040A000C040C000C040E000C0600000C0602000C0604000C0606000C0608000C060A000C060C000C060E000C0800000C0802000C0804000C0806000C0808000C080A000C080C000C080E000C0A00000C0A02000C0A04000C0A06000C0A08000C0A0A000C0A0C000C0A0E000C0C00000C0C02000C0C04000C0C06000
310
C0C08000C0C0A000F0FBFF00A4A0A000808080000000FF0000FF000000FFFF00FF000000FF00FF00FFFF0000FFFFFF0049494949494949494949494949494949494949494949494949494949494949494949494949494949494949494949494949494949494949494949494949494949494949494949494949494949494949
310
49494949494949494949494949494949494949494949494949494949494949494949494949494949494949494949494949494949494949494949494949494949494949494949494949494949494949494949FAFAFAFAFAFAFAFAFAFAFAFAFAFAFAFAFAFAFAFAFAFAFAFAFAFAFAFAFAFA4949FAFA4949494949494949494949
310
494949494949494949494949494949FAFA4949FAFA4949494949494949494949494949494949494949494949494949FAFA4949FAFA4949494949494949494949494949494949494949494949494949FAFA4949FAFA4949494949494949494949494949494949494949494949494949FAFA4949FAFA49494949494949494949
310
49494949494949494949494949494949FAFA4949FAFA4949494949494949494949494949494949494949494949494949FAFA4949FAFA4949494949494949494949494949494949494949494949494949FAFA4949FAFA4949494949494949494949494949494949494949494949494949FAFA4949FAFA494949494949494949
310
4949494949494949494949494949494949FAFA4949FAFA4949494949494949494949494949494949494949494949494949FAFA4949FAFA4949494949494949494949494949494949494949494949494949FAFA4949FAFA4949494949494949494949494949494949494949494949494949FAFA4949FAFA4949494949494949
310
494949494949494949494949494949494949FAFA4949FAFA4949494949494949494949494949494949494949494949494949FAFA4949FAFA4949494949494949494949494949494949494949494949494949FAFA4949FAFA4949494949494949494949494949494949494949494949494949FAFA4949FAFA49494949494949
310
49494949494949494949494949494949494949FAFA4949FAFAFAFAFAFAFAFAFAFAFAFAFAFAFAFAFAFAFAFAFAFAFAFAFAFAFAFAFAFA4949FAFAFAFAFAFAFAFAFAFAFAFAFAFAFAFAFAFAFAFAFAFAFAFAFAFAFAFAFAFA4949FAFA4949494949494949494949494949494949494949494949494949FAFA4949FAFAFAFAFAFAFAFA
310
FAFAFAFAFAFAFAFAFAFAFAFAFAFAFAFAFAFAFAFAFAFA494949494949494949494949494949494949494949494949494949494949494949494949494949494949494949494949494949494949494949494949494949494949494949494949494949494949494949494949494949494949494949494949494949494949494949
310
4949494949494949494949494949494949494949494949494949494949494949494949494949494949494949494949494949494949494949
102
{BLKREFS
331
3B99
331
467E
331
527B
102
}
 70
     4
280
     1
281
     0
  0
BLOCK_RECORD
  5
5039
330
1
100
AcDbSymbolTableRecord
100
AcDbBlockTableRecord
  2
.TD_SECTION_1
340
0
102
{BLKREFS
331
527C
331
527E
331
5280
331
5282
331
5284
331
5286
102
}
 70
     0
280
     1
281
     0
  0
BLOCK_RECORD
  5
503D
330
1
100
AcDbSymbolTableRecord
100
AcDbBlockTableRecord
  2
.TD_SECTION_2
340
0
102
{BLKREFS
331
527D
331
527F
331
5281
331
5283
331
5285
331
5287
102
}
 70
     0
280
     1
281
     0
  0
BLOCK_RECORD
  5
BB94
330
1
100
AcDbSymbolTableRecord
100
AcDbBlockTableRecord
  2
*D10
340
0
 70
     0
280
     1
281
     0
  0
BLOCK_RECORD
  5
BBA0
330
1
100
AcDbSymbolTableRecord
100
AcDbBlockTableRecord
  2
*D11
340
0
 70
     0
280
     1
281
     0
  0
BLOCK_RECORD
  5
BBC4
330
1
100
AcDbSymbolTableRecord
100
AcDbBlockTableRecord
  2
*D12
340
0
 70
     0
280
     1
281
     0
  0
BLOCK_RECORD
  5
BBD3
330
1
100
AcDbSymbolTableRecord
100
AcDbBlockTableRecord
  2
*D13
340
0
 70
     0
280
     1
281
     0
  0
BLOCK_RECORD
  5
BBE2
330
1
100
AcDbSymbolTableRecord
100
AcDbBlockTableRecord
  2
*D14
340
0
 70
     0
280
     1
281
     0
  0
BLOCK_RECORD
  5
BBF1
330
1
100
AcDbSymbolTableRecord
100
AcDbBlockTableRecord
  2
*D15
340
0
 70
     0
280
     1
281
     0
  0
BLOCK_RECORD
  5
BC00
330
1
100
AcDbSymbolTableRecord
100
AcDbBlockTableRecord
  2
*D16
340
0
 70
     0
280
     1
281
     0
  0
BLOCK_RECORD
  5
BCED
330
1
100
AcDbSymbolTableRecord
100
AcDbBlockTableRecord
  2
*D17
340
0
 70
     0
280
     1
281
     0
  0
BLOCK_RECORD
  5
BD4A
330
1
100
AcDbSymbolTableRecord
100
AcDbBlockTableRecord
  2
*D18
340
0
 70
     0
280
     1
281
     0
  0
BLOCK_RECORD
  5
BDB2
330
1
100
AcDbSymbolTableRecord
100
AcDbBlockTableRecord
  2
*D19
340
0
 70
     0
280
     1
281
     0
  0
BLOCK_RECORD
  5
BDC2
330
1
100
AcDbSymbolTableRecord
100
AcDbBlockTableRecord
  2
*D20
340
0
 70
     0
280
     1
281
     0
  0
BLOCK_RECORD
  5
BDD1
330
1
100
AcDbSymbolTableRecord
100
AcDbBlockTableRecord
  2
*D21
340
0
 70
     0
280
     1
281
     0
  0
BLOCK_RECORD
  5
BDE2
330
1
100
AcDbSymbolTableRecord
100
AcDbBlockTableRecord
  2
*D22
340
0
 70
     0
280
     1
281
     0
  0
BLOCK_RECORD
  5
BE15
330
1
100
AcDbSymbolTableRecord
100
AcDbBlockTableRecord
  2
*D23
340
0
 70
     0
280
     1
281
     0
  0
BLOCK_RECORD
  5
BE5E
330
1
100
AcDbSymbolTableRecord
100
AcDbBlockTableRecord
  2
*D24
340
0
 70
     0
280
     1
281
     0
  0
BLOCK_RECORD
  5
BE75
330
1
100
AcDbSymbolTableRecord
100
AcDbBlockTableRecord
  2
*D25
340
0
 70
     0
280
     1
281
     0
  0
BLOCK_RECORD
  5
BEBA
330
1
100
AcDbSymbolTableRecord
100
AcDbBlockTableRecord
  2
*D26
340
0
 70
     0
280
     1
281
     0
  0
BLOCK_RECORD
  5
BEC9
330
1
100
AcDbSymbolTableRecord
100
AcDbBlockTableRecord
  2
*D27
340
0
 70
     0
280
     1
281
     0
  0
ENDTAB
  0
ENDSEC
  0
SECTION
  2
BLOCKS
  0
BLOCK
  5
D
330
A
100
AcDbEntity
  8
0
390
1D
100
AcDbBlockBegin
  2
*MODEL_SPACE
 70
     0
 10
0.0
 20
0.0
 30
0.0
  3
*MODEL_SPACE
  1
*MODEL_SPACE
  0
ENDBLK
  5
E
330
A
100
AcDbEntity
  8
0
390
1D
100
AcDbBlockEnd
  0
BLOCK
  5
F
330
B
100
AcDbEntity
 67
     1
  8
0
390
1D
100
AcDbBlockBegin
  2
*PAPER_SPACE
 70
     0
 10
0.0
 20
0.0
 30
0.0
  3
*PAPER_SPACE
  1
*PAPER_SPACE
  0
ENDBLK
  5
10
330
B
100
AcDbEntity
 67
     1
  8
0
390
1D
100
AcDbBlockEnd
  0
BLOCK
  5
2C14
330
4E
100
AcDbEntity
  8
0
390
1D
100
AcDbBlockBegin
  2
_DOT
 70
     0
 10
0.0
 20
0.0
 30
0.0
  3
_DOT
  1
_DOT
  0
POLYLINE
  5
2C16
330
4E
100
AcDbEntity
  8
0
  6
ByBlock
 62
     0
370
    -2
390
1D
100
AcDb2dPolyline
 66
     1
 10
0.0
 20
0.0
 30
0.0
 70
     1
 40
0.5
 41
0.5
  0
VERTEX
  5
2C17
330
2C16
100
AcDbEntity
  8
0
  6
ByBlock
 62
     0
370
    -2
390
1D
100
AcDbVertex
100
AcDb2dVertex
 10
-0.25
 20
0.0
 30
0.0
 42
1.0
  0
VERTEX
  5
2C18
330
2C16
100
AcDbEntity
  8
0
  6
ByBlock
 62
     0
370
    -2
390
1D
100
AcDbVertex
100
AcDb2dVertex
 10
0.25
 20
0.0
 30
0.0
 42
1.0
  0
SEQEND
  5
2C19
330
2C16
100
AcDbEntity
  8
0
390
1D
  0
LINE
  5
2C1A
330
4E
100
AcDbEntity
  8
0
  6
ByBlock
 62
     0
370
    -2
390
1D
100
AcDbLine
 10
-0.5
 20
0.0
 30
0.0
 11
-1.0
 21
0.0
 31
0.0
  0
ENDBLK
  5
2C1B
330
4E
100
AcDbEntity
  8
0
390
1D
100
AcDbBlockEnd
  0
BLOCK
  5
3A6
330
3A5
100
AcDbEntity
  8
0
100
AcDbBlockBegin
  2
名称未設定-1
 70
     0
 10
0.0
 20
0.0
 30
0.0
  3
名称未設定-1
  1
名称未設定-1
  0
INSERT
  5
3A7
330
3A5
100
AcDbEntity
  8
レイヤー 1
100
AcDbBlockReference
  2
block 2
 10
0.0
 20
0.0
 30
0.0
  0
ENDBLK
  5
3CC
330
3A5
100
AcDbEntity
  8
0
100
AcDbBlockEnd
  0
BLOCK
  5
3A9
330
3A8
100
AcDbEntity
  8
0
100
AcDbBlockBegin
  2
block 2
 70
     0
 10
0.0
 20
0.0
 30
0.0
  3
block 2
  1
block 2
  0
INSERT
  5
3AA
330
3A8
100
AcDbEntity
  8
レイヤー 1
100
AcDbBlockReference
  2
block 3
 10
0.0
 20
0.0
 30
0.0
  0
ENDBLK
  5
3CB
330
3A8
100
AcDbEntity
  8
0
100
AcDbBlockEnd
  0
BLOCK
  5
3AC
330
3AB
100
AcDbEntity
  8
0
100
AcDbBlockBegin
  2
block 3
 70
     0
 10
0.0
 20
0.0
 30
0.0
  3
block 3
  1
block 3
  0
INSERT
  5
3AD
330
3AB
100
AcDbEntity
  8
レイヤー 1
100
AcDbBlockReference
  2
block 4
 10
0.0
 20
0.0
 30
0.0
  0
ENDBLK
  5
3CA
330
3AB
100
AcDbEntity
  8
0
100
AcDbBlockEnd
  0
BLOCK
  5
3AF
330
3AE
100
AcDbEntity
  8
0
100
AcDbBlockBegin
  2
block 4
 70
     0
 10
0.0
 20
0.0
 30
0.0
  3
block 4
  1
block 4
  0
POLYLINE
  5
3B0
330
3AE
100
AcDbEntity
  8
レイヤー 1
370
     0
100
AcDb2dPolyline
 66
     1
 10
0.0
 20
0.0
 30
0.0
  0
VERTEX
  5
3B1
330
3B0
100
AcDbEntity
  8
レイヤー 1
370
     0
100
AcDbVertex
100
AcDb2dVertex
 10
83.79545727667795
 20
167.6444858234922
 30
0.0
  0
VERTEX
  5
3B2
330
3B0
100
AcDbEntity
  8
レイヤー 1
370
     0
100
AcDbVertex
100
AcDb2dVertex
 10
83.79545727667795
 20
159.7968976406313
 30
0.0
  0
VERTEX
  5
3B3
330
3B0
100
AcDbEntity
  8
レイヤー 1
370
     0
100
AcDbVertex
100
AcDb2dVertex
 10
71.3631329975216
 20
159.7968976406313
 30
0.0
  0
VERTEX
  5
3B4
330
3B0
100
AcDbEntity
  8
レイヤー 1
370
     0
100
AcDbVertex
100
AcDb2dVertex
 10
71.3631329975216
 20
127.8027915271048
 30
0.0
  0
VERTEX
  5
3B5
330
3B0
100
AcDbEntity
  8
レイヤー 1
370
     0
100
AcDbVertex
100
AcDb2dVertex
 10
60.43011526263018
 20
127.8027915271048
 30
0.0
  0
VERTEX
  5
3B6
330
3B0
100
AcDbEntity
  8
レイヤー 1
370
     0
100
AcDbVertex
100
AcDb2dVertex
 10
60.43011526263018
 20
159.7968976406313
 30
0.0
  0
VERTEX
  5
3B7
330
3B0
100
AcDbEntity
  8
レイヤー 1
370
     0
100
AcDbVertex
100
AcDb2dVertex
 10
48.21793273020759
 20
159.7968976406313
 30
0.0
  0
VERTEX
  5
3B8
330
3B0
100
AcDbEntity
  8
レイヤー 1
370
     0
100
AcDbVertex
100
AcDb2dVertex
 10
48.21793273020759
 20
167.6444858234922
 30
0.0
  0
VERTEX
  5
3B9
330
3B0
100
AcDbEntity
  8
レイヤー 1
370
     0
100
AcDbVertex
100
AcDb2dVertex
 10
83.79545727667795
 20
167.6444858234922
 30
0.0
  0
SEQEND
  5
3BA
330
3B0
100
AcDbEntity
  8
レイヤー 1
370
     0
  0
HATCH
  5
3BB
330
3AE
100
AcDbEntity
  8
レイヤー 1
 62
   250
420
  2234388
100
AcDbHatch
 10
0.0
 20
0.0
 30
0.0
210
0.0
220
0.0
230
1.0
  2
SOLID
 70
     1
 71
     0
 91
        1
 92
        1
 93
        8
 72
     1
 10
83.79545727667795
 20
167.6444858234922
 11
83.79545727667795
 21
159.7968976406313
 72
     1
 10
83.79545727667795
 20
159.7968976406313
 11
71.3631329975216
 21
159.7968976406313
 72
     1
 10
71.3631329975216
 20
159.7968976406313
 11
71.3631329975216
 21
127.8027915271048
 72
     1
 10
71.3631329975216
 20
127.8027915271048
 11
60.43011526263018
 21
127.8027915271048
 72
     1
 10
60.43011526263018
 20
127.8027915271048
 11
60.43011526263018
 21
159.7968976406313
 72
     1
 10
60.43011526263018
 20
159.7968976406313
 11
48.21793273020759
 21
159.7968976406313
 72
     1
 10
48.21793273020759
 20
159.7968976406313
 11
48.21793273020759
 21
167.6444858234922
 72
     1
 10
48.21793273020759
 20
167.6444858234922
 11
83.79545727667795
 21
167.6444858234922
 97
        0
 75
     2
 76
     1
 98
        0
  0
INSERT
  5
3BC
330
3AE
100
AcDbEntity
  8
レイヤー 1
100
AcDbBlockReference
  2
block 5
 10
0.0
 20
0.0
 30
0.0
  0
ENDBLK
  5
3C9
330
3AE
100
AcDbEntity
  8
0
100
AcDbBlockEnd
  0
BLOCK
  5
3BE
330
3BD
100
AcDbEntity
  8
0
100
AcDbBlockBegin
  2
block 5
 70
     0
 10
0.0
 20
0.0
 30
0.0
  3
block 5
  1
block 5
  0
SPLINE
  5
3BF
330
3BD
100
AcDbEntity
  8
レイヤー 1
370
     0
100
AcDbSpline
210
0.0
220
0.0
230
1.0
 70
    11
 71
     3
 72
    56
 73
    52
 74
     0
 42
0.000000001
 43
0.0000000001
 40
0.0
 40
0.0
 40
0.0
 40
0.0
 40
1.0
 40
1.0
 40
1.0
 40
2.0
 40
2.0
 40
2.0
 40
3.0
 40
3.0
 40
3.0
 40
4.0
 40
4.0
 40
4.0
 40
5.0
 40
5.0
 40
5.0
 40
6.0
 40
6.0
 40
6.0
 40
7.0
 40
7.0
 40
7.0
 40
8.0
 40
8.0
 40
8.0
 40
9.0
 40
9.0
 40
9.0
 40
10.0
 40
10.0
 40
10.0
 40
11.0
 40
11.0
 40
11.0
 40
12.0
 40
12.0
 40
12.0
 40
13.0
 40
13.0
 40
13.0
 40
14.0
 40
14.0
 40
14.0
 40
15.0
 40
15.0
 40
15.0
 40
16.0
 40
16.0
 40
16.0
 40
17.0
 40
17.0
 40
17.0
 40
17.0
 10
100.4504378777679
 20
166.69157178364
 30
0.0
 10
101.9848844191641
 20
167.1313385124438
 30
0.0
 10
103.9637485713373
 20
166.7649523658846
 30
0.0
 10
103.9637485713373
 20
166.7649523658846
 30
0.0
 10
103.9637485713373
 20
166.7649523658846
 30
0.0
 10
103.0132460999156
 20
163.911205638077
 30
0.0
 10
103.0132460999156
 20
163.911205638077
 30
0.0
 10
103.0132460999156
 20
163.911205638077
 30
0.0
 10
101.0674548862189
 20
164.3601018759394
 30
0.0
 10
99.57090442016032
 20
163.1805004036133
 30
0.0
 10
98.40508333886608
 20
162.258247733807
 30
0.0
 10
97.65301849830304
 20
159.804132345923
 30
0.0
 10
97.3598406791005
 20
158.8699940888517
 30
0.0
 10
97.3598406791005
 20
158.8699940888517
 30
0.0
 10
96.07137411762282
 20
154.9119212747295
 30
0.0
 10
96.07137411762282
 20
154.9119212747295
 30
0.0
 10
96.07137411762282
 20
154.9119212747295
 30
0.0
 10
100.3012651448482
 20
154.9119212747295
 30
0.0
 10
100.3012651448482
 20
154.9119212747295
 30
0.0
 10
100.3012651448482
 20
154.9119212747295
 30
0.0
 10
99.64152892419852
 20
152.4199098115079
 30
0.0
 10
99.64152892419852
 20
152.4199098115079
 30
0.0
 10
99.64152892419852
 20
152.4199098115079
 30
0.0
 10
95.38097652692731
 20
152.4199098115079
 30
0.0
 10
95.38097652692731
 20
152.4199098115079
 30
0.0
 10
95.38097652692731
 20
152.4199098115079
 30
0.0
 10
87.75353009080013
 20
127.8027915271048
 30
0.0
 10
87.75353009080013
 20
127.8027915271048
 30
0.0
 10
87.75353009080013
 20
127.8027915271048
 30
0.0
 10
85.36538832498108
 20
127.8027915271048
 30
0.0
 10
85.36538832498108
 20
127.8027915271048
 30
0.0
 10
85.36538832498108
 20
127.8027915271048
 30
0.0
 10
93.00006946639998
 20
152.4199098115079
 30
0.0
 10
93.00006946639998
 20
152.4199098115079
 30
0.0
 10
93.00006946639998
 20
152.4199098115079
 30
0.0
 10
89.85297266450198
 20
152.4199098115079
 30
0.0
 10
89.85297266450198
 20
152.4199098115079
 30
0.0
 10
89.85297266450198
 20
152.4199098115079
 30
0.0
 10
90.51270888515164
 20
154.9119212747295
 30
0.0
 10
90.51270888515164
 20
154.9119212747295
 30
0.0
 10
90.51270888515164
 20
154.9119212747295
 30
0.0
 10
93.6904670570955
 20
154.9119212747295
 30
0.0
 10
93.6904670570955
 20
154.9119212747295
 30
0.0
 10
93.6904670570955
 20
154.9119212747295
 30
0.0
 10
94.81598049462158
 20
158.3616699146644
 30
0.0
 10
94.81598049462158
 20
158.3616699146644
 30
0.0
 10
95.7237637538445
 20
161.2605474231013
 30
0.0
 10
96.4968436907311
 20
162.8139420021662
 30
0.0
 10
97.15657991138076
 20
163.9844139654337
 30
0.0
 10
97.81183750494507
 20
165.1523021053827
 30
0.0
 10
99.1047826935081
 20
166.3084769129547
 30
0.0
 10
100.4504378777679
 20
166.69157178364
 30
0.0
  0
HATCH
  5
3C0
330
3BD
100
AcDbEntity
  8
レイヤー 1
 62
   250
420
  2234388
100
AcDbHatch
 10
0.0
 20
0.0
 30
0.0
210
0.0
220
0.0
230
1.0
  2
SOLID
 70
     1
 71
     0
 91
        1
 92
        1
 93
        1
 72
     4
 94
        3
 73
     0
 74
     1
 95
       56
 96
       52
 40
0.0
 40
0.0
 40
0.0
 40
0.0
 40
1.0
 40
1.0
 40
1.0
 40
2.0
 40
2.0
 40
2.0
 40
3.0
 40
3.0
 40
3.0
 40
4.0
 40
4.0
 40
4.0
 40
5.0
 40
5.0
 40
5.0
 40
6.0
 40
6.0
 40
6.0
 40
7.0
 40
7.0
 40
7.0
 40
8.0
 40
8.0
 40
8.0
 40
9.0
 40
9.0
 40
9.0
 40
10.0
 40
10.0
 40
10.0
 40
11.0
 40
11.0
 40
11.0
 40
12.0
 40
12.0
 40
12.0
 40
13.0
 40
13.0
 40
13.0
 40
14.0
 40
14.0
 40
14.0
 40
15.0
 40
15.0
 40
15.0
 40
16.0
 40
16.0
 40
16.0
 40
17.0
 40
17.0
 40
17.0
 40
17.0
 10
100.4504378777679
 20
166.69157178364
 10
101.9848844191641
 20
167.1313385124438
 10
103.9637485713373
 20
166.7649523658846
 10
103.9637485713373
 20
166.7649523658846
 10
103.9637485713373
 20
166.7649523658846
 10
103.0132460999156
 20
163.911205638077
 10
103.0132460999156
 20
163.911205638077
 10
103.0132460999156
 20
163.911205638077
 10
101.0674548862189
 20
164.3601018759394
 10
99.57090442016032
 20
163.1805004036133
 10
98.40508333886608
 20
162.258247733807
 10
97.65301849830304
 20
159.804132345923
 10
97.3598406791005
 20
158.8699940888517
 10
97.3598406791005
 20
158.8699940888517
 10
96.07137411762282
 20
154.9119212747295
 10
96.07137411762282
 20
154.9119212747295
 10
96.07137411762282
 20
154.9119212747295
 10
100.3012651448482
 20
154.9119212747295
 10
100.3012651448482
 20
154.9119212747295
 10
100.3012651448482
 20
154.9119212747295
 10
99.64152892419852
 20
152.4199098115079
 10
99.64152892419852
 20
152.4199098115079
 10
99.64152892419852
 20
152.4199098115079
 10
95.38097652692731
 20
152.4199098115079
 10
95.38097652692731
 20
152.4199098115079
 10
95.38097652692731
 20
152.4199098115079
 10
87.75353009080013
 20
127.8027915271048
 10
87.75353009080013
 20
127.8027915271048
 10
87.75353009080013
 20
127.8027915271048
 10
85.36538832498108
 20
127.8027915271048
 10
85.36538832498108
 20
127.8027915271048
 10
85.36538832498108
 20
127.8027915271048
 10
93.00006946639998
 20
152.4199098115079
 10
93.00006946639998
 20
152.4199098115079
 10
93.00006946639998
 20
152.4199098115079
 10
89.85297266450198
 20
152.4199098115079
 10
89.85297266450198
 20
152.4199098115079
 10
89.85297266450198
 20
152.4199098115079
 10
90.51270888515164
 20
154.9119212747295
 10
90.51270888515164
 20
154.9119212747295
 10
90.51270888515164
 20
154.9119212747295
 10
93.6904670570955
 20
154.9119212747295
 10
93.6904670570955
 20
154.9119212747295
 10
93.6904670570955
 20
154.9119212747295
 10
94.81598049462158
 20
158.3616699146644
 10
94.81598049462158
 20
158.3616699146644
 10
95.7237637538445
 20
161.2605474231013
 10
96.4968436907311
 20
162.8139420021662
 10
97.15657991138076
 20
163.9844139654337
 10
97.81183750494507
 20
165.1523021053827
 10
99.1047826935081
 20
166.3084769129547
 10
100.4504378777679
 20
166.69157178364
 97
        0
 75
     2
 76
     1
 98
        0
  0
SPLINE
  5
3C1
330
3BD
100
AcDbEntity
  8
レイヤー 1
370
     0
100
AcDbSpline
210
0.0
220
0.0
230
1.0
 70
    11
 71
     3
 72
    38
 73
    34
 74
     0
 42
0.000000001
 43
0.0000000001
 40
0.0
 40
0.0
 40
0.0
 40
0.0
 40
1.0
 40
1.0
 40
1.0
 40
2.0
 40
2.0
 40
2.0
 40
3.0
 40
3.0
 40
3.0
 40
4.0
 40
4.0
 40
4.0
 40
5.0
 40
5.0
 40
5.0
 40
6.0
 40
6.0
 40
6.0
 40
7.0
 40
7.0
 40
7.0
 40
8.0
 40
8.0
 40
8.0
 40
9.0
 40
9.0
 40
9.0
 40
10.0
 40
10.0
 40
10.0
 40
11.0
 40
11.0
 40
11.0
 40
11.0
 10
126.377554584636
 20
154.8151140277308
 30
0.0
 10
126.377554584636
 20
154.8151140277308
 30
0.0
 10
128.8311532078563
 20
154.8151140277308
 30
0.0
 10
128.8311532078563
 20
154.8151140277308
 30
0.0
 10
128.8311532078563
 20
154.8151140277308
 30
0.0
 10
127.7345785914971
 20
151.3062819612468
 30
0.0
 10
127.7345785914971
 20
151.3062819612468
 30
0.0
 10
128.571392836906
 20
152.2922689395754
 30
0.0
 10
129.8860421413442
 20
153.604506675583
 30
0.0
 10
131.0163787157314
 20
154.2664822097754
 30
0.0
 10
132.7044766171327
 20
155.2500576196734
 30
0.0
 10
133.6642808525008
 20
155.3847609420097
 30
0.0
 10
134.7284715499351
 20
155.3565111403944
 30
0.0
 10
134.7284715499351
 20
155.3565111403944
 30
0.0
 10
133.6877075172549
 20
152.0345756272799
 30
0.0
 10
133.6877075172549
 20
152.0345756272799
 30
0.0
 10
133.011434827367
 20
152.3184516825359
 30
0.0
 10
130.930940291334
 20
151.7768823149844
 30
0.0
 10
129.739280976855
 20
150.9162968950455
 30
0.0
 10
128.66613302525
 20
150.1454562717016
 30
0.0
 10
127.9192358313239
 20
149.4857200510519
 30
0.0
 10
127.0393578639405
 20
147.8282835196966
 30
0.0
 10
126.164647543194
 20
146.1699857139017
 30
0.0
 10
125.4742499524985
 20
143.5262176944419
 30
0.0
 10
124.2822461282437
 20
139.6959580071401
 30
0.0
 10
124.2822461282437
 20
139.6959580071401
 30
0.0
 10
120.5753209406769
 20
127.8027915271048
 30
0.0
 10
120.5753209406769
 20
127.8027915271048
 30
0.0
 10
120.5753209406769
 20
127.8027915271048
 30
0.0
 10
118.1964809388044
 20
127.8027915271048
 30
0.0
 10
118.1964809388044
 20
127.8027915271048
 30
0.0
 10
118.1964809388044
 20
127.8027915271048
 30
0.0
 10
126.377554584636
 20
154.8151140277308
 30
0.0
 10
126.377554584636
 20
154.8151140277308
 30
0.0
  0
HATCH
  5
3C2
330
3BD
100
AcDbEntity
  8
レイヤー 1
 62
   250
420
  2234388
100
AcDbHatch
 10
0.0
 20
0.0
 30
0.0
210
0.0
220
0.0
230
1.0
  2
SOLID
 70
     1
 71
     0
 91
        1
 92
        1
 93
        1
 72
     4
 94
        3
 73
     0
 74
     1
 95
       38
 96
       34
 40
0.0
 40
0.0
 40
0.0
 40
0.0
 40
1.0
 40
1.0
 40
1.0
 40
2.0
 40
2.0
 40
2.0
 40
3.0
 40
3.0
 40
3.0
 40
4.0
 40
4.0
 40
4.0
 40
5.0
 40
5.0
 40
5.0
 40
6.0
 40
6.0
 40
6.0
 40
7.0
 40
7.0
 40
7.0
 40
8.0
 40
8.0
 40
8.0
 40
9.0
 40
9.0
 40
9.0
 40
10.0
 40
10.0
 40
10.0
 40
11.0
 40
11.0
 40
11.0
 40
11.0
 10
126.377554584636
 20
154.8151140277308
 10
126.377554584636
 20
154.8151140277308
 10
128.8311532078563
 20
154.8151140277308
 10
128.8311532078563
 20
154.8151140277308
 10
128.8311532078563
 20
154.8151140277308
 10
127.7345785914971
 20
151.3062819612468
 10
127.7345785914971
 20
151.3062819612468
 10
128.571392836906
 20
152.2922689395754
 10
129.8860421413442
 20
153.604506675583
 10
131.0163787157314
 20
154.2664822097754
 10
132.7044766171327
 20
155.2500576196734
 10
133.6642808525008
 20
155.3847609420097
 10
134.7284715499351
 20
155.3565111403944
 10
134.7284715499351
 20
155.3565111403944
 10
133.6877075172549
 20
152.0345756272799
 10
133.6877075172549
 20
152.0345756272799
 10
133.011434827367
 20
152.3184516825359
 10
130.930940291334
 20
151.7768823149844
 10
129.739280976855
 20
150.9162968950455
 10
128.66613302525
 20
150.1454562717016
 10
127.9192358313239
 20
149.4857200510519
 10
127.0393578639405
 20
147.8282835196966
 10
126.164647543194
 20
146.1699857139017
 10
125.4742499524985
 20
143.5262176944419
 10
124.2822461282437
 20
139.6959580071401
 10
124.2822461282437
 20
139.6959580071401
 10
120.5753209406769
 20
127.8027915271048
 10
120.5753209406769
 20
127.8027915271048
 10
120.5753209406769
 20
127.8027915271048
 10
118.1964809388044
 20
127.8027915271048
 10
118.1964809388044
 20
127.8027915271048
 10
118.1964809388044
 20
127.8027915271048
 10
126.377554584636
 20
154.8151140277308
 10
126.377554584636
 20
154.8151140277308
 97
        0
 75
     2
 76
     1
 98
        0
  0
SPLINE
  5
3C3
330
3BD
100
AcDbEntity
  8
レイヤー 1
370
     0
100
AcDbSpline
210
0.0
220
0.0
230
1.0
 70
    11
 71
     3
 72
   104
 73
   100
 74
     0
 42
0.000000001
 43
0.0000000001
 40
0.0
 40
0.0
 40
0.0
 40
0.0
 40
1.0
 40
1.0
 40
1.0
 40
2.0
 40
2.0
 40
2.0
 40
3.0
 40
3.0
 40
3.0
 40
4.0
 40
4.0
 40
4.0
 40
5.0
 40
5.0
 40
5.0
 40
6.0
 40
6.0
 40
6.0
 40
7.0
 40
7.0
 40
7.0
 40
8.0
 40
8.0
 40
8.0
 40
9.0
 40
9.0
 40
9.0
 40
10.0
 40
10.0
 40
10.0
 40
11.0
 40
11.0
 40
11.0
 40
12.0
 40
12.0
 40
12.0
 40
13.0
 40
13.0
 40
13.0
 40
14.0
 40
14.0
 40
14.0
 40
15.0
 40
15.0
 40
15.0
 40
16.0
 40
16.0
 40
16.0
 40
17.0
 40
17.0
 40
17.0
 40
18.0
 40
18.0
 40
18.0
 40
19.0
 40
19.0
 40
19.0
 40
20.0
 40
20.0
 40
20.0
 40
21.0
 40
21.0
 40
21.0
 40
22.0
 40
22.0
 40
22.0
 40
23.0
 40
23.0
 40
23.0
 40
24.0
 40
24.0
 40
24.0
 40
25.0
 40
25.0
 40
25.0
 40
26.0
 40
26.0
 40
26.0
 40
27.0
 40
27.0
 40
27.0
 40
28.0
 40
28.0
 40
28.0
 40
29.0
 40
29.0
 40
29.0
 40
30.0
 40
30.0
 40
30.0
 40
31.0
 40
31.0
 40
31.0
 40
32.0
 40
32.0
 40
32.0
 40
33.0
 40
33.0
 40
33.0
 40
33.0
 10
139.8926730891197
 20
154.8294111834263
 30
0.0
 10
139.8926730891197
 20
154.8294111834263
 30
0.0
 10
142.0344903652445
 20
154.8294111834263
 30
0.0
 10
142.0344903652445
 20
154.8294111834263
 30
0.0
 10
142.0344903652445
 20
154.8294111834263
 30
0.0
 10
140.9516961399171
 20
151.3157559800812
 30
0.0
 10
140.9516961399171
 20
151.3157559800812
 30
0.0
 10
141.8928968473923
 20
152.7887075264977
 30
0.0
 10
142.7341897198865
 20
153.4484437471474
 30
0.0
 10
143.8552245303272
 20
154.2926649527359
 30
0.0
 10
144.9803934580775
 20
155.1296514530327
 30
0.0
 10
146.3139908001845
 20
155.3044901642492
 30
0.0
 10
147.241066606852
 20
155.3044901642492
 30
0.0
 10
148.3855280820469
 20
155.3044901642492
 30
0.0
 10
149.4969166187653
 20
155.0752189084569
 30
0.0
 10
150.0784491203092
 20
153.8172414621372
 30
0.0
 10
150.5228667310863
 20
152.833838307127
 30
0.0
 10
150.5414702589793
 20
152.7201500811143
 30
0.0
 10
150.4140016419347
 20
150.7765981809602
 30
0.0
 10
151.5818897818837
 20
152.7699317437168
 30
0.0
 10
152.4424752018226
 20
153.6256940267945
 30
0.0
 10
153.9038856707499
 20
154.4507949398263
 30
0.0
 10
155.4455669174378
 20
155.3044901642492
 30
0.0
 10
156.339225275853
 20
155.3659851592288
 30
0.0
 10
157.3748216618963
 20
155.2147453676543
 30
0.0
 10
158.911679771723
 20
154.9877134254046
 30
0.0
 10
159.8859534176746
 20
154.4390816074493
 30
0.0
 10
160.3965169054045
 20
152.7816450760939
 30
0.0
 10
160.9070803931344
 20
151.1219692311958
 30
0.0
 10
160.6328506116007
 20
150.2303779314354
 30
0.0
 10
159.9992971339115
 20
147.597634224801
 30
0.0
 10
159.7105979417943
 20
146.4014962832367
 30
0.0
 10
159.2947746424084
 20
144.9400858143094
 30
0.0
 10
158.7463150793409
 20
143.2092687007094
 30
0.0
 10
158.7463150793409
 20
143.2092687007094
 30
0.0
 10
153.9038856707499
 20
127.8027915271048
 30
0.0
 10
153.9038856707499
 20
127.8027915271048
 30
0.0
 10
153.9038856707499
 20
127.8027915271048
 30
0.0
 10
151.3882752878863
 20
127.8027915271048
 30
0.0
 10
151.3882752878863
 20
127.8027915271048
 30
0.0
 10
151.3882752878863
 20
127.8027915271048
 30
0.0
 10
155.6250565106276
 20
141.2751908193897
 30
0.0
 10
155.6250565106276
 20
141.2751908193897
 30
0.0
 10
156.5094131050963
 20
144.0936252951782
 30
0.0
 10
157.109893644309
 20
146.1506931664571
 30
0.0
 10
157.4220195011804
 20
147.4415712963654
 30
0.0
 10
157.8095929989511
 20
149.0530157726519
 30
0.0
 10
157.9656559273867
 20
149.5826995529385
 30
0.0
 10
157.7816877071116
 20
150.7529992613181
 30
0.0
 10
157.6111553680925
 20
151.8430281919372
 30
0.0
 10
157.0582171779396
 20
152.5547853887321
 30
0.0
 10
156.1170164704645
 20
152.5547853887321
 30
0.0
 10
155.1096698860365
 20
152.5547853887321
 30
0.0
 10
154.2962823053817
 20
152.4412694176073
 30
0.0
 10
153.156643967048
 20
151.2945686288697
 30
0.0
 10
152.0170056287143
 20
150.1476955852443
 30
0.0
 10
151.076149431015
 20
148.7930831468137
 30
0.0
 10
150.3337308641742
 20
147.2290087646991
 30
0.0
 10
149.5957909244188
 20
145.6683794803425
 30
0.0
 10
148.8530278478023
 20
143.6822806228776
 30
0.0
 10
148.0964843801539
 20
141.2751908193897
 30
0.0
 10
148.0964843801539
 20
141.2751908193897
 30
0.0
 10
143.8552245303272
 20
127.8027915271048
 30
0.0
 10
143.8552245303272
 20
127.8027915271048
 30
0.0
 10
143.8552245303272
 20
127.8027915271048
 30
0.0
 10
141.486030802177
 20
127.8027915271048
 30
0.0
 10
141.486030802177
 20
127.8027915271048
 30
0.0
 10
141.486030802177
 20
127.8027915271048
 30
0.0
 10
146.3329388378533
 20
143.2092687007094
 30
0.0
 10
146.3329388378533
 20
143.2092687007094
 30
0.0
 10
146.8483254624444
 20
144.8408669988801
 30
0.0
 10
147.2314203331297
 20
146.1837661049335
 30
0.0
 10
147.4867020769946
 20
147.224185627838
 30
0.0
 10
147.9169947869641
 20
149.0197705792876
 30
0.0
 10
148.0306830129768
 20
150.2400242051577
 30
0.0
 10
147.709255392159
 20
151.3157559800812
 30
0.0
 10
147.3874832615654
 20
152.3916600098926
 30
0.0
 10
146.8245542879144
 20
152.6683013598569
 30
0.0
 10
145.8840425999909
 20
152.6683013598569
 30
0.0
 10
145.0989048209514
 20
152.6683013598569
 30
0.0
 10
144.3282364524954
 20
152.3275811915945
 30
0.0
 10
143.4531816219731
 20
151.6538923250251
 30
0.0
 10
142.34627171234
 20
150.8074318058939
 30
0.0
 10
141.901854101563
 20
150.1097995099067
 30
0.0
 10
141.3578731655808
 20
149.289521733736
 30
0.0
 10
140.6299240093235
 20
148.192602607601
 30
0.0
 10
140.2850697237515
 20
147.455696197173
 30
0.0
 10
139.6652966370942
 20
145.8385673095858
 30
0.0
 10
139.0506911970739
 20
144.2214384219986
 30
0.0
 10
138.463991048893
 20
142.3252566160164
 30
0.0
 10
138.0571250036777
 20
141.0154304484394
 30
0.0
 10
138.0571250036777
 20
141.0154304484394
 30
0.0
 10
133.9009590684727
 20
127.8027915271048
 30
0.0
 10
133.9009590684727
 20
127.8027915271048
 30
0.0
 10
133.9009590684727
 20
127.8027915271048
 30
0.0
 10
131.4180771143097
 20
127.8027915271048
 30
0.0
 10
131.4180771143097
 20
127.8027915271048
 30
0.0
 10
131.4180771143097
 20
127.8027915271048
 30
0.0
 10
139.8926730891197
 20
154.8294111834263
 30
0.0
 10
139.8926730891197
 20
154.8294111834263
 30
0.0
  0
HATCH
  5
3C4
330
3BD
100
AcDbEntity
  8
レイヤー 1
 62
   250
420
  2234388
100
AcDbHatch
 10
0.0
 20
0.0
 30
0.0
210
0.0
220
0.0
230
1.0
  2
SOLID
 70
     1
 71
     0
 91
        1
 92
        1
 93
        1
 72
     4
 94
        3
 73
     0
 74
     1
 95
      104
 96
      100
 40
0.0
 40
0.0
 40
0.0
 40
0.0
 40
1.0
 40
1.0
 40
1.0
 40
2.0
 40
2.0
 40
2.0
 40
3.0
 40
3.0
 40
3.0
 40
4.0
 40
4.0
 40
4.0
 40
5.0
 40
5.0
 40
5.0
 40
6.0
 40
6.0
 40
6.0
 40
7.0
 40
7.0
 40
7.0
 40
8.0
 40
8.0
 40
8.0
 40
9.0
 40
9.0
 40
9.0
 40
10.0
 40
10.0
 40
10.0
 40
11.0
 40
11.0
 40
11.0
 40
12.0
 40
12.0
 40
12.0
 40
13.0
 40
13.0
 40
13.0
 40
14.0
 40
14.0
 40
14.0
 40
15.0
 40
15.0
 40
15.0
 40
16.0
 40
16.0
 40
16.0
 40
17.0
 40
17.0
 40
17.0
 40
18.0
 40
18.0
 40
18.0
 40
19.0
 40
19.0
 40
19.0
 40
20.0
 40
20.0
 40
20.0
 40
21.0
 40
21.0
 40
21.0
 40
22.0
 40
22.0
 40
22.0
 40
23.0
 40
23.0
 40
23.0
 40
24.0
 40
24.0
 40
24.0
 40
25.0
 40
25.0
 40
25.0
 40
26.0
 40
26.0
 40
26.0
 40
27.0
 40
27.0
 40
27.0
 40
28.0
 40
28.0
 40
28.0
 40
29.0
 40
29.0
 40
29.0
 40
30.0
 40
30.0
 40
30.0
 40
31.0
 40
31.0
 40
31.0
 40
32.0
 40
32.0
 40
32.0
 40
33.0
 40
33.0
 40
33.0
 40
33.0
 10
139.8926730891197
 20
154.8294111834263
 10
139.8926730891197
 20
154.8294111834263
 10
142.0344903652445
 20
154.8294111834263
 10
142.0344903652445
 20
154.8294111834263
 10
142.0344903652445
 20
154.8294111834263
 10
140.9516961399171
 20
151.3157559800812
 10
140.9516961399171
 20
151.3157559800812
 10
141.8928968473923
 20
152.7887075264977
 10
142.7341897198865
 20
153.4484437471474
 10
143.8552245303272
 20
154.2926649527359
 10
144.9803934580775
 20
155.1296514530327
 10
146.3139908001845
 20
155.3044901642492
 10
147.241066606852
 20
155.3044901642492
 10
148.3855280820469
 20
155.3044901642492
 10
149.4969166187653
 20
155.0752189084569
 10
150.0784491203092
 20
153.8172414621372
 10
150.5228667310863
 20
152.833838307127
 10
150.5414702589793
 20
152.7201500811143
 10
150.4140016419347
 20
150.7765981809602
 10
151.5818897818837
 20
152.7699317437168
 10
152.4424752018226
 20
153.6256940267945
 10
153.9038856707499
 20
154.4507949398263
 10
155.4455669174378
 20
155.3044901642492
 10
156.339225275853
 20
155.3659851592288
 10
157.3748216618963
 20
155.2147453676543
 10
158.911679771723
 20
154.9877134254046
 10
159.8859534176746
 20
154.4390816074493
 10
160.3965169054045
 20
152.7816450760939
 10
160.9070803931344
 20
151.1219692311958
 10
160.6328506116007
 20
150.2303779314354
 10
159.9992971339115
 20
147.597634224801
 10
159.7105979417943
 20
146.4014962832367
 10
159.2947746424084
 20
144.9400858143094
 10
158.7463150793409
 20
143.2092687007094
 10
158.7463150793409
 20
143.2092687007094
 10
153.9038856707499
 20
127.8027915271048
 10
153.9038856707499
 20
127.8027915271048
 10
153.9038856707499
 20
127.8027915271048
 10
151.3882752878863
 20
127.8027915271048
 10
151.3882752878863
 20
127.8027915271048
 10
151.3882752878863
 20
127.8027915271048
 10
155.6250565106276
 20
141.2751908193897
 10
155.6250565106276
 20
141.2751908193897
 10
156.5094131050963
 20
144.0936252951782
 10
157.109893644309
 20
146.1506931664571
 10
157.4220195011804
 20
147.4415712963654
 10
157.8095929989511
 20
149.0530157726519
 10
157.9656559273867
 20
149.5826995529385
 10
157.7816877071116
 20
150.7529992613181
 10
157.6111553680925
 20
151.8430281919372
 10
157.0582171779396
 20
152.5547853887321
 10
156.1170164704645
 20
152.5547853887321
 10
155.1096698860365
 20
152.5547853887321
 10
154.2962823053817
 20
152.4412694176073
 10
153.156643967048
 20
151.2945686288697
 10
152.0170056287143
 20
150.1476955852443
 10
151.076149431015
 20
148.7930831468137
 10
150.3337308641742
 20
147.2290087646991
 10
149.5957909244188
 20
145.6683794803425
 10
148.8530278478023
 20
143.6822806228776
 10
148.0964843801539
 20
141.2751908193897
 10
148.0964843801539
 20
141.2751908193897
 10
143.8552245303272
 20
127.8027915271048
 10
143.8552245303272
 20
127.8027915271048
 10
143.8552245303272
 20
127.8027915271048
 10
141.486030802177
 20
127.8027915271048
 10
141.486030802177
 20
127.8027915271048
 10
141.486030802177
 20
127.8027915271048
 10
146.3329388378533
 20
143.2092687007094
 10
146.3329388378533
 20
143.2092687007094
 10
146.8483254624444
 20
144.8408669988801
 10
147.2314203331297
 20
146.1837661049335
 10
147.4867020769946
 20
147.224185627838
 10
147.9169947869641
 20
149.0197705792876
 10
148.0306830129768
 20
150.2400242051577
 10
147.709255392159
 20
151.3157559800812
 10
147.3874832615654
 20
152.3916600098926
 10
146.8245542879144
 20
152.6683013598569
 10
145.8840425999909
 20
152.6683013598569
 10
145.0989048209514
 20
152.6683013598569
 10
144.3282364524954
 20
152.3275811915945
 10
143.4531816219731
 20
151.6538923250251
 10
142.34627171234
 20
150.8074318058939
 10
141.901854101563
 20
150.1097995099067
 10
141.3578731655808
 20
149.289521733736
 10
140.6299240093235
 20
148.192602607601
 10
140.2850697237515
 20
147.455696197173
 10
139.6652966370942
 20
145.8385673095858
 10
139.0506911970739
 20
144.2214384219986
 10
138.463991048893
 20
142.3252566160164
 10
138.0571250036777
 20
141.0154304484394
 10
138.0571250036777
 20
141.0154304484394
 10
133.9009590684727
 20
127.8027915271048
 10
133.9009590684727
 20
127.8027915271048
 10
133.9009590684727
 20
127.8027915271048
 10
131.4180771143097
 20
127.8027915271048
 10
131.4180771143097
 20
127.8027915271048
 10
131.4180771143097
 20
127.8027915271048
 10
139.8926730891197
 20
154.8294111834263
 10
139.8926730891197
 20
154.8294111834263
 97
        0
 75
     2
 76
     1
 98
        0
  0
SPLINE
  5
3C5
330
3BD
100
AcDbEntity
  8
レイヤー 1
370
     0
100
AcDbSpline
210
0.0
220
0.0
230
1.0
 70
    11
 71
     3
 72
    29
 73
    25
 74
     0
 42
0.000000001
 43
0.0000000001
 40
0.0
 40
0.0
 40
0.0
 40
0.0
 40
1.0
 40
1.0
 40
1.0
 40
2.0
 40
2.0
 40
2.0
 40
3.0
 40
3.0
 40
3.0
 40
4.0
 40
4.0
 40
4.0
 40
5.0
 40
5.0
 40
5.0
 40
6.0
 40
6.0
 40
6.0
 40
7.0
 40
7.0
 40
7.0
 40
8.0
 40
8.0
 40
8.0
 40
8.0
 10
101.6420971922469
 20
132.8388354296931
 30
0.0
 10
101.630039350094
 20
134.7164137077823
 30
0.0
 10
102.2236296937908
 20
138.0598810818841
 30
0.0
 10
103.7487744712405
 20
142.5378191476827
 30
0.0
 10
105.819967243327
 20
148.5896501242061
 30
0.0
 10
107.0602024361932
 20
150.8074318058939
 30
0.0
 10
108.1522984254671
 20
151.8833358357054
 30
0.0
 10
109.741177511439
 20
153.4532668840085
 30
0.0
 10
111.8740375333931
 20
153.5290590346837
 30
0.0
 10
112.5075910110823
 20
153.4532668840085
 30
0.0
 10
113.4012493694975
 20
153.3490526768302
 30
0.0
 10
114.6683563248758
 20
152.7580461564518
 30
0.0
 10
114.7493161221879
 20
150.7838328862519
 30
0.0
 10
114.8106388622796
 20
149.0909118479895
 30
0.0
 10
114.3186789024427
 20
145.9191825971221
 30
0.0
 10
112.6164561002338
 20
140.9489400617108
 30
0.0
 10
110.6444821435766
 20
135.1746117095912
 30
0.0
 10
109.4669477299053
 20
132.8960240524753
 30
0.0
 10
108.5212683953448
 20
131.9072809959403
 30
0.0
 10
106.7346406980658
 20
130.0538184021569
 30
0.0
 10
104.8222669326213
 20
130.2336525051225
 30
0.0
 10
104.5408024457958
 20
130.2336525051225
 30
0.0
 10
104.1721769856939
 20
130.2336525051225
 30
0.0
 10
101.6465758193322
 20
130.6305277668397
 30
0.0
 10
101.6420971922469
 20
132.8388354296931
 30
0.0
  0
SPLINE
  5
3C6
330
3BD
100
AcDbEntity
  8
レイヤー 1
370
     0
100
AcDbSpline
210
0.0
220
0.0
230
1.0
 70
    11
 71
     3
 72
    32
 73
    28
 74
     0
 42
0.000000001
 43
0.0000000001
 40
0.0
 40
0.0
 40
0.0
 40
0.0
 40
1.0
 40
1.0
 40
1.0
 40
2.0
 40
2.0
 40
2.0
 40
3.0
 40
3.0
 40
3.0
 40
4.0
 40
4.0
 40
4.0
 40
5.0
 40
5.0
 40
5.0
 40
6.0
 40
6.0
 40
6.0
 40
7.0
 40
7.0
 40
7.0
 40
8.0
 40
8.0
 40
8.0
 40
9.0
 40
9.0
 40
9.0
 40
9.0
 10
106.2595617172429
 20
153.4105476718098
 30
0.0
 10
104.8222669326213
 20
151.5474388043041
 30
0.0
 10
103.7177685914188
 20
149.8758773721411
 30
0.0
 10
101.9232171692965
 20
144.6141795664062
 30
0.0
 10
100.2754269116635
 20
139.7999999594306
 30
0.0
 10
99.22777268346732
 20
136.3052927937542
 30
0.0
 10
99.06964269637689
 20
132.039572749846
 30
0.0
 10
98.94665270641765
 20
128.8673267343149
 30
0.0
 10
100.8807305877373
 20
127.8027915271048
 30
0.0
 10
103.7129454545577
 20
127.8027915271048
 30
0.0
 10
104.9352661390825
 20
127.8027915271048
 30
0.0
 10
108.0151835347002
 20
127.8827177950895
 30
0.0
 10
110.2045431598849
 20
130.5926316915021
 30
0.0
 10
111.7417457794874
 20
132.4984597712065
 30
0.0
 10
113.155269389579
 20
134.475256864725
 30
0.0
 10
115.0562743324223
 20
140.9489400617108
 30
0.0
 10
116.6361961642235
 20
146.3680788349845
 30
0.0
 10
117.7282921534974
 20
149.8639917848761
 30
0.0
 10
117.6480213757369
 20
151.8595646611754
 30
0.0
 10
117.6480213757369
 20
151.8595646611754
 30
0.0
 10
117.6480213757369
 20
151.8595646611754
 30
0.0
 10
117.6480213757369
 20
151.8595646611754
 30
0.0
 10
117.13229024137
 20
155.18150017429
 30
0.0
 10
114.7162431837115
 20
155.886194920681
 30
0.0
 10
113.3351034925446
 20
155.886194920681
 30
0.0
 10
111.9829026225447
 20
155.886194920681
 30
0.0
 10
108.3414342923792
 20
156.1251124501957
 30
0.0
 10
106.2595617172429
 20
153.4105476718098
 30
0.0
  0
HATCH
  5
3C7
330
3BD
100
AcDbEntity
  8
レイヤー 1
 62
   250
420
  2234388
100
AcDbHatch
 10
0.0
 20
0.0
 30
0.0
210
0.0
220
0.0
230
1.0
  2
SOLID
 70
     1
 71
     0
 91
        2
 92
        1
 93
        1
 72
     4
 94
        3
 73
     0
 74
     1
 95
       29
 96
       25
 40
0.0
 40
0.0
 40
0.0
 40
0.0
 40
1.0
 40
1.0
 40
1.0
 40
2.0
 40
2.0
 40
2.0
 40
3.0
 40
3.0
 40
3.0
 40
4.0
 40
4.0
 40
4.0
 40
5.0
 40
5.0
 40
5.0
 40
6.0
 40
6.0
 40
6.0
 40
7.0
 40
7.0
 40
7.0
 40
8.0
 40
8.0
 40
8.0
 40
8.0
 10
101.6420971922469
 20
132.8388354296931
 10
101.630039350094
 20
134.7164137077823
 10
102.2236296937908
 20
138.0598810818841
 10
103.7487744712405
 20
142.5378191476827
 10
105.819967243327
 20
148.5896501242061
 10
107.0602024361932
 20
150.8074318058939
 10
108.1522984254671
 20
151.8833358357054
 10
109.741177511439
 20
153.4532668840085
 10
111.8740375333931
 20
153.5290590346837
 10
112.5075910110823
 20
153.4532668840085
 10
113.4012493694975
 20
153.3490526768302
 10
114.6683563248758
 20
152.7580461564518
 10
114.7493161221879
 20
150.7838328862519
 10
114.8106388622796
 20
149.0909118479895
 10
114.3186789024427
 20
145.9191825971221
 10
112.6164561002338
 20
140.9489400617108
 10
110.6444821435766
 20
135.1746117095912
 10
109.4669477299053
 20
132.8960240524753
 10
108.5212683953448
 20
131.9072809959403
 10
106.7346406980658
 20
130.0538184021569
 10
104.8222669326213
 20
130.2336525051225
 10
104.5408024457958
 20
130.2336525051225
 10
104.1721769856939
 20
130.2336525051225
 10
101.6465758193322
 20
130.6305277668397
 10
101.6420971922469
 20
132.8388354296931
 97
        0
 92
        1
 93
        1
 72
     4
 94
        3
 73
     0
 74
     1
 95
       32
 96
       28
 40
0.0
 40
0.0
 40
0.0
 40
0.0
 40
1.0
 40
1.0
 40
1.0
 40
2.0
 40
2.0
 40
2.0
 40
3.0
 40
3.0
 40
3.0
 40
4.0
 40
4.0
 40
4.0
 40
5.0
 40
5.0
 40
5.0
 40
6.0
 40
6.0
 40
6.0
 40
7.0
 40
7.0
 40
7.0
 40
8.0
 40
8.0
 40
8.0
 40
9.0
 40
9.0
 40
9.0
 40
9.0
 10
106.2595617172429
 20
153.4105476718098
 10
104.8222669326213
 20
151.5474388043041
 10
103.7177685914188
 20
149.8758773721411
 10
101.9232171692965
 20
144.6141795664062
 10
100.2754269116635
 20
139.7999999594306
 10
99.22777268346732
 20
136.3052927937542
 10
99.06964269637689
 20
132.039572749846
 10
98.94665270641765
 20
128.8673267343149
 10
100.8807305877373
 20
127.8027915271048
 10
103.7129454545577
 20
127.8027915271048
 10
104.9352661390825
 20
127.8027915271048
 10
108.0151835347002
 20
127.8827177950895
 10
110.2045431598849
 20
130.5926316915021
 10
111.7417457794874
 20
132.4984597712065
 10
113.155269389579
 20
134.475256864725
 10
115.0562743324223
 20
140.9489400617108
 10
116.6361961642235
 20
146.3680788349845
 10
117.7282921534974
 20
149.8639917848761
 10
117.6480213757369
 20
151.8595646611754
 10
117.6480213757369
 20
151.8595646611754
 10
117.6480213757369
 20
151.8595646611754
 10
117.6480213757369
 20
151.8595646611754
 10
117.13229024137
 20
155.18150017429
 10
114.7162431837115
 20
155.886194920681
 10
113.3351034925446
 20
155.886194920681
 10
111.9829026225447
 20
155.886194920681
 10
108.3414342923792
 20
156.1251124501957
 10
106.2595617172429
 20
153.4105476718098
 97
        0
 75
     2
 76
     1
 98
        0
  0
ENDBLK
  5
3C8
330
3BD
100
AcDbEntity
  8
0
100
AcDbBlockEnd
  0
BLOCK
  5
11F1
330
11F0
100
AcDbEntity
  8
0
100
AcDbBlockBegin
  2
BLOCK_2
 70
     0
 10
0.0
 20
0.0
 30
0.0
  3
BLOCK_2
  1
BLOCK_2
  0
ENDBLK
  5
11F2
330
11F0
100
AcDbEntity
  8
0
100
AcDbBlockEnd
  0
BLOCK
  5
38B7
330
38B6
100
AcDbEntity
  8
0
100
AcDbBlockBegin
  2
mobile_latù
 70
     0
 10
0.0
 20
0.0
 30
0.0
  3
mobile_latù
  1
mobile_latù
  0
ENDBLK
  5
38B8
330
38B6
100
AcDbEntity
  8
0
100
AcDbBlockEnd
  0
BLOCK
  5
503A
330
5039
100
AcDbEntity
  8
0
100
AcDbBlockBegin
  2
.TD_SECTION_1
 70
     0
 10
225818116096.0
 20
0.0
 30
0.0
  3
.TD_SECTION_1
  1

  0
ENDBLK
  5
503B
330
5039
100
AcDbEntity
  8
0
100
AcDbBlockEnd
  0
BLOCK
  5
503E
330
503D
100
AcDbEntity
  8
0
100
AcDbBlockBegin
  2
.TD_SECTION_2
 70
     0
 10
225818181632.0
 20
0.0
 30
0.0
  3
.TD_SECTION_2
  1

  0
ENDBLK
  5
503F
330
503D
100
AcDbEntity
  8
0
100
AcDbBlockEnd
  0
BLOCK
  5
BB95
330
BB94
100
AcDbEntity
  8
0
100
AcDbBlockBegin
  2
*D10
 70
     1
 10
0.0
 20
0.0
 30
0.0
  3
*D10
  1

  0
LINE
  5
BB97
330
BB94
100
AcDbEntity
  8
Dim
 62
     0
370
    -2
100
AcDbLine
 10
510.3015634502052
 20
2328.642179232363
 30
0.0
 11
510.3015634502052
 21
2423.031681193327
 31
0.0
  0
LINE
  5
BB98
330
BB94
100
AcDbEntity
  8
Dim
 62
     0
370
    -2
100
AcDbLine
 10
610.3015634502052
 20
2328.642179232363
 30
0.0
 11
610.3015634502052
 21
2423.031681193327
 31
0.0
  0
LINE
  5
BB99
330
BB94
100
AcDbEntity
  8
Dim
 62
     0
370
    -2
100
AcDbLine
 10
520.3009530986427
 20
2423.031681193327
 30
0.0
 11
600.3021738017677
 21
2423.031681193327
 31
0.0
  0
INSERT
  5
BB9A
330
BB94
100
AcDbEntity
  8
Dim
 62
     0
370
    -2
100
AcDbBlockReference
  2
_DOT
 10
510.3015634502052
 20
2423.031681193327
 30
0.0
 41
9.999389648437498
 42
9.999389648437498
 43
9.999389648437498
 50
180.0
  0
INSERT
  5
BB9B
330
BB94
100
AcDbEntity
  8
Dim
 62
     0
370
    -2
100
AcDbBlockReference
  2
_DOT
 10
610.3015634502052
 20
2423.031681193327
 30
0.0
 41
9.999389648437498
 42
9.999389648437498
 43
9.999389648437498
  0
MTEXT
  5
BB9C
330
BB94
100
AcDbEntity
  8
Dim
 62
     0
100
AcDbMText
 10
560.3015634502052
 20
2445.252572621363
 30
0.0
 40
24.4326171875
 41
0.0
 46
0.0
 71
     5
 72
     1
  1
\A1;100
  7
ＭＳ ゴシック
 73
     1
 44
1.0
  0
POINT
  5
BB9D
330
BB94
100
AcDbEntity
  8
Defpoints
 62
     0
100
AcDbPoint
 10
510.3015634502052
 20
2303.642179232363
 30
0.0
  0
POINT
  5
BB9E
330
BB94
100
AcDbEntity
  8
Defpoints
 62
     0
100
AcDbPoint
 10
610.3015634502052
 20
2303.642179232363
 30
0.0
  0
POINT
  5
BB9F
330
BB94
100
AcDbEntity
  8
Defpoints
 62
     0
100
AcDbPoint
 10
610.3015634502052
 20
2423.031681193327
 30
0.0
  0
ENDBLK
  5
BB96
330
BB94
100
AcDbEntity
  8
0
100
AcDbBlockEnd
  0
BLOCK
  5
BBA1
330
BBA0
100
AcDbEntity
  8
0
100
AcDbBlockBegin
  2
*D11
 70
     1
 10
0.0
 20
0.0
 30
0.0
  3
*D11
  1

  0
LINE
  5
BBA3
330
BBA0
100
AcDbEntity
  8
Dim
 62
     0
370
    -2
100
AcDbLine
 10
610.3015634502052
 20
2328.642179232363
 30
0.0
 11
610.3015634502052
 21
2423.031681193327
 31
0.0
  0
LINE
  5
BBA4
330
BBA0
100
AcDbEntity
  8
Dim
 62
     0
370
    -2
100
AcDbLine
 10
710.3015634502053
 20
2328.642179232363
 30
0.0
 11
710.3015634502053
 21
2423.031681193327
 31
0.0
  0
LINE
  5
BBA5
330
BBA0
100
AcDbEntity
  8
Dim
 62
     0
370
    -2
100
AcDbLine
 10
620.3009530986427
 20
2423.031681193327
 30
0.0
 11
700.3021738017678
 21
2423.031681193327
 31
0.0
  0
INSERT
  5
BBA6
330
BBA0
100
AcDbEntity
  8
Dim
 62
     0
370
    -2
100
AcDbBlockReference
  2
_DOT
 10
610.3015634502052
 20
2423.031681193327
 30
0.0
 41
9.999389648437498
 42
9.999389648437498
 43
9.999389648437498
 50
180.0
  0
INSERT
  5
BBA7
330
BBA0
100
AcDbEntity
  8
Dim
 62
     0
370
    -2
100
AcDbBlockReference
  2
_DOT
 10
710.3015634502053
 20
2423.031681193327
 30
0.0
 41
9.999389648437498
 42
9.999389648437498
 43
9.999389648437498
  0
MTEXT
  5
BBA8
330
BBA0
100
AcDbEntity
  8
Dim
 62
     0
100
AcDbMText
 10
660.3015634502053
 20
2445.252572621363
 30
0.0
 40
24.4326171875
 41
0.0
 46
0.0
 71
     5
 72
     1
  1
\A1;100
  7
ＭＳ ゴシック
 73
     1
 44
1.0
  0
POINT
  5
BBA9
330
BBA0
100
AcDbEntity
  8
Defpoints
 62
     0
100
AcDbPoint
 10
610.3015634502052
 20
2303.642179232363
 30
0.0
  0
POINT
  5
BBAA
330
BBA0
100
AcDbEntity
  8
Defpoints
 62
     0
100
AcDbPoint
 10
710.3015634502053
 20
2303.642179232363
 30
0.0
  0
POINT
  5
BBAB
330
BBA0
100
AcDbEntity
  8
Defpoints
 62
     0
100
AcDbPoint
 10
710.3015634502053
 20
2423.031681193327
 30
0.0
  0
ENDBLK
  5
BBA2
330
BBA0
100
AcDbEntity
  8
0
100
AcDbBlockEnd
  0
BLOCK
  5
BBC5
330
BBC4
100
AcDbEntity
  8
0
100
AcDbBlockBegin
  2
*D12
 70
     1
 10
0.0
 20
0.0
 30
0.0
  3
*D12
  1

  0
LINE
  5
BBC7
330
BBC4
100
AcDbEntity
  8
Dim
 62
     0
370
    -2
100
AcDbLine
 10
859.3336053467567
 20
2345.981404050151
 30
0.0
 11
984.6880483410578
 21
2345.981404050151
 31
0.0
  0
LINE
  5
BBC8
330
BBC4
100
AcDbEntity
  8
Dim
 62
     0
370
    -2
100
AcDbLine
 10
857.3497222794774
 20
1996.112769719635
 30
0.0
 11
984.6880483410578
 21
1996.112769719635
 31
0.0
  0
LINE
  5
BBC9
330
BBC4
100
AcDbEntity
  8
Dim
 62
     0
370
    -2
100
AcDbLine
 10
984.6880483410578
 20
2335.982014401714
 30
0.0
 11
984.6880483410578
 21
2006.112159368072
 31
0.0
  0
INSERT
  5
BBCA
330
BBC4
100
AcDbEntity
  8
Dim
 62
     0
370
    -2
100
AcDbBlockReference
  2
_DOT
 10
984.6880483410578
 20
2345.981404050151
 30
0.0
 41
9.999389648437498
 42
9.999389648437498
 43
9.999389648437498
 50
90.0
  0
INSERT
  5
BBCB
330
BBC4
100
AcDbEntity
  8
Dim
 62
     0
370
    -2
100
AcDbBlockReference
  2
_DOT
 10
984.6880483410578
 20
1996.112769719635
 30
0.0
 41
9.999389648437498
 42
9.999389648437498
 43
9.999389648437498
 50
270.0
  0
MTEXT
  5
BBCC
330
BBC4
100
AcDbEntity
  8
Dim
 62
     0
100
AcDbMText
 10
962.4671569130223
 20
2171.047086884893
 30
0.0
 40
24.4326171875
 41
0.0
 46
0.0
 71
     5
 72
     1
  1
\A1;350
  7
ＭＳ ゴシック
 11
0.0
 21
1.0
 31
0.0
 73
     1
 44
1.0
  0
POINT
  5
BBCD
330
BBC4
100
AcDbEntity
  8
Defpoints
 62
     0
100
AcDbPoint
 10
834.3336053467567
 20
2345.981404050151
 30
0.0
  0
POINT
  5
BBCE
330
BBC4
100
AcDbEntity
  8
Defpoints
 62
     0
100
AcDbPoint
 10
832.3497222794774
 20
1996.112769719635
 30
0.0
  0
POINT
  5
BBCF
330
BBC4
100
AcDbEntity
  8
Defpoints
 62
     0
100
AcDbPoint
 10
984.6880483410578
 20
1996.112769719635
 30
0.0
  0
ENDBLK
  5
BBC6
330
BBC4
100
AcDbEntity
  8
0
100
AcDbBlockEnd
  0
BLOCK
  5
BBD4
330
BBD3
100
AcDbEntity
  8
0
100
AcDbBlockBegin
  2
*D13
 70
     1
 10
0.0
 20
0.0
 30
0.0
  3
*D13
  1

  0
LINE
  5
BBD6
330
BBD3
100
AcDbEntity
  8
Dim
 62
     0
370
    -2
100
AcDbLine
 10
384.330020327557
 20
2368.090935075581
 30
0.0
 11
384.330020327557
 21
2483.254152690588
 31
0.0
  0
LINE
  5
BBD7
330
BBD3
100
AcDbEntity
  8
Dim
 62
     0
370
    -2
100
AcDbLine
 10
834.3336053467567
 20
2368.094539631587
 30
0.0
 11
834.3336053467567
 21
2483.254152690588
 31
0.0
  0
LINE
  5
BBD8
330
BBD3
100
AcDbEntity
  8
Dim
 62
     0
370
    -2
100
AcDbLine
 10
394.3294099759945
 20
2483.254152690588
 30
0.0
 11
824.3342156983192
 21
2483.254152690588
 31
0.0
  0
INSERT
  5
BBD9
330
BBD3
100
AcDbEntity
  8
Dim
 62
     0
370
    -2
100
AcDbBlockReference
  2
_DOT
 10
384.330020327557
 20
2483.254152690588
 30
0.0
 41
9.999389648437498
 42
9.999389648437498
 43
9.999389648437498
 50
180.0
  0
INSERT
  5
BBDA
330
BBD3
100
AcDbEntity
  8
Dim
 62
     0
370
    -2
100
AcDbBlockReference
  2
_DOT
 10
834.3336053467567
 20
2483.254152690588
 30
0.0
 41
9.999389648437498
 42
9.999389648437498
 43
9.999389648437498
  0
MTEXT
  5
BBDB
330
BBD3
100
AcDbEntity
  8
Dim
 62
     0
100
AcDbMText
 10
609.3318128371568
 20
2505.475044118623
 30
0.0
 40
24.4326171875
 41
0.0
 46
0.0
 71
     5
 72
     1
  1
\A1;450
  7
ＭＳ ゴシック
 73
     1
 44
1.0
  0
POINT
  5
BBDC
330
BBD3
100
AcDbEntity
  8
Defpoints
 62
     0
100
AcDbPoint
 10
384.330020327557
 20
2343.090935075581
 30
0.0
  0
POINT
  5
BBDD
330
BBD3
100
AcDbEntity
  8
Defpoints
 62
     0
100
AcDbPoint
 10
834.3336053467567
 20
2343.094539631587
 30
0.0
  0
POINT
  5
BBDE
330
BBD3
100
AcDbEntity
  8
Defpoints
 62
     0
100
AcDbPoint
 10
834.3336053467567
 20
2483.254152690588
 30
0.0
  0
ENDBLK
  5
BBD5
330
BBD3
100
AcDbEntity
  8
0
100
AcDbBlockEnd
  0
BLOCK
  5
BBE3
330
BBE2
100
AcDbEntity
  8
0
100
AcDbBlockBegin
  2
*D14
 70
     1
 10
0.0
 20
0.0
 30
0.0
  3
*D14
  1

  0
LINE
  5
BBE5
330
BBE2
100
AcDbEntity
  8
Dim
 62
     0
370
    -2
100
AcDbLine
 10
366.1917844322716
 20
2345.978215591308
 30
0.0
 11
272.056554008731
 21
2345.978215591308
 31
0.0
  0
LINE
  5
BBE6
330
BBE2
100
AcDbEntity
  8
Dim
 62
     0
370
    -2
100
AcDbLine
 10
362.2751475042977
 20
2246.60740647493
 30
0.0
 11
272.056554008731
 21
2246.60740647493
 31
0.0
  0
LINE
  5
BBE7
330
BBE2
100
AcDbEntity
  8
Dim
 62
     0
370
    -2
100
AcDbLine
 10
272.056554008731
 20
2335.978825942871
 30
0.0
 11
272.056554008731
 21
2256.606796123368
 31
0.0
  0
INSERT
  5
BBE8
330
BBE2
100
AcDbEntity
  8
Dim
 62
     0
370
    -2
100
AcDbBlockReference
  2
_DOT
 10
272.056554008731
 20
2345.978215591308
 30
0.0
 41
9.999389648437498
 42
9.999389648437498
 43
9.999389648437498
 50
90.0
  0
INSERT
  5
BBE9
330
BBE2
100
AcDbEntity
  8
Dim
 62
     0
370
    -2
100
AcDbBlockReference
  2
_DOT
 10
272.056554008731
 20
2246.60740647493
 30
0.0
 41
9.999389648437498
 42
9.999389648437498
 43
9.999389648437498
 50
270.0
  0
MTEXT
  5
BBEA
330
BBE2
100
AcDbEntity
  8
Dim
 62
     0
100
AcDbMText
 10
249.8356625806956
 20
2296.29281103312
 30
0.0
 40
24.4326171875
 41
0.0
 46
0.0
 71
     5
 72
     1
  1
\A1;100
  7
ＭＳ ゴシック
 11
0.0
 21
1.0
 31
0.0
 73
     1
 44
1.0
  0
POINT
  5
BBEB
330
BBE2
100
AcDbEntity
  8
Defpoints
 62
     0
100
AcDbPoint
 10
391.1917844322716
 20
2345.978215591308
 30
0.0
  0
POINT
  5
BBEC
330
BBE2
100
AcDbEntity
  8
Defpoints
 62
     0
100
AcDbPoint
 10
387.2751475042977
 20
2246.60740647493
 30
0.0
  0
POINT
  5
BBED
330
BBE2
100
AcDbEntity
  8
Defpoints
 62
     0
100
AcDbPoint
 10
272.056554008731
 20
2246.60740647493
 30
0.0
  0
ENDBLK
  5
BBE4
330
BBE2
100
AcDbEntity
  8
0
100
AcDbBlockEnd
  0
BLOCK
  5
BBF2
330
BBF1
100
AcDbEntity
  8
0
100
AcDbBlockBegin
  2
*D15
 70
     1
 10
0.0
 20
0.0
 30
0.0
  3
*D15
  1

  0
LINE
  5
BBF4
330
BBF1
100
AcDbEntity
  8
Dim
 62
     0
370
    -2
100
AcDbLine
 10
362.8243299733451
 20
1998.169784335478
 30
0.0
 11
272.056554008731
 21
1998.169784335478
 31
0.0
  0
LINE
  5
BBF5
330
BBF1
100
AcDbEntity
  8
Dim
 62
     0
370
    -2
100
AcDbLine
 10
362.2751475042977
 20
2246.60740647493
 30
0.0
 11
272.056554008731
 21
2246.60740647493
 31
0.0
  0
LINE
  5
BBF6
330
BBF1
100
AcDbEntity
  8
Dim
 62
     0
370
    -2
100
AcDbLine
 10
272.056554008731
 20
2008.169173983915
 30
0.0
 11
272.056554008731
 21
2236.608016826493
 31
0.0
  0
INSERT
  5
BBF7
330
BBF1
100
AcDbEntity
  8
Dim
 62
     0
370
    -2
100
AcDbBlockReference
  2
_DOT
 10
272.056554008731
 20
1998.169784335478
 30
0.0
 41
9.999389648437498
 42
9.999389648437498
 43
9.999389648437498
 50
270.0
  0
INSERT
  5
BBF8
330
BBF1
100
AcDbEntity
  8
Dim
 62
     0
370
    -2
100
AcDbBlockReference
  2
_DOT
 10
272.056554008731
 20
2246.60740647493
 30
0.0
 41
9.999389648437498
 42
9.999389648437498
 43
9.999389648437498
 50
90.0
  0
MTEXT
  5
BBF9
330
BBF1
100
AcDbEntity
  8
Dim
 62
     0
100
AcDbMText
 10
249.8356625806956
 20
2122.388595405204
 30
0.0
 40
24.4326171875
 41
0.0
 46
0.0
 71
     5
 72
     1
  1
\A1;245
  7
ＭＳ ゴシック
 11
0.0
 21
1.0
 31
0.0
 73
     1
 44
1.0
  0
POINT
  5
BBFA
330
BBF1
100
AcDbEntity
  8
Defpoints
 62
     0
100
AcDbPoint
 10
387.8243299733451
 20
1998.169784335478
 30
0.0
  0
POINT
  5
BBFB
330
BBF1
100
AcDbEntity
  8
Defpoints
 62
     0
100
AcDbPoint
 10
387.2751475042977
 20
2246.60740647493
 30
0.0
  0
POINT
  5
BBFC
330
BBF1
100
AcDbEntity
  8
Defpoints
 62
     0
100
AcDbPoint
 10
272.056554008731
 20
2246.60740647493
 30
0.0
  0
ENDBLK
  5
BBF3
330
BBF1
100
AcDbEntity
  8
0
100
AcDbBlockEnd
  0
BLOCK
  5
BC01
330
BC00
100
AcDbEntity
  8
0
100
AcDbBlockBegin
  2
*D16
 70
     1
 10
0.0
 20
0.0
 30
0.0
  3
*D16
  1

  0
LINE
  5
BC03
330
BC00
100
AcDbEntity
  8
Dim
 62
     0
370
    -2
100
AcDbLine
 10
387.7345612698609
 20
1980.043814573542
 30
0.0
 11
387.7345612698609
 21
1878.208859221731
 31
0.0
  0
LINE
  5
BC04
330
BC00
100
AcDbEntity
  8
Dim
 62
     0
370
    -2
100
AcDbLine
 10
832.1003243669929
 20
1971.112769719635
 30
0.0
 11
832.1003243669929
 21
1878.208859221731
 31
0.0
  0
LINE
  5
BC05
330
BC00
100
AcDbEntity
  8
Dim
 62
     0
370
    -2
100
AcDbLine
 10
397.7339509182984
 20
1878.208859221731
 30
0.0
 11
822.1009347185554
 21
1878.208859221731
 31
0.0
  0
INSERT
  5
BC06
330
BC00
100
AcDbEntity
  8
Dim
 62
     0
370
    -2
100
AcDbBlockReference
  2
_DOT
 10
387.7345612698609
 20
1878.208859221731
 30
0.0
 41
9.999389648437498
 42
9.999389648437498
 43
9.999389648437498
 50
180.0
  0
INSERT
  5
BC07
330
BC00
100
AcDbEntity
  8
Dim
 62
     0
370
    -2
100
AcDbBlockReference
  2
_DOT
 10
832.1003243669929
 20
1878.208859221731
 30
0.0
 41
9.999389648437498
 42
9.999389648437498
 43
9.999389648437498
  0
MTEXT
  5
BC08
330
BC00
100
AcDbEntity
  8
Dim
 62
     0
100
AcDbMText
 10
609.9174428184269
 20
1900.425167815481
 30
0.0
 40
24.4326171875
 41
0.0
 46
0.0
 71
     5
 72
     1
  1
\A1;440
  7
ＭＳ ゴシック
 73
     1
 44
1.0
  0
POINT
  5
BC09
330
BC00
100
AcDbEntity
  8
Defpoints
 62
     0
100
AcDbPoint
 10
387.7345612698609
 20
2005.043814573542
 30
0.0
  0
POINT
  5
BC0A
330
BC00
100
AcDbEntity
  8
Defpoints
 62
     0
100
AcDbPoint
 10
832.1003243669929
 20
1996.112769719635
 30
0.0
  0
POINT
  5
BC0B
330
BC00
100
AcDbEntity
  8
Defpoints
 62
     0
100
AcDbPoint
 10
832.1003243669929
 20
1878.208859221731
 30
0.0
  0
ENDBLK
  5
BC02
330
BC00
100
AcDbEntity
  8
0
100
AcDbBlockEnd
  0
BLOCK
  5
BCEE
330
BCED
100
AcDbEntity
  8
0
100
AcDbBlockBegin
  2
*D17
 70
     1
 10
0.0
 20
0.0
 30
0.0
  3
*D17
  1

  0
LINE
  5
BCF0
330
BCED
100
AcDbEntity
  8
Dim
 62
     0
370
    -2
100
AcDbLine
 10
1807.647444955289
 20
2345.981823303426
 30
0.0
 11
1803.563040901956
 21
2345.981823303426
 31
0.0
  0
LINE
  5
BCF1
330
BCED
100
AcDbEntity
  8
Dim
 62
     0
370
    -2
100
AcDbLine
 10
1667.248118215111
 20
2035.981823303427
 30
0.0
 11
1803.563040901956
 21
2035.981823303427
 31
0.0
  0
LINE
  5
BCF2
330
BCED
100
AcDbEntity
  8
Dim
 62
     0
370
    -2
100
AcDbLine
 10
1803.563040901956
 20
2335.982433654989
 30
0.0
 11
1803.563040901956
 21
2045.981212951864
 31
0.0
  0
INSERT
  5
BCF3
330
BCED
100
AcDbEntity
  8
Dim
 62
     0
370
    -2
100
AcDbBlockReference
  2
_DOT
 10
1803.563040901956
 20
2345.981823303426
 30
0.0
 41
9.999389648437498
 42
9.999389648437498
 43
9.999389648437498
 50
90.0
  0
INSERT
  5
BCF4
330
BCED
100
AcDbEntity
  8
Dim
 62
     0
370
    -2
100
AcDbBlockReference
  2
_DOT
 10
1803.563040901956
 20
2035.981823303427
 30
0.0
 41
9.999389648437498
 42
9.999389648437498
 43
9.999389648437498
 50
270.0
  0
MTEXT
  5
BCF5
330
BCED
100
AcDbEntity
  8
Dim
 62
     0
100
AcDbMText
 10
1781.342149473921
 20
2190.981823303427
 30
0.0
 40
24.4326171875
 41
0.0
 46
0.0
 71
     5
 72
     1
  1
\A1;310
  7
ＭＳ ゴシック
 11
0.0
 21
1.0
 31
0.0
 73
     1
 44
1.0
  0
POINT
  5
BCF6
330
BCED
100
AcDbEntity
  8
Defpoints
 62
     0
100
AcDbPoint
 10
1782.647444955289
 20
2345.981823303426
 30
0.0
  0
POINT
  5
BCF7
330
BCED
100
AcDbEntity
  8
Defpoints
 62
     0
100
AcDbPoint
 10
1642.248118215111
 20
2035.981823303427
 30
0.0
  0
POINT
  5
BCF8
330
BCED
100
AcDbEntity
  8
Defpoints
 62
     0
100
AcDbPoint
 10
1803.563040901956
 20
2035.981823303427
 30
0.0
  0
ENDBLK
  5
BCEF
330
BCED
100
AcDbEntity
  8
0
100
AcDbBlockEnd
  0
BLOCK
  5
BD4B
330
BD4A
100
AcDbEntity
  8
0
100
AcDbBlockBegin
  2
*D18
 70
     1
 10
0.0
 20
0.0
 30
0.0
  3
*D18
  1

  0
LINE
  5
BD4D
330
BD4A
100
AcDbEntity
  8
Dim
 62
     0
370
    -2
100
AcDbLine
 10
1271.802742555305
 20
2010.981823303426
 30
0.0
 11
1271.802742555305
 21
1878.208859221731
 31
0.0
  0
LINE
  5
BD4E
330
BD4A
100
AcDbEntity
  8
Dim
 62
     0
370
    -2
100
AcDbLine
 10
1642.248118215111
 20
2010.981823303427
 30
0.0
 11
1642.248118215111
 21
1878.208859221731
 31
0.0
  0
LINE
  5
BD4F
330
BD4A
100
AcDbEntity
  8
Dim
 62
     0
370
    -2
100
AcDbLine
 10
1281.802132203742
 20
1878.208859221731
 30
0.0
 11
1632.248728566674
 21
1878.208859221731
 31
0.0
  0
INSERT
  5
BD50
330
BD4A
100
AcDbEntity
  8
Dim
 62
     0
370
    -2
100
AcDbBlockReference
  2
_DOT
 10
1271.802742555305
 20
1878.208859221731
 30
0.0
 41
9.999389648437498
 42
9.999389648437498
 43
9.999389648437498
 50
180.0
  0
INSERT
  5
BD51
330
BD4A
100
AcDbEntity
  8
Dim
 62
     0
370
    -2
100
AcDbBlockReference
  2
_DOT
 10
1642.248118215111
 20
1878.208859221731
 30
0.0
 41
9.999389648437498
 42
9.999389648437498
 43
9.999389648437498
  0
MTEXT
  5
BD52
330
BD4A
100
AcDbEntity
  8
Dim
 62
     0
100
AcDbMText
 10
1457.025430385208
 20
1900.429750649766
 30
0.0
 40
24.4326171875
 41
0.0
 46
0.0
 71
     5
 72
     1
  1
\A1;370
  7
ＭＳ ゴシック
 73
     1
 44
1.0
  0
POINT
  5
BD53
330
BD4A
100
AcDbEntity
  8
Defpoints
 62
     0
100
AcDbPoint
 10
1271.802742555305
 20
2035.981823303426
 30
0.0
  0
POINT
  5
BD54
330
BD4A
100
AcDbEntity
  8
Defpoints
 62
     0
100
AcDbPoint
 10
1642.248118215111
 20
2035.981823303427
 30
0.0
  0
POINT
  5
BD55
330
BD4A
100
AcDbEntity
  8
Defpoints
 62
     0
100
AcDbPoint
 10
1642.248118215111
 20
1878.208859221731
 30
0.0
  0
ENDBLK
  5
BD4C
330
BD4A
100
AcDbEntity
  8
0
100
AcDbBlockEnd
  0
BLOCK
  5
BDB3
330
BDB2
100
AcDbEntity
  8
0
100
AcDbBlockBegin
  2
*D19
 70
     1
 10
0.0
 20
0.0
 30
0.0
  3
*D19
  1

  0
LINE
  5
BDB5
330
BDB2
100
AcDbEntity
  8
Dim
 62
     0
370
    -2
100
AcDbLine
 10
847.4475819285327
 20
1069.884032249223
 30
0.0
 11
917.3773718820834
 21
1069.884032249223
 31
0.0
  0
LINE
  5
BDB6
330
BDB2
100
AcDbEntity
  8
Dim
 62
     0
370
    -2
100
AcDbLine
 10
661.0242528117578
 20
939.9397883593593
 30
0.0
 11
917.3773718820834
 21
939.9397883593593
 31
0.0
  0
LINE
  5
BDB7
330
BDB2
100
AcDbEntity
  8
Dim
 62
     0
370
    -2
100
AcDbLine
 10
917.3773718820834
 20
1059.884642600786
 30
0.0
 11
917.3773718820834
 21
949.9391780077968
 31
0.0
  0
INSERT
  5
BDB8
330
BDB2
100
AcDbEntity
  8
Dim
 62
     0
370
    -2
100
AcDbBlockReference
  2
_DOT
 10
917.3773718820834
 20
1069.884032249223
 30
0.0
 41
9.999389648437498
 42
9.999389648437498
 43
9.999389648437498
 50
90.0
  0
INSERT
  5
BDB9
330
BDB2
100
AcDbEntity
  8
Dim
 62
     0
370
    -2
100
AcDbBlockReference
  2
_DOT
 10
917.3773718820834
 20
939.9397883593593
 30
0.0
 41
9.999389648437498
 42
9.999389648437498
 43
9.999389648437498
 50
270.0
  0
MTEXT
  5
BDBA
330
BDB2
100
AcDbEntity
  8
Dim
 62
     0
100
AcDbMText
 10
895.1564804540478
 20
1019.885235938645
 30
0.0
 40
24.4326171875
 41
0.0
 46
0.0
 71
     5
 72
     1
  1
\A1;130
  7
ＭＳ ゴシック
 11
0.0
 21
1.0
 31
0.0
 73
     1
 44
1.0
  0
POINT
  5
BDBB
330
BDB2
100
AcDbEntity
  8
Defpoints
 62
     0
100
AcDbPoint
 10
822.4475819285327
 20
1069.884032249223
 30
0.0
  0
POINT
  5
BDBC
330
BDB2
100
AcDbEntity
  8
Defpoints
 62
     0
100
AcDbPoint
 10
636.0242528117578
 20
939.9397883593593
 30
0.0
  0
POINT
  5
BDBD
330
BDB2
100
AcDbEntity
  8
Defpoints
 62
     0
100
AcDbPoint
 10
917.3773718820834
 20
939.9397883593593
 30
0.0
  0
ENDBLK
  5
BDB4
330
BDB2
100
AcDbEntity
  8
0
100
AcDbBlockEnd
  0
BLOCK
  5
BDC3
330
BDC2
100
AcDbEntity
  8
0
100
AcDbBlockBegin
  2
*D20
 70
     1
 10
0.0
 20
0.0
 30
0.0
  3
*D20
  1

  0
LINE
  5
BDC5
330
BDC2
100
AcDbEntity
  8
Dim
 62
     0
370
    -2
100
AcDbLine
 10
385.9070135786461
 20
947.7772935420696
 30
0.0
 11
385.9070135786461
 21
827.1441002113013
 31
0.0
  0
LINE
  5
BDC6
330
BDC2
100
AcDbEntity
  8
Dim
 62
     0
370
    -2
100
AcDbLine
 10
832.6124298555625
 20
947.7772935420696
 30
0.0
 11
832.6124298555625
 21
827.1441002113013
 31
0.0
  0
LINE
  5
BDC7
330
BDC2
100
AcDbEntity
  8
Dim
 62
     0
370
    -2
100
AcDbLine
 10
395.9064032270836
 20
827.1441002113013
 30
0.0
 11
822.613040207125
 21
827.1441002113013
 31
0.0
  0
INSERT
  5
BDC8
330
BDC2
100
AcDbEntity
  8
Dim
 62
     0
370
    -2
100
AcDbBlockReference
  2
_DOT
 10
385.9070135786461
 20
827.1441002113013
 30
0.0
 41
9.999389648437498
 42
9.999389648437498
 43
9.999389648437498
 50
180.0
  0
INSERT
  5
BDC9
330
BDC2
100
AcDbEntity
  8
Dim
 62
     0
370
    -2
100
AcDbBlockReference
  2
_DOT
 10
832.6124298555625
 20
827.1441002113013
 30
0.0
 41
9.999389648437498
 42
9.999389648437498
 43
9.999389648437498
  0
MTEXT
  5
BDCA
330
BDC2
100
AcDbEntity
  8
Dim
 62
     0
100
AcDbMText
 10
609.2597217171042
 20
849.3604088050513
 30
0.0
 40
24.4326171875
 41
0.0
 46
0.0
 71
     5
 72
     1
  1
\A1;446
  7
ＭＳ ゴシック
 73
     1
 44
1.0
  0
POINT
  5
BDCB
330
BDC2
100
AcDbEntity
  8
Defpoints
 62
     0
100
AcDbPoint
 10
385.9070135786461
 20
972.7772935420696
 30
0.0
  0
POINT
  5
BDCC
330
BDC2
100
AcDbEntity
  8
Defpoints
 62
     0
100
AcDbPoint
 10
832.6124298555625
 20
972.7772935420696
 30
0.0
  0
POINT
  5
BDCD
330
BDC2
100
AcDbEntity
  8
Defpoints
 62
     0
100
AcDbPoint
 10
832.6124298555625
 20
827.1441002113013
 30
0.0
  0
ENDBLK
  5
BDC4
330
BDC2
100
AcDbEntity
  8
0
100
AcDbBlockEnd
  0
BLOCK
  5
BDD2
330
BDD1
100
AcDbEntity
  8
0
100
AcDbBlockBegin
  2
*D21
 70
     1
 10
0.0
 20
0.0
 30
0.0
  3
*D21
  1

  0
LINE
  5
BDD4
330
BDD1
100
AcDbEntity
  8
Dim
 62
     0
370
    -2
100
AcDbLine
 10
361.454906091025
 20
1069.884032249223
 30
0.0
 11
280.048311388307
 21
1069.884032249223
 31
0.0
  0
LINE
  5
BDD5
330
BDD1
100
AcDbEntity
  8
Dim
 62
     0
370
    -2
100
AcDbLine
 10
484.5935451172018
 20
1019.884032249222
 30
0.0
 11
280.048311388307
 21
1019.884032249222
 31
0.0
  0
LINE
  5
BDD6
330
BDD1
100
AcDbEntity
  8
Dim
 62
     0
370
    -2
100
AcDbLine
 10
280.048311388307
 20
1059.884642600786
 30
0.0
 11
280.048311388307
 21
1029.883421897659
 31
0.0
  0
INSERT
  5
BDD7
330
BDD1
100
AcDbEntity
  8
Dim
 62
     0
370
    -2
100
AcDbBlockReference
  2
_DOT
 10
280.048311388307
 20
1069.884032249223
 30
0.0
 41
9.999389648437498
 42
9.999389648437498
 43
9.999389648437498
 50
90.0
  0
INSERT
  5
BDD8
330
BDD1
100
AcDbEntity
  8
Dim
 62
     0
370
    -2
100
AcDbBlockReference
  2
_DOT
 10
280.048311388307
 20
1019.884032249222
 30
0.0
 41
9.999389648437498
 42
9.999389648437498
 43
9.999389648437498
 50
270.0
  0
MTEXT
  5
BDD9
330
BDD1
100
AcDbEntity
  8
Dim
 62
     0
100
AcDbMText
 10
257.8274199602716
 20
1044.884032249222
 30
0.0
 40
24.4326171875
 41
0.0
 46
0.0
 71
     5
 72
     1
  1
\A1;50
  7
ＭＳ ゴシック
 11
0.0
 21
1.0
 31
0.0
 73
     1
 44
1.0
  0
POINT
  5
BDDA
330
BDD1
100
AcDbEntity
  8
Defpoints
 62
     0
100
AcDbPoint
 10
386.454906091025
 20
1069.884032249223
 30
0.0
  0
POINT
  5
BDDB
330
BDD1
100
AcDbEntity
  8
Defpoints
 62
     0
100
AcDbPoint
 10
509.5935451172018
 20
1019.884032249222
 30
0.0
  0
POINT
  5
BDDC
330
BDD1
100
AcDbEntity
  8
Defpoints
 62
     0
100
AcDbPoint
 10
280.048311388307
 20
1019.884032249222
 30
0.0
  0
ENDBLK
  5
BDD3
330
BDD1
100
AcDbEntity
  8
0
100
AcDbBlockEnd
  0
BLOCK
  5
BDE3
330
BDE2
100
AcDbEntity
  8
0
100
AcDbBlockBegin
  2
*D22
 70
     1
 10
0.0
 20
0.0
 30
0.0
  3
*D22
  1

  0
LINE
  5
BDE5
330
BDE2
100
AcDbEntity
  8
Dim
 62
     0
370
    -2
100
AcDbLine
 10
509.5935451172018
 20
1069.383521625377
 30
0.0
 11
509.5935451172018
 21
1140.503019141575
 31
0.0
  0
LINE
  5
BDE6
330
BDE2
100
AcDbEntity
  8
Dim
 62
     0
370
    -2
100
AcDbLine
 10
709.3318128371593
 20
1069.383521625379
 30
0.0
 11
709.3318128371593
 21
1140.503019141575
 31
0.0
  0
LINE
  5
BDE7
330
BDE2
100
AcDbEntity
  8
Dim
 62
     0
370
    -2
100
AcDbLine
 10
519.5929347656393
 20
1140.503019141575
 30
0.0
 11
699.3324231887218
 21
1140.503019141575
 31
0.0
  0
INSERT
  5
BDE8
330
BDE2
100
AcDbEntity
  8
Dim
 62
     0
370
    -2
100
AcDbBlockReference
  2
_DOT
 10
509.5935451172018
 20
1140.503019141575
 30
0.0
 41
9.999389648437498
 42
9.999389648437498
 43
9.999389648437498
 50
180.0
  0
INSERT
  5
BDE9
330
BDE2
100
AcDbEntity
  8
Dim
 62
     0
370
    -2
100
AcDbBlockReference
  2
_DOT
 10
709.3318128371593
 20
1140.503019141575
 30
0.0
 41
9.999389648437498
 42
9.999389648437498
 43
9.999389648437498
  0
MTEXT
  5
BDEA
330
BDE2
100
AcDbEntity
  8
Dim
 62
     0
100
AcDbMText
 10
609.4626789771805
 20
1162.72391056961
 30
0.0
 40
24.4326171875
 41
0.0
 46
0.0
 71
     5
 72
     1
  1
\A1;200
  7
ＭＳ ゴシック
 73
     1
 44
1.0
  0
POINT
  5
BDEB
330
BDE2
100
AcDbEntity
  8
Defpoints
 62
     0
100
AcDbPoint
 10
509.5935451172018
 20
1044.383521625377
 30
0.0
  0
POINT
  5
BDEC
330
BDE2
100
AcDbEntity
  8
Defpoints
 62
     0
100
AcDbPoint
 10
709.3318128371593
 20
1044.383521625379
 30
0.0
  0
POINT
  5
BDED
330
BDE2
100
AcDbEntity
  8
Defpoints
 62
     0
100
AcDbPoint
 10
709.3318128371593
 20
1140.503019141575
 30
0.0
  0
ENDBLK
  5
BDE4
330
BDE2
100
AcDbEntity
  8
0
100
AcDbBlockEnd
  0
BLOCK
  5
BE16
330
BE15
100
AcDbEntity
  8
0
100
AcDbBlockBegin
  2
*D23
 70
     1
 10
0.0
 20
0.0
 30
0.0
  3
*D23
  1

  0
LINE
  5
BE18
330
BE15
100
AcDbEntity
  8
Dim
 62
     0
370
    -2
100
AcDbLine
 10
1724.977670192239
 20
945.4421560553842
 30
0.0
 11
1724.977670192239
 21
886.0425285495968
 31
0.0
  0
LINE
  5
BE19
330
BE15
100
AcDbEntity
  8
Dim
 62
     0
370
    -2
100
AcDbLine
 10
1535.505240476414
 20
914.5138555429976
 30
0.0
 11
1535.505240476414
 21
886.0425285495968
 31
0.0
  0
LINE
  5
BE1A
330
BE15
100
AcDbEntity
  8
Dim
 62
     0
370
    -2
100
AcDbLine
 10
1714.978280543801
 20
886.0425285495968
 30
0.0
 11
1545.504630124851
 21
886.0425285495968
 31
0.0
  0
INSERT
  5
BE1B
330
BE15
100
AcDbEntity
  8
Dim
 62
     0
370
    -2
100
AcDbBlockReference
  2
_DOT
 10
1724.977670192239
 20
886.0425285495968
 30
0.0
 41
9.999389648437498
 42
9.999389648437498
 43
9.999389648437498
  0
INSERT
  5
BE1C
330
BE15
100
AcDbEntity
  8
Dim
 62
     0
370
    -2
100
AcDbBlockReference
  2
_DOT
 10
1535.505240476414
 20
886.0425285495968
 30
0.0
 41
9.999389648437498
 42
9.999389648437498
 43
9.999389648437498
 50
180.0
  0
MTEXT
  5
BE1D
330
BE15
100
AcDbEntity
  8
Dim
 62
     0
100
AcDbMText
 10
1630.241455334326
 20
908.2634199776323
 30
0.0
 40
24.4326171875
 41
0.0
 46
0.0
 71
     5
 72
     1
  1
\A1;190
  7
ＭＳ ゴシック
 73
     1
 44
1.0
  0
POINT
  5
BE1E
330
BE15
100
AcDbEntity
  8
Defpoints
 62
     0
100
AcDbPoint
 10
1724.977670192239
 20
970.4421560553842
 30
0.0
  0
POINT
  5
BE1F
330
BE15
100
AcDbEntity
  8
Defpoints
 62
     0
100
AcDbPoint
 10
1535.505240476414
 20
939.5138555429976
 30
0.0
  0
POINT
  5
BE20
330
BE15
100
AcDbEntity
  8
Defpoints
 62
     0
100
AcDbPoint
 10
1535.505240476414
 20
886.0425285495968
 30
0.0
  0
ENDBLK
  5
BE17
330
BE15
100
AcDbEntity
  8
0
100
AcDbBlockEnd
  0
BLOCK
  5
BE5F
330
BE5E
100
AcDbEntity
  8
0
100
AcDbBlockBegin
  2
*D24
 70
     1
 10
0.0
 20
0.0
 30
0.0
  3
*D24
  1

  0
LINE
  5
BE61
330
BE5E
100
AcDbEntity
  8
Dim
  6
Continuous
 62
     0
370
    -2
100
AcDbLine
 10
1545.911001106898
 20
1069.884032249223
 30
0.0
 11
1545.911001106899
 21
1271.815193741535
 31
0.0
  0
LINE
  5
BE62
330
BE5E
100
AcDbEntity
  8
Dim
  6
Continuous
 62
     0
370
    -2
100
AcDbLine
 10
1545.911001106898
 20
979.6369513213458
 30
0.0
 11
1545.911001106898
 21
1059.884642600785
 31
0.0
  0
LINE
  5
BE63
330
BE5E
100
AcDbEntity
  8
Dim
  6
Continuous
 62
     0
370
    -2
100
AcDbLine
 10
1545.911001106898
 20
1059.884642600785
 30
0.0
 11
1545.911001106898
 21
1049.885252952348
 31
0.0
  0
INSERT
  5
BE64
330
BE5E
100
AcDbEntity
  8
Dim
 62
     0
370
    -2
100
AcDbBlockReference
  2
_DOT
 10
1545.911001106898
 20
969.6375616729083
 30
0.0
 41
9.999389648437498
 42
9.999389648437498
 43
9.999389648437498
 50
269.9999999999999
  0
INSERT
  5
BE65
330
BE5E
100
AcDbEntity
  8
Dim
 62
     0
370
    -2
100
AcDbBlockReference
  2
_DOT
 10
1545.911001106898
 20
1069.884032249223
 30
0.0
 41
9.999389648437498
 42
9.999389648437498
 43
9.999389648437498
 50
89.99999999999987
  0
MTEXT
  5
BE66
330
BE5E
100
AcDbEntity
  8
Dim
 62
     0
100
AcDbMText
 10
1521.649220810381
 20
1195.602403984439
 30
0.0
 40
24.4326171875
 41
0.0
 46
0.0
 71
     5
 72
     1
  1
\A1;100(深さ)
  7
ＭＳ ゴシック
 11
2.268146440827959E-15
 21
1.0
 31
0.0
 73
     1
 44
1.0
  0
POINT
  5
BE67
330
BE5E
100
AcDbEntity
  8
Defpoints
 62
     0
100
AcDbPoint
 10
1544.892301224232
 20
969.6375616729083
 30
0.0
  0
POINT
  5
BE68
330
BE5E
100
AcDbEntity
  8
Defpoints
 62
     0
100
AcDbPoint
 10
1545.911001106898
 20
1069.884032249223
 30
0.0
  0
POINT
  5
BE69
330
BE5E
100
AcDbEntity
  8
Defpoints
 62
     0
100
AcDbPoint
 10
1545.911001106898
 20
1069.884032249223
 30
0.0
  0
ENDBLK
  5
BE60
330
BE5E
100
AcDbEntity
  8
0
100
AcDbBlockEnd
  0
BLOCK
  5
BE76
330
BE75
100
AcDbEntity
  8
0
100
AcDbBlockBegin
  2
*D25
 70
     1
 10
0.0
 20
0.0
 30
0.0
  3
*D25
  1

  0
LINE
  5
BE78
330
BE75
100
AcDbEntity
  8
Dim
 62
     0
370
    -2
100
AcDbLine
 10
1379.106103529052
 20
947.287073925731
 30
0.0
 11
1379.106103529052
 21
827.1897811800734
 31
0.0
  0
LINE
  5
BE79
330
BE75
100
AcDbEntity
  8
Dim
 62
     0
370
    -2
100
AcDbLine
 10
1724.952754516614
 20
947.2952588446417
 30
0.0
 11
1724.952754516614
 21
827.1897811800734
 31
0.0
  0
LINE
  5
BE7A
330
BE75
100
AcDbEntity
  8
Dim
 62
     0
370
    -2
100
AcDbLine
 10
1389.105493177489
 20
827.1897811800734
 30
0.0
 11
1714.953364868176
 21
827.1897811800734
 31
0.0
  0
INSERT
  5
BE7B
330
BE75
100
AcDbEntity
  8
Dim
 62
     0
370
    -2
100
AcDbBlockReference
  2
_DOT
 10
1379.106103529052
 20
827.1897811800734
 30
0.0
 41
9.999389648437498
 42
9.999389648437498
 43
9.999389648437498
 50
180.0
  0
INSERT
  5
BE7C
330
BE75
100
AcDbEntity
  8
Dim
 62
     0
370
    -2
100
AcDbBlockReference
  2
_DOT
 10
1724.952754516614
 20
827.1897811800734
 30
0.0
 41
9.999389648437498
 42
9.999389648437498
 43
9.999389648437498
  0
MTEXT
  5
BE7D
330
BE75
100
AcDbEntity
  8
Dim
 62
     0
100
AcDbMText
 10
1552.029429022832
 20
849.4106726081089
 30
0.0
 40
24.4326171875
 41
0.0
 46
0.0
 71
     5
 72
     1
  1
\A1;345
  7
ＭＳ ゴシック
 73
     1
 44
1.0
  0
POINT
  5
BE7E
330
BE75
100
AcDbEntity
  8
Defpoints
 62
     0
100
AcDbPoint
 10
1379.106103529052
 20
972.287073925731
 30
0.0
  0
POINT
  5
BE7F
330
BE75
100
AcDbEntity
  8
Defpoints
 62
     0
100
AcDbPoint
 10
1724.952754516614
 20
972.2952588446417
 30
0.0
  0
POINT
  5
BE80
330
BE75
100
AcDbEntity
  8
Defpoints
 62
     0
100
AcDbPoint
 10
1724.952754516614
 20
827.1897811800734
 30
0.0
  0
ENDBLK
  5
BE77
330
BE75
100
AcDbEntity
  8
0
100
AcDbBlockEnd
  0
BLOCK
  5
BEBB
330
BEBA
100
AcDbEntity
  8
0
100
AcDbBlockBegin
  2
*D26
 70
     1
 10
0.0
 20
0.0
 30
0.0
  3
*D26
  1

  0
LINE
  5
BEBD
330
BEBA
100
AcDbEntity
  8
Dim
 62
     0
370
    -2
100
AcDbLine
 10
385.876152399504
 20
949.5541697297931
 30
0.0
 11
385.876152399504
 21
885.7837764761712
 31
0.0
  0
LINE
  5
BEBE
330
BEBA
100
AcDbEntity
  8
Dim
 62
     0
370
    -2
100
AcDbLine
 10
609.3282082811512
 20
914.9397883593595
 30
0.0
 11
609.3282082811512
 21
885.7837764761712
 31
0.0
  0
LINE
  5
BEBF
330
BEBA
100
AcDbEntity
  8
Dim
 62
     0
370
    -2
100
AcDbLine
 10
395.8755420479415
 20
885.7837764761712
 30
0.0
 11
599.3288186327137
 21
885.7837764761712
 31
0.0
  0
INSERT
  5
BEC0
330
BEBA
100
AcDbEntity
  8
Dim
 62
     0
370
    -2
100
AcDbBlockReference
  2
_DOT
 10
385.876152399504
 20
885.7837764761712
 30
0.0
 41
9.999389648437498
 42
9.999389648437498
 43
9.999389648437498
 50
180.0
  0
INSERT
  5
BEC1
330
BEBA
100
AcDbEntity
  8
Dim
 62
     0
370
    -2
100
AcDbBlockReference
  2
_DOT
 10
609.3282082811512
 20
885.7837764761712
 30
0.0
 41
9.999389648437498
 42
9.999389648437498
 43
9.999389648437498
  0
MTEXT
  5
BEC2
330
BEBA
100
AcDbEntity
  8
Dim
 62
     0
100
AcDbMText
 10
497.1240535929953
 20
908.0046679042067
 30
0.0
 40
24.4326171875
 41
0.0
 46
0.0
 71
     5
 72
     1
  1
\A1;225
  7
ＭＳ ゴシック
 73
     1
 44
1.0
  0
POINT
  5
BEC3
330
BEBA
100
AcDbEntity
  8
Defpoints
 62
     0
100
AcDbPoint
 10
385.876152399504
 20
974.5541697297931
 30
0.0
  0
POINT
  5
BEC4
330
BEBA
100
AcDbEntity
  8
Defpoints
 62
     0
100
AcDbPoint
 10
609.3282082811512
 20
939.9397883593595
 30
0.0
  0
POINT
  5
BEC5
330
BEBA
100
AcDbEntity
  8
Defpoints
 62
     0
100
AcDbPoint
 10
609.3282082811512
 20
885.7837764761712
 30
0.0
  0
ENDBLK
  5
BEBC
330
BEBA
100
AcDbEntity
  8
0
100
AcDbBlockEnd
  0
BLOCK
  5
BECA
330
BEC9
100
AcDbEntity
  8
0
100
AcDbBlockBegin
  2
*D27
 70
     1
 10
0.0
 20
0.0
 30
0.0
  3
*D27
  1

  0
LINE
  5
BECC
330
BEC9
100
AcDbEntity
  8
Dim
 62
     0
370
    -2
100
AcDbLine
 10
1361.264118655102
 20
1069.884032249222
 30
0.0
 11
1297.968032122263
 21
1069.884032249222
 31
0.0
  0
LINE
  5
BECD
330
BEC9
100
AcDbEntity
  8
Dim
 62
     0
370
    -2
100
AcDbLine
 10
1360.558258773512
 20
969.540402251831
 30
0.0
 11
1297.968032122263
 21
969.540402251831
 31
0.0
  0
LINE
  5
BECE
330
BEC9
100
AcDbEntity
  8
Dim
 62
     0
370
    -2
100
AcDbLine
 10
1297.968032122263
 20
1059.884642600784
 30
0.0
 11
1297.968032122263
 21
979.5397919002685
 31
0.0
  0
INSERT
  5
BECF
330
BEC9
100
AcDbEntity
  8
Dim
 62
     0
370
    -2
100
AcDbBlockReference
  2
_DOT
 10
1297.968032122263
 20
1069.884032249222
 30
0.0
 41
9.999389648437498
 42
9.999389648437498
 43
9.999389648437498
 50
90.0
  0
INSERT
  5
BED0
330
BEC9
100
AcDbEntity
  8
Dim
 62
     0
370
    -2
100
AcDbBlockReference
  2
_DOT
 10
1297.968032122263
 20
969.540402251831
 30
0.0
 41
9.999389648437498
 42
9.999389648437498
 43
9.999389648437498
 50
270.0
  0
MTEXT
  5
BED1
330
BEC9
100
AcDbEntity
  8
Dim
 62
     0
100
AcDbMText
 10
1275.747140694227
 20
1019.712217250526
 30
0.0
 40
24.4326171875
 41
0.0
 46
0.0
 71
     5
 72
     1
  1
\A1;100
  7
ＭＳ ゴシック
 11
0.0
 21
1.0
 31
0.0
 73
     1
 44
1.0
  0
POINT
  5
BED2
330
BEC9
100
AcDbEntity
  8
Defpoints
 62
     0
100
AcDbPoint
 10
1386.264118655102
 20
1069.884032249222
 30
0.0
  0
POINT
  5
BED3
330
BEC9
100
AcDbEntity
  8
Defpoints
 62
     0
100
AcDbPoint
 10
1385.558258773512
 20
969.540402251831
 30
0.0
  0
POINT
  5
BED4
330
BEC9
100
AcDbEntity
  8
Defpoints
 62
     0
100
AcDbPoint
 10
1297.968032122263
 20
969.540402251831
 30
0.0
  0
ENDBLK
  5
BECB
330
BEC9
100
AcDbEntity
  8
0
100
AcDbBlockEnd
  0
ENDSEC
  0
SECTION
  2
ENTITIES
  0
MTEXT
  5
177
330
A
100
AcDbEntity
  8
template
390
1D
100
AcDbMText
 10
82.00000000048226
 20
348.023957835319
 30
0.0
 40
16.28841145833333
 41
0.0
 46
0.0
 71
     1
 72
     1
  1
品名
  7
ＭＳ ゴシック
 73
     1
 44
0.7828267384257843
  0
MTEXT
  5
178
330
A
100
AcDbEntity
  8
template
390
1D
100
AcDbMText
 10
82.00000000048226
 20
263.0239578353188
 30
0.0
 40
16.28841145833333
 41
0.0
 46
0.0
 71
     1
 72
     1
  1
仕様
  7
ＭＳ ゴシック
 73
     1
 44
0.7828267384257843
  0
LINE
  5
179
330
A
100
AcDbEntity
  8
template
390
1D
100
AcDbLine
 10
2025.0
 20
271.4388797103189
 30
0.0
 11
75.00000000000023
 21
271.4388797103189
 31
0.0
  0
LWPOLYLINE
  5
17A
330
A
100
AcDbEntity
  8
template
390
1D
100
AcDbPolyline
 90
        5
 70
   128
 43
0.0
 10
2025.0
 20
2901.438879710319
 10
75.00000000000023
 20
2901.438879710319
 10
75.00000000000023
 20
101.4388797103188
 10
2025.0
 20
101.4388797103188
 10
2025.0
 20
2901.438879710319
  0
LINE
  5
17B
330
A
100
AcDbEntity
  8
template
390
1D
100
AcDbLine
 10
2025.0
 20
356.4388797103188
 30
0.0
 11
75.00000000000023
 21
356.4388797103188
 31
0.0
  0
LINE
  5
17C
330
A
100
AcDbEntity
  8
template
390
1D
100
AcDbLine
 10
2025.000000000482
 20
186.4388797103189
 30
0.0
 11
1272.000000000482
 21
186.4388797103189
 31
0.0
  0
MTEXT
  5
17E
330
A
100
AcDbEntity
  8
template
390
1D
100
AcDbMText
 10
1301.871406252743
 20
156.5284852370108
 30
0.0
 40
24.4326171875
 41
0.0
 46
0.0
 71
     1
 72
     1
  1
大洋金物株式会社 ティーフォルム事業部
  7
ＭＳ ゴシック
 73
     1
 44
0.7828267384257843
  0
MTEXT
  5
180
330
A
100
AcDbEntity
  8
template
390
1D
100
AcDbMText
 10
1834.000000000742
 20
234.4414968978188
 30
0.0
 40
24.4326171875
 41
0.0
 46
0.0
 71
     1
 72
     1
  1
1:10
  7
ＭＳ ゴシック
 73
     1
 44
0.7828267384257843
  0
MTEXT
  5
181
330
A
100
AcDbEntity
  8
template
390
1D
100
AcDbMText
 10
1781.000000000742
 20
263.0239578353188
 30
0.0
 40
16.28841145833333
 41
0.0
 46
0.0
 71
     1
 72
     1
  1
縮尺
  7
ＭＳ ゴシック
 73
     1
 44
0.7828267384257843
  0
LINE
  5
182
330
A
100
AcDbEntity
  8
template
390
1D
100
AcDbLine
 10
1774.000000000742
 20
186.4388797103189
 30
0.0
 11
1774.000000000742
 21
271.4388797103189
 31
0.0
  0
MTEXT
  5
183
330
A
100
AcDbEntity
  8
template
390
1D
100
AcDbMText
 10
1530.000000000742
 20
263.0239578353188
 30
0.0
 40
16.28841145833333
 41
0.0
 46
0.0
 71
     1
 72
     1
  1
容量
  7
ＭＳ ゴシック
 73
     1
 44
0.7828267384257843
  0
LINE
  5
184
330
A
100
AcDbEntity
  8
template
390
1D
100
AcDbLine
 10
1523.000000000742
 20
186.4388797103189
 30
0.0
 11
1523.000000000742
 21
271.4388797103189
 31
0.0
  0
MTEXT
  5
185
330
A
100
AcDbEntity
  8
template
390
1D
100
AcDbMText
 10
1279.000000000742
 20
348.023957835319
 30
0.0
 40
16.28841145833333
 41
0.0
 46
0.0
 71
     1
 72
     1
  1
品番
  7
ＭＳ ゴシック
 73
     1
 44
0.7828267384257843
  0
MTEXT
  5
186
330
A
100
AcDbEntity
  8
template
390
1D
100
AcDbMText
 10
1279.000000000742
 20
263.0239578353188
 30
0.0
 40
16.28841145833333
 41
0.0
 46
0.0
 71
     1
 72
     1
  1
重量
  7
ＭＳ ゴシック
 73
     1
 44
0.7828267384257843
  0
MTEXT
  5
187
330
A
100
AcDbEntity
  8
template
390
1D
100
AcDbMText
 10
1332.000000000742
 20
319.4414968978188
 30
0.0
 40
24.4326171875
 41
0.0
 46
24.4326171875
 71
     1
 72
     1
  1
{ADF70-3204-001}
  7
ＭＳ ゴシック
 73
     1
 44
0.7828267384257843
1001
ACAD
1000
ACAD_MTEXT_DEFINED_HEIGHT_BEGIN
1070
    46
1040
24.4326171875
1000
ACAD_MTEXT_DEFINED_HEIGHT_END
  0
LINE
  5
188
330
A
100
AcDbEntity
  8
template
390
1D
100
AcDbLine
 10
1272.000000000742
 20
101.4388797103188
 30
0.0
 11
1272.000000000742
 21
356.4388797103188
 31
0.0
  0
MTEXT
  5
189
330
A
100
AcDbEntity
  8
template
390
1D
100
AcDbMText
 10
135.0000000004822
 20
319.4414968978188
 30
0.0
 40
24.4326171875
 41
0.0
 46
27.53672361022102
 71
     1
 72
     1
  1
{手洗器 -CATALANO, New Green-}
  7
ＭＳ ゴシック
 73
     1
 44
0.7828267384257843
1001
ACAD
1000
ACAD_MTEXT_DEFINED_HEIGHT_BEGIN
1070
    46
1040
27.53672361022102
1000
ACAD_MTEXT_DEFINED_HEIGHT_END
  0
MTEXT
  5
18A
330
A
100
AcDbEntity
  8
template
 62
     1
390
1D
100
AcDbMText
 10
135.0000000004822
 20
234.4414968978188
 30
0.0
 40
24.4326171875
 41
0.0
 46
69.00885866868045
 71
     1
 72
     1
  1
{\C256;壁掛け,カウンター置き/オーバーフローなし/壁取付ボルト付属\P陶器/ホワイト}
  7
ＭＳ ゴシック
 73
     1
 44
0.9822934569727008
1001
ACAD
1000
ACAD_MTEXT_DEFINED_HEIGHT_BEGIN
1070
    46
1040
69.00885866868045
1000
ACAD_MTEXT_DEFINED_HEIGHT_END
  0
MTEXT
  5
1A6
330
A
100
AcDbEntity
  8
template
390
1D
100
AcDbMText
 10
1332.000000000742
 20
234.4414968978188
 30
0.0
 40
24.4326171875
 41
0.0
 46
28.40135167875453
 71
     1
 72
     1
  1
{10kg}
  7
ＭＳ ゴシック
 73
     1
 44
0.7828267384257843
1001
ACAD
1000
ACAD_MTEXT_DEFINED_HEIGHT_BEGIN
1070
    46
1040
28.40135167875453
1000
ACAD_MTEXT_DEFINED_HEIGHT_END
  0
INSERT
  5
3D0
330
A
100
AcDbEntity
  8
template
100
AcDbBlockReference
  2
名称未設定-1
 10
1873.559250554905
 20
30.23897196054438
 30
0.0
 41
0.7619999999999999
 42
0.7619999999999999
 43
0.7619999999999999
  0
MTEXT
  5
BDB
102
{ACAD_XDICTIONARY
360
BDC
102
}
330
A
100
AcDbEntity
  8
template
  6
Continuous
100
AcDbMText
 10
78.95663872901252
 20
86.10730750352229
 30
0.0
 40
23.0
 41
0.0
 46
23.0
 71
     1
 72
     1
  1
{20230609M}
  7
ＭＳ ゴシック
 73
     1
 44
1.0
1001
ACAD
1000
ACAD_MTEXT_DEFINED_HEIGHT_BEGIN
1070
    46
1040
23.0
1000
ACAD_MTEXT_DEFINED_HEIGHT_END
  0
LWPOLYLINE
  5
BEE
330
A
100
AcDbEntity
  8
PRINT BORDER
100
AcDbPolyline
 90
        4
 70
     1
 43
0.0
 10
0.0
 20
0.0
 10
0.0
 20
2970.0
 10
2100.0
 20
2970.0
 10
2100.0
 20
0.0
  0
INSERT
  5
1273
330
A
100
AcDbEntity
  8
0
 62
     7
100
AcDbBlockReference
  2
BLOCK_2
 10
591.2037060744204
 20
943.564364962162
 30
0.0
  0
INSERT
  5
127B
330
A
100
AcDbEntity
  8
0
 62
     7
100
AcDbBlockReference
  2
BLOCK_2
 10
1291.863324028138
 20
1038.76992320659
 30
0.0
  0
INSERT
  5
127C
330
A
100
AcDbEntity
  8
0
 62
     7
100
AcDbBlockReference
  2
BLOCK_2
 10
652.1648429406905
 20
1595.641631888467
 30
0.0
  0
INSERT
  5
3B99
330
A
100
AcDbEntity
  8
retino
100
AcDbBlockReference
  2
mobile_latù
 10
-92101.31485198285
 20
1730.415535296608
 30
0.0
  0
INSERT
  5
467E
330
A
100
AcDbEntity
  8
retino
100
AcDbBlockReference
  2
mobile_latù
 10
-100894.893236163
 20
1696.039721945452
 30
0.0
  0
INSERT
  5
527B
330
A
100
AcDbEntity
  8
retino
100
AcDbBlockReference
  2
mobile_latù
 10
-89900.42748460227
 20
2057.97116653715
 30
0.0
  0
INSERT
  5
527C
330
A
100
AcDbEntity
  8
0
100
AcDbBlockReference
  2
.TD_SECTION_1
 10
225818104807.5758
 20
2467.422636311911
 30
0.0
  0
INSERT
  5
527D
330
A
100
AcDbEntity
  8
0
100
AcDbBlockReference
  2
.TD_SECTION_2
 10
225818170343.5758
 20
2467.422636311911
 30
0.0
  0
INSERT
  5
527E
330
A
100
AcDbEntity
  8
0
  6
Continuous
 62
     0
370
     0
100
AcDbBlockReference
  2
.TD_SECTION_1
 10
-8769.816836312122
 20
2681.893749185237
 30
0.0
  0
INSERT
  5
527F
330
A
100
AcDbEntity
  8
0
  6
Continuous
 62
     0
370
     0
100
AcDbBlockReference
  2
.TD_SECTION_2
 10
-9327.194994881458
 20
2989.447269387873
 30
0.0
  0
INSERT
  5
5280
330
A
100
AcDbEntity
  8
0
  6
Continuous
 62
     0
370
     0
100
AcDbBlockReference
  2
.TD_SECTION_1
 10
-11193.31175928566
 20
763.8992218647024
 30
0.0
  0
INSERT
  5
5281
330
A
100
AcDbEntity
  8
0
  6
Continuous
 62
     0
370
     0
100
AcDbBlockReference
  2
.TD_SECTION_2
 10
-10905.35097055885
 20
465.7910675678274
 30
0.0
  0
INSERT
  5
5282
330
A
100
AcDbEntity
  8
0
  6
Continuous
 62
     0
370
     0
100
AcDbBlockReference
  2
.TD_SECTION_1
 10
-11064.96092844183
 20
698.0103962023752
 30
0.0
  0
INSERT
  5
5283
330
A
100
AcDbEntity
  8
0
  6
Continuous
 62
     0
370
     0
100
AcDbBlockReference
  2
.TD_SECTION_2
 10
-10776.90956354314
 20
399.8117572863596
 30
0.0
  0
INSERT
  5
5284
330
A
100
AcDbEntity
  8
0
  6
Continuous
 62
     0
370
     0
100
AcDbBlockReference
  2
.TD_SECTION_1
 10
-1462.487522281953
 20
1958.724372419401
 30
0.0
  0
INSERT
  5
5285
330
A
100
AcDbEntity
  8
0
  6
Continuous
 62
     0
370
     0
100
AcDbBlockReference
  2
.TD_SECTION_2
 10
-1135.18037048752
 20
1672.677238019987
 30
0.0
  0
INSERT
  5
5286
330
A
100
AcDbEntity
  8
0
  6
Continuous
 62
     0
370
     0
100
AcDbBlockReference
  2
.TD_SECTION_1
 10
704.608903935718
 20
-713.9911611042783
 30
0.0
  0
INSERT
  5
5287
330
A
100
AcDbEntity
  8
0
  6
Continuous
 62
     0
370
     0
100
AcDbBlockReference
  2
.TD_SECTION_2
 10
1319.461252263355
 20
-1311.565746065216
 30
0.0
  0
LINE
  5
7D37
330
A
100
AcDbEntity
  8
MODEL
100
AcDbLine
 10
834.3336053467567
 20
2343.094539631587
 30
0.0
 11
834.3336053467567
 21
2188.833960948904
 31
0.0
  0
LINE
  5
7D3A
330
A
100
AcDbEntity
  8
MODEL
100
AcDbLine
 10
404.3857699254288
 20
1996.112769719635
 30
0.0
 11
414.4172492803657
 21
1996.112769719635
 31
0.0
  0
LINE
  5
7D77
330
A
100
AcDbEntity
  8
HIDDEN
 48
0.5
100
AcDbLine
 10
632.1620653470977
 20
946.3991527158255
 30
0.0
 11
586.4943512152046
 21
946.3991527158255
 31
0.0
  0
LINE
  5
7D78
330
A
100
AcDbEntity
  8
MODEL
 62
     0
100
AcDbLine
 10
578.0803122955441
 20
939.9397883593595
 30
0.0
 11
640.5761042667583
 21
939.9397883593595
 31
0.0
  0
LINE
  5
7D79
330
A
100
AcDbEntity
  8
MODEL
 62
     0
100
AcDbLine
 10
386.3215375189322
 20
1069.884032249223
 30
0.0
 11
389.7566793893093
 21
1069.884032249223
 31
0.0
  0
LINE
  5
7D7A
330
A
100
AcDbEntity
  8
MODEL
 62
     0
100
AcDbLine
 10
828.9069462850022
 20
1069.884032249223
 30
0.0
 11
832.3384835993749
 21
1069.884032249223
 31
0.0
  0
LINE
  5
7D7B
330
A
100
AcDbEntity
  8
MODEL
 62
     0
100
AcDbLine
 10
829.5918119254712
 20
969.8864396280665
 30
0.0
 11
388.9312360647382
 21
969.8864396280665
 31
0.0
  0
LINE
  5
7D7C
102
{ACAD_REACTORS
102
}
330
A
100
AcDbEntity
  8
MODEL
 62
     0
100
AcDbLine
 10
834.2597119487037
 20
1067.829435327801
 30
0.0
 11
832.6124298555625
 21
972.7772935420696
 31
0.0
  0
LINE
  5
7D7D
102
{ACAD_REACTORS
102
}
330
A
100
AcDbEntity
  8
MODEL
 62
     0
100
AcDbLine
 10
385.9070135786461
 20
972.7772935420696
 30
0.0
 11
384.256126929504
 21
1067.829435327801
 31
0.0
  0
LINE
  5
7D7E
330
A
100
AcDbEntity
  8
MODEL
 62
     0
100
AcDbLine
 10
396.0718615056759
 20
1069.884032249223
 30
0.0
 11
404.3118765273722
 21
1069.884032249223
 31
0.0
  0
LINE
  5
7D7F
330
A
100
AcDbEntity
  8
MODEL
 62
     0
100
AcDbLine
 10
804.1796921079005
 20
1069.884032249223
 30
0.0
 11
822.4475819285327
 21
1069.884032249223
 31
0.0
  0
LINE
  5
7D80
330
A
100
AcDbEntity
  8
MODEL
 62
     0
100
AcDbLine
 10
643.4669581807576
 20
942.5566960171675
 30
0.0
 11
643.6003267528541
 21
943.9264272981136
 31
0.0
  0
LINE
  5
7D81
330
A
100
AcDbEntity
  8
MODEL
 62
     0
100
AcDbLine
 10
574.922721237359
 20
943.9264272981136
 30
0.0
 11
575.0524852534473
 21
942.5566960171675
 31
0.0
  0
LINE
  5
7D82
330
A
100
AcDbEntity
  8
MODEL
 62
     0
100
AcDbLine
 10
645.7991059143752
 20
948.0500393649675
 30
0.0
 11
656.1045315255034
 21
956.7081828829585
 31
0.0
  0
LINE
  5
7D83
330
A
100
AcDbEntity
  8
MODEL
 62
     0
100
AcDbLine
 10
562.5590941488082
 20
956.7081828829585
 30
0.0
 11
572.8609152039318
 21
948.0500393649675
 31
0.0
  0
LINE
  5
7D84
330
A
100
AcDbEntity
  8
MODEL
 62
     0
100
AcDbLine
 10
386.3215375189322
 20
1069.884032249223
 30
0.0
 11
385.3627256222718
 21
1069.624504217046
 31
0.0
  0
LINE
  5
7D85
330
A
100
AcDbEntity
  8
MODEL
 62
     0
100
AcDbLine
 10
385.3627256222718
 20
1069.624504217046
 30
0.0
 11
384.6706508697936
 21
1068.925220352558
 31
0.0
  0
LINE
  5
7D86
330
A
100
AcDbEntity
  8
MODEL
 62
     0
100
AcDbLine
 10
384.6706508697936
 20
1068.925220352558
 30
0.0
 11
384.4039137256079
 21
1067.966408455894
 31
0.0
  0
LINE
  5
7D87
330
A
100
AcDbEntity
  8
MODEL
 62
     0
100
AcDbLine
 10
834.2597119487037
 20
1067.966408455894
 30
0.0
 11
833.992974804518
 21
1068.925220352558
 31
0.0
  0
LINE
  5
7D88
330
A
100
AcDbEntity
  8
MODEL
 62
     0
100
AcDbLine
 10
833.992974804518
 20
1068.925220352558
 30
0.0
 11
833.3009000520398
 21
1069.617295105037
 31
0.0
  0
LINE
  5
7D89
330
A
100
AcDbEntity
  8
MODEL
 62
     0
100
AcDbLine
 10
833.3009000520398
 20
1069.617295105037
 30
0.0
 11
832.3420881553794
 21
1069.891241361232
 31
0.0
  0
LINE
  5
7D8A
330
A
100
AcDbEntity
  8
MODEL
 62
     0
100
AcDbLine
 10
829.5918119254712
 20
970.0306218681696
 30
0.0
 11
830.6839923942317
 21
970.2973590123556
 31
0.0
  0
LINE
  5
7D8B
330
A
100
AcDbEntity
  8
MODEL
 62
     0
100
AcDbLine
 10
830.6839923942317
 20
970.2973590123556
 30
0.0
 11
831.6500134028939
 21
970.8452515247304
 31
0.0
  0
LINE
  5
7D8C
330
A
100
AcDbEntity
  8
MODEL
 62
     0
100
AcDbLine
 10
831.6500134028939
 20
970.8452515247304
 30
0.0
 11
832.1979059152765
 21
971.8184816454054
 31
0.0
  0
LINE
  5
7D8D
330
A
100
AcDbEntity
  8
MODEL
 62
     0
100
AcDbLine
 10
832.1979059152765
 20
971.8184816454054
 30
0.0
 11
832.4790612834732
 21
972.9142666701634
 31
0.0
  0
LINE
  5
7D8E
330
A
100
AcDbEntity
  8
MODEL
 62
     0
100
AcDbLine
 10
386.04398670674
 20
972.9142666701634
 30
0.0
 11
386.3251420749367
 21
971.8256907574075
 31
0.0
  0
LINE
  5
7D8F
330
A
100
AcDbEntity
  8
MODEL
 62
     0
100
AcDbLine
 10
386.3251420749367
 20
971.8256907574075
 30
0.0
 11
386.873034587312
 21
970.8452515247304
 31
0.0
  0
LINE
  5
7D90
330
A
100
AcDbEntity
  8
MODEL
 62
     0
100
AcDbLine
 10
386.873034587312
 20
970.8452515247304
 30
0.0
 11
387.831846483976
 21
970.3045681243575
 31
0.0
  0
LINE
  5
7D91
330
A
100
AcDbEntity
  8
MODEL
 62
     0
100
AcDbLine
 10
387.831846483976
 20
970.3045681243575
 30
0.0
 11
388.9312360647382
 21
970.0306218681696
 31
0.0
  0
LINE
  5
7D92
330
A
100
AcDbEntity
  8
MODEL
 62
     0
100
AcDbLine
 10
575.1930629375457
 20
942.5566960171675
 30
0.0
 11
575.4742183057389
 21
941.5978841205035
 31
0.0
  0
LINE
  5
7D93
330
A
100
AcDbEntity
  8
MODEL
 62
     0
100
AcDbLine
 10
575.4742183057389
 20
941.5978841205035
 30
0.0
 11
576.1554793902106
 21
940.7688362399315
 31
0.0
  0
LINE
  5
7D94
330
A
100
AcDbEntity
  8
MODEL
 62
     0
100
AcDbLine
 10
576.1554793902106
 20
940.7688362399315
 30
0.0
 11
576.9809227147817
 21
940.0839705994626
 31
0.0
  0
LINE
  5
7D95
330
A
100
AcDbEntity
  8
MODEL
 62
     0
100
AcDbLine
 10
576.9809227147817
 20
940.0839705994626
 30
0.0
 11
578.0803122955441
 21
939.9397883593595
 31
0.0
  0
LINE
  5
7D96
330
A
100
AcDbEntity
  8
MODEL
 62
     0
100
AcDbLine
 10
640.5797088227629
 20
939.9397883593595
 30
0.0
 11
641.6718892915197
 21
940.0911797114645
 31
0.0
  0
LINE
  5
7D97
330
A
100
AcDbEntity
  8
MODEL
 62
     0
100
AcDbLine
 10
641.6718892915197
 20
940.0911797114645
 30
0.0
 11
642.5009371720918
 21
940.7688362399315
 31
0.0
  0
LINE
  5
7D98
330
A
100
AcDbEntity
  8
MODEL
 62
     0
100
AcDbLine
 10
642.5009371720918
 20
940.7688362399315
 30
0.0
 11
643.1858028125681
 21
941.5978841205035
 31
0.0
  0
LINE
  5
7D99
330
A
100
AcDbEntity
  8
MODEL
 62
     0
100
AcDbLine
 10
643.1858028125681
 20
941.5978841205035
 30
0.0
 11
643.4669581807576
 21
942.5566960171675
 31
0.0
  0
LINE
  5
7D9A
330
A
100
AcDbEntity
  8
MODEL
 62
     0
100
AcDbLine
 10
574.7857481092652
 20
944.0706095382166
 30
0.0
 11
574.3712241689756
 21
945.5773139472626
 31
0.0
  0
LINE
  5
7D9B
330
A
100
AcDbEntity
  8
MODEL
 62
     0
100
AcDbLine
 10
574.3712241689756
 20
945.5773139472626
 30
0.0
 11
573.6935676405084
 21
946.9398361161996
 31
0.0
  0
LINE
  5
7D9C
330
A
100
AcDbEntity
  8
MODEL
 62
     0
100
AcDbLine
 10
573.6935676405084
 20
946.9398361161996
 30
0.0
 11
572.7167329638324
 21
948.0500393649675
 31
0.0
  0
LINE
  5
7D9D
330
A
100
AcDbEntity
  8
MODEL
 62
     0
100
AcDbLine
 10
645.7991059143752
 20
948.0500393649675
 30
0.0
 11
644.8366894617067
 21
946.9542543402106
 31
0.0
  0
LINE
  5
7D9E
330
A
100
AcDbEntity
  8
MODEL
 62
     0
100
AcDbLine
 10
644.8366894617067
 20
946.9542543402106
 30
0.0
 11
644.151823821234
 21
945.5773139472626
 31
0.0
  0
LINE
  5
7D9F
330
A
100
AcDbEntity
  8
MODEL
 62
     0
100
AcDbLine
 10
644.151823821234
 20
945.5773139472626
 30
0.0
 11
643.737299880948
 21
944.0634004262076
 31
0.0
  0
LINE
  5
7DA0
330
A
100
AcDbEntity
  8
MODEL
 62
     0
100
AcDbLine
 10
387.1469808435069
 20
1069.884032249223
 30
0.0
 11
387.5579002277883
 21
1069.884032249223
 31
0.0
  0
LINE
  5
7DA1
330
A
100
AcDbEntity
  8
MODEL
 62
     0
100
AcDbLine
 10
387.5579002277883
 20
1069.884032249223
 30
0.0
 11
830.9615432064203
 21
1069.884032249223
 31
0.0
  0
LINE
  5
7DA2
330
A
100
AcDbEntity
  8
MODEL
 62
     0
100
AcDbLine
 10
830.9615432064203
 20
1069.884032249223
 30
0.0
 11
831.5202493868093
 21
1069.884032249223
 31
0.0
  0
LINE
  5
7DA3
330
A
100
AcDbEntity
  8
MODEL
 62
     0
100
AcDbLine
 10
562.5590941488082
 20
956.7081828829585
 30
0.0
 11
560.904602943665
 21
957.7895496837054
 31
0.0
  0
LINE
  5
7DA4
330
A
100
AcDbEntity
  8
MODEL
 62
     0
100
AcDbLine
 10
560.904602943665
 20
957.7895496837054
 30
0.0
 11
559.2573208505238
 21
958.6258066762796
 31
0.0
  0
LINE
  5
7DA5
330
A
100
AcDbEntity
  8
MODEL
 62
     0
100
AcDbLine
 10
559.2573208505238
 20
958.6258066762796
 30
0.0
 11
557.3396970571995
 21
959.1809083006635
 31
0.0
  0
LINE
  5
7DA6
330
A
100
AcDbEntity
  8
MODEL
 62
     0
100
AcDbLine
 10
557.3396970571995
 20
959.1809083006635
 30
0.0
 11
555.4184687078706
 21
959.4548545568584
 31
0.0
  0
LINE
  5
7DA7
330
A
100
AcDbEntity
  8
MODEL
 62
     0
100
AcDbLine
 10
663.1045792823389
 20
959.4548545568584
 30
0.0
 11
661.1869554890146
 21
959.1881174126725
 31
0.0
  0
LINE
  5
7DA8
330
A
100
AcDbEntity
  8
MODEL
 62
     0
100
AcDbLine
 10
661.1869554890146
 20
959.1881174126725
 30
0.0
 11
659.3918865997731
 21
958.6258066762796
 31
0.0
  0
LINE
  5
7DA9
330
A
100
AcDbEntity
  8
MODEL
 62
     0
100
AcDbLine
 10
659.3918865997731
 20
958.6258066762796
 30
0.0
 11
657.6076313785417
 21
957.8039679077085
 31
0.0
  0
LINE
  5
7DAA
330
A
100
AcDbEntity
  8
MODEL
 62
     0
100
AcDbLine
 10
657.6076313785417
 20
957.8039679077085
 30
0.0
 11
656.1009269694988
 21
956.7081828829585
 31
0.0
  0
LINE
  5
7DAE
102
{ACAD_REACTORS
330
BDD0
102
}
330
A
100
AcDbEntity
  8
MODEL
 62
     0
100
AcDbLine
 10
386.3215375189322
 20
1069.884032249223
 30
0.0
 11
386.454906091025
 21
1069.884032249223
 31
0.0
  0
LINE
  5
7DAF
330
A
100
AcDbEntity
  8
MODEL
 62
     0
100
AcDbLine
 10
389.7530748333049
 20
1069.884032249223
 30
0.0
 11
396.0646523936704
 21
1069.884032249223
 31
0.0
  0
LINE
  5
7DB0
102
{ACAD_REACTORS
330
BDB1
102
}
330
A
100
AcDbEntity
  8
MODEL
 62
     0
100
AcDbLine
 10
822.4475819285327
 20
1069.884032249223
 30
0.0
 11
828.9069462850022
 21
1069.884032249223
 31
0.0
  0
LINE
  5
7DB1
330
A
100
AcDbEntity
  8
MODEL
 62
     0
100
AcDbLine
 10
414.3397513263081
 20
1069.884032249223
 30
0.0
 11
804.1760875518959
 21
1069.884032249223
 31
0.0
  0
LINE
  5
7DB2
330
A
100
AcDbEntity
  8
MODEL
 62
     0
100
AcDbLine
 10
556.2403074764371
 20
959.3106723167555
 30
0.0
 11
557.0657508010119
 21
959.3106723167555
 31
0.0
  0
LINE
  5
7DB3
330
A
100
AcDbEntity
  8
MODEL
 62
     0
100
AcDbLine
 10
449.6463773707256
 20
969.8864396280665
 30
0.0
 11
451.978525104336
 21
969.0718099715054
 31
0.0
  0
LINE
  5
7DB4
330
A
100
AcDbEntity
  8
MODEL
 62
     0
100
AcDbLine
 10
766.6778914579664
 20
969.0718099715054
 30
0.0
 11
768.869461507482
 21
969.8864396280665
 31
0.0
  0
LINE
  5
7DB5
330
A
100
AcDbEntity
  8
MODEL
 62
     0
100
AcDbLine
 10
591.817275221045
 20
1069.891241361232
 30
0.0
 11
626.8463504532666
 21
1069.891241361232
 31
0.0
  0
SPLINE
  5
B8A1
330
A
100
AcDbEntity
  8
MODEL
 62
     0
100
AcDbSpline
210
0.0
220
0.0
230
1.0
 70
     8
 71
     3
 72
    11
 73
     7
 74
     0
 42
0.000000001
 43
0.0000000001
 40
0.0
 40
0.0
 40
0.0
 40
0.0
 40
1.0
 40
1.0
 40
1.0
 40
2.0
 40
2.0
 40
2.0
 40
2.0
 10
555.4112595958651
 20
959.4548545568584
 30
0.0
 10
555.4112595958651
 20
959.4548545568584
 30
0.0
 10
550.7397550166353
 20
959.7143825890355
 30
0.0
 10
550.7397550166353
 20
959.7143825890355
 30
0.0
 10
550.7397550166353
 20
959.7143825890355
 30
0.0
 10
545.8015132932197
 20
959.9955379572316
 30
0.0
 10
545.8015132932197
 20
959.9955379572316
 30
0.0
  0
SPLINE
  5
B8A2
330
A
100
AcDbEntity
  8
MODEL
 62
     0
100
AcDbSpline
210
0.0
220
0.0
230
1.0
 70
     8
 71
     3
 72
    11
 73
     7
 74
     0
 42
0.000000001
 43
0.0000000001
 40
2.0
 40
2.0
 40
2.0
 40
2.0
 40
3.0
 40
3.0
 40
3.0
 40
4.0
 40
4.0
 40
4.0
 40
4.0
 10
545.8015132932197
 20
959.9955379572316
 30
0.0
 10
535.2149323138984
 20
960.5290122455965
 30
0.0
 10
524.6427695585918
 20
961.0769047579786
 30
0.0
 10
514.0706068032779
 20
961.6536337183754
 30
0.0
 10
514.0706068032779
 20
961.6536337183754
 30
0.0
 10
492.2197883161645
 20
962.8863918712275
 30
0.0
 10
492.2197883161645
 20
962.8863918712275
 30
0.0
  0
SPLINE
  5
B8A3
330
A
100
AcDbEntity
  8
MODEL
 62
     0
100
AcDbSpline
210
0.0
220
0.0
230
1.0
 70
     8
 71
     3
 72
    14
 73
    10
 74
     0
 42
0.000000001
 43
0.0000000001
 40
4.0
 40
4.0
 40
4.0
 40
4.0
 40
5.0
 40
5.0
 40
5.0
 40
6.0
 40
6.0
 40
6.0
 40
7.0
 40
7.0
 40
7.0
 40
7.0
 10
492.2197883161645
 20
962.8863918712275
 30
0.0
 10
480.8978779123391
 20
963.7370670878195
 30
0.0
 10
469.09295700417
 20
964.4363509522996
 30
0.0
 10
458.0269700765203
 20
967.1469770661756
 30
0.0
 10
458.0269700765203
 20
967.1469770661756
 30
0.0
 10
454.8585653503289
 20
967.9688158347385
 30
0.0
 10
454.8585653503289
 20
967.9688158347385
 30
0.0
 10
454.8585653503289
 20
967.9688158347385
 30
0.0
 10
451.9821296603405
 20
969.0718099715054
 30
0.0
 10
451.9821296603405
 20
969.0718099715054
 30
0.0
  0
SPLINE
  5
B8A4
330
A
100
AcDbEntity
  8
MODEL
 62
     0
100
AcDbSpline
210
0.0
220
0.0
230
1.0
 70
    24
 71
     3
 72
     8
 73
     4
 74
     0
 42
0.000000001
 43
0.0000000001
 40
0.0
 40
0.0
 40
0.0
 40
0.0
 40
1.0
 40
1.0
 40
1.0
 40
1.0
 10
555.4112595958651
 20
959.4548545568584
 30
0.0
 10
555.4112595958651
 20
959.4548545568584
 30
0.0
 10
555.6924149640619
 20
959.4548545568584
 30
0.0
 10
555.6924149640619
 20
959.4548545568584
 30
0.0
  0
SPLINE
  5
B8A6
330
A
100
AcDbEntity
  8
MODEL
 62
     0
100
AcDbSpline
210
0.0
220
0.0
230
1.0
 70
     8
 71
     3
 72
    11
 73
     7
 74
     0
 42
0.000000001
 43
0.0000000001
 40
0.0
 40
0.0
 40
0.0
 40
0.0
 40
1.0
 40
1.0
 40
1.0
 40
2.0
 40
2.0
 40
2.0
 40
2.0
 10
766.6778914579664
 20
969.0718099715054
 30
0.0
 10
766.6778914579664
 20
969.0718099715054
 30
0.0
 10
763.6572735278788
 20
967.9760249467474
 30
0.0
 10
763.6572735278788
 20
967.9760249467474
 30
0.0
 10
763.6572735278788
 20
967.9760249467474
 30
0.0
 10
760.6330510417866
 20
967.1397679541665
 30
0.0
 10
760.6330510417866
 20
967.1397679541665
 30
0.0
  0
SPLINE
  5
B8A7
330
A
100
AcDbEntity
  8
MODEL
 62
     0
100
AcDbSpline
210
0.0
220
0.0
230
1.0
 70
     8
 71
     3
 72
    11
 73
     7
 74
     0
 42
0.000000001
 43
0.0000000001
 40
2.0
 40
2.0
 40
2.0
 40
2.0
 40
3.0
 40
3.0
 40
3.0
 40
4.0
 40
4.0
 40
4.0
 40
4.0
 10
760.6330510417866
 20
967.1397679541665
 30
0.0
 10
749.390440870011
 20
964.4003053922756
 30
0.0
 10
737.7909796539899
 20
963.7586944238326
 30
0.0
 10
726.2924460060386
 20
962.8791827592186
 30
0.0
 10
726.2924460060386
 20
962.8791827592186
 30
0.0
 10
704.4560457429362
 20
961.6536337183754
 30
0.0
 10
704.4560457429362
 20
961.6536337183754
 30
0.0
  0
SPLINE
  5
B8A8
330
A
100
AcDbEntity
  8
MODEL
 62
     0
100
AcDbSpline
210
0.0
220
0.0
230
1.0
 70
     8
 71
     3
 72
    14
 73
    10
 74
     0
 42
0.000000001
 43
0.0000000001
 40
4.0
 40
4.0
 40
4.0
 40
4.0
 40
5.0
 40
5.0
 40
5.0
 40
6.0
 40
6.0
 40
6.0
 40
7.0
 40
7.0
 40
7.0
 40
7.0
 10
704.4560457429362
 20
961.6536337183754
 30
0.0
 10
693.8766738756204
 20
961.0841138699805
 30
0.0
 10
683.3045111203102
 20
960.5218031335946
 30
0.0
 10
672.7251392529907
 20
959.9955379572316
 30
0.0
 10
672.7251392529907
 20
959.9955379572316
 30
0.0
 10
667.7724793055714
 20
959.7215917010365
 30
0.0
 10
667.7724793055714
 20
959.7215917010365
 30
0.0
 10
667.7724793055714
 20
959.7215917010365
 30
0.0
 10
663.1153929503454
 20
959.4548545568584
 30
0.0
 10
663.1153929503454
 20
959.4548545568584
 30
0.0
  0
SPLINE
  5
BA99
330
A
100
AcDbEntity
  8
MODEL
 62
     0
100
AcDbSpline
210
0.0
220
0.0
230
1.0
 70
  1080
 71
     3
 72
     8
 73
     4
 74
     2
 42
0.000000001
 43
0.0000000001
 44
0.0
 40
0.0
 40
0.0
 40
0.0
 40
0.0
 40
94.30239413720824
 40
94.30239413720824
 40
94.30239413720824
 40
94.30239413720824
 10
1724.977670192239
 20
1067.065269455274
 30
0.0
 10
1724.977670192239
 20
1035.631138076204
 30
0.0
 10
1724.977670192239
 20
1004.197006697135
 30
0.0
 10
1724.977670192239
 20
972.7628753180657
 30
0.0
 11
1724.977670192239
 21
1067.065269455274
 31
0.0
 11
1724.977670192239
 21
972.7628753180657
 31
0.0
  0
SPLINE
  5
BAB8
330
A
100
AcDbEntity
  8
MODEL
 62
     0
100
AcDbSpline
210
0.0
220
0.0
230
1.0
 70
  1064
 71
     3
 72
    10
 73
     6
 74
     4
 42
0.000000001
 43
0.0000000001
 44
0.0
 40
0.0
 40
0.0
 40
0.0
 40
0.0
 40
2.217483840934908
 40
2.724167566063365
 40
4.486333858490192
 40
4.486333858490192
 40
4.486333858490192
 40
4.486333858490192
 10
1721.964261374153
 20
1069.884032249222
 30
0.0
 10
1722.728883700398
 20
1069.737812651183
 30
0.0
 10
1723.668218320562
 20
1069.558182622251
 30
0.0
 10
1724.670520726832
 20
1068.40708239247
 30
0.0
 10
1724.843399231008
 20
1067.651845481477
 30
0.0
 10
1724.977670192239
 20
1067.065269455274
 30
0.0
 11
1721.964261374153
 21
1069.884032249222
 31
0.0
 11
1724.038991061699
 21
1069.101260693516
 31
0.0
 11
1724.3733724212
 21
1068.720580376546
 31
0.0
 11
1724.977670192239
 21
1067.065269455274
 31
0.0
  0
SPLINE
  5
BABA
102
{ACAD_REACTORS
102
}
330
A
100
AcDbEntity
  8
MODEL
 62
     0
100
AcDbSpline
210
0.0
220
0.0
230
1.0
 70
  1064
 71
     3
 72
    12
 73
     8
 74
     6
 42
0.000000001
 43
0.0000000001
 44
0.0
 40
0.0
 40
0.0
 40
0.0
 40
0.0
 40
1.071575942096925
 40
1.72512478324748
 40
2.649782327650114
 40
3.670233253859195
 40
4.764102974436894
 40
4.764102974436894
 40
4.764102974436894
 40
4.764102974436894
 10
1724.977670192239
 20
972.7628753180657
 30
0.0
 10
1724.963867774304
 20
972.4007835548689
 30
0.0
 10
1724.941647330271
 20
971.8178538249626
 30
0.0
 10
1724.561136157229
 20
971.0117370039286
 30
0.0
 10
1724.017996017669
 20
970.3002634798879
 30
0.0
 10
1723.021771400283
 20
969.9486985106538
 30
0.0
 10
1722.320080602976
 20
969.9029164346446
 30
0.0
 10
1721.957052262147
 20
969.8792305160646
 30
0.0
 11
1724.977670192239
 21
972.7628753180657
 31
0.0
 11
1724.849252998176
 21
971.6990219334539
 31
0.0
 11
1724.58236583286
 21
971.1024506227468
 31
0.0
 11
1723.985794522153
 21
970.3959845969098
 31
0.0
 11
1723.043839821037
 21
970.0035034714444
 31
0.0
 11
1721.957052262147
 21
969.8792305160646
 31
0.0
  0
SPLINE
  5
BABB
330
A
100
AcDbEntity
  8
MODEL
 62
     0
100
AcDbSpline
210
0.0
220
0.0
230
1.0
 70
  1080
 71
     3
 72
     8
 73
     4
 74
     2
 42
0.000000001
 43
0.0000000001
 44
0.0
 40
0.0
 40
0.0
 40
0.0
 40
0.0
 40
277.8433788724633
 40
277.8433788724633
 40
277.8433788724633
 40
277.8433788724633
 10
1721.957052262147
 20
969.8792305160646
 30
0.0
 10
1629.342679902358
 20
969.7520932807734
 30
0.0
 10
1536.72830754257
 20
969.6249560454823
 30
0.0
 10
1444.113935182782
 20
969.4978188101916
 30
0.0
 11
1721.957052262147
 21
969.8792305160646
 31
0.0
 11
1444.113935182782
 21
969.4978188101916
 31
0.0
  0
SPLINE
  5
BABC
330
A
100
AcDbEntity
  8
MODEL
 62
     0
100
AcDbSpline
210
0.0
220
0.0
230
1.0
 70
  1064
 71
     3
 72
    48
 73
    44
 74
    42
 42
0.000000001
 43
0.0000000001
 44
0.0
 40
0.0
 40
0.0
 40
0.0
 40
0.0
 40
1.075001419192356
 40
3.33098702433287
 40
5.132238054957964
 40
7.736453917933334
 40
9.824251214439142
 40
11.23762791346614
 40
12.67747546758961
 40
14.37496112332401
 40
15.67402614949561
 40
17.72420795323436
 40
19.97601405482579
 40
22.79357082774287
 40
24.99495716874726
 40
26.98513692566253
 40
28.42129568092896
 40
30.12980527802349
 40
31.32656043506437
 40
32.08528549213486
 40
33.04010167417709
 40
35.05844163289208
 40
40.03857838268895
 40
43.30194400399638
 40
45.15974209872128
 40
46.5502331442414
 40
47.79697208979211
 40
48.38319746807293
 40
48.96942284635375
 40
49.51353173903684
 40
50.06390860824025
 40
50.65033342436939
 40
51.23675824049811
 40
51.74479608187389
 40
52.36264481317647
 40
53.02582010759905
 40
53.47680909834214
 40
53.88990655342339
 40
55.66854688904242
 40
56.74849496710246
 40
57.64214865754832
 40
57.92983648961984
 40
58.47051988999277
 40
58.47051988999277
 40
58.47051988999277
 40
58.47051988999277
 10
1612.702058687589
 20
969.8792305160646
 30
0.0
 10
1612.450925066956
 20
969.6230873665613
 30
0.0
 10
1611.672765320587
 20
968.8294051516964
 30
0.0
 10
1610.274570138823
 20
967.8295750062262
 30
0.0
 10
1608.461088117854
 20
966.5549165591084
 30
0.0
 10
1606.688684047011
 20
965.2977358284751
 30
0.0
 10
1604.833771596999
 20
964.4470723272809
 30
0.0
 10
1603.41797856257
 20
963.6026313401172
 30
0.0
 10
1602.038988213442
 20
962.9664296915553
 30
0.0
 10
1600.665867091527
 20
962.4140379252697
 30
0.0
 10
1599.058850631284
 20
961.9144133170611
 30
0.0
 10
1597.320761182102
 20
961.2241015045827
 30
0.0
 10
1595.008356147634
 20
960.6689140898652
 30
0.0
 10
1592.639606467067
 20
960.1644214574665
 30
0.0
 10
1590.356546610268
 20
959.6620723956268
 30
0.0
 10
1588.486638543724
 20
959.4538715382105
 30
0.0
 10
1586.833704390526
 20
959.0070676549044
 30
0.0
 10
1585.432581540696
 20
958.6171579136135
 30
0.0
 10
1584.338709019601
 20
958.0800336063714
 30
0.0
 10
1583.414600613818
 20
957.7390823527514
 30
0.0
 10
1582.553876666747
 20
956.8064811108404
 30
0.0
 10
1580.443287132699
 20
955.2150151953796
 30
0.0
 10
1577.87423966797
 20
952.9449496082411
 30
0.0
 10
1575.159643754316
 20
950.9449453042499
 30
0.0
 10
1573.61637866576
 20
949.408285939898
 30
0.0
 10
1572.40445015255
 20
948.5271587271616
 30
0.0
 10
1571.550145967805
 20
947.8662997689773
 30
0.0
 10
1571.006202426841
 20
947.2730720577107
 30
0.0
 10
1570.552542388264
 20
946.9060013493637
 30
0.0
 10
1570.322328668326
 20
946.3849008208667
 30
0.0
 10
1570.008752284762
 20
945.917826385133
 30
0.0
 10
1569.842218907199
 20
945.3633237994661
 30
0.0
 10
1569.611855620165
 20
944.8506836491616
 30
0.0
 10
1569.487231841839
 20
944.2934745649995
 30
0.0
 10
1569.300160140484
 20
943.7185404817085
 30
0.0
 10
1569.365844964594
 20
943.1351298370695
 30
0.0
 10
1569.349004515475
 20
942.6272681434093
 30
0.0
 10
1569.387033546016
 20
941.7451214986547
 30
0.0
 10
1568.8956725211
 20
940.6668706748229
 30
0.0
 10
1567.921766875268
 20
939.8478516482639
 30
0.0
 10
1567.209492339303
 20
939.5858114054183
 30
0.0
 10
1566.658394717617
 20
939.4109011341616
 30
0.0
 10
1566.379206369746
 20
939.4342976692878
 30
0.0
 10
1566.196978282435
 20
939.4495687430212
 30
0.0
 11
1612.702058687589
 21
969.8792305160646
 31
0.0
 11
1611.935189398064
 21
969.1258783115486
 31
0.0
 11
1610.150934176829
 21
967.7453333625895
 31
0.0
 11
1608.679149349369
 21
966.7068947765447
 31
0.0
 11
1606.503123502306
 21
965.2762125008853
 31
0.0
 11
1604.650381717024
 21
964.3137960482168
 31
0.0
 11
1603.414019008169
 21
963.6289304077404
 31
0.0
 11
1602.112774291269
 21
963.0125513313146
 31
0.0
 11
1600.533978762178
 21
962.388963142887
 31
0.0
 11
1599.302114109539
 21
961.9765562809164
 31
0.0
 11
1597.36917859199
 21
961.2931781181255
 31
0.0
 11
1595.191114950846
 21
960.7216280378257
 31
0.0
 11
1592.438965743715
 21
960.1180545872007
 31
0.0
 11
1590.280189404373
 21
959.6870249605417
 31
0.0
 11
1588.314533913727
 21
959.3755543248012
 31
0.0
 11
1586.920832235441
 21
959.0289311832325
 31
0.0
 11
1585.291722309908
 21
958.5141439515589
 31
0.0
 11
1584.194032461793
 21
958.0373841553833
 31
0.0
 11
1583.506056206403
 21
957.7174585636499
 31
0.0
 11
1582.78851847445
 21
957.0875271826935
 31
0.0
 11
1581.238013091022
 21
955.7953858417768
 31
0.0
 11
1577.389124670172
 21
952.6350346001386
 31
0.0
 11
1574.84791268842
 21
950.587646790726
 31
0.0
 11
1573.470972295462
 21
949.3404704138634
 31
0.0
 11
1572.369055950309
 21
948.4923868590431
 31
0.0
 11
1571.409166262038
 21
947.6967928767231
 31
0.0
 11
1570.994642321752
 21
947.282268936437
 31
0.0
 11
1570.580118381466
 21
946.867744996151
 31
0.0
 11
1570.309776681279
 21
946.3955481598246
 31
0.0
 11
1570.039434981089
 21
945.9161422114962
 31
0.0
 11
1569.830370732947
 21
945.3682496991173
 31
0.0
 11
1569.621306484806
 21
944.8203571867384
 31
0.0
 11
1569.487937912709
 21
944.3301375703963
 31
0.0
 11
1569.347360228611
 21
943.7284940135407
 31
0.0
 11
1569.354569340613
 21
943.0653579039549
 31
0.0
 11
1569.354569340613
 21
942.6143689132118
 31
0.0
 11
1569.354569340613
 21
942.2012714581306
 31
0.0
 11
1568.669703700144
 21
940.5597719917901
 31
0.0
 11
1567.840655819568
 21
939.8676972393118
 31
0.0
 11
1567.015212495
 21
939.5252644190773
 31
0.0
 11
1566.737661682808
 21
939.4495687430212
 31
0.0
 11
1566.196978282435
 21
939.4495687430212
 31
0.0
  0
SPLINE
  5
BABD
330
A
100
AcDbEntity
  8
MODEL
 62
     0
100
AcDbSpline
210
0.0
220
0.0
230
1.0
 70
  1064
 71
     3
 72
     9
 73
     5
 74
     3
 42
0.000000001
 43
0.0000000001
 44
0.0
 40
0.0
 40
0.0
 40
0.0
 40
0.0
 40
1.398240013654943
 40
61.3838070671691
 40
61.3838070671691
 40
61.3838070671691
 40
61.3838070671691
 10
1566.196978282435
 20
939.4495687430212
 30
0.0
 10
1565.730904543327
 20
939.4519991493262
 30
0.0
 10
1545.269910578704
 20
939.5586958467802
 30
0.0
 10
1524.808508673596
 20
939.5071497760553
 30
0.0
 10
1504.81318979993
 20
939.4567778550304
 30
0.0
 11
1566.196978282435
 21
939.4495687430212
 31
0.0
 11
1564.798756853444
 21
939.4567778550304
 31
0.0
 11
1504.81318979993
 21
939.4567778550304
 31
0.0
  0
SPLINE
  5
BABE
102
{ACAD_REACTORS
330
BEC8
102
}
330
A
100
AcDbEntity
  8
MODEL
 62
     0
100
AcDbSpline
210
0.0
220
0.0
230
1.0
 70
  1080
 71
     3
 72
     8
 73
     4
 74
     2
 42
0.000000001
 43
0.0000000001
 44
0.0
 40
0.0
 40
0.0
 40
0.0
 40
0.0
 40
344.9127547665221
 40
344.9127547665221
 40
344.9127547665221
 40
344.9127547665221
 10
1721.957052262147
 20
1069.884032249222
 30
0.0
 10
1606.98613400664
 20
1069.884032249222
 30
0.0
 10
1492.015215751132
 20
1069.884032249222
 30
0.0
 10
1377.044297495625
 20
1069.884032249222
 30
0.0
 11
1721.957052262147
 21
1069.884032249222
 31
0.0
 11
1377.044297495625
 21
1069.884032249222
 31
0.0
  0
SPLINE
  5
BABF
330
A
100
AcDbEntity
  8
MODEL
 62
     0
100
AcDbSpline
210
0.0
220
0.0
230
1.0
 70
  1064
 71
     3
 72
    11
 73
     7
 74
     5
 42
0.000000001
 43
0.0000000001
 44
0.0
 40
0.0
 40
0.0
 40
0.0
 40
0.0
 40
0.6913609826964513
 40
1.723727194133873
 40
2.478679999263366
 40
3.249246061098765
 40
3.249246061098765
 40
3.249246061098765
 40
3.249246061098765
 10
1377.044297495625
 20
1069.884032249222
 30
0.0
 10
1376.812348439725
 20
1069.854943214575
 30
0.0
 10
1376.234044333312
 20
1069.782417339776
 30
0.0
 10
1375.565058851457
 20
1069.233814549935
 30
0.0
 10
1375.054739893911
 20
1068.525463473884
 30
0.0
 10
1375.001948300472
 20
1068.010335285853
 30
0.0
 10
1374.975282350195
 20
1067.75013509575
 30
0.0
 11
1377.044297495625
 21
1069.884032249222
 31
0.0
 11
1376.366640967157
 21
1069.747059121128
 31
0.0
 11
1375.532158371369
 21
1069.139260806023
 31
0.0
 11
1375.119464590295
 21
1068.507091856267
 31
0.0
 11
1374.975282350195
 21
1067.75013509575
 31
0.0
  0
SPLINE
  5
BAC0
330
A
100
AcDbEntity
  8
MODEL
 62
     0
100
AcDbSpline
210
0.0
220
0.0
230
1.0
 70
  1080
 71
     3
 72
     8
 73
     4
 74
     2
 42
0.000000001
 43
0.0000000001
 44
0.0
 40
0.0
 40
0.0
 40
0.0
 40
0.0
 40
95.55239259988466
 40
95.55239259988466
 40
95.55239259988466
 40
95.55239259988466
 10
1374.975282350195
 20
1067.75013509575
 30
0.0
 10
1376.352222743147
 20
1035.929114705743
 30
0.0
 10
1377.729163136099
 20
1004.108094315737
 30
0.0
 10
1379.106103529052
 20
972.287073925731
 30
0.0
 11
1374.975282350195
 21
1067.75013509575
 31
0.0
 11
1379.106103529052
 21
972.287073925731
 31
0.0
  0
SPLINE
  5
BAC1
102
{ACAD_REACTORS
102
}
330
A
100
AcDbEntity
  8
MODEL
 62
     0
100
AcDbSpline
210
0.0
220
0.0
230
1.0
 70
  1064
 71
     3
 72
    11
 73
     7
 74
     5
 42
0.000000001
 43
0.0000000001
 44
0.0
 40
0.0
 40
0.0
 40
0.0
 40
0.0
 40
1.136504560925752
 40
2.207270062266
 40
2.788397828564283
 40
3.965449571743394
 40
3.965449571743394
 40
3.965449571743394
 40
3.965449571743394
 10
1379.106103529052
 20
972.287073925731
 30
0.0
 10
1379.157120853494
 20
971.8988649645587
 30
0.0
 10
1379.256204497124
 20
971.1449022904442
 30
0.0
 10
1379.95744258704
 20
970.4861204850939
 30
0.0
 10
1380.575653099754
 20
969.7549598500525
 30
0.0
 10
1381.172229026786
 20
969.6221234047313
 30
0.0
 10
1381.571619834759
 20
969.5331931398291
 30
0.0
 11
1379.106103529052
 21
972.287073925731
 31
0.0
 11
1379.380049785239
 21
971.1840797889713
 31
0.0
 11
1380.05770631371
 21
970.3550319083993
 31
0.0
 11
1380.468625697992
 21
969.9441125241106
 31
0.0
 11
1381.571619834759
 21
969.5331931398291
 31
0.0
  0
SPLINE
  5
BAC2
102
{ACAD_REACTORS
330
BEC8
102
}
330
A
100
AcDbEntity
  8
MODEL
 62
     0
100
AcDbSpline
210
0.0
220
0.0
230
1.0
 70
  1064
 71
     3
 72
     9
 73
     5
 74
     3
 42
0.000000001
 43
0.0000000001
 44
0.0
 40
0.0
 40
0.0
 40
0.0
 40
0.0
 40
3.164749519302857
 40
3.986884584186303
 40
3.986884584186303
 40
3.986884584186303
 40
3.986884584186303
 10
1381.571619834759
 20
969.540402251831
 30
0.0
 10
1382.626612062775
 20
969.5229466390695
 30
0.0
 10
1383.955668983286
 20
969.5009564268896
 30
0.0
 10
1385.284284999788
 20
969.5336587160973
 30
0.0
 10
1385.558258773512
 20
969.540402251831
 30
0.0
 11
1381.571619834759
 21
969.540402251831
 31
0.0
 11
1384.736318703989
 21
969.5224973077334
 31
0.0
 11
1385.558258773512
 21
969.540402251831
 31
0.0
  0
SPLINE
  5
BAC3
330
A
100
AcDbEntity
  8
MODEL
 62
     0
100
AcDbSpline
210
0.0
220
0.0
230
1.0
 70
  1080
 71
     3
 72
     8
 73
     4
 74
     2
 42
0.000000001
 43
0.0000000001
 44
0.0
 40
0.0
 40
0.0
 40
0.0
 40
0.0
 40
59.10358426208489
 40
59.10358426208489
 40
59.10358426208489
 40
59.10358426208489
 10
1385.010366261135
 20
969.540402251831
 30
0.0
 10
1404.711555901684
 20
969.5262077712844
 30
0.0
 10
1424.412745542233
 20
969.5120132907379
 30
0.0
 10
1444.113935182782
 20
969.4978188101916
 30
0.0
 11
1385.010366261135
 21
969.540402251831
 31
0.0
 11
1444.113935182782
 21
969.4978188101916
 31
0.0
  0
SPLINE
  5
BAC4
330
A
100
AcDbEntity
  8
MODEL
 62
     0
100
AcDbSpline
210
0.0
220
0.0
230
1.0
 70
  1064
 71
     3
 72
    36
 73
    32
 74
    30
 42
0.000000001
 43
0.0000000001
 44
0.0
 40
0.0
 40
0.0
 40
0.0
 40
0.0
 40
4.315692801066572
 40
9.036180587839661
 40
17.59440162451254
 40
24.4111392941297
 40
31.51564602284652
 40
35.32815033318642
 40
38.56099500692273
 40
42.94452637253622
 40
45.71693846699765
 40
48.89079045281999
 40
51.12775943788133
 40
53.96916715026263
 40
58.74130587875912
 40
59.87185614806626
 40
61.08975243235658
 40
62.05817998147425
 40
62.76789937911188
 40
63.18205237896098
 40
63.56542622971704
 40
63.98084513901309
 40
64.53751277037776
 40
65.54949814192247
 40
66.1945388912194
 40
66.76629010566029
 40
67.52721862242323
 40
67.99251131516104
 40
68.69980099923677
 40
69.87265063149667
 40
71.54698037670552
 40
71.54698037670552
 40
71.54698037670552
 40
71.54698037670552
 10
1444.113935182782
 20
969.4978188101916
 30
0.0
 10
1445.380403683361
 20
968.8163724952059
 30
0.0
 10
1448.032130441395
 20
967.38956288503
 30
0.0
 10
1453.28875985905
 20
964.7642709038984
 30
0.0
 10
1459.717635628896
 20
962.8087470010499
 30
0.0
 10
1466.937224117878
 20
960.7667505339496
 30
0.0
 10
1472.803941028349
 20
959.994499120675
 30
0.0
 10
1477.458372225924
 20
959.1583359738485
 30
0.0
 10
1481.26887174406
 20
959.1172551335483
 30
0.0
 10
1484.725971250138
 20
958.3843480122175
 30
0.0
 10
1487.712680095266
 20
956.6089662749158
 30
0.0
 10
1489.778420009873
 20
954.8233495068507
 30
0.0
 10
1491.892488171544
 20
953.0645059668575
 30
0.0
 10
1494.452269749623
 20
951.0051178037036
 30
0.0
 10
1496.662032143253
 20
949.1146760749316
 30
0.0
 10
1498.564877627768
 20
947.6754121962312
 30
0.0
 10
1499.242289667157
 20
946.7936652763262
 30
0.0
 10
1499.847327814912
 20
946.038409102682
 30
0.0
 10
1500.139687069206
 20
945.3962884432112
 30
0.0
 10
1500.258827050652
 20
944.9078569660877
 30
0.0
 10
1500.373176264258
 20
944.5200731688506
 30
0.0
 10
1500.478098464445
 20
944.080005908191
 30
0.0
 10
1500.559321709329
 20
943.4225948953882
 30
0.0
 10
1500.601804742963
 20
942.6859505805121
 30
0.0
 10
1500.72746280199
 20
941.9510049393432
 30
0.0
 10
1500.877407352021
 20
941.314264035369
 30
0.0
 10
1501.102780685115
 20
940.7297551379702
 30
0.0
 10
1501.619472934102
 20
940.3300398025501
 30
0.0
 10
1502.103438249722
 20
939.6972917764748
 30
0.0
 10
1503.314029416691
 20
939.3369454662111
 30
0.0
 10
1504.25804576408
 20
939.412403526107
 30
0.0
 10
1504.81318979993
 20
939.4567778550304
 30
0.0
 11
1444.113935182782
 21
969.4978188101916
 31
0.0
 11
1447.924286728642
 21
967.4713871063982
 31
0.0
 11
1452.177662811584
 21
965.4239992969856
 31
0.0
 11
1460.280704705191
 21
962.6701185110765
 31
0.0
 11
1466.877042189748
 21
960.9507452978946
 31
0.0
 11
1473.884299058595
 21
959.7792645970808
 31
0.0
 11
1477.658269193204
 21
959.2385811967074
 31
0.0
 11
1480.884346815434
 21
959.0295169485621
 31
0.0
 11
1485.144932010386
 21
957.9986139318466
 31
0.0
 11
1487.549170864044
 21
956.6180689828948
 31
0.0
 11
1490.021896281753
 21
954.6283540695154
 31
0.0
 11
1491.741269494942
 21
953.1973453365249
 31
0.0
 11
1493.942964915976
 21
951.4012008376114
 31
0.0
 11
1497.638323115022
 21
948.3816585171994
 31
0.0
 11
1498.507248456227
 21
947.6583932388662
 31
0.0
 11
1499.296418876166
 21
946.7307718680572
 31
0.0
 11
1499.862710401672
 21
945.9451728443626
 31
0.0
 11
1500.153788268202
 21
945.2978898312999
 31
0.0
 11
1500.264535293199
 21
944.8988186550189
 31
0.0
 11
1500.367051786979
 21
944.5294057722622
 31
0.0
 11
1500.460690464974
 21
944.1246778782593
 31
0.0
 11
1500.53638614103
 21
943.5731808098758
 31
0.0
 11
1500.631831083643
 21
942.5657064155857
 31
0.0
 11
1500.738241277166
 21
941.9295032727391
 31
0.0
 11
1500.875214405262
 21
941.3744016483547
 31
0.0
 11
1501.206833557488
 21
940.689536007882
 31
0.0
 11
1501.543562449864
 21
940.3684270809517
 31
0.0
 11
1502.043090550066
 21
939.8676972393118
 31
0.0
 11
1503.138875574823
 21
939.4495687430212
 31
0.0
 11
1504.81318979993
 21
939.4567778550304
 31
0.0
  0
SPLINE
  5
BAC5
330
A
100
AcDbEntity
  8
HIDDEN
 62
     0
 48
0.7
100
AcDbSpline
210
0.0
220
0.0
230
1.0
 70
  1064
 71
     3
 72
    58
 73
    54
 74
    52
 42
0.000000001
 43
0.0000000001
 44
0.0
 40
0.0
 40
0.0
 40
0.0
 40
0.0
 40
2.603525521846495
 40
4.897104482488508
 40
6.148245773996453
 40
8.547945262113338
 40
10.27573544349344
 40
12.38267525658443
 40
15.27848881042159
 40
19.18714914442279
 40
22.5775288860067
 40
27.91226356901979
 40
31.97782361519955
 40
39.81600012984315
 40
45.99372226391885
 40
51.34882324139363
 40
61.52584401430254
 40
73.50655072034662
 40
82.53285226946421
 40
93.43795740780095
 40
97.36339795101574
 40
103.9552928870091
 40
110.615035059738
 40
115.6535915875806
 40
117.6027831455314
 40
121.1232518595963
 40
125.3483027777696
 40
131.6124055924639
 40
140.6531883228479
 40
149.3182869731706
 40
157.9286429264215
 40
160.7787305844686
 40
162.7514455704068
 40
163.3382330834692
 40
164.0839715881804
 40
164.6965340392009
 40
165.5349606577484
 40
166.4294875979597
 40
167.7972296926697
 40
169.644591897706
 40
171.2999590414734
 40
173.65418842465
 40
176.0151934201861
 40
178.4801534140821
 40
180.1910331355327
 40
184.7843776566689
 40
188.1412383113076
 40
190.8806002944387
 40
192.8046288741843
 40
195.0817347899176
 40
198.307410125008
 40
200.6051583102961
 40
202.5022990283317
 40
202.5022990283317
 40
202.5022990283317
 40
202.5022990283317
 10
1377.044297495625
 20
1069.884032249222
 30
0.0
 10
1377.907701581044
 20
1069.761339792457
 30
0.0
 10
1379.531722540865
 20
1069.530561267358
 30
0.0
 10
1381.427525506389
 20
1068.722321498166
 30
0.0
 10
1383.271560758695
 20
1067.995684996748
 30
0.0
 10
1384.805246539519
 20
1067.045173200196
 30
0.0
 10
1386.483469270781
 20
1065.820301409993
 30
0.0
 10
1388.174981498547
 20
1064.340825302712
 30
0.0
 10
1390.229794918771
 20
1062.19025312981
 30
0.0
 10
1392.329537706803
 20
1059.51087323393
 30
0.0
 10
1394.668390130429
 20
1056.006315318424
 30
0.0
 10
1396.794746749701
 20
1052.306388035099
 30
0.0
 10
1399.420409079456
 20
1047.19505182684
 30
0.0
 10
1402.112241329191
 20
1041.802130980169
 30
0.0
 10
1404.911916111507
 20
1035.983470157832
 30
0.0
 10
1408.170449367419
 20
1029.521635933345
 30
0.0
 10
1412.434016014311
 20
1021.401592426042
 30
0.0
 10
1417.659250511847
 20
1012.405560080615
 30
0.0
 10
1423.654719774218
 20
1003.611774473014
 30
0.0
 10
1428.628498319234
 20
997.3864827195663
 30
0.0
 10
1433.532440117789
 20
992.1922514981185
 30
0.0
 10
1437.747516702958
 20
988.3079338219876
 30
0.0
 10
1442.498470871258
 20
984.4806946067713
 30
0.0
 10
1446.235964088322
 20
981.8778428967208
 30
0.0
 10
1449.237638094449
 20
980.071313465724
 30
0.0
 10
1452.076727918731
 20
978.5241583903439
 30
0.0
 10
1456.307843903257
 20
976.5406638358903
 30
0.0
 10
1462.405588279549
 20
974.2357153544318
 30
0.0
 10
1470.150850572444
 20
972.2026032653584
 30
0.0
 10
1478.839855303445
 20
970.8740567411327
 30
0.0
 10
1485.545331065714
 20
970.564008866208
 30
0.0
 10
1490.021655183243
 20
970.3898261642805
 30
0.0
 10
1491.817875265804
 20
970.267146121862
 30
0.0
 10
1492.910773403167
 20
970.0626420138526
 30
0.0
 10
1493.478651723096
 20
969.7457409771339
 30
0.0
 10
1494.182214798975
 20
969.4855663975115
 30
0.0
 10
1494.635451891251
 20
968.8086401725877
 30
0.0
 10
1495.22270883414
 20
967.969065657738
 30
0.0
 10
1495.78862041064
 20
966.7125818957261
 30
0.0
 10
1496.443602525603
 20
965.2183805460393
 30
0.0
 10
1497.714113103896
 20
963.7115690915041
 30
0.0
 10
1499.294905496383
 20
962.2938811211193
 30
0.0
 10
1501.140141742002
 20
960.7693146147108
 30
0.0
 10
1502.806383512431
 20
959.363722970405
 30
0.0
 10
1505.037898259465
 20
957.4823181237762
 30
0.0
 10
1507.564824220068
 20
955.4245073791961
 30
0.0
 10
1510.1018374149
 20
953.0867446646748
 30
0.0
 10
1512.635727084198
 20
951.4822485889144
 30
0.0
 10
1512.463118424287
 20
948.9909438008726
 30
0.0
 10
1512.647298314699
 20
946.5722818223944
 30
0.0
 10
1512.721099514324
 20
943.9543742626979
 30
0.0
 10
1512.839016314756
 20
941.487347341778
 30
0.0
 10
1512.876053865653
 20
940.0891247563987
 30
0.0
 10
1512.892804117572
 20
939.4567778550304
 30
0.0
 11
1377.044297495625
 21
1069.884032249222
 31
0.0
 11
1379.602286353343
 21
1069.399224919764
 31
0.0
 11
1381.751726289302
 21
1068.598967204772
 31
0.0
 11
1382.904514740061
 21
1068.112723110604
 31
0.0
 11
1384.974573458034
 21
1066.898880230569
 31
0.0
 11
1386.367497963157
 21
1065.876617918879
 31
0.0
 11
1387.95832204515
 21
1064.495142578477
 31
0.0
 11
1389.965907719943
 21
1062.408198425666
 31
0.0
 11
1392.392675487739
 21
1059.344144932696
 31
0.0
 11
1394.2835590433
 21
1056.530031542754
 31
0.0
 11
1396.963568896331
 21
1051.917338042661
 31
0.0
 11
1398.841007601805
 21
1048.31123177741
 31
0.0
 11
1402.340398878346
 21
1041.297582814967
 31
0.0
 11
1405.049226313538
 21
1035.745420651251
 31
0.0
 11
1407.455699377393
 21
1030.961489854104
 31
0.0
 11
1412.213376655302
 21
1021.965031732627
 31
0.0
 11
1418.293090720786
 21
1011.641543462754
 31
0.0
 11
1423.38598834856
 21
1004.189261033282
 31
0.0
 11
1430.247484829886
 21
995.7133431411048
 31
0.0
 11
1432.946181299432
 21
992.8627079796761
 31
0.0
 11
1437.777970108999
 21
988.3786366436111
 31
0.0
 11
1442.97305816198
 21
984.211716206526
 31
0.0
 11
1447.124852585326
 21
981.356956155219
 31
0.0
 11
1448.793803195403
 21
980.3500045224628
 31
0.0
 11
1451.885057541172
 21
978.665413611745
 31
0.0
 11
1455.709396525179
 21
976.8694496375624
 31
0.0
 11
1461.566578159616
 21
974.6485472591867
 31
0.0
 11
1470.304802519885
 21
972.3292397315804
 31
0.0
 11
1478.870994120339
 21
971.0237528170019
 31
0.0
 11
1487.464855506926
 21
970.4910464158634
 31
0.0
 11
1490.312024367592
 21
970.3620924031047
 31
0.0
 11
1492.275953994058
 21
970.1761224108109
 31
0.0
 11
1492.84821507054
 21
970.0463655388169
 31
0.0
 11
1493.529129272182
 21
969.7422573879708
 31
0.0
 11
1494.077021784561
 21
969.4683111317831
 31
0.0
 11
1494.623053512413
 21
968.8320654662828
 31
0.0
 11
1495.114800548713
 21
968.084828355953
 31
0.0
 11
1495.720699321697
 21
966.858612585977
 31
0.0
 11
1496.549747202269
 21
965.2077259368348
 31
0.0
 11
1497.583846858864
 21
963.9151013660894
 31
0.0
 11
1499.303627988171
 21
962.3073859510075
 31
0.0
 11
1501.111012586943
 21
960.7882725579166
 31
0.0
 11
1502.997976290103
 21
959.2022726353239
 31
0.0
 11
1504.30768027834
 21
958.1014616231755
 31
0.0
 11
1507.823954136316
 21
955.1460205316348
 31
0.0
 11
1510.393681120752
 21
952.986155563605
 31
0.0
 11
1512.344911605189
 21
951.0634481830534
 31
0.0
 11
1512.515665986971
 21
949.1470116678565
 31
0.0
 11
1512.609321337534
 21
946.8718325481434
 31
0.0
 11
1512.741990508619
 21
943.6488866506058
 31
0.0
 11
1512.836494857456
 21
941.3530827280015
 31
0.0
 11
1512.892804117572
 21
939.4567778550304
 31
0.0
  0
SPLINE
  5
BAC6
330
A
100
AcDbEntity
  8
HIDDEN
 62
     0
 48
0.7
100
AcDbSpline
210
0.0
220
0.0
230
1.0
 70
  1064
 71
     3
 72
    39
 73
    35
 74
    33
 42
0.000000001
 43
0.0000000001
 44
0.0
 40
0.0
 40
0.0
 40
0.0
 40
0.0
 40
1.086679276711743
 40
2.048748401905963
 40
2.831680391755677
 40
3.915609240568737
 40
4.85107491428853
 40
5.518880918634368
 40
10.60060575653511
 40
24.26241926167532
 40
41.54131791162418
 40
58.1886979854973
 40
75.834380690138
 40
88.48311336162587
 40
95.97130236267883
 40
103.1366320475362
 40
113.3000188739837
 40
123.8372432611023
 40
126.690957171068
 40
127.791710909478
 40
130.2810267841876
 40
132.7377267295677
 40
134.4873442019978
 40
136.9797323777073
 40
139.8427660814132
 40
143.5491822310244
 40
149.1989601644531
 40
152.5294260951584
 40
154.0867444708282
 40
154.6584956852683
 40
156.9662232443152
 40
159.5051645827226
 40
164.0555671451401
 40
165.5507578611436
 40
165.5507578611436
 40
165.5507578611436
 40
165.5507578611436
 10
1625.534975744554
 20
1069.867107866098
 30
0.0
 10
1625.16738883169
 20
1069.840616730435
 30
0.0
 10
1624.474366413364
 20
1069.790672213211
 30
0.0
 10
1623.661375543204
 20
1069.276058346841
 30
0.0
 10
1622.851318339772
 20
1068.790541374734
 30
0.0
 10
1622.246658186947
 20
1068.051182021344
 30
0.0
 10
1621.862559496326
 20
1067.228813370031
 30
0.0
 10
1621.538584181533
 20
1065.014698358207
 30
0.0
 10
1620.899452059095
 20
1058.587008719889
 30
0.0
 10
1619.911073060117
 20
1046.611175905807
 30
0.0
 10
1618.568829449544
 20
1030.80759909721
 30
0.0
 10
1616.913010575053
 20
1013.700874463272
 30
0.0
 10
1615.655834096805
 20
998.0846705069429
 30
0.0
 10
1611.515810481009
 20
985.9161211146516
 30
0.0
 10
1605.764728696689
 20
978.7212338849663
 30
0.0
 10
1599.057829082936
 20
973.7147475843688
 30
0.0
 10
1589.992558047048
 20
970.8775722876634
 30
0.0
 10
1582.223278517625
 20
970.3760982322613
 30
0.0
 10
1577.281828904195
 20
970.3524163117228
 30
0.0
 10
1575.339424825968
 20
969.2988339738432
 30
0.0
 10
1574.389819717329
 20
967.4081064483994
 30
0.0
 10
1573.540741747442
 20
965.3604349074129
 30
0.0
 10
1572.11102952942
 20
963.6084323587056
 30
0.0
 10
1570.285968523376
 20
962.0976685934504
 30
0.0
 10
1568.071614720153
 20
960.0387801988859
 30
0.0
 10
1564.829838970978
 20
957.5746721907286
 30
0.0
 10
1561.658595375308
 20
954.7325906249459
 30
0.0
 10
1558.918115666703
 20
952.6255649689972
 30
0.0
 10
1557.578765238002
 20
951.2649808391618
 30
0.0
 10
1557.276524443224
 20
949.7974708938177
 30
0.0
 10
1557.245330993266
 20
947.9915820058662
 30
0.0
 10
1557.234987786917
 20
944.8587096849863
 30
0.0
 10
1557.057854495763
 20
942.0013437579751
 30
0.0
 10
1556.99972242485
 20
939.986978559693
 30
0.0
 10
1556.985345253127
 20
939.4887875626468
 30
0.0
 11
1625.534975744554
 21
1069.867107866098
 31
0.0
 11
1624.461703418386
 21
1069.696936292924
 31
0.0
 11
1623.610346290138
 21
1069.248864823364
 31
0.0
 11
1622.960681899444
 21
1068.811922401306
 31
0.0
 11
1622.256999877189
 21
1067.98746296577
 31
0.0
 11
1621.875866521574
 21
1067.133160096791
 31
0.0
 11
1621.75370130811
 21
1066.476623334637
 31
0.0
 11
1621.18951835648
 21
1061.426313945577
 31
0.0
 11
1620.005687870286
 21
1047.815888029053
 31
0.0
 11
1618.516682865249
 21
1030.60126626004
 31
0.0
 11
1616.988099273859
 21
1014.024212977622
 31
0.0
 11
1614.671047403958
 21
996.5313175984961
 31
0.0
 11
1610.147329620826
 21
984.7191875783287
 31
0.0
 11
1605.468615929591
 21
978.8725977422841
 31
0.0
 11
1599.704930881604
 21
974.615617103344
 31
0.0
 11
1590.091580022958
 21
971.3174483610605
 31
0.0
 11
1579.596541998792
 21
970.3754957848673
 31
0.0
 11
1576.765536481744
 21
970.0162036441584
 31
0.0
 11
1575.80672458508
 21
969.475520243785
 31
0.0
 11
1574.42257508012
 21
967.4065050983595
 31
0.0
 11
1573.326790055366
 21
965.2077259368348
 31
0.0
 11
1572.23821414261
 21
963.8379946558894
 31
0.0
 11
1570.395684517749
 21
962.1595777232037
 31
0.0
 11
1568.251575203857
 21
960.2622751014173
 31
0.0
 11
1565.367930401859
 21
957.9337319238043
 31
0.0
 11
1561.042940983088
 21
954.298562433316
 31
0.0
 11
1558.490437549106
 21
952.1592332078112
 31
0.0
 11
1557.538834764444
 21
950.9264750549596
 31
0.0
 11
1557.401861636351
 21
950.3713734305752
 31
0.0
 11
1557.251778437428
 21
948.0685313777662
 31
0.0
 11
1557.219440448667
 21
945.529795988964
 31
0.0
 11
1557.032551250177
 21
940.9832329015821
 31
0.0
 11
1556.985345253127
 21
939.4887875626468
 31
0.0
  0
SPLINE
  5
BAC7
330
A
100
AcDbEntity
  8
HIDDEN
 62
     0
 48
0.5
100
AcDbSpline
210
0.0
220
0.0
230
1.0
 70
  1080
 71
     3
 72
     8
 73
     4
 74
     2
 42
0.000000001
 43
0.0000000001
 44
0.0
 40
0.0
 40
0.0
 40
0.0
 40
0.0
 40
45.19392315925484
 40
45.19392315925484
 40
45.19392315925484
 40
45.19392315925484
 10
1557.538834764444
 20
951.0634481830534
 30
0.0
 10
1542.474193711359
 20
951.0634481830537
 30
0.0
 10
1527.409552658274
 20
951.0634481830538
 30
0.0
 10
1512.344911605189
 20
951.0634481830534
 30
0.0
 11
1557.538834764444
 21
951.0634481830534
 31
0.0
 11
1512.344911605189
 21
951.0634481830534
 31
0.0
  0
CIRCLE
  5
BB8F
330
A
100
AcDbEntity
  8
HIDDEN
 48
0.5
100
AcDbCircle
 10
610.3015634502052
 20
2286.155452591508
 30
0.0
 40
17.5
  0
SPLINE
  5
BBAD
330
A
100
AcDbEntity
  8
MODEL
100
AcDbSpline
210
0.0
220
0.0
230
1.0
 70
  1064
 71
     3
 72
    11
 73
     7
 74
     5
 42
0.000000001
 43
0.0000000001
 44
0.0
 40
0.0
 40
0.0
 40
0.0
 40
0.0
 40
1.134771250669804
 40
2.242214988962627
 40
3.358167131842303
 40
4.522572628338275
 40
4.522572628338275
 40
4.522572628338275
 40
4.522572628338275
 10
831.3093828606645
 20
2345.981788989585
 30
0.0
 10
831.6770777557344
 20
2345.903767872697
 30
0.0
 10
832.40361273325
 20
2345.749604540096
 30
0.0
 10
833.4701379747803
 20
2345.243348066637
 30
0.0
 10
833.9549515094013
 20
2344.168261933775
 30
0.0
 10
834.2056120444322
 20
2343.457481320482
 30
0.0
 10
834.3336053467567
 20
2343.094539631587
 30
0.0
 11
831.3093828606645
 21
2345.981788989585
 31
0.0
 11
832.4087724414233
 21
2345.700633621388
 31
0.0
 11
833.3711888940918
 21
2345.152741109013
 31
0.0
 11
833.9298950744771
 21
2344.18672010034
 31
0.0
 11
834.3336053467567
 21
2343.094539631587
 31
0.0
  0
SPLINE
  5
BBAE
330
A
100
AcDbEntity
  8
MODEL
100
AcDbSpline
210
0.0
220
0.0
230
1.0
 70
  1080
 71
     3
 72
     8
 73
     4
 74
     2
 42
0.000000001
 43
0.0000000001
 44
0.0
 40
0.0
 40
0.0
 40
0.0
 40
0.0
 40
326.9260203140809
 40
326.9260203140809
 40
326.9260203140809
 40
326.9260203140809
 10
834.3336053467567
 20
2343.094539631587
 30
0.0
 10
834.3336053467568
 20
2234.119199526894
 30
0.0
 10
834.3336053467568
 20
2125.1438594222
 30
0.0
 10
834.3336053467567
 20
2016.168519317506
 30
0.0
 11
834.3336053467567
 21
2343.094539631587
 31
0.0
 11
834.3336053467567
 21
2016.168519317506
 31
0.0
  0
SPLINE
  5
BBAF
330
A
100
AcDbEntity
  8
MODEL
100
AcDbSpline
210
0.0
220
0.0
230
1.0
 70
  1064
 71
     3
 72
    10
 73
     6
 74
     4
 42
0.000000001
 43
0.0000000001
 44
0.0
 40
0.0
 40
0.0
 40
0.0
 40
0.0
 40
12.38422053684998
 40
21.83794571424098
 40
31.04541272962732
 40
31.04541272962732
 40
31.04541272962732
 40
31.04541272962732
 10
834.3336053467567
 20
2016.168519317506
 30
0.0
 10
833.6166087996587
 20
2011.963881740468
 30
0.0
 10
832.3522795973292
 20
2004.549555834191
 30
0.0
 10
823.6672932806393
 20
1997.537500472783
 30
0.0
 10
817.466903594596
 20
1996.583483481551
 30
0.0
 10
814.4076197649767
 20
1996.112769719635
 30
0.0
 11
834.3336053467567
 21
2016.168519317506
 31
0.0
 11
830.6245172201918
 21
2004.352784741327
 31
0.0
 11
823.3469186511604
 21
1998.318757993154
 31
0.0
 11
814.4076197649767
 21
1996.112769719635
 31
0.0
  0
LINE
  5
BBB0
102
{ACAD_REACTORS
330
BBE1
102
}
330
A
100
AcDbEntity
  8
MODEL
100
AcDbLine
 10
831.3093828606645
 20
2345.981788989585
 30
0.0
 11
387.3542428136491
 21
2345.97818443358
 31
0.0
  0
LINE
  5
BBB2
330
A
100
AcDbEntity
  8
MODEL
100
AcDbLine
 10
814.4076197649767
 20
1996.112769719635
 30
0.0
 11
404.3857699254288
 21
1996.112769719635
 31
0.0
  0
SPLINE
  5
BBB3
330
A
100
AcDbEntity
  8
MODEL
100
AcDbSpline
210
0.0
220
0.0
230
1.0
 70
  1064
 71
     3
 72
    10
 73
     6
 74
     4
 42
0.000000001
 43
0.0000000001
 44
0.0
 40
0.0
 40
0.0
 40
0.0
 40
0.0
 40
12.38422053684998
 40
21.83794571424107
 40
31.04541272962742
 40
31.04541272962742
 40
31.04541272962742
 40
31.04541272962742
 10
384.4597843436487
 20
2016.168519317506
 30
0.0
 10
385.1767808907468
 20
2011.963881740468
 30
0.0
 10
386.4411100930762
 20
2004.549555834191
 30
0.0
 10
395.1260964097663
 20
1997.537500472783
 30
0.0
 10
401.3264860958094
 20
1996.583483481551
 30
0.0
 10
404.3857699254288
 20
1996.112769719635
 30
0.0
 11
384.4597843436487
 21
2016.168519317506
 31
0.0
 11
388.1688724702136
 21
2004.352784741327
 31
0.0
 11
395.4464710392451
 21
1998.318757993154
 31
0.0
 11
404.3857699254288
 21
1996.112769719635
 31
0.0
  0
SPLINE
  5
BBB4
330
A
100
AcDbEntity
  8
MODEL
100
AcDbSpline
210
0.0
220
0.0
230
1.0
 70
  1064
 71
     3
 72
    11
 73
     7
 74
     5
 42
0.000000001
 43
0.0000000001
 44
0.0
 40
0.0
 40
0.0
 40
0.0
 40
0.0
 40
1.134771250669749
 40
2.242214988962973
 40
3.358167131842677
 40
4.522572628338629
 40
4.522572628338629
 40
4.522572628338629
 40
4.522572628338629
 10
387.3542428136491
 20
2345.97818443358
 30
0.0
 10
386.9865479185792
 20
2345.900163316692
 30
0.0
 10
386.2600129410632
 20
2345.745999984091
 30
0.0
 10
385.1934876995339
 20
2345.239743510631
 30
0.0
 10
384.7086741649122
 20
2344.164657377769
 30
0.0
 10
384.4580136298815
 20
2343.453876764477
 30
0.0
 10
384.330020327557
 20
2343.090935075581
 30
0.0
 11
387.3542428136491
 21
2345.97818443358
 31
0.0
 11
386.2548532328904
 21
2345.697029065383
 31
0.0
 11
385.2924367802219
 21
2345.149136553007
 31
0.0
 11
384.7337305998365
 21
2344.183115544334
 31
0.0
 11
384.330020327557
 21
2343.090935075581
 31
0.0
  0
LINE
  5
BBB5
330
A
100
AcDbEntity
  8
MODEL
100
AcDbLine
 10
384.330020327557
 20
2343.090935075581
 30
0.0
 11
384.4742025676562
 21
2016.168519317506
 31
0.0
  0
SPLINE
  5
BBB8
330
A
100
AcDbEntity
  8
MODEL
100
AcDbSpline
210
0.0
220
0.0
230
1.0
 70
  1064
 71
     3
 72
   109
 73
   105
 74
   103
 42
0.000000001
 43
0.0000000001
 44
0.0
 40
0.0
 40
0.0
 40
0.0
 40
0.0
 40
195.2817214286773
 40
294.8879812138633
 40
348.4376181893294
 40
361.5965733505647
 40
379.507373430767
 40
385.3509496714158
 40
388.726115701887
 40
394.6823564783485
 40
397.7766263361931
 40
403.4769553015146
 40
409.144936464462
 40
413.1225740416932
 40
416.9486909520665
 40
421.9387723931685
 40
425.3785917112805
 40
432.0431740113739
 40
436.4326843880448
 40
439.5410672486813
 40
444.1101138805466
 40
445.8105154232198
 40
447.8229199162034
 40
449.4739358023268
 40
451.9908959300562
 40
498.7994099185266
 40
545.8994672152257
 40
600.4707006549133
 40
621.4092900387357
 40
625.5742409858169
 40
628.4756653857872
 40
633.0556063525747
 40
636.5635720493094
 40
640.1629334184438
 40
643.4817772035984
 40
644.6082297904547
 40
646.9093746441583
 40
650.2849176902201
 40
653.9961428579899
 40
655.6415879055503
 40
657.7790653008547
 40
659.9924652132472
 40
662.3167219428705
 40
663.4671401463634
 40
665.8252361650943
 40
666.9899387143108
 40
669.8818769871209
 40
672.7563247346599
 40
675.4027897303185
 40
678.3036082903037
 40
871.30776024959
 40
1060.619699412061
 40
1067.195678975434
 40
1070.562021089429
 40
1073.6032018378
 40
1076.394505893791
 40
1077.562806108823
 40
1079.907577407597
 40
1082.771136471881
 40
1084.553816537871
 40
1086.354897910915
 40
1088.844718169583
 40
1090.984306828201
 40
1092.100516538628
 40
1094.721551503019
 40
1096.44771884563
 40
1097.62414260958
 40
1099.92313523807
 40
1102.17395534599
 40
1103.29979644983
 40
1105.636069478552
 40
1109.17877756676
 40
1114.366031272
 40
1120.261243184228
 40
1127.372927395804
 40
1136.356107452533
 40
1143.561366456366
 40
1153.199570058898
 40
1167.455812182702
 40
1183.045516893486
 40
1195.875523752873
 40
1227.310805526906
 40
1245.148500301009
 40
1271.173989397648
 40
1283.351524337602
 40
1297.491899720096
 40
1310.212223042494
 40
1312.401691697757
 40
1314.223432242556
 40
1317.595329448715
 40
1322.565360344322
 40
1327.369778903695
 40
1330.613169944092
 40
1335.075429703327
 40
1339.436279844493
 40
1346.088352383377
 40
1349.605260073961
 40
1350.246810791865
 40
1350.834760896051
 40
1351.501978811319
 40
1352.875662749501
 40
1354.268970746826
 40
1355.113089051646
 40
1355.813240163623
 40
1355.813240163623
 40
1355.813240163623
 40
1355.813240163623
 10
415.0198803733399
 20
2246.687251726847
 30
0.0
 10
480.1137799011277
 20
2246.744943179648
 30
0.0
 10
578.4097621397834
 20
2246.832060990394
 30
0.0
 10
694.5555795016622
 20
2246.79843037417
 30
0.0
 10
749.9939485981803
 20
2246.82256944289
 30
0.0
 10
778.2003188441392
 20
2246.797858676086
 30
0.0
 10
790.5049837977339
 20
2246.855918176139
 30
0.0
 10
799.5478277296199
 20
2246.76749193478
 30
0.0
 10
804.6052917777531
 20
2246.659401972349
 30
0.0
 10
808.7468575265814
 20
2246.674706022588
 30
0.0
 10
813.6651490632755
 20
2246.584050451816
 30
0.0
 10
818.4565081189435
 20
2245.828545011013
 30
0.0
 10
823.2655974054949
 20
2243.856315625292
 30
0.0
 10
826.7671553127623
 20
2240.981891578814
 30
0.0
 10
829.4683962081522
 20
2237.637979007657
 30
0.0
 10
831.0984304636308
 20
2233.832586625815
 30
0.0
 10
832.2090833821559
 20
2228.909023202583
 30
0.0
 10
832.2592406971876
 20
2224.04930590953
 30
0.0
 10
832.2910641484705
 20
2219.334436953086
 30
0.0
 10
832.3044893185461
 20
2215.311123566911
 30
0.0
 10
832.3174086375129
 20
2212.185504985472
 30
0.0
 10
832.3281378407162
 20
2209.424874748424
 30
0.0
 10
832.335163001697
 20
2207.6369544824
 30
0.0
 10
832.3431882336657
 20
2205.576841651171
 30
0.0
 10
832.4112793610742
 20
2188.584816521295
 30
0.0
 10
832.4089189234196
 20
2156.442856782032
 30
0.0
 10
832.4043066155097
 20
2106.949597750247
 30
0.0
 10
832.4242885305018
 20
2066.079763901977
 30
0.0
 10
832.4021363314534
 20
2039.521305054619
 30
0.0
 10
832.3286875372406
 20
2030.186586591254
 30
0.0
 10
832.3016716325847
 20
2026.304588719703
 30
0.0
 10
832.2700303637924
 20
2022.641545230158
 30
0.0
 10
832.1470951084605
 20
2018.747087698223
 30
0.0
 10
831.9794615362155
 20
2015.276921016397
 30
0.0
 10
831.6458208974979
 20
2012.605811809025
 30
0.0
 10
831.0803165777734
 20
2010.428008671003
 30
0.0
 10
830.4260706654462
 20
2008.256457274276
 30
0.0
 10
829.0657959711043
 20
2005.400411349455
 30
0.0
 10
827.0553874029065
 20
2003.233823524632
 30
0.0
 10
825.0801492025079
 20
2001.704927019199
 30
0.0
 10
823.4144542391984
 20
2000.594494148439
 30
0.0
 10
821.4092619078763
 20
1999.60466097277
 30
0.0
 10
819.5926975446539
 20
1999.059259652096
 30
0.0
 10
817.7505204960345
 20
1998.416012395413
 30
0.0
 10
816.1751226427316
 20
1998.350331046215
 30
0.0
 10
814.0457188277417
 20
1998.200026719848
 30
0.0
 10
811.7325348021346
 20
1998.16549158357
 30
0.0
 10
808.929172634533
 20
1998.176772009409
 30
0.0
 10
806.1217011658991
 20
1998.173985018741
 30
0.0
 10
739.9390324405514
 20
1998.187941071045
 30
0.0
 10
611.5324226161509
 20
1998.187419331948
 30
0.0
 10
481.9003018568765
 20
1998.135649527496
 30
0.0
 10
415.483639590561
 20
1998.17801124514
 30
0.0
 10
411.155484351184
 20
1998.168479318751
 30
0.0
 10
408.0900912743987
 20
1998.194676533175
 30
0.0
 10
405.754072447943
 20
1998.122730360003
 30
0.0
 10
403.6578276115898
 20
1998.277488003452
 30
0.0
 10
401.5331628946266
 20
1998.402154492173
 30
0.0
 10
399.2499566485368
 20
1998.936955916919
 30
0.0
 10
397.2293319250401
 20
1999.668593473713
 30
0.0
 10
395.3699539229674
 20
2000.483702893571
 30
0.0
 10
393.5989513687517
 20
2001.717650425998
 30
0.0
 10
392.1528349811002
 20
2002.965741234699
 30
0.0
 10
390.6541160485663
 20
2004.244293879797
 30
0.0
 10
389.7370062943286
 20
2005.841919489091
 30
0.0
 10
388.5913351398671
 20
2007.307712897207
 30
0.0
 10
388.0682636218529
 20
2008.975746740973
 30
0.0
 10
387.4454784918739
 20
2010.77760628224
 30
0.0
 10
387.0948669094639
 20
2012.64064649752
 30
0.0
 10
386.6971756614206
 20
2014.506029653222
 30
0.0
 10
386.6862248528613
 20
2016.852974434037
 30
0.0
 10
386.4241476549066
 20
2020.528598266156
 30
0.0
 10
386.3852713604318
 20
2025.407920600442
 30
0.0
 10
386.3989380914383
 20
2031.471138074169
 30
0.0
 10
386.3941123386895
 20
2038.80169281593
 30
0.0
 10
386.3957308308968
 20
2046.568223036838
 30
0.0
 10
386.3953311222928
 20
2055.177147770378
 30
0.0
 10
386.3954768032531
 20
2065.543700028855
 30
0.0
 10
386.3954154343099
 20
2078.705090268467
 30
0.0
 10
386.3954331454402
 20
2092.930406106164
 30
0.0
 10
386.3954343726821
 20
2112.882070957589
 30
0.0
 10
386.3953843059148
 20
2133.583066835248
 30
0.0
 10
386.3955397640935
 20
2158.682550396956
 30
0.0
 10
386.3949451588508
 20
2177.362809231999
 30
0.0
 10
386.3962576743369
 20
2194.810566562209
 30
0.0
 10
386.3918495867758
 20
2207.823453772251
 30
0.0
 10
386.4031712627398
 20
2217.50647648073
 30
0.0
 10
386.3914308532554
 20
2223.084033951651
 30
0.0
 10
386.4723976306618
 20
2225.544253356813
 30
0.0
 10
386.69070071752
 20
2228.924688445327
 30
0.0
 10
387.3592435238715
 20
2233.276961555408
 30
0.0
 10
389.0894357753091
 20
2237.334369051949
 30
0.0
 10
391.6888896260269
 20
2240.617179613048
 30
0.0
 10
394.7416141087281
 20
2243.313305964688
 30
0.0
 10
399.4619083855118
 20
2245.488112376854
 30
0.0
 10
404.2376383278082
 20
2246.647080465359
 30
0.0
 10
407.8491207286687
 20
2246.599609066978
 30
0.0
 10
409.429892748256
 20
2246.669842480645
 30
0.0
 10
410.0622664362365
 20
2246.664206125579
 30
0.0
 10
410.938502133014
 20
2246.666089933407
 30
0.0
 10
412.0832571486899
 20
2246.666563425833
 30
0.0
 10
413.2869791609285
 20
2246.661219386761
 30
0.0
 10
414.2661133822394
 20
2246.67397242882
 30
0.0
 10
414.7807884443632
 20
2246.683042311655
 30
0.0
 10
415.0141352380855
 20
2246.687154475298
 30
0.0
 11
415.0198803733399
 21
2246.687251726847
 31
0.0
 11
610.3015634502052
 21
2246.809639692997
 31
0.0
 11
709.9078232353912
 21
2246.809639692997
 31
0.0
 11
763.4574602108573
 21
2246.809639692996
 31
0.0
 11
776.6164153720925
 21
2246.809639692997
 31
0.0
 11
794.5272154522949
 21
2246.809639692996
 31
0.0
 11
800.3704356679976
 21
2246.745135498733
 31
0.0
 11
803.7451178248537
 21
2246.687985927916
 31
0.0
 11
809.7012330473759
 21
2246.649312381134
 31
0.0
 11
812.7939050996122
 21
2246.549886376073
 31
0.0
 11
818.4160185412899
 21
2245.608828055994
 31
0.0
 11
823.6172603513435
 21
2243.356475042615
 31
0.0
 11
826.7076346237712
 21
2240.852241117416
 31
0.0
 11
829.0928951650155
 21
2237.860635735313
 31
0.0
 11
831.1290978043182
 21
2233.304893029614
 31
0.0
 11
831.8896945176347
 21
2229.950217250802
 31
0.0
 11
832.2622375648714
 21
2223.296055476944
 31
0.0
 11
832.2910275623822
 21
2218.906639515458
 31
0.0
 11
832.3031978570175
 21
2215.798280480175
 31
0.0
 11
832.3210871088261
 21
2211.229268869462
 31
0.0
 11
832.3277447146298
 21
2209.528880360147
 31
0.0
 11
832.3356239099229
 21
2207.516491291984
 31
0.0
 11
832.3420881553786
 21
2205.865488060684
 31
0.0
 11
832.3519428443642
 21
2203.348547225129
 31
0.0
 11
832.4087724414233
 21
2156.540067734702
 31
0.0
 11
832.4087724414233
 21
2109.440010438003
 31
0.0
 11
832.4123769974278
 21
2054.86877711736
 31
0.0
 11
832.3565238116375
 21
2033.930262227188
 31
0.0
 11
832.3261175215182
 21
2029.765422272386
 31
0.0
 11
832.3049356268968
 21
2026.864075192824
 31
0.0
 11
832.2471310315899
 21
2022.284499023786
 31
0.0
 11
832.1384307412402
 21
2018.778217863305
 31
0.0
 11
831.9273945197465
 21
2015.185048513158
 31
0.0
 11
831.4499605447629
 21
2011.900725010549
 31
0.0
 11
831.174212010573
 21
2010.808544541795
 31
0.0
 11
830.4839395360934
 21
2008.613369936279
 31
0.0
 11
828.9772351270506
 21
2005.592752006188
 31
0.0
 11
826.4940558045005
 21
2002.834670662582
 31
0.0
 11
825.1996604364388
 21
2001.818781871581
 31
0.0
 11
823.4118006592009
 21
2000.64730117077
 31
0.0
 11
821.4220857458251
 21
1999.677675606096
 31
0.0
 11
819.223306584304
 21
1998.924323401573
 31
0.0
 11
818.1239170035435
 21
1998.58549513734
 31
0.0
 11
815.7809556019267
 21
1998.318757993154
 31
0.0
 11
814.6184862911225
 21
1998.246666873106
 31
0.0
 11
811.7274467126744
 21
1998.174575753058
 31
0.0
 11
808.8529989651354
 21
1998.174575753058
 31
0.0
 11
806.2065339694767
 21
1998.174575753058
 31
0.0
 11
803.3057154094915
 21
1998.174575753058
 31
0.0
 11
610.3015634502052
 21
1998.174575753058
 31
0.0
 11
420.9896242877347
 21
1998.174575753058
 31
0.0
 11
414.4136447243611
 21
1998.174575753058
 31
0.0
 11
411.0473026103662
 21
1998.174575753058
 31
0.0
 11
408.0061218619946
 21
1998.174575753058
 31
0.0
 11
405.2148178060045
 21
1998.174575753058
 31
0.0
 11
404.0487439391957
 21
1998.246666873106
 31
0.0
 11
401.7129916495771
 21
1998.452126565247
 31
0.0
 11
398.9202226561539
 21
1999.084907620605
 31
0.0
 11
397.2415399284885
 21
1999.684884718098
 31
0.0
 11
395.6040411191384
 21
2000.434879225879
 31
0.0
 11
393.5342540799259
 21
2001.818781871581
 31
0.0
 11
391.8905765427892
 21
2003.188513152526
 31
0.0
 11
391.0669354962185
 21
2003.941865357046
 31
0.0
 11
389.5242916375892
 21
2006.060844877947
 31
0.0
 11
388.5870009665007
 21
2007.510375799516
 31
0.0
 11
388.1778838602179
 21
2008.613369936279
 31
0.0
 11
387.4948204977475
 21
2010.808544541795
 31
0.0
 11
387.013612271415
 21
2013.007323703313
 31
0.0
 11
386.8063503012702
 21
2014.113922396077
 31
0.0
 11
386.6675748951741
 21
2016.446070129691
 31
0.0
 11
386.4933208928236
 21
2019.984490135981
 31
0.0
 11
386.3954309169887
 21
2025.170820105734
 31
0.0
 11
386.3954309169887
 21
2031.066032017962
 31
0.0
 11
386.3954309169887
 21
2038.177716229538
 31
0.0
 11
386.3954309169887
 21
2047.160896286267
 31
0.0
 11
386.3954309169887
 21
2054.366155290101
 31
0.0
 11
386.3954309169887
 21
2064.004358892632
 31
0.0
 11
386.3954309169887
 21
2078.260601016437
 31
0.0
 11
386.3954309169887
 21
2093.85030572722
 31
0.0
 11
386.3954309169888
 21
2106.680312586607
 31
0.0
 11
386.3954309169887
 21
2138.11559436064
 31
0.0
 11
386.3954309169887
 21
2155.953289134743
 31
0.0
 11
386.3954309169887
 21
2181.978778231383
 31
0.0
 11
386.3954309169887
 21
2194.156313171336
 31
0.0
 11
386.3954309169887
 21
2208.296688553831
 31
0.0
 11
386.3954309169887
 21
2221.017011876228
 31
0.0
 11
386.4051174021636
 21
2223.206459104271
 31
0.0
 11
386.4621152030334
 21
2225.027307769938
 31
0.0
 11
386.6964118000726
 21
2228.391055066261
 31
0.0
 11
387.5750294730038
 21
2233.282807113135
 31
0.0
 11
389.5116778727184
 21
2237.679604887599
 31
0.0
 11
391.4973320330922
 21
2240.244124919948
 31
0.0
 11
394.8846939104334
 21
2243.148869602502
 31
0.0
 11
398.8038893067822
 21
2245.061177474929
 31
0.0
 11
405.2915566493729
 21
2246.530953483189
 31
0.0
 11
408.8066452201102
 21
2246.644055401636
 31
0.0
 11
409.4478640960256
 21
2246.664687338372
 31
0.0
 11
410.0358136958513
 21
2246.665457452901
 31
0.0
 11
410.7030316111195
 21
2246.665457452901
 31
0.0
 11
412.0767155493012
 21
2246.665457452901
 31
0.0
 11
413.4700235466265
 21
2246.665457452901
 31
0.0
 11
414.3140844168873
 21
2246.675304270962
 31
0.0
 11
415.0141352380855
 21
2246.687154475298
 31
0.0
  0
CIRCLE
  5
BBB9
330
A
100
AcDbEntity
  8
MODEL
100
AcDbCircle
 10
610.0382483684409
 20
2156.714372348336
 30
0.0
 40
23.5
  0
CIRCLE
  5
BBBA
330
A
100
AcDbEntity
  8
MODEL
100
AcDbCircle
 10
610.0382483684409
 20
2156.714372348336
 30
0.0
 40
41.1
  0
DIMENSION
  5
BBC1
330
A
100
AcDbEntity
  8
Dim
100
AcDbDimension
  2
*D12
 10
984.6880483410578
 20
1996.112769719635
 30
0.0
 11
962.4671569130223
 21
2171.047086884893
 31
0.0
 70
    32
  1
350
 71
     5
 42
349.8686343305162
 73
     0
 74
     0
 75
     0
  3
tform線あり
100
AcDbAlignedDimension
 13
834.3336053467567
 23
2345.981404050151
 33
0.0
 14
832.3497222794774
 24
1996.112769719635
 34
0.0
 50
90.0
100
AcDbRotatedDimension
  0
DIMENSION
  5
BBD0
330
A
100
AcDbEntity
  8
Dim
100
AcDbDimension
  2
*D13
 10
834.3336053467567
 20
2483.254152690588
 30
0.0
 11
609.3318128371568
 21
2505.475044118623
 31
0.0
 70
    32
 71
     5
 42
450.0035850191998
 73
     0
 74
     0
 75
     0
  3
tform線あり
100
AcDbAlignedDimension
 13
384.330020327557
 23
2343.090935075581
 33
0.0
 14
834.3336053467567
 24
2343.094539631587
 34
0.0
100
AcDbRotatedDimension
  0
DIMENSION
  5
BBDF
102
{ACAD_REACTORS
330
BBE1
102
}
102
{ACAD_XDICTIONARY
360
BBE0
102
}
330
A
100
AcDbEntity
  8
Dim
100
AcDbDimension
  2
*D14
 10
272.056554008731
 20
2246.60740647493
 30
0.0
 11
249.8356625806956
 21
2296.29281103312
 31
0.0
 70
    32
  1
100
 71
     5
 42
99.37080911637759
 73
     0
 74
     0
 75
     0
  3
tform線あり
100
AcDbAlignedDimension
 13
391.1917844322716
 23
2345.978215591308
 33
0.0
 14
387.2751475042977
 24
2246.60740647493
 34
0.0
 50
90.0
100
AcDbRotatedDimension
  0
DIMENSION
  5
BBEE
330
A
100
AcDbEntity
  8
Dim
100
AcDbDimension
  2
*D15
 10
272.056554008731
 20
2246.60740647493
 30
0.0
 11
249.8356625806956
 21
2122.388595405204
 31
0.0
 70
    32
  1
245
 71
     5
 42
248.4376221394521
 73
     0
 74
     0
 75
     0
  3
tform線あり
100
AcDbAlignedDimension
 13
387.8243299733451
 23
1998.169784335478
 33
0.0
 14
387.2751475042977
 24
2246.60740647493
 34
0.0
 50
90.0
100
AcDbRotatedDimension
  0
DIMENSION
  5
BBFD
330
A
100
AcDbEntity
  8
Dim
100
AcDbDimension
  2
*D16
 10
832.1003243669929
 20
1878.208859221731
 30
0.0
 11
609.9174428184269
 21
1900.425167815481
 31
0.0
 70
    32
  1
440
 71
     5
 42
444.3657630971321
 73
     0
 74
     0
 75
     0
  3
tform線あり
100
AcDbAlignedDimension
 13
387.7345612698609
 23
2005.043814573542
 33
0.0
 14
832.1003243669929
 24
1996.112769719635
 34
0.0
100
AcDbRotatedDimension
  0
LINE
  5
BC40
330
A
100
AcDbEntity
  8
MODEL
100
AcDbLine
 10
1251.921715053152
 20
1996.114606311479
 30
0.0
 11
1261.953194408089
 21
1996.114606311479
 31
0.0
  0
SPLINE
  5
BC44
330
A
100
AcDbEntity
  8
HIDDEN
100
AcDbSpline
210
0.0
220
0.0
230
1.0
 70
  1064
 71
     3
 72
    11
 73
     7
 74
     5
 42
0.000000001
 43
0.0000000001
 44
0.0
 40
0.0
 40
0.0
 40
0.0
 40
0.0
 40
1.134771250670245
 40
2.242214988962475
 40
3.358167131842492
 40
4.522572628338307
 40
4.522572628338307
 40
4.522572628338307
 40
4.522572628338307
 10
1678.845327988388
 20
2345.983625581429
 30
0.0
 10
1679.213022883458
 20
2345.905604464541
 30
0.0
 10
1679.939557860974
 20
2345.751441131941
 30
0.0
 10
1681.006083102504
 20
2345.24518465848
 30
0.0
 10
1681.490896637125
 20
2344.170098525619
 30
0.0
 10
1681.741557172156
 20
2343.459317912327
 30
0.0
 10
1681.86955047448
 20
2343.096376223431
 30
0.0
 11
1678.845327988388
 21
2345.983625581429
 31
0.0
 11
1679.944717569147
 21
2345.702470213232
 31
0.0
 11
1680.907134021815
 21
2345.154577700857
 31
0.0
 11
1681.465840202201
 21
2344.188556692184
 31
0.0
 11
1681.86955047448
 21
2343.096376223431
 31
0.0
  0
SPLINE
  5
BC45
330
A
100
AcDbEntity
  8
HIDDEN
100
AcDbSpline
210
0.0
220
0.0
230
1.0
 70
  1080
 71
     3
 72
     8
 73
     4
 74
     2
 42
0.000000001
 43
0.0000000001
 44
0.0
 40
0.0
 40
0.0
 40
0.0
 40
0.0
 40
326.9260203140809
 40
326.9260203140809
 40
326.9260203140809
 40
326.9260203140809
 10
1681.86955047448
 20
2343.096376223431
 30
0.0
 10
1681.86955047448
 20
2234.121036118738
 30
0.0
 10
1681.86955047448
 20
2125.145696014044
 30
0.0
 10
1681.86955047448
 20
2016.17035590935
 30
0.0
 11
1681.86955047448
 21
2343.096376223431
 31
0.0
 11
1681.86955047448
 21
2016.17035590935
 31
0.0
  0
SPLINE
  5
BC46
330
A
100
AcDbEntity
  8
HIDDEN
100
AcDbSpline
210
0.0
220
0.0
230
1.0
 70
  1064
 71
     3
 72
    10
 73
     6
 74
     4
 42
0.000000001
 43
0.0000000001
 44
0.0
 40
0.0
 40
0.0
 40
0.0
 40
0.0
 40
12.38422053685005
 40
21.8379457142407
 40
31.04541272962749
 40
31.04541272962749
 40
31.04541272962749
 40
31.04541272962749
 10
1681.86955047448
 20
2016.17035590935
 30
0.0
 10
1681.152553927382
 20
2011.965718332312
 30
0.0
 10
1679.888224725053
 20
2004.551392426036
 30
0.0
 10
1671.203238408362
 20
1997.539337064626
 30
0.0
 10
1665.002848722319
 20
1996.585320073394
 30
0.0
 10
1661.9435648927
 20
1996.114606311479
 30
0.0
 11
1681.86955047448
 21
2016.17035590935
 31
0.0
 11
1678.160462347915
 21
2004.354621333171
 31
0.0
 11
1670.882863778884
 21
1998.320594584998
 31
0.0
 11
1661.9435648927
 21
1996.114606311479
 31
0.0
  0
LINE
  5
BC47
330
A
100
AcDbEntity
  8
HIDDEN
100
AcDbLine
 10
1678.845327988388
 20
2345.983625581429
 30
0.0
 11
1234.890187941373
 21
2345.980021025424
 31
0.0
  0
LINE
  5
BC48
330
A
100
AcDbEntity
  8
HIDDEN
100
AcDbLine
 10
1661.9435648927
 20
1996.114606311479
 30
0.0
 11
1251.921715053152
 21
1996.114606311479
 31
0.0
  0
SPLINE
  5
BC49
330
A
100
AcDbEntity
  8
HIDDEN
100
AcDbSpline
210
0.0
220
0.0
230
1.0
 70
  1064
 71
     3
 72
    10
 73
     6
 74
     4
 42
0.000000001
 43
0.0000000001
 44
0.0
 40
0.0
 40
0.0
 40
0.0
 40
0.0
 40
12.38422053685005
 40
21.8379457142414
 40
31.04541272962708
 40
31.04541272962708
 40
31.04541272962708
 40
31.04541272962708
 10
1231.995729471372
 20
2016.17035590935
 30
0.0
 10
1232.71272601847
 20
2011.965718332312
 30
0.0
 10
1233.9770552208
 20
2004.551392426035
 30
0.0
 10
1242.66204153749
 20
1997.539337064627
 30
0.0
 10
1248.862431223533
 20
1996.585320073395
 30
0.0
 10
1251.921715053152
 20
1996.114606311479
 30
0.0
 11
1231.995729471372
 21
2016.17035590935
 31
0.0
 11
1235.704817597937
 21
2004.354621333171
 31
0.0
 11
1242.982416166969
 21
1998.320594584998
 31
0.0
 11
1251.921715053152
 21
1996.114606311479
 31
0.0
  0
SPLINE
  5
BC4A
330
A
100
AcDbEntity
  8
HIDDEN
100
AcDbSpline
210
0.0
220
0.0
230
1.0
 70
  1064
 71
     3
 72
    11
 73
     7
 74
     5
 42
0.000000001
 43
0.0000000001
 44
0.0
 40
0.0
 40
0.0
 40
0.0
 40
0.0
 40
1.134771250670024
 40
2.242214988963693
 40
3.358167131843535
 40
4.522572628338922
 40
4.522572628338922
 40
4.522572628338922
 40
4.522572628338922
 10
1234.890187941373
 20
2345.980021025424
 30
0.0
 10
1234.522493046303
 20
2345.901999908536
 30
0.0
 10
1233.795958068787
 20
2345.747836575936
 30
0.0
 10
1232.729432827257
 20
2345.241580102474
 30
0.0
 10
1232.244619292636
 20
2344.166493969613
 30
0.0
 10
1231.993958757605
 20
2343.455713356321
 30
0.0
 10
1231.865965455281
 20
2343.092771667425
 30
0.0
 11
1234.890187941373
 21
2345.980021025424
 31
0.0
 11
1233.790798360614
 21
2345.698865657227
 31
0.0
 11
1232.828381907945
 21
2345.150973144851
 31
0.0
 11
1232.26967572756
 21
2344.184952136178
 31
0.0
 11
1231.865965455281
 21
2343.092771667425
 31
0.0
  0
LINE
  5
BC4B
330
A
100
AcDbEntity
  8
HIDDEN
100
AcDbLine
 10
1231.865965455281
 20
2343.092771667425
 30
0.0
 11
1232.01014769538
 21
2016.17035590935
 31
0.0
  0
SPLINE
  5
BC4C
330
A
100
AcDbEntity
  8
HIDDEN
100
AcDbSpline
210
0.0
220
0.0
230
1.0
 70
  1064
 71
     3
 72
   109
 73
   105
 74
   103
 42
0.000000001
 43
0.0000000001
 44
0.0
 40
0.0
 40
0.0
 40
0.0
 40
0.0
 40
195.2817214286769
 40
294.887981213863
 40
348.437618189329
 40
361.5965733505641
 40
379.5073734307671
 40
385.350949671415
 40
388.7261157018863
 40
394.6823564783475
 40
397.7766263361928
 40
403.4769553015136
 40
409.1449364644615
 40
413.1225740416928
 40
416.9486909520659
 40
421.9387723931681
 40
425.37859171128
 40
432.0431740113734
 40
436.4326843880448
 40
439.5410672486807
 40
444.1101138805461
 40
445.8105154232193
 40
447.8229199162029
 40
449.4739358023263
 40
451.9908959300557
 40
498.7994099185252
 40
545.8994672152253
 40
600.4707006549129
 40
621.4092900387352
 40
625.5742409858167
 40
628.4756653857868
 40
633.0556063525745
 40
636.563572049309
 40
640.1629334184436
 40
643.4817772035979
 40
644.6082297904542
 40
646.909374644158
 40
650.2849176902199
 40
653.9961428579896
 40
655.6415879055503
 40
657.7790653008541
 40
659.9924652132468
 40
662.3167219428698
 40
663.4671401463635
 40
665.8252361650946
 40
666.9899387143108
 40
669.8818769871206
 40
672.7563247346596
 40
675.4027897303187
 40
678.3036082903037
 40
871.3077602495897
 40
1060.619699412061
 40
1067.195678975434
 40
1070.562021089429
 40
1073.6032018378
 40
1076.39450589379
 40
1077.562806108823
 40
1079.907577407596
 40
1082.771136471881
 40
1084.553816537871
 40
1086.354897910914
 40
1088.844718169583
 40
1090.9843068282
 40
1092.100516538627
 40
1094.721551503019
 40
1096.447718845629
 40
1097.62414260958
 40
1099.92313523807
 40
1102.173955345989
 40
1103.299796449829
 40
1105.636069478552
 40
1109.178777566759
 40
1114.366031271999
 40
1120.261243184227
 40
1127.372927395803
 40
1136.356107452532
 40
1143.561366456366
 40
1153.199570058897
 40
1167.455812182702
 40
1183.045516893485
 40
1195.875523752872
 40
1227.310805526905
 40
1245.148500301008
 40
1271.173989397648
 40
1283.351524337601
 40
1297.491899720096
 40
1310.212223042494
 40
1312.401691697756
 40
1314.223432242556
 40
1317.595329448715
 40
1322.565360344321
 40
1327.369778903695
 40
1330.613169944092
 40
1335.075429703327
 40
1339.436279844493
 40
1346.088352383378
 40
1349.605260073961
 40
1350.246810791865
 40
1350.83476089605
 40
1351.501978811318
 40
1352.8756627495
 40
1354.268970746825
 40
1355.113089051645
 40
1355.813240163622
 40
1355.813240163622
 40
1355.813240163622
 40
1355.813240163622
 10
1262.555825501064
 20
2246.689088318691
 30
0.0
 10
1327.649725028852
 20
2246.746779771492
 30
0.0
 10
1425.945707267507
 20
2246.833897582238
 30
0.0
 10
1542.091524629386
 20
2246.800266966016
 30
0.0
 10
1597.529893725904
 20
2246.824406034732
 30
0.0
 10
1625.736263971863
 20
2246.799695267931
 30
0.0
 10
1638.040928925458
 20
2246.857754767982
 30
0.0
 10
1647.083772857343
 20
2246.769328526624
 30
0.0
 10
1652.141236905476
 20
2246.661238564193
 30
0.0
 10
1656.282802654305
 20
2246.676542614432
 30
0.0
 10
1661.201094190999
 20
2246.58588704366
 30
0.0
 10
1665.992453246667
 20
2245.830381602857
 30
0.0
 10
1670.801542533219
 20
2243.858152217136
 30
0.0
 10
1674.303100440486
 20
2240.983728170658
 30
0.0
 10
1677.004341335876
 20
2237.639815599501
 30
0.0
 10
1678.634375591354
 20
2233.83442321766
 30
0.0
 10
1679.745028509879
 20
2228.910859794427
 30
0.0
 10
1679.795185824911
 20
2224.051142501375
 30
0.0
 10
1679.827009276195
 20
2219.33627354493
 30
0.0
 10
1679.840434446269
 20
2215.312960158754
 30
0.0
 10
1679.853353765238
 20
2212.187341577317
 30
0.0
 10
1679.864082968439
 20
2209.426711340268
 30
0.0
 10
1679.871108129422
 20
2207.638791074244
 30
0.0
 10
1679.879133361388
 20
2205.578678243015
 30
0.0
 10
1679.947224488808
 20
2188.586653113142
 30
0.0
 10
1679.944864051139
 20
2156.444693373875
 30
0.0
 10
1679.940251743235
 20
2106.951434342091
 30
0.0
 10
1679.960233658227
 20
2066.081600493823
 30
0.0
 10
1679.938081459175
 20
2039.523141646462
 30
0.0
 10
1679.864632664965
 20
2030.188423183098
 30
0.0
 10
1679.837616760307
 20
2026.306425311547
 30
0.0
 10
1679.805975491517
 20
2022.643381822002
 30
0.0
 10
1679.683040236184
 20
2018.748924290067
 30
0.0
 10
1679.515406663939
 20
2015.278757608241
 30
0.0
 10
1679.181766025221
 20
2012.607648400869
 30
0.0
 10
1678.616261705498
 20
2010.429845262847
 30
0.0
 10
1677.96201579317
 20
2008.258293866121
 30
0.0
 10
1676.601741098827
 20
2005.4022479413
 30
0.0
 10
1674.591332530631
 20
2003.235660116476
 30
0.0
 10
1672.616094330231
 20
2001.706763611043
 30
0.0
 10
1670.950399366922
 20
2000.596330740281
 30
0.0
 10
1668.9452070356
 20
1999.606497564613
 30
0.0
 10
1667.128642672377
 20
1999.061096243941
 30
0.0
 10
1665.286465623758
 20
1998.417848987256
 30
0.0
 10
1663.711067770455
 20
1998.352167638058
 30
0.0
 10
1661.581663955465
 20
1998.201863311692
 30
0.0
 10
1659.268479929858
 20
1998.167328175414
 30
0.0
 10
1656.465117762257
 20
1998.178608601253
 30
0.0
 10
1653.657646293623
 20
1998.175821610585
 30
0.0
 10
1587.474977568273
 20
1998.189777662883
 30
0.0
 10
1459.068367743877
 20
1998.189255923795
 30
0.0
 10
1329.436246984596
 20
1998.13748611934
 30
0.0
 10
1263.019584718285
 20
1998.179847836984
 30
0.0
 10
1258.691429478907
 20
1998.170315910595
 30
0.0
 10
1255.626036402123
 20
1998.19651312502
 30
0.0
 10
1253.290017575667
 20
1998.124566951848
 30
0.0
 10
1251.193772739313
 20
1998.279324595294
 30
0.0
 10
1249.069108022351
 20
1998.403991084019
 30
0.0
 10
1246.78590177626
 20
1998.938792508762
 30
0.0
 10
1244.765277052764
 20
1999.670430065559
 30
0.0
 10
1242.905899050691
 20
2000.485539485415
 30
0.0
 10
1241.134896496475
 20
2001.719487017841
 30
0.0
 10
1239.688780108824
 20
2002.967577826544
 30
0.0
 10
1238.190061176289
 20
2004.24613047164
 30
0.0
 10
1237.272951422053
 20
2005.843756080936
 30
0.0
 10
1236.12728026759
 20
2007.309549489051
 30
0.0
 10
1235.604208749576
 20
2008.977583332817
 30
0.0
 10
1234.981423619598
 20
2010.779442874084
 30
0.0
 10
1234.630812037188
 20
2012.642483089364
 30
0.0
 10
1234.233120789145
 20
2014.507866245065
 30
0.0
 10
1234.222169980585
 20
2016.854811025881
 30
0.0
 10
1233.96009278263
 20
2020.530434858
 30
0.0
 10
1233.921216488155
 20
2025.409757192285
 30
0.0
 10
1233.934883219162
 20
2031.472974666013
 30
0.0
 10
1233.930057466412
 20
2038.803529407774
 30
0.0
 10
1233.93167595862
 20
2046.570059628682
 30
0.0
 10
1233.931276250016
 20
2055.178984362222
 30
0.0
 10
1233.931421930976
 20
2065.545536620699
 30
0.0
 10
1233.931360562033
 20
2078.706926860311
 30
0.0
 10
1233.931378273164
 20
2092.932242698008
 30
0.0
 10
1233.931379500405
 20
2112.883907549432
 30
0.0
 10
1233.931329433638
 20
2133.584903427092
 30
0.0
 10
1233.931484891817
 20
2158.6843869888
 30
0.0
 10
1233.930890286574
 20
2177.364645823844
 30
0.0
 10
1233.93220280206
 20
2194.812403154052
 30
0.0
 10
1233.927794714499
 20
2207.825290364097
 30
0.0
 10
1233.939116390463
 20
2217.508313072573
 30
0.0
 10
1233.927375980978
 20
2223.085870543496
 30
0.0
 10
1234.008342758385
 20
2225.546089948657
 30
0.0
 10
1234.226645845243
 20
2228.926525037171
 30
0.0
 10
1234.895188651595
 20
2233.278798147252
 30
0.0
 10
1236.625380903032
 20
2237.336205643793
 30
0.0
 10
1239.224834753751
 20
2240.619016204893
 30
0.0
 10
1242.277559236452
 20
2243.315142556532
 30
0.0
 10
1246.997853513236
 20
2245.489948968698
 30
0.0
 10
1251.773583455532
 20
2246.648917057203
 30
0.0
 10
1255.385065856392
 20
2246.601445658822
 30
0.0
 10
1256.965837875979
 20
2246.671679072489
 30
0.0
 10
1257.59821156396
 20
2246.666042717422
 30
0.0
 10
1258.474447260737
 20
2246.667926525251
 30
0.0
 10
1259.619202276414
 20
2246.668400017677
 30
0.0
 10
1260.822924288652
 20
2246.663055978606
 30
0.0
 10
1261.802058509963
 20
2246.675809020664
 30
0.0
 10
1262.316733572087
 20
2246.684878903498
 30
0.0
 10
1262.550080365809
 20
2246.688991067143
 30
0.0
 11
1262.555825501064
 21
2246.689088318691
 31
0.0
 11
1457.837508577929
 21
2246.811476284841
 31
0.0
 11
1557.443768363115
 21
2246.811476284841
 31
0.0
 11
1610.993405338581
 21
2246.81147628484
 31
0.0
 11
1624.152360499816
 21
2246.811476284841
 31
0.0
 11
1642.063160580019
 21
2246.81147628484
 31
0.0
 11
1647.906380795721
 21
2246.746972090577
 31
0.0
 11
1651.281062952577
 21
2246.68982251976
 31
0.0
 11
1657.237178175099
 21
2246.651148972978
 31
0.0
 11
1660.329850227336
 21
2246.551722967917
 31
0.0
 11
1665.951963669013
 21
2245.610664647838
 31
0.0
 11
1671.153205479067
 21
2243.358311634459
 31
0.0
 11
1674.243579751495
 21
2240.85407770926
 31
0.0
 11
1676.628840292739
 21
2237.862472327157
 31
0.0
 11
1678.665042932042
 21
2233.306729621458
 31
0.0
 11
1679.425639645358
 21
2229.952053842646
 31
0.0
 11
1679.798182692595
 21
2223.297892068788
 31
0.0
 11
1679.826972690106
 21
2218.908476107302
 31
0.0
 11
1679.839142984741
 21
2215.800117072019
 31
0.0
 11
1679.85703223655
 21
2211.231105461306
 31
0.0
 11
1679.863689842353
 21
2209.530716951991
 31
0.0
 11
1679.871569037647
 21
2207.518327883828
 31
0.0
 11
1679.878033283102
 21
2205.867324652528
 31
0.0
 11
1679.887887972088
 21
2203.350383816973
 31
0.0
 11
1679.944717569147
 21
2156.541904326547
 31
0.0
 11
1679.944717569147
 21
2109.441847029847
 31
0.0
 11
1679.948322125151
 21
2054.870613709204
 31
0.0
 11
1679.892468939361
 21
2033.932098819032
 31
0.0
 11
1679.862062649242
 21
2029.76725886423
 31
0.0
 11
1679.84088075462
 21
2026.865911784668
 31
0.0
 11
1679.783076159314
 21
2022.28633561563
 31
0.0
 11
1679.674375868964
 21
2018.780054455149
 31
0.0
 11
1679.46333964747
 21
2015.186885105002
 31
0.0
 11
1678.985905672487
 21
2011.902561602393
 31
0.0
 11
1678.710157138297
 21
2010.810381133639
 31
0.0
 11
1678.019884663817
 21
2008.615206528123
 31
0.0
 11
1676.513180254774
 21
2005.594588598032
 31
0.0
 11
1674.030000932224
 21
2002.836507254426
 31
0.0
 11
1672.735605564162
 21
2001.820618463425
 31
0.0
 11
1670.947745786925
 21
2000.649137762614
 31
0.0
 11
1668.958030873549
 21
1999.67951219794
 31
0.0
 11
1666.759251712028
 21
1998.926159993418
 31
0.0
 11
1665.659862131267
 21
1998.587331729184
 31
0.0
 11
1663.31690072965
 21
1998.320594584998
 31
0.0
 11
1662.154431418846
 21
1998.24850346495
 31
0.0
 11
1659.263391840398
 21
1998.176412344902
 31
0.0
 11
1656.388944092859
 21
1998.176412344902
 31
0.0
 11
1653.7424790972
 21
1998.176412344902
 31
0.0
 11
1650.841660537215
 21
1998.176412344902
 31
0.0
 11
1457.837508577929
 21
1998.176412344902
 31
0.0
 11
1268.525569415458
 21
1998.176412344902
 31
0.0
 11
1261.949589852085
 21
1998.176412344902
 31
0.0
 11
1258.58324773809
 21
1998.176412344902
 31
0.0
 11
1255.542066989718
 21
1998.176412344902
 31
0.0
 11
1252.750762933728
 21
1998.176412344902
 31
0.0
 11
1251.584689066919
 21
1998.24850346495
 31
0.0
 11
1249.248936777301
 21
1998.453963157091
 31
0.0
 11
1246.456167783877
 21
1999.086744212449
 31
0.0
 11
1244.777485056212
 21
1999.686721309942
 31
0.0
 11
1243.139986246862
 21
2000.436715817723
 31
0.0
 11
1241.070199207649
 21
2001.820618463425
 31
0.0
 11
1239.426521670513
 21
2003.19034974437
 31
0.0
 11
1238.602880623942
 21
2003.94370194889
 31
0.0
 11
1237.060236765313
 21
2006.062681469791
 31
0.0
 11
1236.122946094224
 21
2007.51221239136
 31
0.0
 11
1235.713828987941
 21
2008.615206528123
 31
0.0
 11
1235.030765625471
 21
2010.810381133639
 31
0.0
 11
1234.549557399139
 21
2013.009160295157
 31
0.0
 11
1234.342295428994
 21
2014.115758987921
 31
0.0
 11
1234.203520022898
 21
2016.447906721535
 31
0.0
 11
1234.029266020547
 21
2019.986326727825
 31
0.0
 11
1233.931376044712
 21
2025.172656697578
 31
0.0
 11
1233.931376044712
 21
2031.067868609806
 31
0.0
 11
1233.931376044712
 21
2038.179552821382
 31
0.0
 11
1233.931376044712
 21
2047.162732878111
 31
0.0
 11
1233.931376044712
 21
2054.367991881945
 31
0.0
 11
1233.931376044712
 21
2064.006195484476
 31
0.0
 11
1233.931376044712
 21
2078.262437608281
 31
0.0
 11
1233.931376044712
 21
2093.852142319064
 31
0.0
 11
1233.931376044712
 21
2106.682149178451
 31
0.0
 11
1233.931376044712
 21
2138.117430952484
 31
0.0
 11
1233.931376044712
 21
2155.955125726587
 31
0.0
 11
1233.931376044712
 21
2181.980614823227
 31
0.0
 11
1233.931376044712
 21
2194.15814976318
 31
0.0
 11
1233.931376044712
 21
2208.298525145675
 31
0.0
 11
1233.931376044712
 21
2221.018848468073
 31
0.0
 11
1233.941062529887
 21
2223.208295696115
 31
0.0
 11
1233.998060330757
 21
2225.029144361782
 31
0.0
 11
1234.232356927796
 21
2228.392891658105
 31
0.0
 11
1235.110974600727
 21
2233.284643704979
 31
0.0
 11
1237.047623000442
 21
2237.681441479443
 31
0.0
 11
1239.033277160816
 21
2240.245961511792
 31
0.0
 11
1242.420639038157
 21
2243.150706194346
 31
0.0
 11
1246.339834434506
 21
2245.063014066773
 31
0.0
 11
1252.827501777097
 21
2246.532790075033
 31
0.0
 11
1256.342590347834
 21
2246.64589199348
 31
0.0
 11
1256.983809223749
 21
2246.666523930216
 31
0.0
 11
1257.571758823575
 21
2246.667294044745
 31
0.0
 11
1258.238976738843
 21
2246.667294044745
 31
0.0
 11
1259.612660677025
 21
2246.667294044745
 31
0.0
 11
1261.00596867435
 21
2246.667294044745
 31
0.0
 11
1261.850029544611
 21
2246.677140862806
 31
0.0
 11
1262.550080365809
 21
2246.688991067143
 31
0.0
  0
CIRCLE
  5
BC4D
330
A
100
AcDbEntity
  8
MODEL
100
AcDbCircle
 10
1457.574193496165
 20
2156.71620894018
 30
0.0
 40
23.5
  0
LINE
  5
BCBF
330
A
100
AcDbEntity
  8
Dim
100
AcDbLine
 10
1910.613818445243
 20
2345.981823303426
 30
0.0
 11
1939.805669319406
 21
2383.361507948697
 31
0.0
  0
LINE
  5
BCC0
330
A
100
AcDbEntity
  8
Dim
100
AcDbLine
 10
1885.495249088402
 20
2345.981823303426
 30
0.0
 11
1914.687099962568
 21
2383.361507948697
 31
0.0
  0
LINE
  5
BCC1
330
A
100
AcDbEntity
  8
Dim
100
AcDbLine
 10
1859.018919225789
 20
2345.981823303426
 30
0.0
 11
1888.210770099953
 21
2383.361507948697
 31
0.0
  0
LINE
  5
BCC2
102
{ACAD_REACTORS
330
BCEC
102
}
330
A
100
AcDbEntity
  8
Dim
100
AcDbLine
 10
1935.504725761308
 20
2345.981823303426
 30
0.0
 11
1171.196996621841
 21
2345.981823303427
 31
0.0
  0
LWPOLYLINE
  5
BCE9
102
{ACAD_REACTORS
330
BCEC
330
BCFA
330
BD49
102
}
330
A
100
AcDbEntity
  8
Dim
100
AcDbPolyline
 90
        4
 70
     1
 43
0.0
 10
1271.802742555305
 20
2035.981823303426
 10
1271.802742555305
 20
2345.981823303426
 10
1642.248118215111
 20
2345.981823303427
 10
1642.248118215111
 20
2035.981823303427
  0
DIMENSION
  5
BCEA
102
{ACAD_REACTORS
330
BCEC
102
}
102
{ACAD_XDICTIONARY
360
BCEB
102
}
330
A
100
AcDbEntity
  8
Dim
100
AcDbDimension
  2
*D17
 10
1803.563040901956
 20
2035.981823303427
 30
0.0
 11
1781.342149473921
 21
2190.981823303427
 31
0.0
 70
    32
 71
     5
 42
309.9999999999993
 73
     0
 74
     0
 75
     0
  3
tform線あり
100
AcDbAlignedDimension
 13
1782.647444955289
 23
2345.981823303426
 33
0.0
 14
1642.248118215111
 24
2035.981823303427
 34
0.0
 50
90.0
100
AcDbRotatedDimension
  0
HATCH
  5
BCFA
330
A
100
AcDbEntity
  8
Dim
100
AcDbHatch
 10
0.0
 20
0.0
 30
0.0
210
0.0
220
0.0
230
1.0
  2
ANSI31
 70
     0
 71
     1
 91
        1
 92
        1
 93
        4
 72
     1
 10
1271.802742555305
 20
2035.981823303426
 11
1271.802742555305
 21
2345.981823303426
 72
     1
 10
1271.802742555305
 20
2345.981823303426
 11
1642.248118215111
 21
2345.981823303427
 72
     1
 10
1642.248118215111
 20
2345.981823303427
 11
1642.248118215111
 21
2035.981823303427
 72
     1
 10
1642.248118215111
 20
2035.981823303427
 11
1271.802742555305
 21
2035.981823303426
 97
        1
330
BCE9
 75
     0
 76
     1
 52
0.0
 41
7.0
 77
     0
 78
     1
 53
45.0
 43
10.67976886461702
 44
-246.1114270773992
 45
-15.71544821187102
 46
15.71544821187102
 79
     0
 98
        1
 10
10.67976886461702
 20
-246.1114270773992
1001
ACAD
1010
0.0
1020
0.0
1030
0.0
1001
HATCHBACKGROUNDCOLOR
1071
-939524096
1000

1000

  0
MTEXT
  5
BD23
330
A
100
AcDbEntity
  8
Dim
390
1D
100
AcDbMText
 10
1315.257855754713
 20
2449.153322729933
 30
34.99521132346015
 40
24.0
 41
1169.771715461011
 46
25.824
 71
     1
 72
     1
  1
{カウンター置き}
  7
ＭＳ ゴシック
 73
     1
 44
1.174240107638677
1001
ACAD
1000
ACAD_MTEXT_DEFINED_HEIGHT_BEGIN
1070
    46
1040
25.824
1000
ACAD_MTEXT_DEFINED_HEIGHT_END
  0
LINE
  5
BD24
330
A
100
AcDbEntity
  8
Dim
100
AcDbLine
 10
1326.583486877424
 20
2345.981823303426
 30
0.0
 11
1326.583486877424
 21
2402.731696354756
 31
0.0
  0
MTEXT
  5
BD46
330
A
100
AcDbEntity
  8
Dim
390
1D
100
AcDbMText
 10
1335.34729689698
 20
2537.925946581172
 30
34.99521132346015
 40
24.0
 41
1169.771715461011
 46
26.928
 71
     1
 72
     1
  1
{カウンター切込寸法 }
  7
ＭＳ ゴシック
 73
     1
 44
1.174240107638677
1001
ACAD
1000
ACAD_MTEXT_DEFINED_HEIGHT_BEGIN
1070
    46
1040
26.928
1000
ACAD_MTEXT_DEFINED_HEIGHT_END
  0
DIMENSION
  5
BD47
102
{ACAD_REACTORS
330
BD49
102
}
102
{ACAD_XDICTIONARY
360
BD48
102
}
330
A
100
AcDbEntity
  8
Dim
100
AcDbDimension
  2
*D18
 10
1642.248118215111
 20
1878.208859221731
 30
0.0
 11
1457.025430385208
 21
1900.429750649766
 31
0.0
 70
    32
  1
370
 71
     5
 42
370.4453756598064
 73
     0
 74
     0
 75
     0
  3
tform線あり
100
AcDbAlignedDimension
 13
1271.802742555305
 23
2035.981823303426
 33
0.0
 14
1642.248118215111
 24
2035.981823303427
 34
0.0
100
AcDbRotatedDimension
  0
MTEXT
  5
BD7B
330
A
100
AcDbEntity
  8
Dim
390
1D
100
AcDbMText
 10
240.8065964361072
 20
1746.97641477729
 30
34.99521132346015
 40
24.4326171875
 41
833.929798641839
 46
0.0
 71
     1
 72
     1
  1
＝φ30もしくはφ35の水栓取付用穴あけ加工を承ります。\P  必要な場合、ご注文の際にご指示ください。
  7
ＭＳ ゴシック
 73
     1
 44
0.9822934569727008
  0
CIRCLE
  5
BD7C
330
A
100
AcDbEntity
  8
HIDDEN
 48
0.58
390
1D
100
AcDbCircle
 10
209.4395667380204
 20
1732.387590321007
 30
34.99521132346015
 40
17.5
  0
MTEXT
  5
BD7D
330
A
100
AcDbEntity
  8
Dim
390
1D
100
AcDbMText
 10
1147.2184576
 20
1749.653207342283
 30
34.99521132346015
 40
24.0
 41
1169.771715461011
 46
113.3803926472427
 71
     1
 72
     1
  1
{※陶器製品には寸法公差があります。\P　必ず現物を合わせてカウンターに切込を行ってください。\P※カウンター置きの場合も壁固定が必要です。}
  7
ＭＳ ゴシック
 73
     1
 44
1.0
1001
ACAD
1000
ACAD_MTEXT_DEFINED_HEIGHT_BEGIN
1070
    46
1040
113.3803926472427
1000
ACAD_MTEXT_DEFINED_HEIGHT_END
  0
LINE
  5
BDA4
330
A
100
AcDbEntity
  8
HIDDEN
  6
CENTER
 48
0.15
100
AcDbLine
 10
485.0940557410441
 20
1019.884032249221
 30
0.0
 11
534.0930344933558
 21
1019.884032249223
 31
0.0
  0
LINE
  5
BDA5
102
{ACAD_REACTORS
330
BDD0
330
BDE1
102
}
330
A
100
AcDbEntity
  8
HIDDEN
  6
CENTER
 48
0.15
100
AcDbLine
 10
509.5935451172018
 20
1044.383521625377
 30
0.0
 11
509.5935451172018
 21
995.3845428730662
 31
0.0
  0
CIRCLE
  5
BDA6
330
A
100
AcDbEntity
  8
HIDDEN
  6
CENTER
 48
0.15
100
AcDbCircle
 10
509.5935451172018
 20
1019.884032249223
 30
0.0
 40
14.99999999998556
  0
LINE
  5
BDA8
330
A
100
AcDbEntity
  8
HIDDEN
  6
CENTER
 48
0.15
100
AcDbLine
 10
684.8323234610016
 20
1019.884032249222
 30
0.0
 11
733.8313022133134
 21
1019.884032249224
 31
0.0
  0
LINE
  5
BDA9
102
{ACAD_REACTORS
330
BDE1
102
}
330
A
100
AcDbEntity
  8
HIDDEN
  6
CENTER
 48
0.15
100
AcDbLine
 10
709.3318128371593
 20
1044.383521625379
 30
0.0
 11
709.3318128371593
 21
995.384542873067
 31
0.0
  0
CIRCLE
  5
BDAA
330
A
100
AcDbEntity
  8
HIDDEN
  6
CENTER
 48
0.15
100
AcDbCircle
 10
709.3318128371593
 20
1019.884032249224
 30
0.0
 40
14.99999999998556
  0
DIMENSION
  5
BDAF
102
{ACAD_REACTORS
330
BDB1
102
}
102
{ACAD_XDICTIONARY
360
BDB0
102
}
330
A
100
AcDbEntity
  8
Dim
100
AcDbDimension
  2
*D19
 10
917.3773718820834
 20
939.9397883593593
 30
0.0
 11
917.3773718820834
 21
1019.885235938645
 31
0.0
 70
   160
 71
     5
 42
129.9442438898637
 73
     0
 74
     0
 75
     0
  3
tform線あり
100
AcDbAlignedDimension
 13
822.4475819285327
 23
1069.884032249223
 33
0.0
 14
636.0242528117578
 24
939.9397883593593
 34
0.0
 50
90.0
100
AcDbRotatedDimension
1001
ACAD
1000
DSTYLE
1002
{
1070
   271
1070
     0
1002
}
  0
DIMENSION
  5
BDCE
102
{ACAD_REACTORS
330
BDD0
102
}
102
{ACAD_XDICTIONARY
360
BDCF
102
}
330
A
100
AcDbEntity
  8
Dim
100
AcDbDimension
  2
*D21
 10
280.048311388307
 20
1019.884032249222
 30
0.0
 11
257.8274199602716
 21
1044.884032249222
 31
0.0
 70
    32
 71
     5
 42
50.00000000000136
 73
     0
 74
     0
 75
     0
  3
tform線あり
100
AcDbAlignedDimension
 13
386.454906091025
 23
1069.884032249223
 33
0.0
 14
509.5935451172018
 24
1019.884032249222
 34
0.0
 50
90.0
100
AcDbRotatedDimension
  0
DIMENSION
  5
BDDF
102
{ACAD_REACTORS
330
BDE1
102
}
102
{ACAD_XDICTIONARY
360
BDE0
102
}
330
A
100
AcDbEntity
  8
Dim
100
AcDbDimension
  2
*D22
 10
709.3318128371593
 20
1140.503019141575
 30
0.0
 11
609.4626789771805
 21
1162.72391056961
 31
0.0
 70
    32
  1
200
 71
     5
 42
199.7382677199575
 73
     0
 74
     0
 75
     0
  3
tform線あり
100
AcDbAlignedDimension
 13
509.5935451172018
 23
1044.383521625377
 33
0.0
 14
709.3318128371593
 24
1044.383521625379
 34
0.0
100
AcDbRotatedDimension
  0
LINE
  5
BE10
330
A
100
AcDbEntity
  8
Dim
100
AcDbLine
 10
788.9030093885964
 20
1188.41959811133
 30
0.0
 11
709.3318128371558
 21
1029.891241361232
 31
0.0
  0
MTEXT
  5
BE11
330
A
100
AcDbEntity
  8
Dim
390
1D
100
AcDbMText
 10
778.4778429093545
 20
1231.188349403458
 30
34.99521132346015
 40
24.0
 41
1169.771715461011
 46
26.808
 71
     1
 72
     1
  1
{壁取付ボルト穴(2ヶ所)}
  7
ＭＳ ゴシック
 73
     1
 44
1.174240107638677
1001
ACAD
1000
ACAD_MTEXT_DEFINED_HEIGHT_BEGIN
1070
    46
1040
26.808
1000
ACAD_MTEXT_DEFINED_HEIGHT_END
  0
DIMENSION
  5
BE12
330
A
100
AcDbEntity
  8
Dim
100
AcDbDimension
  2
*D23
 10
1535.505240476414
 20
886.0425285495968
 30
0.0
 11
1630.241455334326
 21
886.0425285495968
 31
0.0
 70
   160
  1
190
 71
     5
 42
189.4724297158255
 73
     0
 74
     0
 75
     0
  3
tform線あり
100
AcDbAlignedDimension
 13
1724.977670192239
 23
970.4421560553842
 33
0.0
 14
1535.505240476414
 24
939.5138555429976
 34
0.0
100
AcDbRotatedDimension
1001
ACAD
1000
DSTYLE
1002
{
1070
   271
1070
     0
1002
}
  0
DIMENSION
  5
BE5D
330
A
100
AcDbEntity
  8
Dim
  6
Continuous
 62
     3
100
AcDbDimension
  2
*D24
 10
1545.911001106898
 20
1069.884032249223
 30
0.0
 11
1545.911001106898
 21
1195.602403984439
 31
0.0
 70
   160
  1
100(深さ)
 71
     5
 42
100.2464705763143
 73
     0
 74
     1
 75
     1
  3
tform線あり
100
AcDbAlignedDimension
 13
1544.892301224232
 23
969.6375616729083
 33
0.0
 14
1545.911001106898
 24
1069.884032249223
 34
0.0
 50
89.9999999999999
100
AcDbRotatedDimension
1001
ACAD
1000
DSTYLE
1002
{
1070
   271
1070
     0
1070
    76
1070
     1
1070
    75
1070
     1
1002
}
  0
SPLINE
  5
BEA7
330
A
100
AcDbEntity
  8
HIDDEN
 48
0.5
100
AcDbSpline
210
0.0
220
0.0
230
1.0
 70
  1064
 71
     3
 72
    14
 73
    10
 74
     8
 42
0.000000001
 43
0.0000000001
 44
0.0
 40
0.0
 40
0.0
 40
0.0
 40
0.0
 40
17.05595905637152
 40
40.54262193045906
 40
106.9373044653215
 40
180.3971928470244
 40
208.0821206438177
 40
215.6502818474156
 40
225.4238094197748
 40
225.4238094197748
 40
225.4238094197748
 40
225.4238094197748
 10
828.7699196079861
 20
1069.884127438488
 30
0.0
 10
823.4142391789526
 20
1067.264455448831
 30
0.0
 10
810.6835961176607
 20
1061.037401859674
 30
0.0
 10
803.4925282927186
 20
1023.115200786092
 30
0.0
 10
760.2205498368631
 20
983.5073755018468
 30
0.0
 10
704.4011386133078
 20
970.4553807581553
 30
0.0
 10
668.7015784975468
 20
968.0932683647662
 30
0.0
 10
653.2262835247448
 20
968.5774552502435
 30
0.0
 10
648.4717406520049
 20
964.9225165998432
 30
0.0
 10
645.7921483434915
 20
962.8626454917595
 30
0.0
 11
828.7699196079861
 21
1069.884127438488
 31
0.0
 11
814.4734624403976
 21
1060.582673154994
 31
0.0
 11
805.1647451501692
 21
1039.01948425883
 31
0.0
 11
759.9408636689583
 21
990.4082261730887
 31
0.0
 11
689.4056745468431
 21
969.8864743823743
 31
0.0
 11
661.7627312058918
 21
968.3623646216889
 31
0.0
 11
654.2138774960147
 21
967.8221131334733
 31
0.0
 11
645.7921483434915
 21
962.8626454917595
 31
0.0
  0
SPLINE
  5
BEA8
330
A
100
AcDbEntity
  8
MODEL
 62
     0
 48
0.5
100
AcDbSpline
210
0.0
220
0.0
230
1.0
 70
  1080
 71
     3
 72
     8
 73
     4
 74
     2
 42
0.000000001
 43
0.0000000001
 44
0.0
 40
0.0
 40
0.0
 40
0.0
 40
0.0
 40
45.19392315925484
 40
45.19392315925484
 40
45.19392315925484
 40
45.19392315925484
 10
631.9251698607785
 20
939.9397883593592
 30
0.0
 10
616.8605288076938
 20
939.9397883593595
 30
0.0
 10
601.7958877546088
 20
939.9397883593595
 30
0.0
 10
586.7312467015237
 20
939.9397883593592
 30
0.0
 11
631.9251698607785
 21
939.9397883593592
 31
0.0
 11
586.7312467015237
 21
939.9397883593592
 31
0.0
  0
SPLINE
  5
BEAB
330
A
100
AcDbEntity
  8
HIDDEN
 48
0.5
100
AcDbSpline
210
0.0
220
0.0
230
1.0
 70
     8
 71
     3
 72
    16
 73
    12
 74
     0
 42
0.000000001
 43
0.0000000001
 40
179.0106665034143
 40
179.0106665034143
 40
179.0106665034143
 40
179.0106665034143
 40
180.1910331355327
 40
184.7843776566689
 40
188.1412383113076
 40
190.8806002944387
 40
192.8046288741843
 40
195.0817347899176
 40
198.307410125008
 40
200.6051583102961
 40
202.5022990283317
 40
202.5022990283317
 40
202.5022990283317
 40
202.5022990283317
 10
577.241720996212
 20
959.3436187371173
 30
0.0
 10
577.5424083075732
 20
959.0903117223356
 30
0.0
 10
579.0151003421822
 20
957.8523293586666
 30
0.0
 10
581.4032668040205
 20
955.907517883525
 30
0.0
 10
583.9402799988509
 20
953.5697551690037
 30
0.0
 10
586.4741696681496
 20
951.9652590932433
 30
0.0
 10
586.3015610082384
 20
949.4739543052016
 30
0.0
 10
586.4857408986505
 20
947.0552923267232
 30
0.0
 10
586.5595420982761
 20
944.437384767027
 30
0.0
 10
586.6774588987073
 20
941.9703578461069
 30
0.0
 10
586.7144964496047
 20
940.5721352607275
 30
0.0
 10
586.7312467015237
 20
939.9397883593592
 30
0.0
  0
SPLINE
  5
BEAC
330
A
100
AcDbEntity
  8
HIDDEN
 48
0.5
100
AcDbSpline
210
0.0
220
0.0
230
1.0
 70
     8
 71
     3
 72
    16
 73
    12
 74
     0
 42
0.000000001
 43
0.0000000001
 40
179.0098631738232
 40
179.0098631738232
 40
179.0098631738232
 40
179.0098631738232
 40
180.1910331355327
 40
184.7843776566689
 40
188.1412383113076
 40
190.8806002944387
 40
192.8046288741843
 40
195.0817347899176
 40
198.307410125008
 40
200.6051583102961
 40
202.5022990283317
 40
202.5022990283317
 40
202.5022990283317
 40
202.5022990283317
 10
641.4153094875536
 20
959.3441359216934
 30
0.0
 10
641.1144180622049
 20
959.0906562176859
 30
0.0
 10
639.6415263367294
 20
957.8525004678414
 30
0.0
 10
637.2531497582817
 20
955.907517883525
 30
0.0
 10
634.7161365634518
 20
953.5697551690037
 30
0.0
 10
632.1822468941525
 20
951.9652590932433
 30
0.0
 10
632.3548555540642
 20
949.4739543052016
 30
0.0
 10
632.1706756636518
 20
947.0552923267232
 30
0.0
 10
632.0968744640263
 20
944.437384767027
 30
0.0
 10
631.9789576635948
 20
941.9703578461069
 30
0.0
 10
631.9419201126979
 20
940.5721352607275
 30
0.0
 10
631.9251698607787
 20
939.9397883593592
 30
0.0
  0
SPLINE
  5
BEAD
330
A
100
AcDbEntity
  8
HIDDEN
 48
0.5
100
AcDbSpline
210
0.0
220
0.0
230
1.0
 70
  1064
 71
     3
 72
    14
 73
    10
 74
     8
 42
0.000000001
 43
0.0000000001
 44
0.0
 40
0.0
 40
0.0
 40
0.0
 40
0.0
 40
17.05595905637147
 40
40.54262193045901
 40
106.9373044653215
 40
180.3971928470243
 40
208.0821206438177
 40
215.6502818474156
 40
225.4238094197748
 40
225.4238094197748
 40
225.4238094197748
 40
225.4238094197748
 10
389.8864969543163
 20
1069.884127438488
 30
0.0
 10
395.2421773833499
 20
1067.264455448831
 30
0.0
 10
407.9728204446416
 20
1061.037401859674
 30
0.0
 10
415.1638882695844
 20
1023.115200786091
 30
0.0
 10
458.435866725439
 20
983.507375501847
 30
0.0
 10
514.255277948995
 20
970.4553807581553
 30
0.0
 10
549.9548380647552
 20
968.0932683647662
 30
0.0
 10
565.4301330375578
 20
968.5774552502435
 30
0.0
 10
570.1846759102978
 20
964.9225165998432
 30
0.0
 10
572.8642682188109
 20
962.8626454917595
 30
0.0
 11
389.8864969543163
 21
1069.884127438488
 31
0.0
 11
404.1829541219048
 21
1060.582673154994
 31
0.0
 11
413.4916714121332
 21
1039.01948425883
 31
0.0
 11
458.7155528933441
 21
990.4082261730887
 31
0.0
 11
529.2507420154593
 21
969.8864743823743
 31
0.0
 11
556.8936853564106
 21
968.3623646216889
 31
0.0
 11
564.4425390662877
 21
967.8221131334733
 31
0.0
 11
572.8642682188109
 21
962.8626454917595
 31
0.0
  0
DIMENSION
  5
BEC6
102
{ACAD_REACTORS
330
BEC8
102
}
102
{ACAD_XDICTIONARY
360
BEC7
102
}
330
A
100
AcDbEntity
  8
Dim
100
AcDbDimension
  2
*D27
 10
1297.968032122263
 20
969.540402251831
 30
0.0
 11
1275.747140694227
 21
1019.712217250526
 31
0.0
 70
    32
 71
     5
 42
100.343629997391
 73
     0
 74
     0
 75
     0
  3
tform線あり
100
AcDbAlignedDimension
 13
1386.264118655102
 23
1069.884032249222
 33
0.0
 14
1385.558258773512
 24
969.540402251831
 34
0.0
 50
90.0
100
AcDbRotatedDimension
1001
ACAD
1000
DSTYLE
1002
{
1070
   271
1070
     0
1002
}
  0
MTEXT
  5
BEE1
330
A
100
AcDbEntity
  8
template
390
1D
100
AcDbMText
 10
1587.925013689833
 20
234.4414968978187
 30
0.0
 40
24.4326171875
 41
0.0
 46
24.4326171875
 71
     1
 72
     1
  1
{7L}
  7
ＭＳ ゴシック
 73
     1
 44
0.7828267384257843
1001
ACAD
1000
ACAD_MTEXT_DEFINED_HEIGHT_BEGIN
1070
    46
1040
24.4326171875
1000
ACAD_MTEXT_DEFINED_HEIGHT_END
  0
VIEWPORT
  5
349
330
B
100
AcDbEntity
 67
     1
  8
0
100
AcDbViewport
 10
202.5
 20
128.5
 30
0.0
 40
486.0
 41
308.4
 68
     1
 69
     1
 12
202.5
 22
128.5
 13
0.0
 23
0.0
 14
0.5
 24
0.5
 15
0.0
 25
0.0
 16
0.0
 26
0.0
 36
1.0
 17
0.0
 27
0.0
 37
0.0
 42
50.0
 43
0.0
 44
0.0
 45
308.4
 50
0.0
 51
0.0
 72
   100
 90
   557152
  1

281
     0
 71
     1
 74
     0
110
0.0
120
0.0
130
0.0
111
1.0
121
0.0
131
0.0
112
0.0
122
1.0
132
0.0
 79
     0
146
0.0
170
     0
 61
     5
348
26C
292
     1
282
     1
141
0.0
142
0.0
 63
   256
  0
VIEWPORT
  5
34A
330
B
100
AcDbEntity
 67
     1
  8
0
100
AcDbViewport
 10
202.5
 20
128.5
 30
0.0
 40
324.0
 41
205.6
 68
     2
 69
     2
 12
986.6781359294573
 22
1427.077061889956
 13
0.0
 23
0.0
 14
0.5
 24
0.5
 15
0.0
 25
0.0
 16
0.0
 26
0.0
 36
1.0
 17
0.0
 27
0.0
 37
0.0
 42
50.0
 43
0.0
 44
0.0
 45
2890.021615685494
 50
0.0
 51
0.0
 72
   100
 90
   557152
  1

281
     0
 71
     1
 74
     0
110
0.0
120
0.0
130
0.0
111
1.0
121
0.0
131
0.0
112
0.0
122
1.0
132
0.0
 79
     0
146
0.0
170
     0
 61
     5
348
26C
292
     1
282
     1
141
0.0
142
0.0
 63
   256
  0
ENDSEC
  0
SECTION
  2
OBJECTS
  0
DICTIONARY
  5
19
330
0
100
AcDbDictionary
281
     1
  3
ACAD_COLOR
350
38F
  3
ACAD_DETAILVIEWSTYLE
350
8CF
  3
ACAD_FIELDLIST
350
BA6
  3
ACAD_GROUP
350
1A
  3
ACAD_IMAGE_DICT
350
5E43
  3
ACAD_IMAGE_VARS
350
27B
  3
ACAD_LAYOUT
350
1E
  3
ACAD_MATERIAL
350
263
  3
ACAD_MLEADERSTYLE
350
336
  3
ACAD_MLINESTYLE
350
1B
  3
ACAD_PLOTSETTINGS
350
22
  3
ACAD_PLOTSTYLENAME
350
1F
  3
ACAD_SCALELIST
350
241
  3
ACAD_SECTIONVIEWSTYLE
350
8D0
  3
ACAD_TABLESTYLE
350
278
  3
ACAD_VISUALSTYLE
350
267
  3
ACDB_RECOMPOSE_DATA
350
BEF0
  3
AcDbVariableDictionary
350
330
  3
APPDATA
350
27A
  3
DimOffsetDictionary
350
C08
  0
SUN
  5
8C2
330
15
100
AcDbSun
 90
        1
290
     0
 63
     7
421
 16777215
 40
1.0
291
     1
 91
  2455826
 92
 54000000
292
     0
 70
     2
 71
   256
280
     1
  0
DICTIONARY
  5
2E1
330
2
100
AcDbDictionary
280
     1
281
     1
  3
ACAD_LAYERSTATES
360
2E2
  3
ACLYDICTIONARY
360
BFE
  0
DICTIONARY
  5
560A
330
A
100
AcDbDictionary
280
     1
281
     1
  3
ACAD_SORTENTS
360
560B
  0
DICTIONARY
  5
BDC
330
BDB
100
AcDbDictionary
280
     1
281
     1
  0
DICTIONARY
  5
BBE0
330
BBDF
100
AcDbDictionary
280
     1
281
     1
  3
ACAD_DIMASSOC
360
BBE1
  0
DICTIONARY
  5
BCEB
330
BCEA
100
AcDbDictionary
280
     1
281
     1
  3
ACAD_DIMASSOC
360
BCEC
  0
DICTIONARY
  5
BD48
330
BD47
100
AcDbDictionary
280
     1
281
     1
  3
ACAD_DIMASSOC
360
BD49
  0
DICTIONARY
  5
BDB0
330
BDAF
100
AcDbDictionary
280
     1
281
     1
  3
ACAD_DIMASSOC
360
BDB1
  0
DICTIONARY
  5
BDCF
330
BDCE
100
AcDbDictionary
280
     1
281
     1
  3
ACAD_DIMASSOC
360
BDD0
  0
DICTIONARY
  5
BDE0
330
BDDF
100
AcDbDictionary
280
     1
281
     1
  3
ACAD_DIMASSOC
360
BDE1
  0
DICTIONARY
  5
BEC7
330
BEC6
100
AcDbDictionary
280
     1
281
     1
  3
ACAD_DIMASSOC
360
BEC8
  0
DICTIONARY
  5
38F
102
{ACAD_REACTORS
330
19
102
}
330
19
100
AcDbDictionary
281
     1
  0
DICTIONARY
  5
8CF
102
{ACAD_REACTORS
330
19
102
}
330
19
100
AcDbDictionary
281
     1
  0
FIELDLIST
  5
BA6
102
{ACAD_REACTORS
330
19
102
}
330
19
100
AcDbIdSet
 90
        0
100
AcDbFieldList
  0
DICTIONARY
  5
1A
102
{ACAD_REACTORS
330
19
102
}
330
19
100
AcDbDictionary
281
     1
  0
DICTIONARY
  5
5E43
102
{ACAD_REACTORS
330
19
102
}
330
19
100
AcDbDictionary
281
     1
  3
Untitled
350
5E44
  0
RASTERVARIABLES
  5
27B
102
{ACAD_REACTORS
330
19
102
}
330
19
100
AcDbRasterVariables
 90
        0
 70
     1
 71
     1
 72
     1
  0
DICTIONARY
  5
1E
102
{ACAD_REACTORS
330
19
102
}
330
19
100
AcDbDictionary
281
     1
  3
Layout1
350
21
  3
Model
350
20
  0
DICTIONARY
  5
263
102
{ACAD_REACTORS
330
19
102
}
330
19
100
AcDbDictionary
281
     1
  3
ByBlock
350
4FEC
  3
ByLayer
350
264
  3
Global
350
266
  0
DICTIONARY
  5
336
102
{ACAD_REACTORS
330
19
102
}
330
19
100
AcDbDictionary
281
     1
  3
Standard
350
8D1
  0
DICTIONARY
  5
1B
102
{ACAD_REACTORS
330
19
102
}
330
19
100
AcDbDictionary
281
     1
  3
Standard
350
1C
  0
DICTIONARY
  5
22
102
{ACAD_REACTORS
330
19
102
}
330
19
100
AcDbDictionary
281
     1
  0
ACDBDICTIONARYWDFLT
  5
1F
102
{ACAD_REACTORS
330
19
102
}
330
19
100
AcDbDictionary
281
     1
  3
Normal
350
1D
100
AcDbDictionaryWithDefault
340
1D
  0
DICTIONARY
  5
241
102
{ACAD_REACTORS
330
19
102
}
330
19
100
AcDbDictionary
281
     1
  3
A0
350
242
  3
A1
350
243
  3
A2
350
244
  3
A3
350
245
  3
A4
350
246
  3
A5
350
247
  3
A6
350
248
  3
A7
350
249
  3
A8
350
24A
  3
A9
350
24B
  3
B0
350
24C
  3
B1
350
24D
  3
B2
350
24E
  3
B3
350
24F
  3
B4
350
250
  3
B5
350
251
  3
B6
350
252
  3
B7
350
253
  3
B8
350
254
  3
B9
350
255
  3
C0
350
256
  3
C1
350
257
  3
C2
350
258
  3
C3
350
259
  3
C4
350
25A
  3
C5
350
25B
  3
C6
350
25C
  3
C7
350
25D
  3
C8
350
25E
  3
C9
350
25F
  3
D0
350
260
  3
D1
350
261
  3
D2
350
262
  0
DICTIONARY
  5
8D0
102
{ACAD_REACTORS
330
19
102
}
330
19
100
AcDbDictionary
281
     1
  0
DICTIONARY
  5
278
102
{ACAD_REACTORS
330
19
102
}
330
19
100
AcDbDictionary
281
     1
  3
Standard
350
279
  0
DICTIONARY
  5
267
102
{ACAD_REACTORS
330
19
102
}
330
19
100
AcDbDictionary
281
     1
  3
2dWireframe
350
26C
  3
3D Hidden
350
26E
  3
3dWireframe
350
26D
  3
Basic
350
26F
  3
Brighten
350
273
  3
ColorChange
350
277
  3
Conceptual
350
271
  3
Dim
350
272
  3
EdgeColorOff
350
8BC
  3
Facepattern
350
276
  3
Flat
350
268
  3
FlatWithEdges
350
269
  3
Gouraud
350
26A
  3
GouraudWithEdges
350
26B
  3
Hidden
350
8B9
  3
JitterOff
350
8BA
  3
Linepattern
350
275
  3
OverhangOff
350
8BB
  3
Realistic
350
270
  3
Shaded
350
8C1
  3
Shaded with edges
350
8C0
  3
Shades of Gray
350
8BD
  3
Sketchy
350
8BE
  3
Thicken
350
274
  3
Wireframe
350
8B8
  3
X-Ray
350
8BF
  0
XRECORD
  5
BEF0
102
{ACAD_REACTORS
330
19
102
}
330
19
100
AcDbXrecord
280
     1
 90
        1
330
279
  0
DICTIONARY
  5
330
102
{ACAD_REACTORS
330
19
102
}
330
19
100
AcDbDictionary
281
     1
  3
CANNOSCALE
350
331
  3
CMLEADERSTYLE
350
8DA
  3
CTABLESTYLE
350
335
  3
HPTRANSPARENCY
350
C07
  3
XCLIPFRAME
350
64A
  0
DICTIONARY
  5
27A
102
{ACAD_REACTORS
330
19
102
}
330
19
100
AcDbDictionary
281
     1
  0
DICTIONARY
  5
C08
102
{ACAD_REACTORS
330
19
102
}
330
19
100
AcDbDictionary
281
     1
  3
DIMRAILANGLE
350
4342
  3
DIMRAILFIRSTOFFSET
350
4340
  3
DIMRAILOFFSET
350
4341
  3
DIMRAILSENABLED
350
4343
  0
DICTIONARY
  5
2E2
102
{ACAD_REACTORS
330
2E1
102
}
330
2E1
100
AcDbDictionary
281
     1
  0
DICTIONARY
  5
BFE
102
{ACAD_REACTORS
330
2E1
102
}
330
2E1
100
AcDbDictionary
281
     1
1001
ACAD
1000
<All
  0
SORTENTSTABLE
  5
560B
102
{ACAD_REACTORS
330
560A
102
}
330
560A
100
AcDbSortentsTable
330
A
331
BCBF
  5
BCC3
331
BCC0
  5
BCD2
331
BCC1
  5
BCD3
331
BCC2
  5
BCD4
331
BCE9
  5
BCFE
331
BCEA
  5
BCFF
331
BCFA
  5
BCFD
331
BEA7
  5
BEA8
331
BEA8
  5
BEA9
331
BEAB
  5
BEA6
  0
DIMASSOC
  5
BBE1
102
{ACAD_REACTORS
330
BBE0
102
}
330
BBE0
100
AcDbDimAssoc
330
BBDF
 90
        1
 70
     0
 71
     1
  1
AcDbOsnapPointRef
 72
    10
331
BBB0
 73
     0
 91
        0
 40
0.9913560148932703
 10
0.0
 20
0.0
 30
0.0
 75
     0
  0
DIMASSOC
  5
BCEC
102
{ACAD_REACTORS
330
BCEB
102
}
330
BCEB
100
AcDbDimAssoc
330
BCEA
 90
        3
 70
     0
 71
     1
  1
AcDbOsnapPointRef
 72
    10
331
BCC2
 73
     0
 91
        0
 40
0.1999944197582832
 10
0.0
 20
0.0
 30
0.0
 75
     0
  1
AcDbOsnapPointRef
 72
     1
331
BCE9
 73
     2
 91
        3
 40
1.0
 10
0.0
 20
0.0
 30
0.0
 75
     0
  0
DIMASSOC
  5
BD49
102
{ACAD_REACTORS
330
BD48
102
}
330
BD48
100
AcDbDimAssoc
330
BD47
 90
        3
 70
     0
 71
     1
  1
AcDbOsnapPointRef
 72
    13
331
BCE9
 73
     2
 91
        1
 40
0.0
 10
0.0
 20
0.0
 30
0.0
 75
     0
  1
AcDbOsnapPointRef
 72
     1
331
BCE9
 73
     2
 91
        3
 40
1.0
 10
0.0
 20
0.0
 30
0.0
 75
     0
  0
DIMASSOC
  5
BDB1
102
{ACAD_REACTORS
330
BDB0
102
}
330
BDB0
100
AcDbDimAssoc
330
BDAF
 90
        1
 70
     0
 71
     1
  1
AcDbOsnapPointRef
 72
    13
331
7DB0
 73
     0
 91
        0
 40
0.0
 10
0.0
 20
0.0
 30
0.0
 75
     0
  0
DIMASSOC
  5
BDD0
102
{ACAD_REACTORS
330
BDCF
102
}
330
BDCF
100
AcDbDimAssoc
330
BDCE
 90
        3
 70
     0
 71
     1
  1
AcDbOsnapPointRef
 72
     1
331
7DAE
 73
     0
 91
        0
 40
0.0
 10
0.0
 20
0.0
 30
0.0
 75
     0
  1
AcDbOsnapPointRef
 72
     2
331
BDA5
 73
     0
 91
        0
 40
0.5000000000000023
 10
0.0
 20
0.0
 30
0.0
 75
     0
  0
DIMASSOC
  5
BDE1
102
{ACAD_REACTORS
330
BDE0
102
}
330
BDE0
100
AcDbDimAssoc
330
BDDF
 90
        3
 70
     0
 71
     1
  1
AcDbOsnapPointRef
 72
    13
331
BDA5
 73
     0
 91
        0
 40
0.0
 10
0.0
 20
0.0
 30
0.0
 75
     0
  1
AcDbOsnapPointRef
 72
    13
331
BDA9
 73
     0
 91
        0
 40
0.0
 10
0.0
 20
0.0
 30
0.0
 75
     0
  0
DIMASSOC
  5
BEC8
102
{ACAD_REACTORS
330
BEC7
102
}
330
BEC7
100
AcDbDimAssoc
330
BEC6
 90
        3
 70
     0
 71
     1
  1
AcDbOsnapPointRef
 72
    10
331
BABE
 73
     0
 91
        0
 40
335.692933607045
 10
0.0
 20
0.0
 30
0.0
 75
     0
  1
AcDbOsnapPointRef
 72
     1
331
BAC2
 73
     0
 91
        0
 40
0.0
 10
0.0
 20
0.0
 30
0.0
 75
     0
  0
IMAGEDEF
  5
5E44
102
{ACAD_REACTORS
330
5E43
102
}
330
5E43
100
AcDbRasterImageDef
 90
        0
  1
K:/DESKTOP/Untitled.png
 10
1035.0
 20
588.0
 11
0.2646202699126753
 21
0.2646202699126753
280
     1
281
     3
  0
LAYOUT
  5
21
102
{ACAD_REACTORS
330
1E
102
}
330
1E
100
AcDbPlotSettings
  1

  2
none_device
  4
ISO_A3_(420.00_x_297.00_MM)
  6

 40
7.5
 41
20.0
 42
7.5
 43
20.0
 44
420.0
 45
297.0
 46
0.0
 47
0.0
 48
0.0
 49
0.0
140
0.0
141
0.0
142
1.0
143
1.0
 70
     0
 72
     1
 73
     0
 74
     0
  7

 75
     0
 76
     0
 77
     2
 78
   300
147
1.0
148
0.0
149
0.0
100
AcDbLayout
  1
Layout1
 70
     0
 71
     0
 10
0.0
 20
0.0
 11
0.0
 21
0.0
 12
0.0
 22
0.0
 32
0.0
 14
0.0
 24
0.0
 34
0.0
 15
0.0
 25
0.0
 35
0.0
146
0.0
 13
0.0
 23
0.0
 33
0.0
 16
0.0
 26
0.0
 36
0.0
 17
0.0
 27
0.0
 37
0.0
 76
     0
330
B
331
349
  0
LAYOUT
  5
20
102
{ACAD_REACTORS
330
1E
102
}
330
1E
100
AcDbPlotSettings
  1

  2
Adobe PDF
  4
A4
  6

 40
0.0
 41
0.0400000000000205
 42
0.0600000000000023
 43
0.0
 44
210.0
 45
297.0
 46
0.0
 47
0.0224285714285486
 48
0.0
 49
0.0
140
0.0
141
0.0
142
1.0
143
10.00285795941698
 70
  1716
 72
     1
 73
     0
 74
     1
  7
monochrome.ctb
 75
     0
 76
   110
 77
     2
 78
   300
147
0.0999714285714286
148
377.0474382459588
149
-297.6123702345185
100
AcDbLayout
  1
Model
 70
     0
 71
     1
 10
0.0
 20
0.0
 11
2100.0
 21
2970.0
 12
0.0
 22
0.0
 32
0.0
 14
0.0
 24
0.0
 34
0.0
 15
2100.0
 25
2970.0
 35
34.99521132346015
146
0.0
 13
0.0
 23
0.0
 33
0.0
 16
0.0
 26
0.0
 36
0.0
 17
0.0
 27
0.0
 37
0.0
 76
     0
330
A
331
15
1001
PLOTTRANSPARENCY
1071
        0
  0
MATERIAL
  5
4FEC
102
{ACAD_REACTORS
330
263
102
}
330
263
100
AcDbMaterial
  1
ByBlock
 72
     1
 94
      127
  0
MATERIAL
  5
264
102
{ACAD_REACTORS
330
263
102
}
330
263
100
AcDbMaterial
  1
ByLayer
 72
     1
 94
      127
  0
MATERIAL
  5
266
102
{ACAD_REACTORS
330
263
102
}
330
263
100
AcDbMaterial
  1
Global
 72
     1
 94
      127
  0
MLEADERSTYLE
  5
8D1
102
{ACAD_REACTORS
330
336
102
}
330
336
100
AcDbMLeaderStyle
170
     2
171
     1
172
     0
 90
        2
 40
0.0
 41
0.0
173
     1
 91
-1056964608
340
11
 92
       -2
290
     1
 42
2.0
291
     1
 43
8.0
  3
Standard
341
0
 44
4.0
300

342
17
174
     1
178
     6
175
     1
176
     0
 93
-1056964608
 45
4.0
292
     0
297
     0
 46
4.0
343
0
 94
-1056964608
 47
1.0
 49
1.0
140
1.0
293
     1
141
0.0
294
     1
177
     0
142
1.0
295
     0
296
     0
143
3.75
1001
ACAD_MLEADERVER
1070
     2
  0
MLINESTYLE
  5
1C
102
{ACAD_REACTORS
330
1B
102
}
330
1B
100
AcDbMlineStyle
  2
Standard
 70
     0
  3

 62
     0
 51
90.0
 52
90.0
 71
     2
 49
0.5
 62
   256
  6
BYLAYER
 49
-0.5
 62
   256
  6
BYLAYER
  0
ACDBPLACEHOLDER
  5
1D
102
{ACAD_REACTORS
330
1F
102
}
330
1F
  0
SCALE
  5
242
102
{ACAD_REACTORS
330
241
102
}
330
241
100
AcDbScale
 70
     0
300
1:1
140
1.0
141
1.0
290
     1
  0
SCALE
  5
243
102
{ACAD_REACTORS
330
241
102
}
330
241
100
AcDbScale
 70
     0
300
1:2
140
1.0
141
2.0
290
     0
  0
SCALE
  5
244
102
{ACAD_REACTORS
330
241
102
}
330
241
100
AcDbScale
 70
     0
300
1:4
140
1.0
141
4.0
290
     0
  0
SCALE
  5
245
102
{ACAD_REACTORS
330
241
102
}
330
241
100
AcDbScale
 70
     0
300
1:5
140
1.0
141
5.0
290
     0
  0
SCALE
  5
246
102
{ACAD_REACTORS
330
241
102
}
330
241
100
AcDbScale
 70
     0
300
1:8
140
1.0
141
8.0
290
     0
  0
SCALE
  5
247
102
{ACAD_REACTORS
330
241
102
}
330
241
100
AcDbScale
 70
     0
300
1:10
140
1.0
141
10.0
290
     0
  0
SCALE
  5
248
102
{ACAD_REACTORS
330
241
102
}
330
241
100
AcDbScale
 70
     0
300
1:16
140
1.0
141
16.0
290
     0
  0
SCALE
  5
249
102
{ACAD_REACTORS
330
241
102
}
330
241
100
AcDbScale
 70
     0
300
1:20
140
1.0
141
20.0
290
     0
  0
SCALE
  5
24A
102
{ACAD_REACTORS
330
241
102
}
330
241
100
AcDbScale
 70
     0
300
1:30
140
1.0
141
30.0
290
     0
  0
SCALE
  5
24B
102
{ACAD_REACTORS
330
241
102
}
330
241
100
AcDbScale
 70
     0
300
1:40
140
1.0
141
40.0
290
     0
  0
SCALE
  5
24C
102
{ACAD_REACTORS
330
241
102
}
330
241
100
AcDbScale
 70
     0
300
1:50
140
1.0
141
50.0
290
     0
  0
SCALE
  5
24D
102
{ACAD_REACTORS
330
241
102
}
330
241
100
AcDbScale
 70
     0
300
1:100
140
1.0
141
100.0
290
     0
  0
SCALE
  5
24E
102
{ACAD_REACTORS
330
241
102
}
330
241
100
AcDbScale
 70
     0
300
2:1
140
2.0
141
1.0
290
     0
  0
SCALE
  5
24F
102
{ACAD_REACTORS
330
241
102
}
330
241
100
AcDbScale
 70
     0
300
4:1
140
4.0
141
1.0
290
     0
  0
SCALE
  5
250
102
{ACAD_REACTORS
330
241
102
}
330
241
100
AcDbScale
 70
     0
300
8:1
140
8.0
141
1.0
290
     0
  0
SCALE
  5
251
102
{ACAD_REACTORS
330
241
102
}
330
241
100
AcDbScale
 70
     0
300
10:1
140
10.0
141
1.0
290
     0
  0
SCALE
  5
252
102
{ACAD_REACTORS
330
241
102
}
330
241
100
AcDbScale
 70
     0
300
100:1
140
100.0
141
1.0
290
     0
  0
SCALE
  5
253
102
{ACAD_REACTORS
330
241
102
}
330
241
100
AcDbScale
 70
     0
300
1/128" = 1'-0"
140
0.0078125
141
12.0
290
     0
  0
SCALE
  5
254
102
{ACAD_REACTORS
330
241
102
}
330
241
100
AcDbScale
 70
     0
300
1/64" = 1'-0"
140
0.015625
141
12.0
290
     0
  0
SCALE
  5
255
102
{ACAD_REACTORS
330
241
102
}
330
241
100
AcDbScale
 70
     0
300
1/32" = 1'-0"
140
0.03125
141
12.0
290
     0
  0
SCALE
  5
256
102
{ACAD_REACTORS
330
241
102
}
330
241
100
AcDbScale
 70
     0
300
1/16" = 1'-0"
140
0.0625
141
12.0
290
     0
  0
SCALE
  5
257
102
{ACAD_REACTORS
330
241
102
}
330
241
100
AcDbScale
 70
     0
300
3/32" = 1'-0"
140
0.09375
141
12.0
290
     0
  0
SCALE
  5
258
102
{ACAD_REACTORS
330
241
102
}
330
241
100
AcDbScale
 70
     0
300
1/8" = 1'-0"
140
0.125
141
12.0
290
     0
  0
SCALE
  5
259
102
{ACAD_REACTORS
330
241
102
}
330
241
100
AcDbScale
 70
     0
300
3/16" = 1'-0"
140
0.1875
141
12.0
290
     0
  0
SCALE
  5
25A
102
{ACAD_REACTORS
330
241
102
}
330
241
100
AcDbScale
 70
     0
300
1/4" = 1'-0"
140
0.25
141
12.0
290
     0
  0
SCALE
  5
25B
102
{ACAD_REACTORS
330
241
102
}
330
241
100
AcDbScale
 70
     0
300
3/8" = 1'-0"
140
0.375
141
12.0
290
     0
  0
SCALE
  5
25C
102
{ACAD_REACTORS
330
241
102
}
330
241
100
AcDbScale
 70
     0
300
1/2" = 1'-0"
140
0.5
141
12.0
290
     0
  0
SCALE
  5
25D
102
{ACAD_REACTORS
330
241
102
}
330
241
100
AcDbScale
 70
     0
300
3/4" = 1'-0"
140
0.75
141
12.0
290
     0
  0
SCALE
  5
25E
102
{ACAD_REACTORS
330
241
102
}
330
241
100
AcDbScale
 70
     0
300
1" = 1'-0"
140
1.0
141
12.0
290
     0
  0
SCALE
  5
25F
102
{ACAD_REACTORS
330
241
102
}
330
241
100
AcDbScale
 70
     0
300
1-1/2" = 1'-0"
140
1.5
141
12.0
290
     0
  0
SCALE
  5
260
102
{ACAD_REACTORS
330
241
102
}
330
241
100
AcDbScale
 70
     0
300
3" = 1'-0"
140
3.0
141
12.0
290
     0
  0
SCALE
  5
261
102
{ACAD_REACTORS
330
241
102
}
330
241
100
AcDbScale
 70
     0
300
6" = 1'-0"
140
6.0
141
12.0
290
     0
  0
SCALE
  5
262
102
{ACAD_REACTORS
330
241
102
}
330
241
100
AcDbScale
 70
     0
300
1'-0" = 1'-0"
140
12.0
141
12.0
290
     0
  0
TABLESTYLE
  5
279
102
{ACAD_REACTORS
330
278
102
}
102
{ACAD_XDICTIONARY
360
BEEE
102
}
330
278
100
AcDbTableStyle
  3
Standard
 70
     0
 71
     0
 40
0.06
 41
0.06
280
     0
281
     0
  7
Standard
140
4.5
170
     2
 62
     0
 63
   257
283
     0
 90
        4
 91
        0
  1

274
    -2
284
     1
 64
     0
275
    -2
285
     1
 65
     0
276
    -2
286
     1
 66
     0
277
    -2
287
     1
 67
     0
278
    -2
288
     1
 68
     0
279
    -2
289
     1
 69
     0
  7
Standard
140
6.0
170
     5
 62
     0
 63
   257
283
     0
 90
        4
 91
        0
  1

274
    -2
284
     1
 64
     0
275
    -2
285
     1
 65
     0
276
    -2
286
     1
 66
     0
277
    -2
287
     1
 67
     0
278
    -2
288
     1
 68
     0
279
    -2
289
     1
 69
     0
  7
Standard
140
4.5
170
     5
 62
     0
 63
   257
283
     0
 90
        4
 91
        0
  1

274
    -2
284
     1
 64
     0
275
    -2
285
     1
 65
     0
276
    -2
286
     1
 66
     0
277
    -2
287
     1
 67
     0
278
    -2
288
     1
 68
     0
279
    -2
289
     1
 69
     0
  0
VISUALSTYLE
  5
26C
102
{ACAD_REACTORS
330
267
102
}
330
267
100
AcDbVisualStyle
  2
2dWireframe
 70
     4
 71
     0
 72
     2
 73
     0
 90
        0
 40
-0.6
 41
-30.0
 62
     5
 63
     7
421
 16777215
 74
     1
 91
        4
 64
     7
 65
   257
 75
     1
175
     1
 42
1.0
 92
        0
 66
   257
 43
1.0
 76
     1
 77
     6
 78
     2
 67
     7
 79
     5
170
     0
171
     0
290
     0
174
     0
 93
        1
 44
0.0
173
     0
291
     0
 45
0.0
  0
VISUALSTYLE
  5
26E
102
{ACAD_REACTORS
330
267
102
}
330
267
100
AcDbVisualStyle
  2
3D Hidden
 70
     6
 71
     1
 72
     2
 73
     2
 90
        0
 40
-0.6
 41
-30.0
 62
     5
 63
     7
421
 16777215
 74
     2
 91
        2
 64
     7
 65
   257
 75
     2
175
     1
 42
40.0
 92
        0
 66
   257
 43
1.0
 76
     1
 77
     6
 78
     2
 67
     7
 79
     3
170
     0
171
     0
290
     0
174
     0
 93
        1
 44
0.0
173
     0
291
     0
 45
0.0
  0
VISUALSTYLE
  5
26D
102
{ACAD_REACTORS
330
267
102
}
330
267
100
AcDbVisualStyle
  2
3dWireframe
 70
     5
 71
     0
 72
     2
 73
     0
 90
        0
 40
-0.6
 41
-30.0
 62
     5
 63
     7
421
 16777215
 74
     1
 91
        4
 64
     7
 65
   257
 75
     1
175
     1
 42
1.0
 92
        0
 66
   257
 43
1.0
 76
     1
 77
     6
 78
     2
 67
     7
 79
     5
170
     0
171
     0
290
     0
174
     0
 93
        1
 44
0.0
173
     0
291
     0
 45
0.0
  0
VISUALSTYLE
  5
26F
102
{ACAD_REACTORS
330
267
102
}
330
267
100
AcDbVisualStyle
  2
Basic
 70
     7
 71
     1
 72
     0
 73
     1
 90
        0
 40
-0.6
 41
-30.0
 62
     5
 63
     7
421
 16777215
 74
     0
 91
        4
 64
     7
 65
   257
 75
     1
175
     1
 42
1.0
 92
        8
 66
     7
 43
1.0
 76
     1
 77
     6
 78
     2
 67
     7
 79
     5
170
     0
171
     0
290
     0
174
     0
 93
        1
 44
0.0
173
     0
291
     1
 45
0.0
  0
VISUALSTYLE
  5
273
102
{ACAD_REACTORS
330
267
102
}
330
267
100
AcDbVisualStyle
  2
Brighten
 70
    12
 71
     2
 72
     2
 73
     0
 90
        0
 40
-0.6
 41
-30.0
 62
     5
 63
     7
421
 16777215
 74
     1
 91
        4
 64
     7
 65
   257
 75
     1
175
     1
 42
1.0
 92
        8
 66
     7
 43
1.0
 76
     1
 77
     6
 78
     2
 67
     7
 79
     5
170
     0
171
     0
290
     0
174
     0
 93
        1
 44
50.0
173
     0
291
     1
 45
0.0
  0
VISUALSTYLE
  5
277
102
{ACAD_REACTORS
330
267
102
}
330
267
100
AcDbVisualStyle
  2
ColorChange
 70
    16
 71
     2
 72
     2
 73
     3
 90
        0
 40
-0.6
 41
-30.0
 62
     5
 63
     8
421
  8421504
 74
     1
 91
        4
 64
     7
 65
   257
 75
     1
175
     1
 42
1.0
 92
        8
 66
     8
424
  8421504
 43
1.0
 76
     1
 77
     6
 78
     2
 67
     7
 79
     5
170
     0
171
     0
290
     0
174
     0
 93
        1
 44
0.0
173
     0
291
     1
 45
0.0
  0
VISUALSTYLE
  5
271
102
{ACAD_REACTORS
330
267
102
}
330
267
100
AcDbVisualStyle
  2
Conceptual
 70
     9
 71
     3
 72
     2
 73
     0
 90
        0
 40
-0.6
 41
-30.0
 62
     5
 63
     7
421
 16777215
 74
     2
 91
        2
 64
     7
 65
   257
 75
     1
175
     1
 42
40.0
 92
        8
 66
     7
 43
1.0
 76
     1
 77
     6
 78
     2
 67
     7
 79
     3
170
     0
171
     0
290
     0
174
     0
 93
        1
 44
0.0
173
     0
291
     0
 45
0.0
  0
VISUALSTYLE
  5
272
102
{ACAD_REACTORS
330
267
102
}
330
267
100
AcDbVisualStyle
  2
Dim
 70
    11
 71
     2
 72
     2
 73
     0
 90
        0
 40
-0.6
 41
-30.0
 62
     5
 63
     7
421
 16777215
 74
     1
 91
        4
 64
     7
 65
   257
 75
     1
175
     1
 42
1.0
 92
        8
 66
     7
 43
1.0
 76
     1
 77
     6
 78
     2
 67
     7
 79
     5
170
     0
171
     0
290
     0
174
     0
 93
        1
 44
-50.0
173
     0
291
     1
 45
0.0
  0
VISUALSTYLE
  5
8BC
102
{ACAD_REACTORS
330
267
102
}
330
267
100
AcDbVisualStyle
  2
EdgeColorOff
 70
    22
 71
     2
 72
     2
 73
     0
 90
        0
 40
0.6
 41
30.0
 62
     5
 63
     7
421
 16777215
 74
     1
 91
        4
 64
     7
 65
   257
 75
     1
175
     1
 42
1.0
 92
        8
 66
     7
 43
1.0
 76
     1
 77
     6
 78
     2
 67
     7
 79
     5
170
     0
171
     0
290
     0
174
     0
 93
        1
 44
0.0
173
     0
291
     1
 45
0.0
  0
VISUALSTYLE
  5
276
102
{ACAD_REACTORS
330
267
102
}
330
267
100
AcDbVisualStyle
  2
Facepattern
 70
    15
 71
     2
 72
     2
 73
     0
 90
        0
 40
-0.6
 41
-30.0
 62
     5
 63
     7
421
 16777215
 74
     1
 91
        4
 64
     7
 65
   257
 75
     1
175
     1
 42
1.0
 92
        8
 66
     7
 43
1.0
 76
     1
 77
     6
 78
     2
 67
     7
 79
     5
170
     0
171
     0
290
     0
174
     0
 93
        1
 44
0.0
173
     0
291
     1
 45
0.0
  0
VISUALSTYLE
  5
268
102
{ACAD_REACTORS
330
267
102
}
330
267
100
AcDbVisualStyle
  2
Flat
 70
     0
 71
     2
 72
     1
 73
     1
 90
        2
 40
-0.6
 41
30.0
 62
     5
 63
     7
421
 16777215
 74
     0
 91
        4
 64
     7
 65
   257
 75
     1
175
     1
 42
1.0
 92
        8
 66
     7
 43
1.0
 76
     1
 77
     6
 78
     2
 67
     7
 79
     5
170
     0
171
     0
290
     0
174
     0
 93
       13
 44
0.0
173
     0
291
     1
 45
0.0
  0
VISUALSTYLE
  5
269
102
{ACAD_REACTORS
330
267
102
}
330
267
100
AcDbVisualStyle
  2
FlatWithEdges
 70
     1
 71
     2
 72
     1
 73
     1
 90
        2
 40
-0.6
 41
30.0
 62
     5
 63
     7
421
 16777215
 74
     1
 91
        4
 64
     7
 65
   257
 75
     1
175
     1
 42
1.0
 92
        0
 66
   257
 43
1.0
 76
     1
 77
     6
 78
     2
 67
     7
 79
     5
170
     0
171
     0
290
     0
174
     0
 93
       13
 44
0.0
173
     0
291
     1
 45
0.0
  0
VISUALSTYLE
  5
26A
102
{ACAD_REACTORS
330
267
102
}
330
267
100
AcDbVisualStyle
  2
Gouraud
 70
     2
 71
     2
 72
     2
 73
     1
 90
        2
 40
-0.6
 41
30.0
 62
     5
 63
     7
421
 16777215
 74
     0
 91
        4
 64
     7
 65
   257
 75
     1
175
     1
 42
1.0
 92
        0
 66
     7
 43
1.0
 76
     1
 77
     6
 78
     2
 67
     7
 79
     5
170
     0
171
     0
290
     0
174
     0
 93
       13
 44
0.0
173
     0
291
     1
 45
0.0
  0
VISUALSTYLE
  5
26B
102
{ACAD_REACTORS
330
267
102
}
330
267
100
AcDbVisualStyle
  2
GouraudWithEdges
 70
     3
 71
     2
 72
     2
 73
     1
 90
        2
 40
-0.6
 41
30.0
 62
     5
 63
     7
421
 16777215
 74
     1
 91
        4
 64
     7
 65
   257
 75
     1
175
     1
 42
1.0
 92
        0
 66
   257
 43
1.0
 76
     1
 77
     6
 78
     2
 67
     7
 79
     5
170
     0
171
     0
290
     0
174
     0
 93
       13
 44
0.0
173
     0
291
     1
 45
0.0
  0
VISUALSTYLE
  5
8B9
102
{ACAD_REACTORS
330
267
102
}
330
267
100
AcDbVisualStyle
  2
Hidden
 70
     6
 71
     1
 72
     2
 73
     2
 90
        0
 40
0.6
 41
30.0
 62
     5
 63
     7
421
 16777215
 74
     2
 91
        2
 64
     7
 65
   257
 75
     2
175
     1
 42
40.0
 92
        0
 66
   257
 43
1.0
 76
     1
 77
     6
 78
     2
 67
     7
 79
     3
170
     0
171
     0
290
     0
174
     0
 93
        1
 44
0.0
173
     0
291
     0
 45
0.0
  0
VISUALSTYLE
  5
8BA
102
{ACAD_REACTORS
330
267
102
}
330
267
100
AcDbVisualStyle
  2
JitterOff
 70
    20
 71
     2
 72
     2
 73
     0
 90
        0
 40
0.6
 41
30.0
 62
     5
 63
     7
421
 16777215
 74
     1
 91
        4
 64
     7
 65
   257
 75
     1
175
     1
 42
1.0
 92
       10
 66
     7
 43
1.0
 76
     1
 77
     6
 78
     2
 67
     7
 79
     5
170
     0
171
     0
290
     0
174
     0
 93
        1
 44
0.0
173
     0
291
     1
 45
0.0
  0
VISUALSTYLE
  5
275
102
{ACAD_REACTORS
330
267
102
}
330
267
100
AcDbVisualStyle
  2
Linepattern
 70
    14
 71
     2
 72
     2
 73
     0
 90
        0
 40
-0.6
 41
-30.0
 62
     5
 63
     7
421
 16777215
 74
     1
 91
        4
 64
     7
 65
   257
 75
     7
175
     7
 42
1.0
 92
        8
 66
     7
 43
1.0
 76
     1
 77
     6
 78
     2
 67
     7
 79
     5
170
     0
171
     0
290
     0
174
     0
 93
        1
 44
0.0
173
     0
291
     1
 45
0.0
  0
VISUALSTYLE
  5
8BB
102
{ACAD_REACTORS
330
267
102
}
330
267
100
AcDbVisualStyle
  2
OverhangOff
 70
    21
 71
     2
 72
     2
 73
     0
 90
        0
 40
0.6
 41
30.0
 62
     5
 63
     7
421
 16777215
 74
     1
 91
        4
 64
     7
 65
   257
 75
     1
175
     1
 42
1.0
 92
        9
 66
     7
 43
1.0
 76
     1
 77
     6
 78
     2
 67
     7
 79
     5
170
     0
171
     0
290
     0
174
     0
 93
        1
 44
0.0
173
     0
291
     1
 45
0.0
  0
VISUALSTYLE
  5
270
102
{ACAD_REACTORS
330
267
102
}
330
267
100
AcDbVisualStyle
  2
Realistic
 70
     8
 71
     2
 72
     2
 73
     0
 90
        0
 40
-0.6
 41
-30.0
 62
     5
 63
     7
421
 16777215
 74
     1
 91
        0
 64
     7
 65
   257
 75
     1
175
     1
 42
1.0
 92
        8
 66
     8
424
  7895160
 43
1.0
 76
     1
 77
     6
 78
     2
 67
     7
 79
     5
170
     0
171
     0
290
     0
174
     0
 93
       13
 44
0.0
173
     0
291
     0
 45
0.0
  0
VISUALSTYLE
  5
8C1
102
{ACAD_REACTORS
330
267
102
}
330
267
100
AcDbVisualStyle
  2
Shaded
 70
    27
 71
     2
 72
     2
 73
     1
 90
        2
 40
0.6
 41
30.0
 62
     5
 63
     7
421
 16777215
 74
     0
 91
        4
 64
     7
 65
   257
 75
     1
175
     1
 42
1.0
 92
        8
 66
   257
 43
1.0
 76
     1
 77
     6
 78
     2
 67
     8
425
  7895160
 79
     3
170
     0
171
     0
290
     0
174
     0
 93
        5
 44
0.0
173
     0
291
     0
 45
0.0
  0
VISUALSTYLE
  5
8C0
102
{ACAD_REACTORS
330
267
102
}
330
267
100
AcDbVisualStyle
  2
Shaded with edges
 70
    26
 71
     2
 72
     2
 73
     1
 90
        2
 40
0.6
 41
30.0
 62
     5
 63
     7
421
 16777215
 74
     1
 91
       10
 64
     7
 65
   257
 75
     2
175
     1
 42
1.0
 92
        8
 66
   257
 43
1.0
 76
     1
 77
     6
 78
     2
 67
     7
 79
     3
170
     0
171
     0
290
     0
174
     0
 93
        5
 44
0.0
173
     0
291
     0
 45
0.0
  0
VISUALSTYLE
  5
8BD
102
{ACAD_REACTORS
330
267
102
}
330
267
100
AcDbVisualStyle
  2
Shades of Gray
 70
    23
 71
     2
 72
     2
 73
     3
 90
        0
 40
0.6
 41
30.0
 62
     5
 63
     7
421
 16777215
 74
     2
 91
        2
 64
     7
 65
     7
 75
     1
175
     1
 42
40.0
 92
        8
 66
     7
 43
1.0
 76
     1
 77
     6
 78
     2
 67
     7
 79
     3
170
     0
171
     0
290
     0
174
     0
 93
        1
 44
0.0
173
     0
291
     0
 45
0.0
  0
VISUALSTYLE
  5
8BE
102
{ACAD_REACTORS
330
267
102
}
330
267
100
AcDbVisualStyle
  2
Sketchy
 70
    24
 71
     1
 72
     2
 73
     2
 90
        0
 40
0.6
 41
30.0
 62
     5
 63
     7
421
 16777215
 74
     2
 91
        2
 64
     7
 65
     7
 75
     1
175
     1
 42
40.0
 92
       11
 66
     7
 43
1.0
 76
     1
 77
     6
 78
     2
 67
     7
 79
     6
170
     0
171
     0
290
     0
174
     0
 93
        1
 44
0.0
173
     0
291
     0
 45
0.0
  0
VISUALSTYLE
  5
274
102
{ACAD_REACTORS
330
267
102
}
330
267
100
AcDbVisualStyle
  2
Thicken
 70
    13
 71
     2
 72
     2
 73
     0
 90
        0
 40
-0.6
 41
-30.0
 62
     5
 63
     7
421
 16777215
 74
     1
 91
        4
 64
     7
 65
   257
 75
     1
175
     1
 42
1.0
 92
       12
 66
     7
 43
1.0
 76
     1
 77
     6
 78
     2
 67
     7
 79
     5
170
     0
171
     0
290
     0
174
     0
 93
        1
 44
0.0
173
     0
291
     1
 45
0.0
  0
VISUALSTYLE
  5
8B8
102
{ACAD_REACTORS
330
267
102
}
330
267
100
AcDbVisualStyle
  2
Wireframe
 70
     5
 71
     0
 72
     2
 73
     0
 90
        0
 40
0.6
 41
30.0
 62
     5
 63
     7
421
 16777215
 74
     1
 91
        4
 64
     7
 65
   257
 75
     1
175
     1
 42
1.0
 92
        0
 66
   257
 43
1.0
 76
     1
 77
     6
 78
     2
 67
     7
 79
     3
170
     0
171
     0
290
     0
174
     0
 93
        1
 44
0.0
173
     0
291
     0
 45
0.0
  0
VISUALSTYLE
  5
8BF
102
{ACAD_REACTORS
330
267
102
}
330
267
100
AcDbVisualStyle
  2
X-Ray
 70
    25
 71
     2
 72
     2
 73
     1
 90
        1
 40
0.5
 41
30.0
 62
     5
 63
     7
421
 16777215
 74
     1
 91
        0
 64
     7
 65
   257
 75
     1
175
     1
 42
1.0
 92
        8
 66
     7
 43
1.0
 76
     1
 77
     6
 78
     2
 67
     7
 79
     3
170
     0
171
     0
290
     0
174
     0
 93
       13
 44
0.0
173
     0
291
     0
 45
0.0
  0
DICTIONARYVAR
  5
331
102
{ACAD_REACTORS
330
330
102
}
330
330
100
DictionaryVariables
280
     0
  1
1:1
  0
DICTIONARYVAR
  5
8DA
102
{ACAD_REACTORS
330
330
102
}
330
330
100
DictionaryVariables
280
     0
  1
Standard
  0
DICTIONARYVAR
  5
335
102
{ACAD_REACTORS
330
330
102
}
330
330
100
DictionaryVariables
280
     0
  1
Standard
  0
DICTIONARYVAR
  5
C07
102
{ACAD_REACTORS
330
330
102
}
330
330
100
DictionaryVariables
280
     0
  1
ByLayer
  0
DICTIONARYVAR
  5
64A
102
{ACAD_REACTORS
330
330
102
}
330
330
100
DictionaryVariables
280
     0
  1
0
  0
DICTIONARYVAR
  5
4342
102
{ACAD_REACTORS
330
C08
102
}
330
C08
100
DictionaryVariables
280
     0
  1
0.261799
  0
DICTIONARYVAR
  5
4340
102
{ACAD_REACTORS
330
C08
102
}
330
C08
100
DictionaryVariables
280
     0
  1
0.400000
  0
DICTIONARYVAR
  5
4341
102
{ACAD_REACTORS
330
C08
102
}
330
C08
100
DictionaryVariables
280
     0
  1
0.250000
  0
DICTIONARYVAR
  5
4343
102
{ACAD_REACTORS
330
C08
102
}
330
C08
100
DictionaryVariables
280
     0
  1
1
  0
DICTIONARY
  5
BEEE
330
279
100
AcDbDictionary
280
     1
281
     1
  3
ACAD_ROUNDTRIP_2008_TABLESTYLE_CELLSTYLEMAP
360
BEEF
  0
CELLSTYLEMAP
  5
BEEF
102
{ACAD_REACTORS
330
BEEE
102
}
330
BEEE
100
AcDbCellStyleMap
 90
        3
300
CELLSTYLE
  1
TABLEFORMAT_BEGIN
 90
        5
170
     1
 91
        0
 92
    32768
 62
   257
 93
        1
300
CONTENTFORMAT
  1
CONTENTFORMAT_BEGIN
 90
        0
 91
        0
 92
        4
 93
        0
300

 40
0.0
140
1.0
 94
        5
 62
     0
340
17
144
6.0
309
CONTENTFORMAT_END
171
     1
301
MARGIN
  1
CELLMARGIN_BEGIN
 40
0.06
 40
0.06
 40
0.06
 40
0.06
 40
0.18
 40
0.18
309
CELLMARGIN_END
 94
        6
 95
        1
302
GRIDFORMAT
  1
GRIDFORMAT_BEGIN
 90
        0
 91
        1
 62
     0
 92
       -2
340
0
 93
        0
 40
0.045
309
GRIDFORMAT_END
 95
        2
302
GRIDFORMAT
  1
GRIDFORMAT_BEGIN
 90
        0
 91
        1
 62
     0
 92
       -2
340
0
 93
        0
 40
0.045
309
GRIDFORMAT_END
 95
        4
302
GRIDFORMAT
  1
GRIDFORMAT_BEGIN
 90
        0
 91
        1
 62
     0
 92
       -2
340
0
 93
        0
 40
0.045
309
GRIDFORMAT_END
 95
        8
302
GRIDFORMAT
  1
GRIDFORMAT_BEGIN
 90
        0
 91
        1
 62
     0
 92
       -2
340
0
 93
        0
 40
0.045
309
GRIDFORMAT_END
 95
       16
302
GRIDFORMAT
  1
GRIDFORMAT_BEGIN
 90
        0
 91
        1
 62
     0
 92
       -2
340
0
 93
        0
 40
0.045
309
GRIDFORMAT_END
 95
       32
302
GRIDFORMAT
  1
GRIDFORMAT_BEGIN
 90
        0
 91
        1
 62
     0
 92
       -2
340
0
 93
        0
 40
0.045
309
GRIDFORMAT_END
309
TABLEFORMAT_END
  1
CELLSTYLE_BEGIN
 90
        1
 91
        1
300
_TITLE
309
CELLSTYLE_END
300
CELLSTYLE
  1
TABLEFORMAT_BEGIN
 90
        5
170
     1
 91
        0
 92
        0
 62
   257
 93
        1
300
CONTENTFORMAT
  1
CONTENTFORMAT_BEGIN
 90
        0
 91
        0
 92
        4
 93
        0
300

 40
0.0
140
1.0
 94
        5
 62
     0
340
17
144
4.5
309
CONTENTFORMAT_END
171
     1
301
MARGIN
  1
CELLMARGIN_BEGIN
 40
0.06
 40
0.06
 40
0.06
 40
0.06
 40
0.18
 40
0.18
309
CELLMARGIN_END
 94
        6
 95
        1
302
GRIDFORMAT
  1
GRIDFORMAT_BEGIN
 90
        0
 91
        1
 62
     0
 92
       -2
340
0
 93
        0
 40
0.045
309
GRIDFORMAT_END
 95
        2
302
GRIDFORMAT
  1
GRIDFORMAT_BEGIN
 90
        0
 91
        1
 62
     0
 92
       -2
340
0
 93
        0
 40
0.045
309
GRIDFORMAT_END
 95
        4
302
GRIDFORMAT
  1
GRIDFORMAT_BEGIN
 90
        0
 91
        1
 62
     0
 92
       -2
340
0
 93
        0
 40
0.045
309
GRIDFORMAT_END
 95
        8
302
GRIDFORMAT
  1
GRIDFORMAT_BEGIN
 90
        0
 91
        1
 62
     0
 92
       -2
340
0
 93
        0
 40
0.045
309
GRIDFORMAT_END
 95
       16
302
GRIDFORMAT
  1
GRIDFORMAT_BEGIN
 90
        0
 91
        1
 62
     0
 92
       -2
340
0
 93
        0
 40
0.045
309
GRIDFORMAT_END
 95
       32
302
GRIDFORMAT
  1
GRIDFORMAT_BEGIN
 90
        0
 91
        1
 62
     0
 92
       -2
340
0
 93
        0
 40
0.045
309
GRIDFORMAT_END
309
TABLEFORMAT_END
  1
CELLSTYLE_BEGIN
 90
        2
 91
        1
300
_HEADER
309
CELLSTYLE_END
300
CELLSTYLE
  1
TABLEFORMAT_BEGIN
 90
        5
170
     1
 91
        0
 92
        0
 62
   257
 93
        1
300
CONTENTFORMAT
  1
CONTENTFORMAT_BEGIN
 90
        0
 91
        0
 92
        4
 93
        0
300

 40
0.0
140
1.0
 94
        2
 62
     0
340
17
144
4.5
309
CONTENTFORMAT_END
171
     1
301
MARGIN
  1
CELLMARGIN_BEGIN
 40
0.06
 40
0.06
 40
0.06
 40
0.06
 40
0.18
 40
0.18
309
CELLMARGIN_END
 94
        6
 95
        1
302
GRIDFORMAT
  1
GRIDFORMAT_BEGIN
 90
        0
 91
        1
 62
     0
 92
       -2
340
0
 93
        0
 40
0.045
309
GRIDFORMAT_END
 95
        2
302
GRIDFORMAT
  1
GRIDFORMAT_BEGIN
 90
        0
 91
        1
 62
     0
 92
       -2
340
0
 93
        0
 40
0.045
309
GRIDFORMAT_END
 95
        4
302
GRIDFORMAT
  1
GRIDFORMAT_BEGIN
 90
        0
 91
        1
 62
     0
 92
       -2
340
0
 93
        0
 40
0.045
309
GRIDFORMAT_END
 95
        8
302
GRIDFORMAT
  1
GRIDFORMAT_BEGIN
 90
        0
 91
        1
 62
     0
 92
       -2
340
0
 93
        0
 40
0.045
309
GRIDFORMAT_END
 95
       16
302
GRIDFORMAT
  1
GRIDFORMAT_BEGIN
 90
        0
 91
        1
 62
     0
 92
       -2
340
0
 93
        0
 40
0.045
309
GRIDFORMAT_END
 95
       32
302
GRIDFORMAT
  1
GRIDFORMAT_BEGIN
 90
        0
 91
        1
 62
     0
 92
       -2
340
0
 93
        0
 40
0.045
309
GRIDFORMAT_END
309
TABLEFORMAT_END
  1
CELLSTYLE_BEGIN
 90
        3
 91
        2
300
_DATA
309
CELLSTYLE_END
  0
ENDSEC
  0
EOF
