  0
SECTION
  2
HEADER
  9
$ACADVER
  1
AC1021
  9
$ACADMAINTVER
 70
    25
  9
$DWGCODEPAGE
  3
ANSI_932
  9
$LASTSAVEDBY
  1
tform
  9
$INSBASE
 10
0.0
 20
0.0
 30
0.0
  9
$EXTMIN
 10
0.0
 20
0.0
 30
-0.0000000000000003
  9
$EXTMAX
 10
2100.0
 20
2970.0
 30
34.99521132346015
  9
$LIMMIN
 10
0.0
 20
0.0
  9
$LIMMAX
 10
2100.0
 20
2970.0
  9
$ORTHOMODE
 70
     1
  9
$REGENMODE
 70
     1
  9
$FILLMODE
 70
     1
  9
$QTEXTMODE
 70
     0
  9
$MIRRTEXT
 70
     1
  9
$LTSCALE
 40
5.0
  9
$ATTMODE
 70
     1
  9
$TEXTSIZE
 40
533.0403732820173
  9
$TRACEWID
 40
1.0
  9
$TEXTSTYLE
  7
Standard
  9
$CLAYER
  8
Dim
  9
$CELTYPE
  6
ByLayer
  9
$CECOLOR
 62
   256
  9
$CELTSCALE
 40
1.0
  9
$DISPSILH
 70
     0
  9
$DIMSCALE
 40
1.0
  9
$DIMASZ
 40
9.999389648437498
  9
$DIMEXO
 40
25.0
  9
$DIMDLI
 40
0.9999999999999999
  9
$DIMRND
 40
0.0
  9
$DIMDLE
 40
0.0
  9
$DIMEXE
 40
0.0
  9
$DIMTP
 40
0.0
  9
$DIMTM
 40
0.0
  9
$DIMTXT
 40
24.4326171875
  9
$DIMCEN
 40
0.0
  9
$DIMTSZ
 40
0.0
  9
$DIMTOL
 70
     0
  9
$DIMLIM
 70
     0
  9
$DIMTIH
 70
     0
  9
$DIMTOH
 70
     0
  9
$DIMSE1
 70
     0
  9
$DIMSE2
 70
     0
  9
$DIMTAD
 70
     1
  9
$DIMZIN
 70
    11
  9
$DIMBLK
  1
DOT
  9
$DIMASO
 70
     1
  9
$DIMSHO
 70
     1
  9
$DIMPOST
  1
<>
  9
$DIMAPOST
  1
[]
  9
$DIMALT
 70
     0
  9
$DIMALTD
 70
     1
  9
$DIMALTF
 40
1.0
  9
$DIMLFAC
 40
1.0
  9
$DIMTOFL
 70
     1
  9
$DIMTVP
 40
0.0
  9
$DIMTIX
 70
     1
  9
$DIMSOXD
 70
     0
  9
$DIMSAH
 70
     0
  9
$DIMBLK1
  1

  9
$DIMBLK2
  1

  9
$DIMSTYLE
  2
tform線あり
  9
$DIMCLRD
 70
     0
  9
$DIMCLRE
 70
     0
  9
$DIMCLRT
 70
     0
  9
$DIMTFAC
 40
0.8
  9
$DIMGAP
 40
10.0
  9
$DIMJUST
 70
     0
  9
$DIMSD1
 70
     0
  9
$DIMSD2
 70
     0
  9
$DIMTOLJ
 70
     1
  9
$DIMTZIN
 70
    11
  9
$DIMALTZ
 70
    11
  9
$DIMALTTZ
 70
    11
  9
$DIMUPT
 70
     0
  9
$DIMDEC
 70
     1
  9
$DIMTDEC
 70
     1
  9
$DIMALTU
 70
     2
  9
$DIMALTTD
 70
     2
  9
$DIMTXSTY
  7
ＭＳ ゴシック
  9
$DIMAUNIT
 70
     0
  9
$DIMADEC
 70
     2
  9
$DIMALTRND
 40
0.0
  9
$DIMAZIN
 70
     0
  9
$DIMDSEP
 70
    46
  9
$DIMATFIT
 70
     0
  9
$DIMFRAC
 70
     2
  9
$DIMLDRBLK
  1
DOT
  9
$DIMLUNIT
 70
     2
  9
$DIMLWD
 70
    -2
  9
$DIMLWE
 70
    -2
  9
$DIMTMOVE
 70
     0
  9
$DIMFXL
 40
1.0
  9
$DIMFXLON
 70
     0
  9
$DIMJOGANG
 40
0.7853981633974483
  9
$DIMTFILL
 70
     0
  9
$DIMTFILLCLR
 70
     0
  9
$DIMARCSYM
 70
     0
  9
$DIMLTYPE
  6

  9
$DIMLTEX1
  6

  9
$DIMLTEX2
  6

  9
$LUNITS
 70
     2
  9
$LUPREC
 70
     0
  9
$SKETCHINC
 40
0.1
  9
$FILLETRAD
 40
0.0
  9
$AUNITS
 70
     0
  9
$AUPREC
 70
     0
  9
$MENU
  1
acad
  9
$ELEVATION
 40
0.0
  9
$PELEVATION
 40
0.0
  9
$THICKNESS
 40
0.0
  9
$LIMCHECK
 70
     0
  9
$CHAMFERA
 40
0.0
  9
$CHAMFERB
 40
0.0
  9
$CHAMFERC
 40
0.0
  9
$CHAMFERD
 40
0.0
  9
$SKPOLY
 70
     0
  9
$TDCREATE
 40
2447893.375
  9
$TDUCREATE
 40
0.0
  9
$TDUPDATE
 40
2460110.433577014
  9
$TDUUPDATE
 40
2460110.058577014
  9
$TDINDWG
 40
0.0080746759
  9
$TDUSRTIMER
 40
0.001086412
  9
$USRTIMER
 70
     1
  9
$ANGBASE
 50
0.0
  9
$ANGDIR
 70
     0
  9
$PDMODE
 70
     1
  9
$PDSIZE
 40
-2.0
  9
$PLINEWID
 40
0.0
  9
$SPLFRAME
 70
     0
  9
$SPLINETYPE
 70
     6
  9
$SPLINESEGS
 70
     8
  9
$HANDSEED
  5
15362
  9
$SURFTAB1
 70
     6
  9
$SURFTAB2
 70
     6
  9
$SURFTYPE
 70
     6
  9
$SURFU
 70
     6
  9
$SURFV
 70
     6
  9
$UCSBASE
  2

  9
$UCSNAME
  2

  9
$UCSORG
 10
0.0
 20
0.0
 30
0.0
  9
$UCSXDIR
 10
1.0
 20
0.0
 30
0.0
  9
$UCSYDIR
 10
0.0
 20
1.0
 30
0.0
  9
$UCSORTHOREF
  2

  9
$UCSORTHOVIEW
 70
     0
  9
$UCSORGTOP
 10
0.0
 20
0.0
 30
0.0
  9
$UCSORGBOTTOM
 10
0.0
 20
0.0
 30
0.0
  9
$UCSORGLEFT
 10
0.0
 20
0.0
 30
0.0
  9
$UCSORGRIGHT
 10
0.0
 20
0.0
 30
0.0
  9
$UCSORGFRONT
 10
0.0
 20
0.0
 30
0.0
  9
$UCSORGBACK
 10
0.0
 20
0.0
 30
0.0
  9
$PUCSBASE
  2

  9
$PUCSNAME
  2

  9
$PUCSORG
 10
0.0
 20
0.0
 30
0.0
  9
$PUCSXDIR
 10
1.0
 20
0.0
 30
0.0
  9
$PUCSYDIR
 10
0.0
 20
1.0
 30
0.0
  9
$PUCSORTHOREF
  2

  9
$PUCSORTHOVIEW
 70
     0
  9
$PUCSORGTOP
 10
0.0
 20
0.0
 30
0.0
  9
$PUCSORGBOTTOM
 10
0.0
 20
0.0
 30
0.0
  9
$PUCSORGLEFT
 10
0.0
 20
0.0
 30
0.0
  9
$PUCSORGRIGHT
 10
0.0
 20
0.0
 30
0.0
  9
$PUCSORGFRONT
 10
0.0
 20
0.0
 30
0.0
  9
$PUCSORGBACK
 10
0.0
 20
0.0
 30
0.0
  9
$USERI1
 70
     0
  9
$USERI2
 70
     0
  9
$USERI3
 70
     0
  9
$USERI4
 70
     0
  9
$USERI5
 70
     0
  9
$USERR1
 40
0.0
  9
$USERR2
 40
0.0
  9
$USERR3
 40
0.0
  9
$USERR4
 40
0.0
  9
$USERR5
 40
0.0
  9
$WORLDVIEW
 70
     1
  9
$SHADEDGE
 70
     3
  9
$SHADEDIF
 70
    70
  9
$TILEMODE
 70
     1
  9
$MAXACTVP
 70
    64
  9
$PINSBASE
 10
0.0
 20
0.0
 30
0.0
  9
$PLIMCHECK
 70
     0
  9
$PEXTMIN
 10
0.0
 20
0.0
 30
0.0
  9
$PEXTMAX
 10
0.0
 20
0.0
 30
0.0
  9
$PLIMMIN
 10
-7.5
 20
-20.0
  9
$PLIMMAX
 10
412.5
 20
277.0
  9
$UNITMODE
 70
     0
  9
$VISRETAIN
 70
     0
  9
$PLINEGEN
 70
     1
  9
$PSLTSCALE
 70
     0
  9
$TREEDEPTH
 70
  3020
  9
$CMLSTYLE
  2
Standard
  9
$CMLJUST
 70
     0
  9
$CMLSCALE
 40
1.0
  9
$PROXYGRAPHICS
 70
     0
  9
$MEASUREMENT
 70
     1
  9
$CELWEIGHT
370
    -1
  9
$ENDCAPS
280
     0
  9
$JOINSTYLE
280
     0
  9
$LWDISPLAY
290
     1
  9
$INSUNITS
 70
     4
  9
$HYPERLINKBASE
  1

  9
$STYLESHEET
  1

  9
$XEDIT
290
     1
  9
$CEPSNTYPE
380
     0
  9
$PSTYLEMODE
290
     1
  9
$FINGERPRINTGUID
  2

  9
$VERSIONGUID
  2

  9
$EXTNAMES
290
     1
  9
$PSVPSCALE
 40
0.0
  9
$OLESTARTUP
290
     0
  9
$SORTENTS
280
   127
  9
$INDEXCTL
280
     0
  9
$HIDETEXT
280
     1
  9
$XCLIPFRAME
290
     0
  9
$HALOGAP
280
     0
  9
$OBSCOLOR
 70
   257
  9
$OBSLTYPE
280
     0
  9
$INTERSECTIONDISPLAY
280
     0
  9
$INTERSECTIONCOLOR
 70
   257
  9
$DIMASSOC
280
     2
  9
$PROJECTNAME
  1

  9
$CAMERADISPLAY
290
     0
  9
$LENSLENGTH
 40
50.0
  9
$CAMERAHEIGHT
 40
0.0
  9
$STEPSPERSEC
 40
2.0
  9
$STEPSIZE
 40
6.0
  9
$3DDWFPREC
 40
2.0
  9
$PSOLWIDTH
 40
0.25
  9
$PSOLHEIGHT
 40
4.0
  9
$LOFTANG1
 40
1.570796326794897
  9
$LOFTANG2
 40
1.570796326794897
  9
$LOFTMAG1
 40
0.0
  9
$LOFTMAG2
 40
0.0
  9
$LOFTPARAM
 70
     7
  9
$LOFTNORMALS
280
     1
  9
$LATITUDE
 40
37.795
  9
$LONGITUDE
 40
-122.394
  9
$NORTHDIRECTION
 40
0.0
  9
$TIMEZONE
 70
 -8000
  9
$LIGHTGLYPHDISPLAY
280
     1
  9
$TILEMODELIGHTSYNCH
280
     1
  9
$SOLIDHIST
280
     1
  9
$SHOWHIST
280
     1
  9
$DWFFRAME
280
     2
  9
$DGNFRAME
280
     2
  9
$REALWORLDSCALE
290
     1
  9
$INTERFERECOLOR
 62
   256
  9
$CSHADOW
280
     0
  9
$SHADOWPLANELOCATION
 40
0.0
  0
ENDSEC
  0
SECTION
  2
CLASSES
  0
CLASS
  1
LWPOLYLINE
  2
AcDbPolyline
  3
ObjectDBX Classes
 90
        0
 91
        1
280
     0
281
     1
  0
CLASS
  1
IMAGE
  2
AcDbRasterImage
  3
ISM
 90
      127
 91
        4
280
     0
281
     1
  0
CLASS
  1
OLE2FRAME
  2
AcDbOle2Frame
  3
ObjectDBX Classes
 90
        0
 91
        1
280
     0
281
     1
  0
CLASS
  1
HATCH
  2
AcDbHatch
  3
ObjectDBX Classes
 90
        0
 91
        1
280
     0
281
     1
  0
CLASS
  1
DICTIONARYVAR
  2
AcDbDictionaryVar
  3
ObjectDBX Classes
 90
        0
 91
        3
280
     0
281
     0
  0
CLASS
  1
RASTERVARIABLES
  2
AcDbRasterVariables
  3
ISM
 90
        0
 91
        3
280
     0
281
     0
  0
CLASS
  1
IMAGEDEF
  2
AcDbRasterImageDef
  3
ISM
 90
        0
 91
        3
280
     0
281
     0
  0
CLASS
  1
IMAGEDEF_REACTOR
  2
AcDbRasterImageDefReactor
  3
ISM
 90
        1
 91
        3
280
     0
281
     0
  0
CLASS
  1
IDBUFFER
  2
AcDbIdBuffer
  3
ObjectDBX Classes
 90
        0
 91
        3
280
     0
281
     0
  0
CLASS
  1
SPATIAL_FILTER
  2
AcDbSpatialFilter
  3
ObjectDBX Classes
 90
        0
 91
        3
280
     0
281
     0
  0
CLASS
  1
XRECORD
  2
AcDbXrecord
  3
ObjectDBX Classes
 90
        0
 91
        1
280
     0
281
     0
  0
CLASS
  1
SORTENTSTABLE
  2
AcDbSortentsTable
  3
ObjectDBX Classes
 90
        0
 91
        3
280
     0
281
     0
  0
CLASS
  1
LAYER_INDEX
  2
AcDbLayerIndex
  3
ObjectDBX Classes
 90
        0
 91
        3
280
     0
281
     0
  0
CLASS
  1
SPATIAL_INDEX
  2
AcDbSpatialIndex
  3
AutoCAD 2000
 90
        0
 91
        3
280
     0
281
     0
  0
CLASS
  1
OBJECT_PTR
  2
CAseDLPNTableRecord
  3
ASE-LPNTableRecord
 90
        1
 91
        3
280
     0
281
     0
  0
CLASS
  1
LAYOUT
  2
AcDbLayout
  3
ObjectDBX Classes
 90
        0
 91
        1
280
     0
281
     0
  0
CLASS
  1
PLOTSETTINGS
  2
AcDbPlotSettings
  3
ObjectDBX Classes
 90
        0
 91
        3
280
     0
281
     0
  0
CLASS
  1
ACDBDICTIONARYWDFLT
  2
AcDbDictionaryWithDefault
  3
ObjectDBX Classes
 90
        0
 91
        3
280
     0
281
     0
  0
CLASS
  1
ACDBPLACEHOLDER
  2
AcDbPlaceHolder
  3
ObjectDBX Classes
 90
        0
 91
        1
280
     0
281
     0
  0
CLASS
  1
SCALE
  2
AcDbScale
  3
ObjectDBX Classes
 90
     1153
 91
        3
280
     0
281
     0
  0
CLASS
  1
MATERIAL
  2
AcDbMaterial
  3
ObjectDBX Classes
 90
     1153
 91
        3
280
     0
281
     0
  0
CLASS
  1
VISUALSTYLE
  2
AcDbVisualStyle
  3
ObjectDBX Classes
 90
     4095
 91
        3
280
     0
281
     0
  0
CLASS
  1
TABLESTYLE
  2
AcDbTableStyle
  3
ObjectDBX Classes
 90
     4095
 91
        3
280
     0
281
     0
  0
CLASS
  1
DIMASSOC
  2
AcDbDimAssoc
  3
"AcDbDimAssoc|Product Desc:     AcDim ARX App For Dimension|Company:          Autodesk, Inc.|WEB Address:      www.autodesk.com"
 90
        0
 91
        3
280
     0
281
     0
  0
CLASS
  1
CELLSTYLEMAP
  2
AcDbCellStyleMap
  3
ObjectDBX Classes
 90
     1152
 91
        3
280
     0
281
     0
  0
CLASS
  1
SUN
  2
AcDbSun
  3
SCENEOE
 90
     1153
 91
        3
280
     0
281
     0
  0
CLASS
  1
MLEADERSTYLE
  2
AcDbMLeaderStyle
  3
ACDB_MLEADERSTYLE_CLASS
 90
     4095
 91
        3
280
     0
281
     0
  0
CLASS
  1
FIELD
  2
AcDbField
  3
ObjectDBX Classes
 90
     1152
 91
        3
280
     0
281
     0
  0
CLASS
  1
FIELDLIST
  2
AcDbFieldList
  3
ObjectDBX Classes
 90
     1152
 91
        3
280
     0
281
     0
  0
CLASS
  1
ACDB_ALDIMOBJECTCONTEXTDATA_CLASS
  2
AcDbAlignedDimensionObjectContextData
  3
ObjectDBX Classes
 90
     1153
 91
        3
280
     0
281
     0
  0
ENDSEC
  0
SECTION
  2
TABLES
  0
TABLE
  2
VPORT
  5
7
330
0
100
AcDbSymbolTable
 70
     1
  0
VPORT
  5
15
330
7
100
AcDbSymbolTableRecord
100
AcDbViewportTableRecord
  2
*ACTIVE
 70
     0
 10
0.0
 20
0.0
 11
1.0
 21
1.0
 12
672.952561754043
 22
1782.612370234503
 13
0.0
 23
0.0
 14
1.0
 24
1.0
 15
0.0
 25
0.0
 16
0.0
 26
0.0
 36
1.0
 17
377.047438245957
 27
-297.612370234503
 37
0.0
 40
3029.4
 41
2.120713305898491
 42
50.0
 43
0.0
 44
0.0
 50
0.0
 51
0.0
 71
    16
 72
  2000
 73
     1
 74
     1
 75
     0
 76
     0
 77
     0
 78
     0
281
     0
 65
     1
110
0.0
120
0.0
130
0.0
111
1.0
121
0.0
131
0.0
112
0.0
122
1.0
132
0.0
 79
     0
146
0.0
348
26C
 60
     3
 61
     5
292
     1
282
     1
141
0.0
142
0.0
 63
   256
361
8C2
  0
ENDTAB
  0
TABLE
  2
LTYPE
  5
4
330
0
100
AcDbSymbolTable
 70
     3
  0
LTYPE
  5
11
330
4
100
AcDbSymbolTableRecord
100
AcDbLinetypeTableRecord
  2
ByBlock
 70
     0
  3

 72
    65
 73
     0
 40
0.0
  0
LTYPE
  5
12
330
4
100
AcDbSymbolTableRecord
100
AcDbLinetypeTableRecord
  2
ByLayer
 70
     0
  3

 72
    65
 73
     0
 40
0.0
  0
LTYPE
  5
13
330
4
100
AcDbSymbolTableRecord
100
AcDbLinetypeTableRecord
  2
Continuous
 70
     0
  3
Solid line
 72
    65
 73
     0
 40
0.0
  0
LTYPE
  5
8D4
330
4
100
AcDbSymbolTableRecord
100
AcDbLinetypeTableRecord
  2
HIDDEN
 70
     0
  3
Hidden _ _ _ _ _ _ _ _ _ _ _ _ _ _ _ _ _ _ _ _ 
 72
    65
 73
     2
 40
9.524999999999999
 49
6.35
 74
     0
 49
-3.175
 74
     0
  0
LTYPE
  5
BF2
330
4
100
AcDbSymbolTableRecord
100
AcDbLinetypeTableRecord
  2
BORDER
 70
     0
  3
Border __  __  . __  __  . __  __  . __  __  . 
 72
    65
 73
     6
 40
44.45
 49
12.7
 74
     0
 49
-6.35
 74
     0
 49
12.7
 74
     0
 49
-6.35
 74
     0
 49
0.0
 74
     0
 49
-6.35
 74
     0
  0
ENDTAB
  0
TABLE
  2
LAYER
  5
2
102
{ACAD_XDICTIONARY
360
2E1
102
}
330
0
100
AcDbSymbolTable
 70
     9
  0
LAYER
  5
14
330
2
100
AcDbSymbolTableRecord
100
AcDbLayerTableRecord
  2
0
 70
     0
 62
     7
  6
Continuous
370
    -3
390
1D
347
266
  0
LAYER
  5
4A
330
2
100
AcDbSymbolTableRecord
100
AcDbLayerTableRecord
  2
Defpoints
 70
     0
 62
     7
  6
Continuous
290
     0
370
    20
390
1D
347
266
  0
LAYER
  5
4B
330
2
100
AcDbSymbolTableRecord
100
AcDbLayerTableRecord
  2
template
 70
     0
 62
     7
  6
Continuous
370
    20
390
1D
347
266
  0
LAYER
  5
4D
330
2
100
AcDbSymbolTableRecord
100
AcDbLayerTableRecord
  2
MODEL
 70
     0
 62
     7
  6
Continuous
370
    20
390
1D
347
266
  0
LAYER
  5
382
330
2
100
AcDbSymbolTableRecord
100
AcDbLayerTableRecord
  2
レイヤー 1
 70
     0
 62
     7
  6
Continuous
370
    -3
390
1D
347
266
  0
LAYER
  5
5C4
330
2
100
AcDbSymbolTableRecord
100
AcDbLayerTableRecord
  2
HIDDEN
 70
     0
 62
   253
  6
HIDDEN
370
    20
390
1D
347
266
1001
AcAecLayerStandard
1000

1000

  0
LAYER
  5
5EB
330
2
100
AcDbSymbolTableRecord
100
AcDbLayerTableRecord
  2
Dim
 70
     0
 62
     3
  6
Continuous
370
    13
390
1D
347
266
1001
AcAecLayerStandard
1000

1000

  0
LAYER
  5
BF1
330
2
100
AcDbSymbolTableRecord
100
AcDbLayerTableRecord
  2
PRINT BORDER
 70
     0
 62
     4
  6
BORDER
290
     0
370
    20
390
1D
347
266
1001
AcAecLayerStandard
1000

1000

  0
LAYER
  5
1BD2
330
2
100
AcDbSymbolTableRecord
100
AcDbLayerTableRecord
  2
retino
 70
     0
 62
   253
  6
Continuous
370
     0
390
1D
347
266
  0
ENDTAB
  0
TABLE
  2
STYLE
  5
3
330
0
100
AcDbSymbolTable
 70
     2
  0
STYLE
  5
17
330
3
100
AcDbSymbolTableRecord
100
AcDbTextStyleTableRecord
  2
Standard
 70
     0
 40
0.0
 41
1.0
 50
0.0
 71
     0
 42
533.0403732820173
  3
txt
  4
BIGFONT.SHX
  0
STYLE
  5
39
330
3
100
AcDbSymbolTableRecord
100
AcDbTextStyleTableRecord
  2
ＭＳ ゴシック
 70
     0
 40
0.0
 41
1.0
 50
0.0
 71
     0
 42
533.0403732820173
  3
msgothic.ttc
  4
ＭＳ ゴシック
1001
ACAD
1000
ＭＳ ゴシック
1071
        0
  0
ENDTAB
  0
TABLE
  2
VIEW
  5
5
330
0
100
AcDbSymbolTable
 70
     0
  0
ENDTAB
  0
TABLE
  2
UCS
  5
6
330
0
100
AcDbSymbolTable
 70
     0
  0
ENDTAB
  0
TABLE
  2
APPID
  5
8
330
0
100
AcDbSymbolTable
 70
    17
  0
APPID
  5
16
330
8
100
AcDbSymbolTableRecord
100
AcDbRegAppTableRecord
  2
ACAD
 70
     0
  0
APPID
  5
5C5
330
8
100
AcDbSymbolTableRecord
100
AcDbRegAppTableRecord
  2
AcAecLayerStandard
 70
     0
  0
APPID
  5
913
330
8
100
AcDbSymbolTableRecord
100
AcDbRegAppTableRecord
  2
ACAD_DSTYLE_DIMBREAK
 70
     0
  0
APPID
  5
914
330
8
100
AcDbSymbolTableRecord
100
AcDbRegAppTableRecord
  2
ACAD_DSTYLE_DIMJAG
 70
     0
  0
APPID
  5
915
330
8
100
AcDbSymbolTableRecord
100
AcDbRegAppTableRecord
  2
ACAD_DSTYLE_DIMTALN
 70
     0
  0
APPID
  5
E4F
330
8
100
AcDbSymbolTableRecord
100
AcDbRegAppTableRecord
  2
ACAD_MLEADERVER
 70
     0
  0
APPID
  5
E79
330
8
100
AcDbSymbolTableRecord
100
AcDbRegAppTableRecord
  2
ACAD_PSEXT
 70
     0
  0
APPID
  5
E7A
330
8
100
AcDbSymbolTableRecord
100
AcDbRegAppTableRecord
  2
ACAD_NAV_VCDISPLAY
 70
     0
  0
APPID
  5
166E
330
8
100
AcDbSymbolTableRecord
100
AcDbRegAppTableRecord
  2
AcadAnnotative
 70
     0
  0
APPID
  5
166F
330
8
100
AcDbSymbolTableRecord
100
AcDbRegAppTableRecord
  2
GradientColor1ACI
 70
     0
  0
APPID
  5
1670
330
8
100
AcDbSymbolTableRecord
100
AcDbRegAppTableRecord
  2
GradientColor2ACI
 70
     0
  0
APPID
  5
20FE
330
8
100
AcDbSymbolTableRecord
100
AcDbRegAppTableRecord
  2
AcLayerTools
 70
     0
  0
APPID
  5
27AB
330
8
100
AcDbSymbolTableRecord
100
AcDbRegAppTableRecord
  2
ACAD_DSTYLE_DIMRADIAL_EXTENSION
 70
     0
  0
APPID
  5
4377
330
8
100
AcDbSymbolTableRecord
100
AcDbRegAppTableRecord
  2
RAK
 70
     0
  0
APPID
  5
500B
330
8
100
AcDbSymbolTableRecord
100
AcDbRegAppTableRecord
  2
AcadAnnoAV
 70
     0
  0
APPID
  5
68CA
330
8
100
AcDbSymbolTableRecord
100
AcDbRegAppTableRecord
  2
PLOTTRANSPARENCY
 70
     0
  0
APPID
  5
BCFB
330
8
100
AcDbSymbolTableRecord
100
AcDbRegAppTableRecord
  2
HATCHBACKGROUNDCOLOR
 70
     0
  0
ENDTAB
  0
TABLE
  2
DIMSTYLE
  5
9
330
0
100
AcDbSymbolTable
 70
     6
100
AcDbDimStyleTable
  0
DIMSTYLE
105
56
102
{ACAD_REACTORS
330
15248
330
15257
330
15266
330
15277
330
15288
330
15297
330
152A6
330
152B5
330
152C7
330
15347
102
}
330
9
100
AcDbSymbolTableRecord
100
AcDbDimStyleTableRecord
  2
tform線あり
 70
     0
  3
<>
  4
[]
 41
9.999389648437498
 42
25.0
 43
0.9999999999999999
 44
0.0
 73
     0
 74
     0
 77
     1
 78
    11
140
24.4326171875
141
0.0
143
1.0
146
0.8
147
10.0
171
     1
172
     1
174
     1
178
     0
179
     2
271
     1
272
     1
276
     2
284
    11
285
    11
286
    11
289
     0
340
39
341
4E
342
4E
  0
DIMSTYLE
105
152F6
330
9
100
AcDbSymbolTableRecord
100
AcDbDimStyleTableRecord
  2
JIS
 70
     0
  3
<>
  4
[]
 41
9.0
 42
0.0
 43
6.99999999999994
 44
19.9999999999962
 73
     0
 74
     0
 77
     1
 78
    11
140
24.4326171875
141
0.0
143
1.0
147
10.0
171
     1
174
     1
178
     0
179
     2
271
     1
272
     1
276
     2
284
    11
285
    11
286
    11
289
     0
340
39
341
4E
342
4E
  0
DIMSTYLE
105
15300
330
9
100
AcDbSymbolTableRecord
100
AcDbDimStyleTableRecord
  2
AM_DIN
 70
     0
  4
"
 41
3.5
 42
1.0
 43
10.0
 44
1.0
 47
0.1
 48
0.1
 50
89.99999999999996
 73
     0
 74
     0
 77
     1
 78
     8
 79
     2
140
3.5
141
0.0
143
0.0393701
146
0.71
147
1.5
172
     1
176
   256
177
   256
271
     2
178
     2
271
     2
272
     3
274
     4
283
     0
284
     8
340
17
371
    -1
372
    -1
345
11
346
11
347
11
1001
ACAD_DSTYLE_DIMJAG
1070
   388
1040
1.5
1001
ACAD_DSTYLE_DIMBREAK
1070
   391
1040
3.75
  0
DIMSTYLE
105
15304
330
9
100
AcDbSymbolTableRecord
100
AcDbDimStyleTableRecord
  2
ISO-25
 70
     0
 41
2.5
 42
0.625
 43
3.75
 44
1.25
 73
     0
 74
     0
 77
     1
 78
     8
140
2.5
141
2.5
143
0.03937007874016
147
0.625
171
     3
172
     1
178
     0
271
     2
272
     2
274
     3
283
     0
284
     8
340
17
  0
DIMSTYLE
105
15305
330
9
100
AcDbSymbolTableRecord
100
AcDbDimStyleTableRecord
  2
TFORM
 70
     0
 41
9.0
 42
5.0
 43
3.75
 44
0.0
 73
     0
 74
     0
 77
     1
 78
     8
140
12.0
141
0.0
143
0.03937007874016
147
6.0
171
     3
172
     1
178
     0
271
     0
272
     0
274
     3
278
    44
283
     0
284
     8
340
17
341
15306
342
4E
1001
ACAD_DSTYLE_DIMJAG
1070
   388
1040
1.5
1001
ACAD_DSTYLE_DIMTALN
1070
   392
1070
     0
  0
DIMSTYLE
105
1530A
330
9
100
AcDbSymbolTableRecord
100
AcDbDimStyleTableRecord
  2
scala 1a 1
 70
     0
 41
7.0
 42
0.625
 43
0.0
 44
1.25
 73
     0
 74
     0
 77
     1
 78
     8
140
7.0
141
2.5
143
0.03937007874016
147
3.0
171
     3
172
     1
176
   256
177
   256
178
     0
271
     0
272
     0
274
     3
278
    44
283
     0
284
     8
340
17
371
    -1
372
     0
345
12
346
12
347
12
1001
ACAD_DSTYLE_DIMJAG
1070
   388
1040
1.5
1001
ACAD_DSTYLE_DIMTALN
1070
   392
1070
     0
  0
ENDTAB
  0
TABLE
  2
BLOCK_RECORD
  5
1
330
0
100
AcDbSymbolTable
 70
    21
  0
BLOCK_RECORD
  5
A
102
{ACAD_XDICTIONARY
360
560A
102
}
330
1
100
AcDbSymbolTableRecord
100
AcDbBlockTableRecord
  2
*MODEL_SPACE
340
20
 70
     0
280
     1
281
     0
  0
BLOCK_RECORD
  5
B
330
1
100
AcDbSymbolTableRecord
100
AcDbBlockTableRecord
  2
*PAPER_SPACE
340
21
 70
     0
280
     1
281
     0
  0
BLOCK_RECORD
  5
4E
330
1
100
AcDbSymbolTableRecord
100
AcDbBlockTableRecord
  2
_DOT
340
0
102
{BLKREFS
331
15251
331
15252
331
15260
331
15261
331
1526F
331
15270
331
15280
331
15281
331
15291
331
15292
331
152A0
331
152A1
331
152AF
331
152B0
331
152C0
331
152C1
331
152D0
331
152D1
331
15350
331
15351
102
}
 70
     0
280
     1
281
     0
  0
BLOCK_RECORD
  5
3A5
330
1
100
AcDbSymbolTableRecord
100
AcDbBlockTableRecord
  2
名称未設定-1
340
0
102
{BLKREFS
331
3D0
102
}
 70
     1
280
     1
281
     0
  0
BLOCK_RECORD
  5
3A8
330
1
100
AcDbSymbolTableRecord
100
AcDbBlockTableRecord
  2
block 2
340
0
102
{BLKREFS
331
3A7
102
}
 70
     0
280
     1
281
     0
  0
BLOCK_RECORD
  5
3AB
330
1
100
AcDbSymbolTableRecord
100
AcDbBlockTableRecord
  2
block 3
340
0
102
{BLKREFS
331
3AA
102
}
 70
     0
280
     1
281
     0
  0
BLOCK_RECORD
  5
3AE
330
1
100
AcDbSymbolTableRecord
100
AcDbBlockTableRecord
  2
block 4
340
0
102
{BLKREFS
331
3AD
102
}
 70
     0
280
     1
281
     0
  0
BLOCK_RECORD
  5
3BD
330
1
100
AcDbSymbolTableRecord
100
AcDbBlockTableRecord
  2
block 5
340
0
102
{BLKREFS
331
3BC
102
}
 70
     0
280
     1
281
     0
  0
BLOCK_RECORD
  5
11F0
330
1
100
AcDbSymbolTableRecord
100
AcDbBlockTableRecord
  2
BLOCK_2
340
0
102
{BLKREFS
331
1273
331
127B
331
127C
102
}
 70
     0
280
     1
281
     0
  0
BLOCK_RECORD
  5
38B6
330
1
100
AcDbSymbolTableRecord
100
AcDbBlockTableRecord
  2
mobile_latù
340
0
310
2800000020000000200000000100080000000000000400000000000000000000000000000000000000000000000080000080000000808000800000008000800080800000C0C0C000C0DCC000F0CAA6000020400000206000002080000020A0000020C0000020E00000400000004020000040400000406000004080000040A0
310
000040C0000040E00000600000006020000060400000606000006080000060A0000060C0000060E00000800000008020000080400000806000008080000080A0000080C0000080E00000A0000000A0200000A0400000A0600000A0800000A0A00000A0C00000A0E00000C0000000C0200000C0400000C0600000C0800000C0
310
A00000C0C00000C0E00000E0000000E0200000E0400000E0600000E0800000E0A00000E0C00000E0E00040000000400020004000400040006000400080004000A0004000C0004000E00040200000402020004020400040206000402080004020A0004020C0004020E000404000004040200040404000404060004040800040
310
40A0004040C0004040E00040600000406020004060400040606000406080004060A0004060C0004060E00040800000408020004080400040806000408080004080A0004080C0004080E00040A0000040A0200040A0400040A0600040A0800040A0A00040A0C00040A0E00040C0000040C0200040C0400040C0600040C08000
310
40C0A00040C0C00040C0E00040E0000040E0200040E0400040E0600040E0800040E0A00040E0C00040E0E00080000000800020008000400080006000800080008000A0008000C0008000E00080200000802020008020400080206000802080008020A0008020C0008020E00080400000804020008040400080406000804080
310
008040A0008040C0008040E00080600000806020008060400080606000806080008060A0008060C0008060E00080800000808020008080400080806000808080008080A0008080C0008080E00080A0000080A0200080A0400080A0600080A0800080A0A00080A0C00080A0E00080C0000080C0200080C0400080C0600080C0
310
800080C0A00080C0C00080C0E00080E0000080E0200080E0400080E0600080E0800080E0A00080E0C00080E0E000C0000000C0002000C0004000C0006000C0008000C000A000C000C000C000E000C0200000C0202000C0204000C0206000C0208000C020A000C020C000C020E000C0400000C0402000C0404000C0406000C0
310
408000C040A000C040C000C040E000C0600000C0602000C0604000C0606000C0608000C060A000C060C000C060E000C0800000C0802000C0804000C0806000C0808000C080A000C080C000C080E000C0A00000C0A02000C0A04000C0A06000C0A08000C0A0A000C0A0C000C0A0E000C0C00000C0C02000C0C04000C0C06000
310
C0C08000C0C0A000F0FBFF00A4A0A000808080000000FF0000FF000000FFFF00FF000000FF00FF00FFFF0000FFFFFF0049494949494949494949494949494949494949494949494949494949494949494949494949494949494949494949494949494949494949494949494949494949494949494949494949494949494949
310
49494949494949494949494949494949494949494949494949494949494949494949494949494949494949494949494949494949494949494949494949494949494949494949494949494949494949494949FAFAFAFAFAFAFAFAFAFAFAFAFAFAFAFAFAFAFAFAFAFAFAFAFAFAFAFAFAFA4949FAFA4949494949494949494949
310
494949494949494949494949494949FAFA4949FAFA4949494949494949494949494949494949494949494949494949FAFA4949FAFA4949494949494949494949494949494949494949494949494949FAFA4949FAFA4949494949494949494949494949494949494949494949494949FAFA4949FAFA49494949494949494949
310
49494949494949494949494949494949FAFA4949FAFA4949494949494949494949494949494949494949494949494949FAFA4949FAFA4949494949494949494949494949494949494949494949494949FAFA4949FAFA4949494949494949494949494949494949494949494949494949FAFA4949FAFA494949494949494949
310
4949494949494949494949494949494949FAFA4949FAFA4949494949494949494949494949494949494949494949494949FAFA4949FAFA4949494949494949494949494949494949494949494949494949FAFA4949FAFA4949494949494949494949494949494949494949494949494949FAFA4949FAFA4949494949494949
310
494949494949494949494949494949494949FAFA4949FAFA4949494949494949494949494949494949494949494949494949FAFA4949FAFA4949494949494949494949494949494949494949494949494949FAFA4949FAFA4949494949494949494949494949494949494949494949494949FAFA4949FAFA49494949494949
310
49494949494949494949494949494949494949FAFA4949FAFAFAFAFAFAFAFAFAFAFAFAFAFAFAFAFAFAFAFAFAFAFAFAFAFAFAFAFAFA4949FAFAFAFAFAFAFAFAFAFAFAFAFAFAFAFAFAFAFAFAFAFAFAFAFAFAFAFAFAFA4949FAFA4949494949494949494949494949494949494949494949494949FAFA4949FAFAFAFAFAFAFAFA
310
FAFAFAFAFAFAFAFAFAFAFAFAFAFAFAFAFAFAFAFAFAFA494949494949494949494949494949494949494949494949494949494949494949494949494949494949494949494949494949494949494949494949494949494949494949494949494949494949494949494949494949494949494949494949494949494949494949
310
4949494949494949494949494949494949494949494949494949494949494949494949494949494949494949494949494949494949494949
102
{BLKREFS
331
3B99
331
467E
331
527B
102
}
 70
     4
280
     1
281
     0
  0
BLOCK_RECORD
  5
5039
330
1
100
AcDbSymbolTableRecord
100
AcDbBlockTableRecord
  2
.TD_SECTION_1
340
0
102
{BLKREFS
331
527C
331
527E
331
5280
331
5282
331
5284
331
5286
102
}
 70
     0
280
     1
281
     0
  0
BLOCK_RECORD
  5
503D
330
1
100
AcDbSymbolTableRecord
100
AcDbBlockTableRecord
  2
.TD_SECTION_2
340
0
102
{BLKREFS
331
527D
331
527F
331
5281
331
5283
331
5285
331
5287
102
}
 70
     0
280
     1
281
     0
  0
BLOCK_RECORD
  5
1524B
330
1
100
AcDbSymbolTableRecord
100
AcDbBlockTableRecord
  2
*D10
340
0
 70
     0
280
     1
281
     0
  0
BLOCK_RECORD
  5
1525A
330
1
100
AcDbSymbolTableRecord
100
AcDbBlockTableRecord
  2
*D11
340
0
 70
     0
280
     1
281
     0
  0
BLOCK_RECORD
  5
15269
330
1
100
AcDbSymbolTableRecord
100
AcDbBlockTableRecord
  2
*D12
340
0
 70
     0
280
     1
281
     0
  0
BLOCK_RECORD
  5
1527A
330
1
100
AcDbSymbolTableRecord
100
AcDbBlockTableRecord
  2
*D13
340
0
 70
     0
280
     1
281
     0
  0
BLOCK_RECORD
  5
1528B
330
1
100
AcDbSymbolTableRecord
100
AcDbBlockTableRecord
  2
*D14
340
0
 70
     0
280
     1
281
     0
  0
BLOCK_RECORD
  5
1529A
330
1
100
AcDbSymbolTableRecord
100
AcDbBlockTableRecord
  2
*D15
340
0
 70
     0
280
     1
281
     0
  0
BLOCK_RECORD
  5
152A9
330
1
100
AcDbSymbolTableRecord
100
AcDbBlockTableRecord
  2
*D16
340
0
 70
     0
280
     1
281
     0
  0
BLOCK_RECORD
  5
152B8
330
1
100
AcDbSymbolTableRecord
100
AcDbBlockTableRecord
  2
*D17
340
0
 70
     0
280
     1
281
     0
  0
BLOCK_RECORD
  5
152CA
330
1
100
AcDbSymbolTableRecord
100
AcDbBlockTableRecord
  2
*D18
340
0
 70
     0
280
     1
281
     0
  0
BLOCK_RECORD
  5
15306
330
1
100
AcDbSymbolTableRecord
100
AcDbBlockTableRecord
  2
_None
340
0
 70
     0
280
     1
281
     0
  0
BLOCK_RECORD
  5
1534A
330
1
100
AcDbSymbolTableRecord
100
AcDbBlockTableRecord
  2
*D20
340
0
 70
     0
280
     1
281
     0
  0
ENDTAB
  0
ENDSEC
  0
SECTION
  2
BLOCKS
  0
BLOCK
  5
D
330
A
100
AcDbEntity
  8
0
390
1D
100
AcDbBlockBegin
  2
*MODEL_SPACE
 70
     0
 10
0.0
 20
0.0
 30
0.0
  3
*MODEL_SPACE
  1
*MODEL_SPACE
  0
ENDBLK
  5
E
330
A
100
AcDbEntity
  8
0
390
1D
100
AcDbBlockEnd
  0
BLOCK
  5
F
330
B
100
AcDbEntity
 67
     1
  8
0
390
1D
100
AcDbBlockBegin
  2
*PAPER_SPACE
 70
     0
 10
0.0
 20
0.0
 30
0.0
  3
*PAPER_SPACE
  1
*PAPER_SPACE
  0
ENDBLK
  5
10
330
B
100
AcDbEntity
 67
     1
  8
0
390
1D
100
AcDbBlockEnd
  0
BLOCK
  5
2C14
330
4E
100
AcDbEntity
  8
0
390
1D
100
AcDbBlockBegin
  2
_DOT
 70
     0
 10
0.0
 20
0.0
 30
0.0
  3
_DOT
  1
_DOT
  0
POLYLINE
  5
2C16
330
4E
100
AcDbEntity
  8
0
  6
ByBlock
 62
     0
370
    -2
390
1D
100
AcDb2dPolyline
 66
     1
 10
0.0
 20
0.0
 30
0.0
 70
     1
 40
0.5
 41
0.5
  0
VERTEX
  5
2C17
330
2C16
100
AcDbEntity
  8
0
  6
ByBlock
 62
     0
370
    -2
390
1D
100
AcDbVertex
100
AcDb2dVertex
 10
-0.25
 20
0.0
 30
0.0
 42
1.0
  0
VERTEX
  5
2C18
330
2C16
100
AcDbEntity
  8
0
  6
ByBlock
 62
     0
370
    -2
390
1D
100
AcDbVertex
100
AcDb2dVertex
 10
0.25
 20
0.0
 30
0.0
 42
1.0
  0
SEQEND
  5
2C19
330
2C16
100
AcDbEntity
  8
0
390
1D
  0
LINE
  5
2C1A
330
4E
100
AcDbEntity
  8
0
  6
ByBlock
 62
     0
370
    -2
390
1D
100
AcDbLine
 10
-0.5
 20
0.0
 30
0.0
 11
-1.0
 21
0.0
 31
0.0
  0
ENDBLK
  5
2C1B
330
4E
100
AcDbEntity
  8
0
390
1D
100
AcDbBlockEnd
  0
BLOCK
  5
3A6
330
3A5
100
AcDbEntity
  8
0
100
AcDbBlockBegin
  2
名称未設定-1
 70
     0
 10
0.0
 20
0.0
 30
0.0
  3
名称未設定-1
  1
名称未設定-1
  0
INSERT
  5
3A7
330
3A5
100
AcDbEntity
  8
レイヤー 1
100
AcDbBlockReference
  2
block 2
 10
0.0
 20
0.0
 30
0.0
  0
ENDBLK
  5
3CC
330
3A5
100
AcDbEntity
  8
0
100
AcDbBlockEnd
  0
BLOCK
  5
3A9
330
3A8
100
AcDbEntity
  8
0
100
AcDbBlockBegin
  2
block 2
 70
     0
 10
0.0
 20
0.0
 30
0.0
  3
block 2
  1
block 2
  0
INSERT
  5
3AA
330
3A8
100
AcDbEntity
  8
レイヤー 1
100
AcDbBlockReference
  2
block 3
 10
0.0
 20
0.0
 30
0.0
  0
ENDBLK
  5
3CB
330
3A8
100
AcDbEntity
  8
0
100
AcDbBlockEnd
  0
BLOCK
  5
3AC
330
3AB
100
AcDbEntity
  8
0
100
AcDbBlockBegin
  2
block 3
 70
     0
 10
0.0
 20
0.0
 30
0.0
  3
block 3
  1
block 3
  0
INSERT
  5
3AD
330
3AB
100
AcDbEntity
  8
レイヤー 1
100
AcDbBlockReference
  2
block 4
 10
0.0
 20
0.0
 30
0.0
  0
ENDBLK
  5
3CA
330
3AB
100
AcDbEntity
  8
0
100
AcDbBlockEnd
  0
BLOCK
  5
3AF
330
3AE
100
AcDbEntity
  8
0
100
AcDbBlockBegin
  2
block 4
 70
     0
 10
0.0
 20
0.0
 30
0.0
  3
block 4
  1
block 4
  0
POLYLINE
  5
3B0
330
3AE
100
AcDbEntity
  8
レイヤー 1
370
     0
100
AcDb2dPolyline
 66
     1
 10
0.0
 20
0.0
 30
0.0
  0
VERTEX
  5
3B1
330
3B0
100
AcDbEntity
  8
レイヤー 1
370
     0
100
AcDbVertex
100
AcDb2dVertex
 10
83.79545727667795
 20
167.6444858234922
 30
0.0
  0
VERTEX
  5
3B2
330
3B0
100
AcDbEntity
  8
レイヤー 1
370
     0
100
AcDbVertex
100
AcDb2dVertex
 10
83.79545727667795
 20
159.7968976406313
 30
0.0
  0
VERTEX
  5
3B3
330
3B0
100
AcDbEntity
  8
レイヤー 1
370
     0
100
AcDbVertex
100
AcDb2dVertex
 10
71.3631329975216
 20
159.7968976406313
 30
0.0
  0
VERTEX
  5
3B4
330
3B0
100
AcDbEntity
  8
レイヤー 1
370
     0
100
AcDbVertex
100
AcDb2dVertex
 10
71.3631329975216
 20
127.8027915271048
 30
0.0
  0
VERTEX
  5
3B5
330
3B0
100
AcDbEntity
  8
レイヤー 1
370
     0
100
AcDbVertex
100
AcDb2dVertex
 10
60.43011526263018
 20
127.8027915271048
 30
0.0
  0
VERTEX
  5
3B6
330
3B0
100
AcDbEntity
  8
レイヤー 1
370
     0
100
AcDbVertex
100
AcDb2dVertex
 10
60.43011526263018
 20
159.7968976406313
 30
0.0
  0
VERTEX
  5
3B7
330
3B0
100
AcDbEntity
  8
レイヤー 1
370
     0
100
AcDbVertex
100
AcDb2dVertex
 10
48.21793273020759
 20
159.7968976406313
 30
0.0
  0
VERTEX
  5
3B8
330
3B0
100
AcDbEntity
  8
レイヤー 1
370
     0
100
AcDbVertex
100
AcDb2dVertex
 10
48.21793273020759
 20
167.6444858234922
 30
0.0
  0
VERTEX
  5
3B9
330
3B0
100
AcDbEntity
  8
レイヤー 1
370
     0
100
AcDbVertex
100
AcDb2dVertex
 10
83.79545727667795
 20
167.6444858234922
 30
0.0
  0
SEQEND
  5
3BA
330
3B0
100
AcDbEntity
  8
レイヤー 1
370
     0
  0
HATCH
  5
3BB
330
3AE
100
AcDbEntity
  8
レイヤー 1
 62
   250
420
  2234388
100
AcDbHatch
 10
0.0
 20
0.0
 30
0.0
210
0.0
220
0.0
230
1.0
  2
SOLID
 70
     1
 71
     0
 91
        1
 92
        1
 93
        8
 72
     1
 10
83.79545727667795
 20
167.6444858234922
 11
83.79545727667795
 21
159.7968976406313
 72
     1
 10
83.79545727667795
 20
159.7968976406313
 11
71.3631329975216
 21
159.7968976406313
 72
     1
 10
71.3631329975216
 20
159.7968976406313
 11
71.3631329975216
 21
127.8027915271048
 72
     1
 10
71.3631329975216
 20
127.8027915271048
 11
60.43011526263018
 21
127.8027915271048
 72
     1
 10
60.43011526263018
 20
127.8027915271048
 11
60.43011526263018
 21
159.7968976406313
 72
     1
 10
60.43011526263018
 20
159.7968976406313
 11
48.21793273020759
 21
159.7968976406313
 72
     1
 10
48.21793273020759
 20
159.7968976406313
 11
48.21793273020759
 21
167.6444858234922
 72
     1
 10
48.21793273020759
 20
167.6444858234922
 11
83.79545727667795
 21
167.6444858234922
 97
        0
 75
     2
 76
     1
 98
        0
  0
INSERT
  5
3BC
330
3AE
100
AcDbEntity
  8
レイヤー 1
100
AcDbBlockReference
  2
block 5
 10
0.0
 20
0.0
 30
0.0
  0
ENDBLK
  5
3C9
330
3AE
100
AcDbEntity
  8
0
100
AcDbBlockEnd
  0
BLOCK
  5
3BE
330
3BD
100
AcDbEntity
  8
0
100
AcDbBlockBegin
  2
block 5
 70
     0
 10
0.0
 20
0.0
 30
0.0
  3
block 5
  1
block 5
  0
SPLINE
  5
3BF
330
3BD
100
AcDbEntity
  8
レイヤー 1
370
     0
100
AcDbSpline
210
0.0
220
0.0
230
1.0
 70
    11
 71
     3
 72
    56
 73
    52
 74
     0
 42
0.000000001
 43
0.0000000001
 40
0.0
 40
0.0
 40
0.0
 40
0.0
 40
1.0
 40
1.0
 40
1.0
 40
2.0
 40
2.0
 40
2.0
 40
3.0
 40
3.0
 40
3.0
 40
4.0
 40
4.0
 40
4.0
 40
5.0
 40
5.0
 40
5.0
 40
6.0
 40
6.0
 40
6.0
 40
7.0
 40
7.0
 40
7.0
 40
8.0
 40
8.0
 40
8.0
 40
9.0
 40
9.0
 40
9.0
 40
10.0
 40
10.0
 40
10.0
 40
11.0
 40
11.0
 40
11.0
 40
12.0
 40
12.0
 40
12.0
 40
13.0
 40
13.0
 40
13.0
 40
14.0
 40
14.0
 40
14.0
 40
15.0
 40
15.0
 40
15.0
 40
16.0
 40
16.0
 40
16.0
 40
17.0
 40
17.0
 40
17.0
 40
17.0
 10
100.4504378777679
 20
166.69157178364
 30
0.0
 10
101.9848844191641
 20
167.1313385124438
 30
0.0
 10
103.9637485713373
 20
166.7649523658846
 30
0.0
 10
103.9637485713373
 20
166.7649523658846
 30
0.0
 10
103.9637485713373
 20
166.7649523658846
 30
0.0
 10
103.0132460999156
 20
163.911205638077
 30
0.0
 10
103.0132460999156
 20
163.911205638077
 30
0.0
 10
103.0132460999156
 20
163.911205638077
 30
0.0
 10
101.0674548862189
 20
164.3601018759394
 30
0.0
 10
99.57090442016032
 20
163.1805004036133
 30
0.0
 10
98.40508333886608
 20
162.258247733807
 30
0.0
 10
97.65301849830304
 20
159.804132345923
 30
0.0
 10
97.3598406791005
 20
158.8699940888517
 30
0.0
 10
97.3598406791005
 20
158.8699940888517
 30
0.0
 10
96.07137411762282
 20
154.9119212747295
 30
0.0
 10
96.07137411762282
 20
154.9119212747295
 30
0.0
 10
96.07137411762282
 20
154.9119212747295
 30
0.0
 10
100.3012651448482
 20
154.9119212747295
 30
0.0
 10
100.3012651448482
 20
154.9119212747295
 30
0.0
 10
100.3012651448482
 20
154.9119212747295
 30
0.0
 10
99.64152892419852
 20
152.4199098115079
 30
0.0
 10
99.64152892419852
 20
152.4199098115079
 30
0.0
 10
99.64152892419852
 20
152.4199098115079
 30
0.0
 10
95.38097652692731
 20
152.4199098115079
 30
0.0
 10
95.38097652692731
 20
152.4199098115079
 30
0.0
 10
95.38097652692731
 20
152.4199098115079
 30
0.0
 10
87.75353009080013
 20
127.8027915271048
 30
0.0
 10
87.75353009080013
 20
127.8027915271048
 30
0.0
 10
87.75353009080013
 20
127.8027915271048
 30
0.0
 10
85.36538832498108
 20
127.8027915271048
 30
0.0
 10
85.36538832498108
 20
127.8027915271048
 30
0.0
 10
85.36538832498108
 20
127.8027915271048
 30
0.0
 10
93.00006946639998
 20
152.4199098115079
 30
0.0
 10
93.00006946639998
 20
152.4199098115079
 30
0.0
 10
93.00006946639998
 20
152.4199098115079
 30
0.0
 10
89.85297266450198
 20
152.4199098115079
 30
0.0
 10
89.85297266450198
 20
152.4199098115079
 30
0.0
 10
89.85297266450198
 20
152.4199098115079
 30
0.0
 10
90.51270888515164
 20
154.9119212747295
 30
0.0
 10
90.51270888515164
 20
154.9119212747295
 30
0.0
 10
90.51270888515164
 20
154.9119212747295
 30
0.0
 10
93.6904670570955
 20
154.9119212747295
 30
0.0
 10
93.6904670570955
 20
154.9119212747295
 30
0.0
 10
93.6904670570955
 20
154.9119212747295
 30
0.0
 10
94.81598049462158
 20
158.3616699146644
 30
0.0
 10
94.81598049462158
 20
158.3616699146644
 30
0.0
 10
95.7237637538445
 20
161.2605474231013
 30
0.0
 10
96.4968436907311
 20
162.8139420021662
 30
0.0
 10
97.15657991138076
 20
163.9844139654337
 30
0.0
 10
97.81183750494507
 20
165.1523021053827
 30
0.0
 10
99.1047826935081
 20
166.3084769129547
 30
0.0
 10
100.4504378777679
 20
166.69157178364
 30
0.0
  0
HATCH
  5
3C0
330
3BD
100
AcDbEntity
  8
レイヤー 1
 62
   250
420
  2234388
100
AcDbHatch
 10
0.0
 20
0.0
 30
0.0
210
0.0
220
0.0
230
1.0
  2
SOLID
 70
     1
 71
     0
 91
        1
 92
        1
 93
        1
 72
     4
 94
        3
 73
     0
 74
     1
 95
       56
 96
       52
 40
0.0
 40
0.0
 40
0.0
 40
0.0
 40
1.0
 40
1.0
 40
1.0
 40
2.0
 40
2.0
 40
2.0
 40
3.0
 40
3.0
 40
3.0
 40
4.0
 40
4.0
 40
4.0
 40
5.0
 40
5.0
 40
5.0
 40
6.0
 40
6.0
 40
6.0
 40
7.0
 40
7.0
 40
7.0
 40
8.0
 40
8.0
 40
8.0
 40
9.0
 40
9.0
 40
9.0
 40
10.0
 40
10.0
 40
10.0
 40
11.0
 40
11.0
 40
11.0
 40
12.0
 40
12.0
 40
12.0
 40
13.0
 40
13.0
 40
13.0
 40
14.0
 40
14.0
 40
14.0
 40
15.0
 40
15.0
 40
15.0
 40
16.0
 40
16.0
 40
16.0
 40
17.0
 40
17.0
 40
17.0
 40
17.0
 10
100.4504378777679
 20
166.69157178364
 10
101.9848844191641
 20
167.1313385124438
 10
103.9637485713373
 20
166.7649523658846
 10
103.9637485713373
 20
166.7649523658846
 10
103.9637485713373
 20
166.7649523658846
 10
103.0132460999156
 20
163.911205638077
 10
103.0132460999156
 20
163.911205638077
 10
103.0132460999156
 20
163.911205638077
 10
101.0674548862189
 20
164.3601018759394
 10
99.57090442016032
 20
163.1805004036133
 10
98.40508333886608
 20
162.258247733807
 10
97.65301849830304
 20
159.804132345923
 10
97.3598406791005
 20
158.8699940888517
 10
97.3598406791005
 20
158.8699940888517
 10
96.07137411762282
 20
154.9119212747295
 10
96.07137411762282
 20
154.9119212747295
 10
96.07137411762282
 20
154.9119212747295
 10
100.3012651448482
 20
154.9119212747295
 10
100.3012651448482
 20
154.9119212747295
 10
100.3012651448482
 20
154.9119212747295
 10
99.64152892419852
 20
152.4199098115079
 10
99.64152892419852
 20
152.4199098115079
 10
99.64152892419852
 20
152.4199098115079
 10
95.38097652692731
 20
152.4199098115079
 10
95.38097652692731
 20
152.4199098115079
 10
95.38097652692731
 20
152.4199098115079
 10
87.75353009080013
 20
127.8027915271048
 10
87.75353009080013
 20
127.8027915271048
 10
87.75353009080013
 20
127.8027915271048
 10
85.36538832498108
 20
127.8027915271048
 10
85.36538832498108
 20
127.8027915271048
 10
85.36538832498108
 20
127.8027915271048
 10
93.00006946639998
 20
152.4199098115079
 10
93.00006946639998
 20
152.4199098115079
 10
93.00006946639998
 20
152.4199098115079
 10
89.85297266450198
 20
152.4199098115079
 10
89.85297266450198
 20
152.4199098115079
 10
89.85297266450198
 20
152.4199098115079
 10
90.51270888515164
 20
154.9119212747295
 10
90.51270888515164
 20
154.9119212747295
 10
90.51270888515164
 20
154.9119212747295
 10
93.6904670570955
 20
154.9119212747295
 10
93.6904670570955
 20
154.9119212747295
 10
93.6904670570955
 20
154.9119212747295
 10
94.81598049462158
 20
158.3616699146644
 10
94.81598049462158
 20
158.3616699146644
 10
95.7237637538445
 20
161.2605474231013
 10
96.4968436907311
 20
162.8139420021662
 10
97.15657991138076
 20
163.9844139654337
 10
97.81183750494507
 20
165.1523021053827
 10
99.1047826935081
 20
166.3084769129547
 10
100.4504378777679
 20
166.69157178364
 97
        0
 75
     2
 76
     1
 98
        0
  0
SPLINE
  5
3C1
330
3BD
100
AcDbEntity
  8
レイヤー 1
370
     0
100
AcDbSpline
210
0.0
220
0.0
230
1.0
 70
    11
 71
     3
 72
    38
 73
    34
 74
     0
 42
0.000000001
 43
0.0000000001
 40
0.0
 40
0.0
 40
0.0
 40
0.0
 40
1.0
 40
1.0
 40
1.0
 40
2.0
 40
2.0
 40
2.0
 40
3.0
 40
3.0
 40
3.0
 40
4.0
 40
4.0
 40
4.0
 40
5.0
 40
5.0
 40
5.0
 40
6.0
 40
6.0
 40
6.0
 40
7.0
 40
7.0
 40
7.0
 40
8.0
 40
8.0
 40
8.0
 40
9.0
 40
9.0
 40
9.0
 40
10.0
 40
10.0
 40
10.0
 40
11.0
 40
11.0
 40
11.0
 40
11.0
 10
126.377554584636
 20
154.8151140277308
 30
0.0
 10
126.377554584636
 20
154.8151140277308
 30
0.0
 10
128.8311532078563
 20
154.8151140277308
 30
0.0
 10
128.8311532078563
 20
154.8151140277308
 30
0.0
 10
128.8311532078563
 20
154.8151140277308
 30
0.0
 10
127.7345785914971
 20
151.3062819612468
 30
0.0
 10
127.7345785914971
 20
151.3062819612468
 30
0.0
 10
128.571392836906
 20
152.2922689395754
 30
0.0
 10
129.8860421413442
 20
153.604506675583
 30
0.0
 10
131.0163787157314
 20
154.2664822097754
 30
0.0
 10
132.7044766171327
 20
155.2500576196734
 30
0.0
 10
133.6642808525008
 20
155.3847609420097
 30
0.0
 10
134.7284715499351
 20
155.3565111403944
 30
0.0
 10
134.7284715499351
 20
155.3565111403944
 30
0.0
 10
133.6877075172549
 20
152.0345756272799
 30
0.0
 10
133.6877075172549
 20
152.0345756272799
 30
0.0
 10
133.011434827367
 20
152.3184516825359
 30
0.0
 10
130.930940291334
 20
151.7768823149844
 30
0.0
 10
129.739280976855
 20
150.9162968950455
 30
0.0
 10
128.66613302525
 20
150.1454562717016
 30
0.0
 10
127.9192358313239
 20
149.4857200510519
 30
0.0
 10
127.0393578639405
 20
147.8282835196966
 30
0.0
 10
126.164647543194
 20
146.1699857139017
 30
0.0
 10
125.4742499524985
 20
143.5262176944419
 30
0.0
 10
124.2822461282437
 20
139.6959580071401
 30
0.0
 10
124.2822461282437
 20
139.6959580071401
 30
0.0
 10
120.5753209406769
 20
127.8027915271048
 30
0.0
 10
120.5753209406769
 20
127.8027915271048
 30
0.0
 10
120.5753209406769
 20
127.8027915271048
 30
0.0
 10
118.1964809388044
 20
127.8027915271048
 30
0.0
 10
118.1964809388044
 20
127.8027915271048
 30
0.0
 10
118.1964809388044
 20
127.8027915271048
 30
0.0
 10
126.377554584636
 20
154.8151140277308
 30
0.0
 10
126.377554584636
 20
154.8151140277308
 30
0.0
  0
HATCH
  5
3C2
330
3BD
100
AcDbEntity
  8
レイヤー 1
 62
   250
420
  2234388
100
AcDbHatch
 10
0.0
 20
0.0
 30
0.0
210
0.0
220
0.0
230
1.0
  2
SOLID
 70
     1
 71
     0
 91
        1
 92
        1
 93
        1
 72
     4
 94
        3
 73
     0
 74
     1
 95
       38
 96
       34
 40
0.0
 40
0.0
 40
0.0
 40
0.0
 40
1.0
 40
1.0
 40
1.0
 40
2.0
 40
2.0
 40
2.0
 40
3.0
 40
3.0
 40
3.0
 40
4.0
 40
4.0
 40
4.0
 40
5.0
 40
5.0
 40
5.0
 40
6.0
 40
6.0
 40
6.0
 40
7.0
 40
7.0
 40
7.0
 40
8.0
 40
8.0
 40
8.0
 40
9.0
 40
9.0
 40
9.0
 40
10.0
 40
10.0
 40
10.0
 40
11.0
 40
11.0
 40
11.0
 40
11.0
 10
126.377554584636
 20
154.8151140277308
 10
126.377554584636
 20
154.8151140277308
 10
128.8311532078563
 20
154.8151140277308
 10
128.8311532078563
 20
154.8151140277308
 10
128.8311532078563
 20
154.8151140277308
 10
127.7345785914971
 20
151.3062819612468
 10
127.7345785914971
 20
151.3062819612468
 10
128.571392836906
 20
152.2922689395754
 10
129.8860421413442
 20
153.604506675583
 10
131.0163787157314
 20
154.2664822097754
 10
132.7044766171327
 20
155.2500576196734
 10
133.6642808525008
 20
155.3847609420097
 10
134.7284715499351
 20
155.3565111403944
 10
134.7284715499351
 20
155.3565111403944
 10
133.6877075172549
 20
152.0345756272799
 10
133.6877075172549
 20
152.0345756272799
 10
133.011434827367
 20
152.3184516825359
 10
130.930940291334
 20
151.7768823149844
 10
129.739280976855
 20
150.9162968950455
 10
128.66613302525
 20
150.1454562717016
 10
127.9192358313239
 20
149.4857200510519
 10
127.0393578639405
 20
147.8282835196966
 10
126.164647543194
 20
146.1699857139017
 10
125.4742499524985
 20
143.5262176944419
 10
124.2822461282437
 20
139.6959580071401
 10
124.2822461282437
 20
139.6959580071401
 10
120.5753209406769
 20
127.8027915271048
 10
120.5753209406769
 20
127.8027915271048
 10
120.5753209406769
 20
127.8027915271048
 10
118.1964809388044
 20
127.8027915271048
 10
118.1964809388044
 20
127.8027915271048
 10
118.1964809388044
 20
127.8027915271048
 10
126.377554584636
 20
154.8151140277308
 10
126.377554584636
 20
154.8151140277308
 97
        0
 75
     2
 76
     1
 98
        0
  0
SPLINE
  5
3C3
330
3BD
100
AcDbEntity
  8
レイヤー 1
370
     0
100
AcDbSpline
210
0.0
220
0.0
230
1.0
 70
    11
 71
     3
 72
   104
 73
   100
 74
     0
 42
0.000000001
 43
0.0000000001
 40
0.0
 40
0.0
 40
0.0
 40
0.0
 40
1.0
 40
1.0
 40
1.0
 40
2.0
 40
2.0
 40
2.0
 40
3.0
 40
3.0
 40
3.0
 40
4.0
 40
4.0
 40
4.0
 40
5.0
 40
5.0
 40
5.0
 40
6.0
 40
6.0
 40
6.0
 40
7.0
 40
7.0
 40
7.0
 40
8.0
 40
8.0
 40
8.0
 40
9.0
 40
9.0
 40
9.0
 40
10.0
 40
10.0
 40
10.0
 40
11.0
 40
11.0
 40
11.0
 40
12.0
 40
12.0
 40
12.0
 40
13.0
 40
13.0
 40
13.0
 40
14.0
 40
14.0
 40
14.0
 40
15.0
 40
15.0
 40
15.0
 40
16.0
 40
16.0
 40
16.0
 40
17.0
 40
17.0
 40
17.0
 40
18.0
 40
18.0
 40
18.0
 40
19.0
 40
19.0
 40
19.0
 40
20.0
 40
20.0
 40
20.0
 40
21.0
 40
21.0
 40
21.0
 40
22.0
 40
22.0
 40
22.0
 40
23.0
 40
23.0
 40
23.0
 40
24.0
 40
24.0
 40
24.0
 40
25.0
 40
25.0
 40
25.0
 40
26.0
 40
26.0
 40
26.0
 40
27.0
 40
27.0
 40
27.0
 40
28.0
 40
28.0
 40
28.0
 40
29.0
 40
29.0
 40
29.0
 40
30.0
 40
30.0
 40
30.0
 40
31.0
 40
31.0
 40
31.0
 40
32.0
 40
32.0
 40
32.0
 40
33.0
 40
33.0
 40
33.0
 40
33.0
 10
139.8926730891197
 20
154.8294111834263
 30
0.0
 10
139.8926730891197
 20
154.8294111834263
 30
0.0
 10
142.0344903652445
 20
154.8294111834263
 30
0.0
 10
142.0344903652445
 20
154.8294111834263
 30
0.0
 10
142.0344903652445
 20
154.8294111834263
 30
0.0
 10
140.9516961399171
 20
151.3157559800812
 30
0.0
 10
140.9516961399171
 20
151.3157559800812
 30
0.0
 10
141.8928968473923
 20
152.7887075264977
 30
0.0
 10
142.7341897198865
 20
153.4484437471474
 30
0.0
 10
143.8552245303272
 20
154.2926649527359
 30
0.0
 10
144.9803934580775
 20
155.1296514530327
 30
0.0
 10
146.3139908001845
 20
155.3044901642492
 30
0.0
 10
147.241066606852
 20
155.3044901642492
 30
0.0
 10
148.3855280820469
 20
155.3044901642492
 30
0.0
 10
149.4969166187653
 20
155.0752189084569
 30
0.0
 10
150.0784491203092
 20
153.8172414621372
 30
0.0
 10
150.5228667310863
 20
152.833838307127
 30
0.0
 10
150.5414702589793
 20
152.7201500811143
 30
0.0
 10
150.4140016419347
 20
150.7765981809602
 30
0.0
 10
151.5818897818837
 20
152.7699317437168
 30
0.0
 10
152.4424752018226
 20
153.6256940267945
 30
0.0
 10
153.9038856707499
 20
154.4507949398263
 30
0.0
 10
155.4455669174378
 20
155.3044901642492
 30
0.0
 10
156.339225275853
 20
155.3659851592288
 30
0.0
 10
157.3748216618963
 20
155.2147453676543
 30
0.0
 10
158.911679771723
 20
154.9877134254046
 30
0.0
 10
159.8859534176746
 20
154.4390816074493
 30
0.0
 10
160.3965169054045
 20
152.7816450760939
 30
0.0
 10
160.9070803931344
 20
151.1219692311958
 30
0.0
 10
160.6328506116007
 20
150.2303779314354
 30
0.0
 10
159.9992971339115
 20
147.597634224801
 30
0.0
 10
159.7105979417943
 20
146.4014962832367
 30
0.0
 10
159.2947746424084
 20
144.9400858143094
 30
0.0
 10
158.7463150793409
 20
143.2092687007094
 30
0.0
 10
158.7463150793409
 20
143.2092687007094
 30
0.0
 10
153.9038856707499
 20
127.8027915271048
 30
0.0
 10
153.9038856707499
 20
127.8027915271048
 30
0.0
 10
153.9038856707499
 20
127.8027915271048
 30
0.0
 10
151.3882752878863
 20
127.8027915271048
 30
0.0
 10
151.3882752878863
 20
127.8027915271048
 30
0.0
 10
151.3882752878863
 20
127.8027915271048
 30
0.0
 10
155.6250565106276
 20
141.2751908193897
 30
0.0
 10
155.6250565106276
 20
141.2751908193897
 30
0.0
 10
156.5094131050963
 20
144.0936252951782
 30
0.0
 10
157.109893644309
 20
146.1506931664571
 30
0.0
 10
157.4220195011804
 20
147.4415712963654
 30
0.0
 10
157.8095929989511
 20
149.0530157726519
 30
0.0
 10
157.9656559273867
 20
149.5826995529385
 30
0.0
 10
157.7816877071116
 20
150.7529992613181
 30
0.0
 10
157.6111553680925
 20
151.8430281919372
 30
0.0
 10
157.0582171779396
 20
152.5547853887321
 30
0.0
 10
156.1170164704645
 20
152.5547853887321
 30
0.0
 10
155.1096698860365
 20
152.5547853887321
 30
0.0
 10
154.2962823053817
 20
152.4412694176073
 30
0.0
 10
153.156643967048
 20
151.2945686288697
 30
0.0
 10
152.0170056287143
 20
150.1476955852443
 30
0.0
 10
151.076149431015
 20
148.7930831468137
 30
0.0
 10
150.3337308641742
 20
147.2290087646991
 30
0.0
 10
149.5957909244188
 20
145.6683794803425
 30
0.0
 10
148.8530278478023
 20
143.6822806228776
 30
0.0
 10
148.0964843801539
 20
141.2751908193897
 30
0.0
 10
148.0964843801539
 20
141.2751908193897
 30
0.0
 10
143.8552245303272
 20
127.8027915271048
 30
0.0
 10
143.8552245303272
 20
127.8027915271048
 30
0.0
 10
143.8552245303272
 20
127.8027915271048
 30
0.0
 10
141.486030802177
 20
127.8027915271048
 30
0.0
 10
141.486030802177
 20
127.8027915271048
 30
0.0
 10
141.486030802177
 20
127.8027915271048
 30
0.0
 10
146.3329388378533
 20
143.2092687007094
 30
0.0
 10
146.3329388378533
 20
143.2092687007094
 30
0.0
 10
146.8483254624444
 20
144.8408669988801
 30
0.0
 10
147.2314203331297
 20
146.1837661049335
 30
0.0
 10
147.4867020769946
 20
147.224185627838
 30
0.0
 10
147.9169947869641
 20
149.0197705792876
 30
0.0
 10
148.0306830129768
 20
150.2400242051577
 30
0.0
 10
147.709255392159
 20
151.3157559800812
 30
0.0
 10
147.3874832615654
 20
152.3916600098926
 30
0.0
 10
146.8245542879144
 20
152.6683013598569
 30
0.0
 10
145.8840425999909
 20
152.6683013598569
 30
0.0
 10
145.0989048209514
 20
152.6683013598569
 30
0.0
 10
144.3282364524954
 20
152.3275811915945
 30
0.0
 10
143.4531816219731
 20
151.6538923250251
 30
0.0
 10
142.34627171234
 20
150.8074318058939
 30
0.0
 10
141.901854101563
 20
150.1097995099067
 30
0.0
 10
141.3578731655808
 20
149.289521733736
 30
0.0
 10
140.6299240093235
 20
148.192602607601
 30
0.0
 10
140.2850697237515
 20
147.455696197173
 30
0.0
 10
139.6652966370942
 20
145.8385673095858
 30
0.0
 10
139.0506911970739
 20
144.2214384219986
 30
0.0
 10
138.463991048893
 20
142.3252566160164
 30
0.0
 10
138.0571250036777
 20
141.0154304484394
 30
0.0
 10
138.0571250036777
 20
141.0154304484394
 30
0.0
 10
133.9009590684727
 20
127.8027915271048
 30
0.0
 10
133.9009590684727
 20
127.8027915271048
 30
0.0
 10
133.9009590684727
 20
127.8027915271048
 30
0.0
 10
131.4180771143097
 20
127.8027915271048
 30
0.0
 10
131.4180771143097
 20
127.8027915271048
 30
0.0
 10
131.4180771143097
 20
127.8027915271048
 30
0.0
 10
139.8926730891197
 20
154.8294111834263
 30
0.0
 10
139.8926730891197
 20
154.8294111834263
 30
0.0
  0
HATCH
  5
3C4
330
3BD
100
AcDbEntity
  8
レイヤー 1
 62
   250
420
  2234388
100
AcDbHatch
 10
0.0
 20
0.0
 30
0.0
210
0.0
220
0.0
230
1.0
  2
SOLID
 70
     1
 71
     0
 91
        1
 92
        1
 93
        1
 72
     4
 94
        3
 73
     0
 74
     1
 95
      104
 96
      100
 40
0.0
 40
0.0
 40
0.0
 40
0.0
 40
1.0
 40
1.0
 40
1.0
 40
2.0
 40
2.0
 40
2.0
 40
3.0
 40
3.0
 40
3.0
 40
4.0
 40
4.0
 40
4.0
 40
5.0
 40
5.0
 40
5.0
 40
6.0
 40
6.0
 40
6.0
 40
7.0
 40
7.0
 40
7.0
 40
8.0
 40
8.0
 40
8.0
 40
9.0
 40
9.0
 40
9.0
 40
10.0
 40
10.0
 40
10.0
 40
11.0
 40
11.0
 40
11.0
 40
12.0
 40
12.0
 40
12.0
 40
13.0
 40
13.0
 40
13.0
 40
14.0
 40
14.0
 40
14.0
 40
15.0
 40
15.0
 40
15.0
 40
16.0
 40
16.0
 40
16.0
 40
17.0
 40
17.0
 40
17.0
 40
18.0
 40
18.0
 40
18.0
 40
19.0
 40
19.0
 40
19.0
 40
20.0
 40
20.0
 40
20.0
 40
21.0
 40
21.0
 40
21.0
 40
22.0
 40
22.0
 40
22.0
 40
23.0
 40
23.0
 40
23.0
 40
24.0
 40
24.0
 40
24.0
 40
25.0
 40
25.0
 40
25.0
 40
26.0
 40
26.0
 40
26.0
 40
27.0
 40
27.0
 40
27.0
 40
28.0
 40
28.0
 40
28.0
 40
29.0
 40
29.0
 40
29.0
 40
30.0
 40
30.0
 40
30.0
 40
31.0
 40
31.0
 40
31.0
 40
32.0
 40
32.0
 40
32.0
 40
33.0
 40
33.0
 40
33.0
 40
33.0
 10
139.8926730891197
 20
154.8294111834263
 10
139.8926730891197
 20
154.8294111834263
 10
142.0344903652445
 20
154.8294111834263
 10
142.0344903652445
 20
154.8294111834263
 10
142.0344903652445
 20
154.8294111834263
 10
140.9516961399171
 20
151.3157559800812
 10
140.9516961399171
 20
151.3157559800812
 10
141.8928968473923
 20
152.7887075264977
 10
142.7341897198865
 20
153.4484437471474
 10
143.8552245303272
 20
154.2926649527359
 10
144.9803934580775
 20
155.1296514530327
 10
146.3139908001845
 20
155.3044901642492
 10
147.241066606852
 20
155.3044901642492
 10
148.3855280820469
 20
155.3044901642492
 10
149.4969166187653
 20
155.0752189084569
 10
150.0784491203092
 20
153.8172414621372
 10
150.5228667310863
 20
152.833838307127
 10
150.5414702589793
 20
152.7201500811143
 10
150.4140016419347
 20
150.7765981809602
 10
151.5818897818837
 20
152.7699317437168
 10
152.4424752018226
 20
153.6256940267945
 10
153.9038856707499
 20
154.4507949398263
 10
155.4455669174378
 20
155.3044901642492
 10
156.339225275853
 20
155.3659851592288
 10
157.3748216618963
 20
155.2147453676543
 10
158.911679771723
 20
154.9877134254046
 10
159.8859534176746
 20
154.4390816074493
 10
160.3965169054045
 20
152.7816450760939
 10
160.9070803931344
 20
151.1219692311958
 10
160.6328506116007
 20
150.2303779314354
 10
159.9992971339115
 20
147.597634224801
 10
159.7105979417943
 20
146.4014962832367
 10
159.2947746424084
 20
144.9400858143094
 10
158.7463150793409
 20
143.2092687007094
 10
158.7463150793409
 20
143.2092687007094
 10
153.9038856707499
 20
127.8027915271048
 10
153.9038856707499
 20
127.8027915271048
 10
153.9038856707499
 20
127.8027915271048
 10
151.3882752878863
 20
127.8027915271048
 10
151.3882752878863
 20
127.8027915271048
 10
151.3882752878863
 20
127.8027915271048
 10
155.6250565106276
 20
141.2751908193897
 10
155.6250565106276
 20
141.2751908193897
 10
156.5094131050963
 20
144.0936252951782
 10
157.109893644309
 20
146.1506931664571
 10
157.4220195011804
 20
147.4415712963654
 10
157.8095929989511
 20
149.0530157726519
 10
157.9656559273867
 20
149.5826995529385
 10
157.7816877071116
 20
150.7529992613181
 10
157.6111553680925
 20
151.8430281919372
 10
157.0582171779396
 20
152.5547853887321
 10
156.1170164704645
 20
152.5547853887321
 10
155.1096698860365
 20
152.5547853887321
 10
154.2962823053817
 20
152.4412694176073
 10
153.156643967048
 20
151.2945686288697
 10
152.0170056287143
 20
150.1476955852443
 10
151.076149431015
 20
148.7930831468137
 10
150.3337308641742
 20
147.2290087646991
 10
149.5957909244188
 20
145.6683794803425
 10
148.8530278478023
 20
143.6822806228776
 10
148.0964843801539
 20
141.2751908193897
 10
148.0964843801539
 20
141.2751908193897
 10
143.8552245303272
 20
127.8027915271048
 10
143.8552245303272
 20
127.8027915271048
 10
143.8552245303272
 20
127.8027915271048
 10
141.486030802177
 20
127.8027915271048
 10
141.486030802177
 20
127.8027915271048
 10
141.486030802177
 20
127.8027915271048
 10
146.3329388378533
 20
143.2092687007094
 10
146.3329388378533
 20
143.2092687007094
 10
146.8483254624444
 20
144.8408669988801
 10
147.2314203331297
 20
146.1837661049335
 10
147.4867020769946
 20
147.224185627838
 10
147.9169947869641
 20
149.0197705792876
 10
148.0306830129768
 20
150.2400242051577
 10
147.709255392159
 20
151.3157559800812
 10
147.3874832615654
 20
152.3916600098926
 10
146.8245542879144
 20
152.6683013598569
 10
145.8840425999909
 20
152.6683013598569
 10
145.0989048209514
 20
152.6683013598569
 10
144.3282364524954
 20
152.3275811915945
 10
143.4531816219731
 20
151.6538923250251
 10
142.34627171234
 20
150.8074318058939
 10
141.901854101563
 20
150.1097995099067
 10
141.3578731655808
 20
149.289521733736
 10
140.6299240093235
 20
148.192602607601
 10
140.2850697237515
 20
147.455696197173
 10
139.6652966370942
 20
145.8385673095858
 10
139.0506911970739
 20
144.2214384219986
 10
138.463991048893
 20
142.3252566160164
 10
138.0571250036777
 20
141.0154304484394
 10
138.0571250036777
 20
141.0154304484394
 10
133.9009590684727
 20
127.8027915271048
 10
133.9009590684727
 20
127.8027915271048
 10
133.9009590684727
 20
127.8027915271048
 10
131.4180771143097
 20
127.8027915271048
 10
131.4180771143097
 20
127.8027915271048
 10
131.4180771143097
 20
127.8027915271048
 10
139.8926730891197
 20
154.8294111834263
 10
139.8926730891197
 20
154.8294111834263
 97
        0
 75
     2
 76
     1
 98
        0
  0
SPLINE
  5
3C5
330
3BD
100
AcDbEntity
  8
レイヤー 1
370
     0
100
AcDbSpline
210
0.0
220
0.0
230
1.0
 70
    11
 71
     3
 72
    29
 73
    25
 74
     0
 42
0.000000001
 43
0.0000000001
 40
0.0
 40
0.0
 40
0.0
 40
0.0
 40
1.0
 40
1.0
 40
1.0
 40
2.0
 40
2.0
 40
2.0
 40
3.0
 40
3.0
 40
3.0
 40
4.0
 40
4.0
 40
4.0
 40
5.0
 40
5.0
 40
5.0
 40
6.0
 40
6.0
 40
6.0
 40
7.0
 40
7.0
 40
7.0
 40
8.0
 40
8.0
 40
8.0
 40
8.0
 10
101.6420971922469
 20
132.8388354296931
 30
0.0
 10
101.630039350094
 20
134.7164137077823
 30
0.0
 10
102.2236296937908
 20
138.0598810818841
 30
0.0
 10
103.7487744712405
 20
142.5378191476827
 30
0.0
 10
105.819967243327
 20
148.5896501242061
 30
0.0
 10
107.0602024361932
 20
150.8074318058939
 30
0.0
 10
108.1522984254671
 20
151.8833358357054
 30
0.0
 10
109.741177511439
 20
153.4532668840085
 30
0.0
 10
111.8740375333931
 20
153.5290590346837
 30
0.0
 10
112.5075910110823
 20
153.4532668840085
 30
0.0
 10
113.4012493694975
 20
153.3490526768302
 30
0.0
 10
114.6683563248758
 20
152.7580461564518
 30
0.0
 10
114.7493161221879
 20
150.7838328862519
 30
0.0
 10
114.8106388622796
 20
149.0909118479895
 30
0.0
 10
114.3186789024427
 20
145.9191825971221
 30
0.0
 10
112.6164561002338
 20
140.9489400617108
 30
0.0
 10
110.6444821435766
 20
135.1746117095912
 30
0.0
 10
109.4669477299053
 20
132.8960240524753
 30
0.0
 10
108.5212683953448
 20
131.9072809959403
 30
0.0
 10
106.7346406980658
 20
130.0538184021569
 30
0.0
 10
104.8222669326213
 20
130.2336525051225
 30
0.0
 10
104.5408024457958
 20
130.2336525051225
 30
0.0
 10
104.1721769856939
 20
130.2336525051225
 30
0.0
 10
101.6465758193322
 20
130.6305277668397
 30
0.0
 10
101.6420971922469
 20
132.8388354296931
 30
0.0
  0
SPLINE
  5
3C6
330
3BD
100
AcDbEntity
  8
レイヤー 1
370
     0
100
AcDbSpline
210
0.0
220
0.0
230
1.0
 70
    11
 71
     3
 72
    32
 73
    28
 74
     0
 42
0.000000001
 43
0.0000000001
 40
0.0
 40
0.0
 40
0.0
 40
0.0
 40
1.0
 40
1.0
 40
1.0
 40
2.0
 40
2.0
 40
2.0
 40
3.0
 40
3.0
 40
3.0
 40
4.0
 40
4.0
 40
4.0
 40
5.0
 40
5.0
 40
5.0
 40
6.0
 40
6.0
 40
6.0
 40
7.0
 40
7.0
 40
7.0
 40
8.0
 40
8.0
 40
8.0
 40
9.0
 40
9.0
 40
9.0
 40
9.0
 10
106.2595617172429
 20
153.4105476718098
 30
0.0
 10
104.8222669326213
 20
151.5474388043041
 30
0.0
 10
103.7177685914188
 20
149.8758773721411
 30
0.0
 10
101.9232171692965
 20
144.6141795664062
 30
0.0
 10
100.2754269116635
 20
139.7999999594306
 30
0.0
 10
99.22777268346732
 20
136.3052927937542
 30
0.0
 10
99.06964269637689
 20
132.039572749846
 30
0.0
 10
98.94665270641765
 20
128.8673267343149
 30
0.0
 10
100.8807305877373
 20
127.8027915271048
 30
0.0
 10
103.7129454545577
 20
127.8027915271048
 30
0.0
 10
104.9352661390825
 20
127.8027915271048
 30
0.0
 10
108.0151835347002
 20
127.8827177950895
 30
0.0
 10
110.2045431598849
 20
130.5926316915021
 30
0.0
 10
111.7417457794874
 20
132.4984597712065
 30
0.0
 10
113.155269389579
 20
134.475256864725
 30
0.0
 10
115.0562743324223
 20
140.9489400617108
 30
0.0
 10
116.6361961642235
 20
146.3680788349845
 30
0.0
 10
117.7282921534974
 20
149.8639917848761
 30
0.0
 10
117.6480213757369
 20
151.8595646611754
 30
0.0
 10
117.6480213757369
 20
151.8595646611754
 30
0.0
 10
117.6480213757369
 20
151.8595646611754
 30
0.0
 10
117.6480213757369
 20
151.8595646611754
 30
0.0
 10
117.13229024137
 20
155.18150017429
 30
0.0
 10
114.7162431837115
 20
155.886194920681
 30
0.0
 10
113.3351034925446
 20
155.886194920681
 30
0.0
 10
111.9829026225447
 20
155.886194920681
 30
0.0
 10
108.3414342923792
 20
156.1251124501957
 30
0.0
 10
106.2595617172429
 20
153.4105476718098
 30
0.0
  0
HATCH
  5
3C7
330
3BD
100
AcDbEntity
  8
レイヤー 1
 62
   250
420
  2234388
100
AcDbHatch
 10
0.0
 20
0.0
 30
0.0
210
0.0
220
0.0
230
1.0
  2
SOLID
 70
     1
 71
     0
 91
        2
 92
        1
 93
        1
 72
     4
 94
        3
 73
     0
 74
     1
 95
       29
 96
       25
 40
0.0
 40
0.0
 40
0.0
 40
0.0
 40
1.0
 40
1.0
 40
1.0
 40
2.0
 40
2.0
 40
2.0
 40
3.0
 40
3.0
 40
3.0
 40
4.0
 40
4.0
 40
4.0
 40
5.0
 40
5.0
 40
5.0
 40
6.0
 40
6.0
 40
6.0
 40
7.0
 40
7.0
 40
7.0
 40
8.0
 40
8.0
 40
8.0
 40
8.0
 10
101.6420971922469
 20
132.8388354296931
 10
101.630039350094
 20
134.7164137077823
 10
102.2236296937908
 20
138.0598810818841
 10
103.7487744712405
 20
142.5378191476827
 10
105.819967243327
 20
148.5896501242061
 10
107.0602024361932
 20
150.8074318058939
 10
108.1522984254671
 20
151.8833358357054
 10
109.741177511439
 20
153.4532668840085
 10
111.8740375333931
 20
153.5290590346837
 10
112.5075910110823
 20
153.4532668840085
 10
113.4012493694975
 20
153.3490526768302
 10
114.6683563248758
 20
152.7580461564518
 10
114.7493161221879
 20
150.7838328862519
 10
114.8106388622796
 20
149.0909118479895
 10
114.3186789024427
 20
145.9191825971221
 10
112.6164561002338
 20
140.9489400617108
 10
110.6444821435766
 20
135.1746117095912
 10
109.4669477299053
 20
132.8960240524753
 10
108.5212683953448
 20
131.9072809959403
 10
106.7346406980658
 20
130.0538184021569
 10
104.8222669326213
 20
130.2336525051225
 10
104.5408024457958
 20
130.2336525051225
 10
104.1721769856939
 20
130.2336525051225
 10
101.6465758193322
 20
130.6305277668397
 10
101.6420971922469
 20
132.8388354296931
 97
        0
 92
        1
 93
        1
 72
     4
 94
        3
 73
     0
 74
     1
 95
       32
 96
       28
 40
0.0
 40
0.0
 40
0.0
 40
0.0
 40
1.0
 40
1.0
 40
1.0
 40
2.0
 40
2.0
 40
2.0
 40
3.0
 40
3.0
 40
3.0
 40
4.0
 40
4.0
 40
4.0
 40
5.0
 40
5.0
 40
5.0
 40
6.0
 40
6.0
 40
6.0
 40
7.0
 40
7.0
 40
7.0
 40
8.0
 40
8.0
 40
8.0
 40
9.0
 40
9.0
 40
9.0
 40
9.0
 10
106.2595617172429
 20
153.4105476718098
 10
104.8222669326213
 20
151.5474388043041
 10
103.7177685914188
 20
149.8758773721411
 10
101.9232171692965
 20
144.6141795664062
 10
100.2754269116635
 20
139.7999999594306
 10
99.22777268346732
 20
136.3052927937542
 10
99.06964269637689
 20
132.039572749846
 10
98.94665270641765
 20
128.8673267343149
 10
100.8807305877373
 20
127.8027915271048
 10
103.7129454545577
 20
127.8027915271048
 10
104.9352661390825
 20
127.8027915271048
 10
108.0151835347002
 20
127.8827177950895
 10
110.2045431598849
 20
130.5926316915021
 10
111.7417457794874
 20
132.4984597712065
 10
113.155269389579
 20
134.475256864725
 10
115.0562743324223
 20
140.9489400617108
 10
116.6361961642235
 20
146.3680788349845
 10
117.7282921534974
 20
149.8639917848761
 10
117.6480213757369
 20
151.8595646611754
 10
117.6480213757369
 20
151.8595646611754
 10
117.6480213757369
 20
151.8595646611754
 10
117.6480213757369
 20
151.8595646611754
 10
117.13229024137
 20
155.18150017429
 10
114.7162431837115
 20
155.886194920681
 10
113.3351034925446
 20
155.886194920681
 10
111.9829026225447
 20
155.886194920681
 10
108.3414342923792
 20
156.1251124501957
 10
106.2595617172429
 20
153.4105476718098
 97
        0
 75
     2
 76
     1
 98
        0
  0
ENDBLK
  5
3C8
330
3BD
100
AcDbEntity
  8
0
100
AcDbBlockEnd
  0
BLOCK
  5
11F1
330
11F0
100
AcDbEntity
  8
0
100
AcDbBlockBegin
  2
BLOCK_2
 70
     0
 10
0.0
 20
0.0
 30
0.0
  3
BLOCK_2
  1
BLOCK_2
  0
ENDBLK
  5
11F2
330
11F0
100
AcDbEntity
  8
0
100
AcDbBlockEnd
  0
BLOCK
  5
38B7
330
38B6
100
AcDbEntity
  8
0
100
AcDbBlockBegin
  2
mobile_latù
 70
     0
 10
0.0
 20
0.0
 30
0.0
  3
mobile_latù
  1
mobile_latù
  0
ENDBLK
  5
38B8
330
38B6
100
AcDbEntity
  8
0
100
AcDbBlockEnd
  0
BLOCK
  5
503A
330
5039
100
AcDbEntity
  8
0
100
AcDbBlockBegin
  2
.TD_SECTION_1
 70
     0
 10
225818116096.0
 20
0.0
 30
0.0
  3
.TD_SECTION_1
  1

  0
ENDBLK
  5
503B
330
5039
100
AcDbEntity
  8
0
100
AcDbBlockEnd
  0
BLOCK
  5
503E
330
503D
100
AcDbEntity
  8
0
100
AcDbBlockBegin
  2
.TD_SECTION_2
 70
     0
 10
225818181632.0
 20
0.0
 30
0.0
  3
.TD_SECTION_2
  1

  0
ENDBLK
  5
503F
330
503D
100
AcDbEntity
  8
0
100
AcDbBlockEnd
  0
BLOCK
  5
1524C
330
1524B
100
AcDbEntity
  8
0
100
AcDbBlockBegin
  2
*D10
 70
     1
 10
0.0
 20
0.0
 30
0.0
  3
*D10
  1

  0
LINE
  5
1524E
330
1524B
100
AcDbEntity
  8
Dim
 62
     0
370
    -2
100
AcDbLine
 10
384.3753165163671
 20
2429.613299949619
 30
0.0
 11
384.3753165163671
 21
2555.022053258
 31
0.0
  0
LINE
  5
1524F
330
1524B
100
AcDbEntity
  8
Dim
 62
     0
370
    -2
100
AcDbLine
 10
984.127388619514
 20
2433.868190309257
 30
0.0
 11
984.127388619514
 21
2555.022053258
 31
0.0
  0
LINE
  5
15250
330
1524B
100
AcDbEntity
  8
Dim
 62
     0
370
    -2
100
AcDbLine
 10
394.3747061648046
 20
2555.022053258
 30
0.0
 11
974.1279989710765
 21
2555.022053258
 31
0.0
  0
INSERT
  5
15251
330
1524B
100
AcDbEntity
  8
Dim
 62
     0
370
    -2
100
AcDbBlockReference
  2
_DOT
 10
384.3753165163671
 20
2555.022053258
 30
0.0
 41
9.999389648437498
 42
9.999389648437498
 43
9.999389648437498
 50
180.0
  0
INSERT
  5
15252
330
1524B
100
AcDbEntity
  8
Dim
 62
     0
370
    -2
100
AcDbBlockReference
  2
_DOT
 10
984.127388619514
 20
2555.022053258
 30
0.0
 41
9.999389648437498
 42
9.999389648437498
 43
9.999389648437498
  0
MTEXT
  5
15253
330
1524B
100
AcDbEntity
  8
Dim
 62
     0
100
AcDbMText
 10
684.2688543120491
 20
2577.23836185175
 30
0.0
 40
24.4326171875
 41
0.0
 46
0.0
 71
     5
 72
     1
  1
\A1;600
  7
ＭＳ ゴシック
 73
     1
 44
1.0
  0
POINT
  5
15254
330
1524B
100
AcDbEntity
  8
Defpoints
 62
     0
100
AcDbPoint
 10
384.3753165163671
 20
2404.613299949619
 30
0.0
  0
POINT
  5
15255
330
1524B
100
AcDbEntity
  8
Defpoints
 62
     0
100
AcDbPoint
 10
984.127388619514
 20
2408.868190309257
 30
0.0
  0
POINT
  5
15256
330
1524B
100
AcDbEntity
  8
Defpoints
 62
     0
100
AcDbPoint
 10
984.127388619514
 20
2555.022053258
 30
0.0
  0
ENDBLK
  5
1524D
330
1524B
100
AcDbEntity
  8
0
100
AcDbBlockEnd
  0
BLOCK
  5
1525B
330
1525A
100
AcDbEntity
  8
0
100
AcDbBlockBegin
  2
*D11
 70
     1
 10
0.0
 20
0.0
 30
0.0
  3
*D11
  1

  0
LINE
  5
1525D
330
1525A
100
AcDbEntity
  8
Dim
 62
     0
370
    -2
100
AcDbLine
 10
997.6781250876478
 20
2418.919841436466
 30
0.0
 11
1111.506412015596
 21
2418.919841436466
 31
0.0
  0
LINE
  5
1525E
330
1525A
100
AcDbEntity
  8
Dim
 62
     0
370
    -2
100
AcDbLine
 10
1002.110322217884
 20
2039.169223455508
 30
0.0
 11
1111.506412015596
 21
2039.169223455508
 31
0.0
  0
LINE
  5
1525F
330
1525A
100
AcDbEntity
  8
Dim
 62
     0
370
    -2
100
AcDbLine
 10
1111.506412015596
 20
2408.920451788028
 30
0.0
 11
1111.506412015596
 21
2049.168613103946
 31
0.0
  0
INSERT
  5
15260
330
1525A
100
AcDbEntity
  8
Dim
 62
     0
370
    -2
100
AcDbBlockReference
  2
_DOT
 10
1111.506412015596
 20
2418.919841436466
 30
0.0
 41
9.999389648437498
 42
9.999389648437498
 43
9.999389648437498
 50
90.0
  0
INSERT
  5
15261
330
1525A
100
AcDbEntity
  8
Dim
 62
     0
370
    -2
100
AcDbBlockReference
  2
_DOT
 10
1111.506412015596
 20
2039.169223455508
 30
0.0
 41
9.999389648437498
 42
9.999389648437498
 43
9.999389648437498
 50
270.0
  0
MTEXT
  5
15262
330
1525A
100
AcDbEntity
  8
Dim
 62
     0
100
AcDbMText
 10
1089.28552058756
 20
2229.044532445987
 30
0.0
 40
24.4326171875
 41
0.0
 46
0.0
 71
     5
 72
     1
  1
\A1;380
  7
ＭＳ ゴシック
 11
0.0
 21
1.0
 31
0.0
 73
     1
 44
1.0
  0
POINT
  5
15263
330
1525A
100
AcDbEntity
  8
Defpoints
 62
     0
100
AcDbPoint
 10
972.6781250876478
 20
2418.919841436466
 30
0.0
  0
POINT
  5
15264
330
1525A
100
AcDbEntity
  8
Defpoints
 62
     0
100
AcDbPoint
 10
977.1103222178839
 20
2039.169223455508
 30
0.0
  0
POINT
  5
15265
330
1525A
100
AcDbEntity
  8
Defpoints
 62
     0
100
AcDbPoint
 10
1111.506412015596
 20
2039.169223455508
 30
0.0
  0
ENDBLK
  5
1525C
330
1525A
100
AcDbEntity
  8
0
100
AcDbBlockEnd
  0
BLOCK
  5
1526A
330
15269
100
AcDbEntity
  8
0
100
AcDbBlockBegin
  2
*D12
 70
     1
 10
0.0
 20
0.0
 30
0.0
  3
*D12
  1

  0
LINE
  5
1526C
330
15269
100
AcDbEntity
  8
Dim
 62
     0
370
    -2
100
AcDbLine
 10
387.3452116480785
 20
2014.165803143182
 30
0.0
 11
387.3452116480785
 21
1894.074817022464
 31
0.0
  0
LINE
  5
1526D
330
15269
100
AcDbEntity
  8
Dim
 62
     0
370
    -2
100
AcDbLine
 10
981.2124695688373
 20
2018.088845493063
 30
0.0
 11
981.2124695688373
 21
1894.074817022464
 31
0.0
  0
LINE
  5
1526E
330
15269
100
AcDbEntity
  8
Dim
 62
     0
370
    -2
100
AcDbLine
 10
397.344601296516
 20
1894.074817022464
 30
0.0
 11
971.2130799203998
 21
1894.074817022464
 31
0.0
  0
INSERT
  5
1526F
330
15269
100
AcDbEntity
  8
Dim
 62
     0
370
    -2
100
AcDbBlockReference
  2
_DOT
 10
387.3452116480785
 20
1894.074817022464
 30
0.0
 41
9.999389648437498
 42
9.999389648437498
 43
9.999389648437498
 50
180.0
  0
INSERT
  5
15270
330
15269
100
AcDbEntity
  8
Dim
 62
     0
370
    -2
100
AcDbBlockReference
  2
_DOT
 10
981.2124695688373
 20
1894.074817022464
 30
0.0
 41
9.999389648437498
 42
9.999389648437498
 43
9.999389648437498
  0
MTEXT
  5
15271
330
15269
100
AcDbEntity
  8
Dim
 62
     0
100
AcDbMText
 10
684.2788406084574
 20
1916.295708450499
 30
0.0
 40
24.4326171875
 41
0.0
 46
0.0
 71
     5
 72
     1
  1
\A1;590
  7
ＭＳ ゴシック
 73
     1
 44
1.0
  0
POINT
  5
15272
330
15269
100
AcDbEntity
  8
Defpoints
 62
     0
100
AcDbPoint
 10
387.3452116480785
 20
2039.165803143182
 30
0.0
  0
POINT
  5
15273
330
15269
100
AcDbEntity
  8
Defpoints
 62
     0
100
AcDbPoint
 10
981.2124695688373
 20
2043.088845493063
 30
0.0
  0
POINT
  5
15274
330
15269
100
AcDbEntity
  8
Defpoints
 62
     0
100
AcDbPoint
 10
981.2124695688373
 20
1894.074817022464
 30
0.0
  0
ENDBLK
  5
1526B
330
15269
100
AcDbEntity
  8
0
100
AcDbBlockEnd
  0
BLOCK
  5
1527B
330
1527A
100
AcDbEntity
  8
0
100
AcDbBlockBegin
  2
*D13
 70
     1
 10
0.0
 20
0.0
 30
0.0
  3
*D13
  1

  0
LINE
  5
1527D
330
1527A
100
AcDbEntity
  8
Dim
 62
     0
370
    -2
100
AcDbLine
 10
366.9210208425636
 20
2416.010020879825
 30
0.0
 11
246.9397021945035
 21
2416.010020879825
 31
0.0
  0
LINE
  5
1527E
330
1527A
100
AcDbEntity
  8
Dim
 62
     0
370
    -2
100
AcDbLine
 10
359.3719256149984
 20
2042.121730474551
 30
0.0
 11
246.9397021945035
 21
2042.121730474551
 31
0.0
  0
LINE
  5
1527F
330
1527A
100
AcDbEntity
  8
Dim
 62
     0
370
    -2
100
AcDbLine
 10
246.9397021945035
 20
2406.010631231387
 30
0.0
 11
246.9397021945035
 21
2052.121120122988
 31
0.0
  0
INSERT
  5
15280
330
1527A
100
AcDbEntity
  8
Dim
 62
     0
370
    -2
100
AcDbBlockReference
  2
_DOT
 10
246.9397021945035
 20
2416.010020879825
 30
0.0
 41
9.999389648437498
 42
9.999389648437498
 43
9.999389648437498
 50
90.0
  0
INSERT
  5
15281
330
1527A
100
AcDbEntity
  8
Dim
 62
     0
370
    -2
100
AcDbBlockReference
  2
_DOT
 10
246.9397021945035
 20
2042.121730474551
 30
0.0
 41
9.999389648437498
 42
9.999389648437498
 43
9.999389648437498
 50
270.0
  0
MTEXT
  5
15282
330
1527A
100
AcDbEntity
  8
Dim
 62
     0
100
AcDbMText
 10
224.7188107664681
 20
2229.065875677188
 30
0.0
 40
24.4326171875
 41
0.0
 46
0.0
 71
     5
 72
     1
  1
\A1;370
  7
ＭＳ ゴシック
 11
7.601658078030867E-17
 21
1.0
 31
0.0
 73
     1
 44
1.0
  0
POINT
  5
15283
330
1527A
100
AcDbEntity
  8
Defpoints
 62
     0
100
AcDbPoint
 10
391.9210208425636
 20
2416.010020879825
 30
0.0
  0
POINT
  5
15284
330
1527A
100
AcDbEntity
  8
Defpoints
 62
     0
100
AcDbPoint
 10
384.3719256149984
 20
2042.121730474551
 30
0.0
  0
POINT
  5
15285
330
1527A
100
AcDbEntity
  8
Defpoints
 62
     0
100
AcDbPoint
 10
246.9397021945035
 20
2042.121730474551
 30
0.0
  0
ENDBLK
  5
1527C
330
1527A
100
AcDbEntity
  8
0
100
AcDbBlockEnd
  0
BLOCK
  5
1528C
330
1528B
100
AcDbEntity
  8
0
100
AcDbBlockBegin
  2
*D14
 70
     1
 10
0.0
 20
0.0
 30
0.0
  3
*D14
  1

  0
LINE
  5
1528E
330
1528B
100
AcDbEntity
  8
Dim
 62
     0
370
    -2
100
AcDbLine
 10
417.5080062793481
 20
1101.89348925444
 30
0.0
 11
417.5080062793481
 21
1013.006584721969
 31
0.0
  0
LINE
  5
1528F
330
1528B
100
AcDbEntity
  8
Dim
 62
     0
370
    -2
100
AcDbLine
 10
951.0330868923262
 20
1101.893535896687
 30
0.0
 11
951.0330868923262
 21
1013.006584721969
 31
0.0
  0
LINE
  5
15290
330
1528B
100
AcDbEntity
  8
Dim
 62
     0
370
    -2
100
AcDbLine
 10
427.5073959277856
 20
1013.006584721969
 30
0.0
 11
941.0336972438887
 21
1013.006584721969
 31
0.0
  0
INSERT
  5
15291
330
1528B
100
AcDbEntity
  8
Dim
 62
     0
370
    -2
100
AcDbBlockReference
  2
_DOT
 10
417.5080062793481
 20
1013.006584721969
 30
0.0
 41
9.999389648437498
 42
9.999389648437498
 43
9.999389648437498
 50
180.0
  0
INSERT
  5
15292
330
1528B
100
AcDbEntity
  8
Dim
 62
     0
370
    -2
100
AcDbBlockReference
  2
_DOT
 10
951.0330868923262
 20
1013.006584721969
 30
0.0
 41
9.999389648437498
 42
9.999389648437498
 43
9.999389648437498
  0
MTEXT
  5
15293
330
1528B
100
AcDbEntity
  8
Dim
 62
     0
100
AcDbMText
 10
684.2705465858371
 20
1035.227476150004
 30
0.0
 40
24.4326171875
 41
0.0
 46
0.0
 71
     5
 72
     1
  1
\A1;535
  7
ＭＳ ゴシック
 73
     1
 44
1.0
  0
POINT
  5
15294
330
1528B
100
AcDbEntity
  8
Defpoints
 62
     0
100
AcDbPoint
 10
417.5080062793481
 20
1126.89348925444
 30
0.0
  0
POINT
  5
15295
330
1528B
100
AcDbEntity
  8
Defpoints
 62
     0
100
AcDbPoint
 10
951.0330868923262
 20
1126.893535896687
 30
0.0
  0
POINT
  5
15296
330
1528B
100
AcDbEntity
  8
Defpoints
 62
     0
100
AcDbPoint
 10
951.0330868923262
 20
1013.006584721969
 30
0.0
  0
ENDBLK
  5
1528D
330
1528B
100
AcDbEntity
  8
0
100
AcDbBlockEnd
  0
BLOCK
  5
1529B
330
1529A
100
AcDbEntity
  8
0
100
AcDbBlockBegin
  2
*D15
 70
     1
 10
0.0
 20
0.0
 30
0.0
  3
*D15
  1

  0
LINE
  5
1529D
330
1529A
100
AcDbEntity
  8
Dim
 62
     0
370
    -2
100
AcDbLine
 10
997.5284052896959
 20
1246.665176254557
 30
0.0
 11
1076.06857991567
 21
1246.665176254557
 31
0.0
  0
LINE
  5
1529E
330
1529A
100
AcDbEntity
  8
Dim
 62
     0
370
    -2
100
AcDbLine
 10
960.0660061788333
 20
1125.665168185425
 30
0.0
 11
1076.06857991567
 21
1125.665168185425
 31
0.0
  0
LINE
  5
1529F
330
1529A
100
AcDbEntity
  8
Dim
 62
     0
370
    -2
100
AcDbLine
 10
1076.06857991567
 20
1236.66578660612
 30
0.0
 11
1076.06857991567
 21
1135.664557833863
 31
0.0
  0
INSERT
  5
152A0
330
1529A
100
AcDbEntity
  8
Dim
 62
     0
370
    -2
100
AcDbBlockReference
  2
_DOT
 10
1076.06857991567
 20
1246.665176254557
 30
0.0
 41
9.999389648437498
 42
9.999389648437498
 43
9.999389648437498
 50
90.0
  0
INSERT
  5
152A1
330
1529A
100
AcDbEntity
  8
Dim
 62
     0
370
    -2
100
AcDbBlockReference
  2
_DOT
 10
1076.06857991567
 20
1125.665168185425
 30
0.0
 41
9.999389648437498
 42
9.999389648437498
 43
9.999389648437498
 50
270.0
  0
MTEXT
  5
152A2
330
1529A
100
AcDbEntity
  8
Dim
 62
     0
100
AcDbMText
 10
1053.847688487635
 20
1186.165172219991
 30
0.0
 40
24.4326171875
 41
0.0
 46
0.0
 71
     5
 72
     1
  1
\A1;120
  7
ＭＳ ゴシック
 11
0.0
 21
1.0
 31
0.0
 73
     1
 44
1.0
  0
POINT
  5
152A3
330
1529A
100
AcDbEntity
  8
Defpoints
 62
     0
100
AcDbPoint
 10
972.5284052896959
 20
1246.665176254557
 30
0.0
  0
POINT
  5
152A4
330
1529A
100
AcDbEntity
  8
Defpoints
 62
     0
100
AcDbPoint
 10
935.0660061788333
 20
1125.665168185425
 30
0.0
  0
POINT
  5
152A5
330
1529A
100
AcDbEntity
  8
Defpoints
 62
     0
100
AcDbPoint
 10
1076.06857991567
 20
1125.665168185425
 30
0.0
  0
ENDBLK
  5
1529C
330
1529A
100
AcDbEntity
  8
0
100
AcDbBlockEnd
  0
BLOCK
  5
152AA
330
152A9
100
AcDbEntity
  8
0
100
AcDbBlockBegin
  2
*D16
 70
     1
 10
0.0
 20
0.0
 30
0.0
  3
*D16
  1

  0
LINE
  5
152AC
330
152A9
100
AcDbEntity
  8
Dim
 62
     0
370
    -2
100
AcDbLine
 10
1437.076818735121
 20
1101.89354106006
 30
0.0
 11
1437.076818735121
 21
1013.006584721969
 31
0.0
  0
LINE
  5
152AD
330
152A9
100
AcDbEntity
  8
Dim
 62
     0
370
    -2
100
AcDbLine
 10
1750.601899348103
 20
1101.893541060058
 30
0.0
 11
1750.601899348103
 21
1013.006584721969
 31
0.0
  0
LINE
  5
152AE
330
152A9
100
AcDbEntity
  8
Dim
 62
     0
370
    -2
100
AcDbLine
 10
1447.076208383558
 20
1013.006584721969
 30
0.0
 11
1740.602509699665
 21
1013.006584721969
 31
0.0
  0
INSERT
  5
152AF
330
152A9
100
AcDbEntity
  8
Dim
 62
     0
370
    -2
100
AcDbBlockReference
  2
_DOT
 10
1437.076818735121
 20
1013.006584721969
 30
0.0
 41
9.999389648437498
 42
9.999389648437498
 43
9.999389648437498
 50
180.0
  0
INSERT
  5
152B0
330
152A9
100
AcDbEntity
  8
Dim
 62
     0
370
    -2
100
AcDbBlockReference
  2
_DOT
 10
1750.601899348103
 20
1013.006584721969
 30
0.0
 41
9.999389648437498
 42
9.999389648437498
 43
9.999389648437498
  0
MTEXT
  5
152B1
330
152A9
100
AcDbEntity
  8
Dim
 62
     0
100
AcDbMText
 10
1593.839359041612
 20
1035.227476150005
 30
0.0
 40
24.4326171875
 41
0.0
 46
0.0
 71
     5
 72
     1
  1
\A1;315
  7
ＭＳ ゴシック
 73
     1
 44
1.0
  0
POINT
  5
152B2
330
152A9
100
AcDbEntity
  8
Defpoints
 62
     0
100
AcDbPoint
 10
1437.076818735121
 20
1126.89354106006
 30
0.0
  0
POINT
  5
152B3
330
152A9
100
AcDbEntity
  8
Defpoints
 62
     0
100
AcDbPoint
 10
1750.601899348103
 20
1126.893541060058
 30
0.0
  0
POINT
  5
152B4
330
152A9
100
AcDbEntity
  8
Defpoints
 62
     0
100
AcDbPoint
 10
1750.601899348103
 20
1013.006584721969
 30
0.0
  0
ENDBLK
  5
152AB
330
152A9
100
AcDbEntity
  8
0
100
AcDbBlockEnd
  0
BLOCK
  5
152B9
330
152B8
100
AcDbEntity
  8
0
100
AcDbBlockBegin
  2
*D17
 70
     1
 10
0.0
 20
0.0
 30
0.0
  3
*D17
  1

  0
LINE
  5
152BB
330
152B8
100
AcDbEntity
  8
Dim
 62
     0
370
    -2
100
AcDbLine
 10
1620.168331985668
 20
1246.665166556465
 30
0.0
 11
1595.901207775541
 21
1246.665166556465
 31
0.0
  0
LINE
  5
152BC
330
152B8
100
AcDbEntity
  8
Dim
 62
     0
370
    -2
100
AcDbLine
 10
1620.168331985668
 20
1155.207118385923
 30
0.0
 11
1595.901207775541
 21
1155.207118385923
 31
0.0
  0
LINE
  5
152BD
330
152B8
100
AcDbEntity
  8
Dim
 62
     0
370
    -2
100
AcDbLine
 10
1595.901207775541
 20
1246.665166556465
 30
0.0
 11
1595.901207775541
 21
1404.942315928153
 31
0.0
  0
LINE
  5
152BE
330
152B8
100
AcDbEntity
  8
Dim
 62
     0
370
    -2
100
AcDbLine
 10
1595.901207775541
 20
1236.665776908028
 30
0.0
 11
1595.901207775541
 21
1165.20650803436
 31
0.0
  0
LINE
  5
152BF
330
152B8
100
AcDbEntity
  8
Dim
 62
     0
370
    -2
100
AcDbLine
 10
1595.901207775541
 20
1236.665776908028
 30
0.0
 11
1595.901207775541
 21
1226.66638725959
 31
0.0
  0
INSERT
  5
152C0
330
152B8
100
AcDbEntity
  8
Dim
 62
     0
370
    -2
100
AcDbBlockReference
  2
_DOT
 10
1595.901207775541
 20
1246.665166556465
 30
0.0
 41
9.999389648437498
 42
9.999389648437498
 43
9.999389648437498
 50
90.0
  0
INSERT
  5
152C1
330
152B8
100
AcDbEntity
  8
Dim
 62
     0
370
    -2
100
AcDbBlockReference
  2
_DOT
 10
1595.901207775541
 20
1155.207118385923
 30
0.0
 41
9.999389648437498
 42
9.999389648437498
 43
9.999389648437498
 50
270.0
  0
MTEXT
  5
152C2
330
152B8
100
AcDbEntity
  8
Dim
 62
     0
100
AcDbMText
 10
1571.639427479024
 20
1335.803130890747
 30
0.0
 40
24.4326171875
 41
0.0
 46
0.0
 71
     5
 72
     1
  1
\A1;88(深さ)
  7
ＭＳ ゴシック
 11
0.0
 21
1.0
 31
0.0
 73
     1
 44
1.0
  0
POINT
  5
152C3
330
152B8
100
AcDbEntity
  8
Defpoints
 62
     0
100
AcDbPoint
 10
1595.168331985668
 20
1246.665166556465
 30
0.0
  0
POINT
  5
152C4
330
152B8
100
AcDbEntity
  8
Defpoints
 62
     0
100
AcDbPoint
 10
1595.168331985668
 20
1155.207118385923
 30
0.0
  0
POINT
  5
152C5
330
152B8
100
AcDbEntity
  8
Defpoints
 62
     0
100
AcDbPoint
 10
1595.901207775541
 20
1155.207118385923
 30
0.0
  0
ENDBLK
  5
152BA
330
152B8
100
AcDbEntity
  8
0
100
AcDbBlockEnd
  0
BLOCK
  5
152CB
330
152CA
100
AcDbEntity
  8
0
100
AcDbBlockBegin
  2
*D18
 70
     1
 10
0.0
 20
0.0
 30
0.0
  3
*D18
  1

  0
LINE
  5
152CD
330
152CA
100
AcDbEntity
  8
Dim
 62
     0
370
    -2
100
AcDbLine
 10
1783.598117586536
 20
1144.163998457672
 30
0.0
 11
1783.598117586536
 21
937.7305995718629
 31
0.0
  0
LINE
  5
152CE
330
152CA
100
AcDbEntity
  8
Dim
 62
     0
370
    -2
100
AcDbLine
 10
1593.839359041612
 20
988.0065847219689
 30
0.0
 11
1593.839359041612
 21
937.7305995718629
 31
0.0
  0
LINE
  5
152CF
330
152CA
100
AcDbEntity
  8
Dim
 62
     0
370
    -2
100
AcDbLine
 10
1773.598727938098
 20
937.7305995718629
 30
0.0
 11
1603.83874869005
 21
937.7305995718629
 31
0.0
  0
INSERT
  5
152D0
330
152CA
100
AcDbEntity
  8
Dim
 62
     0
370
    -2
100
AcDbBlockReference
  2
_DOT
 10
1783.598117586536
 20
937.7305995718629
 30
0.0
 41
9.999389648437498
 42
9.999389648437498
 43
9.999389648437498
  0
INSERT
  5
152D1
330
152CA
100
AcDbEntity
  8
Dim
 62
     0
370
    -2
100
AcDbBlockReference
  2
_DOT
 10
1593.839359041612
 20
937.7305995718629
 30
0.0
 41
9.999389648437498
 42
9.999389648437498
 43
9.999389648437498
 50
180.0
  0
MTEXT
  5
152D2
330
152CA
100
AcDbEntity
  8
Dim
 62
     0
100
AcDbMText
 10
1688.718738314074
 20
959.9514909998984
 30
0.0
 40
24.4326171875
 41
0.0
 46
0.0
 71
     5
 72
     1
  1
\A1;190
  7
ＭＳ ゴシック
 73
     1
 44
1.0
  0
POINT
  5
152D3
330
152CA
100
AcDbEntity
  8
Defpoints
 62
     0
100
AcDbPoint
 10
1783.598117586536
 20
1169.163998457672
 30
0.0
  0
POINT
  5
152D4
330
152CA
100
AcDbEntity
  8
Defpoints
 62
     0
100
AcDbPoint
 10
1593.839359041612
 20
1013.006584721969
 30
0.0
  0
POINT
  5
152D5
330
152CA
100
AcDbEntity
  8
Defpoints
 62
     0
100
AcDbPoint
 10
1593.839359041612
 20
937.7305995718629
 30
0.0
  0
ENDBLK
  5
152CC
330
152CA
100
AcDbEntity
  8
0
100
AcDbBlockEnd
  0
BLOCK
  5
15307
330
15306
100
AcDbEntity
  8
0
 48
0.5
100
AcDbBlockBegin
  2
_None
 70
     0
 10
0.0
 20
0.0
 30
0.0
  3
_None
  1
_None
  0
ENDBLK
  5
15308
330
15306
100
AcDbEntity
  8
0
 48
0.5
100
AcDbBlockEnd
  0
BLOCK
  5
1534B
330
1534A
100
AcDbEntity
  8
0
100
AcDbBlockBegin
  2
*D20
 70
     1
 10
0.0
 20
0.0
 30
0.0
  3
*D20
  1

  0
LINE
  5
1534D
330
1534A
100
AcDbEntity
  8
Dim
 62
     0
370
    -2
100
AcDbLine
 10
360.9243484443869
 20
1246.475868636954
 30
0.0
 11
257.2002678900951
 21
1246.475868636954
 31
0.0
  0
LINE
  5
1534E
330
1534A
100
AcDbEntity
  8
Dim
 62
     0
370
    -2
100
AcDbLine
 10
363.0082318341902
 20
1156.616188461173
 30
0.0
 11
257.2002678900951
 21
1156.616188461173
 31
0.0
  0
LINE
  5
1534F
330
1534A
100
AcDbEntity
  8
Dim
 62
     0
370
    -2
100
AcDbLine
 10
257.2002678900951
 20
1236.476478988516
 30
0.0
 11
257.2002678900951
 21
1166.61557810961
 31
0.0
  0
INSERT
  5
15350
330
1534A
100
AcDbEntity
  8
Dim
 62
     0
370
    -2
100
AcDbBlockReference
  2
_DOT
 10
257.2002678900951
 20
1246.475868636954
 30
0.0
 41
9.999389648437498
 42
9.999389648437498
 43
9.999389648437498
 50
90.0
  0
INSERT
  5
15351
330
1534A
100
AcDbEntity
  8
Dim
 62
     0
370
    -2
100
AcDbBlockReference
  2
_DOT
 10
257.2002678900951
 20
1156.616188461173
 30
0.0
 41
9.999389648437498
 42
9.999389648437498
 43
9.999389648437498
 50
270.0
  0
MTEXT
  5
15352
330
1534A
100
AcDbEntity
  8
Dim
 62
     0
100
AcDbMText
 10
234.9839592963451
 20
1201.546028549064
 30
0.0
 40
24.4326171875
 41
0.0
 46
0.0
 71
     5
 72
     1
  1
\A1;90
  7
ＭＳ ゴシック
 11
0.0
 21
1.0
 31
0.0
 73
     1
 44
1.0
  0
POINT
  5
15353
330
1534A
100
AcDbEntity
  8
Defpoints
 62
     0
100
AcDbPoint
 10
385.9243484443869
 20
1246.475868636954
 30
0.0
  0
POINT
  5
15354
330
1534A
100
AcDbEntity
  8
Defpoints
 62
     0
100
AcDbPoint
 10
388.0082318341902
 20
1156.616188461173
 30
0.0
  0
POINT
  5
15355
330
1534A
100
AcDbEntity
  8
Defpoints
 62
     0
100
AcDbPoint
 10
257.2002678900951
 20
1156.616188461173
 30
0.0
  0
ENDBLK
  5
1534C
330
1534A
100
AcDbEntity
  8
0
100
AcDbBlockEnd
  0
ENDSEC
  0
SECTION
  2
ENTITIES
  0
MTEXT
  5
177
330
A
100
AcDbEntity
  8
template
390
1D
100
AcDbMText
 10
82.00000000048226
 20
348.023957835319
 30
0.0
 40
16.28841145833333
 41
0.0
 46
0.0
 71
     1
 72
     1
  1
品名
  7
ＭＳ ゴシック
 73
     1
 44
0.7828267384257843
  0
MTEXT
  5
178
330
A
100
AcDbEntity
  8
template
390
1D
100
AcDbMText
 10
82.00000000048226
 20
263.0239578353188
 30
0.0
 40
16.28841145833333
 41
0.0
 46
0.0
 71
     1
 72
     1
  1
仕様
  7
ＭＳ ゴシック
 73
     1
 44
0.7828267384257843
  0
LINE
  5
179
330
A
100
AcDbEntity
  8
template
390
1D
100
AcDbLine
 10
2025.0
 20
271.4388797103189
 30
0.0
 11
75.00000000000023
 21
271.4388797103189
 31
0.0
  0
LWPOLYLINE
  5
17A
330
A
100
AcDbEntity
  8
template
390
1D
100
AcDbPolyline
 90
        5
 70
   128
 43
0.0
 10
2025.0
 20
2901.438879710319
 10
75.00000000000023
 20
2901.438879710319
 10
75.00000000000023
 20
101.4388797103188
 10
2025.0
 20
101.4388797103188
 10
2025.0
 20
2901.438879710319
  0
LINE
  5
17B
330
A
100
AcDbEntity
  8
template
390
1D
100
AcDbLine
 10
2025.0
 20
356.4388797103188
 30
0.0
 11
75.00000000000023
 21
356.4388797103188
 31
0.0
  0
LINE
  5
17C
330
A
100
AcDbEntity
  8
template
390
1D
100
AcDbLine
 10
2025.000000000482
 20
186.4388797103189
 30
0.0
 11
1272.000000000482
 21
186.4388797103189
 31
0.0
  0
MTEXT
  5
17E
330
A
100
AcDbEntity
  8
template
390
1D
100
AcDbMText
 10
1301.871406252743
 20
156.5284852370108
 30
0.0
 40
24.4326171875
 41
0.0
 46
0.0
 71
     1
 72
     1
  1
大洋金物株式会社 ティーフォルム事業部
  7
ＭＳ ゴシック
 73
     1
 44
0.7828267384257843
  0
MTEXT
  5
180
330
A
100
AcDbEntity
  8
template
390
1D
100
AcDbMText
 10
1834.000000000742
 20
234.4414968978188
 30
0.0
 40
24.4326171875
 41
0.0
 46
0.0
 71
     1
 72
     1
  1
1:10
  7
ＭＳ ゴシック
 73
     1
 44
0.7828267384257843
  0
MTEXT
  5
181
330
A
100
AcDbEntity
  8
template
390
1D
100
AcDbMText
 10
1781.000000000742
 20
263.0239578353188
 30
0.0
 40
16.28841145833333
 41
0.0
 46
0.0
 71
     1
 72
     1
  1
縮尺
  7
ＭＳ ゴシック
 73
     1
 44
0.7828267384257843
  0
LINE
  5
182
330
A
100
AcDbEntity
  8
template
390
1D
100
AcDbLine
 10
1774.000000000742
 20
186.4388797103189
 30
0.0
 11
1774.000000000742
 21
271.4388797103189
 31
0.0
  0
MTEXT
  5
183
330
A
100
AcDbEntity
  8
template
390
1D
100
AcDbMText
 10
1530.000000000742
 20
263.0239578353188
 30
0.0
 40
16.28841145833333
 41
0.0
 46
0.0
 71
     1
 72
     1
  1
容量
  7
ＭＳ ゴシック
 73
     1
 44
0.7828267384257843
  0
LINE
  5
184
330
A
100
AcDbEntity
  8
template
390
1D
100
AcDbLine
 10
1523.000000000742
 20
186.4388797103189
 30
0.0
 11
1523.000000000742
 21
271.4388797103189
 31
0.0
  0
MTEXT
  5
185
330
A
100
AcDbEntity
  8
template
390
1D
100
AcDbMText
 10
1279.000000000742
 20
348.023957835319
 30
0.0
 40
16.28841145833333
 41
0.0
 46
0.0
 71
     1
 72
     1
  1
品番
  7
ＭＳ ゴシック
 73
     1
 44
0.7828267384257843
  0
MTEXT
  5
186
330
A
100
AcDbEntity
  8
template
390
1D
100
AcDbMText
 10
1279.000000000742
 20
263.0239578353188
 30
0.0
 40
16.28841145833333
 41
0.0
 46
0.0
 71
     1
 72
     1
  1
重量
  7
ＭＳ ゴシック
 73
     1
 44
0.7828267384257843
  0
MTEXT
  5
187
330
A
100
AcDbEntity
  8
template
390
1D
100
AcDbMText
 10
1332.000000000742
 20
319.4414968978188
 30
0.0
 40
24.4326171875
 41
0.0
 46
24.4326171875
 71
     1
 72
     1
  1
{ADF70-3205-001}
  7
ＭＳ ゴシック
 73
     1
 44
0.7828267384257843
1001
ACAD
1000
ACAD_MTEXT_DEFINED_HEIGHT_BEGIN
1070
    46
1040
24.4326171875
1000
ACAD_MTEXT_DEFINED_HEIGHT_END
  0
LINE
  5
188
330
A
100
AcDbEntity
  8
template
390
1D
100
AcDbLine
 10
1272.000000000742
 20
101.4388797103188
 30
0.0
 11
1272.000000000742
 21
356.4388797103188
 31
0.0
  0
MTEXT
  5
189
330
A
100
AcDbEntity
  8
template
390
1D
100
AcDbMText
 10
135.0000000004822
 20
319.4414968978188
 30
0.0
 40
24.4326171875
 41
0.0
 46
27.53672361022102
 71
     1
 72
     1
  1
{洗面器・手洗器 -CATALANO, New Green-}
  7
ＭＳ ゴシック
 73
     1
 44
0.7828267384257843
1001
ACAD
1000
ACAD_MTEXT_DEFINED_HEIGHT_BEGIN
1070
    46
1040
27.53672361022102
1000
ACAD_MTEXT_DEFINED_HEIGHT_END
  0
MTEXT
  5
18A
330
A
100
AcDbEntity
  8
template
 62
     1
390
1D
100
AcDbMText
 10
135.0000000004822
 20
234.4414968978188
 30
0.0
 40
24.4326171875
 41
0.0
 46
68.41301022551426
 71
     1
 72
     1
  1
{\C256;カウンター置き/オーバーフローなし\P陶器/ホワイト}
  7
ＭＳ ゴシック
 73
     1
 44
0.9822934569727008
1001
ACAD
1000
ACAD_MTEXT_DEFINED_HEIGHT_BEGIN
1070
    46
1040
68.41301022551426
1000
ACAD_MTEXT_DEFINED_HEIGHT_END
  0
MTEXT
  5
1A6
330
A
100
AcDbEntity
  8
template
390
1D
100
AcDbMText
 10
1329.126672531911
 20
234.4414968978189
 30
0.0
 40
24.4326171875
 41
0.0
 46
28.40135167875453
 71
     1
 72
     1
  1
{13.5kg}
  7
ＭＳ ゴシック
 73
     1
 44
0.7828267384257843
1001
ACAD
1000
ACAD_MTEXT_DEFINED_HEIGHT_BEGIN
1070
    46
1040
28.40135167875453
1000
ACAD_MTEXT_DEFINED_HEIGHT_END
  0
INSERT
  5
3D0
330
A
100
AcDbEntity
  8
template
100
AcDbBlockReference
  2
名称未設定-1
 10
1873.559250554905
 20
30.23897196054438
 30
0.0
 41
0.7619999999999999
 42
0.7619999999999999
 43
0.7619999999999999
  0
MTEXT
  5
BDB
102
{ACAD_XDICTIONARY
360
BDC
102
}
330
A
100
AcDbEntity
  8
template
  6
Continuous
100
AcDbMText
 10
78.95663872901252
 20
86.10730750352229
 30
0.0
 40
23.0
 41
0.0
 46
23.0
 71
     1
 72
     1
  1
{20230609M}
  7
ＭＳ ゴシック
 73
     1
 44
1.0
1001
ACAD
1000
ACAD_MTEXT_DEFINED_HEIGHT_BEGIN
1070
    46
1040
23.0
1000
ACAD_MTEXT_DEFINED_HEIGHT_END
  0
LWPOLYLINE
  5
BEE
330
A
100
AcDbEntity
  8
PRINT BORDER
100
AcDbPolyline
 90
        4
 70
     1
 43
0.0
 10
0.0
 20
0.0
 10
0.0
 20
2970.0
 10
2100.0
 20
2970.0
 10
2100.0
 20
0.0
  0
INSERT
  5
1273
330
A
100
AcDbEntity
  8
0
 62
     7
100
AcDbBlockReference
  2
BLOCK_2
 10
591.2037060744204
 20
943.564364962162
 30
0.0
  0
INSERT
  5
127B
330
A
100
AcDbEntity
  8
0
 62
     7
100
AcDbBlockReference
  2
BLOCK_2
 10
1291.863324028138
 20
1038.76992320659
 30
0.0
  0
INSERT
  5
127C
330
A
100
AcDbEntity
  8
0
 62
     7
100
AcDbBlockReference
  2
BLOCK_2
 10
652.1648429406905
 20
1595.641631888467
 30
0.0
  0
INSERT
  5
3B99
330
A
100
AcDbEntity
  8
retino
100
AcDbBlockReference
  2
mobile_latù
 10
-92101.31485198285
 20
1730.415535296608
 30
0.0
  0
INSERT
  5
467E
330
A
100
AcDbEntity
  8
retino
100
AcDbBlockReference
  2
mobile_latù
 10
-100894.893236163
 20
1696.039721945452
 30
0.0
  0
INSERT
  5
527B
330
A
100
AcDbEntity
  8
retino
100
AcDbBlockReference
  2
mobile_latù
 10
-89900.42748460227
 20
2057.97116653715
 30
0.0
  0
INSERT
  5
527C
330
A
100
AcDbEntity
  8
0
100
AcDbBlockReference
  2
.TD_SECTION_1
 10
225818104807.5758
 20
2467.422636311911
 30
0.0
  0
INSERT
  5
527D
330
A
100
AcDbEntity
  8
0
100
AcDbBlockReference
  2
.TD_SECTION_2
 10
225818170343.5758
 20
2467.422636311911
 30
0.0
  0
INSERT
  5
527E
330
A
100
AcDbEntity
  8
0
  6
Continuous
 62
     0
370
     0
100
AcDbBlockReference
  2
.TD_SECTION_1
 10
-8769.816836312122
 20
2681.893749185237
 30
0.0
  0
INSERT
  5
527F
330
A
100
AcDbEntity
  8
0
  6
Continuous
 62
     0
370
     0
100
AcDbBlockReference
  2
.TD_SECTION_2
 10
-9327.194994881458
 20
2989.447269387873
 30
0.0
  0
INSERT
  5
5280
330
A
100
AcDbEntity
  8
0
  6
Continuous
 62
     0
370
     0
100
AcDbBlockReference
  2
.TD_SECTION_1
 10
-11193.31175928566
 20
763.8992218647024
 30
0.0
  0
INSERT
  5
5281
330
A
100
AcDbEntity
  8
0
  6
Continuous
 62
     0
370
     0
100
AcDbBlockReference
  2
.TD_SECTION_2
 10
-10905.35097055885
 20
465.7910675678274
 30
0.0
  0
INSERT
  5
5282
330
A
100
AcDbEntity
  8
0
  6
Continuous
 62
     0
370
     0
100
AcDbBlockReference
  2
.TD_SECTION_1
 10
-11064.96092844183
 20
698.0103962023752
 30
0.0
  0
INSERT
  5
5283
330
A
100
AcDbEntity
  8
0
  6
Continuous
 62
     0
370
     0
100
AcDbBlockReference
  2
.TD_SECTION_2
 10
-10776.90956354314
 20
399.8117572863596
 30
0.0
  0
INSERT
  5
5284
330
A
100
AcDbEntity
  8
0
  6
Continuous
 62
     0
370
     0
100
AcDbBlockReference
  2
.TD_SECTION_1
 10
-1462.487522281953
 20
1958.724372419401
 30
0.0
  0
INSERT
  5
5285
330
A
100
AcDbEntity
  8
0
  6
Continuous
 62
     0
370
     0
100
AcDbBlockReference
  2
.TD_SECTION_2
 10
-1135.18037048752
 20
1672.677238019987
 30
0.0
  0
INSERT
  5
5286
330
A
100
AcDbEntity
  8
0
  6
Continuous
 62
     0
370
     0
100
AcDbBlockReference
  2
.TD_SECTION_1
 10
704.608903935718
 20
-713.9911611042783
 30
0.0
  0
INSERT
  5
5287
330
A
100
AcDbEntity
  8
0
  6
Continuous
 62
     0
370
     0
100
AcDbBlockReference
  2
.TD_SECTION_2
 10
1319.461252263355
 20
-1311.565746065216
 30
0.0
  0
LINE
  5
145BC
330
A
100
AcDbEntity
  8
MODEL
100
AcDbLine
 10
480.479340620913
 20
1126.665133050721
 30
0.0
 11
437.4012454403492
 21
1126.66512947225
 31
0.0
  0
LINE
  5
145BD
330
A
100
AcDbEntity
  8
MODEL
100
AcDbLine
 10
931.1398738507924
 20
1126.665172636255
 30
0.0
 11
888.0617529961793
 21
1126.665169136051
 31
0.0
  0
LINE
  5
145C5
330
A
100
AcDbEntity
  8
MODEL
100
AcDbLine
 10
684.2705524631292
 20
1246.665151054253
 30
0.0
 11
386.8750061600301
 21
1246.665126583967
 31
0.0
  0
LINE
  5
145C8
330
A
100
AcDbEntity
  8
MODEL
100
AcDbLine
 10
980.8788370654838
 20
1246.665176984575
 30
0.0
 11
964.177973513908
 21
1246.665175524539
 31
0.0
  0
LINE
  5
145C9
330
A
100
AcDbEntity
  8
MODEL
100
AcDbLine
 10
964.177973513908
 20
1246.665175524539
 30
0.0
 11
684.2705524631292
 21
1246.665151054253
 31
0.0
  0
LINE
  5
145CA
330
A
100
AcDbEntity
  8
MODEL
100
AcDbLine
 10
868.0123034980461
 20
1125.665167117467
 30
0.0
 11
500.5288049177379
 21
1125.665134991037
 31
0.0
  0
LINE
  5
145D4
330
A
100
AcDbEntity
  8
MODEL
100
AcDbLine
 10
425.1114468616215
 20
1126.665128397842
 30
0.0
 11
437.4012454394579
 21
1126.66512947225
 31
0.0
  0
LINE
  5
145D5
330
A
100
AcDbEntity
  8
MODEL
100
AcDbLine
 10
931.1398738517273
 20
1126.665172636255
 30
0.0
 11
943.429670280977
 21
1126.665173710664
 31
0.0
  0
LINE
  5
145D6
330
A
100
AcDbEntity
  8
MODEL
100
AcDbLine
 10
488.3127997795636
 20
1125.66513392308
 30
0.0
 11
500.5288049177379
 21
1125.665134991037
 31
0.0
  0
LINE
  5
145D7
330
A
100
AcDbEntity
  8
MODEL
100
AcDbLine
 10
868.0123034980461
 20
1125.665167117467
 30
0.0
 11
880.2283065003048
 21
1125.665168185425
 31
0.0
  0
LINE
  5
145DB
102
{ACAD_REACTORS
330
15299
102
}
330
A
100
AcDbEntity
  8
MODEL
100
AcDbLine
 10
964.177973513908
 20
1246.665175524539
 30
0.0
 11
980.8788370654838
 21
1246.665176984575
 31
0.0
  0
LWPOLYLINE
  5
145E4
102
{ACAD_REACTORS
330
15349
102
}
330
A
100
AcDbEntity
  8
MODEL
100
AcDbPolyline
 90
        9
 70
     0
 43
0.0
 10
384.3752990669454
 20
1243.665138656486
 10
384.3961730903829
 20
1244.386330062736
 10
384.5117736763204
 20
1244.999061996329
 10
384.7211547798361
 20
1245.510048324454
 10
385.0248275703634
 20
1245.924354965079
 10
385.424752802297
 20
1246.245582992423
 10
385.9243484443869
 20
1246.475868636954
 10
386.5286346382345
 20
1246.615944320548
 10
387.2705398506369
 20
1246.665138656486
  0
LWPOLYLINE
  5
145E5
330
A
100
AcDbEntity
  8
MODEL
100
AcDbPolyline
 90
        9
 70
     0
 43
0.0
 10
984.1657806343283
 20
1243.665199691642
 10
984.1449066108908
 20
1244.386391097892
 10
984.0293060249533
 20
1244.999123031486
 10
983.8198944038595
 20
1245.510109359611
 10
983.5162445015158
 20
1245.924416000236
 10
983.1163421577658
 20
1246.245644027579
 10
982.6167083687033
 20
1246.475929672111
 10
982.0124603218283
 20
1246.615944320548
 10
981.2705169624533
 20
1246.665199691642
  0
LINE
  5
145EE
330
A
100
AcDbEntity
  8
MODEL
100
AcDbLine
 10
949.8850366644256
 20
1126.66517427501
 30
0.0
 11
943.429658315481
 21
1126.665173710663
 31
0.0
  0
LINE
  5
145EF
330
A
100
AcDbEntity
  8
MODEL
100
AcDbLine
 10
425.1114348961255
 20
1126.665128397841
 30
0.0
 11
418.6560565471827
 21
1126.665127833494
 31
0.0
  0
LINE
  5
145F9
330
A
100
AcDbEntity
  8
MODEL
100
AcDbLine
 10
482.7153969114224
 20
1125.665133433739
 30
0.0
 11
488.312793332856
 21
1125.665133923079
 31
0.0
  0
LINE
  5
145FA
330
A
100
AcDbEntity
  8
MODEL
100
AcDbLine
 10
880.2283000535972
 20
1125.665168185424
 30
0.0
 11
885.8256964750308
 21
1125.665168674764
 31
0.0
  0
ARC
  5
1460A
330
A
100
AcDbEntity
  8
MODEL
100
AcDbCircle
 10
482.7154244711746
 20
1128.66516969211
 30
0.0
 40
3.000036258497248
100
AcDbArc
 50
221.8106343929981
 51
269.999473653658
  0
ARC
  5
1460B
330
A
100
AcDbEntity
  8
MODEL
100
AcDbCircle
 10
885.8256683907366
 20
1128.665204933127
 30
0.0
 40
3.000036258494492
100
AcDbArc
 50
270.0005363640263
 51
318.1893872410124
  0
ARC
  5
1460E
330
A
100
AcDbEntity
  8
MODEL
100
AcDbCircle
 10
949.8850357554475
 20
1129.665175836301
 30
0.0
 40
3.000001561291421
100
AcDbArc
 50
270.000017360194
 51
314.999992657661
  0
ARC
  5
1460F
330
A
100
AcDbEntity
  8
MODEL
100
AcDbCircle
 10
418.6560569316171
 20
1129.665129394773
 30
0.0
 40
3.00000156127968
100
AcDbArc
 50
225.0000173600392
 51
269.9999926577797
  0
LINE
  5
1461A
330
A
100
AcDbEntity
  8
MODEL
100
AcDbLine
 10
984.1657740688606
 20
1243.665177271928
 30
0.0
 11
981.232436775068
 21
1159.665177015487
 31
0.0
  0
LINE
  5
1461B
330
A
100
AcDbEntity
  8
MODEL
100
AcDbLine
 10
384.3752986858144
 20
1243.665124836575
 30
0.0
 11
387.3086506666368
 21
1159.665125093016
 31
0.0
  0
LINE
  5
1461C
330
A
100
AcDbEntity
  8
MODEL
100
AcDbLine
 10
416.5347361268068
 20
1127.543807304482
 30
0.0
 11
389.9134134559336
 21
1154.165125320736
 31
0.0
  0
LINE
  5
1461D
330
A
100
AcDbEntity
  8
MODEL
100
AcDbLine
 10
952.0063569311678
 20
1127.543854116902
 30
0.0
 11
978.62767494742
 21
1154.165176787775
 31
0.0
  0
LWPOLYLINE
  5
14625
330
A
100
AcDbEntity
  8
MODEL
100
AcDbPolyline
 90
        8
 70
     0
 43
0.0
 10
978.6276946968283
 20
1154.165199691642
 10
979.244088739797
 20
1154.809059554923
 10
979.820504755422
 20
1155.488930160392
 10
980.3300872749533
 20
1156.219765121329
 10
980.7356658882345
 20
1157.012611801017
 10
981.0108734077658
 20
1157.859596664298
 10
981.1648651069845
 20
1158.737099105704
 10
981.2324310249533
 20
1159.665199691642
  0
LINE
  5
14639
330
A
100
AcDbEntity
  8
MODEL
100
AcDbLine
 10
966.114235210458
 20
2042.704384988687
 30
0.0
 11
966.1386942859117
 21
2042.710541255181
 31
0.0
  0
LINE
  5
1463A
330
A
100
AcDbEntity
  8
MODEL
100
AcDbLine
 10
402.4024137421329
 20
2042.710541317067
 30
0.0
 11
402.4268728242769
 21
2042.704385048722
 31
0.0
  0
LINE
  5
1463B
330
A
100
AcDbEntity
  8
MODEL
100
AcDbLine
 10
402.4268732057899
 20
2415.424547360287
 30
0.0
 11
402.4024141298742
 21
2415.418391093679
 31
0.0
  0
LINE
  5
1463C
330
A
100
AcDbEntity
  8
MODEL
100
AcDbLine
 10
966.1386946736529
 20
2415.418391031793
 30
0.0
 11
966.1142355914963
 21
2415.424547300139
 31
0.0
  0
LINE
  5
14657
330
A
100
AcDbEntity
  8
MODEL
100
AcDbLine
 10
964.1779562464671
 20
2415.674113897403
 30
0.0
 11
404.3631369105296
 21
2415.674113897403
 31
0.0
  0
LINE
  5
14658
330
A
100
AcDbEntity
  8
MODEL
100
AcDbLine
 10
404.3631369105296
 20
2415.674113897403
 30
0.0
 11
402.9271551600414
 21
2415.497783330997
 31
0.0
  0
LINE
  5
14659
330
A
100
AcDbEntity
  8
MODEL
100
AcDbLine
 10
402.9271551600414
 20
2415.497783330997
 30
0.0
 11
401.4998327723461
 21
2415.260112432559
 31
0.0
  0
LINE
  5
1465A
330
A
100
AcDbEntity
  8
MODEL
100
AcDbLine
 10
401.4998327723461
 20
2415.260112432559
 30
0.0
 11
400.0865713587718
 21
2414.947887090762
 31
0.0
  0
LINE
  5
1465B
330
A
100
AcDbEntity
  8
MODEL
100
AcDbLine
 10
400.0865713587718
 20
2414.947887090762
 30
0.0
 11
398.6973654261546
 21
2414.545756963809
 31
0.0
  0
LINE
  5
1465C
330
A
100
AcDbEntity
  8
MODEL
100
AcDbLine
 10
398.6973654261546
 20
2414.545756963809
 30
0.0
 11
397.3431555262523
 21
2414.038341192325
 31
0.0
  0
LINE
  5
1465D
330
A
100
AcDbEntity
  8
MODEL
100
AcDbLine
 10
397.3431555262523
 20
2414.038341192325
 30
0.0
 11
396.0384603968578
 21
2413.413768438419
 31
0.0
  0
LINE
  5
1465E
330
A
100
AcDbEntity
  8
MODEL
100
AcDbLine
 10
396.0384603968578
 20
2413.413768438419
 30
0.0
 11
394.8001791468578
 21
2412.666392950137
 31
0.0
  0
LINE
  5
1465F
330
A
100
AcDbEntity
  8
MODEL
100
AcDbLine
 10
394.8001791468578
 20
2412.666392950137
 30
0.0
 11
393.6437918177562
 21
2411.797740606387
 31
0.0
  0
LINE
  5
14660
330
A
100
AcDbEntity
  8
MODEL
100
AcDbLine
 10
393.6437918177562
 20
2411.797740606387
 30
0.0
 11
392.5815512171703
 21
2410.816081670841
 31
0.0
  0
LINE
  5
14661
330
A
100
AcDbEntity
  8
MODEL
100
AcDbLine
 10
392.5815512171703
 20
2410.816081670841
 30
0.0
 11
391.6219107142406
 21
2409.734172491153
 31
0.0
  0
LINE
  5
14662
330
A
100
AcDbEntity
  8
MODEL
100
AcDbLine
 10
391.6219107142406
 20
2409.734172491153
 30
0.0
 11
390.7691198817211
 21
2408.566081670841
 31
0.0
  0
LINE
  5
14663
330
A
100
AcDbEntity
  8
MODEL
100
AcDbLine
 10
390.7691198817211
 20
2408.566081670841
 30
0.0
 11
390.024475716682
 21
2407.325725225528
 31
0.0
  0
LINE
  5
14664
330
A
100
AcDbEntity
  8
MODEL
100
AcDbLine
 10
390.024475716682
 20
2407.325725225528
 30
0.0
 11
389.3885046473461
 21
2406.026744512637
 31
0.0
  0
LINE
  5
14665
330
A
100
AcDbEntity
  8
MODEL
100
AcDbLine
 10
389.3885046473461
 20
2406.026744512637
 30
0.0
 11
388.8580328455882
 21
2404.680919317325
 31
0.0
  0
LINE
  5
14666
330
A
100
AcDbEntity
  8
MODEL
100
AcDbLine
 10
388.8580328455882
 20
2404.680919317325
 30
0.0
 11
388.4285818568187
 21
2403.299449590762
 31
0.0
  0
LINE
  5
14667
330
A
100
AcDbEntity
  8
MODEL
100
AcDbLine
 10
388.4285818568187
 20
2403.299449590762
 30
0.0
 11
388.0937048426586
 21
2401.892223028262
 31
0.0
  0
LINE
  5
14668
330
A
100
AcDbEntity
  8
MODEL
100
AcDbLine
 10
388.0937048426586
 20
2401.892223028262
 30
0.0
 11
387.8437201014476
 21
2400.466991094669
 31
0.0
  0
LINE
  5
14669
330
A
100
AcDbEntity
  8
MODEL
100
AcDbLine
 10
387.8437201014476
 20
2400.466991094669
 30
0.0
 11
387.6622702113109
 21
2398.971873907169
 31
0.0
  0
LINE
  5
1466A
330
A
100
AcDbEntity
  8
MODEL
100
AcDbLine
 10
387.6622702113109
 20
2398.971873907169
 30
0.0
 11
387.4007498255687
 21
2393.67042127045
 31
0.0
  0
LINE
  5
1466B
330
A
100
AcDbEntity
  8
MODEL
100
AcDbLine
 10
387.4007498255687
 20
2393.67042127045
 30
0.0
 11
387.3341604701
 21
2388.361980108341
 31
0.0
  0
LINE
  5
1466C
330
A
100
AcDbEntity
  8
MODEL
100
AcDbLine
 10
387.3341604701
 20
2388.361980108341
 30
0.0
 11
387.3072134486156
 21
2383.053142217716
 31
0.0
  0
LINE
  5
1466D
330
A
100
AcDbEntity
  8
MODEL
100
AcDbLine
 10
387.3072134486156
 20
2383.053142217716
 30
0.0
 11
387.2938620081859
 21
2377.744243291934
 31
0.0
  0
LINE
  5
1466E
330
A
100
AcDbEntity
  8
MODEL
100
AcDbLine
 10
387.2938620081859
 20
2377.744243291934
 30
0.0
 11
387.2859808436351
 21
2372.435313848575
 31
0.0
  0
LINE
  5
1466F
330
A
100
AcDbEntity
  8
MODEL
100
AcDbLine
 10
387.2859808436351
 20
2372.435313848575
 30
0.0
 11
387.2811438075023
 21
2367.126384405216
 31
0.0
  0
LINE
  5
14670
330
A
100
AcDbEntity
  8
MODEL
100
AcDbLine
 10
387.2811438075023
 20
2367.126384405216
 30
0.0
 11
387.278137826057
 21
2361.817485479434
 31
0.0
  0
LINE
  5
14671
330
A
100
AcDbEntity
  8
MODEL
100
AcDbLine
 10
387.278137826057
 20
2361.817485479434
 30
0.0
 11
387.2760244837718
 21
2356.508556036075
 31
0.0
  0
LINE
  5
14672
330
A
100
AcDbEntity
  8
MODEL
100
AcDbLine
 10
387.2760244837718
 20
2356.508556036075
 30
0.0
 11
387.2745062342601
 21
2351.199626592716
 31
0.0
  0
LINE
  5
14673
330
A
100
AcDbEntity
  8
MODEL
100
AcDbLine
 10
387.2745062342601
 20
2351.199626592716
 30
0.0
 11
387.273369454475
 21
2345.890697149356
 31
0.0
  0
LINE
  5
14674
330
A
100
AcDbEntity
  8
MODEL
100
AcDbLine
 10
387.273369454475
 20
2345.890697149356
 30
0.0
 11
387.2724768153148
 21
2340.581767705997
 31
0.0
  0
LINE
  5
14675
330
A
100
AcDbEntity
  8
MODEL
100
AcDbLine
 10
387.2724768153148
 20
2340.581767705997
 30
0.0
 11
387.271790169807
 21
2335.272868780216
 31
0.0
  0
LINE
  5
14676
330
A
100
AcDbEntity
  8
MODEL
100
AcDbLine
 10
387.271790169807
 20
2335.272868780216
 30
0.0
 11
387.2712866297679
 21
2329.963939336856
 31
0.0
  0
LINE
  5
14677
330
A
100
AcDbEntity
  8
MODEL
100
AcDbLine
 10
387.2712866297679
 20
2329.963939336856
 30
0.0
 11
387.270943307014
 21
2324.655009893497
 31
0.0
  0
LINE
  5
14678
330
A
100
AcDbEntity
  8
MODEL
100
AcDbLine
 10
387.270943307014
 20
2324.655009893497
 30
0.0
 11
387.2707144251781
 21
2319.346080450137
 31
0.0
  0
LINE
  5
14679
330
A
100
AcDbEntity
  8
MODEL
100
AcDbLine
 10
387.2707144251781
 20
2319.346080450137
 30
0.0
 11
387.2705770960765
 21
2314.037151006778
 31
0.0
  0
LINE
  5
1467A
330
A
100
AcDbEntity
  8
MODEL
100
AcDbLine
 10
387.2705770960765
 20
2314.037151006778
 30
0.0
 11
387.2705160609203
 21
2308.728252080997
 31
0.0
  0
LINE
  5
1467B
330
A
100
AcDbEntity
  8
MODEL
100
AcDbLine
 10
387.2705160609203
 20
2308.728252080997
 30
0.0
 11
387.2705160609203
 21
2303.419322637637
 31
0.0
  0
LINE
  5
1467C
330
A
100
AcDbEntity
  8
MODEL
100
AcDbLine
 10
387.2705160609203
 20
2303.419322637637
 30
0.0
 11
387.2705389491039
 21
2298.110393194278
 31
0.0
  0
LINE
  5
1467D
330
A
100
AcDbEntity
  8
MODEL
100
AcDbLine
 10
387.2705389491039
 20
2298.110393194278
 30
0.0
 11
387.2705847254711
 21
2292.801463750919
 31
0.0
  0
LINE
  5
1467E
330
A
100
AcDbEntity
  8
MODEL
100
AcDbLine
 10
387.2705847254711
 20
2292.801463750919
 30
0.0
 11
387.2706305018382
 21
2287.492564825137
 31
0.0
  0
LINE
  5
1467F
330
A
100
AcDbEntity
  8
MODEL
100
AcDbLine
 10
387.2706305018382
 20
2287.492564825137
 30
0.0
 11
387.2706610194164
 21
2282.183635381778
 31
0.0
  0
LINE
  5
14680
330
A
100
AcDbEntity
  8
MODEL
100
AcDbLine
 10
387.2706610194164
 20
2282.183635381778
 30
0.0
 11
387.2706686488109
 21
2276.874705938419
 31
0.0
  0
LINE
  5
14681
330
A
100
AcDbEntity
  8
MODEL
100
AcDbLine
 10
387.2706686488109
 20
2276.874705938419
 30
0.0
 11
387.2706762782054
 21
2271.565776495059
 31
0.0
  0
LINE
  5
14682
330
A
100
AcDbEntity
  8
MODEL
100
AcDbLine
 10
387.2706762782054
 20
2271.565776495059
 30
0.0
 11
387.2706686488109
 21
2266.2568470517
 31
0.0
  0
LINE
  5
14683
330
A
100
AcDbEntity
  8
MODEL
100
AcDbLine
 10
387.2706686488109
 20
2266.2568470517
 30
0.0
 11
387.2706533900218
 21
2260.947948125919
 31
0.0
  0
LINE
  5
14684
330
A
100
AcDbEntity
  8
MODEL
100
AcDbLine
 10
387.2706533900218
 20
2260.947948125919
 30
0.0
 11
387.2706305018382
 21
2255.639018682559
 31
0.0
  0
LINE
  5
14685
330
A
100
AcDbEntity
  8
MODEL
100
AcDbLine
 10
387.2706305018382
 20
2255.639018682559
 30
0.0
 11
387.2706076136546
 21
2250.3300892392
 31
0.0
  0
LINE
  5
14686
330
A
100
AcDbEntity
  8
MODEL
100
AcDbLine
 10
387.2706076136546
 20
2250.3300892392
 30
0.0
 11
387.2705923548656
 21
2245.021159795841
 31
0.0
  0
LINE
  5
14687
330
A
100
AcDbEntity
  8
MODEL
100
AcDbLine
 10
387.2705923548656
 20
2245.021159795841
 30
0.0
 11
387.270569466682
 21
2239.712230352481
 31
0.0
  0
LINE
  5
14688
330
A
100
AcDbEntity
  8
MODEL
100
AcDbLine
 10
387.270569466682
 20
2239.712230352481
 30
0.0
 11
387.2705618372875
 21
2234.4033314267
 31
0.0
  0
LINE
  5
14689
330
A
100
AcDbEntity
  8
MODEL
100
AcDbLine
 10
387.2705618372875
 20
2234.4033314267
 30
0.0
 11
387.2705542078929
 21
2229.0644642392
 31
0.0
  0
LINE
  5
1468A
330
A
100
AcDbEntity
  8
MODEL
100
AcDbLine
 10
387.2705542078929
 20
2229.0644642392
 30
0.0
 11
387.2705618372875
 21
2223.755565313419
 31
0.0
  0
LINE
  5
1468B
330
A
100
AcDbEntity
  8
MODEL
100
AcDbLine
 10
387.2705618372875
 20
2223.755565313419
 30
0.0
 11
387.270569466682
 21
2218.446666387636
 31
0.0
  0
LINE
  5
1468C
330
A
100
AcDbEntity
  8
MODEL
100
AcDbLine
 10
387.270569466682
 20
2218.446666387636
 30
0.0
 11
387.2705923548656
 21
2213.137797979433
 31
0.0
  0
LINE
  5
1468D
330
A
100
AcDbEntity
  8
MODEL
100
AcDbLine
 10
387.2705923548656
 20
2213.137797979433
 30
0.0
 11
387.2706076136546
 21
2207.828899053652
 31
0.0
  0
LINE
  5
1468E
330
A
100
AcDbEntity
  8
MODEL
100
AcDbLine
 10
387.2706076136546
 20
2207.828899053652
 30
0.0
 11
387.2706305018382
 21
2202.520000127871
 31
0.0
  0
LINE
  5
1468F
330
A
100
AcDbEntity
  8
MODEL
100
AcDbLine
 10
387.2706305018382
 20
2202.520000127871
 30
0.0
 11
387.2706533900218
 21
2197.21110120209
 31
0.0
  0
LINE
  5
14690
330
A
100
AcDbEntity
  8
MODEL
100
AcDbLine
 10
387.2706533900218
 20
2197.21110120209
 30
0.0
 11
387.2706686488109
 21
2191.902217535097
 31
0.0
  0
LINE
  5
14691
330
A
100
AcDbEntity
  8
MODEL
100
AcDbLine
 10
387.2706686488109
 20
2191.902217535097
 30
0.0
 11
387.2706762782054
 21
2186.593318609316
 31
0.0
  0
LINE
  5
14692
330
A
100
AcDbEntity
  8
MODEL
100
AcDbLine
 10
387.2706762782054
 20
2186.593318609316
 30
0.0
 11
387.2706762782054
 21
2181.284419683535
 31
0.0
  0
LINE
  5
14693
330
A
100
AcDbEntity
  8
MODEL
100
AcDbLine
 10
387.2706762782054
 20
2181.284419683535
 30
0.0
 11
387.2706610194164
 21
2175.975536016543
 31
0.0
  0
LINE
  5
14694
330
A
100
AcDbEntity
  8
MODEL
100
AcDbLine
 10
387.2706610194164
 20
2175.975536016543
 30
0.0
 11
387.2706305018382
 21
2170.666637090761
 31
0.0
  0
LINE
  5
14695
330
A
100
AcDbEntity
  8
MODEL
100
AcDbLine
 10
387.2706305018382
 20
2170.666637090761
 30
0.0
 11
387.2705847254711
 21
2165.357753423769
 31
0.0
  0
LINE
  5
14696
330
A
100
AcDbEntity
  8
MODEL
100
AcDbLine
 10
387.2705847254711
 20
2165.357753423769
 30
0.0
 11
387.2705389491039
 21
2160.048854497988
 31
0.0
  0
LINE
  5
14697
330
A
100
AcDbEntity
  8
MODEL
100
AcDbLine
 10
387.2705389491039
 20
2160.048854497988
 30
0.0
 11
387.2705160609203
 21
2154.739955572207
 31
0.0
  0
LINE
  5
14698
330
A
100
AcDbEntity
  8
MODEL
100
AcDbLine
 10
387.2705160609203
 20
2154.739955572207
 30
0.0
 11
387.2705160609203
 21
2149.431071905215
 31
0.0
  0
LINE
  5
14699
330
A
100
AcDbEntity
  8
MODEL
100
AcDbLine
 10
387.2705160609203
 20
2149.431071905215
 30
0.0
 11
387.2705770960765
 21
2144.122172979433
 31
0.0
  0
LINE
  5
1469A
330
A
100
AcDbEntity
  8
MODEL
100
AcDbLine
 10
387.2705770960765
 20
2144.122172979433
 30
0.0
 11
387.2707067957836
 21
2138.813274053652
 31
0.0
  0
LINE
  5
1469B
330
A
100
AcDbEntity
  8
MODEL
100
AcDbLine
 10
387.2707067957836
 20
2138.813274053652
 30
0.0
 11
387.2709356776195
 21
2133.50439038666
 31
0.0
  0
LINE
  5
1469C
330
A
100
AcDbEntity
  8
MODEL
100
AcDbLine
 10
387.2709356776195
 20
2133.50439038666
 30
0.0
 11
387.2712866297679
 21
2128.195491460879
 31
0.0
  0
LINE
  5
1469D
330
A
100
AcDbEntity
  8
MODEL
100
AcDbLine
 10
387.2712866297679
 20
2128.195491460879
 30
0.0
 11
387.271790169807
 21
2122.886607793886
 31
0.0
  0
LINE
  5
1469E
330
A
100
AcDbEntity
  8
MODEL
100
AcDbLine
 10
387.271790169807
 20
2122.886607793886
 30
0.0
 11
387.2724691859203
 21
2117.577708868105
 31
0.0
  0
LINE
  5
1469F
330
A
100
AcDbEntity
  8
MODEL
100
AcDbLine
 10
387.2724691859203
 20
2117.577708868105
 30
0.0
 11
387.2733618250804
 21
2112.268809942324
 31
0.0
  0
LINE
  5
146A0
330
A
100
AcDbEntity
  8
MODEL
100
AcDbLine
 10
387.2733618250804
 20
2112.268809942324
 30
0.0
 11
387.2744986048656
 21
2106.959926275332
 31
0.0
  0
LINE
  5
146A1
330
A
100
AcDbEntity
  8
MODEL
100
AcDbLine
 10
387.2744986048656
 20
2106.959926275332
 30
0.0
 11
387.2760092249828
 21
2101.651027349551
 31
0.0
  0
LINE
  5
146A2
330
A
100
AcDbEntity
  8
MODEL
100
AcDbLine
 10
387.2760092249828
 20
2101.651027349551
 30
0.0
 11
387.2781225672679
 21
2096.342143682558
 31
0.0
  0
LINE
  5
146A3
330
A
100
AcDbEntity
  8
MODEL
100
AcDbLine
 10
387.2781225672679
 20
2096.342143682558
 30
0.0
 11
387.2811209193187
 21
2091.033244756777
 31
0.0
  0
LINE
  5
146A4
330
A
100
AcDbEntity
  8
MODEL
100
AcDbLine
 10
387.2811209193187
 20
2091.033244756777
 30
0.0
 11
387.2859426966625
 21
2085.724361089785
 31
0.0
  0
LINE
  5
146A5
330
A
100
AcDbEntity
  8
MODEL
100
AcDbLine
 10
387.2859426966625
 20
2085.724361089785
 30
0.0
 11
387.2937933436351
 21
2080.415462164004
 31
0.0
  0
LINE
  5
146A6
330
A
100
AcDbEntity
  8
MODEL
100
AcDbLine
 10
387.2937933436351
 20
2080.415462164004
 30
0.0
 11
387.3071066370921
 21
2075.106593755801
 31
0.0
  0
LINE
  5
146A7
330
A
100
AcDbEntity
  8
MODEL
100
AcDbLine
 10
387.3071066370921
 20
2075.106593755801
 30
0.0
 11
387.333931588264
 21
2069.797771123965
 31
0.0
  0
LINE
  5
146A8
330
A
100
AcDbEntity
  8
MODEL
100
AcDbLine
 10
387.333931588264
 20
2069.797771123965
 30
0.0
 11
387.4001165858226
 21
2064.489322332461
 31
0.0
  0
LINE
  5
146A9
330
A
100
AcDbEntity
  8
MODEL
100
AcDbLine
 10
387.4001165858226
 20
2064.489322332461
 30
0.0
 11
387.6622702113109
 21
2059.157039312441
 31
0.0
  0
LINE
  5
146AA
330
A
100
AcDbEntity
  8
MODEL
100
AcDbLine
 10
387.6622702113109
 20
2059.157039312441
 30
0.0
 11
387.8351141444164
 21
2057.720790533144
 31
0.0
  0
LINE
  5
146AB
330
A
100
AcDbEntity
  8
MODEL
100
AcDbLine
 10
387.8351141444164
 20
2057.720790533144
 30
0.0
 11
388.0818258753734
 21
2056.294994024355
 31
0.0
  0
LINE
  5
146AC
330
A
100
AcDbEntity
  8
MODEL
100
AcDbLine
 10
388.0818258753734
 20
2056.294994024355
 30
0.0
 11
388.413017891975
 21
2054.886867193301
 31
0.0
  0
LINE
  5
146AD
330
A
100
AcDbEntity
  8
MODEL
100
AcDbLine
 10
388.413017891975
 20
2054.886867193301
 30
0.0
 11
388.8384253016429
 21
2053.504161504824
 31
0.0
  0
LINE
  5
146AE
330
A
100
AcDbEntity
  8
MODEL
100
AcDbLine
 10
388.8384253016429
 20
2053.504161504824
 30
0.0
 11
389.3646475306468
 21
2052.156665472109
 31
0.0
  0
LINE
  5
146AF
330
A
100
AcDbEntity
  8
MODEL
100
AcDbLine
 10
389.3646475306468
 20
2052.156665472109
 30
0.0
 11
389.9962011805492
 21
2050.855533269961
 31
0.0
  0
LINE
  5
146B0
330
A
100
AcDbEntity
  8
MODEL
100
AcDbLine
 10
389.9962011805492
 20
2050.855533269961
 30
0.0
 11
390.7363668909984
 21
2049.612514165957
 31
0.0
  0
LINE
  5
146B1
330
A
100
AcDbEntity
  8
MODEL
100
AcDbLine
 10
390.7363668909984
 20
2049.612514165957
 30
0.0
 11
391.5847326746898
 21
2048.441173223574
 31
0.0
  0
LINE
  5
146B2
330
A
100
AcDbEntity
  8
MODEL
100
AcDbLine
 10
391.5847326746898
 20
2048.441173223574
 30
0.0
 11
392.5400396815257
 21
2047.355434087832
 31
0.0
  0
LINE
  5
146B3
330
A
100
AcDbEntity
  8
MODEL
100
AcDbLine
 10
392.5400396815257
 20
2047.355434087832
 30
0.0
 11
393.5981985560375
 21
2046.369395879824
 31
0.0
  0
LINE
  5
146B4
330
A
100
AcDbEntity
  8
MODEL
100
AcDbLine
 10
393.5981985560375
 20
2046.369395879824
 30
0.0
 11
394.7509314051586
 21
2045.495875982363
 31
0.0
  0
LINE
  5
146B5
330
A
100
AcDbEntity
  8
MODEL
100
AcDbLine
 10
394.7509314051586
 20
2045.495875982363
 30
0.0
 11
395.9861380091625
 21
2044.743442205508
 31
0.0
  0
LINE
  5
146B6
330
A
100
AcDbEntity
  8
MODEL
100
AcDbLine
 10
395.9861380091625
 20
2044.743442205508
 30
0.0
 11
397.2884298792796
 21
2044.113895086367
 31
0.0
  0
LINE
  5
146B7
330
A
100
AcDbEntity
  8
MODEL
100
AcDbLine
 10
397.2884298792796
 20
2044.113895086367
 30
0.0
 11
398.6409231654125
 21
2043.601848272402
 31
0.0
  0
LINE
  5
146B8
330
A
100
AcDbEntity
  8
MODEL
100
AcDbLine
 10
398.6409231654125
 20
2043.601848272402
 30
0.0
 11
400.0289160242992
 21
2043.195689825137
 31
0.0
  0
LINE
  5
146B9
330
A
100
AcDbEntity
  8
MODEL
100
AcDbLine
 10
400.0289160242992
 20
2043.195689825137
 30
0.0
 11
401.4414068690257
 21
2042.880069402773
 31
0.0
  0
LINE
  5
146BA
330
A
100
AcDbEntity
  8
MODEL
100
AcDbLine
 10
401.4414068690257
 20
2042.880069402773
 30
0.0
 11
402.8682867518382
 21
2042.639606145937
 31
0.0
  0
LINE
  5
146BB
330
A
100
AcDbEntity
  8
MODEL
100
AcDbLine
 10
402.8682867518382
 20
2042.639606145937
 30
0.0
 11
404.3631369105296
 21
2042.454806951602
 31
0.0
  0
LINE
  5
146BC
330
A
100
AcDbEntity
  8
MODEL
100
AcDbLine
 10
404.3631369105296
 20
2042.454806951602
 30
0.0
 11
414.3391806117015
 21
2042.121730474551
 31
0.0
  0
LINE
  5
146F2
330
A
100
AcDbEntity
  8
MODEL
100
AcDbLine
 10
953.7478415003734
 20
2042.118892339785
 30
0.0
 11
964.1779562464671
 21
2042.454806951602
 31
0.0
  0
LINE
  5
146F3
330
A
100
AcDbEntity
  8
MODEL
100
AcDbLine
 10
964.1779562464671
 20
2042.454806951602
 30
0.0
 11
965.6139303675609
 21
2042.631129888613
 31
0.0
  0
LINE
  5
146F4
330
A
100
AcDbEntity
  8
MODEL
100
AcDbLine
 10
965.6139303675609
 20
2042.631129888613
 30
0.0
 11
967.0412985316234
 21
2042.868800787051
 31
0.0
  0
LINE
  5
146F5
330
A
100
AcDbEntity
  8
MODEL
100
AcDbLine
 10
967.0412985316234
 20
2042.868800787051
 30
0.0
 11
968.4545675745921
 21
2043.181033758242
 31
0.0
  0
LINE
  5
146F6
330
A
100
AcDbEntity
  8
MODEL
100
AcDbLine
 10
968.4545675745921
 20
2043.181033758242
 30
0.0
 11
969.8437277308421
 21
2043.583163885195
 31
0.0
  0
LINE
  5
146F7
330
A
100
AcDbEntity
  8
MODEL
100
AcDbLine
 10
969.8437277308421
 20
2043.583163885195
 30
0.0
 11
971.1979757777171
 21
2044.090594915469
 31
0.0
  0
LINE
  5
146F8
330
A
100
AcDbEntity
  8
MODEL
100
AcDbLine
 10
971.1979757777171
 20
2044.090594915469
 30
0.0
 11
972.5026632777171
 21
2044.715144781191
 31
0.0
  0
LINE
  5
146F9
330
A
100
AcDbEntity
  8
MODEL
100
AcDbLine
 10
972.5026632777171
 20
2044.715144781191
 30
0.0
 11
973.7409445277171
 21
2045.462520269473
 31
0.0
  0
LINE
  5
146FA
330
A
100
AcDbEntity
  8
MODEL
100
AcDbLine
 10
973.7409445277171
 20
2045.462520269473
 30
0.0
 11
974.8973165980296
 21
2046.331195501406
 31
0.0
  0
LINE
  5
146FB
330
A
100
AcDbEntity
  8
MODEL
100
AcDbLine
 10
974.8973165980296
 20
2046.331195501406
 30
0.0
 11
975.9595724574046
 21
2047.312839178164
 31
0.0
  0
LINE
  5
146FC
330
A
100
AcDbEntity
  8
MODEL
100
AcDbLine
 10
975.9595724574046
 20
2047.312839178164
 30
0.0
 11
976.9192282191234
 21
2048.394755987246
 31
0.0
  0
LINE
  5
146FD
330
A
100
AcDbEntity
  8
MODEL
100
AcDbLine
 10
976.9192282191234
 20
2048.394755987246
 30
0.0
 11
977.7720114222484
 21
2049.562854436953
 31
0.0
  0
LINE
  5
146FE
330
A
100
AcDbEntity
  8
MODEL
100
AcDbLine
 10
977.7720114222484
 20
2049.562854436953
 30
0.0
 11
978.5166403284984
 21
2050.803203252871
 31
0.0
  0
LINE
  5
146FF
330
A
100
AcDbEntity
  8
MODEL
100
AcDbLine
 10
978.5166403284984
 20
2050.803203252871
 30
0.0
 11
979.1526266566234
 21
2052.102191595156
 31
0.0
  0
LINE
  5
14700
330
A
100
AcDbEntity
  8
MODEL
100
AcDbLine
 10
979.1526266566234
 20
2052.102191595156
 30
0.0
 11
979.6830831995921
 21
2053.448001531679
 31
0.0
  0
LINE
  5
14701
330
A
100
AcDbEntity
  8
MODEL
100
AcDbLine
 10
979.6830831995921
 20
2053.448001531679
 30
0.0
 11
980.1125265589671
 21
2054.829471258242
 31
0.0
  0
LINE
  5
14702
330
A
100
AcDbEntity
  8
MODEL
100
AcDbLine
 10
980.1125265589671
 20
2054.829471258242
 30
0.0
 11
980.4474264613109
 21
2056.236705450136
 31
0.0
  0
LINE
  5
14703
330
A
100
AcDbEntity
  8
MODEL
100
AcDbLine
 10
980.4474264613109
 20
2056.236705450136
 30
0.0
 11
980.6973654261546
 21
2057.661929754336
 31
0.0
  0
LINE
  5
14704
330
A
100
AcDbEntity
  8
MODEL
100
AcDbLine
 10
980.6973654261546
 20
2057.661929754336
 30
0.0
 11
980.8788229456859
 21
2059.157039312441
 31
0.0
  0
LINE
  5
14705
330
A
100
AcDbEntity
  8
MODEL
100
AcDbLine
 10
980.8788229456859
 20
2059.157039312441
 30
0.0
 11
981.1403585902171
 21
2064.458514837344
 31
0.0
  0
LINE
  5
14706
330
A
100
AcDbEntity
  8
MODEL
100
AcDbLine
 10
981.1403585902171
 20
2064.458514837344
 30
0.0
 11
981.2069479456859
 21
2069.766933111269
 31
0.0
  0
LINE
  5
14707
330
A
100
AcDbEntity
  8
MODEL
100
AcDbLine
 10
981.2069479456859
 20
2069.766933111269
 30
0.0
 11
981.2339254847484
 21
2075.075786260683
 31
0.0
  0
LINE
  5
14708
330
A
100
AcDbEntity
  8
MODEL
100
AcDbLine
 10
981.2339254847484
 20
2075.075786260683
 30
0.0
 11
981.2472311488109
 21
2080.384700445254
 31
0.0
  0
LINE
  5
14709
330
A
100
AcDbEntity
  8
MODEL
100
AcDbLine
 10
981.2472311488109
 20
2080.384700445254
 30
0.0
 11
981.2551046839671
 21
2085.693614629824
 31
0.0
  0
LINE
  5
1470A
330
A
100
AcDbEntity
  8
MODEL
100
AcDbLine
 10
981.2551046839671
 20
2085.693614629824
 30
0.0
 11
981.2599874964671
 21
2091.002528814394
 31
0.0
  0
LINE
  5
1470B
330
A
100
AcDbEntity
  8
MODEL
100
AcDbLine
 10
981.2599874964671
 20
2091.002528814394
 30
0.0
 11
981.2629782191234
 21
2096.311458257754
 31
0.0
  0
LINE
  5
1470C
330
A
100
AcDbEntity
  8
MODEL
100
AcDbLine
 10
981.2629782191234
 20
2096.311458257754
 30
0.0
 11
981.2651144495921
 21
2101.620372442324
 31
0.0
  0
LINE
  5
1470D
330
A
100
AcDbEntity
  8
MODEL
100
AcDbLine
 10
981.2651144495921
 20
2101.620372442324
 30
0.0
 11
981.2665792933421
 21
2106.929301885683
 31
0.0
  0
LINE
  5
1470E
330
A
100
AcDbEntity
  8
MODEL
100
AcDbLine
 10
981.2665792933421
 20
2106.929301885683
 30
0.0
 11
981.2677389613109
 21
2112.238216070254
 31
0.0
  0
LINE
  5
1470F
330
A
100
AcDbEntity
  8
MODEL
100
AcDbLine
 10
981.2677389613109
 20
2112.238216070254
 30
0.0
 11
981.2686544886546
 21
2117.547145513613
 31
0.0
  0
LINE
  5
14710
330
A
100
AcDbEntity
  8
MODEL
100
AcDbLine
 10
981.2686544886546
 20
2117.547145513613
 30
0.0
 11
981.2693258753734
 21
2122.856074956972
 31
0.0
  0
LINE
  5
14711
330
A
100
AcDbEntity
  8
MODEL
100
AcDbLine
 10
981.2693258753734
 20
2122.856074956972
 30
0.0
 11
981.2698141566234
 21
2128.164989141543
 31
0.0
  0
LINE
  5
14712
330
A
100
AcDbEntity
  8
MODEL
100
AcDbLine
 10
981.2698141566234
 20
2128.164989141543
 30
0.0
 11
981.2701803675609
 21
2133.473918584902
 31
0.0
  0
LINE
  5
14713
330
A
100
AcDbEntity
  8
MODEL
100
AcDbLine
 10
981.2701803675609
 20
2133.473918584902
 30
0.0
 11
981.2704245081859
 21
2138.782832769472
 31
0.0
  0
LINE
  5
14714
330
A
100
AcDbEntity
  8
MODEL
100
AcDbLine
 10
981.2704245081859
 20
2138.782832769472
 30
0.0
 11
981.2705465784984
 21
2144.091762212832
 31
0.0
  0
LINE
  5
14715
330
A
100
AcDbEntity
  8
MODEL
100
AcDbLine
 10
981.2705465784984
 20
2144.091762212832
 30
0.0
 11
981.2706076136546
 21
2149.400676397402
 31
0.0
  0
LINE
  5
14716
330
A
100
AcDbEntity
  8
MODEL
100
AcDbLine
 10
981.2706076136546
 20
2149.400676397402
 30
0.0
 11
981.2706076136546
 21
2154.709605840761
 31
0.0
  0
LINE
  5
14717
330
A
100
AcDbEntity
  8
MODEL
100
AcDbLine
 10
981.2706076136546
 20
2154.709605840761
 30
0.0
 11
981.2705465784984
 21
2160.018535284121
 31
0.0
  0
LINE
  5
14718
330
A
100
AcDbEntity
  8
MODEL
100
AcDbLine
 10
981.2705465784984
 20
2160.018535284121
 30
0.0
 11
981.2705465784984
 21
2165.327449468691
 31
0.0
  0
LINE
  5
14719
330
A
100
AcDbEntity
  8
MODEL
100
AcDbLine
 10
981.2705465784984
 20
2165.327449468691
 30
0.0
 11
981.2704855433421
 21
2170.636378912051
 31
0.0
  0
LINE
  5
1471A
330
A
100
AcDbEntity
  8
MODEL
100
AcDbLine
 10
981.2704855433421
 20
2170.636378912051
 30
0.0
 11
981.2704245081859
 21
2175.945293096621
 31
0.0
  0
LINE
  5
1471B
330
A
100
AcDbEntity
  8
MODEL
100
AcDbLine
 10
981.2704245081859
 20
2175.945293096621
 30
0.0
 11
981.2704245081859
 21
2181.25422253998
 31
0.0
  0
LINE
  5
1471C
330
A
100
AcDbEntity
  8
MODEL
100
AcDbLine
 10
981.2704245081859
 20
2181.25422253998
 30
0.0
 11
981.2704245081859
 21
2186.563136724551
 31
0.0
  0
LINE
  5
1471D
330
A
100
AcDbEntity
  8
MODEL
100
AcDbLine
 10
981.2704245081859
 20
2186.563136724551
 30
0.0
 11
981.2704245081859
 21
2191.87206616791
 31
0.0
  0
LINE
  5
1471E
330
A
100
AcDbEntity
  8
MODEL
100
AcDbLine
 10
981.2704245081859
 20
2191.87206616791
 30
0.0
 11
981.2704855433421
 21
2197.18098035248
 31
0.0
  0
LINE
  5
1471F
330
A
100
AcDbEntity
  8
MODEL
100
AcDbLine
 10
981.2704855433421
 20
2197.18098035248
 30
0.0
 11
981.2704855433421
 21
2202.48990979584
 31
0.0
  0
LINE
  5
14720
330
A
100
AcDbEntity
  8
MODEL
100
AcDbLine
 10
981.2704855433421
 20
2202.48990979584
 30
0.0
 11
981.2704855433421
 21
2207.798839239199
 31
0.0
  0
LINE
  5
14721
330
A
100
AcDbEntity
  8
MODEL
100
AcDbLine
 10
981.2704855433421
 20
2207.798839239199
 30
0.0
 11
981.2705465784984
 21
2213.107768682558
 31
0.0
  0
LINE
  5
14722
330
A
100
AcDbEntity
  8
MODEL
100
AcDbLine
 10
981.2705465784984
 20
2213.107768682558
 30
0.0
 11
981.2705465784984
 21
2218.41666760834
 31
0.0
  0
LINE
  5
14723
330
A
100
AcDbEntity
  8
MODEL
100
AcDbLine
 10
981.2705465784984
 20
2218.41666760834
 30
0.0
 11
981.2705465784984
 21
2223.7255970517
 31
0.0
  0
LINE
  5
14724
330
A
100
AcDbEntity
  8
MODEL
100
AcDbLine
 10
981.2705465784984
 20
2223.7255970517
 30
0.0
 11
981.2705465784984
 21
2229.0644642392
 31
0.0
  0
LINE
  5
14725
330
A
100
AcDbEntity
  8
MODEL
100
AcDbLine
 10
981.2705465784984
 20
2229.0644642392
 30
0.0
 11
981.2705465784984
 21
2234.373363164981
 31
0.0
  0
LINE
  5
14726
330
A
100
AcDbEntity
  8
MODEL
100
AcDbLine
 10
981.2705465784984
 20
2234.373363164981
 30
0.0
 11
981.2705465784984
 21
2239.682262090762
 31
0.0
  0
LINE
  5
14727
330
A
100
AcDbEntity
  8
MODEL
100
AcDbLine
 10
981.2705465784984
 20
2239.682262090762
 30
0.0
 11
981.2705465784984
 21
2244.991130498966
 31
0.0
  0
LINE
  5
14728
330
A
100
AcDbEntity
  8
MODEL
100
AcDbLine
 10
981.2705465784984
 20
2244.991130498966
 30
0.0
 11
981.2704855433421
 21
2250.300029424747
 31
0.0
  0
LINE
  5
14729
330
A
100
AcDbEntity
  8
MODEL
100
AcDbLine
 10
981.2704855433421
 20
2250.300029424747
 30
0.0
 11
981.2704855433421
 21
2255.608928350528
 31
0.0
  0
LINE
  5
1472A
330
A
100
AcDbEntity
  8
MODEL
100
AcDbLine
 10
981.2704855433421
 20
2255.608928350528
 30
0.0
 11
981.2704855433421
 21
2260.917827276309
 31
0.0
  0
LINE
  5
1472B
330
A
100
AcDbEntity
  8
MODEL
100
AcDbLine
 10
981.2704855433421
 20
2260.917827276309
 30
0.0
 11
981.2704245081859
 21
2266.226726202091
 31
0.0
  0
LINE
  5
1472C
330
A
100
AcDbEntity
  8
MODEL
100
AcDbLine
 10
981.2704245081859
 20
2266.226726202091
 30
0.0
 11
981.2704245081859
 21
2271.535594610294
 31
0.0
  0
LINE
  5
1472D
330
A
100
AcDbEntity
  8
MODEL
100
AcDbLine
 10
981.2704245081859
 20
2271.535594610294
 30
0.0
 11
981.2704245081859
 21
2276.844493536075
 31
0.0
  0
LINE
  5
1472E
330
A
100
AcDbEntity
  8
MODEL
100
AcDbLine
 10
981.2704245081859
 20
2276.844493536075
 30
0.0
 11
981.2704245081859
 21
2282.153392461856
 31
0.0
  0
LINE
  5
1472F
330
A
100
AcDbEntity
  8
MODEL
100
AcDbLine
 10
981.2704245081859
 20
2282.153392461856
 30
0.0
 11
981.2704855433421
 21
2287.462291387637
 31
0.0
  0
LINE
  5
14730
330
A
100
AcDbEntity
  8
MODEL
100
AcDbLine
 10
981.2704855433421
 20
2287.462291387637
 30
0.0
 11
981.2705465784984
 21
2292.771190313419
 31
0.0
  0
LINE
  5
14731
330
A
100
AcDbEntity
  8
MODEL
100
AcDbLine
 10
981.2705465784984
 20
2292.771190313419
 30
0.0
 11
981.2705465784984
 21
2298.080058721622
 31
0.0
  0
LINE
  5
14732
330
A
100
AcDbEntity
  8
MODEL
100
AcDbLine
 10
981.2705465784984
 20
2298.080058721622
 30
0.0
 11
981.2706076136546
 21
2303.388957647403
 31
0.0
  0
LINE
  5
14733
330
A
100
AcDbEntity
  8
MODEL
100
AcDbLine
 10
981.2706076136546
 20
2303.388957647403
 30
0.0
 11
981.2706076136546
 21
2308.697856573184
 31
0.0
  0
LINE
  5
14734
330
A
100
AcDbEntity
  8
MODEL
100
AcDbLine
 10
981.2706076136546
 20
2308.697856573184
 30
0.0
 11
981.2705465784984
 21
2314.006755498966
 31
0.0
  0
LINE
  5
14735
330
A
100
AcDbEntity
  8
MODEL
100
AcDbLine
 10
981.2705465784984
 20
2314.006755498966
 30
0.0
 11
981.2704245081859
 21
2319.315654424747
 31
0.0
  0
LINE
  5
14736
330
A
100
AcDbEntity
  8
MODEL
100
AcDbLine
 10
981.2704245081859
 20
2319.315654424747
 30
0.0
 11
981.2701803675609
 21
2324.62452283295
 31
0.0
  0
LINE
  5
14737
330
A
100
AcDbEntity
  8
MODEL
100
AcDbLine
 10
981.2701803675609
 20
2324.62452283295
 30
0.0
 11
981.2698141566234
 21
2329.933421758731
 31
0.0
  0
LINE
  5
14738
330
A
100
AcDbEntity
  8
MODEL
100
AcDbLine
 10
981.2698141566234
 20
2329.933421758731
 30
0.0
 11
981.2693258753734
 21
2335.242320684512
 31
0.0
  0
LINE
  5
14739
330
A
100
AcDbEntity
  8
MODEL
100
AcDbLine
 10
981.2693258753734
 20
2335.242320684512
 30
0.0
 11
981.2686544886546
 21
2340.551219610294
 31
0.0
  0
LINE
  5
1473A
330
A
100
AcDbEntity
  8
MODEL
100
AcDbLine
 10
981.2686544886546
 20
2340.551219610294
 30
0.0
 11
981.2677389613109
 21
2345.860118536075
 31
0.0
  0
LINE
  5
1473B
330
A
100
AcDbEntity
  8
MODEL
100
AcDbLine
 10
981.2677389613109
 20
2345.860118536075
 30
0.0
 11
981.2666403284984
 21
2351.168986944278
 31
0.0
  0
LINE
  5
1473C
330
A
100
AcDbEntity
  8
MODEL
100
AcDbLine
 10
981.2666403284984
 20
2351.168986944278
 30
0.0
 11
981.2651144495921
 21
2356.477885870059
 31
0.0
  0
LINE
  5
1473D
330
A
100
AcDbEntity
  8
MODEL
100
AcDbLine
 10
981.2651144495921
 20
2356.477885870059
 30
0.0
 11
981.2629782191234
 21
2361.786784795841
 31
0.0
  0
LINE
  5
1473E
330
A
100
AcDbEntity
  8
MODEL
100
AcDbLine
 10
981.2629782191234
 20
2361.786784795841
 30
0.0
 11
981.2599874964671
 21
2367.095683721622
 31
0.0
  0
LINE
  5
1473F
330
A
100
AcDbEntity
  8
MODEL
100
AcDbLine
 10
981.2599874964671
 20
2367.095683721622
 30
0.0
 11
981.2551657191234
 21
2372.404582647403
 31
0.0
  0
LINE
  5
14740
330
A
100
AcDbEntity
  8
MODEL
100
AcDbLine
 10
981.2551657191234
 20
2372.404582647403
 30
0.0
 11
981.2472921839671
 21
2377.713451055606
 31
0.0
  0
LINE
  5
14741
330
A
100
AcDbEntity
  8
MODEL
100
AcDbLine
 10
981.2472921839671
 20
2377.713451055606
 30
0.0
 11
981.2339865199046
 21
2383.022319463809
 31
0.0
  0
LINE
  5
14742
330
A
100
AcDbEntity
  8
MODEL
100
AcDbLine
 10
981.2339865199046
 20
2383.022319463809
 30
0.0
 11
981.2071920863109
 21
2388.331157354434
 31
0.0
  0
LINE
  5
14743
330
A
100
AcDbEntity
  8
MODEL
100
AcDbLine
 10
981.2071920863109
 20
2388.331157354434
 30
0.0
 11
981.1409689417796
 21
2393.639598516544
 31
0.0
  0
LINE
  5
14744
330
A
100
AcDbEntity
  8
MODEL
100
AcDbLine
 10
981.1409689417796
 20
2393.639598516544
 30
0.0
 11
980.8788229456859
 21
2398.971873907169
 31
0.0
  0
LINE
  5
14745
330
A
100
AcDbEntity
  8
MODEL
100
AcDbLine
 10
980.8788229456859
 20
2398.971873907169
 30
0.0
 11
980.7059713831859
 21
2400.408122686466
 31
0.0
  0
LINE
  5
14746
330
A
100
AcDbEntity
  8
MODEL
100
AcDbLine
 10
980.7059713831859
 20
2400.408122686466
 30
0.0
 11
980.4592672816234
 21
2401.833934454044
 31
0.0
  0
LINE
  5
14747
330
A
100
AcDbEntity
  8
MODEL
100
AcDbLine
 10
980.4592672816234
 20
2401.833934454044
 30
0.0
 11
980.1280905238109
 21
2403.242046026309
 31
0.0
  0
LINE
  5
14748
330
A
100
AcDbEntity
  8
MODEL
100
AcDbLine
 10
980.1280905238109
 20
2403.242046026309
 30
0.0
 11
979.7026754847484
 21
2404.624766973575
 31
0.0
  0
LINE
  5
14749
330
A
100
AcDbEntity
  8
MODEL
100
AcDbLine
 10
979.7026754847484
 20
2404.624766973575
 30
0.0
 11
979.1764914027171
 21
2405.972270635684
 31
0.0
  0
LINE
  5
1474A
330
A
100
AcDbEntity
  8
MODEL
100
AcDbLine
 10
979.1764914027171
 20
2405.972270635684
 30
0.0
 11
978.5448996058421
 21
2407.273387579044
 31
0.0
  0
LINE
  5
1474B
330
A
100
AcDbEntity
  8
MODEL
100
AcDbLine
 10
978.5448996058421
 20
2407.273387579044
 30
0.0
 11
977.8047262659984
 21
2408.516399053653
 31
0.0
  0
LINE
  5
1474C
330
A
100
AcDbEntity
  8
MODEL
100
AcDbLine
 10
977.8047262659984
 20
2408.516399053653
 30
0.0
 11
976.9563986292796
 21
2409.687755254825
 31
0.0
  0
LINE
  5
1474D
330
A
100
AcDbEntity
  8
MODEL
100
AcDbLine
 10
976.9563986292796
 20
2409.687755254825
 30
0.0
 11
976.0010763636546
 21
2410.773479131778
 31
0.0
  0
LINE
  5
1474E
330
A
100
AcDbEntity
  8
MODEL
100
AcDbLine
 10
976.0010763636546
 20
2410.773479131778
 30
0.0
 11
974.9429098597484
 21
2411.759532598575
 31
0.0
  0
LINE
  5
1474F
330
A
100
AcDbEntity
  8
MODEL
100
AcDbLine
 10
974.9429098597484
 20
2411.759532598575
 30
0.0
 11
973.7901998988109
 21
2412.633037237247
 31
0.0
  0
LINE
  5
14750
330
A
100
AcDbEntity
  8
MODEL
100
AcDbLine
 10
973.7901998988109
 20
2412.633037237247
 30
0.0
 11
972.5549704066234
 21
2413.385478643497
 31
0.0
  0
LINE
  5
14751
330
A
100
AcDbEntity
  8
MODEL
100
AcDbLine
 10
972.5549704066234
 20
2413.385478643497
 30
0.0
 11
971.2526632777171
 21
2414.015025762637
 31
0.0
  0
LINE
  5
14752
330
A
100
AcDbEntity
  8
MODEL
100
AcDbLine
 10
971.2526632777171
 20
2414.015025762637
 30
0.0
 11
969.9001852503734
 21
2414.527080205997
 31
0.0
  0
LINE
  5
14753
330
A
100
AcDbEntity
  8
MODEL
100
AcDbLine
 10
969.9001852503734
 20
2414.527080205997
 30
0.0
 11
968.5121847620921
 21
2414.933238653262
 31
0.0
  0
LINE
  5
14754
330
A
100
AcDbEntity
  8
MODEL
100
AcDbLine
 10
968.5121847620921
 20
2414.933238653262
 30
0.0
 11
967.0997091761546
 21
2415.248851446231
 31
0.0
  0
LINE
  5
14755
330
A
100
AcDbEntity
  8
MODEL
100
AcDbLine
 10
967.0997091761546
 20
2415.248851446231
 30
0.0
 11
965.6728292933421
 21
2415.489329961856
 31
0.0
  0
LINE
  5
14756
330
A
100
AcDbEntity
  8
MODEL
100
AcDbLine
 10
965.6728292933421
 20
2415.489329961856
 30
0.0
 11
964.1779562464671
 21
2415.674113897403
 31
0.0
  0
LINE
  5
14773
330
A
100
AcDbEntity
  8
MODEL
100
AcDbLine
 10
385.5948950282054
 20
2405.849254278262
 30
0.0
 11
385.0673834315257
 21
2404.184795049747
 31
0.0
  0
LINE
  5
14774
330
A
100
AcDbEntity
  8
MODEL
100
AcDbLine
 10
385.0673834315257
 20
2404.184795049747
 30
0.0
 11
384.6865622034984
 21
2402.480571416934
 31
0.0
  0
LINE
  5
14775
330
A
100
AcDbEntity
  8
MODEL
100
AcDbLine
 10
384.6865622034984
 20
2402.480571416934
 30
0.0
 11
384.4550177088695
 21
2400.749492315372
 31
0.0
  0
LINE
  5
14776
330
A
100
AcDbEntity
  8
MODEL
100
AcDbLine
 10
384.4550177088695
 20
2400.749492315372
 30
0.0
 11
384.3753134242015
 21
2398.971873907169
 31
0.0
  0
LINE
  5
14777
330
A
100
AcDbEntity
  8
MODEL
100
AcDbLine
 10
392.1668402186351
 20
2414.809795049747
 30
0.0
 11
390.9681860438304
 21
2413.809978155216
 31
0.0
  0
LINE
  5
14778
330
A
100
AcDbEntity
  8
MODEL
100
AcDbLine
 10
390.9681860438304
 20
2413.809978155216
 30
0.0
 11
389.8513189784007
 21
2412.719615606387
 31
0.0
  0
LINE
  5
14779
330
A
100
AcDbEntity
  8
MODEL
100
AcDbLine
 10
389.8513189784007
 20
2412.719615606387
 30
0.0
 11
388.8235022059398
 21
2411.544994024356
 31
0.0
  0
LINE
  5
1477A
330
A
100
AcDbEntity
  8
MODEL
100
AcDbLine
 10
388.8235022059398
 20
2411.544994024356
 30
0.0
 11
387.8903357020336
 21
2410.293773321231
 31
0.0
  0
LINE
  5
1477B
330
A
100
AcDbEntity
  8
MODEL
100
AcDbLine
 10
387.8903357020336
 20
2410.293773321231
 30
0.0
 11
387.057060860725
 21
2408.973827032169
 31
0.0
  0
LINE
  5
1477C
330
A
100
AcDbEntity
  8
MODEL
100
AcDbLine
 10
387.057060860725
 20
2408.973827032169
 30
0.0
 11
386.2367025843578
 21
2407.3974720517
 31
0.0
  0
LINE
  5
14781
330
A
100
AcDbEntity
  8
MODEL
100
AcDbLine
 10
387.6622702113109
 20
2398.971873907169
 30
0.0
 11
387.8370901576
 21
2400.414928106387
 31
0.0
  0
LINE
  5
14782
330
A
100
AcDbEntity
  8
MODEL
100
AcDbLine
 10
387.8370901576
 20
2400.414928106387
 30
0.0
 11
388.0844351283031
 21
2401.839641241153
 31
0.0
  0
LINE
  5
14783
330
A
100
AcDbEntity
  8
MODEL
100
AcDbLine
 10
388.0844351283031
 20
2401.839641241153
 30
0.0
 11
388.414009713264
 21
2403.241466192325
 31
0.0
  0
LINE
  5
14784
330
A
100
AcDbEntity
  8
MODEL
100
AcDbLine
 10
388.414009713264
 20
2403.241466192325
 30
0.0
 11
388.8355413905101
 21
2404.615794805606
 31
0.0
  0
LINE
  5
14785
330
A
100
AcDbEntity
  8
MODEL
100
AcDbLine
 10
388.8355413905101
 20
2404.615794805606
 30
0.0
 11
389.3587118617015
 21
2405.957866338809
 31
0.0
  0
LINE
  5
14786
330
A
100
AcDbEntity
  8
MODEL
100
AcDbLine
 10
389.3587118617015
 20
2405.957866338809
 30
0.0
 11
389.9896093836742
 21
2407.258189825137
 31
0.0
  0
LINE
  5
14787
330
A
100
AcDbEntity
  8
MODEL
100
AcDbLine
 10
389.9896093836742
 20
2407.258189825137
 30
0.0
 11
390.7290579310375
 21
2408.502849248966
 31
0.0
  0
LINE
  5
14788
330
A
100
AcDbEntity
  8
MODEL
100
AcDbLine
 10
390.7290579310375
 20
2408.502849248966
 30
0.0
 11
391.5775228968578
 21
2409.6777454892
 31
0.0
  0
LINE
  5
14789
330
A
100
AcDbEntity
  8
MODEL
100
AcDbLine
 10
391.5775228968578
 20
2409.6777454892
 30
0.0
 11
392.5354544154125
 21
2410.768779424747
 31
0.0
  0
LINE
  5
1478A
330
A
100
AcDbEntity
  8
MODEL
100
AcDbLine
 10
392.5354544154125
 20
2410.768779424747
 30
0.0
 11
393.5999304285961
 21
2411.760448125919
 31
0.0
  0
LINE
  5
1478B
330
A
100
AcDbEntity
  8
MODEL
100
AcDbLine
 10
393.5999304285961
 20
2411.760448125919
 30
0.0
 11
394.7595755091625
 21
2412.638835577091
 31
0.0
  0
LINE
  5
1478C
330
A
100
AcDbEntity
  8
MODEL
100
AcDbLine
 10
394.7595755091625
 20
2412.638835577091
 30
0.0
 11
396.0013891688304
 21
2413.393321661075
 31
0.0
  0
LINE
  5
1478D
330
A
100
AcDbEntity
  8
MODEL
100
AcDbLine
 10
396.0013891688304
 20
2413.393321661075
 30
0.0
 11
397.3078848353343
 21
2414.023082403262
 31
0.0
  0
LINE
  5
1478E
330
A
100
AcDbEntity
  8
MODEL
100
AcDbLine
 10
397.3078848353343
 20
2414.023082403262
 30
0.0
 11
398.6606070033031
 21
2414.534007696231
 31
0.0
  0
LINE
  5
1478F
330
A
100
AcDbEntity
  8
MODEL
100
AcDbLine
 10
398.6606070033031
 20
2414.534007696231
 30
0.0
 11
400.0435797205882
 21
2414.939220098575
 31
0.0
  0
LINE
  5
14790
330
A
100
AcDbEntity
  8
MODEL
100
AcDbLine
 10
400.0435797205882
 20
2414.939220098575
 30
0.0
 11
401.4509283534007
 21
2415.253764776309
 31
0.0
  0
LINE
  5
14791
330
A
100
AcDbEntity
  8
MODEL
100
AcDbLine
 10
401.4509283534007
 20
2415.253764776309
 30
0.0
 11
402.8779150477367
 21
2415.492351202091
 31
0.0
  0
LINE
  5
14792
330
A
100
AcDbEntity
  8
MODEL
100
AcDbLine
 10
402.8779150477367
 20
2415.492351202091
 30
0.0
 11
404.3631369105296
 21
2415.674113897403
 31
0.0
  0
LINE
  5
14793
330
A
100
AcDbEntity
  8
MODEL
100
AcDbLine
 10
397.4857565394359
 20
2040.388805059512
 30
0.0
 11
399.1502157679515
 21
2039.861293462832
 31
0.0
  0
LINE
  5
14794
330
A
100
AcDbEntity
  8
MODEL
100
AcDbLine
 10
399.1502157679515
 20
2039.861293462832
 30
0.0
 11
400.854439400764
 21
2039.480472234805
 31
0.0
  0
LINE
  5
14795
330
A
100
AcDbEntity
  8
MODEL
100
AcDbLine
 10
400.854439400764
 20
2039.480472234805
 30
0.0
 11
402.5855261317211
 21
2039.248927740176
 31
0.0
  0
LINE
  5
14796
330
A
100
AcDbEntity
  8
MODEL
100
AcDbLine
 10
402.5855261317211
 20
2039.248927740176
 30
0.0
 11
404.3631292811351
 21
2039.169223455508
 31
0.0
  0
LINE
  5
14797
330
A
100
AcDbEntity
  8
MODEL
100
AcDbLine
 10
386.2366034022289
 20
2050.731662420351
 30
0.0
 11
386.9496237269359
 21
2049.343234685976
 31
0.0
  0
LINE
  5
14798
330
A
100
AcDbEntity
  8
MODEL
100
AcDbLine
 10
386.9496237269359
 20
2049.343234685976
 30
0.0
 11
387.7685171595531
 21
2048.014537481386
 31
0.0
  0
LINE
  5
14799
330
A
100
AcDbEntity
  8
MODEL
100
AcDbLine
 10
387.7685171595531
 20
2048.014537481386
 30
0.0
 11
388.6880270472484
 21
2046.753436712344
 31
0.0
  0
LINE
  5
1479A
330
A
100
AcDbEntity
  8
MODEL
100
AcDbLine
 10
388.6880270472484
 20
2046.753436712344
 30
0.0
 11
389.7028814784007
 21
2045.567821172793
 31
0.0
  0
LINE
  5
1479B
330
A
100
AcDbEntity
  8
MODEL
100
AcDbLine
 10
389.7028814784007
 20
2045.567821172793
 30
0.0
 11
390.8076330653148
 21
2044.465449956973
 31
0.0
  0
LINE
  5
1479C
330
A
100
AcDbEntity
  8
MODEL
100
AcDbLine
 10
390.8076330653148
 20
2044.465449956973
 30
0.0
 11
392.165962838264
 21
2043.319804815371
 31
0.0
  0
LINE
  5
1479D
330
A
100
AcDbEntity
  8
MODEL
100
AcDbLine
 10
384.3753134242015
 20
2059.157039312441
 30
0.0
 11
384.4521414271312
 21
2057.411830572207
 31
0.0
  0
LINE
  5
1479E
330
A
100
AcDbEntity
  8
MODEL
100
AcDbLine
 10
384.4521414271312
 20
2057.411830572207
 30
0.0
 11
384.6808859339671
 21
2055.680316595156
 31
0.0
  0
LINE
  5
1479F
330
A
100
AcDbEntity
  8
MODEL
100
AcDbLine
 10
384.6808859339671
 20
2055.680316595156
 30
0.0
 11
385.0589758387523
 21
2053.975421575625
 31
0.0
  0
LINE
  5
147A0
330
A
100
AcDbEntity
  8
MODEL
100
AcDbLine
 10
385.0589758387523
 20
2053.975421575625
 30
0.0
 11
385.5949560633617
 21
2052.279506353457
 31
0.0
  0
LINE
  5
147A1
330
A
100
AcDbEntity
  8
MODEL
100
AcDbLine
 10
404.3631292811351
 20
2039.165836004336
 30
0.0
 11
404.3631292811351
 21
2039.21483960541
 31
0.0
  0
LINE
  5
147A2
330
A
100
AcDbEntity
  8
MODEL
100
AcDbLine
 10
404.3631369105296
 20
2042.454806951602
 30
0.0
 11
402.9210363856273
 21
2042.630443243105
 31
0.0
  0
LINE
  5
147A3
330
A
100
AcDbEntity
  8
MODEL
100
AcDbLine
 10
402.9210363856273
 20
2042.630443243105
 30
0.0
 11
401.4936911097484
 21
2042.866923955996
 31
0.0
  0
LINE
  5
147A4
330
A
100
AcDbEntity
  8
MODEL
100
AcDbLine
 10
401.4936911097484
 20
2042.866923955996
 30
0.0
 11
400.0858313075023
 21
2043.178928045352
 31
0.0
  0
LINE
  5
147A5
330
A
100
AcDbEntity
  8
MODEL
100
AcDbLine
 10
400.0858313075023
 20
2043.178928045352
 30
0.0
 11
398.702210091682
 21
2043.581126836855
 31
0.0
  0
LINE
  5
147A6
330
A
100
AcDbEntity
  8
MODEL
100
AcDbLine
 10
398.702210091682
 20
2043.581126836855
 30
0.0
 11
397.3485342493968
 21
2044.088550237734
 31
0.0
  0
LINE
  5
147A7
330
A
100
AcDbEntity
  8
MODEL
100
AcDbLine
 10
397.3485342493968
 20
2044.088550237734
 30
0.0
 11
396.0404974451976
 21
2044.714526800234
 31
0.0
  0
LINE
  5
147A8
330
A
100
AcDbEntity
  8
MODEL
100
AcDbLine
 10
396.0404974451976
 20
2044.714526800234
 30
0.0
 11
394.7965551844554
 21
2045.465037969668
 31
0.0
  0
LINE
  5
147A9
330
A
100
AcDbEntity
  8
MODEL
100
AcDbLine
 10
394.7965551844554
 20
2045.465037969668
 30
0.0
 11
393.6343008509593
 21
2046.339664129336
 31
0.0
  0
LINE
  5
147AA
330
A
100
AcDbEntity
  8
MODEL
100
AcDbLine
 10
393.6343008509593
 20
2046.339664129336
 30
0.0
 11
392.566826485725
 21
2047.327907232363
 31
0.0
  0
LINE
  5
147AB
330
A
100
AcDbEntity
  8
MODEL
100
AcDbLine
 10
392.566826485725
 20
2047.327907232363
 30
0.0
 11
391.6055990687328
 21
2048.415988592226
 31
0.0
  0
LINE
  5
147AC
330
A
100
AcDbEntity
  8
MODEL
100
AcDbLine
 10
391.6055990687328
 20
2048.415988592226
 30
0.0
 11
390.753838204475
 21
2049.588359502871
 31
0.0
  0
LINE
  5
147AD
330
A
100
AcDbEntity
  8
MODEL
100
AcDbLine
 10
390.753838204475
 20
2049.588359502871
 30
0.0
 11
390.0110708704906
 21
2050.830920843203
 31
0.0
  0
LINE
  5
147AE
330
A
100
AcDbEntity
  8
MODEL
100
AcDbLine
 10
390.0110708704906
 20
2050.830920843203
 30
0.0
 11
389.3768545618968
 21
2052.129573492129
 31
0.0
  0
LINE
  5
147AF
330
A
100
AcDbEntity
  8
MODEL
100
AcDbLine
 10
389.3768545618968
 20
2052.129573492129
 30
0.0
 11
388.850403451057
 21
2053.47037854584
 31
0.0
  0
LINE
  5
147B0
330
A
100
AcDbEntity
  8
MODEL
100
AcDbLine
 10
388.850403451057
 20
2053.47037854584
 30
0.0
 11
388.4258657923656
 21
2054.843623785097
 31
0.0
  0
LINE
  5
147B1
330
A
100
AcDbEntity
  8
MODEL
100
AcDbLine
 10
388.4258657923656
 20
2054.843623785097
 30
0.0
 11
388.093567513557
 21
2056.244479803164
 31
0.0
  0
LINE
  5
147B2
330
A
100
AcDbEntity
  8
MODEL
100
AcDbLine
 10
388.093567513557
 20
2056.244479803164
 30
0.0
 11
387.8437887659984
 21
2057.668384222109
 31
0.0
  0
LINE
  5
147B3
330
A
100
AcDbEntity
  8
MODEL
100
AcDbLine
 10
387.8437887659984
 20
2057.668384222109
 30
0.0
 11
387.6622702113109
 21
2059.157039312441
 31
0.0
  0
LINE
  5
147B4
330
A
100
AcDbEntity
  8
MODEL
100
AcDbLine
 10
982.9462057581859
 20
2052.279666570742
 30
0.0
 11
983.4737326136546
 21
2053.944125799258
 31
0.0
  0
LINE
  5
147B5
330
A
100
AcDbEntity
  8
MODEL
100
AcDbLine
 10
983.4737326136546
 20
2053.944125799258
 30
0.0
 11
983.8545309534984
 21
2055.64834943207
 31
0.0
  0
LINE
  5
147B6
330
A
100
AcDbEntity
  8
MODEL
100
AcDbLine
 10
983.8545309534984
 20
2055.64834943207
 30
0.0
 11
984.0860983363109
 21
2057.379428533633
 31
0.0
  0
LINE
  5
147B7
330
A
100
AcDbEntity
  8
MODEL
100
AcDbLine
 10
984.0860983363109
 20
2057.379428533633
 30
0.0
 11
984.1658102503734
 21
2059.157039312441
 31
0.0
  0
LINE
  5
147B8
330
A
100
AcDbEntity
  8
MODEL
100
AcDbLine
 10
976.3742453089671
 20
2043.319133428652
 30
0.0
 11
977.5729147425609
 21
2044.318942693789
 31
0.0
  0
LINE
  5
147B9
330
A
100
AcDbEntity
  8
MODEL
100
AcDbLine
 10
977.5729147425609
 20
2044.318942693789
 30
0.0
 11
978.6897970667796
 21
2045.409312872012
 31
0.0
  0
LINE
  5
147BA
330
A
100
AcDbEntity
  8
MODEL
100
AcDbLine
 10
978.6897970667796
 20
2045.409312872012
 30
0.0
 11
979.7176290980296
 21
2046.583942083437
 31
0.0
  0
LINE
  5
147BB
330
A
100
AcDbEntity
  8
MODEL
100
AcDbLine
 10
979.7176290980296
 20
2046.583942083437
 30
0.0
 11
980.6507956019359
 21
2047.835162786562
 31
0.0
  0
LINE
  5
147BC
330
A
100
AcDbEntity
  8
MODEL
100
AcDbLine
 10
980.6507956019359
 20
2047.835162786562
 30
0.0
 11
981.4840475550609
 21
2049.155093816836
 31
0.0
  0
LINE
  5
147BD
330
A
100
AcDbEntity
  8
MODEL
100
AcDbLine
 10
981.4840475550609
 20
2049.155093816836
 30
0.0
 11
982.3044210902171
 21
2050.731456426699
 31
0.0
  0
LINE
  5
147BE
330
A
100
AcDbEntity
  8
MODEL
100
AcDbLine
 10
964.1779562464671
 20
2039.169223455508
 30
0.0
 11
965.9231955042796
 21
2039.246051458437
 31
0.0
  0
LINE
  5
147BF
330
A
100
AcDbEntity
  8
MODEL
100
AcDbLine
 10
965.9231955042796
 20
2039.246051458437
 30
0.0
 11
967.6547018519359
 21
2039.474795965273
 31
0.0
  0
LINE
  5
147C0
330
A
100
AcDbEntity
  8
MODEL
100
AcDbLine
 10
967.6547018519359
 20
2039.474795965273
 30
0.0
 11
969.3595968714671
 21
2039.852885870059
 31
0.0
  0
LINE
  5
147C1
330
A
100
AcDbEntity
  8
MODEL
100
AcDbLine
 10
969.3595968714671
 20
2039.852885870059
 30
0.0
 11
971.0555197230296
 21
2040.388866094668
 31
0.0
  0
LINE
  5
147C2
330
A
100
AcDbEntity
  8
MODEL
100
AcDbLine
 10
980.7040182581859
 20
2057.714160589297
 30
0.0
 11
980.4567648402171
 21
2056.289600042422
 31
0.0
  0
LINE
  5
147CA
330
A
100
AcDbEntity
  8
MODEL
100
AcDbLine
 10
976.0066305628734
 20
2047.361186651309
 30
0.0
 11
974.9424215784984
 21
2046.369517950137
 31
0.0
  0
LINE
  5
147CC
330
A
100
AcDbEntity
  8
MODEL
100
AcDbLine
 10
973.7829977503734
 20
2045.491084722598
 30
0.0
 11
972.5414206019359
 21
2044.736529974062
 31
0.0
  0
LINE
  5
147CE
330
A
100
AcDbEntity
  8
MODEL
100
AcDbLine
 10
971.2351461878734
 20
2044.106654790957
 30
0.0
 11
969.8826071253734
 21
2043.59561505707
 31
0.0
  0
LINE
  5
147D1
330
A
100
AcDbEntity
  8
MODEL
100
AcDbLine
 10
967.0926901331859
 20
2042.875636724551
 30
0.0
 11
965.6658712855296
 21
2042.636974004824
 31
0.0
  0
LINE
  5
147D2
330
A
100
AcDbEntity
  8
MODEL
100
AcDbLine
 10
965.6658712855296
 20
2042.636974004824
 30
0.0
 11
964.1779562464671
 21
2042.454806951602
 31
0.0
  0
LINE
  5
147D3
330
A
100
AcDbEntity
  8
MODEL
100
AcDbLine
 10
971.0553366175609
 20
2417.740123418887
 30
0.0
 11
969.3909079066234
 21
2418.267619756778
 31
0.0
  0
LINE
  5
147D4
330
A
100
AcDbEntity
  8
MODEL
100
AcDbLine
 10
969.3909079066234
 20
2418.267619756778
 30
0.0
 11
967.6866842738109
 21
2418.6484486142
 31
0.0
  0
LINE
  5
147D5
330
A
100
AcDbEntity
  8
MODEL
100
AcDbLine
 10
967.6866842738109
 20
2418.6484486142
 30
0.0
 11
965.9556051722484
 21
2418.879985479434
 31
0.0
  0
LINE
  5
147D6
330
A
100
AcDbEntity
  8
MODEL
100
AcDbLine
 10
965.9556051722484
 20
2418.879985479434
 30
0.0
 11
964.1779562464671
 21
2418.959697393497
 31
0.0
  0
LINE
  5
147D7
330
A
100
AcDbEntity
  8
MODEL
100
AcDbLine
 10
982.3044821253734
 20
2407.397258428653
 30
0.0
 11
981.5914694300609
 21
2408.785686163028
 31
0.0
  0
LINE
  5
147D8
330
A
100
AcDbEntity
  8
MODEL
100
AcDbLine
 10
981.5914694300609
 20
2408.785686163028
 30
0.0
 11
980.7725607386546
 21
2410.114390997012
 31
0.0
  0
LINE
  5
147D9
330
A
100
AcDbEntity
  8
MODEL
100
AcDbLine
 10
980.7725607386546
 20
2410.114390997012
 30
0.0
 11
979.8530661097484
 21
2411.37549939545
 31
0.0
  0
LINE
  5
147DA
330
A
100
AcDbEntity
  8
MODEL
100
AcDbLine
 10
979.8530661097484
 20
2411.37549939545
 30
0.0
 11
978.8382345667796
 21
2412.561107305606
 31
0.0
  0
LINE
  5
147DB
330
A
100
AcDbEntity
  8
MODEL
100
AcDbLine
 10
978.8382345667796
 20
2412.561107305606
 30
0.0
 11
977.7334982386546
 21
2413.663463262637
 31
0.0
  0
LINE
  5
147DC
330
A
100
AcDbEntity
  8
MODEL
100
AcDbLine
 10
977.7334982386546
 20
2413.663463262637
 30
0.0
 11
976.3751608363109
 21
2414.809123663028
 31
0.0
  0
LINE
  5
147DD
330
A
100
AcDbEntity
  8
MODEL
100
AcDbLine
 10
984.1658102503734
 20
2398.971873907169
 30
0.0
 11
984.0889669886546
 21
2400.717082647403
 31
0.0
  0
LINE
  5
147DE
330
A
100
AcDbEntity
  8
MODEL
100
AcDbLine
 10
984.0889669886546
 20
2400.717082647403
 30
0.0
 11
983.8602072230296
 21
2402.448619512637
 31
0.0
  0
LINE
  5
147DF
330
A
100
AcDbEntity
  8
MODEL
100
AcDbLine
 10
983.8602072230296
 20
2402.448619512637
 30
0.0
 11
983.4821554652171
 21
2404.153514532169
 31
0.0
  0
LINE
  5
147E0
330
A
100
AcDbEntity
  8
MODEL
100
AcDbLine
 10
983.4821554652171
 20
2404.153514532169
 30
0.0
 11
982.9461447230296
 21
2405.849406866153
 31
0.0
  0
LINE
  5
147E1
330
A
100
AcDbEntity
  8
MODEL
100
AcDbLine
 10
964.1779562464671
 20
2415.674113897403
 30
0.0
 11
965.6200949183421
 21
2415.498485235294
 31
0.0
  0
LINE
  5
147E2
330
A
100
AcDbEntity
  8
MODEL
100
AcDbLine
 10
965.6200949183421
 20
2415.498485235294
 30
0.0
 11
967.0474020472484
 21
2415.262004522403
 31
0.0
  0
LINE
  5
147E3
330
A
100
AcDbEntity
  8
MODEL
100
AcDbLine
 10
967.0474020472484
 20
2415.262004522403
 30
0.0
 11
968.4552999964671
 21
2414.949992803653
 31
0.0
  0
LINE
  5
147E4
330
A
100
AcDbEntity
  8
MODEL
100
AcDbLine
 10
968.4552999964671
 20
2414.949992803653
 30
0.0
 11
969.8389059534984
 21
2414.547801641544
 31
0.0
  0
LINE
  5
147E5
330
A
100
AcDbEntity
  8
MODEL
100
AcDbLine
 10
969.8389059534984
 20
2414.547801641544
 30
0.0
 11
971.1925436488109
 21
2414.040385870059
 31
0.0
  0
LINE
  5
147E6
330
A
100
AcDbEntity
  8
MODEL
100
AcDbLine
 10
971.1925436488109
 20
2414.040385870059
 30
0.0
 11
972.5005880824046
 21
2413.414409307559
 31
0.0
  0
LINE
  5
147E7
330
A
100
AcDbEntity
  8
MODEL
100
AcDbLine
 10
972.5005880824046
 20
2413.414409307559
 30
0.0
 11
973.7445456019359
 21
2412.663890508731
 31
0.0
  0
LINE
  5
147E8
330
A
100
AcDbEntity
  8
MODEL
100
AcDbLine
 10
973.7445456019359
 20
2412.663890508731
 30
0.0
 11
974.9067770472484
 21
2411.789256719669
 31
0.0
  0
LINE
  5
147E9
330
A
100
AcDbEntity
  8
MODEL
100
AcDbLine
 10
974.9067770472484
 20
2411.789256719669
 30
0.0
 11
975.9742819300609
 21
2410.801005987247
 31
0.0
  0
LINE
  5
147EA
330
A
100
AcDbEntity
  8
MODEL
100
AcDbLine
 10
975.9742819300609
 20
2410.801005987247
 30
0.0
 11
976.9355246058421
 21
2409.712932256778
 31
0.0
  0
LINE
  5
147EB
330
A
100
AcDbEntity
  8
MODEL
100
AcDbLine
 10
976.9355246058421
 20
2409.712932256778
 30
0.0
 11
977.7872702113109
 21
2408.540568975528
 31
0.0
  0
LINE
  5
147EC
330
A
100
AcDbEntity
  8
MODEL
100
AcDbLine
 10
977.7872702113109
 20
2408.540568975528
 30
0.0
 11
978.5300070277171
 21
2407.298015264591
 31
0.0
  0
LINE
  5
147ED
330
A
100
AcDbEntity
  8
MODEL
100
AcDbLine
 10
978.5300070277171
 20
2407.298015264591
 30
0.0
 11
979.1642843714671
 21
2405.999339727481
 31
0.0
  0
LINE
  5
147EE
330
A
100
AcDbEntity
  8
MODEL
100
AcDbLine
 10
979.1642843714671
 20
2405.999339727481
 30
0.0
 11
979.6907125941234
 21
2404.658549932559
 31
0.0
  0
LINE
  5
147EF
330
A
100
AcDbEntity
  8
MODEL
100
AcDbLine
 10
979.6907125941234
 20
2404.658549932559
 30
0.0
 11
980.1152731409984
 21
2403.285289434512
 31
0.0
  0
LINE
  5
147F0
330
A
100
AcDbEntity
  8
MODEL
100
AcDbLine
 10
980.1152731409984
 20
2403.285289434512
 30
0.0
 11
980.4475485316234
 21
2401.884441045841
 31
0.0
  0
LINE
  5
147F1
330
A
100
AcDbEntity
  8
MODEL
100
AcDbLine
 10
980.4475485316234
 20
2401.884441045841
 30
0.0
 11
980.6973043909984
 21
2400.460551885684
 31
0.0
  0
LINE
  5
147F2
330
A
100
AcDbEntity
  8
MODEL
100
AcDbLine
 10
980.6973043909984
 20
2400.460551885684
 30
0.0
 11
980.8788229456859
 21
2398.971873907169
 31
0.0
  0
LINE
  5
147F3
330
A
100
AcDbEntity
  8
MODEL
100
AcDbLine
 10
964.1779753546416
 20
2039.16583258306
 30
0.0
 11
404.3631330567496
 21
2039.169224811026
 31
0.0
  0
LINE
  5
147F7
330
A
100
AcDbEntity
  8
MODEL
100
AcDbLine
 10
984.1691828007878
 20
2398.971883640753
 30
0.0
 11
984.1657918994188
 21
2059.157041351407
 31
0.0
  0
LINE
  5
147F8
330
A
100
AcDbEntity
  8
MODEL
100
AcDbLine
 10
981.2324472621112
 20
2383.461548608083
 30
0.0
 11
981.2324472621112
 21
2383.62132768788
 31
0.0
  0
LINE
  5
147F9
330
A
100
AcDbEntity
  8
MODEL
100
AcDbLine
 10
981.2324472621112
 20
2074.507604660789
 30
0.0
 11
981.2324472621112
 21
2074.667423652571
 31
0.0
  0
LINE
  5
147FE
330
A
100
AcDbEntity
  8
MODEL
100
AcDbLine
 10
404.3631330567514
 20
2418.959700194076
 30
0.0
 11
684.2705542078929
 21
2418.959700194076
 31
0.0
  0
LINE
  5
14800
330
A
100
AcDbEntity
  8
MODEL
100
AcDbLine
 10
387.3086611536746
 20
2074.667383740519
 30
0.0
 11
387.3086611536746
 21
2074.507604660774
 31
0.0
  0
LINE
  5
14801
330
A
100
AcDbEntity
  8
MODEL
100
AcDbLine
 10
387.3086611536746
 20
2383.621327687861
 30
0.0
 11
387.3086611536746
 21
2383.461508696042
 31
0.0
  0
LINE
  5
14802
330
A
100
AcDbEntity
  8
MODEL
100
AcDbLine
 10
384.3753165163671
 20
2059.157041351407
 30
0.0
 11
384.3753134242015
 21
2398.971873907169
 31
0.0
  0
LINE
  5
14803
330
A
100
AcDbEntity
  8
MODEL
100
AcDbLine
 10
981.0624250880319
 20
2061.849437040717
 30
0.0
 11
981.0594813588286
 21
2061.847234679965
 31
0.0
  0
LINE
  5
14804
330
A
100
AcDbEntity
  8
MODEL
100
AcDbLine
 10
387.4786833277558
 20
2396.279495443988
 30
0.0
 11
387.4816270569572
 21
2396.281697805978
 31
0.0
  0
LINE
  5
14805
330
A
100
AcDbEntity
  8
MODEL
100
AcDbLine
 10
966.1283773462201
 20
2042.708894803783
 30
0.0
 11
966.1039156491934
 21
2042.702759834987
 31
0.0
  0
LINE
  5
14806
330
A
100
AcDbEntity
  8
MODEL
100
AcDbLine
 10
966.1039156488132
 20
2415.426172513728
 30
0.0
 11
966.1283773456398
 21
2415.420037544983
 31
0.0
  0
LINE
  5
14807
330
A
100
AcDbEntity
  8
MODEL
100
AcDbLine
 10
981.0624250879555
 20
2396.279495444044
 30
0.0
 11
981.0594824692089
 21
2396.281696979758
 31
0.0
  0
LINE
  5
14808
330
A
100
AcDbEntity
  8
MODEL
100
AcDbLine
 10
402.4127310694839
 20
2415.420037544818
 30
0.0
 11
402.4371927669727
 21
2415.42617251373
 31
0.0
  0
LINE
  5
14809
330
A
100
AcDbEntity
  8
MODEL
100
AcDbLine
 10
387.481625946577
 20
2061.847235506185
 30
0.0
 11
387.4786833278304
 21
2061.84943704066
 31
0.0
  0
LINE
  5
1480A
330
A
100
AcDbEntity
  8
MODEL
100
AcDbLine
 10
402.4371927670236
 20
2042.702759834879
 30
0.0
 11
402.4127310702079
 21
2042.708894803621
 31
0.0
  0
LINE
  5
1480B
330
A
100
AcDbEntity
  8
MODEL
100
AcDbLine
 10
387.2705542078929
 20
2229.0644642392
 30
0.0
 11
387.2705465784984
 21
2235.130595830997
 31
0.0
  0
LINE
  5
1480C
330
A
100
AcDbEntity
  8
MODEL
100
AcDbLine
 10
387.2705465784984
 20
2235.130595830997
 30
0.0
 11
387.2705313197093
 21
2241.196727422794
 31
0.0
  0
LINE
  5
1480D
330
A
100
AcDbEntity
  8
MODEL
100
AcDbLine
 10
387.2705313197093
 20
2241.196727422794
 30
0.0
 11
387.2705008021312
 21
2247.262828497012
 31
0.0
  0
LINE
  5
1480E
330
A
100
AcDbEntity
  8
MODEL
100
AcDbLine
 10
387.2705008021312
 20
2247.262828497012
 30
0.0
 11
387.2704702845531
 21
2253.328960088809
 31
0.0
  0
LINE
  5
1480F
330
A
100
AcDbEntity
  8
MODEL
100
AcDbLine
 10
387.2704702845531
 20
2253.328960088809
 30
0.0
 11
387.270439766975
 21
2259.395091680606
 31
0.0
  0
LINE
  5
14810
330
A
100
AcDbEntity
  8
MODEL
100
AcDbLine
 10
387.270439766975
 20
2259.395091680606
 30
0.0
 11
387.2704092493968
 21
2265.461223272403
 31
0.0
  0
LINE
  5
14811
330
A
100
AcDbEntity
  8
MODEL
100
AcDbLine
 10
387.2704092493968
 20
2265.461223272403
 30
0.0
 11
387.2703787318187
 21
2271.5273548642
 31
0.0
  0
LINE
  5
14812
330
A
100
AcDbEntity
  8
MODEL
100
AcDbLine
 10
387.2703787318187
 20
2271.5273548642
 30
0.0
 11
387.2703634730296
 21
2277.593486455997
 31
0.0
  0
LINE
  5
14813
330
A
100
AcDbEntity
  8
MODEL
100
AcDbLine
 10
387.2703634730296
 20
2277.593486455997
 30
0.0
 11
387.2703482142406
 21
2283.659587530216
 31
0.0
  0
LINE
  5
14814
330
A
100
AcDbEntity
  8
MODEL
100
AcDbLine
 10
387.2703482142406
 20
2283.659587530216
 30
0.0
 11
387.2703558436351
 21
2289.725719122012
 31
0.0
  0
LINE
  5
14815
330
A
100
AcDbEntity
  8
MODEL
100
AcDbLine
 10
387.2703558436351
 20
2289.725719122012
 30
0.0
 11
387.2703787318187
 21
2295.791850713809
 31
0.0
  0
LINE
  5
14816
330
A
100
AcDbEntity
  8
MODEL
100
AcDbLine
 10
387.2703787318187
 20
2295.791850713809
 30
0.0
 11
387.2704245081859
 21
2301.857982305606
 31
0.0
  0
LINE
  5
14817
330
A
100
AcDbEntity
  8
MODEL
100
AcDbLine
 10
387.2704245081859
 20
2301.857982305606
 30
0.0
 11
387.2704855433421
 21
2307.924113897403
 31
0.0
  0
LINE
  5
14818
330
A
100
AcDbEntity
  8
MODEL
100
AcDbLine
 10
387.2704855433421
 20
2307.924113897403
 30
0.0
 11
387.2705770960765
 21
2313.9902454892
 31
0.0
  0
LINE
  5
14819
330
A
100
AcDbEntity
  8
MODEL
100
AcDbLine
 10
387.2705770960765
 20
2313.9902454892
 30
0.0
 11
387.2707067957836
 21
2320.056377080997
 31
0.0
  0
LINE
  5
1481A
330
A
100
AcDbEntity
  8
MODEL
100
AcDbLine
 10
387.2707067957836
 20
2320.056377080997
 30
0.0
 11
387.2709356776195
 21
2326.122478155216
 31
0.0
  0
LINE
  5
1481B
330
A
100
AcDbEntity
  8
MODEL
100
AcDbLine
 10
387.2709356776195
 20
2326.122478155216
 30
0.0
 11
387.2713247767406
 21
2332.188609747012
 31
0.0
  0
LINE
  5
1481C
330
A
100
AcDbEntity
  8
MODEL
100
AcDbLine
 10
387.2713247767406
 20
2332.188609747012
 30
0.0
 11
387.2719580164867
 21
2338.254741338809
 31
0.0
  0
LINE
  5
1481D
330
A
100
AcDbEntity
  8
MODEL
100
AcDbLine
 10
387.2719580164867
 20
2338.254741338809
 30
0.0
 11
387.2729040614086
 21
2344.320872930606
 31
0.0
  0
LINE
  5
1481E
330
A
100
AcDbEntity
  8
MODEL
100
AcDbLine
 10
387.2729040614086
 20
2344.320872930606
 30
0.0
 11
387.2742239466625
 21
2350.387004522403
 31
0.0
  0
LINE
  5
1481F
330
A
100
AcDbEntity
  8
MODEL
100
AcDbLine
 10
387.2742239466625
 20
2350.387004522403
 30
0.0
 11
387.2760015955882
 21
2356.4531361142
 31
0.0
  0
LINE
  5
14820
330
A
100
AcDbEntity
  8
MODEL
100
AcDbLine
 10
387.2760015955882
 20
2356.4531361142
 30
0.0
 11
387.2782827845531
 21
2362.519237188419
 31
0.0
  0
LINE
  5
14821
330
A
100
AcDbEntity
  8
MODEL
100
AcDbLine
 10
387.2782827845531
 20
2362.519237188419
 30
0.0
 11
387.282044076057
 21
2368.585368780216
 31
0.0
  0
LINE
  5
14822
330
A
100
AcDbEntity
  8
MODEL
100
AcDbLine
 10
387.282044076057
 20
2368.585368780216
 30
0.0
 11
387.2887884608226
 21
2374.651500372012
 31
0.0
  0
LINE
  5
14823
330
A
100
AcDbEntity
  8
MODEL
100
AcDbLine
 10
387.2887884608226
 20
2374.651500372012
 30
0.0
 11
387.2999884119945
 21
2380.717631963809
 31
0.0
  0
LINE
  5
14824
330
A
100
AcDbEntity
  8
MODEL
100
AcDbLine
 10
387.2999884119945
 20
2380.717631963809
 30
0.0
 11
387.3236700526195
 21
2386.783763555606
 31
0.0
  0
LINE
  5
14825
330
A
100
AcDbEntity
  8
MODEL
100
AcDbLine
 10
387.3236700526195
 20
2386.783763555606
 30
0.0
 11
387.3850637904125
 21
2392.849895147403
 31
0.0
  0
LINE
  5
14826
330
A
100
AcDbEntity
  8
MODEL
100
AcDbLine
 10
387.3850637904125
 20
2392.849895147403
 30
0.0
 11
387.6622702113109
 21
2398.971873907169
 31
0.0
  0
LINE
  5
14827
330
A
100
AcDbEntity
  8
MODEL
100
AcDbLine
 10
981.2705465784984
 20
2229.0644642392
 30
0.0
 11
981.2705465784984
 21
2222.998332647403
 31
0.0
  0
LINE
  5
14828
330
A
100
AcDbEntity
  8
MODEL
100
AcDbLine
 10
981.2705465784984
 20
2222.998332647403
 30
0.0
 11
981.2706076136546
 21
2216.932201055605
 31
0.0
  0
LINE
  5
14829
330
A
100
AcDbEntity
  8
MODEL
100
AcDbLine
 10
981.2706076136546
 20
2216.932201055605
 30
0.0
 11
981.2706076136546
 21
2210.866069463808
 31
0.0
  0
LINE
  5
1482A
330
A
100
AcDbEntity
  8
MODEL
100
AcDbLine
 10
981.2706076136546
 20
2210.866069463808
 30
0.0
 11
981.2706076136546
 21
2204.79996838959
 31
0.0
  0
LINE
  5
1482B
330
A
100
AcDbEntity
  8
MODEL
100
AcDbLine
 10
981.2706076136546
 20
2204.79996838959
 30
0.0
 11
981.2706686488109
 21
2198.733836797793
 31
0.0
  0
LINE
  5
1482C
330
A
100
AcDbEntity
  8
MODEL
100
AcDbLine
 10
981.2706686488109
 20
2198.733836797793
 30
0.0
 11
981.2707296839671
 21
2192.667705205996
 31
0.0
  0
LINE
  5
1482D
330
A
100
AcDbEntity
  8
MODEL
100
AcDbLine
 10
981.2707296839671
 20
2192.667705205996
 30
0.0
 11
981.2707296839671
 21
2186.601573614199
 31
0.0
  0
LINE
  5
1482E
330
A
100
AcDbEntity
  8
MODEL
100
AcDbLine
 10
981.2707296839671
 20
2186.601573614199
 30
0.0
 11
981.2707296839671
 21
2180.535442022402
 31
0.0
  0
LINE
  5
1482F
330
A
100
AcDbEntity
  8
MODEL
100
AcDbLine
 10
981.2707296839671
 20
2180.535442022402
 30
0.0
 11
981.2707296839671
 21
2174.469325689394
 31
0.0
  0
LINE
  5
14830
330
A
100
AcDbEntity
  8
MODEL
100
AcDbLine
 10
981.2707296839671
 20
2174.469325689394
 30
0.0
 11
981.2707296839671
 21
2168.403194097597
 31
0.0
  0
LINE
  5
14831
330
A
100
AcDbEntity
  8
MODEL
100
AcDbLine
 10
981.2707296839671
 20
2168.403194097597
 30
0.0
 11
981.2707296839671
 21
2162.337062505801
 31
0.0
  0
LINE
  5
14832
330
A
100
AcDbEntity
  8
MODEL
100
AcDbLine
 10
981.2707296839671
 20
2162.337062505801
 30
0.0
 11
981.2706686488109
 21
2156.270946172793
 31
0.0
  0
LINE
  5
14833
330
A
100
AcDbEntity
  8
MODEL
100
AcDbLine
 10
981.2706686488109
 20
2156.270946172793
 30
0.0
 11
981.2706076136546
 21
2150.204814580996
 31
0.0
  0
LINE
  5
14834
330
A
100
AcDbEntity
  8
MODEL
100
AcDbLine
 10
981.2706076136546
 20
2150.204814580996
 30
0.0
 11
981.2705465784984
 21
2144.138682989199
 31
0.0
  0
LINE
  5
14835
330
A
100
AcDbEntity
  8
MODEL
100
AcDbLine
 10
981.2705465784984
 20
2144.138682989199
 30
0.0
 11
981.2704245081859
 21
2138.072566656191
 31
0.0
  0
LINE
  5
14836
330
A
100
AcDbEntity
  8
MODEL
100
AcDbLine
 10
981.2704245081859
 20
2138.072566656191
 30
0.0
 11
981.2701803675609
 21
2132.006435064394
 31
0.0
  0
LINE
  5
14837
330
A
100
AcDbEntity
  8
MODEL
100
AcDbLine
 10
981.2701803675609
 20
2132.006435064394
 30
0.0
 11
981.2697531214671
 21
2125.940303472597
 31
0.0
  0
LINE
  5
14838
330
A
100
AcDbEntity
  8
MODEL
100
AcDbLine
 10
981.2697531214671
 20
2125.940303472597
 30
0.0
 11
981.2691427699046
 21
2119.87418713959
 31
0.0
  0
LINE
  5
14839
330
A
100
AcDbEntity
  8
MODEL
100
AcDbLine
 10
981.2691427699046
 20
2119.87418713959
 30
0.0
 11
981.2682272425609
 21
2113.808055547793
 31
0.0
  0
LINE
  5
1483A
330
A
100
AcDbEntity
  8
MODEL
100
AcDbLine
 10
981.2682272425609
 20
2113.808055547793
 30
0.0
 11
981.2668844691234
 21
2107.741923955996
 31
0.0
  0
LINE
  5
1483B
330
A
100
AcDbEntity
  8
MODEL
100
AcDbLine
 10
981.2668844691234
 20
2107.741923955996
 30
0.0
 11
981.2651144495921
 21
2101.675807622988
 31
0.0
  0
LINE
  5
1483C
330
A
100
AcDbEntity
  8
MODEL
100
AcDbLine
 10
981.2651144495921
 20
2101.675807622988
 30
0.0
 11
981.2628561488109
 21
2095.609676031191
 31
0.0
  0
LINE
  5
1483D
330
A
100
AcDbEntity
  8
MODEL
100
AcDbLine
 10
981.2628561488109
 20
2095.609676031191
 30
0.0
 11
981.2590719691234
 21
2089.543544439394
 31
0.0
  0
LINE
  5
1483E
330
A
100
AcDbEntity
  8
MODEL
100
AcDbLine
 10
981.2590719691234
 20
2089.543544439394
 30
0.0
 11
981.2522970667796
 21
2083.477428106386
 31
0.0
  0
LINE
  5
1483F
330
A
100
AcDbEntity
  8
MODEL
100
AcDbLine
 10
981.2522970667796
 20
2083.477428106386
 30
0.0
 11
981.2411276331859
 21
2077.41129651459
 31
0.0
  0
LINE
  5
14840
330
A
100
AcDbEntity
  8
MODEL
100
AcDbLine
 10
981.2411276331859
 20
2077.41129651459
 30
0.0
 11
981.2174459925609
 21
2071.345164922793
 31
0.0
  0
LINE
  5
14841
330
A
100
AcDbEntity
  8
MODEL
100
AcDbLine
 10
981.2174459925609
 20
2071.345164922793
 30
0.0
 11
981.1560446253734
 21
2065.279048589785
 31
0.0
  0
LINE
  5
14842
330
A
100
AcDbEntity
  8
MODEL
100
AcDbLine
 10
981.1560446253734
 20
2065.279048589785
 30
0.0
 11
980.8788229456859
 21
2059.157039312441
 31
0.0
  0
LINE
  5
1485B
330
A
100
AcDbEntity
  8
MODEL
100
AcDbLine
 10
415.7156836024242
 20
2042.11336102875
 30
0.0
 11
404.3631369105296
 21
2042.454806951602
 31
0.0
  0
LINE
  5
1485D
330
A
100
AcDbEntity
  8
MODEL
100
AcDbLine
 10
981.1669088831859
 20
2392.184947637637
 30
0.0
 11
981.2248922816234
 21
2385.397990850528
 31
0.0
  0
LINE
  5
1485E
330
A
100
AcDbEntity
  8
MODEL
100
AcDbLine
 10
981.2248922816234
 20
2385.397990850528
 30
0.0
 11
981.2456442347484
 21
2378.611034063419
 31
0.0
  0
LINE
  5
1485F
330
A
100
AcDbEntity
  8
MODEL
100
AcDbLine
 10
981.2456442347484
 20
2378.611034063419
 30
0.0
 11
981.2558981409984
 21
2371.824077276309
 31
0.0
  0
LINE
  5
14860
330
A
100
AcDbEntity
  8
MODEL
100
AcDbLine
 10
981.2558981409984
 20
2371.824077276309
 30
0.0
 11
981.2615133753734
 21
2365.037151006778
 31
0.0
  0
LINE
  5
14861
330
A
100
AcDbEntity
  8
MODEL
100
AcDbLine
 10
981.2615133753734
 20
2365.037151006778
 30
0.0
 11
981.2645040980296
 21
2358.250194219669
 31
0.0
  0
LINE
  5
14862
330
A
100
AcDbEntity
  8
MODEL
100
AcDbLine
 10
981.2645040980296
 20
2358.250194219669
 30
0.0
 11
981.2665792933421
 21
2351.463237432559
 31
0.0
  0
LINE
  5
14863
330
A
100
AcDbEntity
  8
MODEL
100
AcDbLine
 10
981.2665792933421
 20
2351.463237432559
 30
0.0
 11
981.2681662074046
 21
2344.67628064545
 31
0.0
  0
LINE
  5
14864
330
A
100
AcDbEntity
  8
MODEL
100
AcDbLine
 10
981.2681662074046
 20
2344.67628064545
 30
0.0
 11
981.2692038050609
 21
2337.889354375919
 31
0.0
  0
LINE
  5
14865
330
A
100
AcDbEntity
  8
MODEL
100
AcDbLine
 10
981.2692038050609
 20
2337.889354375919
 30
0.0
 11
981.2698751917796
 21
2331.102397588809
 31
0.0
  0
LINE
  5
14866
330
A
100
AcDbEntity
  8
MODEL
100
AcDbLine
 10
981.2698751917796
 20
2331.102397588809
 30
0.0
 11
981.2702414027171
 21
2324.3154408017
 31
0.0
  0
LINE
  5
14867
330
A
100
AcDbEntity
  8
MODEL
100
AcDbLine
 10
981.2702414027171
 20
2324.3154408017
 30
0.0
 11
981.2704855433421
 21
2317.528484014591
 31
0.0
  0
LINE
  5
14868
330
A
100
AcDbEntity
  8
MODEL
100
AcDbLine
 10
981.2704855433421
 20
2317.528484014591
 30
0.0
 11
981.2706076136546
 21
2310.741557745059
 31
0.0
  0
LINE
  5
14869
330
A
100
AcDbEntity
  8
MODEL
100
AcDbLine
 10
981.2706076136546
 20
2310.741557745059
 30
0.0
 11
981.2706686488109
 21
2303.95460095795
 31
0.0
  0
LINE
  5
1486A
330
A
100
AcDbEntity
  8
MODEL
100
AcDbLine
 10
981.2706686488109
 20
2303.95460095795
 30
0.0
 11
981.2707296839671
 21
2297.167644170841
 31
0.0
  0
LINE
  5
1486B
330
A
100
AcDbEntity
  8
MODEL
100
AcDbLine
 10
981.2707296839671
 20
2297.167644170841
 30
0.0
 11
981.2707296839671
 21
2290.380687383731
 31
0.0
  0
LINE
  5
1486C
330
A
100
AcDbEntity
  8
MODEL
100
AcDbLine
 10
981.2707296839671
 20
2290.380687383731
 30
0.0
 11
981.2707296839671
 21
2283.5937611142
 31
0.0
  0
LINE
  5
1486D
330
A
100
AcDbEntity
  8
MODEL
100
AcDbLine
 10
981.2707296839671
 20
2283.5937611142
 30
0.0
 11
981.2707296839671
 21
2276.806804327091
 31
0.0
  0
LINE
  5
1486E
330
A
100
AcDbEntity
  8
MODEL
100
AcDbLine
 10
981.2707296839671
 20
2276.806804327091
 30
0.0
 11
981.2707296839671
 21
2270.019847539981
 31
0.0
  0
LINE
  5
1486F
330
A
100
AcDbEntity
  8
MODEL
100
AcDbLine
 10
981.2707296839671
 20
2270.019847539981
 30
0.0
 11
981.2706686488109
 21
2263.232890752872
 31
0.0
  0
LINE
  5
14870
330
A
100
AcDbEntity
  8
MODEL
100
AcDbLine
 10
981.2706686488109
 20
2263.232890752872
 30
0.0
 11
981.2706686488109
 21
2256.445933965762
 31
0.0
  0
LINE
  5
14871
330
A
100
AcDbEntity
  8
MODEL
100
AcDbLine
 10
981.2706686488109
 20
2256.445933965762
 30
0.0
 11
981.2706076136546
 21
2249.659007696231
 31
0.0
  0
LINE
  5
14872
330
A
100
AcDbEntity
  8
MODEL
100
AcDbLine
 10
981.2706076136546
 20
2249.659007696231
 30
0.0
 11
981.2706076136546
 21
2242.872050909122
 31
0.0
  0
LINE
  5
14873
330
A
100
AcDbEntity
  8
MODEL
100
AcDbLine
 10
981.2706076136546
 20
2242.872050909122
 30
0.0
 11
981.2705465784984
 21
2236.085094122012
 31
0.0
  0
LINE
  5
14874
330
A
100
AcDbEntity
  8
MODEL
100
AcDbLine
 10
981.2705465784984
 20
2236.085094122012
 30
0.0
 11
981.2705465784984
 21
2229.0644642392
 31
0.0
  0
LINE
  5
14875
330
A
100
AcDbEntity
  8
MODEL
100
AcDbLine
 10
387.6622702113109
 20
2059.157039312441
 30
0.0
 11
387.374214791389
 21
2065.943996099551
 31
0.0
  0
LINE
  5
14876
330
A
100
AcDbEntity
  8
MODEL
100
AcDbLine
 10
387.374214791389
 20
2065.943996099551
 30
0.0
 11
387.3162085047679
 21
2072.730937627871
 31
0.0
  0
LINE
  5
14877
330
A
100
AcDbEntity
  8
MODEL
100
AcDbLine
 10
387.3162085047679
 20
2072.730937627871
 30
0.0
 11
387.2954870692211
 21
2079.51789441498
 31
0.0
  0
LINE
  5
14878
330
A
100
AcDbEntity
  8
MODEL
100
AcDbLine
 10
387.2954870692211
 20
2079.51789441498
 30
0.0
 11
387.2851797572093
 21
2086.304835943301
 31
0.0
  0
LINE
  5
14879
330
A
100
AcDbEntity
  8
MODEL
100
AcDbLine
 10
387.2851797572093
 20
2086.304835943301
 30
0.0
 11
387.2795797816234
 21
2093.09179273041
 31
0.0
  0
LINE
  5
1487A
330
A
100
AcDbEntity
  8
MODEL
100
AcDbLine
 10
387.2795797816234
 20
2093.09179273041
 30
0.0
 11
387.2766119471507
 21
2099.87873425873
 31
0.0
  0
LINE
  5
1487B
330
A
100
AcDbEntity
  8
MODEL
100
AcDbLine
 10
387.2766119471507
 20
2099.87873425873
 30
0.0
 11
387.2745062342601
 21
2106.66569104584
 31
0.0
  0
LINE
  5
1487C
330
A
100
AcDbEntity
  8
MODEL
100
AcDbLine
 10
387.2745062342601
 20
2106.66569104584
 30
0.0
 11
387.2729650965648
 21
2113.45263257416
 31
0.0
  0
LINE
  5
1487D
330
A
100
AcDbEntity
  8
MODEL
100
AcDbLine
 10
387.2729650965648
 20
2113.45263257416
 30
0.0
 11
387.2719122401195
 21
2120.239589361269
 31
0.0
  0
LINE
  5
1487E
330
A
100
AcDbEntity
  8
MODEL
100
AcDbLine
 10
387.2719122401195
 20
2120.239589361269
 30
0.0
 11
387.2712408534007
 21
2127.02653088959
 31
0.0
  0
LINE
  5
1487F
330
A
100
AcDbEntity
  8
MODEL
100
AcDbLine
 10
387.2712408534007
 20
2127.02653088959
 30
0.0
 11
387.2708517542796
 21
2133.813487676699
 31
0.0
  0
LINE
  5
14880
330
A
100
AcDbEntity
  8
MODEL
100
AcDbLine
 10
387.2708517542796
 20
2133.813487676699
 30
0.0
 11
387.2706457606273
 21
2140.600429205019
 31
0.0
  0
LINE
  5
14881
330
A
100
AcDbEntity
  8
MODEL
100
AcDbLine
 10
387.2706457606273
 20
2140.600429205019
 30
0.0
 11
387.2705236903148
 21
2147.387385992129
 31
0.0
  0
LINE
  5
14882
330
A
100
AcDbEntity
  8
MODEL
100
AcDbLine
 10
387.2705236903148
 20
2147.387385992129
 30
0.0
 11
387.270439766975
 21
2154.174327520449
 31
0.0
  0
LINE
  5
14883
330
A
100
AcDbEntity
  8
MODEL
100
AcDbLine
 10
387.270439766975
 20
2154.174327520449
 30
0.0
 11
387.2703863612132
 21
2160.961284307558
 31
0.0
  0
LINE
  5
14884
330
A
100
AcDbEntity
  8
MODEL
100
AcDbLine
 10
387.2703863612132
 20
2160.961284307558
 30
0.0
 11
387.2703558436351
 21
2167.748225835879
 31
0.0
  0
LINE
  5
14885
330
A
100
AcDbEntity
  8
MODEL
100
AcDbLine
 10
387.2703558436351
 20
2167.748225835879
 30
0.0
 11
387.2703482142406
 21
2174.535182622988
 31
0.0
  0
LINE
  5
14886
330
A
100
AcDbEntity
  8
MODEL
100
AcDbLine
 10
387.2703482142406
 20
2174.535182622988
 30
0.0
 11
387.2703634730296
 21
2181.322124151308
 31
0.0
  0
LINE
  5
14887
330
A
100
AcDbEntity
  8
MODEL
100
AcDbLine
 10
387.2703634730296
 20
2181.322124151308
 30
0.0
 11
387.2703863612132
 21
2188.109080938418
 31
0.0
  0
LINE
  5
14888
330
A
100
AcDbEntity
  8
MODEL
100
AcDbLine
 10
387.2703863612132
 20
2188.109080938418
 30
0.0
 11
387.2704168787914
 21
2194.896037725527
 31
0.0
  0
LINE
  5
14889
330
A
100
AcDbEntity
  8
MODEL
100
AcDbLine
 10
387.2704168787914
 20
2194.896037725527
 30
0.0
 11
387.270455025764
 21
2201.682963995058
 31
0.0
  0
LINE
  5
1488A
330
A
100
AcDbEntity
  8
MODEL
100
AcDbLine
 10
387.270455025764
 20
2201.682963995058
 30
0.0
 11
387.2704931727367
 21
2208.469920782168
 31
0.0
  0
LINE
  5
1488B
330
A
100
AcDbEntity
  8
MODEL
100
AcDbLine
 10
387.2704931727367
 20
2208.469920782168
 30
0.0
 11
387.2705236903148
 21
2215.256877569277
 31
0.0
  0
LINE
  5
1488C
330
A
100
AcDbEntity
  8
MODEL
100
AcDbLine
 10
387.2705236903148
 20
2215.256877569277
 30
0.0
 11
387.2705465784984
 21
2222.043834356387
 31
0.0
  0
LINE
  5
1488D
330
A
100
AcDbEntity
  8
MODEL
100
AcDbLine
 10
387.2705465784984
 20
2222.043834356387
 30
0.0
 11
387.2705542078929
 21
2229.0644642392
 31
0.0
  0
LINE
  5
1488E
330
A
100
AcDbEntity
  8
MODEL
100
AcDbLine
 10
964.1779562464671
 20
2042.454806951602
 30
0.0
 11
952.5329977503734
 21
2042.111850408633
 31
0.0
  0
LINE
  5
148D7
330
A
100
AcDbEntity
  8
MODEL
100
AcDbLine
 10
404.3631330611352
 20
2418.96309240535
 30
0.0
 11
964.1779562464671
 21
2418.959697393497
 31
0.0
  0
ARC
  5
148DF
330
A
100
AcDbEntity
  8
MODEL
100
AcDbCircle
 10
964.1906484863666
 20
2398.984558090093
 30
0.0
 40
19.97853833477743
100
AcDbArc
 50
359.9636513697159
 51
90.03634485129953
  0
ARC
  5
148E0
330
A
100
AcDbEntity
  8
MODEL
100
AcDbCircle
 10
964.1906239872969
 20
2059.144391397385
 30
0.0
 40
19.97856281831456
100
AcDbArc
 50
269.9637254529885
 51
0.0362783255558404
  0
ARC
  5
148E1
330
A
100
AcDbEntity
  8
MODEL
100
AcDbCircle
 10
404.3504599194439
 20
2059.144366888342
 30
0.0
 40
19.97853832480808
100
AcDbArc
 50
179.963651341069
 51
270.0363448799621
  0
ARC
  5
148E2
330
A
100
AcDbEntity
  8
MODEL
100
AcDbCircle
 10
404.3504844384661
 20
2398.984533581049
 30
0.0
 40
19.97856282828534
100
AcDbArc
 50
89.963725481651
 51
180.0362782969011
  0
CIRCLE
  5
148E3
330
A
100
AcDbEntity
  8
MODEL
100
AcDbCircle
 10
684.2705542078929
 20
2229.064466567709
 30
0.0
 40
22.19536554648002
  0
CIRCLE
  5
148E4
330
A
100
AcDbEntity
  8
MODEL
100
AcDbCircle
 10
684.2705542078929
 20
2229.064466567709
 30
0.0
 40
22.0
  0
SPLINE
  5
148E5
330
A
100
AcDbEntity
  8
MODEL
100
AcDbSpline
210
0.0
220
0.0
230
1.0
 70
     8
 71
     3
 72
    26
 73
    22
 74
     0
 42
0.000000001
 43
0.0000000001
 40
0.0
 40
0.0
 40
0.0
 40
0.0
 40
0.0133914922960312
 40
0.0133914922960312
 40
0.1749311402028722
 40
0.1749311402028722
 40
0.3364707881097131
 40
0.3364707881097131
 40
0.498010436016554
 40
0.498010436016554
 40
0.5787802599699746
 40
0.5787802599699746
 40
0.659550083923395
 40
0.659550083923395
 40
0.8210897318302358
 40
0.8210897318302358
 40
0.9018595557836565
 40
0.9018595557836565
 40
0.9826293797370769
 40
0.9826293797370769
 40
1.0
 40
1.0
 40
1.0
 40
1.0
 10
721.02023741208
 20
2229.06206236944
 30
0.0
 10
721.020475624211
 20
2229.319609339908
 30
0.0
 10
721.0178809387962
 20
2229.577430326502
 30
0.0
 10
720.947130596478
 20
2232.94887329748
 30
0.0
 10
720.480811570329
 20
2236.072181106037
 30
0.0
 10
718.7818986826551
 20
2242.074372021606
 30
0.0
 10
717.5483695725725
 20
2244.968051262756
 30
0.0
 10
714.3836651147667
 20
2250.36089063396
 30
0.0
 10
712.4527029655383
 20
2252.853083930367
 30
0.0
 10
709.172807579549
 20
2256.13534768404
 30
0.0
 10
708.0142758387756
 20
2257.157122659122
 30
0.0
 10
705.5661877117764
 20
2259.055428067429
 30
0.0
 10
704.266929190564
 20
2259.937153083602
 30
0.0
 10
700.2501853856174
 20
2262.304121749909
 30
0.0
 10
697.4174218457574
 20
2263.522965309261
 30
0.0
 10
692.9356942733084
 20
2264.812108326968
 30
0.0
 10
691.4025310012894
 20
2265.148954980733
 30
0.0
 10
688.3447700229171
 20
2265.620705612325
 30
0.0
 10
686.8092849107798
 20
2265.759131101103
 30
0.0
 10
684.935618063495
 20
2265.809948276971
 30
0.0
 10
684.6033144093253
 20
2265.81398436412
 30
0.0
 10
684.2705562638821
 20
2265.813020594186
 30
0.0
  0
SPLINE
  5
148E6
330
A
100
AcDbEntity
  8
MODEL
100
AcDbSpline
210
0.0
220
0.0
230
1.0
 70
     8
 71
     3
 72
    22
 73
    18
 74
     0
 42
0.000000001
 43
0.0000000001
 40
0.0
 40
0.0
 40
0.0
 40
0.0
 40
0.0164933572037652
 40
0.0164933572037652
 40
0.178096203361326
 40
0.178096203361326
 40
0.2588976264401065
 40
0.2588976264401065
 40
0.3396990495188869
 40
0.3396990495188869
 40
0.5013018956764478
 40
0.5013018956764478
 40
0.8245075879915698
 40
0.8245075879915698
 40
0.9861104341491307
 40
0.9861104341491307
 40
1.0
 40
1.0
 40
1.0
 40
1.0
 10
684.2705570053458
 20
2192.315413952836
 30
0.0
 10
684.5873306805897
 20
2192.314755655524
 30
0.0
 10
684.9045418517289
 20
2192.318559542117
 30
0.0
 10
688.3344836851775
 20
2192.407375838793
 30
0.0
 10
691.4220217286438
 20
2192.883906731883
 30
0.0
 10
695.8928347947021
 20
2194.166205446273
 30
0.0
 10
697.3722489087977
 20
2194.694112058961
 30
0.0
 10
700.2260715320826
 20
2195.922388914939
 30
0.0
 10
701.6031624167754
 20
2196.621888912299
 30
0.0
 10
705.5882760781187
 20
2198.97081552176
 30
0.0
 10
708.0751254131628
 20
2200.893135865464
 30
0.0
 10
714.6830478093416
 20
2207.511769865981
 30
0.0
 10
717.9457491516969
 20
2213.082318233823
 30
0.0
 10
720.4860770407267
 20
2222.084498793877
 30
0.0
 10
720.9449233397845
 20
2225.183805704668
 30
0.0
 10
721.0176411178636
 20
2228.531230486559
 30
0.0
 10
721.020347126143
 20
2228.796516561831
 30
0.0
 10
721.0199925685101
 20
2229.062061454667
 30
0.0
  0
SPLINE
  5
148E7
330
A
100
AcDbEntity
  8
MODEL
100
AcDbSpline
210
0.0
220
0.0
230
1.0
 70
     8
 71
     3
 72
    22
 73
    18
 74
     0
 42
0.000000001
 43
0.0000000001
 40
0.0
 40
0.0
 40
0.0
 40
0.0
 40
0.0164920325843595
 40
0.0164920325843595
 40
0.1780811087093251
 40
0.1780811087093251
 40
0.258875646771808
 40
0.258875646771808
 40
0.3396701848342908
 40
0.3396701848342908
 40
0.5012592609592565
 40
0.5012592609592565
 40
0.8244374132091883
 40
0.8244374132091883
 40
0.9860264893341539
 40
0.9860264893341539
 40
1.0
 40
1.0
 40
1.0
 40
1.0
 10
684.2705560643681
 20
2265.813519172911
 30
0.0
 10
683.9537808420955
 20
2265.814177517151
 30
0.0
 10
683.6365681196203
 20
2265.810373633582
 30
0.0
 10
680.2066247306011
 20
2265.721557296624
 30
0.0
 10
677.119086687142
 20
2265.245026403535
 30
0.0
 10
672.6482736210837
 20
2263.962727689144
 30
0.0
 10
671.1688595069809
 20
2263.434821076457
 30
0.0
 10
668.3150368837032
 20
2262.206544220479
 30
0.0
 10
666.9379459990105
 20
2261.507044223118
 30
0.0
 10
662.9528323376671
 20
2259.158117613658
 30
0.0
 10
660.4659830026158
 20
2257.235797269954
 30
0.0
 10
653.858060606437
 20
2250.617163269436
 30
0.0
 10
650.5953592640817
 20
2245.046614901595
 30
0.0
 10
648.0550313750518
 20
2236.044434341541
 30
0.0
 10
647.5961850759941
 20
2232.945127430749
 30
0.0
 10
647.5234320207765
 20
2229.596078732648
 30
0.0
 10
647.5207282314459
 20
2229.32916443782
 30
0.0
 10
647.5211227119744
 20
2229.06198870843
 30
0.0
  0
SPLINE
  5
148E8
330
A
100
AcDbEntity
  8
MODEL
100
AcDbSpline
210
0.0
220
0.0
230
1.0
 70
     8
 71
     3
 72
    26
 73
    22
 74
     0
 42
0.000000001
 43
0.0000000001
 40
0.0
 40
0.0
 40
0.0
 40
0.0
 40
0.0133079916893831
 40
0.0133079916893831
 40
0.1748612980781918
 40
0.1748612980781918
 40
0.3364146044670006
 40
0.3364146044670006
 40
0.4979679108558091
 40
0.4979679108558091
 40
0.5787445640502136
 40
0.5787445640502136
 40
0.6595212172446179
 40
0.6595212172446179
 40
0.8210745236334265
 40
0.8210745236334265
 40
0.9018511768278309
 40
0.9018511768278309
 40
0.9826278300222353
 40
0.9826278300222353
 40
1.0
 40
1.0
 40
1.0
 40
1.0
 10
647.5208668270443
 20
2229.061988133239
 30
0.0
 10
647.5206656977698
 20
2228.806065254788
 30
0.0
 10
647.5232617035963
 20
2228.549871819641
 30
0.0
 10
647.5939778193006
 20
2225.180059837939
 30
0.0
 10
648.0602968454568
 20
2222.056752029382
 30
0.0
 10
649.7592097331235
 20
2216.054561113812
 30
0.0
 10
650.9927388432061
 20
2213.160881872663
 30
0.0
 10
654.1574433010119
 20
2207.768042501457
 30
0.0
 10
656.0884054502403
 20
2205.275849205052
 30
0.0
 10
659.3683008362368
 20
2201.993585451377
 30
0.0
 10
660.5268325770103
 20
2200.971810476295
 30
0.0
 10
662.9749207040022
 20
2199.07350506799
 30
0.0
 10
664.2741792252145
 20
2198.191780051815
 30
0.0
 10
668.2909230301684
 20
2195.824811385509
 30
0.0
 10
671.1236865700212
 20
2194.605967826156
 30
0.0
 10
675.6054141424775
 20
2193.31682480845
 30
0.0
 10
677.1385774144965
 20
2192.979978154684
 30
0.0
 10
680.1963383928614
 20
2192.508227523093
 30
0.0
 10
681.7318235049988
 20
2192.369802034315
 30
0.0
 10
683.6054918985119
 20
2192.31898481651
 30
0.0
 10
683.9377971051381
 20
2192.314948733662
 30
0.0
 10
684.2705568062829
 20
2192.315912554713
 30
0.0
  0
LINE
  5
148E9
330
A
100
AcDbEntity
  8
MODEL
100
AcDbLine
 10
1500.048163021398
 20
1126.665168210543
 30
0.0
 11
1456.970033508048
 21
1126.665168210543
 31
0.0
  0
LINE
  5
148EA
330
A
100
AcDbEntity
  8
MODEL
100
AcDbLine
 10
1730.708661918488
 20
1126.665168210543
 30
0.0
 11
1687.630555061829
 21
1126.665168210543
 31
0.0
  0
LINE
  5
148F0
330
A
100
AcDbEntity
  8
MODEL
100
AcDbLine
 10
1780.448998616124
 20
1246.665167303605
 30
0.0
 11
1763.746767158075
 21
1246.665166573587
 31
0.0
  0
LINE
  5
148F1
330
A
100
AcDbEntity
  8
MODEL
100
AcDbLine
 10
1763.746767158114
 20
1246.665166573587
 30
0.0
 11
1593.839346059331
 21
1246.665166556465
 31
0.0
  0
LINE
  5
148F6
330
A
100
AcDbEntity
  8
MODEL
100
AcDbLine
 10
1593.839346059331
 20
1246.665166556465
 30
0.0
 11
1423.931924994791
 21
1246.665166573589
 31
0.0
  0
LINE
  5
148F7
330
A
100
AcDbEntity
  8
MODEL
100
AcDbLine
 10
1423.931924994791
 20
1246.665166573589
 30
0.0
 11
1407.229694996769
 21
1246.665167303605
 31
0.0
  0
LINE
  5
148F8
330
A
100
AcDbEntity
  8
MODEL
100
AcDbLine
 10
1407.229694996769
 20
1246.665167303605
 30
0.0
 11
1406.989448488766
 21
1246.665167469199
 31
0.0
  0
LINE
  5
148F9
330
A
100
AcDbEntity
  8
MODEL
100
AcDbLine
 10
1667.581099766183
 20
1125.665170973162
 30
0.0
 11
1520.097601185873
 21
1125.665170973162
 31
0.0
  0
LINE
  5
14900
330
A
100
AcDbEntity
  8
MODEL
100
AcDbLine
 10
1730.70866191937
 20
1126.665168210543
 30
0.0
 11
1742.998459960293
 21
1126.665168747747
 31
0.0
  0
LWPOLYLINE
  5
14901
330
A
100
AcDbEntity
  8
MODEL
100
AcDbPolyline
 90
       15
 70
     0
 43
0.0
 38
0.0000000000000087
 10
1444.68024038927
 20
1126.665168094655
 10
1444.760349031848
 20
1126.665168094655
 10
1444.996188875598
 20
1126.665168094655
 10
1445.380985018176
 20
1126.665168094655
 10
1445.907993074817
 20
1126.665168094655
 10
1446.570422884387
 20
1126.665168094655
 10
1447.3615605797
 20
1126.665168094655
 10
1448.274600740833
 20
1126.665168094655
 10
1449.299594637317
 20
1126.665168094655
 10
1450.42129873888
 20
1126.665168094655
 10
1451.62506460802
 20
1126.665168094655
 10
1452.896259066028
 20
1126.665168094655
 10
1454.220233675403
 20
1126.665168094655
 10
1455.582339998645
 20
1126.665168094655
 10
1456.970035311145
 20
1126.665168094655
  0
LINE
  5
14902
330
A
100
AcDbEntity
  8
MODEL
100
AcDbLine
 10
1667.581099766183
 20
1125.665170973162
 30
0.0
 11
1679.797104370379
 21
1125.665171507141
 31
0.0
  0
LWPOLYLINE
  5
14903
330
A
100
AcDbEntity
  8
MODEL
100
AcDbPolyline
 90
       15
 70
     0
 43
0.0
 38
0.0000000000000087
 10
1507.881595369739
 20
1125.665171909352
 10
1507.958102938098
 20
1125.665171909352
 10
1508.184009310169
 20
1125.665171909352
 10
1508.553928133411
 20
1125.665171909352
 10
1509.062442537708
 20
1125.665171909352
 10
1509.70416617052
 20
1125.665171909352
 10
1510.473666902942
 20
1125.665171909352
 10
1511.365573641223
 20
1125.665171909352
 10
1512.371509310169
 20
1125.665171909352
 10
1513.477954622669
 20
1125.665171909352
 10
1514.671893831653
 20
1125.665171909352
 10
1515.94034170763
 20
1125.665171909352
 10
1517.270282503528
 20
1125.665171909352
 10
1518.648715731067
 20
1125.665171909352
 10
1520.097598787708
 20
1125.665171909352
  0
LINE
  5
14907
330
A
100
AcDbEntity
  8
MODEL
100
AcDbLine
 10
1763.746767158115
 20
1246.665166573587
 30
0.0
 11
1780.448998616174
 21
1246.665167303605
 31
0.0
  0
LINE
  5
14908
330
A
100
AcDbEntity
  8
MODEL
100
AcDbLine
 10
1407.229694996768
 20
1246.665167303605
 30
0.0
 11
1423.931924994791
 21
1246.665166573589
 31
0.0
  0
LINE
  5
1490A
330
A
100
AcDbEntity
  8
MODEL
100
AcDbLine
 10
1678.165054101167
 20
1246.665166556466
 30
0.0
 11
1763.746767158115
 21
1246.665166573587
 31
0.0
  0
LINE
  5
1490B
102
{ACAD_REACTORS
330
152B7
102
}
330
A
100
AcDbEntity
  8
MODEL
100
AcDbLine
 10
1593.839346059331
 20
1246.665166556465
 30
0.0
 11
1595.168331985668
 21
1246.665166556465
 31
0.0
  0
LWPOLYLINE
  5
1490C
330
A
100
AcDbEntity
  8
MODEL
100
AcDbPolyline
 90
        9
 70
     0
 43
0.0
 38
0.0000000000000087
 10
1403.944118257923
 20
1243.665179538747
 10
1403.964999910755
 20
1244.386401462575
 10
1404.080592867298
 20
1244.999118137379
 10
1404.289973970813
 20
1245.510089206715
 10
1404.593646761341
 20
1245.924426364918
 10
1404.993571993274
 20
1246.245654392262
 10
1405.493175264759
 20
1246.475924778004
 10
1406.097461458606
 20
1246.61596994402
 10
1406.839359041614
 20
1246.665179538747
  0
LWPOLYLINE
  5
1490D
330
A
100
AcDbEntity
  8
MODEL
100
AcDbPolyline
 90
        9
 70
     0
 43
0.0
 38
0.0000000000000087
 10
1783.734592195911
 20
1243.665179538747
 10
1783.713718172473
 20
1244.386401462575
 10
1783.598117586536
 20
1244.999118137379
 10
1783.38873648302
 20
1245.510089206715
 10
1783.085056063098
 20
1245.924426364918
 10
1782.685153719348
 20
1246.245654392262
 10
1782.185550447864
 20
1246.475924778004
 10
1781.581271883411
 20
1246.61596994402
 10
1780.839359041614
 20
1246.665179538747
  0
LINE
  5
14918
330
A
100
AcDbEntity
  8
MODEL
100
AcDbLine
 10
1438.224868982991
 20
1126.665179538747
 30
0.0
 11
1444.680247331935
 21
1126.665179538747
 31
0.0
  0
LINE
  5
14919
330
A
100
AcDbEntity
  8
MODEL
100
AcDbLine
 10
1742.998470751293
 20
1126.665179538747
 30
0.0
 11
1749.453849100237
 21
1126.665179538747
 31
0.0
  0
LINE
  5
14923
330
A
100
AcDbEntity
  8
MODEL
100
AcDbLine
 10
1685.39450882342
 20
1125.665179538747
 30
0.0
 11
1679.797112401986
 21
1125.665179538747
 31
0.0
  0
LINE
  5
14924
330
A
100
AcDbEntity
  8
MODEL
100
AcDbLine
 10
1507.881605681242
 20
1125.665179538747
 30
0.0
 11
1502.284209259808
 21
1125.665179538747
 31
0.0
  0
ARC
  5
14935
330
A
100
AcDbEntity
  8
MODEL
100
AcDbCircle
 10
1502.284237081832
 20
1128.665215797113
 30
0.0
 40
3.000036258496553
100
AcDbArc
 50
221.8109148449777
 51
269.9994686447289
  0
ARC
  5
14936
330
A
100
AcDbEntity
  8
MODEL
100
AcDbCircle
 10
1685.394481001396
 20
1128.665215797113
 30
0.0
 40
3.00003625849594
100
AcDbArc
 50
270.0005313550886
 51
318.1890851550107
  0
ARC
  5
14939
330
A
100
AcDbEntity
  8
MODEL
100
AcDbCircle
 10
1438.224869629699
 20
1129.665181100042
 30
0.0
 40
3.000001561294519
100
AcDbArc
 50
225.0000123512571
 51
269.9999876486713
  0
ARC
  5
1493A
330
A
100
AcDbEntity
  8
MODEL
100
AcDbCircle
 10
1749.453848453527
 20
1129.665181100043
 30
0.0
 40
3.000001561297545
100
AcDbArc
 50
270.0000123512419
 51
314.9999876486969
  0
LINE
  5
1493F
330
A
100
AcDbEntity
  8
MODEL
100
AcDbLine
 10
1403.944121350089
 20
1243.665179538747
 30
0.0
 11
1406.877465987396
 21
1159.665179538747
 31
0.0
  0
LINE
  5
14940
330
A
100
AcDbEntity
  8
MODEL
100
AcDbLine
 10
1783.734596733139
 20
1243.665179538747
 30
0.0
 11
1780.801252095832
 21
1159.665179538747
 31
0.0
  0
LINE
  5
14941
330
A
100
AcDbEntity
  8
MODEL
100
AcDbLine
 10
1751.575169443798
 20
1127.543859195187
 30
0.0
 11
1778.196489787357
 21
1154.165179538747
 31
0.0
  0
LINE
  5
14943
330
A
100
AcDbEntity
  8
MODEL
100
AcDbLine
 10
1436.10354863943
 20
1127.543859195188
 30
0.0
 11
1409.482228295871
 21
1154.165179538747
 31
0.0
  0
LWPOLYLINE
  5
1494B
330
A
100
AcDbEntity
  8
MODEL
100
AcDbPolyline
 90
        8
 70
     0
 43
0.0
 38
0.0000000000000087
 10
1406.877467867298
 20
1159.665179538747
 10
1406.940547701282
 20
1158.776171970387
 10
1407.089847322864
 20
1157.897803592702
 10
1407.359325167102
 20
1157.04894952776
 10
1407.759464022083
 20
1156.253371524831
 10
1408.26528525011
 20
1155.519942569752
 10
1408.839397188587
 20
1154.838183689137
 10
1409.482227083606
 20
1154.165179538747
  0
LWPOLYLINE
  5
1494C
330
A
100
AcDbEntity
  8
MODEL
100
AcDbPolyline
 90
        8
 70
     0
 43
0.0
 38
0.0000000000000087
 10
1778.196475740833
 20
1154.165179538747
 10
1778.812930818958
 20
1154.809066104909
 10
1779.389316317005
 20
1155.488917636891
 10
1779.898898836536
 20
1156.219752597829
 10
1780.304477449817
 20
1157.012595462819
 10
1780.579715486926
 20
1157.859584140797
 10
1780.733676668567
 20
1158.737128543873
 10
1780.801242586536
 20
1159.665179538747
  0
LWPOLYLINE
  5
1494D
330
A
100
AcDbEntity
  8
MODEL
100
AcDbPolyline
 90
       16
 70
     0
 43
0.0
 38
0.0000000000000087
 10
1782.193851229114
 20
1246.473117160817
 10
1782.188022371692
 20
1246.476519870778
 10
1782.178958650989
 20
1246.481189060231
 10
1782.169925447864
 20
1246.485736179372
 10
1782.164279695911
 20
1246.488787937184
 10
1782.165347811145
 20
1246.488986301442
 10
1782.176425692005
 20
1246.484957981129
 10
1782.200839754505
 20
1246.47534494402
 10
1782.241916414661
 20
1246.458758640309
 10
1782.302951570911
 20
1246.43384103777
 10
1782.385379549426
 20
1246.399676609059
 10
1782.475558992786
 20
1246.359195041676
 10
1782.558048006458
 20
1246.317843723317
 10
1782.632358309192
 20
1246.277606296559
 10
1782.728152986926
 20
1246.217883396168
 10
1782.786350008411
 20
1246.179492282887
  0
LWPOLYLINE
  5
1494E
330
A
100
AcDbEntity
  8
MODEL
100
AcDbPolyline
 90
        9
 70
     0
 43
0.0
 38
0.0000000000000087
 10
1778.196475740833
 20
1154.165168094655
 10
1778.667117830676
 20
1154.645903873463
 10
1779.153323885364
 20
1155.179358768483
 10
1779.630161043567
 20
1155.777991580983
 10
1780.056430574817
 20
1156.448333072682
 10
1780.388553377551
 20
1157.18237619402
 10
1780.610080477161
 20
1157.95748834612
 10
1780.737186190051
 20
1158.751704502125
 10
1780.801242586536
 20
1159.665168094655
  0
LWPOLYLINE
  5
1494F
330
A
100
AcDbEntity
  8
MODEL
100
AcDbPolyline
 90
        9
 70
     0
 43
0.0
 38
0.0000000000000087
 10
1409.482219454212
 20
1154.165168094655
 10
1409.011691805286
 20
1154.645781803151
 10
1408.525600191516
 20
1155.179091739674
 10
1408.048854586048
 20
1155.777541446706
 10
1407.622646089954
 20
1156.447665500661
 10
1407.290469881458
 20
1157.181475925465
 10
1407.068851229114
 20
1157.956366825123
 10
1406.941646334094
 20
1158.750376987477
 10
1406.877498384876
 20
1159.663817691823
  0
LWPOLYLINE
  5
14950
330
A
100
AcDbEntity
  8
MODEL
100
AcDbPolyline
 90
        3
 70
     0
 43
0.0
 38
0.0000000000000087
 10
1407.318050142688
 20
1246.656222629567
 10
1407.280658480091
 20
1246.657214450856
 10
1407.121349092884
 20
1246.661471653004
  0
LINE
  5
15211
330
A
100
AcDbEntity
  8
HIDDEN
 48
0.5
100
AcDbLine
 10
1631.328874362722
 20
1150.675488453478
 30
0.0
 11
1556.371988752931
 21
1150.678420546804
 31
0.0
  0
LINE
  5
15212
330
A
100
AcDbEntity
  8
HIDDEN
 48
0.5
100
AcDbLine
 10
1615.964420281087
 20
1136.435676125199
 30
0.0
 11
1571.738046567184
 21
1136.457484033007
 31
0.0
  0
SPLINE
  5
15213
330
A
100
AcDbEntity
  8
HIDDEN
 48
0.5
100
AcDbSpline
210
0.0
220
0.0
230
1.0
 70
  1064
 71
     3
 72
    93
 73
    89
 74
    87
 42
0.000000001
 43
0.0000000001
 44
0.0
 40
0.0
 40
0.0
 40
0.0
 40
0.0
 40
1.25993391861375
 40
1.83069847048374
 40
2.541900120343604
 40
2.93466739294983
 40
3.364679948356839
 40
3.925589383690324
 40
4.401010030311541
 40
4.930489821723772
 40
5.589065605785367
 40
6.032909770281534
 40
6.600044139824524
 40
7.274899771728455
 40
8.067284707233117
 40
8.653588683306142
 40
9.790375033598831
 40
10.63508542847061
 40
12.02277138963074
 40
13.11047545709913
 40
14.57965812952057
 40
16.38721454093495
 40
17.80787731738916
 40
19.5227151745626
 40
22.30403722555817
 40
25.66678553652786
 40
30.06375269736527
 40
34.4586616854525
 40
42.50379352224896
 40
49.06899695071764
 40
57.78340615581133
 40
64.28650300308038
 40
69.31380664916499
 40
75.01178818524609
 40
82.73657454300886
 40
87.57078059543605
 40
95.01221982512128
 40
101.5806236781546
 40
113.4796447531272
 40
124.7022096344893
 40
138.0969944667126
 40
153.9480074135018
 40
174.1081905414374
 40
180.2315821817729
 40
182.4199256233823
 40
182.9224723205416
 40
183.4715690781761
 40
184.0135746508933
 40
184.4865880746527
 40
184.910767019011
 40
185.8902017431925
 40
186.4960506402282
 40
187.1774737188805
 40
187.8729913962205
 40
188.5205069241942
 40
189.1337893082713
 40
189.7550634913489
 40
190.6575647323551
 40
191.135704294306
 40
191.6960284853427
 40
192.5979044858337
 40
192.7570074047238
 40
193.4943663294895
 40
194.2000340750869
 40
196.1258275471799
 40
197.7146687618538
 40
199.7731823975386
 40
201.6716273352378
 40
204.5946758206269
 40
208.0691189631295
 40
210.3581306413876
 40
211.4059566544842
 40
211.8062669994234
 40
212.1921762700624
 40
212.6722236372493
 40
213.1696648300294
 40
213.5845972238398
 40
214.0862611536414
 40
214.297762197089
 40
214.4520329397573
 40
214.7157384098608
 40
215.2361409894512
 40
215.803095439181
 40
216.2606379297726
 40
216.5385879144376
 40
217.4285603082637
 40
220.2213464348229
 40
225.2234167861839
 40
225.2234167861839
 40
225.2234167861839
 40
225.2234167861839
 10
1406.771320227735
 20
1246.715074672462
 30
0.0000000000000087
 10
1407.191660700369
 20
1246.697185144501
 30
0.0000000000000087
 10
1407.802420240188
 20
1246.671191454679
 30
0.0000000000000087
 10
1408.636262819317
 20
1246.507573761256
 30
0.0000000000000087
 10
1409.167530762222
 20
1246.338359904019
 30
0.0000000000000087
 10
1409.672733964291
 20
1246.236463144492
 30
0.0000000000000087
 10
1410.075591584903
 20
1246.002861514649
 30
0.0000000000000087
 10
1410.513378721832
 20
1245.789623427255
 30
0.0000000000000087
 10
1410.995737760509
 20
1245.581332963603
 30
0.0000000000000087
 10
1411.426629991429
 20
1245.226288330096
 30
0.0000000000000087
 10
1411.876908999328
 20
1244.922416399455
 30
0.0000000000000087
 10
1412.315353087633
 20
1244.577752149293
 30
0.0000000000000087
 10
1412.710540025783
 20
1244.177560075074
 30
0.0000000000000087
 10
1413.222917920671
 20
1243.731126180158
 30
0.0000000000000087
 10
1413.654977654951
 20
1243.197794903836
 30
0.0000000000000087
 10
1414.217209433323
 20
1242.575615173854
 30
0.0000000000000087
 10
1414.720677024461
 20
1241.881540842292
 30
0.0000000000000087
 10
1415.373815352397
 20
1240.968254739109
 30
0.0000000000000087
 10
1415.969175891019
 20
1240.034470961235
 30
0.0000000000000087
 10
1416.643225920242
 20
1238.905483323716
 30
0.0000000000000087
 10
1417.34307399386
 20
1237.629610628086
 30
0.0000000000000087
 10
1418.051257358192
 20
1236.232892156284
 30
0.0000000000000087
 10
1418.763749665259
 20
1234.747104250032
 30
0.0000000000000087
 10
1419.57681801225
 20
1232.950071088203
 30
0.0000000000000087
 10
1420.608587987162
 20
1230.541954699348
 30
0.0000000000000087
 10
1421.927273928408
 20
1227.284951876259
 30
0.0000000000000087
 10
1423.40305974657
 20
1223.511694232736
 30
0.0000000000000087
 10
1425.445992955355
 20
1218.284589820991
 30
0.0000000000000087
 10
1427.840061662344
 20
1212.417361462675
 30
0.0000000000000087
 10
1431.134754057643
 20
1205.371637230884
 30
0.0000000000000087
 10
1434.701344365806
 20
1199.031767737654
 30
0.0000000000000087
 10
1438.600138230224
 20
1193.510290307909
 30
0.0000000000000087
 10
1442.33849401871
 20
1189.142521914443
 30
0.0000000000000087
 10
1446.733239795008
 20
1184.828517699632
 30
0.0000000000000087
 10
1451.532321111051
 20
1181.057343981972
 30
0.0000000000000087
 10
1457.158060258068
 20
1177.47200317415
 30
0.0000000000000087
 10
1462.7253292664
 20
1174.54054852896
 30
0.0000000000000087
 10
1470.680895711916
 20
1171.163469970802
 30
0.0000000000000087
 10
1480.114621312945
 20
1168.114702932845
 30
0.0000000000000087
 10
1491.954980646809
 20
1165.265198085775
 30
0.0000000000000087
 10
1505.231460598364
 20
1162.846265568413
 30
0.0000000000000087
 10
1521.536509244345
 20
1160.517342827046
 30
0.0000000000000087
 10
1535.479116485508
 20
1158.821072694893
 30
0.0000000000000087
 10
1544.888242128517
 20
1157.582949363618
 30
0.0000000000000087
 10
1547.804065099748
 20
1157.218788032254
 30
0.0000000000000087
 10
1548.872094914577
 20
1157.059109031541
 30
0.0000000000000087
 10
1549.398086410926
 20
1156.98295336059
 30
0.0000000000000087
 10
1549.906874768296
 20
1156.867280324966
 30
0.0000000000000087
 10
1550.370571611971
 20
1156.743874154103
 30
0.0000000000000087
 10
1550.967484218146
 20
1156.556741686363
 30
0.0000000000000087
 10
1551.587706020623
 20
1156.293933646254
 30
0.0000000000000087
 10
1552.229550690438
 20
1155.892145314552
 30
0.0000000000000087
 10
1552.747026749402
 20
1155.478655206047
 30
0.0000000000000087
 10
1553.226011966749
 20
1155.001513216072
 30
0.0000000000000087
 10
1553.642056229452
 20
1154.498389815662
 30
0.0000000000000088
 10
1554.006152835535
 20
1153.986982725651
 30
0.0000000000000082
 10
1554.386470151235
 20
1153.384447326115
 30
0.000000000000011
 10
1554.726651317195
 20
1152.810252742138
 30
-0.0000000000000017
 10
1555.044649262144
 20
1152.246822217901
 30
0.0000000000000004
 10
1555.389452423537
 20
1151.698858542966
 30
-0.0000000000000002
 10
1555.737870777491
 20
1151.282143450421
 30
0.0
 10
1556.159152655402
 20
1150.855619303258
 30
0.0
 10
1556.569150948335
 20
1150.512040619642
 30
0.0
 10
1557.428937559867
 20
1149.790375300076
 30
0.0
 10
1558.506834454811
 20
1148.886038589678
 30
0.0
 10
1559.929851057541
 20
1147.691945984324
 30
0.0
 10
1561.345988297858
 20
1146.503686203835
 30
0.0
 10
1563.102762031415
 20
1145.029538014643
 30
0.0
 10
1565.221215770294
 20
1143.252167445464
 30
0.0
 10
1567.438885953553
 20
1141.390397601415
 30
0.0
 10
1569.17905308764
 20
1139.932286307506
 30
0.0
 10
1570.132020357361
 20
1139.129720027103
 30
0.0
 10
1570.601972138093
 20
1138.739044909643
 30
0.0
 10
1570.920652039701
 20
1138.461186208332
 30
0.0
 10
1571.210014045441
 20
1138.107497105701
 30
0.0
 10
1571.445378851068
 20
1137.705200067324
 30
0.0
 10
1571.618899132252
 20
1137.265382377222
 30
0.0
 10
1571.702219995907
 20
1136.896723584024
 30
0.0
 10
1571.732821206721
 20
1136.608971028769
 30
0.0
 10
1571.740484986738
 20
1136.399214366372
 30
0.0
 10
1571.74396613806
 20
1136.086450723372
 30
0.0
 10
1571.752925012306
 20
1135.636175346945
 30
0.0
 10
1571.761549535264
 20
1135.121283903159
 30
0.0
 10
1571.769192468176
 20
1134.687201668667
 30
0.0
 10
1571.778666987298
 20
1134.145462719933
 30
0.0
 10
1571.800939807219
 20
1132.825420931952
 30
0.0
 10
1571.865073354666
 20
1129.931037651858
 30
0.0
 10
1571.849410267556
 20
1127.332615471441
 30
0.0
 10
1571.839359041614
 20
1125.665170973162
 30
0.0
 11
1406.771320227735
 21
1246.715074672462
 31
0.0000000000000087
 11
1408.027501416892
 21
1246.617903178279
 31
0.0000000000000087
 11
1408.58744599118
 21
1246.507294646073
 31
0.0000000000000087
 11
1409.274097331743
 21
1246.322044212156
 31
0.0000000000000087
 11
1409.653306483349
 21
1246.219738055114
 31
0.0000000000000087
 11
1410.038863980488
 21
1246.029327408858
 31
0.0000000000000087
 11
1410.541786128434
 21
1245.780955293371
 31
0.0000000000000087
 11
1410.968057390272
 21
1245.570437829571
 31
0.0000000000000087
 11
1411.39717615858
 21
1245.260267018243
 31
0.0000000000000087
 11
1411.930921230399
 21
1244.874471396623
 31
0.0000000000000087
 11
1412.277481597232
 21
1244.597174525927
 31
0.0000000000000087
 11
1412.689805890085
 21
1244.207777465537
 31
0.0000000000000087
 11
1413.180446884788
 21
1243.744418492138
 31
0.0000000000000087
 11
1413.704307916409
 21
1243.149907343745
 31
0.0000000000000087
 11
1414.088697444395
 21
1242.707191810774
 31
0.0000000000000087
 11
1414.77650099059
 21
1241.802089889412
 31
0.0000000000000087
 11
1415.263909662121
 21
1241.112185230694
 31
0.0000000000000087
 11
1416.016403208094
 21
1239.946241068193
 31
0.0000000000000087
 11
1416.57316721708
 21
1239.011835387193
 31
0.0000000000000087
 11
1417.282496743381
 21
1237.725231583351
 31
0.0000000000000087
 11
1418.102884988527
 21
1236.114572306014
 31
0.0000000000000087
 11
1418.717019345568
 21
1234.833509576908
 31
0.0000000000000087
 11
1419.4262565481
 21
1233.272211569819
 31
0.0000000000000087
 11
1420.524465318354
 21
1230.716885788575
 31
0.0000000000000087
 11
1421.792526414275
 21
1227.602387873992
 31
0.0000000000000087
 11
1423.403129858435
 21
1223.511021750172
 31
0.0000000000000087
 11
1425.010283394261
 21
1219.4205104709
 31
0.0000000000000087
 11
1428.094196142964
 21
1211.989923116604
 31
0.0000000000000087
 11
1430.894590539978
 21
1206.05193631312
 31
0.0000000000000087
 11
1435.207372849209
 21
1198.479563069083
 31
0.0000000000000087
 11
1438.973863700307
 21
1193.178259901601
 31
0.0000000000000087
 11
1442.242941883027
 21
1189.358978583709
 31
0.0000000000000087
 11
1446.310124302077
 21
1185.368361995299
 31
0.0000000000000087
 11
1452.379657942134
 21
1180.58996418167
 31
0.0000000000000087
 11
1456.451648861738
 21
1177.984501054319
 31
0.0000000000000087
 11
1463.029189136474
 21
1174.504417471512
 31
0.0000000000000087
 11
1469.069032193748
 21
1171.922901440176
 31
0.0000000000000087
 11
1480.369405386829
 21
1168.196204747428
 31
0.0000000000000087
 11
1491.270199816445
 21
1165.528126165446
 31
0.0000000000000087
 11
1504.437614551463
 21
1163.070596939253
 31
0.0000000000000087
 11
1520.120562004666
 21
1160.768473871441
 31
0.0000000000000087
 11
1540.117238202131
 21
1158.206067813526
 31
0.0000000000000087
 11
1546.190175955279
 21
1157.421623916668
 31
0.0000000000000087
 11
1548.359661936865
 21
1157.134957570305
 31
0.0000000000000087
 11
1548.856849717766
 21
1157.061762670561
 31
0.0000000000000087
 11
1549.399109718375
 21
1156.975383616479
 31
0.0000000000000087
 11
1549.928420748712
 21
1156.858765118717
 31
0.0000000000000087
 11
1550.385279754136
 21
1156.736202692911
 31
0.0000000000000087
 11
1550.789661512031
 21
1156.608127829184
 31
0.0000000000000087
 11
1551.687589619945
 21
1156.216953325988
 31
0.0000000000000087
 11
1552.201827155791
 21
1155.896621243976
 31
0.0000000000000087
 11
1552.735125281818
 21
1155.472439065076
 31
0.0000000000000087
 11
1553.228749155734
 21
1154.98245915672
 31
0.0000000000000087
 11
1553.642947555269
 21
1154.484748352347
 31
0.0000000000000087
 11
1553.999887004447
 21
1153.986040509778
 31
0.0000000000000087
 11
1554.334386770703
 21
1153.462503006887
 31
0.0000000000000087
 11
1554.795167689174
 21
1152.68649435024
 31
0.0
 11
1555.034237470149
 21
1152.272413343036
 31
0.0
 11
1555.336744909513
 21
1151.800764693944
 31
0.0
 11
1555.912336089726
 21
1151.10644840181
 31
0.0
 11
1556.024300597848
 21
1150.993409967106
 31
0.0
 11
1556.577001231911
 21
1150.505331906712
 31
0.0
 11
1557.117574087114
 21
1150.051737423286
 31
0.0
 11
1558.592817475006
 21
1148.81386124061
 31
0.0
 11
1559.809940458505
 21
1147.792573794058
 31
0.0
 11
1561.386853390206
 21
1146.469386734669
 31
0.0
 11
1562.841146585298
 21
1145.249089851044
 31
0.0
 11
1565.080331634497
 21
1143.370190502122
 31
0.0
 11
1567.741909496744
 21
1141.136861499561
 31
0.0
 11
1569.495394173108
 21
1139.665513154349
 31
0.0
 11
1570.298075467796
 21
1138.991983576023
 31
0.0
 11
1570.60473098306
 21
1138.734669046267
 31
0.0
 11
1570.890178808071
 21
1138.474966323213
 31
0.0
 11
1571.1961371992
 21
1138.105054255769
 31
0.0
 11
1571.446762908372
 21
1137.675363094379
 31
0.0
 11
1571.599079770961
 21
1137.289398763379
 31
0.0
 11
1571.710036284584
 21
1136.800159199823
 31
0.0
 11
1571.732014749512
 21
1136.589803219497
 31
0.0
 11
1571.738670637634
 21
1136.435676125199
 31
0.0
 11
1571.743272932678
 21
1136.172010818716
 31
0.0
 11
1571.752355210008
 21
1135.651687498959
 31
0.0
 11
1571.762249929496
 21
1135.084819399138
 31
0.0
 11
1571.770235147004
 21
1134.627346594484
 31
0.0
 11
1571.775086043106
 21
1134.349438942948
 31
0.0
 11
1571.790618203041
 21
1133.459602096228
 31
0.0
 11
1571.839359041614
 21
1130.667241324523
 31
0.0
 11
1571.839359041614
 21
1125.665170973162
 31
0.0
  0
SPLINE
  5
15214
330
A
100
AcDbEntity
  8
HIDDEN
 48
0.5
100
AcDbSpline
210
0.0
220
0.0
230
1.0
 70
  1064
 71
     3
 72
    93
 73
    89
 74
    87
 42
0.000000001
 43
0.0000000001
 44
0.0
 40
0.0
 40
0.0
 40
0.0
 40
0.0
 40
1.259933918612843
 40
1.830698470483725
 40
2.541900120343589
 40
2.934667392948718
 40
3.364679948356746
 40
3.925589383690232
 40
4.401010030310633
 40
4.930489821722865
 40
5.589065605785197
 40
6.032909770281363
 40
6.600044139824353
 40
7.27489977172845
 40
8.067284707232963
 40
8.653588683305987
 40
9.790375033598677
 40
10.63508542847046
 40
12.02277138962997
 40
13.11047545709894
 40
14.57965812951994
 40
16.38721454093432
 40
17.80787731738853
 40
19.52271517456244
 40
22.30403722555792
 40
25.66678553652762
 40
30.06375269736503
 40
34.45866168545226
 40
42.50379352224837
 40
49.06899695071705
 40
57.78340615581119
 40
64.28650300307972
 40
69.31380664916492
 40
75.01178818524536
 40
82.73657454300903
 40
87.57078059543603
 40
95.01221982512126
 40
101.5806236781546
 40
113.4796447531264
 40
124.7022096344893
 40
138.0969944667117
 40
153.9480074135018
 40
174.1081905414366
 40
180.2315821817718
 40
182.4199256233814
 40
182.9224723205417
 40
183.4715690781761
 40
184.0135746508936
 40
184.4865880746527
 40
184.9107670190102
 40
185.8902017431917
 40
186.4960506402281
 40
187.1774737188805
 40
187.8729913962204
 40
188.5205069241942
 40
189.1337893082714
 40
189.7550634913489
 40
190.6575647323546
 40
191.1357042943059
 40
191.6960284853426
 40
192.5979044858337
 40
192.7570074047237
 40
193.4943663294887
 40
194.2000340750869
 40
196.125827547179
 40
197.7146687618537
 40
199.7731823975385
 40
201.6716273352371
 40
204.5946758206268
 40
208.0691189631295
 40
210.3581306413875
 40
211.4059566544842
 40
211.8062669994234
 40
212.1921762700625
 40
212.6722236372493
 40
213.1696648300294
 40
213.5845972238398
 40
214.0862611536414
 40
214.297762197089
 40
214.4520329397573
 40
214.7157384098608
 40
215.2361409894512
 40
215.803095439181
 40
216.2606379297726
 40
216.5385879144376
 40
217.4285603082637
 40
220.2213464348229
 40
225.2234167861839
 40
225.2234167861839
 40
225.2234167861839
 40
225.2234167861839
 10
1780.951075522368
 20
1246.715074672462
 30
0.0000000000000087
 10
1780.530735049734
 20
1246.697185144501
 30
0.0000000000000087
 10
1779.919975509915
 20
1246.671191454679
 30
0.0000000000000087
 10
1779.086132930787
 20
1246.507573761257
 30
0.0000000000000087
 10
1778.554864987881
 20
1246.33835990402
 30
0.0000000000000087
 10
1778.049661785813
 20
1246.236463144491
 30
0.0000000000000087
 10
1777.6468041652
 20
1246.002861514649
 30
0.0000000000000087
 10
1777.209017028272
 20
1245.789623427255
 30
0.0000000000000087
 10
1776.726657989594
 20
1245.581332963603
 30
0.0000000000000087
 10
1776.295765758675
 20
1245.226288330095
 30
0.0000000000000087
 10
1775.845486750775
 20
1244.922416399455
 30
0.0000000000000087
 10
1775.40704266247
 20
1244.577752149293
 30
0.0000000000000087
 10
1775.01185572432
 20
1244.177560075074
 30
0.0000000000000087
 10
1774.499477829432
 20
1243.731126180159
 30
0.0000000000000087
 10
1774.067418095152
 20
1243.197794903836
 30
0.0000000000000087
 10
1773.50518631678
 20
1242.575615173853
 30
0.0000000000000087
 10
1773.001718725642
 20
1241.881540842292
 30
0.0000000000000087
 10
1772.348580397706
 20
1240.96825473911
 30
0.0000000000000087
 10
1771.753219859086
 20
1240.034470961234
 30
0.0000000000000087
 10
1771.07916982986
 20
1238.905483323716
 30
0.0000000000000087
 10
1770.379321756245
 20
1237.629610628086
 30
0.0000000000000087
 10
1769.671138391911
 20
1236.232892156284
 30
0.0000000000000087
 10
1768.958646084845
 20
1234.747104250032
 30
0.0000000000000087
 10
1768.145577737852
 20
1232.950071088203
 30
0.0000000000000087
 10
1767.11380776294
 20
1230.541954699348
 30
0.0000000000000087
 10
1765.795121821695
 20
1227.284951876259
 30
0.0000000000000087
 10
1764.319336003533
 20
1223.511694232736
 30
0.0000000000000087
 10
1762.276402794748
 20
1218.284589820992
 30
0.0000000000000087
 10
1759.88233408776
 20
1212.417361462675
 30
0.0000000000000087
 10
1756.587641692461
 20
1205.371637230884
 30
0.0000000000000087
 10
1753.021051384296
 20
1199.031767737654
 30
0.0000000000000087
 10
1749.122257519881
 20
1193.510290307908
 30
0.0000000000000087
 10
1745.383901731392
 20
1189.142521914443
 30
0.0000000000000087
 10
1740.989155955097
 20
1184.828517699631
 30
0.0000000000000087
 10
1736.190074639052
 20
1181.057343981973
 30
0.0000000000000087
 10
1730.564335492035
 20
1177.472003174149
 30
0.0000000000000087
 10
1724.997066483703
 20
1174.54054852896
 30
0.0000000000000087
 10
1717.041500038188
 20
1171.163469970802
 30
0.0000000000000087
 10
1707.607774437159
 20
1168.114702932845
 30
0.0000000000000087
 10
1695.767415103295
 20
1165.265198085775
 30
0.0000000000000087
 10
1682.490935151739
 20
1162.846265568412
 30
0.0000000000000087
 10
1666.185886505758
 20
1160.517342827047
 30
0.0000000000000087
 10
1652.243279264596
 20
1158.821072694892
 30
0.0000000000000087
 10
1642.834153621586
 20
1157.582949363619
 30
0.0000000000000087
 10
1639.918330650358
 20
1157.218788032254
 30
0.0000000000000087
 10
1638.850300835525
 20
1157.059109031541
 30
0.0000000000000087
 10
1638.324309339178
 20
1156.98295336059
 30
0.0000000000000087
 10
1637.815520981807
 20
1156.867280324966
 30
0.0000000000000087
 10
1637.351824138132
 20
1156.743874154103
 30
0.0000000000000087
 10
1636.754911531958
 20
1156.556741686363
 30
0.0000000000000087
 10
1636.134689729481
 20
1156.293933646253
 30
0.0000000000000087
 10
1635.492845059665
 20
1155.892145314552
 30
0.0000000000000087
 10
1634.975369000702
 20
1155.478655206047
 30
0.0000000000000087
 10
1634.496383783354
 20
1155.001513216072
 30
0.0000000000000087
 10
1634.080339520652
 20
1154.498389815662
 30
0.0000000000000088
 10
1633.716242914568
 20
1153.986982725651
 30
0.0000000000000082
 10
1633.335925598867
 20
1153.384447326116
 30
0.000000000000011
 10
1632.995744432909
 20
1152.810252742138
 30
-0.0000000000000017
 10
1632.677746487959
 20
1152.246822217901
 30
0.0000000000000004
 10
1632.332943326566
 20
1151.698858542966
 30
-0.0000000000000002
 10
1631.984524972612
 20
1151.282143450421
 30
0.0
 10
1631.563243094702
 20
1150.855619303259
 30
0.0
 10
1631.153244801768
 20
1150.512040619641
 30
0.0
 10
1630.293458190236
 20
1149.790375300078
 30
0.0
 10
1629.215561295293
 20
1148.886038589677
 30
0.0
 10
1627.792544692562
 20
1147.691945984324
 30
0.0
 10
1626.376407452246
 20
1146.503686203836
 30
0.0
 10
1624.619633718689
 20
1145.029538014642
 30
0.0
 10
1622.501179979809
 20
1143.252167445465
 30
0.0
 10
1620.283509796551
 20
1141.390397601415
 30
0.0
 10
1618.543342662462
 20
1139.932286307506
 30
0.0
 10
1617.590375392742
 20
1139.129720027103
 30
0.0
 10
1617.12042361201
 20
1138.739044909643
 30
0.0
 10
1616.801743710402
 20
1138.461186208333
 30
0.0
 10
1616.512381704663
 20
1138.107497105701
 30
0.0
 10
1616.277016899034
 20
1137.705200067324
 30
0.0
 10
1616.103496617852
 20
1137.265382377223
 30
0.0
 10
1616.020175754195
 20
1136.896723584024
 30
0.0
 10
1615.989574543383
 20
1136.608971028769
 30
0.0
 10
1615.981910763364
 20
1136.399214366372
 30
0.0
 10
1615.978429612044
 20
1136.086450723372
 30
0.0
 10
1615.969470737798
 20
1135.636175346945
 30
0.0
 10
1615.960846214839
 20
1135.121283903159
 30
0.0
 10
1615.953203281927
 20
1134.687201668667
 30
0.0
 10
1615.943728762804
 20
1134.145462719933
 30
0.0
 10
1615.921455942884
 20
1132.825420931952
 30
0.0
 10
1615.857322395438
 20
1129.931037651858
 30
0.0
 10
1615.872985482548
 20
1127.332615471441
 30
0.0
 10
1615.88303670849
 20
1125.665170973162
 30
0.0
 11
1780.951075522368
 21
1246.715074672462
 31
0.0000000000000087
 11
1779.694894333212
 21
1246.617903178279
 31
0.0000000000000087
 11
1779.134949758923
 21
1246.507294646073
 31
0.0000000000000087
 11
1778.44829841836
 21
1246.322044212156
 31
0.0000000000000087
 11
1778.069089266755
 21
1246.219738055114
 31
0.0000000000000087
 11
1777.683531769615
 21
1246.029327408858
 31
0.0000000000000087
 11
1777.180609621669
 21
1245.780955293371
 31
0.0000000000000087
 11
1776.754338359832
 21
1245.570437829571
 31
0.0000000000000087
 11
1776.325219591524
 21
1245.260267018243
 31
0.0000000000000087
 11
1775.791474519704
 21
1244.874471396623
 31
0.0000000000000087
 11
1775.444914152871
 21
1244.597174525927
 31
0.0000000000000087
 11
1775.032589860018
 21
1244.207777465537
 31
0.0000000000000087
 11
1774.541948865315
 21
1243.744418492138
 31
0.0000000000000087
 11
1774.018087833694
 21
1243.149907343745
 31
0.0000000000000087
 11
1773.633698305708
 21
1242.707191810774
 31
0.0000000000000087
 11
1772.945894759513
 21
1241.802089889412
 31
0.0000000000000087
 11
1772.458486087982
 21
1241.112185230694
 31
0.0000000000000087
 11
1771.70599254201
 21
1239.946241068193
 31
0.0000000000000087
 11
1771.149228533023
 21
1239.011835387193
 31
0.0000000000000087
 11
1770.439899006723
 21
1237.725231583351
 31
0.0000000000000087
 11
1769.619510761577
 21
1236.114572306014
 31
0.0000000000000087
 11
1769.005376404536
 21
1234.833509576908
 31
0.0000000000000087
 11
1768.296139202003
 21
1233.272211569819
 31
0.0000000000000087
 11
1767.197930431749
 21
1230.716885788575
 31
0.0000000000000087
 11
1765.929869335828
 21
1227.602387873992
 31
0.0000000000000087
 11
1764.319265891668
 21
1223.511021750172
 31
0.0000000000000087
 11
1762.712112355842
 21
1219.4205104709
 31
0.0000000000000087
 11
1759.62819960714
 21
1211.989923116604
 31
0.0000000000000087
 11
1756.827805210126
 21
1206.05193631312
 31
0.0000000000000087
 11
1752.515022900894
 21
1198.479563069083
 31
0.0000000000000087
 11
1748.748532049797
 21
1193.178259901601
 31
0.0000000000000087
 11
1745.479453867076
 21
1189.358978583709
 31
0.0000000000000087
 11
1741.412271448027
 21
1185.368361995299
 31
0.0000000000000087
 11
1735.342737807969
 21
1180.58996418167
 31
0.0000000000000087
 11
1731.270746888365
 21
1177.984501054319
 31
0.0000000000000087
 11
1724.693206613629
 21
1174.504417471512
 31
0.0000000000000087
 11
1718.653363556355
 21
1171.922901440176
 31
0.0000000000000087
 11
1707.352990363275
 21
1168.196204747428
 31
0.0000000000000087
 11
1696.452195933658
 21
1165.528126165446
 31
0.0000000000000087
 11
1683.284781198641
 21
1163.070596939253
 31
0.0000000000000087
 11
1667.601833745437
 21
1160.768473871441
 31
0.0000000000000087
 11
1647.605157547973
 21
1158.206067813526
 31
0.0000000000000087
 11
1641.532219794825
 21
1157.421623916668
 31
0.0000000000000087
 11
1639.362733813239
 21
1157.134957570305
 31
0.0000000000000087
 11
1638.865546032337
 21
1157.061762670561
 31
0.0000000000000087
 11
1638.323286031728
 21
1156.975383616479
 31
0.0000000000000087
 11
1637.793975001391
 21
1156.858765118717
 31
0.0000000000000087
 11
1637.337115995967
 21
1156.736202692911
 31
0.0000000000000087
 11
1636.932734238073
 21
1156.608127829184
 31
0.0000000000000087
 11
1636.034806130159
 21
1156.216953325988
 31
0.0000000000000087
 11
1635.520568594312
 21
1155.896621243976
 31
0.0000000000000087
 11
1634.987270468285
 21
1155.472439065076
 31
0.0000000000000087
 11
1634.493646594369
 21
1154.98245915672
 31
0.0000000000000087
 11
1634.079448194834
 21
1154.484748352347
 31
0.0000000000000087
 11
1633.722508745656
 21
1153.986040509778
 31
0.0000000000000087
 11
1633.3880089794
 21
1153.462503006887
 31
0.0000000000000087
 11
1632.92722806093
 21
1152.68649435024
 31
0.0
 11
1632.688158279954
 21
1152.272413343036
 31
0.0
 11
1632.38565084059
 21
1151.800764693944
 31
0.0
 11
1631.810059660377
 21
1151.10644840181
 31
0.0
 11
1631.698095152255
 21
1150.993409967106
 31
0.0
 11
1631.145394518193
 21
1150.505331906712
 31
0.0
 11
1630.604821662989
 21
1150.051737423286
 31
0.0
 11
1629.129578275098
 21
1148.81386124061
 31
0.0
 11
1627.912455291598
 21
1147.792573794058
 31
0.0
 11
1626.335542359897
 21
1146.469386734669
 31
0.0
 11
1624.881249164806
 21
1145.249089851044
 31
0.0
 11
1622.642064115606
 21
1143.370190502122
 31
0.0
 11
1619.980486253359
 21
1141.136861499561
 31
0.0
 11
1618.227001576995
 21
1139.665513154349
 31
0.0
 11
1617.424320282307
 21
1138.991983576023
 31
0.0
 11
1617.117664767043
 21
1138.734669046267
 31
0.0
 11
1616.832216942032
 21
1138.474966323213
 31
0.0
 11
1616.526258550903
 21
1138.105054255769
 31
0.0
 11
1616.275632841731
 21
1137.675363094379
 31
0.0
 11
1616.123315979142
 21
1137.289398763379
 31
0.0
 11
1616.012359465519
 21
1136.800159199823
 31
0.0
 11
1615.990381000591
 21
1136.589803219497
 31
0.0
 11
1615.983725112469
 21
1136.435676125199
 31
0.0
 11
1615.979122817425
 21
1136.172010818716
 31
0.0
 11
1615.970040540095
 21
1135.651687498959
 31
0.0
 11
1615.960145820607
 21
1135.084819399138
 31
0.0
 11
1615.952160603099
 21
1134.627346594484
 31
0.0
 11
1615.947309706997
 21
1134.349438942948
 31
0.0
 11
1615.931777547062
 21
1133.459602096228
 31
0.0
 11
1615.88303670849
 21
1130.667241324523
 31
0.0
 11
1615.88303670849
 21
1125.665170973162
 31
0.0
  0
LINE
  5
15215
102
{ACAD_REACTORS
330
152B7
102
}
330
A
100
AcDbEntity
  8
HIDDEN
 48
0.5
100
AcDbLine
 10
1553.015213983151
 20
1155.207118385923
 30
0.0000000000000087
 11
1634.471580363634
 21
1155.207118385923
 31
0.0000000000000087
  0
LINE
  5
15240
330
A
100
AcDbEntity
  8
HIDDEN
 48
0.5
100
AcDbLine
 10
722.0549420667527
 20
1150.946828341391
 30
0.0
 11
646.8054037705002
 21
1150.675465559908
 31
0.0
  0
LINE
  5
15241
330
A
100
AcDbEntity
  8
HIDDEN
 48
0.5
100
AcDbLine
 10
642.6638078663342
 20
1156.664434175306
 30
0.0
 11
728.2555190921017
 21
1156.569466964585
 31
0.0
  0
SPLINE
  5
15242
330
A
100
AcDbEntity
  8
HIDDEN
 48
0.5
100
AcDbSpline
210
0.0
220
0.0
230
1.0
 70
  1064
 71
     3
 72
   100
 73
    96
 74
    94
 42
0.000000001
 43
0.0000000001
 44
0.0
 40
0.0
 40
0.0
 40
0.0
 40
0.0
 40
1.489889056845695
 40
1.798924719741386
 40
2.108613328588174
 40
2.235214467347119
 40
2.505684483300954
 40
3.458074275679928
 40
3.72226538040379
 40
5.209459468429992
 40
5.955528286117554
 40
6.702184569299543
 40
7.448840852481334
 40
8.94229043611137
 40
11.18337765329271
 40
14.17216382725297
 40
17.91089377253455
 40
22.40004431688917
 40
26.89133354274297
 40
31.38499983496227
 40
35.13357091707553
 40
38.88658465288551
 40
44.15181591123984
 40
51.7040808458292
 40
57.78011085876921
 40
63.12759942310095
 40
69.28985025646006
 40
74.74695565130874
 40
82.67875545849259
 40
91.6470619573512
 40
100.083217892774
 40
107.0588307859743
 40
115.1763802020276
 40
122.625731636661
 40
133.1972184320234
 40
140.1093487404663
 40
149.181948662717
 40
154.3084457890449
 40
158.4486941166663
 40
167.8829847068442
 40
173.1908772944798
 40
178.5383060436671
 40
187.1706880365787
 40
192.6161399780265
 40
203.6562373928424
 40
218.4104808081599
 40
230.1706629692148
 40
249.9370686157626
 40
261.4486254449658
 40
273.8751617714757
 40
284.7022759022082
 40
290.0916581144803
 40
291.2731526274466
 40
291.7764135933741
 40
292.4328565121761
 40
292.8798490741498
 40
293.3003930358984
 40
293.9702289799717
 40
294.3276784206412
 40
294.8306844385086
 40
295.5497288496175
 40
295.8993719903312
 40
297.4372543310182
 40
298.5954665750497
 40
299.3147835780235
 40
299.8619879920955
 40
300.5291814602351
 40
301.0694345276112
 40
301.6243716087954
 40
303.1842668293031
 40
306.7098081917107
 40
310.5469309875661
 40
314.2094641099908
 40
318.0268204295248
 40
319.1967020843728
 40
319.8916923701921
 40
320.1464867357733
 40
320.4110996621774
 40
320.5965785089879
 40
320.9147664718847
 40
321.3365866996366
 40
321.6700932210901
 40
321.973951985114
 40
322.2928850537079
 40
322.5674018197511
 40
323.1396212122971
 40
323.4353750556349
 40
323.9435245866958
 40
324.6703870107136
 40
325.4101082974855
 40
326.2396171712497
 40
326.9665918214092
 40
327.4168764700781
 40
328.0621985487834
 40
333.0642678487863
 40
333.0642678487863
 40
333.0642678487863
 40
333.0642678487863
 10
387.2705398506369
 20
1246.665138656486
 30
0.0
 10
387.771692335594
 20
1246.651629723206
 30
0.0
 10
388.3767948359491
 20
1246.63531874092
 30
0.0
 10
389.0497815129828
 20
1246.427521103173
 30
0.0
 10
389.285884876249
 20
1246.350649541616
 30
0.0
 10
389.5112236857673
 20
1246.281844727193
 30
0.0
 10
389.9425976889004
 20
1246.154375969865
 30
0.0
 10
390.4027811636131
 20
1245.96371557716
 30
0.0
 10
391.2030078819421
 20
1245.54884726906
 30
0.0
 10
391.9010059320307
 20
1245.093836888739
 30
0.0
 10
392.7229128758366
 20
1244.530259191538
 30
0.0
 10
393.2414996766004
 20
1243.98982362271
 30
0.0
 10
393.9841806657971
 20
1243.326084668468
 30
0.0
 10
394.9366605287496
 20
1242.167602539289
 30
0.0
 10
396.2210701887657
 20
1240.330494449126
 30
0.0
 10
397.7145884813757
 20
1237.735659349451
 30
0.0
 10
399.3452804298606
 20
1234.36905341972
 30
0.0
 10
401.0024370111123
 20
1230.465496528525
 30
0.0
 10
402.6697824206028
 20
1226.295132026979
 30
0.0
 10
404.2283939993181
 20
1222.347106893238
 30
0.0
 10
405.7314984750063
 20
1218.641911519436
 30
0.0
 10
407.3836856940679
 20
1214.719841211259
 30
0.0
 10
409.6675495077288
 20
1209.68966900185
 30
0.0
 10
412.5635961409226
 20
1204.09022552671
 30
0.0
 10
415.910669131513
 20
1198.715336501449
 30
0.0
 10
419.399179812045
 20
1193.996896063948
 30
0.0
 10
423.1863413839852
 20
1189.780807236405
 30
0.0
 10
428.0305904417185
 20
1185.406975942083
 30
0.0
 10
434.1291290931129
 20
1181.082546173039
 30
0.0
 10
441.6348389181944
 20
1177.158895155116
 30
0.0
 10
449.2174234917835
 20
1174.204583311422
 30
0.0
 10
456.7154512525482
 20
1171.89028210267
 30
0.0
 10
464.0111733143288
 20
1170.076777193294
 30
0.0
 10
472.5487552669601
 20
1168.330692167069
 30
0.0
 10
480.7500458046927
 20
1166.970769816737
 30
0.0
 10
489.5185515101194
 20
1165.755260910145
 30
0.0
 10
496.5057315702588
 20
1164.914540722448
 30
0.0
 10
502.5845420229637
 20
1164.267330692731
 30
0.0
 10
508.7875682716136
 20
1163.649590925097
 30
0.0
 10
515.0564585232203
 20
1163.084347102066
 30
0.0
 10
521.7307312137286
 20
1162.53851140304
 30
0.0
 10
528.1409503552487
 20
1162.044098553059
 30
0.0
 10
534.5997755638314
 20
1161.584708284131
 30
0.0
 10
542.9540710271008
 20
1161.03054457185
 30
0.0
 10
553.3477382320411
 20
1160.391016707625
 30
0.0
 10
565.8467552349877
 20
1159.696903427567
 30
0.0
 10
581.2540018999047
 20
1158.918308791153
 30
0.0
 10
595.5843741139263
 20
1158.240545821415
 30
0.0
 10
610.1412225574293
 20
1157.675803580881
 30
0.0
 10
621.7158039780089
 20
1157.06812481538
 30
0.0
 10
631.2724598253743
 20
1157.188634329581
 30
0.0
 10
637.0579677707467
 20
1156.775228872795
 30
0.0
 10
639.4153467406195
 20
1156.678949512046
 30
0.0
 10
640.1909566249832
 20
1156.590537920153
 30
0.0
 10
640.7200852044929
 20
1156.50421955147
 30
0.0
 10
641.2142414661919
 20
1156.386029311162
 30
0.0
 10
641.707613338747
 20
1156.244774545804
 30
0.0
 10
642.1485107349511
 20
1156.044532240635
 30
0.0
 10
642.6023317186853
 20
1155.811422092461
 30
0.0
 10
643.0409620794613
 20
1155.516774253143
 30
0.0
 10
643.4302317698803
 20
1155.164449103238
 30
0.0
 10
644.0486938844057
 20
1154.553571162116
 30
0.0
 10
644.6280071558015
 20
1153.708762245166
 30
0.0
 10
645.2052872247286
 20
1152.729951864263
 30
0.0
 10
645.6021665975679
 20
1152.024583326063
 30
0.0
 10
645.9815079963516
 20
1151.502238786602
 30
0.0
 10
646.3696715630927
 20
1151.062811718588
 30
0.0
 10
646.8065904806458
 20
1150.669187498809
 30
0.0
 10
647.4892671795229
 20
1150.106052580124
 30
0.0
 10
648.9255134385129
 20
1148.892625918587
 30
0.0
 10
651.2063181448277
 20
1146.983866546863
 30
0.0
 10
654.0214016459522
 20
1144.621261610907
 30
0.0
 10
656.9087312179897
 20
1142.193815818773
 30
0.0
 10
659.1253033469463
 20
1140.349056491017
 30
0.0
 10
660.5654247511096
 20
1139.119778697173
 30
0.0
 10
661.1197195751821
 20
1138.679817789216
 30
0.0
 10
661.4047026546464
 20
1138.391611512943
 30
0.0
 10
661.5540560892402
 20
1138.209777337786
 30
0.0
 10
661.7017029084377
 20
1138.000371762742
 30
0.0
 10
661.8579125347413
 20
1137.733678449673
 30
0.0
 10
662.00001588956
 20
1137.403860065521
 30
0.0
 10
662.0977174953499
 20
1137.063927492785
 30
0.0
 10
662.1540067014944
 20
1136.749495921765
 30
0.0
 10
662.1719406651157
 20
1136.450460428611
 30
0.0
 10
662.1750361664518
 20
1136.061956873478
 30
0.0
 10
662.1832463710793
 20
1135.681187558806
 30
0.0
 10
662.1909552531793
 20
1135.22254932387
 30
0.0
 10
662.1999752093924
 20
1134.712371970534
 30
0.0
 10
662.2114131502959
 20
1134.054227715934
 30
0.0
 10
662.2247909284878
 20
1133.288980160842
 30
0.0
 10
662.2381239378512
 20
1132.523694943911
 30
0.0
 10
662.2498603822576
 20
1131.854874635043
 30
0.0
 10
662.2603032183018
 20
1131.247438643618
 30
0.0
 10
662.2984740079331
 20
1129.215213078235
 30
0.0
 10
662.283663967349
 20
1127.332620040464
 30
0.0
 10
662.2705462561136
 20
1125.66514913095
 30
0.0
 11
387.2705398506369
 21
1246.665138656486
 31
0.0
 11
388.752763361379
 21
1246.514198715079
 31
0.0
 11
389.0492054634512
 21
1246.426876775909
 31
0.0
 11
389.3443348118622
 21
1246.333038073041
 31
0.0
 11
389.4653869575704
 21
1246.295967513907
 31
0.0
 11
389.7240021335631
 21
1246.216770163722
 31
0.0
 11
390.6056907248503
 21
1245.856670809902
 31
0.0
 11
390.8403831428732
 21
1245.735359603751
 31
0.0
 11
392.1045051521505
 21
1244.951942855704
 31
0.0
 11
392.7062545723165
 21
1244.510902816642
 31
0.0
 11
393.2478767341818
 21
1243.996956283439
 31
0.0
 11
393.789498896047
 21
1243.483009750236
 31
0.0
 11
394.7649017280783
 21
1242.352089340079
 31
0.0
 11
396.054692835256
 21
1240.519356185782
 31
0.0
 11
397.5616241401876
 21
1237.938270980704
 31
0.0
 11
399.2105422920431
 21
1234.582802230704
 31
0.0
 11
400.9874740547384
 21
1230.460304672111
 31
0.0
 11
402.6664749092306
 21
1226.294655258048
 31
0.0
 11
404.3267150825704
 21
1222.118935043204
 31
0.0
 11
405.7386299080099
 21
1218.646431381095
 31
0.0
 11
407.2011276191915
 21
1215.190102035392
 31
0.0
 11
409.3857627815451
 21
1210.399483138907
 31
0.0
 11
412.8865714973654
 21
1203.707619125236
 31
0.0
 11
416.1102233833517
 21
1198.557259017814
 31
0.0
 11
419.299264521047
 21
1194.264748031486
 31
0.0
 11
423.4240127510275
 21
1189.686561996329
 31
0.0
 11
427.4730430549826
 21
1186.027962142814
 31
0.0
 11
433.9337516731466
 21
1181.426582748282
 31
0.0
 11
441.8607498115744
 21
1177.232155258048
 31
0.0
 11
449.7070098823751
 21
1174.132973129142
 31
0.0
 11
456.3675933784689
 21
1172.060341293204
 31
0.0
 11
464.2400756782736
 21
1170.080788070548
 31
0.0
 11
471.5360656685079
 21
1168.577003890861
 31
0.0
 11
481.9617401069845
 21
1166.827248031486
 31
0.0
 11
488.8075347847189
 21
1165.871925765861
 31
0.0
 11
497.8146301216329
 21
1164.783668929923
 31
0.0
 11
502.9121032661642
 21
1164.238930160392
 31
0.0
 11
507.0319457954611
 21
1163.828377181876
 31
0.0
 11
516.4277893013204
 21
1162.977516586173
 31
0.0
 11
521.7179199165548
 21
1162.54364817797
 31
0.0
 11
527.049508661672
 21
1162.132362777579
 31
0.0
 11
535.6599822944845
 21
1161.517738754142
 31
0.0
 11
541.0934616035665
 21
1161.156837875236
 31
0.0
 11
552.1125732368673
 21
1160.476448470939
 31
0.0
 11
566.843942255422
 21
1159.655189926017
 31
0.0
 11
578.5889373726095
 21
1159.057716781486
 31
0.0
 11
598.3342987007345
 21
1158.145851547111
 31
0.0
 11
609.8356991312885
 21
1157.662396515048
 31
0.0
 11
622.2530303901876
 21
1157.184181625236
 31
0.0
 11
633.0787325420962
 21
1157.009329350248
 31
0.0
 11
638.460349049866
 21
1156.7201159459
 31
0.0
 11
639.6397436992037
 21
1156.649706107929
 31
0.0
 11
640.1397811875539
 21
1156.592836871336
 31
0.0
 11
640.7870816874746
 21
1156.483661011148
 31
0.0
 11
641.2220494449067
 21
1156.380678486153
 31
0.0
 11
641.6249514601274
 21
1156.260149693351
 31
0.0
 11
642.2401610238281
 21
1155.995201802807
 31
0.0
 11
642.5563656499031
 21
1155.82851425953
 31
0.0
 11
642.9747509933119
 21
1155.549285395636
 31
0.0
 11
643.516689552139
 21
1155.076710043334
 31
0.0
 11
643.7637114460482
 21
1154.829262049247
 31
0.0
 11
644.681640348597
 21
1153.595370391255
 31
0.0
 11
645.2756530939444
 21
1152.601084486402
 31
0.0
 11
645.643612314887
 21
1151.983004424848
 31
0.0
 11
645.9641453860165
 21
1151.539505584836
 31
0.0
 11
646.4075944537932
 21
1151.04100779325
 31
0.0
 11
646.8054037704942
 21
1150.67546555991
 31
0.0
 11
647.2305102378176
 21
1150.318758879971
 31
0.0
 11
648.425459303335
 21
1149.316077559819
 31
0.0
 11
651.1261806729935
 21
1147.049903254626
 31
0.0
 11
654.0655872683233
 21
1144.583448264604
 31
0.0
 11
656.871250414496
 21
1142.229217353443
 31
0.0
 11
659.7955150104801
 21
1139.775468009488
 31
0.0
 11
660.6916963512832
 21
1139.023482576952
 31
0.0
 11
661.2211865540545
 21
1138.573314138973
 31
0.0
 11
661.3995503734823
 21
1138.391362176491
 31
0.0
 11
661.5677578498023
 21
1138.187092145086
 31
0.0
 11
661.6746013055532
 21
1138.035477902426
 31
0.0
 11
661.8354388213
 21
1137.760933054977
 31
0.0
 11
662.0022527673387
 21
1137.373498658017
 31
0.0
 11
662.0946270133113
 21
1137.053040238666
 31
0.0
 11
662.1473560836787
 21
1136.75379152336
 31
0.0
 11
662.1698578521336
 21
1136.435653231639
 31
0.0
 11
662.174648830308
 21
1136.161178275829
 31
0.0
 11
662.1846354357181
 21
1135.589046035068
 31
0.0
 11
662.1897970519974
 21
1135.293337236473
 31
0.0
 11
662.1986654841444
 21
1134.785265099047
 31
0.0
 11
662.2113509825923
 21
1134.058513379697
 31
0.0
 11
662.2242608991395
 21
1133.31890475606
 31
0.0
 11
662.2387378251477
 21
1132.489522220515
 31
0.0
 11
662.2514252822119
 21
1131.762658292116
 31
0.0
 11
662.2592838329131
 21
1131.31244222398
 31
0.0
 11
662.2705462561136
 21
1130.667218430953
 31
0.0
 11
662.2705462561136
 21
1125.66514913095
 31
0.0
  0
LINE
  5
15244
330
A
100
AcDbEntity
  8
HIDDEN
 48
0.5
100
AcDbLine
 10
707.2609534866723
 20
1138.682355352945
 30
0.0
 11
660.9916433271106
 21
1138.777304256726
 31
0.0
  0
SPLINE
  5
15245
330
A
100
AcDbEntity
  8
HIDDEN
 48
0.5
100
AcDbSpline
210
0.0
220
0.0
230
1.0
 70
  1064
 71
     3
 72
   100
 73
    96
 74
    94
 42
0.000000001
 43
0.0000000001
 44
0.0
 40
0.0
 40
0.0
 40
0.0
 40
0.0
 40
1.489889056845808
 40
1.798924719741499
 40
2.108613328588179
 40
2.235214467347233
 40
2.505684483301014
 40
3.458074275679987
 40
3.722265380403849
 40
5.209459468430051
 40
5.955528286117659
 40
6.702184569299607
 40
7.448840852481399
 40
8.9422904361114
 40
11.18337765329277
 40
14.17216382725305
 40
17.91089377253461
 40
22.40004431688923
 40
26.89133354274303
 40
31.38499983496236
 40
35.13357091707559
 40
38.8865846528856
 40
44.15181591123989
 40
51.70408084582924
 40
57.78011085876928
 40
63.12759942310102
 40
69.28985025646014
 40
74.74695565130878
 40
82.67875545849267
 40
91.64706195735124
 40
100.0832178927742
 40
107.0588307859744
 40
115.1763802020276
 40
122.6257316366611
 40
133.1972184320235
 40
140.1093487404664
 40
149.1819486627172
 40
154.308445789045
 40
158.4486941166664
 40
167.8829847068443
 40
173.1908772944799
 40
178.5383060436672
 40
187.1706880365788
 40
192.6161399780266
 40
203.6562373928425
 40
218.41048080816
 40
230.1706629692149
 40
249.9370686157627
 40
261.4486254449659
 40
273.8751617714759
 40
284.7022759022083
 40
290.0916581144804
 40
291.2731526274467
 40
291.7764135933742
 40
292.4328565121762
 40
292.8798490741499
 40
293.3003930358985
 40
293.9702289799718
 40
294.3276784206413
 40
294.8306844385087
 40
295.5497288496176
 40
295.8993719903314
 40
297.4372543310183
 40
298.5954665750498
 40
299.3147835780237
 40
299.8619879920956
 40
300.5291814602352
 40
301.0694345276113
 40
301.6243716087955
 40
303.1842668293032
 40
306.7098081917108
 40
310.5469309875662
 40
314.2094641099909
 40
318.0268204295249
 40
319.1967020843729
 40
319.8916923701922
 40
320.1464867357734
 40
320.4110996621775
 40
320.596578508988
 40
320.9147664718848
 40
321.3365866996367
 40
321.6700932210902
 40
321.9739519851141
 40
322.292885053708
 40
322.5674018197512
 40
323.1396212122972
 40
323.435375055635
 40
323.943524586696
 40
324.6703870107137
 40
325.4101082974856
 40
326.2396171712498
 40
326.9665918214093
 40
327.4168764700782
 40
328.0621985487836
 40
333.0642678487864
 40
333.0642678487864
 40
333.0642678487864
 40
333.0642678487864
 10
981.2705685651472
 20
1246.665138656486
 30
0.0
 10
980.7694160801899
 20
1246.651629723206
 30
0.0
 10
980.1643135798347
 20
1246.63531874092
 30
0.0
 10
979.4913269028012
 20
1246.427521103173
 30
0.0
 10
979.255223539535
 20
1246.350649541616
 30
0.0
 10
979.0298847300165
 20
1246.281844727193
 30
0.0
 10
978.5985107268835
 20
1246.154375969865
 30
0.0
 10
978.1383272521714
 20
1245.96371557716
 30
0.0
 10
977.3381005338413
 20
1245.54884726906
 30
0.0
 10
976.6401024837537
 20
1245.093836888739
 30
0.0
 10
975.8181955399469
 20
1244.530259191538
 30
0.0
 10
975.2996087391839
 20
1243.98982362271
 30
0.0
 10
974.5569277499872
 20
1243.326084668468
 30
0.0
 10
973.6044478870341
 20
1242.167602539289
 30
0.0
 10
972.3200382270188
 20
1240.330494449126
 30
0.0
 10
970.8265199344078
 20
1237.735659349451
 30
0.0
 10
969.1958279859239
 20
1234.369053419721
 30
0.0
 10
967.5386714046715
 20
1230.465496528525
 30
0.0
 10
965.8713259951812
 20
1226.295132026979
 30
0.0
 10
964.312714416466
 20
1222.347106893238
 30
0.0
 10
962.8096099407778
 20
1218.641911519436
 30
0.0
 10
961.157422721716
 20
1214.71984121126
 30
0.0
 10
958.8735589080554
 20
1209.689669001849
 30
0.0
 10
955.9775122748613
 20
1204.090225526709
 30
0.0
 10
952.6304392842712
 20
1198.715336501449
 30
0.0
 10
949.1419286037387
 20
1193.996896063948
 30
0.0
 10
945.3547670317989
 20
1189.780807236405
 30
0.0
 10
940.5105179740656
 20
1185.406975942083
 30
0.0
 10
934.411979322671
 20
1181.082546173039
 30
0.0
 10
926.9062694975895
 20
1177.158895155115
 30
0.0
 10
919.3236849240006
 20
1174.204583311422
 30
0.0
 10
911.8256571632357
 20
1171.89028210267
 30
0.0
 10
904.5299351014553
 20
1170.076777193295
 30
0.0
 10
895.992353148824
 20
1168.330692167069
 30
0.0
 10
887.7910626110911
 20
1166.970769816738
 30
0.0
 10
879.0225569056647
 20
1165.755260910145
 30
0.0
 10
872.0353768455254
 20
1164.914540722448
 30
0.0
 10
865.9565663928204
 20
1164.267330692731
 30
0.0
 10
859.7535401441703
 20
1163.649590925097
 30
0.0
 10
853.484649892564
 20
1163.084347102066
 30
0.0
 10
846.8103772020553
 20
1162.53851140304
 30
0.0
 10
840.4001580605355
 20
1162.044098553059
 30
0.0
 10
833.9413328519522
 20
1161.584708284131
 30
0.0
 10
825.5870373886836
 20
1161.03054457185
 30
0.0
 10
815.1933701837429
 20
1160.391016707625
 30
0.0
 10
802.6943531807962
 20
1159.696903427567
 30
0.0
 10
787.2871065158795
 20
1158.918308791153
 30
0.0
 10
772.9567343018579
 20
1158.240545821415
 30
0.0
 10
758.3998858583547
 20
1157.675803580881
 30
0.0
 10
746.825304437775
 20
1157.06812481538
 30
0.0
 10
737.2686485904097
 20
1157.188634329581
 30
0.0
 10
731.4831406450369
 20
1156.775228872795
 30
0.0
 10
729.1257616751645
 20
1156.678949512046
 30
0.0
 10
728.3501517908009
 20
1156.590537920153
 30
0.0
 10
727.8210232112913
 20
1156.50421955147
 30
0.0
 10
727.3268669495922
 20
1156.386029311162
 30
0.0
 10
726.8334950770371
 20
1156.244774545804
 30
0.0
 10
726.3925976808332
 20
1156.044532240635
 30
0.0
 10
725.9387766970987
 20
1155.811422092461
 30
0.0
 10
725.5001463363227
 20
1155.516774253143
 30
0.0
 10
725.1108766459035
 20
1155.164449103238
 30
0.0
 10
724.4924145313784
 20
1154.553571162116
 30
0.0
 10
723.9131012599831
 20
1153.708762245166
 30
0.0
 10
723.3358211910551
 20
1152.729951864263
 30
0.0
 10
722.9389418182166
 20
1152.024583326063
 30
0.0
 10
722.5596004194323
 20
1151.502238786602
 30
0.0
 10
722.1714368526914
 20
1151.062811718588
 30
0.0
 10
721.7345179351382
 20
1150.669187498809
 30
0.0
 10
721.0518412362612
 20
1150.106052580124
 30
0.0
 10
719.6155949772713
 20
1148.892625918587
 30
0.0
 10
717.3347902709562
 20
1146.983866546863
 30
0.0
 10
714.519706769832
 20
1144.621261610907
 30
0.0
 10
711.6323771977942
 20
1142.193815818773
 30
0.0
 10
709.4158050688382
 20
1140.349056491017
 30
0.0
 10
707.9756836646741
 20
1139.119778697173
 30
0.0
 10
707.4213888406023
 20
1138.679817789216
 30
0.0
 10
707.1364057611374
 20
1138.391611512943
 30
0.0
 10
706.987052326544
 20
1138.209777337786
 30
0.0
 10
706.8394055073463
 20
1138.000371762742
 30
0.0
 10
706.6831958810428
 20
1137.733678449673
 30
0.0
 10
706.5410925262236
 20
1137.403860065521
 30
0.0
 10
706.4433909204344
 20
1137.063927492785
 30
0.0
 10
706.3871017142895
 20
1136.749495921765
 30
0.0
 10
706.3691677506685
 20
1136.450460428611
 30
0.0
 10
706.3660722493323
 20
1136.061956873478
 30
0.0
 10
706.3578620447045
 20
1135.681187558806
 30
0.0
 10
706.3501531626049
 20
1135.22254932387
 30
0.0
 10
706.3411332063915
 20
1134.712371970534
 30
0.0
 10
706.3296952654885
 20
1134.054227715934
 30
0.0
 10
706.3163174872959
 20
1133.288980160842
 30
0.0
 10
706.3029844779326
 20
1132.523694943911
 30
0.0
 10
706.2912480335266
 20
1131.854874635043
 30
0.0
 10
706.2808051974823
 20
1131.247438643618
 30
0.0
 10
706.2426344078515
 20
1129.215213078235
 30
0.0
 10
706.2574444484355
 20
1127.332620040464
 30
0.0
 10
706.2705621596705
 20
1125.66514913095
 30
0.0
 11
981.2705685651472
 21
1246.665138656486
 31
0.0
 11
979.788345054405
 21
1246.514198715079
 31
0.0
 11
979.4919029523328
 21
1246.426876775909
 31
0.0
 11
979.1967736039219
 21
1246.333038073041
 31
0.0
 11
979.0757214582136
 21
1246.295967513907
 31
0.0
 11
978.817106282221
 21
1246.216770163722
 31
0.0
 11
977.9354176909337
 21
1245.856670809902
 31
0.0
 11
977.7007252729109
 21
1245.735359603751
 31
0.0
 11
976.4366032636335
 21
1244.951942855704
 31
0.0
 11
975.8348538434675
 21
1244.510902816642
 31
0.0
 11
975.2932316816023
 21
1243.996956283439
 31
0.0
 11
974.751609519737
 21
1243.483009750236
 31
0.0
 11
973.7762066877058
 21
1242.352089340079
 31
0.0
 11
972.486415580528
 21
1240.519356185782
 31
0.0
 11
970.9794842755964
 21
1237.938270980704
 31
0.0
 11
969.3305661237409
 21
1234.582802230704
 31
0.0
 11
967.5536343610456
 21
1230.460304672111
 31
0.0
 11
965.8746335065534
 21
1226.294655258048
 31
0.0
 11
964.2143933332136
 21
1222.118935043204
 31
0.0
 11
962.8024785077741
 21
1218.646431381095
 31
0.0
 11
961.3399807965925
 21
1215.190102035392
 31
0.0
 11
959.155345634239
 21
1210.399483138907
 31
0.0
 11
955.6545369184187
 21
1203.707619125236
 31
0.0
 11
952.4308850324323
 21
1198.557259017814
 31
0.0
 11
949.241843894737
 21
1194.264748031486
 31
0.0
 11
945.1170956647566
 21
1189.686561996329
 31
0.0
 11
941.0680653608015
 21
1186.027962142814
 31
0.0
 11
934.6073567426374
 21
1181.426582748282
 31
0.0
 11
926.6803586042097
 21
1177.232155258048
 31
0.0
 11
918.8340985334089
 21
1174.132973129142
 31
0.0
 11
912.1735150373152
 21
1172.060341293204
 31
0.0
 11
904.3010327375105
 21
1170.080788070548
 31
0.0
 11
897.0050427472761
 21
1168.577003890861
 31
0.0
 11
886.5793683087995
 21
1166.827248031486
 31
0.0
 11
879.7335736310652
 21
1165.871925765861
 31
0.0
 11
870.7264782941511
 21
1164.783668929923
 31
0.0
 11
865.6290051496198
 21
1164.238930160392
 31
0.0
 11
861.509162620323
 21
1163.828377181876
 31
0.0
 11
852.1133191144636
 21
1162.977516586173
 31
0.0
 11
846.8231884992292
 21
1162.54364817797
 31
0.0
 11
841.491599754112
 21
1162.132362777579
 31
0.0
 11
832.8811261212995
 21
1161.517738754142
 31
0.0
 11
827.4476468122175
 21
1161.156837875236
 31
0.0
 11
816.4285351789167
 21
1160.476448470939
 31
0.0
 11
801.697166160362
 21
1159.655189926017
 31
0.0
 11
789.9521710431745
 21
1159.057716781486
 31
0.0
 11
770.2068097150495
 21
1158.145851547111
 31
0.0
 11
758.7054092844955
 21
1157.662396515048
 31
0.0
 11
746.2880780255964
 21
1157.184181625236
 31
0.0
 11
735.4623758736878
 21
1157.009329350248
 31
0.0
 11
730.0807593659181
 21
1156.7201159459
 31
0.0
 11
728.9013647165804
 21
1156.649706107929
 31
0.0
 11
728.4013272282301
 21
1156.592836871336
 31
0.0
 11
727.7540267283094
 21
1156.483661011148
 31
0.0
 11
727.3190589708773
 21
1156.380678486153
 31
0.0
 11
726.9161569556567
 21
1156.260149693351
 31
0.0
 11
726.3009473919559
 21
1155.995201802807
 31
0.0
 11
725.9847427658809
 21
1155.82851425953
 31
0.0
 11
725.5663574224722
 21
1155.549285395636
 31
0.0
 11
725.024418863645
 21
1155.076710043334
 31
0.0
 11
724.7773969697358
 21
1154.829262049247
 31
0.0
 11
723.859468067187
 21
1153.595370391255
 31
0.0
 11
723.2654553218397
 21
1152.601084486402
 31
0.0
 11
722.897496100897
 21
1151.983004424848
 31
0.0
 11
722.5769630297675
 21
1151.539505584836
 31
0.0
 11
722.1335139619908
 21
1151.04100779325
 31
0.0
 11
721.7357046452898
 21
1150.67546555991
 31
0.0
 11
721.3105981779664
 21
1150.318758879971
 31
0.0
 11
720.1156491124491
 21
1149.316077559819
 31
0.0
 11
717.4149277427905
 21
1147.049903254626
 31
0.0
 11
714.4755211474608
 21
1144.583448264604
 31
0.0
 11
711.669858001288
 21
1142.229217353443
 31
0.0
 11
708.7455934053039
 21
1139.775468009488
 31
0.0
 11
707.8494120645008
 21
1139.023482576952
 31
0.0
 11
707.3199218617295
 21
1138.573314138973
 31
0.0
 11
707.1415580423018
 21
1138.391362176491
 31
0.0
 11
706.9733505659817
 21
1138.187092145086
 31
0.0
 11
706.8665071102308
 21
1138.035477902426
 31
0.0
 11
706.705669594484
 21
1137.760933054977
 31
0.0
 11
706.5388556484453
 21
1137.373498658017
 31
0.0
 11
706.4464814024727
 21
1137.053040238666
 31
0.0
 11
706.3937523321054
 21
1136.75379152336
 31
0.0
 11
706.3712505636504
 21
1136.435653231639
 31
0.0
 11
706.366459585476
 21
1136.161178275829
 31
0.0
 11
706.356472980066
 21
1135.589046035068
 31
0.0
 11
706.3513113637866
 21
1135.293337236473
 31
0.0
 11
706.3424429316397
 21
1134.785265099047
 31
0.0
 11
706.3297574331917
 21
1134.058513379697
 31
0.0
 11
706.3168475166445
 21
1133.31890475606
 31
0.0
 11
706.3023705906363
 21
1132.489522220515
 31
0.0
 11
706.2896831335721
 21
1131.762658292116
 31
0.0
 11
706.281824582871
 21
1131.31244222398
 31
0.0
 11
706.2705621596705
 21
1130.667218430953
 31
0.0
 11
706.2705621596705
 21
1125.66514913095
 31
0.0
  0
LWPOLYLINE
  5
15246
102
{ACAD_REACTORS
330
15349
102
}
330
A
100
AcDbEntity
  8
MODEL
100
AcDbPolyline
 90
        8
 70
     0
 43
0.0
 10
389.9134137189558
 20
1154.165199691642
 10
389.297019675987
 20
1154.809059554923
 10
388.720603660362
 20
1155.488930160392
 10
388.2110211408308
 20
1156.219765121329
 10
387.8054425275495
 20
1157.012611801017
 10
387.5302350080183
 20
1157.859596664298
 10
387.3762433087995
 20
1158.737099105704
 10
387.3086773908308
 20
1159.665199691642
  0
DIMENSION
  5
15248
330
A
100
AcDbEntity
  8
Dim
100
AcDbDimension
  2
*D10
 10
984.127388619514
 20
2555.022053258
 30
0.0
 11
684.2688543120491
 21
2555.022053258
 31
0.0
 70
   160
 71
     5
 42
599.7520721031469
 73
     0
 74
     0
 75
     0
  3
tform線あり
100
AcDbAlignedDimension
 13
384.3753165163671
 23
2404.613299949619
 33
0.0
 14
984.127388619514
 24
2408.868190309257
 34
0.0
100
AcDbRotatedDimension
1001
ACAD
1000
DSTYLE
1002
{
1070
   271
1070
     0
1002
}
  0
DIMENSION
  5
15257
330
A
100
AcDbEntity
  8
Dim
100
AcDbDimension
  2
*D11
 10
1111.506412015596
 20
2039.169223455508
 30
0.0
 11
1089.28552058756
 21
2229.044532445987
 31
0.0
 70
    32
 71
     5
 42
379.7506179809577
 73
     0
 74
     0
 75
     0
  3
tform線あり
100
AcDbAlignedDimension
 13
972.6781250876478
 23
2418.919841436466
 33
0.0
 14
977.1103222178839
 24
2039.169223455508
 34
0.0
 50
90.0
100
AcDbRotatedDimension
1001
ACAD
1000
DSTYLE
1002
{
1070
   271
1070
     0
1002
}
  0
DIMENSION
  5
15266
330
A
100
AcDbEntity
  8
Dim
100
AcDbDimension
  2
*D12
 10
981.2124695688373
 20
1894.074817022464
 30
0.0
 11
684.2788406084574
 21
1894.074817022464
 31
0.0
 70
   160
  1
590
 71
     5
 42
593.8672579207588
 73
     0
 74
     0
 75
     0
  3
tform線あり
100
AcDbAlignedDimension
 13
387.3452116480785
 23
2039.165803143182
 33
0.0
 14
981.2124695688373
 24
2043.088845493063
 34
0.0
100
AcDbRotatedDimension
1001
ACAD
1000
DSTYLE
1002
{
1070
   271
1070
     0
1002
}
  0
DIMENSION
  5
15277
330
A
100
AcDbEntity
  8
Dim
100
AcDbDimension
  2
*D13
 10
246.9397021945035
 20
2042.121730474551
 30
0.0
 11
246.9397021945035
 21
2229.065875677188
 31
0.0
 70
   160
  1
370
 71
     5
 42
373.8882904052739
 73
     0
 74
     0
 75
     0
  3
tform線あり
100
AcDbAlignedDimension
 13
391.9210208425636
 23
2416.010020879825
 33
0.0
 14
384.3719256149984
 24
2042.121730474551
 34
0.0
 50
90.0
100
AcDbRotatedDimension
1001
ACAD
1000
DSTYLE
1002
{
1070
   271
1070
     0
1002
}
  0
DIMENSION
  5
15288
330
A
100
AcDbEntity
  8
Dim
100
AcDbDimension
  2
*D14
 10
951.0330868923262
 20
1013.006584721969
 30
0.0
 11
684.2705465858371
 21
1035.227476150004
 31
0.0
 70
    32
  1
535
 71
     5
 42
533.5250806129781
 73
     0
 74
     0
 75
     0
  3
tform線あり
100
AcDbAlignedDimension
 13
417.5080062793481
 23
1126.89348925444
 33
0.0
 14
951.0330868923262
 24
1126.893535896687
 34
0.0
100
AcDbRotatedDimension
  0
DIMENSION
  5
15297
102
{ACAD_REACTORS
330
15299
102
}
102
{ACAD_XDICTIONARY
360
15298
102
}
330
A
100
AcDbEntity
  8
Dim
100
AcDbDimension
  2
*D15
 10
1076.06857991567
 20
1125.665168185425
 30
0.0
 11
1053.847688487635
 21
1186.165172219991
 31
0.0
 70
    32
  1
120
 71
     5
 42
121.000008069132
 73
     0
 74
     0
 75
     0
  3
tform線あり
100
AcDbAlignedDimension
 13
972.5284052896959
 23
1246.665176254557
 33
0.0
 14
935.0660061788333
 24
1125.665168185425
 34
0.0
 50
90.0
100
AcDbRotatedDimension
  0
DIMENSION
  5
152A6
330
A
100
AcDbEntity
  8
Dim
100
AcDbDimension
  2
*D16
 10
1750.601899348103
 20
1013.006584721969
 30
0.0
 11
1593.839359041612
 21
1035.227476150005
 31
0.0
 70
    32
  1
315
 71
     5
 42
313.525080612982
 73
     0
 74
     0
 75
     0
  3
tform線あり
100
AcDbAlignedDimension
 13
1437.076818735121
 23
1126.89354106006
 33
0.0
 14
1750.601899348103
 24
1126.893541060058
 34
0.0
100
AcDbRotatedDimension
1001
ACAD
1000
DSTYLE
1002
{
1070
   271
1070
     0
1002
}
  0
DIMENSION
  5
152B5
102
{ACAD_REACTORS
330
152B7
102
}
102
{ACAD_XDICTIONARY
360
152B6
102
}
330
A
100
AcDbEntity
  8
Dim
100
AcDbDimension
  2
*D17
 10
1595.901207775541
 20
1155.207118385923
 30
0.0
 11
1595.901207775541
 21
1335.803130890747
 31
0.0
 70
   160
  1
88(深さ)
 71
     5
 42
91.45804817054204
 73
     0
 74
     1
 75
     1
  3
tform線あり
100
AcDbAlignedDimension
 13
1595.168331985668
 23
1246.665166556465
 33
0.0
 14
1595.168331985668
 24
1155.207118385923
 34
0.0000000000000087
 50
90.0
100
AcDbRotatedDimension
  0
DIMENSION
  5
152C7
330
A
100
AcDbEntity
  8
Dim
100
AcDbDimension
  2
*D18
 10
1593.839359041612
 20
937.7305995718629
 30
0.0
 11
1688.718738314074
 21
959.9514909998984
 31
0.0
 70
    32
 71
     5
 42
189.7587585449235
 73
     0
 74
     0
 75
     0
  3
tform線あり
100
AcDbAlignedDimension
 13
1783.598117586536
 23
1169.163998457672
 33
0.0000000000000087
 14
1593.839359041612
 24
1013.006584721969
 34
0.0
100
AcDbRotatedDimension
1001
ACAD
1000
DSTYLE
1002
{
1070
   271
1070
     0
1002
}
  0
MTEXT
  5
152EB
330
A
100
AcDbEntity
  8
template
390
1D
100
AcDbMText
 10
1574.235013152597
 20
234.441496897819
 30
0.0
 40
24.4326171875
 41
0.0
 46
28.40135167875453
 71
     1
 72
     1
  1
{12.5kg}
  7
ＭＳ ゴシック
 73
     1
 44
0.7828267384257843
1001
ACAD
1000
ACAD_MTEXT_DEFINED_HEIGHT_BEGIN
1070
    46
1040
28.40135167875453
1000
ACAD_MTEXT_DEFINED_HEIGHT_END
  0
MTEXT
  5
15323
330
A
100
AcDbEntity
  8
Dim
390
1D
100
AcDbMText
 10
1454.863245321165
 20
2545.972609380367
 30
34.99521132346015
 40
24.0
 41
0.0
 46
27.413396484375
 71
     1
 72
     1
  1
{カウンター切込寸法}
  7
ＭＳ ゴシック
 73
     1
 44
0.7828267384257843
1001
ACAD
1000
ACAD_MTEXT_DEFINED_HEIGHT_BEGIN
1070
    46
1040
27.413396484375
1000
ACAD_MTEXT_DEFINED_HEIGHT_END
  0
CIRCLE
  5
15324
330
A
100
AcDbEntity
  8
Dim
  6
Continuous
100
AcDbCircle
 10
1415.368547154933
 20
1949.923508235907
 30
0.0
 40
0.0
  0
CIRCLE
  5
15325
330
A
100
AcDbEntity
  8
HIDDEN
100
AcDbCircle
 10
1598.535941523526
 20
2228.216346752401
 30
0.0
 40
21.99984767194791
  0
MTEXT
  5
1532E
330
A
100
AcDbEntity
  8
Dim
390
1D
100
AcDbMText
 10
1294.576030993066
 20
1924.441694656912
 30
34.99521132346015
 40
24.0
 41
1169.771715461011
 46
120.6272086110942
 71
     1
 72
     1
  1
{※陶器製品には寸法公差があります。\P  必ず現物を合わせてカウンターに切込を\P  行ってください。}
  7
ＭＳ ゴシック
 73
     1
 44
1.174240107638677
1001
ACAD
1000
ACAD_MTEXT_DEFINED_HEIGHT_BEGIN
1070
    46
1040
120.6272086110942
1000
ACAD_MTEXT_DEFINED_HEIGHT_END
  0
CIRCLE
  5
1532F
102
{ACAD_REACTORS
330
15330
102
}
330
A
100
AcDbEntity
  8
MODEL
  6
Continuous
100
AcDbCircle
 10
1598.535941523526
 20
2228.216346752401
 30
0.0
 40
60.0
  0
HATCH
  5
15330
330
A
100
AcDbEntity
  8
Dim
  6
Continuous
100
AcDbHatch
 10
0.0
 20
0.0
 30
0.0
210
0.0
220
0.0
230
1.0
  2
ANSI31
 70
     0
 71
     1
 91
        1
 92
        1
 93
        1
 72
     2
 10
1598.535941523526
 20
2228.216346752401
 40
60.0
 50
0.0
 51
360.0
 73
     1
 97
        1
330
1532F
 75
     0
 76
     1
 52
0.0
 41
5.0
 77
     0
 78
     1
 53
45.0
 43
48.52682067025216
 44
191.0732338101172
 45
-11.22532015133644
 46
11.22532015133644
 79
     0
 98
        1
 10
48.52682067025216
 20
191.0732338101172
1001
ACAD
1010
0.0
1020
0.0
1030
0.0
  0
LINE
  5
15331
330
A
100
AcDbEntity
  8
Dim
  6
Continuous
100
AcDbLine
 10
1639.797619845775
 20
2271.776350219243
 30
0.0
 11
1691.626565579166
 21
2327.610590142177
 31
0.0
  0
MTEXT
  5
15332
330
A
100
AcDbEntity
  8
Dim
390
1D
100
AcDbMText
 10
1699.797714240911
 20
2353.429179116819
 30
34.99521132346015
 40
24.0
 41
0.0
 46
24.72
 71
     1
 72
     1
  1
{%%c120}
  7
ＭＳ ゴシック
 73
     1
 44
0.7828267384257843
1001
ACAD
1000
ACAD_MTEXT_DEFINED_HEIGHT_BEGIN
1070
    46
1040
24.72
1000
ACAD_MTEXT_DEFINED_HEIGHT_END
  0
LINE
  5
15333
102
{ACAD_REACTORS
330
1533C
102
}
330
A
100
AcDbEntity
  8
HIDDEN
  6
HIDDEN
100
AcDbLine
 10
1898.434570116424
 20
2398.123767898952
 30
0.0
 11
1898.431179215055
 21
2058.308925609606
 31
0.0
  0
ARC
  5
15334
102
{ACAD_REACTORS
330
1533C
102
}
330
A
100
AcDbEntity
  8
HIDDEN
  6
HIDDEN
100
AcDbCircle
 10
1878.456035802003
 20
2398.136442348292
 30
0.0
 40
19.97853833477743
100
AcDbArc
 50
359.9636513697159
 51
90.03634485129953
  0
LINE
  5
15335
102
{ACAD_REACTORS
330
1533C
102
}
330
A
100
AcDbEntity
  8
HIDDEN
  6
HIDDEN
100
AcDbLine
 10
1318.628520376771
 20
2418.114976663549
 30
0.0
 11
1878.443343562103
 21
2418.111581651696
 31
0.0
  0
ARC
  5
15336
102
{ACAD_REACTORS
330
1533C
102
}
330
A
100
AcDbEntity
  8
HIDDEN
  6
HIDDEN
100
AcDbCircle
 10
1318.615871754102
 20
2398.136417839248
 30
0.0
 40
19.97856282828534
100
AcDbArc
 50
89.963725481651
 51
180.0362782969011
  0
LINE
  5
15337
102
{ACAD_REACTORS
330
1533C
102
}
330
A
100
AcDbEntity
  8
HIDDEN
  6
HIDDEN
100
AcDbLine
 10
1298.640703832003
 20
2058.308925609606
 30
0.0
 11
1298.640700739838
 21
2398.123758165368
 31
0.0
  0
ARC
  5
15338
102
{ACAD_REACTORS
330
1533C
102
}
330
A
100
AcDbEntity
  8
HIDDEN
  6
HIDDEN
100
AcDbCircle
 10
1318.61584723508
 20
2058.296251146541
 30
0.0
 40
19.97853832480808
100
AcDbArc
 50
179.963651341069
 51
270.0363448799621
  0
LINE
  5
15339
102
{ACAD_REACTORS
330
1533C
102
}
330
A
100
AcDbEntity
  8
HIDDEN
  6
HIDDEN
100
AcDbLine
 10
1878.443362670278
 20
2038.317716841259
 30
0.0
 11
1318.628520372386
 21
2038.321109069225
 31
0.0
  0
ARC
  5
1533A
102
{ACAD_REACTORS
330
1533C
102
}
330
A
100
AcDbEntity
  8
HIDDEN
  6
HIDDEN
100
AcDbCircle
 10
1878.456011302933
 20
2058.296275655584
 30
0.0
 40
19.97856281831456
100
AcDbArc
 50
269.9637254529885
 51
0.0362783255558404
  0
LINE
  5
1533D
330
A
100
AcDbEntity
  8
MODEL
100
AcDbLine
 10
415.7156836024242
 20
2042.11336102875
 30
0.0
 11
953.7478415003734
 21
2042.118892339785
 31
0.0
  0
DIMENSION
  5
15347
102
{ACAD_REACTORS
330
15349
102
}
102
{ACAD_XDICTIONARY
360
15348
102
}
330
A
100
AcDbEntity
  8
Dim
100
AcDbDimension
  2
*D20
 10
257.2002678900951
 20
1156.616188461173
 30
0.0
 11
257.2002678900951
 21
1201.546028549064
 31
0.0
 70
   160
  1
90
 71
     5
 42
89.85968017578102
 73
     0
 74
     0
 75
     0
  3
tform線あり
100
AcDbAlignedDimension
 13
385.9243484443869
 23
1246.475868636954
 33
0.0
 14
388.0082318341902
 24
1156.616188461173
 34
0.0
 50
90.0
100
AcDbRotatedDimension
  0
VIEWPORT
  5
349
330
B
100
AcDbEntity
 67
     1
  8
0
100
AcDbViewport
 10
202.5
 20
128.5
 30
0.0
 40
486.0
 41
308.4
 68
     1
 69
     1
 12
202.5
 22
128.5
 13
0.0
 23
0.0
 14
0.5
 24
0.5
 15
0.0
 25
0.0
 16
0.0
 26
0.0
 36
1.0
 17
0.0
 27
0.0
 37
0.0
 42
50.0
 43
0.0
 44
0.0
 45
308.4
 50
0.0
 51
0.0
 72
   100
 90
   557152
  1

281
     0
 71
     1
 74
     0
110
0.0
120
0.0
130
0.0
111
1.0
121
0.0
131
0.0
112
0.0
122
1.0
132
0.0
 79
     0
146
0.0
170
     0
 61
     5
348
26C
292
     1
282
     1
141
0.0
142
0.0
 63
   256
  0
VIEWPORT
  5
34A
330
B
100
AcDbEntity
 67
     1
  8
0
100
AcDbViewport
 10
202.5
 20
128.5
 30
0.0
 40
324.0
 41
205.6
 68
     2
 69
     2
 12
986.6781359294573
 22
1427.077061889956
 13
0.0
 23
0.0
 14
0.5
 24
0.5
 15
0.0
 25
0.0
 16
0.0
 26
0.0
 36
1.0
 17
0.0
 27
0.0
 37
0.0
 42
50.0
 43
0.0
 44
0.0
 45
2890.021615685494
 50
0.0
 51
0.0
 72
   100
 90
   557152
  1

281
     0
 71
     1
 74
     0
110
0.0
120
0.0
130
0.0
111
1.0
121
0.0
131
0.0
112
0.0
122
1.0
132
0.0
 79
     0
146
0.0
170
     0
 61
     5
348
26C
292
     1
282
     1
141
0.0
142
0.0
 63
   256
  0
ENDSEC
  0
SECTION
  2
OBJECTS
  0
DICTIONARY
  5
19
330
0
100
AcDbDictionary
281
     1
  3
ACAD_COLOR
350
38F
  3
ACAD_DETAILVIEWSTYLE
350
8CF
  3
ACAD_FIELDLIST
350
BA6
  3
ACAD_GROUP
350
1A
  3
ACAD_IMAGE_DICT
350
5E43
  3
ACAD_IMAGE_VARS
350
27B
  3
ACAD_LAYOUT
350
1E
  3
ACAD_MATERIAL
350
263
  3
ACAD_MLEADERSTYLE
350
336
  3
ACAD_MLINESTYLE
350
1B
  3
ACAD_PLOTSETTINGS
350
22
  3
ACAD_PLOTSTYLENAME
350
1F
  3
ACAD_SCALELIST
350
241
  3
ACAD_SECTIONVIEWSTYLE
350
8D0
  3
ACAD_TABLESTYLE
350
278
  3
ACAD_VISUALSTYLE
350
267
  3
ACDB_RECOMPOSE_DATA
350
15361
  3
AcDbVariableDictionary
350
330
  3
APPDATA
350
27A
  3
DimOffsetDictionary
350
C08
  0
SUN
  5
8C2
330
15
100
AcDbSun
 90
        1
290
     0
 63
     7
421
 16777215
 40
1.0
291
     1
 91
  2455826
 92
 54000000
292
     0
 70
     2
 71
   256
280
     1
  0
DICTIONARY
  5
2E1
330
2
100
AcDbDictionary
280
     1
281
     1
  3
ACAD_LAYERSTATES
360
2E2
  3
ACLYDICTIONARY
360
BFE
  0
DICTIONARY
  5
560A
330
A
100
AcDbDictionary
280
     1
281
     1
  3
ACAD_SORTENTS
360
560B
  0
DICTIONARY
  5
BDC
330
BDB
100
AcDbDictionary
280
     1
281
     1
  0
DICTIONARY
  5
15298
330
15297
100
AcDbDictionary
280
     1
281
     1
  3
ACAD_DIMASSOC
360
15299
  0
DICTIONARY
  5
152B6
330
152B5
100
AcDbDictionary
280
     1
281
     1
  3
ACAD_DIMASSOC
360
152B7
  0
DICTIONARY
  5
15348
330
15347
100
AcDbDictionary
280
     1
281
     1
  3
ACAD_DIMASSOC
360
15349
  0
DICTIONARY
  5
38F
102
{ACAD_REACTORS
330
19
102
}
330
19
100
AcDbDictionary
281
     1
  0
DICTIONARY
  5
8CF
102
{ACAD_REACTORS
330
19
102
}
330
19
100
AcDbDictionary
281
     1
  0
FIELDLIST
  5
BA6
102
{ACAD_REACTORS
330
19
102
}
330
19
100
AcDbIdSet
 90
        0
100
AcDbFieldList
  0
DICTIONARY
  5
1A
102
{ACAD_REACTORS
330
19
102
}
330
19
100
AcDbDictionary
281
     1
  3
*A1
350
1533C
  0
DICTIONARY
  5
5E43
102
{ACAD_REACTORS
330
19
102
}
330
19
100
AcDbDictionary
281
     1
  3
Untitled
350
5E44
  0
RASTERVARIABLES
  5
27B
102
{ACAD_REACTORS
330
19
102
}
330
19
100
AcDbRasterVariables
 90
        0
 70
     1
 71
     1
 72
     1
  0
DICTIONARY
  5
1E
102
{ACAD_REACTORS
330
19
102
}
330
19
100
AcDbDictionary
281
     1
  3
Layout1
350
21
  3
Model
350
20
  0
DICTIONARY
  5
263
102
{ACAD_REACTORS
330
19
102
}
330
19
100
AcDbDictionary
281
     1
  3
ByBlock
350
4FEC
  3
ByLayer
350
264
  3
Global
350
266
  0
DICTIONARY
  5
336
102
{ACAD_REACTORS
330
19
102
}
330
19
100
AcDbDictionary
281
     1
  3
Standard
350
8D1
  0
DICTIONARY
  5
1B
102
{ACAD_REACTORS
330
19
102
}
330
19
100
AcDbDictionary
281
     1
  3
Standard
350
1C
  0
DICTIONARY
  5
22
102
{ACAD_REACTORS
330
19
102
}
330
19
100
AcDbDictionary
281
     1
  0
ACDBDICTIONARYWDFLT
  5
1F
102
{ACAD_REACTORS
330
19
102
}
330
19
100
AcDbDictionary
281
     1
  3
Normal
350
1D
100
AcDbDictionaryWithDefault
340
1D
  0
DICTIONARY
  5
241
102
{ACAD_REACTORS
330
19
102
}
330
19
100
AcDbDictionary
281
     1
  3
A0
350
242
  3
A1
350
243
  3
A2
350
244
  3
A3
350
245
  3
A4
350
246
  3
A5
350
247
  3
A6
350
248
  3
A7
350
249
  3
A8
350
24A
  3
A9
350
24B
  3
B0
350
24C
  3
B1
350
24D
  3
B2
350
24E
  3
B3
350
24F
  3
B4
350
250
  3
B5
350
251
  3
B6
350
252
  3
B7
350
253
  3
B8
350
254
  3
B9
350
255
  3
C0
350
256
  3
C1
350
257
  3
C2
350
258
  3
C3
350
259
  3
C4
350
25A
  3
C5
350
25B
  3
C6
350
25C
  3
C7
350
25D
  3
C8
350
25E
  3
C9
350
25F
  3
D0
350
260
  3
D1
350
261
  3
D2
350
262
  0
DICTIONARY
  5
8D0
102
{ACAD_REACTORS
330
19
102
}
330
19
100
AcDbDictionary
281
     1
  0
DICTIONARY
  5
278
102
{ACAD_REACTORS
330
19
102
}
330
19
100
AcDbDictionary
281
     1
  3
Standard
350
279
  0
DICTIONARY
  5
267
102
{ACAD_REACTORS
330
19
102
}
330
19
100
AcDbDictionary
281
     1
  3
2dWireframe
350
26C
  3
3D Hidden
350
26E
  3
3dWireframe
350
26D
  3
Basic
350
26F
  3
Brighten
350
273
  3
ColorChange
350
277
  3
Conceptual
350
271
  3
Dim
350
272
  3
EdgeColorOff
350
8BC
  3
Facepattern
350
276
  3
Flat
350
268
  3
FlatWithEdges
350
269
  3
Gouraud
350
26A
  3
GouraudWithEdges
350
26B
  3
Hidden
350
8B9
  3
JitterOff
350
8BA
  3
Linepattern
350
275
  3
OverhangOff
350
8BB
  3
Realistic
350
270
  3
Shaded
350
8C1
  3
Shaded with edges
350
8C0
  3
Shades of Gray
350
8BD
  3
Sketchy
350
8BE
  3
Thicken
350
274
  3
Wireframe
350
8B8
  3
X-Ray
350
8BF
  0
XRECORD
  5
15361
102
{ACAD_REACTORS
330
19
102
}
330
19
100
AcDbXrecord
280
     1
 90
        1
330
279
  0
DICTIONARY
  5
330
102
{ACAD_REACTORS
330
19
102
}
330
19
100
AcDbDictionary
281
     1
  3
CANNOSCALE
350
331
  3
CMLEADERSTYLE
350
8DA
  3
CTABLESTYLE
350
335
  3
HPTRANSPARENCY
350
C07
  3
XCLIPFRAME
350
64A
  0
DICTIONARY
  5
27A
102
{ACAD_REACTORS
330
19
102
}
330
19
100
AcDbDictionary
281
     1
  0
DICTIONARY
  5
C08
102
{ACAD_REACTORS
330
19
102
}
330
19
100
AcDbDictionary
281
     1
  3
DIMRAILANGLE
350
4342
  3
DIMRAILFIRSTOFFSET
350
4340
  3
DIMRAILOFFSET
350
4341
  3
DIMRAILSENABLED
350
4343
  0
DICTIONARY
  5
2E2
102
{ACAD_REACTORS
330
2E1
102
}
330
2E1
100
AcDbDictionary
281
     1
  0
DICTIONARY
  5
BFE
102
{ACAD_REACTORS
330
2E1
102
}
330
2E1
100
AcDbDictionary
281
     1
1001
ACAD
1000
<All
  0
SORTENTSTABLE
  5
560B
102
{ACAD_REACTORS
330
560A
102
}
330
560A
100
AcDbSortentsTable
330
A
  0
DIMASSOC
  5
15299
102
{ACAD_REACTORS
330
15298
102
}
330
15298
100
AcDbDimAssoc
330
15297
 90
        1
 70
     0
 71
     1
  1
AcDbOsnapPointRef
 72
     2
331
145DB
 73
     0
 91
        0
 40
0.5
 10
0.0
 20
0.0
 30
0.0
 75
     0
  0
DIMASSOC
  5
152B7
102
{ACAD_REACTORS
330
152B6
102
}
330
152B6
100
AcDbDimAssoc
330
152B5
 90
        3
 70
     0
 71
     1
  1
AcDbOsnapPointRef
 72
     1
331
1490B
 73
     0
 91
        0
 40
0.0
 10
0.0
 20
0.0
 30
0.0
 75
     0
  1
AcDbOsnapPointRef
 72
     8
331
15215
 73
     0
 91
        0
 40
0.5174932282839637
 10
0.0
 20
0.0
 30
0.0
 75
     1
  1
AcDbOsnapPointRef
 72
     1
331
1490B
 73
     0
 91
        0
 40
0.0
 10
0.0
 20
0.0
 30
0.0
 75
     0
  0
DIMASSOC
  5
15349
102
{ACAD_REACTORS
330
15348
102
}
330
15348
100
AcDbDimAssoc
330
15347
 90
        3
 70
     0
 71
     1
  1
AcDbOsnapPointRef
 72
     1
331
145E4
 73
     2
 91
        6
 40
1.0
 10
0.0
 20
0.0
 30
0.0
 75
     0
  1
AcDbOsnapPointRef
 72
     2
331
15246
 73
     2
 91
        4
 40
0.4999999999998717
 10
0.0
 20
0.0
 30
0.0
 75
     0
  0
GROUP
  5
1533C
102
{ACAD_REACTORS
330
1A
102
}
330
1A
100
AcDbGroup
300

 70
     1
 71
     1
340
15339
340
15335
340
15334
340
1533A
340
15333
340
15336
340
15337
340
15338
  0
IMAGEDEF
  5
5E44
102
{ACAD_REACTORS
330
5E43
102
}
330
5E43
100
AcDbRasterImageDef
 90
        0
  1
K:/DESKTOP/Untitled.png
 10
1035.0
 20
588.0
 11
0.2646202699126753
 21
0.2646202699126753
280
     1
281
     3
  0
LAYOUT
  5
21
102
{ACAD_REACTORS
330
1E
102
}
330
1E
100
AcDbPlotSettings
  1

  2
none_device
  4
ISO_A3_(420.00_x_297.00_MM)
  6

 40
7.5
 41
20.0
 42
7.5
 43
20.0
 44
420.0
 45
297.0
 46
0.0
 47
0.0
 48
0.0
 49
0.0
140
0.0
141
0.0
142
1.0
143
1.0
 70
     0
 72
     1
 73
     0
 74
     0
  7

 75
     0
 76
     0
 77
     2
 78
   300
147
1.0
148
0.0
149
0.0
100
AcDbLayout
  1
Layout1
 70
     0
 71
     0
 10
0.0
 20
0.0
 11
0.0
 21
0.0
 12
0.0
 22
0.0
 32
0.0
 14
0.0
 24
0.0
 34
0.0
 15
0.0
 25
0.0
 35
0.0
146
0.0
 13
0.0
 23
0.0
 33
0.0
 16
0.0
 26
0.0
 36
0.0
 17
0.0
 27
0.0
 37
0.0
 76
     0
330
B
331
349
  0
LAYOUT
  5
20
102
{ACAD_REACTORS
330
1E
102
}
330
1E
100
AcDbPlotSettings
  1

  2
Adobe PDF
  4
A4
  6

 40
0.0
 41
0.0400000000000205
 42
0.0600000000000023
 43
0.0
 44
210.0
 45
297.0
 46
0.0
 47
0.0224285714285486
 48
0.0
 49
0.0
140
0.0
141
0.0
142
1.0
143
10.00285795941698
 70
  1716
 72
     1
 73
     0
 74
     1
  7
monochrome.ctb
 75
     0
 76
   359
 77
     2
 78
   300
147
0.0999714285714286
148
377.047438245957
149
-297.612370234503
100
AcDbLayout
  1
Model
 70
     0
 71
     1
 10
0.0
 20
0.0
 11
2100.0
 21
2970.0
 12
0.0
 22
0.0
 32
0.0
 14
0.0
 24
0.0
 34
-0.0000000000000003
 15
2100.0
 25
2970.0
 35
34.99521132346015
146
0.0
 13
0.0
 23
0.0
 33
0.0
 16
0.0
 26
0.0
 36
0.0
 17
0.0
 27
0.0
 37
0.0
 76
     0
330
A
331
15
1001
PLOTTRANSPARENCY
1071
        0
  0
MATERIAL
  5
4FEC
102
{ACAD_REACTORS
330
263
102
}
330
263
100
AcDbMaterial
  1
ByBlock
 72
     1
 94
      127
  0
MATERIAL
  5
264
102
{ACAD_REACTORS
330
263
102
}
330
263
100
AcDbMaterial
  1
ByLayer
 72
     1
 94
      127
  0
MATERIAL
  5
266
102
{ACAD_REACTORS
330
263
102
}
330
263
100
AcDbMaterial
  1
Global
 72
     1
 94
      127
  0
MLEADERSTYLE
  5
8D1
102
{ACAD_REACTORS
330
336
102
}
330
336
100
AcDbMLeaderStyle
170
     2
171
     1
172
     0
 90
        2
 40
0.0
 41
0.0
173
     1
 91
-1056964608
340
11
 92
       -2
290
     1
 42
2.0
291
     1
 43
8.0
  3
Standard
341
0
 44
4.0
300

342
17
174
     1
178
     6
175
     1
176
     0
 93
-1056964608
 45
4.0
292
     0
297
     0
 46
4.0
343
0
 94
-1056964608
 47
1.0
 49
1.0
140
1.0
293
     1
141
0.0
294
     1
177
     0
142
1.0
295
     0
296
     0
143
3.75
1001
ACAD_MLEADERVER
1070
     2
  0
MLINESTYLE
  5
1C
102
{ACAD_REACTORS
330
1B
102
}
330
1B
100
AcDbMlineStyle
  2
Standard
 70
     0
  3

 62
     0
 51
90.0
 52
90.0
 71
     2
 49
0.5
 62
   256
  6
BYLAYER
 49
-0.5
 62
   256
  6
BYLAYER
  0
ACDBPLACEHOLDER
  5
1D
102
{ACAD_REACTORS
330
1F
102
}
330
1F
  0
SCALE
  5
242
102
{ACAD_REACTORS
330
241
102
}
330
241
100
AcDbScale
 70
     0
300
1:1
140
1.0
141
1.0
290
     1
  0
SCALE
  5
243
102
{ACAD_REACTORS
330
241
102
}
330
241
100
AcDbScale
 70
     0
300
1:2
140
1.0
141
2.0
290
     0
  0
SCALE
  5
244
102
{ACAD_REACTORS
330
241
102
}
330
241
100
AcDbScale
 70
     0
300
1:4
140
1.0
141
4.0
290
     0
  0
SCALE
  5
245
102
{ACAD_REACTORS
330
241
102
}
330
241
100
AcDbScale
 70
     0
300
1:5
140
1.0
141
5.0
290
     0
  0
SCALE
  5
246
102
{ACAD_REACTORS
330
241
102
}
330
241
100
AcDbScale
 70
     0
300
1:8
140
1.0
141
8.0
290
     0
  0
SCALE
  5
247
102
{ACAD_REACTORS
330
241
102
}
330
241
100
AcDbScale
 70
     0
300
1:10
140
1.0
141
10.0
290
     0
  0
SCALE
  5
248
102
{ACAD_REACTORS
330
241
102
}
330
241
100
AcDbScale
 70
     0
300
1:16
140
1.0
141
16.0
290
     0
  0
SCALE
  5
249
102
{ACAD_REACTORS
330
241
102
}
330
241
100
AcDbScale
 70
     0
300
1:20
140
1.0
141
20.0
290
     0
  0
SCALE
  5
24A
102
{ACAD_REACTORS
330
241
102
}
330
241
100
AcDbScale
 70
     0
300
1:30
140
1.0
141
30.0
290
     0
  0
SCALE
  5
24B
102
{ACAD_REACTORS
330
241
102
}
330
241
100
AcDbScale
 70
     0
300
1:40
140
1.0
141
40.0
290
     0
  0
SCALE
  5
24C
102
{ACAD_REACTORS
330
241
102
}
330
241
100
AcDbScale
 70
     0
300
1:50
140
1.0
141
50.0
290
     0
  0
SCALE
  5
24D
102
{ACAD_REACTORS
330
241
102
}
330
241
100
AcDbScale
 70
     0
300
1:100
140
1.0
141
100.0
290
     0
  0
SCALE
  5
24E
102
{ACAD_REACTORS
330
241
102
}
330
241
100
AcDbScale
 70
     0
300
2:1
140
2.0
141
1.0
290
     0
  0
SCALE
  5
24F
102
{ACAD_REACTORS
330
241
102
}
330
241
100
AcDbScale
 70
     0
300
4:1
140
4.0
141
1.0
290
     0
  0
SCALE
  5
250
102
{ACAD_REACTORS
330
241
102
}
330
241
100
AcDbScale
 70
     0
300
8:1
140
8.0
141
1.0
290
     0
  0
SCALE
  5
251
102
{ACAD_REACTORS
330
241
102
}
330
241
100
AcDbScale
 70
     0
300
10:1
140
10.0
141
1.0
290
     0
  0
SCALE
  5
252
102
{ACAD_REACTORS
330
241
102
}
330
241
100
AcDbScale
 70
     0
300
100:1
140
100.0
141
1.0
290
     0
  0
SCALE
  5
253
102
{ACAD_REACTORS
330
241
102
}
330
241
100
AcDbScale
 70
     0
300
1/128" = 1'-0"
140
0.0078125
141
12.0
290
     0
  0
SCALE
  5
254
102
{ACAD_REACTORS
330
241
102
}
330
241
100
AcDbScale
 70
     0
300
1/64" = 1'-0"
140
0.015625
141
12.0
290
     0
  0
SCALE
  5
255
102
{ACAD_REACTORS
330
241
102
}
330
241
100
AcDbScale
 70
     0
300
1/32" = 1'-0"
140
0.03125
141
12.0
290
     0
  0
SCALE
  5
256
102
{ACAD_REACTORS
330
241
102
}
330
241
100
AcDbScale
 70
     0
300
1/16" = 1'-0"
140
0.0625
141
12.0
290
     0
  0
SCALE
  5
257
102
{ACAD_REACTORS
330
241
102
}
330
241
100
AcDbScale
 70
     0
300
3/32" = 1'-0"
140
0.09375
141
12.0
290
     0
  0
SCALE
  5
258
102
{ACAD_REACTORS
330
241
102
}
330
241
100
AcDbScale
 70
     0
300
1/8" = 1'-0"
140
0.125
141
12.0
290
     0
  0
SCALE
  5
259
102
{ACAD_REACTORS
330
241
102
}
330
241
100
AcDbScale
 70
     0
300
3/16" = 1'-0"
140
0.1875
141
12.0
290
     0
  0
SCALE
  5
25A
102
{ACAD_REACTORS
330
241
102
}
330
241
100
AcDbScale
 70
     0
300
1/4" = 1'-0"
140
0.25
141
12.0
290
     0
  0
SCALE
  5
25B
102
{ACAD_REACTORS
330
241
102
}
330
241
100
AcDbScale
 70
     0
300
3/8" = 1'-0"
140
0.375
141
12.0
290
     0
  0
SCALE
  5
25C
102
{ACAD_REACTORS
330
241
102
}
330
241
100
AcDbScale
 70
     0
300
1/2" = 1'-0"
140
0.5
141
12.0
290
     0
  0
SCALE
  5
25D
102
{ACAD_REACTORS
330
241
102
}
330
241
100
AcDbScale
 70
     0
300
3/4" = 1'-0"
140
0.75
141
12.0
290
     0
  0
SCALE
  5
25E
102
{ACAD_REACTORS
330
241
102
}
330
241
100
AcDbScale
 70
     0
300
1" = 1'-0"
140
1.0
141
12.0
290
     0
  0
SCALE
  5
25F
102
{ACAD_REACTORS
330
241
102
}
330
241
100
AcDbScale
 70
     0
300
1-1/2" = 1'-0"
140
1.5
141
12.0
290
     0
  0
SCALE
  5
260
102
{ACAD_REACTORS
330
241
102
}
330
241
100
AcDbScale
 70
     0
300
3" = 1'-0"
140
3.0
141
12.0
290
     0
  0
SCALE
  5
261
102
{ACAD_REACTORS
330
241
102
}
330
241
100
AcDbScale
 70
     0
300
6" = 1'-0"
140
6.0
141
12.0
290
     0
  0
SCALE
  5
262
102
{ACAD_REACTORS
330
241
102
}
330
241
100
AcDbScale
 70
     0
300
1'-0" = 1'-0"
140
12.0
141
12.0
290
     0
  0
TABLESTYLE
  5
279
102
{ACAD_REACTORS
330
278
102
}
102
{ACAD_XDICTIONARY
360
1535F
102
}
330
278
100
AcDbTableStyle
  3
Standard
 70
     0
 71
     0
 40
0.06
 41
0.06
280
     0
281
     0
  7
Standard
140
4.5
170
     2
 62
     0
 63
   257
283
     0
 90
        4
 91
        0
  1

274
    -2
284
     1
 64
     0
275
    -2
285
     1
 65
     0
276
    -2
286
     1
 66
     0
277
    -2
287
     1
 67
     0
278
    -2
288
     1
 68
     0
279
    -2
289
     1
 69
     0
  7
Standard
140
6.0
170
     5
 62
     0
 63
   257
283
     0
 90
        4
 91
        0
  1

274
    -2
284
     1
 64
     0
275
    -2
285
     1
 65
     0
276
    -2
286
     1
 66
     0
277
    -2
287
     1
 67
     0
278
    -2
288
     1
 68
     0
279
    -2
289
     1
 69
     0
  7
Standard
140
4.5
170
     5
 62
     0
 63
   257
283
     0
 90
        4
 91
        0
  1

274
    -2
284
     1
 64
     0
275
    -2
285
     1
 65
     0
276
    -2
286
     1
 66
     0
277
    -2
287
     1
 67
     0
278
    -2
288
     1
 68
     0
279
    -2
289
     1
 69
     0
  0
VISUALSTYLE
  5
26C
102
{ACAD_REACTORS
330
267
102
}
330
267
100
AcDbVisualStyle
  2
2dWireframe
 70
     4
 71
     0
 72
     2
 73
     0
 90
        0
 40
-0.6
 41
-30.0
 62
     5
 63
     7
421
 16777215
 74
     1
 91
        4
 64
     7
 65
   257
 75
     1
175
     1
 42
1.0
 92
        0
 66
   257
 43
1.0
 76
     1
 77
     6
 78
     2
 67
     7
 79
     5
170
     0
171
     0
290
     0
174
     0
 93
        1
 44
0.0
173
     0
291
     0
 45
0.0
  0
VISUALSTYLE
  5
26E
102
{ACAD_REACTORS
330
267
102
}
330
267
100
AcDbVisualStyle
  2
3D Hidden
 70
     6
 71
     1
 72
     2
 73
     2
 90
        0
 40
-0.6
 41
-30.0
 62
     5
 63
     7
421
 16777215
 74
     2
 91
        2
 64
     7
 65
   257
 75
     2
175
     1
 42
40.0
 92
        0
 66
   257
 43
1.0
 76
     1
 77
     6
 78
     2
 67
     7
 79
     3
170
     0
171
     0
290
     0
174
     0
 93
        1
 44
0.0
173
     0
291
     0
 45
0.0
  0
VISUALSTYLE
  5
26D
102
{ACAD_REACTORS
330
267
102
}
330
267
100
AcDbVisualStyle
  2
3dWireframe
 70
     5
 71
     0
 72
     2
 73
     0
 90
        0
 40
-0.6
 41
-30.0
 62
     5
 63
     7
421
 16777215
 74
     1
 91
        4
 64
     7
 65
   257
 75
     1
175
     1
 42
1.0
 92
        0
 66
   257
 43
1.0
 76
     1
 77
     6
 78
     2
 67
     7
 79
     5
170
     0
171
     0
290
     0
174
     0
 93
        1
 44
0.0
173
     0
291
     0
 45
0.0
  0
VISUALSTYLE
  5
26F
102
{ACAD_REACTORS
330
267
102
}
330
267
100
AcDbVisualStyle
  2
Basic
 70
     7
 71
     1
 72
     0
 73
     1
 90
        0
 40
-0.6
 41
-30.0
 62
     5
 63
     7
421
 16777215
 74
     0
 91
        4
 64
     7
 65
   257
 75
     1
175
     1
 42
1.0
 92
        8
 66
     7
 43
1.0
 76
     1
 77
     6
 78
     2
 67
     7
 79
     5
170
     0
171
     0
290
     0
174
     0
 93
        1
 44
0.0
173
     0
291
     1
 45
0.0
  0
VISUALSTYLE
  5
273
102
{ACAD_REACTORS
330
267
102
}
330
267
100
AcDbVisualStyle
  2
Brighten
 70
    12
 71
     2
 72
     2
 73
     0
 90
        0
 40
-0.6
 41
-30.0
 62
     5
 63
     7
421
 16777215
 74
     1
 91
        4
 64
     7
 65
   257
 75
     1
175
     1
 42
1.0
 92
        8
 66
     7
 43
1.0
 76
     1
 77
     6
 78
     2
 67
     7
 79
     5
170
     0
171
     0
290
     0
174
     0
 93
        1
 44
50.0
173
     0
291
     1
 45
0.0
  0
VISUALSTYLE
  5
277
102
{ACAD_REACTORS
330
267
102
}
330
267
100
AcDbVisualStyle
  2
ColorChange
 70
    16
 71
     2
 72
     2
 73
     3
 90
        0
 40
-0.6
 41
-30.0
 62
     5
 63
     8
421
  8421504
 74
     1
 91
        4
 64
     7
 65
   257
 75
     1
175
     1
 42
1.0
 92
        8
 66
     8
424
  8421504
 43
1.0
 76
     1
 77
     6
 78
     2
 67
     7
 79
     5
170
     0
171
     0
290
     0
174
     0
 93
        1
 44
0.0
173
     0
291
     1
 45
0.0
  0
VISUALSTYLE
  5
271
102
{ACAD_REACTORS
330
267
102
}
330
267
100
AcDbVisualStyle
  2
Conceptual
 70
     9
 71
     3
 72
     2
 73
     0
 90
        0
 40
-0.6
 41
-30.0
 62
     5
 63
     7
421
 16777215
 74
     2
 91
        2
 64
     7
 65
   257
 75
     1
175
     1
 42
40.0
 92
        8
 66
     7
 43
1.0
 76
     1
 77
     6
 78
     2
 67
     7
 79
     3
170
     0
171
     0
290
     0
174
     0
 93
        1
 44
0.0
173
     0
291
     0
 45
0.0
  0
VISUALSTYLE
  5
272
102
{ACAD_REACTORS
330
267
102
}
330
267
100
AcDbVisualStyle
  2
Dim
 70
    11
 71
     2
 72
     2
 73
     0
 90
        0
 40
-0.6
 41
-30.0
 62
     5
 63
     7
421
 16777215
 74
     1
 91
        4
 64
     7
 65
   257
 75
     1
175
     1
 42
1.0
 92
        8
 66
     7
 43
1.0
 76
     1
 77
     6
 78
     2
 67
     7
 79
     5
170
     0
171
     0
290
     0
174
     0
 93
        1
 44
-50.0
173
     0
291
     1
 45
0.0
  0
VISUALSTYLE
  5
8BC
102
{ACAD_REACTORS
330
267
102
}
330
267
100
AcDbVisualStyle
  2
EdgeColorOff
 70
    22
 71
     2
 72
     2
 73
     0
 90
        0
 40
0.6
 41
30.0
 62
     5
 63
     7
421
 16777215
 74
     1
 91
        4
 64
     7
 65
   257
 75
     1
175
     1
 42
1.0
 92
        8
 66
     7
 43
1.0
 76
     1
 77
     6
 78
     2
 67
     7
 79
     5
170
     0
171
     0
290
     0
174
     0
 93
        1
 44
0.0
173
     0
291
     1
 45
0.0
  0
VISUALSTYLE
  5
276
102
{ACAD_REACTORS
330
267
102
}
330
267
100
AcDbVisualStyle
  2
Facepattern
 70
    15
 71
     2
 72
     2
 73
     0
 90
        0
 40
-0.6
 41
-30.0
 62
     5
 63
     7
421
 16777215
 74
     1
 91
        4
 64
     7
 65
   257
 75
     1
175
     1
 42
1.0
 92
        8
 66
     7
 43
1.0
 76
     1
 77
     6
 78
     2
 67
     7
 79
     5
170
     0
171
     0
290
     0
174
     0
 93
        1
 44
0.0
173
     0
291
     1
 45
0.0
  0
VISUALSTYLE
  5
268
102
{ACAD_REACTORS
330
267
102
}
330
267
100
AcDbVisualStyle
  2
Flat
 70
     0
 71
     2
 72
     1
 73
     1
 90
        2
 40
-0.6
 41
30.0
 62
     5
 63
     7
421
 16777215
 74
     0
 91
        4
 64
     7
 65
   257
 75
     1
175
     1
 42
1.0
 92
        8
 66
     7
 43
1.0
 76
     1
 77
     6
 78
     2
 67
     7
 79
     5
170
     0
171
     0
290
     0
174
     0
 93
       13
 44
0.0
173
     0
291
     1
 45
0.0
  0
VISUALSTYLE
  5
269
102
{ACAD_REACTORS
330
267
102
}
330
267
100
AcDbVisualStyle
  2
FlatWithEdges
 70
     1
 71
     2
 72
     1
 73
     1
 90
        2
 40
-0.6
 41
30.0
 62
     5
 63
     7
421
 16777215
 74
     1
 91
        4
 64
     7
 65
   257
 75
     1
175
     1
 42
1.0
 92
        0
 66
   257
 43
1.0
 76
     1
 77
     6
 78
     2
 67
     7
 79
     5
170
     0
171
     0
290
     0
174
     0
 93
       13
 44
0.0
173
     0
291
     1
 45
0.0
  0
VISUALSTYLE
  5
26A
102
{ACAD_REACTORS
330
267
102
}
330
267
100
AcDbVisualStyle
  2
Gouraud
 70
     2
 71
     2
 72
     2
 73
     1
 90
        2
 40
-0.6
 41
30.0
 62
     5
 63
     7
421
 16777215
 74
     0
 91
        4
 64
     7
 65
   257
 75
     1
175
     1
 42
1.0
 92
        0
 66
     7
 43
1.0
 76
     1
 77
     6
 78
     2
 67
     7
 79
     5
170
     0
171
     0
290
     0
174
     0
 93
       13
 44
0.0
173
     0
291
     1
 45
0.0
  0
VISUALSTYLE
  5
26B
102
{ACAD_REACTORS
330
267
102
}
330
267
100
AcDbVisualStyle
  2
GouraudWithEdges
 70
     3
 71
     2
 72
     2
 73
     1
 90
        2
 40
-0.6
 41
30.0
 62
     5
 63
     7
421
 16777215
 74
     1
 91
        4
 64
     7
 65
   257
 75
     1
175
     1
 42
1.0
 92
        0
 66
   257
 43
1.0
 76
     1
 77
     6
 78
     2
 67
     7
 79
     5
170
     0
171
     0
290
     0
174
     0
 93
       13
 44
0.0
173
     0
291
     1
 45
0.0
  0
VISUALSTYLE
  5
8B9
102
{ACAD_REACTORS
330
267
102
}
330
267
100
AcDbVisualStyle
  2
Hidden
 70
     6
 71
     1
 72
     2
 73
     2
 90
        0
 40
0.6
 41
30.0
 62
     5
 63
     7
421
 16777215
 74
     2
 91
        2
 64
     7
 65
   257
 75
     2
175
     1
 42
40.0
 92
        0
 66
   257
 43
1.0
 76
     1
 77
     6
 78
     2
 67
     7
 79
     3
170
     0
171
     0
290
     0
174
     0
 93
        1
 44
0.0
173
     0
291
     0
 45
0.0
  0
VISUALSTYLE
  5
8BA
102
{ACAD_REACTORS
330
267
102
}
330
267
100
AcDbVisualStyle
  2
JitterOff
 70
    20
 71
     2
 72
     2
 73
     0
 90
        0
 40
0.6
 41
30.0
 62
     5
 63
     7
421
 16777215
 74
     1
 91
        4
 64
     7
 65
   257
 75
     1
175
     1
 42
1.0
 92
       10
 66
     7
 43
1.0
 76
     1
 77
     6
 78
     2
 67
     7
 79
     5
170
     0
171
     0
290
     0
174
     0
 93
        1
 44
0.0
173
     0
291
     1
 45
0.0
  0
VISUALSTYLE
  5
275
102
{ACAD_REACTORS
330
267
102
}
330
267
100
AcDbVisualStyle
  2
Linepattern
 70
    14
 71
     2
 72
     2
 73
     0
 90
        0
 40
-0.6
 41
-30.0
 62
     5
 63
     7
421
 16777215
 74
     1
 91
        4
 64
     7
 65
   257
 75
     7
175
     7
 42
1.0
 92
        8
 66
     7
 43
1.0
 76
     1
 77
     6
 78
     2
 67
     7
 79
     5
170
     0
171
     0
290
     0
174
     0
 93
        1
 44
0.0
173
     0
291
     1
 45
0.0
  0
VISUALSTYLE
  5
8BB
102
{ACAD_REACTORS
330
267
102
}
330
267
100
AcDbVisualStyle
  2
OverhangOff
 70
    21
 71
     2
 72
     2
 73
     0
 90
        0
 40
0.6
 41
30.0
 62
     5
 63
     7
421
 16777215
 74
     1
 91
        4
 64
     7
 65
   257
 75
     1
175
     1
 42
1.0
 92
        9
 66
     7
 43
1.0
 76
     1
 77
     6
 78
     2
 67
     7
 79
     5
170
     0
171
     0
290
     0
174
     0
 93
        1
 44
0.0
173
     0
291
     1
 45
0.0
  0
VISUALSTYLE
  5
270
102
{ACAD_REACTORS
330
267
102
}
330
267
100
AcDbVisualStyle
  2
Realistic
 70
     8
 71
     2
 72
     2
 73
     0
 90
        0
 40
-0.6
 41
-30.0
 62
     5
 63
     7
421
 16777215
 74
     1
 91
        0
 64
     7
 65
   257
 75
     1
175
     1
 42
1.0
 92
        8
 66
     8
424
  7895160
 43
1.0
 76
     1
 77
     6
 78
     2
 67
     7
 79
     5
170
     0
171
     0
290
     0
174
     0
 93
       13
 44
0.0
173
     0
291
     0
 45
0.0
  0
VISUALSTYLE
  5
8C1
102
{ACAD_REACTORS
330
267
102
}
330
267
100
AcDbVisualStyle
  2
Shaded
 70
    27
 71
     2
 72
     2
 73
     1
 90
        2
 40
0.6
 41
30.0
 62
     5
 63
     7
421
 16777215
 74
     0
 91
        4
 64
     7
 65
   257
 75
     1
175
     1
 42
1.0
 92
        8
 66
   257
 43
1.0
 76
     1
 77
     6
 78
     2
 67
     8
425
  7895160
 79
     3
170
     0
171
     0
290
     0
174
     0
 93
        5
 44
0.0
173
     0
291
     0
 45
0.0
  0
VISUALSTYLE
  5
8C0
102
{ACAD_REACTORS
330
267
102
}
330
267
100
AcDbVisualStyle
  2
Shaded with edges
 70
    26
 71
     2
 72
     2
 73
     1
 90
        2
 40
0.6
 41
30.0
 62
     5
 63
     7
421
 16777215
 74
     1
 91
       10
 64
     7
 65
   257
 75
     2
175
     1
 42
1.0
 92
        8
 66
   257
 43
1.0
 76
     1
 77
     6
 78
     2
 67
     7
 79
     3
170
     0
171
     0
290
     0
174
     0
 93
        5
 44
0.0
173
     0
291
     0
 45
0.0
  0
VISUALSTYLE
  5
8BD
102
{ACAD_REACTORS
330
267
102
}
330
267
100
AcDbVisualStyle
  2
Shades of Gray
 70
    23
 71
     2
 72
     2
 73
     3
 90
        0
 40
0.6
 41
30.0
 62
     5
 63
     7
421
 16777215
 74
     2
 91
        2
 64
     7
 65
     7
 75
     1
175
     1
 42
40.0
 92
        8
 66
     7
 43
1.0
 76
     1
 77
     6
 78
     2
 67
     7
 79
     3
170
     0
171
     0
290
     0
174
     0
 93
        1
 44
0.0
173
     0
291
     0
 45
0.0
  0
VISUALSTYLE
  5
8BE
102
{ACAD_REACTORS
330
267
102
}
330
267
100
AcDbVisualStyle
  2
Sketchy
 70
    24
 71
     1
 72
     2
 73
     2
 90
        0
 40
0.6
 41
30.0
 62
     5
 63
     7
421
 16777215
 74
     2
 91
        2
 64
     7
 65
     7
 75
     1
175
     1
 42
40.0
 92
       11
 66
     7
 43
1.0
 76
     1
 77
     6
 78
     2
 67
     7
 79
     6
170
     0
171
     0
290
     0
174
     0
 93
        1
 44
0.0
173
     0
291
     0
 45
0.0
  0
VISUALSTYLE
  5
274
102
{ACAD_REACTORS
330
267
102
}
330
267
100
AcDbVisualStyle
  2
Thicken
 70
    13
 71
     2
 72
     2
 73
     0
 90
        0
 40
-0.6
 41
-30.0
 62
     5
 63
     7
421
 16777215
 74
     1
 91
        4
 64
     7
 65
   257
 75
     1
175
     1
 42
1.0
 92
       12
 66
     7
 43
1.0
 76
     1
 77
     6
 78
     2
 67
     7
 79
     5
170
     0
171
     0
290
     0
174
     0
 93
        1
 44
0.0
173
     0
291
     1
 45
0.0
  0
VISUALSTYLE
  5
8B8
102
{ACAD_REACTORS
330
267
102
}
330
267
100
AcDbVisualStyle
  2
Wireframe
 70
     5
 71
     0
 72
     2
 73
     0
 90
        0
 40
0.6
 41
30.0
 62
     5
 63
     7
421
 16777215
 74
     1
 91
        4
 64
     7
 65
   257
 75
     1
175
     1
 42
1.0
 92
        0
 66
   257
 43
1.0
 76
     1
 77
     6
 78
     2
 67
     7
 79
     3
170
     0
171
     0
290
     0
174
     0
 93
        1
 44
0.0
173
     0
291
     0
 45
0.0
  0
VISUALSTYLE
  5
8BF
102
{ACAD_REACTORS
330
267
102
}
330
267
100
AcDbVisualStyle
  2
X-Ray
 70
    25
 71
     2
 72
     2
 73
     1
 90
        1
 40
0.5
 41
30.0
 62
     5
 63
     7
421
 16777215
 74
     1
 91
        0
 64
     7
 65
   257
 75
     1
175
     1
 42
1.0
 92
        8
 66
     7
 43
1.0
 76
     1
 77
     6
 78
     2
 67
     7
 79
     3
170
     0
171
     0
290
     0
174
     0
 93
       13
 44
0.0
173
     0
291
     0
 45
0.0
  0
DICTIONARYVAR
  5
331
102
{ACAD_REACTORS
330
330
102
}
330
330
100
DictionaryVariables
280
     0
  1
1:1
  0
DICTIONARYVAR
  5
8DA
102
{ACAD_REACTORS
330
330
102
}
330
330
100
DictionaryVariables
280
     0
  1
Standard
  0
DICTIONARYVAR
  5
335
102
{ACAD_REACTORS
330
330
102
}
330
330
100
DictionaryVariables
280
     0
  1
Standard
  0
DICTIONARYVAR
  5
C07
102
{ACAD_REACTORS
330
330
102
}
330
330
100
DictionaryVariables
280
     0
  1
ByLayer
  0
DICTIONARYVAR
  5
64A
102
{ACAD_REACTORS
330
330
102
}
330
330
100
DictionaryVariables
280
     0
  1
0
  0
DICTIONARYVAR
  5
4342
102
{ACAD_REACTORS
330
C08
102
}
330
C08
100
DictionaryVariables
280
     0
  1
0.261799
  0
DICTIONARYVAR
  5
4340
102
{ACAD_REACTORS
330
C08
102
}
330
C08
100
DictionaryVariables
280
     0
  1
0.400000
  0
DICTIONARYVAR
  5
4341
102
{ACAD_REACTORS
330
C08
102
}
330
C08
100
DictionaryVariables
280
     0
  1
0.250000
  0
DICTIONARYVAR
  5
4343
102
{ACAD_REACTORS
330
C08
102
}
330
C08
100
DictionaryVariables
280
     0
  1
1
  0
DICTIONARY
  5
1535F
330
279
100
AcDbDictionary
280
     1
281
     1
  3
ACAD_ROUNDTRIP_2008_TABLESTYLE_CELLSTYLEMAP
360
15360
  0
CELLSTYLEMAP
  5
15360
102
{ACAD_REACTORS
330
1535F
102
}
330
1535F
100
AcDbCellStyleMap
 90
        3
300
CELLSTYLE
  1
TABLEFORMAT_BEGIN
 90
        5
170
     1
 91
        0
 92
    32768
 62
   257
 93
        1
300
CONTENTFORMAT
  1
CONTENTFORMAT_BEGIN
 90
        0
 91
        0
 92
        4
 93
        0
300

 40
0.0
140
1.0
 94
        5
 62
     0
340
17
144
6.0
309
CONTENTFORMAT_END
171
     1
301
MARGIN
  1
CELLMARGIN_BEGIN
 40
0.06
 40
0.06
 40
0.06
 40
0.06
 40
0.18
 40
0.18
309
CELLMARGIN_END
 94
        6
 95
        1
302
GRIDFORMAT
  1
GRIDFORMAT_BEGIN
 90
        0
 91
        1
 62
     0
 92
       -2
340
0
 93
        0
 40
0.045
309
GRIDFORMAT_END
 95
        2
302
GRIDFORMAT
  1
GRIDFORMAT_BEGIN
 90
        0
 91
        1
 62
     0
 92
       -2
340
0
 93
        0
 40
0.045
309
GRIDFORMAT_END
 95
        4
302
GRIDFORMAT
  1
GRIDFORMAT_BEGIN
 90
        0
 91
        1
 62
     0
 92
       -2
340
0
 93
        0
 40
0.045
309
GRIDFORMAT_END
 95
        8
302
GRIDFORMAT
  1
GRIDFORMAT_BEGIN
 90
        0
 91
        1
 62
     0
 92
       -2
340
0
 93
        0
 40
0.045
309
GRIDFORMAT_END
 95
       16
302
GRIDFORMAT
  1
GRIDFORMAT_BEGIN
 90
        0
 91
        1
 62
     0
 92
       -2
340
0
 93
        0
 40
0.045
309
GRIDFORMAT_END
 95
       32
302
GRIDFORMAT
  1
GRIDFORMAT_BEGIN
 90
        0
 91
        1
 62
     0
 92
       -2
340
0
 93
        0
 40
0.045
309
GRIDFORMAT_END
309
TABLEFORMAT_END
  1
CELLSTYLE_BEGIN
 90
        1
 91
        1
300
_TITLE
309
CELLSTYLE_END
300
CELLSTYLE
  1
TABLEFORMAT_BEGIN
 90
        5
170
     1
 91
        0
 92
        0
 62
   257
 93
        1
300
CONTENTFORMAT
  1
CONTENTFORMAT_BEGIN
 90
        0
 91
        0
 92
        4
 93
        0
300

 40
0.0
140
1.0
 94
        5
 62
     0
340
17
144
4.5
309
CONTENTFORMAT_END
171
     1
301
MARGIN
  1
CELLMARGIN_BEGIN
 40
0.06
 40
0.06
 40
0.06
 40
0.06
 40
0.18
 40
0.18
309
CELLMARGIN_END
 94
        6
 95
        1
302
GRIDFORMAT
  1
GRIDFORMAT_BEGIN
 90
        0
 91
        1
 62
     0
 92
       -2
340
0
 93
        0
 40
0.045
309
GRIDFORMAT_END
 95
        2
302
GRIDFORMAT
  1
GRIDFORMAT_BEGIN
 90
        0
 91
        1
 62
     0
 92
       -2
340
0
 93
        0
 40
0.045
309
GRIDFORMAT_END
 95
        4
302
GRIDFORMAT
  1
GRIDFORMAT_BEGIN
 90
        0
 91
        1
 62
     0
 92
       -2
340
0
 93
        0
 40
0.045
309
GRIDFORMAT_END
 95
        8
302
GRIDFORMAT
  1
GRIDFORMAT_BEGIN
 90
        0
 91
        1
 62
     0
 92
       -2
340
0
 93
        0
 40
0.045
309
GRIDFORMAT_END
 95
       16
302
GRIDFORMAT
  1
GRIDFORMAT_BEGIN
 90
        0
 91
        1
 62
     0
 92
       -2
340
0
 93
        0
 40
0.045
309
GRIDFORMAT_END
 95
       32
302
GRIDFORMAT
  1
GRIDFORMAT_BEGIN
 90
        0
 91
        1
 62
     0
 92
       -2
340
0
 93
        0
 40
0.045
309
GRIDFORMAT_END
309
TABLEFORMAT_END
  1
CELLSTYLE_BEGIN
 90
        2
 91
        1
300
_HEADER
309
CELLSTYLE_END
300
CELLSTYLE
  1
TABLEFORMAT_BEGIN
 90
        5
170
     1
 91
        0
 92
        0
 62
   257
 93
        1
300
CONTENTFORMAT
  1
CONTENTFORMAT_BEGIN
 90
        0
 91
        0
 92
        4
 93
        0
300

 40
0.0
140
1.0
 94
        2
 62
     0
340
17
144
4.5
309
CONTENTFORMAT_END
171
     1
301
MARGIN
  1
CELLMARGIN_BEGIN
 40
0.06
 40
0.06
 40
0.06
 40
0.06
 40
0.18
 40
0.18
309
CELLMARGIN_END
 94
        6
 95
        1
302
GRIDFORMAT
  1
GRIDFORMAT_BEGIN
 90
        0
 91
        1
 62
     0
 92
       -2
340
0
 93
        0
 40
0.045
309
GRIDFORMAT_END
 95
        2
302
GRIDFORMAT
  1
GRIDFORMAT_BEGIN
 90
        0
 91
        1
 62
     0
 92
       -2
340
0
 93
        0
 40
0.045
309
GRIDFORMAT_END
 95
        4
302
GRIDFORMAT
  1
GRIDFORMAT_BEGIN
 90
        0
 91
        1
 62
     0
 92
       -2
340
0
 93
        0
 40
0.045
309
GRIDFORMAT_END
 95
        8
302
GRIDFORMAT
  1
GRIDFORMAT_BEGIN
 90
        0
 91
        1
 62
     0
 92
       -2
340
0
 93
        0
 40
0.045
309
GRIDFORMAT_END
 95
       16
302
GRIDFORMAT
  1
GRIDFORMAT_BEGIN
 90
        0
 91
        1
 62
     0
 92
       -2
340
0
 93
        0
 40
0.045
309
GRIDFORMAT_END
 95
       32
302
GRIDFORMAT
  1
GRIDFORMAT_BEGIN
 90
        0
 91
        1
 62
     0
 92
       -2
340
0
 93
        0
 40
0.045
309
GRIDFORMAT_END
309
TABLEFORMAT_END
  1
CELLSTYLE_BEGIN
 90
        3
 91
        2
300
_DATA
309
CELLSTYLE_END
  0
ENDSEC
  0
EOF
