  0
SECTION
  2
HEADER
  9
$ACADVER
  1
AC1021
  9
$ACADMAINTVER
 70
    25
  9
$DWGCODEPAGE
  3
ANSI_932
  9
$LASTSAVEDBY
  1
tform
  9
$INSBASE
 10
0.0
 20
0.0
 30
0.0
  9
$EXTMIN
 10
0.0
 20
0.0
 30
-0.0000000000000003
  9
$EXTMAX
 10
2100.0
 20
2970.0
 30
34.99521132346015
  9
$LIMMIN
 10
0.0
 20
0.0
  9
$LIMMAX
 10
2100.0
 20
2970.0
  9
$ORTHOMODE
 70
     1
  9
$REGENMODE
 70
     1
  9
$FILLMODE
 70
     1
  9
$QTEXTMODE
 70
     0
  9
$MIRRTEXT
 70
     1
  9
$LTSCALE
 40
5.0
  9
$ATTMODE
 70
     1
  9
$TEXTSIZE
 40
533.0403732820173
  9
$TRACEWID
 40
1.0
  9
$TEXTSTYLE
  7
Standard
  9
$CLAYER
  8
Dim
  9
$CELTYPE
  6
ByLayer
  9
$CECOLOR
 62
   256
  9
$CELTSCALE
 40
1.0
  9
$DISPSILH
 70
     0
  9
$DIMSCALE
 40
1.0
  9
$DIMASZ
 40
9.999389648437498
  9
$DIMEXO
 40
25.0
  9
$DIMDLI
 40
0.9999999999999999
  9
$DIMRND
 40
0.0
  9
$DIMDLE
 40
0.0
  9
$DIMEXE
 40
0.0
  9
$DIMTP
 40
0.0
  9
$DIMTM
 40
0.0
  9
$DIMTXT
 40
24.4326171875
  9
$DIMCEN
 40
0.0
  9
$DIMTSZ
 40
0.0
  9
$DIMTOL
 70
     0
  9
$DIMLIM
 70
     0
  9
$DIMTIH
 70
     0
  9
$DIMTOH
 70
     0
  9
$DIMSE1
 70
     0
  9
$DIMSE2
 70
     0
  9
$DIMTAD
 70
     1
  9
$DIMZIN
 70
    11
  9
$DIMBLK
  1
DOT
  9
$DIMASO
 70
     1
  9
$DIMSHO
 70
     1
  9
$DIMPOST
  1
<>
  9
$DIMAPOST
  1
[]
  9
$DIMALT
 70
     0
  9
$DIMALTD
 70
     1
  9
$DIMALTF
 40
1.0
  9
$DIMLFAC
 40
1.0
  9
$DIMTOFL
 70
     1
  9
$DIMTVP
 40
0.0
  9
$DIMTIX
 70
     1
  9
$DIMSOXD
 70
     0
  9
$DIMSAH
 70
     0
  9
$DIMBLK1
  1

  9
$DIMBLK2
  1

  9
$DIMSTYLE
  2
tform線あり
  9
$DIMCLRD
 70
     0
  9
$DIMCLRE
 70
     0
  9
$DIMCLRT
 70
     0
  9
$DIMTFAC
 40
0.8
  9
$DIMGAP
 40
10.0
  9
$DIMJUST
 70
     0
  9
$DIMSD1
 70
     0
  9
$DIMSD2
 70
     0
  9
$DIMTOLJ
 70
     1
  9
$DIMTZIN
 70
    11
  9
$DIMALTZ
 70
    11
  9
$DIMALTTZ
 70
    11
  9
$DIMUPT
 70
     0
  9
$DIMDEC
 70
     1
  9
$DIMTDEC
 70
     1
  9
$DIMALTU
 70
     2
  9
$DIMALTTD
 70
     2
  9
$DIMTXSTY
  7
ＭＳ ゴシック
  9
$DIMAUNIT
 70
     0
  9
$DIMADEC
 70
     2
  9
$DIMALTRND
 40
0.0
  9
$DIMAZIN
 70
     0
  9
$DIMDSEP
 70
    46
  9
$DIMATFIT
 70
     0
  9
$DIMFRAC
 70
     2
  9
$DIMLDRBLK
  1
DOT
  9
$DIMLUNIT
 70
     2
  9
$DIMLWD
 70
    -2
  9
$DIMLWE
 70
    -2
  9
$DIMTMOVE
 70
     0
  9
$DIMFXL
 40
1.0
  9
$DIMFXLON
 70
     0
  9
$DIMJOGANG
 40
0.7853981633974483
  9
$DIMTFILL
 70
     0
  9
$DIMTFILLCLR
 70
     0
  9
$DIMARCSYM
 70
     0
  9
$DIMLTYPE
  6

  9
$DIMLTEX1
  6

  9
$DIMLTEX2
  6

  9
$LUNITS
 70
     2
  9
$LUPREC
 70
     0
  9
$SKETCHINC
 40
0.1
  9
$FILLETRAD
 40
0.0
  9
$AUNITS
 70
     0
  9
$AUPREC
 70
     0
  9
$MENU
  1
acad
  9
$ELEVATION
 40
0.0
  9
$PELEVATION
 40
0.0
  9
$THICKNESS
 40
0.0
  9
$LIMCHECK
 70
     0
  9
$CHAMFERA
 40
0.0
  9
$CHAMFERB
 40
0.0
  9
$CHAMFERC
 40
0.0
  9
$CHAMFERD
 40
0.0
  9
$SKPOLY
 70
     0
  9
$TDCREATE
 40
2447893.375
  9
$TDUCREATE
 40
0.0
  9
$TDUPDATE
 40
2460108.713153773
  9
$TDUUPDATE
 40
2460108.338153773
  9
$TDINDWG
 40
0.1368238194
  9
$TDUSRTIMER
 40
0.0044954167
  9
$USRTIMER
 70
     1
  9
$ANGBASE
 50
0.0
  9
$ANGDIR
 70
     0
  9
$PDMODE
 70
     1
  9
$PDSIZE
 40
-2.0
  9
$PLINEWID
 40
0.0
  9
$SPLFRAME
 70
     0
  9
$SPLINETYPE
 70
     6
  9
$SPLINESEGS
 70
     8
  9
$HANDSEED
  5
14204
  9
$SURFTAB1
 70
     6
  9
$SURFTAB2
 70
     6
  9
$SURFTYPE
 70
     6
  9
$SURFU
 70
     6
  9
$SURFV
 70
     6
  9
$UCSBASE
  2

  9
$UCSNAME
  2

  9
$UCSORG
 10
0.0
 20
0.0
 30
0.0
  9
$UCSXDIR
 10
1.0
 20
0.0
 30
0.0
  9
$UCSYDIR
 10
0.0
 20
1.0
 30
0.0
  9
$UCSORTHOREF
  2

  9
$UCSORTHOVIEW
 70
     0
  9
$UCSORGTOP
 10
0.0
 20
0.0
 30
0.0
  9
$UCSORGBOTTOM
 10
0.0
 20
0.0
 30
0.0
  9
$UCSORGLEFT
 10
0.0
 20
0.0
 30
0.0
  9
$UCSORGRIGHT
 10
0.0
 20
0.0
 30
0.0
  9
$UCSORGFRONT
 10
0.0
 20
0.0
 30
0.0
  9
$UCSORGBACK
 10
0.0
 20
0.0
 30
0.0
  9
$PUCSBASE
  2

  9
$PUCSNAME
  2

  9
$PUCSORG
 10
0.0
 20
0.0
 30
0.0
  9
$PUCSXDIR
 10
1.0
 20
0.0
 30
0.0
  9
$PUCSYDIR
 10
0.0
 20
1.0
 30
0.0
  9
$PUCSORTHOREF
  2

  9
$PUCSORTHOVIEW
 70
     0
  9
$PUCSORGTOP
 10
0.0
 20
0.0
 30
0.0
  9
$PUCSORGBOTTOM
 10
0.0
 20
0.0
 30
0.0
  9
$PUCSORGLEFT
 10
0.0
 20
0.0
 30
0.0
  9
$PUCSORGRIGHT
 10
0.0
 20
0.0
 30
0.0
  9
$PUCSORGFRONT
 10
0.0
 20
0.0
 30
0.0
  9
$PUCSORGBACK
 10
0.0
 20
0.0
 30
0.0
  9
$USERI1
 70
     0
  9
$USERI2
 70
     0
  9
$USERI3
 70
     0
  9
$USERI4
 70
     0
  9
$USERI5
 70
     0
  9
$USERR1
 40
0.0
  9
$USERR2
 40
0.0
  9
$USERR3
 40
0.0
  9
$USERR4
 40
0.0
  9
$USERR5
 40
0.0
  9
$WORLDVIEW
 70
     1
  9
$SHADEDGE
 70
     3
  9
$SHADEDIF
 70
    70
  9
$TILEMODE
 70
     1
  9
$MAXACTVP
 70
    64
  9
$PINSBASE
 10
0.0
 20
0.0
 30
0.0
  9
$PLIMCHECK
 70
     0
  9
$PEXTMIN
 10
0.0
 20
0.0
 30
0.0
  9
$PEXTMAX
 10
0.0
 20
0.0
 30
0.0
  9
$PLIMMIN
 10
-7.5
 20
-20.0
  9
$PLIMMAX
 10
412.5
 20
277.0
  9
$UNITMODE
 70
     0
  9
$VISRETAIN
 70
     0
  9
$PLINEGEN
 70
     1
  9
$PSLTSCALE
 70
     0
  9
$TREEDEPTH
 70
  3020
  9
$CMLSTYLE
  2
Standard
  9
$CMLJUST
 70
     0
  9
$CMLSCALE
 40
1.0
  9
$PROXYGRAPHICS
 70
     0
  9
$MEASUREMENT
 70
     1
  9
$CELWEIGHT
370
    -1
  9
$ENDCAPS
280
     0
  9
$JOINSTYLE
280
     0
  9
$LWDISPLAY
290
     1
  9
$INSUNITS
 70
     4
  9
$HYPERLINKBASE
  1

  9
$STYLESHEET
  1

  9
$XEDIT
290
     1
  9
$CEPSNTYPE
380
     0
  9
$PSTYLEMODE
290
     1
  9
$FINGERPRINTGUID
  2

  9
$VERSIONGUID
  2

  9
$EXTNAMES
290
     1
  9
$PSVPSCALE
 40
0.0
  9
$OLESTARTUP
290
     0
  9
$SORTENTS
280
   127
  9
$INDEXCTL
280
     0
  9
$HIDETEXT
280
     1
  9
$XCLIPFRAME
290
     0
  9
$HALOGAP
280
     0
  9
$OBSCOLOR
 70
   257
  9
$OBSLTYPE
280
     0
  9
$INTERSECTIONDISPLAY
280
     0
  9
$INTERSECTIONCOLOR
 70
   257
  9
$DIMASSOC
280
     2
  9
$PROJECTNAME
  1

  9
$CAMERADISPLAY
290
     0
  9
$LENSLENGTH
 40
50.0
  9
$CAMERAHEIGHT
 40
0.0
  9
$STEPSPERSEC
 40
2.0
  9
$STEPSIZE
 40
6.0
  9
$3DDWFPREC
 40
2.0
  9
$PSOLWIDTH
 40
0.25
  9
$PSOLHEIGHT
 40
4.0
  9
$LOFTANG1
 40
1.570796326794897
  9
$LOFTANG2
 40
1.570796326794897
  9
$LOFTMAG1
 40
0.0
  9
$LOFTMAG2
 40
0.0
  9
$LOFTPARAM
 70
     7
  9
$LOFTNORMALS
280
     1
  9
$LATITUDE
 40
37.795
  9
$LONGITUDE
 40
-122.394
  9
$NORTHDIRECTION
 40
0.0
  9
$TIMEZONE
 70
 -8000
  9
$LIGHTGLYPHDISPLAY
280
     1
  9
$TILEMODELIGHTSYNCH
280
     1
  9
$SOLIDHIST
280
     1
  9
$SHOWHIST
280
     1
  9
$DWFFRAME
280
     2
  9
$DGNFRAME
280
     2
  9
$REALWORLDSCALE
290
     1
  9
$INTERFERECOLOR
 62
   256
  9
$CSHADOW
280
     0
  9
$SHADOWPLANELOCATION
 40
0.0
  0
ENDSEC
  0
SECTION
  2
CLASSES
  0
CLASS
  1
LWPOLYLINE
  2
AcDbPolyline
  3
ObjectDBX Classes
 90
        0
 91
        1
280
     0
281
     1
  0
CLASS
  1
IMAGE
  2
AcDbRasterImage
  3
ISM
 90
      127
 91
        4
280
     0
281
     1
  0
CLASS
  1
OLE2FRAME
  2
AcDbOle2Frame
  3
ObjectDBX Classes
 90
        0
 91
        1
280
     0
281
     1
  0
CLASS
  1
HATCH
  2
AcDbHatch
  3
ObjectDBX Classes
 90
        0
 91
        1
280
     0
281
     1
  0
CLASS
  1
DICTIONARYVAR
  2
AcDbDictionaryVar
  3
ObjectDBX Classes
 90
        0
 91
        3
280
     0
281
     0
  0
CLASS
  1
RASTERVARIABLES
  2
AcDbRasterVariables
  3
ISM
 90
        0
 91
        3
280
     0
281
     0
  0
CLASS
  1
IMAGEDEF
  2
AcDbRasterImageDef
  3
ISM
 90
        0
 91
        3
280
     0
281
     0
  0
CLASS
  1
IMAGEDEF_REACTOR
  2
AcDbRasterImageDefReactor
  3
ISM
 90
        1
 91
        3
280
     0
281
     0
  0
CLASS
  1
IDBUFFER
  2
AcDbIdBuffer
  3
ObjectDBX Classes
 90
        0
 91
        3
280
     0
281
     0
  0
CLASS
  1
SPATIAL_FILTER
  2
AcDbSpatialFilter
  3
ObjectDBX Classes
 90
        0
 91
        3
280
     0
281
     0
  0
CLASS
  1
XRECORD
  2
AcDbXrecord
  3
ObjectDBX Classes
 90
        0
 91
        1
280
     0
281
     0
  0
CLASS
  1
SORTENTSTABLE
  2
AcDbSortentsTable
  3
ObjectDBX Classes
 90
        0
 91
        3
280
     0
281
     0
  0
CLASS
  1
LAYER_INDEX
  2
AcDbLayerIndex
  3
ObjectDBX Classes
 90
        0
 91
        3
280
     0
281
     0
  0
CLASS
  1
SPATIAL_INDEX
  2
AcDbSpatialIndex
  3
AutoCAD 2000
 90
        0
 91
        3
280
     0
281
     0
  0
CLASS
  1
OBJECT_PTR
  2
CAseDLPNTableRecord
  3
ASE-LPNTableRecord
 90
        1
 91
        3
280
     0
281
     0
  0
CLASS
  1
LAYOUT
  2
AcDbLayout
  3
ObjectDBX Classes
 90
        0
 91
        1
280
     0
281
     0
  0
CLASS
  1
PLOTSETTINGS
  2
AcDbPlotSettings
  3
ObjectDBX Classes
 90
        0
 91
        3
280
     0
281
     0
  0
CLASS
  1
ACDBDICTIONARYWDFLT
  2
AcDbDictionaryWithDefault
  3
ObjectDBX Classes
 90
        0
 91
        3
280
     0
281
     0
  0
CLASS
  1
ACDBPLACEHOLDER
  2
AcDbPlaceHolder
  3
ObjectDBX Classes
 90
        0
 91
        1
280
     0
281
     0
  0
CLASS
  1
SCALE
  2
AcDbScale
  3
ObjectDBX Classes
 90
     1153
 91
        3
280
     0
281
     0
  0
CLASS
  1
MATERIAL
  2
AcDbMaterial
  3
ObjectDBX Classes
 90
     1153
 91
        3
280
     0
281
     0
  0
CLASS
  1
VISUALSTYLE
  2
AcDbVisualStyle
  3
ObjectDBX Classes
 90
     4095
 91
        3
280
     0
281
     0
  0
CLASS
  1
TABLESTYLE
  2
AcDbTableStyle
  3
ObjectDBX Classes
 90
     4095
 91
        3
280
     0
281
     0
  0
CLASS
  1
DIMASSOC
  2
AcDbDimAssoc
  3
"AcDbDimAssoc|Product Desc:     AcDim ARX App For Dimension|Company:          Autodesk, Inc.|WEB Address:      www.autodesk.com"
 90
        0
 91
        3
280
     0
281
     0
  0
CLASS
  1
CELLSTYLEMAP
  2
AcDbCellStyleMap
  3
ObjectDBX Classes
 90
     1152
 91
        3
280
     0
281
     0
  0
CLASS
  1
SUN
  2
AcDbSun
  3
SCENEOE
 90
     1153
 91
        3
280
     0
281
     0
  0
CLASS
  1
MLEADERSTYLE
  2
AcDbMLeaderStyle
  3
ACDB_MLEADERSTYLE_CLASS
 90
     4095
 91
        3
280
     0
281
     0
  0
CLASS
  1
FIELD
  2
AcDbField
  3
ObjectDBX Classes
 90
     1152
 91
        3
280
     0
281
     0
  0
CLASS
  1
FIELDLIST
  2
AcDbFieldList
  3
ObjectDBX Classes
 90
     1152
 91
        3
280
     0
281
     0
  0
CLASS
  1
ACDB_ALDIMOBJECTCONTEXTDATA_CLASS
  2
AcDbAlignedDimensionObjectContextData
  3
ObjectDBX Classes
 90
     1153
 91
        3
280
     0
281
     0
  0
ENDSEC
  0
SECTION
  2
TABLES
  0
TABLE
  2
VPORT
  5
7
330
0
100
AcDbSymbolTable
 70
     1
  0
VPORT
  5
15
330
7
100
AcDbSymbolTableRecord
100
AcDbViewportTableRecord
  2
*ACTIVE
 70
     0
 10
0.0
 20
0.0
 11
1.0
 21
1.0
 12
672.9525617540421
 22
1782.612370234504
 13
0.0
 23
0.0
 14
1.0
 24
1.0
 15
0.0
 25
0.0
 16
0.0
 26
0.0
 36
1.0
 17
377.0474382459579
 27
-297.6123702345042
 37
0.0
 40
3029.4
 41
2.120713305898491
 42
50.0
 43
0.0
 44
0.0
 50
0.0
 51
0.0
 71
    16
 72
  2000
 73
     1
 74
     1
 75
     0
 76
     0
 77
     0
 78
     0
281
     0
 65
     1
110
0.0
120
0.0
130
0.0
111
1.0
121
0.0
131
0.0
112
0.0
122
1.0
132
0.0
 79
     0
146
0.0
348
26C
 60
     3
 61
     5
292
     1
282
     1
141
0.0
142
0.0
 63
   256
361
8C2
  0
ENDTAB
  0
TABLE
  2
LTYPE
  5
4
330
0
100
AcDbSymbolTable
 70
     3
  0
LTYPE
  5
11
330
4
100
AcDbSymbolTableRecord
100
AcDbLinetypeTableRecord
  2
ByBlock
 70
     0
  3

 72
    65
 73
     0
 40
0.0
  0
LTYPE
  5
12
330
4
100
AcDbSymbolTableRecord
100
AcDbLinetypeTableRecord
  2
ByLayer
 70
     0
  3

 72
    65
 73
     0
 40
0.0
  0
LTYPE
  5
13
330
4
100
AcDbSymbolTableRecord
100
AcDbLinetypeTableRecord
  2
Continuous
 70
     0
  3
Solid line
 72
    65
 73
     0
 40
0.0
  0
LTYPE
  5
8D4
330
4
100
AcDbSymbolTableRecord
100
AcDbLinetypeTableRecord
  2
HIDDEN
 70
     0
  3
Hidden _ _ _ _ _ _ _ _ _ _ _ _ _ _ _ _ _ _ _ _ 
 72
    65
 73
     2
 40
9.524999999999999
 49
6.35
 74
     0
 49
-3.175
 74
     0
  0
LTYPE
  5
BF2
330
4
100
AcDbSymbolTableRecord
100
AcDbLinetypeTableRecord
  2
BORDER
 70
     0
  3
Border __  __  . __  __  . __  __  . __  __  . 
 72
    65
 73
     6
 40
44.45
 49
12.7
 74
     0
 49
-6.35
 74
     0
 49
12.7
 74
     0
 49
-6.35
 74
     0
 49
0.0
 74
     0
 49
-6.35
 74
     0
  0
ENDTAB
  0
TABLE
  2
LAYER
  5
2
102
{ACAD_XDICTIONARY
360
2E1
102
}
330
0
100
AcDbSymbolTable
 70
    10
  0
LAYER
  5
14
330
2
100
AcDbSymbolTableRecord
100
AcDbLayerTableRecord
  2
0
 70
     0
 62
     7
  6
Continuous
370
    -3
390
1D
347
266
  0
LAYER
  5
4A
330
2
100
AcDbSymbolTableRecord
100
AcDbLayerTableRecord
  2
Defpoints
 70
     0
 62
     7
  6
Continuous
290
     0
370
    20
390
1D
347
266
  0
LAYER
  5
4B
330
2
100
AcDbSymbolTableRecord
100
AcDbLayerTableRecord
  2
template
 70
     0
 62
     7
  6
Continuous
370
    20
390
1D
347
266
  0
LAYER
  5
4D
330
2
100
AcDbSymbolTableRecord
100
AcDbLayerTableRecord
  2
MODEL
 70
     0
 62
     7
  6
Continuous
370
    20
390
1D
347
266
  0
LAYER
  5
382
330
2
100
AcDbSymbolTableRecord
100
AcDbLayerTableRecord
  2
レイヤー 1
 70
     0
 62
     7
  6
Continuous
370
    -3
390
1D
347
266
  0
LAYER
  5
5C4
330
2
100
AcDbSymbolTableRecord
100
AcDbLayerTableRecord
  2
HIDDEN
 70
     0
 62
   253
  6
HIDDEN
370
    20
390
1D
347
266
1001
AcAecLayerStandard
1000

1000

  0
LAYER
  5
5EB
330
2
100
AcDbSymbolTableRecord
100
AcDbLayerTableRecord
  2
Dim
 70
     0
 62
     3
  6
Continuous
370
    13
390
1D
347
266
1001
AcAecLayerStandard
1000

1000

  0
LAYER
  5
BF1
330
2
100
AcDbSymbolTableRecord
100
AcDbLayerTableRecord
  2
PRINT BORDER
 70
     0
 62
     4
  6
BORDER
290
     0
370
    20
390
1D
347
266
1001
AcAecLayerStandard
1000

1000

  0
LAYER
  5
1BD2
330
2
100
AcDbSymbolTableRecord
100
AcDbLayerTableRecord
  2
retino
 70
     0
 62
   253
  6
Continuous
370
     0
390
1D
347
266
  0
LAYER
  5
131C8
330
2
100
AcDbSymbolTableRecord
100
AcDbLayerTableRecord
  2
Quote
 70
     0
 62
     5
  6
Continuous
370
     0
390
1D
347
266
  0
ENDTAB
  0
TABLE
  2
STYLE
  5
3
330
0
100
AcDbSymbolTable
 70
     2
  0
STYLE
  5
17
330
3
100
AcDbSymbolTableRecord
100
AcDbTextStyleTableRecord
  2
Standard
 70
     0
 40
0.0
 41
1.0
 50
0.0
 71
     0
 42
533.0403732820173
  3
txt
  4
BIGFONT.SHX
  0
STYLE
  5
39
330
3
100
AcDbSymbolTableRecord
100
AcDbTextStyleTableRecord
  2
ＭＳ ゴシック
 70
     0
 40
0.0
 41
1.0
 50
0.0
 71
     0
 42
533.0403732820173
  3
msgothic.ttc
  4
ＭＳ ゴシック
1001
ACAD
1000
ＭＳ ゴシック
1071
        0
  0
ENDTAB
  0
TABLE
  2
VIEW
  5
5
330
0
100
AcDbSymbolTable
 70
     0
  0
ENDTAB
  0
TABLE
  2
UCS
  5
6
330
0
100
AcDbSymbolTable
 70
     0
  0
ENDTAB
  0
TABLE
  2
APPID
  5
8
330
0
100
AcDbSymbolTable
 70
    17
  0
APPID
  5
16
330
8
100
AcDbSymbolTableRecord
100
AcDbRegAppTableRecord
  2
ACAD
 70
     0
  0
APPID
  5
5C5
330
8
100
AcDbSymbolTableRecord
100
AcDbRegAppTableRecord
  2
AcAecLayerStandard
 70
     0
  0
APPID
  5
913
330
8
100
AcDbSymbolTableRecord
100
AcDbRegAppTableRecord
  2
ACAD_DSTYLE_DIMBREAK
 70
     0
  0
APPID
  5
914
330
8
100
AcDbSymbolTableRecord
100
AcDbRegAppTableRecord
  2
ACAD_DSTYLE_DIMJAG
 70
     0
  0
APPID
  5
915
330
8
100
AcDbSymbolTableRecord
100
AcDbRegAppTableRecord
  2
ACAD_DSTYLE_DIMTALN
 70
     0
  0
APPID
  5
E4F
330
8
100
AcDbSymbolTableRecord
100
AcDbRegAppTableRecord
  2
ACAD_MLEADERVER
 70
     0
  0
APPID
  5
E79
330
8
100
AcDbSymbolTableRecord
100
AcDbRegAppTableRecord
  2
ACAD_PSEXT
 70
     0
  0
APPID
  5
E7A
330
8
100
AcDbSymbolTableRecord
100
AcDbRegAppTableRecord
  2
ACAD_NAV_VCDISPLAY
 70
     0
  0
APPID
  5
166E
330
8
100
AcDbSymbolTableRecord
100
AcDbRegAppTableRecord
  2
AcadAnnotative
 70
     0
  0
APPID
  5
166F
330
8
100
AcDbSymbolTableRecord
100
AcDbRegAppTableRecord
  2
GradientColor1ACI
 70
     0
  0
APPID
  5
1670
330
8
100
AcDbSymbolTableRecord
100
AcDbRegAppTableRecord
  2
GradientColor2ACI
 70
     0
  0
APPID
  5
20FE
330
8
100
AcDbSymbolTableRecord
100
AcDbRegAppTableRecord
  2
AcLayerTools
 70
     0
  0
APPID
  5
27AB
330
8
100
AcDbSymbolTableRecord
100
AcDbRegAppTableRecord
  2
ACAD_DSTYLE_DIMRADIAL_EXTENSION
 70
     0
  0
APPID
  5
4377
330
8
100
AcDbSymbolTableRecord
100
AcDbRegAppTableRecord
  2
RAK
 70
     0
  0
APPID
  5
500B
330
8
100
AcDbSymbolTableRecord
100
AcDbRegAppTableRecord
  2
AcadAnnoAV
 70
     0
  0
APPID
  5
68CA
330
8
100
AcDbSymbolTableRecord
100
AcDbRegAppTableRecord
  2
PLOTTRANSPARENCY
 70
     0
  0
APPID
  5
BCFB
330
8
100
AcDbSymbolTableRecord
100
AcDbRegAppTableRecord
  2
HATCHBACKGROUNDCOLOR
 70
     0
  0
ENDTAB
  0
TABLE
  2
DIMSTYLE
  5
9
330
0
100
AcDbSymbolTable
 70
     6
100
AcDbDimStyleTable
  0
DIMSTYLE
105
56
102
{ACAD_REACTORS
330
140D3
330
140E2
330
140F1
330
14100
330
14146
330
14158
330
14167
330
14176
330
14185
330
141F2
102
}
330
9
100
AcDbSymbolTableRecord
100
AcDbDimStyleTableRecord
  2
tform線あり
 70
     0
  3
<>
  4
[]
 41
9.999389648437498
 42
25.0
 43
0.9999999999999999
 44
0.0
 73
     0
 74
     0
 77
     1
 78
    11
140
24.4326171875
141
0.0
143
1.0
146
0.8
147
10.0
171
     1
172
     1
174
     1
178
     0
179
     2
271
     1
272
     1
276
     2
284
    11
285
    11
286
    11
289
     0
340
39
341
4E
342
4E
  0
DIMSTYLE
105
141AA
330
9
100
AcDbSymbolTableRecord
100
AcDbDimStyleTableRecord
  2
JIS
 70
     0
  3
<>
  4
[]
 41
9.0
 42
0.0
 43
6.99999999999994
 44
19.9999999999962
 73
     0
 74
     0
 77
     1
 78
    11
140
24.4326171875
141
0.0
143
1.0
147
10.0
171
     1
174
     1
178
     0
179
     2
271
     1
272
     1
276
     2
284
    11
285
    11
286
    11
289
     0
340
39
341
4E
342
4E
  0
DIMSTYLE
105
141B4
330
9
100
AcDbSymbolTableRecord
100
AcDbDimStyleTableRecord
  2
AM_DIN
 70
     0
  4
"
 41
3.5
 42
1.0
 43
10.0
 44
1.0
 47
0.1
 48
0.1
 50
89.99999999999996
 73
     0
 74
     0
 77
     1
 78
     8
 79
     2
140
3.5
141
0.0
143
0.0393701
146
0.71
147
1.5
172
     1
176
   256
177
   256
271
     2
178
     2
271
     2
272
     3
274
     4
283
     0
284
     8
340
17
371
    -1
372
    -1
345
11
346
11
347
11
1001
ACAD_DSTYLE_DIMJAG
1070
   388
1040
1.5
1001
ACAD_DSTYLE_DIMBREAK
1070
   391
1040
3.75
  0
DIMSTYLE
105
141B8
330
9
100
AcDbSymbolTableRecord
100
AcDbDimStyleTableRecord
  2
ISO-25
 70
     0
 41
2.5
 42
0.625
 43
3.75
 44
1.25
 73
     0
 74
     0
 77
     1
 78
     8
140
2.5
141
2.5
143
0.03937007874016
147
0.625
171
     3
172
     1
178
     0
271
     2
272
     2
274
     3
283
     0
284
     8
340
17
  0
DIMSTYLE
105
141B9
330
9
100
AcDbSymbolTableRecord
100
AcDbDimStyleTableRecord
  2
TFORM
 70
     0
 41
9.0
 42
5.0
 43
3.75
 44
0.0
 73
     0
 74
     0
 77
     1
 78
     8
140
12.0
141
0.0
143
0.03937007874016
147
6.0
171
     3
172
     1
178
     0
271
     0
272
     0
274
     3
278
    44
283
     0
284
     8
340
17
341
141BA
342
4E
1001
ACAD_DSTYLE_DIMJAG
1070
   388
1040
1.5
1001
ACAD_DSTYLE_DIMTALN
1070
   392
1070
     0
  0
DIMSTYLE
105
141BE
330
9
100
AcDbSymbolTableRecord
100
AcDbDimStyleTableRecord
  2
scala 1a 1
 70
     0
 41
7.0
 42
0.625
 43
0.0
 44
1.25
 73
     0
 74
     0
 77
     1
 78
     8
140
7.0
141
2.5
143
0.03937007874016
147
3.0
171
     3
172
     1
176
   256
177
   256
178
     0
271
     0
272
     0
274
     3
278
    44
283
     0
284
     8
340
17
371
    -1
372
     0
345
12
346
12
347
12
1001
ACAD_DSTYLE_DIMJAG
1070
   388
1040
1.5
1001
ACAD_DSTYLE_DIMTALN
1070
   392
1070
     0
  0
ENDTAB
  0
TABLE
  2
BLOCK_RECORD
  5
1
330
0
100
AcDbSymbolTable
 70
    21
  0
BLOCK_RECORD
  5
A
102
{ACAD_XDICTIONARY
360
560A
102
}
330
1
100
AcDbSymbolTableRecord
100
AcDbBlockTableRecord
  2
*MODEL_SPACE
340
20
 70
     0
280
     1
281
     0
  0
BLOCK_RECORD
  5
B
330
1
100
AcDbSymbolTableRecord
100
AcDbBlockTableRecord
  2
*PAPER_SPACE
340
21
 70
     0
280
     1
281
     0
  0
BLOCK_RECORD
  5
4E
330
1
100
AcDbSymbolTableRecord
100
AcDbBlockTableRecord
  2
_DOT
340
0
102
{BLKREFS
331
140DC
331
140DD
331
140EB
331
140EC
331
140FA
331
140FB
331
14109
331
1410A
331
14151
331
14152
331
14161
331
14162
331
14170
331
14171
331
1417F
331
14180
331
1418E
331
1418F
331
141FC
331
141FB
102
}
 70
     0
280
     1
281
     0
  0
BLOCK_RECORD
  5
3A5
330
1
100
AcDbSymbolTableRecord
100
AcDbBlockTableRecord
  2
名称未設定-1
340
0
102
{BLKREFS
331
3D0
102
}
 70
     1
280
     1
281
     0
  0
BLOCK_RECORD
  5
3A8
330
1
100
AcDbSymbolTableRecord
100
AcDbBlockTableRecord
  2
block 2
340
0
102
{BLKREFS
331
3A7
102
}
 70
     0
280
     1
281
     0
  0
BLOCK_RECORD
  5
3AB
330
1
100
AcDbSymbolTableRecord
100
AcDbBlockTableRecord
  2
block 3
340
0
102
{BLKREFS
331
3AA
102
}
 70
     0
280
     1
281
     0
  0
BLOCK_RECORD
  5
3AE
330
1
100
AcDbSymbolTableRecord
100
AcDbBlockTableRecord
  2
block 4
340
0
102
{BLKREFS
331
3AD
102
}
 70
     0
280
     1
281
     0
  0
BLOCK_RECORD
  5
3BD
330
1
100
AcDbSymbolTableRecord
100
AcDbBlockTableRecord
  2
block 5
340
0
102
{BLKREFS
331
3BC
102
}
 70
     0
280
     1
281
     0
  0
BLOCK_RECORD
  5
11F0
330
1
100
AcDbSymbolTableRecord
100
AcDbBlockTableRecord
  2
BLOCK_2
340
0
102
{BLKREFS
331
1273
331
127B
331
127C
102
}
 70
     0
280
     1
281
     0
  0
BLOCK_RECORD
  5
38B6
330
1
100
AcDbSymbolTableRecord
100
AcDbBlockTableRecord
  2
mobile_latù
340
0
310
2800000020000000200000000100080000000000000400000000000000000000000000000000000000000000000080000080000000808000800000008000800080800000C0C0C000C0DCC000F0CAA6000020400000206000002080000020A0000020C0000020E00000400000004020000040400000406000004080000040A0
310
000040C0000040E00000600000006020000060400000606000006080000060A0000060C0000060E00000800000008020000080400000806000008080000080A0000080C0000080E00000A0000000A0200000A0400000A0600000A0800000A0A00000A0C00000A0E00000C0000000C0200000C0400000C0600000C0800000C0
310
A00000C0C00000C0E00000E0000000E0200000E0400000E0600000E0800000E0A00000E0C00000E0E00040000000400020004000400040006000400080004000A0004000C0004000E00040200000402020004020400040206000402080004020A0004020C0004020E000404000004040200040404000404060004040800040
310
40A0004040C0004040E00040600000406020004060400040606000406080004060A0004060C0004060E00040800000408020004080400040806000408080004080A0004080C0004080E00040A0000040A0200040A0400040A0600040A0800040A0A00040A0C00040A0E00040C0000040C0200040C0400040C0600040C08000
310
40C0A00040C0C00040C0E00040E0000040E0200040E0400040E0600040E0800040E0A00040E0C00040E0E00080000000800020008000400080006000800080008000A0008000C0008000E00080200000802020008020400080206000802080008020A0008020C0008020E00080400000804020008040400080406000804080
310
008040A0008040C0008040E00080600000806020008060400080606000806080008060A0008060C0008060E00080800000808020008080400080806000808080008080A0008080C0008080E00080A0000080A0200080A0400080A0600080A0800080A0A00080A0C00080A0E00080C0000080C0200080C0400080C0600080C0
310
800080C0A00080C0C00080C0E00080E0000080E0200080E0400080E0600080E0800080E0A00080E0C00080E0E000C0000000C0002000C0004000C0006000C0008000C000A000C000C000C000E000C0200000C0202000C0204000C0206000C0208000C020A000C020C000C020E000C0400000C0402000C0404000C0406000C0
310
408000C040A000C040C000C040E000C0600000C0602000C0604000C0606000C0608000C060A000C060C000C060E000C0800000C0802000C0804000C0806000C0808000C080A000C080C000C080E000C0A00000C0A02000C0A04000C0A06000C0A08000C0A0A000C0A0C000C0A0E000C0C00000C0C02000C0C04000C0C06000
310
C0C08000C0C0A000F0FBFF00A4A0A000808080000000FF0000FF000000FFFF00FF000000FF00FF00FFFF0000FFFFFF0049494949494949494949494949494949494949494949494949494949494949494949494949494949494949494949494949494949494949494949494949494949494949494949494949494949494949
310
49494949494949494949494949494949494949494949494949494949494949494949494949494949494949494949494949494949494949494949494949494949494949494949494949494949494949494949FAFAFAFAFAFAFAFAFAFAFAFAFAFAFAFAFAFAFAFAFAFAFAFAFAFAFAFAFAFA4949FAFA4949494949494949494949
310
494949494949494949494949494949FAFA4949FAFA4949494949494949494949494949494949494949494949494949FAFA4949FAFA4949494949494949494949494949494949494949494949494949FAFA4949FAFA4949494949494949494949494949494949494949494949494949FAFA4949FAFA49494949494949494949
310
49494949494949494949494949494949FAFA4949FAFA4949494949494949494949494949494949494949494949494949FAFA4949FAFA4949494949494949494949494949494949494949494949494949FAFA4949FAFA4949494949494949494949494949494949494949494949494949FAFA4949FAFA494949494949494949
310
4949494949494949494949494949494949FAFA4949FAFA4949494949494949494949494949494949494949494949494949FAFA4949FAFA4949494949494949494949494949494949494949494949494949FAFA4949FAFA4949494949494949494949494949494949494949494949494949FAFA4949FAFA4949494949494949
310
494949494949494949494949494949494949FAFA4949FAFA4949494949494949494949494949494949494949494949494949FAFA4949FAFA4949494949494949494949494949494949494949494949494949FAFA4949FAFA4949494949494949494949494949494949494949494949494949FAFA4949FAFA49494949494949
310
49494949494949494949494949494949494949FAFA4949FAFAFAFAFAFAFAFAFAFAFAFAFAFAFAFAFAFAFAFAFAFAFAFAFAFAFAFAFAFA4949FAFAFAFAFAFAFAFAFAFAFAFAFAFAFAFAFAFAFAFAFAFAFAFAFAFAFAFAFAFA4949FAFA4949494949494949494949494949494949494949494949494949FAFA4949FAFAFAFAFAFAFAFA
310
FAFAFAFAFAFAFAFAFAFAFAFAFAFAFAFAFAFAFAFAFAFA494949494949494949494949494949494949494949494949494949494949494949494949494949494949494949494949494949494949494949494949494949494949494949494949494949494949494949494949494949494949494949494949494949494949494949
310
4949494949494949494949494949494949494949494949494949494949494949494949494949494949494949494949494949494949494949
102
{BLKREFS
331
3B99
331
467E
331
527B
102
}
 70
     4
280
     1
281
     0
  0
BLOCK_RECORD
  5
5039
330
1
100
AcDbSymbolTableRecord
100
AcDbBlockTableRecord
  2
.TD_SECTION_1
340
0
102
{BLKREFS
331
527C
331
527E
331
5280
331
5282
331
5284
331
5286
102
}
 70
     0
280
     1
281
     0
  0
BLOCK_RECORD
  5
503D
330
1
100
AcDbSymbolTableRecord
100
AcDbBlockTableRecord
  2
.TD_SECTION_2
340
0
102
{BLKREFS
331
527D
331
527F
331
5281
331
5283
331
5285
331
5287
102
}
 70
     0
280
     1
281
     0
  0
BLOCK_RECORD
  5
140D6
330
1
100
AcDbSymbolTableRecord
100
AcDbBlockTableRecord
  2
*D10
340
0
 70
     0
280
     1
281
     0
  0
BLOCK_RECORD
  5
140E5
330
1
100
AcDbSymbolTableRecord
100
AcDbBlockTableRecord
  2
*D11
340
0
 70
     0
280
     1
281
     0
  0
BLOCK_RECORD
  5
140F4
330
1
100
AcDbSymbolTableRecord
100
AcDbBlockTableRecord
  2
*D12
340
0
 70
     0
280
     1
281
     0
  0
BLOCK_RECORD
  5
14103
330
1
100
AcDbSymbolTableRecord
100
AcDbBlockTableRecord
  2
*D13
340
0
 70
     0
280
     1
281
     0
  0
BLOCK_RECORD
  5
14149
330
1
100
AcDbSymbolTableRecord
100
AcDbBlockTableRecord
  2
*D14
340
0
 70
     0
280
     1
281
     0
  0
BLOCK_RECORD
  5
1415B
330
1
100
AcDbSymbolTableRecord
100
AcDbBlockTableRecord
  2
*D15
340
0
 70
     0
280
     1
281
     0
  0
BLOCK_RECORD
  5
1416A
330
1
100
AcDbSymbolTableRecord
100
AcDbBlockTableRecord
  2
*D16
340
0
 70
     0
280
     1
281
     0
  0
BLOCK_RECORD
  5
14179
330
1
100
AcDbSymbolTableRecord
100
AcDbBlockTableRecord
  2
*D17
340
0
 70
     0
280
     1
281
     0
  0
BLOCK_RECORD
  5
14188
330
1
100
AcDbSymbolTableRecord
100
AcDbBlockTableRecord
  2
*D18
340
0
 70
     0
280
     1
281
     0
  0
BLOCK_RECORD
  5
141BA
330
1
100
AcDbSymbolTableRecord
100
AcDbBlockTableRecord
  2
_None
340
0
 70
     0
280
     1
281
     0
  0
BLOCK_RECORD
  5
141F5
330
1
100
AcDbSymbolTableRecord
100
AcDbBlockTableRecord
  2
*D20
340
0
 70
     0
280
     1
281
     0
  0
ENDTAB
  0
ENDSEC
  0
SECTION
  2
BLOCKS
  0
BLOCK
  5
D
330
A
100
AcDbEntity
  8
0
390
1D
100
AcDbBlockBegin
  2
*MODEL_SPACE
 70
     0
 10
0.0
 20
0.0
 30
0.0
  3
*MODEL_SPACE
  1
*MODEL_SPACE
  0
ENDBLK
  5
E
330
A
100
AcDbEntity
  8
0
390
1D
100
AcDbBlockEnd
  0
BLOCK
  5
F
330
B
100
AcDbEntity
 67
     1
  8
0
390
1D
100
AcDbBlockBegin
  2
*PAPER_SPACE
 70
     0
 10
0.0
 20
0.0
 30
0.0
  3
*PAPER_SPACE
  1
*PAPER_SPACE
  0
ENDBLK
  5
10
330
B
100
AcDbEntity
 67
     1
  8
0
390
1D
100
AcDbBlockEnd
  0
BLOCK
  5
2C14
330
4E
100
AcDbEntity
  8
0
390
1D
100
AcDbBlockBegin
  2
_DOT
 70
     0
 10
0.0
 20
0.0
 30
0.0
  3
_DOT
  1
_DOT
  0
POLYLINE
  5
2C16
330
4E
100
AcDbEntity
  8
0
  6
ByBlock
 62
     0
370
    -2
390
1D
100
AcDb2dPolyline
 66
     1
 10
0.0
 20
0.0
 30
0.0
 70
     1
 40
0.5
 41
0.5
  0
VERTEX
  5
2C17
330
2C16
100
AcDbEntity
  8
0
  6
ByBlock
 62
     0
370
    -2
390
1D
100
AcDbVertex
100
AcDb2dVertex
 10
-0.25
 20
0.0
 30
0.0
 42
1.0
  0
VERTEX
  5
2C18
330
2C16
100
AcDbEntity
  8
0
  6
ByBlock
 62
     0
370
    -2
390
1D
100
AcDbVertex
100
AcDb2dVertex
 10
0.25
 20
0.0
 30
0.0
 42
1.0
  0
SEQEND
  5
2C19
330
2C16
100
AcDbEntity
  8
0
390
1D
  0
LINE
  5
2C1A
330
4E
100
AcDbEntity
  8
0
  6
ByBlock
 62
     0
370
    -2
390
1D
100
AcDbLine
 10
-0.5
 20
0.0
 30
0.0
 11
-1.0
 21
0.0
 31
0.0
  0
ENDBLK
  5
2C1B
330
4E
100
AcDbEntity
  8
0
390
1D
100
AcDbBlockEnd
  0
BLOCK
  5
3A6
330
3A5
100
AcDbEntity
  8
0
100
AcDbBlockBegin
  2
名称未設定-1
 70
     0
 10
0.0
 20
0.0
 30
0.0
  3
名称未設定-1
  1
名称未設定-1
  0
INSERT
  5
3A7
330
3A5
100
AcDbEntity
  8
レイヤー 1
100
AcDbBlockReference
  2
block 2
 10
0.0
 20
0.0
 30
0.0
  0
ENDBLK
  5
3CC
330
3A5
100
AcDbEntity
  8
0
100
AcDbBlockEnd
  0
BLOCK
  5
3A9
330
3A8
100
AcDbEntity
  8
0
100
AcDbBlockBegin
  2
block 2
 70
     0
 10
0.0
 20
0.0
 30
0.0
  3
block 2
  1
block 2
  0
INSERT
  5
3AA
330
3A8
100
AcDbEntity
  8
レイヤー 1
100
AcDbBlockReference
  2
block 3
 10
0.0
 20
0.0
 30
0.0
  0
ENDBLK
  5
3CB
330
3A8
100
AcDbEntity
  8
0
100
AcDbBlockEnd
  0
BLOCK
  5
3AC
330
3AB
100
AcDbEntity
  8
0
100
AcDbBlockBegin
  2
block 3
 70
     0
 10
0.0
 20
0.0
 30
0.0
  3
block 3
  1
block 3
  0
INSERT
  5
3AD
330
3AB
100
AcDbEntity
  8
レイヤー 1
100
AcDbBlockReference
  2
block 4
 10
0.0
 20
0.0
 30
0.0
  0
ENDBLK
  5
3CA
330
3AB
100
AcDbEntity
  8
0
100
AcDbBlockEnd
  0
BLOCK
  5
3AF
330
3AE
100
AcDbEntity
  8
0
100
AcDbBlockBegin
  2
block 4
 70
     0
 10
0.0
 20
0.0
 30
0.0
  3
block 4
  1
block 4
  0
POLYLINE
  5
3B0
330
3AE
100
AcDbEntity
  8
レイヤー 1
370
     0
100
AcDb2dPolyline
 66
     1
 10
0.0
 20
0.0
 30
0.0
  0
VERTEX
  5
3B1
330
3B0
100
AcDbEntity
  8
レイヤー 1
370
     0
100
AcDbVertex
100
AcDb2dVertex
 10
83.79545727667795
 20
167.6444858234922
 30
0.0
  0
VERTEX
  5
3B2
330
3B0
100
AcDbEntity
  8
レイヤー 1
370
     0
100
AcDbVertex
100
AcDb2dVertex
 10
83.79545727667795
 20
159.7968976406313
 30
0.0
  0
VERTEX
  5
3B3
330
3B0
100
AcDbEntity
  8
レイヤー 1
370
     0
100
AcDbVertex
100
AcDb2dVertex
 10
71.3631329975216
 20
159.7968976406313
 30
0.0
  0
VERTEX
  5
3B4
330
3B0
100
AcDbEntity
  8
レイヤー 1
370
     0
100
AcDbVertex
100
AcDb2dVertex
 10
71.3631329975216
 20
127.8027915271048
 30
0.0
  0
VERTEX
  5
3B5
330
3B0
100
AcDbEntity
  8
レイヤー 1
370
     0
100
AcDbVertex
100
AcDb2dVertex
 10
60.43011526263018
 20
127.8027915271048
 30
0.0
  0
VERTEX
  5
3B6
330
3B0
100
AcDbEntity
  8
レイヤー 1
370
     0
100
AcDbVertex
100
AcDb2dVertex
 10
60.43011526263018
 20
159.7968976406313
 30
0.0
  0
VERTEX
  5
3B7
330
3B0
100
AcDbEntity
  8
レイヤー 1
370
     0
100
AcDbVertex
100
AcDb2dVertex
 10
48.21793273020759
 20
159.7968976406313
 30
0.0
  0
VERTEX
  5
3B8
330
3B0
100
AcDbEntity
  8
レイヤー 1
370
     0
100
AcDbVertex
100
AcDb2dVertex
 10
48.21793273020759
 20
167.6444858234922
 30
0.0
  0
VERTEX
  5
3B9
330
3B0
100
AcDbEntity
  8
レイヤー 1
370
     0
100
AcDbVertex
100
AcDb2dVertex
 10
83.79545727667795
 20
167.6444858234922
 30
0.0
  0
SEQEND
  5
3BA
330
3B0
100
AcDbEntity
  8
レイヤー 1
370
     0
  0
HATCH
  5
3BB
330
3AE
100
AcDbEntity
  8
レイヤー 1
 62
   250
420
  2234388
100
AcDbHatch
 10
0.0
 20
0.0
 30
0.0
210
0.0
220
0.0
230
1.0
  2
SOLID
 70
     1
 71
     0
 91
        1
 92
        1
 93
        8
 72
     1
 10
83.79545727667795
 20
167.6444858234922
 11
83.79545727667795
 21
159.7968976406313
 72
     1
 10
83.79545727667795
 20
159.7968976406313
 11
71.3631329975216
 21
159.7968976406313
 72
     1
 10
71.3631329975216
 20
159.7968976406313
 11
71.3631329975216
 21
127.8027915271048
 72
     1
 10
71.3631329975216
 20
127.8027915271048
 11
60.43011526263018
 21
127.8027915271048
 72
     1
 10
60.43011526263018
 20
127.8027915271048
 11
60.43011526263018
 21
159.7968976406313
 72
     1
 10
60.43011526263018
 20
159.7968976406313
 11
48.21793273020759
 21
159.7968976406313
 72
     1
 10
48.21793273020759
 20
159.7968976406313
 11
48.21793273020759
 21
167.6444858234922
 72
     1
 10
48.21793273020759
 20
167.6444858234922
 11
83.79545727667795
 21
167.6444858234922
 97
        0
 75
     2
 76
     1
 98
        0
  0
INSERT
  5
3BC
330
3AE
100
AcDbEntity
  8
レイヤー 1
100
AcDbBlockReference
  2
block 5
 10
0.0
 20
0.0
 30
0.0
  0
ENDBLK
  5
3C9
330
3AE
100
AcDbEntity
  8
0
100
AcDbBlockEnd
  0
BLOCK
  5
3BE
330
3BD
100
AcDbEntity
  8
0
100
AcDbBlockBegin
  2
block 5
 70
     0
 10
0.0
 20
0.0
 30
0.0
  3
block 5
  1
block 5
  0
SPLINE
  5
3BF
330
3BD
100
AcDbEntity
  8
レイヤー 1
370
     0
100
AcDbSpline
210
0.0
220
0.0
230
1.0
 70
    11
 71
     3
 72
    56
 73
    52
 74
     0
 42
0.000000001
 43
0.0000000001
 40
0.0
 40
0.0
 40
0.0
 40
0.0
 40
1.0
 40
1.0
 40
1.0
 40
2.0
 40
2.0
 40
2.0
 40
3.0
 40
3.0
 40
3.0
 40
4.0
 40
4.0
 40
4.0
 40
5.0
 40
5.0
 40
5.0
 40
6.0
 40
6.0
 40
6.0
 40
7.0
 40
7.0
 40
7.0
 40
8.0
 40
8.0
 40
8.0
 40
9.0
 40
9.0
 40
9.0
 40
10.0
 40
10.0
 40
10.0
 40
11.0
 40
11.0
 40
11.0
 40
12.0
 40
12.0
 40
12.0
 40
13.0
 40
13.0
 40
13.0
 40
14.0
 40
14.0
 40
14.0
 40
15.0
 40
15.0
 40
15.0
 40
16.0
 40
16.0
 40
16.0
 40
17.0
 40
17.0
 40
17.0
 40
17.0
 10
100.4504378777679
 20
166.69157178364
 30
0.0
 10
101.9848844191641
 20
167.1313385124438
 30
0.0
 10
103.9637485713373
 20
166.7649523658846
 30
0.0
 10
103.9637485713373
 20
166.7649523658846
 30
0.0
 10
103.9637485713373
 20
166.7649523658846
 30
0.0
 10
103.0132460999156
 20
163.911205638077
 30
0.0
 10
103.0132460999156
 20
163.911205638077
 30
0.0
 10
103.0132460999156
 20
163.911205638077
 30
0.0
 10
101.0674548862189
 20
164.3601018759394
 30
0.0
 10
99.57090442016032
 20
163.1805004036133
 30
0.0
 10
98.40508333886608
 20
162.258247733807
 30
0.0
 10
97.65301849830304
 20
159.804132345923
 30
0.0
 10
97.3598406791005
 20
158.8699940888517
 30
0.0
 10
97.3598406791005
 20
158.8699940888517
 30
0.0
 10
96.07137411762282
 20
154.9119212747295
 30
0.0
 10
96.07137411762282
 20
154.9119212747295
 30
0.0
 10
96.07137411762282
 20
154.9119212747295
 30
0.0
 10
100.3012651448482
 20
154.9119212747295
 30
0.0
 10
100.3012651448482
 20
154.9119212747295
 30
0.0
 10
100.3012651448482
 20
154.9119212747295
 30
0.0
 10
99.64152892419852
 20
152.4199098115079
 30
0.0
 10
99.64152892419852
 20
152.4199098115079
 30
0.0
 10
99.64152892419852
 20
152.4199098115079
 30
0.0
 10
95.38097652692731
 20
152.4199098115079
 30
0.0
 10
95.38097652692731
 20
152.4199098115079
 30
0.0
 10
95.38097652692731
 20
152.4199098115079
 30
0.0
 10
87.75353009080013
 20
127.8027915271048
 30
0.0
 10
87.75353009080013
 20
127.8027915271048
 30
0.0
 10
87.75353009080013
 20
127.8027915271048
 30
0.0
 10
85.36538832498108
 20
127.8027915271048
 30
0.0
 10
85.36538832498108
 20
127.8027915271048
 30
0.0
 10
85.36538832498108
 20
127.8027915271048
 30
0.0
 10
93.00006946639998
 20
152.4199098115079
 30
0.0
 10
93.00006946639998
 20
152.4199098115079
 30
0.0
 10
93.00006946639998
 20
152.4199098115079
 30
0.0
 10
89.85297266450198
 20
152.4199098115079
 30
0.0
 10
89.85297266450198
 20
152.4199098115079
 30
0.0
 10
89.85297266450198
 20
152.4199098115079
 30
0.0
 10
90.51270888515164
 20
154.9119212747295
 30
0.0
 10
90.51270888515164
 20
154.9119212747295
 30
0.0
 10
90.51270888515164
 20
154.9119212747295
 30
0.0
 10
93.6904670570955
 20
154.9119212747295
 30
0.0
 10
93.6904670570955
 20
154.9119212747295
 30
0.0
 10
93.6904670570955
 20
154.9119212747295
 30
0.0
 10
94.81598049462158
 20
158.3616699146644
 30
0.0
 10
94.81598049462158
 20
158.3616699146644
 30
0.0
 10
95.7237637538445
 20
161.2605474231013
 30
0.0
 10
96.4968436907311
 20
162.8139420021662
 30
0.0
 10
97.15657991138076
 20
163.9844139654337
 30
0.0
 10
97.81183750494507
 20
165.1523021053827
 30
0.0
 10
99.1047826935081
 20
166.3084769129547
 30
0.0
 10
100.4504378777679
 20
166.69157178364
 30
0.0
  0
HATCH
  5
3C0
330
3BD
100
AcDbEntity
  8
レイヤー 1
 62
   250
420
  2234388
100
AcDbHatch
 10
0.0
 20
0.0
 30
0.0
210
0.0
220
0.0
230
1.0
  2
SOLID
 70
     1
 71
     0
 91
        1
 92
        1
 93
        1
 72
     4
 94
        3
 73
     0
 74
     1
 95
       56
 96
       52
 40
0.0
 40
0.0
 40
0.0
 40
0.0
 40
1.0
 40
1.0
 40
1.0
 40
2.0
 40
2.0
 40
2.0
 40
3.0
 40
3.0
 40
3.0
 40
4.0
 40
4.0
 40
4.0
 40
5.0
 40
5.0
 40
5.0
 40
6.0
 40
6.0
 40
6.0
 40
7.0
 40
7.0
 40
7.0
 40
8.0
 40
8.0
 40
8.0
 40
9.0
 40
9.0
 40
9.0
 40
10.0
 40
10.0
 40
10.0
 40
11.0
 40
11.0
 40
11.0
 40
12.0
 40
12.0
 40
12.0
 40
13.0
 40
13.0
 40
13.0
 40
14.0
 40
14.0
 40
14.0
 40
15.0
 40
15.0
 40
15.0
 40
16.0
 40
16.0
 40
16.0
 40
17.0
 40
17.0
 40
17.0
 40
17.0
 10
100.4504378777679
 20
166.69157178364
 10
101.9848844191641
 20
167.1313385124438
 10
103.9637485713373
 20
166.7649523658846
 10
103.9637485713373
 20
166.7649523658846
 10
103.9637485713373
 20
166.7649523658846
 10
103.0132460999156
 20
163.911205638077
 10
103.0132460999156
 20
163.911205638077
 10
103.0132460999156
 20
163.911205638077
 10
101.0674548862189
 20
164.3601018759394
 10
99.57090442016032
 20
163.1805004036133
 10
98.40508333886608
 20
162.258247733807
 10
97.65301849830304
 20
159.804132345923
 10
97.3598406791005
 20
158.8699940888517
 10
97.3598406791005
 20
158.8699940888517
 10
96.07137411762282
 20
154.9119212747295
 10
96.07137411762282
 20
154.9119212747295
 10
96.07137411762282
 20
154.9119212747295
 10
100.3012651448482
 20
154.9119212747295
 10
100.3012651448482
 20
154.9119212747295
 10
100.3012651448482
 20
154.9119212747295
 10
99.64152892419852
 20
152.4199098115079
 10
99.64152892419852
 20
152.4199098115079
 10
99.64152892419852
 20
152.4199098115079
 10
95.38097652692731
 20
152.4199098115079
 10
95.38097652692731
 20
152.4199098115079
 10
95.38097652692731
 20
152.4199098115079
 10
87.75353009080013
 20
127.8027915271048
 10
87.75353009080013
 20
127.8027915271048
 10
87.75353009080013
 20
127.8027915271048
 10
85.36538832498108
 20
127.8027915271048
 10
85.36538832498108
 20
127.8027915271048
 10
85.36538832498108
 20
127.8027915271048
 10
93.00006946639998
 20
152.4199098115079
 10
93.00006946639998
 20
152.4199098115079
 10
93.00006946639998
 20
152.4199098115079
 10
89.85297266450198
 20
152.4199098115079
 10
89.85297266450198
 20
152.4199098115079
 10
89.85297266450198
 20
152.4199098115079
 10
90.51270888515164
 20
154.9119212747295
 10
90.51270888515164
 20
154.9119212747295
 10
90.51270888515164
 20
154.9119212747295
 10
93.6904670570955
 20
154.9119212747295
 10
93.6904670570955
 20
154.9119212747295
 10
93.6904670570955
 20
154.9119212747295
 10
94.81598049462158
 20
158.3616699146644
 10
94.81598049462158
 20
158.3616699146644
 10
95.7237637538445
 20
161.2605474231013
 10
96.4968436907311
 20
162.8139420021662
 10
97.15657991138076
 20
163.9844139654337
 10
97.81183750494507
 20
165.1523021053827
 10
99.1047826935081
 20
166.3084769129547
 10
100.4504378777679
 20
166.69157178364
 97
        0
 75
     2
 76
     1
 98
        0
  0
SPLINE
  5
3C1
330
3BD
100
AcDbEntity
  8
レイヤー 1
370
     0
100
AcDbSpline
210
0.0
220
0.0
230
1.0
 70
    11
 71
     3
 72
    38
 73
    34
 74
     0
 42
0.000000001
 43
0.0000000001
 40
0.0
 40
0.0
 40
0.0
 40
0.0
 40
1.0
 40
1.0
 40
1.0
 40
2.0
 40
2.0
 40
2.0
 40
3.0
 40
3.0
 40
3.0
 40
4.0
 40
4.0
 40
4.0
 40
5.0
 40
5.0
 40
5.0
 40
6.0
 40
6.0
 40
6.0
 40
7.0
 40
7.0
 40
7.0
 40
8.0
 40
8.0
 40
8.0
 40
9.0
 40
9.0
 40
9.0
 40
10.0
 40
10.0
 40
10.0
 40
11.0
 40
11.0
 40
11.0
 40
11.0
 10
126.377554584636
 20
154.8151140277308
 30
0.0
 10
126.377554584636
 20
154.8151140277308
 30
0.0
 10
128.8311532078563
 20
154.8151140277308
 30
0.0
 10
128.8311532078563
 20
154.8151140277308
 30
0.0
 10
128.8311532078563
 20
154.8151140277308
 30
0.0
 10
127.7345785914971
 20
151.3062819612468
 30
0.0
 10
127.7345785914971
 20
151.3062819612468
 30
0.0
 10
128.571392836906
 20
152.2922689395754
 30
0.0
 10
129.8860421413442
 20
153.604506675583
 30
0.0
 10
131.0163787157314
 20
154.2664822097754
 30
0.0
 10
132.7044766171327
 20
155.2500576196734
 30
0.0
 10
133.6642808525008
 20
155.3847609420097
 30
0.0
 10
134.7284715499351
 20
155.3565111403944
 30
0.0
 10
134.7284715499351
 20
155.3565111403944
 30
0.0
 10
133.6877075172549
 20
152.0345756272799
 30
0.0
 10
133.6877075172549
 20
152.0345756272799
 30
0.0
 10
133.011434827367
 20
152.3184516825359
 30
0.0
 10
130.930940291334
 20
151.7768823149844
 30
0.0
 10
129.739280976855
 20
150.9162968950455
 30
0.0
 10
128.66613302525
 20
150.1454562717016
 30
0.0
 10
127.9192358313239
 20
149.4857200510519
 30
0.0
 10
127.0393578639405
 20
147.8282835196966
 30
0.0
 10
126.164647543194
 20
146.1699857139017
 30
0.0
 10
125.4742499524985
 20
143.5262176944419
 30
0.0
 10
124.2822461282437
 20
139.6959580071401
 30
0.0
 10
124.2822461282437
 20
139.6959580071401
 30
0.0
 10
120.5753209406769
 20
127.8027915271048
 30
0.0
 10
120.5753209406769
 20
127.8027915271048
 30
0.0
 10
120.5753209406769
 20
127.8027915271048
 30
0.0
 10
118.1964809388044
 20
127.8027915271048
 30
0.0
 10
118.1964809388044
 20
127.8027915271048
 30
0.0
 10
118.1964809388044
 20
127.8027915271048
 30
0.0
 10
126.377554584636
 20
154.8151140277308
 30
0.0
 10
126.377554584636
 20
154.8151140277308
 30
0.0
  0
HATCH
  5
3C2
330
3BD
100
AcDbEntity
  8
レイヤー 1
 62
   250
420
  2234388
100
AcDbHatch
 10
0.0
 20
0.0
 30
0.0
210
0.0
220
0.0
230
1.0
  2
SOLID
 70
     1
 71
     0
 91
        1
 92
        1
 93
        1
 72
     4
 94
        3
 73
     0
 74
     1
 95
       38
 96
       34
 40
0.0
 40
0.0
 40
0.0
 40
0.0
 40
1.0
 40
1.0
 40
1.0
 40
2.0
 40
2.0
 40
2.0
 40
3.0
 40
3.0
 40
3.0
 40
4.0
 40
4.0
 40
4.0
 40
5.0
 40
5.0
 40
5.0
 40
6.0
 40
6.0
 40
6.0
 40
7.0
 40
7.0
 40
7.0
 40
8.0
 40
8.0
 40
8.0
 40
9.0
 40
9.0
 40
9.0
 40
10.0
 40
10.0
 40
10.0
 40
11.0
 40
11.0
 40
11.0
 40
11.0
 10
126.377554584636
 20
154.8151140277308
 10
126.377554584636
 20
154.8151140277308
 10
128.8311532078563
 20
154.8151140277308
 10
128.8311532078563
 20
154.8151140277308
 10
128.8311532078563
 20
154.8151140277308
 10
127.7345785914971
 20
151.3062819612468
 10
127.7345785914971
 20
151.3062819612468
 10
128.571392836906
 20
152.2922689395754
 10
129.8860421413442
 20
153.604506675583
 10
131.0163787157314
 20
154.2664822097754
 10
132.7044766171327
 20
155.2500576196734
 10
133.6642808525008
 20
155.3847609420097
 10
134.7284715499351
 20
155.3565111403944
 10
134.7284715499351
 20
155.3565111403944
 10
133.6877075172549
 20
152.0345756272799
 10
133.6877075172549
 20
152.0345756272799
 10
133.011434827367
 20
152.3184516825359
 10
130.930940291334
 20
151.7768823149844
 10
129.739280976855
 20
150.9162968950455
 10
128.66613302525
 20
150.1454562717016
 10
127.9192358313239
 20
149.4857200510519
 10
127.0393578639405
 20
147.8282835196966
 10
126.164647543194
 20
146.1699857139017
 10
125.4742499524985
 20
143.5262176944419
 10
124.2822461282437
 20
139.6959580071401
 10
124.2822461282437
 20
139.6959580071401
 10
120.5753209406769
 20
127.8027915271048
 10
120.5753209406769
 20
127.8027915271048
 10
120.5753209406769
 20
127.8027915271048
 10
118.1964809388044
 20
127.8027915271048
 10
118.1964809388044
 20
127.8027915271048
 10
118.1964809388044
 20
127.8027915271048
 10
126.377554584636
 20
154.8151140277308
 10
126.377554584636
 20
154.8151140277308
 97
        0
 75
     2
 76
     1
 98
        0
  0
SPLINE
  5
3C3
330
3BD
100
AcDbEntity
  8
レイヤー 1
370
     0
100
AcDbSpline
210
0.0
220
0.0
230
1.0
 70
    11
 71
     3
 72
   104
 73
   100
 74
     0
 42
0.000000001
 43
0.0000000001
 40
0.0
 40
0.0
 40
0.0
 40
0.0
 40
1.0
 40
1.0
 40
1.0
 40
2.0
 40
2.0
 40
2.0
 40
3.0
 40
3.0
 40
3.0
 40
4.0
 40
4.0
 40
4.0
 40
5.0
 40
5.0
 40
5.0
 40
6.0
 40
6.0
 40
6.0
 40
7.0
 40
7.0
 40
7.0
 40
8.0
 40
8.0
 40
8.0
 40
9.0
 40
9.0
 40
9.0
 40
10.0
 40
10.0
 40
10.0
 40
11.0
 40
11.0
 40
11.0
 40
12.0
 40
12.0
 40
12.0
 40
13.0
 40
13.0
 40
13.0
 40
14.0
 40
14.0
 40
14.0
 40
15.0
 40
15.0
 40
15.0
 40
16.0
 40
16.0
 40
16.0
 40
17.0
 40
17.0
 40
17.0
 40
18.0
 40
18.0
 40
18.0
 40
19.0
 40
19.0
 40
19.0
 40
20.0
 40
20.0
 40
20.0
 40
21.0
 40
21.0
 40
21.0
 40
22.0
 40
22.0
 40
22.0
 40
23.0
 40
23.0
 40
23.0
 40
24.0
 40
24.0
 40
24.0
 40
25.0
 40
25.0
 40
25.0
 40
26.0
 40
26.0
 40
26.0
 40
27.0
 40
27.0
 40
27.0
 40
28.0
 40
28.0
 40
28.0
 40
29.0
 40
29.0
 40
29.0
 40
30.0
 40
30.0
 40
30.0
 40
31.0
 40
31.0
 40
31.0
 40
32.0
 40
32.0
 40
32.0
 40
33.0
 40
33.0
 40
33.0
 40
33.0
 10
139.8926730891197
 20
154.8294111834263
 30
0.0
 10
139.8926730891197
 20
154.8294111834263
 30
0.0
 10
142.0344903652445
 20
154.8294111834263
 30
0.0
 10
142.0344903652445
 20
154.8294111834263
 30
0.0
 10
142.0344903652445
 20
154.8294111834263
 30
0.0
 10
140.9516961399171
 20
151.3157559800812
 30
0.0
 10
140.9516961399171
 20
151.3157559800812
 30
0.0
 10
141.8928968473923
 20
152.7887075264977
 30
0.0
 10
142.7341897198865
 20
153.4484437471474
 30
0.0
 10
143.8552245303272
 20
154.2926649527359
 30
0.0
 10
144.9803934580775
 20
155.1296514530327
 30
0.0
 10
146.3139908001845
 20
155.3044901642492
 30
0.0
 10
147.241066606852
 20
155.3044901642492
 30
0.0
 10
148.3855280820469
 20
155.3044901642492
 30
0.0
 10
149.4969166187653
 20
155.0752189084569
 30
0.0
 10
150.0784491203092
 20
153.8172414621372
 30
0.0
 10
150.5228667310863
 20
152.833838307127
 30
0.0
 10
150.5414702589793
 20
152.7201500811143
 30
0.0
 10
150.4140016419347
 20
150.7765981809602
 30
0.0
 10
151.5818897818837
 20
152.7699317437168
 30
0.0
 10
152.4424752018226
 20
153.6256940267945
 30
0.0
 10
153.9038856707499
 20
154.4507949398263
 30
0.0
 10
155.4455669174378
 20
155.3044901642492
 30
0.0
 10
156.339225275853
 20
155.3659851592288
 30
0.0
 10
157.3748216618963
 20
155.2147453676543
 30
0.0
 10
158.911679771723
 20
154.9877134254046
 30
0.0
 10
159.8859534176746
 20
154.4390816074493
 30
0.0
 10
160.3965169054045
 20
152.7816450760939
 30
0.0
 10
160.9070803931344
 20
151.1219692311958
 30
0.0
 10
160.6328506116007
 20
150.2303779314354
 30
0.0
 10
159.9992971339115
 20
147.597634224801
 30
0.0
 10
159.7105979417943
 20
146.4014962832367
 30
0.0
 10
159.2947746424084
 20
144.9400858143094
 30
0.0
 10
158.7463150793409
 20
143.2092687007094
 30
0.0
 10
158.7463150793409
 20
143.2092687007094
 30
0.0
 10
153.9038856707499
 20
127.8027915271048
 30
0.0
 10
153.9038856707499
 20
127.8027915271048
 30
0.0
 10
153.9038856707499
 20
127.8027915271048
 30
0.0
 10
151.3882752878863
 20
127.8027915271048
 30
0.0
 10
151.3882752878863
 20
127.8027915271048
 30
0.0
 10
151.3882752878863
 20
127.8027915271048
 30
0.0
 10
155.6250565106276
 20
141.2751908193897
 30
0.0
 10
155.6250565106276
 20
141.2751908193897
 30
0.0
 10
156.5094131050963
 20
144.0936252951782
 30
0.0
 10
157.109893644309
 20
146.1506931664571
 30
0.0
 10
157.4220195011804
 20
147.4415712963654
 30
0.0
 10
157.8095929989511
 20
149.0530157726519
 30
0.0
 10
157.9656559273867
 20
149.5826995529385
 30
0.0
 10
157.7816877071116
 20
150.7529992613181
 30
0.0
 10
157.6111553680925
 20
151.8430281919372
 30
0.0
 10
157.0582171779396
 20
152.5547853887321
 30
0.0
 10
156.1170164704645
 20
152.5547853887321
 30
0.0
 10
155.1096698860365
 20
152.5547853887321
 30
0.0
 10
154.2962823053817
 20
152.4412694176073
 30
0.0
 10
153.156643967048
 20
151.2945686288697
 30
0.0
 10
152.0170056287143
 20
150.1476955852443
 30
0.0
 10
151.076149431015
 20
148.7930831468137
 30
0.0
 10
150.3337308641742
 20
147.2290087646991
 30
0.0
 10
149.5957909244188
 20
145.6683794803425
 30
0.0
 10
148.8530278478023
 20
143.6822806228776
 30
0.0
 10
148.0964843801539
 20
141.2751908193897
 30
0.0
 10
148.0964843801539
 20
141.2751908193897
 30
0.0
 10
143.8552245303272
 20
127.8027915271048
 30
0.0
 10
143.8552245303272
 20
127.8027915271048
 30
0.0
 10
143.8552245303272
 20
127.8027915271048
 30
0.0
 10
141.486030802177
 20
127.8027915271048
 30
0.0
 10
141.486030802177
 20
127.8027915271048
 30
0.0
 10
141.486030802177
 20
127.8027915271048
 30
0.0
 10
146.3329388378533
 20
143.2092687007094
 30
0.0
 10
146.3329388378533
 20
143.2092687007094
 30
0.0
 10
146.8483254624444
 20
144.8408669988801
 30
0.0
 10
147.2314203331297
 20
146.1837661049335
 30
0.0
 10
147.4867020769946
 20
147.224185627838
 30
0.0
 10
147.9169947869641
 20
149.0197705792876
 30
0.0
 10
148.0306830129768
 20
150.2400242051577
 30
0.0
 10
147.709255392159
 20
151.3157559800812
 30
0.0
 10
147.3874832615654
 20
152.3916600098926
 30
0.0
 10
146.8245542879144
 20
152.6683013598569
 30
0.0
 10
145.8840425999909
 20
152.6683013598569
 30
0.0
 10
145.0989048209514
 20
152.6683013598569
 30
0.0
 10
144.3282364524954
 20
152.3275811915945
 30
0.0
 10
143.4531816219731
 20
151.6538923250251
 30
0.0
 10
142.34627171234
 20
150.8074318058939
 30
0.0
 10
141.901854101563
 20
150.1097995099067
 30
0.0
 10
141.3578731655808
 20
149.289521733736
 30
0.0
 10
140.6299240093235
 20
148.192602607601
 30
0.0
 10
140.2850697237515
 20
147.455696197173
 30
0.0
 10
139.6652966370942
 20
145.8385673095858
 30
0.0
 10
139.0506911970739
 20
144.2214384219986
 30
0.0
 10
138.463991048893
 20
142.3252566160164
 30
0.0
 10
138.0571250036777
 20
141.0154304484394
 30
0.0
 10
138.0571250036777
 20
141.0154304484394
 30
0.0
 10
133.9009590684727
 20
127.8027915271048
 30
0.0
 10
133.9009590684727
 20
127.8027915271048
 30
0.0
 10
133.9009590684727
 20
127.8027915271048
 30
0.0
 10
131.4180771143097
 20
127.8027915271048
 30
0.0
 10
131.4180771143097
 20
127.8027915271048
 30
0.0
 10
131.4180771143097
 20
127.8027915271048
 30
0.0
 10
139.8926730891197
 20
154.8294111834263
 30
0.0
 10
139.8926730891197
 20
154.8294111834263
 30
0.0
  0
HATCH
  5
3C4
330
3BD
100
AcDbEntity
  8
レイヤー 1
 62
   250
420
  2234388
100
AcDbHatch
 10
0.0
 20
0.0
 30
0.0
210
0.0
220
0.0
230
1.0
  2
SOLID
 70
     1
 71
     0
 91
        1
 92
        1
 93
        1
 72
     4
 94
        3
 73
     0
 74
     1
 95
      104
 96
      100
 40
0.0
 40
0.0
 40
0.0
 40
0.0
 40
1.0
 40
1.0
 40
1.0
 40
2.0
 40
2.0
 40
2.0
 40
3.0
 40
3.0
 40
3.0
 40
4.0
 40
4.0
 40
4.0
 40
5.0
 40
5.0
 40
5.0
 40
6.0
 40
6.0
 40
6.0
 40
7.0
 40
7.0
 40
7.0
 40
8.0
 40
8.0
 40
8.0
 40
9.0
 40
9.0
 40
9.0
 40
10.0
 40
10.0
 40
10.0
 40
11.0
 40
11.0
 40
11.0
 40
12.0
 40
12.0
 40
12.0
 40
13.0
 40
13.0
 40
13.0
 40
14.0
 40
14.0
 40
14.0
 40
15.0
 40
15.0
 40
15.0
 40
16.0
 40
16.0
 40
16.0
 40
17.0
 40
17.0
 40
17.0
 40
18.0
 40
18.0
 40
18.0
 40
19.0
 40
19.0
 40
19.0
 40
20.0
 40
20.0
 40
20.0
 40
21.0
 40
21.0
 40
21.0
 40
22.0
 40
22.0
 40
22.0
 40
23.0
 40
23.0
 40
23.0
 40
24.0
 40
24.0
 40
24.0
 40
25.0
 40
25.0
 40
25.0
 40
26.0
 40
26.0
 40
26.0
 40
27.0
 40
27.0
 40
27.0
 40
28.0
 40
28.0
 40
28.0
 40
29.0
 40
29.0
 40
29.0
 40
30.0
 40
30.0
 40
30.0
 40
31.0
 40
31.0
 40
31.0
 40
32.0
 40
32.0
 40
32.0
 40
33.0
 40
33.0
 40
33.0
 40
33.0
 10
139.8926730891197
 20
154.8294111834263
 10
139.8926730891197
 20
154.8294111834263
 10
142.0344903652445
 20
154.8294111834263
 10
142.0344903652445
 20
154.8294111834263
 10
142.0344903652445
 20
154.8294111834263
 10
140.9516961399171
 20
151.3157559800812
 10
140.9516961399171
 20
151.3157559800812
 10
141.8928968473923
 20
152.7887075264977
 10
142.7341897198865
 20
153.4484437471474
 10
143.8552245303272
 20
154.2926649527359
 10
144.9803934580775
 20
155.1296514530327
 10
146.3139908001845
 20
155.3044901642492
 10
147.241066606852
 20
155.3044901642492
 10
148.3855280820469
 20
155.3044901642492
 10
149.4969166187653
 20
155.0752189084569
 10
150.0784491203092
 20
153.8172414621372
 10
150.5228667310863
 20
152.833838307127
 10
150.5414702589793
 20
152.7201500811143
 10
150.4140016419347
 20
150.7765981809602
 10
151.5818897818837
 20
152.7699317437168
 10
152.4424752018226
 20
153.6256940267945
 10
153.9038856707499
 20
154.4507949398263
 10
155.4455669174378
 20
155.3044901642492
 10
156.339225275853
 20
155.3659851592288
 10
157.3748216618963
 20
155.2147453676543
 10
158.911679771723
 20
154.9877134254046
 10
159.8859534176746
 20
154.4390816074493
 10
160.3965169054045
 20
152.7816450760939
 10
160.9070803931344
 20
151.1219692311958
 10
160.6328506116007
 20
150.2303779314354
 10
159.9992971339115
 20
147.597634224801
 10
159.7105979417943
 20
146.4014962832367
 10
159.2947746424084
 20
144.9400858143094
 10
158.7463150793409
 20
143.2092687007094
 10
158.7463150793409
 20
143.2092687007094
 10
153.9038856707499
 20
127.8027915271048
 10
153.9038856707499
 20
127.8027915271048
 10
153.9038856707499
 20
127.8027915271048
 10
151.3882752878863
 20
127.8027915271048
 10
151.3882752878863
 20
127.8027915271048
 10
151.3882752878863
 20
127.8027915271048
 10
155.6250565106276
 20
141.2751908193897
 10
155.6250565106276
 20
141.2751908193897
 10
156.5094131050963
 20
144.0936252951782
 10
157.109893644309
 20
146.1506931664571
 10
157.4220195011804
 20
147.4415712963654
 10
157.8095929989511
 20
149.0530157726519
 10
157.9656559273867
 20
149.5826995529385
 10
157.7816877071116
 20
150.7529992613181
 10
157.6111553680925
 20
151.8430281919372
 10
157.0582171779396
 20
152.5547853887321
 10
156.1170164704645
 20
152.5547853887321
 10
155.1096698860365
 20
152.5547853887321
 10
154.2962823053817
 20
152.4412694176073
 10
153.156643967048
 20
151.2945686288697
 10
152.0170056287143
 20
150.1476955852443
 10
151.076149431015
 20
148.7930831468137
 10
150.3337308641742
 20
147.2290087646991
 10
149.5957909244188
 20
145.6683794803425
 10
148.8530278478023
 20
143.6822806228776
 10
148.0964843801539
 20
141.2751908193897
 10
148.0964843801539
 20
141.2751908193897
 10
143.8552245303272
 20
127.8027915271048
 10
143.8552245303272
 20
127.8027915271048
 10
143.8552245303272
 20
127.8027915271048
 10
141.486030802177
 20
127.8027915271048
 10
141.486030802177
 20
127.8027915271048
 10
141.486030802177
 20
127.8027915271048
 10
146.3329388378533
 20
143.2092687007094
 10
146.3329388378533
 20
143.2092687007094
 10
146.8483254624444
 20
144.8408669988801
 10
147.2314203331297
 20
146.1837661049335
 10
147.4867020769946
 20
147.224185627838
 10
147.9169947869641
 20
149.0197705792876
 10
148.0306830129768
 20
150.2400242051577
 10
147.709255392159
 20
151.3157559800812
 10
147.3874832615654
 20
152.3916600098926
 10
146.8245542879144
 20
152.6683013598569
 10
145.8840425999909
 20
152.6683013598569
 10
145.0989048209514
 20
152.6683013598569
 10
144.3282364524954
 20
152.3275811915945
 10
143.4531816219731
 20
151.6538923250251
 10
142.34627171234
 20
150.8074318058939
 10
141.901854101563
 20
150.1097995099067
 10
141.3578731655808
 20
149.289521733736
 10
140.6299240093235
 20
148.192602607601
 10
140.2850697237515
 20
147.455696197173
 10
139.6652966370942
 20
145.8385673095858
 10
139.0506911970739
 20
144.2214384219986
 10
138.463991048893
 20
142.3252566160164
 10
138.0571250036777
 20
141.0154304484394
 10
138.0571250036777
 20
141.0154304484394
 10
133.9009590684727
 20
127.8027915271048
 10
133.9009590684727
 20
127.8027915271048
 10
133.9009590684727
 20
127.8027915271048
 10
131.4180771143097
 20
127.8027915271048
 10
131.4180771143097
 20
127.8027915271048
 10
131.4180771143097
 20
127.8027915271048
 10
139.8926730891197
 20
154.8294111834263
 10
139.8926730891197
 20
154.8294111834263
 97
        0
 75
     2
 76
     1
 98
        0
  0
SPLINE
  5
3C5
330
3BD
100
AcDbEntity
  8
レイヤー 1
370
     0
100
AcDbSpline
210
0.0
220
0.0
230
1.0
 70
    11
 71
     3
 72
    29
 73
    25
 74
     0
 42
0.000000001
 43
0.0000000001
 40
0.0
 40
0.0
 40
0.0
 40
0.0
 40
1.0
 40
1.0
 40
1.0
 40
2.0
 40
2.0
 40
2.0
 40
3.0
 40
3.0
 40
3.0
 40
4.0
 40
4.0
 40
4.0
 40
5.0
 40
5.0
 40
5.0
 40
6.0
 40
6.0
 40
6.0
 40
7.0
 40
7.0
 40
7.0
 40
8.0
 40
8.0
 40
8.0
 40
8.0
 10
101.6420971922469
 20
132.8388354296931
 30
0.0
 10
101.630039350094
 20
134.7164137077823
 30
0.0
 10
102.2236296937908
 20
138.0598810818841
 30
0.0
 10
103.7487744712405
 20
142.5378191476827
 30
0.0
 10
105.819967243327
 20
148.5896501242061
 30
0.0
 10
107.0602024361932
 20
150.8074318058939
 30
0.0
 10
108.1522984254671
 20
151.8833358357054
 30
0.0
 10
109.741177511439
 20
153.4532668840085
 30
0.0
 10
111.8740375333931
 20
153.5290590346837
 30
0.0
 10
112.5075910110823
 20
153.4532668840085
 30
0.0
 10
113.4012493694975
 20
153.3490526768302
 30
0.0
 10
114.6683563248758
 20
152.7580461564518
 30
0.0
 10
114.7493161221879
 20
150.7838328862519
 30
0.0
 10
114.8106388622796
 20
149.0909118479895
 30
0.0
 10
114.3186789024427
 20
145.9191825971221
 30
0.0
 10
112.6164561002338
 20
140.9489400617108
 30
0.0
 10
110.6444821435766
 20
135.1746117095912
 30
0.0
 10
109.4669477299053
 20
132.8960240524753
 30
0.0
 10
108.5212683953448
 20
131.9072809959403
 30
0.0
 10
106.7346406980658
 20
130.0538184021569
 30
0.0
 10
104.8222669326213
 20
130.2336525051225
 30
0.0
 10
104.5408024457958
 20
130.2336525051225
 30
0.0
 10
104.1721769856939
 20
130.2336525051225
 30
0.0
 10
101.6465758193322
 20
130.6305277668397
 30
0.0
 10
101.6420971922469
 20
132.8388354296931
 30
0.0
  0
SPLINE
  5
3C6
330
3BD
100
AcDbEntity
  8
レイヤー 1
370
     0
100
AcDbSpline
210
0.0
220
0.0
230
1.0
 70
    11
 71
     3
 72
    32
 73
    28
 74
     0
 42
0.000000001
 43
0.0000000001
 40
0.0
 40
0.0
 40
0.0
 40
0.0
 40
1.0
 40
1.0
 40
1.0
 40
2.0
 40
2.0
 40
2.0
 40
3.0
 40
3.0
 40
3.0
 40
4.0
 40
4.0
 40
4.0
 40
5.0
 40
5.0
 40
5.0
 40
6.0
 40
6.0
 40
6.0
 40
7.0
 40
7.0
 40
7.0
 40
8.0
 40
8.0
 40
8.0
 40
9.0
 40
9.0
 40
9.0
 40
9.0
 10
106.2595617172429
 20
153.4105476718098
 30
0.0
 10
104.8222669326213
 20
151.5474388043041
 30
0.0
 10
103.7177685914188
 20
149.8758773721411
 30
0.0
 10
101.9232171692965
 20
144.6141795664062
 30
0.0
 10
100.2754269116635
 20
139.7999999594306
 30
0.0
 10
99.22777268346732
 20
136.3052927937542
 30
0.0
 10
99.06964269637689
 20
132.039572749846
 30
0.0
 10
98.94665270641765
 20
128.8673267343149
 30
0.0
 10
100.8807305877373
 20
127.8027915271048
 30
0.0
 10
103.7129454545577
 20
127.8027915271048
 30
0.0
 10
104.9352661390825
 20
127.8027915271048
 30
0.0
 10
108.0151835347002
 20
127.8827177950895
 30
0.0
 10
110.2045431598849
 20
130.5926316915021
 30
0.0
 10
111.7417457794874
 20
132.4984597712065
 30
0.0
 10
113.155269389579
 20
134.475256864725
 30
0.0
 10
115.0562743324223
 20
140.9489400617108
 30
0.0
 10
116.6361961642235
 20
146.3680788349845
 30
0.0
 10
117.7282921534974
 20
149.8639917848761
 30
0.0
 10
117.6480213757369
 20
151.8595646611754
 30
0.0
 10
117.6480213757369
 20
151.8595646611754
 30
0.0
 10
117.6480213757369
 20
151.8595646611754
 30
0.0
 10
117.6480213757369
 20
151.8595646611754
 30
0.0
 10
117.13229024137
 20
155.18150017429
 30
0.0
 10
114.7162431837115
 20
155.886194920681
 30
0.0
 10
113.3351034925446
 20
155.886194920681
 30
0.0
 10
111.9829026225447
 20
155.886194920681
 30
0.0
 10
108.3414342923792
 20
156.1251124501957
 30
0.0
 10
106.2595617172429
 20
153.4105476718098
 30
0.0
  0
HATCH
  5
3C7
330
3BD
100
AcDbEntity
  8
レイヤー 1
 62
   250
420
  2234388
100
AcDbHatch
 10
0.0
 20
0.0
 30
0.0
210
0.0
220
0.0
230
1.0
  2
SOLID
 70
     1
 71
     0
 91
        2
 92
        1
 93
        1
 72
     4
 94
        3
 73
     0
 74
     1
 95
       29
 96
       25
 40
0.0
 40
0.0
 40
0.0
 40
0.0
 40
1.0
 40
1.0
 40
1.0
 40
2.0
 40
2.0
 40
2.0
 40
3.0
 40
3.0
 40
3.0
 40
4.0
 40
4.0
 40
4.0
 40
5.0
 40
5.0
 40
5.0
 40
6.0
 40
6.0
 40
6.0
 40
7.0
 40
7.0
 40
7.0
 40
8.0
 40
8.0
 40
8.0
 40
8.0
 10
101.6420971922469
 20
132.8388354296931
 10
101.630039350094
 20
134.7164137077823
 10
102.2236296937908
 20
138.0598810818841
 10
103.7487744712405
 20
142.5378191476827
 10
105.819967243327
 20
148.5896501242061
 10
107.0602024361932
 20
150.8074318058939
 10
108.1522984254671
 20
151.8833358357054
 10
109.741177511439
 20
153.4532668840085
 10
111.8740375333931
 20
153.5290590346837
 10
112.5075910110823
 20
153.4532668840085
 10
113.4012493694975
 20
153.3490526768302
 10
114.6683563248758
 20
152.7580461564518
 10
114.7493161221879
 20
150.7838328862519
 10
114.8106388622796
 20
149.0909118479895
 10
114.3186789024427
 20
145.9191825971221
 10
112.6164561002338
 20
140.9489400617108
 10
110.6444821435766
 20
135.1746117095912
 10
109.4669477299053
 20
132.8960240524753
 10
108.5212683953448
 20
131.9072809959403
 10
106.7346406980658
 20
130.0538184021569
 10
104.8222669326213
 20
130.2336525051225
 10
104.5408024457958
 20
130.2336525051225
 10
104.1721769856939
 20
130.2336525051225
 10
101.6465758193322
 20
130.6305277668397
 10
101.6420971922469
 20
132.8388354296931
 97
        0
 92
        1
 93
        1
 72
     4
 94
        3
 73
     0
 74
     1
 95
       32
 96
       28
 40
0.0
 40
0.0
 40
0.0
 40
0.0
 40
1.0
 40
1.0
 40
1.0
 40
2.0
 40
2.0
 40
2.0
 40
3.0
 40
3.0
 40
3.0
 40
4.0
 40
4.0
 40
4.0
 40
5.0
 40
5.0
 40
5.0
 40
6.0
 40
6.0
 40
6.0
 40
7.0
 40
7.0
 40
7.0
 40
8.0
 40
8.0
 40
8.0
 40
9.0
 40
9.0
 40
9.0
 40
9.0
 10
106.2595617172429
 20
153.4105476718098
 10
104.8222669326213
 20
151.5474388043041
 10
103.7177685914188
 20
149.8758773721411
 10
101.9232171692965
 20
144.6141795664062
 10
100.2754269116635
 20
139.7999999594306
 10
99.22777268346732
 20
136.3052927937542
 10
99.06964269637689
 20
132.039572749846
 10
98.94665270641765
 20
128.8673267343149
 10
100.8807305877373
 20
127.8027915271048
 10
103.7129454545577
 20
127.8027915271048
 10
104.9352661390825
 20
127.8027915271048
 10
108.0151835347002
 20
127.8827177950895
 10
110.2045431598849
 20
130.5926316915021
 10
111.7417457794874
 20
132.4984597712065
 10
113.155269389579
 20
134.475256864725
 10
115.0562743324223
 20
140.9489400617108
 10
116.6361961642235
 20
146.3680788349845
 10
117.7282921534974
 20
149.8639917848761
 10
117.6480213757369
 20
151.8595646611754
 10
117.6480213757369
 20
151.8595646611754
 10
117.6480213757369
 20
151.8595646611754
 10
117.6480213757369
 20
151.8595646611754
 10
117.13229024137
 20
155.18150017429
 10
114.7162431837115
 20
155.886194920681
 10
113.3351034925446
 20
155.886194920681
 10
111.9829026225447
 20
155.886194920681
 10
108.3414342923792
 20
156.1251124501957
 10
106.2595617172429
 20
153.4105476718098
 97
        0
 75
     2
 76
     1
 98
        0
  0
ENDBLK
  5
3C8
330
3BD
100
AcDbEntity
  8
0
100
AcDbBlockEnd
  0
BLOCK
  5
11F1
330
11F0
100
AcDbEntity
  8
0
100
AcDbBlockBegin
  2
BLOCK_2
 70
     0
 10
0.0
 20
0.0
 30
0.0
  3
BLOCK_2
  1
BLOCK_2
  0
ENDBLK
  5
11F2
330
11F0
100
AcDbEntity
  8
0
100
AcDbBlockEnd
  0
BLOCK
  5
38B7
330
38B6
100
AcDbEntity
  8
0
100
AcDbBlockBegin
  2
mobile_latù
 70
     0
 10
0.0
 20
0.0
 30
0.0
  3
mobile_latù
  1
mobile_latù
  0
ENDBLK
  5
38B8
330
38B6
100
AcDbEntity
  8
0
100
AcDbBlockEnd
  0
BLOCK
  5
503A
330
5039
100
AcDbEntity
  8
0
100
AcDbBlockBegin
  2
.TD_SECTION_1
 70
     0
 10
225818116096.0
 20
0.0
 30
0.0
  3
.TD_SECTION_1
  1

  0
ENDBLK
  5
503B
330
5039
100
AcDbEntity
  8
0
100
AcDbBlockEnd
  0
BLOCK
  5
503E
330
503D
100
AcDbEntity
  8
0
100
AcDbBlockBegin
  2
.TD_SECTION_2
 70
     0
 10
225818181632.0
 20
0.0
 30
0.0
  3
.TD_SECTION_2
  1

  0
ENDBLK
  5
503F
330
503D
100
AcDbEntity
  8
0
100
AcDbBlockEnd
  0
BLOCK
  5
140D7
330
140D6
100
AcDbEntity
  8
0
100
AcDbBlockBegin
  2
*D10
 70
     1
 10
0.0
 20
0.0
 30
0.0
  3
*D10
  1

  0
LINE
  5
140D9
330
140D6
100
AcDbEntity
  8
Dim
 62
     0
370
    -2
100
AcDbLine
 10
328.3253245126133
 20
2389.439938544268
 30
0.0
 11
328.3253245126133
 21
2511.820983745421
 31
0.0
  0
LINE
  5
140DA
330
140D6
100
AcDbEntity
  8
Dim
 62
     0
370
    -2
100
AcDbLine
 10
828.3252840203363
 20
2389.439938557134
 30
0.0
 11
828.3252840203363
 21
2511.820983745421
 31
0.0
  0
LINE
  5
140DB
330
140D6
100
AcDbEntity
  8
Dim
 62
     0
370
    -2
100
AcDbLine
 10
338.3247141610508
 20
2511.820983745421
 30
0.0
 11
818.3258943718988
 21
2511.820983745421
 31
0.0
  0
INSERT
  5
140DC
330
140D6
100
AcDbEntity
  8
Dim
 62
     0
370
    -2
100
AcDbBlockReference
  2
_DOT
 10
328.3253245126133
 20
2511.820983745421
 30
0.0
 41
9.999389648437498
 42
9.999389648437498
 43
9.999389648437498
 50
180.0
  0
INSERT
  5
140DD
330
140D6
100
AcDbEntity
  8
Dim
 62
     0
370
    -2
100
AcDbBlockReference
  2
_DOT
 10
828.3252840203363
 20
2511.820983745421
 30
0.0
 41
9.999389648437498
 42
9.999389648437498
 43
9.999389648437498
  0
MTEXT
  5
140DE
330
140D6
100
AcDbEntity
  8
Dim
 62
     0
100
AcDbMText
 10
578.3253042664749
 20
2534.041875173456
 30
0.0
 40
24.4326171875
 41
0.0
 46
0.0
 71
     5
 72
     1
  1
\A1;500
  7
ＭＳ ゴシック
 73
     1
 44
1.0
  0
POINT
  5
140DF
330
140D6
100
AcDbEntity
  8
Defpoints
 62
     0
100
AcDbPoint
 10
328.3253245126133
 20
2364.439938544268
 30
0.0
  0
POINT
  5
140E0
330
140D6
100
AcDbEntity
  8
Defpoints
 62
     0
100
AcDbPoint
 10
828.3252840203363
 20
2364.439938557134
 30
0.0
  0
POINT
  5
140E1
330
140D6
100
AcDbEntity
  8
Defpoints
 62
     0
100
AcDbPoint
 10
828.3252840203363
 20
2511.820983745421
 30
0.0
  0
ENDBLK
  5
140D8
330
140D6
100
AcDbEntity
  8
0
100
AcDbBlockEnd
  0
BLOCK
  5
140E6
330
140E5
100
AcDbEntity
  8
0
100
AcDbBlockBegin
  2
*D11
 70
     1
 10
0.0
 20
0.0
 30
0.0
  3
*D11
  1

  0
LINE
  5
140E8
330
140E5
100
AcDbEntity
  8
Dim
 62
     0
370
    -2
100
AcDbLine
 10
833.3292253706159
 20
2384.439390812619
 30
0.0
 11
958.6296182651423
 21
2384.439390812619
 31
0.0
  0
LINE
  5
140E9
330
140E5
100
AcDbEntity
  8
Dim
 62
     0
370
    -2
100
AcDbLine
 10
833.3292253749287
 20
2004.488912768175
 30
0.0
 11
958.6296182651423
 21
2004.488912768175
 31
0.0
  0
LINE
  5
140EA
330
140E5
100
AcDbEntity
  8
Dim
 62
     0
370
    -2
100
AcDbLine
 10
958.6296182651423
 20
2374.440001164181
 30
0.0
 11
958.6296182651423
 21
2014.488302416612
 31
0.0
  0
INSERT
  5
140EB
330
140E5
100
AcDbEntity
  8
Dim
 62
     0
370
    -2
100
AcDbBlockReference
  2
_DOT
 10
958.6296182651423
 20
2384.439390812619
 30
0.0
 41
9.999389648437498
 42
9.999389648437498
 43
9.999389648437498
 50
90.0
  0
INSERT
  5
140EC
330
140E5
100
AcDbEntity
  8
Dim
 62
     0
370
    -2
100
AcDbBlockReference
  2
_DOT
 10
958.6296182651423
 20
2004.488912768175
 30
0.0
 41
9.999389648437498
 42
9.999389648437498
 43
9.999389648437498
 50
270.0
  0
MTEXT
  5
140ED
330
140E5
100
AcDbEntity
  8
Dim
 62
     0
100
AcDbMText
 10
936.4087268371069
 20
2194.464151790396
 30
0.0
 40
24.4326171875
 41
0.0
 46
0.0
 71
     5
 72
     1
  1
\A1;380
  7
ＭＳ ゴシック
 11
0.0
 21
1.0
 31
0.0
 73
     1
 44
1.0
  0
POINT
  5
140EE
330
140E5
100
AcDbEntity
  8
Defpoints
 62
     0
100
AcDbPoint
 10
808.3292253706159
 20
2384.439390812619
 30
0.0
  0
POINT
  5
140EF
330
140E5
100
AcDbEntity
  8
Defpoints
 62
     0
100
AcDbPoint
 10
808.3292253749287
 20
2004.488912768175
 30
0.0
  0
POINT
  5
140F0
330
140E5
100
AcDbEntity
  8
Defpoints
 62
     0
100
AcDbPoint
 10
958.6296182651423
 20
2004.488912768175
 30
0.0
  0
ENDBLK
  5
140E7
330
140E5
100
AcDbEntity
  8
0
100
AcDbBlockEnd
  0
BLOCK
  5
140F5
330
140F4
100
AcDbEntity
  8
0
100
AcDbBlockBegin
  2
*D12
 70
     1
 10
0.0
 20
0.0
 30
0.0
  3
*D12
  1

  0
LINE
  5
140F7
330
140F4
100
AcDbEntity
  8
Dim
 62
     0
370
    -2
100
AcDbLine
 10
324.3123549014099
 20
2381.52196673992
 30
0.0
 11
210.7746524242528
 21
2381.52196673992
 31
0.0
  0
LINE
  5
140F8
330
140F4
100
AcDbEntity
  8
Dim
 62
     0
370
    -2
100
AcDbLine
 10
324.0044721121692
 20
2007.402799603081
 30
0.0
 11
210.7746524242528
 21
2007.402799603081
 31
0.0
  0
LINE
  5
140F9
330
140F4
100
AcDbEntity
  8
Dim
 62
     0
370
    -2
100
AcDbLine
 10
210.7746524242528
 20
2371.522577091483
 30
0.0
 11
210.7746524242528
 21
2017.402189251518
 31
0.0
  0
INSERT
  5
140FA
330
140F4
100
AcDbEntity
  8
Dim
 62
     0
370
    -2
100
AcDbBlockReference
  2
_DOT
 10
210.7746524242528
 20
2381.52196673992
 30
0.0
 41
9.999389648437498
 42
9.999389648437498
 43
9.999389648437498
 50
90.0
  0
INSERT
  5
140FB
330
140F4
100
AcDbEntity
  8
Dim
 62
     0
370
    -2
100
AcDbBlockReference
  2
_DOT
 10
210.7746524242528
 20
2007.402799603081
 30
0.0
 41
9.999389648437498
 42
9.999389648437498
 43
9.999389648437498
 50
270.0
  0
MTEXT
  5
140FC
330
140F4
100
AcDbEntity
  8
Dim
 62
     0
100
AcDbMText
 10
188.5537609962174
 20
2194.462383171501
 30
0.0
 40
24.4326171875
 41
0.0
 46
0.0
 71
     5
 72
     1
  1
\A1;370
  7
ＭＳ ゴシック
 11
7.596966936475719E-17
 21
1.0
 31
0.0
 73
     1
 44
1.0
  0
POINT
  5
140FD
330
140F4
100
AcDbEntity
  8
Defpoints
 62
     0
100
AcDbPoint
 10
349.3123549014099
 20
2381.52196673992
 30
0.0
  0
POINT
  5
140FE
330
140F4
100
AcDbEntity
  8
Defpoints
 62
     0
100
AcDbPoint
 10
349.0044721121692
 20
2007.402799603081
 30
0.0
  0
POINT
  5
140FF
330
140F4
100
AcDbEntity
  8
Defpoints
 62
     0
100
AcDbPoint
 10
210.7746524242528
 20
2007.402799603081
 30
0.0
  0
ENDBLK
  5
140F6
330
140F4
100
AcDbEntity
  8
0
100
AcDbBlockEnd
  0
BLOCK
  5
14104
330
14103
100
AcDbEntity
  8
0
100
AcDbBlockBegin
  2
*D13
 70
     1
 10
0.0
 20
0.0
 30
0.0
  3
*D13
  1

  0
LINE
  5
14106
330
14103
100
AcDbEntity
  8
Dim
 62
     0
370
    -2
100
AcDbLine
 10
331.3288517023038
 20
1995.980720883251
 30
0.0
 11
331.3288517023038
 21
1888.424636268407
 31
0.0
  0
LINE
  5
14107
330
14103
100
AcDbEntity
  8
Dim
 62
     0
370
    -2
100
AcDbLine
 10
825.3211531305341
 20
1995.114331754031
 30
0.0
 11
825.3211531305341
 21
1888.424636268407
 31
0.0
  0
LINE
  5
14108
330
14103
100
AcDbEntity
  8
Dim
 62
     0
370
    -2
100
AcDbLine
 10
341.3282413507413
 20
1888.424636268407
 30
0.0
 11
815.3217634820966
 21
1888.424636268407
 31
0.0
  0
INSERT
  5
14109
330
14103
100
AcDbEntity
  8
Dim
 62
     0
370
    -2
100
AcDbBlockReference
  2
_DOT
 10
331.3288517023038
 20
1888.424636268407
 30
0.0
 41
9.999389648437498
 42
9.999389648437498
 43
9.999389648437498
 50
180.0
  0
INSERT
  5
1410A
330
14103
100
AcDbEntity
  8
Dim
 62
     0
370
    -2
100
AcDbBlockReference
  2
_DOT
 10
825.3211531305341
 20
1888.424636268407
 30
0.0
 41
9.999389648437498
 42
9.999389648437498
 43
9.999389648437498
  0
MTEXT
  5
1410B
330
14103
100
AcDbEntity
  8
Dim
 62
     0
100
AcDbMText
 10
578.3250024164189
 20
1910.640944862157
 30
0.0
 40
24.4326171875
 41
0.0
 46
0.0
 71
     5
 72
     1
  1
\A1;490
  7
ＭＳ ゴシック
 73
     1
 44
1.0
  0
POINT
  5
1410C
330
14103
100
AcDbEntity
  8
Defpoints
 62
     0
100
AcDbPoint
 10
331.3288517023038
 20
2020.980720883251
 30
0.0
  0
POINT
  5
1410D
330
14103
100
AcDbEntity
  8
Defpoints
 62
     0
100
AcDbPoint
 10
825.3211531305341
 20
2020.114331754031
 30
0.0
  0
POINT
  5
1410E
330
14103
100
AcDbEntity
  8
Defpoints
 62
     0
100
AcDbPoint
 10
825.3211531305341
 20
1888.424636268407
 30
0.0
  0
ENDBLK
  5
14105
330
14103
100
AcDbEntity
  8
0
100
AcDbBlockEnd
  0
BLOCK
  5
1414A
330
14149
100
AcDbEntity
  8
0
100
AcDbBlockBegin
  2
*D14
 70
     1
 10
0.0
 20
0.0
 30
0.0
  3
*D14
  1

  0
LINE
  5
1414C
330
14149
100
AcDbEntity
  8
Dim
 62
     0
370
    -2
100
AcDbLine
 10
1494.333398278727
 20
1171.497113841457
 30
0.0
 11
1485.422245383865
 21
1171.497113841457
 31
0.0
  0
LINE
  5
1414D
330
14149
100
AcDbEntity
  8
Dim
 62
     0
370
    -2
100
AcDbLine
 10
1472.256788746824
 20
1263.005057141495
 30
0.0
 11
1485.422245383865
 21
1263.005057141495
 31
0.0
  0
LINE
  5
1414E
330
14149
100
AcDbEntity
  8
Dim
 62
     0
370
    -2
100
AcDbLine
 10
1485.422245383865
 20
1263.005057141495
 30
0.0
 11
1485.422245383865
 21
1437.045246941064
 31
0.0
  0
LINE
  5
1414F
330
14149
100
AcDbEntity
  8
Dim
 62
     0
370
    -2
100
AcDbLine
 10
1485.422245383865
 20
1181.496503489894
 30
0.0
 11
1485.422245383865
 21
1253.005667493057
 31
0.0
  0
LINE
  5
14150
330
14149
100
AcDbEntity
  8
Dim
 62
     0
370
    -2
100
AcDbLine
 10
1485.422245383865
 20
1253.005667493057
 30
0.0
 11
1485.422245383865
 21
1243.00627784462
 31
0.0
  0
INSERT
  5
14151
330
14149
100
AcDbEntity
  8
Dim
 62
     0
370
    -2
100
AcDbBlockReference
  2
_DOT
 10
1485.422245383865
 20
1171.497113841457
 30
0.0
 41
9.999389648437498
 42
9.999389648437498
 43
9.999389648437498
 50
270.0
  0
INSERT
  5
14152
330
14149
100
AcDbEntity
  8
Dim
 62
     0
370
    -2
100
AcDbBlockReference
  2
_DOT
 10
1485.422245383865
 20
1263.005057141495
 30
0.0
 41
9.999389648437498
 42
9.999389648437498
 43
9.999389648437498
 50
90.0
  0
MTEXT
  5
14153
330
14149
100
AcDbEntity
  8
Dim
 62
     0
100
AcDbMText
 10
1461.160465087348
 20
1367.906061903657
 30
0.0
 40
24.4326171875
 41
0.0
 46
0.0
 71
     5
 72
     1
  1
\A1;88(深さ)
  7
ＭＳ ゴシック
 11
0.0
 21
1.0
 31
0.0
 73
     1
 44
1.0
  0
POINT
  5
14154
330
14149
100
AcDbEntity
  8
Defpoints
 62
     0
100
AcDbPoint
 10
1519.333398278727
 20
1171.497113841457
 30
0.0
  0
POINT
  5
14155
330
14149
100
AcDbEntity
  8
Defpoints
 62
     0
100
AcDbPoint
 10
1497.256788746824
 20
1263.005057141495
 30
0.0
  0
POINT
  5
14156
330
14149
100
AcDbEntity
  8
Defpoints
 62
     0
100
AcDbPoint
 10
1485.422245383865
 20
1263.005057141495
 30
0.0
  0
ENDBLK
  5
1414B
330
14149
100
AcDbEntity
  8
0
100
AcDbBlockEnd
  0
BLOCK
  5
1415C
330
1415B
100
AcDbEntity
  8
0
100
AcDbBlockBegin
  2
*D15
 70
     1
 10
0.0
 20
0.0
 30
0.0
  3
*D15
  1

  0
LINE
  5
1415E
330
1415B
100
AcDbEntity
  8
Dim
 62
     0
370
    -2
100
AcDbLine
 10
1329.930978561145
 20
1117.983599536575
 30
0.0
 11
1329.930978561145
 21
1046.159816929685
 31
0.0
  0
LINE
  5
1415F
330
1415B
100
AcDbEntity
  8
Dim
 62
     0
370
    -2
100
AcDbLine
 10
1641.697389191035
 20
1117.955587354258
 30
0.0
 11
1641.697389191035
 21
1046.159816929685
 31
0.0
  0
LINE
  5
14160
330
1415B
100
AcDbEntity
  8
Dim
 62
     0
370
    -2
100
AcDbLine
 10
1339.930368209582
 20
1046.159816929685
 30
0.0
 11
1631.697999542597
 21
1046.159816929685
 31
0.0
  0
INSERT
  5
14161
330
1415B
100
AcDbEntity
  8
Dim
 62
     0
370
    -2
100
AcDbBlockReference
  2
_DOT
 10
1329.930978561145
 20
1046.159816929685
 30
0.0
 41
9.999389648437498
 42
9.999389648437498
 43
9.999389648437498
 50
180.0
  0
INSERT
  5
14162
330
1415B
100
AcDbEntity
  8
Dim
 62
     0
370
    -2
100
AcDbBlockReference
  2
_DOT
 10
1641.697389191035
 20
1046.159816929685
 30
0.0
 41
9.999389648437498
 42
9.999389648437498
 43
9.999389648437498
  0
MTEXT
  5
14163
330
1415B
100
AcDbEntity
  8
Dim
 62
     0
100
AcDbMText
 10
1485.81418387609
 20
1068.38070835772
 30
0.0
 40
24.4326171875
 41
0.0
 46
0.0
 71
     5
 72
     1
  1
\A1;315
  7
ＭＳ ゴシック
 73
     1
 44
1.0
  0
POINT
  5
14164
330
1415B
100
AcDbEntity
  8
Defpoints
 62
     0
100
AcDbPoint
 10
1329.930978561145
 20
1142.983599536575
 30
0.0
  0
POINT
  5
14165
330
1415B
100
AcDbEntity
  8
Defpoints
 62
     0
100
AcDbPoint
 10
1641.697389191035
 20
1142.955587354258
 30
0.0
  0
POINT
  5
14166
330
1415B
100
AcDbEntity
  8
Defpoints
 62
     0
100
AcDbPoint
 10
1641.697389191035
 20
1046.159816929685
 30
0.0
  0
ENDBLK
  5
1415D
330
1415B
100
AcDbEntity
  8
0
100
AcDbBlockEnd
  0
BLOCK
  5
1416B
330
1416A
100
AcDbEntity
  8
0
100
AcDbBlockBegin
  2
*D16
 70
     1
 10
0.0
 20
0.0
 30
0.0
  3
*D16
  1

  0
LINE
  5
1416D
330
1416A
100
AcDbEntity
  8
Dim
 62
     0
370
    -2
100
AcDbLine
 10
1485.81418387609
 20
1021.159816929685
 30
0.0
 11
1485.81418387609
 21
957.607331304373
 31
0.0
  0
LINE
  5
1416E
330
1416A
100
AcDbEntity
  8
Dim
 62
     0
370
    -2
100
AcDbLine
 10
1675.971385541183
 20
1168.147613445726
 30
0.0
 11
1675.971385541183
 21
957.607331304373
 31
0.0
  0
LINE
  5
1416F
330
1416A
100
AcDbEntity
  8
Dim
 62
     0
370
    -2
100
AcDbLine
 10
1495.813573524527
 20
957.607331304373
 30
0.0
 11
1665.971995892745
 21
957.607331304373
 31
0.0
  0
INSERT
  5
14170
330
1416A
100
AcDbEntity
  8
Dim
 62
     0
370
    -2
100
AcDbBlockReference
  2
_DOT
 10
1485.81418387609
 20
957.607331304373
 30
0.0
 41
9.999389648437498
 42
9.999389648437498
 43
9.999389648437498
 50
180.0
  0
INSERT
  5
14171
330
1416A
100
AcDbEntity
  8
Dim
 62
     0
370
    -2
100
AcDbBlockReference
  2
_DOT
 10
1675.971385541183
 20
957.607331304373
 30
0.0
 41
9.999389648437498
 42
9.999389648437498
 43
9.999389648437498
  0
MTEXT
  5
14172
330
1416A
100
AcDbEntity
  8
Dim
 62
     0
100
AcDbMText
 10
1580.892784708636
 20
979.8282227324086
 30
0.0
 40
24.4326171875
 41
0.0
 46
0.0
 71
     5
 72
     1
  1
\A1;190
  7
ＭＳ ゴシック
 73
     1
 44
1.0
  0
POINT
  5
14173
330
1416A
100
AcDbEntity
  8
Defpoints
 62
     0
100
AcDbPoint
 10
1485.81418387609
 20
1046.159816929685
 30
0.0
  0
POINT
  5
14174
330
1416A
100
AcDbEntity
  8
Defpoints
 62
     0
100
AcDbPoint
 10
1675.971385541183
 20
1193.147613445726
 30
0.0
  0
POINT
  5
14175
330
1416A
100
AcDbEntity
  8
Defpoints
 62
     0
100
AcDbPoint
 10
1675.971385541183
 20
957.607331304373
 30
0.0
  0
ENDBLK
  5
1416C
330
1416A
100
AcDbEntity
  8
0
100
AcDbBlockEnd
  0
BLOCK
  5
1417A
330
14179
100
AcDbEntity
  8
0
100
AcDbBlockBegin
  2
*D17
 70
     1
 10
0.0
 20
0.0
 30
0.0
  3
*D17
  1

  0
LINE
  5
1417C
330
14179
100
AcDbEntity
  8
Dim
 62
     0
370
    -2
100
AcDbLine
 10
850.2299484518644
 20
1263.002737919198
 30
0.0
 11
958.6296182651425
 21
1263.002737919198
 31
0.0
  0
LINE
  5
1417D
330
14179
100
AcDbEntity
  8
Dim
 62
     0
370
    -2
100
AcDbLine
 10
818.4622790069948
 20
1141.955163081351
 30
0.0
 11
958.6296182651425
 21
1141.955163081351
 31
0.0
  0
LINE
  5
1417E
330
14179
100
AcDbEntity
  8
Dim
 62
     0
370
    -2
100
AcDbLine
 10
958.6296182651425
 20
1253.00334827076
 30
0.0
 11
958.6296182651425
 21
1151.954552729788
 31
0.0
  0
INSERT
  5
1417F
330
14179
100
AcDbEntity
  8
Dim
 62
     0
370
    -2
100
AcDbBlockReference
  2
_DOT
 10
958.6296182651425
 20
1263.002737919198
 30
0.0
 41
9.999389648437498
 42
9.999389648437498
 43
9.999389648437498
 50
90.0
  0
INSERT
  5
14180
330
14179
100
AcDbEntity
  8
Dim
 62
     0
370
    -2
100
AcDbBlockReference
  2
_DOT
 10
958.6296182651425
 20
1141.955163081351
 30
0.0
 41
9.999389648437498
 42
9.999389648437498
 43
9.999389648437498
 50
270.0
  0
MTEXT
  5
14181
330
14179
100
AcDbEntity
  8
Dim
 62
     0
100
AcDbMText
 10
936.4087268371071
 20
1202.478950500275
 30
0.0
 40
24.4326171875
 41
0.0
 46
0.0
 71
     5
 72
     1
  1
\A1;120
  7
ＭＳ ゴシック
 11
0.0
 21
1.0
 31
0.0
 73
     1
 44
1.0
  0
POINT
  5
14182
330
14179
100
AcDbEntity
  8
Defpoints
 62
     0
100
AcDbPoint
 10
825.2299484518644
 20
1263.002737919198
 30
0.0
  0
POINT
  5
14183
330
14179
100
AcDbEntity
  8
Defpoints
 62
     0
100
AcDbPoint
 10
793.4622790069948
 20
1141.955163081351
 30
0.0
  0
POINT
  5
14184
330
14179
100
AcDbEntity
  8
Defpoints
 62
     0
100
AcDbPoint
 10
958.6296182651425
 20
1141.955163081351
 30
0.0
  0
ENDBLK
  5
1417B
330
14179
100
AcDbEntity
  8
0
100
AcDbBlockEnd
  0
BLOCK
  5
14189
330
14188
100
AcDbEntity
  8
0
100
AcDbBlockBegin
  2
*D18
 70
     1
 10
0.0
 20
0.0
 30
0.0
  3
*D18
  1

  0
LINE
  5
1418B
330
14188
100
AcDbEntity
  8
Dim
 62
     0
370
    -2
100
AcDbLine
 10
362.6236003324584
 20
1117.955590702879
 30
0.0
 11
362.6236003324584
 21
1011.08759109107
 31
0.0
  0
LINE
  5
1418C
330
14188
100
AcDbEntity
  8
Dim
 62
     0
370
    -2
100
AcDbLine
 10
794.4756391673766
 20
1117.988800480703
 30
0.0
 11
794.4756391673766
 21
1011.08759109107
 31
0.0
  0
LINE
  5
1418D
330
14188
100
AcDbEntity
  8
Dim
 62
     0
370
    -2
100
AcDbLine
 10
372.6229899808959
 20
1011.08759109107
 30
0.0
 11
784.4762495189391
 21
1011.08759109107
 31
0.0
  0
INSERT
  5
1418E
330
14188
100
AcDbEntity
  8
Dim
 62
     0
370
    -2
100
AcDbBlockReference
  2
_DOT
 10
362.6236003324584
 20
1011.08759109107
 30
0.0
 41
9.999389648437498
 42
9.999389648437498
 43
9.999389648437498
 50
180.0
  0
INSERT
  5
1418F
330
14188
100
AcDbEntity
  8
Dim
 62
     0
370
    -2
100
AcDbBlockReference
  2
_DOT
 10
794.4756391673766
 20
1011.08759109107
 30
0.0
 41
9.999389648437498
 42
9.999389648437498
 43
9.999389648437498
  0
MTEXT
  5
14190
330
14188
100
AcDbEntity
  8
Dim
 62
     0
100
AcDbMText
 10
578.5496197499175
 20
1033.308482519105
 30
0.0
 40
24.4326171875
 41
0.0
 46
0.0
 71
     5
 72
     1
  1
\A1;435
  7
ＭＳ ゴシック
 73
     1
 44
1.0
  0
POINT
  5
14191
330
14188
100
AcDbEntity
  8
Defpoints
 62
     0
100
AcDbPoint
 10
362.6236003324584
 20
1142.955590702879
 30
0.0
  0
POINT
  5
14192
330
14188
100
AcDbEntity
  8
Defpoints
 62
     0
100
AcDbPoint
 10
794.4756391673766
 20
1142.988800480703
 30
0.0
  0
POINT
  5
14193
330
14188
100
AcDbEntity
  8
Defpoints
 62
     0
100
AcDbPoint
 10
794.4756391673766
 20
1011.08759109107
 30
0.0
  0
ENDBLK
  5
1418A
330
14188
100
AcDbEntity
  8
0
100
AcDbBlockEnd
  0
BLOCK
  5
141BB
330
141BA
100
AcDbEntity
  8
0
 48
0.5
100
AcDbBlockBegin
  2
_None
 70
     0
 10
0.0
 20
0.0
 30
0.0
  3
_None
  1
_None
  0
ENDBLK
  5
141BC
330
141BA
100
AcDbEntity
  8
0
 48
0.5
100
AcDbBlockEnd
  0
BLOCK
  5
141F6
330
141F5
100
AcDbEntity
  8
0
100
AcDbBlockBegin
  2
*D20
 70
     1
 10
0.0
 20
0.0
 30
0.0
  3
*D20
  1

  0
LINE
  5
141F8
330
141F5
100
AcDbEntity
  8
Dim
 62
     0
370
    -2
100
AcDbLine
 10
304.8970557858711
 20
1262.821938298383
 30
0.0
 11
241.5535274146822
 21
1262.821938298383
 31
0.0
  0
LINE
  5
141F9
330
141F5
100
AcDbEntity
  8
Dim
 62
     0
370
    -2
100
AcDbLine
 10
306.6761094002277
 20
1173.485371320961
 30
0.0
 11
241.5535274146822
 21
1173.485371320961
 31
0.0
  0
LINE
  5
141FA
330
141F5
100
AcDbEntity
  8
Dim
 62
     0
370
    -2
100
AcDbLine
 10
241.5535274146822
 20
1252.822548649945
 30
0.0
 11
241.5535274146822
 21
1183.484760969398
 31
0.0
  0
INSERT
  5
141FB
330
141F5
100
AcDbEntity
  8
Dim
 62
     0
370
    -2
100
AcDbBlockReference
  2
_DOT
 10
241.5535274146822
 20
1262.821938298383
 30
0.0
 41
9.999389648437498
 42
9.999389648437498
 43
9.999389648437498
 50
90.0
  0
INSERT
  5
141FC
330
141F5
100
AcDbEntity
  8
Dim
 62
     0
370
    -2
100
AcDbBlockReference
  2
_DOT
 10
241.5535274146822
 20
1173.485371320961
 30
0.0
 41
9.999389648437498
 42
9.999389648437498
 43
9.999389648437498
 50
270.0
  0
MTEXT
  5
141FD
330
141F5
100
AcDbEntity
  8
Dim
 62
     0
100
AcDbMText
 10
219.3372188209322
 20
1218.153654809672
 30
0.0
 40
24.4326171875
 41
0.0
 46
0.0
 71
     5
 72
     1
  1
\A1;90
  7
ＭＳ ゴシック
 11
0.0
 21
1.0
 31
0.0
 73
     1
 44
1.0
  0
POINT
  5
141FE
330
141F5
100
AcDbEntity
  8
Defpoints
 62
     0
100
AcDbPoint
 10
329.8970557858711
 20
1262.821938298383
 30
0.0
  0
POINT
  5
141FF
330
141F5
100
AcDbEntity
  8
Defpoints
 62
     0
100
AcDbPoint
 10
331.6761094002277
 20
1173.485371320961
 30
0.0
  0
POINT
  5
14200
330
141F5
100
AcDbEntity
  8
Defpoints
 62
     0
100
AcDbPoint
 10
241.5535274146822
 20
1173.485371320961
 30
0.0
  0
ENDBLK
  5
141F7
330
141F5
100
AcDbEntity
  8
0
100
AcDbBlockEnd
  0
ENDSEC
  0
SECTION
  2
ENTITIES
  0
MTEXT
  5
177
330
A
100
AcDbEntity
  8
template
390
1D
100
AcDbMText
 10
82.00000000048226
 20
348.023957835319
 30
0.0
 40
16.28841145833333
 41
0.0
 46
0.0
 71
     1
 72
     1
  1
品名
  7
ＭＳ ゴシック
 73
     1
 44
0.7828267384257843
  0
MTEXT
  5
178
330
A
100
AcDbEntity
  8
template
390
1D
100
AcDbMText
 10
82.00000000048226
 20
263.0239578353188
 30
0.0
 40
16.28841145833333
 41
0.0
 46
0.0
 71
     1
 72
     1
  1
仕様
  7
ＭＳ ゴシック
 73
     1
 44
0.7828267384257843
  0
LINE
  5
179
330
A
100
AcDbEntity
  8
template
390
1D
100
AcDbLine
 10
2025.0
 20
271.4388797103189
 30
0.0
 11
75.00000000000023
 21
271.4388797103189
 31
0.0
  0
LWPOLYLINE
  5
17A
330
A
100
AcDbEntity
  8
template
390
1D
100
AcDbPolyline
 90
        5
 70
   128
 43
0.0
 10
2025.0
 20
2901.438879710319
 10
75.00000000000023
 20
2901.438879710319
 10
75.00000000000023
 20
101.4388797103188
 10
2025.0
 20
101.4388797103188
 10
2025.0
 20
2901.438879710319
  0
LINE
  5
17B
330
A
100
AcDbEntity
  8
template
390
1D
100
AcDbLine
 10
2025.0
 20
356.4388797103188
 30
0.0
 11
75.00000000000023
 21
356.4388797103188
 31
0.0
  0
LINE
  5
17C
330
A
100
AcDbEntity
  8
template
390
1D
100
AcDbLine
 10
2025.000000000482
 20
186.4388797103189
 30
0.0
 11
1272.000000000482
 21
186.4388797103189
 31
0.0
  0
MTEXT
  5
17E
330
A
100
AcDbEntity
  8
template
390
1D
100
AcDbMText
 10
1301.871406252743
 20
156.5284852370108
 30
0.0
 40
24.4326171875
 41
0.0
 46
0.0
 71
     1
 72
     1
  1
大洋金物株式会社 ティーフォルム事業部
  7
ＭＳ ゴシック
 73
     1
 44
0.7828267384257843
  0
MTEXT
  5
180
330
A
100
AcDbEntity
  8
template
390
1D
100
AcDbMText
 10
1834.000000000742
 20
234.4414968978188
 30
0.0
 40
24.4326171875
 41
0.0
 46
0.0
 71
     1
 72
     1
  1
1:10
  7
ＭＳ ゴシック
 73
     1
 44
0.7828267384257843
  0
MTEXT
  5
181
330
A
100
AcDbEntity
  8
template
390
1D
100
AcDbMText
 10
1781.000000000742
 20
263.0239578353188
 30
0.0
 40
16.28841145833333
 41
0.0
 46
0.0
 71
     1
 72
     1
  1
縮尺
  7
ＭＳ ゴシック
 73
     1
 44
0.7828267384257843
  0
LINE
  5
182
330
A
100
AcDbEntity
  8
template
390
1D
100
AcDbLine
 10
1774.000000000742
 20
186.4388797103189
 30
0.0
 11
1774.000000000742
 21
271.4388797103189
 31
0.0
  0
MTEXT
  5
183
330
A
100
AcDbEntity
  8
template
390
1D
100
AcDbMText
 10
1530.000000000742
 20
263.0239578353188
 30
0.0
 40
16.28841145833333
 41
0.0
 46
0.0
 71
     1
 72
     1
  1
容量
  7
ＭＳ ゴシック
 73
     1
 44
0.7828267384257843
  0
LINE
  5
184
330
A
100
AcDbEntity
  8
template
390
1D
100
AcDbLine
 10
1523.000000000742
 20
186.4388797103189
 30
0.0
 11
1523.000000000742
 21
271.4388797103189
 31
0.0
  0
MTEXT
  5
185
330
A
100
AcDbEntity
  8
template
390
1D
100
AcDbMText
 10
1279.000000000742
 20
348.023957835319
 30
0.0
 40
16.28841145833333
 41
0.0
 46
0.0
 71
     1
 72
     1
  1
品番
  7
ＭＳ ゴシック
 73
     1
 44
0.7828267384257843
  0
MTEXT
  5
186
330
A
100
AcDbEntity
  8
template
390
1D
100
AcDbMText
 10
1279.000000000742
 20
263.0239578353188
 30
0.0
 40
16.28841145833333
 41
0.0
 46
0.0
 71
     1
 72
     1
  1
重量
  7
ＭＳ ゴシック
 73
     1
 44
0.7828267384257843
  0
MTEXT
  5
187
330
A
100
AcDbEntity
  8
template
390
1D
100
AcDbMText
 10
1332.000000000742
 20
319.4414968978188
 30
0.0
 40
24.4326171875
 41
0.0
 46
24.4326171875
 71
     1
 72
     1
  1
{ADF70-3206-001}
  7
ＭＳ ゴシック
 73
     1
 44
0.7828267384257843
1001
ACAD
1000
ACAD_MTEXT_DEFINED_HEIGHT_BEGIN
1070
    46
1040
24.4326171875
1000
ACAD_MTEXT_DEFINED_HEIGHT_END
  0
LINE
  5
188
330
A
100
AcDbEntity
  8
template
390
1D
100
AcDbLine
 10
1272.000000000742
 20
101.4388797103188
 30
0.0
 11
1272.000000000742
 21
356.4388797103188
 31
0.0
  0
MTEXT
  5
189
330
A
100
AcDbEntity
  8
template
390
1D
100
AcDbMText
 10
135.0000000004822
 20
319.4414968978188
 30
0.0
 40
24.4326171875
 41
0.0
 46
27.53672361022102
 71
     1
 72
     1
  1
{手洗器 -CATALANO, New Green-}
  7
ＭＳ ゴシック
 73
     1
 44
0.7828267384257843
1001
ACAD
1000
ACAD_MTEXT_DEFINED_HEIGHT_BEGIN
1070
    46
1040
27.53672361022102
1000
ACAD_MTEXT_DEFINED_HEIGHT_END
  0
MTEXT
  5
18A
330
A
100
AcDbEntity
  8
template
 62
     1
390
1D
100
AcDbMText
 10
135.0000000004822
 20
234.4414968978188
 30
0.0
 40
24.4326171875
 41
0.0
 46
68.41301022551426
 71
     1
 72
     1
  1
{\C256;カウンター置き/オーバーフローなし\P陶器/ホワイト}
  7
ＭＳ ゴシック
 73
     1
 44
0.9822934569727008
1001
ACAD
1000
ACAD_MTEXT_DEFINED_HEIGHT_BEGIN
1070
    46
1040
68.41301022551426
1000
ACAD_MTEXT_DEFINED_HEIGHT_END
  0
MTEXT
  5
1A6
330
A
100
AcDbEntity
  8
template
390
1D
100
AcDbMText
 10
1332.275982051555
 20
234.4414968978188
 30
0.0
 40
24.4326171875
 41
0.0
 46
28.40135167875453
 71
     1
 72
     1
  1
{11kg}
  7
ＭＳ ゴシック
 73
     1
 44
0.7828267384257843
1001
ACAD
1000
ACAD_MTEXT_DEFINED_HEIGHT_BEGIN
1070
    46
1040
28.40135167875453
1000
ACAD_MTEXT_DEFINED_HEIGHT_END
  0
INSERT
  5
3D0
330
A
100
AcDbEntity
  8
template
100
AcDbBlockReference
  2
名称未設定-1
 10
1873.559250554905
 20
30.23897196054438
 30
0.0
 41
0.7619999999999999
 42
0.7619999999999999
 43
0.7619999999999999
  0
MTEXT
  5
BDB
102
{ACAD_XDICTIONARY
360
BDC
102
}
330
A
100
AcDbEntity
  8
template
  6
Continuous
100
AcDbMText
 10
78.95663872901252
 20
86.10730750352229
 30
0.0
 40
23.0
 41
0.0
 46
23.0
 71
     1
 72
     1
  1
{20230609M}
  7
ＭＳ ゴシック
 73
     1
 44
1.0
1001
ACAD
1000
ACAD_MTEXT_DEFINED_HEIGHT_BEGIN
1070
    46
1040
23.0
1000
ACAD_MTEXT_DEFINED_HEIGHT_END
  0
LWPOLYLINE
  5
BEE
330
A
100
AcDbEntity
  8
PRINT BORDER
100
AcDbPolyline
 90
        4
 70
     1
 43
0.0
 10
0.0
 20
0.0
 10
0.0
 20
2970.0
 10
2100.0
 20
2970.0
 10
2100.0
 20
0.0
  0
INSERT
  5
1273
330
A
100
AcDbEntity
  8
0
 62
     7
100
AcDbBlockReference
  2
BLOCK_2
 10
591.2037060744204
 20
943.564364962162
 30
0.0
  0
INSERT
  5
127B
330
A
100
AcDbEntity
  8
0
 62
     7
100
AcDbBlockReference
  2
BLOCK_2
 10
1291.863324028138
 20
1038.76992320659
 30
0.0
  0
INSERT
  5
127C
330
A
100
AcDbEntity
  8
0
 62
     7
100
AcDbBlockReference
  2
BLOCK_2
 10
652.1648429406905
 20
1595.641631888467
 30
0.0
  0
INSERT
  5
3B99
330
A
100
AcDbEntity
  8
retino
100
AcDbBlockReference
  2
mobile_latù
 10
-92101.31485198285
 20
1730.415535296608
 30
0.0
  0
INSERT
  5
467E
330
A
100
AcDbEntity
  8
retino
100
AcDbBlockReference
  2
mobile_latù
 10
-100894.893236163
 20
1696.039721945452
 30
0.0
  0
INSERT
  5
527B
330
A
100
AcDbEntity
  8
retino
100
AcDbBlockReference
  2
mobile_latù
 10
-89900.42748460227
 20
2057.97116653715
 30
0.0
  0
INSERT
  5
527C
330
A
100
AcDbEntity
  8
0
100
AcDbBlockReference
  2
.TD_SECTION_1
 10
225818104807.5758
 20
2467.422636311911
 30
0.0
  0
INSERT
  5
527D
330
A
100
AcDbEntity
  8
0
100
AcDbBlockReference
  2
.TD_SECTION_2
 10
225818170343.5758
 20
2467.422636311911
 30
0.0
  0
INSERT
  5
527E
330
A
100
AcDbEntity
  8
0
  6
Continuous
 62
     0
370
     0
100
AcDbBlockReference
  2
.TD_SECTION_1
 10
-8769.816836312122
 20
2681.893749185237
 30
0.0
  0
INSERT
  5
527F
330
A
100
AcDbEntity
  8
0
  6
Continuous
 62
     0
370
     0
100
AcDbBlockReference
  2
.TD_SECTION_2
 10
-9327.194994881458
 20
2989.447269387873
 30
0.0
  0
INSERT
  5
5280
330
A
100
AcDbEntity
  8
0
  6
Continuous
 62
     0
370
     0
100
AcDbBlockReference
  2
.TD_SECTION_1
 10
-11193.31175928566
 20
763.8992218647024
 30
0.0
  0
INSERT
  5
5281
330
A
100
AcDbEntity
  8
0
  6
Continuous
 62
     0
370
     0
100
AcDbBlockReference
  2
.TD_SECTION_2
 10
-10905.35097055885
 20
465.7910675678274
 30
0.0
  0
INSERT
  5
5282
330
A
100
AcDbEntity
  8
0
  6
Continuous
 62
     0
370
     0
100
AcDbBlockReference
  2
.TD_SECTION_1
 10
-11064.96092844183
 20
698.0103962023752
 30
0.0
  0
INSERT
  5
5283
330
A
100
AcDbEntity
  8
0
  6
Continuous
 62
     0
370
     0
100
AcDbBlockReference
  2
.TD_SECTION_2
 10
-10776.90956354314
 20
399.8117572863596
 30
0.0
  0
INSERT
  5
5284
330
A
100
AcDbEntity
  8
0
  6
Continuous
 62
     0
370
     0
100
AcDbBlockReference
  2
.TD_SECTION_1
 10
-1462.487522281953
 20
1958.724372419401
 30
0.0
  0
INSERT
  5
5285
330
A
100
AcDbEntity
  8
0
  6
Continuous
 62
     0
370
     0
100
AcDbBlockReference
  2
.TD_SECTION_2
 10
-1135.18037048752
 20
1672.677238019987
 30
0.0
  0
INSERT
  5
5286
330
A
100
AcDbEntity
  8
0
  6
Continuous
 62
     0
370
     0
100
AcDbBlockReference
  2
.TD_SECTION_1
 10
704.608903935718
 20
-713.9911611042783
 30
0.0
  0
INSERT
  5
5287
330
A
100
AcDbEntity
  8
0
  6
Continuous
 62
     0
370
     0
100
AcDbBlockReference
  2
.TD_SECTION_2
 10
1319.461252263355
 20
-1311.565746065216
 30
0.0
  0
LINE
  5
13710
330
A
100
AcDbEntity
  8
MODEL
100
AcDbLine
 10
810.2662836555828
 20
2008.025530691929
 30
0.0
 11
810.2907528169012
 21
2008.031689497
 31
0.0
  0
LINE
  5
13711
330
A
100
AcDbEntity
  8
MODEL
100
AcDbLine
 10
346.363247627783
 20
2008.03168955891
 30
0.0
 11
346.3877167957871
 21
2008.025530751989
 31
0.0
  0
LINE
  5
13712
330
A
100
AcDbEntity
  8
MODEL
100
AcDbLine
 10
346.3877171774575
 20
2380.899386625691
 30
0.0
 11
346.3632480156843
 21
2380.893227820507
 31
0.0
  0
LINE
  5
1372F
330
A
100
AcDbEntity
  8
MODEL
100
AcDbLine
 10
348.3247793130204
 20
2381.149056073177
 30
0.0
 11
346.8882054262003
 21
2380.972652795725
 31
0.0
  0
LINE
  5
13730
330
A
100
AcDbEntity
  8
MODEL
100
AcDbLine
 10
346.8882054262003
 20
2380.972652795725
 30
0.0
 11
345.4602944729154
 21
2380.73488389216
 31
0.0
  0
LINE
  5
13731
330
A
100
AcDbEntity
  8
MODEL
100
AcDbLine
 10
345.4602944729154
 20
2380.73488389216
 30
0.0
 11
344.046450291883
 21
2380.42252980223
 31
0.0
  0
LINE
  5
13732
330
A
100
AcDbEntity
  8
MODEL
100
AcDbLine
 10
344.046450291883
 20
2380.42252980223
 30
0.0
 11
342.6566715112444
 21
2380.020233854326
 31
0.0
  0
LINE
  5
13733
330
A
100
AcDbEntity
  8
MODEL
100
AcDbLine
 10
342.6566715112444
 20
2380.020233854326
 30
0.0
 11
341.3019031941581
 21
2379.512608846677
 31
0.0
  0
LINE
  5
13734
330
A
100
AcDbEntity
  8
MODEL
100
AcDbLine
 10
341.3019031941581
 20
2379.512608846677
 30
0.0
 11
339.9966700653126
 21
2378.887778546168
 31
0.0
  0
LINE
  5
13735
330
A
100
AcDbEntity
  8
MODEL
100
AcDbLine
 10
339.9966700653126
 20
2378.887778546168
 30
0.0
 11
338.7578782020551
 21
2378.140094872786
 31
0.0
  0
LINE
  5
13736
330
A
100
AcDbEntity
  8
MODEL
100
AcDbLine
 10
338.7578782020551
 20
2378.140094872786
 30
0.0
 11
337.6010140291824
 21
2377.271084334641
 31
0.0
  0
LINE
  5
13737
330
A
100
AcDbEntity
  8
MODEL
100
AcDbLine
 10
337.6010140291824
 20
2377.271084334641
 30
0.0
 11
336.5383354068358
 21
2376.289020605702
 31
0.0
  0
LINE
  5
13738
330
A
100
AcDbEntity
  8
MODEL
100
AcDbLine
 10
336.5383354068358
 20
2376.289020605702
 30
0.0
 11
335.5782991899573
 21
2375.206665293789
 31
0.0
  0
LINE
  5
13739
330
A
100
AcDbEntity
  8
MODEL
100
AcDbLine
 10
335.5782991899573
 20
2375.206665293789
 30
0.0
 11
334.7251567036392
 21
2374.038092803695
 31
0.0
  0
LINE
  5
1373A
330
A
100
AcDbEntity
  8
MODEL
100
AcDbLine
 10
334.7251567036392
 20
2374.038092803695
 30
0.0
 11
333.9802054797792
 21
2372.797224889405
 31
0.0
  0
LINE
  5
1373B
330
A
100
AcDbEntity
  8
MODEL
100
AcDbLine
 10
333.9802054797792
 20
2372.797224889405
 30
0.0
 11
333.3439721636723
 21
2371.497708533442
 31
0.0
  0
LINE
  5
1373C
330
A
100
AcDbEntity
  8
MODEL
100
AcDbLine
 10
333.3439721636723
 20
2371.497708533442
 30
0.0
 11
332.8132816184466
 21
2370.151328378432
 31
0.0
  0
LINE
  5
1373D
330
A
100
AcDbEntity
  8
MODEL
100
AcDbLine
 10
332.8132816184466
 20
2370.151328378432
 30
0.0
 11
332.3836535427913
 21
2368.769288993921
 31
0.0
  0
LINE
  5
1373E
330
A
100
AcDbEntity
  8
MODEL
100
AcDbLine
 10
332.3836535427913
 20
2368.769288993921
 30
0.0
 11
332.0486384399351
 21
2367.361482152474
 31
0.0
  0
LINE
  5
13781
330
A
100
AcDbEntity
  8
MODEL
100
AcDbLine
 10
331.6170259037353
 20
2024.484969373777
 30
0.0
 11
331.7899411101512
 21
2023.048128348035
 31
0.0
  0
LINE
  5
13782
330
A
100
AcDbEntity
  8
MODEL
100
AcDbLine
 10
331.7899411101512
 20
2023.048128348035
 30
0.0
 11
332.0367545742811
 21
2021.621743902863
 31
0.0
  0
LINE
  5
13783
330
A
100
AcDbEntity
  8
MODEL
100
AcDbLine
 10
332.0367545742811
 20
2021.621743902863
 30
0.0
 11
332.3680831600459
 21
2020.21303642163
 31
0.0
  0
LINE
  5
13784
330
A
100
AcDbEntity
  8
MODEL
100
AcDbLine
 10
332.3680831600459
 20
2020.21303642163
 30
0.0
 11
332.7936659892025
 21
2018.829760565547
 31
0.0
  0
LINE
  5
13785
330
A
100
AcDbEntity
  8
MODEL
100
AcDbLine
 10
332.7936659892025
 20
2018.829760565547
 30
0.0
 11
333.3201052093355
 21
2017.481708884155
 31
0.0
  0
LINE
  5
13786
330
A
100
AcDbEntity
  8
MODEL
100
AcDbLine
 10
333.3201052093355
 20
2017.481708884155
 30
0.0
 11
333.9519192844573
 21
2016.180040151754
 31
0.0
  0
LINE
  5
13787
330
A
100
AcDbEntity
  8
MODEL
100
AcDbLine
 10
333.9519192844573
 20
2016.180040151754
 30
0.0
 11
334.6923902070098
 21
2014.936508480808
 31
0.0
  0
LINE
  5
13788
330
A
100
AcDbEntity
  8
MODEL
100
AcDbLine
 10
334.6923902070098
 20
2014.936508480808
 30
0.0
 11
335.5411058198038
 21
2013.764684528435
 31
0.0
  0
LINE
  5
13789
330
A
100
AcDbEntity
  8
MODEL
100
AcDbLine
 10
335.5411058198038
 20
2013.764684528435
 30
0.0
 11
336.4968067536402
 21
2012.678497681159
 31
0.0
  0
LINE
  5
1378A
330
A
100
AcDbEntity
  8
MODEL
100
AcDbLine
 10
336.4968067536402
 20
2012.678497681159
 30
0.0
 11
337.5554019667884
 21
2011.692052873939
 31
0.0
  0
LINE
  5
1378B
330
A
100
AcDbEntity
  8
MODEL
100
AcDbLine
 10
337.5554019667884
 20
2011.692052873939
 30
0.0
 11
338.7086101527339
 21
2010.818172774916
 31
0.0
  0
LINE
  5
1378C
330
A
100
AcDbEntity
  8
MODEL
100
AcDbLine
 10
338.7086101527339
 20
2010.818172774916
 30
0.0
 11
339.9443261021433
 21
2010.065428727141
 31
0.0
  0
LINE
  5
1378D
330
A
100
AcDbEntity
  8
MODEL
100
AcDbLine
 10
339.9443261021433
 20
2010.065428727141
 30
0.0
 11
341.2471549807101
 21
2009.435622010187
 31
0.0
  0
LINE
  5
1378E
330
A
100
AcDbEntity
  8
MODEL
100
AcDbLine
 10
341.2471549807101
 20
2009.435622010187
 30
0.0
 11
342.6002059761699
 21
2008.923364050416
 31
0.0
  0
LINE
  5
1378F
330
A
100
AcDbEntity
  8
MODEL
100
AcDbLine
 10
342.6002059761699
 20
2008.923364050416
 30
0.0
 11
343.9887711828615
 21
2008.517038121096
 31
0.0
  0
LINE
  5
13790
330
A
100
AcDbEntity
  8
MODEL
100
AcDbLine
 10
343.9887711828615
 20
2008.517038121096
 30
0.0
 11
345.4018444772955
 21
2008.201287550617
 31
0.0
  0
LINE
  5
13791
330
A
100
AcDbEntity
  8
MODEL
100
AcDbLine
 10
345.4018444772955
 20
2008.201287550617
 30
0.0
 11
346.8293127432275
 21
2007.960725137206
 31
0.0
  0
LINE
  5
13792
330
A
100
AcDbEntity
  8
MODEL
100
AcDbLine
 10
346.8293127432275
 20
2007.960725137206
 30
0.0
 11
348.3247793130204
 21
2007.775849739731
 31
0.0
  0
LINE
  5
13793
330
A
100
AcDbEntity
  8
MODEL
100
AcDbLine
 10
348.3247793130204
 20
2007.775849739731
 30
0.0
 11
358.3049367001358
 21
2007.442635916447
 31
0.0
  0
LINE
  5
137C9
330
A
100
AcDbEntity
  8
MODEL
100
AcDbLine
 10
358.3049367001358
 20
2007.442635916447
 30
0.0
 11
808.3292062544783
 21
2007.775849739731
 31
0.0
  0
LINE
  5
137CA
330
A
100
AcDbEntity
  8
MODEL
100
AcDbLine
 10
808.3292062544783
 20
2007.775849739731
 30
0.0
 11
809.7657725087652
 21
2007.952245384643
 31
0.0
  0
LINE
  5
137CB
330
A
100
AcDbEntity
  8
MODEL
100
AcDbLine
 10
809.7657725087652
 20
2007.952245384643
 30
0.0
 11
811.1937292572916
 21
2008.190014288208
 31
0.0
  0
LINE
  5
137CC
330
A
100
AcDbEntity
  8
MODEL
100
AcDbLine
 10
811.1937292572916
 20
2008.190014288208
 30
0.0
 11
812.6075810708644
 21
2008.502376010678
 31
0.0
  0
LINE
  5
137CD
330
A
100
AcDbEntity
  8
MODEL
100
AcDbLine
 10
812.6075810708644
 20
2008.502376010678
 30
0.0
 11
813.9973140562615
 21
2008.904671958582
 31
0.0
  0
LINE
  5
137CE
330
A
100
AcDbEntity
  8
MODEL
100
AcDbLine
 10
813.9973140562615
 20
2008.904671958582
 30
0.0
 11
815.3521205360453
 21
2009.412312231312
 31
0.0
  0
LINE
  5
137CF
330
A
100
AcDbEntity
  8
MODEL
100
AcDbLine
 10
815.3521205360453
 20
2009.412312231312
 30
0.0
 11
816.657346032348
 21
2010.037119634199
 31
0.0
  0
LINE
  5
137D0
330
A
100
AcDbEntity
  8
MODEL
100
AcDbLine
 10
816.657346032348
 20
2010.037119634199
 30
0.0
 11
817.8961378956055
 21
2010.784803307582
 31
0.0
  0
LINE
  5
137D1
330
A
100
AcDbEntity
  8
MODEL
100
AcDbLine
 10
817.8961378956055
 20
2010.784803307582
 30
0.0
 11
819.0529868034046
 21
2011.653836743348
 31
0.0
  0
LINE
  5
137D2
330
A
100
AcDbEntity
  8
MODEL
100
AcDbLine
 10
819.0529868034046
 20
2011.653836743348
 30
0.0
 11
820.115680690827
 21
2012.635885207206
 31
0.0
  0
LINE
  5
137D3
330
A
100
AcDbEntity
  8
MODEL
100
AcDbLine
 10
820.115680690827
 20
2012.635885207206
 30
0.0
 11
821.0757321727888
 21
2013.71824815166
 31
0.0
  0
LINE
  5
137D4
330
A
100
AcDbEntity
  8
MODEL
100
AcDbLine
 10
821.0757321727888
 20
2013.71824815166
 30
0.0
 11
821.9288670265714
 21
2014.886828274294
 31
0.0
  0
LINE
  5
137D5
330
A
100
AcDbEntity
  8
MODEL
100
AcDbLine
 10
821.9288670265714
 20
2014.886828274294
 30
0.0
 11
822.6738029853414
 21
2016.127688556044
 31
0.0
  0
LINE
  5
137D6
330
A
100
AcDbEntity
  8
MODEL
100
AcDbLine
 10
822.6738029853414
 20
2016.127688556044
 30
0.0
 11
823.3100515665346
 21
2017.427212544548
 31
0.0
  0
LINE
  5
137D7
330
A
100
AcDbEntity
  8
MODEL
100
AcDbLine
 10
823.3100515665346
 20
2017.427212544548
 30
0.0
 11
823.8407268466808
 21
2018.773577434476
 31
0.0
  0
LINE
  5
137D8
330
A
100
AcDbEntity
  8
MODEL
100
AcDbLine
 10
823.8407268466808
 20
2018.773577434476
 30
0.0
 11
824.2703472897888
 21
2020.155616818987
 31
0.0
  0
LINE
  5
137D9
330
A
100
AcDbEntity
  8
MODEL
100
AcDbLine
 10
824.2703472897888
 20
2020.155616818987
 30
0.0
 11
824.6053852902719
 21
2021.563431292974
 31
0.0
  0
LINE
  5
1381B
330
A
100
AcDbEntity
  8
MODEL
100
AcDbLine
 10
825.2992137574561
 20
2359.105454617827
 30
0.0
 11
825.0369596637634
 21
2364.439928806591
 31
0.0
  0
LINE
  5
1381C
330
A
100
AcDbEntity
  8
MODEL
100
AcDbLine
 10
825.0369596637634
 20
2364.439928806591
 30
0.0
 11
824.864036824807
 21
2365.876769832332
 31
0.0
  0
LINE
  5
1381D
330
A
100
AcDbEntity
  8
MODEL
100
AcDbLine
 10
824.864036824807
 20
2365.876769832332
 30
0.0
 11
824.6172309932213
 21
2367.303169542586
 31
0.0
  0
LINE
  5
1381E
330
A
100
AcDbEntity
  8
MODEL
100
AcDbLine
 10
824.6172309932213
 20
2367.303169542586
 30
0.0
 11
824.2859176725392
 21
2368.711861758738
 31
0.0
  0
LINE
  5
1381F
330
A
100
AcDbEntity
  8
MODEL
100
AcDbLine
 10
824.2859176725392
 20
2368.711861758738
 30
0.0
 11
823.8603272108353
 21
2370.095152879901
 31
0.0
  0
LINE
  5
13820
330
A
100
AcDbEntity
  8
MODEL
100
AcDbLine
 10
823.8603272108353
 20
2370.095152879901
 30
0.0
 11
823.3339261534065
 21
2371.443212193834
 31
0.0
  0
LINE
  5
13821
330
A
100
AcDbEntity
  8
MODEL
100
AcDbLine
 10
823.3339261534065
 20
2371.443212193834
 30
0.0
 11
822.7020739155873
 21
2372.744865661154
 31
0.0
  0
LINE
  5
13822
330
A
100
AcDbEntity
  8
MODEL
100
AcDbLine
 10
822.7020739155873
 20
2372.744865661154
 30
0.0
 11
821.9615953604871
 21
2373.98838969956
 31
0.0
  0
LINE
  5
13823
330
A
100
AcDbEntity
  8
MODEL
100
AcDbLine
 10
821.9615953604871
 20
2373.98838969956
 30
0.0
 11
821.1129179104068
 21
2375.160228917014
 31
0.0
  0
LINE
  5
13824
330
A
100
AcDbEntity
  8
MODEL
100
AcDbLine
 10
821.1129179104068
 20
2375.160228917014
 30
0.0
 11
820.1572017114804
 21
2376.246400499208
 31
0.0
  0
LINE
  5
13825
330
A
100
AcDbEntity
  8
MODEL
100
AcDbLine
 10
820.1572017114804
 20
2376.246400499208
 30
0.0
 11
819.0985988657899
 21
2377.23286057151
 31
0.0
  0
LINE
  5
13826
330
A
100
AcDbEntity
  8
MODEL
100
AcDbLine
 10
819.0985988657899
 20
2377.23286057151
 30
0.0
 11
817.9454135774749
 21
2378.106725405452
 31
0.0
  0
LINE
  5
13827
330
A
100
AcDbEntity
  8
MODEL
100
AcDbLine
 10
817.9454135774749
 20
2378.106725405452
 30
0.0
 11
816.7096747304399
 21
2378.859477085767
 31
0.0
  0
LINE
  5
13828
330
A
100
AcDbEntity
  8
MODEL
100
AcDbLine
 10
816.7096747304399
 20
2378.859477085767
 30
0.0
 11
815.4068305867886
 21
2379.489283802721
 31
0.0
  0
LINE
  5
13829
330
A
100
AcDbEntity
  8
MODEL
100
AcDbLine
 10
815.4068305867886
 20
2379.489283802721
 30
0.0
 11
814.0537948564133
 21
2380.001549395033
 31
0.0
  0
LINE
  5
1382A
330
A
100
AcDbEntity
  8
MODEL
100
AcDbLine
 10
814.0537948564133
 20
2380.001549395033
 30
0.0
 11
812.6652220171832
 21
2380.407875324353
 31
0.0
  0
LINE
  5
1382B
330
A
100
AcDbEntity
  8
MODEL
100
AcDbLine
 10
812.6652220171832
 20
2380.407875324353
 30
0.0
 11
811.2521639878269
 21
2380.723618262291
 31
0.0
  0
LINE
  5
1382C
330
A
100
AcDbEntity
  8
MODEL
100
AcDbLine
 10
811.2521639878269
 20
2380.723618262291
 30
0.0
 11
809.824695721898
 21
2380.964195940783
 31
0.0
  0
LINE
  5
1382D
330
A
100
AcDbEntity
  8
MODEL
100
AcDbLine
 10
809.824695721898
 20
2380.964195940783
 30
0.0
 11
808.3292062544783
 21
2381.149056073177
 31
0.0
  0
LINE
  5
1384E
330
A
100
AcDbEntity
  8
MODEL
100
AcDbLine
 10
336.123453399548
 20
2380.284380818071
 30
0.0
 11
334.9243049519641
 21
2379.284151642596
 31
0.0
  0
LINE
  5
1384F
330
A
100
AcDbEntity
  8
MODEL
100
AcDbLine
 10
334.9243049519641
 20
2379.284151642596
 30
0.0
 11
333.8069773391985
 21
2378.193339475741
 31
0.0
  0
LINE
  5
13850
330
A
100
AcDbEntity
  8
MODEL
100
AcDbLine
 10
333.8069773391985
 20
2378.193339475741
 30
0.0
 11
332.7787367398646
 21
2377.018233530927
 31
0.0
  0
LINE
  5
13851
330
A
100
AcDbEntity
  8
MODEL
100
AcDbLine
 10
332.7787367398646
 20
2377.018233530927
 30
0.0
 11
331.8451854387336
 21
2375.766496878877
 31
0.0
  0
LINE
  5
13852
330
A
100
AcDbEntity
  8
MODEL
100
AcDbLine
 10
331.8451854387336
 20
2375.766496878877
 30
0.0
 11
331.0115669911715
 21
2374.446006301452
 31
0.0
  0
LINE
  5
13853
330
A
100
AcDbEntity
  8
MODEL
100
AcDbLine
 10
331.0115669911715
 20
2374.446006301452
 30
0.0
 11
330.1908704347793
 21
2372.869001300843
 31
0.0
  0
LINE
  5
1385A
330
A
100
AcDbEntity
  8
MODEL
100
AcDbLine
 10
332.039364903153
 20
2367.308878682926
 30
0.0
 11
332.3690753903193
 21
2368.711281685655
 31
0.0
  0
LINE
  5
1385B
330
A
100
AcDbEntity
  8
MODEL
100
AcDbLine
 10
332.3690753903193
 20
2368.711281685655
 30
0.0
 11
332.7907808888704
 21
2370.086177012201
 31
0.0
  0
LINE
  5
1385C
330
A
100
AcDbEntity
  8
MODEL
100
AcDbLine
 10
332.7907808888704
 20
2370.086177012201
 30
0.0
 11
333.3141670927785
 21
2371.428801957255
 31
0.0
  0
LINE
  5
1385D
330
A
100
AcDbEntity
  8
MODEL
100
AcDbLine
 10
333.3141670927785
 20
2371.428801957255
 30
0.0
 11
333.9453247694123
 21
2372.729661640356
 31
0.0
  0
LINE
  5
1385E
330
A
100
AcDbEntity
  8
MODEL
100
AcDbLine
 10
333.9453247694123
 20
2372.729661640356
 30
0.0
 11
334.6850782331521
 21
2373.974834307523
 31
0.0
  0
LINE
  5
1385F
330
A
100
AcDbEntity
  8
MODEL
100
AcDbLine
 10
334.6850782331521
 20
2373.974834307523
 30
0.0
 11
335.5338930689718
 21
2375.150215023798
 31
0.0
  0
LINE
  5
13860
330
A
100
AcDbEntity
  8
MODEL
100
AcDbLine
 10
335.5338930689718
 20
2375.150215023798
 30
0.0
 11
336.4922195967647
 21
2376.241698854222
 31
0.0
  0
LINE
  5
13861
330
A
100
AcDbEntity
  8
MODEL
100
AcDbLine
 10
336.4922195967647
 20
2376.241698854222
 30
0.0
 11
337.5571345534972
 21
2377.233776476377
 31
0.0
  0
LINE
  5
13862
330
A
100
AcDbEntity
  8
MODEL
100
AcDbLine
 10
337.5571345534972
 20
2377.233776476377
 30
0.0
 11
338.717257821188
 21
2378.112526136278
 31
0.0
  0
LINE
  5
13863
330
A
100
AcDbEntity
  8
MODEL
100
AcDbLine
 10
338.717257821188
 20
2378.112526136278
 30
0.0
 11
339.9595835507257
 21
2378.867323337464
 31
0.0
  0
LINE
  5
13864
330
A
100
AcDbEntity
  8
MODEL
100
AcDbLine
 10
339.9595835507257
 20
2378.867323337464
 30
0.0
 11
341.2666179591415
 21
2379.497343765554
 31
0.0
  0
LINE
  5
13865
330
A
100
AcDbEntity
  8
MODEL
100
AcDbLine
 10
341.2666179591415
 20
2379.497343765554
 30
0.0
 11
342.6198979308201
 21
2380.008479741862
 31
0.0
  0
LINE
  5
13866
330
A
100
AcDbEntity
  8
MODEL
100
AcDbLine
 10
342.6198979308201
 20
2380.008479741862
 30
0.0
 11
344.0034409258205
 21
2380.413859236152
 31
0.0
  0
LINE
  5
13867
330
A
100
AcDbEntity
  8
MODEL
100
AcDbLine
 10
344.0034409258205
 20
2380.413859236152
 30
0.0
 11
345.4113698879178
 21
2380.728533618413
 31
0.0
  0
LINE
  5
13868
330
A
100
AcDbEntity
  8
MODEL
100
AcDbLine
 10
345.4113698879178
 20
2380.728533618413
 30
0.0
 11
346.838945009416
 21
2380.967218426845
 31
0.0
  0
LINE
  5
13869
330
A
100
AcDbEntity
  8
MODEL
100
AcDbLine
 10
346.838945009416
 20
2380.967218426845
 30
0.0
 11
348.3247793130204
 21
2381.149056073177
 31
0.0
  0
LINE
  5
13870
330
A
100
AcDbEntity
  8
MODEL
100
AcDbLine
 10
331.7233166635915
 20
2013.337872860248
 30
0.0
 11
332.6432057171178
 21
2012.076252068171
 31
0.0
  0
LINE
  5
13873
330
A
100
AcDbEntity
  8
MODEL
100
AcDbLine
 10
334.7636857683924
 20
2009.78732184671
 30
0.0
 11
336.1225756573835
 21
2008.641204290947
 31
0.0
  0
LINE
  5
13874
330
A
100
AcDbEntity
  8
MODEL
100
AcDbLine
 10
328.3287137188013
 20
2024.484969373777
 30
0.0
 11
328.4055734022531
 21
2022.739040985466
 31
0.0
  0
LINE
  5
13875
330
A
100
AcDbEntity
  8
MODEL
100
AcDbLine
 10
328.4055734022531
 20
2022.739040985466
 30
0.0
 11
328.6344122333635
 21
2021.006813007462
 31
0.0
  0
LINE
  5
13879
330
A
100
AcDbEntity
  8
MODEL
100
AcDbLine
 10
348.3247793130204
 20
2007.775849739731
 30
0.0
 11
346.8820841286665
 21
2007.951558455992
 31
0.0
  0
LINE
  5
1387A
330
A
100
AcDbEntity
  8
MODEL
100
AcDbLine
 10
346.8820841286665
 20
2007.951558455992
 30
0.0
 11
345.454150277762
 21
2008.188136683229
 31
0.0
  0
LINE
  5
1387B
330
A
100
AcDbEntity
  8
MODEL
100
AcDbLine
 10
345.454150277762
 20
2008.188136683229
 30
0.0
 11
344.0457099354508
 21
2008.500269429483
 31
0.0
  0
LINE
  5
1387C
330
A
100
AcDbEntity
  8
MODEL
100
AcDbLine
 10
344.0457099354508
 20
2008.500269429483
 30
0.0
 11
342.6615181744987
 21
2008.902634070252
 31
0.0
  0
LINE
  5
1387D
330
A
100
AcDbEntity
  8
MODEL
100
AcDbLine
 10
342.6615181744987
 20
2008.902634070252
 30
0.0
 11
341.3072841352537
 21
2009.410266710442
 31
0.0
  0
LINE
  5
1387E
330
A
100
AcDbEntity
  8
MODEL
100
AcDbLine
 10
341.3072841352537
 20
2009.410266710442
 30
0.0
 11
339.9987079536427
 21
2010.036501398414
 31
0.0
  0
LINE
  5
1387F
330
A
100
AcDbEntity
  8
MODEL
100
AcDbLine
 10
339.9987079536427
 20
2010.036501398414
 30
0.0
 11
338.7542527452888
 21
2010.787322045967
 31
0.0
  0
LINE
  5
13880
330
A
100
AcDbEntity
  8
MODEL
100
AcDbLine
 10
338.7542527452888
 20
2010.787322045967
 30
0.0
 11
337.5915191487243
 21
2011.662308863371
 31
0.0
  0
LINE
  5
13881
330
A
100
AcDbEntity
  8
MODEL
100
AcDbLine
 10
337.5915191487243
 20
2011.662308863371
 30
0.0
 11
336.5236046035525
 21
2012.650959474814
 31
0.0
  0
LINE
  5
13882
330
A
100
AcDbEntity
  8
MODEL
100
AcDbLine
 10
336.5236046035525
 20
2012.650959474814
 30
0.0
 11
335.5619808182373
 21
2013.739489512042
 31
0.0
  0
LINE
  5
13883
330
A
100
AcDbEntity
  8
MODEL
100
AcDbLine
 10
335.5619808182373
 20
2013.739489512042
 30
0.0
 11
334.7098687248949
 21
2014.91234385739
 31
0.0
  0
LINE
  5
13884
330
A
100
AcDbEntity
  8
MODEL
100
AcDbLine
 10
334.7098687248949
 20
2014.91234385739
 30
0.0
 11
333.9667951060114
 21
2016.155417575903
 31
0.0
  0
LINE
  5
13885
330
A
100
AcDbEntity
  8
MODEL
100
AcDbLine
 10
333.9667951060114
 20
2016.155417575903
 30
0.0
 11
333.3323172742334
 21
2017.454605732622
 31
0.0
  0
LINE
  5
13886
330
A
100
AcDbEntity
  8
MODEL
100
AcDbLine
 10
333.3323172742334
 20
2017.454605732622
 30
0.0
 11
332.8056490778836
 21
2018.795963675942
 31
0.0
  0
LINE
  5
13887
330
A
100
AcDbEntity
  8
MODEL
100
AcDbLine
 10
332.8056490778836
 20
2018.795963675942
 30
0.0
 11
332.3809363583514
 21
2020.169775181728
 31
0.0
  0
LINE
  5
13888
330
A
100
AcDbEntity
  8
MODEL
100
AcDbLine
 10
332.3809363583514
 20
2020.169775181728
 30
0.0
 11
332.0485010542066
 21
2021.571208851806
 31
0.0
  0
LINE
  5
13889
330
A
100
AcDbEntity
  8
MODEL
100
AcDbLine
 10
332.0485010542066
 20
2021.571208851806
 30
0.0
 11
331.7986193087709
 21
2022.99570042692
 31
0.0
  0
LINE
  5
1388A
330
A
100
AcDbEntity
  8
MODEL
100
AcDbLine
 10
331.7986193087709
 20
2022.99570042692
 30
0.0
 11
331.6170259037353
 21
2024.484969373777
 31
0.0
  0
LINE
  5
1388F
330
A
100
AcDbEntity
  8
MODEL
100
AcDbLine
 10
820.5305245354116
 20
2008.640532627378
 30
0.0
 11
821.7296882480805
 21
2009.640754170311
 31
0.0
  0
LINE
  5
13890
330
A
100
AcDbEntity
  8
MODEL
100
AcDbLine
 10
821.7296882480805
 20
2009.640754170311
 30
0.0
 11
822.847031125918
 21
2010.731573969707
 31
0.0
  0
LINE
  5
13891
330
A
100
AcDbEntity
  8
MODEL
100
AcDbLine
 10
822.847031125918
 20
2010.731573969707
 30
0.0
 11
823.8752869903442
 21
2011.906687547062
 31
0.0
  0
LINE
  5
13892
330
A
100
AcDbEntity
  8
MODEL
100
AcDbLine
 10
823.8752869903442
 20
2011.906687547062
 30
0.0
 11
824.808838291468
 21
2013.158424199112
 31
0.0
  0
LINE
  5
13893
330
A
100
AcDbEntity
  8
MODEL
100
AcDbLine
 10
824.808838291468
 20
2013.158424199112
 30
0.0
 11
825.642433841414
 21
2014.478899511456
 31
0.0
  0
LINE
  5
13894
330
A
100
AcDbEntity
  8
MODEL
100
AcDbLine
 10
825.642433841414
 20
2014.478899511456
 30
0.0
 11
826.4631456628813
 21
2016.055912144606
 31
0.0
  0
LINE
  5
1389A
330
A
100
AcDbEntity
  8
MODEL
100
AcDbLine
 10
824.6147275199137
 20
2021.616347696686
 30
0.0
 11
824.2850628279944
 21
2020.214104977308
 31
0.0
  0
LINE
  5
1389B
330
A
100
AcDbEntity
  8
MODEL
100
AcDbLine
 10
824.2850628279944
 20
2020.214104977308
 30
0.0
 11
823.8634412873857
 21
2018.839339403952
 31
0.0
  0
LINE
  5
1389C
330
A
100
AcDbEntity
  8
MODEL
100
AcDbLine
 10
823.8634412873857
 20
2018.839339403952
 30
0.0
 11
823.3401543065065
 21
2017.496844212088
 31
0.0
  0
LINE
  5
1389D
330
A
100
AcDbEntity
  8
MODEL
100
AcDbLine
 10
823.3401543065065
 20
2017.496844212088
 30
0.0
 11
822.7091569132226
 21
2016.196091384554
 31
0.0
  0
LINE
  5
1389E
330
A
100
AcDbEntity
  8
MODEL
100
AcDbLine
 10
822.7091569132226
 20
2016.196091384554
 30
0.0
 11
821.9695332026781
 21
2014.951010307874
 31
0.0
  0
LINE
  5
1389F
330
A
100
AcDbEntity
  8
MODEL
100
AcDbLine
 10
821.9695332026781
 20
2014.951010307874
 30
0.0
 11
821.1209168129058
 21
2013.775698284464
 31
0.0
  0
LINE
  5
138A0
330
A
100
AcDbEntity
  8
MODEL
100
AcDbLine
 10
821.1209168129058
 20
2013.775698284464
 30
0.0
 11
820.162758201011
 21
2012.684252616742
 31
0.0
  0
LINE
  5
138A1
330
A
100
AcDbEntity
  8
MODEL
100
AcDbLine
 10
820.162758201011
 20
2012.684252616742
 30
0.0
 11
819.0981103831937
 21
2011.692174994588
 31
0.0
  0
LINE
  5
138A2
330
A
100
AcDbEntity
  8
MODEL
100
AcDbLine
 10
819.0981103831937
 20
2011.692174994588
 30
0.0
 11
817.938208459183
 21
2010.813379539443
 31
0.0
  0
LINE
  5
138A3
330
A
100
AcDbEntity
  8
MODEL
100
AcDbLine
 10
817.938208459183
 20
2010.813379539443
 30
0.0
 11
816.6961193383995
 21
2010.058513645392
 31
0.0
  0
LINE
  5
138A4
330
A
100
AcDbEntity
  8
MODEL
100
AcDbLine
 10
816.6961193383995
 20
2010.058513645392
 30
0.0
 11
815.3893062736634
 21
2009.428378729194
 31
0.0
  0
LINE
  5
138A5
330
A
100
AcDbEntity
  8
MODEL
100
AcDbLine
 10
815.3893062736634
 20
2009.428378729194
 30
0.0
 11
814.0362094829602
 21
2008.917128264778
 31
0.0
  0
LINE
  5
138A6
330
A
100
AcDbEntity
  8
MODEL
100
AcDbLine
 10
814.0362094829602
 20
2008.917128264778
 30
0.0
 11
812.652887831638
 21
2008.511641914919
 31
0.0
  0
LINE
  5
138A7
330
A
100
AcDbEntity
  8
MODEL
100
AcDbLine
 10
812.652887831638
 20
2008.511641914919
 30
0.0
 11
811.2451420505085
 21
2008.196853044551
 31
0.0
  0
LINE
  5
138A8
330
A
100
AcDbEntity
  8
MODEL
100
AcDbLine
 10
811.2451420505085
 20
2008.196853044551
 30
0.0
 11
809.817734844908
 21
2007.958091910713
 31
0.0
  0
LINE
  5
138A9
330
A
100
AcDbEntity
  8
MODEL
100
AcDbLine
 10
809.817734844908
 20
2007.958091910713
 30
0.0
 11
808.3292062544783
 21
2007.775849739731
 31
0.0
  0
LINE
  5
138B8
330
A
100
AcDbEntity
  8
MODEL
100
AcDbLine
 10
808.3292062544783
 20
2381.149056073177
 30
0.0
 11
809.7719396015386
 21
2380.973354989456
 31
0.0
  0
LINE
  5
138B9
330
A
100
AcDbEntity
  8
MODEL
100
AcDbLine
 10
809.7719396015386
 20
2380.973354989456
 30
0.0
 11
811.1998352897349
 21
2380.736776762219
 31
0.0
  0
LINE
  5
138BA
330
A
100
AcDbEntity
  8
MODEL
100
AcDbLine
 10
811.1998352897349
 20
2380.736776762219
 30
0.0
 11
812.6083137947526
 21
2380.424636383425
 31
0.0
  0
LINE
  5
138BB
330
A
100
AcDbEntity
  8
MODEL
100
AcDbLine
 10
812.6083137947526
 20
2380.424636383425
 30
0.0
 11
813.9924902906196
 21
2380.022279375197
 31
0.0
  0
LINE
  5
138BC
330
A
100
AcDbEntity
  8
MODEL
100
AcDbLine
 10
813.9924902906196
 20
2380.022279375197
 30
0.0
 11
815.3466861671709
 21
2379.514654367547
 31
0.0
  0
LINE
  5
138BD
330
A
100
AcDbEntity
  8
MODEL
100
AcDbLine
 10
815.3466861671709
 20
2379.514654367547
 30
0.0
 11
816.6552699813174
 21
2378.888419679576
 31
0.0
  0
LINE
  5
138BE
330
A
100
AcDbEntity
  8
MODEL
100
AcDbLine
 10
816.6552699813174
 20
2378.888419679576
 30
0.0
 11
817.8997404547508
 21
2378.137591399482
 31
0.0
  0
LINE
  5
138BF
330
A
100
AcDbEntity
  8
MODEL
100
AcDbLine
 10
817.8997404547508
 20
2378.137591399482
 30
0.0
 11
819.0624511537026
 21
2377.262596949537
 31
0.0
  0
LINE
  5
138C0
330
A
100
AcDbEntity
  8
MODEL
100
AcDbLine
 10
819.0624511537026
 20
2377.262596949537
 30
0.0
 11
820.1303962290326
 21
2376.273938705553
 31
0.0
  0
LINE
  5
138C1
330
A
100
AcDbEntity
  8
MODEL
100
AcDbLine
 10
820.1303962290326
 20
2376.273938705553
 30
0.0
 11
821.0920352794292
 21
2375.185416300866
 31
0.0
  0
LINE
  5
138C2
330
A
100
AcDbEntity
  8
MODEL
100
AcDbLine
 10
821.0920352794292
 20
2375.185416300866
 30
0.0
 11
821.9441321076902
 21
2374.012569588058
 31
0.0
  0
LINE
  5
138C3
330
A
100
AcDbEntity
  8
MODEL
100
AcDbLine
 10
821.9441321076902
 20
2374.012569588058
 30
0.0
 11
822.6871751964063
 21
2372.769503502086
 31
0.0
  0
LINE
  5
138C4
330
A
100
AcDbEntity
  8
MODEL
100
AcDbLine
 10
822.6871751964063
 20
2372.769503502086
 30
0.0
 11
823.3217140885085
 21
2371.470292447746
 31
0.0
  0
LINE
  5
138C5
330
A
100
AcDbEntity
  8
MODEL
100
AcDbLine
 10
823.3217140885085
 20
2371.470292447746
 30
0.0
 11
823.8483593872406
 21
2370.128949769507
 31
0.0
  0
LINE
  5
138C6
330
A
100
AcDbEntity
  8
MODEL
100
AcDbLine
 10
823.8483593872406
 20
2370.128949769507
 30
0.0
 11
824.2730950043888
 21
2368.755122998639
 31
0.0
  0
LINE
  5
138C7
330
A
100
AcDbEntity
  8
MODEL
100
AcDbLine
 10
824.2730950043888
 20
2368.755122998639
 30
0.0
 11
824.605507410919
 21
2367.353696961102
 31
0.0
  0
LINE
  5
138C8
330
A
100
AcDbEntity
  8
MODEL
100
AcDbLine
 10
824.605507410919
 20
2367.353696961102
 30
0.0
 11
824.8553662587278
 21
2365.929220651069
 31
0.0
  0
LINE
  5
138C9
330
A
100
AcDbEntity
  8
MODEL
100
AcDbLine
 10
824.8553662587278
 20
2365.929220651069
 30
0.0
 11
825.0369596637634
 21
2364.439928806591
 31
0.0
  0
LINE
  5
138CD
330
A
100
AcDbEntity
  8
MODEL
100
AcDbLine
 10
808.3292253749287
 20
2004.488912768175
 30
0.0
 11
348.324775461977
 21
2004.485519141403
 31
0.0
  0
LINE
  5
138CE
330
A
100
AcDbEntity
  8
MODEL
100
AcDbLine
 10
828.3252840203363
 20
2194.462454985358
 30
0.0
 11
828.3252840203363
 21
2024.484971413583
 31
0.0
  0
LINE
  5
138D5
330
A
100
AcDbEntity
  8
MODEL
100
AcDbLine
 10
348.3247754576551
 20
2384.435997202544
 30
0.0
 11
808.3292253706159
 21
2384.439390812619
 31
0.0
  0
LINE
  5
138D6
330
A
100
AcDbEntity
  8
MODEL
100
AcDbLine
 10
328.325324512613
 20
2024.484971409839
 30
0.0
 11
328.3287168122438
 21
2364.439938557135
 31
0.0
  0
LINE
  5
138DC
330
A
100
AcDbEntity
  8
MODEL
100
AcDbLine
 10
810.2804316229549
 20
2008.030042366676
 30
0.0
 11
810.2559598389857
 21
2008.023904868086
 31
0.0
  0
LINE
  5
138DF
330
A
100
AcDbEntity
  8
MODEL
100
AcDbLine
 10
346.3735692095506
 20
2380.89487495057
 30
0.0
 11
346.3980409939759
 21
2380.901012449276
 31
0.0
  0
LINE
  5
138E1
330
A
100
AcDbEntity
  8
MODEL
100
AcDbLine
 10
346.3980409940286
 20
2008.023904867978
 30
0.0
 11
346.3735692102746
 21
2008.030042366515
 31
0.0
  0
LINE
  5
1394C
330
A
100
AcDbEntity
  8
MODEL
100
AcDbLine
 10
331.6170259037353
 20
2024.484969373777
 30
0.0
 11
332.039364903153
 21
2367.308878682926
 31
0.0
  0
LINE
  5
139B4
330
A
100
AcDbEntity
  8
MODEL
100
AcDbLine
 10
828.328676319967
 20
2364.439938544189
 30
0.0
 11
828.3286763199653
 21
2024.484971409839
 31
0.0
  0
ARC
  5
139B6
102
{ACAD_REACTORS
330
140E4
102
}
330
A
100
AcDbEntity
  8
MODEL
100
AcDbCircle
 10
808.3419037281046
 20
2364.45261821992
 30
0.0
 40
19.98677661387645
100
AcDbArc
 50
359.9636513697149
 51
90.03634485129915
  0
ARC
  5
139B7
330
A
100
AcDbEntity
  8
MODEL
100
AcDbCircle
 10
808.3418792189327
 20
2024.472316243272
 30
0.0
 40
19.98680110750954
100
AcDbArc
 50
269.9637254529886
 51
0.0362783255548182
  0
ARC
  5
139B8
330
A
100
AcDbEntity
  8
MODEL
100
AcDbCircle
 10
348.3120970944956
 20
2024.472291724122
 30
0.0
 40
19.986776603903
100
AcDbArc
 50
179.9636513410699
 51
270.036344879963
  0
ARC
  5
139B9
102
{ACAD_REACTORS
330
140D5
102
}
330
A
100
AcDbEntity
  8
MODEL
100
AcDbCircle
 10
348.3121216236286
 20
2364.452593700769
 30
0.0
 40
19.98680111748443
100
AcDbArc
 50
89.963725481651
 51
180.0362782969002
  0
CIRCLE
  5
139BA
330
A
100
AcDbEntity
  8
MODEL
100
AcDbCircle
 10
578.3270004162928
 20
2194.462459052194
 30
0.0
 40
22.20451794857334
  0
CIRCLE
  5
139BB
330
A
100
AcDbEntity
  8
MODEL
100
AcDbCircle
 10
578.3270004162928
 20
2194.462459052194
 30
0.0
 40
22.00907184185057
  0
SPLINE
  5
139BC
330
A
100
AcDbEntity
  8
MODEL
100
AcDbSpline
210
0.0
220
0.0
230
1.0
 70
     8
 71
     3
 72
    26
 73
    22
 74
     0
 42
0.000000001
 43
0.0000000001
 40
0.0
 40
0.0
 40
0.0
 40
0.0
 40
0.0133914922960312
 40
0.0133914922960312
 40
0.1749311402028722
 40
0.1749311402028722
 40
0.3364707881097131
 40
0.3364707881097131
 40
0.498010436016554
 40
0.498010436016554
 40
0.5787802599699746
 40
0.5787802599699746
 40
0.659550083923395
 40
0.659550083923395
 40
0.8210897318302357
 40
0.8210897318302357
 40
0.9018595557836565
 40
0.9018595557836565
 40
0.9826293797370768
 40
0.9826293797370768
 40
1.0
 40
1.0
 40
1.0
 40
1.0
 10
615.0918375893016
 20
2194.460053862539
 30
0.0
 10
615.0920758996613
 20
2194.71770703416
 30
0.0
 10
615.089480144311
 20
2194.9756343349
 30
0.0
 10
615.0187006276333
 20
2198.348467542125
 30
0.0
 10
614.5521893118271
 20
2201.473063266796
 30
0.0
 10
612.8525758664696
 20
2207.47772922449
 30
0.0
 10
611.6185381027049
 20
2210.372601692932
 30
0.0
 10
608.4525286586108
 20
2215.767664836224
 30
0.0
 10
606.5207702646917
 20
2218.260885804604
 30
0.0
 10
603.2395223926901
 20
2221.5445030209
 30
0.0
 10
602.0805129238834
 20
2222.566699331482
 30
0.0
 10
599.6314153119606
 20
2224.465787518263
 30
0.0
 10
598.3316210331213
 20
2225.347876119432
 30
0.0
 10
594.313220897966
 20
2227.71582082053
 30
0.0
 10
591.4792892497971
 20
2228.935166977883
 30
0.0
 10
586.9957136080866
 20
2230.224841582025
 30
0.0
 10
585.4619181263051
 20
2230.561827136679
 30
0.0
 10
582.4028962604775
 20
2231.033772297686
 30
0.0
 10
580.866777981154
 20
2231.172254867107
 30
0.0
 10
578.9923385152638
 20
2231.223092997765
 30
0.0
 10
578.6598978335414
 20
2231.227130749221
 30
0.0
 10
578.3270024731296
 20
2231.22616658187
 30
0.0
  0
SPLINE
  5
139BD
330
A
100
AcDbEntity
  8
MODEL
100
AcDbSpline
210
0.0
220
0.0
230
1.0
 70
     8
 71
     3
 72
    22
 73
    18
 74
     0
 42
0.000000001
 43
0.0000000001
 40
0.0
 40
0.0
 40
0.0
 40
0.0
 40
0.0164933572037652
 40
0.0164933572037652
 40
0.178096203361326
 40
0.178096203361326
 40
0.2588976264401065
 40
0.2588976264401065
 40
0.3396990495188869
 40
0.3396990495188869
 40
0.5013018956764478
 40
0.5013018956764478
 40
0.8245075879915696
 40
0.8245075879915696
 40
0.9861104341491307
 40
0.9861104341491307
 40
1.0
 40
1.0
 40
1.0
 40
1.0
 10
578.3270032148989
 20
2157.698252728527
 30
0.0
 10
578.6439075138123
 20
2157.697594159762
 30
0.0
 10
578.9612494890212
 20
2157.701399614912
 30
0.0
 10
582.3926056811006
 20
2157.790252535561
 30
0.0
 10
585.4814168907865
 20
2158.266979929237
 30
0.0
 10
589.9540735254413
 20
2159.549807407769
 30
0.0
 10
591.4340976854855
 20
2160.077931706152
 30
0.0
 10
594.2890971009301
 20
2161.306715050012
 30
0.0
 10
595.6667558379263
 20
2162.006503490707
 30
0.0
 10
599.6535127865832
 20
2164.3563986952
 30
0.0
 10
602.1413875899852
 20
2166.279511720092
 30
0.0
 10
608.7520348055718
 20
2172.900874957015
 30
0.0
 10
612.0160815438612
 20
2178.473720376394
 30
0.0
 10
614.5574569534751
 20
2187.479613043646
 30
0.0
 10
615.0164924607648
 20
2190.580197973625
 30
0.0
 10
615.0892402244867
 20
2193.929003087709
 30
0.0
 10
615.091947348606
 20
2194.194398555403
 30
0.0
 10
615.091592644771
 20
2194.460052947388
 30
0.0
  0
SPLINE
  5
139BE
330
A
100
AcDbEntity
  8
MODEL
100
AcDbSpline
210
0.0
220
0.0
230
1.0
 70
     8
 71
     3
 72
    22
 73
    18
 74
     0
 42
0.000000001
 43
0.0000000001
 40
0.0
 40
0.0
 40
0.0
 40
0.0
 40
0.0164920325843595
 40
0.0164920325843595
 40
0.1780811087093251
 40
0.1780811087093251
 40
0.2588756467718079
 40
0.2588756467718079
 40
0.3396701848342909
 40
0.3396701848342909
 40
0.5012592609592565
 40
0.5012592609592565
 40
0.8244374132091882
 40
0.8244374132091882
 40
0.986026489334154
 40
0.986026489334154
 40
1.0
 40
1.0
 40
1.0
 40
1.0
 10
578.3270022735351
 20
2231.226665366187
 30
0.0
 10
578.0100964269554
 20
2231.227323981899
 30
0.0
 10
577.6927528997685
 20
2231.223518529775
 30
0.0
 10
574.2613951514777
 20
2231.134665568828
 30
0.0
 10
571.1725839417986
 20
2230.657938175152
 30
0.0
 10
566.6999273071478
 20
2229.375110696618
 30
0.0
 10
565.2199031470941
 20
2228.846986398235
 30
0.0
 10
562.3649037316591
 20
2227.618203054377
 30
0.0
 10
560.987244994657
 20
2226.918414613681
 30
0.0
 10
557.0004880460024
 20
2224.568519409188
 30
0.0
 10
554.512613242593
 20
2222.645406384296
 30
0.0
 10
547.9019660270096
 20
2216.024043147373
 30
0.0
 10
544.6379192887171
 20
2210.451197727994
 30
0.0
 10
542.0965438791027
 20
2201.445305060743
 30
0.0
 10
541.6375083718167
 20
2198.344720130763
 30
0.0
 10
541.5647253164061
 20
2194.994290430838
 30
0.0
 10
541.5620204121506
 20
2194.727266072178
 30
0.0
 10
541.5624150553472
 20
2194.459980171155
 30
0.0
  0
SPLINE
  5
139BF
330
A
100
AcDbEntity
  8
MODEL
100
AcDbSpline
210
0.0
220
0.0
230
1.0
 70
     8
 71
     3
 72
    26
 73
    22
 74
     0
 42
0.000000001
 43
0.0000000001
 40
0.0
 40
0.0
 40
0.0
 40
0.0
 40
0.0133079916893831
 40
0.0133079916893831
 40
0.1748612980781918
 40
0.1748612980781918
 40
0.3364146044670005
 40
0.3364146044670005
 40
0.4979679108558092
 40
0.4979679108558092
 40
0.5787445640502136
 40
0.5787445640502136
 40
0.6595212172446179
 40
0.6595212172446179
 40
0.8210745236334265
 40
0.8210745236334265
 40
0.9018511768278308
 40
0.9018511768278308
 40
0.9826278300222352
 40
0.9826278300222352
 40
1.0
 40
1.0
 40
1.0
 40
1.0
 10
541.5621590648998
 20
2194.459979595725
 30
0.0
 10
541.561957852688
 20
2194.203951185826
 30
0.0
 10
541.5645549289961
 20
2193.947652107664
 30
0.0
 10
541.635300204945
 20
2190.576450562263
 30
0.0
 10
542.1018115207585
 20
2187.451854837593
 30
0.0
 10
543.8014249661082
 20
2181.447188879899
 30
0.0
 10
545.0354627298748
 20
2178.552316411457
 30
0.0
 10
548.2014721739674
 20
2173.157253268164
 30
0.0
 10
550.1332305678902
 20
2170.664032299785
 30
0.0
 10
553.414478439895
 20
2167.380415083487
 30
0.0
 10
554.5734879087017
 20
2166.358218772907
 30
0.0
 10
557.0225855206177
 20
2164.459130586126
 30
0.0
 10
558.3223797994583
 20
2163.577041984956
 30
0.0
 10
562.340779934621
 20
2161.209097283858
 30
0.0
 10
565.1747115827825
 20
2159.989751126506
 30
0.0
 10
569.6582872245003
 20
2158.700076522364
 30
0.0
 10
571.1920827062804
 20
2158.363090967709
 30
0.0
 10
574.2511045720985
 20
2157.891145806703
 30
0.0
 10
575.7872228514243
 20
2157.752663237282
 30
0.0
 10
577.6616638641804
 20
2157.701825064669
 30
0.0
 10
577.9941060990009
 20
2157.697787317517
 30
0.0
 10
578.3270030157541
 20
2157.698751536005
 30
0.0
  0
LINE
  5
139C0
330
A
100
AcDbEntity
  8
MODEL
100
AcDbLine
 10
1392.188859069433
 20
1142.955576021385
 30
0.0
 11
1349.092966011623
 21
1142.955576021385
 31
0.0
  0
LINE
  5
139C1
330
A
100
AcDbEntity
  8
MODEL
100
AcDbLine
 10
1622.944472310487
 20
1142.955576021385
 30
0.0
 11
1579.848601918711
 21
1142.955576021385
 31
0.0
  0
LINE
  5
139C7
330
A
100
AcDbEntity
  8
MODEL
100
AcDbLine
 10
1672.705319756675
 20
1263.00505788781
 30
0.0
 11
1655.996201025791
 21
1263.00505715749
 31
0.0
  0
LINE
  5
139C8
102
{ACAD_REACTORS
330
14148
102
}
330
A
100
AcDbEntity
  8
MODEL
100
AcDbLine
 10
1655.996201025831
 20
1263.00505715749
 30
0.0
 11
1486.018717506436
 21
1263.005057140363
 31
0.0
  0
LINE
  5
139CD
330
A
100
AcDbEntity
  8
MODEL
100
AcDbLine
 10
1486.018717506436
 20
1263.005057140363
 30
0.0
 11
1316.0412340213
 21
1263.00505715749
 31
0.0
  0
LINE
  5
139CE
330
A
100
AcDbEntity
  8
MODEL
100
AcDbLine
 10
1316.0412340213
 20
1263.00505715749
 30
0.0
 11
1299.332116751045
 21
1263.00505788781
 31
0.0
  0
LINE
  5
139CF
330
A
100
AcDbEntity
  8
MODEL
100
AcDbLine
 10
1299.332116751045
 20
1263.00505788781
 30
0.0
 11
1299.091771175846
 21
1263.00505805347
 31
0.0
  0
LINE
  5
139D0
330
A
100
AcDbEntity
  8
MODEL
100
AcDbLine
 10
1559.790879100898
 20
1141.955166428696
 30
0.0
 11
1412.246564749011
 21
1141.955166428696
 31
0.0
  0
LINE
  5
139D7
330
A
100
AcDbEntity
  8
MODEL
100
AcDbLine
 10
1622.94447231137
 20
1142.955576021385
 30
0.0
 11
1635.239338129756
 21
1142.955576558817
 31
0.0
  0
LWPOLYLINE
  5
139D8
330
A
100
AcDbEntity
  8
MODEL
100
AcDbPolyline
 90
       15
 70
     0
 43
0.0
 38
0.0000000000000087
 10
1336.798105117411
 20
1142.955575905446
 10
1336.878246793304
 20
1142.955575905446
 10
1337.114183887134
 20
1142.955575905446
 10
1337.499138702884
 20
1142.955575905446
 10
1338.026364074694
 20
1142.955575905446
 10
1338.689067041468
 20
1142.955575905446
 10
1339.48053096751
 20
1142.955575905446
 10
1340.393947626641
 20
1142.955575905446
 10
1341.419364185967
 20
1142.955575905446
 10
1342.541530829448
 20
1142.955575905446
 10
1343.745793079207
 20
1142.955575905446
 10
1345.017511722445
 20
1142.955575905446
 10
1346.342032281287
 20
1142.955575905446
 10
1347.704700277854
 20
1142.955575905446
 10
1349.092967815464
 20
1142.955575905446
  0
LINE
  5
139D9
330
A
100
AcDbEntity
  8
MODEL
100
AcDbLine
 10
1559.790879100898
 20
1141.955166428696
 30
0.0
 11
1572.011921053358
 21
1141.955166962897
 31
0.0
  0
LWPOLYLINE
  5
139DA
330
A
100
AcDbEntity
  8
MODEL
100
AcDbPolyline
 90
       15
 70
     0
 43
0.0
 38
0.0000000000000087
 10
1400.025521584113
 20
1141.955167365272
 10
1400.102060700861
 20
1141.955167365272
 10
1400.328060226881
 20
1141.955167365272
 10
1400.698131588535
 20
1141.955167365272
 10
1401.206855682025
 20
1141.955167365272
 10
1401.848843933716
 20
1141.955167365272
 10
1402.618661974726
 20
1141.955167365272
 10
1403.510936496501
 20
1141.955167365272
 10
1404.517286969506
 20
1141.955167365272
 10
1405.624188531865
 20
1141.955167365272
 10
1406.81862006938
 20
1141.955167365272
 10
1408.087590998017
 20
1141.955167365272
 10
1409.418080203578
 20
1141.955167365272
 10
1410.797081836946
 20
1141.955167365272
 10
1412.246562349857
 20
1141.955167365272
  0
LINE
  5
139DE
330
A
100
AcDbEntity
  8
MODEL
100
AcDbLine
 10
1299.332116751045
 20
1263.00505788781
 30
0.0
 11
1316.041234021299
 21
1263.00505715749
 31
0.0
  0
LINE
  5
139E0
330
A
100
AcDbEntity
  8
MODEL
100
AcDbLine
 10
1486.018717506436
 20
1263.005057140363
 30
0.0
 11
1487.348251448689
 21
1263.005057140363
 31
0.0
  0
LWPOLYLINE
  5
139E1
330
A
100
AcDbEntity
  8
MODEL
100
AcDbPolyline
 90
        9
 70
     0
 43
0.0
 38
0.0000000000000087
 10
1296.045185183447
 20
1260.003833058653
 10
1296.066075446963
 20
1260.725352382983
 10
1296.181716069007
 20
1261.338321715464
 10
1296.391183512171
 20
1261.84950348702
 10
1296.694981524131
 20
1262.264011499818
 10
1297.095071667813
 20
1262.585371987608
 10
1297.594880953927
 20
1262.815737326826
 10
1298.199416329083
 20
1262.955840241372
 10
1298.941619838343
 20
1263.005070127996
  0
LWPOLYLINE
  5
139E2
330
A
100
AcDbEntity
  8
MODEL
100
AcDbPolyline
 90
        9
 70
     0
 43
0.0
 38
0.0000000000000087
 10
1675.992268172158
 20
1260.003833058653
 10
1675.971385541183
 20
1260.725352382983
 10
1675.855737286598
 20
1261.338321715464
 10
1675.646269843434
 20
1261.84950348702
 10
1675.342464198933
 20
1262.264011499818
 10
1674.942396952873
 20
1262.585371987608
 10
1674.442587666759
 20
1262.815737326826
 10
1673.838059924143
 20
1262.955840241372
 10
1673.095841149802
 20
1263.005070127996
  0
LINE
  5
139E6
330
A
100
AcDbEntity
  8
HIDDEN
 48
0.5
100
AcDbLine
 10
1523.492944821538
 20
1166.965483909012
 30
0.0
 11
1448.536059211747
 21
1166.968416002338
 31
0.0
  0
LINE
  5
139EA
330
A
100
AcDbEntity
  8
HIDDEN
 48
0.5
100
AcDbLine
 10
1508.128490739903
 20
1152.725671580733
 30
0.0
 11
1463.902117026
 21
1152.747479488541
 31
0.0
  0
LINE
  5
139ED
330
A
100
AcDbEntity
  8
MODEL
100
AcDbLine
 10
1330.34007179711
 20
1142.955587354266
 30
0.0
 11
1336.798112062939
 21
1142.955587354266
 31
0.0
  0
LINE
  5
139EE
330
A
100
AcDbEntity
  8
MODEL
100
AcDbLine
 10
1635.239348925206
 20
1142.955587354266
 30
0.0
 11
1641.697389191035
 21
1142.955587354266
 31
0.0
  0
LINE
  5
139F8
330
A
100
AcDbEntity
  8
MODEL
100
AcDbLine
 10
1577.611633632216
 20
1141.955174997818
 30
0.0
 11
1572.011929088277
 21
1141.955174997818
 31
0.0
  0
LINE
  5
139F9
330
A
100
AcDbEntity
  8
MODEL
100
AcDbLine
 10
1400.025531899868
 20
1141.955174997818
 30
0.0
 11
1394.425827355929
 21
1141.955174997818
 31
0.0
  0
ARC
  5
13A0A
330
A
100
AcDbEntity
  8
MODEL
100
AcDbCircle
 10
1394.425855189425
 20
1144.956448340473
 30
0.0
 40
3.001273342791237
100
AcDbArc
 50
221.8109148449389
 51
269.999468644716
  0
ARC
  5
13A0B
330
A
100
AcDbEntity
  8
MODEL
100
AcDbCircle
 10
1577.611605798719
 20
1144.956448340473
 30
0.0
 40
3.001273342790623
100
AcDbArc
 50
270.000531355093
 51
318.1890851550492
  0
ARC
  5
13A0E
102
{ACAD_REACTORS
330
1415A
102
}
330
A
100
AcDbEntity
  8
MODEL
100
AcDbCircle
 10
1330.340072444085
 20
1145.956825985542
 30
0.0
 40
3.001238631281587
100
AcDbArc
 50
225.0000123512673
 51
269.999987648675
  0
ARC
  5
13A0F
102
{ACAD_REACTORS
330
1415A
102
}
330
A
100
AcDbEntity
  8
MODEL
100
AcDbCircle
 10
1641.697388544058
 20
1145.956825985542
 30
0.0
 40
3.001238631284616
100
AcDbArc
 50
270.0000123512381
 51
314.9999876487083
  0
LINE
  5
13A14
330
A
100
AcDbEntity
  8
MODEL
100
AcDbLine
 10
1296.045188276888
 20
1260.003833058653
 30
0.0
 11
1298.97974249777
 21
1175.969195117042
 31
0.0
  0
LINE
  5
13A15
330
A
100
AcDbEntity
  8
MODEL
100
AcDbLine
 10
1675.992272711257
 20
1260.003833058653
 30
0.0
 11
1673.057718490376
 21
1175.969195117042
 31
0.0
  0
LINE
  5
13A16
330
A
100
AcDbEntity
  8
MODEL
100
AcDbLine
 10
1643.819584274717
 20
1143.834629339927
 30
0.0
 11
1670.451882091367
 21
1170.466927156579
 31
0.0
  0
LINE
  5
13A18
330
A
100
AcDbEntity
  8
MODEL
100
AcDbLine
 10
1328.217876713427
 20
1143.834629339927
 30
0.0
 11
1301.585578896777
 21
1170.466927156579
 31
0.0
  0
LWPOLYLINE
  5
13A20
330
A
100
AcDbEntity
  8
MODEL
100
AcDbPolyline
 90
        8
 70
     0
 43
0.0
 38
0.0000000000000087
 10
1298.979744378446
 20
1175.969195117042
 10
1299.042850223806
 20
1175.079820960677
 10
1299.192211410051
 20
1174.201090382124
 10
1299.461800375215
 20
1173.351886286738
 10
1299.862104230033
 20
1172.55598022209
 10
1300.368134036705
 20
1171.822248832851
 10
1300.942482713941
 20
1171.140208824569
 10
1301.585577684013
 20
1170.466927156579
  0
LWPOLYLINE
  5
13A21
330
A
100
AcDbEntity
  8
MODEL
100
AcDbPolyline
 90
        8
 70
     0
 43
0.0
 38
0.0000000000000087
 10
1670.451868039052
 20
1170.466927156579
 10
1671.068577316402
 20
1171.111079233517
 10
1671.645200490726
 20
1171.791211106658
 10
1672.154993139895
 20
1172.522347432107
 10
1672.560738996132
 20
1173.315517230965
 10
1672.836090529421
 20
1174.162855170186
 10
1672.990115197947
 20
1175.04076143435
 10
1673.057708977158
 20
1175.969195117042
  0
LWPOLYLINE
  5
13A22
330
A
100
AcDbEntity
  8
MODEL
100
AcDbPolyline
 90
       16
 70
     0
 43
0.0
 38
0.0000000000000087
 10
1674.450891870889
 20
1262.812928551907
 10
1674.4450606099
 20
1262.816332664995
 10
1674.435993151714
 20
1262.821003779815
 10
1674.42695622369
 20
1262.825552773989
 10
1674.421308143674
 20
1262.828605790212
 10
1674.422376699353
 20
1262.828804236268
 10
1674.433459148247
 20
1262.824774254855
 10
1674.457883278043
 20
1262.815157253747
 10
1674.498976876425
 20
1262.798564110567
 10
1674.560037200916
 20
1262.773636233093
 10
1674.64249916914
 20
1262.73945771646
 10
1674.732715798575
 20
1262.698959456246
 10
1674.815238827123
 20
1262.657591086404
 10
1674.889579772189
 20
1262.61733706748
 10
1674.985413951477
 20
1262.557589539968
 10
1675.043634970878
 20
1262.519182595864
  0
LWPOLYLINE
  5
13A23
330
A
100
AcDbEntity
  8
MODEL
100
AcDbPolyline
 90
        9
 70
     0
 43
0.0
 38
0.0000000000000087
 10
1670.451868039052
 20
1170.466915707771
 10
1670.922704201195
 20
1170.947849721068
 10
1671.409110746084
 20
1171.481524589653
 10
1671.886144531165
 20
1172.080404252253
 10
1672.312589837404
 20
1172.75102216359
 10
1672.644849593118
 20
1173.485367972344
 10
1672.866468040855
 20
1174.260799746938
 10
1672.993626166606
 20
1175.0553434031
 10
1673.057708977158
 20
1175.969183668233
  0
LWPOLYLINE
  5
13A24
330
A
100
AcDbEntity
  8
MODEL
100
AcDbPolyline
 90
        9
 70
     0
 43
0.0
 38
0.0000000000000087
 10
1301.585570051472
 20
1170.466915707771
 10
1301.114848377436
 20
1170.947727600421
 10
1300.628556320656
 20
1171.481257450733
 10
1300.151614126063
 20
1172.079953932367
 10
1299.725229880147
 20
1172.750354316293
 10
1299.39291669665
 20
1173.484467332563
 10
1299.171206658426
 20
1174.259677763471
 10
1299.043949309648
 20
1175.054015341041
 10
1298.979774908608
 20
1175.967832708545
  0
LWPOLYLINE
  5
13A25
330
A
100
AcDbEntity
  8
MODEL
100
AcDbPolyline
 90
        3
 70
     0
 43
0.0
 38
0.0000000000000087
 10
1299.420508330779
 20
1262.996109525378
 10
1299.383101249488
 20
1262.99710175565
 10
1299.223726170028
 20
1263.001360713276
  0
LINE
  5
13A30
330
A
100
AcDbEntity
  8
MODEL
100
AcDbLine
 10
424.4723891364456
 20
1142.955577657599
 30
0.0
 11
381.3765058798535
 21
1142.955577657599
 31
0.0
  0
LINE
  5
13A34
330
A
100
AcDbEntity
  8
MODEL
100
AcDbLine
 10
578.3270004162928
 20
1141.955170828668
 30
0.0
 11
444.530101853486
 21
1141.955170828668
 31
0.0
  0
LINE
  5
13A37
330
A
100
AcDbEntity
  8
MODEL
100
AcDbLine
 10
369.0816405982951
 20
1142.95557873245
 30
0.0
 11
381.3765058789872
 21
1142.955577657599
 31
0.0
  0
LWPOLYLINE
  5
13A38
330
A
100
AcDbEntity
  8
MODEL
100
AcDbPolyline
 90
       15
 70
     0
 43
0.0
 10
432.3090501194679
 20
1141.955163081351
 10
432.3855892362162
 20
1141.955163081351
 10
432.6116040273168
 20
1141.955163081351
 10
432.9816601238899
 20
1141.955163081351
 10
433.4903842173803
 20
1141.955163081351
 10
434.1323724690706
 20
1141.955163081351
 10
434.9021905100808
 20
1141.955163081351
 10
435.7944650318564
 20
1141.955163081351
 10
436.800830769942
 20
1141.955163081351
 10
437.9077323323004
 20
1141.955163081351
 10
439.1021638698162
 20
1141.955163081351
 10
440.3711195333717
 20
1141.955163081351
 10
441.7016240040139
 20
1141.955163081351
 10
443.0806103723025
 20
1141.955163081351
 10
444.5300908852118
 20
1141.955163081351
  0
LINE
  5
13A3F
330
A
100
AcDbEntity
  8
MODEL
100
AcDbLine
 10
578.3270004162928
 20
1263.005057121809
 30
0.0
 11
331.0310070719818
 21
1262.969429512189
 31
0.0
  0
LWPOLYLINE
  5
13A43
330
A
100
AcDbEntity
  8
MODEL
100
AcDbPolyline
 90
        9
 70
     0
 43
0.0
 10
328.3287213513436
 20
1260.003821142186
 10
328.3534507827585
 20
1260.707175019988
 10
328.4791739908856
 20
1261.307581190701
 10
328.7048529502017
 20
1261.81138992807
 10
329.0308540226547
 20
1262.22342499773
 10
329.4592532592783
 20
1262.546983657203
 10
329.9932868572678
 20
1262.784264078172
 10
330.6379617632374
 20
1262.936121105179
 10
331.4240523807262
 20
1263.002737919198
  0
LWPOLYLINE
  5
13A45
102
{ACAD_REACTORS
330
141F4
102
}
330
A
100
AcDbEntity
  8
MODEL
100
AcDbPolyline
 90
        9
 70
     0
 43
0.0
 10
331.2251178435354
 20
1263.005058211529
 10
330.5052166177957
 20
1262.959018726863
 10
329.8970557858711
 20
1262.821938298383
 10
329.3937965914247
 20
1262.594610710306
 10
328.9904320878404
 20
1262.276364299063
 10
328.6834207763054
 20
1261.865061953296
 10
328.4708087264289
 20
1261.357162174187
 10
328.3519853349708
 20
1260.747780135775
 10
328.3287213513436
 20
1260.003821142186
  0
LINE
  5
13A49
330
A
100
AcDbEntity
  8
MODEL
100
AcDbLine
 10
362.6236003324657
 20
1142.955590702878
 30
0.0
 11
369.0816405982951
 21
1142.955590702878
 31
0.0
  0
LINE
  5
13A4C
330
A
100
AcDbEntity
  8
MODEL
100
AcDbLine
 10
432.3090604352233
 20
1141.955178346431
 30
0.0
 11
426.7093558912829
 21
1141.955178346431
 31
0.0
  0
ARC
  5
13A54
330
A
100
AcDbEntity
  8
MODEL
100
AcDbCircle
 10
426.7093837247808
 20
1144.956451689091
 30
0.0
 40
3.001273342789763
100
AcDbArc
 50
221.8109587044932
 51
269.9994686447073
  0
ARC
  5
13A56
102
{ACAD_REACTORS
330
14187
102
}
330
A
100
AcDbEntity
  8
MODEL
100
AcDbCircle
 10
362.6236009794411
 20
1145.956829334163
 30
0.0
 40
3.001238631284601
100
AcDbArc
 50
225.0000123511898
 51
269.9999876486403
  0
LINE
  5
13A58
330
A
100
AcDbEntity
  8
MODEL
100
AcDbLine
 10
328.3287168122438
 20
1260.003836407266
 30
0.0
 11
331.2632710331241
 21
1175.969198465654
 31
0.0
  0
LINE
  5
13A5A
330
A
100
AcDbEntity
  8
MODEL
100
AcDbLine
 10
360.5014052487822
 20
1143.834632688541
 30
0.0
 11
333.8691074321273
 21
1170.466930505198
 31
0.0
  0
LINE
  5
13A61
330
A
100
AcDbEntity
  8
MODEL
100
AcDbLine
 10
328.3285138893334
 20
1260.009726045331
 30
0.0
 11
328.3285903876526
 21
1260.007505410451
 31
0.0
  0
LINE
  5
13A62
330
A
100
AcDbEntity
  8
MODEL
100
AcDbLine
 10
328.3285903876526
 20
1260.007505410451
 30
0.0
 11
328.3286762179068
 21
1260.005010461048
 31
0.0
  0
LINE
  5
13A63
330
A
100
AcDbEntity
  8
MODEL
100
AcDbLine
 10
328.3287247554122
 20
1260.003606821385
 30
0.0
 11
328.3286842139109
 21
1260.004771824082
 31
0.0
  0
LINE
  5
13A6A
330
A
100
AcDbEntity
  8
HIDDEN
 48
0.5
100
AcDbLine
 10
616.1023243850814
 20
1167.236850039109
 30
0.0
 11
540.8527860888289
 21
1166.965487257626
 31
0.0
  0
LINE
  5
13A6D
330
A
100
AcDbEntity
  8
HIDDEN
 48
0.5
100
AcDbLine
 10
536.7111901846629
 20
1172.954455873024
 30
0.0
 11
622.3029014104304
 21
1172.859488662303
 31
0.0
  0
LINE
  5
13A6E
330
A
100
AcDbEntity
  8
MODEL
100
AcDbLine
 10
732.1816116961431
 20
1142.955577657599
 30
0.0
 11
775.2774949527279
 21
1142.955577657599
 31
0.0
  0
LINE
  5
13A72
330
A
100
AcDbEntity
  8
MODEL
100
AcDbLine
 10
578.3270004162928
 20
1141.955170828668
 30
0.0
 11
712.1238989791032
 21
1141.955170828668
 31
0.0
  0
LINE
  5
13A75
330
A
100
AcDbEntity
  8
MODEL
100
AcDbLine
 10
787.57236023429
 20
1142.95557873245
 30
0.0
 11
775.2774949535979
 21
1142.955577657599
 31
0.0
  0
LWPOLYLINE
  5
13A76
330
A
100
AcDbEntity
  8
MODEL
100
AcDbPolyline
 90
       15
 70
     0
 43
0.0
 10
724.3449507131172
 20
1141.955163081351
 10
724.2684115963689
 20
1141.955163081351
 10
724.0423968052683
 20
1141.955163081351
 10
723.6723407086952
 20
1141.955163081351
 10
723.1636166152052
 20
1141.955163081351
 10
722.521628363515
 20
1141.955163081351
 10
721.7518103225043
 20
1141.955163081351
 10
720.8595358007287
 20
1141.955163081351
 10
719.8531700626436
 20
1141.955163081351
 10
718.7462685002847
 20
1141.955163081351
 10
717.5518369627694
 20
1141.955163081351
 10
716.2828812992134
 20
1141.955163081351
 10
714.9523768285717
 20
1141.955163081351
 10
713.5733904602862
 20
1141.955163081351
 10
712.1239099473751
 20
1141.955163081351
  0
LINE
  5
13A7D
330
A
100
AcDbEntity
  8
MODEL
100
AcDbLine
 10
578.3270004162928
 20
1263.005057121809
 30
0.0
 11
808.329225309833
 21
1263.005057155892
 31
0.0
  0
LINE
  5
13A7E
330
A
100
AcDbEntity
  8
MODEL
100
AcDbLine
 10
808.329225309833
 20
1263.005057155892
 30
0.0
 11
825.0367801422385
 21
1263.005058616706
 31
0.0
  0
LINE
  5
13A7F
330
A
100
AcDbEntity
  8
MODEL
100
AcDbLine
 10
825.420422291575
 20
1263.005061711953
 30
0.0
 11
825.4234562084948
 21
1263.005062331146
 31
0.0
  0
LINE
  5
13A80
330
A
100
AcDbEntity
  8
MODEL
100
AcDbLine
 10
825.4273414392242
 20
1263.005064188723
 30
0.0
 11
825.4279097217632
 21
1263.005064807915
 31
0.0
  0
LWPOLYLINE
  5
13A81
330
A
100
AcDbEntity
  8
MODEL
100
AcDbPolyline
 90
        9
 70
     0
 43
0.0
 10
828.3252794812452
 20
1260.003821142186
 10
828.3005500498284
 20
1260.707175019988
 10
828.1748268417014
 20
1261.307581190701
 10
827.9491478823857
 20
1261.81138992807
 10
827.6231468099304
 20
1262.22342499773
 10
827.1947475733073
 20
1262.546983657203
 10
826.6607139753191
 20
1262.784264078172
 10
826.0160390693477
 20
1262.936121105179
 10
825.2299484518644
 20
1263.002737919198
  0
LINE
  5
13A82
330
A
100
AcDbEntity
  8
MODEL
100
AcDbLine
 10
825.0367801422385
 20
1263.005058616706
 30
0.0
 11
808.329225309833
 21
1263.005057155892
 31
0.0
  0
LWPOLYLINE
  5
13A83
330
A
100
AcDbEntity
  8
MODEL
100
AcDbPolyline
 90
        9
 70
     0
 43
0.0
 10
825.4288829890497
 20
1263.005058211529
 10
826.1487842147931
 20
1262.959018726863
 10
826.7569450467049
 20
1262.821938298383
 10
827.2602042411604
 20
1262.594610710306
 10
827.6635687447465
 20
1262.276364299063
 10
827.9705800562779
 20
1261.865061953296
 10
828.1831921061494
 20
1261.357162174187
 10
828.3020154976052
 20
1260.747780135775
 10
828.3252794812452
 20
1260.003821142186
  0
LINE
  5
13A84
330
A
100
AcDbEntity
  8
MODEL
100
AcDbLine
 10
825.4254976266589
 20
1263.005062950845
 30
0.0
 11
825.4234583188249
 21
1263.005062331682
 31
0.0
  0
LINE
  5
13A85
330
A
100
AcDbEntity
  8
MODEL
100
AcDbLine
 10
825.4055323859566
 20
1263.005060474194
 30
0.0
 11
825.0367801422385
 21
1263.005058616706
 31
0.0
  0
LINE
  5
13A87
330
A
100
AcDbEntity
  8
MODEL
100
AcDbLine
 10
794.0304005001158
 20
1142.955590702878
 30
0.0
 11
787.57236023429
 21
1142.955590702878
 31
0.0
  0
LINE
  5
13A8A
330
A
100
AcDbEntity
  8
MODEL
100
AcDbLine
 10
724.3449403973618
 20
1141.955178346431
 30
0.0
 11
729.9446449413022
 21
1141.955178346431
 31
0.0
  0
ARC
  5
13A92
330
A
100
AcDbEntity
  8
MODEL
100
AcDbCircle
 10
729.9446171078084
 20
1144.956451689091
 30
0.0
 40
3.001273342789763
100
AcDbArc
 50
270.000531355284
 51
318.1890412954999
  0
ARC
  5
13A94
102
{ACAD_REACTORS
330
14187
102
}
330
A
100
AcDbEntity
  8
MODEL
100
AcDbCircle
 10
794.0303998531385
 20
1145.956829334163
 30
0.0
 40
3.001238631284601
100
AcDbArc
 50
270.0000123513685
 51
314.9999876488554
  0
LINE
  5
13A96
330
A
100
AcDbEntity
  8
MODEL
100
AcDbLine
 10
828.3252840203363
 20
1260.003836407266
 30
0.0
 11
825.390729799461
 21
1175.969198465654
 31
0.0
  0
LINE
  5
13A98
330
A
100
AcDbEntity
  8
MODEL
100
AcDbLine
 10
796.1525955837974
 20
1143.834632688541
 30
0.0
 11
822.7848934004578
 21
1170.466930505198
 31
0.0
  0
LWPOLYLINE
  5
13A9E
330
A
100
AcDbEntity
  8
MODEL
100
AcDbPolyline
 90
        8
 70
     0
 43
0.0
 10
825.3907202862397
 20
1175.969183200575
 10
825.3276449710488
 20
1175.079839574374
 10
825.178230357014
 20
1174.201120444636
 10
824.9086490243931
 20
1173.351893451626
 10
824.5083985973579
 20
1172.555972121896
 10
824.0023306279832
 20
1171.822271262821
 10
823.427997215826
 20
1171.140227438265
 10
822.7849098783008
 20
1170.466915240112
  0
LINE
  5
13A9F
330
A
100
AcDbEntity
  8
MODEL
100
AcDbLine
 10
828.325486943248
 20
1260.009726045331
 30
0.0
 11
828.3254104449366
 21
1260.007505410451
 31
0.0
  0
LINE
  5
13AA0
330
A
100
AcDbEntity
  8
MODEL
100
AcDbLine
 10
828.3254104449366
 20
1260.007505410451
 30
0.0
 11
828.3253246146787
 21
1260.005010461048
 31
0.0
  0
LINE
  5
13AA1
330
A
100
AcDbEntity
  8
MODEL
100
AcDbLine
 10
828.3252760771716
 20
1260.003606821385
 30
0.0
 11
828.3253166186723
 21
1260.004771824082
 31
0.0
  0
LWPOLYLINE
  5
13AA2
330
A
100
AcDbEntity
  8
MODEL
100
AcDbPolyline
 90
        9
 70
     0
 43
0.0
 10
822.7849098783008
 20
1170.466915240112
 10
823.2557460404414
 20
1170.947826355797
 10
823.742152585332
 20
1171.481554652166
 10
824.2191558402442
 20
1172.080434314766
 10
824.6456011464838
 20
1172.750998798317
 10
824.9778914323579
 20
1173.485371320961
 10
825.1994793499421
 20
1174.260776381662
 10
825.3266680058568
 20
1175.055354384254
 10
825.3907202862397
 20
1175.969183200575
  0
DIMENSION
  5
140D3
102
{ACAD_REACTORS
330
140D5
102
}
102
{ACAD_XDICTIONARY
360
140D4
102
}
330
A
100
AcDbEntity
  8
Dim
100
AcDbDimension
  2
*D10
 10
828.3252840203363
 20
2511.820983745421
 30
0.0
 11
578.3253042664749
 21
2534.041875173456
 31
0.0
 70
    32
 71
     5
 42
499.999959507723
 73
     0
 74
     0
 75
     0
  3
tform線あり
100
AcDbAlignedDimension
 13
328.3253245126133
 23
2364.439938544268
 33
0.0
 14
828.3252840203363
 24
2364.439938557134
 34
0.0
100
AcDbRotatedDimension
  0
DIMENSION
  5
140E2
102
{ACAD_REACTORS
330
140E4
102
}
102
{ACAD_XDICTIONARY
360
140E3
102
}
330
A
100
AcDbEntity
  8
Dim
100
AcDbDimension
  2
*D11
 10
958.6296182651423
 20
2004.488912768175
 30
0.0
 11
958.6296182651423
 21
2194.464151790396
 31
0.0
 70
   160
 71
     5
 42
379.9504780444438
 73
     0
 74
     0
 75
     0
  3
tform線あり
100
AcDbAlignedDimension
 13
808.3292253706159
 23
2384.439390812619
 33
0.0
 14
808.3292253749287
 24
2004.488912768175
 34
0.0
 50
90.0
100
AcDbRotatedDimension
  0
DIMENSION
  5
140F1
330
A
100
AcDbEntity
  8
Dim
100
AcDbDimension
  2
*D12
 10
210.7746524242528
 20
2007.402799603081
 30
0.0
 11
188.5537609962174
 21
2194.462383171501
 31
0.0
 70
    32
  1
370
 71
     5
 42
374.1191671368392
 73
     0
 74
     0
 75
     0
  3
tform線あり
100
AcDbAlignedDimension
 13
349.3123549014099
 23
2381.52196673992
 33
0.0
 14
349.0044721121692
 24
2007.402799603081
 34
0.0
 50
90.0
100
AcDbRotatedDimension
  0
DIMENSION
  5
14100
330
A
100
AcDbEntity
  8
Dim
100
AcDbDimension
  2
*D13
 10
825.3211531305341
 20
1888.424636268407
 30
0.0
 11
578.3250024164189
 21
1910.640944862157
 31
0.0
 70
    32
  1
490
 71
     5
 42
493.9923014282303
 73
     0
 74
     0
 75
     0
  3
tform線あり
100
AcDbAlignedDimension
 13
331.3288517023038
 23
2020.980720883251
 33
0.0
 14
825.3211531305341
 24
2020.114331754031
 34
0.0
100
AcDbRotatedDimension
  0
SPLINE
  5
14110
330
A
100
AcDbEntity
  8
HIDDEN
 48
0.5
100
AcDbSpline
210
0.0
220
0.0
230
1.0
 70
  1064
 71
     3
 72
   100
 73
    96
 74
    94
 42
0.000000001
 43
0.0000000001
 44
0.0
 40
0.0
 40
0.0
 40
0.0
 40
0.0
 40
0.9446510815651173
 40
1.274681265645671
 40
1.817555264579908
 40
2.523955319770993
 40
3.296661405772524
 40
3.831401807730718
 40
4.221427318083755
 40
5.441267924616594
 40
6.321812158548121
 40
7.354659394091662
 40
8.222645073084914
 40
9.600379776107493
 40
10.9274782719175
 40
12.93655850246142
 40
14.48943226368767
 40
16.32540293072299
 40
17.9751146769466
 40
20.22794391478297
 40
22.86117723983612
 40
25.23441836646477
 40
27.05564598551428
 40
29.60944687243908
 40
32.39941713891682
 40
35.34576587554346
 40
39.4407852719926
 40
47.21232640061843
 40
54.4675345931238
 40
58.70633734873554
 40
64.36802515388159
 40
69.34572086160404
 40
73.64435744709252
 40
83.11001932177301
 40
89.84717331303533
 40
97.55768880354356
 40
104.7455583038572
 40
111.3662111412775
 40
113.9072923397283
 40
119.524518921592
 40
124.320243192664
 40
130.538791129662
 40
138.6322291036531
 40
146.207394645587
 40
158.4882587834267
 40
166.0685936988009
 40
181.0332531962765
 40
200.5635520915349
 40
211.5066872384309
 40
224.3300133962018
 40
234.772120786128
 40
240.1615029984
 40
241.3429975113664
 40
241.8462584772939
 40
242.5027013960959
 40
242.9496939580697
 40
243.3702379198183
 40
244.0400738638916
 40
244.3975233045611
 40
244.9005293224285
 40
245.6195737335374
 40
245.9692168742511
 40
247.507099214938
 40
248.6653114589695
 40
249.3846284619433
 40
249.9318328760152
 40
250.5990263441549
 40
251.139279411531
 40
251.6942164927152
 40
253.2541117132228
 40
256.7796530756304
 40
260.6167758714859
 40
264.2793089939104
 40
268.0966653134444
 40
269.2665469682924
 40
269.9615372541118
 40
270.216331619693
 40
270.480944546097
 40
270.6664233929076
 40
270.9846113558044
 40
271.4064315835563
 40
271.7399381050098
 40
272.0437968690337
 40
272.3627299376276
 40
272.6372467036705
 40
273.2094660962166
 40
273.5052199395546
 40
274.0133694706153
 40
274.7402318946333
 40
275.4799531814052
 40
276.3094620551694
 40
277.0364367053289
 40
277.4867213539978
 40
278.1320434327031
 40
283.134112732706
 40
283.134112732706
 40
283.134112732706
 40
283.134112732706
 10
331.3395202065366
 20
1262.995574286913
 30
0.0
 10
331.6525747221325
 20
1262.965288953017
 30
0.0
 10
332.0750002440456
 20
1262.924422914229
 30
0.0
 10
332.6831953597285
 20
1262.899416616834
 30
0.0
 10
333.1847183605441
 20
1262.724791605104
 30
0.0
 10
333.8502057171572
 20
1262.602552848772
 30
0.0
 10
334.4602129672943
 20
1262.312042816802
 30
0.0
 10
334.9830062893024
 20
1262.09601259569
 30
0.0
 10
335.612861322645
 20
1261.756896049136
 30
0.0
 10
336.3222354206014
 20
1261.318849271324
 30
0.0
 10
337.1108654334625
 20
1260.631319621766
 30
0.0
 10
337.7888648390281
 20
1259.999327811789
 30
0.0
 10
338.5509271970084
 20
1259.214519692071
 30
0.0
 10
339.287658425455
 20
1258.276176541126
 30
0.0
 10
340.1867114185138
 20
1256.986964442855
 30
0.0
 10
341.0195697087238
 20
1255.584176810389
 30
0.0
 10
341.8657612052637
 20
1253.996034132236
 30
0.0
 10
342.59697342118
 20
1252.483544940783
 30
0.0
 10
343.3797005176042
 20
1250.737981958203
 30
0.0
 10
344.2120416396908
 20
1248.724374636404
 30
0.0
 10
345.0990755967043
 20
1246.473002193191
 30
0.0
 10
345.9085311271443
 20
1244.345884658216
 30
0.0
 10
346.7033720372583
 20
1242.241577564273
 30
0.0
 10
347.549567500695
 20
1240.008167741055
 30
0.0
 10
348.5471613680832
 20
1237.431101785988
 30
0.0
 10
349.7701436062794
 20
1234.390580114179
 30
0.0
 10
351.7122433851641
 20
1229.850417205518
 30
0.0
 10
354.4992547555449
 20
1224.111730263279
 30
0.0
 10
357.7595115945118
 20
1218.569345884363
 30
0.0
 10
361.0057832355376
 20
1213.858625540754
 30
0.0
 10
364.0869926387783
 20
1209.96529680694
 30
0.0
 10
367.4827632140709
 20
1206.316543623007
 30
0.0
 10
372.0571032826409
 20
1202.056637718637
 30
0.0
 10
377.5742196695825
 20
1197.969354328081
 30
0.0
 10
384.5609952448351
 20
1194.106632457378
 30
0.0
 10
391.2032863862387
 20
1191.266599290826
 30
0.0
 10
398.0159829052928
 20
1189.004097709933
 30
0.0
 10
403.2837659122571
 20
1187.597464335159
 30
0.0
 10
408.0806907680795
 20
1186.475521115699
 30
0.0
 10
412.3064352691754
 20
1185.584170332506
 30
0.0
 10
417.7581901495711
 20
1184.576254144841
 30
0.0
 10
424.0430549093541
 20
1183.54019772081
 30
0.0
 10
431.2655417830437
 20
1182.505635953822
 30
0.0
 10
440.5066426353461
 20
1181.321318165401
 30
0.0
 10
449.593841546695
 20
1180.287633373336
 30
0.0
 10
461.1383402965793
 20
1179.06907999317
 30
0.0
 10
475.0958649486827
 20
1177.692498901112
 30
0.0
 10
490.1767825998014
 20
1176.289229829219
 30
0.0
 10
504.5531404408501
 20
1175.018778501658
 30
0.0
 10
515.9164238838288
 20
1174.07282041864
 30
0.0
 10
525.444351029569
 20
1173.382081901702
 30
0.0
 10
531.1054801000496
 20
1173.068478886748
 30
0.0
 10
533.4627239624318
 20
1172.968844657627
 30
0.0
 10
534.2383401348118
 20
1172.880589204128
 30
0.0
 10
534.7674672906239
 20
1172.794235483466
 30
0.0
 10
535.2616238323141
 20
1172.676052195648
 30
0.0
 10
535.7549956358512
 20
1172.534795716496
 30
0.0
 10
536.1958930566133
 20
1172.334554021135
 30
0.0
 10
536.6497140360588
 20
1172.101443766461
 30
0.0
 10
537.0883443982287
 20
1171.806795961752
 30
0.0
 10
537.4776140881521
 20
1171.454470799541
 30
0.0
 10
538.0960762027901
 20
1170.843592861218
 30
0.0
 10
538.6753894741131
 20
1169.998783942468
 30
0.0
 10
539.2526695430599
 20
1169.019973562039
 30
0.0
 10
539.6495489158958
 20
1168.314605023771
 30
0.0
 10
540.0288903146804
 20
1167.792260484322
 30
0.0
 10
540.4170538814212
 20
1167.352833416306
 30
0.0
 10
540.8539727989746
 20
1166.959209196527
 30
0.0
 10
541.5366494978515
 20
1166.396074277842
 30
0.0
 10
542.9728957568417
 20
1165.182647616305
 30
0.0
 10
545.2537004631564
 20
1163.273888244581
 30
0.0
 10
548.0687839642808
 20
1160.911283308624
 30
0.0
 10
550.9561135363184
 20
1158.483837516491
 30
0.0
 10
553.1726856652751
 20
1156.639078188735
 30
0.0
 10
554.6128070694383
 20
1155.409800394891
 30
0.0
 10
555.1671018935109
 20
1154.969839486934
 30
0.0
 10
555.452084972975
 20
1154.681633210662
 30
0.0
 10
555.601438407569
 20
1154.499799035504
 30
0.0
 10
555.7490852267663
 20
1154.29039346046
 30
0.0
 10
555.9052948530699
 20
1154.023700147391
 30
0.0
 10
556.047398207889
 20
1153.69388176324
 30
0.0
 10
556.1450998136784
 20
1153.353949190503
 30
0.0
 10
556.2013890198232
 20
1153.039517619483
 30
0.0
 10
556.2193229834444
 20
1152.740482126329
 30
0.0
 10
556.2224184847804
 20
1152.351978571196
 30
0.0
 10
556.2306286894083
 20
1151.971209256525
 30
0.0
 10
556.2383375715079
 20
1151.512571021588
 30
0.0
 10
556.2473575277213
 20
1151.002393668253
 30
0.0
 10
556.2587954686246
 20
1150.344249413652
 30
0.0
 10
556.2721732468165
 20
1149.57900185856
 30
0.0
 10
556.28550625618
 20
1148.813716641629
 30
0.0
 10
556.2972427005861
 20
1148.144896332761
 30
0.0
 10
556.3076855366305
 20
1147.537460341336
 30
0.0
 10
556.3458563262617
 20
1145.505234775953
 30
0.0
 10
556.3310462856775
 20
1143.622641738182
 30
0.0
 10
556.3179285744422
 20
1141.955170828668
 30
0.0
 11
331.3395202065366
 21
1262.995574286913
 31
0.0
 11
332.2809419302355
 21
1262.917530683396
 31
0.0
 11
332.6098438823246
 21
1262.890264801488
 31
0.0
 11
333.1355178701051
 21
1262.754695493421
 31
0.0
 11
333.8195368776644
 21
1262.57828961123
 31
0.0
 11
334.5346128286851
 21
1262.285473833623
 31
0.0
 11
335.0231571921779
 21
1262.068053267931
 31
0.0
 11
335.3683144937089
 21
1261.886431859705
 31
0.0
 11
336.3954008197447
 21
1261.228324889512
 31
0.0
 11
337.0693156551198
 21
1260.661582494264
 31
0.0
 11
337.8226956462394
 21
1259.955047285693
 31
0.0
 11
338.4236416183362
 21
1259.328738194622
 31
0.0
 11
339.2872356987637
 21
1258.255258722921
 31
0.0
 11
340.0458873333414
 21
1257.166388613618
 31
0.0
 11
341.081885861291
 21
1255.445019849277
 31
0.0
 11
341.8131002307885
 21
1254.075077345321
 31
0.0
 11
342.6155671233803
 21
1252.423764178018
 31
0.0
 11
343.2911264454006
 21
1250.91871652161
 31
0.0
 11
344.1582379774801
 21
1248.839448100798
 31
0.0
 11
345.1258060153571
 21
1246.390421797091
 31
0.0
 11
345.9729406531719
 21
1244.173523885473
 31
0.0
 11
346.6173265616796
 21
1242.470104723521
 31
0.0
 11
347.5244021272758
 21
1240.082823238577
 31
0.0
 11
348.5338541694857
 21
1237.481873284751
 31
0.0
 11
349.6355284748048
 21
1234.749240012096
 31
0.0
 11
351.250911214655
 21
1230.986299345398
 31
0.0
 11
354.6688697431093
 21
1224.006728369207
 31
0.0
 11
358.3615472534784
 21
1217.761555935958
 31
0.0
 11
360.7689726671547
 21
1214.27275217556
 31
0.0
 11
364.2895888566136
 21
1209.838795652379
 31
0.0
 11
367.6818562439892
 21
1206.195997753617
 31
0.0
 11
370.8296075619478
 21
1203.26855208642
 31
0.0
 11
378.4360143043432
 21
1197.634607536194
 31
0.0
 11
384.3232218154726
 21
1194.358934838429
 31
0.0
 11
391.4019757637868
 21
1191.302254994449
 31
0.0
 11
398.216536953114
 21
1189.015942734399
 31
0.0
 11
404.6095834574003
 21
1187.294896428318
 31
0.0
 11
407.0835340946082
 21
1186.71467069485
 31
0.0
 11
412.5792247006756
 21
1185.55250924549
 31
0.0
 11
417.2941331463505
 21
1184.675805399797
 31
0.0
 11
423.429260839991
 21
1183.660646974985
 31
0.0
 11
431.4392763272672
 21
1182.501599895511
 31
0.0
 11
438.952427993259
 21
1181.534291758717
 31
0.0
 11
451.152846330232
 21
1180.130932797179
 31
0.0
 11
458.6910940687401
 21
1179.333249613127
 31
0.0
 11
473.5824406268468
 21
1177.853779585803
 31
0.0
 11
493.0286427339506
 21
1176.043310434505
 31
0.0
 11
503.9295134889726
 21
1175.082465168327
 31
0.0
 11
516.7097447063998
 21
1174.032044406122
 31
0.0
 11
527.1261148604249
 21
1173.299351047966
 31
0.0
 11
532.5077313681946
 21
1173.010137643618
 31
0.0
 11
533.6871260175324
 21
1172.939727805647
 31
0.0
 11
534.1871635058826
 21
1172.882858569054
 31
0.0
 11
534.8344640058033
 21
1172.773682708866
 31
0.0
 11
535.2694317632354
 21
1172.670700183871
 31
0.0
 11
535.672333778456
 21
1172.550171391069
 31
0.0
 11
536.2875433421568
 21
1172.285223500525
 31
0.0
 11
536.6037479682318
 21
1172.118535957248
 31
0.0
 11
537.0221333116406
 21
1171.839307093354
 31
0.0
 11
537.5640718704677
 21
1171.366731741052
 31
0.0
 11
537.8110937643769
 21
1171.119283746965
 31
0.0
 11
538.7290226669257
 21
1169.885392088973
 31
0.0
 11
539.323035412273
 21
1168.89110618412
 31
0.0
 11
539.6909946332157
 21
1168.273026122566
 31
0.0
 11
540.0115277043452
 21
1167.829527282554
 31
0.0
 11
540.4549767721219
 21
1167.331029490968
 31
0.0
 11
540.8527860888229
 21
1166.965487257628
 31
0.0
 11
541.2778925561463
 21
1166.608780577689
 31
0.0
 11
542.4728416216636
 21
1165.606099257537
 31
0.0
 11
545.1735629913222
 21
1163.339924952344
 31
0.0
 11
548.112969586652
 21
1160.873469962322
 31
0.0
 11
550.9186327328247
 21
1158.519239051161
 31
0.0
 11
553.8428973288088
 21
1156.065489707206
 31
0.0
 11
554.7390786696119
 21
1155.31350427467
 31
0.0
 11
555.2685688723832
 21
1154.863335836691
 31
0.0
 11
555.446932691811
 21
1154.681383874209
 31
0.0
 11
555.615140168131
 21
1154.477113842804
 31
0.0
 11
555.7219836238819
 21
1154.325499600144
 31
0.0
 11
555.8828211396287
 21
1154.050954752695
 31
0.0
 11
556.0496350856674
 21
1153.663520355735
 31
0.0
 11
556.14200933164
 21
1153.343061936384
 31
0.0
 11
556.1947384020074
 21
1153.043813221078
 31
0.0
 11
556.2172401704623
 21
1152.725674929357
 31
0.0
 11
556.2220311486367
 21
1152.451199973547
 31
0.0
 11
556.2320177540468
 21
1151.879067732786
 31
0.0
 11
556.2371793703261
 21
1151.583358934191
 31
0.0
 11
556.2460478024731
 21
1151.075286796765
 31
0.0
 11
556.258733300921
 21
1150.348535077415
 31
0.0
 11
556.2716432174682
 21
1149.608926453778
 31
0.0
 11
556.2861201434764
 21
1148.779543918233
 31
0.0
 11
556.2988076005406
 21
1148.052679989834
 31
0.0
 11
556.3066661512418
 21
1147.602463921698
 31
0.0
 11
556.3179285744422
 21
1146.957240128671
 31
0.0
 11
556.3179285744422
 21
1141.955170828668
 31
0.0
  0
SPLINE
  5
14114
330
A
100
AcDbEntity
  8
HIDDEN
 48
0.5
100
AcDbSpline
210
0.0
220
0.0
230
1.0
 70
  1064
 71
     3
 72
   100
 73
    96
 74
    94
 42
0.000000001
 43
0.0000000001
 44
0.0
 40
0.0
 40
0.0
 40
0.0
 40
0.0
 40
0.9446510815650041
 40
1.274681265645615
 40
1.817555264579797
 40
2.523955319770881
 40
3.296661405772412
 40
3.831401807730606
 40
4.221427318083542
 40
5.441267924616525
 40
6.321812158548008
 40
7.354659394091509
 40
8.2226450730848
 40
9.600379776107344
 40
10.92747827191738
 40
12.93655850246127
 40
14.48943226368752
 40
16.32540293072287
 40
17.97511467694646
 40
20.22794391478284
 40
22.86117723983598
 40
25.23441836646464
 40
27.05564598551417
 40
29.60944687243898
 40
32.39941713891669
 40
35.34576587554334
 40
39.44078527199245
 40
47.2123264006183
 40
54.46753459312367
 40
58.70633734873541
 40
64.36802515388146
 40
69.34572086160387
 40
73.64435744709239
 40
83.11001932177288
 40
89.8471733130352
 40
97.55768880354344
 40
104.7455583038571
 40
111.3662111412774
 40
113.9072923397282
 40
119.524518921592
 40
124.320243192664
 40
130.5387911296619
 40
138.632229103653
 40
146.2073946455869
 40
158.4882587834266
 40
166.0685936988008
 40
181.0332531962765
 40
200.5635520915348
 40
211.5066872384308
 40
224.3300133962017
 40
234.7721207861279
 40
240.1615029983999
 40
241.3429975113663
 40
241.8462584772938
 40
242.5027013960958
 40
242.9496939580696
 40
243.3702379198182
 40
244.0400738638915
 40
244.397523304561
 40
244.9005293224284
 40
245.6195737335373
 40
245.969216874251
 40
247.5070992149379
 40
248.6653114589694
 40
249.3846284619432
 40
249.9318328760151
 40
250.5990263441547
 40
251.1392794115309
 40
251.6942164927151
 40
253.2541117132227
 40
256.7796530756303
 40
260.6167758714857
 40
264.2793089939103
 40
268.0966653134442
 40
269.2665469682923
 40
269.9615372541116
 40
270.2163316196929
 40
270.4809445460969
 40
270.6664233929075
 40
270.9846113558043
 40
271.4064315835562
 40
271.7399381050097
 40
272.0437968690335
 40
272.3627299376275
 40
272.6372467036704
 40
273.2094660962165
 40
273.5052199395545
 40
274.0133694706152
 40
274.7402318946332
 40
275.4799531814051
 40
276.3094620551693
 40
277.0364367053288
 40
277.4867213539977
 40
278.132043432703
 40
283.1341127327059
 40
283.1341127327059
 40
283.1341127327059
 40
283.1341127327059
 10
825.3144806260489
 20
1262.995574286913
 30
0.0
 10
825.0014261104527
 20
1262.965288953017
 30
0.0
 10
824.5790005885397
 20
1262.924422914229
 30
0.0
 10
823.9708054728571
 20
1262.899416616834
 30
0.0
 10
823.4692824720416
 20
1262.724791605104
 30
0.0
 10
822.8037951154283
 20
1262.602552848772
 30
0.0
 10
822.193787865291
 20
1262.312042816802
 30
0.0
 10
821.6709945432833
 20
1262.09601259569
 30
0.0
 10
821.0411395099405
 20
1261.756896049136
 30
0.0
 10
820.3317654119842
 20
1261.318849271325
 30
0.0
 10
819.543135399123
 20
1260.631319621766
 30
0.0
 10
818.8651359935575
 20
1259.999327811789
 30
0.0
 10
818.1030736355772
 20
1259.214519692071
 30
0.0
 10
817.3663424071307
 20
1258.276176541126
 30
0.0
 10
816.4672894140716
 20
1256.986964442855
 30
0.0
 10
815.6344311238618
 20
1255.584176810389
 30
0.0
 10
814.7882396273218
 20
1253.996034132236
 30
0.0
 10
814.0570274114054
 20
1252.483544940783
 30
0.0
 10
813.2743003149812
 20
1250.737981958203
 30
0.0
 10
812.4419591928946
 20
1248.724374636403
 30
0.0
 10
811.5549252358815
 20
1246.473002193191
 30
0.0
 10
810.7454697054411
 20
1244.345884658215
 30
0.0
 10
809.9506287953275
 20
1242.241577564274
 30
0.0
 10
809.1044333318904
 20
1240.008167741055
 30
0.0
 10
808.1068394645025
 20
1237.431101785988
 30
0.0
 10
806.8838572263061
 20
1234.390580114178
 30
0.0
 10
804.9417574474215
 20
1229.850417205518
 30
0.0
 10
802.1547460770407
 20
1224.111730263279
 30
0.0
 10
798.8944892380737
 20
1218.569345884363
 30
0.0
 10
795.648217597048
 20
1213.858625540754
 30
0.0
 10
792.5670081938072
 20
1209.96529680694
 30
0.0
 10
789.1712376185147
 20
1206.316543623007
 30
0.0
 10
784.5968975499445
 20
1202.056637718637
 30
0.0
 10
779.0797811630032
 20
1197.96935432808
 30
0.0
 10
772.0930055877506
 20
1194.106632457378
 30
0.0
 10
765.4507144463469
 20
1191.266599290826
 30
0.0
 10
758.6380179272926
 20
1189.004097709932
 30
0.0
 10
753.3702349203287
 20
1187.59746433516
 30
0.0
 10
748.5733100645059
 20
1186.475521115699
 30
0.0
 10
744.3475655634102
 20
1185.584170332507
 30
0.0
 10
738.8958106830144
 20
1184.57625414484
 30
0.0
 10
732.6109459232316
 20
1183.540197720811
 30
0.0
 10
725.3884590495416
 20
1182.505635953822
 30
0.0
 10
716.1473581972398
 20
1181.321318165401
 30
0.0
 10
707.0601592858907
 20
1180.287633373336
 30
0.0
 10
695.5156605360062
 20
1179.069079993171
 30
0.0
 10
681.5581358839027
 20
1177.692498901111
 30
0.0
 10
666.477218232784
 20
1176.289229829219
 30
0.0
 10
652.1008603917355
 20
1175.018778501658
 30
0.0
 10
640.7375769487567
 20
1174.07282041864
 30
0.0
 10
631.2096498030169
 20
1173.382081901702
 30
0.0
 10
625.5485207325357
 20
1173.068478886748
 30
0.0
 10
623.1912768701536
 20
1172.968844657627
 30
0.0
 10
622.4156606977739
 20
1172.880589204128
 30
0.0
 10
621.8865335419617
 20
1172.794235483466
 30
0.0
 10
621.3923770002712
 20
1172.676052195648
 30
0.0
 10
620.8990051967344
 20
1172.534795716496
 30
0.0
 10
620.4581077759722
 20
1172.334554021135
 30
0.0
 10
620.0042867965267
 20
1172.101443766461
 30
0.0
 10
619.5656564343569
 20
1171.806795961752
 30
0.0
 10
619.1763867444334
 20
1171.454470799541
 30
0.0
 10
618.5579246297956
 20
1170.843592861218
 30
0.0
 10
617.9786113584721
 20
1169.998783942468
 30
0.0
 10
617.4013312895261
 20
1169.019973562039
 30
0.0
 10
617.0044519166893
 20
1168.314605023771
 30
0.0
 10
616.6251105179052
 20
1167.792260484322
 30
0.0
 10
616.2369469511641
 20
1167.352833416306
 30
0.0
 10
615.8000280336112
 20
1166.959209196527
 30
0.0
 10
615.1173513347339
 20
1166.396074277842
 30
0.0
 10
613.6811050757441
 20
1165.182647616305
 30
0.0
 10
611.4003003694291
 20
1163.273888244581
 30
0.0
 10
608.5852168683048
 20
1160.911283308624
 30
0.0
 10
605.697887296267
 20
1158.483837516491
 30
0.0
 10
603.4813151673111
 20
1156.639078188735
 30
0.0
 10
602.0411937631468
 20
1155.409800394891
 30
0.0
 10
601.4868989390752
 20
1154.969839486934
 30
0.0
 10
601.2019158596104
 20
1154.681633210662
 30
0.0
 10
601.0525624250167
 20
1154.499799035504
 30
0.0
 10
600.9049156058192
 20
1154.29039346046
 30
0.0
 10
600.7487059795155
 20
1154.023700147391
 30
0.0
 10
600.6066026246966
 20
1153.69388176324
 30
0.0
 10
600.5089010189071
 20
1153.353949190503
 30
0.0
 10
600.4526118127626
 20
1153.039517619483
 30
0.0
 10
600.4346778491412
 20
1152.740482126329
 30
0.0
 10
600.431582347805
 20
1152.351978571196
 30
0.0
 10
600.4233721431774
 20
1151.971209256525
 30
0.0
 10
600.4156632610778
 20
1151.512571021588
 30
0.0
 10
600.4066433048645
 20
1151.002393668253
 30
0.0
 10
600.3952053639609
 20
1150.344249413652
 30
0.0
 10
600.3818275857689
 20
1149.57900185856
 30
0.0
 10
600.3684945764054
 20
1148.813716641629
 30
0.0
 10
600.3567581319995
 20
1148.144896332761
 30
0.0
 10
600.3463152959552
 20
1147.537460341336
 30
0.0
 10
600.3081445063243
 20
1145.505234775953
 30
0.0
 10
600.3229545469084
 20
1143.622641738182
 30
0.0
 10
600.3360722581433
 20
1141.955170828668
 30
0.0
 11
825.3144806260489
 21
1262.995574286913
 31
0.0
 11
824.3730589023501
 21
1262.917530683396
 31
0.0
 11
824.0441569502609
 21
1262.890264801488
 31
0.0
 11
823.5184829624804
 21
1262.754695493421
 31
0.0
 11
822.8344639549211
 21
1262.57828961123
 31
0.0
 11
822.1193880039004
 21
1262.285473833623
 31
0.0
 11
821.6308436404076
 21
1262.068053267931
 31
0.0
 11
821.2856863388768
 21
1261.886431859705
 31
0.0
 11
820.2586000128408
 21
1261.228324889512
 31
0.0
 11
819.5846851774658
 21
1260.661582494264
 31
0.0
 11
818.8313051863462
 21
1259.955047285693
 31
0.0
 11
818.2303592142493
 21
1259.328738194622
 31
0.0
 11
817.3667651338219
 21
1258.255258722921
 31
0.0
 11
816.6081134992442
 21
1257.166388613618
 31
0.0
 11
815.5721149712946
 21
1255.445019849277
 31
0.0
 11
814.8409006017971
 21
1254.075077345321
 31
0.0
 11
814.0384337092053
 21
1252.423764178018
 31
0.0
 11
813.362874387185
 21
1250.91871652161
 31
0.0
 11
812.4957628551055
 21
1248.839448100798
 31
0.0
 11
811.5281948172285
 21
1246.390421797091
 31
0.0
 11
810.6810601794136
 21
1244.173523885473
 31
0.0
 11
810.0366742709059
 21
1242.470104723521
 31
0.0
 11
809.1295987053097
 21
1240.082823238577
 31
0.0
 11
808.1201466630998
 21
1237.481873284751
 31
0.0
 11
807.0184723577808
 21
1234.749240012096
 31
0.0
 11
805.4030896179306
 21
1230.986299345398
 31
0.0
 11
801.9851310894762
 21
1224.006728369207
 31
0.0
 11
798.2924535791071
 21
1217.761555935958
 31
0.0
 11
795.8850281654309
 21
1214.27275217556
 31
0.0
 11
792.364411975972
 21
1209.838795652379
 31
0.0
 11
788.9721445885964
 21
1206.195997753617
 31
0.0
 11
785.8243932706378
 21
1203.26855208642
 31
0.0
 11
778.2179865282424
 21
1197.634607536194
 31
0.0
 11
772.330779017113
 21
1194.358934838429
 31
0.0
 11
765.2520250687987
 21
1191.302254994449
 31
0.0
 11
758.4374638794716
 21
1189.015942734399
 31
0.0
 11
752.0444173751853
 21
1187.294896428318
 31
0.0
 11
749.5704667379773
 21
1186.71467069485
 31
0.0
 11
744.0747761319099
 21
1185.55250924549
 31
0.0
 11
739.359867686235
 21
1184.675805399797
 31
0.0
 11
733.2247399925946
 21
1183.660646974985
 31
0.0
 11
725.2147245053184
 21
1182.501599895511
 31
0.0
 11
717.7015728393266
 21
1181.534291758717
 31
0.0
 11
705.5011545023535
 21
1180.130932797179
 31
0.0
 11
697.9629067638455
 21
1179.333249613127
 31
0.0
 11
683.0715602057387
 21
1177.853779585803
 31
0.0
 11
663.6253580986349
 21
1176.043310434505
 31
0.0
 11
652.724487343613
 21
1175.082465168327
 31
0.0
 11
639.9442561261858
 21
1174.032044406122
 31
0.0
 11
629.5278859721607
 21
1173.299351047966
 31
0.0
 11
624.1462694643909
 21
1173.010137643618
 31
0.0
 11
622.9668748150532
 21
1172.939727805647
 31
0.0
 11
622.466837326703
 21
1172.882858569054
 31
0.0
 11
621.8195368267823
 21
1172.773682708866
 31
0.0
 11
621.3845690693502
 21
1172.670700183871
 31
0.0
 11
620.9816670541295
 21
1172.550171391069
 31
0.0
 11
620.3664574904287
 21
1172.285223500525
 31
0.0
 11
620.0502528643538
 21
1172.118535957248
 31
0.0
 11
619.631867520945
 21
1171.839307093354
 31
0.0
 11
619.0899289621178
 21
1171.366731741052
 31
0.0
 11
618.8429070682087
 21
1171.119283746965
 31
0.0
 11
617.9249781656598
 21
1169.885392088973
 31
0.0
 11
617.3309654203125
 21
1168.89110618412
 31
0.0
 11
616.9630061993698
 21
1168.273026122566
 31
0.0
 11
616.6424731282403
 21
1167.829527282554
 31
0.0
 11
616.1990240604637
 21
1167.331029490968
 31
0.0
 11
615.8012147437627
 21
1166.965487257628
 31
0.0
 11
615.3761082764393
 21
1166.608780577689
 31
0.0
 11
614.1811592109219
 21
1165.606099257537
 31
0.0
 11
611.4804378412633
 21
1163.339924952344
 31
0.0
 11
608.5410312459336
 21
1160.873469962322
 31
0.0
 11
605.7353680997609
 21
1158.519239051161
 31
0.0
 11
602.8111035037767
 21
1156.065489707206
 31
0.0
 11
601.9149221629737
 21
1155.31350427467
 31
0.0
 11
601.3854319602024
 21
1154.863335836691
 31
0.0
 11
601.2070681407746
 21
1154.681383874209
 31
0.0
 11
601.0388606644545
 21
1154.477113842804
 31
0.0
 11
600.9320172087037
 21
1154.325499600144
 31
0.0
 11
600.7711796929568
 21
1154.050954752695
 31
0.0
 11
600.6043657469181
 21
1153.663520355735
 31
0.0
 11
600.5119915009456
 21
1153.343061936384
 31
0.0
 11
600.4592624305782
 21
1153.043813221078
 31
0.0
 11
600.4367606621232
 21
1152.725674929357
 31
0.0
 11
600.4319696839489
 21
1152.451199973547
 31
0.0
 11
600.4219830785388
 21
1151.879067732786
 31
0.0
 11
600.4168214622595
 21
1151.583358934191
 31
0.0
 11
600.4079530301125
 21
1151.075286796765
 31
0.0
 11
600.3952675316646
 21
1150.348535077415
 31
0.0
 11
600.3823576151174
 21
1149.608926453778
 31
0.0
 11
600.3678806891091
 21
1148.779543918233
 31
0.0
 11
600.3551932320449
 21
1148.052679989834
 31
0.0
 11
600.3473346813438
 21
1147.602463921698
 31
0.0
 11
600.3360722581433
 21
1146.957240128671
 31
0.0
 11
600.3360722581433
 21
1141.955170828668
 31
0.0
  0
LWPOLYLINE
  5
14115
102
{ACAD_REACTORS
330
141F4
102
}
330
A
100
AcDbEntity
  8
MODEL
100
AcDbPolyline
 90
        9
 70
     0
 43
0.0
 10
333.8690909542847
 20
1170.466915240112
 10
333.3982547921441
 20
1170.947826355797
 10
332.9118482472536
 20
1171.481554652166
 10
332.4348449923414
 20
1172.080434314766
 10
332.0083996861017
 20
1172.750998798317
 10
331.6761094002277
 20
1173.485371320961
 10
331.4545214826435
 20
1174.260776381662
 10
331.3273328267287
 20
1175.055354384254
 10
331.2632805463459
 20
1175.969183200575
  0
SPLINE
  5
1413B
330
A
100
AcDbEntity
  8
HIDDEN
 48
0.5
100
AcDbSpline
210
0.0
220
0.0
230
1.0
 70
  1064
 71
     3
 72
    93
 73
    89
 74
    87
 42
0.000000001
 43
0.0000000001
 44
0.0
 40
0.0
 40
0.0
 40
0.0
 40
0.0
 40
1.259933918613767
 40
1.830698470483758
 40
2.541900120343621
 40
2.934667392949848
 40
3.364679948356856
 40
3.925589383690342
 40
4.401010030311459
 40
4.930489821723823
 40
5.589065605785418
 40
6.032909770281442
 40
6.600044139824589
 40
7.27489977172852
 40
8.067284707233032
 40
8.653588683306205
 40
9.790375033598714
 40
10.63508542847068
 40
12.02277138963081
 40
13.1104754570992
 40
14.57965812952044
 40
16.38721454093502
 40
17.80787731738923
 40
19.52271517456268
 40
22.30403722555804
 40
25.66678553652795
 40
30.06375269736515
 40
34.45866168545237
 40
42.50379352224883
 40
49.06899695071772
 40
57.78340615581141
 40
64.28650300308047
 40
69.3138066491649
 40
75.01178818524616
 40
82.73657454300893
 40
87.57078059543612
 40
95.01221982512125
 40
101.5806236781547
 40
113.4796447531273
 40
124.7022096344893
 40
138.0969944667126
 40
153.9480074135019
 40
174.1081905414375
 40
180.2315821817729
 40
182.4199256233823
 40
182.9224723205417
 40
183.4715690781761
 40
184.0135746508934
 40
184.4865880746528
 40
184.910767019011
 40
185.8902017431926
 40
186.4960506402281
 40
187.1774737188806
 40
187.8729913962206
 40
188.5205069241943
 40
189.1337893082712
 40
189.7550634913489
 40
190.6575647323552
 40
191.1357042943061
 40
191.6960284853428
 40
192.5979044858339
 40
192.7570074047237
 40
193.4943663294894
 40
194.2000340750871
 40
196.12582754718
 40
197.7146687618537
 40
199.7731823975385
 40
201.6716273352378
 40
204.594675820627
 40
208.0691189631296
 40
210.3581306413876
 40
211.4059566544842
 40
211.8062669994234
 40
212.1921762700625
 40
212.6722236372492
 40
213.1696648300296
 40
213.58459722384
 40
214.0862611536413
 40
214.2977621970892
 40
214.4520329397575
 40
214.715738409861
 40
215.2361409894514
 40
215.8030954391812
 40
216.2606379297726
 40
216.5385879144375
 40
217.4285603082639
 40
220.2213464348231
 40
225.2234167861841
 40
225.2234167861841
 40
225.2234167861841
 40
225.2234167861841
 10
1298.935390686551
 20
1263.005070127996
 30
0.0000000000000087
 10
1299.355731159185
 20
1262.987180600035
 30
0.0000000000000087
 10
1299.966490699003
 20
1262.961186910213
 30
0.0000000000000087
 10
1300.800333278133
 20
1262.797569216791
 30
0.0000000000000087
 10
1301.331601221038
 20
1262.628355359553
 30
0.0000000000000087
 10
1301.836804423107
 20
1262.526458600026
 30
0.0000000000000087
 10
1302.239662043719
 20
1262.292856970183
 30
0.0000000000000087
 10
1302.677449180647
 20
1262.079618882788
 30
0.0000000000000087
 10
1303.159808219326
 20
1261.871328419138
 30
0.0000000000000087
 10
1303.590700450244
 20
1261.516283785629
 30
0.0000000000000087
 10
1304.040979458144
 20
1261.21241185499
 30
0.0000000000000087
 10
1304.479423546449
 20
1260.867747604826
 30
0.0000000000000087
 10
1304.874610484599
 20
1260.467555530609
 30
0.0000000000000087
 10
1305.386988379487
 20
1260.021121635692
 30
0.0000000000000087
 10
1305.819048113767
 20
1259.48779035937
 30
0.0000000000000087
 10
1306.381279892139
 20
1258.865610629387
 30
0.0000000000000087
 10
1306.884747483278
 20
1258.171536297827
 30
0.0000000000000087
 10
1307.537885811213
 20
1257.258250194643
 30
0.0000000000000087
 10
1308.133246349835
 20
1256.324466416768
 30
0.0000000000000087
 10
1308.807296379058
 20
1255.19547877925
 30
0.0000000000000087
 10
1309.507144452676
 20
1253.91960608362
 30
0.0000000000000087
 10
1310.215327817009
 20
1252.522887611819
 30
0.0000000000000087
 10
1310.927820124075
 20
1251.037099705566
 30
0.0000000000000087
 10
1311.740888471066
 20
1249.240066543737
 30
0.0000000000000087
 10
1312.772658445979
 20
1246.831950154882
 30
0.0000000000000087
 10
1314.091344387224
 20
1243.574947331793
 30
0.0000000000000087
 10
1315.567130205386
 20
1239.80168968827
 30
0.0000000000000087
 10
1317.61006341417
 20
1234.574585276525
 30
0.0000000000000087
 10
1320.00413212116
 20
1228.707356918209
 30
0.0000000000000087
 10
1323.298824516459
 20
1221.661632686418
 30
0.0000000000000087
 10
1326.865414824622
 20
1215.321763193188
 30
0.0000000000000087
 10
1330.76420868904
 20
1209.800285763443
 30
0.0000000000000087
 10
1334.502564477527
 20
1205.432517369977
 30
0.0000000000000087
 10
1338.897310253823
 20
1201.118513155165
 30
0.0000000000000087
 10
1343.696391569868
 20
1197.347339437506
 30
0.0000000000000087
 10
1349.322130716884
 20
1193.761998629684
 30
0.0000000000000087
 10
1354.889399725216
 20
1190.830543984494
 30
0.0000000000000087
 10
1362.844966170732
 20
1187.453465426336
 30
0.0000000000000087
 10
1372.278691771761
 20
1184.404698388378
 30
0.0000000000000087
 10
1384.119051105626
 20
1181.555193541309
 30
0.0000000000000087
 10
1397.39553105718
 20
1179.136261023947
 30
0.0000000000000087
 10
1413.700579703162
 20
1176.807338282581
 30
0.0000000000000087
 10
1427.643186944322
 20
1175.111068150426
 30
0.0000000000000087
 10
1437.052312587335
 20
1173.872944819153
 30
0.0000000000000087
 10
1439.968135558562
 20
1173.508783487787
 30
0.0000000000000087
 10
1441.036165373394
 20
1173.349104487075
 30
0.0000000000000087
 10
1441.562156869742
 20
1173.272948816124
 30
0.0000000000000087
 10
1442.070945227112
 20
1173.1572757805
 30
0.0000000000000087
 10
1442.534642070788
 20
1173.033869609637
 30
0.0000000000000087
 10
1443.131554676961
 20
1172.846737141896
 30
0.0000000000000087
 10
1443.751776479439
 20
1172.583929101787
 30
0.0000000000000087
 10
1444.393621149254
 20
1172.182140770086
 30
0.0000000000000087
 10
1444.911097208218
 20
1171.76865066158
 30
0.0000000000000087
 10
1445.390082425565
 20
1171.291508671607
 30
0.0000000000000087
 10
1445.806126688267
 20
1170.788385271196
 30
0.0000000000000088
 10
1446.170223294351
 20
1170.276978181186
 30
0.0000000000000082
 10
1446.550540610051
 20
1169.674442781649
 30
0.000000000000011
 10
1446.890721776011
 20
1169.100248197672
 30
-0.0000000000000017
 10
1447.20871972096
 20
1168.536817673435
 30
0.0000000000000004
 10
1447.553522882353
 20
1167.988853998501
 30
-0.0000000000000002
 10
1447.901941236306
 20
1167.572138905954
 30
0.0
 10
1448.323223114218
 20
1167.145614758793
 30
0.0
 10
1448.733221407151
 20
1166.802036075176
 30
0.0
 10
1449.593008018683
 20
1166.08037075561
 30
0.0
 10
1450.670904913627
 20
1165.176034045212
 30
0.0
 10
1452.093921516357
 20
1163.981941439858
 30
0.0
 10
1453.510058756674
 20
1162.79368165937
 30
0.0
 10
1455.266832490231
 20
1161.319533470176
 30
0.0
 10
1457.38528622911
 20
1159.542162900998
 30
0.0
 10
1459.602956412369
 20
1157.680393056949
 30
0.0
 10
1461.343123546456
 20
1156.22228176304
 30
0.0
 10
1462.296090816177
 20
1155.419715482637
 30
0.0
 10
1462.766042596909
 20
1155.029040365177
 30
0.0
 10
1463.084722498517
 20
1154.751181663867
 30
0.0
 10
1463.374084504257
 20
1154.397492561235
 30
0.0
 10
1463.609449309884
 20
1153.995195522858
 30
0.0
 10
1463.782969591068
 20
1153.555377832756
 30
0.0
 10
1463.866290454724
 20
1153.186719039558
 30
0.0
 10
1463.896891665536
 20
1152.898966484302
 30
0.0
 10
1463.904555445554
 20
1152.689209821906
 30
0.0
 10
1463.908036596876
 20
1152.376446178906
 30
0.0
 10
1463.916995471122
 20
1151.926170802479
 30
0.0
 10
1463.92561999408
 20
1151.411279358693
 30
0.0
 10
1463.933262926992
 20
1150.977197124201
 30
0.0
 10
1463.942737446115
 20
1150.435458175467
 30
0.0
 10
1463.965010266036
 20
1149.115416387486
 30
0.0
 10
1464.029143813483
 20
1146.221033107392
 30
0.0
 10
1464.013480726372
 20
1143.622610926975
 30
0.0
 10
1464.00342950043
 20
1141.955166428696
 30
0.0
 11
1298.935390686551
 21
1263.005070127996
 31
0.0000000000000087
 11
1300.191571875708
 21
1262.907898633813
 31
0.0000000000000087
 11
1300.751516449996
 21
1262.797290101607
 31
0.0000000000000087
 11
1301.438167790559
 21
1262.61203966769
 31
0.0000000000000087
 11
1301.817376942165
 21
1262.509733510648
 31
0.0000000000000087
 11
1302.202934439304
 21
1262.319322864392
 31
0.0000000000000087
 11
1302.70585658725
 21
1262.070950748905
 31
0.0000000000000087
 11
1303.132127849088
 21
1261.860433285105
 31
0.0000000000000087
 11
1303.561246617396
 21
1261.550262473777
 31
0.0000000000000087
 11
1304.094991689215
 21
1261.164466852157
 31
0.0000000000000087
 11
1304.441552056048
 21
1260.887169981461
 31
0.0000000000000087
 11
1304.853876348901
 21
1260.497772921071
 31
0.0000000000000087
 11
1305.344517343604
 21
1260.034413947672
 31
0.0000000000000087
 11
1305.868378375225
 21
1259.439902799279
 31
0.0000000000000087
 11
1306.252767903211
 21
1258.997187266308
 31
0.0000000000000087
 11
1306.940571449406
 21
1258.092085344946
 31
0.0000000000000087
 11
1307.427980120937
 21
1257.402180686228
 31
0.0000000000000087
 11
1308.18047366691
 21
1256.236236523727
 31
0.0000000000000087
 11
1308.737237675896
 21
1255.301830842727
 31
0.0000000000000087
 11
1309.446567202197
 21
1254.015227038885
 31
0.0000000000000087
 11
1310.266955447343
 21
1252.404567761548
 31
0.0000000000000087
 11
1310.881089804384
 21
1251.123505032442
 31
0.0000000000000087
 11
1311.590327006916
 21
1249.562207025353
 31
0.0000000000000087
 11
1312.68853577717
 21
1247.006881244109
 31
0.0000000000000087
 11
1313.956596873091
 21
1243.892383329526
 31
0.0000000000000087
 11
1315.567200317251
 21
1239.801017205706
 31
0.0000000000000087
 11
1317.174353853077
 21
1235.710505926434
 31
0.0000000000000087
 11
1320.25826660178
 21
1228.279918572138
 31
0.0000000000000087
 11
1323.058660998794
 21
1222.341931768654
 31
0.0000000000000087
 11
1327.371443308025
 21
1214.769558524617
 31
0.0000000000000087
 11
1331.137934159123
 21
1209.468255357135
 31
0.0000000000000087
 11
1334.407012341843
 21
1205.648974039243
 31
0.0000000000000087
 11
1338.474194760893
 21
1201.658357450833
 31
0.0000000000000087
 11
1344.54372840095
 21
1196.879959637204
 31
0.0000000000000087
 11
1348.615719320554
 21
1194.274496509853
 31
0.0000000000000087
 11
1355.19325959529
 21
1190.794412927046
 31
0.0000000000000087
 11
1361.233102652564
 21
1188.21289689571
 31
0.0000000000000087
 11
1372.533475845645
 21
1184.486200202962
 31
0.0000000000000087
 11
1383.434270275261
 21
1181.81812162098
 31
0.0000000000000087
 11
1396.601685010279
 21
1179.360592394787
 31
0.0000000000000087
 11
1412.284632463482
 21
1177.058469326975
 31
0.0000000000000087
 11
1432.281308660947
 21
1174.49606326906
 31
0.0000000000000087
 11
1438.354246414095
 21
1173.711619372202
 31
0.0000000000000087
 11
1440.523732395681
 21
1173.424953025839
 31
0.0000000000000087
 11
1441.020920176582
 21
1173.351758126095
 31
0.0000000000000087
 11
1441.563180177191
 21
1173.265379072013
 31
0.0000000000000087
 11
1442.092491207528
 21
1173.148760574251
 31
0.0000000000000087
 11
1442.549350212952
 21
1173.026198148445
 31
0.0000000000000087
 11
1442.953731970847
 21
1172.898123284718
 31
0.0000000000000087
 11
1443.851660078761
 21
1172.506948781522
 31
0.0000000000000087
 11
1444.365897614607
 21
1172.18661669951
 31
0.0000000000000087
 11
1444.899195740634
 21
1171.76243452061
 31
0.0000000000000087
 11
1445.39281961455
 21
1171.272454612254
 31
0.0000000000000087
 11
1445.807018014085
 21
1170.774743807881
 31
0.0000000000000087
 11
1446.163957463263
 21
1170.276035965312
 31
0.0000000000000087
 11
1446.498457229519
 21
1169.752498462421
 31
0.0000000000000087
 11
1446.95923814799
 21
1168.976489805774
 31
0.0
 11
1447.198307928965
 21
1168.56240879857
 31
0.0
 11
1447.500815368329
 21
1168.090760149478
 31
0.0
 11
1448.076406548542
 21
1167.396443857344
 31
0.0
 11
1448.188371056664
 21
1167.28340542264
 31
0.0
 11
1448.741071690727
 21
1166.795327362246
 31
0.0
 11
1449.28164454593
 21
1166.34173287882
 31
0.0
 11
1450.756887933822
 21
1165.103856696144
 31
0.0
 11
1451.974010917321
 21
1164.082569249592
 31
0.0
 11
1453.550923849022
 21
1162.759382190203
 31
0.0
 11
1455.005217044114
 21
1161.539085306578
 31
0.0
 11
1457.244402093313
 21
1159.660185957656
 31
0.0
 11
1459.90597995556
 21
1157.426856955095
 31
0.0
 11
1461.659464631924
 21
1155.955508609883
 31
0.0
 11
1462.462145926612
 21
1155.281979031557
 31
0.0
 11
1462.768801441876
 21
1155.024664501801
 31
0.0
 11
1463.054249266887
 21
1154.764961778747
 31
0.0
 11
1463.360207658016
 21
1154.395049711303
 31
0.0
 11
1463.610833367188
 21
1153.965358549913
 31
0.0
 11
1463.763150229777
 21
1153.579394218913
 31
0.0
 11
1463.8741067434
 21
1153.090154655357
 31
0.0
 11
1463.896085208328
 21
1152.879798675031
 31
0.0
 11
1463.90274109645
 21
1152.725671580733
 31
0.0
 11
1463.907343391494
 21
1152.46200627425
 31
0.0
 11
1463.916425668824
 21
1151.941682954493
 31
0.0
 11
1463.926320388312
 21
1151.374814854672
 31
0.0
 11
1463.93430560582
 21
1150.917342050018
 31
0.0
 11
1463.939156501922
 21
1150.639434398482
 31
0.0
 11
1463.954688661857
 21
1149.749597551762
 31
0.0
 11
1464.00342950043
 21
1146.957236780057
 31
0.0
 11
1464.00342950043
 21
1141.955166428696
 31
0.0
  0
SPLINE
  5
1413D
330
A
100
AcDbEntity
  8
HIDDEN
 48
0.5
100
AcDbSpline
210
0.0
220
0.0
230
1.0
 70
  1064
 71
     3
 72
    93
 73
    89
 74
    87
 42
0.000000001
 43
0.0000000001
 44
0.0
 40
0.0
 40
0.0
 40
0.0
 40
0.0
 40
1.259933918612861
 40
1.830698470483743
 40
2.541900120343607
 40
2.934667392948735
 40
3.364679948356763
 40
3.925589383690249
 40
4.40101003031055
 40
4.930489821722914
 40
5.589065605785247
 40
6.032909770281271
 40
6.600044139824583
 40
7.274899771728514
 40
8.067284707233027
 40
8.653588683306051
 40
9.79037503359856
 40
10.63508542847053
 40
12.02277138963017
 40
13.11047545709902
 40
14.57965812951981
 40
16.3872145409344
 40
17.80787731738861
 40
19.52271517456252
 40
22.30403722555779
 40
25.6667855365277
 40
30.0637526973649
 40
34.45866168545212
 40
42.50379352224823
 40
49.06899695071712
 40
57.78340615581138
 40
64.28650300307977
 40
69.3138066491648
 40
75.01178818524542
 40
82.73657454300908
 40
87.57078059543609
 40
95.01221982512122
 40
101.5806236781547
 40
113.4796447531264
 40
124.7022096344893
 40
138.0969944667117
 40
153.9480074135019
 40
174.1081905414366
 40
180.2315821817718
 40
182.4199256233814
 40
182.9224723205416
 40
183.4715690781761
 40
184.0135746508936
 40
184.4865880746527
 40
184.9107670190102
 40
185.8902017431917
 40
186.496050640228
 40
187.1774737188805
 40
187.8729913962205
 40
188.5205069241942
 40
189.1337893082712
 40
189.7550634913488
 40
190.6575647323546
 40
191.135704294306
 40
191.6960284853427
 40
192.5979044858337
 40
192.7570074047236
 40
193.4943663294886
 40
194.200034075087
 40
196.1258275471791
 40
197.7146687618537
 40
199.7731823975384
 40
201.671627335237
 40
204.5946758206269
 40
208.0691189631295
 40
210.3581306413874
 40
211.4059566544841
 40
211.8062669994235
 40
212.1921762700626
 40
212.6722236372491
 40
213.1696648300295
 40
213.5845972238399
 40
214.0862611536412
 40
214.2977621970891
 40
214.4520329397574
 40
214.7157384098608
 40
215.2361409894513
 40
215.8030954391811
 40
216.2606379297724
 40
216.5385879144374
 40
217.4285603082637
 40
220.221346434823
 40
225.223416786184
 40
225.223416786184
 40
225.223416786184
 40
225.223416786184
 10
1673.115145981184
 20
1263.005070127996
 30
0.0000000000000087
 10
1672.69480550855
 20
1262.987180600034
 30
0.0000000000000087
 10
1672.084045968731
 20
1262.961186910213
 30
0.0000000000000087
 10
1671.250203389603
 20
1262.79756921679
 30
0.0000000000000087
 10
1670.718935446697
 20
1262.628355359554
 30
0.0000000000000087
 10
1670.213732244628
 20
1262.526458600025
 30
0.0000000000000087
 10
1669.810874624016
 20
1262.292856970184
 30
0.0000000000000087
 10
1669.373087487088
 20
1262.079618882788
 30
0.0000000000000087
 10
1668.89072844841
 20
1261.871328419137
 30
0.0000000000000087
 10
1668.459836217492
 20
1261.516283785629
 30
0.0000000000000087
 10
1668.009557209592
 20
1261.212411854989
 30
0.0000000000000087
 10
1667.571113121285
 20
1260.867747604827
 30
0.0000000000000087
 10
1667.175926183136
 20
1260.467555530608
 30
0.0000000000000087
 10
1666.663548288248
 20
1260.021121635692
 30
0.0000000000000087
 10
1666.231488553968
 20
1259.487790359371
 30
0.0000000000000087
 10
1665.669256775597
 20
1258.865610629387
 30
0.0000000000000087
 10
1665.165789184458
 20
1258.171536297826
 30
0.0000000000000087
 10
1664.512650856521
 20
1257.258250194643
 30
0.0000000000000087
 10
1663.917290317901
 20
1256.324466416768
 30
0.0000000000000087
 10
1663.243240288677
 20
1255.195478779251
 30
0.0000000000000087
 10
1662.54339221506
 20
1253.91960608362
 30
0.0000000000000087
 10
1661.835208850728
 20
1252.522887611819
 30
0.0000000000000087
 10
1661.122716543661
 20
1251.037099705566
 30
0.0000000000000087
 10
1660.309648196668
 20
1249.240066543737
 30
0.0000000000000087
 10
1659.277878221757
 20
1246.831950154882
 30
0.0000000000000087
 10
1657.95919228051
 20
1243.574947331793
 30
0.0000000000000087
 10
1656.48340646235
 20
1239.80168968827
 30
0.0000000000000087
 10
1654.440473253564
 20
1234.574585276526
 30
0.0000000000000087
 10
1652.046404546576
 20
1228.707356918209
 30
0.0000000000000087
 10
1648.751712151276
 20
1221.661632686418
 30
0.0000000000000087
 10
1645.185121843112
 20
1215.321763193188
 30
0.0000000000000087
 10
1641.286327978696
 20
1209.800285763442
 30
0.0000000000000087
 10
1637.547972190208
 20
1205.432517369977
 30
0.0000000000000087
 10
1633.153226413913
 20
1201.118513155165
 30
0.0000000000000087
 10
1628.354145097867
 20
1197.347339437507
 30
0.0000000000000087
 10
1622.728405950851
 20
1193.761998629684
 30
0.0000000000000087
 10
1617.161136942519
 20
1190.830543984494
 30
0.0000000000000087
 10
1609.205570497003
 20
1187.453465426336
 30
0.0000000000000087
 10
1599.771844895974
 20
1184.404698388378
 30
0.0000000000000087
 10
1587.93148556211
 20
1181.555193541309
 30
0.0000000000000087
 10
1574.655005610556
 20
1179.136261023947
 30
0.0000000000000087
 10
1558.349956964573
 20
1176.807338282581
 30
0.0000000000000087
 10
1544.407349723412
 20
1175.111068150425
 30
0.0000000000000087
 10
1534.998224080403
 20
1173.872944819153
 30
0.0000000000000087
 10
1532.082401109173
 20
1173.508783487787
 30
0.0000000000000087
 10
1531.014371294342
 20
1173.349104487076
 30
0.0000000000000087
 10
1530.488379797994
 20
1173.272948816124
 30
0.0000000000000087
 10
1529.979591440623
 20
1173.1572757805
 30
0.0000000000000087
 10
1529.515894596948
 20
1173.033869609637
 30
0.0000000000000087
 10
1528.918981990774
 20
1172.846737141896
 30
0.0000000000000087
 10
1528.298760188297
 20
1172.583929101787
 30
0.0000000000000087
 10
1527.65691551848
 20
1172.182140770086
 30
0.0000000000000087
 10
1527.139439459518
 20
1171.768650661581
 30
0.0000000000000087
 10
1526.66045424217
 20
1171.291508671606
 30
0.0000000000000087
 10
1526.244409979467
 20
1170.788385271196
 30
0.0000000000000088
 10
1525.880313373384
 20
1170.276978181185
 30
0.0000000000000082
 10
1525.499996057683
 20
1169.67444278165
 30
0.000000000000011
 10
1525.159814891725
 20
1169.100248197672
 30
-0.0000000000000017
 10
1524.841816946775
 20
1168.536817673435
 30
0.0000000000000004
 10
1524.497013785382
 20
1167.9888539985
 30
-0.0000000000000002
 10
1524.148595431428
 20
1167.572138905954
 30
0.0
 10
1523.727313553518
 20
1167.145614758793
 30
0.0
 10
1523.317315260584
 20
1166.802036075175
 30
0.0
 10
1522.457528649052
 20
1166.080370755612
 30
0.0
 10
1521.379631754109
 20
1165.176034045211
 30
0.0
 10
1519.956615151378
 20
1163.981941439858
 30
0.0
 10
1518.540477911061
 20
1162.79368165937
 30
0.0
 10
1516.783704177505
 20
1161.319533470176
 30
0.0
 10
1514.665250438625
 20
1159.542162900999
 30
0.0
 10
1512.447580255366
 20
1157.680393056948
 30
0.0
 10
1510.707413121279
 20
1156.22228176304
 30
0.0
 10
1509.754445851558
 20
1155.419715482637
 30
0.0
 10
1509.284494070826
 20
1155.029040365177
 30
0.0
 10
1508.965814169218
 20
1154.751181663867
 30
0.0
 10
1508.676452163478
 20
1154.397492561235
 30
0.0
 10
1508.441087357851
 20
1153.995195522858
 30
0.0
 10
1508.267567076667
 20
1153.555377832756
 30
0.0
 10
1508.184246213011
 20
1153.186719039558
 30
0.0
 10
1508.153645002198
 20
1152.898966484302
 30
0.0
 10
1508.145981222181
 20
1152.689209821907
 30
0.0
 10
1508.142500070859
 20
1152.376446178906
 30
0.0
 10
1508.133541196614
 20
1151.926170802479
 30
0.0
 10
1508.124916673655
 20
1151.411279358693
 30
0.0
 10
1508.117273740743
 20
1150.977197124201
 30
0.0
 10
1508.107799221621
 20
1150.435458175467
 30
0.0
 10
1508.085526401699
 20
1149.115416387486
 30
0.0
 10
1508.021392854255
 20
1146.221033107392
 30
0.0
 10
1508.037055941365
 20
1143.622610926975
 30
0.0
 10
1508.047107167306
 20
1141.955166428696
 30
0.0
 11
1673.115145981184
 21
1263.005070127996
 31
0.0000000000000087
 11
1671.858964792028
 21
1262.907898633813
 31
0.0000000000000087
 11
1671.299020217739
 21
1262.797290101607
 31
0.0000000000000087
 11
1670.612368877176
 21
1262.61203966769
 31
0.0000000000000087
 11
1670.233159725571
 21
1262.509733510648
 31
0.0000000000000087
 11
1669.847602228431
 21
1262.319322864392
 31
0.0000000000000087
 11
1669.344680080485
 21
1262.070950748905
 31
0.0000000000000087
 11
1668.918408818648
 21
1261.860433285105
 31
0.0000000000000087
 11
1668.48929005034
 21
1261.550262473777
 31
0.0000000000000087
 11
1667.95554497852
 21
1261.164466852157
 31
0.0000000000000087
 11
1667.608984611687
 21
1260.887169981461
 31
0.0000000000000087
 11
1667.196660318834
 21
1260.497772921071
 31
0.0000000000000087
 11
1666.706019324131
 21
1260.034413947672
 31
0.0000000000000087
 11
1666.18215829251
 21
1259.439902799279
 31
0.0000000000000087
 11
1665.797768764524
 21
1258.997187266308
 31
0.0000000000000087
 11
1665.109965218329
 21
1258.092085344946
 31
0.0000000000000087
 11
1664.622556546798
 21
1257.402180686228
 31
0.0000000000000087
 11
1663.870063000826
 21
1256.236236523727
 31
0.0000000000000087
 11
1663.313298991839
 21
1255.301830842727
 31
0.0000000000000087
 11
1662.603969465539
 21
1254.015227038885
 31
0.0000000000000087
 11
1661.783581220393
 21
1252.404567761548
 31
0.0000000000000087
 11
1661.169446863352
 21
1251.123505032442
 31
0.0000000000000087
 11
1660.460209660819
 21
1249.562207025353
 31
0.0000000000000087
 11
1659.362000890565
 21
1247.006881244109
 31
0.0000000000000087
 11
1658.093939794644
 21
1243.892383329526
 31
0.0000000000000087
 11
1656.483336350484
 21
1239.801017205706
 31
0.0000000000000087
 11
1654.876182814658
 21
1235.710505926434
 31
0.0000000000000087
 11
1651.792270065956
 21
1228.279918572138
 31
0.0000000000000087
 11
1648.991875668942
 21
1222.341931768654
 31
0.0000000000000087
 11
1644.67909335971
 21
1214.769558524617
 31
0.0000000000000087
 11
1640.912602508613
 21
1209.468255357135
 31
0.0000000000000087
 11
1637.643524325892
 21
1205.648974039243
 31
0.0000000000000087
 11
1633.576341906843
 21
1201.658357450833
 31
0.0000000000000087
 11
1627.506808266785
 21
1196.879959637204
 31
0.0000000000000087
 11
1623.434817347181
 21
1194.274496509853
 31
0.0000000000000087
 11
1616.857277072445
 21
1190.794412927046
 31
0.0000000000000087
 11
1610.817434015171
 21
1188.21289689571
 31
0.0000000000000087
 11
1599.517060822091
 21
1184.486200202962
 31
0.0000000000000087
 11
1588.616266392474
 21
1181.81812162098
 31
0.0000000000000087
 11
1575.448851657457
 21
1179.360592394787
 31
0.0000000000000087
 11
1559.765904204253
 21
1177.058469326975
 31
0.0000000000000087
 11
1539.769228006789
 21
1174.49606326906
 31
0.0000000000000087
 11
1533.696290253641
 21
1173.711619372202
 31
0.0000000000000087
 11
1531.526804272055
 21
1173.424953025839
 31
0.0000000000000087
 11
1531.029616491153
 21
1173.351758126095
 31
0.0000000000000087
 11
1530.487356490544
 21
1173.265379072013
 31
0.0000000000000087
 11
1529.958045460207
 21
1173.148760574251
 31
0.0000000000000087
 11
1529.501186454783
 21
1173.026198148445
 31
0.0000000000000087
 11
1529.096804696889
 21
1172.898123284718
 31
0.0000000000000087
 11
1528.198876588975
 21
1172.506948781522
 31
0.0000000000000087
 11
1527.684639053128
 21
1172.18661669951
 31
0.0000000000000087
 11
1527.151340927101
 21
1171.76243452061
 31
0.0000000000000087
 11
1526.657717053185
 21
1171.272454612254
 31
0.0000000000000087
 11
1526.24351865365
 21
1170.774743807881
 31
0.0000000000000087
 11
1525.886579204472
 21
1170.276035965312
 31
0.0000000000000087
 11
1525.552079438216
 21
1169.752498462421
 31
0.0000000000000087
 11
1525.091298519746
 21
1168.976489805774
 31
0.0
 11
1524.85222873877
 21
1168.56240879857
 31
0.0
 11
1524.549721299406
 21
1168.090760149478
 31
0.0
 11
1523.974130119193
 21
1167.396443857344
 31
0.0
 11
1523.862165611071
 21
1167.28340542264
 31
0.0
 11
1523.309464977009
 21
1166.795327362246
 31
0.0
 11
1522.768892121805
 21
1166.34173287882
 31
0.0
 11
1521.293648733914
 21
1165.103856696144
 31
0.0
 11
1520.076525750414
 21
1164.082569249592
 31
0.0
 11
1518.499612818713
 21
1162.759382190203
 31
0.0
 11
1517.045319623622
 21
1161.539085306578
 31
0.0
 11
1514.806134574422
 21
1159.660185957656
 31
0.0
 11
1512.144556712175
 21
1157.426856955095
 31
0.0
 11
1510.391072035811
 21
1155.955508609883
 31
0.0
 11
1509.588390741123
 21
1155.281979031557
 31
0.0
 11
1509.281735225859
 21
1155.024664501801
 31
0.0
 11
1508.996287400848
 21
1154.764961778747
 31
0.0
 11
1508.690329009719
 21
1154.395049711303
 31
0.0
 11
1508.439703300547
 21
1153.965358549913
 31
0.0
 11
1508.287386437958
 21
1153.579394218913
 31
0.0
 11
1508.176429924335
 21
1153.090154655357
 31
0.0
 11
1508.154451459407
 21
1152.879798675031
 31
0.0
 11
1508.147795571285
 21
1152.725671580733
 31
0.0
 11
1508.143193276241
 21
1152.46200627425
 31
0.0
 11
1508.134110998911
 21
1151.941682954493
 31
0.0
 11
1508.124216279423
 21
1151.374814854672
 31
0.0
 11
1508.116231061915
 21
1150.917342050018
 31
0.0
 11
1508.111380165813
 21
1150.639434398482
 31
0.0
 11
1508.095848005878
 21
1149.749597551762
 31
0.0
 11
1508.047107167306
 21
1146.957236780057
 31
0.0
 11
1508.047107167306
 21
1141.955166428696
 31
0.0
  0
LINE
  5
14143
330
A
100
AcDbEntity
  8
HIDDEN
 48
0.5
100
AcDbLine
 10
601.308335805001
 20
1154.972377050663
 30
0.0
 11
555.0390256454393
 21
1155.067325954444
 31
0.0
  0
LINE
  5
14145
330
A
100
AcDbEntity
  8
HIDDEN
 48
0.5
100
AcDbLine
 10
1445.179284441967
 20
1171.497113841457
 30
0.0000000000000087
 11
1526.63565082245
 21
1171.497113841457
 31
0.0000000000000087
  0
DIMENSION
  5
14146
102
{ACAD_REACTORS
330
14148
102
}
102
{ACAD_XDICTIONARY
360
14147
102
}
330
A
100
AcDbEntity
  8
Dim
100
AcDbDimension
  2
*D14
 10
1485.422245383865
 20
1263.005057141495
 30
0.0
 11
1485.422245383865
 21
1367.906061903657
 31
0.0
 70
   160
  1
88(深さ)
 71
     5
 42
91.50794330003805
 73
     0
 74
     1
 75
     1
  3
tform線あり
100
AcDbAlignedDimension
 13
1519.333398278727
 23
1171.497113841457
 33
0.0000000000000087
 14
1497.256788746824
 24
1263.005057141495
 34
0.0
 50
90.0
100
AcDbRotatedDimension
  0
DIMENSION
  5
14158
102
{ACAD_REACTORS
330
1415A
102
}
102
{ACAD_XDICTIONARY
360
14159
102
}
330
A
100
AcDbEntity
  8
Dim
100
AcDbDimension
  2
*D15
 10
1641.697389191035
 20
1046.159816929685
 30
0.0
 11
1485.81418387609
 21
1068.38070835772
 31
0.0
 70
    32
  1
315
 71
     5
 42
311.7664106298901
 73
     0
 74
     0
 75
     0
  3
tform線あり
100
AcDbAlignedDimension
 13
1329.930978561145
 23
1142.983599536575
 33
0.0
 14
1641.697389191035
 24
1142.955587354258
 34
0.0
100
AcDbRotatedDimension
  0
DIMENSION
  5
14167
330
A
100
AcDbEntity
  8
Dim
100
AcDbDimension
  2
*D16
 10
1675.971385541183
 20
957.607331304373
 30
0.0
 11
1580.892784708636
 21
979.8282227324086
 31
0.0
 70
    32
  1
190
 71
     5
 42
190.1572016650928
 73
     0
 74
     0
 75
     0
  3
tform線あり
100
AcDbAlignedDimension
 13
1485.81418387609
 23
1046.159816929685
 33
0.0
 14
1675.971385541183
 24
1193.147613445726
 34
0.0
100
AcDbRotatedDimension
  0
DIMENSION
  5
14176
330
A
100
AcDbEntity
  8
Dim
100
AcDbDimension
  2
*D17
 10
958.6296182651425
 20
1141.955163081351
 30
0.0
 11
958.6296182651425
 21
1202.478950500275
 31
0.0
 70
   160
  1
120
 71
     5
 42
121.0475748378469
 73
     0
 74
     0
 75
     0
  3
tform線あり
100
AcDbAlignedDimension
 13
825.2299484518644
 23
1263.002737919198
 33
0.0
 14
793.4622790069948
 24
1141.955163081351
 34
0.0
 50
90.0
100
AcDbRotatedDimension
  0
DIMENSION
  5
14185
102
{ACAD_REACTORS
330
14187
102
}
102
{ACAD_XDICTIONARY
360
14186
102
}
330
A
100
AcDbEntity
  8
Dim
100
AcDbDimension
  2
*D18
 10
794.4756391673766
 20
1011.08759109107
 30
0.0
 11
578.5496197499175
 21
1033.308482519105
 31
0.0
 70
    32
  1
435
 71
     5
 42
431.8520388349182
 73
     0
 74
     0
 75
     0
  3
tform線あり
100
AcDbAlignedDimension
 13
362.6236003324584
 23
1142.955590702879
 33
0.0
 14
794.4756391673766
 24
1142.988800480703
 34
0.0
100
AcDbRotatedDimension
  0
LINE
  5
14198
330
A
100
AcDbEntity
  8
MODEL
100
AcDbLine
 10
348.3247793130204
 20
2381.149056073177
 30
0.0
 11
808.3292062544783
 21
2381.149056073177
 31
0.0
  0
LINE
  5
14199
330
A
100
AcDbEntity
  8
MODEL
100
AcDbLine
 10
825.2992137574561
 20
2359.105454617827
 30
0.0
 11
824.6147275199137
 21
2021.616347696686
 31
0.0
  0
LINE
  5
1419A
102
{ACAD_REACTORS
330
141A2
102
}
330
A
100
AcDbEntity
  8
HIDDEN
100
AcDbLine
 10
1256.016496966323
 20
2384.435997202544
 30
0.0
 11
1716.020946879284
 21
2384.439390812619
 31
0.0
  0
ARC
  5
1419B
102
{ACAD_REACTORS
330
140E4
330
141A2
102
}
330
A
100
AcDbEntity
  8
HIDDEN
100
AcDbCircle
 10
1716.033625236772
 20
2364.45261821992
 30
0.0
 40
19.98677661387645
100
AcDbArc
 50
359.9636513697149
 51
90.03634485129915
  0
LINE
  5
1419C
102
{ACAD_REACTORS
330
141A2
102
}
330
A
100
AcDbEntity
  8
HIDDEN
100
AcDbLine
 10
1736.020397828635
 20
2364.439938544189
 30
0.0
 11
1736.020397828633
 21
2024.484971409839
 31
0.0
  0
ARC
  5
1419D
102
{ACAD_REACTORS
330
141A2
102
}
330
A
100
AcDbEntity
  8
HIDDEN
100
AcDbCircle
 10
1716.033600727601
 20
2024.472316243272
 30
0.0
 40
19.98680110750954
100
AcDbArc
 50
269.9637254529886
 51
0.0362783255548178
  0
LINE
  5
1419E
102
{ACAD_REACTORS
330
141A2
102
}
330
A
100
AcDbEntity
  8
HIDDEN
100
AcDbLine
 10
1716.020946883596
 20
2004.488912768175
 30
0.0
 11
1256.016496970645
 21
2004.485519141403
 31
0.0
  0
ARC
  5
1419F
102
{ACAD_REACTORS
330
141A2
102
}
330
A
100
AcDbEntity
  8
HIDDEN
100
AcDbCircle
 10
1256.003818603163
 20
2024.472291724122
 30
0.0
 40
19.986776603903
100
AcDbArc
 50
179.9636513410699
 51
270.036344879963
  0
LINE
  5
141A0
102
{ACAD_REACTORS
330
141A2
102
}
330
A
100
AcDbEntity
  8
HIDDEN
100
AcDbLine
 10
1236.017046021281
 20
2024.484971409839
 30
0.0
 11
1236.020438320912
 21
2364.439938557135
 31
0.0
  0
ARC
  5
141A1
102
{ACAD_REACTORS
330
140D5
330
141A2
102
}
330
A
100
AcDbEntity
  8
HIDDEN
100
AcDbCircle
 10
1256.003843132296
 20
2364.452593700769
 30
0.0
 40
19.98680111748443
100
AcDbArc
 50
89.963725481651
 51
180.0362782969002
  0
MTEXT
  5
141D7
330
A
100
AcDbEntity
  8
Dim
390
1D
100
AcDbMText
 10
1342.346025722594
 20
2490.402272762549
 30
34.99521132346015
 40
24.0
 41
0.0
 46
27.413396484375
 71
     1
 72
     1
  1
{カウンター切込寸法}
  7
ＭＳ ゴシック
 73
     1
 44
0.7828267384257843
1001
ACAD
1000
ACAD_MTEXT_DEFINED_HEIGHT_BEGIN
1070
    46
1040
27.413396484375
1000
ACAD_MTEXT_DEFINED_HEIGHT_END
  0
CIRCLE
  5
141D8
330
A
100
AcDbEntity
  8
Dim
  6
Continuous
100
AcDbCircle
 10
1302.851327556362
 20
1894.35317161809
 30
0.0
 40
0.0
  0
CIRCLE
  5
141D9
330
A
100
AcDbEntity
  8
HIDDEN
100
AcDbCircle
 10
1486.018721924955
 20
2172.646010134584
 30
0.0
 40
21.99984767194791
  0
MTEXT
  5
141E2
330
A
100
AcDbEntity
  8
Dim
390
1D
100
AcDbMText
 10
1182.058811394495
 20
1868.871358039095
 30
34.99521132346015
 40
24.0
 41
1169.771715461011
 46
120.6272086110942
 71
     1
 72
     1
  1
{※陶器製品には寸法公差があります。\P  必ず現物を合わせてカウンターに切込を\P  行ってください。}
  7
ＭＳ ゴシック
 73
     1
 44
1.174240107638677
1001
ACAD
1000
ACAD_MTEXT_DEFINED_HEIGHT_BEGIN
1070
    46
1040
120.6272086110942
1000
ACAD_MTEXT_DEFINED_HEIGHT_END
  0
CIRCLE
  5
141E3
102
{ACAD_REACTORS
330
141E4
102
}
330
A
100
AcDbEntity
  8
MODEL
  6
Continuous
100
AcDbCircle
 10
1486.018721924955
 20
2172.646010134584
 30
0.0
 40
60.0
  0
HATCH
  5
141E4
330
A
100
AcDbEntity
  8
Dim
  6
Continuous
100
AcDbHatch
 10
0.0
 20
0.0
 30
0.0
210
0.0
220
0.0
230
1.0
  2
ANSI31
 70
     0
 71
     1
 91
        1
 92
        1
 93
        1
 72
     2
 10
1486.018721924955
 20
2172.646010134584
 40
60.0
 50
0.0
 51
360.0
 73
     1
 97
        1
330
141E3
 75
     0
 76
     1
 52
0.0
 41
5.0
 77
     0
 78
     1
 53
45.0
 43
-63.99039892831934
 44
135.5028971923
 45
-11.22532015133644
 46
11.22532015133644
 79
     0
 98
        1
 10
-63.99039892831934
 20
135.5028971923
1001
ACAD
1010
0.0
1020
0.0
1030
0.0
  0
LINE
  5
141E5
330
A
100
AcDbEntity
  8
Dim
  6
Continuous
100
AcDbLine
 10
1527.280400247204
 20
2216.206013601426
 30
0.0
 11
1579.109345980595
 21
2272.04025352436
 31
0.0
  0
MTEXT
  5
141E6
330
A
100
AcDbEntity
  8
Dim
390
1D
100
AcDbMText
 10
1587.28049464234
 20
2297.858842499002
 30
34.99521132346015
 40
24.0
 41
0.0
 46
24.72
 71
     1
 72
     1
  1
{%%c120}
  7
ＭＳ ゴシック
 73
     1
 44
0.7828267384257843
1001
ACAD
1000
ACAD_MTEXT_DEFINED_HEIGHT_BEGIN
1070
    46
1040
24.72
1000
ACAD_MTEXT_DEFINED_HEIGHT_END
  0
MTEXT
  5
141E8
330
A
100
AcDbEntity
  8
template
390
1D
100
AcDbMText
 10
1584.134616576
 20
234.4414968978187
 30
0.0
 40
24.4326171875
 41
0.0
 46
24.4326171875
 71
     1
 72
     1
  1
{10L}
  7
ＭＳ ゴシック
 73
     1
 44
0.7828267384257843
1001
ACAD
1000
ACAD_MTEXT_DEFINED_HEIGHT_BEGIN
1070
    46
1040
24.4326171875
1000
ACAD_MTEXT_DEFINED_HEIGHT_END
  0
DIMENSION
  5
141F2
102
{ACAD_REACTORS
330
141F4
102
}
102
{ACAD_XDICTIONARY
360
141F3
102
}
330
A
100
AcDbEntity
  8
Dim
100
AcDbDimension
  2
*D20
 10
241.5535274146822
 20
1173.485371320961
 30
0.0
 11
219.3372188209322
 21
1218.153654809672
 31
0.0
 70
    32
  1
90
 71
     5
 42
89.33656697742208
 73
     0
 74
     0
 75
     0
  3
tform線あり
100
AcDbAlignedDimension
 13
329.8970557858711
 23
1262.821938298383
 33
0.0
 14
331.6761094002277
 24
1173.485371320961
 34
0.0
 50
90.0
100
AcDbRotatedDimension
  0
VIEWPORT
  5
349
330
B
100
AcDbEntity
 67
     1
  8
0
100
AcDbViewport
 10
202.5
 20
128.5
 30
0.0
 40
486.0
 41
308.4
 68
     1
 69
     1
 12
202.5
 22
128.5
 13
0.0
 23
0.0
 14
0.5
 24
0.5
 15
0.0
 25
0.0
 16
0.0
 26
0.0
 36
1.0
 17
0.0
 27
0.0
 37
0.0
 42
50.0
 43
0.0
 44
0.0
 45
308.4
 50
0.0
 51
0.0
 72
   100
 90
   557152
  1

281
     0
 71
     1
 74
     0
110
0.0
120
0.0
130
0.0
111
1.0
121
0.0
131
0.0
112
0.0
122
1.0
132
0.0
 79
     0
146
0.0
170
     0
 61
     5
348
26C
292
     1
282
     1
141
0.0
142
0.0
 63
   256
  0
VIEWPORT
  5
34A
330
B
100
AcDbEntity
 67
     1
  8
0
100
AcDbViewport
 10
202.5
 20
128.5
 30
0.0
 40
324.0
 41
205.6
 68
     2
 69
     2
 12
986.6781359294573
 22
1427.077061889956
 13
0.0
 23
0.0
 14
0.5
 24
0.5
 15
0.0
 25
0.0
 16
0.0
 26
0.0
 36
1.0
 17
0.0
 27
0.0
 37
0.0
 42
50.0
 43
0.0
 44
0.0
 45
2890.021615685494
 50
0.0
 51
0.0
 72
   100
 90
   557152
  1

281
     0
 71
     1
 74
     0
110
0.0
120
0.0
130
0.0
111
1.0
121
0.0
131
0.0
112
0.0
122
1.0
132
0.0
 79
     0
146
0.0
170
     0
 61
     5
348
26C
292
     1
282
     1
141
0.0
142
0.0
 63
   256
  0
ENDSEC
  0
SECTION
  2
OBJECTS
  0
DICTIONARY
  5
19
330
0
100
AcDbDictionary
281
     1
  3
ACAD_COLOR
350
38F
  3
ACAD_DETAILVIEWSTYLE
350
8CF
  3
ACAD_FIELDLIST
350
BA6
  3
ACAD_GROUP
350
1A
  3
ACAD_IMAGE_DICT
350
5E43
  3
ACAD_IMAGE_VARS
350
27B
  3
ACAD_LAYOUT
350
1E
  3
ACAD_MATERIAL
350
263
  3
ACAD_MLEADERSTYLE
350
336
  3
ACAD_MLINESTYLE
350
1B
  3
ACAD_PLOTSETTINGS
350
22
  3
ACAD_PLOTSTYLENAME
350
1F
  3
ACAD_SCALELIST
350
241
  3
ACAD_SECTIONVIEWSTYLE
350
8D0
  3
ACAD_TABLESTYLE
350
278
  3
ACAD_VISUALSTYLE
350
267
  3
ACDB_RECOMPOSE_DATA
350
14203
  3
AcDbVariableDictionary
350
330
  3
APPDATA
350
27A
  3
DimOffsetDictionary
350
C08
  0
SUN
  5
8C2
330
15
100
AcDbSun
 90
        1
290
     0
 63
     7
421
 16777215
 40
1.0
291
     1
 91
  2455826
 92
 54000000
292
     0
 70
     2
 71
   256
280
     1
  0
DICTIONARY
  5
2E1
330
2
100
AcDbDictionary
280
     1
281
     1
  3
ACAD_LAYERSTATES
360
2E2
  3
ACLYDICTIONARY
360
BFE
  0
DICTIONARY
  5
560A
330
A
100
AcDbDictionary
280
     1
281
     1
  3
ACAD_SORTENTS
360
560B
  0
DICTIONARY
  5
BDC
330
BDB
100
AcDbDictionary
280
     1
281
     1
  0
DICTIONARY
  5
140D4
330
140D3
100
AcDbDictionary
280
     1
281
     1
  3
ACAD_DIMASSOC
360
140D5
  0
DICTIONARY
  5
140E3
330
140E2
100
AcDbDictionary
280
     1
281
     1
  3
ACAD_DIMASSOC
360
140E4
  0
DICTIONARY
  5
14147
330
14146
100
AcDbDictionary
280
     1
281
     1
  3
ACAD_DIMASSOC
360
14148
  0
DICTIONARY
  5
14159
330
14158
100
AcDbDictionary
280
     1
281
     1
  3
ACAD_DIMASSOC
360
1415A
  0
DICTIONARY
  5
14186
330
14185
100
AcDbDictionary
280
     1
281
     1
  3
ACAD_DIMASSOC
360
14187
  0
DICTIONARY
  5
141F3
330
141F2
100
AcDbDictionary
280
     1
281
     1
  3
ACAD_DIMASSOC
360
141F4
  0
DICTIONARY
  5
38F
102
{ACAD_REACTORS
330
19
102
}
330
19
100
AcDbDictionary
281
     1
  0
DICTIONARY
  5
8CF
102
{ACAD_REACTORS
330
19
102
}
330
19
100
AcDbDictionary
281
     1
  0
FIELDLIST
  5
BA6
102
{ACAD_REACTORS
330
19
102
}
330
19
100
AcDbIdSet
 90
        0
100
AcDbFieldList
  0
DICTIONARY
  5
1A
102
{ACAD_REACTORS
330
19
102
}
330
19
100
AcDbDictionary
281
     1
  3
*A1
350
141A2
  0
DICTIONARY
  5
5E43
102
{ACAD_REACTORS
330
19
102
}
330
19
100
AcDbDictionary
281
     1
  3
Untitled
350
5E44
  0
RASTERVARIABLES
  5
27B
102
{ACAD_REACTORS
330
19
102
}
330
19
100
AcDbRasterVariables
 90
        0
 70
     1
 71
     1
 72
     1
  0
DICTIONARY
  5
1E
102
{ACAD_REACTORS
330
19
102
}
330
19
100
AcDbDictionary
281
     1
  3
Layout1
350
21
  3
Model
350
20
  0
DICTIONARY
  5
263
102
{ACAD_REACTORS
330
19
102
}
330
19
100
AcDbDictionary
281
     1
  3
ByBlock
350
4FEC
  3
ByLayer
350
264
  3
Global
350
266
  0
DICTIONARY
  5
336
102
{ACAD_REACTORS
330
19
102
}
330
19
100
AcDbDictionary
281
     1
  3
Standard
350
8D1
  0
DICTIONARY
  5
1B
102
{ACAD_REACTORS
330
19
102
}
330
19
100
AcDbDictionary
281
     1
  3
Standard
350
1C
  0
DICTIONARY
  5
22
102
{ACAD_REACTORS
330
19
102
}
330
19
100
AcDbDictionary
281
     1
  0
ACDBDICTIONARYWDFLT
  5
1F
102
{ACAD_REACTORS
330
19
102
}
330
19
100
AcDbDictionary
281
     1
  3
Normal
350
1D
100
AcDbDictionaryWithDefault
340
1D
  0
DICTIONARY
  5
241
102
{ACAD_REACTORS
330
19
102
}
330
19
100
AcDbDictionary
281
     1
  3
A0
350
242
  3
A1
350
243
  3
A2
350
244
  3
A3
350
245
  3
A4
350
246
  3
A5
350
247
  3
A6
350
248
  3
A7
350
249
  3
A8
350
24A
  3
A9
350
24B
  3
B0
350
24C
  3
B1
350
24D
  3
B2
350
24E
  3
B3
350
24F
  3
B4
350
250
  3
B5
350
251
  3
B6
350
252
  3
B7
350
253
  3
B8
350
254
  3
B9
350
255
  3
C0
350
256
  3
C1
350
257
  3
C2
350
258
  3
C3
350
259
  3
C4
350
25A
  3
C5
350
25B
  3
C6
350
25C
  3
C7
350
25D
  3
C8
350
25E
  3
C9
350
25F
  3
D0
350
260
  3
D1
350
261
  3
D2
350
262
  0
DICTIONARY
  5
8D0
102
{ACAD_REACTORS
330
19
102
}
330
19
100
AcDbDictionary
281
     1
  0
DICTIONARY
  5
278
102
{ACAD_REACTORS
330
19
102
}
330
19
100
AcDbDictionary
281
     1
  3
Standard
350
279
  0
DICTIONARY
  5
267
102
{ACAD_REACTORS
330
19
102
}
330
19
100
AcDbDictionary
281
     1
  3
2dWireframe
350
26C
  3
3D Hidden
350
26E
  3
3dWireframe
350
26D
  3
Basic
350
26F
  3
Brighten
350
273
  3
ColorChange
350
277
  3
Conceptual
350
271
  3
Dim
350
272
  3
EdgeColorOff
350
8BC
  3
Facepattern
350
276
  3
Flat
350
268
  3
FlatWithEdges
350
269
  3
Gouraud
350
26A
  3
GouraudWithEdges
350
26B
  3
Hidden
350
8B9
  3
JitterOff
350
8BA
  3
Linepattern
350
275
  3
OverhangOff
350
8BB
  3
Realistic
350
270
  3
Shaded
350
8C1
  3
Shaded with edges
350
8C0
  3
Shades of Gray
350
8BD
  3
Sketchy
350
8BE
  3
Thicken
350
274
  3
Wireframe
350
8B8
  3
X-Ray
350
8BF
  0
XRECORD
  5
14203
102
{ACAD_REACTORS
330
19
102
}
330
19
100
AcDbXrecord
280
     1
 90
        1
330
279
  0
DICTIONARY
  5
330
102
{ACAD_REACTORS
330
19
102
}
330
19
100
AcDbDictionary
281
     1
  3
CANNOSCALE
350
331
  3
CMLEADERSTYLE
350
8DA
  3
CTABLESTYLE
350
335
  3
HPTRANSPARENCY
350
C07
  3
XCLIPFRAME
350
64A
  0
DICTIONARY
  5
27A
102
{ACAD_REACTORS
330
19
102
}
330
19
100
AcDbDictionary
281
     1
  0
DICTIONARY
  5
C08
102
{ACAD_REACTORS
330
19
102
}
330
19
100
AcDbDictionary
281
     1
  3
DIMRAILANGLE
350
4342
  3
DIMRAILFIRSTOFFSET
350
4340
  3
DIMRAILOFFSET
350
4341
  3
DIMRAILSENABLED
350
4343
  0
DICTIONARY
  5
2E2
102
{ACAD_REACTORS
330
2E1
102
}
330
2E1
100
AcDbDictionary
281
     1
  0
DICTIONARY
  5
BFE
102
{ACAD_REACTORS
330
2E1
102
}
330
2E1
100
AcDbDictionary
281
     1
1001
ACAD
1000
<All
  0
SORTENTSTABLE
  5
560B
102
{ACAD_REACTORS
330
560A
102
}
330
560A
100
AcDbSortentsTable
330
A
  0
DIMASSOC
  5
140D5
102
{ACAD_REACTORS
330
140D4
102
}
330
140D4
100
AcDbDimAssoc
330
140D3
 90
        1
 70
     0
 71
     1
  1
AcDbOsnapPointRef
 72
     1
331
139B9
 73
     0
 91
        0
 40
0.0
 10
0.0
 20
0.0
 30
0.0
 75
     0
  0
DIMASSOC
  5
140E4
102
{ACAD_REACTORS
330
140E3
102
}
330
140E3
100
AcDbDimAssoc
330
140E2
 90
        1
 70
     0
 71
     1
  1
AcDbOsnapPointRef
 72
     1
331
139B6
 73
     0
 91
        0
 40
0.0
 10
0.0
 20
0.0
 30
0.0
 75
     0
  0
DIMASSOC
  5
14148
102
{ACAD_REACTORS
330
14147
102
}
330
14147
100
AcDbDimAssoc
330
14146
 90
        2
 70
     0
 71
     1
  1
AcDbOsnapPointRef
 72
     8
331
139C8
 73
     0
 91
        0
 40
0.9338849416540138
 10
0.0
 20
0.0
 30
0.0
 75
     1
  1
AcDbOsnapPointRef
 72
     8
331
14145
 73
     0
 91
        0
 40
0.6393300686998967
 10
0.0
 20
0.0
 30
0.0
 75
     1
  1
AcDbOsnapPointRef
 72
     1
 40
0.0
 10
1497.256788756045
 20
1211.986190042141
 30
0.0
 75
     0
  0
DIMASSOC
  5
1415A
102
{ACAD_REACTORS
330
14159
102
}
330
14159
100
AcDbDimAssoc
330
14158
 90
        3
 70
     0
 71
     1
  1
AcDbOsnapPointRef
 72
    10
331
13A0E
 73
     0
 91
        0
 40
4.575654961874926
 10
0.0
 20
0.0
 30
0.0
 75
     0
  1
AcDbOsnapPointRef
 72
    13
331
13A0F
 73
     0
 91
        0
 40
0.0
 10
0.0
 20
0.0
 30
0.0
 75
     0
  0
DIMASSOC
  5
14187
102
{ACAD_REACTORS
330
14186
102
}
330
14186
100
AcDbDimAssoc
330
14185
 90
        3
 70
     0
 71
     1
  1
AcDbOsnapPointRef
 72
     1
331
13A56
 73
     0
 91
        0
 40
0.0
 10
0.0
 20
0.0
 30
0.0
 75
     0
  1
AcDbOsnapPointRef
 72
    10
331
13A94
 73
     0
 91
        0
 40
4.861290456282375
 10
0.0
 20
0.0
 30
0.0
 75
     0
  0
DIMASSOC
  5
141F4
102
{ACAD_REACTORS
330
141F3
102
}
330
141F3
100
AcDbDimAssoc
330
141F2
 90
        3
 70
     0
 71
     1
  1
AcDbOsnapPointRef
 72
     1
331
13A45
 73
     2
 91
        2
 40
1.0
 10
0.0
 20
0.0
 30
0.0
 75
     0
  1
AcDbOsnapPointRef
 72
     1
331
14115
 73
     2
 91
        5
 40
1.0
 10
0.0
 20
0.0
 30
0.0
 75
     0
  0
GROUP
  5
141A2
102
{ACAD_REACTORS
330
1A
102
}
330
1A
100
AcDbGroup
300

 70
     1
 71
     1
340
1419A
340
1419B
340
1419C
340
1419D
340
1419E
340
1419F
340
141A0
340
141A1
  0
IMAGEDEF
  5
5E44
102
{ACAD_REACTORS
330
5E43
102
}
330
5E43
100
AcDbRasterImageDef
 90
        0
  1
K:/DESKTOP/Untitled.png
 10
1035.0
 20
588.0
 11
0.2646202699126753
 21
0.2646202699126753
280
     1
281
     3
  0
LAYOUT
  5
21
102
{ACAD_REACTORS
330
1E
102
}
330
1E
100
AcDbPlotSettings
  1

  2
none_device
  4
ISO_A3_(420.00_x_297.00_MM)
  6

 40
7.5
 41
20.0
 42
7.5
 43
20.0
 44
420.0
 45
297.0
 46
0.0
 47
0.0
 48
0.0
 49
0.0
140
0.0
141
0.0
142
1.0
143
1.0
 70
     0
 72
     1
 73
     0
 74
     0
  7

 75
     0
 76
     0
 77
     2
 78
   300
147
1.0
148
0.0
149
0.0
100
AcDbLayout
  1
Layout1
 70
     0
 71
     0
 10
0.0
 20
0.0
 11
0.0
 21
0.0
 12
0.0
 22
0.0
 32
0.0
 14
0.0
 24
0.0
 34
0.0
 15
0.0
 25
0.0
 35
0.0
146
0.0
 13
0.0
 23
0.0
 33
0.0
 16
0.0
 26
0.0
 36
0.0
 17
0.0
 27
0.0
 37
0.0
 76
     0
330
B
331
349
  0
LAYOUT
  5
20
102
{ACAD_REACTORS
330
1E
102
}
330
1E
100
AcDbPlotSettings
  1

  2
Adobe PDF
  4
A4
  6

 40
0.0
 41
0.0400000000000205
 42
0.0600000000000023
 43
0.0
 44
210.0
 45
297.0
 46
0.0
 47
0.0224285714285486
 48
0.0
 49
0.0
140
0.0
141
0.0
142
1.0
143
10.00285795941698
 70
  1716
 72
     1
 73
     0
 74
     1
  7
monochrome.ctb
 75
     0
 76
   110
 77
     2
 78
   300
147
0.0999714285714286
148
377.0474382459579
149
-297.6123702345042
100
AcDbLayout
  1
Model
 70
     0
 71
     1
 10
0.0
 20
0.0
 11
2100.0
 21
2970.0
 12
0.0
 22
0.0
 32
0.0
 14
0.0
 24
0.0
 34
-0.0000000000000003
 15
2100.0
 25
2970.0
 35
34.99521132346015
146
0.0
 13
0.0
 23
0.0
 33
0.0
 16
0.0
 26
0.0
 36
0.0
 17
0.0
 27
0.0
 37
0.0
 76
     0
330
A
331
15
1001
PLOTTRANSPARENCY
1071
        0
  0
MATERIAL
  5
4FEC
102
{ACAD_REACTORS
330
263
102
}
330
263
100
AcDbMaterial
  1
ByBlock
 72
     1
 94
      127
  0
MATERIAL
  5
264
102
{ACAD_REACTORS
330
263
102
}
330
263
100
AcDbMaterial
  1
ByLayer
 72
     1
 94
      127
  0
MATERIAL
  5
266
102
{ACAD_REACTORS
330
263
102
}
330
263
100
AcDbMaterial
  1
Global
 72
     1
 94
      127
  0
MLEADERSTYLE
  5
8D1
102
{ACAD_REACTORS
330
336
102
}
330
336
100
AcDbMLeaderStyle
170
     2
171
     1
172
     0
 90
        2
 40
0.0
 41
0.0
173
     1
 91
-1056964608
340
11
 92
       -2
290
     1
 42
2.0
291
     1
 43
8.0
  3
Standard
341
0
 44
4.0
300

342
17
174
     1
178
     6
175
     1
176
     0
 93
-1056964608
 45
4.0
292
     0
297
     0
 46
4.0
343
0
 94
-1056964608
 47
1.0
 49
1.0
140
1.0
293
     1
141
0.0
294
     1
177
     0
142
1.0
295
     0
296
     0
143
3.75
1001
ACAD_MLEADERVER
1070
     2
  0
MLINESTYLE
  5
1C
102
{ACAD_REACTORS
330
1B
102
}
330
1B
100
AcDbMlineStyle
  2
Standard
 70
     0
  3

 62
     0
 51
90.0
 52
90.0
 71
     2
 49
0.5
 62
   256
  6
BYLAYER
 49
-0.5
 62
   256
  6
BYLAYER
  0
ACDBPLACEHOLDER
  5
1D
102
{ACAD_REACTORS
330
1F
102
}
330
1F
  0
SCALE
  5
242
102
{ACAD_REACTORS
330
241
102
}
330
241
100
AcDbScale
 70
     0
300
1:1
140
1.0
141
1.0
290
     1
  0
SCALE
  5
243
102
{ACAD_REACTORS
330
241
102
}
330
241
100
AcDbScale
 70
     0
300
1:2
140
1.0
141
2.0
290
     0
  0
SCALE
  5
244
102
{ACAD_REACTORS
330
241
102
}
330
241
100
AcDbScale
 70
     0
300
1:4
140
1.0
141
4.0
290
     0
  0
SCALE
  5
245
102
{ACAD_REACTORS
330
241
102
}
330
241
100
AcDbScale
 70
     0
300
1:5
140
1.0
141
5.0
290
     0
  0
SCALE
  5
246
102
{ACAD_REACTORS
330
241
102
}
330
241
100
AcDbScale
 70
     0
300
1:8
140
1.0
141
8.0
290
     0
  0
SCALE
  5
247
102
{ACAD_REACTORS
330
241
102
}
330
241
100
AcDbScale
 70
     0
300
1:10
140
1.0
141
10.0
290
     0
  0
SCALE
  5
248
102
{ACAD_REACTORS
330
241
102
}
330
241
100
AcDbScale
 70
     0
300
1:16
140
1.0
141
16.0
290
     0
  0
SCALE
  5
249
102
{ACAD_REACTORS
330
241
102
}
330
241
100
AcDbScale
 70
     0
300
1:20
140
1.0
141
20.0
290
     0
  0
SCALE
  5
24A
102
{ACAD_REACTORS
330
241
102
}
330
241
100
AcDbScale
 70
     0
300
1:30
140
1.0
141
30.0
290
     0
  0
SCALE
  5
24B
102
{ACAD_REACTORS
330
241
102
}
330
241
100
AcDbScale
 70
     0
300
1:40
140
1.0
141
40.0
290
     0
  0
SCALE
  5
24C
102
{ACAD_REACTORS
330
241
102
}
330
241
100
AcDbScale
 70
     0
300
1:50
140
1.0
141
50.0
290
     0
  0
SCALE
  5
24D
102
{ACAD_REACTORS
330
241
102
}
330
241
100
AcDbScale
 70
     0
300
1:100
140
1.0
141
100.0
290
     0
  0
SCALE
  5
24E
102
{ACAD_REACTORS
330
241
102
}
330
241
100
AcDbScale
 70
     0
300
2:1
140
2.0
141
1.0
290
     0
  0
SCALE
  5
24F
102
{ACAD_REACTORS
330
241
102
}
330
241
100
AcDbScale
 70
     0
300
4:1
140
4.0
141
1.0
290
     0
  0
SCALE
  5
250
102
{ACAD_REACTORS
330
241
102
}
330
241
100
AcDbScale
 70
     0
300
8:1
140
8.0
141
1.0
290
     0
  0
SCALE
  5
251
102
{ACAD_REACTORS
330
241
102
}
330
241
100
AcDbScale
 70
     0
300
10:1
140
10.0
141
1.0
290
     0
  0
SCALE
  5
252
102
{ACAD_REACTORS
330
241
102
}
330
241
100
AcDbScale
 70
     0
300
100:1
140
100.0
141
1.0
290
     0
  0
SCALE
  5
253
102
{ACAD_REACTORS
330
241
102
}
330
241
100
AcDbScale
 70
     0
300
1/128" = 1'-0"
140
0.0078125
141
12.0
290
     0
  0
SCALE
  5
254
102
{ACAD_REACTORS
330
241
102
}
330
241
100
AcDbScale
 70
     0
300
1/64" = 1'-0"
140
0.015625
141
12.0
290
     0
  0
SCALE
  5
255
102
{ACAD_REACTORS
330
241
102
}
330
241
100
AcDbScale
 70
     0
300
1/32" = 1'-0"
140
0.03125
141
12.0
290
     0
  0
SCALE
  5
256
102
{ACAD_REACTORS
330
241
102
}
330
241
100
AcDbScale
 70
     0
300
1/16" = 1'-0"
140
0.0625
141
12.0
290
     0
  0
SCALE
  5
257
102
{ACAD_REACTORS
330
241
102
}
330
241
100
AcDbScale
 70
     0
300
3/32" = 1'-0"
140
0.09375
141
12.0
290
     0
  0
SCALE
  5
258
102
{ACAD_REACTORS
330
241
102
}
330
241
100
AcDbScale
 70
     0
300
1/8" = 1'-0"
140
0.125
141
12.0
290
     0
  0
SCALE
  5
259
102
{ACAD_REACTORS
330
241
102
}
330
241
100
AcDbScale
 70
     0
300
3/16" = 1'-0"
140
0.1875
141
12.0
290
     0
  0
SCALE
  5
25A
102
{ACAD_REACTORS
330
241
102
}
330
241
100
AcDbScale
 70
     0
300
1/4" = 1'-0"
140
0.25
141
12.0
290
     0
  0
SCALE
  5
25B
102
{ACAD_REACTORS
330
241
102
}
330
241
100
AcDbScale
 70
     0
300
3/8" = 1'-0"
140
0.375
141
12.0
290
     0
  0
SCALE
  5
25C
102
{ACAD_REACTORS
330
241
102
}
330
241
100
AcDbScale
 70
     0
300
1/2" = 1'-0"
140
0.5
141
12.0
290
     0
  0
SCALE
  5
25D
102
{ACAD_REACTORS
330
241
102
}
330
241
100
AcDbScale
 70
     0
300
3/4" = 1'-0"
140
0.75
141
12.0
290
     0
  0
SCALE
  5
25E
102
{ACAD_REACTORS
330
241
102
}
330
241
100
AcDbScale
 70
     0
300
1" = 1'-0"
140
1.0
141
12.0
290
     0
  0
SCALE
  5
25F
102
{ACAD_REACTORS
330
241
102
}
330
241
100
AcDbScale
 70
     0
300
1-1/2" = 1'-0"
140
1.5
141
12.0
290
     0
  0
SCALE
  5
260
102
{ACAD_REACTORS
330
241
102
}
330
241
100
AcDbScale
 70
     0
300
3" = 1'-0"
140
3.0
141
12.0
290
     0
  0
SCALE
  5
261
102
{ACAD_REACTORS
330
241
102
}
330
241
100
AcDbScale
 70
     0
300
6" = 1'-0"
140
6.0
141
12.0
290
     0
  0
SCALE
  5
262
102
{ACAD_REACTORS
330
241
102
}
330
241
100
AcDbScale
 70
     0
300
1'-0" = 1'-0"
140
12.0
141
12.0
290
     0
  0
TABLESTYLE
  5
279
102
{ACAD_REACTORS
330
278
102
}
102
{ACAD_XDICTIONARY
360
14201
102
}
330
278
100
AcDbTableStyle
  3
Standard
 70
     0
 71
     0
 40
0.06
 41
0.06
280
     0
281
     0
  7
Standard
140
4.5
170
     2
 62
     0
 63
   257
283
     0
 90
        4
 91
        0
  1

274
    -2
284
     1
 64
     0
275
    -2
285
     1
 65
     0
276
    -2
286
     1
 66
     0
277
    -2
287
     1
 67
     0
278
    -2
288
     1
 68
     0
279
    -2
289
     1
 69
     0
  7
Standard
140
6.0
170
     5
 62
     0
 63
   257
283
     0
 90
        4
 91
        0
  1

274
    -2
284
     1
 64
     0
275
    -2
285
     1
 65
     0
276
    -2
286
     1
 66
     0
277
    -2
287
     1
 67
     0
278
    -2
288
     1
 68
     0
279
    -2
289
     1
 69
     0
  7
Standard
140
4.5
170
     5
 62
     0
 63
   257
283
     0
 90
        4
 91
        0
  1

274
    -2
284
     1
 64
     0
275
    -2
285
     1
 65
     0
276
    -2
286
     1
 66
     0
277
    -2
287
     1
 67
     0
278
    -2
288
     1
 68
     0
279
    -2
289
     1
 69
     0
  0
VISUALSTYLE
  5
26C
102
{ACAD_REACTORS
330
267
102
}
330
267
100
AcDbVisualStyle
  2
2dWireframe
 70
     4
 71
     0
 72
     2
 73
     0
 90
        0
 40
-0.6
 41
-30.0
 62
     5
 63
     7
421
 16777215
 74
     1
 91
        4
 64
     7
 65
   257
 75
     1
175
     1
 42
1.0
 92
        0
 66
   257
 43
1.0
 76
     1
 77
     6
 78
     2
 67
     7
 79
     5
170
     0
171
     0
290
     0
174
     0
 93
        1
 44
0.0
173
     0
291
     0
 45
0.0
  0
VISUALSTYLE
  5
26E
102
{ACAD_REACTORS
330
267
102
}
330
267
100
AcDbVisualStyle
  2
3D Hidden
 70
     6
 71
     1
 72
     2
 73
     2
 90
        0
 40
-0.6
 41
-30.0
 62
     5
 63
     7
421
 16777215
 74
     2
 91
        2
 64
     7
 65
   257
 75
     2
175
     1
 42
40.0
 92
        0
 66
   257
 43
1.0
 76
     1
 77
     6
 78
     2
 67
     7
 79
     3
170
     0
171
     0
290
     0
174
     0
 93
        1
 44
0.0
173
     0
291
     0
 45
0.0
  0
VISUALSTYLE
  5
26D
102
{ACAD_REACTORS
330
267
102
}
330
267
100
AcDbVisualStyle
  2
3dWireframe
 70
     5
 71
     0
 72
     2
 73
     0
 90
        0
 40
-0.6
 41
-30.0
 62
     5
 63
     7
421
 16777215
 74
     1
 91
        4
 64
     7
 65
   257
 75
     1
175
     1
 42
1.0
 92
        0
 66
   257
 43
1.0
 76
     1
 77
     6
 78
     2
 67
     7
 79
     5
170
     0
171
     0
290
     0
174
     0
 93
        1
 44
0.0
173
     0
291
     0
 45
0.0
  0
VISUALSTYLE
  5
26F
102
{ACAD_REACTORS
330
267
102
}
330
267
100
AcDbVisualStyle
  2
Basic
 70
     7
 71
     1
 72
     0
 73
     1
 90
        0
 40
-0.6
 41
-30.0
 62
     5
 63
     7
421
 16777215
 74
     0
 91
        4
 64
     7
 65
   257
 75
     1
175
     1
 42
1.0
 92
        8
 66
     7
 43
1.0
 76
     1
 77
     6
 78
     2
 67
     7
 79
     5
170
     0
171
     0
290
     0
174
     0
 93
        1
 44
0.0
173
     0
291
     1
 45
0.0
  0
VISUALSTYLE
  5
273
102
{ACAD_REACTORS
330
267
102
}
330
267
100
AcDbVisualStyle
  2
Brighten
 70
    12
 71
     2
 72
     2
 73
     0
 90
        0
 40
-0.6
 41
-30.0
 62
     5
 63
     7
421
 16777215
 74
     1
 91
        4
 64
     7
 65
   257
 75
     1
175
     1
 42
1.0
 92
        8
 66
     7
 43
1.0
 76
     1
 77
     6
 78
     2
 67
     7
 79
     5
170
     0
171
     0
290
     0
174
     0
 93
        1
 44
50.0
173
     0
291
     1
 45
0.0
  0
VISUALSTYLE
  5
277
102
{ACAD_REACTORS
330
267
102
}
330
267
100
AcDbVisualStyle
  2
ColorChange
 70
    16
 71
     2
 72
     2
 73
     3
 90
        0
 40
-0.6
 41
-30.0
 62
     5
 63
     8
421
  8421504
 74
     1
 91
        4
 64
     7
 65
   257
 75
     1
175
     1
 42
1.0
 92
        8
 66
     8
424
  8421504
 43
1.0
 76
     1
 77
     6
 78
     2
 67
     7
 79
     5
170
     0
171
     0
290
     0
174
     0
 93
        1
 44
0.0
173
     0
291
     1
 45
0.0
  0
VISUALSTYLE
  5
271
102
{ACAD_REACTORS
330
267
102
}
330
267
100
AcDbVisualStyle
  2
Conceptual
 70
     9
 71
     3
 72
     2
 73
     0
 90
        0
 40
-0.6
 41
-30.0
 62
     5
 63
     7
421
 16777215
 74
     2
 91
        2
 64
     7
 65
   257
 75
     1
175
     1
 42
40.0
 92
        8
 66
     7
 43
1.0
 76
     1
 77
     6
 78
     2
 67
     7
 79
     3
170
     0
171
     0
290
     0
174
     0
 93
        1
 44
0.0
173
     0
291
     0
 45
0.0
  0
VISUALSTYLE
  5
272
102
{ACAD_REACTORS
330
267
102
}
330
267
100
AcDbVisualStyle
  2
Dim
 70
    11
 71
     2
 72
     2
 73
     0
 90
        0
 40
-0.6
 41
-30.0
 62
     5
 63
     7
421
 16777215
 74
     1
 91
        4
 64
     7
 65
   257
 75
     1
175
     1
 42
1.0
 92
        8
 66
     7
 43
1.0
 76
     1
 77
     6
 78
     2
 67
     7
 79
     5
170
     0
171
     0
290
     0
174
     0
 93
        1
 44
-50.0
173
     0
291
     1
 45
0.0
  0
VISUALSTYLE
  5
8BC
102
{ACAD_REACTORS
330
267
102
}
330
267
100
AcDbVisualStyle
  2
EdgeColorOff
 70
    22
 71
     2
 72
     2
 73
     0
 90
        0
 40
0.6
 41
30.0
 62
     5
 63
     7
421
 16777215
 74
     1
 91
        4
 64
     7
 65
   257
 75
     1
175
     1
 42
1.0
 92
        8
 66
     7
 43
1.0
 76
     1
 77
     6
 78
     2
 67
     7
 79
     5
170
     0
171
     0
290
     0
174
     0
 93
        1
 44
0.0
173
     0
291
     1
 45
0.0
  0
VISUALSTYLE
  5
276
102
{ACAD_REACTORS
330
267
102
}
330
267
100
AcDbVisualStyle
  2
Facepattern
 70
    15
 71
     2
 72
     2
 73
     0
 90
        0
 40
-0.6
 41
-30.0
 62
     5
 63
     7
421
 16777215
 74
     1
 91
        4
 64
     7
 65
   257
 75
     1
175
     1
 42
1.0
 92
        8
 66
     7
 43
1.0
 76
     1
 77
     6
 78
     2
 67
     7
 79
     5
170
     0
171
     0
290
     0
174
     0
 93
        1
 44
0.0
173
     0
291
     1
 45
0.0
  0
VISUALSTYLE
  5
268
102
{ACAD_REACTORS
330
267
102
}
330
267
100
AcDbVisualStyle
  2
Flat
 70
     0
 71
     2
 72
     1
 73
     1
 90
        2
 40
-0.6
 41
30.0
 62
     5
 63
     7
421
 16777215
 74
     0
 91
        4
 64
     7
 65
   257
 75
     1
175
     1
 42
1.0
 92
        8
 66
     7
 43
1.0
 76
     1
 77
     6
 78
     2
 67
     7
 79
     5
170
     0
171
     0
290
     0
174
     0
 93
       13
 44
0.0
173
     0
291
     1
 45
0.0
  0
VISUALSTYLE
  5
269
102
{ACAD_REACTORS
330
267
102
}
330
267
100
AcDbVisualStyle
  2
FlatWithEdges
 70
     1
 71
     2
 72
     1
 73
     1
 90
        2
 40
-0.6
 41
30.0
 62
     5
 63
     7
421
 16777215
 74
     1
 91
        4
 64
     7
 65
   257
 75
     1
175
     1
 42
1.0
 92
        0
 66
   257
 43
1.0
 76
     1
 77
     6
 78
     2
 67
     7
 79
     5
170
     0
171
     0
290
     0
174
     0
 93
       13
 44
0.0
173
     0
291
     1
 45
0.0
  0
VISUALSTYLE
  5
26A
102
{ACAD_REACTORS
330
267
102
}
330
267
100
AcDbVisualStyle
  2
Gouraud
 70
     2
 71
     2
 72
     2
 73
     1
 90
        2
 40
-0.6
 41
30.0
 62
     5
 63
     7
421
 16777215
 74
     0
 91
        4
 64
     7
 65
   257
 75
     1
175
     1
 42
1.0
 92
        0
 66
     7
 43
1.0
 76
     1
 77
     6
 78
     2
 67
     7
 79
     5
170
     0
171
     0
290
     0
174
     0
 93
       13
 44
0.0
173
     0
291
     1
 45
0.0
  0
VISUALSTYLE
  5
26B
102
{ACAD_REACTORS
330
267
102
}
330
267
100
AcDbVisualStyle
  2
GouraudWithEdges
 70
     3
 71
     2
 72
     2
 73
     1
 90
        2
 40
-0.6
 41
30.0
 62
     5
 63
     7
421
 16777215
 74
     1
 91
        4
 64
     7
 65
   257
 75
     1
175
     1
 42
1.0
 92
        0
 66
   257
 43
1.0
 76
     1
 77
     6
 78
     2
 67
     7
 79
     5
170
     0
171
     0
290
     0
174
     0
 93
       13
 44
0.0
173
     0
291
     1
 45
0.0
  0
VISUALSTYLE
  5
8B9
102
{ACAD_REACTORS
330
267
102
}
330
267
100
AcDbVisualStyle
  2
Hidden
 70
     6
 71
     1
 72
     2
 73
     2
 90
        0
 40
0.6
 41
30.0
 62
     5
 63
     7
421
 16777215
 74
     2
 91
        2
 64
     7
 65
   257
 75
     2
175
     1
 42
40.0
 92
        0
 66
   257
 43
1.0
 76
     1
 77
     6
 78
     2
 67
     7
 79
     3
170
     0
171
     0
290
     0
174
     0
 93
        1
 44
0.0
173
     0
291
     0
 45
0.0
  0
VISUALSTYLE
  5
8BA
102
{ACAD_REACTORS
330
267
102
}
330
267
100
AcDbVisualStyle
  2
JitterOff
 70
    20
 71
     2
 72
     2
 73
     0
 90
        0
 40
0.6
 41
30.0
 62
     5
 63
     7
421
 16777215
 74
     1
 91
        4
 64
     7
 65
   257
 75
     1
175
     1
 42
1.0
 92
       10
 66
     7
 43
1.0
 76
     1
 77
     6
 78
     2
 67
     7
 79
     5
170
     0
171
     0
290
     0
174
     0
 93
        1
 44
0.0
173
     0
291
     1
 45
0.0
  0
VISUALSTYLE
  5
275
102
{ACAD_REACTORS
330
267
102
}
330
267
100
AcDbVisualStyle
  2
Linepattern
 70
    14
 71
     2
 72
     2
 73
     0
 90
        0
 40
-0.6
 41
-30.0
 62
     5
 63
     7
421
 16777215
 74
     1
 91
        4
 64
     7
 65
   257
 75
     7
175
     7
 42
1.0
 92
        8
 66
     7
 43
1.0
 76
     1
 77
     6
 78
     2
 67
     7
 79
     5
170
     0
171
     0
290
     0
174
     0
 93
        1
 44
0.0
173
     0
291
     1
 45
0.0
  0
VISUALSTYLE
  5
8BB
102
{ACAD_REACTORS
330
267
102
}
330
267
100
AcDbVisualStyle
  2
OverhangOff
 70
    21
 71
     2
 72
     2
 73
     0
 90
        0
 40
0.6
 41
30.0
 62
     5
 63
     7
421
 16777215
 74
     1
 91
        4
 64
     7
 65
   257
 75
     1
175
     1
 42
1.0
 92
        9
 66
     7
 43
1.0
 76
     1
 77
     6
 78
     2
 67
     7
 79
     5
170
     0
171
     0
290
     0
174
     0
 93
        1
 44
0.0
173
     0
291
     1
 45
0.0
  0
VISUALSTYLE
  5
270
102
{ACAD_REACTORS
330
267
102
}
330
267
100
AcDbVisualStyle
  2
Realistic
 70
     8
 71
     2
 72
     2
 73
     0
 90
        0
 40
-0.6
 41
-30.0
 62
     5
 63
     7
421
 16777215
 74
     1
 91
        0
 64
     7
 65
   257
 75
     1
175
     1
 42
1.0
 92
        8
 66
     8
424
  7895160
 43
1.0
 76
     1
 77
     6
 78
     2
 67
     7
 79
     5
170
     0
171
     0
290
     0
174
     0
 93
       13
 44
0.0
173
     0
291
     0
 45
0.0
  0
VISUALSTYLE
  5
8C1
102
{ACAD_REACTORS
330
267
102
}
330
267
100
AcDbVisualStyle
  2
Shaded
 70
    27
 71
     2
 72
     2
 73
     1
 90
        2
 40
0.6
 41
30.0
 62
     5
 63
     7
421
 16777215
 74
     0
 91
        4
 64
     7
 65
   257
 75
     1
175
     1
 42
1.0
 92
        8
 66
   257
 43
1.0
 76
     1
 77
     6
 78
     2
 67
     8
425
  7895160
 79
     3
170
     0
171
     0
290
     0
174
     0
 93
        5
 44
0.0
173
     0
291
     0
 45
0.0
  0
VISUALSTYLE
  5
8C0
102
{ACAD_REACTORS
330
267
102
}
330
267
100
AcDbVisualStyle
  2
Shaded with edges
 70
    26
 71
     2
 72
     2
 73
     1
 90
        2
 40
0.6
 41
30.0
 62
     5
 63
     7
421
 16777215
 74
     1
 91
       10
 64
     7
 65
   257
 75
     2
175
     1
 42
1.0
 92
        8
 66
   257
 43
1.0
 76
     1
 77
     6
 78
     2
 67
     7
 79
     3
170
     0
171
     0
290
     0
174
     0
 93
        5
 44
0.0
173
     0
291
     0
 45
0.0
  0
VISUALSTYLE
  5
8BD
102
{ACAD_REACTORS
330
267
102
}
330
267
100
AcDbVisualStyle
  2
Shades of Gray
 70
    23
 71
     2
 72
     2
 73
     3
 90
        0
 40
0.6
 41
30.0
 62
     5
 63
     7
421
 16777215
 74
     2
 91
        2
 64
     7
 65
     7
 75
     1
175
     1
 42
40.0
 92
        8
 66
     7
 43
1.0
 76
     1
 77
     6
 78
     2
 67
     7
 79
     3
170
     0
171
     0
290
     0
174
     0
 93
        1
 44
0.0
173
     0
291
     0
 45
0.0
  0
VISUALSTYLE
  5
8BE
102
{ACAD_REACTORS
330
267
102
}
330
267
100
AcDbVisualStyle
  2
Sketchy
 70
    24
 71
     1
 72
     2
 73
     2
 90
        0
 40
0.6
 41
30.0
 62
     5
 63
     7
421
 16777215
 74
     2
 91
        2
 64
     7
 65
     7
 75
     1
175
     1
 42
40.0
 92
       11
 66
     7
 43
1.0
 76
     1
 77
     6
 78
     2
 67
     7
 79
     6
170
     0
171
     0
290
     0
174
     0
 93
        1
 44
0.0
173
     0
291
     0
 45
0.0
  0
VISUALSTYLE
  5
274
102
{ACAD_REACTORS
330
267
102
}
330
267
100
AcDbVisualStyle
  2
Thicken
 70
    13
 71
     2
 72
     2
 73
     0
 90
        0
 40
-0.6
 41
-30.0
 62
     5
 63
     7
421
 16777215
 74
     1
 91
        4
 64
     7
 65
   257
 75
     1
175
     1
 42
1.0
 92
       12
 66
     7
 43
1.0
 76
     1
 77
     6
 78
     2
 67
     7
 79
     5
170
     0
171
     0
290
     0
174
     0
 93
        1
 44
0.0
173
     0
291
     1
 45
0.0
  0
VISUALSTYLE
  5
8B8
102
{ACAD_REACTORS
330
267
102
}
330
267
100
AcDbVisualStyle
  2
Wireframe
 70
     5
 71
     0
 72
     2
 73
     0
 90
        0
 40
0.6
 41
30.0
 62
     5
 63
     7
421
 16777215
 74
     1
 91
        4
 64
     7
 65
   257
 75
     1
175
     1
 42
1.0
 92
        0
 66
   257
 43
1.0
 76
     1
 77
     6
 78
     2
 67
     7
 79
     3
170
     0
171
     0
290
     0
174
     0
 93
        1
 44
0.0
173
     0
291
     0
 45
0.0
  0
VISUALSTYLE
  5
8BF
102
{ACAD_REACTORS
330
267
102
}
330
267
100
AcDbVisualStyle
  2
X-Ray
 70
    25
 71
     2
 72
     2
 73
     1
 90
        1
 40
0.5
 41
30.0
 62
     5
 63
     7
421
 16777215
 74
     1
 91
        0
 64
     7
 65
   257
 75
     1
175
     1
 42
1.0
 92
        8
 66
     7
 43
1.0
 76
     1
 77
     6
 78
     2
 67
     7
 79
     3
170
     0
171
     0
290
     0
174
     0
 93
       13
 44
0.0
173
     0
291
     0
 45
0.0
  0
DICTIONARYVAR
  5
331
102
{ACAD_REACTORS
330
330
102
}
330
330
100
DictionaryVariables
280
     0
  1
1:1
  0
DICTIONARYVAR
  5
8DA
102
{ACAD_REACTORS
330
330
102
}
330
330
100
DictionaryVariables
280
     0
  1
Standard
  0
DICTIONARYVAR
  5
335
102
{ACAD_REACTORS
330
330
102
}
330
330
100
DictionaryVariables
280
     0
  1
Standard
  0
DICTIONARYVAR
  5
C07
102
{ACAD_REACTORS
330
330
102
}
330
330
100
DictionaryVariables
280
     0
  1
ByLayer
  0
DICTIONARYVAR
  5
64A
102
{ACAD_REACTORS
330
330
102
}
330
330
100
DictionaryVariables
280
     0
  1
0
  0
DICTIONARYVAR
  5
4342
102
{ACAD_REACTORS
330
C08
102
}
330
C08
100
DictionaryVariables
280
     0
  1
0.261799
  0
DICTIONARYVAR
  5
4340
102
{ACAD_REACTORS
330
C08
102
}
330
C08
100
DictionaryVariables
280
     0
  1
0.400000
  0
DICTIONARYVAR
  5
4341
102
{ACAD_REACTORS
330
C08
102
}
330
C08
100
DictionaryVariables
280
     0
  1
0.250000
  0
DICTIONARYVAR
  5
4343
102
{ACAD_REACTORS
330
C08
102
}
330
C08
100
DictionaryVariables
280
     0
  1
1
  0
DICTIONARY
  5
14201
330
279
100
AcDbDictionary
280
     1
281
     1
  3
ACAD_ROUNDTRIP_2008_TABLESTYLE_CELLSTYLEMAP
360
14202
  0
CELLSTYLEMAP
  5
14202
102
{ACAD_REACTORS
330
14201
102
}
330
14201
100
AcDbCellStyleMap
 90
        3
300
CELLSTYLE
  1
TABLEFORMAT_BEGIN
 90
        5
170
     1
 91
        0
 92
    32768
 62
   257
 93
        1
300
CONTENTFORMAT
  1
CONTENTFORMAT_BEGIN
 90
        0
 91
        0
 92
        4
 93
        0
300

 40
0.0
140
1.0
 94
        5
 62
     0
340
17
144
6.0
309
CONTENTFORMAT_END
171
     1
301
MARGIN
  1
CELLMARGIN_BEGIN
 40
0.06
 40
0.06
 40
0.06
 40
0.06
 40
0.18
 40
0.18
309
CELLMARGIN_END
 94
        6
 95
        1
302
GRIDFORMAT
  1
GRIDFORMAT_BEGIN
 90
        0
 91
        1
 62
     0
 92
       -2
340
0
 93
        0
 40
0.045
309
GRIDFORMAT_END
 95
        2
302
GRIDFORMAT
  1
GRIDFORMAT_BEGIN
 90
        0
 91
        1
 62
     0
 92
       -2
340
0
 93
        0
 40
0.045
309
GRIDFORMAT_END
 95
        4
302
GRIDFORMAT
  1
GRIDFORMAT_BEGIN
 90
        0
 91
        1
 62
     0
 92
       -2
340
0
 93
        0
 40
0.045
309
GRIDFORMAT_END
 95
        8
302
GRIDFORMAT
  1
GRIDFORMAT_BEGIN
 90
        0
 91
        1
 62
     0
 92
       -2
340
0
 93
        0
 40
0.045
309
GRIDFORMAT_END
 95
       16
302
GRIDFORMAT
  1
GRIDFORMAT_BEGIN
 90
        0
 91
        1
 62
     0
 92
       -2
340
0
 93
        0
 40
0.045
309
GRIDFORMAT_END
 95
       32
302
GRIDFORMAT
  1
GRIDFORMAT_BEGIN
 90
        0
 91
        1
 62
     0
 92
       -2
340
0
 93
        0
 40
0.045
309
GRIDFORMAT_END
309
TABLEFORMAT_END
  1
CELLSTYLE_BEGIN
 90
        1
 91
        1
300
_TITLE
309
CELLSTYLE_END
300
CELLSTYLE
  1
TABLEFORMAT_BEGIN
 90
        5
170
     1
 91
        0
 92
        0
 62
   257
 93
        1
300
CONTENTFORMAT
  1
CONTENTFORMAT_BEGIN
 90
        0
 91
        0
 92
        4
 93
        0
300

 40
0.0
140
1.0
 94
        5
 62
     0
340
17
144
4.5
309
CONTENTFORMAT_END
171
     1
301
MARGIN
  1
CELLMARGIN_BEGIN
 40
0.06
 40
0.06
 40
0.06
 40
0.06
 40
0.18
 40
0.18
309
CELLMARGIN_END
 94
        6
 95
        1
302
GRIDFORMAT
  1
GRIDFORMAT_BEGIN
 90
        0
 91
        1
 62
     0
 92
       -2
340
0
 93
        0
 40
0.045
309
GRIDFORMAT_END
 95
        2
302
GRIDFORMAT
  1
GRIDFORMAT_BEGIN
 90
        0
 91
        1
 62
     0
 92
       -2
340
0
 93
        0
 40
0.045
309
GRIDFORMAT_END
 95
        4
302
GRIDFORMAT
  1
GRIDFORMAT_BEGIN
 90
        0
 91
        1
 62
     0
 92
       -2
340
0
 93
        0
 40
0.045
309
GRIDFORMAT_END
 95
        8
302
GRIDFORMAT
  1
GRIDFORMAT_BEGIN
 90
        0
 91
        1
 62
     0
 92
       -2
340
0
 93
        0
 40
0.045
309
GRIDFORMAT_END
 95
       16
302
GRIDFORMAT
  1
GRIDFORMAT_BEGIN
 90
        0
 91
        1
 62
     0
 92
       -2
340
0
 93
        0
 40
0.045
309
GRIDFORMAT_END
 95
       32
302
GRIDFORMAT
  1
GRIDFORMAT_BEGIN
 90
        0
 91
        1
 62
     0
 92
       -2
340
0
 93
        0
 40
0.045
309
GRIDFORMAT_END
309
TABLEFORMAT_END
  1
CELLSTYLE_BEGIN
 90
        2
 91
        1
300
_HEADER
309
CELLSTYLE_END
300
CELLSTYLE
  1
TABLEFORMAT_BEGIN
 90
        5
170
     1
 91
        0
 92
        0
 62
   257
 93
        1
300
CONTENTFORMAT
  1
CONTENTFORMAT_BEGIN
 90
        0
 91
        0
 92
        4
 93
        0
300

 40
0.0
140
1.0
 94
        2
 62
     0
340
17
144
4.5
309
CONTENTFORMAT_END
171
     1
301
MARGIN
  1
CELLMARGIN_BEGIN
 40
0.06
 40
0.06
 40
0.06
 40
0.06
 40
0.18
 40
0.18
309
CELLMARGIN_END
 94
        6
 95
        1
302
GRIDFORMAT
  1
GRIDFORMAT_BEGIN
 90
        0
 91
        1
 62
     0
 92
       -2
340
0
 93
        0
 40
0.045
309
GRIDFORMAT_END
 95
        2
302
GRIDFORMAT
  1
GRIDFORMAT_BEGIN
 90
        0
 91
        1
 62
     0
 92
       -2
340
0
 93
        0
 40
0.045
309
GRIDFORMAT_END
 95
        4
302
GRIDFORMAT
  1
GRIDFORMAT_BEGIN
 90
        0
 91
        1
 62
     0
 92
       -2
340
0
 93
        0
 40
0.045
309
GRIDFORMAT_END
 95
        8
302
GRIDFORMAT
  1
GRIDFORMAT_BEGIN
 90
        0
 91
        1
 62
     0
 92
       -2
340
0
 93
        0
 40
0.045
309
GRIDFORMAT_END
 95
       16
302
GRIDFORMAT
  1
GRIDFORMAT_BEGIN
 90
        0
 91
        1
 62
     0
 92
       -2
340
0
 93
        0
 40
0.045
309
GRIDFORMAT_END
 95
       32
302
GRIDFORMAT
  1
GRIDFORMAT_BEGIN
 90
        0
 91
        1
 62
     0
 92
       -2
340
0
 93
        0
 40
0.045
309
GRIDFORMAT_END
309
TABLEFORMAT_END
  1
CELLSTYLE_BEGIN
 90
        3
 91
        2
300
_DATA
309
CELLSTYLE_END
  0
ENDSEC
  0
EOF
