  0
SECTION
  2
HEADER
  9
$ACADVER
  1
AC1021
  9
$ACADMAINTVER
 70
    25
  9
$DWGCODEPAGE
  3
ANSI_932
  9
$LASTSAVEDBY
  1
howeNelson
  9
$INSBASE
 10
0.0
 20
0.0
 30
0.0
  9
$EXTMIN
 10
72.20214454724874
 20
63.79214832457114
 30
0.0
  9
$EXTMAX
 10
2022.202144547732
 20
2897.146673506426
 30
0.0
  9
$LIMMIN
 10
0.0
 20
0.0
  9
$LIMMAX
 10
2100.0
 20
2970.0
  9
$ORTHOMODE
 70
     0
  9
$REGENMODE
 70
     1
  9
$FILLMODE
 70
     1
  9
$QTEXTMODE
 70
     0
  9
$MIRRTEXT
 70
     1
  9
$LTSCALE
 40
50.8
  9
$ATTMODE
 70
     1
  9
$TEXTSIZE
 40
2.5
  9
$TRACEWID
 40
1.0
  9
$TEXTSTYLE
  7
ＭＳ ゴシック
  9
$CLAYER
  8
MODEL
  9
$CELTYPE
  6
Continuous
  9
$CECOLOR
 62
   256
  9
$CELTSCALE
 40
1.0
  9
$DISPSILH
 70
     0
  9
$DIMSCALE
 40
1.0
  9
$DIMASZ
 40
9.0
  9
$DIMEXO
 40
20.0
  9
$DIMDLI
 40
2.0
  9
$DIMRND
 40
0.0
  9
$DIMDLE
 40
0.0
  9
$DIMEXE
 40
0.0
  9
$DIMTP
 40
0.0
  9
$DIMTM
 40
0.0
  9
$DIMTXT
 40
24.0
  9
$DIMCEN
 40
0.0
  9
$DIMTSZ
 40
0.0
  9
$DIMTOL
 70
     0
  9
$DIMLIM
 70
     0
  9
$DIMTIH
 70
     0
  9
$DIMTOH
 70
     0
  9
$DIMSE1
 70
     0
  9
$DIMSE2
 70
     0
  9
$DIMTAD
 70
     1
  9
$DIMZIN
 70
    11
  9
$DIMBLK
  1
DOT
  9
$DIMASO
 70
     1
  9
$DIMSHO
 70
     1
  9
$DIMPOST
  1
<>
  9
$DIMAPOST
  1
[]
  9
$DIMALT
 70
     0
  9
$DIMALTD
 70
     1
  9
$DIMALTF
 40
1.0
  9
$DIMLFAC
 40
1.0
  9
$DIMTOFL
 70
     0
  9
$DIMTVP
 40
0.0
  9
$DIMTIX
 70
     1
  9
$DIMSOXD
 70
     0
  9
$DIMSAH
 70
     0
  9
$DIMBLK1
  1

  9
$DIMBLK2
  1

  9
$DIMSTYLE
  2
tfrom線あり
  9
$DIMCLRD
 70
     0
  9
$DIMCLRE
 70
     0
  9
$DIMCLRT
 70
     0
  9
$DIMTFAC
 40
1.0
  9
$DIMGAP
 40
10.0
  9
$DIMJUST
 70
     0
  9
$DIMSD1
 70
     0
  9
$DIMSD2
 70
     0
  9
$DIMTOLJ
 70
     1
  9
$DIMTZIN
 70
    11
  9
$DIMALTZ
 70
    11
  9
$DIMALTTZ
 70
    11
  9
$DIMUPT
 70
     0
  9
$DIMDEC
 70
     0
  9
$DIMTDEC
 70
     1
  9
$DIMALTU
 70
     2
  9
$DIMALTTD
 70
     2
  9
$DIMTXSTY
  7
ＭＳ ゴシック
  9
$DIMAUNIT
 70
     0
  9
$DIMADEC
 70
     2
  9
$DIMALTRND
 40
0.0
  9
$DIMAZIN
 70
     0
  9
$DIMDSEP
 70
    46
  9
$DIMATFIT
 70
     0
  9
$DIMFRAC
 70
     2
  9
$DIMLDRBLK
  1
DOT
  9
$DIMLUNIT
 70
     2
  9
$DIMLWD
 70
    -2
  9
$DIMLWE
 70
    -2
  9
$DIMTMOVE
 70
     0
  9
$DIMFXL
 40
1.0
  9
$DIMFXLON
 70
     0
  9
$DIMJOGANG
 40
0.7853981633974483
  9
$DIMTFILL
 70
     0
  9
$DIMTFILLCLR
 70
     0
  9
$DIMARCSYM
 70
     0
  9
$DIMLTYPE
  6

  9
$DIMLTEX1
  6

  9
$DIMLTEX2
  6

  9
$LUNITS
 70
     2
  9
$LUPREC
 70
     0
  9
$SKETCHINC
 40
0.1
  9
$FILLETRAD
 40
0.0
  9
$AUNITS
 70
     0
  9
$AUPREC
 70
     0
  9
$MENU
  1
acad
  9
$ELEVATION
 40
0.0
  9
$PELEVATION
 40
0.0
  9
$THICKNESS
 40
0.0
  9
$LIMCHECK
 70
     0
  9
$CHAMFERA
 40
0.0
  9
$CHAMFERB
 40
0.0
  9
$CHAMFERC
 40
0.0
  9
$CHAMFERD
 40
0.0
  9
$SKPOLY
 70
     0
  9
$TDCREATE
 40
2447893.375
  9
$TDUCREATE
 40
0.0
  9
$TDUPDATE
 40
2458054.567324109
  9
$TDUUPDATE
 40
2458054.192324109
  9
$TDINDWG
 40
0.1670191435
  9
$TDUSRTIMER
 40
2458054.191197072
  9
$USRTIMER
 70
     1
  9
$ANGBASE
 50
0.0
  9
$ANGDIR
 70
     0
  9
$PDMODE
 70
     1
  9
$PDSIZE
 40
-2.0
  9
$PLINEWID
 40
0.0
  9
$SPLFRAME
 70
     0
  9
$SPLINETYPE
 70
     6
  9
$SPLINESEGS
 70
     8
  9
$HANDSEED
  5
1A33
  9
$SURFTAB1
 70
     6
  9
$SURFTAB2
 70
     6
  9
$SURFTYPE
 70
     6
  9
$SURFU
 70
     6
  9
$SURFV
 70
     6
  9
$UCSBASE
  2

  9
$UCSNAME
  2

  9
$UCSORG
 10
0.0
 20
0.0
 30
0.0
  9
$UCSXDIR
 10
1.0
 20
0.0
 30
0.0
  9
$UCSYDIR
 10
0.0
 20
1.0
 30
0.0
  9
$UCSORTHOREF
  2

  9
$UCSORTHOVIEW
 70
     0
  9
$UCSORGTOP
 10
0.0
 20
0.0
 30
0.0
  9
$UCSORGBOTTOM
 10
0.0
 20
0.0
 30
0.0
  9
$UCSORGLEFT
 10
0.0
 20
0.0
 30
0.0
  9
$UCSORGRIGHT
 10
0.0
 20
0.0
 30
0.0
  9
$UCSORGFRONT
 10
0.0
 20
0.0
 30
0.0
  9
$UCSORGBACK
 10
0.0
 20
0.0
 30
0.0
  9
$PUCSBASE
  2

  9
$PUCSNAME
  2

  9
$PUCSORG
 10
0.0
 20
0.0
 30
0.0
  9
$PUCSXDIR
 10
1.0
 20
0.0
 30
0.0
  9
$PUCSYDIR
 10
0.0
 20
1.0
 30
0.0
  9
$PUCSORTHOREF
  2

  9
$PUCSORTHOVIEW
 70
     0
  9
$PUCSORGTOP
 10
0.0
 20
0.0
 30
0.0
  9
$PUCSORGBOTTOM
 10
0.0
 20
0.0
 30
0.0
  9
$PUCSORGLEFT
 10
0.0
 20
0.0
 30
0.0
  9
$PUCSORGRIGHT
 10
0.0
 20
0.0
 30
0.0
  9
$PUCSORGFRONT
 10
0.0
 20
0.0
 30
0.0
  9
$PUCSORGBACK
 10
0.0
 20
0.0
 30
0.0
  9
$USERI1
 70
     0
  9
$USERI2
 70
     0
  9
$USERI3
 70
     0
  9
$USERI4
 70
     0
  9
$USERI5
 70
     0
  9
$USERR1
 40
0.0
  9
$USERR2
 40
0.0
  9
$USERR3
 40
0.0
  9
$USERR4
 40
0.0
  9
$USERR5
 40
0.0
  9
$WORLDVIEW
 70
     1
  9
$SHADEDGE
 70
     3
  9
$SHADEDIF
 70
    70
  9
$TILEMODE
 70
     1
  9
$MAXACTVP
 70
    64
  9
$PINSBASE
 10
0.0
 20
0.0
 30
0.0
  9
$PLIMCHECK
 70
     0
  9
$PEXTMIN
 10
0.0
 20
0.0
 30
0.0
  9
$PEXTMAX
 10
0.0
 20
0.0
 30
0.0
  9
$PLIMMIN
 10
-7.5
 20
-20.0
  9
$PLIMMAX
 10
412.5
 20
277.0
  9
$UNITMODE
 70
     0
  9
$VISRETAIN
 70
     0
  9
$PLINEGEN
 70
     1
  9
$PSLTSCALE
 70
     0
  9
$TREEDEPTH
 70
  3020
  9
$CMLSTYLE
  2
Standard
  9
$CMLJUST
 70
     0
  9
$CMLSCALE
 40
1.0
  9
$PROXYGRAPHICS
 70
     0
  9
$MEASUREMENT
 70
     1
  9
$CELWEIGHT
370
    -1
  9
$ENDCAPS
280
     0
  9
$JOINSTYLE
280
     0
  9
$LWDISPLAY
290
     1
  9
$INSUNITS
 70
     4
  9
$HYPERLINKBASE
  1

  9
$STYLESHEET
  1

  9
$XEDIT
290
     1
  9
$CEPSNTYPE
380
     0
  9
$PSTYLEMODE
290
     1
  9
$FINGERPRINTGUID
  2

  9
$VERSIONGUID
  2

  9
$EXTNAMES
290
     1
  9
$PSVPSCALE
 40
0.0
  9
$OLESTARTUP
290
     0
  9
$SORTENTS
280
   127
  9
$INDEXCTL
280
     0
  9
$HIDETEXT
280
     1
  9
$XCLIPFRAME
290
     0
  9
$HALOGAP
280
     0
  9
$OBSCOLOR
 70
   257
  9
$OBSLTYPE
280
     0
  9
$INTERSECTIONDISPLAY
280
     0
  9
$INTERSECTIONCOLOR
 70
   257
  9
$DIMASSOC
280
     2
  9
$PROJECTNAME
  1

  9
$CAMERADISPLAY
290
     0
  9
$LENSLENGTH
 40
50.0
  9
$CAMERAHEIGHT
 40
0.0
  9
$STEPSPERSEC
 40
2.0
  9
$STEPSIZE
 40
6.0
  9
$3DDWFPREC
 40
2.0
  9
$PSOLWIDTH
 40
0.25
  9
$PSOLHEIGHT
 40
4.0
  9
$LOFTANG1
 40
1.570796326794897
  9
$LOFTANG2
 40
1.570796326794897
  9
$LOFTMAG1
 40
0.0
  9
$LOFTMAG2
 40
0.0
  9
$LOFTPARAM
 70
     7
  9
$LOFTNORMALS
280
     1
  9
$LATITUDE
 40
37.795
  9
$LONGITUDE
 40
-122.394
  9
$NORTHDIRECTION
 40
0.0
  9
$TIMEZONE
 70
 -8000
  9
$LIGHTGLYPHDISPLAY
280
     1
  9
$TILEMODELIGHTSYNCH
280
     1
  9
$SOLIDHIST
280
     1
  9
$SHOWHIST
280
     1
  9
$DWFFRAME
280
     2
  9
$DGNFRAME
280
     2
  9
$REALWORLDSCALE
290
     1
  9
$INTERFERECOLOR
 62
   256
  9
$CSHADOW
280
     0
  9
$SHADOWPLANELOCATION
 40
0.0
  0
ENDSEC
  0
SECTION
  2
CLASSES
  0
CLASS
  1
LWPOLYLINE
  2
AcDbPolyline
  3
ObjectDBX Classes
 90
        0
 91
        1
280
     0
281
     1
  0
CLASS
  1
IMAGE
  2
AcDbRasterImage
  3
ISM
 90
      127
 91
        6
280
     0
281
     1
  0
CLASS
  1
OLE2FRAME
  2
AcDbOle2Frame
  3
ObjectDBX Classes
 90
        0
 91
        1
280
     0
281
     1
  0
CLASS
  1
HATCH
  2
AcDbHatch
  3
ObjectDBX Classes
 90
        0
 91
        1
280
     0
281
     1
  0
CLASS
  1
DICTIONARYVAR
  2
AcDbDictionaryVar
  3
ObjectDBX Classes
 90
        0
 91
        5
280
     0
281
     0
  0
CLASS
  1
RASTERVARIABLES
  2
AcDbRasterVariables
  3
ISM
 90
        0
 91
        5
280
     0
281
     0
  0
CLASS
  1
IMAGEDEF
  2
AcDbRasterImageDef
  3
ISM
 90
        0
 91
        5
280
     0
281
     0
  0
CLASS
  1
IMAGEDEF_REACTOR
  2
AcDbRasterImageDefReactor
  3
ISM
 90
        1
 91
        5
280
     0
281
     0
  0
CLASS
  1
IDBUFFER
  2
AcDbIdBuffer
  3
ObjectDBX Classes
 90
        0
 91
        5
280
     0
281
     0
  0
CLASS
  1
SPATIAL_FILTER
  2
AcDbSpatialFilter
  3
ObjectDBX Classes
 90
        0
 91
        5
280
     0
281
     0
  0
CLASS
  1
XRECORD
  2
AcDbXrecord
  3
ObjectDBX Classes
 90
        0
 91
        1
280
     0
281
     0
  0
CLASS
  1
SORTENTSTABLE
  2
AcDbSortentsTable
  3
ObjectDBX Classes
 90
        0
 91
        5
280
     0
281
     0
  0
CLASS
  1
LAYER_INDEX
  2
AcDbLayerIndex
  3
ObjectDBX Classes
 90
        0
 91
        5
280
     0
281
     0
  0
CLASS
  1
SPATIAL_INDEX
  2
AcDbSpatialIndex
  3
AutoCAD 2000
 90
        0
 91
        5
280
     0
281
     0
  0
CLASS
  1
OBJECT_PTR
  2
CAseDLPNTableRecord
  3
ASE-LPNTableRecord
 90
        1
 91
        5
280
     0
281
     0
  0
CLASS
  1
LAYOUT
  2
AcDbLayout
  3
ObjectDBX Classes
 90
        0
 91
        1
280
     0
281
     0
  0
CLASS
  1
PLOTSETTINGS
  2
AcDbPlotSettings
  3
ObjectDBX Classes
 90
        0
 91
        5
280
     0
281
     0
  0
CLASS
  1
ACDBDICTIONARYWDFLT
  2
AcDbDictionaryWithDefault
  3
ObjectDBX Classes
 90
        0
 91
        5
280
     0
281
     0
  0
CLASS
  1
ACDBPLACEHOLDER
  2
AcDbPlaceHolder
  3
ObjectDBX Classes
 90
        0
 91
        1
280
     0
281
     0
  0
CLASS
  1
SCALE
  2
AcDbScale
  3
ObjectDBX Classes
 90
     1153
 91
        5
280
     0
281
     0
  0
CLASS
  1
MATERIAL
  2
AcDbMaterial
  3
ObjectDBX Classes
 90
     1153
 91
        5
280
     0
281
     0
  0
CLASS
  1
VISUALSTYLE
  2
AcDbVisualStyle
  3
ObjectDBX Classes
 90
     4095
 91
        5
280
     0
281
     0
  0
CLASS
  1
TABLESTYLE
  2
AcDbTableStyle
  3
ObjectDBX Classes
 90
     4095
 91
        5
280
     0
281
     0
  0
CLASS
  1
DIMASSOC
  2
AcDbDimAssoc
  3
"AcDbDimAssoc|Product Desc:     AcDim ARX App For Dimension|Company:          Autodesk, Inc.|WEB Address:      www.autodesk.com"
 90
        0
 91
        5
280
     0
281
     0
  0
CLASS
  1
CELLSTYLEMAP
  2
AcDbCellStyleMap
  3
ObjectDBX Classes
 90
     1152
 91
        5
280
     0
281
     0
  0
CLASS
  1
SUN
  2
AcDbSun
  3
SCENEOE
 90
     1153
 91
        5
280
     0
281
     0
  0
CLASS
  1
MLEADERSTYLE
  2
AcDbMLeaderStyle
  3
ACDB_MLEADERSTYLE_CLASS
 90
     4095
 91
        5
280
     0
281
     0
  0
ENDSEC
  0
SECTION
  2
TABLES
  0
TABLE
  2
VPORT
  5
7
330
0
100
AcDbSymbolTable
 70
     1
  0
VPORT
  5
15
330
7
100
AcDbSymbolTableRecord
100
AcDbViewportTableRecord
  2
*ACTIVE
 70
     0
 10
0.0
 20
0.0
 11
1.0
 21
1.0
 12
1138.22228021839
 22
1406.870696385333
 13
0.0
 23
0.0
 14
1.0
 24
1.0
 15
0.0
 25
0.0
 16
0.0
 26
0.0
 36
1.0
 17
-91.02013567089966
 27
73.59871453016603
 37
-46.86809886248109
 40
2890.021615685492
 41
2.178082191780822
 42
50.0
 43
0.0
 44
0.0
 50
0.0
 51
0.0
 71
    16
 72
  2000
 73
     1
 74
     1
 75
     0
 76
     0
 77
     0
 78
     0
281
     0
 65
     1
110
0.0
120
0.0
130
0.0
111
1.0
121
0.0
131
0.0
112
0.0
122
1.0
132
0.0
 79
     0
146
0.0
348
1A1C
 60
     3
 61
     5
292
     1
282
     1
141
0.0
142
0.0
 63
   256
361
904
  0
ENDTAB
  0
TABLE
  2
LTYPE
  5
4
330
0
100
AcDbSymbolTable
 70
    20
  0
LTYPE
  5
11
330
4
100
AcDbSymbolTableRecord
100
AcDbLinetypeTableRecord
  2
ByBlock
 70
     0
  3

 72
    65
 73
     0
 40
0.0
  0
LTYPE
  5
12
330
4
100
AcDbSymbolTableRecord
100
AcDbLinetypeTableRecord
  2
ByLayer
 70
     0
  3

 72
    65
 73
     0
 40
0.0
  0
LTYPE
  5
13
330
4
100
AcDbSymbolTableRecord
100
AcDbLinetypeTableRecord
  2
Continuous
 70
     0
  3
Solid line
 72
    65
 73
     0
 40
0.0
  0
LTYPE
  5
3A
330
4
100
AcDbSymbolTableRecord
100
AcDbLinetypeTableRecord
  2
STYLE_01
 70
     0
  3

 72
    65
 73
     2
 40
0.2460629921259842
 49
0.1230314960629921
 74
     0
 49
-0.1230314960629921
 74
     0
  0
LTYPE
  5
3B
330
4
100
AcDbSymbolTableRecord
100
AcDbLinetypeTableRecord
  2
STYLE_02
 70
     0
  3

 72
    65
 73
     2
 40
0.6944250000000001
 49
0.48607
 74
     0
 49
-0.2083550000000001
 74
     0
  0
LTYPE
  5
3C
330
4
100
AcDbSymbolTableRecord
100
AcDbLinetypeTableRecord
  2
STYLE_03
 70
     0
  3

 72
    65
 73
     2
 40
1.25
 49
1.04164
 74
     0
 49
-0.2083599999999999
 74
     0
  0
LTYPE
  5
3D
330
4
100
AcDbSymbolTableRecord
100
AcDbLinetypeTableRecord
  2
STYLE_04
 70
     0
  3

 72
    65
 73
     2
 40
1.52771
 49
1.319425
 74
     0
 49
-0.208285
 74
     0
  0
LTYPE
  5
3E
330
4
100
AcDbSymbolTableRecord
100
AcDbLinetypeTableRecord
  2
STYLE_05
 70
     0
  3

 72
    65
 73
     2
 40
0.20828
 49
0.069425
 74
     0
 49
-0.138855
 74
     0
  0
LTYPE
  5
3F
330
4
100
AcDbSymbolTableRecord
100
AcDbLinetypeTableRecord
  2
STYLE_06
 70
     0
  3

 72
    65
 73
     4
 40
1.04164
 49
0.625
 74
     0
 49
-0.20828
 74
     0
 49
0.06943
 74
     0
 49
-0.13893
 74
     0
  0
LTYPE
  5
40
330
4
100
AcDbSymbolTableRecord
100
AcDbLinetypeTableRecord
  2
STYLE_07
 70
     0
  3

 72
    65
 73
     6
 40
1.875
 49
0.625
 74
     0
 49
-0.20828
 74
     0
 49
0.6250000000000001
 74
     0
 49
-0.2083599999999999
 74
     0
 49
0.06943
 74
     0
 49
-0.1389299999999999
 74
     0
  0
LTYPE
  5
41
330
4
100
AcDbSymbolTableRecord
100
AcDbLinetypeTableRecord
  2
STYLE_08
 70
     0
  3

 72
    65
 73
     6
 40
1.25
 49
0.625
 74
     0
 49
-0.20828
 74
     0
 49
0.06943
 74
     0
 49
-0.13893
 74
     0
 49
0.0694299999999999
 74
     0
 49
-0.13893
 74
     0
  0
LTYPE
  5
42
330
4
100
AcDbSymbolTableRecord
100
AcDbLinetypeTableRecord
  2
STYLE_09
 70
     0
  3

 72
    65
 73
     4
 40
5.0
 49
3.75
 74
     0
 49
-0.2777849999999998
 74
     0
 49
0.6944300000000003
 74
     0
 49
-0.2777849999999998
 74
     0
  0
LTYPE
  5
43
330
4
100
AcDbSymbolTableRecord
100
AcDbLinetypeTableRecord
  2
STYLE_10
 70
     0
  3

 72
    65
 73
     6
 40
5.9375
 49
3.75
 74
     0
 49
-0.2777849999999998
 74
     0
 49
0.6944300000000003
 74
     0
 49
-0.2777849999999998
 74
     0
 49
0.625
 74
     0
 49
-0.3125
 74
     0
  0
LTYPE
  5
44
330
4
100
AcDbSymbolTableRecord
100
AcDbLinetypeTableRecord
  2
STYLE_11
 70
     0
  3

 72
    65
 73
     2
 40
0.0694444881889764
 49
0.0347222440944882
 74
     0
 49
-0.0347222440944882
 74
     0
  0
LTYPE
  5
45
330
4
100
AcDbSymbolTableRecord
100
AcDbLinetypeTableRecord
  2
STYLE_12
 70
     0
  3

 72
    65
 73
     2
 40
0.3937007874015748
 49
0.1968503937007874
 74
     0
 49
-0.1968503937007874
 74
     0
  0
LTYPE
  5
46
330
4
100
AcDbSymbolTableRecord
100
AcDbLinetypeTableRecord
  2
STYLE_13
 70
     0
  3

 72
    65
 73
     2
 40
0.5905511811023622
 49
0.2952755905511811
 74
     0
 49
-0.2952755905511811
 74
     0
  0
LTYPE
  5
47
330
4
100
AcDbSymbolTableRecord
100
AcDbLinetypeTableRecord
  2
STYLE_14
 70
     0
  3

 72
    65
 73
     2
 40
1.968503937007874
 49
0.9842519685039369
 74
     0
 49
-0.9842519685039369
 74
     0
  0
LTYPE
  5
48
330
4
100
AcDbSymbolTableRecord
100
AcDbLinetypeTableRecord
  2
STYLE_15
 70
     0
  3

 72
    65
 73
     2
 40
0.1875
 49
0.125
 74
     0
 49
-0.0625
 74
     0
  0
LTYPE
  5
49
330
4
100
AcDbSymbolTableRecord
100
AcDbLinetypeTableRecord
  2
STYLE_16
 70
     0
  3

 72
    65
 73
     2
 40
0.3690944881889764
 49
0.2460629921259843
 74
     0
 49
-0.1230314960629922
 74
     0
  0
LTYPE
  5
908
330
4
100
AcDbSymbolTableRecord
100
AcDbLinetypeTableRecord
  2
AI-LINETYPE-1
 70
     0
  3
Adobe Illustrator Linetype No. 1
 72
    65
 73
     4
 40
2.116668062491661
 49
1.058334031245831
 74
     0
 49
-0.3527780104152769
 74
     0
 49
0.3527780104152769
 74
     0
 49
-0.3527780104152769
 74
     0
  0
LTYPE
  5
909
330
4
100
AcDbSymbolTableRecord
100
AcDbLinetypeTableRecord
  2
AI-LINETYPE-2
 70
     0
  3
Adobe Illustrator Linetype No. 2
 72
    65
 73
     4
 40
2.116668062491661
 49
1.058334031245831
 74
     0
 49
-0.3527780104152769
 74
     0
 49
0.3527780104152769
 74
     0
 49
-0.3527780104152769
 74
     0
  0
LTYPE
  5
DAF
330
4
100
AcDbSymbolTableRecord
100
AcDbLinetypeTableRecord
  2
HIDDEN2
 70
     0
  3
Hidden (.5x) _ _ _ _ _ _ _ _ _ _ _ _ _ _ _ _ _ 
 72
    65
 73
     2
 40
4.762499999999999
 49
3.175
 74
     0
 49
-1.5875
 74
     0
  0
ENDTAB
  0
TABLE
  2
LAYER
  5
2
102
{ACAD_XDICTIONARY
360
2E1
102
}
330
0
100
AcDbSymbolTable
 70
     7
  0
LAYER
  5
14
330
2
100
AcDbSymbolTableRecord
100
AcDbLayerTableRecord
  2
0
 70
     0
 62
     7
  6
Continuous
370
    -3
390
1D
347
266
  0
LAYER
  5
4B
330
2
100
AcDbSymbolTableRecord
100
AcDbLayerTableRecord
  2
TEMPLATE
 70
     0
 62
     7
  6
Continuous
370
    20
390
1D
347
266
  0
LAYER
  5
4C
330
2
100
AcDbSymbolTableRecord
100
AcDbLayerTableRecord
  2
DIM
 70
     0
 62
     7
  6
Continuous
370
    13
390
1D
347
266
  0
LAYER
  5
4D
330
2
100
AcDbSymbolTableRecord
100
AcDbLayerTableRecord
  2
MODEL
 70
     0
 62
     7
  6
Continuous
370
    20
390
1D
347
266
  0
LAYER
  5
667
330
2
100
AcDbSymbolTableRecord
100
AcDbLayerTableRecord
  2
LOGO
 70
     0
 62
     7
  6
Continuous
370
    -3
390
1D
347
266
  0
LAYER
  5
88C
330
2
100
AcDbSymbolTableRecord
100
AcDbLayerTableRecord
  2
HIDDEN
 70
     0
 62
     7
  6
STYLE_12
370
    20
390
1D
347
266
1001
AcAecLayerStandard
1000

1000

  0
LAYER
  5
D5D
330
2
100
AcDbSymbolTableRecord
100
AcDbLayerTableRecord
  2
Defpoints
 70
     0
 62
     7
  6
Continuous
290
     0
370
    -3
390
1D
347
266
  0
ENDTAB
  0
TABLE
  2
STYLE
  5
3
330
0
100
AcDbSymbolTable
 70
     4
  0
STYLE
  5
17
330
3
100
AcDbSymbolTableRecord
100
AcDbTextStyleTableRecord
  2
Standard
 70
     0
 40
0.0
 41
1.0
 50
0.0
 71
     0
 42
2.5
  3
txt
  4
BIGFONT.SHX
  0
STYLE
  5
39
330
3
100
AcDbSymbolTableRecord
100
AcDbTextStyleTableRecord
  2
ＭＳ ゴシック
 70
     0
 40
0.0
 41
1.0
 50
0.0
 71
     0
 42
2.5
  3
msgothic.ttc
  4
ＭＳ ゴシック
1001
ACAD
1000
ＭＳ ゴシック
1071
        0
  0
STYLE
  5
384
330
3
100
AcDbSymbolTableRecord
100
AcDbTextStyleTableRecord
  2
ARIAL
 70
     0
 40
0.0
 41
1.0
 50
0.0
 71
     0
 42
12.0
  3
ARIAL.TTF
  4

1001
ACAD
1000
Arial
1071
       34
  0
STYLE
  5
385
330
3
100
AcDbSymbolTableRecord
100
AcDbTextStyleTableRecord
  2
ROMANS
 70
     0
 40
0.0
 41
1.0
 50
0.0
 71
     0
 42
5.0
  3
romans.shx
  4

  0
ENDTAB
  0
TABLE
  2
VIEW
  5
5
330
0
100
AcDbSymbolTable
 70
     0
  0
ENDTAB
  0
TABLE
  2
UCS
  5
6
330
0
100
AcDbSymbolTable
 70
     0
  0
ENDTAB
  0
TABLE
  2
APPID
  5
8
330
0
100
AcDbSymbolTable
 70
     5
  0
APPID
  5
16
330
8
100
AcDbSymbolTableRecord
100
AcDbRegAppTableRecord
  2
ACAD
 70
     0
  0
APPID
  5
7AC
330
8
100
AcDbSymbolTableRecord
100
AcDbRegAppTableRecord
  2
AcAecLayerStandard
 70
     0
  0
APPID
  5
DBC
330
8
100
AcDbSymbolTableRecord
100
AcDbRegAppTableRecord
  2
GradientColor1ACI
 70
     0
  0
APPID
  5
DBD
330
8
100
AcDbSymbolTableRecord
100
AcDbRegAppTableRecord
  2
GradientColor2ACI
 70
     0
  0
APPID
  5
1A2F
330
8
100
AcDbSymbolTableRecord
100
AcDbRegAppTableRecord
  2
ACAD_MLEADERVER
 70
     0
  0
ENDTAB
  0
TABLE
  2
DIMSTYLE
  5
9
330
0
100
AcDbSymbolTable
 70
     5
100
AcDbDimStyleTable
  0
DIMSTYLE
105
18
330
9
100
AcDbSymbolTableRecord
100
AcDbDimStyleTableRecord
  2
Standard
 70
     0
178
     0
340
17
  0
DIMSTYLE
105
56
330
9
100
AcDbSymbolTableRecord
100
AcDbDimStyleTableRecord
  2
tform線あり
 70
     0
  3
<>
  4
[]
 41
9.999389648437498
 42
25.0
 43
0.9999999999999999
 44
0.0
 73
     0
 74
     0
 77
     1
 78
    11
140
24.4326171875
141
0.0
143
1.0
146
0.8
147
0.4999999999999999
171
     1
172
     1
174
     1
178
     0
179
     2
271
     1
272
     1
276
     2
284
    11
285
    11
286
    11
289
     0
340
39
341
4E
342
4E
  0
DIMSTYLE
105
57
102
{ACAD_REACTORS
330
1378
330
1387
330
140E
330
145E
330
1804
330
1844
330
185A
330
1869
330
1878
330
1889
330
18B6
330
18D4
330
18E4
330
1955
330
1991
330
1A02
102
}
330
9
100
AcDbSymbolTableRecord
100
AcDbDimStyleTableRecord
  2
tfrom線あり
 70
     0
  3
<>
  4
[]
 41
9.0
 42
20.0
 43
2.0
 44
0.0
 73
     0
 74
     0
 77
     1
 78
    11
140
24.0
141
0.0
143
1.0
147
10.0
171
     1
174
     1
178
     0
179
     2
271
     0
272
     1
276
     2
284
    11
285
    11
286
    11
289
     0
340
39
341
4E
342
4E
  0
DIMSTYLE
105
5C
330
9
100
AcDbSymbolTableRecord
100
AcDbDimStyleTableRecord
  2
JIS
 70
     0
  3
<>
  4
[]
 41
9.0
 42
0.0
 43
6.99999999999994
 44
19.9999999999962
 73
     0
 74
     0
 77
     1
 78
    11
140
24.4326171875
141
0.0
143
1.0
147
10.0
171
     1
174
     1
178
     0
179
     2
271
     1
272
     1
276
     2
284
    11
285
    11
286
    11
289
     0
340
39
341
4E
342
4E
  0
DIMSTYLE
105
383
330
9
100
AcDbSymbolTableRecord
100
AcDbDimStyleTableRecord
  2
ARIAL
 70
     0
 41
10.0
 42
3.0
 43
0.5
 44
3.0
 73
     0
 74
     0
 77
     1
 78
     8
140
12.0
141
0.0
146
0.5
147
4.0
171
     1
172
     1
178
     0
271
     1
289
     0
340
384
  0
ENDTAB
  0
TABLE
  2
BLOCK_RECORD
  5
1
330
0
100
AcDbSymbolTable
 70
    84
  0
BLOCK_RECORD
  5
A
330
1
100
AcDbSymbolTableRecord
100
AcDbBlockTableRecord
  2
*MODEL_SPACE
340
20
 70
     0
280
     1
281
     0
  0
BLOCK_RECORD
  5
B
330
1
100
AcDbSymbolTableRecord
100
AcDbBlockTableRecord
  2
*PAPER_SPACE
340
21
 70
     0
280
     1
281
     0
  0
BLOCK_RECORD
  5
4E
330
1
100
AcDbSymbolTableRecord
100
AcDbBlockTableRecord
  2
_DOT
340
0
102
{BLKREFS
331
184F
331
184E
102
}
 70
     0
280
     1
281
     0
  0
BLOCK_RECORD
  5
68A
330
1
100
AcDbSymbolTableRecord
100
AcDbBlockTableRecord
  2
名称未設定-1
340
0
102
{BLKREFS
331
6B5
102
}
 70
     1
280
     1
281
     0
  0
BLOCK_RECORD
  5
68D
330
1
100
AcDbSymbolTableRecord
100
AcDbBlockTableRecord
  2
block 2
340
0
102
{BLKREFS
331
68C
102
}
 70
     0
280
     1
281
     0
  0
BLOCK_RECORD
  5
690
330
1
100
AcDbSymbolTableRecord
100
AcDbBlockTableRecord
  2
block 3
340
0
102
{BLKREFS
331
68F
102
}
 70
     0
280
     1
281
     0
  0
BLOCK_RECORD
  5
693
330
1
100
AcDbSymbolTableRecord
100
AcDbBlockTableRecord
  2
block 4
340
0
102
{BLKREFS
331
692
102
}
 70
     0
280
     1
281
     0
  0
BLOCK_RECORD
  5
6A2
330
1
100
AcDbSymbolTableRecord
100
AcDbBlockTableRecord
  2
block 5
340
0
102
{BLKREFS
331
6A1
102
}
 70
     0
280
     1
281
     0
  0
BLOCK_RECORD
  5
D5F
330
1
100
AcDbSymbolTableRecord
100
AcDbBlockTableRecord
  2
*D6
340
0
 70
     0
280
     1
281
     0
  0
BLOCK_RECORD
  5
D77
330
1
100
AcDbSymbolTableRecord
100
AcDbBlockTableRecord
  2
*D7
340
0
 70
     0
280
     1
281
     0
  0
BLOCK_RECORD
  5
D89
330
1
100
AcDbSymbolTableRecord
100
AcDbBlockTableRecord
  2
*D8
340
0
 70
     0
280
     1
281
     0
  0
BLOCK_RECORD
  5
DF8
330
1
100
AcDbSymbolTableRecord
100
AcDbBlockTableRecord
  2
*D9
340
0
 70
     0
280
     1
281
     0
  0
BLOCK_RECORD
  5
E06
330
1
100
AcDbSymbolTableRecord
100
AcDbBlockTableRecord
  2
*D10
340
0
 70
     0
280
     1
281
     0
  0
BLOCK_RECORD
  5
E14
330
1
100
AcDbSymbolTableRecord
100
AcDbBlockTableRecord
  2
*D11
340
0
 70
     0
280
     1
281
     0
  0
BLOCK_RECORD
  5
E23
330
1
100
AcDbSymbolTableRecord
100
AcDbBlockTableRecord
  2
*D12
340
0
 70
     0
280
     1
281
     0
  0
BLOCK_RECORD
  5
E31
330
1
100
AcDbSymbolTableRecord
100
AcDbBlockTableRecord
  2
*D13
340
0
 70
     0
280
     1
281
     0
  0
BLOCK_RECORD
  5
E3F
330
1
100
AcDbSymbolTableRecord
100
AcDbBlockTableRecord
  2
*D14
340
0
 70
     0
280
     1
281
     0
  0
BLOCK_RECORD
  5
E4D
330
1
100
AcDbSymbolTableRecord
100
AcDbBlockTableRecord
  2
*D15
340
0
 70
     0
280
     1
281
     0
  0
BLOCK_RECORD
  5
E5B
330
1
100
AcDbSymbolTableRecord
100
AcDbBlockTableRecord
  2
*D16
340
0
 70
     0
280
     1
281
     0
  0
BLOCK_RECORD
  5
E69
330
1
100
AcDbSymbolTableRecord
100
AcDbBlockTableRecord
  2
*D17
340
0
 70
     0
280
     1
281
     0
  0
BLOCK_RECORD
  5
E77
330
1
100
AcDbSymbolTableRecord
100
AcDbBlockTableRecord
  2
*D18
340
0
 70
     0
280
     1
281
     0
  0
BLOCK_RECORD
  5
100A
330
1
100
AcDbSymbolTableRecord
100
AcDbBlockTableRecord
  2
*D19
340
0
 70
     0
280
     1
281
     0
  0
BLOCK_RECORD
  5
1017
330
1
100
AcDbSymbolTableRecord
100
AcDbBlockTableRecord
  2
*D20
340
0
 70
     0
280
     1
281
     0
  0
BLOCK_RECORD
  5
1024
330
1
100
AcDbSymbolTableRecord
100
AcDbBlockTableRecord
  2
*D21
340
0
 70
     0
280
     1
281
     0
  0
BLOCK_RECORD
  5
1031
330
1
100
AcDbSymbolTableRecord
100
AcDbBlockTableRecord
  2
*D22
340
0
 70
     0
280
     1
281
     0
  0
BLOCK_RECORD
  5
103E
330
1
100
AcDbSymbolTableRecord
100
AcDbBlockTableRecord
  2
*D23
340
0
 70
     0
280
     1
281
     0
  0
BLOCK_RECORD
  5
104B
330
1
100
AcDbSymbolTableRecord
100
AcDbBlockTableRecord
  2
*D24
340
0
 70
     0
280
     1
281
     0
  0
BLOCK_RECORD
  5
1058
330
1
100
AcDbSymbolTableRecord
100
AcDbBlockTableRecord
  2
*D25
340
0
 70
     0
280
     1
281
     0
  0
BLOCK_RECORD
  5
1065
330
1
100
AcDbSymbolTableRecord
100
AcDbBlockTableRecord
  2
*D26
340
0
 70
     0
280
     1
281
     0
  0
BLOCK_RECORD
  5
1072
330
1
100
AcDbSymbolTableRecord
100
AcDbBlockTableRecord
  2
*D27
340
0
 70
     0
280
     1
281
     0
  0
BLOCK_RECORD
  5
107F
330
1
100
AcDbSymbolTableRecord
100
AcDbBlockTableRecord
  2
*D28
340
0
 70
     0
280
     1
281
     0
  0
BLOCK_RECORD
  5
10DF
330
1
100
AcDbSymbolTableRecord
100
AcDbBlockTableRecord
  2
*D29
340
0
 70
     0
280
     1
281
     0
  0
BLOCK_RECORD
  5
10ED
330
1
100
AcDbSymbolTableRecord
100
AcDbBlockTableRecord
  2
*D30
340
0
 70
     0
280
     1
281
     0
  0
BLOCK_RECORD
  5
10FB
330
1
100
AcDbSymbolTableRecord
100
AcDbBlockTableRecord
  2
*D31
340
0
 70
     0
280
     1
281
     0
  0
BLOCK_RECORD
  5
110A
330
1
100
AcDbSymbolTableRecord
100
AcDbBlockTableRecord
  2
*D32
340
0
 70
     0
280
     1
281
     0
  0
BLOCK_RECORD
  5
1118
330
1
100
AcDbSymbolTableRecord
100
AcDbBlockTableRecord
  2
*D33
340
0
 70
     0
280
     1
281
     0
  0
BLOCK_RECORD
  5
1126
330
1
100
AcDbSymbolTableRecord
100
AcDbBlockTableRecord
  2
*D34
340
0
 70
     0
280
     1
281
     0
  0
BLOCK_RECORD
  5
1134
330
1
100
AcDbSymbolTableRecord
100
AcDbBlockTableRecord
  2
*D35
340
0
 70
     0
280
     1
281
     0
  0
BLOCK_RECORD
  5
1142
330
1
100
AcDbSymbolTableRecord
100
AcDbBlockTableRecord
  2
*D36
340
0
 70
     0
280
     1
281
     0
  0
BLOCK_RECORD
  5
1150
330
1
100
AcDbSymbolTableRecord
100
AcDbBlockTableRecord
  2
*D37
340
0
 70
     0
280
     1
281
     0
  0
BLOCK_RECORD
  5
115E
330
1
100
AcDbSymbolTableRecord
100
AcDbBlockTableRecord
  2
*D38
340
0
 70
     0
280
     1
281
     0
  0
BLOCK_RECORD
  5
12F3
330
1
100
AcDbSymbolTableRecord
100
AcDbBlockTableRecord
  2
*D39
340
0
 70
     0
280
     1
281
     0
  0
BLOCK_RECORD
  5
1300
330
1
100
AcDbSymbolTableRecord
100
AcDbBlockTableRecord
  2
*D40
340
0
 70
     0
280
     1
281
     0
  0
BLOCK_RECORD
  5
130D
330
1
100
AcDbSymbolTableRecord
100
AcDbBlockTableRecord
  2
*D41
340
0
 70
     0
280
     1
281
     0
  0
BLOCK_RECORD
  5
131A
330
1
100
AcDbSymbolTableRecord
100
AcDbBlockTableRecord
  2
*D42
340
0
 70
     0
280
     1
281
     0
  0
BLOCK_RECORD
  5
1327
330
1
100
AcDbSymbolTableRecord
100
AcDbBlockTableRecord
  2
*D43
340
0
 70
     0
280
     1
281
     0
  0
BLOCK_RECORD
  5
1334
330
1
100
AcDbSymbolTableRecord
100
AcDbBlockTableRecord
  2
*D44
340
0
 70
     0
280
     1
281
     0
  0
BLOCK_RECORD
  5
1341
330
1
100
AcDbSymbolTableRecord
100
AcDbBlockTableRecord
  2
*D45
340
0
 70
     0
280
     1
281
     0
  0
BLOCK_RECORD
  5
134E
330
1
100
AcDbSymbolTableRecord
100
AcDbBlockTableRecord
  2
*D46
340
0
 70
     0
280
     1
281
     0
  0
BLOCK_RECORD
  5
135B
330
1
100
AcDbSymbolTableRecord
100
AcDbBlockTableRecord
  2
*D47
340
0
 70
     0
280
     1
281
     0
  0
BLOCK_RECORD
  5
1368
330
1
100
AcDbSymbolTableRecord
100
AcDbBlockTableRecord
  2
*D48
340
0
 70
     0
280
     1
281
     0
  0
BLOCK_RECORD
  5
137B
330
1
100
AcDbSymbolTableRecord
100
AcDbBlockTableRecord
  2
*D49
340
0
 70
     0
280
     1
281
     0
  0
BLOCK_RECORD
  5
138A
330
1
100
AcDbSymbolTableRecord
100
AcDbBlockTableRecord
  2
*D50
340
0
 70
     0
280
     1
281
     0
  0
BLOCK_RECORD
  5
1397
330
1
100
AcDbSymbolTableRecord
100
AcDbBlockTableRecord
  2
*D51
340
0
 70
     0
280
     1
281
     0
  0
BLOCK_RECORD
  5
13BD
330
1
100
AcDbSymbolTableRecord
100
AcDbBlockTableRecord
  2
*D52
340
0
 70
     0
280
     1
281
     0
  0
BLOCK_RECORD
  5
13CF
330
1
100
AcDbSymbolTableRecord
100
AcDbBlockTableRecord
  2
*D53
340
0
 70
     0
280
     1
281
     0
  0
BLOCK_RECORD
  5
13E1
330
1
100
AcDbSymbolTableRecord
100
AcDbBlockTableRecord
  2
*D54
340
0
 70
     0
280
     1
281
     0
  0
BLOCK_RECORD
  5
13F1
330
1
100
AcDbSymbolTableRecord
100
AcDbBlockTableRecord
  2
*D55
340
0
 70
     0
280
     1
281
     0
  0
BLOCK_RECORD
  5
1401
330
1
100
AcDbSymbolTableRecord
100
AcDbBlockTableRecord
  2
*D56
340
0
 70
     0
280
     1
281
     0
  0
BLOCK_RECORD
  5
1411
330
1
100
AcDbSymbolTableRecord
100
AcDbBlockTableRecord
  2
*D57
340
0
 70
     0
280
     1
281
     0
  0
BLOCK_RECORD
  5
1420
330
1
100
AcDbSymbolTableRecord
100
AcDbBlockTableRecord
  2
*D58
340
0
 70
     0
280
     1
281
     0
  0
BLOCK_RECORD
  5
142F
330
1
100
AcDbSymbolTableRecord
100
AcDbBlockTableRecord
  2
*D59
340
0
 70
     0
280
     1
281
     0
  0
BLOCK_RECORD
  5
143F
330
1
100
AcDbSymbolTableRecord
100
AcDbBlockTableRecord
  2
*D60
340
0
 70
     0
280
     1
281
     0
  0
BLOCK_RECORD
  5
144F
330
1
100
AcDbSymbolTableRecord
100
AcDbBlockTableRecord
  2
*D61
340
0
 70
     0
280
     1
281
     0
  0
BLOCK_RECORD
  5
1461
330
1
100
AcDbSymbolTableRecord
100
AcDbBlockTableRecord
  2
*D62
340
0
 70
     0
280
     1
281
     0
  0
BLOCK_RECORD
  5
17F8
330
1
100
AcDbSymbolTableRecord
100
AcDbBlockTableRecord
  2
*D63
340
0
 70
     0
280
     1
281
     0
  0
BLOCK_RECORD
  5
1807
330
1
100
AcDbSymbolTableRecord
100
AcDbBlockTableRecord
  2
*D64
340
0
 70
     0
280
     1
281
     0
  0
BLOCK_RECORD
  5
1838
330
1
100
AcDbSymbolTableRecord
100
AcDbBlockTableRecord
  2
*D65
340
0
 70
     0
280
     1
281
     0
  0
BLOCK_RECORD
  5
1847
330
1
100
AcDbSymbolTableRecord
100
AcDbBlockTableRecord
  2
*D66
340
0
 70
     0
280
     1
281
     0
  0
BLOCK_RECORD
  5
185D
330
1
100
AcDbSymbolTableRecord
100
AcDbBlockTableRecord
  2
*D67
340
0
 70
     0
280
     1
281
     0
  0
BLOCK_RECORD
  5
186C
330
1
100
AcDbSymbolTableRecord
100
AcDbBlockTableRecord
  2
*D68
340
0
 70
     0
280
     1
281
     0
  0
BLOCK_RECORD
  5
187B
330
1
100
AcDbSymbolTableRecord
100
AcDbBlockTableRecord
  2
*D69
340
0
 70
     0
280
     1
281
     0
  0
BLOCK_RECORD
  5
188C
330
1
100
AcDbSymbolTableRecord
100
AcDbBlockTableRecord
  2
*D70
340
0
 70
     0
280
     1
281
     0
  0
BLOCK_RECORD
  5
189B
330
1
100
AcDbSymbolTableRecord
100
AcDbBlockTableRecord
  2
*D71
340
0
 70
     0
280
     1
281
     0
  0
BLOCK_RECORD
  5
18AA
330
1
100
AcDbSymbolTableRecord
100
AcDbBlockTableRecord
  2
*D72
340
0
 70
     0
280
     1
281
     0
  0
BLOCK_RECORD
  5
18B9
330
1
100
AcDbSymbolTableRecord
100
AcDbBlockTableRecord
  2
*D73
340
0
 70
     0
280
     1
281
     0
  0
BLOCK_RECORD
  5
18C8
330
1
100
AcDbSymbolTableRecord
100
AcDbBlockTableRecord
  2
*D74
340
0
 70
     0
280
     1
281
     0
  0
BLOCK_RECORD
  5
18D7
330
1
100
AcDbSymbolTableRecord
100
AcDbBlockTableRecord
  2
*D75
340
0
 70
     0
280
     1
281
     0
  0
BLOCK_RECORD
  5
18E7
330
1
100
AcDbSymbolTableRecord
100
AcDbBlockTableRecord
  2
*D76
340
0
 70
     0
280
     1
281
     0
  0
BLOCK_RECORD
  5
1958
330
1
100
AcDbSymbolTableRecord
100
AcDbBlockTableRecord
  2
*D77
340
0
 70
     0
280
     1
281
     0
  0
BLOCK_RECORD
  5
1967
330
1
100
AcDbSymbolTableRecord
100
AcDbBlockTableRecord
  2
*D78
340
0
 70
     0
280
     1
281
     0
  0
BLOCK_RECORD
  5
1976
330
1
100
AcDbSymbolTableRecord
100
AcDbBlockTableRecord
  2
*D79
340
0
 70
     0
280
     1
281
     0
  0
BLOCK_RECORD
  5
1985
330
1
100
AcDbSymbolTableRecord
100
AcDbBlockTableRecord
  2
*D80
340
0
 70
     0
280
     1
281
     0
  0
BLOCK_RECORD
  5
1994
330
1
100
AcDbSymbolTableRecord
100
AcDbBlockTableRecord
  2
*D81
340
0
 70
     0
280
     1
281
     0
  0
BLOCK_RECORD
  5
19A3
330
1
100
AcDbSymbolTableRecord
100
AcDbBlockTableRecord
  2
*D82
340
0
 70
     0
280
     1
281
     0
  0
BLOCK_RECORD
  5
1A05
330
1
100
AcDbSymbolTableRecord
100
AcDbBlockTableRecord
  2
*D83
340
0
 70
     0
280
     1
281
     0
  0
ENDTAB
  0
ENDSEC
  0
SECTION
  2
BLOCKS
  0
BLOCK
  5
D
330
A
100
AcDbEntity
  8
0
390
1D
100
AcDbBlockBegin
  2
*MODEL_SPACE
 70
     0
 10
0.0
 20
0.0
 30
0.0
  3
*MODEL_SPACE
  1
*MODEL_SPACE
  0
ENDBLK
  5
E
330
A
100
AcDbEntity
  8
0
390
1D
100
AcDbBlockEnd
  0
BLOCK
  5
F
330
B
100
AcDbEntity
 67
     1
  8
0
390
1D
100
AcDbBlockBegin
  2
*PAPER_SPACE
 70
     0
 10
0.0
 20
0.0
 30
0.0
  3
*PAPER_SPACE
  1
*PAPER_SPACE
  0
ENDBLK
  5
10
330
B
100
AcDbEntity
 67
     1
  8
0
390
1D
100
AcDbBlockEnd
  0
BLOCK
  5
1A14
330
4E
100
AcDbEntity
  8
0
390
1D
100
AcDbBlockBegin
  2
_DOT
 70
     0
 10
0.0
 20
0.0
 30
0.0
  3
_DOT
  1
_DOT
  0
POLYLINE
  5
1A16
330
4E
100
AcDbEntity
  8
0
  6
ByBlock
 62
     0
370
    -2
390
1D
100
AcDb2dPolyline
 66
     1
 10
0.0
 20
0.0
 30
0.0
 70
     1
 40
0.5
 41
0.5
  0
VERTEX
  5
1A17
330
1A16
100
AcDbEntity
  8
0
  6
ByBlock
 62
     0
370
    -2
390
1D
100
AcDbVertex
100
AcDb2dVertex
 10
-0.25
 20
0.0
 30
0.0
 42
1.0
  0
VERTEX
  5
1A18
330
1A16
100
AcDbEntity
  8
0
  6
ByBlock
 62
     0
370
    -2
390
1D
100
AcDbVertex
100
AcDb2dVertex
 10
0.25
 20
0.0
 30
0.0
 42
1.0
  0
SEQEND
  5
1A19
330
1A16
100
AcDbEntity
  8
0
390
1D
  0
LINE
  5
1A1A
330
4E
100
AcDbEntity
  8
0
  6
ByBlock
 62
     0
370
    -2
390
1D
100
AcDbLine
 10
-0.5
 20
0.0
 30
0.0
 11
-1.0
 21
0.0
 31
0.0
  0
ENDBLK
  5
1A1B
330
4E
100
AcDbEntity
  8
0
390
1D
100
AcDbBlockEnd
  0
BLOCK
  5
68B
330
68A
100
AcDbEntity
  8
0
100
AcDbBlockBegin
  2
名称未設定-1
 70
     0
 10
0.0
 20
0.0
 30
0.0
  3
名称未設定-1
  1
名称未設定-1
  0
INSERT
  5
68F
330
68A
100
AcDbEntity
  8
LOGO
100
AcDbBlockReference
  2
block 3
 10
0.0
 20
0.0
 30
0.0
  0
ENDBLK
  5
6B1
330
68A
100
AcDbEntity
  8
0
100
AcDbBlockEnd
  0
BLOCK
  5
68E
330
68D
100
AcDbEntity
  8
0
100
AcDbBlockBegin
  2
block 2
 70
     0
 10
0.0
 20
0.0
 30
0.0
  3
block 2
  1
block 2
  0
ENDBLK
  5
6B0
330
68D
100
AcDbEntity
  8
0
100
AcDbBlockEnd
  0
BLOCK
  5
691
330
690
100
AcDbEntity
  8
0
100
AcDbBlockBegin
  2
block 3
 70
     0
 10
0.0
 20
0.0
 30
0.0
  3
block 3
  1
block 3
  0
INSERT
  5
692
330
690
100
AcDbEntity
  8
LOGO
100
AcDbBlockReference
  2
block 4
 10
0.0
 20
0.0
 30
0.0
  0
INSERT
  5
6A1
330
690
100
AcDbEntity
  8
LOGO
100
AcDbBlockReference
  2
block 5
 10
0.0
 20
0.0
 30
0.0
  0
ENDBLK
  5
6AF
330
690
100
AcDbEntity
  8
0
100
AcDbBlockEnd
  0
BLOCK
  5
694
330
693
100
AcDbEntity
  8
0
100
AcDbBlockBegin
  2
block 4
 70
     0
 10
0.0
 20
0.0
 30
0.0
  3
block 4
  1
block 4
  0
POLYLINE
  5
695
330
693
100
AcDbEntity
  8
LOGO
370
     0
100
AcDb2dPolyline
 66
     1
 10
0.0
 20
0.0
 30
0.0
  0
VERTEX
  5
696
330
695
100
AcDbEntity
  8
LOGO
370
     0
100
AcDbVertex
100
AcDb2dVertex
 10
83.79545727667795
 20
167.6444858234922
 30
0.0
  0
VERTEX
  5
697
330
695
100
AcDbEntity
  8
LOGO
370
     0
100
AcDbVertex
100
AcDb2dVertex
 10
83.79545727667795
 20
159.7968976406313
 30
0.0
  0
VERTEX
  5
698
330
695
100
AcDbEntity
  8
LOGO
370
     0
100
AcDbVertex
100
AcDb2dVertex
 10
71.3631329975216
 20
159.7968976406313
 30
0.0
  0
VERTEX
  5
699
330
695
100
AcDbEntity
  8
LOGO
370
     0
100
AcDbVertex
100
AcDb2dVertex
 10
71.3631329975216
 20
127.8027915271048
 30
0.0
  0
VERTEX
  5
69A
330
695
100
AcDbEntity
  8
LOGO
370
     0
100
AcDbVertex
100
AcDb2dVertex
 10
60.43011526263018
 20
127.8027915271048
 30
0.0
  0
VERTEX
  5
69B
330
695
100
AcDbEntity
  8
LOGO
370
     0
100
AcDbVertex
100
AcDb2dVertex
 10
60.43011526263018
 20
159.7968976406313
 30
0.0
  0
VERTEX
  5
69C
330
695
100
AcDbEntity
  8
LOGO
370
     0
100
AcDbVertex
100
AcDb2dVertex
 10
48.21793273020759
 20
159.7968976406313
 30
0.0
  0
VERTEX
  5
69D
330
695
100
AcDbEntity
  8
LOGO
370
     0
100
AcDbVertex
100
AcDb2dVertex
 10
48.21793273020759
 20
167.6444858234922
 30
0.0
  0
VERTEX
  5
69E
330
695
100
AcDbEntity
  8
LOGO
370
     0
100
AcDbVertex
100
AcDb2dVertex
 10
83.79545727667795
 20
167.6444858234922
 30
0.0
  0
SEQEND
  5
69F
330
695
100
AcDbEntity
  8
LOGO
370
     0
  0
HATCH
  5
6A0
330
693
100
AcDbEntity
  8
LOGO
 62
   250
420
  2234388
100
AcDbHatch
 10
0.0
 20
0.0
 30
0.0
210
0.0
220
0.0
230
1.0
  2
SOLID
 70
     1
 71
     0
 91
        1
 92
        1
 93
        8
 72
     1
 10
83.79545727667795
 20
167.6444858234922
 11
83.79545727667795
 21
159.7968976406313
 72
     1
 10
83.79545727667795
 20
159.7968976406313
 11
71.3631329975216
 21
159.7968976406313
 72
     1
 10
71.3631329975216
 20
159.7968976406313
 11
71.3631329975216
 21
127.8027915271048
 72
     1
 10
71.3631329975216
 20
127.8027915271048
 11
60.43011526263018
 21
127.8027915271048
 72
     1
 10
60.43011526263018
 20
127.8027915271048
 11
60.43011526263018
 21
159.7968976406313
 72
     1
 10
60.43011526263018
 20
159.7968976406313
 11
48.21793273020759
 21
159.7968976406313
 72
     1
 10
48.21793273020759
 20
159.7968976406313
 11
48.21793273020759
 21
167.6444858234922
 72
     1
 10
48.21793273020759
 20
167.6444858234922
 11
83.79545727667795
 21
167.6444858234922
 97
        0
 75
     2
 76
     1
 98
        0
  0
ENDBLK
  5
6AE
330
693
100
AcDbEntity
  8
0
100
AcDbBlockEnd
  0
BLOCK
  5
6A3
330
6A2
100
AcDbEntity
  8
0
100
AcDbBlockBegin
  2
block 5
 70
     0
 10
0.0
 20
0.0
 30
0.0
  3
block 5
  1
block 5
  0
SPLINE
  5
6A4
330
6A2
100
AcDbEntity
  8
LOGO
370
     0
100
AcDbSpline
210
0.0
220
0.0
230
1.0
 70
    11
 71
     3
 72
    56
 73
    52
 74
     0
 42
0.000000001
 43
0.0000000001
 40
0.0
 40
0.0
 40
0.0
 40
0.0
 40
1.0
 40
1.0
 40
1.0
 40
2.0
 40
2.0
 40
2.0
 40
3.0
 40
3.0
 40
3.0
 40
4.0
 40
4.0
 40
4.0
 40
5.0
 40
5.0
 40
5.0
 40
6.0
 40
6.0
 40
6.0
 40
7.0
 40
7.0
 40
7.0
 40
8.0
 40
8.0
 40
8.0
 40
9.0
 40
9.0
 40
9.0
 40
10.0
 40
10.0
 40
10.0
 40
11.0
 40
11.0
 40
11.0
 40
12.0
 40
12.0
 40
12.0
 40
13.0
 40
13.0
 40
13.0
 40
14.0
 40
14.0
 40
14.0
 40
15.0
 40
15.0
 40
15.0
 40
16.0
 40
16.0
 40
16.0
 40
17.0
 40
17.0
 40
17.0
 40
17.0
 10
100.4504378777679
 20
166.69157178364
 30
0.0
 10
101.9848844191641
 20
167.1313385124438
 30
0.0
 10
103.9637485713373
 20
166.7649523658846
 30
0.0
 10
103.9637485713373
 20
166.7649523658846
 30
0.0
 10
103.9637485713373
 20
166.7649523658846
 30
0.0
 10
103.0132460999156
 20
163.911205638077
 30
0.0
 10
103.0132460999156
 20
163.911205638077
 30
0.0
 10
103.0132460999156
 20
163.911205638077
 30
0.0
 10
101.0674548862189
 20
164.3601018759394
 30
0.0
 10
99.57090442016032
 20
163.1805004036133
 30
0.0
 10
98.40508333886608
 20
162.258247733807
 30
0.0
 10
97.65301849830304
 20
159.804132345923
 30
0.0
 10
97.3598406791005
 20
158.8699940888517
 30
0.0
 10
97.3598406791005
 20
158.8699940888517
 30
0.0
 10
96.07137411762282
 20
154.9119212747295
 30
0.0
 10
96.07137411762282
 20
154.9119212747295
 30
0.0
 10
96.07137411762282
 20
154.9119212747295
 30
0.0
 10
100.3012651448482
 20
154.9119212747295
 30
0.0
 10
100.3012651448482
 20
154.9119212747295
 30
0.0
 10
100.3012651448482
 20
154.9119212747295
 30
0.0
 10
99.64152892419852
 20
152.4199098115079
 30
0.0
 10
99.64152892419852
 20
152.4199098115079
 30
0.0
 10
99.64152892419852
 20
152.4199098115079
 30
0.0
 10
95.38097652692731
 20
152.4199098115079
 30
0.0
 10
95.38097652692731
 20
152.4199098115079
 30
0.0
 10
95.38097652692731
 20
152.4199098115079
 30
0.0
 10
87.75353009080013
 20
127.8027915271048
 30
0.0
 10
87.75353009080013
 20
127.8027915271048
 30
0.0
 10
87.75353009080013
 20
127.8027915271048
 30
0.0
 10
85.36538832498108
 20
127.8027915271048
 30
0.0
 10
85.36538832498108
 20
127.8027915271048
 30
0.0
 10
85.36538832498108
 20
127.8027915271048
 30
0.0
 10
93.00006946639998
 20
152.4199098115079
 30
0.0
 10
93.00006946639998
 20
152.4199098115079
 30
0.0
 10
93.00006946639998
 20
152.4199098115079
 30
0.0
 10
89.85297266450198
 20
152.4199098115079
 30
0.0
 10
89.85297266450198
 20
152.4199098115079
 30
0.0
 10
89.85297266450198
 20
152.4199098115079
 30
0.0
 10
90.51270888515164
 20
154.9119212747295
 30
0.0
 10
90.51270888515164
 20
154.9119212747295
 30
0.0
 10
90.51270888515164
 20
154.9119212747295
 30
0.0
 10
93.6904670570955
 20
154.9119212747295
 30
0.0
 10
93.6904670570955
 20
154.9119212747295
 30
0.0
 10
93.6904670570955
 20
154.9119212747295
 30
0.0
 10
94.81598049462158
 20
158.3616699146644
 30
0.0
 10
94.81598049462158
 20
158.3616699146644
 30
0.0
 10
95.7237637538445
 20
161.2605474231013
 30
0.0
 10
96.4968436907311
 20
162.8139420021662
 30
0.0
 10
97.15657991138076
 20
163.9844139654337
 30
0.0
 10
97.81183750494507
 20
165.1523021053827
 30
0.0
 10
99.1047826935081
 20
166.3084769129547
 30
0.0
 10
100.4504378777679
 20
166.69157178364
 30
0.0
  0
HATCH
  5
6A5
330
6A2
100
AcDbEntity
  8
LOGO
 62
   250
420
  2234388
100
AcDbHatch
 10
0.0
 20
0.0
 30
0.0
210
0.0
220
0.0
230
1.0
  2
SOLID
 70
     1
 71
     0
 91
        1
 92
        1
 93
        1
 72
     4
 94
        3
 73
     0
 74
     1
 95
       56
 96
       52
 40
0.0
 40
0.0
 40
0.0
 40
0.0
 40
1.0
 40
1.0
 40
1.0
 40
2.0
 40
2.0
 40
2.0
 40
3.0
 40
3.0
 40
3.0
 40
4.0
 40
4.0
 40
4.0
 40
5.0
 40
5.0
 40
5.0
 40
6.0
 40
6.0
 40
6.0
 40
7.0
 40
7.0
 40
7.0
 40
8.0
 40
8.0
 40
8.0
 40
9.0
 40
9.0
 40
9.0
 40
10.0
 40
10.0
 40
10.0
 40
11.0
 40
11.0
 40
11.0
 40
12.0
 40
12.0
 40
12.0
 40
13.0
 40
13.0
 40
13.0
 40
14.0
 40
14.0
 40
14.0
 40
15.0
 40
15.0
 40
15.0
 40
16.0
 40
16.0
 40
16.0
 40
17.0
 40
17.0
 40
17.0
 40
17.0
 10
100.4504378777679
 20
166.69157178364
 10
101.9848844191641
 20
167.1313385124438
 10
103.9637485713373
 20
166.7649523658846
 10
103.9637485713373
 20
166.7649523658846
 10
103.9637485713373
 20
166.7649523658846
 10
103.0132460999156
 20
163.911205638077
 10
103.0132460999156
 20
163.911205638077
 10
103.0132460999156
 20
163.911205638077
 10
101.0674548862189
 20
164.3601018759394
 10
99.57090442016032
 20
163.1805004036133
 10
98.40508333886608
 20
162.258247733807
 10
97.65301849830304
 20
159.804132345923
 10
97.3598406791005
 20
158.8699940888517
 10
97.3598406791005
 20
158.8699940888517
 10
96.07137411762282
 20
154.9119212747295
 10
96.07137411762282
 20
154.9119212747295
 10
96.07137411762282
 20
154.9119212747295
 10
100.3012651448482
 20
154.9119212747295
 10
100.3012651448482
 20
154.9119212747295
 10
100.3012651448482
 20
154.9119212747295
 10
99.64152892419852
 20
152.4199098115079
 10
99.64152892419852
 20
152.4199098115079
 10
99.64152892419852
 20
152.4199098115079
 10
95.38097652692731
 20
152.4199098115079
 10
95.38097652692731
 20
152.4199098115079
 10
95.38097652692731
 20
152.4199098115079
 10
87.75353009080013
 20
127.8027915271048
 10
87.75353009080013
 20
127.8027915271048
 10
87.75353009080013
 20
127.8027915271048
 10
85.36538832498108
 20
127.8027915271048
 10
85.36538832498108
 20
127.8027915271048
 10
85.36538832498108
 20
127.8027915271048
 10
93.00006946639998
 20
152.4199098115079
 10
93.00006946639998
 20
152.4199098115079
 10
93.00006946639998
 20
152.4199098115079
 10
89.85297266450198
 20
152.4199098115079
 10
89.85297266450198
 20
152.4199098115079
 10
89.85297266450198
 20
152.4199098115079
 10
90.51270888515164
 20
154.9119212747295
 10
90.51270888515164
 20
154.9119212747295
 10
90.51270888515164
 20
154.9119212747295
 10
93.6904670570955
 20
154.9119212747295
 10
93.6904670570955
 20
154.9119212747295
 10
93.6904670570955
 20
154.9119212747295
 10
94.81598049462158
 20
158.3616699146644
 10
94.81598049462158
 20
158.3616699146644
 10
95.7237637538445
 20
161.2605474231013
 10
96.4968436907311
 20
162.8139420021662
 10
97.15657991138076
 20
163.9844139654337
 10
97.81183750494507
 20
165.1523021053827
 10
99.1047826935081
 20
166.3084769129547
 10
100.4504378777679
 20
166.69157178364
 97
        0
 75
     2
 76
     1
 98
        0
  0
SPLINE
  5
6A6
330
6A2
100
AcDbEntity
  8
LOGO
370
     0
100
AcDbSpline
210
0.0
220
0.0
230
1.0
 70
    11
 71
     3
 72
    38
 73
    34
 74
     0
 42
0.000000001
 43
0.0000000001
 40
0.0
 40
0.0
 40
0.0
 40
0.0
 40
1.0
 40
1.0
 40
1.0
 40
2.0
 40
2.0
 40
2.0
 40
3.0
 40
3.0
 40
3.0
 40
4.0
 40
4.0
 40
4.0
 40
5.0
 40
5.0
 40
5.0
 40
6.0
 40
6.0
 40
6.0
 40
7.0
 40
7.0
 40
7.0
 40
8.0
 40
8.0
 40
8.0
 40
9.0
 40
9.0
 40
9.0
 40
10.0
 40
10.0
 40
10.0
 40
11.0
 40
11.0
 40
11.0
 40
11.0
 10
126.377554584636
 20
154.8151140277308
 30
0.0
 10
126.377554584636
 20
154.8151140277308
 30
0.0
 10
128.8311532078563
 20
154.8151140277308
 30
0.0
 10
128.8311532078563
 20
154.8151140277308
 30
0.0
 10
128.8311532078563
 20
154.8151140277308
 30
0.0
 10
127.7345785914971
 20
151.3062819612468
 30
0.0
 10
127.7345785914971
 20
151.3062819612468
 30
0.0
 10
128.571392836906
 20
152.2922689395754
 30
0.0
 10
129.8860421413442
 20
153.604506675583
 30
0.0
 10
131.0163787157314
 20
154.2664822097754
 30
0.0
 10
132.7044766171327
 20
155.2500576196734
 30
0.0
 10
133.6642808525008
 20
155.3847609420097
 30
0.0
 10
134.7284715499351
 20
155.3565111403944
 30
0.0
 10
134.7284715499351
 20
155.3565111403944
 30
0.0
 10
133.6877075172549
 20
152.0345756272799
 30
0.0
 10
133.6877075172549
 20
152.0345756272799
 30
0.0
 10
133.011434827367
 20
152.3184516825359
 30
0.0
 10
130.930940291334
 20
151.7768823149844
 30
0.0
 10
129.739280976855
 20
150.9162968950455
 30
0.0
 10
128.66613302525
 20
150.1454562717016
 30
0.0
 10
127.9192358313239
 20
149.4857200510519
 30
0.0
 10
127.0393578639405
 20
147.8282835196966
 30
0.0
 10
126.164647543194
 20
146.1699857139017
 30
0.0
 10
125.4742499524985
 20
143.5262176944419
 30
0.0
 10
124.2822461282437
 20
139.6959580071401
 30
0.0
 10
124.2822461282437
 20
139.6959580071401
 30
0.0
 10
120.5753209406769
 20
127.8027915271048
 30
0.0
 10
120.5753209406769
 20
127.8027915271048
 30
0.0
 10
120.5753209406769
 20
127.8027915271048
 30
0.0
 10
118.1964809388044
 20
127.8027915271048
 30
0.0
 10
118.1964809388044
 20
127.8027915271048
 30
0.0
 10
118.1964809388044
 20
127.8027915271048
 30
0.0
 10
126.377554584636
 20
154.8151140277308
 30
0.0
 10
126.377554584636
 20
154.8151140277308
 30
0.0
  0
HATCH
  5
6A7
330
6A2
100
AcDbEntity
  8
LOGO
 62
   250
420
  2234388
100
AcDbHatch
 10
0.0
 20
0.0
 30
0.0
210
0.0
220
0.0
230
1.0
  2
SOLID
 70
     1
 71
     0
 91
        1
 92
        1
 93
        1
 72
     4
 94
        3
 73
     0
 74
     1
 95
       38
 96
       34
 40
0.0
 40
0.0
 40
0.0
 40
0.0
 40
1.0
 40
1.0
 40
1.0
 40
2.0
 40
2.0
 40
2.0
 40
3.0
 40
3.0
 40
3.0
 40
4.0
 40
4.0
 40
4.0
 40
5.0
 40
5.0
 40
5.0
 40
6.0
 40
6.0
 40
6.0
 40
7.0
 40
7.0
 40
7.0
 40
8.0
 40
8.0
 40
8.0
 40
9.0
 40
9.0
 40
9.0
 40
10.0
 40
10.0
 40
10.0
 40
11.0
 40
11.0
 40
11.0
 40
11.0
 10
126.377554584636
 20
154.8151140277308
 10
126.377554584636
 20
154.8151140277308
 10
128.8311532078563
 20
154.8151140277308
 10
128.8311532078563
 20
154.8151140277308
 10
128.8311532078563
 20
154.8151140277308
 10
127.7345785914971
 20
151.3062819612468
 10
127.7345785914971
 20
151.3062819612468
 10
128.571392836906
 20
152.2922689395754
 10
129.8860421413442
 20
153.604506675583
 10
131.0163787157314
 20
154.2664822097754
 10
132.7044766171327
 20
155.2500576196734
 10
133.6642808525008
 20
155.3847609420097
 10
134.7284715499351
 20
155.3565111403944
 10
134.7284715499351
 20
155.3565111403944
 10
133.6877075172549
 20
152.0345756272799
 10
133.6877075172549
 20
152.0345756272799
 10
133.011434827367
 20
152.3184516825359
 10
130.930940291334
 20
151.7768823149844
 10
129.739280976855
 20
150.9162968950455
 10
128.66613302525
 20
150.1454562717016
 10
127.9192358313239
 20
149.4857200510519
 10
127.0393578639405
 20
147.8282835196966
 10
126.164647543194
 20
146.1699857139017
 10
125.4742499524985
 20
143.5262176944419
 10
124.2822461282437
 20
139.6959580071401
 10
124.2822461282437
 20
139.6959580071401
 10
120.5753209406769
 20
127.8027915271048
 10
120.5753209406769
 20
127.8027915271048
 10
120.5753209406769
 20
127.8027915271048
 10
118.1964809388044
 20
127.8027915271048
 10
118.1964809388044
 20
127.8027915271048
 10
118.1964809388044
 20
127.8027915271048
 10
126.377554584636
 20
154.8151140277308
 10
126.377554584636
 20
154.8151140277308
 97
        0
 75
     2
 76
     1
 98
        0
  0
SPLINE
  5
6A8
330
6A2
100
AcDbEntity
  8
LOGO
370
     0
100
AcDbSpline
210
0.0
220
0.0
230
1.0
 70
    11
 71
     3
 72
   104
 73
   100
 74
     0
 42
0.000000001
 43
0.0000000001
 40
0.0
 40
0.0
 40
0.0
 40
0.0
 40
1.0
 40
1.0
 40
1.0
 40
2.0
 40
2.0
 40
2.0
 40
3.0
 40
3.0
 40
3.0
 40
4.0
 40
4.0
 40
4.0
 40
5.0
 40
5.0
 40
5.0
 40
6.0
 40
6.0
 40
6.0
 40
7.0
 40
7.0
 40
7.0
 40
8.0
 40
8.0
 40
8.0
 40
9.0
 40
9.0
 40
9.0
 40
10.0
 40
10.0
 40
10.0
 40
11.0
 40
11.0
 40
11.0
 40
12.0
 40
12.0
 40
12.0
 40
13.0
 40
13.0
 40
13.0
 40
14.0
 40
14.0
 40
14.0
 40
15.0
 40
15.0
 40
15.0
 40
16.0
 40
16.0
 40
16.0
 40
17.0
 40
17.0
 40
17.0
 40
18.0
 40
18.0
 40
18.0
 40
19.0
 40
19.0
 40
19.0
 40
20.0
 40
20.0
 40
20.0
 40
21.0
 40
21.0
 40
21.0
 40
22.0
 40
22.0
 40
22.0
 40
23.0
 40
23.0
 40
23.0
 40
24.0
 40
24.0
 40
24.0
 40
25.0
 40
25.0
 40
25.0
 40
26.0
 40
26.0
 40
26.0
 40
27.0
 40
27.0
 40
27.0
 40
28.0
 40
28.0
 40
28.0
 40
29.0
 40
29.0
 40
29.0
 40
30.0
 40
30.0
 40
30.0
 40
31.0
 40
31.0
 40
31.0
 40
32.0
 40
32.0
 40
32.0
 40
33.0
 40
33.0
 40
33.0
 40
33.0
 10
139.8926730891197
 20
154.8294111834263
 30
0.0
 10
139.8926730891197
 20
154.8294111834263
 30
0.0
 10
142.0344903652445
 20
154.8294111834263
 30
0.0
 10
142.0344903652445
 20
154.8294111834263
 30
0.0
 10
142.0344903652445
 20
154.8294111834263
 30
0.0
 10
140.9516961399171
 20
151.3157559800812
 30
0.0
 10
140.9516961399171
 20
151.3157559800812
 30
0.0
 10
141.8928968473923
 20
152.7887075264977
 30
0.0
 10
142.7341897198865
 20
153.4484437471474
 30
0.0
 10
143.8552245303272
 20
154.2926649527359
 30
0.0
 10
144.9803934580775
 20
155.1296514530327
 30
0.0
 10
146.3139908001845
 20
155.3044901642492
 30
0.0
 10
147.241066606852
 20
155.3044901642492
 30
0.0
 10
148.3855280820469
 20
155.3044901642492
 30
0.0
 10
149.4969166187653
 20
155.0752189084569
 30
0.0
 10
150.0784491203092
 20
153.8172414621372
 30
0.0
 10
150.5228667310863
 20
152.833838307127
 30
0.0
 10
150.5414702589793
 20
152.7201500811143
 30
0.0
 10
150.4140016419347
 20
150.7765981809602
 30
0.0
 10
151.5818897818837
 20
152.7699317437168
 30
0.0
 10
152.4424752018226
 20
153.6256940267945
 30
0.0
 10
153.9038856707499
 20
154.4507949398263
 30
0.0
 10
155.4455669174378
 20
155.3044901642492
 30
0.0
 10
156.339225275853
 20
155.3659851592288
 30
0.0
 10
157.3748216618963
 20
155.2147453676543
 30
0.0
 10
158.911679771723
 20
154.9877134254046
 30
0.0
 10
159.8859534176746
 20
154.4390816074493
 30
0.0
 10
160.3965169054045
 20
152.7816450760939
 30
0.0
 10
160.9070803931344
 20
151.1219692311958
 30
0.0
 10
160.6328506116007
 20
150.2303779314354
 30
0.0
 10
159.9992971339115
 20
147.597634224801
 30
0.0
 10
159.7105979417943
 20
146.4014962832367
 30
0.0
 10
159.2947746424084
 20
144.9400858143094
 30
0.0
 10
158.7463150793409
 20
143.2092687007094
 30
0.0
 10
158.7463150793409
 20
143.2092687007094
 30
0.0
 10
153.9038856707499
 20
127.8027915271048
 30
0.0
 10
153.9038856707499
 20
127.8027915271048
 30
0.0
 10
153.9038856707499
 20
127.8027915271048
 30
0.0
 10
151.3882752878863
 20
127.8027915271048
 30
0.0
 10
151.3882752878863
 20
127.8027915271048
 30
0.0
 10
151.3882752878863
 20
127.8027915271048
 30
0.0
 10
155.6250565106276
 20
141.2751908193897
 30
0.0
 10
155.6250565106276
 20
141.2751908193897
 30
0.0
 10
156.5094131050963
 20
144.0936252951782
 30
0.0
 10
157.109893644309
 20
146.1506931664571
 30
0.0
 10
157.4220195011804
 20
147.4415712963654
 30
0.0
 10
157.8095929989511
 20
149.0530157726519
 30
0.0
 10
157.9656559273867
 20
149.5826995529385
 30
0.0
 10
157.7816877071116
 20
150.7529992613181
 30
0.0
 10
157.6111553680925
 20
151.8430281919372
 30
0.0
 10
157.0582171779396
 20
152.5547853887321
 30
0.0
 10
156.1170164704645
 20
152.5547853887321
 30
0.0
 10
155.1096698860365
 20
152.5547853887321
 30
0.0
 10
154.2962823053817
 20
152.4412694176073
 30
0.0
 10
153.156643967048
 20
151.2945686288697
 30
0.0
 10
152.0170056287143
 20
150.1476955852443
 30
0.0
 10
151.076149431015
 20
148.7930831468137
 30
0.0
 10
150.3337308641742
 20
147.2290087646991
 30
0.0
 10
149.5957909244188
 20
145.6683794803425
 30
0.0
 10
148.8530278478023
 20
143.6822806228776
 30
0.0
 10
148.0964843801539
 20
141.2751908193897
 30
0.0
 10
148.0964843801539
 20
141.2751908193897
 30
0.0
 10
143.8552245303272
 20
127.8027915271048
 30
0.0
 10
143.8552245303272
 20
127.8027915271048
 30
0.0
 10
143.8552245303272
 20
127.8027915271048
 30
0.0
 10
141.486030802177
 20
127.8027915271048
 30
0.0
 10
141.486030802177
 20
127.8027915271048
 30
0.0
 10
141.486030802177
 20
127.8027915271048
 30
0.0
 10
146.3329388378533
 20
143.2092687007094
 30
0.0
 10
146.3329388378533
 20
143.2092687007094
 30
0.0
 10
146.8483254624444
 20
144.8408669988801
 30
0.0
 10
147.2314203331297
 20
146.1837661049335
 30
0.0
 10
147.4867020769946
 20
147.224185627838
 30
0.0
 10
147.9169947869641
 20
149.0197705792876
 30
0.0
 10
148.0306830129768
 20
150.2400242051577
 30
0.0
 10
147.709255392159
 20
151.3157559800812
 30
0.0
 10
147.3874832615654
 20
152.3916600098926
 30
0.0
 10
146.8245542879144
 20
152.6683013598569
 30
0.0
 10
145.8840425999909
 20
152.6683013598569
 30
0.0
 10
145.0989048209514
 20
152.6683013598569
 30
0.0
 10
144.3282364524954
 20
152.3275811915945
 30
0.0
 10
143.4531816219731
 20
151.6538923250251
 30
0.0
 10
142.34627171234
 20
150.8074318058939
 30
0.0
 10
141.901854101563
 20
150.1097995099067
 30
0.0
 10
141.3578731655808
 20
149.289521733736
 30
0.0
 10
140.6299240093235
 20
148.192602607601
 30
0.0
 10
140.2850697237515
 20
147.455696197173
 30
0.0
 10
139.6652966370942
 20
145.8385673095858
 30
0.0
 10
139.0506911970739
 20
144.2214384219986
 30
0.0
 10
138.463991048893
 20
142.3252566160164
 30
0.0
 10
138.0571250036777
 20
141.0154304484394
 30
0.0
 10
138.0571250036777
 20
141.0154304484394
 30
0.0
 10
133.9009590684727
 20
127.8027915271048
 30
0.0
 10
133.9009590684727
 20
127.8027915271048
 30
0.0
 10
133.9009590684727
 20
127.8027915271048
 30
0.0
 10
131.4180771143097
 20
127.8027915271048
 30
0.0
 10
131.4180771143097
 20
127.8027915271048
 30
0.0
 10
131.4180771143097
 20
127.8027915271048
 30
0.0
 10
139.8926730891197
 20
154.8294111834263
 30
0.0
 10
139.8926730891197
 20
154.8294111834263
 30
0.0
  0
HATCH
  5
6A9
330
6A2
100
AcDbEntity
  8
LOGO
 62
   250
420
  2234388
100
AcDbHatch
 10
0.0
 20
0.0
 30
0.0
210
0.0
220
0.0
230
1.0
  2
SOLID
 70
     1
 71
     0
 91
        1
 92
        1
 93
        1
 72
     4
 94
        3
 73
     0
 74
     1
 95
      104
 96
      100
 40
0.0
 40
0.0
 40
0.0
 40
0.0
 40
1.0
 40
1.0
 40
1.0
 40
2.0
 40
2.0
 40
2.0
 40
3.0
 40
3.0
 40
3.0
 40
4.0
 40
4.0
 40
4.0
 40
5.0
 40
5.0
 40
5.0
 40
6.0
 40
6.0
 40
6.0
 40
7.0
 40
7.0
 40
7.0
 40
8.0
 40
8.0
 40
8.0
 40
9.0
 40
9.0
 40
9.0
 40
10.0
 40
10.0
 40
10.0
 40
11.0
 40
11.0
 40
11.0
 40
12.0
 40
12.0
 40
12.0
 40
13.0
 40
13.0
 40
13.0
 40
14.0
 40
14.0
 40
14.0
 40
15.0
 40
15.0
 40
15.0
 40
16.0
 40
16.0
 40
16.0
 40
17.0
 40
17.0
 40
17.0
 40
18.0
 40
18.0
 40
18.0
 40
19.0
 40
19.0
 40
19.0
 40
20.0
 40
20.0
 40
20.0
 40
21.0
 40
21.0
 40
21.0
 40
22.0
 40
22.0
 40
22.0
 40
23.0
 40
23.0
 40
23.0
 40
24.0
 40
24.0
 40
24.0
 40
25.0
 40
25.0
 40
25.0
 40
26.0
 40
26.0
 40
26.0
 40
27.0
 40
27.0
 40
27.0
 40
28.0
 40
28.0
 40
28.0
 40
29.0
 40
29.0
 40
29.0
 40
30.0
 40
30.0
 40
30.0
 40
31.0
 40
31.0
 40
31.0
 40
32.0
 40
32.0
 40
32.0
 40
33.0
 40
33.0
 40
33.0
 40
33.0
 10
139.8926730891197
 20
154.8294111834263
 10
139.8926730891197
 20
154.8294111834263
 10
142.0344903652445
 20
154.8294111834263
 10
142.0344903652445
 20
154.8294111834263
 10
142.0344903652445
 20
154.8294111834263
 10
140.9516961399171
 20
151.3157559800812
 10
140.9516961399171
 20
151.3157559800812
 10
141.8928968473923
 20
152.7887075264977
 10
142.7341897198865
 20
153.4484437471474
 10
143.8552245303272
 20
154.2926649527359
 10
144.9803934580775
 20
155.1296514530327
 10
146.3139908001845
 20
155.3044901642492
 10
147.241066606852
 20
155.3044901642492
 10
148.3855280820469
 20
155.3044901642492
 10
149.4969166187653
 20
155.0752189084569
 10
150.0784491203092
 20
153.8172414621372
 10
150.5228667310863
 20
152.833838307127
 10
150.5414702589793
 20
152.7201500811143
 10
150.4140016419347
 20
150.7765981809602
 10
151.5818897818837
 20
152.7699317437168
 10
152.4424752018226
 20
153.6256940267945
 10
153.9038856707499
 20
154.4507949398263
 10
155.4455669174378
 20
155.3044901642492
 10
156.339225275853
 20
155.3659851592288
 10
157.3748216618963
 20
155.2147453676543
 10
158.911679771723
 20
154.9877134254046
 10
159.8859534176746
 20
154.4390816074493
 10
160.3965169054045
 20
152.7816450760939
 10
160.9070803931344
 20
151.1219692311958
 10
160.6328506116007
 20
150.2303779314354
 10
159.9992971339115
 20
147.597634224801
 10
159.7105979417943
 20
146.4014962832367
 10
159.2947746424084
 20
144.9400858143094
 10
158.7463150793409
 20
143.2092687007094
 10
158.7463150793409
 20
143.2092687007094
 10
153.9038856707499
 20
127.8027915271048
 10
153.9038856707499
 20
127.8027915271048
 10
153.9038856707499
 20
127.8027915271048
 10
151.3882752878863
 20
127.8027915271048
 10
151.3882752878863
 20
127.8027915271048
 10
151.3882752878863
 20
127.8027915271048
 10
155.6250565106276
 20
141.2751908193897
 10
155.6250565106276
 20
141.2751908193897
 10
156.5094131050963
 20
144.0936252951782
 10
157.109893644309
 20
146.1506931664571
 10
157.4220195011804
 20
147.4415712963654
 10
157.8095929989511
 20
149.0530157726519
 10
157.9656559273867
 20
149.5826995529385
 10
157.7816877071116
 20
150.7529992613181
 10
157.6111553680925
 20
151.8430281919372
 10
157.0582171779396
 20
152.5547853887321
 10
156.1170164704645
 20
152.5547853887321
 10
155.1096698860365
 20
152.5547853887321
 10
154.2962823053817
 20
152.4412694176073
 10
153.156643967048
 20
151.2945686288697
 10
152.0170056287143
 20
150.1476955852443
 10
151.076149431015
 20
148.7930831468137
 10
150.3337308641742
 20
147.2290087646991
 10
149.5957909244188
 20
145.6683794803425
 10
148.8530278478023
 20
143.6822806228776
 10
148.0964843801539
 20
141.2751908193897
 10
148.0964843801539
 20
141.2751908193897
 10
143.8552245303272
 20
127.8027915271048
 10
143.8552245303272
 20
127.8027915271048
 10
143.8552245303272
 20
127.8027915271048
 10
141.486030802177
 20
127.8027915271048
 10
141.486030802177
 20
127.8027915271048
 10
141.486030802177
 20
127.8027915271048
 10
146.3329388378533
 20
143.2092687007094
 10
146.3329388378533
 20
143.2092687007094
 10
146.8483254624444
 20
144.8408669988801
 10
147.2314203331297
 20
146.1837661049335
 10
147.4867020769946
 20
147.224185627838
 10
147.9169947869641
 20
149.0197705792876
 10
148.0306830129768
 20
150.2400242051577
 10
147.709255392159
 20
151.3157559800812
 10
147.3874832615654
 20
152.3916600098926
 10
146.8245542879144
 20
152.6683013598569
 10
145.8840425999909
 20
152.6683013598569
 10
145.0989048209514
 20
152.6683013598569
 10
144.3282364524954
 20
152.3275811915945
 10
143.4531816219731
 20
151.6538923250251
 10
142.34627171234
 20
150.8074318058939
 10
141.901854101563
 20
150.1097995099067
 10
141.3578731655808
 20
149.289521733736
 10
140.6299240093235
 20
148.192602607601
 10
140.2850697237515
 20
147.455696197173
 10
139.6652966370942
 20
145.8385673095858
 10
139.0506911970739
 20
144.2214384219986
 10
138.463991048893
 20
142.3252566160164
 10
138.0571250036777
 20
141.0154304484394
 10
138.0571250036777
 20
141.0154304484394
 10
133.9009590684727
 20
127.8027915271048
 10
133.9009590684727
 20
127.8027915271048
 10
133.9009590684727
 20
127.8027915271048
 10
131.4180771143097
 20
127.8027915271048
 10
131.4180771143097
 20
127.8027915271048
 10
131.4180771143097
 20
127.8027915271048
 10
139.8926730891197
 20
154.8294111834263
 10
139.8926730891197
 20
154.8294111834263
 97
        0
 75
     2
 76
     1
 98
        0
  0
SPLINE
  5
6AA
330
6A2
100
AcDbEntity
  8
LOGO
370
     0
100
AcDbSpline
210
0.0
220
0.0
230
1.0
 70
    11
 71
     3
 72
    29
 73
    25
 74
     0
 42
0.000000001
 43
0.0000000001
 40
0.0
 40
0.0
 40
0.0
 40
0.0
 40
1.0
 40
1.0
 40
1.0
 40
2.0
 40
2.0
 40
2.0
 40
3.0
 40
3.0
 40
3.0
 40
4.0
 40
4.0
 40
4.0
 40
5.0
 40
5.0
 40
5.0
 40
6.0
 40
6.0
 40
6.0
 40
7.0
 40
7.0
 40
7.0
 40
8.0
 40
8.0
 40
8.0
 40
8.0
 10
101.6420971922469
 20
132.8388354296931
 30
0.0
 10
101.630039350094
 20
134.7164137077823
 30
0.0
 10
102.2236296937908
 20
138.0598810818841
 30
0.0
 10
103.7487744712405
 20
142.5378191476827
 30
0.0
 10
105.819967243327
 20
148.5896501242061
 30
0.0
 10
107.0602024361932
 20
150.8074318058939
 30
0.0
 10
108.1522984254671
 20
151.8833358357054
 30
0.0
 10
109.741177511439
 20
153.4532668840085
 30
0.0
 10
111.8740375333931
 20
153.5290590346837
 30
0.0
 10
112.5075910110823
 20
153.4532668840085
 30
0.0
 10
113.4012493694975
 20
153.3490526768302
 30
0.0
 10
114.6683563248758
 20
152.7580461564518
 30
0.0
 10
114.7493161221879
 20
150.7838328862519
 30
0.0
 10
114.8106388622796
 20
149.0909118479895
 30
0.0
 10
114.3186789024427
 20
145.9191825971221
 30
0.0
 10
112.6164561002338
 20
140.9489400617108
 30
0.0
 10
110.6444821435766
 20
135.1746117095912
 30
0.0
 10
109.4669477299053
 20
132.8960240524753
 30
0.0
 10
108.5212683953448
 20
131.9072809959403
 30
0.0
 10
106.7346406980658
 20
130.0538184021569
 30
0.0
 10
104.8222669326213
 20
130.2336525051225
 30
0.0
 10
104.5408024457958
 20
130.2336525051225
 30
0.0
 10
104.1721769856939
 20
130.2336525051225
 30
0.0
 10
101.6465758193322
 20
130.6305277668397
 30
0.0
 10
101.6420971922469
 20
132.8388354296931
 30
0.0
  0
SPLINE
  5
6AB
330
6A2
100
AcDbEntity
  8
LOGO
370
     0
100
AcDbSpline
210
0.0
220
0.0
230
1.0
 70
    11
 71
     3
 72
    32
 73
    28
 74
     0
 42
0.000000001
 43
0.0000000001
 40
0.0
 40
0.0
 40
0.0
 40
0.0
 40
1.0
 40
1.0
 40
1.0
 40
2.0
 40
2.0
 40
2.0
 40
3.0
 40
3.0
 40
3.0
 40
4.0
 40
4.0
 40
4.0
 40
5.0
 40
5.0
 40
5.0
 40
6.0
 40
6.0
 40
6.0
 40
7.0
 40
7.0
 40
7.0
 40
8.0
 40
8.0
 40
8.0
 40
9.0
 40
9.0
 40
9.0
 40
9.0
 10
106.2595617172429
 20
153.4105476718098
 30
0.0
 10
104.8222669326213
 20
151.5474388043041
 30
0.0
 10
103.7177685914188
 20
149.8758773721411
 30
0.0
 10
101.9232171692965
 20
144.6141795664062
 30
0.0
 10
100.2754269116635
 20
139.7999999594306
 30
0.0
 10
99.22777268346732
 20
136.3052927937542
 30
0.0
 10
99.06964269637689
 20
132.039572749846
 30
0.0
 10
98.94665270641765
 20
128.8673267343149
 30
0.0
 10
100.8807305877373
 20
127.8027915271048
 30
0.0
 10
103.7129454545577
 20
127.8027915271048
 30
0.0
 10
104.9352661390825
 20
127.8027915271048
 30
0.0
 10
108.0151835347002
 20
127.8827177950895
 30
0.0
 10
110.2045431598849
 20
130.5926316915021
 30
0.0
 10
111.7417457794874
 20
132.4984597712065
 30
0.0
 10
113.155269389579
 20
134.475256864725
 30
0.0
 10
115.0562743324223
 20
140.9489400617108
 30
0.0
 10
116.6361961642235
 20
146.3680788349845
 30
0.0
 10
117.7282921534974
 20
149.8639917848761
 30
0.0
 10
117.6480213757369
 20
151.8595646611754
 30
0.0
 10
117.6480213757369
 20
151.8595646611754
 30
0.0
 10
117.6480213757369
 20
151.8595646611754
 30
0.0
 10
117.6480213757369
 20
151.8595646611754
 30
0.0
 10
117.13229024137
 20
155.18150017429
 30
0.0
 10
114.7162431837115
 20
155.886194920681
 30
0.0
 10
113.3351034925446
 20
155.886194920681
 30
0.0
 10
111.9829026225447
 20
155.886194920681
 30
0.0
 10
108.3414342923792
 20
156.1251124501957
 30
0.0
 10
106.2595617172429
 20
153.4105476718098
 30
0.0
  0
HATCH
  5
6AC
330
6A2
100
AcDbEntity
  8
LOGO
 62
   250
420
  2234388
100
AcDbHatch
 10
0.0
 20
0.0
 30
0.0
210
0.0
220
0.0
230
1.0
  2
SOLID
 70
     1
 71
     0
 91
        2
 92
        1
 93
        1
 72
     4
 94
        3
 73
     0
 74
     1
 95
       29
 96
       25
 40
0.0
 40
0.0
 40
0.0
 40
0.0
 40
1.0
 40
1.0
 40
1.0
 40
2.0
 40
2.0
 40
2.0
 40
3.0
 40
3.0
 40
3.0
 40
4.0
 40
4.0
 40
4.0
 40
5.0
 40
5.0
 40
5.0
 40
6.0
 40
6.0
 40
6.0
 40
7.0
 40
7.0
 40
7.0
 40
8.0
 40
8.0
 40
8.0
 40
8.0
 10
101.6420971922469
 20
132.8388354296931
 10
101.630039350094
 20
134.7164137077823
 10
102.2236296937908
 20
138.0598810818841
 10
103.7487744712405
 20
142.5378191476827
 10
105.819967243327
 20
148.5896501242061
 10
107.0602024361932
 20
150.8074318058939
 10
108.1522984254671
 20
151.8833358357054
 10
109.741177511439
 20
153.4532668840085
 10
111.8740375333931
 20
153.5290590346837
 10
112.5075910110823
 20
153.4532668840085
 10
113.4012493694975
 20
153.3490526768302
 10
114.6683563248758
 20
152.7580461564518
 10
114.7493161221879
 20
150.7838328862519
 10
114.8106388622796
 20
149.0909118479895
 10
114.3186789024427
 20
145.9191825971221
 10
112.6164561002338
 20
140.9489400617108
 10
110.6444821435766
 20
135.1746117095912
 10
109.4669477299053
 20
132.8960240524753
 10
108.5212683953448
 20
131.9072809959403
 10
106.7346406980658
 20
130.0538184021569
 10
104.8222669326213
 20
130.2336525051225
 10
104.5408024457958
 20
130.2336525051225
 10
104.1721769856939
 20
130.2336525051225
 10
101.6465758193322
 20
130.6305277668397
 10
101.6420971922469
 20
132.8388354296931
 97
        0
 92
        1
 93
        1
 72
     4
 94
        3
 73
     0
 74
     1
 95
       32
 96
       28
 40
0.0
 40
0.0
 40
0.0
 40
0.0
 40
1.0
 40
1.0
 40
1.0
 40
2.0
 40
2.0
 40
2.0
 40
3.0
 40
3.0
 40
3.0
 40
4.0
 40
4.0
 40
4.0
 40
5.0
 40
5.0
 40
5.0
 40
6.0
 40
6.0
 40
6.0
 40
7.0
 40
7.0
 40
7.0
 40
8.0
 40
8.0
 40
8.0
 40
9.0
 40
9.0
 40
9.0
 40
9.0
 10
106.2595617172429
 20
153.4105476718098
 10
104.8222669326213
 20
151.5474388043041
 10
103.7177685914188
 20
149.8758773721411
 10
101.9232171692965
 20
144.6141795664062
 10
100.2754269116635
 20
139.7999999594306
 10
99.22777268346732
 20
136.3052927937542
 10
99.06964269637689
 20
132.039572749846
 10
98.94665270641765
 20
128.8673267343149
 10
100.8807305877373
 20
127.8027915271048
 10
103.7129454545577
 20
127.8027915271048
 10
104.9352661390825
 20
127.8027915271048
 10
108.0151835347002
 20
127.8827177950895
 10
110.2045431598849
 20
130.5926316915021
 10
111.7417457794874
 20
132.4984597712065
 10
113.155269389579
 20
134.475256864725
 10
115.0562743324223
 20
140.9489400617108
 10
116.6361961642235
 20
146.3680788349845
 10
117.7282921534974
 20
149.8639917848761
 10
117.6480213757369
 20
151.8595646611754
 10
117.6480213757369
 20
151.8595646611754
 10
117.6480213757369
 20
151.8595646611754
 10
117.6480213757369
 20
151.8595646611754
 10
117.13229024137
 20
155.18150017429
 10
114.7162431837115
 20
155.886194920681
 10
113.3351034925446
 20
155.886194920681
 10
111.9829026225447
 20
155.886194920681
 10
108.3414342923792
 20
156.1251124501957
 10
106.2595617172429
 20
153.4105476718098
 97
        0
 75
     2
 76
     1
 98
        0
  0
ENDBLK
  5
6AD
330
6A2
100
AcDbEntity
  8
0
100
AcDbBlockEnd
  0
BLOCK
  5
D60
330
D5F
100
AcDbEntity
  8
0
100
AcDbBlockBegin
  2
*D6
 70
     1
 10
0.0
 20
0.0
 30
0.0
  3
*D6
  1
*D6
  0
LINE
  5
D62
330
D5F
100
AcDbEntity
  8
MODEL
  6
Continuous
 62
     0
370
    -2
100
AcDbLine
 10
405.0468112244901
 20
974.9479591836734
 30
0.0
 11
990.1075255102048
 21
974.9479591836734
 31
0.0
  0
LINE
  5
D63
330
D5F
100
AcDbEntity
  8
MODEL
  6
Continuous
 62
     0
370
    -2
100
AcDbLine
 10
405.0468112244901
 20
1643.425255102041
 30
0.0
 11
990.1075255102048
 21
1643.425255102041
 31
0.0
  0
LINE
  5
D64
330
D5F
100
AcDbEntity
  8
MODEL
  6
Continuous
 62
     0
370
    -2
100
AcDbLine
 10
990.1075255102048
 20
986.9479591836734
 30
0.0
 11
990.1075255102048
 21
1631.425255102041
 31
0.0
  0
INSERT
  5
D65
330
D5F
100
AcDbEntity
  8
MODEL
 62
     0
370
    -2
100
AcDbBlockReference
  2
_DOT
 10
990.1075255102048
 20
974.9479591836734
 30
0.0
 41
12.0
 42
12.0
 43
12.0
 50
270.0
  0
INSERT
  5
D66
330
D5F
100
AcDbEntity
  8
MODEL
 62
     0
370
    -2
100
AcDbBlockReference
  2
_DOT
 10
990.1075255102048
 20
1643.425255102041
 30
0.0
 41
12.0
 42
12.0
 43
12.0
 50
90.0
  0
MTEXT
  5
D67
330
D5F
100
AcDbEntity
  8
MODEL
  6
Continuous
 62
     0
100
AcDbMText
 10
958.1075255102048
 20
1309.186607142857
 30
0.0
 40
24.0
 41
0.0
 46
0.0
 71
     5
 72
     1
  1
\A1;668
  7
ＭＳ ゴシック
 11
0.0
 21
1.0
 31
0.0
 73
     1
 44
1.0
  0
POINT
  5
D68
330
D5F
100
AcDbEntity
  8
Defpoints
 62
     0
100
AcDbPoint
 10
395.0468112244901
 20
974.9479591836734
 30
0.0
  0
POINT
  5
D69
330
D5F
100
AcDbEntity
  8
Defpoints
 62
     0
100
AcDbPoint
 10
395.0468112244901
 20
1643.425255102041
 30
0.0
  0
POINT
  5
D6A
330
D5F
100
AcDbEntity
  8
Defpoints
 62
     0
100
AcDbPoint
 10
990.1075255102048
 20
1643.425255102041
 30
0.0
  0
ENDBLK
  5
D61
330
D5F
100
AcDbEntity
  8
0
100
AcDbBlockEnd
  0
BLOCK
  5
D78
330
D77
100
AcDbEntity
  8
0
100
AcDbBlockBegin
  2
*D7
 70
     1
 10
0.0
 20
0.0
 30
0.0
  3
*D7
  1
*D7
  0
LINE
  5
D7A
330
D77
100
AcDbEntity
  8
MODEL
  6
Continuous
 62
     0
370
    -2
100
AcDbLine
 10
462.9311929069922
 20
2176.112294228638
 30
0.0
 11
462.9311929069922
 21
2427.836190547095
 31
0.0
  0
LINE
  5
D7B
330
D77
100
AcDbEntity
  8
MODEL
  6
Continuous
 62
     0
370
    -2
100
AcDbLine
 10
1222.299117436598
 20
2176.112294228638
 30
0.0
 11
1222.299117436598
 21
2427.836190547095
 31
0.0
  0
LINE
  5
D7C
330
D77
100
AcDbEntity
  8
MODEL
  6
Continuous
 62
     0
370
    -2
100
AcDbLine
 10
474.9311929069922
 20
2427.836190547095
 30
0.0
 11
1210.299117436598
 21
2427.836190547095
 31
0.0
  0
INSERT
  5
D7D
330
D77
100
AcDbEntity
  8
MODEL
 62
     0
370
    -2
100
AcDbBlockReference
  2
_DOT
 10
462.9311929069922
 20
2427.836190547095
 30
0.0
 41
12.0
 42
12.0
 43
12.0
 50
180.0
  0
INSERT
  5
D7E
330
D77
100
AcDbEntity
  8
MODEL
 62
     0
370
    -2
100
AcDbBlockReference
  2
_DOT
 10
1222.299117436598
 20
2427.836190547095
 30
0.0
 41
12.0
 42
12.0
 43
12.0
  0
MTEXT
  5
D7F
330
D77
100
AcDbEntity
  8
MODEL
  6
Continuous
 62
     0
100
AcDbMText
 10
842.6151551717953
 20
2459.836190547095
 30
0.0
 40
24.0
 41
0.0
 46
0.0
 71
     5
 72
     1
  1
\A1;759
  7
ＭＳ ゴシック
 73
     1
 44
1.0
  0
POINT
  5
D80
330
D77
100
AcDbEntity
  8
Defpoints
 62
     0
100
AcDbPoint
 10
462.9311929069922
 20
2166.112294228638
 30
0.0
  0
POINT
  5
D81
330
D77
100
AcDbEntity
  8
Defpoints
 62
     0
100
AcDbPoint
 10
1222.299117436598
 20
2166.112294228638
 30
0.0
  0
POINT
  5
D82
330
D77
100
AcDbEntity
  8
Defpoints
 62
     0
100
AcDbPoint
 10
1222.299117436598
 20
2427.836190547095
 30
0.0
  0
ENDBLK
  5
D79
330
D77
100
AcDbEntity
  8
0
100
AcDbBlockEnd
  0
BLOCK
  5
D8A
330
D89
100
AcDbEntity
  8
0
100
AcDbBlockBegin
  2
*D8
 70
     1
 10
0.0
 20
0.0
 30
0.0
  3
*D8
  1
*D8
  0
LINE
  5
D8C
330
D89
100
AcDbEntity
  8
MODEL
  6
Continuous
 62
     0
370
    -2
100
AcDbLine
 10
581.4610059718598
 20
2044.835716437608
 30
0.0
 11
581.4610059718598
 21
2208.031762863991
 31
0.0
  0
LINE
  5
D8D
330
D89
100
AcDbEntity
  8
MODEL
  6
Continuous
 62
     0
370
    -2
100
AcDbLine
 10
1441.49369157876
 20
2044.835716437608
 30
0.0
 11
1441.49369157876
 21
2208.031762863991
 31
0.0
  0
LINE
  5
D8E
330
D89
100
AcDbEntity
  8
MODEL
  6
Continuous
 62
     0
370
    -2
100
AcDbLine
 10
593.4610059718598
 20
2208.031762863991
 30
0.0
 11
1429.49369157876
 21
2208.031762863991
 31
0.0
  0
INSERT
  5
D8F
330
D89
100
AcDbEntity
  8
MODEL
 62
     0
370
    -2
100
AcDbBlockReference
  2
_DOT
 10
581.4610059718598
 20
2208.031762863991
 30
0.0
 41
12.0
 42
12.0
 43
12.0
 50
180.0
  0
INSERT
  5
D90
330
D89
100
AcDbEntity
  8
MODEL
 62
     0
370
    -2
100
AcDbBlockReference
  2
_DOT
 10
1441.49369157876
 20
2208.031762863991
 30
0.0
 41
12.0
 42
12.0
 43
12.0
  0
MTEXT
  5
D91
330
D89
100
AcDbEntity
  8
MODEL
  6
Continuous
 62
     0
100
AcDbMText
 10
1011.47734877531
 20
2240.031762863991
 30
0.0
 40
24.0
 41
0.0
 46
0.0
 71
     5
 72
     1
  1
\A1;860
  7
ＭＳ ゴシック
 73
     1
 44
1.0
  0
POINT
  5
D92
330
D89
100
AcDbEntity
  8
Defpoints
 62
     0
100
AcDbPoint
 10
581.4610059718598
 20
2034.835716437608
 30
0.0
  0
POINT
  5
D93
330
D89
100
AcDbEntity
  8
Defpoints
 62
     0
100
AcDbPoint
 10
1441.49369157876
 20
2034.835716437608
 30
0.0
  0
POINT
  5
D94
330
D89
100
AcDbEntity
  8
Defpoints
 62
     0
100
AcDbPoint
 10
1441.49369157876
 20
2208.031762863991
 30
0.0
  0
ENDBLK
  5
D8B
330
D89
100
AcDbEntity
  8
0
100
AcDbBlockEnd
  0
BLOCK
  5
DF9
330
DF8
100
AcDbEntity
  8
0
100
AcDbBlockBegin
  2
*D9
 70
     1
 10
0.0
 20
0.0
 30
0.0
  3
*D9
  1
*D10
  0
LINE
  5
DFA
330
DF8
100
AcDbEntity
  8
MODEL
 62
     0
370
    -2
100
AcDbLine
 10
67.76120651197834
 20
422.9938753562342
 30
0.0
 11
44.82
 21
422.9938753562342
 31
0.0
  0
LINE
  5
DFB
330
DF8
100
AcDbEntity
  8
MODEL
 62
     0
370
    -2
100
AcDbLine
 10
67.76120651197743
 20
477.9938753562342
 30
0.0
 11
44.82
 21
477.9938753562342
 31
0.0
  0
LINE
  5
DFC
330
DF8
100
AcDbEntity
  8
MODEL
 62
     0
370
    -2
100
AcDbLine
 10
45.0
 20
423.1738753562342
 30
0.0
 11
45.0
 21
442.9038753562342
 31
0.0
  0
LINE
  5
DFD
330
DF8
100
AcDbEntity
  8
MODEL
 62
     0
370
    -2
100
AcDbLine
 10
45.0
 20
477.8138753562342
 30
0.0
 11
45.0
 21
458.0838753562342
 31
0.0
  0
SOLID
  5
DFE
330
DF8
100
AcDbEntity
  8
MODEL
 62
     0
100
AcDbTrace
 10
44.97
 20
423.1738753562342
 30
0.0
 11
45.03
 21
423.1738753562342
 31
0.0
 12
45.0
 22
422.9938753562342
 32
0.0
 13
45.0
 23
422.9938753562342
 33
0.0
  0
SOLID
  5
DFF
330
DF8
100
AcDbEntity
  8
MODEL
 62
     0
100
AcDbTrace
 10
45.03
 20
477.8138753562342
 30
0.0
 11
44.97
 21
477.8138753562342
 31
0.0
 12
45.0
 22
477.9938753562342
 32
0.0
 13
45.0
 23
477.9938753562342
 33
0.0
  0
MTEXT
  5
E00
330
DF8
100
AcDbEntity
  8
MODEL
  6
Continuous
 62
     0
100
AcDbMText
 10
45.0
 20
450.4938753562342
 30
0.0
 40
15.0
 41
0.0
 46
0.0
 71
     5
 72
     1
  1
\A1;55.0000
 73
     1
 44
1.0
  0
POINT
  5
E01
330
DF8
100
AcDbEntity
  8
Defpoints
 62
     0
100
AcDbPoint
 10
67.82370651197834
 20
422.9938753562342
 30
0.0
  0
POINT
  5
E02
330
DF8
100
AcDbEntity
  8
Defpoints
 62
     0
100
AcDbPoint
 10
67.82370651197743
 20
477.9938753562342
 30
0.0
  0
POINT
  5
E03
330
DF8
100
AcDbEntity
  8
Defpoints
 62
     0
100
AcDbPoint
 10
45.0
 20
477.9938753562342
 30
0.0
  0
ENDBLK
  5
E04
330
DF8
100
AcDbEntity
  8
0
100
AcDbBlockEnd
  0
BLOCK
  5
E07
330
E06
100
AcDbEntity
  8
0
100
AcDbBlockBegin
  2
*D10
 70
     1
 10
0.0
 20
0.0
 30
0.0
  3
*D10
  1
*D11
  0
LINE
  5
E08
330
E06
100
AcDbEntity
  8
MODEL
 62
     0
370
    -2
100
AcDbLine
 10
67.76120651198198
 20
365.4950939805907
 30
0.0
 11
44.82000000000001
 21
365.4950939805907
 31
0.0
  0
LINE
  5
E09
330
E06
100
AcDbEntity
  8
MODEL
 62
     0
370
    -2
100
AcDbLine
 10
67.76120651197562
 20
265.3586688479685
 30
0.0
 11
44.82
 21
265.3586688479685
 31
0.0
  0
LINE
  5
E0A
330
E06
100
AcDbEntity
  8
MODEL
 62
     0
370
    -2
100
AcDbLine
 10
45.00000000000001
 20
365.3150939805907
 30
0.0
 11
45.00000000000001
 21
323.0168814142796
 31
0.0
  0
LINE
  5
E0B
330
E06
100
AcDbEntity
  8
MODEL
 62
     0
370
    -2
100
AcDbLine
 10
45.0
 20
265.5386688479685
 30
0.0
 11
45.0
 21
307.8368814142796
 31
0.0
  0
SOLID
  5
E0C
330
E06
100
AcDbEntity
  8
MODEL
 62
     0
100
AcDbTrace
 10
45.03000000000001
 20
365.3150939805907
 30
0.0
 11
44.97000000000001
 21
365.3150939805907
 31
0.0
 12
45.00000000000001
 22
365.4950939805907
 32
0.0
 13
45.00000000000001
 23
365.4950939805907
 33
0.0
  0
SOLID
  5
E0D
330
E06
100
AcDbEntity
  8
MODEL
 62
     0
100
AcDbTrace
 10
44.97
 20
265.5386688479685
 30
0.0
 11
45.03
 21
265.5386688479685
 31
0.0
 12
45.0
 22
265.3586688479685
 32
0.0
 13
45.0
 23
265.3586688479685
 33
0.0
  0
MTEXT
  5
E0E
330
E06
100
AcDbEntity
  8
MODEL
  6
Continuous
 62
     0
100
AcDbMText
 10
45.0
 20
315.4268814142796
 30
0.0
 40
15.0
 41
0.0
 46
0.0
 71
     5
 72
     1
  1
\A1;100.1364
 73
     1
 44
1.0
  0
POINT
  5
E0F
330
E06
100
AcDbEntity
  8
Defpoints
 62
     0
100
AcDbPoint
 10
67.82370651198198
 20
365.4950939805907
 30
0.0
  0
POINT
  5
E10
330
E06
100
AcDbEntity
  8
Defpoints
 62
     0
100
AcDbPoint
 10
67.82370651197562
 20
265.3586688479685
 30
0.0
  0
POINT
  5
E11
330
E06
100
AcDbEntity
  8
Defpoints
 62
     0
100
AcDbPoint
 10
45.0
 20
265.3586688479685
 30
0.0
  0
ENDBLK
  5
E12
330
E06
100
AcDbEntity
  8
0
100
AcDbBlockEnd
  0
BLOCK
  5
E15
330
E14
100
AcDbEntity
  8
0
100
AcDbBlockBegin
  2
*D11
 70
     1
 10
0.0
 20
0.0
 30
0.0
  3
*D11
  1
*D12
  0
LINE
  5
E16
330
E14
100
AcDbEntity
  8
MODEL
 62
     0
370
    -2
100
AcDbLine
 10
119.5866114922192
 20
1031.697940194076
 30
0.0
 11
119.5866114922192
 21
1052.821987559122
 31
0.0
  0
LINE
  5
E17
330
E14
100
AcDbEntity
  8
MODEL
 62
     0
370
    -2
100
AcDbLine
 10
669.5881562994073
 20
1031.697940194075
 30
0.0
 11
669.5881562994073
 21
1052.821987559122
 31
0.0
  0
LINE
  5
E18
330
E14
100
AcDbEntity
  8
MODEL
 62
     0
370
    -2
100
AcDbLine
 10
119.7666114922192
 20
1052.641987559122
 30
0.0
 11
348.2473838958133
 21
1052.641987559122
 31
0.0
  0
LINE
  5
E19
330
E14
100
AcDbEntity
  8
MODEL
 62
     0
370
    -2
100
AcDbLine
 10
669.4081562994073
 20
1052.641987559122
 30
0.0
 11
440.9273838958132
 21
1052.641987559122
 31
0.0
  0
SOLID
  5
E1A
330
E14
100
AcDbEntity
  8
MODEL
 62
     0
100
AcDbTrace
 10
119.7666114922192
 20
1052.671987559122
 30
0.0
 11
119.7666114922192
 21
1052.611987559122
 31
0.0
 12
119.5866114922192
 22
1052.641987559122
 32
0.0
 13
119.5866114922192
 23
1052.641987559122
 33
0.0
  0
SOLID
  5
E1B
330
E14
100
AcDbEntity
  8
MODEL
 62
     0
100
AcDbTrace
 10
669.4081562994073
 20
1052.611987559122
 30
0.0
 11
669.4081562994073
 21
1052.671987559122
 31
0.0
 12
669.5881562994073
 22
1052.641987559122
 32
0.0
 13
669.5881562994073
 23
1052.641987559122
 33
0.0
  0
MTEXT
  5
E1C
330
E14
100
AcDbEntity
  8
MODEL
  6
Continuous
 62
     0
100
AcDbMText
 10
394.5873838958132
 20
1052.641987559122
 30
0.0
 40
15.0
 41
0.0
 46
0.0
 71
     5
 72
     1
  1
\A1;550.0015
 73
     1
 44
1.0
  0
POINT
  5
E1D
330
E14
100
AcDbEntity
  8
Defpoints
 62
     0
100
AcDbPoint
 10
119.5866114922192
 20
1031.635440194076
 30
0.0
  0
POINT
  5
E1E
330
E14
100
AcDbEntity
  8
Defpoints
 62
     0
100
AcDbPoint
 10
669.5881562994073
 20
1031.635440194075
 30
0.0
  0
POINT
  5
E1F
330
E14
100
AcDbEntity
  8
Defpoints
 62
     0
100
AcDbPoint
 10
669.5881562994073
 20
1052.641987559122
 30
0.0
  0
ENDBLK
  5
E20
330
E14
100
AcDbEntity
  8
0
100
AcDbBlockEnd
  0
BLOCK
  5
E24
330
E23
100
AcDbEntity
  8
0
100
AcDbBlockBegin
  2
*D12
 70
     1
 10
0.0
 20
0.0
 30
0.0
  3
*D12
  1
*D13
  0
LINE
  5
E25
330
E23
100
AcDbEntity
  8
MODEL
 62
     0
370
    -2
100
AcDbLine
 10
717.9690394428544
 20
240.49509393657
 30
0.0
 11
740.3961792370834
 21
240.49509393657
 31
0.0
  0
LINE
  5
E26
330
E23
100
AcDbEntity
  8
MODEL
 62
     0
370
    -2
100
AcDbLine
 10
718.2646718978058
 20
505.4950939805917
 30
0.0
 11
740.3961792370834
 21
505.4950939805917
 31
0.0
  0
LINE
  5
E27
330
E23
100
AcDbEntity
  8
MODEL
 62
     0
370
    -2
100
AcDbLine
 10
740.2161792370835
 20
240.67509393657
 30
0.0
 11
740.2161792370835
 21
365.4050939585809
 31
0.0
  0
LINE
  5
E28
330
E23
100
AcDbEntity
  8
MODEL
 62
     0
370
    -2
100
AcDbLine
 10
740.2161792370835
 20
505.3150939805917
 30
0.0
 11
740.2161792370835
 21
380.5850939585808
 31
0.0
  0
SOLID
  5
E29
330
E23
100
AcDbEntity
  8
MODEL
 62
     0
100
AcDbTrace
 10
740.1861792370835
 20
240.67509393657
 30
0.0
 11
740.2461792370834
 21
240.67509393657
 31
0.0
 12
740.2161792370835
 22
240.49509393657
 32
0.0
 13
740.2161792370835
 23
240.49509393657
 33
0.0
  0
SOLID
  5
E2A
330
E23
100
AcDbEntity
  8
MODEL
 62
     0
100
AcDbTrace
 10
740.2461792370834
 20
505.3150939805917
 30
0.0
 11
740.1861792370835
 21
505.3150939805917
 31
0.0
 12
740.2161792370835
 22
505.4950939805917
 32
0.0
 13
740.2161792370835
 23
505.4950939805917
 33
0.0
  0
MTEXT
  5
E2B
330
E23
100
AcDbEntity
  8
MODEL
  6
Continuous
 62
     0
100
AcDbMText
 10
740.2161792370835
 20
372.9950939585809
 30
0.0
 40
15.0
 41
0.0
 46
0.0
 71
     5
 72
     1
  1
\A1;265.0000
 73
     1
 44
1.0
  0
POINT
  5
E2C
330
E23
100
AcDbEntity
  8
Defpoints
 62
     0
100
AcDbPoint
 10
717.9065394428544
 20
240.49509393657
 30
0.0
  0
POINT
  5
E2D
330
E23
100
AcDbEntity
  8
Defpoints
 62
     0
100
AcDbPoint
 10
718.2021718978058
 20
505.4950939805917
 30
0.0
  0
POINT
  5
E2E
330
E23
100
AcDbEntity
  8
Defpoints
 62
     0
100
AcDbPoint
 10
740.2161792370835
 20
505.4950939805917
 30
0.0
  0
ENDBLK
  5
E2F
330
E23
100
AcDbEntity
  8
0
100
AcDbBlockEnd
  0
BLOCK
  5
E32
330
E31
100
AcDbEntity
  8
0
100
AcDbBlockBegin
  2
*D13
 70
     1
 10
0.0
 20
0.0
 30
0.0
  3
*D13
  1
*D14
  0
LINE
  5
E33
330
E31
100
AcDbEntity
  8
MODEL
 62
     0
370
    -2
100
AcDbLine
 10
717.9690394428544
 20
240.49509393657
 30
0.0
 11
740.3961792370834
 21
240.49509393657
 31
0.0
  0
LINE
  5
E34
330
E31
100
AcDbEntity
  8
MODEL
 62
     0
370
    -2
100
AcDbLine
 10
718.2646718978058
 20
85.49509398059126
 30
0.0
 11
740.3961792370834
 21
85.49509398059126
 31
0.0
  0
LINE
  5
E35
330
E31
100
AcDbEntity
  8
MODEL
 62
     0
370
    -2
100
AcDbLine
 10
740.2161792370835
 20
240.31509393657
 30
0.0
 11
740.2161792370835
 21
170.5850939585806
 31
0.0
  0
LINE
  5
E36
330
E31
100
AcDbEntity
  8
MODEL
 62
     0
370
    -2
100
AcDbLine
 10
740.2161792370835
 20
85.67509398059127
 30
0.0
 11
740.2161792370835
 21
155.4050939585807
 31
0.0
  0
SOLID
  5
E37
330
E31
100
AcDbEntity
  8
MODEL
 62
     0
100
AcDbTrace
 10
740.2461792370834
 20
240.31509393657
 30
0.0
 11
740.1861792370835
 21
240.31509393657
 31
0.0
 12
740.2161792370835
 22
240.49509393657
 32
0.0
 13
740.2161792370835
 23
240.49509393657
 33
0.0
  0
SOLID
  5
E38
330
E31
100
AcDbEntity
  8
MODEL
 62
     0
100
AcDbTrace
 10
740.1861792370835
 20
85.67509398059127
 30
0.0
 11
740.2461792370834
 21
85.67509398059127
 31
0.0
 12
740.2161792370835
 22
85.49509398059126
 32
0.0
 13
740.2161792370835
 23
85.49509398059126
 33
0.0
  0
MTEXT
  5
E39
330
E31
100
AcDbEntity
  8
MODEL
  6
Continuous
 62
     0
100
AcDbMText
 10
740.2161792370835
 20
162.9950939585806
 30
0.0
 40
15.0
 41
0.0
 46
0.0
 71
     5
 72
     1
  1
\A1;155.0000
 73
     1
 44
1.0
  0
POINT
  5
E3A
330
E31
100
AcDbEntity
  8
Defpoints
 62
     0
100
AcDbPoint
 10
717.9065394428544
 20
240.49509393657
 30
0.0
  0
POINT
  5
E3B
330
E31
100
AcDbEntity
  8
Defpoints
 62
     0
100
AcDbPoint
 10
718.2021718978058
 20
85.49509398059126
 30
0.0
  0
POINT
  5
E3C
330
E31
100
AcDbEntity
  8
Defpoints
 62
     0
100
AcDbPoint
 10
740.2161792370835
 20
85.49509398059126
 30
0.0
  0
ENDBLK
  5
E3D
330
E31
100
AcDbEntity
  8
0
100
AcDbBlockEnd
  0
BLOCK
  5
E40
330
E3F
100
AcDbEntity
  8
0
100
AcDbBlockBegin
  2
*D14
 70
     1
 10
0.0
 20
0.0
 30
0.0
  3
*D14
  1
*D15
  0
LINE
  5
E41
330
E3F
100
AcDbEntity
  8
MODEL
 62
     0
370
    -2
100
AcDbLine
 10
997.2219704517829
 20
545.5540360852988
 30
0.0
 11
997.2219704517829
 21
566.9737503705093
 31
0.0
  0
LINE
  5
E42
330
E3F
100
AcDbEntity
  8
MODEL
 62
     0
370
    -2
100
AcDbLine
 10
1177.221970451781
 20
545.5540360852988
 30
0.0
 11
1177.221970451781
 21
566.9737503705093
 31
0.0
  0
LINE
  5
E43
330
E3F
100
AcDbEntity
  8
MODEL
 62
     0
370
    -2
100
AcDbLine
 10
997.4019704517829
 20
566.7937503705093
 30
0.0
 11
1043.381970451782
 21
566.7937503705093
 31
0.0
  0
LINE
  5
E44
330
E3F
100
AcDbEntity
  8
MODEL
 62
     0
370
    -2
100
AcDbLine
 10
1177.041970451781
 20
566.7937503705093
 30
0.0
 11
1131.061970451782
 21
566.7937503705093
 31
0.0
  0
SOLID
  5
E45
330
E3F
100
AcDbEntity
  8
MODEL
 62
     0
100
AcDbTrace
 10
997.4019704517829
 20
566.8237503705093
 30
0.0
 11
997.4019704517829
 21
566.7637503705093
 31
0.0
 12
997.2219704517829
 22
566.7937503705093
 32
0.0
 13
997.2219704517829
 23
566.7937503705093
 33
0.0
  0
SOLID
  5
E46
330
E3F
100
AcDbEntity
  8
MODEL
 62
     0
100
AcDbTrace
 10
1177.041970451781
 20
566.7637503705093
 30
0.0
 11
1177.041970451781
 21
566.8237503705093
 31
0.0
 12
1177.221970451781
 22
566.7937503705093
 32
0.0
 13
1177.221970451781
 23
566.7937503705093
 33
0.0
  0
MTEXT
  5
E47
330
E3F
100
AcDbEntity
  8
MODEL
  6
Continuous
 62
     0
100
AcDbMText
 10
1087.221970451782
 20
566.7937503705093
 30
0.0
 40
15.0
 41
0.0
 46
0.0
 71
     5
 72
     1
  1
\A1;180.0000
 73
     1
 44
1.0
  0
POINT
  5
E48
330
E3F
100
AcDbEntity
  8
Defpoints
 62
     0
100
AcDbPoint
 10
997.2219704517829
 20
545.4915360852988
 30
0.0
  0
POINT
  5
E49
330
E3F
100
AcDbEntity
  8
Defpoints
 62
     0
100
AcDbPoint
 10
1177.221970451781
 20
545.4915360852988
 30
0.0
  0
POINT
  5
E4A
330
E3F
100
AcDbEntity
  8
Defpoints
 62
     0
100
AcDbPoint
 10
1177.221970451781
 20
566.7937503705093
 30
0.0
  0
ENDBLK
  5
E4B
330
E3F
100
AcDbEntity
  8
0
100
AcDbBlockEnd
  0
BLOCK
  5
E4E
330
E4D
100
AcDbEntity
  8
0
100
AcDbBlockBegin
  2
*D15
 70
     1
 10
0.0
 20
0.0
 30
0.0
  3
*D15
  1
*D16
  0
LINE
  5
E4F
330
E4D
100
AcDbEntity
  8
MODEL
 62
     0
370
    -2
100
AcDbLine
 10
881.5858716192452
 20
450.495119466957
 30
0.0
 11
861.8908630990085
 21
450.495119466957
 31
0.0
  0
LINE
  5
E50
330
E4D
100
AcDbEntity
  8
MODEL
 62
     0
370
    -2
100
AcDbLine
 10
881.5858716192433
 20
315.4951194669576
 30
0.0
 11
861.8908630990085
 21
315.4951194669576
 31
0.0
  0
LINE
  5
E51
330
E4D
100
AcDbEntity
  8
MODEL
 62
     0
370
    -2
100
AcDbLine
 10
862.0708630990084
 20
450.315119466957
 30
0.0
 11
862.0708630990084
 21
390.5851194669573
 31
0.0
  0
LINE
  5
E52
330
E4D
100
AcDbEntity
  8
MODEL
 62
     0
370
    -2
100
AcDbLine
 10
862.0708630990084
 20
315.6751194669576
 30
0.0
 11
862.0708630990084
 21
375.4051194669573
 31
0.0
  0
SOLID
  5
E53
330
E4D
100
AcDbEntity
  8
MODEL
 62
     0
100
AcDbTrace
 10
862.1008630990084
 20
450.315119466957
 30
0.0
 11
862.0408630990084
 21
450.315119466957
 31
0.0
 12
862.0708630990084
 22
450.495119466957
 32
0.0
 13
862.0708630990084
 23
450.495119466957
 33
0.0
  0
SOLID
  5
E54
330
E4D
100
AcDbEntity
  8
MODEL
 62
     0
100
AcDbTrace
 10
862.0408630990084
 20
315.6751194669576
 30
0.0
 11
862.1008630990084
 21
315.6751194669576
 31
0.0
 12
862.0708630990084
 22
315.4951194669576
 32
0.0
 13
862.0708630990084
 23
315.4951194669576
 33
0.0
  0
MTEXT
  5
E55
330
E4D
100
AcDbEntity
  8
MODEL
  6
Continuous
 62
     0
100
AcDbMText
 10
862.0708630990084
 20
382.9951194669573
 30
0.0
 40
15.0
 41
0.0
 46
0.0
 71
     5
 72
     1
  1
\A1;135.0000
 73
     1
 44
1.0
  0
POINT
  5
E56
330
E4D
100
AcDbEntity
  8
Defpoints
 62
     0
100
AcDbPoint
 10
881.6483716192452
 20
450.495119466957
 30
0.0
  0
POINT
  5
E57
330
E4D
100
AcDbEntity
  8
Defpoints
 62
     0
100
AcDbPoint
 10
881.6483716192433
 20
315.4951194669576
 30
0.0
  0
POINT
  5
E58
330
E4D
100
AcDbEntity
  8
Defpoints
 62
     0
100
AcDbPoint
 10
862.0708630990084
 20
315.4951194669576
 30
0.0
  0
ENDBLK
  5
E59
330
E4D
100
AcDbEntity
  8
0
100
AcDbBlockEnd
  0
BLOCK
  5
E5C
330
E5B
100
AcDbEntity
  8
0
100
AcDbBlockBegin
  2
*D16
 70
     1
 10
0.0
 20
0.0
 30
0.0
  3
*D16
  1
*D17
  0
LINE
  5
E5D
330
E5B
100
AcDbEntity
  8
MODEL
 62
     0
370
    -2
100
AcDbLine
 10
881.5858716192452
 20
315.4951194669576
 30
0.0
 11
861.8908630990085
 21
315.4951194669576
 31
0.0
  0
LINE
  5
E5E
330
E5B
100
AcDbEntity
  8
MODEL
 62
     0
370
    -2
100
AcDbLine
 10
881.5858716192415
 20
85.49511946695941
 30
0.0
 11
861.8908630990085
 21
85.49511946695941
 31
0.0
  0
LINE
  5
E5F
330
E5B
100
AcDbEntity
  8
MODEL
 62
     0
370
    -2
100
AcDbLine
 10
862.0708630990084
 20
315.3151194669576
 30
0.0
 11
862.0708630990084
 21
208.0851194669585
 31
0.0
  0
LINE
  5
E60
330
E5B
100
AcDbEntity
  8
MODEL
 62
     0
370
    -2
100
AcDbLine
 10
862.0708630990084
 20
85.67511946695942
 30
0.0
 11
862.0708630990084
 21
192.9051194669585
 31
0.0
  0
SOLID
  5
E61
330
E5B
100
AcDbEntity
  8
MODEL
 62
     0
100
AcDbTrace
 10
862.1008630990084
 20
315.3151194669576
 30
0.0
 11
862.0408630990084
 21
315.3151194669576
 31
0.0
 12
862.0708630990084
 22
315.4951194669576
 32
0.0
 13
862.0708630990084
 23
315.4951194669576
 33
0.0
  0
SOLID
  5
E62
330
E5B
100
AcDbEntity
  8
MODEL
 62
     0
100
AcDbTrace
 10
862.0408630990084
 20
85.67511946695942
 30
0.0
 11
862.1008630990084
 21
85.67511946695942
 31
0.0
 12
862.0708630990084
 22
85.49511946695941
 32
0.0
 13
862.0708630990084
 23
85.49511946695941
 33
0.0
  0
MTEXT
  5
E63
330
E5B
100
AcDbEntity
  8
MODEL
  6
Continuous
 62
     0
100
AcDbMText
 10
862.0708630990084
 20
200.4951194669585
 30
0.0
 40
15.0
 41
0.0
 46
0.0
 71
     5
 72
     1
  1
\A1;230.0000
 73
     1
 44
1.0
  0
POINT
  5
E64
330
E5B
100
AcDbEntity
  8
Defpoints
 62
     0
100
AcDbPoint
 10
881.6483716192452
 20
315.4951194669576
 30
0.0
  0
POINT
  5
E65
330
E5B
100
AcDbEntity
  8
Defpoints
 62
     0
100
AcDbPoint
 10
881.6483716192415
 20
85.49511946695941
 30
0.0
  0
POINT
  5
E66
330
E5B
100
AcDbEntity
  8
Defpoints
 62
     0
100
AcDbPoint
 10
862.0708630990084
 20
85.49511946695941
 30
0.0
  0
ENDBLK
  5
E67
330
E5B
100
AcDbEntity
  8
0
100
AcDbBlockEnd
  0
BLOCK
  5
E6A
330
E69
100
AcDbEntity
  8
0
100
AcDbBlockBegin
  2
*D17
 70
     1
 10
0.0
 20
0.0
 30
0.0
  3
*D17
  1
*D18
  0
LINE
  5
E6B
330
E69
100
AcDbEntity
  8
MODEL
 62
     0
370
    -2
100
AcDbLine
 10
1298.284201074013
 20
415.495119466957
 30
0.0
 11
1317.97920959425
 21
415.495119466957
 31
0.0
  0
LINE
  5
E6C
330
E69
100
AcDbEntity
  8
MODEL
 62
     0
370
    -2
100
AcDbLine
 10
1298.284201074017
 20
85.495119466956
 30
0.0
 11
1317.97920959425
 21
85.495119466956
 31
0.0
  0
LINE
  5
E6D
330
E69
100
AcDbEntity
  8
MODEL
 62
     0
370
    -2
100
AcDbLine
 10
1317.79920959425
 20
415.315119466957
 30
0.0
 11
1317.79920959425
 21
258.0851194669565
 31
0.0
  0
LINE
  5
E6E
330
E69
100
AcDbEntity
  8
MODEL
 62
     0
370
    -2
100
AcDbLine
 10
1317.79920959425
 20
85.675119466956
 30
0.0
 11
1317.79920959425
 21
242.9051194669565
 31
0.0
  0
SOLID
  5
E6F
330
E69
100
AcDbEntity
  8
MODEL
 62
     0
100
AcDbTrace
 10
1317.82920959425
 20
415.315119466957
 30
0.0
 11
1317.76920959425
 21
415.315119466957
 31
0.0
 12
1317.79920959425
 22
415.495119466957
 32
0.0
 13
1317.79920959425
 23
415.495119466957
 33
0.0
  0
SOLID
  5
E70
330
E69
100
AcDbEntity
  8
MODEL
 62
     0
100
AcDbTrace
 10
1317.76920959425
 20
85.675119466956
 30
0.0
 11
1317.82920959425
 21
85.675119466956
 31
0.0
 12
1317.79920959425
 22
85.495119466956
 32
0.0
 13
1317.79920959425
 23
85.495119466956
 33
0.0
  0
MTEXT
  5
E71
330
E69
100
AcDbEntity
  8
MODEL
  6
Continuous
 62
     0
100
AcDbMText
 10
1317.79920959425
 20
250.4951194669565
 30
0.0
 40
15.0
 41
0.0
 46
0.0
 71
     5
 72
     1
  1
\A1;330.0000
 73
     1
 44
1.0
  0
POINT
  5
E72
330
E69
100
AcDbEntity
  8
Defpoints
 62
     0
100
AcDbPoint
 10
1298.221701074013
 20
415.495119466957
 30
0.0
  0
POINT
  5
E73
330
E69
100
AcDbEntity
  8
Defpoints
 62
     0
100
AcDbPoint
 10
1298.221701074017
 20
85.495119466956
 30
0.0
  0
POINT
  5
E74
330
E69
100
AcDbEntity
  8
Defpoints
 62
     0
100
AcDbPoint
 10
1317.79920959425
 20
85.495119466956
 30
0.0
  0
ENDBLK
  5
E75
330
E69
100
AcDbEntity
  8
0
100
AcDbBlockEnd
  0
BLOCK
  5
E78
330
E77
100
AcDbEntity
  8
0
100
AcDbBlockBegin
  2
*D18
 70
     1
 10
0.0
 20
0.0
 30
0.0
  3
*D18
  1
*D19
  0
LINE
  5
E79
330
E77
100
AcDbEntity
  8
MODEL
 62
     0
370
    -2
100
AcDbLine
 10
716.3939843351764
 20
991.5924941367748
 30
0.0
 11
740.3961792370834
 21
991.5924941367748
 31
0.0
  0
LINE
  5
E7A
330
E77
100
AcDbEntity
  8
MODEL
 62
     0
370
    -2
100
AcDbLine
 10
716.3939843351764
 20
641.5924941367743
 30
0.0
 11
740.3961792370834
 21
641.5924941367743
 31
0.0
  0
LINE
  5
E7B
330
E77
100
AcDbEntity
  8
MODEL
 62
     0
370
    -2
100
AcDbLine
 10
740.2161792370835
 20
991.4124941367749
 30
0.0
 11
740.2161792370835
 21
824.1824941367746
 31
0.0
  0
LINE
  5
E7C
330
E77
100
AcDbEntity
  8
MODEL
 62
     0
370
    -2
100
AcDbLine
 10
740.2161792370835
 20
641.7724941367743
 30
0.0
 11
740.2161792370835
 21
809.0024941367745
 31
0.0
  0
SOLID
  5
E7D
330
E77
100
AcDbEntity
  8
MODEL
 62
     0
100
AcDbTrace
 10
740.2461792370834
 20
991.4124941367749
 30
0.0
 11
740.1861792370835
 21
991.4124941367749
 31
0.0
 12
740.2161792370835
 22
991.5924941367748
 32
0.0
 13
740.2161792370835
 23
991.5924941367748
 33
0.0
  0
SOLID
  5
E7E
330
E77
100
AcDbEntity
  8
MODEL
 62
     0
100
AcDbTrace
 10
740.1861792370835
 20
641.7724941367743
 30
0.0
 11
740.2461792370834
 21
641.7724941367743
 31
0.0
 12
740.2161792370835
 22
641.5924941367743
 32
0.0
 13
740.2161792370835
 23
641.5924941367743
 33
0.0
  0
MTEXT
  5
E7F
330
E77
100
AcDbEntity
  8
MODEL
  6
Continuous
 62
     0
100
AcDbMText
 10
740.2161792370835
 20
816.5924941367746
 30
0.0
 40
15.0
 41
0.0
 46
0.0
 71
     5
 72
     1
  1
\A1;350.0000
 73
     1
 44
1.0
  0
POINT
  5
E80
330
E77
100
AcDbEntity
  8
Defpoints
 62
     0
100
AcDbPoint
 10
716.3314843351764
 20
991.5924941367748
 30
0.0
  0
POINT
  5
E81
330
E77
100
AcDbEntity
  8
Defpoints
 62
     0
100
AcDbPoint
 10
716.3314843351764
 20
641.5924941367743
 30
0.0
  0
POINT
  5
E82
330
E77
100
AcDbEntity
  8
Defpoints
 62
     0
100
AcDbPoint
 10
740.2161792370835
 20
641.5924941367743
 30
0.0
  0
ENDBLK
  5
E83
330
E77
100
AcDbEntity
  8
0
100
AcDbBlockEnd
  0
BLOCK
  5
100B
330
100A
100
AcDbEntity
  8
0
100
AcDbBlockBegin
  2
*D19
 70
     1
 10
0.0
 20
0.0
 30
0.0
  3
*D19
  1
*D20
  0
LINE
  5
100D
330
100A
100
AcDbEntity
  8
MODEL
 62
     0
370
    -2
100
AcDbLine
 10
244.0248641556093
 20
1335.288968630164
 30
0.0
 11
221.0836576436309
 21
1335.288968630164
 31
0.0
  0
LINE
  5
100E
330
100A
100
AcDbEntity
  8
MODEL
 62
     0
370
    -2
100
AcDbLine
 10
244.0248641556084
 20
1390.288968630164
 30
0.0
 11
221.0836576436309
 21
1390.288968630164
 31
0.0
  0
LINE
  5
100F
330
100A
100
AcDbEntity
  8
MODEL
 62
     0
370
    -2
100
AcDbLine
 10
221.2636576436309
 20
1335.468968630164
 30
0.0
 11
221.2636576436309
 21
1355.198968630164
 31
0.0
  0
LINE
  5
1010
330
100A
100
AcDbEntity
  8
MODEL
 62
     0
370
    -2
100
AcDbLine
 10
221.2636576436309
 20
1390.108968630164
 30
0.0
 11
221.2636576436309
 21
1370.378968630164
 31
0.0
  0
SOLID
  5
1011
330
100A
100
AcDbEntity
  8
MODEL
 62
     0
100
AcDbTrace
 10
221.2336576436309
 20
1335.468968630164
 30
0.0
 11
221.293657643631
 21
1335.468968630164
 31
0.0
 12
221.2636576436309
 22
1335.288968630164
 32
0.0
 13
221.2636576436309
 23
1335.288968630164
 33
0.0
  0
SOLID
  5
1012
330
100A
100
AcDbEntity
  8
MODEL
 62
     0
100
AcDbTrace
 10
221.293657643631
 20
1390.108968630164
 30
0.0
 11
221.2336576436309
 21
1390.108968630164
 31
0.0
 12
221.2636576436309
 22
1390.288968630164
 32
0.0
 13
221.2636576436309
 23
1390.288968630164
 33
0.0
  0
MTEXT
  5
1013
330
100A
100
AcDbEntity
  8
MODEL
  6
Continuous
 62
     0
100
AcDbMText
 10
221.2636576436309
 20
1362.788968630164
 30
0.0
 40
15.0
 41
0.0
 46
0.0
 71
     5
 72
     1
  1
\A1;55.0000
 73
     1
 44
1.0
  0
POINT
  5
1014
330
100A
100
AcDbEntity
  8
Defpoints
 62
     0
100
AcDbPoint
 10
244.0873641556093
 20
1335.288968630164
 30
0.0
  0
POINT
  5
1015
330
100A
100
AcDbEntity
  8
Defpoints
 62
     0
100
AcDbPoint
 10
244.0873641556084
 20
1390.288968630164
 30
0.0
  0
POINT
  5
1016
330
100A
100
AcDbEntity
  8
Defpoints
 62
     0
100
AcDbPoint
 10
221.2636576436309
 20
1390.288968630164
 30
0.0
  0
ENDBLK
  5
100C
330
100A
100
AcDbEntity
  8
0
100
AcDbBlockEnd
  0
BLOCK
  5
1018
330
1017
100
AcDbEntity
  8
0
100
AcDbBlockBegin
  2
*D20
 70
     1
 10
0.0
 20
0.0
 30
0.0
  3
*D20
  1
*D21
  0
LINE
  5
101A
330
1017
100
AcDbEntity
  8
MODEL
 62
     0
370
    -2
100
AcDbLine
 10
244.0248641556129
 20
1277.79018725452
 30
0.0
 11
221.0836576436309
 21
1277.79018725452
 31
0.0
  0
LINE
  5
101B
330
1017
100
AcDbEntity
  8
MODEL
 62
     0
370
    -2
100
AcDbLine
 10
244.0248641556066
 20
1177.653762121898
 30
0.0
 11
221.0836576436309
 21
1177.653762121898
 31
0.0
  0
LINE
  5
101C
330
1017
100
AcDbEntity
  8
MODEL
 62
     0
370
    -2
100
AcDbLine
 10
221.2636576436309
 20
1277.61018725452
 30
0.0
 11
221.2636576436309
 21
1235.311974688209
 31
0.0
  0
LINE
  5
101D
330
1017
100
AcDbEntity
  8
MODEL
 62
     0
370
    -2
100
AcDbLine
 10
221.2636576436309
 20
1177.833762121898
 30
0.0
 11
221.2636576436309
 21
1220.131974688209
 31
0.0
  0
SOLID
  5
101E
330
1017
100
AcDbEntity
  8
MODEL
 62
     0
100
AcDbTrace
 10
221.293657643631
 20
1277.61018725452
 30
0.0
 11
221.2336576436309
 21
1277.61018725452
 31
0.0
 12
221.2636576436309
 22
1277.79018725452
 32
0.0
 13
221.2636576436309
 23
1277.79018725452
 33
0.0
  0
SOLID
  5
101F
330
1017
100
AcDbEntity
  8
MODEL
 62
     0
100
AcDbTrace
 10
221.2336576436309
 20
1177.833762121898
 30
0.0
 11
221.293657643631
 21
1177.833762121898
 31
0.0
 12
221.2636576436309
 22
1177.653762121898
 32
0.0
 13
221.2636576436309
 23
1177.653762121898
 33
0.0
  0
MTEXT
  5
1020
330
1017
100
AcDbEntity
  8
MODEL
  6
Continuous
 62
     0
100
AcDbMText
 10
221.2636576436309
 20
1227.721974688209
 30
0.0
 40
15.0
 41
0.0
 46
0.0
 71
     5
 72
     1
  1
\A1;100.1364
 73
     1
 44
1.0
  0
POINT
  5
1021
330
1017
100
AcDbEntity
  8
Defpoints
 62
     0
100
AcDbPoint
 10
244.0873641556129
 20
1277.79018725452
 30
0.0
  0
POINT
  5
1022
330
1017
100
AcDbEntity
  8
Defpoints
 62
     0
100
AcDbPoint
 10
244.0873641556066
 20
1177.653762121898
 30
0.0
  0
POINT
  5
1023
330
1017
100
AcDbEntity
  8
Defpoints
 62
     0
100
AcDbPoint
 10
221.2636576436309
 20
1177.653762121898
 30
0.0
  0
ENDBLK
  5
1019
330
1017
100
AcDbEntity
  8
0
100
AcDbBlockEnd
  0
BLOCK
  5
1025
330
1024
100
AcDbEntity
  8
0
100
AcDbBlockBegin
  2
*D21
 70
     1
 10
0.0
 20
0.0
 30
0.0
  3
*D21
  1
*D22
  0
LINE
  5
1027
330
1024
100
AcDbEntity
  8
MODEL
 62
     0
370
    -2
100
AcDbLine
 10
295.8502691358501
 20
2329.329248892737
 30
0.0
 11
295.8502691358501
 21
2350.453296257784
 31
0.0
  0
LINE
  5
1028
330
1024
100
AcDbEntity
  8
MODEL
 62
     0
370
    -2
100
AcDbLine
 10
845.8518139430382
 20
2329.329248892736
 30
0.0
 11
845.8518139430382
 21
2350.453296257784
 31
0.0
  0
LINE
  5
1029
330
1024
100
AcDbEntity
  8
MODEL
 62
     0
370
    -2
100
AcDbLine
 10
296.0302691358501
 20
2350.273296257784
 30
0.0
 11
524.5110415394441
 21
2350.273296257784
 31
0.0
  0
LINE
  5
102A
330
1024
100
AcDbEntity
  8
MODEL
 62
     0
370
    -2
100
AcDbLine
 10
845.6718139430383
 20
2350.273296257784
 30
0.0
 11
617.1910415394441
 21
2350.273296257784
 31
0.0
  0
SOLID
  5
102B
330
1024
100
AcDbEntity
  8
MODEL
 62
     0
100
AcDbTrace
 10
296.0302691358501
 20
2350.303296257784
 30
0.0
 11
296.0302691358501
 21
2350.243296257784
 31
0.0
 12
295.8502691358501
 22
2350.273296257784
 32
0.0
 13
295.8502691358501
 23
2350.273296257784
 33
0.0
  0
SOLID
  5
102C
330
1024
100
AcDbEntity
  8
MODEL
 62
     0
100
AcDbTrace
 10
845.6718139430383
 20
2350.243296257784
 30
0.0
 11
845.6718139430383
 21
2350.303296257784
 31
0.0
 12
845.8518139430382
 22
2350.273296257784
 32
0.0
 13
845.8518139430382
 23
2350.273296257784
 33
0.0
  0
MTEXT
  5
102D
330
1024
100
AcDbEntity
  8
MODEL
  6
Continuous
 62
     0
100
AcDbMText
 10
570.8510415394442
 20
2350.273296257784
 30
0.0
 40
15.0
 41
0.0
 46
0.0
 71
     5
 72
     1
  1
\A1;550.0015
 73
     1
 44
1.0
  0
POINT
  5
102E
330
1024
100
AcDbEntity
  8
Defpoints
 62
     0
100
AcDbPoint
 10
295.8502691358501
 20
2329.266748892737
 30
0.0
  0
POINT
  5
102F
330
1024
100
AcDbEntity
  8
Defpoints
 62
     0
100
AcDbPoint
 10
845.8518139430382
 20
2329.266748892736
 30
0.0
  0
POINT
  5
1030
330
1024
100
AcDbEntity
  8
Defpoints
 62
     0
100
AcDbPoint
 10
845.8518139430382
 20
2350.273296257784
 30
0.0
  0
ENDBLK
  5
1026
330
1024
100
AcDbEntity
  8
0
100
AcDbBlockEnd
  0
BLOCK
  5
1032
330
1031
100
AcDbEntity
  8
0
100
AcDbBlockBegin
  2
*D22
 70
     1
 10
0.0
 20
0.0
 30
0.0
  3
*D22
  1
*D23
  0
LINE
  5
1034
330
1031
100
AcDbEntity
  8
MODEL
 62
     0
370
    -2
100
AcDbLine
 10
894.2326970864854
 20
1152.790187210499
 30
0.0
 11
916.6598368807144
 21
1152.790187210499
 31
0.0
  0
LINE
  5
1035
330
1031
100
AcDbEntity
  8
MODEL
 62
     0
370
    -2
100
AcDbLine
 10
894.5283295414367
 20
1417.790187254521
 30
0.0
 11
916.6598368807144
 21
1417.790187254521
 31
0.0
  0
LINE
  5
1036
330
1031
100
AcDbEntity
  8
MODEL
 62
     0
370
    -2
100
AcDbLine
 10
916.4798368807144
 20
1152.970187210499
 30
0.0
 11
916.4798368807144
 21
1277.70018723251
 31
0.0
  0
LINE
  5
1037
330
1031
100
AcDbEntity
  8
MODEL
 62
     0
370
    -2
100
AcDbLine
 10
916.4798368807144
 20
1417.610187254521
 30
0.0
 11
916.4798368807144
 21
1292.88018723251
 31
0.0
  0
SOLID
  5
1038
330
1031
100
AcDbEntity
  8
MODEL
 62
     0
100
AcDbTrace
 10
916.4498368807144
 20
1152.970187210499
 30
0.0
 11
916.5098368807144
 21
1152.970187210499
 31
0.0
 12
916.4798368807144
 22
1152.790187210499
 32
0.0
 13
916.4798368807144
 23
1152.790187210499
 33
0.0
  0
SOLID
  5
1039
330
1031
100
AcDbEntity
  8
MODEL
 62
     0
100
AcDbTrace
 10
916.5098368807144
 20
1417.610187254521
 30
0.0
 11
916.4498368807144
 21
1417.610187254521
 31
0.0
 12
916.4798368807144
 22
1417.790187254521
 32
0.0
 13
916.4798368807144
 23
1417.790187254521
 33
0.0
  0
MTEXT
  5
103A
330
1031
100
AcDbEntity
  8
MODEL
  6
Continuous
 62
     0
100
AcDbMText
 10
916.4798368807144
 20
1285.29018723251
 30
0.0
 40
15.0
 41
0.0
 46
0.0
 71
     5
 72
     1
  1
\A1;265.0000
 73
     1
 44
1.0
  0
POINT
  5
103B
330
1031
100
AcDbEntity
  8
Defpoints
 62
     0
100
AcDbPoint
 10
894.1701970864854
 20
1152.790187210499
 30
0.0
  0
POINT
  5
103C
330
1031
100
AcDbEntity
  8
Defpoints
 62
     0
100
AcDbPoint
 10
894.4658295414367
 20
1417.790187254521
 30
0.0
  0
POINT
  5
103D
330
1031
100
AcDbEntity
  8
Defpoints
 62
     0
100
AcDbPoint
 10
916.4798368807144
 20
1417.790187254521
 30
0.0
  0
ENDBLK
  5
1033
330
1031
100
AcDbEntity
  8
0
100
AcDbBlockEnd
  0
BLOCK
  5
103F
330
103E
100
AcDbEntity
  8
0
100
AcDbBlockBegin
  2
*D23
 70
     1
 10
0.0
 20
0.0
 30
0.0
  3
*D23
  1
*D24
  0
LINE
  5
1041
330
103E
100
AcDbEntity
  8
MODEL
 62
     0
370
    -2
100
AcDbLine
 10
894.2326970864854
 20
1152.790187210499
 30
0.0
 11
916.6598368807144
 21
1152.790187210499
 31
0.0
  0
LINE
  5
1042
330
103E
100
AcDbEntity
  8
MODEL
 62
     0
370
    -2
100
AcDbLine
 10
894.5283295414367
 20
997.7901872545208
 30
0.0
 11
916.6598368807144
 21
997.7901872545208
 31
0.0
  0
LINE
  5
1043
330
103E
100
AcDbEntity
  8
MODEL
 62
     0
370
    -2
100
AcDbLine
 10
916.4798368807144
 20
1152.610187210499
 30
0.0
 11
916.4798368807144
 21
1082.88018723251
 31
0.0
  0
LINE
  5
1044
330
103E
100
AcDbEntity
  8
MODEL
 62
     0
370
    -2
100
AcDbLine
 10
916.4798368807144
 20
997.9701872545207
 30
0.0
 11
916.4798368807144
 21
1067.70018723251
 31
0.0
  0
SOLID
  5
1045
330
103E
100
AcDbEntity
  8
MODEL
 62
     0
100
AcDbTrace
 10
916.5098368807144
 20
1152.610187210499
 30
0.0
 11
916.4498368807144
 21
1152.610187210499
 31
0.0
 12
916.4798368807144
 22
1152.790187210499
 32
0.0
 13
916.4798368807144
 23
1152.790187210499
 33
0.0
  0
SOLID
  5
1046
330
103E
100
AcDbEntity
  8
MODEL
 62
     0
100
AcDbTrace
 10
916.4498368807144
 20
997.9701872545207
 30
0.0
 11
916.5098368807144
 21
997.9701872545207
 31
0.0
 12
916.4798368807144
 22
997.7901872545208
 32
0.0
 13
916.4798368807144
 23
997.7901872545208
 33
0.0
  0
MTEXT
  5
1047
330
103E
100
AcDbEntity
  8
MODEL
  6
Continuous
 62
     0
100
AcDbMText
 10
916.4798368807144
 20
1075.29018723251
 30
0.0
 40
15.0
 41
0.0
 46
0.0
 71
     5
 72
     1
  1
\A1;155.0000
 73
     1
 44
1.0
  0
POINT
  5
1048
330
103E
100
AcDbEntity
  8
Defpoints
 62
     0
100
AcDbPoint
 10
894.1701970864854
 20
1152.790187210499
 30
0.0
  0
POINT
  5
1049
330
103E
100
AcDbEntity
  8
Defpoints
 62
     0
100
AcDbPoint
 10
894.4658295414367
 20
997.7901872545208
 30
0.0
  0
POINT
  5
104A
330
103E
100
AcDbEntity
  8
Defpoints
 62
     0
100
AcDbPoint
 10
916.4798368807144
 20
997.7901872545208
 30
0.0
  0
ENDBLK
  5
1040
330
103E
100
AcDbEntity
  8
0
100
AcDbBlockEnd
  0
BLOCK
  5
104C
330
104B
100
AcDbEntity
  8
0
100
AcDbBlockBegin
  2
*D24
 70
     1
 10
0.0
 20
0.0
 30
0.0
  3
*D24
  1
*D25
  0
LINE
  5
104E
330
104B
100
AcDbEntity
  8
MODEL
 62
     0
370
    -2
100
AcDbLine
 10
1500.271873287402
 20
1457.849129359228
 30
0.0
 11
1500.271873287402
 21
1479.268843644439
 31
0.0
  0
LINE
  5
104F
330
104B
100
AcDbEntity
  8
MODEL
 62
     0
370
    -2
100
AcDbLine
 10
1680.2718732874
 20
1457.849129359228
 30
0.0
 11
1680.2718732874
 21
1479.268843644439
 31
0.0
  0
LINE
  5
1050
330
104B
100
AcDbEntity
  8
MODEL
 62
     0
370
    -2
100
AcDbLine
 10
1500.451873287402
 20
1479.088843644439
 30
0.0
 11
1546.431873287401
 21
1479.088843644439
 31
0.0
  0
LINE
  5
1051
330
104B
100
AcDbEntity
  8
MODEL
 62
     0
370
    -2
100
AcDbLine
 10
1680.0918732874
 20
1479.088843644439
 30
0.0
 11
1634.111873287401
 21
1479.088843644439
 31
0.0
  0
SOLID
  5
1052
330
104B
100
AcDbEntity
  8
MODEL
 62
     0
100
AcDbTrace
 10
1500.451873287402
 20
1479.118843644439
 30
0.0
 11
1500.451873287402
 21
1479.058843644439
 31
0.0
 12
1500.271873287402
 22
1479.088843644439
 32
0.0
 13
1500.271873287402
 23
1479.088843644439
 33
0.0
  0
SOLID
  5
1053
330
104B
100
AcDbEntity
  8
MODEL
 62
     0
100
AcDbTrace
 10
1680.0918732874
 20
1479.058843644439
 30
0.0
 11
1680.0918732874
 21
1479.118843644439
 31
0.0
 12
1680.2718732874
 22
1479.088843644439
 32
0.0
 13
1680.2718732874
 23
1479.088843644439
 33
0.0
  0
MTEXT
  5
1054
330
104B
100
AcDbEntity
  8
MODEL
  6
Continuous
 62
     0
100
AcDbMText
 10
1590.271873287401
 20
1479.088843644439
 30
0.0
 40
15.0
 41
0.0
 46
0.0
 71
     5
 72
     1
  1
\A1;180.0000
 73
     1
 44
1.0
  0
POINT
  5
1055
330
104B
100
AcDbEntity
  8
Defpoints
 62
     0
100
AcDbPoint
 10
1500.271873287402
 20
1457.786629359228
 30
0.0
  0
POINT
  5
1056
330
104B
100
AcDbEntity
  8
Defpoints
 62
     0
100
AcDbPoint
 10
1680.2718732874
 20
1457.786629359228
 30
0.0
  0
POINT
  5
1057
330
104B
100
AcDbEntity
  8
Defpoints
 62
     0
100
AcDbPoint
 10
1680.2718732874
 20
1479.088843644439
 30
0.0
  0
ENDBLK
  5
104D
330
104B
100
AcDbEntity
  8
0
100
AcDbBlockEnd
  0
BLOCK
  5
1059
330
1058
100
AcDbEntity
  8
0
100
AcDbBlockBegin
  2
*D25
 70
     1
 10
0.0
 20
0.0
 30
0.0
  3
*D25
  1
*D26
  0
LINE
  5
105B
330
1058
100
AcDbEntity
  8
MODEL
 62
     0
370
    -2
100
AcDbLine
 10
1384.635774454864
 20
1362.790212740887
 30
0.0
 11
1364.940765934627
 21
1362.790212740887
 31
0.0
  0
LINE
  5
105C
330
1058
100
AcDbEntity
  8
MODEL
 62
     0
370
    -2
100
AcDbLine
 10
1384.635774454862
 20
1227.790212740887
 30
0.0
 11
1364.940765934627
 21
1227.790212740887
 31
0.0
  0
LINE
  5
105D
330
1058
100
AcDbEntity
  8
MODEL
 62
     0
370
    -2
100
AcDbLine
 10
1365.120765934627
 20
1362.610212740886
 30
0.0
 11
1365.120765934627
 21
1302.880212740887
 31
0.0
  0
LINE
  5
105E
330
1058
100
AcDbEntity
  8
MODEL
 62
     0
370
    -2
100
AcDbLine
 10
1365.120765934627
 20
1227.970212740887
 30
0.0
 11
1365.120765934627
 21
1287.700212740887
 31
0.0
  0
SOLID
  5
105F
330
1058
100
AcDbEntity
  8
MODEL
 62
     0
100
AcDbTrace
 10
1365.150765934627
 20
1362.610212740886
 30
0.0
 11
1365.090765934627
 21
1362.610212740886
 31
0.0
 12
1365.120765934627
 22
1362.790212740887
 32
0.0
 13
1365.120765934627
 23
1362.790212740887
 33
0.0
  0
SOLID
  5
1060
330
1058
100
AcDbEntity
  8
MODEL
 62
     0
100
AcDbTrace
 10
1365.090765934627
 20
1227.970212740887
 30
0.0
 11
1365.150765934627
 21
1227.970212740887
 31
0.0
 12
1365.120765934627
 22
1227.790212740887
 32
0.0
 13
1365.120765934627
 23
1227.790212740887
 33
0.0
  0
MTEXT
  5
1061
330
1058
100
AcDbEntity
  8
MODEL
  6
Continuous
 62
     0
100
AcDbMText
 10
1365.120765934627
 20
1295.290212740887
 30
0.0
 40
15.0
 41
0.0
 46
0.0
 71
     5
 72
     1
  1
\A1;135.0000
 73
     1
 44
1.0
  0
POINT
  5
1062
330
1058
100
AcDbEntity
  8
Defpoints
 62
     0
100
AcDbPoint
 10
1384.698274454864
 20
1362.790212740887
 30
0.0
  0
POINT
  5
1063
330
1058
100
AcDbEntity
  8
Defpoints
 62
     0
100
AcDbPoint
 10
1384.698274454862
 20
1227.790212740887
 30
0.0
  0
POINT
  5
1064
330
1058
100
AcDbEntity
  8
Defpoints
 62
     0
100
AcDbPoint
 10
1365.120765934627
 20
1227.790212740887
 30
0.0
  0
ENDBLK
  5
105A
330
1058
100
AcDbEntity
  8
0
100
AcDbBlockEnd
  0
BLOCK
  5
1066
330
1065
100
AcDbEntity
  8
0
100
AcDbBlockBegin
  2
*D26
 70
     1
 10
0.0
 20
0.0
 30
0.0
  3
*D26
  1
*D27
  0
LINE
  5
1068
330
1065
100
AcDbEntity
  8
MODEL
 62
     0
370
    -2
100
AcDbLine
 10
1384.635774454864
 20
1227.790212740887
 30
0.0
 11
1364.940765934627
 21
1227.790212740887
 31
0.0
  0
LINE
  5
1069
330
1065
100
AcDbEntity
  8
MODEL
 62
     0
370
    -2
100
AcDbLine
 10
1384.63577445486
 20
997.7902127408889
 30
0.0
 11
1364.940765934627
 21
997.7902127408889
 31
0.0
  0
LINE
  5
106A
330
1065
100
AcDbEntity
  8
MODEL
 62
     0
370
    -2
100
AcDbLine
 10
1365.120765934627
 20
1227.610212740887
 30
0.0
 11
1365.120765934627
 21
1120.380212740888
 31
0.0
  0
LINE
  5
106B
330
1065
100
AcDbEntity
  8
MODEL
 62
     0
370
    -2
100
AcDbLine
 10
1365.120765934627
 20
997.9702127408889
 30
0.0
 11
1365.120765934627
 21
1105.200212740888
 31
0.0
  0
SOLID
  5
106C
330
1065
100
AcDbEntity
  8
MODEL
 62
     0
100
AcDbTrace
 10
1365.150765934627
 20
1227.610212740887
 30
0.0
 11
1365.090765934627
 21
1227.610212740887
 31
0.0
 12
1365.120765934627
 22
1227.790212740887
 32
0.0
 13
1365.120765934627
 23
1227.790212740887
 33
0.0
  0
SOLID
  5
106D
330
1065
100
AcDbEntity
  8
MODEL
 62
     0
100
AcDbTrace
 10
1365.090765934627
 20
997.9702127408889
 30
0.0
 11
1365.150765934627
 21
997.9702127408889
 31
0.0
 12
1365.120765934627
 22
997.7902127408889
 32
0.0
 13
1365.120765934627
 23
997.7902127408889
 33
0.0
  0
MTEXT
  5
106E
330
1065
100
AcDbEntity
  8
MODEL
  6
Continuous
 62
     0
100
AcDbMText
 10
1365.120765934627
 20
1112.790212740888
 30
0.0
 40
15.0
 41
0.0
 46
0.0
 71
     5
 72
     1
  1
\A1;230.0000
 73
     1
 44
1.0
  0
POINT
  5
106F
330
1065
100
AcDbEntity
  8
Defpoints
 62
     0
100
AcDbPoint
 10
1384.698274454864
 20
1227.790212740887
 30
0.0
  0
POINT
  5
1070
330
1065
100
AcDbEntity
  8
Defpoints
 62
     0
100
AcDbPoint
 10
1384.69827445486
 20
997.7902127408889
 30
0.0
  0
POINT
  5
1071
330
1065
100
AcDbEntity
  8
Defpoints
 62
     0
100
AcDbPoint
 10
1365.120765934627
 20
997.7902127408889
 30
0.0
  0
ENDBLK
  5
1067
330
1065
100
AcDbEntity
  8
0
100
AcDbBlockEnd
  0
BLOCK
  5
1073
330
1072
100
AcDbEntity
  8
0
100
AcDbBlockBegin
  2
*D27
 70
     1
 10
0.0
 20
0.0
 30
0.0
  3
*D27
  1
*D28
  0
LINE
  5
1075
330
1072
100
AcDbEntity
  8
MODEL
 62
     0
370
    -2
100
AcDbLine
 10
1801.334103909632
 20
1327.790212740887
 30
0.0
 11
1821.029112429869
 21
1327.790212740887
 31
0.0
  0
LINE
  5
1076
330
1072
100
AcDbEntity
  8
MODEL
 62
     0
370
    -2
100
AcDbLine
 10
1801.334103909636
 20
997.7902127408855
 30
0.0
 11
1821.029112429869
 21
997.7902127408855
 31
0.0
  0
LINE
  5
1077
330
1072
100
AcDbEntity
  8
MODEL
 62
     0
370
    -2
100
AcDbLine
 10
1820.849112429869
 20
1327.610212740886
 30
0.0
 11
1820.849112429869
 21
1170.380212740886
 31
0.0
  0
LINE
  5
1078
330
1072
100
AcDbEntity
  8
MODEL
 62
     0
370
    -2
100
AcDbLine
 10
1820.849112429869
 20
997.9702127408855
 30
0.0
 11
1820.849112429869
 21
1155.200212740886
 31
0.0
  0
SOLID
  5
1079
330
1072
100
AcDbEntity
  8
MODEL
 62
     0
100
AcDbTrace
 10
1820.879112429869
 20
1327.610212740886
 30
0.0
 11
1820.819112429869
 21
1327.610212740886
 31
0.0
 12
1820.849112429869
 22
1327.790212740887
 32
0.0
 13
1820.849112429869
 23
1327.790212740887
 33
0.0
  0
SOLID
  5
107A
330
1072
100
AcDbEntity
  8
MODEL
 62
     0
100
AcDbTrace
 10
1820.819112429869
 20
997.9702127408855
 30
0.0
 11
1820.879112429869
 21
997.9702127408855
 31
0.0
 12
1820.849112429869
 22
997.7902127408855
 32
0.0
 13
1820.849112429869
 23
997.7902127408855
 33
0.0
  0
MTEXT
  5
107B
330
1072
100
AcDbEntity
  8
MODEL
  6
Continuous
 62
     0
100
AcDbMText
 10
1820.849112429869
 20
1162.790212740886
 30
0.0
 40
15.0
 41
0.0
 46
0.0
 71
     5
 72
     1
  1
\A1;330.0000
 73
     1
 44
1.0
  0
POINT
  5
107C
330
1072
100
AcDbEntity
  8
Defpoints
 62
     0
100
AcDbPoint
 10
1801.271603909632
 20
1327.790212740887
 30
0.0
  0
POINT
  5
107D
330
1072
100
AcDbEntity
  8
Defpoints
 62
     0
100
AcDbPoint
 10
1801.271603909636
 20
997.7902127408855
 30
0.0
  0
POINT
  5
107E
330
1072
100
AcDbEntity
  8
Defpoints
 62
     0
100
AcDbPoint
 10
1820.849112429869
 20
997.7902127408855
 30
0.0
  0
ENDBLK
  5
1074
330
1072
100
AcDbEntity
  8
0
100
AcDbBlockEnd
  0
BLOCK
  5
1080
330
107F
100
AcDbEntity
  8
0
100
AcDbBlockBegin
  2
*D28
 70
     1
 10
0.0
 20
0.0
 30
0.0
  3
*D28
  1
*D29
  0
LINE
  5
1082
330
107F
100
AcDbEntity
  8
MODEL
 62
     0
370
    -2
100
AcDbLine
 10
892.6576419788073
 20
2289.223802835437
 30
0.0
 11
916.6598368807144
 21
2289.223802835437
 31
0.0
  0
LINE
  5
1083
330
107F
100
AcDbEntity
  8
MODEL
 62
     0
370
    -2
100
AcDbLine
 10
892.6576419788073
 20
1939.223802835436
 30
0.0
 11
916.6598368807144
 21
1939.223802835436
 31
0.0
  0
LINE
  5
1084
330
107F
100
AcDbEntity
  8
MODEL
 62
     0
370
    -2
100
AcDbLine
 10
916.4798368807144
 20
2289.043802835437
 30
0.0
 11
916.4798368807144
 21
2121.813802835436
 31
0.0
  0
LINE
  5
1085
330
107F
100
AcDbEntity
  8
MODEL
 62
     0
370
    -2
100
AcDbLine
 10
916.4798368807144
 20
1939.403802835436
 30
0.0
 11
916.4798368807144
 21
2106.633802835436
 31
0.0
  0
SOLID
  5
1086
330
107F
100
AcDbEntity
  8
MODEL
 62
     0
100
AcDbTrace
 10
916.5098368807144
 20
2289.043802835437
 30
0.0
 11
916.4498368807144
 21
2289.043802835437
 31
0.0
 12
916.4798368807144
 22
2289.223802835437
 32
0.0
 13
916.4798368807144
 23
2289.223802835437
 33
0.0
  0
SOLID
  5
1087
330
107F
100
AcDbEntity
  8
MODEL
 62
     0
100
AcDbTrace
 10
916.4498368807144
 20
1939.403802835436
 30
0.0
 11
916.5098368807144
 21
1939.403802835436
 31
0.0
 12
916.4798368807144
 22
1939.223802835436
 32
0.0
 13
916.4798368807144
 23
1939.223802835436
 33
0.0
  0
MTEXT
  5
1088
330
107F
100
AcDbEntity
  8
MODEL
  6
Continuous
 62
     0
100
AcDbMText
 10
916.4798368807144
 20
2114.223802835436
 30
0.0
 40
15.0
 41
0.0
 46
0.0
 71
     5
 72
     1
  1
\A1;350.0000
 73
     1
 44
1.0
  0
POINT
  5
1089
330
107F
100
AcDbEntity
  8
Defpoints
 62
     0
100
AcDbPoint
 10
892.5951419788073
 20
2289.223802835437
 30
0.0
  0
POINT
  5
108A
330
107F
100
AcDbEntity
  8
Defpoints
 62
     0
100
AcDbPoint
 10
892.5951419788073
 20
1939.223802835436
 30
0.0
  0
POINT
  5
108B
330
107F
100
AcDbEntity
  8
Defpoints
 62
     0
100
AcDbPoint
 10
916.4798368807144
 20
1939.223802835436
 30
0.0
  0
ENDBLK
  5
1081
330
107F
100
AcDbEntity
  8
0
100
AcDbBlockEnd
  0
BLOCK
  5
10E0
330
10DF
100
AcDbEntity
  8
0
100
AcDbBlockBegin
  2
*D29
 70
     1
 10
0.0
 20
0.0
 30
0.0
  3
*D29
  1
*D31
  0
LINE
  5
10E1
330
10DF
100
AcDbEntity
  8
MODEL
 62
     0
370
    -2
100
AcDbLine
 10
67.76120651197834
 20
422.9938753562342
 30
0.0
 11
44.82
 21
422.9938753562342
 31
0.0
  0
LINE
  5
10E2
330
10DF
100
AcDbEntity
  8
MODEL
 62
     0
370
    -2
100
AcDbLine
 10
67.76120651197743
 20
477.9938753562342
 30
0.0
 11
44.82
 21
477.9938753562342
 31
0.0
  0
LINE
  5
10E3
330
10DF
100
AcDbEntity
  8
MODEL
 62
     0
370
    -2
100
AcDbLine
 10
45.0
 20
423.1738753562342
 30
0.0
 11
45.0
 21
442.9038753562342
 31
0.0
  0
LINE
  5
10E4
330
10DF
100
AcDbEntity
  8
MODEL
 62
     0
370
    -2
100
AcDbLine
 10
45.0
 20
477.8138753562342
 30
0.0
 11
45.0
 21
458.0838753562342
 31
0.0
  0
SOLID
  5
10E5
330
10DF
100
AcDbEntity
  8
MODEL
 62
     0
100
AcDbTrace
 10
44.97
 20
423.1738753562342
 30
0.0
 11
45.03
 21
423.1738753562342
 31
0.0
 12
45.0
 22
422.9938753562342
 32
0.0
 13
45.0
 23
422.9938753562342
 33
0.0
  0
SOLID
  5
10E6
330
10DF
100
AcDbEntity
  8
MODEL
 62
     0
100
AcDbTrace
 10
45.03
 20
477.8138753562342
 30
0.0
 11
44.97
 21
477.8138753562342
 31
0.0
 12
45.0
 22
477.9938753562342
 32
0.0
 13
45.0
 23
477.9938753562342
 33
0.0
  0
MTEXT
  5
10E7
330
10DF
100
AcDbEntity
  8
MODEL
  6
Continuous
 62
     0
100
AcDbMText
 10
45.0
 20
450.4938753562342
 30
0.0
 40
15.0
 41
0.0
 46
0.0
 71
     5
 72
     1
  1
\A1;55.0000
 73
     1
 44
1.0
  0
POINT
  5
10E8
330
10DF
100
AcDbEntity
  8
Defpoints
 62
     0
100
AcDbPoint
 10
67.82370651197834
 20
422.9938753562342
 30
0.0
  0
POINT
  5
10E9
330
10DF
100
AcDbEntity
  8
Defpoints
 62
     0
100
AcDbPoint
 10
67.82370651197743
 20
477.9938753562342
 30
0.0
  0
POINT
  5
10EA
330
10DF
100
AcDbEntity
  8
Defpoints
 62
     0
100
AcDbPoint
 10
45.0
 20
477.9938753562342
 30
0.0
  0
ENDBLK
  5
10EB
330
10DF
100
AcDbEntity
  8
0
100
AcDbBlockEnd
  0
BLOCK
  5
10EE
330
10ED
100
AcDbEntity
  8
0
100
AcDbBlockBegin
  2
*D30
 70
     1
 10
0.0
 20
0.0
 30
0.0
  3
*D30
  1
*D32
  0
LINE
  5
10EF
330
10ED
100
AcDbEntity
  8
MODEL
 62
     0
370
    -2
100
AcDbLine
 10
67.76120651198198
 20
365.4950939805908
 30
0.0
 11
44.82000000000001
 21
365.4950939805908
 31
0.0
  0
LINE
  5
10F0
330
10ED
100
AcDbEntity
  8
MODEL
 62
     0
370
    -2
100
AcDbLine
 10
67.76120651197562
 20
265.3586688479686
 30
0.0
 11
44.82
 21
265.3586688479686
 31
0.0
  0
LINE
  5
10F1
330
10ED
100
AcDbEntity
  8
MODEL
 62
     0
370
    -2
100
AcDbLine
 10
45.00000000000001
 20
365.3150939805908
 30
0.0
 11
45.00000000000001
 21
323.0168814142797
 31
0.0
  0
LINE
  5
10F2
330
10ED
100
AcDbEntity
  8
MODEL
 62
     0
370
    -2
100
AcDbLine
 10
45.0
 20
265.5386688479686
 30
0.0
 11
45.0
 21
307.8368814142797
 31
0.0
  0
SOLID
  5
10F3
330
10ED
100
AcDbEntity
  8
MODEL
 62
     0
100
AcDbTrace
 10
45.03000000000001
 20
365.3150939805908
 30
0.0
 11
44.97000000000001
 21
365.3150939805908
 31
0.0
 12
45.00000000000001
 22
365.4950939805908
 32
0.0
 13
45.00000000000001
 23
365.4950939805908
 33
0.0
  0
SOLID
  5
10F4
330
10ED
100
AcDbEntity
  8
MODEL
 62
     0
100
AcDbTrace
 10
44.97
 20
265.5386688479686
 30
0.0
 11
45.03
 21
265.5386688479686
 31
0.0
 12
45.0
 22
265.3586688479686
 32
0.0
 13
45.0
 23
265.3586688479686
 33
0.0
  0
MTEXT
  5
10F5
330
10ED
100
AcDbEntity
  8
MODEL
  6
Continuous
 62
     0
100
AcDbMText
 10
45.0
 20
315.4268814142797
 30
0.0
 40
15.0
 41
0.0
 46
0.0
 71
     5
 72
     1
  1
\A1;100.1364
 73
     1
 44
1.0
  0
POINT
  5
10F6
330
10ED
100
AcDbEntity
  8
Defpoints
 62
     0
100
AcDbPoint
 10
67.82370651198198
 20
365.4950939805908
 30
0.0
  0
POINT
  5
10F7
330
10ED
100
AcDbEntity
  8
Defpoints
 62
     0
100
AcDbPoint
 10
67.82370651197562
 20
265.3586688479686
 30
0.0
  0
POINT
  5
10F8
330
10ED
100
AcDbEntity
  8
Defpoints
 62
     0
100
AcDbPoint
 10
45.0
 20
265.3586688479686
 30
0.0
  0
ENDBLK
  5
10F9
330
10ED
100
AcDbEntity
  8
0
100
AcDbBlockEnd
  0
BLOCK
  5
10FC
330
10FB
100
AcDbEntity
  8
0
100
AcDbBlockBegin
  2
*D31
 70
     1
 10
0.0
 20
0.0
 30
0.0
  3
*D31
  1
*D33
  0
LINE
  5
10FD
330
10FB
100
AcDbEntity
  8
MODEL
 62
     0
370
    -2
100
AcDbLine
 10
119.5866114922192
 20
1417.034155618808
 30
0.0
 11
119.5866114922192
 21
1438.158202983854
 31
0.0
  0
LINE
  5
10FE
330
10FB
100
AcDbEntity
  8
MODEL
 62
     0
370
    -2
100
AcDbLine
 10
669.5881562994073
 20
1417.034155618807
 30
0.0
 11
669.5881562994073
 21
1438.158202983854
 31
0.0
  0
LINE
  5
10FF
330
10FB
100
AcDbEntity
  8
MODEL
 62
     0
370
    -2
100
AcDbLine
 10
119.7666114922192
 20
1437.978202983854
 30
0.0
 11
348.2473838958133
 21
1437.978202983854
 31
0.0
  0
LINE
  5
1100
330
10FB
100
AcDbEntity
  8
MODEL
 62
     0
370
    -2
100
AcDbLine
 10
669.4081562994073
 20
1437.978202983854
 30
0.0
 11
440.9273838958132
 21
1437.978202983854
 31
0.0
  0
SOLID
  5
1101
330
10FB
100
AcDbEntity
  8
MODEL
 62
     0
100
AcDbTrace
 10
119.7666114922192
 20
1438.008202983854
 30
0.0
 11
119.7666114922192
 21
1437.948202983854
 31
0.0
 12
119.5866114922192
 22
1437.978202983854
 32
0.0
 13
119.5866114922192
 23
1437.978202983854
 33
0.0
  0
SOLID
  5
1102
330
10FB
100
AcDbEntity
  8
MODEL
 62
     0
100
AcDbTrace
 10
669.4081562994073
 20
1437.948202983854
 30
0.0
 11
669.4081562994073
 21
1438.008202983854
 31
0.0
 12
669.5881562994073
 22
1437.978202983854
 32
0.0
 13
669.5881562994073
 23
1437.978202983854
 33
0.0
  0
MTEXT
  5
1103
330
10FB
100
AcDbEntity
  8
MODEL
  6
Continuous
 62
     0
100
AcDbMText
 10
394.5873838958132
 20
1437.978202983854
 30
0.0
 40
15.0
 41
0.0
 46
0.0
 71
     5
 72
     1
  1
\A1;550.0015
 73
     1
 44
1.0
  0
POINT
  5
1104
330
10FB
100
AcDbEntity
  8
Defpoints
 62
     0
100
AcDbPoint
 10
119.5866114922192
 20
1416.971655618808
 30
0.0
  0
POINT
  5
1105
330
10FB
100
AcDbEntity
  8
Defpoints
 62
     0
100
AcDbPoint
 10
669.5881562994073
 20
1416.971655618807
 30
0.0
  0
POINT
  5
1106
330
10FB
100
AcDbEntity
  8
Defpoints
 62
     0
100
AcDbPoint
 10
669.5881562994073
 20
1437.978202983854
 30
0.0
  0
ENDBLK
  5
1107
330
10FB
100
AcDbEntity
  8
0
100
AcDbBlockEnd
  0
BLOCK
  5
110B
330
110A
100
AcDbEntity
  8
0
100
AcDbBlockBegin
  2
*D32
 70
     1
 10
0.0
 20
0.0
 30
0.0
  3
*D32
  1
*D34
  0
LINE
  5
110C
330
110A
100
AcDbEntity
  8
MODEL
 62
     0
370
    -2
100
AcDbLine
 10
717.9690394428544
 20
240.4950939365699
 30
0.0
 11
740.3961792370834
 21
240.4950939365699
 31
0.0
  0
LINE
  5
110D
330
110A
100
AcDbEntity
  8
MODEL
 62
     0
370
    -2
100
AcDbLine
 10
718.2646718978058
 20
505.4950939805917
 30
0.0
 11
740.3961792370834
 21
505.4950939805917
 31
0.0
  0
LINE
  5
110E
330
110A
100
AcDbEntity
  8
MODEL
 62
     0
370
    -2
100
AcDbLine
 10
740.2161792370835
 20
240.6750939365699
 30
0.0
 11
740.2161792370835
 21
365.4050939585808
 31
0.0
  0
LINE
  5
110F
330
110A
100
AcDbEntity
  8
MODEL
 62
     0
370
    -2
100
AcDbLine
 10
740.2161792370835
 20
505.3150939805917
 30
0.0
 11
740.2161792370835
 21
380.5850939585807
 31
0.0
  0
SOLID
  5
1110
330
110A
100
AcDbEntity
  8
MODEL
 62
     0
100
AcDbTrace
 10
740.1861792370835
 20
240.6750939365699
 30
0.0
 11
740.2461792370834
 21
240.6750939365699
 31
0.0
 12
740.2161792370835
 22
240.4950939365699
 32
0.0
 13
740.2161792370835
 23
240.4950939365699
 33
0.0
  0
SOLID
  5
1111
330
110A
100
AcDbEntity
  8
MODEL
 62
     0
100
AcDbTrace
 10
740.2461792370834
 20
505.3150939805917
 30
0.0
 11
740.1861792370835
 21
505.3150939805917
 31
0.0
 12
740.2161792370835
 22
505.4950939805917
 32
0.0
 13
740.2161792370835
 23
505.4950939805917
 33
0.0
  0
MTEXT
  5
1112
330
110A
100
AcDbEntity
  8
MODEL
  6
Continuous
 62
     0
100
AcDbMText
 10
740.2161792370835
 20
372.9950939585808
 30
0.0
 40
15.0
 41
0.0
 46
0.0
 71
     5
 72
     1
  1
\A1;265.0000
 73
     1
 44
1.0
  0
POINT
  5
1113
330
110A
100
AcDbEntity
  8
Defpoints
 62
     0
100
AcDbPoint
 10
717.9065394428544
 20
240.4950939365699
 30
0.0
  0
POINT
  5
1114
330
110A
100
AcDbEntity
  8
Defpoints
 62
     0
100
AcDbPoint
 10
718.2021718978058
 20
505.4950939805917
 30
0.0
  0
POINT
  5
1115
330
110A
100
AcDbEntity
  8
Defpoints
 62
     0
100
AcDbPoint
 10
740.2161792370835
 20
505.4950939805917
 30
0.0
  0
ENDBLK
  5
1116
330
110A
100
AcDbEntity
  8
0
100
AcDbBlockEnd
  0
BLOCK
  5
1119
330
1118
100
AcDbEntity
  8
0
100
AcDbBlockBegin
  2
*D33
 70
     1
 10
0.0
 20
0.0
 30
0.0
  3
*D33
  1
*D35
  0
LINE
  5
111A
330
1118
100
AcDbEntity
  8
MODEL
 62
     0
370
    -2
100
AcDbLine
 10
717.9690394428544
 20
240.4950939365699
 30
0.0
 11
740.3961792370834
 21
240.4950939365699
 31
0.0
  0
LINE
  5
111B
330
1118
100
AcDbEntity
  8
MODEL
 62
     0
370
    -2
100
AcDbLine
 10
718.2646718978058
 20
85.49509398059126
 30
0.0
 11
740.3961792370834
 21
85.49509398059126
 31
0.0
  0
LINE
  5
111C
330
1118
100
AcDbEntity
  8
MODEL
 62
     0
370
    -2
100
AcDbLine
 10
740.2161792370835
 20
240.3150939365699
 30
0.0
 11
740.2161792370835
 21
170.5850939585806
 31
0.0
  0
LINE
  5
111D
330
1118
100
AcDbEntity
  8
MODEL
 62
     0
370
    -2
100
AcDbLine
 10
740.2161792370835
 20
85.67509398059127
 30
0.0
 11
740.2161792370835
 21
155.4050939585806
 31
0.0
  0
SOLID
  5
111E
330
1118
100
AcDbEntity
  8
MODEL
 62
     0
100
AcDbTrace
 10
740.2461792370834
 20
240.3150939365699
 30
0.0
 11
740.1861792370835
 21
240.3150939365699
 31
0.0
 12
740.2161792370835
 22
240.4950939365699
 32
0.0
 13
740.2161792370835
 23
240.4950939365699
 33
0.0
  0
SOLID
  5
111F
330
1118
100
AcDbEntity
  8
MODEL
 62
     0
100
AcDbTrace
 10
740.1861792370835
 20
85.67509398059127
 30
0.0
 11
740.2461792370834
 21
85.67509398059127
 31
0.0
 12
740.2161792370835
 22
85.49509398059126
 32
0.0
 13
740.2161792370835
 23
85.49509398059126
 33
0.0
  0
MTEXT
  5
1120
330
1118
100
AcDbEntity
  8
MODEL
  6
Continuous
 62
     0
100
AcDbMText
 10
740.2161792370835
 20
162.9950939585806
 30
0.0
 40
15.0
 41
0.0
 46
0.0
 71
     5
 72
     1
  1
\A1;155.0000
 73
     1
 44
1.0
  0
POINT
  5
1121
330
1118
100
AcDbEntity
  8
Defpoints
 62
     0
100
AcDbPoint
 10
717.9065394428544
 20
240.4950939365699
 30
0.0
  0
POINT
  5
1122
330
1118
100
AcDbEntity
  8
Defpoints
 62
     0
100
AcDbPoint
 10
718.2021718978058
 20
85.49509398059126
 30
0.0
  0
POINT
  5
1123
330
1118
100
AcDbEntity
  8
Defpoints
 62
     0
100
AcDbPoint
 10
740.2161792370835
 20
85.49509398059126
 30
0.0
  0
ENDBLK
  5
1124
330
1118
100
AcDbEntity
  8
0
100
AcDbBlockEnd
  0
BLOCK
  5
1127
330
1126
100
AcDbEntity
  8
0
100
AcDbBlockBegin
  2
*D34
 70
     1
 10
0.0
 20
0.0
 30
0.0
  3
*D34
  1
*D36
  0
LINE
  5
1128
330
1126
100
AcDbEntity
  8
MODEL
 62
     0
370
    -2
100
AcDbLine
 10
1324.008215643771
 20
545.5540360852988
 30
0.0
 11
1324.008215643771
 21
566.9737503705093
 31
0.0
  0
LINE
  5
1129
330
1126
100
AcDbEntity
  8
MODEL
 62
     0
370
    -2
100
AcDbLine
 10
1504.008215643769
 20
545.5540360852988
 30
0.0
 11
1504.008215643769
 21
566.9737503705093
 31
0.0
  0
LINE
  5
112A
330
1126
100
AcDbEntity
  8
MODEL
 62
     0
370
    -2
100
AcDbLine
 10
1324.188215643771
 20
566.7937503705093
 30
0.0
 11
1370.16821564377
 21
566.7937503705093
 31
0.0
  0
LINE
  5
112B
330
1126
100
AcDbEntity
  8
MODEL
 62
     0
370
    -2
100
AcDbLine
 10
1503.828215643769
 20
566.7937503705093
 30
0.0
 11
1457.84821564377
 21
566.7937503705093
 31
0.0
  0
SOLID
  5
112C
330
1126
100
AcDbEntity
  8
MODEL
 62
     0
100
AcDbTrace
 10
1324.188215643771
 20
566.8237503705093
 30
0.0
 11
1324.188215643771
 21
566.7637503705093
 31
0.0
 12
1324.008215643771
 22
566.7937503705093
 32
0.0
 13
1324.008215643771
 23
566.7937503705093
 33
0.0
  0
SOLID
  5
112D
330
1126
100
AcDbEntity
  8
MODEL
 62
     0
100
AcDbTrace
 10
1503.828215643769
 20
566.7637503705093
 30
0.0
 11
1503.828215643769
 21
566.8237503705093
 31
0.0
 12
1504.008215643769
 22
566.7937503705093
 32
0.0
 13
1504.008215643769
 23
566.7937503705093
 33
0.0
  0
MTEXT
  5
112E
330
1126
100
AcDbEntity
  8
MODEL
  6
Continuous
 62
     0
100
AcDbMText
 10
1414.00821564377
 20
566.7937503705093
 30
0.0
 40
15.0
 41
0.0
 46
0.0
 71
     5
 72
     1
  1
\A1;180.0000
 73
     1
 44
1.0
  0
POINT
  5
112F
330
1126
100
AcDbEntity
  8
Defpoints
 62
     0
100
AcDbPoint
 10
1324.008215643771
 20
545.4915360852988
 30
0.0
  0
POINT
  5
1130
330
1126
100
AcDbEntity
  8
Defpoints
 62
     0
100
AcDbPoint
 10
1504.008215643769
 20
545.4915360852988
 30
0.0
  0
POINT
  5
1131
330
1126
100
AcDbEntity
  8
Defpoints
 62
     0
100
AcDbPoint
 10
1504.008215643769
 20
566.7937503705093
 30
0.0
  0
ENDBLK
  5
1132
330
1126
100
AcDbEntity
  8
0
100
AcDbBlockEnd
  0
BLOCK
  5
1135
330
1134
100
AcDbEntity
  8
0
100
AcDbBlockBegin
  2
*D35
 70
     1
 10
0.0
 20
0.0
 30
0.0
  3
*D35
  1
*D37
  0
LINE
  5
1136
330
1134
100
AcDbEntity
  8
MODEL
 62
     0
370
    -2
100
AcDbLine
 10
1208.372116811233
 20
450.495119466957
 30
0.0
 11
1188.677108290996
 21
450.495119466957
 31
0.0
  0
LINE
  5
1137
330
1134
100
AcDbEntity
  8
MODEL
 62
     0
370
    -2
100
AcDbLine
 10
1208.372116811231
 20
315.4951194669575
 30
0.0
 11
1188.677108290996
 21
315.4951194669575
 31
0.0
  0
LINE
  5
1138
330
1134
100
AcDbEntity
  8
MODEL
 62
     0
370
    -2
100
AcDbLine
 10
1188.857108290996
 20
450.315119466957
 30
0.0
 11
1188.857108290996
 21
390.5851194669572
 31
0.0
  0
LINE
  5
1139
330
1134
100
AcDbEntity
  8
MODEL
 62
     0
370
    -2
100
AcDbLine
 10
1188.857108290996
 20
315.6751194669575
 30
0.0
 11
1188.857108290996
 21
375.4051194669573
 31
0.0
  0
SOLID
  5
113A
330
1134
100
AcDbEntity
  8
MODEL
 62
     0
100
AcDbTrace
 10
1188.887108290996
 20
450.315119466957
 30
0.0
 11
1188.827108290996
 21
450.315119466957
 31
0.0
 12
1188.857108290996
 22
450.495119466957
 32
0.0
 13
1188.857108290996
 23
450.495119466957
 33
0.0
  0
SOLID
  5
113B
330
1134
100
AcDbEntity
  8
MODEL
 62
     0
100
AcDbTrace
 10
1188.827108290996
 20
315.6751194669575
 30
0.0
 11
1188.887108290996
 21
315.6751194669575
 31
0.0
 12
1188.857108290996
 22
315.4951194669575
 32
0.0
 13
1188.857108290996
 23
315.4951194669575
 33
0.0
  0
MTEXT
  5
113C
330
1134
100
AcDbEntity
  8
MODEL
  6
Continuous
 62
     0
100
AcDbMText
 10
1188.857108290996
 20
382.9951194669572
 30
0.0
 40
15.0
 41
0.0
 46
0.0
 71
     5
 72
     1
  1
\A1;135.0000
 73
     1
 44
1.0
  0
POINT
  5
113D
330
1134
100
AcDbEntity
  8
Defpoints
 62
     0
100
AcDbPoint
 10
1208.434616811233
 20
450.495119466957
 30
0.0
  0
POINT
  5
113E
330
1134
100
AcDbEntity
  8
Defpoints
 62
     0
100
AcDbPoint
 10
1208.434616811231
 20
315.4951194669575
 30
0.0
  0
POINT
  5
113F
330
1134
100
AcDbEntity
  8
Defpoints
 62
     0
100
AcDbPoint
 10
1188.857108290996
 20
315.4951194669575
 30
0.0
  0
ENDBLK
  5
1140
330
1134
100
AcDbEntity
  8
0
100
AcDbBlockEnd
  0
BLOCK
  5
1143
330
1142
100
AcDbEntity
  8
0
100
AcDbBlockBegin
  2
*D36
 70
     1
 10
0.0
 20
0.0
 30
0.0
  3
*D36
  1
*D38
  0
LINE
  5
1144
330
1142
100
AcDbEntity
  8
MODEL
 62
     0
370
    -2
100
AcDbLine
 10
1208.372116811233
 20
315.4951194669575
 30
0.0
 11
1188.677108290996
 21
315.4951194669575
 31
0.0
  0
LINE
  5
1145
330
1142
100
AcDbEntity
  8
MODEL
 62
     0
370
    -2
100
AcDbLine
 10
1208.372116811229
 20
85.49511946695941
 30
0.0
 11
1188.677108290996
 21
85.49511946695941
 31
0.0
  0
LINE
  5
1146
330
1142
100
AcDbEntity
  8
MODEL
 62
     0
370
    -2
100
AcDbLine
 10
1188.857108290996
 20
315.3151194669575
 30
0.0
 11
1188.857108290996
 21
208.0851194669584
 31
0.0
  0
LINE
  5
1147
330
1142
100
AcDbEntity
  8
MODEL
 62
     0
370
    -2
100
AcDbLine
 10
1188.857108290996
 20
85.67511946695942
 30
0.0
 11
1188.857108290996
 21
192.9051194669585
 31
0.0
  0
SOLID
  5
1148
330
1142
100
AcDbEntity
  8
MODEL
 62
     0
100
AcDbTrace
 10
1188.887108290996
 20
315.3151194669575
 30
0.0
 11
1188.827108290996
 21
315.3151194669575
 31
0.0
 12
1188.857108290996
 22
315.4951194669575
 32
0.0
 13
1188.857108290996
 23
315.4951194669575
 33
0.0
  0
SOLID
  5
1149
330
1142
100
AcDbEntity
  8
MODEL
 62
     0
100
AcDbTrace
 10
1188.827108290996
 20
85.67511946695942
 30
0.0
 11
1188.887108290996
 21
85.67511946695942
 31
0.0
 12
1188.857108290996
 22
85.49511946695941
 32
0.0
 13
1188.857108290996
 23
85.49511946695941
 33
0.0
  0
MTEXT
  5
114A
330
1142
100
AcDbEntity
  8
MODEL
  6
Continuous
 62
     0
100
AcDbMText
 10
1188.857108290996
 20
200.4951194669584
 30
0.0
 40
15.0
 41
0.0
 46
0.0
 71
     5
 72
     1
  1
\A1;230.0000
 73
     1
 44
1.0
  0
POINT
  5
114B
330
1142
100
AcDbEntity
  8
Defpoints
 62
     0
100
AcDbPoint
 10
1208.434616811233
 20
315.4951194669575
 30
0.0
  0
POINT
  5
114C
330
1142
100
AcDbEntity
  8
Defpoints
 62
     0
100
AcDbPoint
 10
1208.434616811229
 20
85.49511946695941
 30
0.0
  0
POINT
  5
114D
330
1142
100
AcDbEntity
  8
Defpoints
 62
     0
100
AcDbPoint
 10
1188.857108290996
 20
85.49511946695941
 30
0.0
  0
ENDBLK
  5
114E
330
1142
100
AcDbEntity
  8
0
100
AcDbBlockEnd
  0
BLOCK
  5
1151
330
1150
100
AcDbEntity
  8
0
100
AcDbBlockBegin
  2
*D37
 70
     1
 10
0.0
 20
0.0
 30
0.0
  3
*D37
  1
*D39
  0
LINE
  5
1152
330
1150
100
AcDbEntity
  8
MODEL
 62
     0
370
    -2
100
AcDbLine
 10
1625.070446266001
 20
415.495119466957
 30
0.0
 11
1644.765454786238
 21
415.495119466957
 31
0.0
  0
LINE
  5
1153
330
1150
100
AcDbEntity
  8
MODEL
 62
     0
370
    -2
100
AcDbLine
 10
1625.070446266005
 20
85.495119466956
 30
0.0
 11
1644.765454786238
 21
85.495119466956
 31
0.0
  0
LINE
  5
1154
330
1150
100
AcDbEntity
  8
MODEL
 62
     0
370
    -2
100
AcDbLine
 10
1644.585454786238
 20
415.315119466957
 30
0.0
 11
1644.585454786238
 21
258.0851194669565
 31
0.0
  0
LINE
  5
1155
330
1150
100
AcDbEntity
  8
MODEL
 62
     0
370
    -2
100
AcDbLine
 10
1644.585454786238
 20
85.675119466956
 30
0.0
 11
1644.585454786238
 21
242.9051194669565
 31
0.0
  0
SOLID
  5
1156
330
1150
100
AcDbEntity
  8
MODEL
 62
     0
100
AcDbTrace
 10
1644.615454786238
 20
415.315119466957
 30
0.0
 11
1644.555454786238
 21
415.315119466957
 31
0.0
 12
1644.585454786238
 22
415.495119466957
 32
0.0
 13
1644.585454786238
 23
415.495119466957
 33
0.0
  0
SOLID
  5
1157
330
1150
100
AcDbEntity
  8
MODEL
 62
     0
100
AcDbTrace
 10
1644.555454786238
 20
85.675119466956
 30
0.0
 11
1644.615454786238
 21
85.675119466956
 31
0.0
 12
1644.585454786238
 22
85.495119466956
 32
0.0
 13
1644.585454786238
 23
85.495119466956
 33
0.0
  0
MTEXT
  5
1158
330
1150
100
AcDbEntity
  8
MODEL
  6
Continuous
 62
     0
100
AcDbMText
 10
1644.585454786238
 20
250.4951194669565
 30
0.0
 40
15.0
 41
0.0
 46
0.0
 71
     5
 72
     1
  1
\A1;330.0000
 73
     1
 44
1.0
  0
POINT
  5
1159
330
1150
100
AcDbEntity
  8
Defpoints
 62
     0
100
AcDbPoint
 10
1625.007946266001
 20
415.495119466957
 30
0.0
  0
POINT
  5
115A
330
1150
100
AcDbEntity
  8
Defpoints
 62
     0
100
AcDbPoint
 10
1625.007946266005
 20
85.495119466956
 30
0.0
  0
POINT
  5
115B
330
1150
100
AcDbEntity
  8
Defpoints
 62
     0
100
AcDbPoint
 10
1644.585454786238
 20
85.495119466956
 30
0.0
  0
ENDBLK
  5
115C
330
1150
100
AcDbEntity
  8
0
100
AcDbBlockEnd
  0
BLOCK
  5
115F
330
115E
100
AcDbEntity
  8
0
100
AcDbBlockBegin
  2
*D38
 70
     1
 10
0.0
 20
0.0
 30
0.0
  3
*D38
  1
*D40
  0
LINE
  5
1160
330
115E
100
AcDbEntity
  8
MODEL
 62
     0
370
    -2
100
AcDbLine
 10
716.3939843351764
 20
1376.928709561507
 30
0.0
 11
740.3961792370834
 21
1376.928709561507
 31
0.0
  0
LINE
  5
1161
330
115E
100
AcDbEntity
  8
MODEL
 62
     0
370
    -2
100
AcDbLine
 10
716.3939843351764
 20
1026.928709561507
 30
0.0
 11
740.3961792370834
 21
1026.928709561507
 31
0.0
  0
LINE
  5
1162
330
115E
100
AcDbEntity
  8
MODEL
 62
     0
370
    -2
100
AcDbLine
 10
740.2161792370835
 20
1376.748709561507
 30
0.0
 11
740.2161792370835
 21
1209.518709561507
 31
0.0
  0
LINE
  5
1163
330
115E
100
AcDbEntity
  8
MODEL
 62
     0
370
    -2
100
AcDbLine
 10
740.2161792370835
 20
1027.108709561507
 30
0.0
 11
740.2161792370835
 21
1194.338709561507
 31
0.0
  0
SOLID
  5
1164
330
115E
100
AcDbEntity
  8
MODEL
 62
     0
100
AcDbTrace
 10
740.2461792370834
 20
1376.748709561507
 30
0.0
 11
740.1861792370835
 21
1376.748709561507
 31
0.0
 12
740.2161792370835
 22
1376.928709561507
 32
0.0
 13
740.2161792370835
 23
1376.928709561507
 33
0.0
  0
SOLID
  5
1165
330
115E
100
AcDbEntity
  8
MODEL
 62
     0
100
AcDbTrace
 10
740.1861792370835
 20
1027.108709561507
 30
0.0
 11
740.2461792370834
 21
1027.108709561507
 31
0.0
 12
740.2161792370835
 22
1026.928709561507
 32
0.0
 13
740.2161792370835
 23
1026.928709561507
 33
0.0
  0
MTEXT
  5
1166
330
115E
100
AcDbEntity
  8
MODEL
  6
Continuous
 62
     0
100
AcDbMText
 10
740.2161792370835
 20
1201.928709561507
 30
0.0
 40
15.0
 41
0.0
 46
0.0
 71
     5
 72
     1
  1
\A1;350.0000
 73
     1
 44
1.0
  0
POINT
  5
1167
330
115E
100
AcDbEntity
  8
Defpoints
 62
     0
100
AcDbPoint
 10
716.3314843351764
 20
1376.928709561507
 30
0.0
  0
POINT
  5
1168
330
115E
100
AcDbEntity
  8
Defpoints
 62
     0
100
AcDbPoint
 10
716.3314843351764
 20
1026.928709561507
 30
0.0
  0
POINT
  5
1169
330
115E
100
AcDbEntity
  8
Defpoints
 62
     0
100
AcDbPoint
 10
740.2161792370835
 20
1026.928709561507
 30
0.0
  0
ENDBLK
  5
116A
330
115E
100
AcDbEntity
  8
0
100
AcDbBlockEnd
  0
BLOCK
  5
12F4
330
12F3
100
AcDbEntity
  8
0
100
AcDbBlockBegin
  2
*D39
 70
     1
 10
0.0
 20
0.0
 30
0.0
  3
*D39
  1
*D41
  0
LINE
  5
12F6
330
12F3
100
AcDbEntity
  8
MODEL
 62
     0
370
    -2
100
AcDbLine
 10
2650.429838016054
 20
1532.416533043619
 30
0.0
 11
2627.488631504075
 21
1532.416533043619
 31
0.0
  0
LINE
  5
12F7
330
12F3
100
AcDbEntity
  8
MODEL
 62
     0
370
    -2
100
AcDbLine
 10
2650.429838016053
 20
1587.416533043619
 30
0.0
 11
2627.488631504075
 21
1587.416533043619
 31
0.0
  0
LINE
  5
12F8
330
12F3
100
AcDbEntity
  8
MODEL
 62
     0
370
    -2
100
AcDbLine
 10
2627.668631504075
 20
1532.596533043619
 30
0.0
 11
2627.668631504075
 21
1552.326533043619
 31
0.0
  0
LINE
  5
12F9
330
12F3
100
AcDbEntity
  8
MODEL
 62
     0
370
    -2
100
AcDbLine
 10
2627.668631504075
 20
1587.236533043619
 30
0.0
 11
2627.668631504075
 21
1567.506533043619
 31
0.0
  0
SOLID
  5
12FA
330
12F3
100
AcDbEntity
  8
MODEL
 62
     0
100
AcDbTrace
 10
2627.638631504075
 20
1532.596533043619
 30
0.0
 11
2627.698631504075
 21
1532.596533043619
 31
0.0
 12
2627.668631504075
 22
1532.416533043619
 32
0.0
 13
2627.668631504075
 23
1532.416533043619
 33
0.0
  0
SOLID
  5
12FB
330
12F3
100
AcDbEntity
  8
MODEL
 62
     0
100
AcDbTrace
 10
2627.698631504075
 20
1587.236533043619
 30
0.0
 11
2627.638631504075
 21
1587.236533043619
 31
0.0
 12
2627.668631504075
 22
1587.416533043619
 32
0.0
 13
2627.668631504075
 23
1587.416533043619
 33
0.0
  0
MTEXT
  5
12FC
330
12F3
100
AcDbEntity
  8
MODEL
  6
Continuous
 62
     0
100
AcDbMText
 10
2627.668631504075
 20
1559.916533043619
 30
0.0
 40
15.0
 41
0.0
 46
0.0
 71
     5
 72
     1
  1
\A1;55.0000
 73
     1
 44
1.0
  0
POINT
  5
12FD
330
12F3
100
AcDbEntity
  8
Defpoints
 62
     0
100
AcDbPoint
 10
2650.492338016054
 20
1532.416533043619
 30
0.0
  0
POINT
  5
12FE
330
12F3
100
AcDbEntity
  8
Defpoints
 62
     0
100
AcDbPoint
 10
2650.492338016053
 20
1587.416533043619
 30
0.0
  0
POINT
  5
12FF
330
12F3
100
AcDbEntity
  8
Defpoints
 62
     0
100
AcDbPoint
 10
2627.668631504075
 20
1587.416533043619
 30
0.0
  0
ENDBLK
  5
12F5
330
12F3
100
AcDbEntity
  8
0
100
AcDbBlockEnd
  0
BLOCK
  5
1301
330
1300
100
AcDbEntity
  8
0
100
AcDbBlockBegin
  2
*D40
 70
     1
 10
0.0
 20
0.0
 30
0.0
  3
*D40
  1
*D42
  0
LINE
  5
1303
330
1300
100
AcDbEntity
  8
MODEL
 62
     0
370
    -2
100
AcDbLine
 10
2650.429838016057
 20
1474.917751667975
 30
0.0
 11
2627.488631504075
 21
1474.917751667975
 31
0.0
  0
LINE
  5
1304
330
1300
100
AcDbEntity
  8
MODEL
 62
     0
370
    -2
100
AcDbLine
 10
2650.429838016051
 20
1374.781326535353
 30
0.0
 11
2627.488631504075
 21
1374.781326535353
 31
0.0
  0
LINE
  5
1305
330
1300
100
AcDbEntity
  8
MODEL
 62
     0
370
    -2
100
AcDbLine
 10
2627.668631504075
 20
1474.737751667975
 30
0.0
 11
2627.668631504075
 21
1432.439539101664
 31
0.0
  0
LINE
  5
1306
330
1300
100
AcDbEntity
  8
MODEL
 62
     0
370
    -2
100
AcDbLine
 10
2627.668631504075
 20
1374.961326535353
 30
0.0
 11
2627.668631504075
 21
1417.259539101664
 31
0.0
  0
SOLID
  5
1307
330
1300
100
AcDbEntity
  8
MODEL
 62
     0
100
AcDbTrace
 10
2627.698631504075
 20
1474.737751667975
 30
0.0
 11
2627.638631504075
 21
1474.737751667975
 31
0.0
 12
2627.668631504075
 22
1474.917751667975
 32
0.0
 13
2627.668631504075
 23
1474.917751667975
 33
0.0
  0
SOLID
  5
1308
330
1300
100
AcDbEntity
  8
MODEL
 62
     0
100
AcDbTrace
 10
2627.638631504075
 20
1374.961326535353
 30
0.0
 11
2627.698631504075
 21
1374.961326535353
 31
0.0
 12
2627.668631504075
 22
1374.781326535353
 32
0.0
 13
2627.668631504075
 23
1374.781326535353
 33
0.0
  0
MTEXT
  5
1309
330
1300
100
AcDbEntity
  8
MODEL
  6
Continuous
 62
     0
100
AcDbMText
 10
2627.668631504075
 20
1424.849539101664
 30
0.0
 40
15.0
 41
0.0
 46
0.0
 71
     5
 72
     1
  1
\A1;100.1364
 73
     1
 44
1.0
  0
POINT
  5
130A
330
1300
100
AcDbEntity
  8
Defpoints
 62
     0
100
AcDbPoint
 10
2650.492338016057
 20
1474.917751667975
 30
0.0
  0
POINT
  5
130B
330
1300
100
AcDbEntity
  8
Defpoints
 62
     0
100
AcDbPoint
 10
2650.492338016051
 20
1374.781326535353
 30
0.0
  0
POINT
  5
130C
330
1300
100
AcDbEntity
  8
Defpoints
 62
     0
100
AcDbPoint
 10
2627.668631504075
 20
1374.781326535353
 30
0.0
  0
ENDBLK
  5
1302
330
1300
100
AcDbEntity
  8
0
100
AcDbBlockEnd
  0
BLOCK
  5
130E
330
130D
100
AcDbEntity
  8
0
100
AcDbBlockBegin
  2
*D41
 70
     1
 10
0.0
 20
0.0
 30
0.0
  3
*D41
  1
*D43
  0
LINE
  5
1310
330
130D
100
AcDbEntity
  8
MODEL
 62
     0
370
    -2
100
AcDbLine
 10
2702.255242996294
 20
2526.456813306192
 30
0.0
 11
2702.255242996294
 21
2547.580860671238
 31
0.0
  0
LINE
  5
1311
330
130D
100
AcDbEntity
  8
MODEL
 62
     0
370
    -2
100
AcDbLine
 10
3252.256787803482
 20
2526.456813306191
 30
0.0
 11
3252.256787803482
 21
2547.580860671238
 31
0.0
  0
LINE
  5
1312
330
130D
100
AcDbEntity
  8
MODEL
 62
     0
370
    -2
100
AcDbLine
 10
2702.435242996294
 20
2547.400860671239
 30
0.0
 11
2930.916015399888
 21
2547.400860671239
 31
0.0
  0
LINE
  5
1313
330
130D
100
AcDbEntity
  8
MODEL
 62
     0
370
    -2
100
AcDbLine
 10
3252.076787803483
 20
2547.400860671239
 30
0.0
 11
3023.596015399889
 21
2547.400860671239
 31
0.0
  0
SOLID
  5
1314
330
130D
100
AcDbEntity
  8
MODEL
 62
     0
100
AcDbTrace
 10
2702.435242996294
 20
2547.430860671239
 30
0.0
 11
2702.435242996294
 21
2547.370860671238
 31
0.0
 12
2702.255242996294
 22
2547.400860671239
 32
0.0
 13
2702.255242996294
 23
2547.400860671239
 33
0.0
  0
SOLID
  5
1315
330
130D
100
AcDbEntity
  8
MODEL
 62
     0
100
AcDbTrace
 10
3252.076787803483
 20
2547.370860671238
 30
0.0
 11
3252.076787803483
 21
2547.430860671239
 31
0.0
 12
3252.256787803482
 22
2547.400860671239
 32
0.0
 13
3252.256787803482
 23
2547.400860671239
 33
0.0
  0
MTEXT
  5
1316
330
130D
100
AcDbEntity
  8
MODEL
  6
Continuous
 62
     0
100
AcDbMText
 10
2977.256015399888
 20
2547.400860671239
 30
0.0
 40
15.0
 41
0.0
 46
0.0
 71
     5
 72
     1
  1
\A1;550.0015
 73
     1
 44
1.0
  0
POINT
  5
1317
330
130D
100
AcDbEntity
  8
Defpoints
 62
     0
100
AcDbPoint
 10
2702.255242996294
 20
2526.394313306192
 30
0.0
  0
POINT
  5
1318
330
130D
100
AcDbEntity
  8
Defpoints
 62
     0
100
AcDbPoint
 10
3252.256787803482
 20
2526.394313306191
 30
0.0
  0
POINT
  5
1319
330
130D
100
AcDbEntity
  8
Defpoints
 62
     0
100
AcDbPoint
 10
3252.256787803482
 20
2547.400860671239
 30
0.0
  0
ENDBLK
  5
130F
330
130D
100
AcDbEntity
  8
0
100
AcDbBlockEnd
  0
BLOCK
  5
131B
330
131A
100
AcDbEntity
  8
0
100
AcDbBlockBegin
  2
*D42
 70
     1
 10
0.0
 20
0.0
 30
0.0
  3
*D42
  1
*D44
  0
LINE
  5
131D
330
131A
100
AcDbEntity
  8
MODEL
 62
     0
370
    -2
100
AcDbLine
 10
3300.63767094693
 20
1349.917751623954
 30
0.0
 11
3323.064810741158
 21
1349.917751623954
 31
0.0
  0
LINE
  5
131E
330
131A
100
AcDbEntity
  8
MODEL
 62
     0
370
    -2
100
AcDbLine
 10
3300.933303401881
 20
1614.917751667976
 30
0.0
 11
3323.064810741158
 21
1614.917751667976
 31
0.0
  0
LINE
  5
131F
330
131A
100
AcDbEntity
  8
MODEL
 62
     0
370
    -2
100
AcDbLine
 10
3322.884810741159
 20
1350.097751623955
 30
0.0
 11
3322.884810741159
 21
1474.827751645965
 31
0.0
  0
LINE
  5
1320
330
131A
100
AcDbEntity
  8
MODEL
 62
     0
370
    -2
100
AcDbLine
 10
3322.884810741159
 20
1614.737751667976
 30
0.0
 11
3322.884810741159
 21
1490.007751645965
 31
0.0
  0
SOLID
  5
1321
330
131A
100
AcDbEntity
  8
MODEL
 62
     0
100
AcDbTrace
 10
3322.854810741158
 20
1350.097751623955
 30
0.0
 11
3322.914810741159
 21
1350.097751623955
 31
0.0
 12
3322.884810741159
 22
1349.917751623954
 32
0.0
 13
3322.884810741159
 23
1349.917751623954
 33
0.0
  0
SOLID
  5
1322
330
131A
100
AcDbEntity
  8
MODEL
 62
     0
100
AcDbTrace
 10
3322.914810741159
 20
1614.737751667976
 30
0.0
 11
3322.854810741158
 21
1614.737751667976
 31
0.0
 12
3322.884810741159
 22
1614.917751667976
 32
0.0
 13
3322.884810741159
 23
1614.917751667976
 33
0.0
  0
MTEXT
  5
1323
330
131A
100
AcDbEntity
  8
MODEL
  6
Continuous
 62
     0
100
AcDbMText
 10
3322.884810741159
 20
1482.417751645965
 30
0.0
 40
15.0
 41
0.0
 46
0.0
 71
     5
 72
     1
  1
\A1;265.0000
 73
     1
 44
1.0
  0
POINT
  5
1324
330
131A
100
AcDbEntity
  8
Defpoints
 62
     0
100
AcDbPoint
 10
3300.57517094693
 20
1349.917751623954
 30
0.0
  0
POINT
  5
1325
330
131A
100
AcDbEntity
  8
Defpoints
 62
     0
100
AcDbPoint
 10
3300.870803401881
 20
1614.917751667976
 30
0.0
  0
POINT
  5
1326
330
131A
100
AcDbEntity
  8
Defpoints
 62
     0
100
AcDbPoint
 10
3322.884810741159
 20
1614.917751667976
 30
0.0
  0
ENDBLK
  5
131C
330
131A
100
AcDbEntity
  8
0
100
AcDbBlockEnd
  0
BLOCK
  5
1328
330
1327
100
AcDbEntity
  8
0
100
AcDbBlockBegin
  2
*D43
 70
     1
 10
0.0
 20
0.0
 30
0.0
  3
*D43
  1
*D45
  0
LINE
  5
132A
330
1327
100
AcDbEntity
  8
MODEL
 62
     0
370
    -2
100
AcDbLine
 10
3300.63767094693
 20
1349.917751623954
 30
0.0
 11
3323.064810741158
 21
1349.917751623954
 31
0.0
  0
LINE
  5
132B
330
1327
100
AcDbEntity
  8
MODEL
 62
     0
370
    -2
100
AcDbLine
 10
3300.933303401881
 20
1194.917751667976
 30
0.0
 11
3323.064810741158
 21
1194.917751667976
 31
0.0
  0
LINE
  5
132C
330
1327
100
AcDbEntity
  8
MODEL
 62
     0
370
    -2
100
AcDbLine
 10
3322.884810741159
 20
1349.737751623954
 30
0.0
 11
3322.884810741159
 21
1280.007751645965
 31
0.0
  0
LINE
  5
132D
330
1327
100
AcDbEntity
  8
MODEL
 62
     0
370
    -2
100
AcDbLine
 10
3322.884810741159
 20
1195.097751667976
 30
0.0
 11
3322.884810741159
 21
1264.827751645965
 31
0.0
  0
SOLID
  5
132E
330
1327
100
AcDbEntity
  8
MODEL
 62
     0
100
AcDbTrace
 10
3322.914810741159
 20
1349.737751623954
 30
0.0
 11
3322.854810741158
 21
1349.737751623954
 31
0.0
 12
3322.884810741159
 22
1349.917751623954
 32
0.0
 13
3322.884810741159
 23
1349.917751623954
 33
0.0
  0
SOLID
  5
132F
330
1327
100
AcDbEntity
  8
MODEL
 62
     0
100
AcDbTrace
 10
3322.854810741158
 20
1195.097751667976
 30
0.0
 11
3322.914810741159
 21
1195.097751667976
 31
0.0
 12
3322.884810741159
 22
1194.917751667976
 32
0.0
 13
3322.884810741159
 23
1194.917751667976
 33
0.0
  0
MTEXT
  5
1330
330
1327
100
AcDbEntity
  8
MODEL
  6
Continuous
 62
     0
100
AcDbMText
 10
3322.884810741159
 20
1272.417751645965
 30
0.0
 40
15.0
 41
0.0
 46
0.0
 71
     5
 72
     1
  1
\A1;155.0000
 73
     1
 44
1.0
  0
POINT
  5
1331
330
1327
100
AcDbEntity
  8
Defpoints
 62
     0
100
AcDbPoint
 10
3300.57517094693
 20
1349.917751623954
 30
0.0
  0
POINT
  5
1332
330
1327
100
AcDbEntity
  8
Defpoints
 62
     0
100
AcDbPoint
 10
3300.870803401881
 20
1194.917751667976
 30
0.0
  0
POINT
  5
1333
330
1327
100
AcDbEntity
  8
Defpoints
 62
     0
100
AcDbPoint
 10
3322.884810741159
 20
1194.917751667976
 30
0.0
  0
ENDBLK
  5
1329
330
1327
100
AcDbEntity
  8
0
100
AcDbBlockEnd
  0
BLOCK
  5
1335
330
1334
100
AcDbEntity
  8
0
100
AcDbBlockBegin
  2
*D44
 70
     1
 10
0.0
 20
0.0
 30
0.0
  3
*D44
  1
*D46
  0
LINE
  5
1337
330
1334
100
AcDbEntity
  8
MODEL
 62
     0
370
    -2
100
AcDbLine
 10
3906.676847147846
 20
1654.976693772683
 30
0.0
 11
3906.676847147846
 21
1676.396408057894
 31
0.0
  0
LINE
  5
1338
330
1334
100
AcDbEntity
  8
MODEL
 62
     0
370
    -2
100
AcDbLine
 10
4086.676847147844
 20
1654.976693772683
 30
0.0
 11
4086.676847147844
 21
1676.396408057894
 31
0.0
  0
LINE
  5
1339
330
1334
100
AcDbEntity
  8
MODEL
 62
     0
370
    -2
100
AcDbLine
 10
3906.856847147846
 20
1676.216408057894
 30
0.0
 11
3952.836847147845
 21
1676.216408057894
 31
0.0
  0
LINE
  5
133A
330
1334
100
AcDbEntity
  8
MODEL
 62
     0
370
    -2
100
AcDbLine
 10
4086.496847147844
 20
1676.216408057894
 30
0.0
 11
4040.516847147845
 21
1676.216408057894
 31
0.0
  0
SOLID
  5
133B
330
1334
100
AcDbEntity
  8
MODEL
 62
     0
100
AcDbTrace
 10
3906.856847147846
 20
1676.246408057894
 30
0.0
 11
3906.856847147846
 21
1676.186408057894
 31
0.0
 12
3906.676847147846
 22
1676.216408057894
 32
0.0
 13
3906.676847147846
 23
1676.216408057894
 33
0.0
  0
SOLID
  5
133C
330
1334
100
AcDbEntity
  8
MODEL
 62
     0
100
AcDbTrace
 10
4086.496847147844
 20
1676.186408057894
 30
0.0
 11
4086.496847147844
 21
1676.246408057894
 31
0.0
 12
4086.676847147844
 22
1676.216408057894
 32
0.0
 13
4086.676847147844
 23
1676.216408057894
 33
0.0
  0
MTEXT
  5
133D
330
1334
100
AcDbEntity
  8
MODEL
  6
Continuous
 62
     0
100
AcDbMText
 10
3996.676847147845
 20
1676.216408057894
 30
0.0
 40
15.0
 41
0.0
 46
0.0
 71
     5
 72
     1
  1
\A1;180.0000
 73
     1
 44
1.0
  0
POINT
  5
133E
330
1334
100
AcDbEntity
  8
Defpoints
 62
     0
100
AcDbPoint
 10
3906.676847147846
 20
1654.914193772683
 30
0.0
  0
POINT
  5
133F
330
1334
100
AcDbEntity
  8
Defpoints
 62
     0
100
AcDbPoint
 10
4086.676847147844
 20
1654.914193772683
 30
0.0
  0
POINT
  5
1340
330
1334
100
AcDbEntity
  8
Defpoints
 62
     0
100
AcDbPoint
 10
4086.676847147844
 20
1676.216408057894
 30
0.0
  0
ENDBLK
  5
1336
330
1334
100
AcDbEntity
  8
0
100
AcDbBlockEnd
  0
BLOCK
  5
1342
330
1341
100
AcDbEntity
  8
0
100
AcDbBlockBegin
  2
*D45
 70
     1
 10
0.0
 20
0.0
 30
0.0
  3
*D45
  1
*D47
  0
LINE
  5
1344
330
1341
100
AcDbEntity
  8
MODEL
 62
     0
370
    -2
100
AcDbLine
 10
3791.040748315308
 20
1559.917777154342
 30
0.0
 11
3771.345739795071
 21
1559.917777154342
 31
0.0
  0
LINE
  5
1345
330
1341
100
AcDbEntity
  8
MODEL
 62
     0
370
    -2
100
AcDbLine
 10
3791.040748315306
 20
1424.917777154342
 30
0.0
 11
3771.345739795071
 21
1424.917777154342
 31
0.0
  0
LINE
  5
1346
330
1341
100
AcDbEntity
  8
MODEL
 62
     0
370
    -2
100
AcDbLine
 10
3771.525739795071
 20
1559.737777154342
 30
0.0
 11
3771.525739795071
 21
1500.007777154342
 31
0.0
  0
LINE
  5
1347
330
1341
100
AcDbEntity
  8
MODEL
 62
     0
370
    -2
100
AcDbLine
 10
3771.525739795071
 20
1425.097777154342
 30
0.0
 11
3771.525739795071
 21
1484.827777154342
 31
0.0
  0
SOLID
  5
1348
330
1341
100
AcDbEntity
  8
MODEL
 62
     0
100
AcDbTrace
 10
3771.555739795072
 20
1559.737777154342
 30
0.0
 11
3771.495739795071
 21
1559.737777154342
 31
0.0
 12
3771.525739795071
 22
1559.917777154342
 32
0.0
 13
3771.525739795071
 23
1559.917777154342
 33
0.0
  0
SOLID
  5
1349
330
1341
100
AcDbEntity
  8
MODEL
 62
     0
100
AcDbTrace
 10
3771.495739795071
 20
1425.097777154342
 30
0.0
 11
3771.555739795072
 21
1425.097777154342
 31
0.0
 12
3771.525739795071
 22
1424.917777154342
 32
0.0
 13
3771.525739795071
 23
1424.917777154342
 33
0.0
  0
MTEXT
  5
134A
330
1341
100
AcDbEntity
  8
MODEL
  6
Continuous
 62
     0
100
AcDbMText
 10
3771.525739795071
 20
1492.417777154342
 30
0.0
 40
15.0
 41
0.0
 46
0.0
 71
     5
 72
     1
  1
\A1;135.0000
 73
     1
 44
1.0
  0
POINT
  5
134B
330
1341
100
AcDbEntity
  8
Defpoints
 62
     0
100
AcDbPoint
 10
3791.103248315308
 20
1559.917777154342
 30
0.0
  0
POINT
  5
134C
330
1341
100
AcDbEntity
  8
Defpoints
 62
     0
100
AcDbPoint
 10
3791.103248315306
 20
1424.917777154342
 30
0.0
  0
POINT
  5
134D
330
1341
100
AcDbEntity
  8
Defpoints
 62
     0
100
AcDbPoint
 10
3771.525739795071
 20
1424.917777154342
 30
0.0
  0
ENDBLK
  5
1343
330
1341
100
AcDbEntity
  8
0
100
AcDbBlockEnd
  0
BLOCK
  5
134F
330
134E
100
AcDbEntity
  8
0
100
AcDbBlockBegin
  2
*D46
 70
     1
 10
0.0
 20
0.0
 30
0.0
  3
*D46
  1
*D48
  0
LINE
  5
1351
330
134E
100
AcDbEntity
  8
MODEL
 62
     0
370
    -2
100
AcDbLine
 10
3791.040748315308
 20
1424.917777154342
 30
0.0
 11
3771.345739795071
 21
1424.917777154342
 31
0.0
  0
LINE
  5
1352
330
134E
100
AcDbEntity
  8
MODEL
 62
     0
370
    -2
100
AcDbLine
 10
3791.040748315304
 20
1194.917777154344
 30
0.0
 11
3771.345739795071
 21
1194.917777154344
 31
0.0
  0
LINE
  5
1353
330
134E
100
AcDbEntity
  8
MODEL
 62
     0
370
    -2
100
AcDbLine
 10
3771.525739795071
 20
1424.737777154342
 30
0.0
 11
3771.525739795071
 21
1317.507777154343
 31
0.0
  0
LINE
  5
1354
330
134E
100
AcDbEntity
  8
MODEL
 62
     0
370
    -2
100
AcDbLine
 10
3771.525739795071
 20
1195.097777154344
 30
0.0
 11
3771.525739795071
 21
1302.327777154343
 31
0.0
  0
SOLID
  5
1355
330
134E
100
AcDbEntity
  8
MODEL
 62
     0
100
AcDbTrace
 10
3771.555739795072
 20
1424.737777154342
 30
0.0
 11
3771.495739795071
 21
1424.737777154342
 31
0.0
 12
3771.525739795071
 22
1424.917777154342
 32
0.0
 13
3771.525739795071
 23
1424.917777154342
 33
0.0
  0
SOLID
  5
1356
330
134E
100
AcDbEntity
  8
MODEL
 62
     0
100
AcDbTrace
 10
3771.495739795071
 20
1195.097777154344
 30
0.0
 11
3771.555739795072
 21
1195.097777154344
 31
0.0
 12
3771.525739795071
 22
1194.917777154344
 32
0.0
 13
3771.525739795071
 23
1194.917777154344
 33
0.0
  0
MTEXT
  5
1357
330
134E
100
AcDbEntity
  8
MODEL
  6
Continuous
 62
     0
100
AcDbMText
 10
3771.525739795071
 20
1309.917777154343
 30
0.0
 40
15.0
 41
0.0
 46
0.0
 71
     5
 72
     1
  1
\A1;230.0000
 73
     1
 44
1.0
  0
POINT
  5
1358
330
134E
100
AcDbEntity
  8
Defpoints
 62
     0
100
AcDbPoint
 10
3791.103248315308
 20
1424.917777154342
 30
0.0
  0
POINT
  5
1359
330
134E
100
AcDbEntity
  8
Defpoints
 62
     0
100
AcDbPoint
 10
3791.103248315304
 20
1194.917777154344
 30
0.0
  0
POINT
  5
135A
330
134E
100
AcDbEntity
  8
Defpoints
 62
     0
100
AcDbPoint
 10
3771.525739795071
 20
1194.917777154344
 30
0.0
  0
ENDBLK
  5
1350
330
134E
100
AcDbEntity
  8
0
100
AcDbBlockEnd
  0
BLOCK
  5
135C
330
135B
100
AcDbEntity
  8
0
100
AcDbBlockBegin
  2
*D47
 70
     1
 10
0.0
 20
0.0
 30
0.0
  3
*D47
  1
*D49
  0
LINE
  5
135E
330
135B
100
AcDbEntity
  8
MODEL
 62
     0
370
    -2
100
AcDbLine
 10
4207.739077770077
 20
1524.917777154342
 30
0.0
 11
4227.434086290314
 21
1524.917777154342
 31
0.0
  0
LINE
  5
135F
330
135B
100
AcDbEntity
  8
MODEL
 62
     0
370
    -2
100
AcDbLine
 10
4207.73907777008
 20
1194.91777715434
 30
0.0
 11
4227.434086290314
 21
1194.91777715434
 31
0.0
  0
LINE
  5
1360
330
135B
100
AcDbEntity
  8
MODEL
 62
     0
370
    -2
100
AcDbLine
 10
4227.254086290313
 20
1524.737777154342
 30
0.0
 11
4227.254086290313
 21
1367.507777154341
 31
0.0
  0
LINE
  5
1361
330
135B
100
AcDbEntity
  8
MODEL
 62
     0
370
    -2
100
AcDbLine
 10
4227.254086290313
 20
1195.097777154341
 30
0.0
 11
4227.254086290313
 21
1352.327777154341
 31
0.0
  0
SOLID
  5
1362
330
135B
100
AcDbEntity
  8
MODEL
 62
     0
100
AcDbTrace
 10
4227.284086290313
 20
1524.737777154342
 30
0.0
 11
4227.224086290314
 21
1524.737777154342
 31
0.0
 12
4227.254086290313
 22
1524.917777154342
 32
0.0
 13
4227.254086290313
 23
1524.917777154342
 33
0.0
  0
SOLID
  5
1363
330
135B
100
AcDbEntity
  8
MODEL
 62
     0
100
AcDbTrace
 10
4227.224086290314
 20
1195.097777154341
 30
0.0
 11
4227.284086290313
 21
1195.097777154341
 31
0.0
 12
4227.254086290313
 22
1194.91777715434
 32
0.0
 13
4227.254086290313
 23
1194.91777715434
 33
0.0
  0
MTEXT
  5
1364
330
135B
100
AcDbEntity
  8
MODEL
  6
Continuous
 62
     0
100
AcDbMText
 10
4227.254086290313
 20
1359.917777154341
 30
0.0
 40
15.0
 41
0.0
 46
0.0
 71
     5
 72
     1
  1
\A1;330.0000
 73
     1
 44
1.0
  0
POINT
  5
1365
330
135B
100
AcDbEntity
  8
Defpoints
 62
     0
100
AcDbPoint
 10
4207.676577770077
 20
1524.917777154342
 30
0.0
  0
POINT
  5
1366
330
135B
100
AcDbEntity
  8
Defpoints
 62
     0
100
AcDbPoint
 10
4207.67657777008
 20
1194.91777715434
 30
0.0
  0
POINT
  5
1367
330
135B
100
AcDbEntity
  8
Defpoints
 62
     0
100
AcDbPoint
 10
4227.254086290313
 20
1194.91777715434
 30
0.0
  0
ENDBLK
  5
135D
330
135B
100
AcDbEntity
  8
0
100
AcDbBlockEnd
  0
BLOCK
  5
1369
330
1368
100
AcDbEntity
  8
0
100
AcDbBlockBegin
  2
*D48
 70
     1
 10
0.0
 20
0.0
 30
0.0
  3
*D48
  1
*D50
  0
LINE
  5
136B
330
1368
100
AcDbEntity
  8
MODEL
 62
     0
370
    -2
100
AcDbLine
 10
3299.062615839252
 20
2486.351367248892
 30
0.0
 11
3323.064810741158
 21
2486.351367248892
 31
0.0
  0
LINE
  5
136C
330
1368
100
AcDbEntity
  8
MODEL
 62
     0
370
    -2
100
AcDbLine
 10
3299.062615839252
 20
2136.351367248891
 30
0.0
 11
3323.064810741158
 21
2136.351367248891
 31
0.0
  0
LINE
  5
136D
330
1368
100
AcDbEntity
  8
MODEL
 62
     0
370
    -2
100
AcDbLine
 10
3322.884810741159
 20
2486.171367248892
 30
0.0
 11
3322.884810741159
 21
2318.941367248892
 31
0.0
  0
LINE
  5
136E
330
1368
100
AcDbEntity
  8
MODEL
 62
     0
370
    -2
100
AcDbLine
 10
3322.884810741159
 20
2136.531367248891
 30
0.0
 11
3322.884810741159
 21
2303.761367248891
 31
0.0
  0
SOLID
  5
136F
330
1368
100
AcDbEntity
  8
MODEL
 62
     0
100
AcDbTrace
 10
3322.914810741159
 20
2486.171367248892
 30
0.0
 11
3322.854810741158
 21
2486.171367248892
 31
0.0
 12
3322.884810741159
 22
2486.351367248892
 32
0.0
 13
3322.884810741159
 23
2486.351367248892
 33
0.0
  0
SOLID
  5
1370
330
1368
100
AcDbEntity
  8
MODEL
 62
     0
100
AcDbTrace
 10
3322.854810741158
 20
2136.531367248891
 30
0.0
 11
3322.914810741159
 21
2136.531367248891
 31
0.0
 12
3322.884810741159
 22
2136.351367248891
 32
0.0
 13
3322.884810741159
 23
2136.351367248891
 33
0.0
  0
MTEXT
  5
1371
330
1368
100
AcDbEntity
  8
MODEL
  6
Continuous
 62
     0
100
AcDbMText
 10
3322.884810741159
 20
2311.351367248892
 30
0.0
 40
15.0
 41
0.0
 46
0.0
 71
     5
 72
     1
  1
\A1;350.0000
 73
     1
 44
1.0
  0
POINT
  5
1372
330
1368
100
AcDbEntity
  8
Defpoints
 62
     0
100
AcDbPoint
 10
3299.000115839252
 20
2486.351367248892
 30
0.0
  0
POINT
  5
1373
330
1368
100
AcDbEntity
  8
Defpoints
 62
     0
100
AcDbPoint
 10
3299.000115839252
 20
2136.351367248891
 30
0.0
  0
POINT
  5
1374
330
1368
100
AcDbEntity
  8
Defpoints
 62
     0
100
AcDbPoint
 10
3322.884810741159
 20
2136.351367248891
 30
0.0
  0
ENDBLK
  5
136A
330
1368
100
AcDbEntity
  8
0
100
AcDbBlockEnd
  0
BLOCK
  5
137C
330
137B
100
AcDbEntity
  8
0
100
AcDbBlockBegin
  2
*D49
 70
     1
 10
0.0
 20
0.0
 30
0.0
  3
*D49
  1
*D51
  0
LINE
  5
137E
330
137B
100
AcDbEntity
  8
DIM
  6
Continuous
 62
     0
370
    -2
100
AcDbLine
 10
317.0830810062002
 20
2364.924086770329
 30
0.0
 11
317.0830810062002
 21
2443.001085351849
 31
0.0
  0
LINE
  5
137F
330
137B
100
AcDbEntity
  8
DIM
  6
Continuous
 62
     0
370
    -2
100
AcDbLine
 10
867.0830810062002
 20
2194.924086769851
 30
0.0
 11
867.0830810062002
 21
2443.001085351849
 31
0.0
  0
LINE
  5
1380
330
137B
100
AcDbEntity
  8
DIM
  6
Continuous
 62
     0
370
    -2
100
AcDbLine
 10
326.0830810062002
 20
2443.001085351849
 30
0.0
 11
858.0830810062002
 21
2443.001085351849
 31
0.0
  0
INSERT
  5
1381
330
137B
100
AcDbEntity
  8
DIM
 62
     0
370
    -2
100
AcDbBlockReference
  2
_DOT
 10
317.0830810062002
 20
2443.001085351849
 30
0.0
 41
9.0
 42
9.0
 43
9.0
 50
180.0
  0
INSERT
  5
1382
330
137B
100
AcDbEntity
  8
DIM
 62
     0
370
    -2
100
AcDbBlockReference
  2
_DOT
 10
867.0830810062002
 20
2443.001085351849
 30
0.0
 41
9.0
 42
9.0
 43
9.0
  0
MTEXT
  5
1383
330
137B
100
AcDbEntity
  8
DIM
  6
Continuous
 62
     0
100
AcDbMText
 10
592.0830810062002
 20
2465.001085351849
 30
0.0
 40
24.0
 41
0.0
 46
0.0
 71
     5
 72
     1
  1
\A1;550
  7
ＭＳ ゴシック
 73
     1
 44
1.0
  0
POINT
  5
1384
330
137B
100
AcDbEntity
  8
Defpoints
 62
     0
100
AcDbPoint
 10
317.0830810062002
 20
2344.924086770329
 30
0.0
  0
POINT
  5
1385
330
137B
100
AcDbEntity
  8
Defpoints
 62
     0
100
AcDbPoint
 10
867.0830810062002
 20
2174.924086769851
 30
0.0
  0
POINT
  5
1386
330
137B
100
AcDbEntity
  8
Defpoints
 62
     0
100
AcDbPoint
 10
867.0830810062002
 20
2443.001085351849
 30
0.0
  0
ENDBLK
  5
137D
330
137B
100
AcDbEntity
  8
0
100
AcDbBlockEnd
  0
BLOCK
  5
138B
330
138A
100
AcDbEntity
  8
0
100
AcDbBlockBegin
  2
*D50
 70
     1
 10
0.0
 20
0.0
 30
0.0
  3
*D50
  1
*D52
  0
LINE
  5
138D
330
138A
100
AcDbEntity
  8
DIM
  6
Continuous
 62
     0
370
    -2
100
AcDbLine
 10
302.0830810062002
 20
2349.924086770329
 30
0.0
 11
235.8397042827232
 21
2349.924086770329
 31
0.0
  0
LINE
  5
138E
330
138A
100
AcDbEntity
  8
DIM
  6
Continuous
 62
     0
370
    -2
100
AcDbLine
 10
302.0830810062002
 20
1999.924086770328
 30
0.0
 11
235.8397042827232
 21
1999.924086770328
 31
0.0
  0
LINE
  5
138F
330
138A
100
AcDbEntity
  8
DIM
  6
Continuous
 62
     0
370
    -2
100
AcDbLine
 10
235.8397042827232
 20
2340.924086770329
 30
0.0
 11
235.8397042827232
 21
2008.924086770328
 31
0.0
  0
INSERT
  5
1390
330
138A
100
AcDbEntity
  8
DIM
 62
     0
370
    -2
100
AcDbBlockReference
  2
_DOT
 10
235.8397042827232
 20
2349.924086770329
 30
0.0
 41
9.0
 42
9.0
 43
9.0
 50
90.0
  0
INSERT
  5
1391
330
138A
100
AcDbEntity
  8
DIM
 62
     0
370
    -2
100
AcDbBlockReference
  2
_DOT
 10
235.8397042827232
 20
1999.924086770328
 30
0.0
 41
9.0
 42
9.0
 43
9.0
 50
270.0
  0
MTEXT
  5
1392
330
138A
100
AcDbEntity
  8
DIM
  6
Continuous
 62
     0
100
AcDbMText
 10
213.8397042827232
 20
2174.924086770328
 30
0.0
 40
24.0
 41
0.0
 46
0.0
 71
     5
 72
     1
  1
\A1;350
  7
ＭＳ ゴシック
 11
8.120488408686838E-17
 21
1.0
 31
0.0
 73
     1
 44
1.0
  0
POINT
  5
1393
330
138A
100
AcDbEntity
  8
Defpoints
 62
     0
100
AcDbPoint
 10
322.0830810062002
 20
2349.924086770329
 30
0.0
  0
POINT
  5
1394
330
138A
100
AcDbEntity
  8
Defpoints
 62
     0
100
AcDbPoint
 10
322.0830810062002
 20
1999.924086770328
 30
0.0
  0
POINT
  5
1395
330
138A
100
AcDbEntity
  8
Defpoints
 62
     0
100
AcDbPoint
 10
235.8397042827232
 20
1999.924086770328
 30
0.0
  0
ENDBLK
  5
138C
330
138A
100
AcDbEntity
  8
0
100
AcDbBlockEnd
  0
BLOCK
  5
1398
330
1397
100
AcDbEntity
  8
0
100
AcDbBlockBegin
  2
*D51
 70
     1
 10
0.0
 20
0.0
 30
0.0
  3
*D51
  1
*D53
  0
LINE
  5
139A
330
1397
100
AcDbEntity
  8
DIM
  6
Continuous
 62
     0
370
    -2
100
AcDbLine
 10
365.762304310211
 20
1528.69125341214
 30
0.0
 11
365.762304310211
 21
1572.875563494482
 31
0.0
  0
LINE
  5
139B
330
1397
100
AcDbEntity
  8
DIM
  6
Continuous
 62
     0
370
    -2
100
AcDbLine
 10
385.8184458694508
 20
1447.317687885579
 30
0.0
 11
385.8184458694508
 21
1572.875563494482
 31
0.0
  0
INSERT
  5
139C
330
1397
100
AcDbEntity
  8
DIM
 62
     0
370
    -2
100
AcDbBlockReference
  2
_DOT
 10
365.762304310211
 20
1572.875563494482
 30
0.0
 41
12.0
 42
12.0
 43
12.0
 50
180.0
  0
INSERT
  5
139D
330
1397
100
AcDbEntity
  8
DIM
 62
     0
370
    -2
100
AcDbBlockReference
  2
_DOT
 10
385.8184458694508
 20
1572.875563494482
 30
0.0
 41
12.0
 42
12.0
 43
12.0
  0
MTEXT
  5
139E
330
1397
100
AcDbEntity
  8
DIM
  6
Continuous
 62
     0
100
AcDbMText
 10
375.7903750898309
 20
1604.875563494482
 30
0.0
 40
24.0
 41
0.0
 46
0.0
 71
     5
 72
     1
  1
\A1;20
  7
ＭＳ ゴシック
 73
     1
 44
1.0
  0
POINT
  5
139F
330
1397
100
AcDbEntity
  8
Defpoints
 62
     0
100
AcDbPoint
 10
365.762304310211
 20
1518.69125341214
 30
0.0
  0
POINT
  5
13A0
330
1397
100
AcDbEntity
  8
Defpoints
 62
     0
100
AcDbPoint
 10
385.8184458694508
 20
1437.317687885579
 30
0.0
  0
POINT
  5
13A1
330
1397
100
AcDbEntity
  8
Defpoints
 62
     0
100
AcDbPoint
 10
385.8184458694508
 20
1572.875563494482
 30
0.0
  0
ENDBLK
  5
1399
330
1397
100
AcDbEntity
  8
0
100
AcDbBlockEnd
  0
BLOCK
  5
13BE
330
13BD
100
AcDbEntity
  8
0
100
AcDbBlockBegin
  2
*D52
 70
     1
 10
0.0
 20
0.0
 30
0.0
  3
*D52
  1
*D54
  0
LINE
  5
13C0
330
13BD
100
AcDbEntity
  8
DIM
  6
Continuous
 62
     0
370
    -2
100
AcDbLine
 10
4808.924788289257
 20
1841.455422674429
 30
0.0
 11
4808.924788289257
 21
1827.633874165
 31
0.0
  0
LINE
  5
13C1
330
13BD
100
AcDbEntity
  8
DIM
  6
Continuous
 62
     0
370
    -2
100
AcDbLine
 10
4828.924788289257
 20
1761.618744690376
 30
0.0
 11
4828.924788289257
 21
1827.633874165
 31
0.0
  0
INSERT
  5
13C2
330
13BD
100
AcDbEntity
  8
DIM
 62
     0
370
    -2
100
AcDbBlockReference
  2
_DOT
 10
4808.924788289257
 20
1827.633874165
 30
0.0
 41
12.0
 42
12.0
 43
12.0
 50
180.0
  0
INSERT
  5
13C3
330
13BD
100
AcDbEntity
  8
DIM
 62
     0
370
    -2
100
AcDbBlockReference
  2
_DOT
 10
4828.924788289257
 20
1827.633874165
 30
0.0
 41
12.0
 42
12.0
 43
12.0
  0
MTEXT
  5
13C4
330
13BD
100
AcDbEntity
  8
DIM
  6
Continuous
 62
     0
100
AcDbMText
 10
4818.924788289257
 20
1859.633874165
 30
0.0
 40
24.0
 41
0.0
 46
0.0
 71
     5
 72
     1
  1
\A1;20
  7
ＭＳ ゴシック
 73
     1
 44
1.0
  0
POINT
  5
13C5
330
13BD
100
AcDbEntity
  8
Defpoints
 62
     0
100
AcDbPoint
 10
4808.924788289257
 20
1821.455422674429
 30
0.0
  0
POINT
  5
13C6
330
13BD
100
AcDbEntity
  8
Defpoints
 62
     0
100
AcDbPoint
 10
4828.924788289257
 20
1741.618744690376
 30
0.0
  0
POINT
  5
13C7
330
13BD
100
AcDbEntity
  8
Defpoints
 62
     0
100
AcDbPoint
 10
4828.924788289257
 20
1827.633874165
 30
0.0
  0
ENDBLK
  5
13BF
330
13BD
100
AcDbEntity
  8
0
100
AcDbBlockEnd
  0
BLOCK
  5
13D0
330
13CF
100
AcDbEntity
  8
0
100
AcDbBlockBegin
  2
*D53
 70
     1
 10
0.0
 20
0.0
 30
0.0
  3
*D53
  1
*D55
  0
LINE
  5
13D2
330
13CF
100
AcDbEntity
  8
MODEL
  6
Continuous
 62
     0
370
    -2
100
AcDbLine
 10
355.7623043102219
 20
1405.790187254521
 30
0.0
 11
340.5931133138029
 21
1405.790187254521
 31
0.0
  0
LINE
  5
13D3
330
13CF
100
AcDbEntity
  8
MODEL
  6
Continuous
 62
     0
370
    -2
100
AcDbLine
 10
355.762304310211
 20
1355.63177413744
 30
0.0
 11
340.5931133138029
 21
1355.63177413744
 31
0.0
  0
LINE
  5
13D4
330
13CF
100
AcDbEntity
  8
MODEL
  6
Continuous
 62
     0
370
    -2
100
AcDbLine
 10
340.5931133138029
 20
1417.790187254521
 30
0.0
 11
340.5931133138029
 21
1429.790187254521
 31
0.0
  0
LINE
  5
13D5
330
13CF
100
AcDbEntity
  8
MODEL
  6
Continuous
 62
     0
370
    -2
100
AcDbLine
 10
340.5931133138029
 20
1343.63177413744
 30
0.0
 11
340.5931133138029
 21
1331.63177413744
 31
0.0
  0
INSERT
  5
13D6
330
13CF
100
AcDbEntity
  8
MODEL
 62
     0
370
    -2
100
AcDbBlockReference
  2
_DOT
 10
340.5931133138029
 20
1405.790187254521
 30
0.0
 41
12.0
 42
12.0
 43
12.0
 50
270.0
  0
INSERT
  5
13D7
330
13CF
100
AcDbEntity
  8
MODEL
 62
     0
370
    -2
100
AcDbBlockReference
  2
_DOT
 10
340.5931133138029
 20
1355.63177413744
 30
0.0
 41
12.0
 42
12.0
 43
12.0
 50
90.0
  0
MTEXT
  5
13D8
330
13CF
100
AcDbEntity
  8
MODEL
  6
Continuous
 62
     0
100
AcDbMText
 10
308.5931133138029
 20
1380.710980695981
 30
0.0
 40
24.0
 41
0.0
 46
0.0
 71
     5
 72
     1
  1
\A1;50
  7
ＭＳ ゴシック
 11
0.0
 21
1.0
 31
0.0
 73
     1
 44
1.0
  0
POINT
  5
13D9
330
13CF
100
AcDbEntity
  8
Defpoints
 62
     0
100
AcDbPoint
 10
365.7623043102219
 20
1405.790187254521
 30
0.0
  0
POINT
  5
13DA
330
13CF
100
AcDbEntity
  8
Defpoints
 62
     0
100
AcDbPoint
 10
365.762304310211
 20
1355.63177413744
 30
0.0
  0
POINT
  5
13DB
330
13CF
100
AcDbEntity
  8
Defpoints
 62
     0
100
AcDbPoint
 10
340.5931133138029
 20
1355.63177413744
 30
0.0
  0
ENDBLK
  5
13D1
330
13CF
100
AcDbEntity
  8
0
100
AcDbBlockEnd
  0
BLOCK
  5
13E2
330
13E1
100
AcDbEntity
  8
0
100
AcDbBlockBegin
  2
*D54
 70
     1
 10
0.0
 20
0.0
 30
0.0
  3
*D54
  1
*D56
  0
LINE
  5
13E4
330
13E1
100
AcDbEntity
  8
MODEL
  6
Continuous
 62
     0
370
    -2
100
AcDbLine
 10
364.8042695868808
 20
1380.710980695981
 30
0.0
 11
344.7564432415478
 21
1380.710980695981
 31
0.0
  0
LINE
  5
13E5
330
13E1
100
AcDbEntity
  8
MODEL
  6
Continuous
 62
     0
370
    -2
100
AcDbLine
 10
364.8042695868808
 20
1339.248989638236
 30
0.0
 11
344.7564432415478
 21
1339.248989638236
 31
0.0
  0
LINE
  5
13E6
330
13E1
100
AcDbEntity
  8
MODEL
  6
Continuous
 62
     0
370
    -2
100
AcDbLine
 10
344.7564432415478
 20
1392.710980695981
 30
0.0
 11
344.7564432415478
 21
1404.710980695981
 31
0.0
  0
LINE
  5
13E7
330
13E1
100
AcDbEntity
  8
MODEL
  6
Continuous
 62
     0
370
    -2
100
AcDbLine
 10
344.7564432415478
 20
1327.248989638236
 30
0.0
 11
344.7564432415478
 21
1315.248989638236
 31
0.0
  0
INSERT
  5
13E8
330
13E1
100
AcDbEntity
  8
MODEL
 62
     0
370
    -2
100
AcDbBlockReference
  2
_DOT
 10
344.7564432415478
 20
1380.710980695981
 30
0.0
 41
12.0
 42
12.0
 43
12.0
 50
270.0
  0
INSERT
  5
13E9
330
13E1
100
AcDbEntity
  8
MODEL
 62
     0
370
    -2
100
AcDbBlockReference
  2
_DOT
 10
344.7564432415478
 20
1339.248989638236
 30
0.0
 41
12.0
 42
12.0
 43
12.0
 50
90.0
  0
MTEXT
  5
13EA
330
13E1
100
AcDbEntity
  8
MODEL
  6
Continuous
 62
     0
100
AcDbMText
 10
312.7564432415478
 20
1359.979985167108
 30
0.0
 40
24.0
 41
0.0
 46
0.0
 71
     5
 72
     1
  1
\A1;41
  7
ＭＳ ゴシック
 11
0.0
 21
1.0
 31
0.0
 73
     1
 44
1.0
  0
POINT
  5
13EB
330
13E1
100
AcDbEntity
  8
Defpoints
 62
     0
100
AcDbPoint
 10
374.8042695868808
 20
1380.710980695981
 30
0.0
  0
POINT
  5
13EC
330
13E1
100
AcDbEntity
  8
Defpoints
 62
     0
100
AcDbPoint
 10
374.8042695868808
 20
1339.248989638236
 30
0.0
  0
POINT
  5
13ED
330
13E1
100
AcDbEntity
  8
Defpoints
 62
     0
100
AcDbPoint
 10
344.7564432415478
 20
1339.248989638236
 30
0.0
  0
ENDBLK
  5
13E3
330
13E1
100
AcDbEntity
  8
0
100
AcDbBlockEnd
  0
BLOCK
  5
13F2
330
13F1
100
AcDbEntity
  8
0
100
AcDbBlockBegin
  2
*D55
 70
     1
 10
0.0
 20
0.0
 30
0.0
  3
*D55
  1
*D57
  0
LINE
  5
13F4
330
13F1
100
AcDbEntity
  8
MODEL
  6
Continuous
 62
     0
370
    -2
100
AcDbLine
 10
365.762304310211
 20
1327.790187254521
 30
0.0
 11
276.056572806569
 21
1327.790187254521
 31
0.0
  0
LINE
  5
13F5
330
13F1
100
AcDbEntity
  8
MODEL
  6
Continuous
 62
     0
370
    -2
100
AcDbLine
 10
364.8042695868808
 20
1380.710980695981
 30
0.0
 11
276.056572806569
 21
1380.710980695981
 31
0.0
  0
LINE
  5
13F6
330
13F1
100
AcDbEntity
  8
MODEL
  6
Continuous
 62
     0
370
    -2
100
AcDbLine
 10
276.056572806569
 20
1315.790187254521
 30
0.0
 11
276.056572806569
 21
1303.790187254521
 31
0.0
  0
LINE
  5
13F7
330
13F1
100
AcDbEntity
  8
MODEL
  6
Continuous
 62
     0
370
    -2
100
AcDbLine
 10
276.056572806569
 20
1392.710980695981
 30
0.0
 11
276.056572806569
 21
1404.710980695981
 31
0.0
  0
INSERT
  5
13F8
330
13F1
100
AcDbEntity
  8
MODEL
 62
     0
370
    -2
100
AcDbBlockReference
  2
_DOT
 10
276.056572806569
 20
1327.790187254521
 30
0.0
 41
12.0
 42
12.0
 43
12.0
 50
90.0
  0
INSERT
  5
13F9
330
13F1
100
AcDbEntity
  8
MODEL
 62
     0
370
    -2
100
AcDbBlockReference
  2
_DOT
 10
276.056572806569
 20
1380.710980695981
 30
0.0
 41
12.0
 42
12.0
 43
12.0
 50
270.0
  0
MTEXT
  5
13FA
330
13F1
100
AcDbEntity
  8
MODEL
  6
Continuous
 62
     0
100
AcDbMText
 10
244.056572806569
 20
1354.250583975251
 30
0.0
 40
24.0
 41
0.0
 46
0.0
 71
     5
 72
     1
  1
\A1;53
  7
ＭＳ ゴシック
 11
0.0
 21
1.0
 31
0.0
 73
     1
 44
1.0
  0
POINT
  5
13FB
330
13F1
100
AcDbEntity
  8
Defpoints
 62
     0
100
AcDbPoint
 10
375.762304310211
 20
1327.790187254521
 30
0.0
  0
POINT
  5
13FC
330
13F1
100
AcDbEntity
  8
Defpoints
 62
     0
100
AcDbPoint
 10
374.8042695868808
 20
1380.710980695981
 30
0.0
  0
POINT
  5
13FD
330
13F1
100
AcDbEntity
  8
Defpoints
 62
     0
100
AcDbPoint
 10
276.056572806569
 20
1380.710980695981
 30
0.0
  0
ENDBLK
  5
13F3
330
13F1
100
AcDbEntity
  8
0
100
AcDbBlockEnd
  0
BLOCK
  5
1402
330
1401
100
AcDbEntity
  8
0
100
AcDbBlockBegin
  2
*D56
 70
     1
 10
0.0
 20
0.0
 30
0.0
  3
*D56
  1
*D58
  0
LINE
  5
1404
330
1401
100
AcDbEntity
  8
MODEL
  6
Continuous
 62
     0
370
    -2
100
AcDbLine
 10
355.762304310211
 20
1327.790187254521
 30
0.0
 11
264.7079571959613
 21
1327.790187254521
 31
0.0
  0
LINE
  5
1405
330
1401
100
AcDbEntity
  8
MODEL
  6
Continuous
 62
     0
370
    -2
100
AcDbLine
 10
355.762304310211
 20
1382.790187254521
 30
0.0
 11
264.7079571959613
 21
1382.790187254521
 31
0.0
  0
LINE
  5
1406
330
1401
100
AcDbEntity
  8
MODEL
  6
Continuous
 62
     0
370
    -2
100
AcDbLine
 10
264.7079571959613
 20
1315.790187254521
 30
0.0
 11
264.7079571959613
 21
1303.790187254521
 31
0.0
  0
LINE
  5
1407
330
1401
100
AcDbEntity
  8
MODEL
  6
Continuous
 62
     0
370
    -2
100
AcDbLine
 10
264.7079571959613
 20
1394.790187254521
 30
0.0
 11
264.7079571959613
 21
1406.790187254521
 31
0.0
  0
INSERT
  5
1408
330
1401
100
AcDbEntity
  8
MODEL
 62
     0
370
    -2
100
AcDbBlockReference
  2
_DOT
 10
264.7079571959613
 20
1327.790187254521
 30
0.0
 41
12.0
 42
12.0
 43
12.0
 50
90.0
  0
INSERT
  5
1409
330
1401
100
AcDbEntity
  8
MODEL
 62
     0
370
    -2
100
AcDbBlockReference
  2
_DOT
 10
264.7079571959613
 20
1382.790187254521
 30
0.0
 41
12.0
 42
12.0
 43
12.0
 50
270.0
  0
MTEXT
  5
140A
330
1401
100
AcDbEntity
  8
MODEL
  6
Continuous
 62
     0
100
AcDbMText
 10
232.7079571959613
 20
1355.290187254521
 30
0.0
 40
24.0
 41
0.0
 46
0.0
 71
     5
 72
     1
  1
\A1;55
  7
ＭＳ ゴシック
 11
0.0
 21
1.0
 31
0.0
 73
     1
 44
1.0
  0
POINT
  5
140B
330
1401
100
AcDbEntity
  8
Defpoints
 62
     0
100
AcDbPoint
 10
365.762304310211
 20
1327.790187254521
 30
0.0
  0
POINT
  5
140C
330
1401
100
AcDbEntity
  8
Defpoints
 62
     0
100
AcDbPoint
 10
365.762304310211
 20
1382.790187254521
 30
0.0
  0
POINT
  5
140D
330
1401
100
AcDbEntity
  8
Defpoints
 62
     0
100
AcDbPoint
 10
264.7079571959613
 20
1382.790187254521
 30
0.0
  0
ENDBLK
  5
1403
330
1401
100
AcDbEntity
  8
0
100
AcDbBlockEnd
  0
BLOCK
  5
1412
330
1411
100
AcDbEntity
  8
0
100
AcDbBlockBegin
  2
*D57
 70
     1
 10
0.0
 20
0.0
 30
0.0
  3
*D57
  1
*D59
  0
LINE
  5
1414
330
1411
100
AcDbEntity
  8
DIM
  6
Continuous
 62
     0
370
    -2
100
AcDbLine
 10
310.8894709708015
 20
1338.490471189413
 30
0.0
 11
235.8397042827232
 21
1338.490471189413
 31
0.0
  0
LINE
  5
1415
330
1411
100
AcDbEntity
  8
DIM
  6
Continuous
 62
     0
370
    -2
100
AcDbLine
 10
310.8894709708015
 20
1238.490471189413
 30
0.0
 11
235.8397042827232
 21
1238.490471189413
 31
0.0
  0
LINE
  5
1416
330
1411
100
AcDbEntity
  8
DIM
  6
Continuous
 62
     0
370
    -2
100
AcDbLine
 10
235.8397042827232
 20
1329.490471189413
 30
0.0
 11
235.8397042827232
 21
1247.490471189413
 31
0.0
  0
INSERT
  5
1417
330
1411
100
AcDbEntity
  8
DIM
 62
     0
370
    -2
100
AcDbBlockReference
  2
_DOT
 10
235.8397042827232
 20
1338.490471189413
 30
0.0
 41
9.0
 42
9.0
 43
9.0
 50
90.0
  0
INSERT
  5
1418
330
1411
100
AcDbEntity
  8
DIM
 62
     0
370
    -2
100
AcDbBlockReference
  2
_DOT
 10
235.8397042827232
 20
1238.490471189413
 30
0.0
 41
9.0
 42
9.0
 43
9.0
 50
270.0
  0
MTEXT
  5
1419
330
1411
100
AcDbEntity
  8
DIM
  6
Continuous
 62
     0
100
AcDbMText
 10
213.8397042827232
 20
1287.839306824523
 30
0.0
 40
24.0
 41
0.0
 46
0.0
 71
     5
 72
     1
  1
\A1;100
  7
ＭＳ ゴシック
 11
0.0
 21
1.0
 31
0.0
 73
     1
 44
1.0
  0
POINT
  5
141A
330
1411
100
AcDbEntity
  8
Defpoints
 62
     0
100
AcDbPoint
 10
330.8894709708015
 20
1338.490471189413
 30
0.0
  0
POINT
  5
141B
330
1411
100
AcDbEntity
  8
Defpoints
 62
     0
100
AcDbPoint
 10
330.8894709708015
 20
1238.490471189413
 30
0.0
  0
POINT
  5
141C
330
1411
100
AcDbEntity
  8
Defpoints
 62
     0
100
AcDbPoint
 10
235.8397042827232
 20
1238.490471189413
 30
0.0
  0
ENDBLK
  5
1413
330
1411
100
AcDbEntity
  8
0
100
AcDbBlockEnd
  0
BLOCK
  5
1421
330
1420
100
AcDbEntity
  8
0
100
AcDbBlockBegin
  2
*D58
 70
     1
 10
0.0
 20
0.0
 30
0.0
  3
*D58
  1
*D60
  0
LINE
  5
1423
330
1420
100
AcDbEntity
  8
MODEL
  6
Continuous
 62
     0
370
    -2
100
AcDbLine
 10
355.762304310211
 20
1405.790187254521
 30
0.0
 11
311.3394525155903
 21
1405.790187254521
 31
0.0
  0
LINE
  5
1424
330
1420
100
AcDbEntity
  8
MODEL
  6
Continuous
 62
     0
370
    -2
100
AcDbLine
 10
355.762304310211
 20
1327.790187254521
 30
0.0
 11
311.3394525155903
 21
1327.790187254521
 31
0.0
  0
LINE
  5
1425
330
1420
100
AcDbEntity
  8
MODEL
  6
Continuous
 62
     0
370
    -2
100
AcDbLine
 10
311.3394525155903
 20
1393.790187254521
 30
0.0
 11
311.3394525155903
 21
1339.790187254521
 31
0.0
  0
INSERT
  5
1426
330
1420
100
AcDbEntity
  8
MODEL
 62
     0
370
    -2
100
AcDbBlockReference
  2
_DOT
 10
311.3394525155903
 20
1405.790187254521
 30
0.0
 41
12.0
 42
12.0
 43
12.0
 50
90.0
  0
INSERT
  5
1427
330
1420
100
AcDbEntity
  8
MODEL
 62
     0
370
    -2
100
AcDbBlockReference
  2
_DOT
 10
311.3394525155903
 20
1327.790187254521
 30
0.0
 41
12.0
 42
12.0
 43
12.0
 50
270.0
  0
MTEXT
  5
1428
330
1420
100
AcDbEntity
  8
MODEL
  6
Continuous
 62
     0
100
AcDbMText
 10
279.3394525155903
 20
1366.790187254521
 30
0.0
 40
24.0
 41
0.0
 46
0.0
 71
     5
 72
     1
  1
\A1;78
  7
ＭＳ ゴシック
 11
0.0
 21
1.0
 31
0.0
 73
     1
 44
1.0
  0
POINT
  5
1429
330
1420
100
AcDbEntity
  8
Defpoints
 62
     0
100
AcDbPoint
 10
365.762304310211
 20
1405.790187254521
 30
0.0
  0
POINT
  5
142A
330
1420
100
AcDbEntity
  8
Defpoints
 62
     0
100
AcDbPoint
 10
365.762304310211
 20
1327.790187254521
 30
0.0
  0
POINT
  5
142B
330
1420
100
AcDbEntity
  8
Defpoints
 62
     0
100
AcDbPoint
 10
311.3394525155903
 20
1327.790187254521
 30
0.0
  0
ENDBLK
  5
1422
330
1420
100
AcDbEntity
  8
0
100
AcDbBlockEnd
  0
BLOCK
  5
1430
330
142F
100
AcDbEntity
  8
0
100
AcDbBlockBegin
  2
*D59
 70
     1
 10
0.0
 20
0.0
 30
0.0
  3
*D59
  1
*D61
  0
LINE
  5
1432
330
142F
100
AcDbEntity
  8
MODEL
  6
Continuous
 62
     0
370
    -2
100
AcDbLine
 10
355.762304310211
 20
1405.790187254521
 30
0.0
 11
335.6156949861985
 21
1405.790187254521
 31
0.0
  0
LINE
  5
1433
330
142F
100
AcDbEntity
  8
MODEL
  6
Continuous
 62
     0
370
    -2
100
AcDbLine
 10
355.762304310211
 20
1355.63177413744
 30
0.0
 11
335.6156949861985
 21
1355.63177413744
 31
0.0
  0
LINE
  5
1434
330
142F
100
AcDbEntity
  8
MODEL
  6
Continuous
 62
     0
370
    -2
100
AcDbLine
 10
335.6156949861985
 20
1417.790187254521
 30
0.0
 11
335.6156949861985
 21
1429.790187254521
 31
0.0
  0
LINE
  5
1435
330
142F
100
AcDbEntity
  8
MODEL
  6
Continuous
 62
     0
370
    -2
100
AcDbLine
 10
335.6156949861985
 20
1343.63177413744
 30
0.0
 11
335.6156949861985
 21
1331.63177413744
 31
0.0
  0
INSERT
  5
1436
330
142F
100
AcDbEntity
  8
MODEL
 62
     0
370
    -2
100
AcDbBlockReference
  2
_DOT
 10
335.6156949861985
 20
1405.790187254521
 30
0.0
 41
12.0
 42
12.0
 43
12.0
 50
270.0
  0
INSERT
  5
1437
330
142F
100
AcDbEntity
  8
MODEL
 62
     0
370
    -2
100
AcDbBlockReference
  2
_DOT
 10
335.6156949861985
 20
1355.63177413744
 30
0.0
 41
12.0
 42
12.0
 43
12.0
 50
90.0
  0
MTEXT
  5
1438
330
142F
100
AcDbEntity
  8
MODEL
  6
Continuous
 62
     0
100
AcDbMText
 10
303.6156949861985
 20
1380.710980695981
 30
0.0
 40
24.0
 41
0.0
 46
0.0
 71
     5
 72
     1
  1
\A1;50
  7
ＭＳ ゴシック
 11
0.0
 21
1.0
 31
0.0
 73
     1
 44
1.0
  0
POINT
  5
1439
330
142F
100
AcDbEntity
  8
Defpoints
 62
     0
100
AcDbPoint
 10
365.762304310211
 20
1405.790187254521
 30
0.0
  0
POINT
  5
143A
330
142F
100
AcDbEntity
  8
Defpoints
 62
     0
100
AcDbPoint
 10
365.762304310211
 20
1355.63177413744
 30
0.0
  0
POINT
  5
143B
330
142F
100
AcDbEntity
  8
Defpoints
 62
     0
100
AcDbPoint
 10
335.6156949861985
 20
1355.63177413744
 30
0.0
  0
ENDBLK
  5
1431
330
142F
100
AcDbEntity
  8
0
100
AcDbBlockEnd
  0
BLOCK
  5
1440
330
143F
100
AcDbEntity
  8
0
100
AcDbBlockBegin
  2
*D60
 70
     1
 10
0.0
 20
0.0
 30
0.0
  3
*D60
  1
*D62
  0
LINE
  5
1442
330
143F
100
AcDbEntity
  8
MODEL
  6
Continuous
 62
     0
370
    -2
100
AcDbLine
 10
355.762304310211
 20
1405.790187254521
 30
0.0
 11
341.948627804618
 21
1405.790187254521
 31
0.0
  0
LINE
  5
1443
330
143F
100
AcDbEntity
  8
MODEL
  6
Continuous
 62
     0
370
    -2
100
AcDbLine
 10
355.762304310211
 20
1350.70779202195
 30
0.0
 11
341.948627804618
 21
1350.70779202195
 31
0.0
  0
LINE
  5
1444
330
143F
100
AcDbEntity
  8
MODEL
  6
Continuous
 62
     0
370
    -2
100
AcDbLine
 10
341.948627804618
 20
1417.790187254521
 30
0.0
 11
341.948627804618
 21
1429.790187254521
 31
0.0
  0
LINE
  5
1445
330
143F
100
AcDbEntity
  8
MODEL
  6
Continuous
 62
     0
370
    -2
100
AcDbLine
 10
341.948627804618
 20
1338.70779202195
 30
0.0
 11
341.948627804618
 21
1326.70779202195
 31
0.0
  0
INSERT
  5
1446
330
143F
100
AcDbEntity
  8
MODEL
 62
     0
370
    -2
100
AcDbBlockReference
  2
_DOT
 10
341.948627804618
 20
1405.790187254521
 30
0.0
 41
12.0
 42
12.0
 43
12.0
 50
270.0
  0
INSERT
  5
1447
330
143F
100
AcDbEntity
  8
MODEL
 62
     0
370
    -2
100
AcDbBlockReference
  2
_DOT
 10
341.948627804618
 20
1350.70779202195
 30
0.0
 41
12.0
 42
12.0
 43
12.0
 50
90.0
  0
MTEXT
  5
1448
330
143F
100
AcDbEntity
  8
MODEL
  6
Continuous
 62
     0
100
AcDbMText
 10
309.948627804618
 20
1378.248989638236
 30
0.0
 40
24.0
 41
0.0
 46
0.0
 71
     5
 72
     1
  1
\A1;55
  7
ＭＳ ゴシック
 11
0.0
 21
1.0
 31
0.0
 73
     1
 44
1.0
  0
POINT
  5
1449
330
143F
100
AcDbEntity
  8
Defpoints
 62
     0
100
AcDbPoint
 10
365.762304310211
 20
1405.790187254521
 30
0.0
  0
POINT
  5
144A
330
143F
100
AcDbEntity
  8
Defpoints
 62
     0
100
AcDbPoint
 10
365.762304310211
 20
1350.70779202195
 30
0.0
  0
POINT
  5
144B
330
143F
100
AcDbEntity
  8
Defpoints
 62
     0
100
AcDbPoint
 10
341.948627804618
 20
1350.70779202195
 30
0.0
  0
ENDBLK
  5
1441
330
143F
100
AcDbEntity
  8
0
100
AcDbBlockEnd
  0
BLOCK
  5
1450
330
144F
100
AcDbEntity
  8
0
100
AcDbBlockBegin
  2
*D61
 70
     1
 10
0.0
 20
0.0
 30
0.0
  3
*D61
  1
*D63
  0
LINE
  5
1452
330
144F
100
AcDbEntity
  8
MODEL
  6
Continuous
 62
     0
370
    -2
100
AcDbLine
 10
355.762304310211
 20
1405.790187254521
 30
0.0
 11
310.2839637125204
 21
1405.790187254521
 31
0.0
  0
LINE
  5
1453
330
144F
100
AcDbEntity
  8
MODEL
  6
Continuous
 62
     0
370
    -2
100
AcDbLine
 10
355.762304310211
 20
1350.70779202195
 30
0.0
 11
310.2839637125204
 21
1350.70779202195
 31
0.0
  0
LINE
  5
1454
330
144F
100
AcDbEntity
  8
MODEL
  6
Continuous
 62
     0
370
    -2
100
AcDbLine
 10
310.2839637125204
 20
1393.790187254521
 30
0.0
 11
310.2839637125204
 21
1362.70779202195
 31
0.0
  0
INSERT
  5
1455
330
144F
100
AcDbEntity
  8
MODEL
 62
     0
370
    -2
100
AcDbBlockReference
  2
_DOT
 10
310.2839637125204
 20
1405.790187254521
 30
0.0
 41
12.0
 42
12.0
 43
12.0
 50
90.0
  0
INSERT
  5
1456
330
144F
100
AcDbEntity
  8
MODEL
 62
     0
370
    -2
100
AcDbBlockReference
  2
_DOT
 10
310.2839637125204
 20
1350.70779202195
 30
0.0
 41
12.0
 42
12.0
 43
12.0
 50
270.0
  0
MTEXT
  5
1457
330
144F
100
AcDbEntity
  8
MODEL
  6
Continuous
 62
     0
100
AcDbMText
 10
278.2839637125204
 20
1378.248989638236
 30
0.0
 40
24.0
 41
0.0
 46
0.0
 71
     5
 72
     1
  1
\A1;55
  7
ＭＳ ゴシック
 11
0.0
 21
1.0
 31
0.0
 73
     1
 44
1.0
  0
POINT
  5
1458
330
144F
100
AcDbEntity
  8
Defpoints
 62
     0
100
AcDbPoint
 10
365.762304310211
 20
1405.790187254521
 30
0.0
  0
POINT
  5
1459
330
144F
100
AcDbEntity
  8
Defpoints
 62
     0
100
AcDbPoint
 10
365.762304310211
 20
1350.70779202195
 30
0.0
  0
POINT
  5
145A
330
144F
100
AcDbEntity
  8
Defpoints
 62
     0
100
AcDbPoint
 10
310.2839637125204
 20
1350.70779202195
 30
0.0
  0
ENDBLK
  5
1451
330
144F
100
AcDbEntity
  8
0
100
AcDbBlockEnd
  0
BLOCK
  5
1462
330
1461
100
AcDbEntity
  8
0
100
AcDbBlockBegin
  2
*D62
 70
     1
 10
0.0
 20
0.0
 30
0.0
  3
*D62
  1
*D64
  0
LINE
  5
1464
330
1461
100
AcDbEntity
  8
DIM
  6
Continuous
 62
     0
370
    -2
100
AcDbLine
 10
310.8894709708015
 20
1450.990471189413
 30
0.0
 11
235.8397042827232
 21
1450.990471189413
 31
0.0
  0
LINE
  5
1465
330
1461
100
AcDbEntity
  8
DIM
  6
Continuous
 62
     0
370
    -2
100
AcDbLine
 10
310.8894709708015
 20
1395.990471189413
 30
0.0
 11
235.8397042827232
 21
1395.990471189413
 31
0.0
  0
LINE
  5
1466
330
1461
100
AcDbEntity
  8
DIM
  6
Continuous
 62
     0
370
    -2
100
AcDbLine
 10
235.8397042827232
 20
1441.990471189413
 30
0.0
 11
235.8397042827232
 21
1404.990471189413
 31
0.0
  0
INSERT
  5
1467
330
1461
100
AcDbEntity
  8
DIM
 62
     0
370
    -2
100
AcDbBlockReference
  2
_DOT
 10
235.8397042827232
 20
1450.990471189413
 30
0.0
 41
9.0
 42
9.0
 43
9.0
 50
90.0
  0
INSERT
  5
1468
330
1461
100
AcDbEntity
  8
DIM
 62
     0
370
    -2
100
AcDbBlockReference
  2
_DOT
 10
235.8397042827232
 20
1395.990471189413
 30
0.0
 41
9.0
 42
9.0
 43
9.0
 50
270.0
  0
MTEXT
  5
1469
330
1461
100
AcDbEntity
  8
DIM
  6
Continuous
 62
     0
100
AcDbMText
 10
213.8397042827232
 20
1423.469618019008
 30
0.0
 40
24.0
 41
0.0
 46
0.0
 71
     5
 72
     1
  1
\A1;55
  7
ＭＳ ゴシック
 11
0.0
 21
1.0
 31
0.0
 73
     1
 44
1.0
  0
POINT
  5
146A
330
1461
100
AcDbEntity
  8
Defpoints
 62
     0
100
AcDbPoint
 10
330.8894709708015
 20
1450.990471189413
 30
0.0
  0
POINT
  5
146B
330
1461
100
AcDbEntity
  8
Defpoints
 62
     0
100
AcDbPoint
 10
330.8894709708015
 20
1395.990471189413
 30
0.0
  0
POINT
  5
146C
330
1461
100
AcDbEntity
  8
Defpoints
 62
     0
100
AcDbPoint
 10
235.8397042827232
 20
1395.990471189413
 30
0.0
  0
ENDBLK
  5
1463
330
1461
100
AcDbEntity
  8
0
100
AcDbBlockEnd
  0
BLOCK
  5
17F9
330
17F8
100
AcDbEntity
  8
0
100
AcDbBlockBegin
  2
*D63
 70
     1
 10
0.0
 20
0.0
 30
0.0
  3
*D63
  1
*D65
  0
LINE
  5
17FB
330
17F8
100
AcDbEntity
  8
MODEL
  6
Continuous
 62
     0
370
    -2
100
AcDbLine
 10
926.8446653726445
 20
1447.790187254521
 30
0.0
 11
1122.325698490178
 21
1447.790187254521
 31
0.0
  0
LINE
  5
17FC
330
17F8
100
AcDbEntity
  8
MODEL
  6
Continuous
 62
     0
370
    -2
100
AcDbLine
 10
576.8921187012609
 20
1082.790161767337
 30
0.0
 11
1122.325698490178
 21
1082.790161767337
 31
0.0
  0
LINE
  5
17FD
330
17F8
100
AcDbEntity
  8
MODEL
  6
Continuous
 62
     0
370
    -2
100
AcDbLine
 10
1122.325698490178
 20
1435.790187254521
 30
0.0
 11
1122.325698490178
 21
1094.790161767337
 31
0.0
  0
INSERT
  5
17FE
330
17F8
100
AcDbEntity
  8
MODEL
 62
     0
370
    -2
100
AcDbBlockReference
  2
_DOT
 10
1122.325698490178
 20
1447.790187254521
 30
0.0
 41
12.0
 42
12.0
 43
12.0
 50
90.0
  0
INSERT
  5
17FF
330
17F8
100
AcDbEntity
  8
MODEL
 62
     0
370
    -2
100
AcDbBlockReference
  2
_DOT
 10
1122.325698490178
 20
1082.790161767337
 30
0.0
 41
12.0
 42
12.0
 43
12.0
 50
270.0
  0
MTEXT
  5
1800
330
17F8
100
AcDbEntity
  8
MODEL
  6
Continuous
 62
     0
100
AcDbMText
 10
1090.325698490178
 20
1265.290174510929
 30
0.0
 40
24.0
 41
0.0
 46
0.0
 71
     5
 72
     1
  1
\A1;365
  7
ＭＳ ゴシック
 11
0.0
 21
1.0
 31
0.0
 73
     1
 44
1.0
  0
POINT
  5
1801
330
17F8
100
AcDbEntity
  8
Defpoints
 62
     0
100
AcDbPoint
 10
916.8446653726445
 20
1447.790187254521
 30
0.0
  0
POINT
  5
1802
330
17F8
100
AcDbEntity
  8
Defpoints
 62
     0
100
AcDbPoint
 10
566.8921187012609
 20
1082.790161767337
 30
0.0
  0
POINT
  5
1803
330
17F8
100
AcDbEntity
  8
Defpoints
 62
     0
100
AcDbPoint
 10
1122.325698490178
 20
1082.790161767337
 30
0.0
  0
ENDBLK
  5
17FA
330
17F8
100
AcDbEntity
  8
0
100
AcDbBlockEnd
  0
BLOCK
  5
1808
330
1807
100
AcDbEntity
  8
0
100
AcDbBlockBegin
  2
*D64
 70
     1
 10
0.0
 20
0.0
 30
0.0
  3
*D64
  1
*D66
  0
LINE
  5
180A
330
1807
100
AcDbEntity
  8
DIM
  6
Continuous
 62
     0
370
    -2
100
AcDbLine
 10
895.165442071609
 20
1478.490471189413
 30
0.0
 11
955.8789046068264
 21
1478.490471189413
 31
0.0
  0
LINE
  5
180B
330
1807
100
AcDbEntity
  8
DIM
  6
Continuous
 62
     0
370
    -2
100
AcDbLine
 10
571.009943766117
 20
1143.490445702229
 30
0.0
 11
955.8789046068264
 21
1143.490445702229
 31
0.0
  0
LINE
  5
180C
330
1807
100
AcDbEntity
  8
DIM
  6
Continuous
 62
     0
370
    -2
100
AcDbLine
 10
955.8789046068264
 20
1469.490471189413
 30
0.0
 11
955.8789046068264
 21
1152.490445702229
 31
0.0
  0
INSERT
  5
180D
330
1807
100
AcDbEntity
  8
DIM
 62
     0
370
    -2
100
AcDbBlockReference
  2
_DOT
 10
955.8789046068264
 20
1478.490471189413
 30
0.0
 41
9.0
 42
9.0
 43
9.0
 50
90.0
  0
INSERT
  5
180E
330
1807
100
AcDbEntity
  8
DIM
 62
     0
370
    -2
100
AcDbBlockReference
  2
_DOT
 10
955.8789046068264
 20
1143.490445702229
 30
0.0
 41
9.0
 42
9.0
 43
9.0
 50
270.0
  0
MTEXT
  5
180F
330
1807
100
AcDbEntity
  8
DIM
  6
Continuous
 62
     0
100
AcDbMText
 10
933.8789046068264
 20
1310.990458445821
 30
0.0
 40
24.0
 41
0.0
 46
0.0
 71
     5
 72
     1
  1
\A1;335
  7
ＭＳ ゴシック
 11
0.0
 21
1.0
 31
0.0
 73
     1
 44
1.0
  0
POINT
  5
1810
330
1807
100
AcDbEntity
  8
Defpoints
 62
     0
100
AcDbPoint
 10
875.165442071609
 20
1478.490471189413
 30
0.0
  0
POINT
  5
1811
330
1807
100
AcDbEntity
  8
Defpoints
 62
     0
100
AcDbPoint
 10
551.009943766117
 20
1143.490445702229
 30
0.0
  0
POINT
  5
1812
330
1807
100
AcDbEntity
  8
Defpoints
 62
     0
100
AcDbPoint
 10
955.8789046068264
 20
1143.490445702229
 30
0.0
  0
ENDBLK
  5
1809
330
1807
100
AcDbEntity
  8
0
100
AcDbBlockEnd
  0
BLOCK
  5
1839
330
1838
100
AcDbEntity
  8
0
100
AcDbBlockBegin
  2
*D65
 70
     1
 10
0.0
 20
0.0
 30
0.0
  3
*D65
  1
*D67
  0
LINE
  5
183B
330
1838
100
AcDbEntity
  8
MODEL
  6
Continuous
 62
     0
370
    -2
100
AcDbLine
 10
546.8921187012609
 20
1082.790161767337
 30
0.0
 11
245.0158659934019
 21
1082.790161767337
 31
0.0
  0
LINE
  5
183C
330
1838
100
AcDbEntity
  8
MODEL
  6
Continuous
 62
     0
370
    -2
100
AcDbLine
 10
351.762304310211
 20
1152.7901872105
 30
0.0
 11
245.0158659934019
 21
1152.7901872105
 31
0.0
  0
LINE
  5
183D
330
1838
100
AcDbEntity
  8
MODEL
  6
Continuous
 62
     0
370
    -2
100
AcDbLine
 10
245.0158659934019
 20
1094.790161767337
 30
0.0
 11
245.0158659934019
 21
1140.7901872105
 31
0.0
  0
INSERT
  5
183E
330
1838
100
AcDbEntity
  8
MODEL
 62
     0
370
    -2
100
AcDbBlockReference
  2
_DOT
 10
245.0158659934019
 20
1082.790161767337
 30
0.0
 41
12.0
 42
12.0
 43
12.0
 50
270.0
  0
INSERT
  5
183F
330
1838
100
AcDbEntity
  8
MODEL
 62
     0
370
    -2
100
AcDbBlockReference
  2
_DOT
 10
245.0158659934019
 20
1152.7901872105
 30
0.0
 41
12.0
 42
12.0
 43
12.0
 50
90.0
  0
MTEXT
  5
1840
330
1838
100
AcDbEntity
  8
MODEL
  6
Continuous
 62
     0
100
AcDbMText
 10
213.0158659934019
 20
1117.790174488919
 30
0.0
 40
24.0
 41
0.0
 46
0.0
 71
     5
 72
     1
  1
\A1;70
  7
ＭＳ ゴシック
 11
0.0
 21
1.0
 31
0.0
 73
     1
 44
1.0
  0
POINT
  5
1841
330
1838
100
AcDbEntity
  8
Defpoints
 62
     0
100
AcDbPoint
 10
566.8921187012609
 20
1082.790161767337
 30
0.0
  0
POINT
  5
1842
330
1838
100
AcDbEntity
  8
Defpoints
 62
     0
100
AcDbPoint
 10
371.762304310211
 20
1152.7901872105
 30
0.0
  0
POINT
  5
1843
330
1838
100
AcDbEntity
  8
Defpoints
 62
     0
100
AcDbPoint
 10
245.0158659934019
 20
1152.7901872105
 30
0.0
  0
ENDBLK
  5
183A
330
1838
100
AcDbEntity
  8
0
100
AcDbBlockEnd
  0
BLOCK
  5
1848
330
1847
100
AcDbEntity
  8
0
100
AcDbBlockBegin
  2
*D66
 70
     1
 10
0.0
 20
0.0
 30
0.0
  3
*D66
  1
*D68
  0
LINE
  5
184A
330
1847
100
AcDbEntity
  8
DIM
  6
Continuous
 62
     0
370
    -2
100
AcDbLine
 10
344.0830810091761
 20
1218.490471189413
 30
0.0
 11
344.0830810091761
 21
1154.705297255277
 31
0.0
  0
LINE
  5
184B
330
1847
100
AcDbEntity
  8
DIM
  6
Continuous
 62
     0
370
    -2
100
AcDbLine
 10
324.0830810091761
 20
1218.490471189413
 30
0.0
 11
324.0830810091761
 21
1154.705297255277
 31
0.0
  0
LINE
  5
184C
330
1847
100
AcDbEntity
  8
DIM
  6
Continuous
 62
     0
370
    -2
100
AcDbLine
 10
344.0830810091761
 20
1154.705297255277
 30
0.0
 11
353.0830810091761
 21
1154.705297255277
 31
0.0
  0
LINE
  5
184D
330
1847
100
AcDbEntity
  8
DIM
  6
Continuous
 62
     0
370
    -2
100
AcDbLine
 10
324.0830810091761
 20
1154.705297255277
 30
0.0
 11
315.0830810091761
 21
1154.705297255277
 31
0.0
  0
INSERT
  5
184E
330
1847
100
AcDbEntity
  8
DIM
 62
     0
370
    -2
100
AcDbBlockReference
  2
_DOT
 10
344.0830810091761
 20
1154.705297255277
 30
0.0
 41
9.0
 42
9.0
 43
9.0
  0
INSERT
  5
184F
330
1847
100
AcDbEntity
  8
DIM
 62
     0
370
    -2
100
AcDbBlockReference
  2
_DOT
 10
324.0830810091761
 20
1154.705297255277
 30
0.0
 41
9.0
 42
9.0
 43
9.0
 50
180.0
  0
MTEXT
  5
1850
330
1847
100
AcDbEntity
  8
DIM
  6
Continuous
 62
     0
100
AcDbMText
 10
369.8166434247664
 20
1176.705297255277
 30
0.0
 40
24.0
 41
0.0
 46
0.0
 71
     5
 72
     1
  1
\A1;20
  7
ＭＳ ゴシック
 73
     1
 44
1.0
  0
POINT
  5
1851
330
1847
100
AcDbEntity
  8
Defpoints
 62
     0
100
AcDbPoint
 10
344.0830810091761
 20
1238.490471189413
 30
0.0
  0
POINT
  5
1A24
330
1847
100
AcDbEntity
  8
Defpoints
 62
     0
100
AcDbPoint
 10
324.0830810091761
 20
1238.490471189413
 30
0.0
  0
POINT
  5
1A25
330
1847
100
AcDbEntity
  8
Defpoints
 62
     0
100
AcDbPoint
 10
324.0830810091761
 20
1154.705297255277
 30
0.0
  0
ENDBLK
  5
1849
330
1847
100
AcDbEntity
  8
0
100
AcDbBlockEnd
  0
BLOCK
  5
185E
330
185D
100
AcDbEntity
  8
0
100
AcDbBlockBegin
  2
*D67
 70
     1
 10
0.0
 20
0.0
 30
0.0
  3
*D67
  1
*D69
  0
LINE
  5
1860
330
185D
100
AcDbEntity
  8
DIM
  6
Continuous
 62
     0
370
    -2
100
AcDbLine
 10
1463.039488082196
 20
1143.490496675779
 30
0.0
 11
1229.537549016148
 21
1143.490496675779
 31
0.0
  0
LINE
  5
1861
330
185D
100
AcDbEntity
  8
DIM
  6
Continuous
 62
     0
370
    -2
100
AcDbLine
 10
1463.039095167954
 20
1288.490496675778
 30
0.0
 11
1229.537549016148
 21
1288.490496675778
 31
0.0
  0
LINE
  5
1862
330
185D
100
AcDbEntity
  8
DIM
  6
Continuous
 62
     0
370
    -2
100
AcDbLine
 10
1229.537549016148
 20
1152.490496675779
 30
0.0
 11
1229.537549016148
 21
1279.490496675778
 31
0.0
  0
INSERT
  5
1863
330
185D
100
AcDbEntity
  8
DIM
 62
     0
370
    -2
100
AcDbBlockReference
  2
_DOT
 10
1229.537549016148
 20
1143.490496675779
 30
0.0
 41
9.0
 42
9.0
 43
9.0
 50
270.0
  0
INSERT
  5
1864
330
185D
100
AcDbEntity
  8
DIM
 62
     0
370
    -2
100
AcDbBlockReference
  2
_DOT
 10
1229.537549016148
 20
1288.490496675778
 30
0.0
 41
9.0
 42
9.0
 43
9.0
 50
90.0
  0
MTEXT
  5
1865
330
185D
100
AcDbEntity
  8
DIM
  6
Continuous
 62
     0
100
AcDbMText
 10
1207.537549016148
 20
1215.990496675779
 30
0.0
 40
24.0
 41
0.0
 46
0.0
 71
     5
 72
     1
  1
\A1;145
  7
ＭＳ ゴシック
 11
0.0
 21
1.0
 31
0.0
 73
     1
 44
1.0
  0
POINT
  5
1866
330
185D
100
AcDbEntity
  8
Defpoints
 62
     0
100
AcDbPoint
 10
1483.039488082196
 20
1143.490496675779
 30
0.0
  0
POINT
  5
1867
330
185D
100
AcDbEntity
  8
Defpoints
 62
     0
100
AcDbPoint
 10
1483.039095167954
 20
1288.490496675778
 30
0.0
  0
POINT
  5
1868
330
185D
100
AcDbEntity
  8
Defpoints
 62
     0
100
AcDbPoint
 10
1229.537549016148
 20
1288.490496675778
 30
0.0
  0
ENDBLK
  5
185F
330
185D
100
AcDbEntity
  8
0
100
AcDbBlockEnd
  0
BLOCK
  5
186D
330
186C
100
AcDbEntity
  8
0
100
AcDbBlockBegin
  2
*D68
 70
     1
 10
0.0
 20
0.0
 30
0.0
  3
*D68
  1
*D70
  0
LINE
  5
186F
330
186C
100
AcDbEntity
  8
DIM
  6
Continuous
 62
     0
370
    -2
100
AcDbLine
 10
1463.039095167954
 20
1288.490496675778
 30
0.0
 11
1229.537549016148
 21
1288.490496675778
 31
0.0
  0
LINE
  5
1870
330
186C
100
AcDbEntity
  8
DIM
  6
Continuous
 62
     0
370
    -2
100
AcDbLine
 10
1463.039095167954
 20
1423.490496675778
 30
0.0
 11
1229.537549016148
 21
1423.490496675778
 31
0.0
  0
LINE
  5
1871
330
186C
100
AcDbEntity
  8
DIM
  6
Continuous
 62
     0
370
    -2
100
AcDbLine
 10
1229.537549016148
 20
1297.490496675778
 30
0.0
 11
1229.537549016148
 21
1414.490496675778
 31
0.0
  0
INSERT
  5
1872
330
186C
100
AcDbEntity
  8
DIM
 62
     0
370
    -2
100
AcDbBlockReference
  2
_DOT
 10
1229.537549016148
 20
1288.490496675778
 30
0.0
 41
9.0
 42
9.0
 43
9.0
 50
270.0
  0
INSERT
  5
1873
330
186C
100
AcDbEntity
  8
DIM
 62
     0
370
    -2
100
AcDbBlockReference
  2
_DOT
 10
1229.537549016148
 20
1423.490496675778
 30
0.0
 41
9.0
 42
9.0
 43
9.0
 50
90.0
  0
MTEXT
  5
1874
330
186C
100
AcDbEntity
  8
DIM
  6
Continuous
 62
     0
100
AcDbMText
 10
1207.537549016148
 20
1355.990496675778
 30
0.0
 40
24.0
 41
0.0
 46
0.0
 71
     5
 72
     1
  1
\A1;135
  7
ＭＳ ゴシック
 11
0.0
 21
1.0
 31
0.0
 73
     1
 44
1.0
  0
POINT
  5
1875
330
186C
100
AcDbEntity
  8
Defpoints
 62
     0
100
AcDbPoint
 10
1483.039095167954
 20
1288.490496675778
 30
0.0
  0
POINT
  5
1876
330
186C
100
AcDbEntity
  8
Defpoints
 62
     0
100
AcDbPoint
 10
1483.039095167954
 20
1423.490496675778
 30
0.0
  0
POINT
  5
1877
330
186C
100
AcDbEntity
  8
Defpoints
 62
     0
100
AcDbPoint
 10
1229.537549016148
 20
1423.490496675778
 30
0.0
  0
ENDBLK
  5
186E
330
186C
100
AcDbEntity
  8
0
100
AcDbBlockEnd
  0
BLOCK
  5
187C
330
187B
100
AcDbEntity
  8
0
100
AcDbBlockBegin
  2
*D69
 70
     1
 10
0.0
 20
0.0
 30
0.0
  3
*D69
  1
*D71
  0
LINE
  5
187E
330
187B
100
AcDbEntity
  8
DIM
  6
Continuous
 62
     0
370
    -2
100
AcDbLine
 10
1463.039095167954
 20
1423.490496675778
 30
0.0
 11
1229.537549016148
 21
1423.490496675778
 31
0.0
  0
LINE
  5
187F
330
187B
100
AcDbEntity
  8
DIM
  6
Continuous
 62
     0
370
    -2
100
AcDbLine
 10
1288.078854753769
 20
1478.490471189413
 30
0.0
 11
1229.537549016148
 21
1478.490471189413
 31
0.0
  0
LINE
  5
1880
330
187B
100
AcDbEntity
  8
DIM
  6
Continuous
 62
     0
370
    -2
100
AcDbLine
 10
1229.537549016148
 20
1432.490496675778
 30
0.0
 11
1229.537549016148
 21
1469.490471189413
 31
0.0
  0
INSERT
  5
1881
330
187B
100
AcDbEntity
  8
DIM
 62
     0
370
    -2
100
AcDbBlockReference
  2
_DOT
 10
1229.537549016148
 20
1423.490496675778
 30
0.0
 41
9.0
 42
9.0
 43
9.0
 50
270.0
  0
INSERT
  5
1882
330
187B
100
AcDbEntity
  8
DIM
 62
     0
370
    -2
100
AcDbBlockReference
  2
_DOT
 10
1229.537549016148
 20
1478.490471189413
 30
0.0
 41
9.0
 42
9.0
 43
9.0
 50
90.0
  0
MTEXT
  5
1883
330
187B
100
AcDbEntity
  8
DIM
  6
Continuous
 62
     0
100
AcDbMText
 10
1207.537549016148
 20
1451.083376970922
 30
0.0
 40
24.0
 41
0.0
 46
0.0
 71
     5
 72
     1
  1
\A1;55
  7
ＭＳ ゴシック
 11
0.0
 21
1.0
 31
0.0
 73
     1
 44
1.0
  0
POINT
  5
1884
330
187B
100
AcDbEntity
  8
Defpoints
 62
     0
100
AcDbPoint
 10
1483.039095167954
 20
1423.490496675778
 30
0.0
  0
POINT
  5
1885
330
187B
100
AcDbEntity
  8
Defpoints
 62
     0
100
AcDbPoint
 10
1308.078854753769
 20
1478.490471189413
 30
0.0
  0
POINT
  5
1886
330
187B
100
AcDbEntity
  8
Defpoints
 62
     0
100
AcDbPoint
 10
1229.537549016148
 20
1478.490471189413
 30
0.0
  0
ENDBLK
  5
187D
330
187B
100
AcDbEntity
  8
0
100
AcDbBlockEnd
  0
BLOCK
  5
188D
330
188C
100
AcDbEntity
  8
0
100
AcDbBlockBegin
  2
*D70
 70
     1
 10
0.0
 20
0.0
 30
0.0
  3
*D70
  1
*D72
  0
LINE
  5
188F
330
188C
100
AcDbEntity
  8
DIM
  6
Continuous
 62
     0
370
    -2
100
AcDbLine
 10
1593.039880998127
 20
1388.490496675778
 30
0.0
 11
1772.577975542707
 21
1388.490496675778
 31
0.0
  0
LINE
  5
1890
330
188C
100
AcDbEntity
  8
DIM
  6
Continuous
 62
     0
370
    -2
100
AcDbLine
 10
1677.99933558214
 20
1478.490471189413
 30
0.0
 11
1772.577975542707
 21
1478.490471189413
 31
0.0
  0
LINE
  5
1891
330
188C
100
AcDbEntity
  8
DIM
  6
Continuous
 62
     0
370
    -2
100
AcDbLine
 10
1772.577975542707
 20
1397.490496675778
 30
0.0
 11
1772.577975542707
 21
1469.490471189413
 31
0.0
  0
INSERT
  5
1892
330
188C
100
AcDbEntity
  8
DIM
 62
     0
370
    -2
100
AcDbBlockReference
  2
_DOT
 10
1772.577975542707
 20
1388.490496675778
 30
0.0
 41
9.0
 42
9.0
 43
9.0
 50
270.0
  0
INSERT
  5
1893
330
188C
100
AcDbEntity
  8
DIM
 62
     0
370
    -2
100
AcDbBlockReference
  2
_DOT
 10
1772.577975542707
 20
1478.490471189413
 30
0.0
 41
9.0
 42
9.0
 43
9.0
 50
90.0
  0
MTEXT
  5
1894
330
188C
100
AcDbEntity
  8
DIM
  6
Continuous
 62
     0
100
AcDbMText
 10
1750.577975542707
 20
1433.490483932595
 30
0.0
 40
24.0
 41
0.0
 46
0.0
 71
     5
 72
     1
  1
\A1;90
  7
ＭＳ ゴシック
 11
0.0
 21
1.0
 31
0.0
 73
     1
 44
1.0
  0
POINT
  5
1895
330
188C
100
AcDbEntity
  8
Defpoints
 62
     0
100
AcDbPoint
 10
1573.039880998127
 20
1388.490496675778
 30
0.0
  0
POINT
  5
1896
330
188C
100
AcDbEntity
  8
Defpoints
 62
     0
100
AcDbPoint
 10
1657.99933558214
 20
1478.490471189413
 30
0.0
  0
POINT
  5
1897
330
188C
100
AcDbEntity
  8
Defpoints
 62
     0
100
AcDbPoint
 10
1772.577975542707
 20
1478.490471189413
 30
0.0
  0
ENDBLK
  5
188E
330
188C
100
AcDbEntity
  8
0
100
AcDbBlockEnd
  0
BLOCK
  5
189C
330
189B
100
AcDbEntity
  8
0
100
AcDbBlockBegin
  2
*D71
 70
     1
 10
0.0
 20
0.0
 30
0.0
  3
*D71
  1
*D73
  0
LINE
  5
189E
330
189B
100
AcDbEntity
  8
DIM
  6
Continuous
 62
     0
370
    -2
100
AcDbLine
 10
6121.444923719451
 20
1750.55435651681
 30
0.0
 11
6310.766060817695
 21
1750.55435651681
 31
0.0
  0
LINE
  5
189F
330
189B
100
AcDbEntity
  8
DIM
  6
Continuous
 62
     0
370
    -2
100
AcDbLine
 10
5946.485076219507
 20
1385.554382003176
 30
0.0
 11
6310.766060817695
 21
1385.554382003176
 31
0.0
  0
LINE
  5
18A0
330
189B
100
AcDbEntity
  8
DIM
  6
Continuous
 62
     0
370
    -2
100
AcDbLine
 10
6310.766060817695
 20
1738.55435651681
 30
0.0
 11
6310.766060817695
 21
1397.554382003176
 31
0.0
  0
INSERT
  5
18A1
330
189B
100
AcDbEntity
  8
DIM
 62
     0
370
    -2
100
AcDbBlockReference
  2
_DOT
 10
6310.766060817695
 20
1750.55435651681
 30
0.0
 41
12.0
 42
12.0
 43
12.0
 50
90.0
  0
INSERT
  5
18A2
330
189B
100
AcDbEntity
  8
DIM
 62
     0
370
    -2
100
AcDbBlockReference
  2
_DOT
 10
6310.766060817695
 20
1385.554382003176
 30
0.0
 41
12.0
 42
12.0
 43
12.0
 50
270.0
  0
MTEXT
  5
18A3
330
189B
100
AcDbEntity
  8
DIM
  6
Continuous
 62
     0
100
AcDbMText
 10
6278.766060817695
 20
1568.054369259993
 30
0.0
 40
24.0
 41
0.0
 46
0.0
 71
     5
 72
     1
  1
\A1;365
  7
ＭＳ ゴシック
 11
0.0
 21
1.0
 31
0.0
 73
     1
 44
1.0
  0
POINT
  5
18A4
330
189B
100
AcDbEntity
  8
Defpoints
 62
     0
100
AcDbPoint
 10
6101.444923719451
 20
1750.55435651681
 30
0.0
  0
POINT
  5
18A5
330
189B
100
AcDbEntity
  8
Defpoints
 62
     0
100
AcDbPoint
 10
5926.485076219507
 20
1385.554382003176
 30
0.0
  0
POINT
  5
18A6
330
189B
100
AcDbEntity
  8
Defpoints
 62
     0
100
AcDbPoint
 10
6310.766060817695
 20
1385.554382003176
 30
0.0
  0
ENDBLK
  5
189D
330
189B
100
AcDbEntity
  8
0
100
AcDbBlockEnd
  0
BLOCK
  5
18AB
330
18AA
100
AcDbEntity
  8
0
100
AcDbBlockBegin
  2
*D72
 70
     1
 10
0.0
 20
0.0
 30
0.0
  3
*D72
  1
*D74
  0
LINE
  5
18AD
330
18AA
100
AcDbEntity
  8
DIM
  6
Continuous
 62
     0
370
    -2
100
AcDbLine
 10
6121.444923719451
 20
1762.683132863943
 30
0.0
 11
6400.608876049708
 21
1762.683132863943
 31
0.0
  0
LINE
  5
18AE
330
18AA
100
AcDbEntity
  8
DIM
  6
Continuous
 62
     0
370
    -2
100
AcDbLine
 10
5946.485076219507
 20
1385.554382003176
 30
0.0
 11
6400.608876049708
 21
1385.554382003176
 31
0.0
  0
LINE
  5
18AF
330
18AA
100
AcDbEntity
  8
DIM
  6
Continuous
 62
     0
370
    -2
100
AcDbLine
 10
6400.608876049708
 20
1750.683132863943
 30
0.0
 11
6400.608876049708
 21
1397.554382003176
 31
0.0
  0
INSERT
  5
18B0
330
18AA
100
AcDbEntity
  8
DIM
 62
     0
370
    -2
100
AcDbBlockReference
  2
_DOT
 10
6400.608876049708
 20
1762.683132863943
 30
0.0
 41
12.0
 42
12.0
 43
12.0
 50
90.0
  0
INSERT
  5
18B1
330
18AA
100
AcDbEntity
  8
DIM
 62
     0
370
    -2
100
AcDbBlockReference
  2
_DOT
 10
6400.608876049708
 20
1385.554382003176
 30
0.0
 41
12.0
 42
12.0
 43
12.0
 50
270.0
  0
MTEXT
  5
18B2
330
18AA
100
AcDbEntity
  8
DIM
  6
Continuous
 62
     0
100
AcDbMText
 10
6368.608876049708
 20
1574.118757433559
 30
0.0
 40
24.0
 41
0.0
 46
0.0
 71
     5
 72
     1
  1
\A1;377
  7
ＭＳ ゴシック
 11
0.0
 21
1.0
 31
0.0
 73
     1
 44
1.0
  0
POINT
  5
18B3
330
18AA
100
AcDbEntity
  8
Defpoints
 62
     0
100
AcDbPoint
 10
6101.444923719451
 20
1762.683132863943
 30
0.0
  0
POINT
  5
18B4
330
18AA
100
AcDbEntity
  8
Defpoints
 62
     0
100
AcDbPoint
 10
5926.485076219507
 20
1385.554382003176
 30
0.0
  0
POINT
  5
18B5
330
18AA
100
AcDbEntity
  8
Defpoints
 62
     0
100
AcDbPoint
 10
6400.608876049708
 20
1385.554382003176
 30
0.0
  0
ENDBLK
  5
18AC
330
18AA
100
AcDbEntity
  8
0
100
AcDbBlockEnd
  0
BLOCK
  5
18BA
330
18B9
100
AcDbEntity
  8
0
100
AcDbBlockBegin
  2
*D73
 70
     1
 10
0.0
 20
0.0
 30
0.0
  3
*D73
  1
*D75
  0
LINE
  5
18BC
330
18B9
100
AcDbEntity
  8
DIM
  6
Continuous
 62
     0
370
    -2
100
AcDbLine
 10
1503.039488082196
 20
1143.490496675779
 30
0.0
 11
1935.697554260573
 21
1143.490496675779
 31
0.0
  0
LINE
  5
18BD
330
18B9
100
AcDbEntity
  8
DIM
  6
Continuous
 62
     0
370
    -2
100
AcDbLine
 10
1677.99933558214
 20
1493.490471189413
 30
0.0
 11
1935.697554260573
 21
1493.490471189413
 31
0.0
  0
LINE
  5
18BE
330
18B9
100
AcDbEntity
  8
DIM
  6
Continuous
 62
     0
370
    -2
100
AcDbLine
 10
1935.697554260573
 20
1152.490496675779
 30
0.0
 11
1935.697554260573
 21
1484.490471189413
 31
0.0
  0
INSERT
  5
18BF
330
18B9
100
AcDbEntity
  8
DIM
 62
     0
370
    -2
100
AcDbBlockReference
  2
_DOT
 10
1935.697554260573
 20
1143.490496675779
 30
0.0
 41
9.0
 42
9.0
 43
9.0
 50
270.0
  0
INSERT
  5
18C0
330
18B9
100
AcDbEntity
  8
DIM
 62
     0
370
    -2
100
AcDbBlockReference
  2
_DOT
 10
1935.697554260573
 20
1493.490471189413
 30
0.0
 41
9.0
 42
9.0
 43
9.0
 50
90.0
  0
MTEXT
  5
18C1
330
18B9
100
AcDbEntity
  8
DIM
  6
Continuous
 62
     0
100
AcDbMText
 10
1913.697554260573
 20
1318.490483932596
 30
0.0
 40
24.0
 41
0.0
 46
0.0
 71
     5
 72
     1
  1
\A1;350
  7
ＭＳ ゴシック
 11
0.0
 21
1.0
 31
0.0
 73
     1
 44
1.0
  0
POINT
  5
18C2
330
18B9
100
AcDbEntity
  8
Defpoints
 62
     0
100
AcDbPoint
 10
1483.039488082196
 20
1143.490496675779
 30
0.0
  0
POINT
  5
18C3
330
18B9
100
AcDbEntity
  8
Defpoints
 62
     0
100
AcDbPoint
 10
1657.99933558214
 20
1493.490471189413
 30
0.0
  0
POINT
  5
18C4
330
18B9
100
AcDbEntity
  8
Defpoints
 62
     0
100
AcDbPoint
 10
1935.697554260573
 20
1493.490471189413
 30
0.0
  0
ENDBLK
  5
18BB
330
18B9
100
AcDbEntity
  8
0
100
AcDbBlockEnd
  0
BLOCK
  5
18C9
330
18C8
100
AcDbEntity
  8
0
100
AcDbBlockBegin
  2
*D74
 70
     1
 10
0.0
 20
0.0
 30
0.0
  3
*D74
  1
*D76
  0
LINE
  5
18CB
330
18C8
100
AcDbEntity
  8
DIM
  6
Continuous
 62
     0
370
    -2
100
AcDbLine
 10
1475.358192606787
 20
1143.490496675779
 30
0.0
 11
1913.974004984955
 21
1143.490496675779
 31
0.0
  0
LINE
  5
18CC
330
18C8
100
AcDbEntity
  8
DIM
  6
Continuous
 62
     0
370
    -2
100
AcDbLine
 10
1650.318040106731
 20
1508.490471189413
 30
0.0
 11
1913.974004984955
 21
1508.490471189413
 31
0.0
  0
LINE
  5
18CD
330
18C8
100
AcDbEntity
  8
DIM
  6
Continuous
 62
     0
370
    -2
100
AcDbLine
 10
1913.974004984955
 20
1152.490496675779
 30
0.0
 11
1913.974004984955
 21
1499.490471189413
 31
0.0
  0
INSERT
  5
18CE
330
18C8
100
AcDbEntity
  8
DIM
 62
     0
370
    -2
100
AcDbBlockReference
  2
_DOT
 10
1913.974004984955
 20
1143.490496675779
 30
0.0
 41
9.0
 42
9.0
 43
9.0
 50
270.0
  0
INSERT
  5
18CF
330
18C8
100
AcDbEntity
  8
DIM
 62
     0
370
    -2
100
AcDbBlockReference
  2
_DOT
 10
1913.974004984955
 20
1508.490471189413
 30
0.0
 41
9.0
 42
9.0
 43
9.0
 50
90.0
  0
MTEXT
  5
18D0
330
18C8
100
AcDbEntity
  8
DIM
  6
Continuous
 62
     0
100
AcDbMText
 10
1881.974004984955
 20
1325.990483932596
 30
0.0
 40
24.0
 41
0.0
 46
0.0
 71
     5
 72
     1
  1
\A1;365
  7
ＭＳ ゴシック
 11
0.0
 21
1.0
 31
0.0
 73
     1
 44
1.0
  0
POINT
  5
18D1
330
18C8
100
AcDbEntity
  8
Defpoints
 62
     0
100
AcDbPoint
 10
1455.358192606787
 20
1143.490496675779
 30
0.0
  0
POINT
  5
18D2
330
18C8
100
AcDbEntity
  8
Defpoints
 62
     0
100
AcDbPoint
 10
1630.318040106731
 20
1508.490471189413
 30
0.0
  0
POINT
  5
18D3
330
18C8
100
AcDbEntity
  8
Defpoints
 62
     0
100
AcDbPoint
 10
1913.974004984955
 20
1508.490471189413
 30
0.0
  0
ENDBLK
  5
18CA
330
18C8
100
AcDbEntity
  8
0
100
AcDbBlockEnd
  0
BLOCK
  5
18D8
330
18D7
100
AcDbEntity
  8
0
100
AcDbBlockBegin
  2
*D75
 70
     1
 10
0.0
 20
0.0
 30
0.0
  3
*D75
  1
*D77
  0
LINE
  5
18DA
330
18D7
100
AcDbEntity
  8
DIM
  6
Continuous
 62
     0
370
    -2
100
AcDbLine
 10
1573.039880998126
 20
1433.056032222088
 30
0.0
 11
1573.039880998126
 21
1585.569988837603
 31
0.0
  0
LINE
  5
18DB
330
18D7
100
AcDbEntity
  8
DIM
  6
Continuous
 62
     0
370
    -2
100
AcDbLine
 10
1393.038309337782
 20
1433.056032222088
 30
0.0
 11
1393.038309337782
 21
1585.569988837603
 31
0.0
  0
LINE
  5
18DC
330
18D7
100
AcDbEntity
  8
DIM
  6
Continuous
 62
     0
370
    -2
100
AcDbLine
 10
1564.039880998126
 20
1585.569988837603
 30
0.0
 11
1402.038309337782
 21
1585.569988837603
 31
0.0
  0
INSERT
  5
18DD
330
18D7
100
AcDbEntity
  8
DIM
 62
     0
370
    -2
100
AcDbBlockReference
  2
_DOT
 10
1573.039880998126
 20
1585.569988837603
 30
0.0
 41
9.0
 42
9.0
 43
9.0
  0
INSERT
  5
18DE
330
18D7
100
AcDbEntity
  8
DIM
 62
     0
370
    -2
100
AcDbBlockReference
  2
_DOT
 10
1393.038309337782
 20
1585.569988837603
 30
0.0
 41
9.0
 42
9.0
 43
9.0
 50
180.0
  0
MTEXT
  5
18DF
330
18D7
100
AcDbEntity
  8
DIM
  6
Continuous
 62
     0
100
AcDbMText
 10
1483.039095167954
 20
1607.569988837603
 30
0.0
 40
24.0
 41
0.0
 46
0.0
 71
     5
 72
     1
  1
\A1;180
  7
ＭＳ ゴシック
 73
     1
 44
1.0
  0
POINT
  5
18E0
330
18D7
100
AcDbEntity
  8
Defpoints
 62
     0
100
AcDbPoint
 10
1573.039880998126
 20
1413.056032222088
 30
0.0
  0
POINT
  5
18E1
330
18D7
100
AcDbEntity
  8
Defpoints
 62
     0
100
AcDbPoint
 10
1393.038309337782
 20
1413.056032222088
 30
0.0
  0
POINT
  5
18E2
330
18D7
100
AcDbEntity
  8
Defpoints
 62
     0
100
AcDbPoint
 10
1393.038309337782
 20
1585.569988837603
 30
0.0
  0
ENDBLK
  5
18D9
330
18D7
100
AcDbEntity
  8
0
100
AcDbBlockEnd
  0
BLOCK
  5
18E8
330
18E7
100
AcDbEntity
  8
0
100
AcDbBlockBegin
  2
*D76
 70
     1
 10
0.0
 20
0.0
 30
0.0
  3
*D76
  1
*D78
  0
LINE
  5
18EA
330
18E7
100
AcDbEntity
  8
DIM
  6
Continuous
 62
     0
370
    -2
100
AcDbLine
 10
344.1392225684153
 20
1518.01797182047
 30
0.0
 11
344.1392225684153
 21
1585.569988837603
 31
0.0
  0
LINE
  5
18EB
330
18E7
100
AcDbEntity
  8
DIM
  6
Continuous
 62
     0
370
    -2
100
AcDbLine
 10
324.0830810091761
 20
1571.793980329037
 30
0.0
 11
324.0830810091761
 21
1585.569988837603
 31
0.0
  0
LINE
  5
18EC
330
18E7
100
AcDbEntity
  8
DIM
  6
Continuous
 62
     0
370
    -2
100
AcDbLine
 10
335.1392225684153
 20
1585.569988837603
 30
0.0
 11
333.0830810091761
 21
1585.569988837603
 31
0.0
  0
INSERT
  5
18ED
330
18E7
100
AcDbEntity
  8
DIM
 62
     0
370
    -2
100
AcDbBlockReference
  2
_DOT
 10
344.1392225684153
 20
1585.569988837603
 30
0.0
 41
9.0
 42
9.0
 43
9.0
  0
INSERT
  5
18EE
330
18E7
100
AcDbEntity
  8
DIM
 62
     0
370
    -2
100
AcDbBlockReference
  2
_DOT
 10
324.0830810091761
 20
1585.569988837603
 30
0.0
 41
9.0
 42
9.0
 43
9.0
 50
180.0
  0
MTEXT
  5
18EF
330
18E7
100
AcDbEntity
  8
DIM
  6
Continuous
 62
     0
100
AcDbMText
 10
334.1111517887962
 20
1607.569988837603
 30
0.0
 40
24.0
 41
0.0
 46
0.0
 71
     5
 72
     1
  1
\A1;20
  7
ＭＳ ゴシック
 73
     1
 44
1.0
  0
POINT
  5
18F0
330
18E7
100
AcDbEntity
  8
Defpoints
 62
     0
100
AcDbPoint
 10
344.1392225684153
 20
1498.01797182047
 30
0.0
  0
POINT
  5
18F1
330
18E7
100
AcDbEntity
  8
Defpoints
 62
     0
100
AcDbPoint
 10
324.0830810091761
 20
1551.793980329037
 30
0.0
  0
POINT
  5
18F2
330
18E7
100
AcDbEntity
  8
Defpoints
 62
     0
100
AcDbPoint
 10
324.0830810091761
 20
1585.569988837603
 30
0.0
  0
ENDBLK
  5
18E9
330
18E7
100
AcDbEntity
  8
0
100
AcDbBlockEnd
  0
BLOCK
  5
1959
330
1958
100
AcDbEntity
  8
0
100
AcDbBlockBegin
  2
*D77
 70
     1
 10
0.0
 20
0.0
 30
0.0
  3
*D77
  1
*D77
  0
LINE
  5
195B
330
1958
100
AcDbEntity
  8
DIM
  6
Continuous
 62
     0
370
    -2
100
AcDbLine
 10
895.165442071609
 20
1508.490471189413
 30
0.0
 11
1036.322715975675
 21
1508.490471189413
 31
0.0
  0
LINE
  5
195C
330
1958
100
AcDbEntity
  8
DIM
  6
Continuous
 62
     0
370
    -2
100
AcDbLine
 10
545.2128953986962
 20
1143.49044570223
 30
0.0
 11
1036.322715975675
 21
1143.49044570223
 31
0.0
  0
LINE
  5
195D
330
1958
100
AcDbEntity
  8
DIM
  6
Continuous
 62
     0
370
    -2
100
AcDbLine
 10
1036.322715975675
 20
1499.490471189413
 30
0.0
 11
1036.322715975675
 21
1152.49044570223
 31
0.0
  0
INSERT
  5
195E
330
1958
100
AcDbEntity
  8
DIM
 62
     0
370
    -2
100
AcDbBlockReference
  2
_DOT
 10
1036.322715975675
 20
1508.490471189413
 30
0.0
 41
9.0
 42
9.0
 43
9.0
 50
90.0
  0
INSERT
  5
195F
330
1958
100
AcDbEntity
  8
DIM
 62
     0
370
    -2
100
AcDbBlockReference
  2
_DOT
 10
1036.322715975675
 20
1143.49044570223
 30
0.0
 41
9.0
 42
9.0
 43
9.0
 50
270.0
  0
MTEXT
  5
1960
330
1958
100
AcDbEntity
  8
DIM
  6
Continuous
 62
     0
100
AcDbMText
 10
1014.322715975675
 20
1325.990458445822
 30
0.0
 40
24.0
 41
0.0
 46
0.0
 71
     5
 72
     1
  1
\A1;365
  7
ＭＳ ゴシック
 11
0.0
 21
1.0
 31
0.0
 73
     1
 44
1.0
  0
POINT
  5
1961
330
1958
100
AcDbEntity
  8
Defpoints
 62
     0
100
AcDbPoint
 10
875.165442071609
 20
1508.490471189413
 30
0.0
  0
POINT
  5
1962
330
1958
100
AcDbEntity
  8
Defpoints
 62
     0
100
AcDbPoint
 10
525.2128953986962
 20
1143.49044570223
 30
0.0
  0
POINT
  5
1963
330
1958
100
AcDbEntity
  8
Defpoints
 62
     0
100
AcDbPoint
 10
1036.322715975675
 20
1143.49044570223
 30
0.0
  0
ENDBLK
  5
195A
330
1958
100
AcDbEntity
  8
0
100
AcDbBlockEnd
  0
BLOCK
  5
1968
330
1967
100
AcDbEntity
  8
0
100
AcDbBlockBegin
  2
*D78
 70
     1
 10
0.0
 20
0.0
 30
0.0
  3
*D78
  1
*D78
  0
LINE
  5
196A
330
1967
100
AcDbEntity
  8
DIM
  6
Continuous
 62
     0
370
    -2
100
AcDbLine
 10
1593.039880998127
 20
1388.490496675778
 30
0.0
 11
1772.577975542707
 21
1388.490496675778
 31
0.0
  0
LINE
  5
196B
330
1967
100
AcDbEntity
  8
DIM
  6
Continuous
 62
     0
370
    -2
100
AcDbLine
 10
1503.039488082196
 20
1143.490496675779
 30
0.0
 11
1772.577975542707
 21
1143.490496675779
 31
0.0
  0
LINE
  5
196C
330
1967
100
AcDbEntity
  8
DIM
  6
Continuous
 62
     0
370
    -2
100
AcDbLine
 10
1772.577975542707
 20
1379.490496675778
 30
0.0
 11
1772.577975542707
 21
1152.490496675779
 31
0.0
  0
INSERT
  5
196D
330
1967
100
AcDbEntity
  8
DIM
 62
     0
370
    -2
100
AcDbBlockReference
  2
_DOT
 10
1772.577975542707
 20
1388.490496675778
 30
0.0
 41
9.0
 42
9.0
 43
9.0
 50
90.0
  0
INSERT
  5
196E
330
1967
100
AcDbEntity
  8
DIM
 62
     0
370
    -2
100
AcDbBlockReference
  2
_DOT
 10
1772.577975542707
 20
1143.490496675779
 30
0.0
 41
9.0
 42
9.0
 43
9.0
 50
270.0
  0
MTEXT
  5
196F
330
1967
100
AcDbEntity
  8
DIM
  6
Continuous
 62
     0
100
AcDbMText
 10
1740.577975542707
 20
1265.990496675779
 30
0.0
 40
24.0
 41
0.0
 46
0.0
 71
     5
 72
     1
  1
\A1;245
  7
ＭＳ ゴシック
 11
0.0
 21
1.0
 31
0.0
 73
     1
 44
1.0
  0
POINT
  5
1970
330
1967
100
AcDbEntity
  8
Defpoints
 62
     0
100
AcDbPoint
 10
1573.039880998127
 20
1388.490496675778
 30
0.0
  0
POINT
  5
1971
330
1967
100
AcDbEntity
  8
Defpoints
 62
     0
100
AcDbPoint
 10
1483.039488082196
 20
1143.490496675779
 30
0.0
  0
POINT
  5
1972
330
1967
100
AcDbEntity
  8
Defpoints
 62
     0
100
AcDbPoint
 10
1772.577975542707
 20
1143.490496675779
 30
0.0
  0
ENDBLK
  5
1969
330
1967
100
AcDbEntity
  8
0
100
AcDbBlockEnd
  0
BLOCK
  5
1977
330
1976
100
AcDbEntity
  8
0
100
AcDbBlockBegin
  2
*D79
 70
     1
 10
0.0
 20
0.0
 30
0.0
  3
*D79
  1
*D79
  0
LINE
  5
1979
330
1976
100
AcDbEntity
  8
DIM
  6
Continuous
 62
     0
370
    -2
100
AcDbLine
 10
1697.99933558214
 20
1478.490471189413
 30
0.0
 11
1713.028764764298
 21
1478.490471189413
 31
0.0
  0
LINE
  5
197A
330
1976
100
AcDbEntity
  8
DIM
  6
Continuous
 62
     0
370
    -2
100
AcDbLine
 10
1503.039488082196
 20
1143.490496675779
 30
0.0
 11
1713.028764764298
 21
1143.490496675779
 31
0.0
  0
LINE
  5
197B
330
1976
100
AcDbEntity
  8
DIM
  6
Continuous
 62
     0
370
    -2
100
AcDbLine
 10
1713.028764764298
 20
1469.490471189413
 30
0.0
 11
1713.028764764298
 21
1152.490496675779
 31
0.0
  0
INSERT
  5
197C
330
1976
100
AcDbEntity
  8
DIM
 62
     0
370
    -2
100
AcDbBlockReference
  2
_DOT
 10
1713.028764764298
 20
1478.490471189413
 30
0.0
 41
9.0
 42
9.0
 43
9.0
 50
90.0
  0
INSERT
  5
197D
330
1976
100
AcDbEntity
  8
DIM
 62
     0
370
    -2
100
AcDbBlockReference
  2
_DOT
 10
1713.028764764298
 20
1143.490496675779
 30
0.0
 41
9.0
 42
9.0
 43
9.0
 50
270.0
  0
MTEXT
  5
197E
330
1976
100
AcDbEntity
  8
DIM
  6
Continuous
 62
     0
100
AcDbMText
 10
1681.028764764298
 20
1310.990483932596
 30
0.0
 40
24.0
 41
0.0
 46
0.0
 71
     5
 72
     1
  1
\A1;335
  7
ＭＳ ゴシック
 11
0.0
 21
1.0
 31
0.0
 73
     1
 44
1.0
  0
POINT
  5
197F
330
1976
100
AcDbEntity
  8
Defpoints
 62
     0
100
AcDbPoint
 10
1677.99933558214
 20
1478.490471189413
 30
0.0
  0
POINT
  5
1980
330
1976
100
AcDbEntity
  8
Defpoints
 62
     0
100
AcDbPoint
 10
1483.039488082196
 20
1143.490496675779
 30
0.0
  0
POINT
  5
1981
330
1976
100
AcDbEntity
  8
Defpoints
 62
     0
100
AcDbPoint
 10
1713.028764764298
 20
1143.490496675779
 30
0.0
  0
ENDBLK
  5
1978
330
1976
100
AcDbEntity
  8
0
100
AcDbBlockEnd
  0
BLOCK
  5
1986
330
1985
100
AcDbEntity
  8
0
100
AcDbBlockBegin
  2
*D80
 70
     1
 10
0.0
 20
0.0
 30
0.0
  3
*D80
  1
*D80
  0
LINE
  5
1988
330
1985
100
AcDbEntity
  8
DIM
  6
Continuous
 62
     0
370
    -2
100
AcDbLine
 10
1593.039880998127
 20
1388.490496675778
 30
0.0
 11
1772.577975542707
 21
1388.490496675778
 31
0.0
  0
LINE
  5
1989
330
1985
100
AcDbEntity
  8
DIM
  6
Continuous
 62
     0
370
    -2
100
AcDbLine
 10
1503.039488082196
 20
1143.490496675779
 30
0.0
 11
1772.577975542707
 21
1143.490496675779
 31
0.0
  0
LINE
  5
198A
330
1985
100
AcDbEntity
  8
DIM
  6
Continuous
 62
     0
370
    -2
100
AcDbLine
 10
1772.577975542707
 20
1379.490496675778
 30
0.0
 11
1772.577975542707
 21
1152.490496675779
 31
0.0
  0
INSERT
  5
198B
330
1985
100
AcDbEntity
  8
DIM
 62
     0
370
    -2
100
AcDbBlockReference
  2
_DOT
 10
1772.577975542707
 20
1388.490496675778
 30
0.0
 41
9.0
 42
9.0
 43
9.0
 50
90.0
  0
INSERT
  5
198C
330
1985
100
AcDbEntity
  8
DIM
 62
     0
370
    -2
100
AcDbBlockReference
  2
_DOT
 10
1772.577975542707
 20
1143.490496675779
 30
0.0
 41
9.0
 42
9.0
 43
9.0
 50
270.0
  0
MTEXT
  5
198D
330
1985
100
AcDbEntity
  8
DIM
  6
Continuous
 62
     0
100
AcDbMText
 10
1740.577975542707
 20
1265.990496675779
 30
0.0
 40
24.0
 41
0.0
 46
0.0
 71
     5
 72
     1
  1
\A1;245
  7
ＭＳ ゴシック
 11
0.0
 21
1.0
 31
0.0
 73
     1
 44
1.0
  0
POINT
  5
198E
330
1985
100
AcDbEntity
  8
Defpoints
 62
     0
100
AcDbPoint
 10
1573.039880998127
 20
1388.490496675778
 30
0.0
  0
POINT
  5
198F
330
1985
100
AcDbEntity
  8
Defpoints
 62
     0
100
AcDbPoint
 10
1483.039488082196
 20
1143.490496675779
 30
0.0
  0
POINT
  5
1990
330
1985
100
AcDbEntity
  8
Defpoints
 62
     0
100
AcDbPoint
 10
1772.577975542707
 20
1143.490496675779
 30
0.0
  0
ENDBLK
  5
1987
330
1985
100
AcDbEntity
  8
0
100
AcDbBlockEnd
  0
BLOCK
  5
1995
330
1994
100
AcDbEntity
  8
0
100
AcDbBlockBegin
  2
*D81
 70
     1
 10
0.0
 20
0.0
 30
0.0
  3
*D81
  1
*D81
  0
LINE
  5
1997
330
1994
100
AcDbEntity
  8
DIM
  6
Continuous
 62
     0
370
    -2
100
AcDbLine
 10
1593.039880998127
 20
1388.490496675778
 30
0.0
 11
1772.577975542707
 21
1388.490496675778
 31
0.0
  0
LINE
  5
1998
330
1994
100
AcDbEntity
  8
DIM
  6
Continuous
 62
     0
370
    -2
100
AcDbLine
 10
1503.039488082196
 20
1143.490496675779
 30
0.0
 11
1772.577975542707
 21
1143.490496675779
 31
0.0
  0
LINE
  5
1999
330
1994
100
AcDbEntity
  8
DIM
  6
Continuous
 62
     0
370
    -2
100
AcDbLine
 10
1772.577975542707
 20
1379.490496675778
 30
0.0
 11
1772.577975542707
 21
1152.490496675779
 31
0.0
  0
INSERT
  5
199A
330
1994
100
AcDbEntity
  8
DIM
 62
     0
370
    -2
100
AcDbBlockReference
  2
_DOT
 10
1772.577975542707
 20
1388.490496675778
 30
0.0
 41
9.0
 42
9.0
 43
9.0
 50
90.0
  0
INSERT
  5
199B
330
1994
100
AcDbEntity
  8
DIM
 62
     0
370
    -2
100
AcDbBlockReference
  2
_DOT
 10
1772.577975542707
 20
1143.490496675779
 30
0.0
 41
9.0
 42
9.0
 43
9.0
 50
270.0
  0
MTEXT
  5
199C
330
1994
100
AcDbEntity
  8
DIM
  6
Continuous
 62
     0
100
AcDbMText
 10
1750.577975542707
 20
1265.990496675779
 30
0.0
 40
24.0
 41
0.0
 46
0.0
 71
     5
 72
     1
  1
\A1;245
  7
ＭＳ ゴシック
 11
0.0
 21
1.0
 31
0.0
 73
     1
 44
1.0
  0
POINT
  5
199D
330
1994
100
AcDbEntity
  8
Defpoints
 62
     0
100
AcDbPoint
 10
1573.039880998127
 20
1388.490496675778
 30
0.0
  0
POINT
  5
199E
330
1994
100
AcDbEntity
  8
Defpoints
 62
     0
100
AcDbPoint
 10
1483.039488082196
 20
1143.490496675779
 30
0.0
  0
POINT
  5
199F
330
1994
100
AcDbEntity
  8
Defpoints
 62
     0
100
AcDbPoint
 10
1772.577975542707
 20
1143.490496675779
 30
0.0
  0
ENDBLK
  5
1996
330
1994
100
AcDbEntity
  8
0
100
AcDbBlockEnd
  0
BLOCK
  5
19A4
330
19A3
100
AcDbEntity
  8
0
100
AcDbBlockBegin
  2
*D82
 70
     1
 10
0.0
 20
0.0
 30
0.0
  3
*D82
  1
*D82
  0
LINE
  5
19A6
330
19A3
100
AcDbEntity
  8
DIM
  6
Continuous
 62
     0
370
    -2
100
AcDbLine
 10
1677.99933558214
 20
1493.490471189413
 30
0.0
 11
1772.577975542707
 21
1493.490471189413
 31
0.0
  0
LINE
  5
19A7
330
19A3
100
AcDbEntity
  8
DIM
  6
Continuous
 62
     0
370
    -2
100
AcDbLine
 10
1677.99933558214
 20
1478.490471189413
 30
0.0
 11
1772.577975542707
 21
1478.490471189413
 31
0.0
  0
INSERT
  5
19A8
330
19A3
100
AcDbEntity
  8
DIM
 62
     0
370
    -2
100
AcDbBlockReference
  2
_DOT
 10
1772.577975542707
 20
1493.490471189413
 30
0.0
 41
9.0
 42
9.0
 43
9.0
 50
90.0
  0
INSERT
  5
19A9
330
19A3
100
AcDbEntity
  8
DIM
 62
     0
370
    -2
100
AcDbBlockReference
  2
_DOT
 10
1772.577975542707
 20
1478.490471189413
 30
0.0
 41
9.0
 42
9.0
 43
9.0
 50
270.0
  0
MTEXT
  5
19AA
330
19A3
100
AcDbEntity
  8
DIM
  6
Continuous
 62
     0
100
AcDbMText
 10
1740.577975542707
 20
1522.042945601537
 30
0.0
 40
24.0
 41
0.0
 46
0.0
 71
     5
 72
     1
  1
\A1;15
  7
ＭＳ ゴシック
 11
0.0
 21
1.0
 31
0.0
 73
     1
 44
1.0
  0
POINT
  5
19AB
330
19A3
100
AcDbEntity
  8
Defpoints
 62
     0
100
AcDbPoint
 10
1657.99933558214
 20
1493.490471189413
 30
0.0
  0
POINT
  5
19AC
330
19A3
100
AcDbEntity
  8
Defpoints
 62
     0
100
AcDbPoint
 10
1657.99933558214
 20
1478.490471189413
 30
0.0
  0
POINT
  5
19AD
330
19A3
100
AcDbEntity
  8
Defpoints
 62
     0
100
AcDbPoint
 10
1772.577975542707
 20
1478.490471189413
 30
0.0
  0
ENDBLK
  5
19A5
330
19A3
100
AcDbEntity
  8
0
100
AcDbBlockEnd
  0
BLOCK
  5
1A06
330
1A05
100
AcDbEntity
  8
0
100
AcDbBlockBegin
  2
*D83
 70
     1
 10
0.0
 20
0.0
 30
0.0
  3
*D83
  1

  0
LINE
  5
1A08
330
1A05
100
AcDbEntity
  8
MODEL
  6
Continuous
 62
     0
370
    -2
100
AcDbLine
 10
1755.773696942787
 20
1388.490496675778
 30
0.0
 11
1840.052918201565
 21
1388.490496675778
 31
0.0
  0
LINE
  5
1A09
330
1A05
100
AcDbEntity
  8
MODEL
  6
Continuous
 62
     0
370
    -2
100
AcDbLine
 10
1783.670049126664
 20
1493.490471189413
 30
0.0
 11
1840.052918201565
 21
1493.490471189413
 31
0.0
  0
LINE
  5
1A0A
330
1A05
100
AcDbEntity
  8
MODEL
  6
Continuous
 62
     0
370
    -2
100
AcDbLine
 10
1840.052918201565
 20
1397.490496675778
 30
0.0
 11
1840.052918201565
 21
1484.490471189413
 31
0.0
  0
INSERT
  5
1A0B
330
1A05
100
AcDbEntity
  8
MODEL
 62
     0
370
    -2
100
AcDbBlockReference
  2
_DOT
 10
1840.052918201565
 20
1388.490496675778
 30
0.0
 41
9.0
 42
9.0
 43
9.0
 50
270.0
  0
INSERT
  5
1A0C
330
1A05
100
AcDbEntity
  8
MODEL
 62
     0
370
    -2
100
AcDbBlockReference
  2
_DOT
 10
1840.052918201565
 20
1493.490471189413
 30
0.0
 41
9.0
 42
9.0
 43
9.0
 50
90.0
  0
MTEXT
  5
1A0D
330
1A05
100
AcDbEntity
  8
MODEL
  6
Continuous
 62
     0
100
AcDbMText
 10
1818.052918201565
 20
1440.990483932595
 30
0.0
 40
24.0
 41
0.0
 46
0.0
 71
     5
 72
     1
  1
\A1;105
  7
ＭＳ ゴシック
 11
0.0
 21
1.0
 31
0.0
 73
     1
 44
1.0
  0
POINT
  5
1A0E
330
1A05
100
AcDbEntity
  8
Defpoints
 62
     0
100
AcDbPoint
 10
1735.773696942787
 20
1388.490496675778
 30
0.0
  0
POINT
  5
1A0F
330
1A05
100
AcDbEntity
  8
Defpoints
 62
     0
100
AcDbPoint
 10
1763.670049126664
 20
1493.490471189413
 30
0.0
  0
POINT
  5
1A10
330
1A05
100
AcDbEntity
  8
Defpoints
 62
     0
100
AcDbPoint
 10
1840.052918201565
 20
1493.490471189413
 30
0.0
  0
ENDBLK
  5
1A07
330
1A05
100
AcDbEntity
  8
0
100
AcDbBlockEnd
  0
ENDSEC
  0
SECTION
  2
ENTITIES
  0
MTEXT
  5
177
330
A
100
AcDbEntity
  8
TEMPLATE
390
1D
100
AcDbMText
 10
79.20214454773075
 20
343.7317516314282
 30
0.0
 40
16.28841145833333
 41
0.0
 46
0.0
 71
     1
 72
     1
  1
品名
  7
ＭＳ ゴシック
 73
     1
 44
0.7828267384257843
  0
MTEXT
  5
178
330
A
100
AcDbEntity
  8
TEMPLATE
390
1D
100
AcDbMText
 10
79.20214454773075
 20
258.731751631428
 30
0.0
 40
16.28841145833333
 41
0.0
 46
0.0
 71
     1
 72
     1
  1
仕様
  7
ＭＳ ゴシック
 73
     1
 44
0.7828267384257843
  0
LINE
  5
179
330
A
100
AcDbEntity
  8
TEMPLATE
390
1D
100
AcDbLine
 10
2022.202144547248
 20
267.1466735064284
 30
0.0
 11
72.20214454724874
 21
267.1466735064284
 31
0.0
  0
LWPOLYLINE
  5
17A
330
A
100
AcDbEntity
  8
TEMPLATE
390
1D
100
AcDbPolyline
 90
        5
 70
   128
 43
0.0
 10
2022.202144547248
 20
2897.146673506426
 10
72.20214454724874
 20
2897.146673506426
 10
72.20214454724874
 20
97.14667350642826
 10
2022.202144547248
 20
97.14667350642826
 10
2022.202144547248
 20
2897.146673506426
  0
LINE
  5
17B
330
A
100
AcDbEntity
  8
TEMPLATE
390
1D
100
AcDbLine
 10
2022.202144547248
 20
352.1466735064282
 30
0.0
 11
72.20214454724874
 21
352.1466735064282
 31
0.0
  0
LINE
  5
17C
330
A
100
AcDbEntity
  8
TEMPLATE
390
1D
100
AcDbLine
 10
2022.202144547732
 20
182.1466735064282
 30
0.0
 11
1269.20214454773
 21
182.1466735064282
 31
0.0
  0
MTEXT
  5
17D
330
A
100
AcDbEntity
  8
TEMPLATE
390
1D
100
AcDbMText
 10
72.2021445479345
 20
85.29285144957115
 30
0.0
 40
21.71788194444444
 41
0.0
 46
21.71788194444444
 71
     1
 72
     1
  1
{150430NO}
  7
ＭＳ ゴシック
 73
     1
 44
0.7828267384257843
1001
ACAD
1000
ACAD_MTEXT_DEFINED_HEIGHT_BEGIN
1070
    46
1040
21.71788194444444
1000
ACAD_MTEXT_DEFINED_HEIGHT_END
  0
MTEXT
  5
17E
330
A
100
AcDbEntity
  8
TEMPLATE
390
1D
100
AcDbMText
 10
1299.073550799991
 20
152.2362790331201
 30
0.0
 40
24.4326171875
 41
0.0
 46
0.0
 71
     1
 72
     1
  1
大洋金物株式会社 ティーフォルム事業部
  7
ＭＳ ゴシック
 73
     1
 44
0.7828267384257843
  0
MTEXT
  5
180
330
A
100
AcDbEntity
  8
TEMPLATE
390
1D
100
AcDbMText
 10
1831.20214454799
 20
230.1492906939282
 30
0.0
 40
24.4326171875
 41
0.0
 46
24.4326171875
 71
     1
 72
     1
  1
{1:10}
  7
ＭＳ ゴシック
 73
     1
 44
0.7828267384257843
1001
ACAD
1000
ACAD_MTEXT_DEFINED_HEIGHT_BEGIN
1070
    46
1040
24.4326171875
1000
ACAD_MTEXT_DEFINED_HEIGHT_END
  0
MTEXT
  5
181
330
A
100
AcDbEntity
  8
TEMPLATE
390
1D
100
AcDbMText
 10
1778.20214454799
 20
258.731751631428
 30
0.0
 40
16.28841145833333
 41
0.0
 46
0.0
 71
     1
 72
     1
  1
縮尺
  7
ＭＳ ゴシック
 73
     1
 44
0.7828267384257843
  0
LINE
  5
182
330
A
100
AcDbEntity
  8
TEMPLATE
390
1D
100
AcDbLine
 10
1771.20214454799
 20
182.1466735064282
 30
0.0
 11
1771.20214454799
 21
267.1466735064284
 31
0.0
  0
MTEXT
  5
183
330
A
100
AcDbEntity
  8
TEMPLATE
390
1D
100
AcDbMText
 10
1527.20214454799
 20
258.731751631428
 30
0.0
 40
16.28841145833333
 41
0.0
 46
0.0
 71
     1
 72
     1
  1
容量
  7
ＭＳ ゴシック
 73
     1
 44
0.7828267384257843
  0
LINE
  5
184
330
A
100
AcDbEntity
  8
TEMPLATE
390
1D
100
AcDbLine
 10
1520.20214454799
 20
182.1466735064282
 30
0.0
 11
1520.20214454799
 21
267.1466735064284
 31
0.0
  0
MTEXT
  5
185
330
A
100
AcDbEntity
  8
TEMPLATE
390
1D
100
AcDbMText
 10
1276.20214454799
 20
343.7317516314282
 30
0.0
 40
16.28841145833333
 41
0.0
 46
0.0
 71
     1
 72
     1
  1
品番
  7
ＭＳ ゴシック
 73
     1
 44
0.7828267384257843
  0
MTEXT
  5
186
330
A
100
AcDbEntity
  8
TEMPLATE
390
1D
100
AcDbMText
 10
1276.20214454799
 20
258.731751631428
 30
0.0
 40
16.28841145833333
 41
0.0
 46
0.0
 71
     1
 72
     1
  1
重量
  7
ＭＳ ゴシック
 73
     1
 44
0.7828267384257843
  0
MTEXT
  5
187
330
A
100
AcDbEntity
  8
TEMPLATE
390
1D
100
AcDbMText
 10
1329.20214454799
 20
315.1492906939282
 30
0.0
 40
24.4326171875
 41
0.0
 46
24.4326171875
 71
     1
 72
     1
  1
{ADF71-0412}
  7
ＭＳ ゴシック
 73
     1
 44
0.7828267384257843
1001
ACAD
1000
ACAD_MTEXT_DEFINED_HEIGHT_BEGIN
1070
    46
1040
24.4326171875
1000
ACAD_MTEXT_DEFINED_HEIGHT_END
  0
LINE
  5
188
330
A
100
AcDbEntity
  8
TEMPLATE
390
1D
100
AcDbLine
 10
1269.20214454799
 20
97.14667350642826
 30
0.0
 11
1269.20214454799
 21
352.1466735064282
 31
0.0
  0
MTEXT
  5
189
330
A
100
AcDbEntity
  8
TEMPLATE
390
1D
100
AcDbMText
 10
132.2021445477307
 20
315.1492906939282
 30
0.0
 40
24.4326171875
 41
0.0
 46
24.4326171875
 71
     1
 72
     1
  1
{壁掛便器　- CATALANO, Velis -}
  7
ＭＳ ゴシック
 73
     1
 44
0.7828267384257843
1001
ACAD
1000
ACAD_MTEXT_DEFINED_HEIGHT_BEGIN
1070
    46
1040
24.4326171875
1000
ACAD_MTEXT_DEFINED_HEIGHT_END
  0
INSERT
  5
6B5
330
A
100
AcDbEntity
  8
TEMPLATE
100
AcDbBlockReference
  2
名称未設定-1
 10
1870.75074808845
 20
25.94676575665382
 30
0.0
 41
0.7619999999999998
 42
0.7619999999999998
 43
0.7619999999999998
  0
MTEXT
  5
7D9
330
A
100
AcDbEntity
  8
TEMPLATE
390
1D
100
AcDbMText
 10
125.2543452760364
 20
226.8119760293952
 30
0.0
 40
24.4326171875
 41
0.0
 46
24.4326171875
 71
     1
 72
     1
  1
{ウォッシュダウン式/ソフトクローズ便座付属/}
  7
ＭＳ ゴシック
 73
     1
 44
0.7828267384257843
1001
ACAD
1000
ACAD_MTEXT_DEFINED_HEIGHT_BEGIN
1070
    46
1040
24.4326171875
1000
ACAD_MTEXT_DEFINED_HEIGHT_END
  0
INSERT
  5
68C
330
A
100
AcDbEntity
  8
TEMPLATE
100
AcDbBlockReference
  2
block 2
 10
919.2743017702577
 20
8.373076514336368
 30
0.0
 41
0.3809999999999999
 42
0.3809999999999999
 43
0.3809999999999999
  0
LINE
  5
F35
330
A
100
AcDbEntity
  8
MODEL
100
AcDbLine
 10
505.0952017030218
 20
2202.424086770328
 30
0.0
 11
505.0952017030218
 21
2147.424086770328
 31
0.0
  0
LINE
  5
F36
330
A
100
AcDbEntity
  8
MODEL
100
AcDbLine
 10
525.0952017030218
 20
2222.424086770329
 30
0.0
 11
567.5952017065615
 21
2222.424086770329
 31
0.0
  0
LINE
  5
F37
330
A
100
AcDbEntity
  8
MODEL
100
AcDbLine
 10
567.5952017065615
 20
2127.424086770328
 30
0.0
 11
525.0952017030218
 21
2127.424086770328
 31
0.0
  0
ARC
  5
F38
330
A
100
AcDbEntity
  8
MODEL
100
AcDbCircle
 10
525.0952017030218
 20
2202.424086770328
 30
0.0
 40
20.0
100
AcDbArc
 50
89.99999999708183
 51
179.9999999946405
  0
ARC
  5
F39
330
A
100
AcDbEntity
  8
MODEL
100
AcDbCircle
 10
525.0952017030218
 20
2147.424086770328
 30
0.0
 40
20.0
100
AcDbArc
 50
179.9999999946405
 51
269.9999999918708
  0
ARC
  5
F3A
330
A
100
AcDbEntity
  8
MODEL
100
AcDbCircle
 10
567.5952017065615
 20
2174.924086770328
 30
0.0
 40
47.49999999999977
100
AcDbArc
 50
270.0000000026066
 51
89.99999999708183
  0
CIRCLE
  5
F3B
330
A
100
AcDbEntity
  8
MODEL
100
AcDbCircle
 10
432.0830810062002
 20
2284.924086771602
 30
0.0
 40
7.75
  0
CIRCLE
  5
F3C
330
A
100
AcDbEntity
  8
MODEL
100
AcDbCircle
 10
432.0830810062002
 20
2064.924086771603
 30
0.0
 40
7.75
  0
LINE
  5
F3D
102
{ACAD_REACTORS
330
1389
102
}
330
A
100
AcDbEntity
  8
MODEL
100
AcDbLine
 10
692.0830810062002
 20
2349.924086770329
 30
0.0
 11
322.0830810062002
 21
2349.924086770329
 31
0.0
  0
ARC
  5
F3E
330
A
100
AcDbEntity
  8
MODEL
100
AcDbCircle
 10
322.0830810062002
 20
2344.924086770329
 30
0.0
 40
5.0
100
AcDbArc
 50
89.99999999729027
 51
179.9999999946431
  0
LINE
  5
F3F
102
{ACAD_REACTORS
330
137A
102
}
330
A
100
AcDbEntity
  8
MODEL
100
AcDbLine
 10
317.0830810062002
 20
2344.924086770329
 30
0.0
 11
317.0830810062002
 21
2004.924086770328
 31
0.0
  0
ARC
  5
F40
330
A
100
AcDbEntity
  8
MODEL
100
AcDbCircle
 10
322.0830810062002
 20
2004.924086770328
 30
0.0
 40
5.0
100
AcDbArc
 50
179.9999999946431
 51
269.9999999916623
  0
LINE
  5
F41
102
{ACAD_REACTORS
330
1389
102
}
330
A
100
AcDbEntity
  8
MODEL
100
AcDbLine
 10
322.0830810062002
 20
1999.924086770328
 30
0.0
 11
692.0830810062002
 21
1999.924086770328
 31
0.0
  0
ARC
  5
F42
330
A
100
AcDbEntity
  8
MODEL
100
AcDbCircle
 10
692.0830810062002
 20
2174.924086771602
 30
0.0
 40
175.0
100
AcDbArc
 50
270.0000000023971
 51
89.99999999645651
  0
SPLINE
  5
F43
330
A
100
AcDbEntity
  8
MODEL
100
AcDbSpline
210
0.0
220
0.0
230
1.0
 70
     8
 71
     7
 72
    31
 73
    23
 74
     0
 42
0.000000001
 43
0.0000000001
 40
0.0
 40
0.0
 40
0.0
 40
0.0
 40
0.0
 40
0.0
 40
0.0
 40
0.0
 40
0.2299999999999999
 40
0.2299999999999999
 40
0.2299999999999999
 40
0.2299999999999999
 40
0.2299999999999999
 40
0.4999999999904
 40
0.4999999999904
 40
0.4999999999904
 40
0.4999999999904
 40
0.4999999999904
 40
0.77
 40
0.77
 40
0.77
 40
0.77
 40
0.77
 40
1.0
 40
1.0
 40
1.0
 40
1.0
 40
1.0
 40
1.0
 40
1.0
 40
1.0
 10
590.9808375219313
 20
2280.406176149263
 30
0.0
 10
580.1277560031344
 20
2280.406176149263
 30
0.0
 10
569.2746744843357
 20
2279.094928113356
 30
0.0
 10
558.6104730363445
 20
2276.472433336392
 30
0.0
 10
548.3240351056634
 20
2272.572913864041
 30
0.0
 10
538.5960162790948
 20
2267.464854988385
 30
0.0
 10
519.0191499707912
 20
2253.949740046858
 30
0.0
 10
503.5270762606056
 20
2235.786320160045
 30
0.0
 10
496.5815409221163
 20
2224.825364737485
 30
0.0
 10
491.2429221013249
 20
2212.963138695726
 30
0.0
 10
487.6406871151835
 20
2200.487819205773
 30
0.0
 10
484.0384521289566
 20
2174.924086776876
 30
0.0
 10
487.6406871154363
 20
2149.360354348322
 30
0.0
 10
491.2429221020034
 20
2136.885034857869
 30
0.0
 10
496.5815409232805
 20
2125.022808815856
 30
0.0
 10
503.5270762622426
 20
2114.061853393229
 30
0.0
 10
519.0191499727903
 20
2095.898433507093
 30
0.0
 10
538.596016281183
 20
2082.383318566273
 30
0.0
 10
548.3240351073587
 20
2077.27525969107
 30
0.0
 10
558.6104730376105
 20
2073.375740219042
 30
0.0
 10
569.2746744851688
 20
2070.75324544228
 30
0.0
 10
580.127756003551
 20
2069.441997406474
 30
0.0
 10
590.9808375219313
 20
2069.441997406474
 30
0.0
  0
LINE
  5
F44
330
A
100
AcDbEntity
  8
MODEL
100
AcDbLine
 10
590.9808375219295
 20
2069.441997406474
 30
0.0
 11
690.957923343673
 21
2069.441997406474
 31
0.0
  0
SPLINE
  5
F45
330
A
100
AcDbEntity
  8
MODEL
100
AcDbSpline
210
0.0
220
0.0
230
1.0
 70
     8
 71
     7
 72
    31
 73
    23
 74
     0
 42
0.000000001
 43
0.0000000001
 40
0.0
 40
0.0
 40
0.0
 40
0.0
 40
0.0
 40
0.0
 40
0.0
 40
0.0
 40
0.2299999999999999
 40
0.2299999999999999
 40
0.2299999999999999
 40
0.2299999999999999
 40
0.2299999999999999
 40
0.4999999999905738
 40
0.4999999999905738
 40
0.4999999999905738
 40
0.4999999999905738
 40
0.4999999999905738
 40
0.77
 40
0.77
 40
0.77
 40
0.77
 40
0.77
 40
1.0
 40
1.0
 40
1.0
 40
1.0
 40
1.0
 40
1.0
 40
1.0
 40
1.0
 10
690.9579233436712
 20
2280.406176149263
 30
0.0
 10
701.8110048624644
 20
2280.406176149263
 30
0.0
 10
712.6640863812595
 20
2279.094928113358
 30
0.0
 10
723.3282878292453
 20
2276.472433336394
 30
0.0
 10
733.6147257599246
 20
2272.572913864047
 30
0.0
 10
743.3427445864913
 20
2267.464854988395
 30
0.0
 10
762.9196108947931
 20
2253.949740046875
 30
0.0
 10
778.4116846049824
 20
2235.786320160069
 30
0.0
 10
785.3572199434752
 20
2224.825364737507
 30
0.0
 10
790.6958387642721
 20
2212.963138695746
 30
0.0
 10
794.298073750419
 20
2200.487819205788
 30
0.0
 10
797.9003087366477
 20
2174.924086776894
 30
0.0
 10
794.298073750168
 20
2149.360354348337
 30
0.0
 10
790.6958387636064
 20
2136.885034857888
 30
0.0
 10
785.3572199423329
 20
2125.022808815877
 30
0.0
 10
778.4116846033762
 20
2114.061853393251
 30
0.0
 10
762.9196108928322
 20
2095.898433507109
 30
0.0
 10
743.3427445844377
 20
2082.383318566282
 30
0.0
 10
733.6147257582584
 20
2077.275259691077
 30
0.0
 10
723.3282878280047
 20
2073.375740219046
 30
0.0
 10
712.6640863804391
 20
2070.753245442281
 30
0.0
 10
701.8110048620551
 20
2069.441997406474
 30
0.0
 10
690.9579233436712
 20
2069.441997406474
 30
0.0
  0
LINE
  5
F46
330
A
100
AcDbEntity
  8
MODEL
100
AcDbLine
 10
590.9808375219295
 20
2280.406176149263
 30
0.0
 11
690.957923343673
 21
2280.406176149263
 31
0.0
  0
ARC
  5
F47
330
A
100
AcDbEntity
  8
MODEL
100
AcDbCircle
 10
592.0830810062002
 20
2174.924086770328
 30
0.0
 40
125.0000000000002
100
AcDbArc
 50
89.99999999973903
 51
269.9999999988536
  0
ARC
  5
F48
330
A
100
AcDbEntity
  8
MODEL
100
AcDbCircle
 10
692.0830810062002
 20
2174.924086771602
 30
0.0
 40
125.0
100
AcDbArc
 50
270.0000000023971
 51
89.99999999645651
  0
LINE
  5
F49
330
A
100
AcDbEntity
  8
MODEL
100
AcDbLine
 10
692.0830810062002
 20
2049.924086770328
 30
0.0
 11
592.0830810062002
 21
2049.924086770328
 31
0.0
  0
LINE
  5
F4A
330
A
100
AcDbEntity
  8
MODEL
100
AcDbLine
 10
592.0830810062002
 20
2299.924086770329
 30
0.0
 11
692.0830810062002
 21
2299.924086770329
 31
0.0
  0
ARC
  5
F4B
102
{ACAD_REACTORS
330
185C
102
}
330
A
100
AcDbEntity
  8
MODEL
  6
STYLE_12
100
AcDbCircle
 10
1483.039095167954
 20
1288.490496675778
 30
0.0
 40
50.0
100
AcDbArc
 50
89.99999999734237
 51
269.9999999925482
  0
ARC
  5
F4C
102
{ACAD_REACTORS
330
186B
102
}
330
A
100
AcDbEntity
  8
MODEL
  6
STYLE_12
100
AcDbCircle
 10
1483.039095167954
 20
1423.490496675778
 30
0.0
 40
27.5
100
AcDbArc
 50
89.99999999733954
 51
269.999999992549
  0
CIRCLE
  5
F4D
330
A
100
AcDbEntity
  8
MODEL
  6
STYLE_12
100
AcDbCircle
 10
1393.038309337782
 20
1388.490496675778
 30
0.0
 40
15.5
  0
ARC
  5
F4E
102
{ACAD_REACTORS
330
186B
102
}
330
A
100
AcDbEntity
  8
MODEL
  6
STYLE_12
100
AcDbCircle
 10
1483.039095167954
 20
1288.490496675778
 30
0.0
 40
50.0
100
AcDbArc
 50
270.0000000069828
 51
90.00000000213652
  0
ARC
  5
F4F
330
A
100
AcDbEntity
  8
MODEL
  6
STYLE_12
100
AcDbCircle
 10
1483.039095167954
 20
1423.490496675778
 30
0.0
 40
27.5
100
AcDbArc
 50
270.0000000069845
 51
90.00000000213367
  0
CIRCLE
  5
F50
102
{ACAD_REACTORS
330
188B
330
1993
102
}
330
A
100
AcDbEntity
  8
MODEL
  6
STYLE_12
100
AcDbCircle
 10
1573.039880998127
 20
1388.490496675778
 30
0.0
 40
15.5
  0
LINE
  5
F61
330
A
100
AcDbEntity
  8
MODEL
100
AcDbLine
 10
1652.039880998025
 20
1478.490496675778
 30
0.0
 11
1314.039095167956
 21
1478.490496675778
 31
0.0
  0
LINE
  5
F62
330
A
100
AcDbEntity
  8
MODEL
100
AcDbLine
 10
1610.42923411583
 20
1208.490496675778
 30
0.0
 11
1355.649742050152
 21
1208.490496675778
 31
0.0
  0
ARC
  5
F63
330
A
100
AcDbEntity
  8
MODEL
100
AcDbCircle
 10
4145.665106590655
 20
1796.815456128187
 30
0.0
 40
2856.138258536472
100
AcDbArc
 50
186.5339953796522
 51
191.7893814126585
  0
ARC
  5
F64
330
A
100
AcDbEntity
  8
MODEL
100
AcDbCircle
 10
1355.649742050152
 20
1214.490496675778
 30
0.0
 40
6.0
100
AcDbArc
 50
191.7893814126562
 51
270.0
  0
ARC
  5
F65
330
A
100
AcDbEntity
  8
MODEL
100
AcDbCircle
 10
1314.03988183906
 20
1472.490496675778
 30
0.0
 40
6.0
100
AcDbArc
 50
89.99999999921835
 51
186.5339953787084
  0
LINE
  5
F66
330
A
100
AcDbEntity
  8
MODEL
100
AcDbLine
 10
1431.284422162905
 20
1190.915276991679
 30
0.0
 11
1429.746789681568
 21
1208.490496675778
 31
0.0
  0
ARC
  5
F67
330
A
100
AcDbEntity
  8
MODEL
100
AcDbCircle
 10
1483.039488082991
 20
1195.443258539724
 30
0.0
 40
51.95276186394524
100
AcDbArc
 50
184.9999999995417
 51
354.9999999987051
  0
ARC
  5
F68
330
A
100
AcDbEntity
  8
MODEL
100
AcDbCircle
 10
-1179.586130424671
 20
1796.815456128187
 30
0.0
 40
2856.138258536472
100
AcDbArc
 50
348.2106185873413
 51
353.4660046190097
  0
ARC
  5
F69
330
A
100
AcDbEntity
  8
MODEL
100
AcDbCircle
 10
1610.42923411583
 20
1214.490496675778
 30
0.0
 40
6.0
100
AcDbArc
 50
270.0
 51
348.210618587328
  0
ARC
  5
F6A
330
A
100
AcDbEntity
  8
MODEL
100
AcDbCircle
 10
1652.039094326923
 20
1472.490496675778
 30
0.0
 40
6.0
100
AcDbArc
 50
353.4660046208438
 51
90.00000000020843
  0
LINE
  5
F6B
330
A
100
AcDbEntity
  8
MODEL
100
AcDbLine
 10
1534.794554003076
 20
1190.915276991679
 30
0.0
 11
1536.332186484413
 21
1208.490496675778
 31
0.0
  0
LINE
  5
F6D
102
{ACAD_REACTORS
330
1846
102
}
330
A
100
AcDbEntity
  8
MODEL
100
AcDbLine
 10
324.0830810091761
 20
1058.490471189413
 30
0.0
 11
324.0830810091761
 21
1597.684440284908
 31
0.0
  0
LINE
  5
F6E
330
A
100
AcDbEntity
  8
MODEL
100
AcDbLine
 10
474.0830810091743
 20
1474.043385460028
 30
0.0
 11
490.9733323563892
 21
1411.008109279618
 31
0.0
  0
LINE
  5
F6F
330
A
100
AcDbEntity
  8
MODEL
100
AcDbLine
 10
344.0830810091761
 20
1328.490471189413
 30
0.0
 11
344.0830810091761
 21
1248.490471189413
 31
0.0
  0
LINE
  5
F70
330
A
100
AcDbEntity
  8
MODEL
100
AcDbLine
 10
344.0830810091761
 20
1395.990471189413
 30
0.0
 11
344.0830810091761
 21
1450.990471189413
 31
0.0
  0
LINE
  5
F71
330
A
100
AcDbEntity
  8
MODEL
100
AcDbLine
 10
379.0830810091761
 20
1395.990471189413
 30
0.0
 11
379.0830810091761
 21
1450.990471189413
 31
0.0
  0
LINE
  5
F72
330
A
100
AcDbEntity
  8
MODEL
100
AcDbLine
 10
467.348668590414
 20
1468.266928324721
 30
0.0
 11
480.4605226770313
 21
1419.332822692031
 31
0.0
  0
LINE
  5
F73
330
A
100
AcDbEntity
  8
MODEL
100
AcDbLine
 10
354.4994888741735
 20
1470.490471189413
 30
0.0
 11
464.4508911115468
 21
1470.490471189413
 31
0.0
  0
LINE
  5
F74
330
A
100
AcDbEntity
  8
MODEL
100
AcDbLine
 10
829.9919275272482
 20
1478.490471189413
 30
0.0
 11
468.2875260514415
 21
1478.490471189413
 31
0.0
  0
LINE
  5
F75
330
A
100
AcDbEntity
  8
MODEL
100
AcDbLine
 10
387.0830810091761
 20
1400.990471189413
 30
0.0
 11
387.0830810091761
 21
1445.990471189413
 31
0.0
  0
LINE
  5
F76
330
A
100
AcDbEntity
  8
MODEL
100
AcDbLine
 10
344.0830810091761
 20
1338.490471189413
 30
0.0
 11
437.2677346880887
 21
1340.117015369692
 31
0.0
  0
LINE
  5
F77
330
A
100
AcDbEntity
  8
MODEL
100
AcDbLine
 10
344.0830810091761
 20
1328.490471189413
 30
0.0
 11
437.2103741905216
 21
1328.490471189413
 31
0.0
  0
LINE
  5
F78
330
A
100
AcDbEntity
  8
MODEL
100
AcDbLine
 10
344.0830810091761
 20
1395.990471189413
 30
0.0
 11
344.0830810091761
 21
1383.990471189413
 31
0.0
  0
LINE
  5
F79
330
A
100
AcDbEntity
  8
MODEL
100
AcDbLine
 10
379.0830810091761
 20
1400.990471189413
 30
0.0
 11
387.0830810091761
 21
1400.990471189413
 31
0.0
  0
LINE
  5
F7A
330
A
100
AcDbEntity
  8
MODEL
100
AcDbLine
 10
344.0830810091761
 20
1395.990471189413
 30
0.0
 11
379.0830810091761
 21
1395.990471189413
 31
0.0
  0
LINE
  5
F7B
330
A
100
AcDbEntity
  8
MODEL
100
AcDbLine
 10
344.0830810091761
 20
1338.490471189413
 30
0.0
 11
344.0830810091761
 21
1328.490471189413
 31
0.0
  0
LINE
  5
F7C
330
A
100
AcDbEntity
  8
MODEL
100
AcDbLine
 10
379.0830810091761
 20
1400.990471189413
 30
0.0
 11
379.0830810091761
 21
1395.990471189413
 31
0.0
  0
LINE
  5
F7D
330
A
100
AcDbEntity
  8
MODEL
100
AcDbLine
 10
387.0830810091761
 20
1400.990471189413
 30
0.0
 11
387.0830810091761
 21
1391.990471189413
 31
0.0
  0
LINE
  5
F7E
330
A
100
AcDbEntity
  8
MODEL
100
AcDbLine
 10
344.0830810091761
 20
1383.990471189413
 30
0.0
 11
429.0626706943726
 21
1383.990471189413
 31
0.0
  0
LINE
  5
F7F
330
A
100
AcDbEntity
  8
MODEL
100
AcDbLine
 10
387.0830810091761
 20
1391.990471189413
 30
0.0
 11
441.560314157467
 21
1391.990471189413
 31
0.0
  0
LINE
  5
F81
330
A
100
AcDbEntity
  8
MODEL
100
AcDbLine
 10
829.5209277313957
 20
1478.490471189418
 30
0.0
 11
868.3635749750015
 21
1478.490471145123
 31
0.0
  0
ARC
  5
F82
330
A
100
AcDbEntity
  8
MODEL
100
AcDbCircle
 10
829.5209277313957
 20
1472.490471189418
 30
0.0
 40
6.0
100
AcDbArc
 50
89.99999999973944
 51
154.99999999892
  0
LINE
  5
F83
330
A
100
AcDbEntity
  8
MODEL
100
AcDbLine
 10
324.0830810091761
 20
1466.490471189413
 30
0.0
 11
341.0830810091743
 21
1466.490471189413
 31
0.0
  0
LINE
  5
F84
330
A
100
AcDbEntity
  8
MODEL
100
AcDbLine
 10
344.0830810091761
 20
1450.990471189413
 30
0.0
 11
344.0830810091743
 21
1463.490471189413
 31
0.0
  0
LINE
  5
F85
330
A
100
AcDbEntity
  8
MODEL
100
AcDbLine
 10
387.0830810091761
 20
1445.990471189413
 30
0.0
 11
387.0830810091761
 21
1458.990471189413
 31
0.0
  0
LINE
  5
F86
330
A
100
AcDbEntity
  8
MODEL
100
AcDbLine
 10
379.0830810091761
 20
1445.990471189413
 30
0.0
 11
387.0830810091761
 21
1445.990471189413
 31
0.0
  0
LINE
  5
F87
330
A
100
AcDbEntity
  8
MODEL
100
AcDbLine
 10
344.0830810091761
 20
1450.990471189413
 30
0.0
 11
379.0830810091761
 21
1450.990471189413
 31
0.0
  0
LINE
  5
F88
330
A
100
AcDbEntity
  8
MODEL
100
AcDbLine
 10
352.0830810091761
 20
1461.990471189413
 30
0.0
 11
352.0830810091761
 21
1463.490471189413
 31
0.0
  0
LINE
  5
F89
330
A
100
AcDbEntity
  8
MODEL
100
AcDbLine
 10
355.0830810091761
 20
1458.990471189413
 30
0.0
 11
387.0830810091761
 21
1458.990471189413
 31
0.0
  0
LINE
  5
F8A
330
A
100
AcDbEntity
  8
MODEL
100
AcDbLine
 10
379.0830810091761
 20
1450.990471189413
 30
0.0
 11
379.0830810091761
 21
1445.990471189413
 31
0.0
  0
ARC
  5
F8B
330
A
100
AcDbEntity
  8
MODEL
100
AcDbCircle
 10
327.083081009187
 20
1475.490471189413
 30
0.0
 40
3.0
100
AcDbArc
 50
89.9999999975682
 51
179.9999999953188
  0
ARC
  5
F8C
330
A
100
AcDbEntity
  8
MODEL
100
AcDbCircle
 10
327.0830810091761
 20
1475.490471189413
 30
0.0
 40
3.0
100
AcDbArc
 50
89.99999999874935
 51
179.9999999950756
  0
LINE
  5
F8D
330
A
100
AcDbEntity
  8
MODEL
100
AcDbLine
 10
856.5038601871934
 20
1472.490471189425
 30
0.0
 11
833.6388943517454
 21
1472.490471189425
 31
0.0
  0
LINE
  5
F8E
330
A
100
AcDbEntity
  8
MODEL
100
AcDbLine
 10
814.6637416678154
 20
1433.896729690467
 30
0.0
 11
808.0434741540416
 21
1433.896729690467
 31
0.0
  0
LINE
  5
F8F
330
A
100
AcDbEntity
  8
MODEL
100
AcDbLine
 10
824.0830810091761
 20
1475.026180759862
 30
0.0
 11
806.2308585799678
 21
1436.741966213949
 31
0.0
  0
LINE
  5
F90
330
A
100
AcDbEntity
  8
MODEL
100
AcDbLine
 10
830.9199709906356
 20
1470.758325974647
 30
0.0
 11
821.9046038095316
 21
1451.424808663837
 31
0.0
  0
LINE
  5
F91
330
A
100
AcDbEntity
  8
MODEL
100
AcDbLine
 10
816.8092059450123
 20
1435.765289514317
 30
0.0
 11
816.4763572418892
 21
1435.051493166986
 31
0.0
  0
ARC
  5
F92
330
A
100
AcDbEntity
  8
MODEL
100
AcDbCircle
 10
808.0434741540416
 20
1435.896729690467
 30
0.0
 40
2.0
100
AcDbArc
 50
154.9999999988642
 51
269.999999997655
  0
ARC
  5
F93
330
A
100
AcDbEntity
  8
MODEL
100
AcDbCircle
 10
814.6637416678154
 20
1435.896729690467
 30
0.0
 40
2.0
100
AcDbArc
 50
269.9999999979677
 51
334.9999999973342
  0
LINE
  5
F94
330
A
100
AcDbEntity
  8
MODEL
100
AcDbLine
 10
836.712416056846
 20
1438.728095589121
 30
0.0
 11
839.3371494007156
 21
1438.636437881043
 31
0.0
  0
LINE
  5
F95
330
A
100
AcDbEntity
  8
MODEL
100
AcDbLine
 10
824.7197261326169
 20
1439.146889549551
 30
0.0
 11
836.7160710947305
 21
1438.727967952386
 31
0.0
  0
ARC
  5
F96
330
A
100
AcDbEntity
  8
MODEL
100
AcDbCircle
 10
833.6388943517454
 20
1469.490471189425
 30
0.0
 40
3.0
100
AcDbArc
 50
89.99999999975682
 51
154.9999999990585
  0
LINE
  5
F97
330
A
100
AcDbEntity
  8
MODEL
100
AcDbLine
 10
344.0830810091761
 20
1238.490471189413
 30
0.0
 11
394.0830810091761
 21
1237.617717943002
 31
0.0
  0
LINE
  5
F98
330
A
100
AcDbEntity
  8
MODEL
100
AcDbLine
 10
344.0830810091761
 20
1248.490471189413
 30
0.0
 11
393.2968407917638
 21
1248.490471189413
 31
0.0
  0
LINE
  5
F99
102
{ACAD_REACTORS
330
1846
102
}
330
A
100
AcDbEntity
  8
MODEL
100
AcDbLine
 10
344.0830810091761
 20
1248.490471189413
 30
0.0
 11
344.0830810091761
 21
1238.490471189413
 31
0.0
  0
ARC
  5
F9A
330
A
100
AcDbEntity
  8
MODEL
100
AcDbCircle
 10
-2445.277529070782
 20
3132.728647108961
 30
0.0
 40
3700.042273532516
100
AcDbArc
 50
332.2247170821731
 51
332.6748205271277
  0
ARC
  5
F9B
330
A
100
AcDbEntity
  8
MODEL
100
AcDbCircle
 10
839.2324509106079
 20
1435.638265399986
 30
0.0
 40
3.0
100
AcDbArc
 50
332.6748205270887
 51
87.99999999999636
  0
ARC
  5
F9C
330
A
100
AcDbEntity
  8
MODEL
100
AcDbCircle
 10
-2445.277529070782
 20
3132.728647108961
 30
0.0
 40
3700.042273532516
100
AcDbArc
 50
332.9146208836539
 51
333.263792782004
  0
ARC
  5
F9D
330
A
100
AcDbEntity
  8
MODEL
100
AcDbCircle
 10
846.3065053543837
 20
1449.399767595565
 30
0.0
 40
3.0
100
AcDbArc
 50
267.9999999999964
 51
332.9146208835984
  0
ARC
  5
F9E
330
A
100
AcDbEntity
  8
MODEL
100
AcDbCircle
 10
856.5038601871934
 20
1469.490471189425
 30
0.0
 40
3.0
100
AcDbArc
 50
333.2637927820103
 51
90.0
  0
LINE
  5
F9F
330
A
100
AcDbEntity
  8
MODEL
100
AcDbLine
 10
515.3287385356839
 20
1216.886880608807
 30
0.0
 11
519.9901638197412
 21
1216.479058740579
 31
0.0
  0
LINE
  5
FA0
330
A
100
AcDbEntity
  8
MODEL
100
AcDbLine
 10
521.0713938220874
 20
1217.583956549956
 30
0.0
 11
508.8376777361505
 21
1286.964772706041
 31
0.0
  0
LINE
  5
FA1
330
A
100
AcDbEntity
  8
MODEL
100
AcDbLine
 10
512.6357825504333
 20
1219.354519911797
 30
0.0
 11
500.9592158335004
 21
1285.575586595949
 31
0.0
  0
ARC
  5
FA2
330
A
100
AcDbEntity
  8
MODEL
100
AcDbCircle
 10
520.0773195624884
 20
1217.475253438671
 30
0.0
 40
1.0
100
AcDbArc
 50
265.0000000002353
 51
6.240561021067539
  0
ARC
  5
FA3
330
A
100
AcDbEntity
  8
MODEL
100
AcDbCircle
 10
515.5902057639273
 20
1219.875464703082
 30
0.0
 40
3.0
100
AcDbArc
 50
190.0000050084825
 51
264.9999999991895
  0
LINE
  5
FA4
330
A
100
AcDbEntity
  8
MODEL
100
AcDbLine
 10
623.3952239948799
 20
1275.863484130844
 30
0.0
 11
614.7063532383895
 21
1226.584807606915
 31
0.0
  0
LINE
  5
FA5
330
A
100
AcDbEntity
  8
MODEL
  6
HIDDEN2
100
AcDbLine
 10
512.0952017028908
 20
1268.490445700839
 30
0.0
 11
622.0952017028872
 21
1268.490445700839
 31
0.0
  0
LINE
  5
FA6
330
A
100
AcDbEntity
  8
MODEL
  6
HIDDEN2
100
AcDbLine
 10
417.0181628248197
 20
1268.490445700839
 30
0.0
 11
503.9717886825824
 21
1268.490445700839
 31
0.0
  0
LINE
  5
FA7
330
A
100
AcDbEntity
  8
MODEL
100
AcDbLine
 10
430.2949078323222
 20
1257.349869412744
 30
0.0
 11
435.7194375620643
 21
1226.584807606911
 31
0.0
  0
LINE
  5
FA8
330
A
100
AcDbEntity
  8
MODEL
100
AcDbLine
 10
422.4164378936334
 20
1255.960728878036
 30
0.0
 11
427.8409676233755
 21
1225.195667072203
 31
0.0
  0
ARC
  5
FA9
330
A
100
AcDbEntity
  8
MODEL
100
AcDbCircle
 10
417.0181628245596
 20
1255.008899046315
 30
0.0
 40
13.48154665673212
100
AcDbArc
 50
9.999673563990976
 51
160.0003264339587
  0
ARC
  5
FAA
330
A
100
AcDbEntity
  8
MODEL
100
AcDbCircle
 10
417.0181628245596
 20
1255.008899046315
 30
0.0
 40
5.481546656732214
100
AcDbArc
 50
9.999673563991388
 51
160.0003264339596
  0
LINE
  5
FAB
330
A
100
AcDbEntity
  8
MODEL
100
AcDbLine
 10
411.8671831993711
 20
1256.883669072431
 30
0.0
 11
408.6362623213649
 21
1248.006629552186
 31
0.0
  0
LINE
  5
FAC
330
A
100
AcDbEntity
  8
MODEL
100
AcDbLine
 10
404.3496266442512
 20
1259.619787388692
 30
0.0
 11
402.6937864856632
 21
1255.070323294087
 31
0.0
  0
ARC
  5
FAD
330
A
100
AcDbEntity
  8
MODEL
100
AcDbCircle
 10
393.2968407917638
 20
1258.490471189413
 30
0.0
 40
10.0
100
AcDbArc
 50
270.0
 51
340.0003264348959
  0
LINE
  5
FAE
330
A
100
AcDbEntity
  8
MODEL
100
AcDbLine
 10
705.6834348833422
 20
1218.490471145392
 30
0.0
 11
705.6834348833422
 21
1226.490471145392
 31
0.0
  0
LINE
  5
FAF
330
A
100
AcDbEntity
  8
MODEL
100
AcDbLine
 10
725.6834348833422
 20
1218.490471145392
 30
0.0
 11
725.6834348833422
 21
1226.490471145392
 31
0.0
  0
LINE
  5
FB0
330
A
100
AcDbEntity
  8
MODEL
100
AcDbLine
 10
694.9649796356139
 20
1220.464410715415
 30
0.0
 11
665.6042549909266
 21
1301.132338695533
 31
0.0
  0
LINE
  5
FB1
330
A
100
AcDbEntity
  8
MODEL
100
AcDbLine
 10
725.6834348833422
 20
1226.490471145392
 30
0.0
 11
705.6834348833422
 21
1226.490471145392
 31
0.0
  0
LINE
  5
FB2
330
A
100
AcDbEntity
  8
MODEL
100
AcDbLine
 10
725.6834348833422
 20
1218.490471145392
 30
0.0
 11
705.6834348833422
 21
1218.490471145392
 31
0.0
  0
ARC
  5
FB3
330
A
100
AcDbEntity
  8
MODEL
100
AcDbCircle
 10
525.212895400226
 20
1242.364393090092
 30
0.0
 40
90.87394738786229
100
AcDbArc
 50
189.999673563613
 51
350.0003264346604
  0
LINE
  5
FB4
330
A
100
AcDbEntity
  8
MODEL
100
AcDbLine
 10
634.2281201605442
 20
1273.953415895436
 30
0.0
 11
625.5392494040884
 21
1224.674739371692
 31
0.0
  0
ARC
  5
FB5
102
{ACAD_REACTORS
330
1957
102
}
330
A
100
AcDbEntity
  8
MODEL
100
AcDbCircle
 10
525.212895400226
 20
1242.364393090092
 30
0.0
 40
98.87394738786243
100
AcDbArc
 50
189.9996735636129
 51
269.9999999991135
  0
SPLINE
  5
FB6
330
A
100
AcDbEntity
  8
MODEL
100
AcDbSpline
210
0.0
220
0.0
230
1.0
 70
     8
 71
     3
 72
     8
 73
     4
 74
     0
 42
0.000000001
 43
0.0000000001
 40
0.0
 40
0.0
 40
0.0
 40
0.0
 40
1.0
 40
1.0
 40
1.0
 40
1.0
 10
625.5392494040884
 20
1224.674739371692
 30
0.0
 10
617.3221893216855
 20
1178.071923295045
 30
0.0
 10
574.6855734988553
 20
1143.490445702229
 30
0.0
 10
525.212895400226
 20
1143.490445702229
 30
0.0
  0
LINE
  5
FB7
330
A
100
AcDbEntity
  8
MODEL
100
AcDbLine
 10
737.8591330657696
 20
1213.490471145391
 30
0.0
 11
733.8505211443885
 21
1213.490471145391
 31
0.0
  0
LINE
  5
FB8
330
A
100
AcDbEntity
  8
MODEL
100
AcDbLine
 10
727.9344413612894
 20
1218.490471145393
 30
0.0
 11
725.6834348833422
 21
1218.490471145393
 31
0.0
  0
LINE
  5
FB9
330
A
100
AcDbEntity
  8
MODEL
100
AcDbLine
 10
705.6834348833422
 20
1218.490471145392
 30
0.0
 11
697.7840574979714
 21
1218.490471145392
 31
0.0
  0
ARC
  5
FBA
330
A
100
AcDbEntity
  8
MODEL
100
AcDbCircle
 10
697.7840574979714
 20
1221.490471145392
 30
0.0
 40
3.0
100
AcDbArc
 50
199.9999999995043
 51
269.9999999991315
  0
ARC
  5
FBB
330
A
100
AcDbEntity
  8
MODEL
100
AcDbCircle
 10
727.9344413612894
 20
1215.490471145393
 30
0.0
 40
3.0
100
AcDbArc
 50
9.594068226851602
 51
89.99999999975682
  0
ARC
  5
FBC
330
A
100
AcDbEntity
  8
MODEL
100
AcDbCircle
 10
733.8505211443885
 20
1216.490471145391
 30
0.0
 40
3.0
100
AcDbArc
 50
189.5940682268473
 51
270.0
  0
LINE
  5
FBD
330
A
100
AcDbEntity
  8
MODEL
100
AcDbLine
 10
824.9989221062374
 20
1447.142016165704
 30
0.0
 11
846.201806864276
 21
1446.401595114508
 31
0.0
  0
LINE
  5
FBE
330
A
100
AcDbEntity
  8
MODEL
100
AcDbLine
 10
824.7197261326169
 20
1439.146889549551
 30
0.0
 11
824.9989221062374
 21
1447.142016165704
 31
0.0
  0
LINE
  5
FBF
330
A
100
AcDbEntity
  8
MODEL
100
AcDbLine
 10
836.712416056846
 20
1438.728095589121
 30
0.0
 11
836.9916120304665
 21
1446.723222205274
 31
0.0
  0
LINE
  5
FC0
330
A
100
AcDbEntity
  8
MODEL
100
AcDbLine
 10
824.5188286805337
 20
1447.158781397558
 30
0.0
 11
824.9989221062374
 21
1447.142016165704
 31
0.0
  0
ARC
  5
FC1
330
A
100
AcDbEntity
  8
MODEL
100
AcDbCircle
 10
824.6235271706414
 20
1450.156953878615
 30
0.0
 40
3.0
100
AcDbArc
 50
154.9999999999074
 51
267.999999999336
  0
LINE
  5
FC2
330
A
100
AcDbEntity
  8
MODEL
100
AcDbLine
 10
822.4564496474472
 20
1439.225924905986
 30
0.0
 11
824.7197261326169
 21
1439.146889549551
 31
0.0
  0
ARC
  5
FC3
330
A
100
AcDbEntity
  8
MODEL
100
AcDbCircle
 10
822.2470526672319
 20
1433.229579943871
 30
0.0
 40
6.0
100
AcDbArc
 50
87.99999999978783
 51
154.9999999994397
  0
LINE
  5
FC4
330
A
100
AcDbEntity
  8
MODEL
100
AcDbLine
 10
700.5666399412917
 20
1228.464410715415
 30
0.0
 11
673.1217959572136
 21
1303.868499842138
 31
0.0
  0
ARC
  5
FC5
330
A
100
AcDbEntity
  8
MODEL
100
AcDbCircle
 10
727.9344413612894
 20
1215.490471145393
 30
0.0
 40
11.0
100
AcDbArc
 50
53.67616516659302
 51
89.99999999974419
  0
LINE
  5
FC6
330
A
100
AcDbEntity
  8
MODEL
100
AcDbLine
 10
705.6834348833422
 20
1226.490471145392
 30
0.0
 11
703.385717803651
 21
1226.490471145392
 31
0.0
  0
ARC
  5
FC7
330
A
100
AcDbEntity
  8
MODEL
100
AcDbCircle
 10
703.385717803651
 20
1229.490471145392
 30
0.0
 40
3.0
100
AcDbArc
 50
199.9999999996706
 51
269.9999999993051
  0
LINE
  5
FC8
330
A
100
AcDbEntity
  8
MODEL
100
AcDbLine
 10
725.6834348833422
 20
1226.490471145392
 30
0.0
 11
727.9344413612894
 21
1226.490471145392
 31
0.0
  0
ARC
  5
FC9
330
A
100
AcDbEntity
  8
MODEL
100
AcDbCircle
 10
468.2875260514397
 20
1472.490471189413
 30
0.0
 40
6.0
100
AcDbArc
 50
14.99999999996522
 51
89.99999999973944
  0
ARC
  5
FCA
330
A
100
AcDbEntity
  8
MODEL
100
AcDbCircle
 10
464.4508911115468
 20
1467.490471189413
 30
0.0
 40
3.0
100
AcDbArc
 50
14.99999999999445
 51
89.99999999979156
  0
ARC
  5
FCB
330
A
100
AcDbEntity
  8
MODEL
100
AcDbCircle
 10
341.0830810091743
 20
1463.490471189413
 30
0.0
 40
3.0
100
AcDbArc
 50
0.0
 51
89.99999999972208
  0
ARC
  5
FCC
330
A
100
AcDbEntity
  8
MODEL
100
AcDbCircle
 10
341.0830810091743
 20
1463.490471189413
 30
0.0
 40
11.0
100
AcDbArc
 50
0.0
 51
16.60154959897063
  0
ARC
  5
FCD
330
A
100
AcDbEntity
  8
MODEL
100
AcDbCircle
 10
354.4994888741735
 20
1467.490471189413
 30
0.0
 40
3.0
100
AcDbArc
 50
89.99999999972208
 51
196.6015495985361
  0
ARC
  5
FCE
330
A
100
AcDbEntity
  8
MODEL
100
AcDbCircle
 10
355.0830810091761
 20
1461.990471189413
 30
0.0
 40
3.0
100
AcDbArc
 50
179.9999999995484
 51
269.9999999993051
  0
SPLINE
  5
FCF
330
A
100
AcDbEntity
  8
MODEL
100
AcDbSpline
210
0.0
220
0.0
230
1.0
 70
     8
 71
     3
 72
     8
 73
     4
 74
     0
 42
0.000000001
 43
0.0000000001
 40
0.2836423576881063
 40
0.2836423576881063
 40
0.2836423576881063
 40
0.2836423576881063
 40
0.9475440884706485
 40
0.9475440884706485
 40
0.9475440884706485
 40
0.9475440884706485
 10
479.7121179509654
 20
1328.528800565352
 30
0.0
 10
462.0387885764271
 20
1338.715689690418
 30
0.0
 10
447.225101047427
 20
1354.523363447213
 30
0.0
 10
443.621626061024
 20
1377.093064631316
 30
0.0
  0
SPLINE
  5
FD0
330
A
100
AcDbEntity
  8
MODEL
100
AcDbSpline
210
0.0
220
0.0
230
1.0
 70
     8
 71
     3
 72
    10
 73
     6
 74
     0
 42
0.000000001
 43
0.0000000001
 40
0.7036312710169599
 40
0.7036312710169599
 40
0.7036312710169599
 40
0.7036312710169599
 40
0.8561598124105845
 40
0.8561598124105845
 40
0.9958902482604752
 40
0.9958902482604752
 40
0.9958902482604752
 40
0.9958902482604752
 10
442.300318045473
 20
1349.215806583877
 30
0.0
 10
439.4088314955429
 20
1354.008013349648
 30
0.0
 10
437.0038188399035
 20
1359.230084032986
 30
0.0
 10
433.6117163476852
 20
1369.996206027815
 30
0.0
 10
432.5243876872614
 20
1375.473631020262
 30
0.0
 10
432.0526662335765
 20
1381.235270445022
 30
0.0
  0
ARC
  5
FD1
330
A
100
AcDbEntity
  8
MODEL
100
AcDbCircle
 10
449.7492134662666
 20
1276.545876880349
 30
0.0
 40
60.0
100
AcDbArc
 50
10.00000500895146
 51
60.0408952361034
  0
SPLINE
  5
FD2
330
A
100
AcDbEntity
  8
MODEL
100
AcDbSpline
210
0.0
220
0.0
230
1.0
 70
     8
 71
     3
 72
    12
 73
     8
 74
     0
 42
0.000000001
 43
0.0000000001
 40
0.0
 40
0.0
 40
0.0
 40
0.0
 40
3.07448682658919
 40
9.22346047976757
 40
18.53062160588535
 40
24.79088966029575
 40
27.92102368750095
 40
27.92102368750095
 40
27.92102368750095
 40
27.92102368750095
 10
475.7170640196714
 20
1321.597744074018
 30
0.0
 10
474.8291706081313
 20
1322.109524935822
 30
0.0
 10
472.1875254904321
 20
1323.683096452
 30
0.0
 10
467.0201837641548
 20
1327.080228228234
 30
0.0
 10
461.2969562881267
 20
1331.52852759643
 30
0.0
 10
456.7240515914968
 20
1335.779681421865
 30
0.0
 10
454.5560463913594
 20
1338.038275069927
 30
0.0
 10
453.8483833899923
 20
1338.804989323286
 30
0.0
  0
ARC
  5
FD3
330
A
100
AcDbEntity
  8
MODEL
100
AcDbCircle
 10
449.7492134662666
 20
1276.545876880349
 30
0.0
 40
51.99999999999987
100
AcDbArc
 50
10.00000500895135
 51
60.0408952361043
  0
SPLINE
  5
FD4
330
A
100
AcDbEntity
  8
MODEL
100
AcDbSpline
210
0.0
220
0.0
230
1.0
 70
     8
 71
     3
 72
     8
 73
     4
 74
     0
 42
0.000000001
 43
0.0000000001
 40
0.2285101745512791
 40
0.2285101745512791
 40
0.2285101745512791
 40
0.2285101745512791
 40
1.0
 40
1.0
 40
1.0
 40
1.0
 10
448.9544350114197
 20
1338.099529269299
 30
0.0
 10
446.4907402040139
 20
1333.114868882026
 30
0.0
 10
442.2024378728588
 20
1328.490471189413
 30
0.0
 10
437.2103741905216
 20
1328.490471189413
 30
0.0
  0
ARC
  5
FD5
330
A
100
AcDbEntity
  8
MODEL
100
AcDbCircle
 10
451.6438681135683
 20
1336.770262708722
 30
0.0
 40
3.0
100
AcDbArc
 50
42.70643496770051
 51
153.6988711450178
  0
SPLINE
  5
FD6
330
A
100
AcDbEntity
  8
MODEL
100
AcDbSpline
210
0.0
220
0.0
230
1.0
 70
     8
 71
     3
 72
     8
 73
     4
 74
     0
 42
0.000000001
 43
0.0000000001
 40
0.2036690987323112
 40
0.2036690987323112
 40
0.2036690987323112
 40
0.2036690987323112
 40
1.0
 40
1.0
 40
1.0
 40
1.0
 10
671.7879943057401
 20
1324.483907427438
 30
0.0
 10
729.8447165316397
 20
1335.001712115275
 30
0.0
 10
801.6014437859217
 20
1357.507516729044
 30
0.0
 10
828.4536050180909
 20
1408.490471094742
 30
0.0
  0
SPLINE
  5
FD7
330
A
100
AcDbEntity
  8
MODEL
100
AcDbSpline
210
0.0
220
0.0
230
1.0
 70
     8
 71
     3
 72
    16
 73
    12
 74
     0
 42
0.000000001
 43
0.0000000001
 40
0.2036690987323113
 40
0.2036690987323113
 40
0.2036690987323113
 40
0.2036690987323113
 40
0.2797595263575954
 40
0.2797595263575954
 40
0.4319403816081635
 40
0.4319403816081635
 40
0.5841212368587316
 40
0.5841212368587316
 40
0.7363020921092998
 40
0.7363020921092998
 40
0.8351269238818686
 40
0.8351269238818686
 40
0.8351269238818686
 40
0.8351269238818686
 10
673.2140948696438
 20
1316.612043786493
 30
0.0
 10
678.8409843383802
 20
1317.631435205146
 30
0.0
 10
684.5995188154852
 20
1318.762687739614
 30
0.0
 10
702.1194666554698
 20
1322.537994434965
 30
0.0
 10
714.1249588706783
 20
1325.562959792575
 30
0.0
 10
737.9909573077534
 20
1332.885612070764
 30
0.0
 10
749.8518451841942
 20
1337.182622811656
 30
0.0
 10
772.6376747156742
 20
1347.333439479023
 30
0.0
 10
783.5645314979215
 20
1353.186700967572
 30
0.0
 10
800.1436094554851
 20
1364.400548501243
 30
0.0
 10
806.3023461189864
 20
1369.21542151124
 30
0.0
 10
811.9665445513788
 20
1374.47930555561
 30
0.0
  0
ARC
  5
FD8
330
A
100
AcDbEntity
  8
MODEL
100
AcDbCircle
 10
682.4837485350167
 20
1265.44493012035
 30
0.0
 40
60.0
100
AcDbArc
 50
100.2685757795088
 51
170.0003264357465
  0
ARC
  5
FD9
330
A
100
AcDbEntity
  8
MODEL
100
AcDbCircle
 10
682.4837485350167
 20
1265.44493012035
 30
0.0
 40
52.0
100
AcDbArc
 50
100.2685757795088
 51
104.3483460323079
  0
ARC
  5
FDA
330
A
100
AcDbEntity
  8
MODEL
100
AcDbCircle
 10
682.4837485350167
 20
1265.44493012035
 30
0.0
 40
49.0
100
AcDbArc
 50
126.5161696342817
 51
170.0003264357936
  0
ARC
  5
FDB
330
A
100
AcDbEntity
  8
MODEL
100
AcDbCircle
 10
658.0867140246396
 20
1298.396177548929
 30
0.0
 40
8.0
100
AcDbArc
 50
19.99999999999828
 51
126.5161696342838
  0
ARC
  5
FDC
330
A
100
AcDbEntity
  8
MODEL
100
AcDbCircle
 10
658.0867140246396
 20
1298.396177548929
 30
0.0
 40
16.0
100
AcDbArc
 50
19.99999999999662
 51
49.83818293787873
  0
ARC
  5
FDD
330
A
100
AcDbEntity
  8
MODEL
100
AcDbCircle
 10
670.3407362280927
 20
1312.916471617481
 30
0.0
 40
3.0
100
AcDbArc
 50
104.3483460323134
 51
229.8381829378964
  0
LINE
  5
FDE
330
A
100
AcDbEntity
  8
MODEL
100
AcDbLine
 10
489.041480703811
 20
1408.490471189413
 30
0.0
 11
481.2750192094013
 21
1408.490471189413
 31
0.0
  0
ARC
  5
FDF
330
A
100
AcDbEntity
  8
MODEL
100
AcDbCircle
 10
489.041480703811
 20
1410.490471189413
 30
0.0
 40
2.0
100
AcDbArc
 50
270.0000000006253
 51
14.99999999963696
  0
LINE
  5
FE0
330
A
100
AcDbEntity
  8
MODEL
100
AcDbLine
 10
474.4963847682379
 20
1403.191851990048
 30
0.0
 11
481.2750192093995
 21
1408.490471189414
 31
0.0
  0
LINE
  5
FE1
330
A
100
AcDbEntity
  8
MODEL
100
AcDbLine
 10
445.1904359295427
 20
1408.20796230221
 30
0.0
 11
460.9477527540098
 21
1420.524900496963
 31
0.0
  0
LINE
  5
FE2
330
A
100
AcDbEntity
  8
MODEL
100
AcDbLine
 10
474.4963847682379
 20
1403.191851990048
 30
0.0
 11
460.9477527540098
 21
1420.524900496963
 31
0.0
  0
LINE
  5
FE3
330
A
100
AcDbEntity
  8
MODEL
100
AcDbLine
 10
460.9477527540098
 20
1420.524900496963
 30
0.0
 11
467.2506794837977
 21
1425.451675774863
 31
0.0
  0
LINE
  5
FE4
330
A
100
AcDbEntity
  8
MODEL
100
AcDbLine
 10
474.5114930033983
 20
1416.162765071351
 30
0.0
 11
467.2506794837959
 21
1425.451675774864
 31
0.0
  0
LINE
  5
FE5
330
A
100
AcDbEntity
  8
MODEL
100
AcDbLine
 10
458.7390679437708
 20
1390.874913795297
 30
0.0
 11
445.1904359295445
 21
1408.207962302209
 31
0.0
  0
LINE
  5
FE6
330
A
100
AcDbEntity
  8
MODEL
100
AcDbLine
 10
443.9239116811373
 20
1396.838011918627
 30
0.0
 11
438.8875091997566
 21
1403.281187024307
 31
0.0
  0
LINE
  5
FE7
330
A
100
AcDbEntity
  8
MODEL
100
AcDbLine
 10
438.8875091997584
 20
1403.28118702431
 30
0.0
 11
445.1904359295427
 21
1408.20796230221
 31
0.0
  0
LINE
  5
FE8
330
A
100
AcDbEntity
  8
MODEL
100
AcDbLine
 10
474.4963847682379
 20
1403.191851990048
 30
0.0
 11
458.7390679437708
 21
1390.874913795296
 31
0.0
  0
LINE
  5
FE9
330
A
100
AcDbEntity
  8
MODEL
100
AcDbLine
 10
444.7365642725476
 20
1379.929651082646
 30
0.0
 11
458.7390679437708
 21
1390.874913795297
 31
0.0
  0
LINE
  5
FEA
330
A
100
AcDbEntity
  8
MODEL
100
AcDbLine
 10
478.7406972466983
 20
1415.66094172327
 30
0.0
 11
479.4283519177939
 21
1416.207001479431
 31
0.0
  0
ARC
  5
FEB
330
A
100
AcDbEntity
  8
MODEL
100
AcDbCircle
 10
477.5627451981641
 20
1418.556365556724
 30
0.0
 40
3.0
100
AcDbArc
 50
308.4527407426712
 51
14.99999999982354
  0
ARC
  5
FEC
330
A
100
AcDbEntity
  8
MODEL
100
AcDbCircle
 10
441.560314157467
 20
1394.990471189413
 30
0.0
 40
3.0
100
AcDbArc
 50
270.0000000003127
 51
38.01348406235206
  0
ARC
  5
FED
330
A
100
AcDbEntity
  8
MODEL
100
AcDbCircle
 10
476.8750905270686
 20
1418.010305800564
 30
0.0
 40
3.0
100
AcDbArc
 50
218.0134840625779
 51
308.4527407426712
  0
SPLINE
  5
FEF
330
A
100
AcDbEntity
  8
MODEL
100
AcDbSpline
210
0.0
220
0.0
230
1.0
 70
     8
 71
     3
 72
     8
 73
     4
 74
     0
 42
0.000000001
 43
0.0000000001
 40
0.0
 40
0.0
 40
0.0
 40
0.0
 40
0.9999999306348879
 40
0.9999999306348879
 40
0.9999999306348879
 40
0.9999999306348879
 10
394.0830810091761
 20
1237.617717943002
 30
0.0
 10
401.8302664846747
 20
1237.482490317517
 30
0.0
 10
406.1900568624956
 20
1241.285617280922
 30
0.0
 10
408.6362623213649
 20
1248.006629552186
 30
0.0
  0
LINE
  5
FF2
330
A
100
AcDbEntity
  8
MODEL
100
AcDbLine
 10
327.0830810093016
 20
1478.490471189413
 30
0.0
 11
334.0830810091834
 21
1478.490471189413
 31
0.0
  0
LINE
  5
FF3
330
A
100
AcDbEntity
  8
MODEL
100
AcDbLine
 10
334.0830810091834
 20
1478.490471189413
 30
0.0
 11
468.2875260514415
 21
1478.490471189413
 31
0.0
  0
ARC
  5
FFB
330
A
100
AcDbEntity
  8
MODEL
100
AcDbCircle
 10
330.0830810091761
 20
1219.490471145392
 30
0.0
 40
6.0
100
AcDbArc
 50
180.0
 51
270.0
  0
LINE
  5
FFC
330
A
100
AcDbEntity
  8
MODEL
100
AcDbLine
 10
330.0830810091761
 20
1213.490471145392
 30
0.0
 11
430.6488742104034
 21
1213.490471145392
 31
0.0
  0
LINE
  5
FFD
330
A
100
AcDbEntity
  8
MODEL
100
AcDbLine
 10
622.8464610527876
 20
1213.490471145392
 30
0.0
 11
733.8505211443885
 21
1213.490471145391
 31
0.0
  0
ARC
  5
FFE
330
A
100
AcDbEntity
  8
MODEL
100
AcDbCircle
 10
-2480.125506812264
 20
3039.575428375447
 30
0.0
 40
3703.044007585802
100
AcDbArc
 50
330.5075961041788
 51
334.9205173314142
  0
ARC
  5
FFF
330
A
100
AcDbEntity
  8
MODEL
100
AcDbCircle
 10
-2480.125506812264
 20
3039.575428375447
 30
0.0
 40
3695.044007585802
100
AcDbArc
 50
330.5934598686691
 51
333.1541961689015
  0
ARC
  5
1000
330
A
100
AcDbEntity
  8
MODEL
100
AcDbCircle
 10
736.2273188319864
 20
1226.770018266443
 30
0.0
 40
3.0
100
AcDbArc
 50
233.6761651665797
 51
330.5934598686459
  0
ARC
  5
1001
330
A
100
AcDbEntity
  8
MODEL
100
AcDbCircle
 10
737.8591330657696
 20
1219.490471145392
 30
0.0
 40
6.0
100
AcDbArc
 50
270.0
 51
330.5075961041601
  0
ARC
  5
1002
330
A
100
AcDbEntity
  8
MODEL
100
AcDbCircle
 10
868.3635749750015
 20
1472.490471145123
 30
0.0
 40
6.0
100
AcDbArc
 50
334.9205173313828
 51
89.99999999531008
  0
LINE
  5
1005
330
A
100
AcDbEntity
  8
MODEL
 48
2.0
100
AcDbLine
 10
344.0830810091761
 20
1388.490471189413
 30
0.0
 11
324.0830810091761
 21
1388.490471189413
 31
0.0
  0
ARC
  5
1007
330
A
100
AcDbEntity
  8
MODEL
100
AcDbCircle
 10
437.1630202494657
 20
1346.116101540631
 30
0.0
 40
6.0
100
AcDbArc
 50
270.9999999999931
 51
31.10563282974182
  0
ARC
  5
1008
330
A
100
AcDbEntity
  8
MODEL
100
AcDbCircle
 10
429.0626706943726
 20
1380.990471189413
 30
0.0
 40
3.0
100
AcDbArc
 50
4.680525452780861
 51
90.0
  0
ARC
  5
1009
330
A
100
AcDbEntity
  8
MODEL
100
AcDbCircle
 10
446.5841050017611
 20
1377.566053558976
 30
0.0
 40
3.0
100
AcDbArc
 50
128.0134840623705
 51
189.0712729274837
  0
LINE
  5
108C
330
A
100
AcDbEntity
  8
MODEL
  6
Continuous
100
AcDbLine
 10
1735.153469212772
 20
1058.490471189413
 30
0.0
 11
1230.924721123136
 21
1058.490471189413
 31
0.0
  0
LINE
  5
1377
330
A
100
AcDbEntity
  8
MODEL
  6
Continuous
100
AcDbLine
 10
847.2273107190854
 20
1058.490471189413
 30
0.0
 11
324.0830810091761
 21
1058.490471189413
 31
0.0
  0
DIMENSION
  5
1378
102
{ACAD_REACTORS
330
137A
102
}
102
{ACAD_XDICTIONARY
360
1379
102
}
330
A
100
AcDbEntity
  8
DIM
  6
Continuous
100
AcDbDimension
  2
*D49
 10
867.0830810062002
 20
2443.001085351849
 30
0.0
 11
592.0830810062002
 21
2465.001085351849
 31
0.0
 70
    32
 71
     5
 42
550.0
 73
     0
 74
     0
 75
     0
  3
tfrom線あり
100
AcDbAlignedDimension
 13
317.0830810062002
 23
2344.924086770329
 33
0.0
 14
867.0830810062002
 24
2174.924086769851
 34
0.0
100
AcDbRotatedDimension
  0
DIMENSION
  5
1387
102
{ACAD_REACTORS
330
1389
102
}
102
{ACAD_XDICTIONARY
360
1388
102
}
330
A
100
AcDbEntity
  8
DIM
  6
Continuous
100
AcDbDimension
  2
*D50
 10
235.8397042827232
 20
1999.924086770328
 30
0.0
 11
213.8397042827232
 21
2174.924086770328
 31
0.0
 70
    32
 71
     5
 42
350.0000000000009
 73
     0
 74
     0
 75
     0
  3
tfrom線あり
100
AcDbAlignedDimension
 13
322.0830810062002
 23
2349.924086770329
 33
0.0
 14
322.0830810062002
 24
1999.924086770328
 34
0.0
 50
90.0
100
AcDbRotatedDimension
  0
LINE
  5
13AD
330
A
100
AcDbEntity
  8
MODEL
  6
Continuous
100
AcDbLine
 10
875.165442071609
 20
1482.490471189413
 30
0.0
 11
875.165442071609
 21
1493.490471189413
 31
0.0
  0
LINE
  5
13AF
330
A
100
AcDbEntity
  8
MODEL
  6
Continuous
100
AcDbLine
 10
1308.078854753769
 20
1508.490471189413
 30
0.0
 11
1657.99933558214
 21
1508.490471189413
 31
0.0
  0
LINE
  5
13B0
102
{ACAD_REACTORS
330
18B8
330
19A2
102
}
330
A
100
AcDbEntity
  8
MODEL
  6
Continuous
100
AcDbLine
 10
1308.078854753769
 20
1493.490471189413
 30
0.0
 11
1657.99933558214
 21
1493.490471189413
 31
0.0
  0
LINE
  5
13B2
330
A
100
AcDbEntity
  8
MODEL
  6
Continuous
100
AcDbLine
 10
365.147469182742
 20
1478.490471189413
 30
0.0
 11
868.3635749750015
 21
1478.490471145123
 31
0.0
  0
LINE
  5
13B3
330
A
100
AcDbEntity
  8
MODEL
  6
Continuous
100
AcDbLine
 10
384.2226701099667
 20
1508.490471189413
 30
0.0
 11
875.165442071609
 21
1508.490471189413
 31
0.0
  0
LINE
  5
13B4
330
A
100
AcDbEntity
  8
MODEL
  6
Continuous
100
AcDbLine
 10
385.3200160027895
 20
1493.490471189413
 30
0.0
 11
875.165442071609
 21
1493.490471189413
 31
0.0
  0
LINE
  5
13B6
330
A
100
AcDbEntity
  8
MODEL
  6
Continuous
100
AcDbLine
 10
1308.078854753769
 20
1520.619247536546
 30
0.0
 11
1657.99933558214
 21
1520.619247536546
 31
0.0
  0
LINE
  5
13B7
330
A
100
AcDbEntity
  8
MODEL
  6
Continuous
100
AcDbLine
 10
1308.078854753769
 20
1482.490471189413
 30
0.0
 11
1308.078854753769
 21
1493.490471189413
 31
0.0
  0
LINE
  5
13B8
330
A
100
AcDbEntity
  8
MODEL
  6
Continuous
100
AcDbLine
 10
1657.99933558214
 20
1482.490471189413
 30
0.0
 11
1657.99933558214
 21
1493.490471189413
 31
0.0
  0
DIMENSION
  5
140E
330
A
100
AcDbEntity
  8
DIM
  6
Continuous
100
AcDbDimension
  2
*D57
 10
235.8397042827232
 20
1238.490471189413
 30
0.0
 11
235.8397042827232
 21
1287.839306824523
 31
0.0
 70
   160
 71
     5
 42
100.0
 73
     0
 74
     0
 75
     0
  3
tfrom線あり
100
AcDbAlignedDimension
 13
330.8894709708015
 23
1338.490471189413
 33
0.0
 14
330.8894709708015
 24
1238.490471189413
 34
0.0
 50
90.0
100
AcDbRotatedDimension
  0
DIMENSION
  5
145E
330
A
100
AcDbEntity
  8
DIM
  6
Continuous
100
AcDbDimension
  2
*D62
 10
235.8397042827232
 20
1395.990471189413
 30
0.0
 11
235.8397042827232
 21
1423.469618019008
 31
0.0
 70
   160
 71
     5
 42
55.0
 73
     0
 74
     0
 75
     0
  3
tfrom線あり
100
AcDbAlignedDimension
 13
330.8894709708015
 23
1450.990471189413
 33
0.0
 14
330.8894709708015
 24
1395.990471189413
 34
0.0
 50
90.0
100
AcDbRotatedDimension
  0
SOLID
  5
15E8
330
A
100
AcDbEntity
  8
MODEL
 48
2.0
100
AcDbTrace
 10
480.4114548742996
 20
1407.815453439812
 30
0.0
 11
480.4114548742996
 21
1417.615699207218
 31
0.0
 12
480.4605226770313
 22
1407.853808008698
 32
0.0
 13
480.4605226770313
 23
1407.853808008698
 33
0.0
  0
SOLID
  5
15E9
330
A
100
AcDbEntity
  8
MODEL
 48
2.0
100
AcDbTrace
 10
480.4605226770313
 20
1407.853808008698
 30
0.0
 11
480.4114548742996
 21
1417.615699207218
 31
0.0
 12
480.4605226770313
 22
1419.332822692032
 32
0.0
 13
480.4605226770313
 23
1419.332822692032
 33
0.0
  0
SOLID
  5
1681
330
A
100
AcDbEntity
  8
MODEL
 48
2.0
100
AcDbTrace
 10
705.5035135348339
 20
1218.490471145392
 30
0.0
 11
705.5035135348339
 21
1226.490471145392
 31
0.0
 12
705.6834348833413
 22
1218.490471145392
 32
0.0
 13
705.6834348833413
 23
1218.490471145392
 33
0.0
  0
SOLID
  5
1682
330
A
100
AcDbEntity
  8
MODEL
 48
2.0
100
AcDbTrace
 10
705.6834348833413
 20
1218.490471145392
 30
0.0
 11
705.5035135348339
 21
1226.490471145392
 31
0.0
 12
705.6834348833413
 22
1226.490471145392
 32
0.0
 13
705.6834348833413
 23
1226.490471145392
 33
0.0
  0
SOLID
  5
17AF
330
A
100
AcDbEntity
  8
MODEL
 48
2.0
100
AcDbTrace
 10
836.7160710947314
 20
1438.727967952386
 30
0.0
 11
836.712416056846
 21
1438.728095589121
 31
0.0
 12
836.7160710947314
 22
1438.832762179767
 32
0.0
 13
836.7160710947314
 23
1438.832762179767
 33
0.0
  0
SOLID
  5
17B4
330
A
100
AcDbEntity
  8
MODEL
 48
2.0
100
AcDbTrace
 10
836.7160710947314
 20
1438.727967952386
 30
0.0
 11
836.7160710947314
 21
1438.832762179767
 31
0.0
 12
836.9916120304665
 22
1438.718345850883
 32
0.0
 13
836.9916120304665
 23
1438.718345850883
 33
0.0
  0
SOLID
  5
17B5
330
A
100
AcDbEntity
  8
MODEL
 48
2.0
100
AcDbTrace
 10
836.9916120304665
 20
1438.718345850883
 30
0.0
 11
836.7160710947314
 21
1438.832762179767
 31
0.0
 12
836.9916120304665
 22
1446.723222205274
 32
0.0
 13
836.9916120304665
 23
1446.723222205274
 33
0.0
  0
DIMENSION
  5
1804
102
{ACAD_XDICTIONARY
360
1805
102
}
330
A
100
AcDbEntity
  8
DIM
  6
Continuous
100
AcDbDimension
  2
*D64
 10
955.8789046068264
 20
1143.490445702229
 30
0.0
 11
955.8789046068264
 21
1310.990458445821
 31
0.0
 70
   160
 71
     5
 42
335.0000254871841
 73
     0
 74
     0
 75
     0
  3
tfrom線あり
100
AcDbAlignedDimension
 13
875.165442071609
 23
1478.490471189413
 33
0.0
 14
551.009943766117
 24
1143.490445702229
 34
0.0
 50
90.0
100
AcDbRotatedDimension
  0
DIMENSION
  5
1844
102
{ACAD_REACTORS
330
1846
102
}
102
{ACAD_XDICTIONARY
360
1845
102
}
330
A
100
AcDbEntity
  8
DIM
  6
Continuous
100
AcDbDimension
  2
*D66
 10
324.0830810091761
 20
1154.705297255277
 30
0.0
 11
369.8166434247664
 21
1154.705297255277
 31
0.0
 70
   160
 71
     5
 42
20.0
 73
     0
 74
     1
 75
     1
  3
tfrom線あり
100
AcDbAlignedDimension
 13
344.0830810091761
 23
1238.490471189413
 33
0.0
 14
324.0830810091761
 24
1238.490471189413
 34
0.0
100
AcDbRotatedDimension
1001
ACAD
1000
DSTYLE
1002
{
1070
   279
1070
     1
1070
   174
1070
     1
1070
   172
1070
     0
1070
   175
1070
     0
1070
    42
1040
20.0
1002
}
  0
LINE
  5
1859
330
A
100
AcDbEntity
  8
DIM
  6
Continuous
100
AcDbLine
 10
344.0830810091761
 20
1154.705297255277
 30
0.0
 11
388.4607976421935
 21
1154.705297255277
 31
0.0
  0
DIMENSION
  5
185A
102
{ACAD_REACTORS
330
185C
102
}
102
{ACAD_XDICTIONARY
360
185B
102
}
330
A
100
AcDbEntity
  8
DIM
  6
Continuous
100
AcDbDimension
  2
*D67
 10
1229.537549016148
 20
1288.490496675778
 30
0.0
 11
1207.537549016148
 21
1215.990496675779
 31
0.0
 70
    32
 71
     5
 42
144.9999999999991
 73
     0
 74
     0
 75
     0
  3
tfrom線あり
100
AcDbAlignedDimension
 13
1483.039488082196
 23
1143.490496675779
 33
0.0
 14
1483.039095167954
 24
1288.490496675778
 34
0.0
 50
90.0
100
AcDbRotatedDimension
  0
DIMENSION
  5
1869
102
{ACAD_REACTORS
330
186B
102
}
102
{ACAD_XDICTIONARY
360
186A
102
}
330
A
100
AcDbEntity
  8
DIM
  6
Continuous
100
AcDbDimension
  2
*D68
 10
1229.537549016148
 20
1423.490496675778
 30
0.0
 11
1207.537549016148
 21
1355.990496675778
 31
0.0
 70
    32
 71
     5
 42
135.0
 73
     0
 74
     0
 75
     0
  3
tfrom線あり
100
AcDbAlignedDimension
 13
1483.039095167954
 23
1288.490496675778
 33
0.0
 14
1483.039095167954
 24
1423.490496675778
 34
0.0
 50
90.0
100
AcDbRotatedDimension
  0
DIMENSION
  5
1878
330
A
100
AcDbEntity
  8
DIM
  6
Continuous
100
AcDbDimension
  2
*D69
 10
1229.537549016148
 20
1478.490471189413
 30
0.0
 11
1229.537549016148
 21
1451.083376970922
 31
0.0
 70
   160
 71
     5
 42
54.99997451363491
 73
     0
 74
     0
 75
     0
  3
tfrom線あり
100
AcDbAlignedDimension
 13
1483.039095167954
 23
1423.490496675778
 33
0.0
 14
1308.078854753769
 24
1478.490471189413
 34
0.0
 50
90.0
100
AcDbRotatedDimension
  0
DIMENSION
  5
1889
102
{ACAD_REACTORS
330
188B
102
}
102
{ACAD_XDICTIONARY
360
188A
102
}
330
A
100
AcDbEntity
  8
DIM
  6
Continuous
100
AcDbDimension
  2
*D70
 10
1772.577975542707
 20
1478.490471189413
 30
0.0
 11
1750.577975542707
 21
1433.490483932595
 31
0.0
 70
    32
 71
     5
 42
89.99997451363492
 73
     0
 74
     0
 75
     0
  3
tfrom線あり
100
AcDbAlignedDimension
 13
1573.039880998127
 23
1388.490496675778
 33
0.0
 14
1657.99933558214
 24
1478.490471189413
 34
0.0
 50
90.0
100
AcDbRotatedDimension
  0
DIMENSION
  5
18B6
102
{ACAD_REACTORS
330
18B8
102
}
102
{ACAD_XDICTIONARY
360
18B7
102
}
330
A
100
AcDbEntity
  8
DIM
  6
Continuous
100
AcDbDimension
  2
*D73
 10
1935.697554260573
 20
1493.490471189413
 30
0.0
 11
1935.697554260573
 21
1318.490483932596
 31
0.0
 70
   160
 71
     5
 42
349.999974513634
 73
     0
 74
     0
 75
     0
  3
tfrom線あり
100
AcDbAlignedDimension
 13
1483.039488082196
 23
1143.490496675779
 33
0.0
 14
1657.99933558214
 24
1493.490471189413
 34
0.0
 50
90.0
100
AcDbRotatedDimension
  0
DIMENSION
  5
18D4
330
A
100
AcDbEntity
  8
DIM
  6
Continuous
100
AcDbDimension
  2
*D75
 10
1393.038309337782
 20
1585.569988837603
 30
0.0
 11
1483.039095167954
 21
1607.569988837603
 31
0.0
 70
    32
 71
     5
 42
180.0015716603439
 73
     0
 74
     0
 75
     0
  3
tfrom線あり
100
AcDbAlignedDimension
 13
1573.039880998126
 23
1413.056032222088
 33
0.0
 14
1393.038309337782
 24
1413.056032222088
 34
0.0
100
AcDbRotatedDimension
  0
DIMENSION
  5
18E4
330
A
100
AcDbEntity
  8
DIM
  6
Continuous
100
AcDbDimension
  2
*D76
 10
324.0830810091761
 20
1585.569988837603
 30
0.0
 11
334.1111517887962
 21
1585.569988837603
 31
0.0
 70
   160
 71
     5
 42
20.05614155923917
 73
     0
 74
     0
 75
     0
  3
tfrom線あり
100
AcDbAlignedDimension
 13
344.1392225684153
 23
1498.01797182047
 33
0.0
 14
324.0830810091761
 24
1551.793980329037
 34
0.0
100
AcDbRotatedDimension
  0
LINE
  5
18F7
330
A
100
AcDbEntity
  8
DIM
  6
Continuous
100
AcDbLine
 10
1388.988159121202
 20
1373.52900332708
 30
0.0
 11
1278.8529500346
 21
966.6830568579726
 31
0.0
  0
LINE
  5
18F8
330
A
100
AcDbEntity
  8
DIM
  6
Continuous
100
AcDbLine
 10
1278.8529500346
 20
966.6830568579726
 30
0.0
 11
1533.448393743848
 21
966.6830568579726
 31
0.0
  0
LINE
  5
18FA
330
A
100
AcDbEntity
  8
DIM
  6
Continuous
100
AcDbLine
 10
1568.989730781546
 20
1373.52900332708
 30
0.0
 11
1458.854521694945
 21
966.6830568579726
 31
0.0
  0
MTEXT
  5
192A
330
A
100
AcDbEntity
  8
TEMPLATE
390
1D
100
AcDbMText
 10
1551.523457504485
 20
986.0554188836526
 30
0.0
 40
24.4326171875
 41
0.0
 46
24.4326171875
 71
     1
 72
     1
  1
{取付ボルト位置}
  7
ＭＳ ゴシック
 73
     1
 44
0.7828267384257843
1001
ACAD
1000
ACAD_MTEXT_DEFINED_HEIGHT_BEGIN
1070
    46
1040
24.4326171875
1000
ACAD_MTEXT_DEFINED_HEIGHT_END
  0
MTEXT
  5
192E
330
A
100
AcDbEntity
  8
TEMPLATE
390
1D
100
AcDbMText
 10
125.2543452760364
 20
183.3271773189339
 30
0.0
 40
24.4326171875
 41
0.0
 46
24.4326171875
 71
     1
 72
     1
  1
{陶器/ホワイト}
  7
ＭＳ ゴシック
 73
     1
 44
0.7828267384257843
1001
ACAD
1000
ACAD_MTEXT_DEFINED_HEIGHT_BEGIN
1070
    46
1040
24.4326171875
1000
ACAD_MTEXT_DEFINED_HEIGHT_END
  0
DIMENSION
  5
1955
102
{ACAD_REACTORS
330
1957
102
}
102
{ACAD_XDICTIONARY
360
1956
102
}
330
A
100
AcDbEntity
  8
DIM
  6
Continuous
100
AcDbDimension
  2
*D77
 10
1036.322715975675
 20
1143.49044570223
 30
0.0
 11
1014.322715975675
 21
1325.990458445822
 31
0.0
 70
    32
 71
     5
 42
365.0000254871829
 73
     0
 74
     0
 75
     0
  3
tfrom線あり
100
AcDbAlignedDimension
 13
875.165442071609
 23
1508.490471189413
 33
0.0
 14
525.2128953986962
 24
1143.49044570223
 34
0.0
 50
90.0
100
AcDbRotatedDimension
  0
DIMENSION
  5
1991
102
{ACAD_REACTORS
330
1993
102
}
102
{ACAD_XDICTIONARY
360
1992
102
}
330
A
100
AcDbEntity
  8
DIM
  6
Continuous
100
AcDbDimension
  2
*D81
 10
1772.577975542707
 20
1143.490496675779
 30
0.0
 11
1750.577975542707
 21
1265.990496675779
 31
0.0
 70
    32
 71
     5
 42
244.9999999999991
 73
     0
 74
     0
 75
     0
  3
tfrom線あり
100
AcDbAlignedDimension
 13
1573.039880998127
 23
1388.490496675778
 33
0.0
 14
1483.039488082196
 24
1143.490496675779
 34
0.0
 50
90.0
100
AcDbRotatedDimension
  0
LINE
  5
19C0
330
A
100
AcDbEntity
  8
MODEL
  6
STYLE_12
100
AcDbLine
 10
1393.038309337782
 20
1388.490496675778
 30
0.0
 11
1393.038309337782
 21
1413.056032222088
 31
0.0
  0
LINE
  5
19C1
330
A
100
AcDbEntity
  8
MODEL
  6
STYLE_12
100
AcDbLine
 10
1393.038309337782
 20
1388.490496675778
 30
0.0
 11
1417.603844884092
 21
1388.490496675778
 31
0.0
  0
LINE
  5
19C2
330
A
100
AcDbEntity
  8
MODEL
  6
STYLE_12
100
AcDbLine
 10
1393.038309337782
 20
1388.490496675778
 30
0.0
 11
1368.472773791472
 21
1388.490496675778
 31
0.0
  0
LINE
  5
19C3
330
A
100
AcDbEntity
  8
MODEL
  6
STYLE_12
100
AcDbLine
 10
1393.038309337782
 20
1388.490496675778
 30
0.0
 11
1393.038309337782
 21
1363.924961129468
 31
0.0
  0
LINE
  5
19C4
330
A
100
AcDbEntity
  8
MODEL
  6
STYLE_12
100
AcDbLine
 10
1573.039880998126
 20
1388.490496675778
 30
0.0
 11
1573.039880998126
 21
1413.056032222088
 31
0.0
  0
LINE
  5
19C5
330
A
100
AcDbEntity
  8
MODEL
  6
STYLE_12
100
AcDbLine
 10
1573.039880998126
 20
1388.490496675778
 30
0.0
 11
1548.474345451816
 21
1388.490496675778
 31
0.0
  0
LINE
  5
19C6
330
A
100
AcDbEntity
  8
MODEL
  6
STYLE_12
100
AcDbLine
 10
1573.039880998126
 20
1388.490496675778
 30
0.0
 11
1597.605416544436
 21
1388.490496675778
 31
0.0
  0
LINE
  5
19C7
330
A
100
AcDbEntity
  8
MODEL
  6
STYLE_12
100
AcDbLine
 10
1573.039880998126
 20
1388.490496675778
 30
0.0
 11
1573.039880998126
 21
1363.924961129468
 31
0.0
  0
LINE
  5
19D4
330
A
100
AcDbEntity
  8
MODEL
  6
Continuous
100
AcDbLine
 10
797.3474246661741
 20
1478.490471151373
 30
0.0
 11
797.3474246661741
 21
1482.490471189413
 31
0.0
  0
LINE
  5
19D6
330
A
100
AcDbEntity
  8
MODEL
  6
Continuous
100
AcDbLine
 10
775.9078083538163
 20
1497.490471189413
 30
0.0
 11
775.9078083538163
 21
1493.490471189413
 31
0.0
  0
LINE
  5
19DB
330
A
100
AcDbEntity
  8
MODEL
  6
Continuous
100
AcDbLine
 10
875.165442071609
 20
1482.490471189413
 30
0.0
 11
377.4971698021314
 21
1482.490471189413
 31
0.0
  0
LINE
  5
19DC
330
A
100
AcDbEntity
  8
MODEL
  6
Continuous
100
AcDbLine
 10
875.165442071609
 20
1497.490471189413
 30
0.0
 11
386.1104544328328
 21
1497.490471189413
 31
0.0
  0
LINE
  5
19DD
102
{ACAD_REACTORS
330
1957
102
}
330
A
100
AcDbEntity
  8
MODEL
  6
Continuous
100
AcDbLine
 10
875.165442071609
 20
1497.490471189413
 30
0.0
 11
875.165442071609
 21
1508.490471189413
 31
0.0
  0
LINE
  5
19DE
330
A
100
AcDbEntity
  8
MODEL
  6
Continuous
100
AcDbLine
 10
797.3474246661741
 20
1493.490471189413
 30
0.0
 11
797.3474246661741
 21
1497.490471189413
 31
0.0
  0
LINE
  5
19DF
330
A
100
AcDbEntity
  8
MODEL
  6
Continuous
100
AcDbLine
 10
775.9078083538163
 20
1482.490471189413
 30
0.0
 11
775.9078083538163
 21
1478.49047115326
 31
0.0
  0
ARC
  5
19E0
330
A
100
AcDbEntity
  8
MODEL
  6
Continuous
100
AcDbCircle
 10
365.147469182742
 20
1499.554859362979
 30
0.0
 40
21.06438817356639
100
AcDbArc
 50
25.10033197432431
 51
354.3757732685905
  0
LINE
  5
19E2
330
A
100
AcDbEntity
  8
MODEL
  6
Continuous
100
AcDbLine
 10
563.952463087338
 20
1478.490471151373
 30
0.0
 11
563.952463087338
 21
1482.490471189413
 31
0.0
  0
LINE
  5
19E3
330
A
100
AcDbEntity
  8
MODEL
  6
Continuous
100
AcDbLine
 10
542.5128467749803
 20
1482.490471189413
 30
0.0
 11
542.5128467749803
 21
1478.49047115326
 31
0.0
  0
LINE
  5
19E4
330
A
100
AcDbEntity
  8
MODEL
  6
Continuous
100
AcDbLine
 10
563.952463087338
 20
1493.490471189413
 30
0.0
 11
563.952463087338
 21
1497.490471189413
 31
0.0
  0
LINE
  5
19E5
330
A
100
AcDbEntity
  8
MODEL
  6
Continuous
100
AcDbLine
 10
542.5128467749803
 20
1497.490471189413
 30
0.0
 11
542.5128467749803
 21
1493.490471189413
 31
0.0
  0
LINE
  5
19E6
330
A
100
AcDbEntity
  8
MODEL
  6
Continuous
100
AcDbLine
 10
1308.078854753769
 20
1497.490471189413
 30
0.0
 11
1657.99933558214
 21
1497.490471189413
 31
0.0
  0
LINE
  5
19E7
330
A
100
AcDbEntity
  8
MODEL
  6
Continuous
100
AcDbLine
 10
1308.078854753769
 20
1482.490471189413
 30
0.0
 11
1657.99933558214
 21
1482.490471189413
 31
0.0
  0
LINE
  5
19E8
102
{ACAD_REACTORS
330
188B
330
19A2
102
}
330
A
100
AcDbEntity
  8
MODEL
  6
Continuous
100
AcDbLine
 10
1657.99933558214
 20
1497.490471189413
 30
0.0
 11
1657.99933558214
 21
1520.619247536546
 31
0.0
  0
LINE
  5
19E9
330
A
100
AcDbEntity
  8
MODEL
  6
Continuous
100
AcDbLine
 10
1308.078854753769
 20
1497.490471189413
 30
0.0
 11
1308.078854753769
 21
1520.619247536546
 31
0.0
  0
LINE
  5
19EA
330
A
100
AcDbEntity
  8
MODEL
  6
Continuous
100
AcDbLine
 10
1342.831954258732
 20
1478.490471151373
 30
0.0
 11
1342.831954258732
 21
1482.490471189413
 31
0.0
  0
LINE
  5
19EB
330
A
100
AcDbEntity
  8
MODEL
  6
Continuous
100
AcDbLine
 10
1321.392337946374
 20
1482.490471189413
 30
0.0
 11
1321.392337946374
 21
1478.49047115326
 31
0.0
  0
LINE
  5
19EC
330
A
100
AcDbEntity
  8
MODEL
  6
Continuous
100
AcDbLine
 10
1342.831954258732
 20
1493.490471189413
 30
0.0
 11
1342.831954258732
 21
1497.490471227453
 31
0.0
  0
LINE
  5
19ED
330
A
100
AcDbEntity
  8
MODEL
  6
Continuous
100
AcDbLine
 10
1321.392337946374
 20
1497.490471227453
 30
0.0
 11
1321.392337946374
 21
1493.4904711913
 31
0.0
  0
LINE
  5
19EE
330
A
100
AcDbEntity
  8
MODEL
  6
Continuous
100
AcDbLine
 10
1623.246236077176
 20
1478.490471151373
 30
0.0
 11
1623.246236077176
 21
1482.490471189413
 31
0.0
  0
LINE
  5
19EF
330
A
100
AcDbEntity
  8
MODEL
  6
Continuous
100
AcDbLine
 10
1644.685852389534
 20
1482.490471189413
 30
0.0
 11
1644.685852389534
 21
1478.49047115326
 31
0.0
  0
LINE
  5
19F0
330
A
100
AcDbEntity
  8
MODEL
  6
Continuous
100
AcDbLine
 10
1623.246236077176
 20
1493.490471189413
 30
0.0
 11
1623.246236077176
 21
1497.490471227453
 31
0.0
  0
LINE
  5
19F1
330
A
100
AcDbEntity
  8
MODEL
  6
Continuous
100
AcDbLine
 10
1644.685852389534
 20
1497.490471227453
 30
0.0
 11
1644.685852389534
 21
1493.4904711913
 31
0.0
  0
DIMENSION
  5
1A02
102
{ACAD_XDICTIONARY
360
1A03
102
}
330
A
100
AcDbEntity
  8
MODEL
  6
Continuous
100
AcDbDimension
  2
*D83
 10
1840.052918201565
 20
1493.490471189413
 30
0.0
 11
1818.052918201565
 21
1440.990483932595
 31
0.0
 70
    32
 71
     5
 42
104.9999745136349
 73
     0
 74
     0
 75
     0
  3
tfrom線あり
100
AcDbAlignedDimension
 13
1735.773696942787
 23
1388.490496675778
 33
0.0
 14
1763.670049126664
 24
1493.490471189413
 34
0.0
 50
90.0
100
AcDbRotatedDimension
1001
ACAD
1000
DSTYLE
1002
{
1070
   144
1040
1.0
1002
}
  0
VIEWPORT
  5
349
330
B
100
AcDbEntity
 67
     1
  8
0
100
AcDbViewport
 10
202.5
 20
128.5
 30
0.0
 40
486.0
 41
308.4
 68
     1
 69
     1
 12
202.5
 22
128.5
 13
0.0
 23
0.0
 14
0.5
 24
0.5
 15
0.0
 25
0.0
 16
0.0
 26
0.0
 36
1.0
 17
0.0
 27
0.0
 37
0.0
 42
50.0
 43
0.0
 44
0.0
 45
308.4
 50
0.0
 51
0.0
 72
   100
 90
   557152
  1

281
     0
 71
     1
 74
     0
110
0.0
120
0.0
130
0.0
111
1.0
121
0.0
131
0.0
112
0.0
122
1.0
132
0.0
 79
     0
146
0.0
170
     0
 61
     5
348
26C
292
     1
282
     1
141
0.0
142
0.0
 63
   256
  0
VIEWPORT
  5
34A
330
B
100
AcDbEntity
 67
     1
  8
0
100
AcDbViewport
 10
202.5
 20
128.5
 30
0.0
 40
324.0
 41
205.6
 68
     2
 69
     2
 12
986.6781359294573
 22
1427.077061889956
 13
0.0
 23
0.0
 14
0.5
 24
0.5
 15
0.0
 25
0.0
 16
0.0
 26
0.0
 36
1.0
 17
0.0
 27
0.0
 37
0.0
 42
50.0
 43
0.0
 44
0.0
 45
2890.021615685494
 50
0.0
 51
0.0
 72
   100
 90
   557152
  1

281
     0
 71
     1
 74
     0
110
0.0
120
0.0
130
0.0
111
1.0
121
0.0
131
0.0
112
0.0
122
1.0
132
0.0
 79
     0
146
0.0
170
     0
 61
     5
348
26C
292
     1
282
     1
141
0.0
142
0.0
 63
   256
  0
ENDSEC
  0
SECTION
  2
OBJECTS
  0
DICTIONARY
  5
19
330
0
100
AcDbDictionary
281
     1
  3
ACAD_COLOR
350
674
  3
ACAD_DETAILVIEWSTYLE
350
BBF
  3
ACAD_GROUP
350
1A
  3
ACAD_IMAGE_VARS
350
27B
  3
ACAD_LAYOUT
350
1E
  3
ACAD_MATERIAL
350
263
  3
ACAD_MLEADERSTYLE
350
336
  3
ACAD_MLINESTYLE
350
1B
  3
ACAD_PLOTSETTINGS
350
22
  3
ACAD_PLOTSTYLENAME
350
1F
  3
ACAD_SCALELIST
350
241
  3
ACAD_SECTIONVIEWSTYLE
350
BC0
  3
ACAD_TABLESTYLE
350
278
  3
ACAD_VISUALSTYLE
350
267
  3
ACDB_RECOMPOSE_DATA
350
1A32
  3
AcDbVariableDictionary
350
330
  3
APPDATA
350
27A
  3
CENTERLINE
350
1A22
  3
DimOffsetDictionary
350
1A1D
  0
SUN
  5
904
330
15
100
AcDbSun
 90
        1
290
     0
 63
     7
421
 16777215
 40
1.0
291
     1
 91
  2455826
 92
 54000000
292
     0
 70
     2
 71
   256
280
     1
  0
DICTIONARY
  5
2E1
330
2
100
AcDbDictionary
280
     1
281
     1
  3
ACAD_LAYERSTATES
360
2E2
  3
ACLYDICTIONARY
360
1376
  0
DICTIONARY
  5
1379
330
1378
100
AcDbDictionary
280
     1
281
     1
  3
ACAD_DIMASSOC
360
137A
  0
DICTIONARY
  5
1388
330
1387
100
AcDbDictionary
280
     1
281
     1
  3
ACAD_DIMASSOC
360
1389
  0
DICTIONARY
  5
1805
330
1804
100
AcDbDictionary
280
     1
281
     1
  0
DICTIONARY
  5
1845
330
1844
100
AcDbDictionary
280
     1
281
     1
  3
ACAD_DIMASSOC
360
1846
  0
DICTIONARY
  5
185B
330
185A
100
AcDbDictionary
280
     1
281
     1
  3
ACAD_DIMASSOC
360
185C
  0
DICTIONARY
  5
186A
330
1869
100
AcDbDictionary
280
     1
281
     1
  3
ACAD_DIMASSOC
360
186B
  0
DICTIONARY
  5
188A
330
1889
100
AcDbDictionary
280
     1
281
     1
  3
ACAD_DIMASSOC
360
188B
  0
DICTIONARY
  5
18B7
330
18B6
100
AcDbDictionary
280
     1
281
     1
  3
ACAD_DIMASSOC
360
18B8
  0
DICTIONARY
  5
1956
330
1955
100
AcDbDictionary
280
     1
281
     1
  3
ACAD_DIMASSOC
360
1957
  0
DICTIONARY
  5
1992
330
1991
100
AcDbDictionary
280
     1
281
     1
  3
ACAD_DIMASSOC
360
1993
  0
DICTIONARY
  5
1A03
330
1A02
100
AcDbDictionary
280
     1
281
     1
  0
DICTIONARY
  5
674
102
{ACAD_REACTORS
330
19
102
}
330
19
100
AcDbDictionary
281
     1
  0
DICTIONARY
  5
BBF
102
{ACAD_REACTORS
330
19
102
}
330
19
100
AcDbDictionary
281
     1
  0
DICTIONARY
  5
1A
102
{ACAD_REACTORS
330
19
102
}
330
19
100
AcDbDictionary
281
     1
  0
RASTERVARIABLES
  5
27B
102
{ACAD_REACTORS
330
19
102
}
330
19
100
AcDbRasterVariables
 90
        0
 70
     1
 71
     1
 72
     1
  0
DICTIONARY
  5
1E
102
{ACAD_REACTORS
330
19
102
}
330
19
100
AcDbDictionary
281
     1
  3
Layout1
350
21
  3
Model
350
20
  0
DICTIONARY
  5
263
102
{ACAD_REACTORS
330
19
102
}
330
19
100
AcDbDictionary
281
     1
  3
ByBlock
350
265
  3
ByLayer
350
264
  3
Global
350
266
  0
DICTIONARY
  5
336
102
{ACAD_REACTORS
330
19
102
}
330
19
100
AcDbDictionary
281
     1
  3
Standard
350
1A01
  0
DICTIONARY
  5
1B
102
{ACAD_REACTORS
330
19
102
}
330
19
100
AcDbDictionary
281
     1
  3
Standard
350
1C
  0
DICTIONARY
  5
22
102
{ACAD_REACTORS
330
19
102
}
330
19
100
AcDbDictionary
281
     1
  0
ACDBDICTIONARYWDFLT
  5
1F
102
{ACAD_REACTORS
330
19
102
}
330
19
100
AcDbDictionary
281
     1
  3
Normal
350
1D
100
AcDbDictionaryWithDefault
340
1D
  0
DICTIONARY
  5
241
102
{ACAD_REACTORS
330
19
102
}
330
19
100
AcDbDictionary
281
     1
  3
A0
350
242
  3
A1
350
243
  3
A2
350
244
  3
A3
350
245
  3
A4
350
246
  3
A5
350
247
  3
A6
350
248
  3
A7
350
249
  3
A8
350
24A
  3
A9
350
24B
  3
B0
350
24C
  3
B1
350
24D
  3
B2
350
24E
  3
B3
350
24F
  3
B4
350
250
  3
B5
350
251
  3
B6
350
252
  3
B7
350
253
  3
B8
350
254
  3
B9
350
255
  3
C0
350
256
  3
C1
350
257
  3
C2
350
258
  3
C3
350
259
  3
C4
350
25A
  3
C5
350
25B
  3
C6
350
25C
  3
C7
350
25D
  3
C8
350
25E
  3
C9
350
25F
  3
D0
350
260
  3
D1
350
261
  3
D2
350
262
  0
DICTIONARY
  5
BC0
102
{ACAD_REACTORS
330
19
102
}
330
19
100
AcDbDictionary
281
     1
  0
DICTIONARY
  5
278
102
{ACAD_REACTORS
330
19
102
}
330
19
100
AcDbDictionary
281
     1
  3
Standard
350
279
  0
DICTIONARY
  5
267
102
{ACAD_REACTORS
330
19
102
}
330
19
100
AcDbDictionary
281
     1
  3
*A1
350
1A1C
  3
2dWireframe
350
26C
  3
3D Hidden
350
26E
  3
3dWireframe
350
26D
  3
Basic
350
26F
  3
Brighten
350
273
  3
ColorChange
350
277
  3
Conceptual
350
271
  3
Dim
350
272
  3
EdgeColorOff
350
8FE
  3
Facepattern
350
276
  3
Flat
350
268
  3
FlatWithEdges
350
269
  3
Gouraud
350
26A
  3
GouraudWithEdges
350
26B
  3
Hidden
350
8FB
  3
JitterOff
350
8FC
  3
Linepattern
350
275
  3
OverhangOff
350
8FD
  3
Realistic
350
270
  3
Shaded
350
903
  3
Shaded with edges
350
902
  3
Shades of Gray
350
8FF
  3
Sketchy
350
900
  3
Thicken
350
274
  3
Wireframe
350
8FA
  3
X-Ray
350
901
  0
XRECORD
  5
1A32
102
{ACAD_REACTORS
330
19
102
}
330
19
100
AcDbXrecord
280
     1
 90
        1
330
279
  0
DICTIONARY
  5
330
102
{ACAD_REACTORS
330
19
102
}
330
19
100
AcDbDictionary
281
     1
  3
CANNOSCALE
350
331
  3
CMLEADERSTYLE
350
1A2A
  3
CTABLESTYLE
350
335
  3
HPTRANSPARENCY
350
D52
  3
XCLIPFRAME
350
896
  0
DICTIONARY
  5
27A
102
{ACAD_REACTORS
330
19
102
}
330
19
100
AcDbDictionary
281
     1
  0
DICTIONARY
  5
1A22
102
{ACAD_REACTORS
330
19
102
}
330
19
100
AcDbDictionary
281
     1
  3
CLEXTENSION
350
1A23
  0
DICTIONARY
  5
1A1D
102
{ACAD_REACTORS
330
19
102
}
330
19
100
AcDbDictionary
281
     1
  3
DIMRAILANGLE
350
1A20
  3
DIMRAILFIRSTOFFSET
350
1A1E
  3
DIMRAILOFFSET
350
1A1F
  3
DIMRAILSENABLED
350
1A21
  0
DICTIONARY
  5
2E2
102
{ACAD_REACTORS
330
2E1
102
}
330
2E1
100
AcDbDictionary
281
     1
  0
DICTIONARY
  5
1376
102
{ACAD_REACTORS
330
2E1
102
}
330
2E1
100
AcDbDictionary
281
     1
1001
ACAD
1000
<All
  0
DIMASSOC
  5
137A
102
{ACAD_REACTORS
330
1379
102
}
330
1379
100
AcDbDimAssoc
330
1378
 90
        1
 70
     0
 71
     1
  1
AcDbOsnapPointRef
 72
    13
331
F3F
 73
     0
 91
        0
 40
0.0
 10
0.0
 20
0.0
 30
0.0
 75
     0
  0
DIMASSOC
  5
1389
102
{ACAD_REACTORS
330
1388
102
}
330
1388
100
AcDbDimAssoc
330
1387
 90
        3
 70
     0
 71
     1
  1
AcDbOsnapPointRef
 72
     1
331
F3D
 73
     0
 91
        0
 40
0.0
 10
0.0
 20
0.0
 30
0.0
 75
     0
  1
AcDbOsnapPointRef
 72
    13
331
F41
 73
     0
 91
        0
 40
0.0
 10
0.0
 20
0.0
 30
0.0
 75
     0
  0
DIMASSOC
  5
1846
102
{ACAD_REACTORS
330
1845
102
}
330
1845
100
AcDbDimAssoc
330
1844
 90
        3
 70
     0
 71
     1
  1
AcDbOsnapPointRef
 72
     1
331
F99
 73
     0
 91
        0
 40
0.0
 10
0.0
 20
0.0
 30
0.0
 75
     0
  1
AcDbOsnapPointRef
 72
     8
331
F6D
 73
     0
 91
        0
 40
0.3455550615930866
 10
0.0
 20
0.0
 30
0.0
 75
     1
  1
AcDbOsnapPointRef
 72
     1
331
F99
 73
     0
 91
        0
 40
0.0
 10
0.0
 20
0.0
 30
0.0
 75
     0
  0
DIMASSOC
  5
185C
102
{ACAD_REACTORS
330
185B
102
}
330
185B
100
AcDbDimAssoc
330
185A
 90
        2
 70
     0
 71
     1
  1
AcDbOsnapPointRef
 72
     3
331
F4B
 73
     0
 91
        0
 40
0.0
 10
0.0
 20
0.0
 30
0.0
 75
     0
  0
DIMASSOC
  5
186B
102
{ACAD_REACTORS
330
186A
102
}
330
186A
100
AcDbDimAssoc
330
1869
 90
        3
 70
     0
 71
     1
  1
AcDbOsnapPointRef
 72
     3
331
F4E
 73
     0
 91
        0
 40
0.0
 10
0.0
 20
0.0
 30
0.0
 75
     0
  1
AcDbOsnapPointRef
 72
     3
331
F4C
 73
     0
 91
        0
 40
0.0
 10
0.0
 20
0.0
 30
0.0
 75
     0
  0
DIMASSOC
  5
188B
102
{ACAD_REACTORS
330
188A
102
}
330
188A
100
AcDbDimAssoc
330
1889
 90
        1
 70
     0
 71
     1
  1
AcDbOsnapPointRef
 72
     3
331
F50
 73
     0
 91
        0
 40
0.0
 10
0.0
 20
0.0
 30
0.0
 75
     0
  0
DIMASSOC
  5
18B8
102
{ACAD_REACTORS
330
18B7
102
}
330
18B7
100
AcDbDimAssoc
330
18B6
 90
        2
 70
     0
 71
     1
  1
AcDbOsnapPointRef
 72
     1
331
13B0
 73
     0
 91
        0
 40
0.0
 10
0.0
 20
0.0
 30
0.0
 75
     0
  0
DIMASSOC
  5
1957
102
{ACAD_REACTORS
330
1956
102
}
330
1956
100
AcDbDimAssoc
330
1955
 90
        2
 70
     0
 71
     1
  1
AcDbOsnapPointRef
 72
     1
331
FB5
 73
     0
 91
        0
 40
0.0
 10
0.0
 20
0.0
 30
0.0
 75
     0
  0
DIMASSOC
  5
1993
102
{ACAD_REACTORS
330
1992
102
}
330
1992
100
AcDbDimAssoc
330
1991
 90
        1
 70
     0
 71
     1
  1
AcDbOsnapPointRef
 72
     3
331
F50
 73
     0
 91
        0
 40
0.0
 10
0.0
 20
0.0
 30
0.0
 75
     0
  0
LAYOUT
  5
21
102
{ACAD_REACTORS
330
1E
102
}
330
1E
100
AcDbPlotSettings
  1

  2
none_device
  4
ISO_A3_(420.00_x_297.00_MM)
  6

 40
7.5
 41
20.0
 42
7.5
 43
20.0
 44
420.0
 45
297.0
 46
0.0
 47
0.0
 48
0.0
 49
0.0
140
0.0
141
0.0
142
1.0
143
1.0
 70
     0
 72
     1
 73
     0
 74
     0
  7

 75
     0
 76
     0
 77
     2
 78
   300
147
1.0
148
0.0
149
0.0
100
AcDbLayout
  1
Layout1
 70
     0
 71
     0
 10
-7.5
 20
-20.0
 11
412.5
 21
277.0
 12
0.0
 22
0.0
 32
0.0
 14
0.0
 24
0.0
 34
0.0
 15
0.0
 25
0.0
 35
0.0
146
0.0
 13
0.0
 23
0.0
 33
0.0
 16
0.0
 26
0.0
 36
0.0
 17
0.0
 27
0.0
 37
0.0
 76
     0
330
B
331
349
  0
LAYOUT
  5
20
102
{ACAD_REACTORS
330
1E
102
}
330
1E
100
AcDbPlotSettings
  1

  2
none_device
  4
ISO_A3_(420.00_x_297.00_MM)
  6

 40
7.5
 41
20.0
 42
7.5
 43
20.0
 44
420.0
 45
297.0
 46
0.0
 47
0.0
 48
0.0
 49
0.0
140
0.0
141
0.0
142
1.0
143
1.0
 70
  1024
 72
     1
 73
     0
 74
     0
  7

 75
     0
 76
     0
 77
     2
 78
   300
147
1.0
148
0.0
149
0.0
100
AcDbLayout
  1
Model
 70
     0
 71
     1
 10
0.0
 20
0.0
 11
2100.0
 21
2970.0
 12
0.0
 22
0.0
 32
0.0
 14
72.20214454724874
 24
63.79214832457114
 34
0.0
 15
2022.202144547732
 25
2897.146673506426
 35
0.0
146
0.0
 13
0.0
 23
0.0
 33
0.0
 16
0.0
 26
0.0
 36
0.0
 17
0.0
 27
0.0
 37
0.0
 76
     0
330
A
331
15
  0
MATERIAL
  5
265
102
{ACAD_REACTORS
330
263
102
}
330
263
100
AcDbMaterial
  1
ByBlock
 72
     1
 94
      127
  0
MATERIAL
  5
264
102
{ACAD_REACTORS
330
263
102
}
330
263
100
AcDbMaterial
  1
ByLayer
 72
     1
 94
      127
  0
MATERIAL
  5
266
102
{ACAD_REACTORS
330
263
102
}
330
263
100
AcDbMaterial
  1
Global
 72
     1
 94
      127
  0
MLEADERSTYLE
  5
1A01
102
{ACAD_REACTORS
330
336
102
}
330
336
100
AcDbMLeaderStyle
170
     2
171
     1
172
     0
 90
        2
 40
0.0
 41
0.0
173
     1
 91
-1056964608
340
11
 92
       -2
290
     1
 42
2.0
291
     1
 43
8.0
  3
Standard
341
0
 44
4.0
300

342
17
174
     1
178
     1
175
     1
176
     0
 93
-1056964608
 45
4.0
292
     0
297
     0
 46
4.0
343
0
 94
-1056964608
 47
1.0
 49
1.0
140
1.0
293
     1
141
0.0
294
     1
177
     0
142
1.0
295
     0
296
     0
143
3.75
1001
ACAD_MLEADERVER
1070
     2
  0
MLINESTYLE
  5
1C
102
{ACAD_REACTORS
330
1B
102
}
330
1B
100
AcDbMlineStyle
  2
Standard
 70
     0
  3

 62
     0
 51
90.0
 52
90.0
 71
     2
 49
0.5
 62
   256
  6
BYLAYER
 49
-0.5
 62
   256
  6
BYLAYER
  0
ACDBPLACEHOLDER
  5
1D
102
{ACAD_REACTORS
330
1F
102
}
330
1F
  0
SCALE
  5
242
102
{ACAD_REACTORS
330
241
102
}
330
241
100
AcDbScale
 70
     0
300
1:1
140
1.0
141
1.0
290
     1
  0
SCALE
  5
243
102
{ACAD_REACTORS
330
241
102
}
330
241
100
AcDbScale
 70
     0
300
1:2
140
1.0
141
2.0
290
     0
  0
SCALE
  5
244
102
{ACAD_REACTORS
330
241
102
}
330
241
100
AcDbScale
 70
     0
300
1:4
140
1.0
141
4.0
290
     0
  0
SCALE
  5
245
102
{ACAD_REACTORS
330
241
102
}
330
241
100
AcDbScale
 70
     0
300
1:5
140
1.0
141
5.0
290
     0
  0
SCALE
  5
246
102
{ACAD_REACTORS
330
241
102
}
330
241
100
AcDbScale
 70
     0
300
1:8
140
1.0
141
8.0
290
     0
  0
SCALE
  5
247
102
{ACAD_REACTORS
330
241
102
}
330
241
100
AcDbScale
 70
     0
300
1:10
140
1.0
141
10.0
290
     0
  0
SCALE
  5
248
102
{ACAD_REACTORS
330
241
102
}
330
241
100
AcDbScale
 70
     0
300
1:16
140
1.0
141
16.0
290
     0
  0
SCALE
  5
249
102
{ACAD_REACTORS
330
241
102
}
330
241
100
AcDbScale
 70
     0
300
1:20
140
1.0
141
20.0
290
     0
  0
SCALE
  5
24A
102
{ACAD_REACTORS
330
241
102
}
330
241
100
AcDbScale
 70
     0
300
1:30
140
1.0
141
30.0
290
     0
  0
SCALE
  5
24B
102
{ACAD_REACTORS
330
241
102
}
330
241
100
AcDbScale
 70
     0
300
1:40
140
1.0
141
40.0
290
     0
  0
SCALE
  5
24C
102
{ACAD_REACTORS
330
241
102
}
330
241
100
AcDbScale
 70
     0
300
1:50
140
1.0
141
50.0
290
     0
  0
SCALE
  5
24D
102
{ACAD_REACTORS
330
241
102
}
330
241
100
AcDbScale
 70
     0
300
1:100
140
1.0
141
100.0
290
     0
  0
SCALE
  5
24E
102
{ACAD_REACTORS
330
241
102
}
330
241
100
AcDbScale
 70
     0
300
2:1
140
2.0
141
1.0
290
     0
  0
SCALE
  5
24F
102
{ACAD_REACTORS
330
241
102
}
330
241
100
AcDbScale
 70
     0
300
4:1
140
4.0
141
1.0
290
     0
  0
SCALE
  5
250
102
{ACAD_REACTORS
330
241
102
}
330
241
100
AcDbScale
 70
     0
300
8:1
140
8.0
141
1.0
290
     0
  0
SCALE
  5
251
102
{ACAD_REACTORS
330
241
102
}
330
241
100
AcDbScale
 70
     0
300
10:1
140
10.0
141
1.0
290
     0
  0
SCALE
  5
252
102
{ACAD_REACTORS
330
241
102
}
330
241
100
AcDbScale
 70
     0
300
100:1
140
100.0
141
1.0
290
     0
  0
SCALE
  5
253
102
{ACAD_REACTORS
330
241
102
}
330
241
100
AcDbScale
 70
     0
300
1/128" = 1'-0"
140
0.0078125
141
12.0
290
     0
  0
SCALE
  5
254
102
{ACAD_REACTORS
330
241
102
}
330
241
100
AcDbScale
 70
     0
300
1/64" = 1'-0"
140
0.015625
141
12.0
290
     0
  0
SCALE
  5
255
102
{ACAD_REACTORS
330
241
102
}
330
241
100
AcDbScale
 70
     0
300
1/32" = 1'-0"
140
0.03125
141
12.0
290
     0
  0
SCALE
  5
256
102
{ACAD_REACTORS
330
241
102
}
330
241
100
AcDbScale
 70
     0
300
1/16" = 1'-0"
140
0.0625
141
12.0
290
     0
  0
SCALE
  5
257
102
{ACAD_REACTORS
330
241
102
}
330
241
100
AcDbScale
 70
     0
300
3/32" = 1'-0"
140
0.09375
141
12.0
290
     0
  0
SCALE
  5
258
102
{ACAD_REACTORS
330
241
102
}
330
241
100
AcDbScale
 70
     0
300
1/8" = 1'-0"
140
0.125
141
12.0
290
     0
  0
SCALE
  5
259
102
{ACAD_REACTORS
330
241
102
}
330
241
100
AcDbScale
 70
     0
300
3/16" = 1'-0"
140
0.1875
141
12.0
290
     0
  0
SCALE
  5
25A
102
{ACAD_REACTORS
330
241
102
}
330
241
100
AcDbScale
 70
     0
300
1/4" = 1'-0"
140
0.25
141
12.0
290
     0
  0
SCALE
  5
25B
102
{ACAD_REACTORS
330
241
102
}
330
241
100
AcDbScale
 70
     0
300
3/8" = 1'-0"
140
0.375
141
12.0
290
     0
  0
SCALE
  5
25C
102
{ACAD_REACTORS
330
241
102
}
330
241
100
AcDbScale
 70
     0
300
1/2" = 1'-0"
140
0.5
141
12.0
290
     0
  0
SCALE
  5
25D
102
{ACAD_REACTORS
330
241
102
}
330
241
100
AcDbScale
 70
     0
300
3/4" = 1'-0"
140
0.75
141
12.0
290
     0
  0
SCALE
  5
25E
102
{ACAD_REACTORS
330
241
102
}
330
241
100
AcDbScale
 70
     0
300
1" = 1'-0"
140
1.0
141
12.0
290
     0
  0
SCALE
  5
25F
102
{ACAD_REACTORS
330
241
102
}
330
241
100
AcDbScale
 70
     0
300
1-1/2" = 1'-0"
140
1.5
141
12.0
290
     0
  0
SCALE
  5
260
102
{ACAD_REACTORS
330
241
102
}
330
241
100
AcDbScale
 70
     0
300
3" = 1'-0"
140
3.0
141
12.0
290
     0
  0
SCALE
  5
261
102
{ACAD_REACTORS
330
241
102
}
330
241
100
AcDbScale
 70
     0
300
6" = 1'-0"
140
6.0
141
12.0
290
     0
  0
SCALE
  5
262
102
{ACAD_REACTORS
330
241
102
}
330
241
100
AcDbScale
 70
     0
300
1'-0" = 1'-0"
140
12.0
141
12.0
290
     0
  0
TABLESTYLE
  5
279
102
{ACAD_REACTORS
330
278
102
}
102
{ACAD_XDICTIONARY
360
1A30
102
}
330
278
100
AcDbTableStyle
  3
Standard
 70
     0
 71
     0
 40
0.06
 41
0.06
280
     0
281
     0
  7
Standard
140
4.5
170
     2
 62
     0
 63
   257
283
     0
 90
        4
 91
        0
  1

274
    -2
284
     1
 64
     0
275
    -2
285
     1
 65
     0
276
    -2
286
     1
 66
     0
277
    -2
287
     1
 67
     0
278
    -2
288
     1
 68
     0
279
    -2
289
     1
 69
     0
  7
Standard
140
6.0
170
     5
 62
     0
 63
   257
283
     0
 90
        4
 91
        0
  1

274
    -2
284
     1
 64
     0
275
    -2
285
     1
 65
     0
276
    -2
286
     1
 66
     0
277
    -2
287
     1
 67
     0
278
    -2
288
     1
 68
     0
279
    -2
289
     1
 69
     0
  7
Standard
140
4.5
170
     5
 62
     0
 63
   257
283
     0
 90
        4
 91
        0
  1

274
    -2
284
     1
 64
     0
275
    -2
285
     1
 65
     0
276
    -2
286
     1
 66
     0
277
    -2
287
     1
 67
     0
278
    -2
288
     1
 68
     0
279
    -2
289
     1
 69
     0
  0
VISUALSTYLE
  5
1A1C
102
{ACAD_REACTORS
330
267
102
}
330
267
100
AcDbVisualStyle
  2
*
 70
    10
 71
     0
 72
     2
 73
     0
 90
        0
 40
-0.6
 41
-30.0
 62
     5
 63
     7
421
 16777215
 74
     1
 91
        4
 64
     7
 65
   257
 75
     1
175
     1
 42
1.0
 92
        8
 66
     7
 43
1.0
 76
     1
 77
     6
 78
     2
 67
     7
 79
     5
170
     0
171
     0
290
     0
174
     0
 93
        1
 44
0.0
173
     0
291
     0
 45
0.0
  0
VISUALSTYLE
  5
26C
102
{ACAD_REACTORS
330
267
102
}
330
267
100
AcDbVisualStyle
  2
2dWireframe
 70
     4
 71
     0
 72
     2
 73
     0
 90
        0
 40
-0.6
 41
-30.0
 62
     5
 63
     7
421
 16777215
 74
     1
 91
        4
 64
     7
 65
   257
 75
     1
175
     1
 42
1.0
 92
        0
 66
   257
 43
1.0
 76
     1
 77
     6
 78
     2
 67
     7
 79
     5
170
     0
171
     0
290
     0
174
     0
 93
        1
 44
0.0
173
     0
291
     0
 45
0.0
  0
VISUALSTYLE
  5
26E
102
{ACAD_REACTORS
330
267
102
}
330
267
100
AcDbVisualStyle
  2
3D Hidden
 70
     6
 71
     1
 72
     2
 73
     2
 90
        0
 40
-0.6
 41
-30.0
 62
     5
 63
     7
421
 16777215
 74
     2
 91
        2
 64
     7
 65
   257
 75
     2
175
     1
 42
40.0
 92
        0
 66
   257
 43
1.0
 76
     1
 77
     6
 78
     2
 67
     7
 79
     3
170
     0
171
     0
290
     0
174
     0
 93
        1
 44
0.0
173
     0
291
     0
 45
0.0
  0
VISUALSTYLE
  5
26D
102
{ACAD_REACTORS
330
267
102
}
330
267
100
AcDbVisualStyle
  2
3dWireframe
 70
     5
 71
     0
 72
     2
 73
     0
 90
        0
 40
-0.6
 41
-30.0
 62
     5
 63
     7
421
 16777215
 74
     1
 91
        4
 64
     7
 65
   257
 75
     1
175
     1
 42
1.0
 92
        0
 66
   257
 43
1.0
 76
     1
 77
     6
 78
     2
 67
     7
 79
     5
170
     0
171
     0
290
     0
174
     0
 93
        1
 44
0.0
173
     0
291
     0
 45
0.0
  0
VISUALSTYLE
  5
26F
102
{ACAD_REACTORS
330
267
102
}
330
267
100
AcDbVisualStyle
  2
Basic
 70
     7
 71
     1
 72
     0
 73
     1
 90
        0
 40
-0.6
 41
-30.0
 62
     5
 63
     7
421
 16777215
 74
     0
 91
        4
 64
     7
 65
   257
 75
     1
175
     1
 42
1.0
 92
        8
 66
     7
 43
1.0
 76
     1
 77
     6
 78
     2
 67
     7
 79
     5
170
     0
171
     0
290
     0
174
     0
 93
        1
 44
0.0
173
     0
291
     1
 45
0.0
  0
VISUALSTYLE
  5
273
102
{ACAD_REACTORS
330
267
102
}
330
267
100
AcDbVisualStyle
  2
Brighten
 70
    12
 71
     2
 72
     2
 73
     0
 90
        0
 40
-0.6
 41
-30.0
 62
     5
 63
     7
421
 16777215
 74
     1
 91
        4
 64
     7
 65
   257
 75
     1
175
     1
 42
1.0
 92
        8
 66
     7
 43
1.0
 76
     1
 77
     6
 78
     2
 67
     7
 79
     5
170
     0
171
     0
290
     0
174
     0
 93
        1
 44
50.0
173
     0
291
     1
 45
0.0
  0
VISUALSTYLE
  5
277
102
{ACAD_REACTORS
330
267
102
}
330
267
100
AcDbVisualStyle
  2
ColorChange
 70
    16
 71
     2
 72
     2
 73
     3
 90
        0
 40
-0.6
 41
-30.0
 62
     5
 63
     8
421
  8421504
 74
     1
 91
        4
 64
     7
 65
   257
 75
     1
175
     1
 42
1.0
 92
        8
 66
     8
424
  8421504
 43
1.0
 76
     1
 77
     6
 78
     2
 67
     7
 79
     5
170
     0
171
     0
290
     0
174
     0
 93
        1
 44
0.0
173
     0
291
     1
 45
0.0
  0
VISUALSTYLE
  5
271
102
{ACAD_REACTORS
330
267
102
}
330
267
100
AcDbVisualStyle
  2
Conceptual
 70
     9
 71
     3
 72
     2
 73
     0
 90
        0
 40
-0.6
 41
-30.0
 62
     5
 63
     7
421
 16777215
 74
     2
 91
        2
 64
     7
 65
   257
 75
     1
175
     1
 42
40.0
 92
        8
 66
     7
 43
1.0
 76
     1
 77
     6
 78
     2
 67
     7
 79
     3
170
     0
171
     0
290
     0
174
     0
 93
        1
 44
0.0
173
     0
291
     0
 45
0.0
  0
VISUALSTYLE
  5
272
102
{ACAD_REACTORS
330
267
102
}
330
267
100
AcDbVisualStyle
  2
Dim
 70
    11
 71
     2
 72
     2
 73
     0
 90
        0
 40
-0.6
 41
-30.0
 62
     5
 63
     7
421
 16777215
 74
     1
 91
        4
 64
     7
 65
   257
 75
     1
175
     1
 42
1.0
 92
        8
 66
     7
 43
1.0
 76
     1
 77
     6
 78
     2
 67
     7
 79
     5
170
     0
171
     0
290
     0
174
     0
 93
        1
 44
-50.0
173
     0
291
     1
 45
0.0
  0
VISUALSTYLE
  5
8FE
102
{ACAD_REACTORS
330
267
102
}
330
267
100
AcDbVisualStyle
  2
EdgeColorOff
 70
    22
 71
     2
 72
     2
 73
     0
 90
        0
 40
0.6
 41
30.0
 62
     5
 63
     7
421
 16777215
 74
     1
 91
        4
 64
     7
 65
   257
 75
     1
175
     1
 42
1.0
 92
        8
 66
     7
 43
1.0
 76
     1
 77
     6
 78
     2
 67
     7
 79
     5
170
     0
171
     0
290
     0
174
     0
 93
        1
 44
0.0
173
     0
291
     1
 45
0.0
  0
VISUALSTYLE
  5
276
102
{ACAD_REACTORS
330
267
102
}
330
267
100
AcDbVisualStyle
  2
Facepattern
 70
    15
 71
     2
 72
     2
 73
     0
 90
        0
 40
-0.6
 41
-30.0
 62
     5
 63
     7
421
 16777215
 74
     1
 91
        4
 64
     7
 65
   257
 75
     1
175
     1
 42
1.0
 92
        8
 66
     7
 43
1.0
 76
     1
 77
     6
 78
     2
 67
     7
 79
     5
170
     0
171
     0
290
     0
174
     0
 93
        1
 44
0.0
173
     0
291
     1
 45
0.0
  0
VISUALSTYLE
  5
268
102
{ACAD_REACTORS
330
267
102
}
330
267
100
AcDbVisualStyle
  2
Flat
 70
     0
 71
     2
 72
     1
 73
     1
 90
        2
 40
-0.6
 41
30.0
 62
     5
 63
     7
421
 16777215
 74
     0
 91
        4
 64
     7
 65
   257
 75
     1
175
     1
 42
1.0
 92
        8
 66
     7
 43
1.0
 76
     1
 77
     6
 78
     2
 67
     7
 79
     5
170
     0
171
     0
290
     0
174
     0
 93
       13
 44
0.0
173
     0
291
     1
 45
0.0
  0
VISUALSTYLE
  5
269
102
{ACAD_REACTORS
330
267
102
}
330
267
100
AcDbVisualStyle
  2
FlatWithEdges
 70
     1
 71
     2
 72
     1
 73
     1
 90
        2
 40
-0.6
 41
30.0
 62
     5
 63
     7
421
 16777215
 74
     1
 91
        4
 64
     7
 65
   257
 75
     1
175
     1
 42
1.0
 92
        0
 66
   257
 43
1.0
 76
     1
 77
     6
 78
     2
 67
     7
 79
     5
170
     0
171
     0
290
     0
174
     0
 93
       13
 44
0.0
173
     0
291
     1
 45
0.0
  0
VISUALSTYLE
  5
26A
102
{ACAD_REACTORS
330
267
102
}
330
267
100
AcDbVisualStyle
  2
Gouraud
 70
     2
 71
     2
 72
     2
 73
     1
 90
        2
 40
-0.6
 41
30.0
 62
     5
 63
     7
421
 16777215
 74
     0
 91
        4
 64
     7
 65
   257
 75
     1
175
     1
 42
1.0
 92
        0
 66
     7
 43
1.0
 76
     1
 77
     6
 78
     2
 67
     7
 79
     5
170
     0
171
     0
290
     0
174
     0
 93
       13
 44
0.0
173
     0
291
     1
 45
0.0
  0
VISUALSTYLE
  5
26B
102
{ACAD_REACTORS
330
267
102
}
330
267
100
AcDbVisualStyle
  2
GouraudWithEdges
 70
     3
 71
     2
 72
     2
 73
     1
 90
        2
 40
-0.6
 41
30.0
 62
     5
 63
     7
421
 16777215
 74
     1
 91
        4
 64
     7
 65
   257
 75
     1
175
     1
 42
1.0
 92
        0
 66
   257
 43
1.0
 76
     1
 77
     6
 78
     2
 67
     7
 79
     5
170
     0
171
     0
290
     0
174
     0
 93
       13
 44
0.0
173
     0
291
     1
 45
0.0
  0
VISUALSTYLE
  5
8FB
102
{ACAD_REACTORS
330
267
102
}
330
267
100
AcDbVisualStyle
  2
Hidden
 70
     6
 71
     1
 72
     2
 73
     2
 90
        0
 40
0.6
 41
30.0
 62
     5
 63
     7
421
 16777215
 74
     2
 91
        2
 64
     7
 65
   257
 75
     2
175
     1
 42
40.0
 92
        0
 66
   257
 43
1.0
 76
     1
 77
     6
 78
     2
 67
     7
 79
     3
170
     0
171
     0
290
     0
174
     0
 93
        1
 44
0.0
173
     0
291
     0
 45
0.0
  0
VISUALSTYLE
  5
8FC
102
{ACAD_REACTORS
330
267
102
}
330
267
100
AcDbVisualStyle
  2
JitterOff
 70
    20
 71
     2
 72
     2
 73
     0
 90
        0
 40
0.6
 41
30.0
 62
     5
 63
     7
421
 16777215
 74
     1
 91
        4
 64
     7
 65
   257
 75
     1
175
     1
 42
1.0
 92
       10
 66
     7
 43
1.0
 76
     1
 77
     6
 78
     2
 67
     7
 79
     5
170
     0
171
     0
290
     0
174
     0
 93
        1
 44
0.0
173
     0
291
     1
 45
0.0
  0
VISUALSTYLE
  5
275
102
{ACAD_REACTORS
330
267
102
}
330
267
100
AcDbVisualStyle
  2
Linepattern
 70
    14
 71
     2
 72
     2
 73
     0
 90
        0
 40
-0.6
 41
-30.0
 62
     5
 63
     7
421
 16777215
 74
     1
 91
        4
 64
     7
 65
   257
 75
     7
175
     7
 42
1.0
 92
        8
 66
     7
 43
1.0
 76
     1
 77
     6
 78
     2
 67
     7
 79
     5
170
     0
171
     0
290
     0
174
     0
 93
        1
 44
0.0
173
     0
291
     1
 45
0.0
  0
VISUALSTYLE
  5
8FD
102
{ACAD_REACTORS
330
267
102
}
330
267
100
AcDbVisualStyle
  2
OverhangOff
 70
    21
 71
     2
 72
     2
 73
     0
 90
        0
 40
0.6
 41
30.0
 62
     5
 63
     7
421
 16777215
 74
     1
 91
        4
 64
     7
 65
   257
 75
     1
175
     1
 42
1.0
 92
        9
 66
     7
 43
1.0
 76
     1
 77
     6
 78
     2
 67
     7
 79
     5
170
     0
171
     0
290
     0
174
     0
 93
        1
 44
0.0
173
     0
291
     1
 45
0.0
  0
VISUALSTYLE
  5
270
102
{ACAD_REACTORS
330
267
102
}
330
267
100
AcDbVisualStyle
  2
Realistic
 70
     8
 71
     2
 72
     2
 73
     0
 90
        0
 40
-0.6
 41
-30.0
 62
     5
 63
     7
421
 16777215
 74
     1
 91
        0
 64
     7
 65
   257
 75
     1
175
     1
 42
1.0
 92
        8
 66
     8
424
  7895160
 43
1.0
 76
     1
 77
     6
 78
     2
 67
     7
 79
     5
170
     0
171
     0
290
     0
174
     0
 93
       13
 44
0.0
173
     0
291
     0
 45
0.0
  0
VISUALSTYLE
  5
903
102
{ACAD_REACTORS
330
267
102
}
330
267
100
AcDbVisualStyle
  2
Shaded
 70
    27
 71
     2
 72
     2
 73
     1
 90
        2
 40
0.6
 41
30.0
 62
     5
 63
     7
421
 16777215
 74
     0
 91
        4
 64
     7
 65
   257
 75
     1
175
     1
 42
1.0
 92
        8
 66
   257
 43
1.0
 76
     1
 77
     6
 78
     2
 67
     8
425
  7895160
 79
     3
170
     0
171
     0
290
     0
174
     0
 93
        5
 44
0.0
173
     0
291
     0
 45
0.0
  0
VISUALSTYLE
  5
902
102
{ACAD_REACTORS
330
267
102
}
330
267
100
AcDbVisualStyle
  2
Shaded with edges
 70
    26
 71
     2
 72
     2
 73
     1
 90
        2
 40
0.6
 41
30.0
 62
     5
 63
     7
421
 16777215
 74
     1
 91
       10
 64
     7
 65
   257
 75
     2
175
     1
 42
1.0
 92
        8
 66
   257
 43
1.0
 76
     1
 77
     6
 78
     2
 67
     7
 79
     3
170
     0
171
     0
290
     0
174
     0
 93
        5
 44
0.0
173
     0
291
     0
 45
0.0
  0
VISUALSTYLE
  5
8FF
102
{ACAD_REACTORS
330
267
102
}
330
267
100
AcDbVisualStyle
  2
Shades of Gray
 70
    23
 71
     2
 72
     2
 73
     3
 90
        0
 40
0.6
 41
30.0
 62
     5
 63
     7
421
 16777215
 74
     2
 91
        2
 64
     7
 65
     7
 75
     1
175
     1
 42
40.0
 92
        8
 66
     7
 43
1.0
 76
     1
 77
     6
 78
     2
 67
     7
 79
     3
170
     0
171
     0
290
     0
174
     0
 93
        1
 44
0.0
173
     0
291
     0
 45
0.0
  0
VISUALSTYLE
  5
900
102
{ACAD_REACTORS
330
267
102
}
330
267
100
AcDbVisualStyle
  2
Sketchy
 70
    24
 71
     1
 72
     2
 73
     2
 90
        0
 40
0.6
 41
30.0
 62
     5
 63
     7
421
 16777215
 74
     2
 91
        2
 64
     7
 65
     7
 75
     1
175
     1
 42
40.0
 92
       11
 66
     7
 43
1.0
 76
     1
 77
     6
 78
     2
 67
     7
 79
     6
170
     0
171
     0
290
     0
174
     0
 93
        1
 44
0.0
173
     0
291
     0
 45
0.0
  0
VISUALSTYLE
  5
274
102
{ACAD_REACTORS
330
267
102
}
330
267
100
AcDbVisualStyle
  2
Thicken
 70
    13
 71
     2
 72
     2
 73
     0
 90
        0
 40
-0.6
 41
-30.0
 62
     5
 63
     7
421
 16777215
 74
     1
 91
        4
 64
     7
 65
   257
 75
     1
175
     1
 42
1.0
 92
       12
 66
     7
 43
1.0
 76
     1
 77
     6
 78
     2
 67
     7
 79
     5
170
     0
171
     0
290
     0
174
     0
 93
        1
 44
0.0
173
     0
291
     1
 45
0.0
  0
VISUALSTYLE
  5
8FA
102
{ACAD_REACTORS
330
267
102
}
330
267
100
AcDbVisualStyle
  2
Wireframe
 70
     5
 71
     0
 72
     2
 73
     0
 90
        0
 40
0.6
 41
30.0
 62
     5
 63
     7
421
 16777215
 74
     1
 91
        4
 64
     7
 65
   257
 75
     1
175
     1
 42
1.0
 92
        0
 66
   257
 43
1.0
 76
     1
 77
     6
 78
     2
 67
     7
 79
     3
170
     0
171
     0
290
     0
174
     0
 93
        1
 44
0.0
173
     0
291
     0
 45
0.0
  0
VISUALSTYLE
  5
901
102
{ACAD_REACTORS
330
267
102
}
330
267
100
AcDbVisualStyle
  2
X-Ray
 70
    25
 71
     2
 72
     2
 73
     1
 90
        1
 40
0.5
 41
30.0
 62
     5
 63
     7
421
 16777215
 74
     1
 91
        0
 64
     7
 65
   257
 75
     1
175
     1
 42
1.0
 92
        8
 66
     7
 43
1.0
 76
     1
 77
     6
 78
     2
 67
     7
 79
     3
170
     0
171
     0
290
     0
174
     0
 93
       13
 44
0.0
173
     0
291
     0
 45
0.0
  0
DICTIONARYVAR
  5
331
102
{ACAD_REACTORS
330
330
102
}
330
330
100
DictionaryVariables
280
     0
  1
1:1
  0
DICTIONARYVAR
  5
1A2A
102
{ACAD_REACTORS
330
330
102
}
330
330
100
DictionaryVariables
280
     0
  1
Standard
  0
DICTIONARYVAR
  5
335
102
{ACAD_REACTORS
330
330
102
}
330
330
100
DictionaryVariables
280
     0
  1
Standard
  0
DICTIONARYVAR
  5
D52
102
{ACAD_REACTORS
330
330
102
}
330
330
100
DictionaryVariables
280
     0
  1
ByLayer
  0
DICTIONARYVAR
  5
896
102
{ACAD_REACTORS
330
330
102
}
330
330
100
DictionaryVariables
280
     0
  1
0
  0
DICTIONARYVAR
  5
1A23
102
{ACAD_REACTORS
330
1A22
102
}
330
1A22
100
DictionaryVariables
280
     0
  1
0.250000
  0
DICTIONARYVAR
  5
1A20
102
{ACAD_REACTORS
330
1A1D
102
}
330
1A1D
100
DictionaryVariables
280
     0
  1
0.261799
  0
DICTIONARYVAR
  5
1A1E
102
{ACAD_REACTORS
330
1A1D
102
}
330
1A1D
100
DictionaryVariables
280
     0
  1
0.400000
  0
DICTIONARYVAR
  5
1A1F
102
{ACAD_REACTORS
330
1A1D
102
}
330
1A1D
100
DictionaryVariables
280
     0
  1
0.250000
  0
DICTIONARYVAR
  5
1A21
102
{ACAD_REACTORS
330
1A1D
102
}
330
1A1D
100
DictionaryVariables
280
     0
  1
0
  0
DICTIONARY
  5
1A30
330
279
100
AcDbDictionary
280
     1
281
     1
  3
ACAD_ROUNDTRIP_2008_TABLESTYLE_CELLSTYLEMAP
360
1A31
  0
CELLSTYLEMAP
  5
1A31
102
{ACAD_REACTORS
330
1A30
102
}
330
1A30
100
AcDbCellStyleMap
 90
        3
300
CELLSTYLE
  1
TABLEFORMAT_BEGIN
 90
        5
170
     1
 91
        0
 92
    32768
 62
   257
 93
        1
300
CONTENTFORMAT
  1
CONTENTFORMAT_BEGIN
 90
        0
 91
        0
 92
        4
 93
        0
300

 40
0.0
140
1.0
 94
        5
 62
     0
340
17
144
6.0
309
CONTENTFORMAT_END
171
     1
301
MARGIN
  1
CELLMARGIN_BEGIN
 40
0.06
 40
0.06
 40
0.06
 40
0.06
 40
0.18
 40
0.18
309
CELLMARGIN_END
 94
        6
 95
        1
302
GRIDFORMAT
  1
GRIDFORMAT_BEGIN
 90
        0
 91
        1
 62
     0
 92
       -2
340
0
 93
        0
 40
0.045
309
GRIDFORMAT_END
 95
        2
302
GRIDFORMAT
  1
GRIDFORMAT_BEGIN
 90
        0
 91
        1
 62
     0
 92
       -2
340
0
 93
        0
 40
0.045
309
GRIDFORMAT_END
 95
        4
302
GRIDFORMAT
  1
GRIDFORMAT_BEGIN
 90
        0
 91
        1
 62
     0
 92
       -2
340
0
 93
        0
 40
0.045
309
GRIDFORMAT_END
 95
        8
302
GRIDFORMAT
  1
GRIDFORMAT_BEGIN
 90
        0
 91
        1
 62
     0
 92
       -2
340
0
 93
        0
 40
0.045
309
GRIDFORMAT_END
 95
       16
302
GRIDFORMAT
  1
GRIDFORMAT_BEGIN
 90
        0
 91
        1
 62
     0
 92
       -2
340
0
 93
        0
 40
0.045
309
GRIDFORMAT_END
 95
       32
302
GRIDFORMAT
  1
GRIDFORMAT_BEGIN
 90
        0
 91
        1
 62
     0
 92
       -2
340
0
 93
        0
 40
0.045
309
GRIDFORMAT_END
309
TABLEFORMAT_END
  1
CELLSTYLE_BEGIN
 90
        1
 91
        1
300
_TITLE
309
CELLSTYLE_END
300
CELLSTYLE
  1
TABLEFORMAT_BEGIN
 90
        5
170
     1
 91
        0
 92
        0
 62
   257
 93
        1
300
CONTENTFORMAT
  1
CONTENTFORMAT_BEGIN
 90
        0
 91
        0
 92
        4
 93
        0
300

 40
0.0
140
1.0
 94
        5
 62
     0
340
17
144
4.5
309
CONTENTFORMAT_END
171
     1
301
MARGIN
  1
CELLMARGIN_BEGIN
 40
0.06
 40
0.06
 40
0.06
 40
0.06
 40
0.18
 40
0.18
309
CELLMARGIN_END
 94
        6
 95
        1
302
GRIDFORMAT
  1
GRIDFORMAT_BEGIN
 90
        0
 91
        1
 62
     0
 92
       -2
340
0
 93
        0
 40
0.045
309
GRIDFORMAT_END
 95
        2
302
GRIDFORMAT
  1
GRIDFORMAT_BEGIN
 90
        0
 91
        1
 62
     0
 92
       -2
340
0
 93
        0
 40
0.045
309
GRIDFORMAT_END
 95
        4
302
GRIDFORMAT
  1
GRIDFORMAT_BEGIN
 90
        0
 91
        1
 62
     0
 92
       -2
340
0
 93
        0
 40
0.045
309
GRIDFORMAT_END
 95
        8
302
GRIDFORMAT
  1
GRIDFORMAT_BEGIN
 90
        0
 91
        1
 62
     0
 92
       -2
340
0
 93
        0
 40
0.045
309
GRIDFORMAT_END
 95
       16
302
GRIDFORMAT
  1
GRIDFORMAT_BEGIN
 90
        0
 91
        1
 62
     0
 92
       -2
340
0
 93
        0
 40
0.045
309
GRIDFORMAT_END
 95
       32
302
GRIDFORMAT
  1
GRIDFORMAT_BEGIN
 90
        0
 91
        1
 62
     0
 92
       -2
340
0
 93
        0
 40
0.045
309
GRIDFORMAT_END
309
TABLEFORMAT_END
  1
CELLSTYLE_BEGIN
 90
        2
 91
        1
300
_HEADER
309
CELLSTYLE_END
300
CELLSTYLE
  1
TABLEFORMAT_BEGIN
 90
        5
170
     1
 91
        0
 92
        0
 62
   257
 93
        1
300
CONTENTFORMAT
  1
CONTENTFORMAT_BEGIN
 90
        0
 91
        0
 92
        4
 93
        0
300

 40
0.0
140
1.0
 94
        2
 62
     0
340
17
144
4.5
309
CONTENTFORMAT_END
171
     1
301
MARGIN
  1
CELLMARGIN_BEGIN
 40
0.06
 40
0.06
 40
0.06
 40
0.06
 40
0.18
 40
0.18
309
CELLMARGIN_END
 94
        6
 95
        1
302
GRIDFORMAT
  1
GRIDFORMAT_BEGIN
 90
        0
 91
        1
 62
     0
 92
       -2
340
0
 93
        0
 40
0.045
309
GRIDFORMAT_END
 95
        2
302
GRIDFORMAT
  1
GRIDFORMAT_BEGIN
 90
        0
 91
        1
 62
     0
 92
       -2
340
0
 93
        0
 40
0.045
309
GRIDFORMAT_END
 95
        4
302
GRIDFORMAT
  1
GRIDFORMAT_BEGIN
 90
        0
 91
        1
 62
     0
 92
       -2
340
0
 93
        0
 40
0.045
309
GRIDFORMAT_END
 95
        8
302
GRIDFORMAT
  1
GRIDFORMAT_BEGIN
 90
        0
 91
        1
 62
     0
 92
       -2
340
0
 93
        0
 40
0.045
309
GRIDFORMAT_END
 95
       16
302
GRIDFORMAT
  1
GRIDFORMAT_BEGIN
 90
        0
 91
        1
 62
     0
 92
       -2
340
0
 93
        0
 40
0.045
309
GRIDFORMAT_END
 95
       32
302
GRIDFORMAT
  1
GRIDFORMAT_BEGIN
 90
        0
 91
        1
 62
     0
 92
       -2
340
0
 93
        0
 40
0.045
309
GRIDFORMAT_END
309
TABLEFORMAT_END
  1
CELLSTYLE_BEGIN
 90
        3
 91
        2
300
_DATA
309
CELLSTYLE_END
  0
ENDSEC
  0
EOF
