  0
SECTION
  2
HEADER
  9
$ACADVER
  1
AC1021
  9
$ACADMAINTVER
 70
    25
  9
$DWGCODEPAGE
  3
ANSI_932
  9
$LASTSAVEDBY
  1
howeNelson
  9
$INSBASE
 10
0.0
 20
0.0
 30
0.0
  9
$EXTMIN
 10
0.0
 20
0.0
 30
-0.0000000000000071
  9
$EXTMAX
 10
630.0
 20
891.0
 30
0.0000000000000071
  9
$LIMMIN
 10
0.0
 20
0.0
  9
$LIMMAX
 10
630.0
 20
891.0
  9
$ORTHOMODE
 70
     0
  9
$REGENMODE
 70
     1
  9
$FILLMODE
 70
     1
  9
$QTEXTMODE
 70
     0
  9
$MIRRTEXT
 70
     1
  9
$LTSCALE
 40
0.75
  9
$ATTMODE
 70
     1
  9
$TEXTSIZE
 40
2.5
  9
$TRACEWID
 40
1.0
  9
$TEXTSTYLE
  7
ＭＳ ゴシック
  9
$CLAYER
  8
MODEL
  9
$CELTYPE
  6
ByLayer
  9
$CECOLOR
 62
   256
  9
$CELTSCALE
 40
1.0
  9
$DISPSILH
 70
     0
  9
$DIMSCALE
 40
1.0
  9
$DIMASZ
 40
3.0
  9
$DIMEXO
 40
5.0
  9
$DIMDLI
 40
0.9999999999999999
  9
$DIMRND
 40
0.0
  9
$DIMDLE
 40
0.0
  9
$DIMEXE
 40
0.0
  9
$DIMTP
 40
0.0
  9
$DIMTM
 40
0.0
  9
$DIMTXT
 40
6.0
  9
$DIMCEN
 40
0.0
  9
$DIMTSZ
 40
0.0
  9
$DIMTOL
 70
     0
  9
$DIMLIM
 70
     0
  9
$DIMTIH
 70
     0
  9
$DIMTOH
 70
     0
  9
$DIMSE1
 70
     0
  9
$DIMSE2
 70
     0
  9
$DIMTAD
 70
     1
  9
$DIMZIN
 70
    11
  9
$DIMBLK
  1
DOT
  9
$DIMASO
 70
     1
  9
$DIMSHO
 70
     1
  9
$DIMPOST
  1
<>
  9
$DIMAPOST
  1
[]
  9
$DIMALT
 70
     0
  9
$DIMALTD
 70
     1
  9
$DIMALTF
 40
1.0
  9
$DIMLFAC
 40
1.0
  9
$DIMTOFL
 70
     0
  9
$DIMTVP
 40
0.0
  9
$DIMTIX
 70
     1
  9
$DIMSOXD
 70
     0
  9
$DIMSAH
 70
     0
  9
$DIMBLK1
  1

  9
$DIMBLK2
  1

  9
$DIMSTYLE
  2
tfrom線あり
  9
$DIMCLRD
 70
     0
  9
$DIMCLRE
 70
     0
  9
$DIMCLRT
 70
     0
  9
$DIMTFAC
 40
1.0
  9
$DIMGAP
 40
4.0
  9
$DIMJUST
 70
     0
  9
$DIMSD1
 70
     0
  9
$DIMSD2
 70
     0
  9
$DIMTOLJ
 70
     1
  9
$DIMTZIN
 70
    11
  9
$DIMALTZ
 70
    11
  9
$DIMALTTZ
 70
    11
  9
$DIMUPT
 70
     0
  9
$DIMDEC
 70
     0
  9
$DIMTDEC
 70
     1
  9
$DIMALTU
 70
     2
  9
$DIMALTTD
 70
     2
  9
$DIMTXSTY
  7
ＭＳ ゴシック
  9
$DIMAUNIT
 70
     0
  9
$DIMADEC
 70
     2
  9
$DIMALTRND
 40
0.0
  9
$DIMAZIN
 70
     0
  9
$DIMDSEP
 70
    46
  9
$DIMATFIT
 70
     0
  9
$DIMFRAC
 70
     2
  9
$DIMLDRBLK
  1
DOT
  9
$DIMLUNIT
 70
     2
  9
$DIMLWD
 70
    -2
  9
$DIMLWE
 70
    -2
  9
$DIMTMOVE
 70
     0
  9
$DIMFXL
 40
1.0
  9
$DIMFXLON
 70
     0
  9
$DIMJOGANG
 40
0.7853981633974483
  9
$DIMTFILL
 70
     0
  9
$DIMTFILLCLR
 70
     0
  9
$DIMARCSYM
 70
     0
  9
$DIMLTYPE
  6

  9
$DIMLTEX1
  6

  9
$DIMLTEX2
  6

  9
$LUNITS
 70
     2
  9
$LUPREC
 70
     0
  9
$SKETCHINC
 40
0.1
  9
$FILLETRAD
 40
0.0
  9
$AUNITS
 70
     0
  9
$AUPREC
 70
     0
  9
$MENU
  1
acad
  9
$ELEVATION
 40
0.0
  9
$PELEVATION
 40
0.0
  9
$THICKNESS
 40
0.0
  9
$LIMCHECK
 70
     0
  9
$CHAMFERA
 40
0.0
  9
$CHAMFERB
 40
0.0
  9
$CHAMFERC
 40
0.0
  9
$CHAMFERD
 40
0.0
  9
$SKPOLY
 70
     0
  9
$TDCREATE
 40
2447893.375
  9
$TDUCREATE
 40
0.0
  9
$TDUPDATE
 40
2458473.64051081
  9
$TDUUPDATE
 40
2458473.26551081
  9
$TDINDWG
 40
0.2125271991
  9
$TDUSRTIMER
 40
0.0966864815
  9
$USRTIMER
 70
     1
  9
$ANGBASE
 50
0.0
  9
$ANGDIR
 70
     0
  9
$PDMODE
 70
     1
  9
$PDSIZE
 40
-2.0
  9
$PLINEWID
 40
0.0
  9
$SPLFRAME
 70
     0
  9
$SPLINETYPE
 70
     6
  9
$SPLINESEGS
 70
     8
  9
$HANDSEED
  5
17D2B
  9
$SURFTAB1
 70
     6
  9
$SURFTAB2
 70
     6
  9
$SURFTYPE
 70
     6
  9
$SURFU
 70
     6
  9
$SURFV
 70
     6
  9
$UCSBASE
  2

  9
$UCSNAME
  2

  9
$UCSORG
 10
0.0
 20
0.0
 30
0.0
  9
$UCSXDIR
 10
1.0
 20
0.0
 30
0.0
  9
$UCSYDIR
 10
0.0
 20
1.0
 30
0.0
  9
$UCSORTHOREF
  2

  9
$UCSORTHOVIEW
 70
     0
  9
$UCSORGTOP
 10
0.0
 20
0.0
 30
0.0
  9
$UCSORGBOTTOM
 10
0.0
 20
0.0
 30
0.0
  9
$UCSORGLEFT
 10
0.0
 20
0.0
 30
0.0
  9
$UCSORGRIGHT
 10
0.0
 20
0.0
 30
0.0
  9
$UCSORGFRONT
 10
0.0
 20
0.0
 30
0.0
  9
$UCSORGBACK
 10
0.0
 20
0.0
 30
0.0
  9
$PUCSBASE
  2

  9
$PUCSNAME
  2

  9
$PUCSORG
 10
0.0
 20
0.0
 30
0.0
  9
$PUCSXDIR
 10
1.0
 20
0.0
 30
0.0
  9
$PUCSYDIR
 10
0.0
 20
1.0
 30
0.0
  9
$PUCSORTHOREF
  2

  9
$PUCSORTHOVIEW
 70
     0
  9
$PUCSORGTOP
 10
0.0
 20
0.0
 30
0.0
  9
$PUCSORGBOTTOM
 10
0.0
 20
0.0
 30
0.0
  9
$PUCSORGLEFT
 10
0.0
 20
0.0
 30
0.0
  9
$PUCSORGRIGHT
 10
0.0
 20
0.0
 30
0.0
  9
$PUCSORGFRONT
 10
0.0
 20
0.0
 30
0.0
  9
$PUCSORGBACK
 10
0.0
 20
0.0
 30
0.0
  9
$USERI1
 70
     0
  9
$USERI2
 70
     0
  9
$USERI3
 70
     0
  9
$USERI4
 70
     0
  9
$USERI5
 70
     0
  9
$USERR1
 40
0.0
  9
$USERR2
 40
0.0
  9
$USERR3
 40
0.0
  9
$USERR4
 40
0.0
  9
$USERR5
 40
0.0
  9
$WORLDVIEW
 70
     1
  9
$SHADEDGE
 70
     3
  9
$SHADEDIF
 70
    70
  9
$TILEMODE
 70
     1
  9
$MAXACTVP
 70
    64
  9
$PINSBASE
 10
0.0
 20
0.0
 30
0.0
  9
$PLIMCHECK
 70
     0
  9
$PEXTMIN
 10
0.0
 20
0.0
 30
0.0
  9
$PEXTMAX
 10
0.0
 20
0.0
 30
0.0
  9
$PLIMMIN
 10
-7.5
 20
-20.0
  9
$PLIMMAX
 10
412.5
 20
277.0
  9
$UNITMODE
 70
     0
  9
$VISRETAIN
 70
     0
  9
$PLINEGEN
 70
     1
  9
$PSLTSCALE
 70
     0
  9
$TREEDEPTH
 70
  3020
  9
$CMLSTYLE
  2
Standard
  9
$CMLJUST
 70
     0
  9
$CMLSCALE
 40
1.0
  9
$PROXYGRAPHICS
 70
     0
  9
$MEASUREMENT
 70
     1
  9
$CELWEIGHT
370
    -1
  9
$ENDCAPS
280
     0
  9
$JOINSTYLE
280
     0
  9
$LWDISPLAY
290
     1
  9
$INSUNITS
 70
     4
  9
$HYPERLINKBASE
  1

  9
$STYLESHEET
  1

  9
$XEDIT
290
     1
  9
$CEPSNTYPE
380
     0
  9
$PSTYLEMODE
290
     1
  9
$FINGERPRINTGUID
  2

  9
$VERSIONGUID
  2

  9
$EXTNAMES
290
     1
  9
$PSVPSCALE
 40
0.0
  9
$OLESTARTUP
290
     0
  9
$SORTENTS
280
   127
  9
$INDEXCTL
280
     0
  9
$HIDETEXT
280
     1
  9
$XCLIPFRAME
290
     0
  9
$HALOGAP
280
     0
  9
$OBSCOLOR
 70
   257
  9
$OBSLTYPE
280
     0
  9
$INTERSECTIONDISPLAY
280
     0
  9
$INTERSECTIONCOLOR
 70
   257
  9
$DIMASSOC
280
     2
  9
$PROJECTNAME
  1

  9
$CAMERADISPLAY
290
     0
  9
$LENSLENGTH
 40
50.0
  9
$CAMERAHEIGHT
 40
0.0
  9
$STEPSPERSEC
 40
2.0
  9
$STEPSIZE
 40
6.0
  9
$3DDWFPREC
 40
2.0
  9
$PSOLWIDTH
 40
0.25
  9
$PSOLHEIGHT
 40
4.0
  9
$LOFTANG1
 40
1.570796326794897
  9
$LOFTANG2
 40
1.570796326794897
  9
$LOFTMAG1
 40
0.0
  9
$LOFTMAG2
 40
0.0
  9
$LOFTPARAM
 70
     7
  9
$LOFTNORMALS
280
     1
  9
$LATITUDE
 40
37.795
  9
$LONGITUDE
 40
-122.394
  9
$NORTHDIRECTION
 40
0.0
  9
$TIMEZONE
 70
 -8000
  9
$LIGHTGLYPHDISPLAY
280
     1
  9
$TILEMODELIGHTSYNCH
280
     1
  9
$SOLIDHIST
280
     1
  9
$SHOWHIST
280
     1
  9
$DWFFRAME
280
     2
  9
$DGNFRAME
280
     2
  9
$REALWORLDSCALE
290
     1
  9
$INTERFERECOLOR
 62
   256
  9
$CSHADOW
280
     0
  9
$SHADOWPLANELOCATION
 40
0.0
  0
ENDSEC
  0
SECTION
  2
CLASSES
  0
CLASS
  1
LWPOLYLINE
  2
AcDbPolyline
  3
ObjectDBX Classes
 90
        0
 91
        1
280
     0
281
     1
  0
CLASS
  1
IMAGE
  2
AcDbRasterImage
  3
ISM
 90
      127
 91
        5
280
     0
281
     1
  0
CLASS
  1
OLE2FRAME
  2
AcDbOle2Frame
  3
ObjectDBX Classes
 90
        0
 91
        1
280
     0
281
     1
  0
CLASS
  1
HATCH
  2
AcDbHatch
  3
ObjectDBX Classes
 90
        0
 91
        1
280
     0
281
     1
  0
CLASS
  1
DICTIONARYVAR
  2
AcDbDictionaryVar
  3
ObjectDBX Classes
 90
        0
 91
        4
280
     0
281
     0
  0
CLASS
  1
RASTERVARIABLES
  2
AcDbRasterVariables
  3
ISM
 90
        0
 91
        4
280
     0
281
     0
  0
CLASS
  1
IMAGEDEF
  2
AcDbRasterImageDef
  3
ISM
 90
        0
 91
        4
280
     0
281
     0
  0
CLASS
  1
IMAGEDEF_REACTOR
  2
AcDbRasterImageDefReactor
  3
ISM
 90
        1
 91
        4
280
     0
281
     0
  0
CLASS
  1
IDBUFFER
  2
AcDbIdBuffer
  3
ObjectDBX Classes
 90
        0
 91
        4
280
     0
281
     0
  0
CLASS
  1
SPATIAL_FILTER
  2
AcDbSpatialFilter
  3
ObjectDBX Classes
 90
        0
 91
        4
280
     0
281
     0
  0
CLASS
  1
XRECORD
  2
AcDbXrecord
  3
ObjectDBX Classes
 90
        0
 91
        1
280
     0
281
     0
  0
CLASS
  1
SORTENTSTABLE
  2
AcDbSortentsTable
  3
ObjectDBX Classes
 90
        0
 91
        4
280
     0
281
     0
  0
CLASS
  1
LAYER_INDEX
  2
AcDbLayerIndex
  3
ObjectDBX Classes
 90
        0
 91
        4
280
     0
281
     0
  0
CLASS
  1
SPATIAL_INDEX
  2
AcDbSpatialIndex
  3
AutoCAD 2000
 90
        0
 91
        4
280
     0
281
     0
  0
CLASS
  1
OBJECT_PTR
  2
CAseDLPNTableRecord
  3
ASE-LPNTableRecord
 90
        1
 91
        4
280
     0
281
     0
  0
CLASS
  1
LAYOUT
  2
AcDbLayout
  3
ObjectDBX Classes
 90
        0
 91
        1
280
     0
281
     0
  0
CLASS
  1
PLOTSETTINGS
  2
AcDbPlotSettings
  3
ObjectDBX Classes
 90
        0
 91
        4
280
     0
281
     0
  0
CLASS
  1
ACDBDICTIONARYWDFLT
  2
AcDbDictionaryWithDefault
  3
ObjectDBX Classes
 90
        0
 91
        4
280
     0
281
     0
  0
CLASS
  1
ACDBPLACEHOLDER
  2
AcDbPlaceHolder
  3
ObjectDBX Classes
 90
        0
 91
        1
280
     0
281
     0
  0
CLASS
  1
SCALE
  2
AcDbScale
  3
ObjectDBX Classes
 90
     1153
 91
        4
280
     0
281
     0
  0
CLASS
  1
MATERIAL
  2
AcDbMaterial
  3
ObjectDBX Classes
 90
     1153
 91
        4
280
     0
281
     0
  0
CLASS
  1
VISUALSTYLE
  2
AcDbVisualStyle
  3
ObjectDBX Classes
 90
     4095
 91
        4
280
     0
281
     0
  0
CLASS
  1
TABLESTYLE
  2
AcDbTableStyle
  3
ObjectDBX Classes
 90
     4095
 91
        4
280
     0
281
     0
  0
CLASS
  1
DIMASSOC
  2
AcDbDimAssoc
  3
"AcDbDimAssoc|Product Desc:     AcDim ARX App For Dimension|Company:          Autodesk, Inc.|WEB Address:      www.autodesk.com"
 90
        0
 91
        4
280
     0
281
     0
  0
CLASS
  1
CELLSTYLEMAP
  2
AcDbCellStyleMap
  3
ObjectDBX Classes
 90
     1152
 91
        4
280
     0
281
     0
  0
CLASS
  1
SUN
  2
AcDbSun
  3
SCENEOE
 90
     1153
 91
        4
280
     0
281
     0
  0
CLASS
  1
MLEADERSTYLE
  2
AcDbMLeaderStyle
  3
ACDB_MLEADERSTYLE_CLASS
 90
     4095
 91
        4
280
     0
281
     0
  0
CLASS
  1
FIELD
  2
AcDbField
  3
ObjectDBX Classes
 90
     1152
 91
        4
280
     0
281
     0
  0
CLASS
  1
FIELDLIST
  2
AcDbFieldList
  3
ObjectDBX Classes
 90
     1152
 91
        4
280
     0
281
     0
  0
ENDSEC
  0
SECTION
  2
TABLES
  0
TABLE
  2
VPORT
  5
7
330
0
100
AcDbSymbolTable
 70
     1
  0
VPORT
  5
15
330
7
100
AcDbSymbolTableRecord
100
AcDbViewportTableRecord
  2
*ACTIVE
 70
     0
 10
0.0
 20
0.0
 11
1.0
 21
1.0
 12
406.0201356709016
 22
371.901285469834
 13
0.0
 23
0.0
 14
1.0
 24
1.0
 15
0.0
 25
0.0
 16
0.0
 26
0.0
 36
1.0
 17
-91.0201356709016
 27
73.59871453016603
 37
-46.86809886248109
 40
908.82
 41
2.419452887537994
 42
50.0
 43
0.0
 44
0.0
 50
0.0
 51
0.0
 71
    16
 72
  2000
 73
     1
 74
     1
 75
     0
 76
     0
 77
     0
 78
     0
281
     0
 65
     1
110
0.0
120
0.0
130
0.0
111
1.0
121
0.0
131
0.0
112
0.0
122
1.0
132
0.0
 79
     0
146
0.0
348
3666
 60
     3
 61
     5
292
     1
282
     1
141
0.0
142
0.0
 63
   256
361
904
  0
ENDTAB
  0
TABLE
  2
LTYPE
  5
4
330
0
100
AcDbSymbolTable
 70
     3
  0
LTYPE
  5
11
330
4
100
AcDbSymbolTableRecord
100
AcDbLinetypeTableRecord
  2
ByBlock
 70
     0
  3

 72
    65
 73
     0
 40
0.0
  0
LTYPE
  5
12
330
4
100
AcDbSymbolTableRecord
100
AcDbLinetypeTableRecord
  2
ByLayer
 70
     0
  3

 72
    65
 73
     0
 40
0.0
  0
LTYPE
  5
13
330
4
100
AcDbSymbolTableRecord
100
AcDbLinetypeTableRecord
  2
Continuous
 70
     0
  3
Solid line
 72
    65
 73
     0
 40
0.0
  0
LTYPE
  5
D6C
330
4
100
AcDbSymbolTableRecord
100
AcDbLinetypeTableRecord
  2
BORDER
 70
     0
  3
Border __  __  . __  __  . __  __  . __  __  . 
 72
    65
 73
     6
 40
44.45
 49
12.7
 74
     0
 49
-6.35
 74
     0
 49
12.7
 74
     0
 49
-6.35
 74
     0
 49
0.0
 74
     0
 49
-6.35
 74
     0
  0
LTYPE
  5
D6D
330
4
100
AcDbSymbolTableRecord
100
AcDbLinetypeTableRecord
  2
HIDDEN
 70
     0
  3
Hidden _ _ _ _ _ _ _ _ _ _ _ _ _ _ _ _ _ _ _ _ 
 72
    65
 73
     2
 40
9.524999999999999
 49
6.35
 74
     0
 49
-3.175
 74
     0
  0
ENDTAB
  0
TABLE
  2
LAYER
  5
2
102
{ACAD_XDICTIONARY
360
2E1
102
}
330
0
100
AcDbSymbolTable
 70
     7
  0
LAYER
  5
14
330
2
100
AcDbSymbolTableRecord
100
AcDbLayerTableRecord
  2
0
 70
     0
 62
     7
  6
Continuous
370
    -3
390
1D
347
266
  0
LAYER
  5
4B
330
2
100
AcDbSymbolTableRecord
100
AcDbLayerTableRecord
  2
TEMPLATE
 70
     0
 62
     7
  6
Continuous
370
    20
390
1D
347
266
  0
LAYER
  5
4C
330
2
100
AcDbSymbolTableRecord
100
AcDbLayerTableRecord
  2
DIM
 70
     0
 62
     3
  6
Continuous
370
    13
390
1D
347
266
  0
LAYER
  5
4D
330
2
100
AcDbSymbolTableRecord
100
AcDbLayerTableRecord
  2
MODEL
 70
     0
 62
     7
  6
Continuous
370
    20
390
1D
347
266
  0
LAYER
  5
88C
330
2
100
AcDbSymbolTableRecord
100
AcDbLayerTableRecord
  2
HIDDEN
 70
     0
 62
     8
  6
HIDDEN
370
    20
390
1D
347
266
1001
AcAecLayerStandard
1000

1000

  0
LAYER
  5
D6B
330
2
100
AcDbSymbolTableRecord
100
AcDbLayerTableRecord
  2
BORDER
 70
     0
 62
     4
  6
BORDER
290
     0
370
    20
390
1D
347
266
1001
AcAecLayerStandard
1000

1000

  0
LAYER
  5
A5DF
330
2
100
AcDbSymbolTableRecord
100
AcDbLayerTableRecord
  2
Defpoints
 70
     0
 62
     7
  6
Continuous
290
     0
370
    -3
390
1D
347
266
  0
ENDTAB
  0
TABLE
  2
STYLE
  5
3
330
0
100
AcDbSymbolTable
 70
     2
  0
STYLE
  5
17
330
3
100
AcDbSymbolTableRecord
100
AcDbTextStyleTableRecord
  2
Standard
 70
     0
 40
0.0
 41
1.0
 50
0.0
 71
     0
 42
2.5
  3
txt
  4
BIGFONT.SHX
  0
STYLE
  5
39
330
3
100
AcDbSymbolTableRecord
100
AcDbTextStyleTableRecord
  2
ＭＳ ゴシック
 70
     0
 40
0.0
 41
1.0
 50
0.0
 71
     0
 42
2.5
  3
msgothic.ttc
  4
ＭＳ ゴシック
1001
ACAD
1000
ＭＳ ゴシック
1071
        0
  0
ENDTAB
  0
TABLE
  2
VIEW
  5
5
330
0
100
AcDbSymbolTable
 70
     0
  0
ENDTAB
  0
TABLE
  2
UCS
  5
6
330
0
100
AcDbSymbolTable
 70
     0
  0
ENDTAB
  0
TABLE
  2
APPID
  5
8
330
0
100
AcDbSymbolTable
 70
     3
  0
APPID
  5
16
330
8
100
AcDbSymbolTableRecord
100
AcDbRegAppTableRecord
  2
ACAD
 70
     0
  0
APPID
  5
7AC
330
8
100
AcDbSymbolTableRecord
100
AcDbRegAppTableRecord
  2
AcAecLayerStandard
 70
     0
  0
APPID
  5
E29
330
8
100
AcDbSymbolTableRecord
100
AcDbRegAppTableRecord
  2
ACAD_MLEADERVER
 70
     0
  0
ENDTAB
  0
TABLE
  2
DIMSTYLE
  5
9
330
0
100
AcDbSymbolTable
 70
     2
100
AcDbDimStyleTable
  0
DIMSTYLE
105
18
330
9
100
AcDbSymbolTableRecord
100
AcDbDimStyleTableRecord
  2
Standard
 70
     0
178
     0
340
17
  0
DIMSTYLE
105
57
102
{ACAD_REACTORS
330
177B4
330
177B9
330
177C0
330
177C1
330
177D7
330
177E4
330
17800
330
179E3
330
179E6
330
17AEF
330
17CC7
330
17CE7
102
}
330
9
100
AcDbSymbolTableRecord
100
AcDbDimStyleTableRecord
  2
tfrom線あり
 70
     0
  3
<>
  4
[]
 41
3.0
 42
5.0
 43
0.9999999999999999
 44
0.0
 73
     0
 74
     0
 77
     1
 78
    11
140
6.0
141
0.0
143
1.0
147
4.0
171
     1
174
     1
178
     0
179
     2
271
     0
272
     1
276
     2
284
    11
285
    11
286
    11
289
     0
340
39
341
4E
342
4E
  0
ENDTAB
  0
TABLE
  2
BLOCK_RECORD
  5
1
330
0
100
AcDbSymbolTable
 70
   106
  0
BLOCK_RECORD
  5
A
102
{ACAD_XDICTIONARY
360
1733E
102
}
330
1
100
AcDbSymbolTableRecord
100
AcDbBlockTableRecord
  2
*MODEL_SPACE
340
20
 70
     0
280
     1
281
     0
  0
BLOCK_RECORD
  5
B
330
1
100
AcDbSymbolTableRecord
100
AcDbBlockTableRecord
  2
*PAPER_SPACE
340
21
 70
     0
280
     1
281
     0
  0
BLOCK_RECORD
  5
4E
330
1
100
AcDbSymbolTableRecord
100
AcDbBlockTableRecord
  2
_DOT
340
0
102
{BLKREFS
331
17AF9
331
17AF8
331
17B25
331
17B24
331
17B34
331
17B33
331
17B58
331
17B57
331
17B67
331
17B66
331
17B76
331
17B75
331
17B85
331
17B84
331
17B95
331
17B94
331
17BA4
331
17BA3
331
17BBA
331
17BB9
331
17BC7
331
17BC6
331
17BD7
331
17BD6
331
17BEC
331
17BEB
331
17C02
331
17C01
331
17C12
331
17C11
331
17C21
331
17C20
331
17C3A
331
17C39
331
17C5A
331
17C59
331
17C6A
331
17C69
331
17C79
331
17C78
331
17C8D
331
17C8C
331
17CC2
331
17CC1
331
17CCF
331
17CCE
331
17CE2
331
17CE1
331
17CF1
331
17CF0
102
}
 70
     0
280
     1
281
     0
  0
BLOCK_RECORD
  5
68D
330
1
100
AcDbSymbolTableRecord
100
AcDbBlockTableRecord
  2
block 2
340
0
102
{BLKREFS
331
68C
331
1343
102
}
 70
     0
280
     1
281
     0
  0
BLOCK_RECORD
  5
17320
330
1
100
AcDbSymbolTableRecord
100
AcDbBlockTableRecord
  2
*D2
340
0
 70
     0
280
     1
281
     0
  0
BLOCK_RECORD
  5
1732F
330
1
100
AcDbSymbolTableRecord
100
AcDbBlockTableRecord
  2
*D3
340
0
 70
     0
280
     1
281
     0
  0
BLOCK_RECORD
  5
173A6
330
1
100
AcDbSymbolTableRecord
100
AcDbBlockTableRecord
  2
*D4
340
0
 70
     0
280
     1
281
     0
  0
BLOCK_RECORD
  5
173B5
330
1
100
AcDbSymbolTableRecord
100
AcDbBlockTableRecord
  2
*D5
340
0
 70
     0
280
     1
281
     0
  0
BLOCK_RECORD
  5
173D2
330
1
100
AcDbSymbolTableRecord
100
AcDbBlockTableRecord
  2
*D6
340
0
 70
     0
280
     1
281
     0
  0
BLOCK_RECORD
  5
173DE
330
1
100
AcDbSymbolTableRecord
100
AcDbBlockTableRecord
  2
*D7
340
0
 70
     0
280
     1
281
     0
  0
BLOCK_RECORD
  5
17430
330
1
100
AcDbSymbolTableRecord
100
AcDbBlockTableRecord
  2
*D8
340
0
 70
     0
280
     1
281
     0
  0
BLOCK_RECORD
  5
1743F
330
1
100
AcDbSymbolTableRecord
100
AcDbBlockTableRecord
  2
*D9
340
0
 70
     0
280
     1
281
     0
  0
BLOCK_RECORD
  5
17455
330
1
100
AcDbSymbolTableRecord
100
AcDbBlockTableRecord
  2
*D10
340
0
 70
     0
280
     1
281
     0
  0
BLOCK_RECORD
  5
17465
330
1
100
AcDbSymbolTableRecord
100
AcDbBlockTableRecord
  2
*D11
340
0
 70
     0
280
     1
281
     0
  0
BLOCK_RECORD
  5
17477
330
1
100
AcDbSymbolTableRecord
100
AcDbBlockTableRecord
  2
*D12
340
0
 70
     0
280
     1
281
     0
  0
BLOCK_RECORD
  5
1748A
330
1
100
AcDbSymbolTableRecord
100
AcDbBlockTableRecord
  2
*D13
340
0
 70
     0
280
     1
281
     0
  0
BLOCK_RECORD
  5
1749B
330
1
100
AcDbSymbolTableRecord
100
AcDbBlockTableRecord
  2
*D14
340
0
 70
     0
280
     1
281
     0
  0
BLOCK_RECORD
  5
174A9
330
1
100
AcDbSymbolTableRecord
100
AcDbBlockTableRecord
  2
*D15
340
0
 70
     0
280
     1
281
     0
  0
BLOCK_RECORD
  5
174C8
330
1
100
AcDbSymbolTableRecord
100
AcDbBlockTableRecord
  2
*D16
340
0
 70
     0
280
     1
281
     0
  0
BLOCK_RECORD
  5
174E1
330
1
100
AcDbSymbolTableRecord
100
AcDbBlockTableRecord
  2
*D17
340
0
 70
     0
280
     1
281
     0
  0
BLOCK_RECORD
  5
17500
330
1
100
AcDbSymbolTableRecord
100
AcDbBlockTableRecord
  2
*D18
340
0
 70
     0
280
     1
281
     0
  0
BLOCK_RECORD
  5
1750F
330
1
100
AcDbSymbolTableRecord
100
AcDbBlockTableRecord
  2
*D19
340
0
 70
     0
280
     1
281
     0
  0
BLOCK_RECORD
  5
1751E
330
1
100
AcDbSymbolTableRecord
100
AcDbBlockTableRecord
  2
*D20
340
0
 70
     0
280
     1
281
     0
  0
BLOCK_RECORD
  5
1752D
330
1
100
AcDbSymbolTableRecord
100
AcDbBlockTableRecord
  2
*D21
340
0
 70
     0
280
     1
281
     0
  0
BLOCK_RECORD
  5
1753C
330
1
100
AcDbSymbolTableRecord
100
AcDbBlockTableRecord
  2
*D22
340
0
 70
     0
280
     1
281
     0
  0
BLOCK_RECORD
  5
175BD
330
1
100
AcDbSymbolTableRecord
100
AcDbBlockTableRecord
  2
*D23
340
0
 70
     0
280
     1
281
     0
  0
BLOCK_RECORD
  5
175C9
330
1
100
AcDbSymbolTableRecord
100
AcDbBlockTableRecord
  2
*D24
340
0
 70
     0
280
     1
281
     0
  0
BLOCK_RECORD
  5
175D5
330
1
100
AcDbSymbolTableRecord
100
AcDbBlockTableRecord
  2
*D25
340
0
 70
     0
280
     1
281
     0
  0
BLOCK_RECORD
  5
175E2
330
1
100
AcDbSymbolTableRecord
100
AcDbBlockTableRecord
  2
*D26
340
0
 70
     0
280
     1
281
     0
  0
BLOCK_RECORD
  5
175EE
330
1
100
AcDbSymbolTableRecord
100
AcDbBlockTableRecord
  2
*D27
340
0
 70
     0
280
     1
281
     0
  0
BLOCK_RECORD
  5
175FA
330
1
100
AcDbSymbolTableRecord
100
AcDbBlockTableRecord
  2
*D28
340
0
 70
     0
280
     1
281
     0
  0
BLOCK_RECORD
  5
17606
330
1
100
AcDbSymbolTableRecord
100
AcDbBlockTableRecord
  2
*D29
340
0
 70
     0
280
     1
281
     0
  0
BLOCK_RECORD
  5
17612
330
1
100
AcDbSymbolTableRecord
100
AcDbBlockTableRecord
  2
*D30
340
0
 70
     0
280
     1
281
     0
  0
BLOCK_RECORD
  5
1761F
330
1
100
AcDbSymbolTableRecord
100
AcDbBlockTableRecord
  2
*D31
340
0
 70
     0
280
     1
281
     0
  0
BLOCK_RECORD
  5
1762B
330
1
100
AcDbSymbolTableRecord
100
AcDbBlockTableRecord
  2
*D32
340
0
 70
     0
280
     1
281
     0
  0
BLOCK_RECORD
  5
17637
330
1
100
AcDbSymbolTableRecord
100
AcDbBlockTableRecord
  2
*D33
340
0
 70
     0
280
     1
281
     0
  0
BLOCK_RECORD
  5
17643
330
1
100
AcDbSymbolTableRecord
100
AcDbBlockTableRecord
  2
*D34
340
0
 70
     0
280
     1
281
     0
  0
BLOCK_RECORD
  5
1764F
330
1
100
AcDbSymbolTableRecord
100
AcDbBlockTableRecord
  2
*D35
340
0
 70
     0
280
     1
281
     0
  0
BLOCK_RECORD
  5
1765B
330
1
100
AcDbSymbolTableRecord
100
AcDbBlockTableRecord
  2
*D36
340
0
 70
     0
280
     1
281
     0
  0
BLOCK_RECORD
  5
17667
330
1
100
AcDbSymbolTableRecord
100
AcDbBlockTableRecord
  2
*D37
340
0
 70
     0
280
     1
281
     0
  0
BLOCK_RECORD
  5
176AB
330
1
100
AcDbSymbolTableRecord
100
AcDbBlockTableRecord
  2
*D38
340
0
 70
     0
280
     1
281
     0
  0
BLOCK_RECORD
  5
176BA
330
1
100
AcDbSymbolTableRecord
100
AcDbBlockTableRecord
  2
*D39
340
0
 70
     0
280
     1
281
     0
  0
BLOCK_RECORD
  5
176CC
330
1
100
AcDbSymbolTableRecord
100
AcDbBlockTableRecord
  2
*D40
340
0
 70
     0
280
     1
281
     0
  0
BLOCK_RECORD
  5
176DF
330
1
100
AcDbSymbolTableRecord
100
AcDbBlockTableRecord
  2
*D41
340
0
 70
     0
280
     1
281
     0
  0
BLOCK_RECORD
  5
176F2
330
1
100
AcDbSymbolTableRecord
100
AcDbBlockTableRecord
  2
*D42
340
0
 70
     0
280
     1
281
     0
  0
BLOCK_RECORD
  5
17700
330
1
100
AcDbSymbolTableRecord
100
AcDbBlockTableRecord
  2
*D43
340
0
 70
     0
280
     1
281
     0
  0
BLOCK_RECORD
  5
17724
330
1
100
AcDbSymbolTableRecord
100
AcDbBlockTableRecord
  2
*D44
340
0
 70
     0
280
     1
281
     0
  0
BLOCK_RECORD
  5
1773D
330
1
100
AcDbSymbolTableRecord
100
AcDbBlockTableRecord
  2
*D45
340
0
 70
     0
280
     1
281
     0
  0
BLOCK_RECORD
  5
1775C
330
1
100
AcDbSymbolTableRecord
100
AcDbBlockTableRecord
  2
*D46
340
0
 70
     0
280
     1
281
     0
  0
BLOCK_RECORD
  5
1776B
330
1
100
AcDbSymbolTableRecord
100
AcDbBlockTableRecord
  2
*D47
340
0
 70
     0
280
     1
281
     0
  0
BLOCK_RECORD
  5
1777A
330
1
100
AcDbSymbolTableRecord
100
AcDbBlockTableRecord
  2
*D48
340
0
 70
     0
280
     1
281
     0
  0
BLOCK_RECORD
  5
17789
330
1
100
AcDbSymbolTableRecord
100
AcDbBlockTableRecord
  2
*D49
340
0
 70
     0
280
     1
281
     0
  0
BLOCK_RECORD
  5
17798
330
1
100
AcDbSymbolTableRecord
100
AcDbBlockTableRecord
  2
*D50
340
0
 70
     0
280
     1
281
     0
  0
BLOCK_RECORD
  5
17806
330
1
100
AcDbSymbolTableRecord
100
AcDbBlockTableRecord
  2
*D51
340
0
 70
     0
280
     1
281
     0
  0
BLOCK_RECORD
  5
17813
330
1
100
AcDbSymbolTableRecord
100
AcDbBlockTableRecord
  2
*D52
340
0
 70
     0
280
     1
281
     0
  0
BLOCK_RECORD
  5
1781F
330
1
100
AcDbSymbolTableRecord
100
AcDbBlockTableRecord
  2
*D53
340
0
 70
     0
280
     1
281
     0
  0
BLOCK_RECORD
  5
1782B
330
1
100
AcDbSymbolTableRecord
100
AcDbBlockTableRecord
  2
*D54
340
0
 70
     0
280
     1
281
     0
  0
BLOCK_RECORD
  5
17839
330
1
100
AcDbSymbolTableRecord
100
AcDbBlockTableRecord
  2
*D55
340
0
 70
     0
280
     1
281
     0
  0
BLOCK_RECORD
  5
17845
330
1
100
AcDbSymbolTableRecord
100
AcDbBlockTableRecord
  2
*D56
340
0
 70
     0
280
     1
281
     0
  0
BLOCK_RECORD
  5
17852
330
1
100
AcDbSymbolTableRecord
100
AcDbBlockTableRecord
  2
*D57
340
0
 70
     0
280
     1
281
     0
  0
BLOCK_RECORD
  5
1785E
330
1
100
AcDbSymbolTableRecord
100
AcDbBlockTableRecord
  2
*D58
340
0
 70
     0
280
     1
281
     0
  0
BLOCK_RECORD
  5
1786A
330
1
100
AcDbSymbolTableRecord
100
AcDbBlockTableRecord
  2
*D59
340
0
 70
     0
280
     1
281
     0
  0
BLOCK_RECORD
  5
17876
330
1
100
AcDbSymbolTableRecord
100
AcDbBlockTableRecord
  2
*D60
340
0
 70
     0
280
     1
281
     0
  0
BLOCK_RECORD
  5
17882
330
1
100
AcDbSymbolTableRecord
100
AcDbBlockTableRecord
  2
*D61
340
0
 70
     0
280
     1
281
     0
  0
BLOCK_RECORD
  5
1788E
330
1
100
AcDbSymbolTableRecord
100
AcDbBlockTableRecord
  2
*D62
340
0
 70
     0
280
     1
281
     0
  0
BLOCK_RECORD
  5
1789A
330
1
100
AcDbSymbolTableRecord
100
AcDbBlockTableRecord
  2
*D63
340
0
 70
     0
280
     1
281
     0
  0
BLOCK_RECORD
  5
178E3
330
1
100
AcDbSymbolTableRecord
100
AcDbBlockTableRecord
  2
*D64
340
0
 70
     0
280
     1
281
     0
  0
BLOCK_RECORD
  5
1791B
330
1
100
AcDbSymbolTableRecord
100
AcDbBlockTableRecord
  2
*D65
340
0
 70
     0
280
     1
281
     0
  0
BLOCK_RECORD
  5
1792A
330
1
100
AcDbSymbolTableRecord
100
AcDbBlockTableRecord
  2
*D66
340
0
 70
     0
280
     1
281
     0
  0
BLOCK_RECORD
  5
1793A
330
1
100
AcDbSymbolTableRecord
100
AcDbBlockTableRecord
  2
*D67
340
0
 70
     0
280
     1
281
     0
  0
BLOCK_RECORD
  5
17949
330
1
100
AcDbSymbolTableRecord
100
AcDbBlockTableRecord
  2
*D68
340
0
 70
     0
280
     1
281
     0
  0
BLOCK_RECORD
  5
17958
330
1
100
AcDbSymbolTableRecord
100
AcDbBlockTableRecord
  2
*D69
340
0
 70
     0
280
     1
281
     0
  0
BLOCK_RECORD
  5
17967
330
1
100
AcDbSymbolTableRecord
100
AcDbBlockTableRecord
  2
*D70
340
0
 70
     0
280
     1
281
     0
  0
BLOCK_RECORD
  5
179B7
330
1
100
AcDbSymbolTableRecord
100
AcDbBlockTableRecord
  2
*D71
340
0
 70
     0
280
     1
281
     0
  0
BLOCK_RECORD
  5
179C6
330
1
100
AcDbSymbolTableRecord
100
AcDbBlockTableRecord
  2
*D72
340
0
 70
     0
280
     1
281
     0
  0
BLOCK_RECORD
  5
179EA
330
1
100
AcDbSymbolTableRecord
100
AcDbBlockTableRecord
  2
*D73
340
0
 70
     0
280
     1
281
     0
  0
BLOCK_RECORD
  5
179F6
330
1
100
AcDbSymbolTableRecord
100
AcDbBlockTableRecord
  2
*D74
340
0
 70
     0
280
     1
281
     0
  0
BLOCK_RECORD
  5
17A08
330
1
100
AcDbSymbolTableRecord
100
AcDbBlockTableRecord
  2
*D75
340
0
 70
     0
280
     1
281
     0
  0
BLOCK_RECORD
  5
17A51
330
1
100
AcDbSymbolTableRecord
100
AcDbBlockTableRecord
  2
*D76
340
0
 70
     0
280
     1
281
     0
  0
BLOCK_RECORD
  5
17A68
330
1
100
AcDbSymbolTableRecord
100
AcDbBlockTableRecord
  2
*D77
340
0
 70
     0
280
     1
281
     0
  0
BLOCK_RECORD
  5
17A8A
330
1
100
AcDbSymbolTableRecord
100
AcDbBlockTableRecord
  2
*D78
340
0
 70
     0
280
     1
281
     0
  0
BLOCK_RECORD
  5
17A99
330
1
100
AcDbSymbolTableRecord
100
AcDbBlockTableRecord
  2
*D79
340
0
 70
     0
280
     1
281
     0
  0
BLOCK_RECORD
  5
17AC9
330
1
100
AcDbSymbolTableRecord
100
AcDbBlockTableRecord
  2
*D80
340
0
 70
     0
280
     1
281
     0
  0
BLOCK_RECORD
  5
17AF2
330
1
100
AcDbSymbolTableRecord
100
AcDbBlockTableRecord
  2
*D81
340
0
 70
     0
280
     1
281
     0
  0
BLOCK_RECORD
  5
17B1E
330
1
100
AcDbSymbolTableRecord
100
AcDbBlockTableRecord
  2
*D82
340
0
 70
     0
280
     1
281
     0
  0
BLOCK_RECORD
  5
17B2D
330
1
100
AcDbSymbolTableRecord
100
AcDbBlockTableRecord
  2
*D83
340
0
 70
     0
280
     1
281
     0
  0
BLOCK_RECORD
  5
17B51
330
1
100
AcDbSymbolTableRecord
100
AcDbBlockTableRecord
  2
*D84
340
0
 70
     0
280
     1
281
     0
  0
BLOCK_RECORD
  5
17B60
330
1
100
AcDbSymbolTableRecord
100
AcDbBlockTableRecord
  2
*D85
340
0
 70
     0
280
     1
281
     0
  0
BLOCK_RECORD
  5
17B6F
330
1
100
AcDbSymbolTableRecord
100
AcDbBlockTableRecord
  2
*D86
340
0
 70
     0
280
     1
281
     0
  0
BLOCK_RECORD
  5
17B7E
330
1
100
AcDbSymbolTableRecord
100
AcDbBlockTableRecord
  2
*D87
340
0
 70
     0
280
     1
281
     0
  0
BLOCK_RECORD
  5
17B8E
330
1
100
AcDbSymbolTableRecord
100
AcDbBlockTableRecord
  2
*D88
340
0
 70
     0
280
     1
281
     0
  0
BLOCK_RECORD
  5
17B9D
330
1
100
AcDbSymbolTableRecord
100
AcDbBlockTableRecord
  2
*D89
340
0
 70
     0
280
     1
281
     0
  0
BLOCK_RECORD
  5
17BB3
330
1
100
AcDbSymbolTableRecord
100
AcDbBlockTableRecord
  2
*D90
340
0
 70
     0
280
     1
281
     0
  0
BLOCK_RECORD
  5
17BC0
330
1
100
AcDbSymbolTableRecord
100
AcDbBlockTableRecord
  2
*D91
340
0
 70
     0
280
     1
281
     0
  0
BLOCK_RECORD
  5
17BD0
330
1
100
AcDbSymbolTableRecord
100
AcDbBlockTableRecord
  2
*D92
340
0
 70
     0
280
     1
281
     0
  0
BLOCK_RECORD
  5
17BE5
330
1
100
AcDbSymbolTableRecord
100
AcDbBlockTableRecord
  2
*D93
340
0
 70
     0
280
     1
281
     0
  0
BLOCK_RECORD
  5
17BFB
330
1
100
AcDbSymbolTableRecord
100
AcDbBlockTableRecord
  2
*D94
340
0
 70
     0
280
     1
281
     0
  0
BLOCK_RECORD
  5
17C0A
330
1
100
AcDbSymbolTableRecord
100
AcDbBlockTableRecord
  2
*D95
340
0
 70
     0
280
     1
281
     0
  0
BLOCK_RECORD
  5
17C1A
330
1
100
AcDbSymbolTableRecord
100
AcDbBlockTableRecord
  2
*D96
340
0
 70
     0
280
     1
281
     0
  0
BLOCK_RECORD
  5
17C32
330
1
100
AcDbSymbolTableRecord
100
AcDbBlockTableRecord
  2
*D97
340
0
 70
     0
280
     1
281
     0
  0
BLOCK_RECORD
  5
17C52
330
1
100
AcDbSymbolTableRecord
100
AcDbBlockTableRecord
  2
*D98
340
0
 70
     0
280
     1
281
     0
  0
BLOCK_RECORD
  5
17C62
330
1
100
AcDbSymbolTableRecord
100
AcDbBlockTableRecord
  2
*D99
340
0
 70
     0
280
     1
281
     0
  0
BLOCK_RECORD
  5
17C72
330
1
100
AcDbSymbolTableRecord
100
AcDbBlockTableRecord
  2
*D100
340
0
 70
     0
280
     1
281
     0
  0
BLOCK_RECORD
  5
17C86
330
1
100
AcDbSymbolTableRecord
100
AcDbBlockTableRecord
  2
*D101
340
0
 70
     0
280
     1
281
     0
  0
BLOCK_RECORD
  5
17CBB
330
1
100
AcDbSymbolTableRecord
100
AcDbBlockTableRecord
  2
*D102
340
0
 70
     0
280
     1
281
     0
  0
BLOCK_RECORD
  5
17CC8
330
1
100
AcDbSymbolTableRecord
100
AcDbBlockTableRecord
  2
*D103
340
0
 70
     0
280
     1
281
     0
  0
BLOCK_RECORD
  5
17CDB
330
1
100
AcDbSymbolTableRecord
100
AcDbBlockTableRecord
  2
*D104
340
0
 70
     0
280
     1
281
     0
  0
BLOCK_RECORD
  5
17CEA
330
1
100
AcDbSymbolTableRecord
100
AcDbBlockTableRecord
  2
*D105
340
0
 70
     0
280
     1
281
     0
  0
ENDTAB
  0
ENDSEC
  0
SECTION
  2
BLOCKS
  0
BLOCK
  5
D
330
A
100
AcDbEntity
  8
0
390
1D
100
AcDbBlockBegin
  2
*MODEL_SPACE
 70
     0
 10
0.0
 20
0.0
 30
0.0
  3
*MODEL_SPACE
  1
*MODEL_SPACE
  0
ENDBLK
  5
E
330
A
100
AcDbEntity
  8
0
390
1D
100
AcDbBlockEnd
  0
BLOCK
  5
F
330
B
100
AcDbEntity
 67
     1
  8
0
390
1D
100
AcDbBlockBegin
  2
*PAPER_SPACE
 70
     0
 10
0.0
 20
0.0
 30
0.0
  3
*PAPER_SPACE
  1
*PAPER_SPACE
  0
ENDBLK
  5
10
330
B
100
AcDbEntity
 67
     1
  8
0
390
1D
100
AcDbBlockEnd
  0
BLOCK
  5
17AE7
330
4E
100
AcDbEntity
  8
0
390
1D
100
AcDbBlockBegin
  2
_DOT
 70
     0
 10
0.0
 20
0.0
 30
0.0
  3
_DOT
  1
_DOT
  0
POLYLINE
  5
17AE9
330
4E
100
AcDbEntity
  8
0
  6
ByBlock
 62
     0
370
    -2
390
1D
100
AcDb2dPolyline
 66
     1
 10
0.0
 20
0.0
 30
0.0
 70
     1
 40
0.5
 41
0.5
  0
VERTEX
  5
17AEA
330
17AE9
100
AcDbEntity
  8
0
  6
ByBlock
 62
     0
370
    -2
390
1D
100
AcDbVertex
100
AcDb2dVertex
 10
-0.25
 20
0.0
 30
0.0
 42
1.0
  0
VERTEX
  5
17AEB
330
17AE9
100
AcDbEntity
  8
0
  6
ByBlock
 62
     0
370
    -2
390
1D
100
AcDbVertex
100
AcDb2dVertex
 10
0.25
 20
0.0
 30
0.0
 42
1.0
  0
SEQEND
  5
17AEC
330
17AE9
100
AcDbEntity
  8
0
390
1D
  0
LINE
  5
17AED
330
4E
100
AcDbEntity
  8
0
  6
ByBlock
 62
     0
370
    -2
390
1D
100
AcDbLine
 10
-0.5
 20
0.0
 30
0.0
 11
-1.0
 21
0.0
 31
0.0
  0
ENDBLK
  5
17AEE
330
4E
100
AcDbEntity
  8
0
390
1D
100
AcDbBlockEnd
  0
BLOCK
  5
68E
330
68D
100
AcDbEntity
  8
0
100
AcDbBlockBegin
  2
block 2
 70
     0
 10
0.0
 20
0.0
 30
0.0
  3
block 2
  1
block 2
  0
ENDBLK
  5
6B0
330
68D
100
AcDbEntity
  8
0
100
AcDbBlockEnd
  0
BLOCK
  5
17321
330
17320
100
AcDbEntity
  8
0
100
AcDbBlockBegin
  2
*D2
 70
     1
 10
0.0
 20
0.0
 30
0.0
  3
*D2
  1

  0
LINE
  5
17323
330
17320
100
AcDbEntity
  8
DIM
 62
     0
370
    -2
100
AcDbLine
 10
405.9245501690548
 20
309.7529598971253
 30
0.0
 11
405.9245501690548
 21
297.8784471131835
 31
0.0
  0
LINE
  5
17324
330
17320
100
AcDbEntity
  8
DIM
 62
     0
370
    -2
100
AcDbLine
 10
370.465565794055
 20
307.7217551386165
 30
0.0
 11
370.465565794055
 21
297.8784471131835
 31
0.0
  0
LINE
  5
17325
330
17320
100
AcDbEntity
  8
DIM
 62
     0
370
    -2
100
AcDbLine
 10
402.9245501690548
 20
297.8784471131835
 30
0.0
 11
373.465565794055
 21
297.8784471131835
 31
0.0
  0
INSERT
  5
17326
330
17320
100
AcDbEntity
  8
DIM
 62
     0
370
    -2
100
AcDbBlockReference
  2
_DOT
 10
405.9245501690548
 20
297.8784471131835
 30
0.0
 41
3.0
 42
3.0
 43
3.0
  0
INSERT
  5
17327
330
17320
100
AcDbEntity
  8
DIM
 62
     0
370
    -2
100
AcDbBlockReference
  2
_DOT
 10
370.465565794055
 20
297.8784471131835
 30
0.0
 41
3.0
 42
3.0
 43
3.0
 50
180.0
  0
MTEXT
  5
17328
330
17320
100
AcDbEntity
  8
DIM
 62
     0
100
AcDbMText
 10
388.1950579815549
 20
307.8784471131835
 30
0.0
 40
8.0
 41
0.0
 46
0.0
 71
     5
 72
     1
  1
\A1;35
  7
ＭＳ ゴシック
 73
     1
 44
1.0
  0
POINT
  5
17329
330
17320
100
AcDbEntity
  8
Defpoints
 62
     0
100
AcDbPoint
 10
405.9245501690548
 20
319.7529598971253
 30
0.0
  0
POINT
  5
1732A
330
17320
100
AcDbEntity
  8
Defpoints
 62
     0
100
AcDbPoint
 10
370.465565794055
 20
317.7217551386165
 30
0.0
  0
POINT
  5
1732B
330
17320
100
AcDbEntity
  8
Defpoints
 62
     0
100
AcDbPoint
 10
370.465565794055
 20
297.8784471131835
 30
0.0
  0
ENDBLK
  5
17322
330
17320
100
AcDbEntity
  8
0
100
AcDbBlockEnd
  0
BLOCK
  5
17330
330
1732F
100
AcDbEntity
  8
0
100
AcDbBlockBegin
  2
*D3
 70
     1
 10
0.0
 20
0.0
 30
0.0
  3
*D3
  1

  0
LINE
  5
17332
330
1732F
100
AcDbEntity
  8
DIM
 62
     0
370
    -2
100
AcDbLine
 10
336.4182475173941
 20
457.0429158371509
 30
0.0
 11
315.1384266419193
 21
457.0429158371509
 31
0.0
  0
LINE
  5
17333
330
1732F
100
AcDbEntity
  8
DIM
 62
     0
370
    -2
100
AcDbLine
 10
331.4592515249408
 20
386.1825642746509
 30
0.0
 11
315.1384266419193
 21
386.1825642746509
 31
0.0
  0
LINE
  5
17334
330
1732F
100
AcDbEntity
  8
DIM
 62
     0
370
    -2
100
AcDbLine
 10
315.1384266419193
 20
454.0429158371509
 30
0.0
 11
315.1384266419193
 21
389.1825642746509
 31
0.0
  0
INSERT
  5
17335
330
1732F
100
AcDbEntity
  8
DIM
 62
     0
370
    -2
100
AcDbBlockReference
  2
_DOT
 10
315.1384266419193
 20
457.0429158371509
 30
0.0
 41
3.0
 42
3.0
 43
3.0
 50
90.0
  0
INSERT
  5
17336
330
1732F
100
AcDbEntity
  8
DIM
 62
     0
370
    -2
100
AcDbBlockReference
  2
_DOT
 10
315.1384266419193
 20
386.1825642746509
 30
0.0
 41
3.0
 42
3.0
 43
3.0
 50
270.0
  0
MTEXT
  5
17337
330
1732F
100
AcDbEntity
  8
DIM
 62
     0
100
AcDbMText
 10
305.1384266419193
 20
421.6127400559009
 30
0.0
 40
8.0
 41
0.0
 46
0.0
 71
     5
 72
     1
  1
\A1;71
  7
ＭＳ ゴシック
 11
0.0
 21
1.0
 31
0.0
 73
     1
 44
1.0
  0
POINT
  5
17338
330
1732F
100
AcDbEntity
  8
Defpoints
 62
     0
100
AcDbPoint
 10
346.4182475173941
 20
457.0429158371509
 30
0.0
  0
POINT
  5
17339
330
1732F
100
AcDbEntity
  8
Defpoints
 62
     0
100
AcDbPoint
 10
341.4592515249408
 20
386.1825642746509
 30
0.0
  0
POINT
  5
1733A
330
1732F
100
AcDbEntity
  8
Defpoints
 62
     0
100
AcDbPoint
 10
315.1384266419193
 20
386.1825642746509
 30
0.0
  0
ENDBLK
  5
17331
330
1732F
100
AcDbEntity
  8
0
100
AcDbBlockEnd
  0
BLOCK
  5
173A7
330
173A6
100
AcDbEntity
  8
0
100
AcDbBlockBegin
  2
*D4
 70
     1
 10
0.0
 20
0.0
 30
0.0
  3
*D4
  1

  0
LINE
  5
173A8
330
173A6
100
AcDbEntity
  8
DIM
 62
     0
370
    -2
100
AcDbLine
 10
1.0
 20
135.0035410091185
 30
0.0
 11
1.0
 21
195.1497860279634
 31
0.0
  0
LINE
  5
173A9
330
173A6
100
AcDbEntity
  8
DIM
 62
     0
370
    -2
100
AcDbLine
 10
115.1779939209723
 20
135.0035410091185
 30
0.0
 11
115.1779939209723
 21
195.1497860279634
 31
0.0
  0
LINE
  5
173AA
330
173A6
100
AcDbEntity
  8
DIM
 62
     0
370
    -2
100
AcDbLine
 10
4.0
 20
195.1497860279634
 30
0.0
 11
112.1779939209723
 21
195.1497860279634
 31
0.0
  0
INSERT
  5
173AB
330
173A6
100
AcDbEntity
  8
DIM
 62
     0
370
    -2
100
AcDbBlockReference
  2
_DOT
 10
1.0
 20
195.1497860279634
 30
0.0
 41
3.0
 42
3.0
 43
3.0
 50
180.0
  0
INSERT
  5
173AC
330
173A6
100
AcDbEntity
  8
DIM
 62
     0
370
    -2
100
AcDbBlockReference
  2
_DOT
 10
115.1779939209723
 20
195.1497860279634
 30
0.0
 41
3.0
 42
3.0
 43
3.0
  0
MTEXT
  5
173AD
330
173A6
100
AcDbEntity
  8
DIM
 62
     0
100
AcDbMText
 10
58.08899696048616
 20
205.1497860279634
 30
0.0
 40
8.0
 41
0.0
 46
0.0
 71
     5
 72
     1
  1
\A1;114
  7
ＭＳ ゴシック
 73
     1
 44
1.0
  0
POINT
  5
173AE
330
173A6
100
AcDbEntity
  8
Defpoints
 62
     0
100
AcDbPoint
 10
1.0
 20
125.0035410091185
 30
0.0
  0
POINT
  5
173AF
330
173A6
100
AcDbEntity
  8
Defpoints
 62
     0
100
AcDbPoint
 10
115.1779939209723
 20
125.0035410091185
 30
0.0
  0
POINT
  5
173B0
330
173A6
100
AcDbEntity
  8
Defpoints
 62
     0
100
AcDbPoint
 10
115.1779939209723
 20
195.1497860279634
 30
0.0
  0
ENDBLK
  5
173B1
330
173A6
100
AcDbEntity
  8
0
100
AcDbBlockEnd
  0
BLOCK
  5
173B6
330
173B5
100
AcDbEntity
  8
0
100
AcDbBlockBegin
  2
*D5
 70
     1
 10
0.0
 20
0.0
 30
0.0
  3
*D5
  1

  0
LINE
  5
173B7
330
173B5
100
AcDbEntity
  8
DIM
 62
     0
370
    -2
100
AcDbLine
 10
20.20208557550177
 20
115.0035410091185
 30
0.0
 11
20.20208557550177
 21
38.30487537993926
 31
0.0
  0
LINE
  5
173B8
330
173B5
100
AcDbEntity
  8
DIM
 62
     0
370
    -2
100
AcDbLine
 10
95.97590834547054
 20
115.0035410091185
 30
0.0
 11
95.97590834547054
 21
38.30487537993926
 31
0.0
  0
LINE
  5
173B9
330
173B5
100
AcDbEntity
  8
DIM
 62
     0
370
    -2
100
AcDbLine
 10
23.20208557550177
 20
38.30487537993926
 30
0.0
 11
92.97590834547054
 21
38.30487537993926
 31
0.0
  0
INSERT
  5
173BA
330
173B5
100
AcDbEntity
  8
DIM
 62
     0
370
    -2
100
AcDbBlockReference
  2
_DOT
 10
20.20208557550177
 20
38.30487537993926
 30
0.0
 41
3.0
 42
3.0
 43
3.0
 50
180.0
  0
INSERT
  5
173BB
330
173B5
100
AcDbEntity
  8
DIM
 62
     0
370
    -2
100
AcDbBlockReference
  2
_DOT
 10
95.97590834547054
 20
38.30487537993926
 30
0.0
 41
3.0
 42
3.0
 43
3.0
  0
MTEXT
  5
173BC
330
173B5
100
AcDbEntity
  8
DIM
 62
     0
100
AcDbMText
 10
58.08899696048616
 20
48.30487537993926
 30
0.0
 40
8.0
 41
0.0
 46
0.0
 71
     5
 72
     1
  1
\A1;76
  7
ＭＳ ゴシック
 73
     1
 44
1.0
  0
POINT
  5
173BD
330
173B5
100
AcDbEntity
  8
Defpoints
 62
     0
100
AcDbPoint
 10
20.20208557550177
 20
125.0035410091185
 30
0.0
  0
POINT
  5
173BE
330
173B5
100
AcDbEntity
  8
Defpoints
 62
     0
100
AcDbPoint
 10
95.97590834547054
 20
125.0035410091185
 30
0.0
  0
POINT
  5
173BF
330
173B5
100
AcDbEntity
  8
Defpoints
 62
     0
100
AcDbPoint
 10
95.97590834547054
 20
38.30487537993926
 30
0.0
  0
ENDBLK
  5
173C0
330
173B5
100
AcDbEntity
  8
0
100
AcDbBlockEnd
  0
BLOCK
  5
173D3
330
173D2
100
AcDbEntity
  8
0
100
AcDbBlockBegin
  2
*D6
 70
     1
 10
0.0
 20
0.0
 30
0.0
  3
*D6
  1

  0
LINE
  5
173D5
330
173D2
100
AcDbEntity
  8
DIM
 62
     0
370
    -2
100
AcDbLine
 10
228.7947264437692
 20
485.5501747355622
 30
0.0
 11
228.7947264437692
 21
580.7695422638294
 31
0.0
  0
LINE
  5
173D6
330
173D2
100
AcDbEntity
  8
DIM
 62
     0
370
    -2
100
AcDbLine
 10
400.0617173252274
 20
485.5501747355622
 30
0.0
 11
400.0617173252274
 21
580.7695422638294
 31
0.0
  0
LINE
  5
173D7
330
173D2
100
AcDbEntity
  8
DIM
 62
     0
370
    -2
100
AcDbLine
 10
231.7947264437692
 20
580.7695422638294
 30
0.0
 11
397.0617173252274
 21
580.7695422638294
 31
0.0
  0
INSERT
  5
173D8
330
173D2
100
AcDbEntity
  8
DIM
 62
     0
370
    -2
100
AcDbBlockReference
  2
_DOT
 10
228.7947264437692
 20
580.7695422638294
 30
0.0
 41
3.0
 42
3.0
 43
3.0
 50
180.0
  0
INSERT
  5
173D9
330
173D2
100
AcDbEntity
  8
DIM
 62
     0
370
    -2
100
AcDbBlockReference
  2
_DOT
 10
400.0617173252274
 20
580.7695422638294
 30
0.0
 41
3.0
 42
3.0
 43
3.0
  0
MTEXT
  5
173DA
330
173D2
100
AcDbEntity
  8
DIM
 62
     0
100
AcDbMText
 10
314.4282218844983
 20
590.7695422638294
 30
0.0
 40
8.0
 41
0.0
 46
0.0
 71
     5
 72
     1
  1
\A1;171
  7
ＭＳ ゴシック
 73
     1
 44
1.0
  0
POINT
  5
173DB
330
173D2
100
AcDbEntity
  8
Defpoints
 62
     0
100
AcDbPoint
 10
228.7947264437692
 20
475.5501747355622
 30
0.0
  0
POINT
  5
173DC
330
173D2
100
AcDbEntity
  8
Defpoints
 62
     0
100
AcDbPoint
 10
400.0617173252274
 20
475.5501747355622
 30
0.0
  0
POINT
  5
173DD
330
173D2
100
AcDbEntity
  8
Defpoints
 62
     0
100
AcDbPoint
 10
400.0617173252274
 20
580.7695422638294
 30
0.0
  0
ENDBLK
  5
173D4
330
173D2
100
AcDbEntity
  8
0
100
AcDbBlockEnd
  0
BLOCK
  5
173DF
330
173DE
100
AcDbEntity
  8
0
100
AcDbBlockBegin
  2
*D7
 70
     1
 10
0.0
 20
0.0
 30
0.0
  3
*D7
  1

  0
LINE
  5
173E1
330
173DE
100
AcDbEntity
  8
DIM
 62
     0
370
    -2
100
AcDbLine
 10
257.5978548070218
 20
465.5501747355622
 30
0.0
 11
257.5978548070218
 21
345.5021762917933
 31
0.0
  0
LINE
  5
173E2
330
173DE
100
AcDbEntity
  8
DIM
 62
     0
370
    -2
100
AcDbLine
 10
371.2585889619747
 20
465.5501747355622
 30
0.0
 11
371.2585889619747
 21
345.5021762917933
 31
0.0
  0
LINE
  5
173E3
330
173DE
100
AcDbEntity
  8
DIM
 62
     0
370
    -2
100
AcDbLine
 10
260.5978548070218
 20
345.5021762917933
 30
0.0
 11
368.2585889619747
 21
345.5021762917933
 31
0.0
  0
INSERT
  5
173E4
330
173DE
100
AcDbEntity
  8
DIM
 62
     0
370
    -2
100
AcDbBlockReference
  2
_DOT
 10
257.5978548070218
 20
345.5021762917933
 30
0.0
 41
3.0
 42
3.0
 43
3.0
 50
180.0
  0
INSERT
  5
173E5
330
173DE
100
AcDbEntity
  8
DIM
 62
     0
370
    -2
100
AcDbBlockReference
  2
_DOT
 10
371.2585889619747
 20
345.5021762917933
 30
0.0
 41
3.0
 42
3.0
 43
3.0
  0
MTEXT
  5
173E6
330
173DE
100
AcDbEntity
  8
DIM
 62
     0
100
AcDbMText
 10
314.4282218844983
 20
355.5021762917933
 30
0.0
 40
8.0
 41
0.0
 46
0.0
 71
     5
 72
     1
  1
\A1;114
  7
ＭＳ ゴシック
 73
     1
 44
1.0
  0
POINT
  5
173E7
330
173DE
100
AcDbEntity
  8
Defpoints
 62
     0
100
AcDbPoint
 10
257.5978548070218
 20
475.5501747355622
 30
0.0
  0
POINT
  5
173E8
330
173DE
100
AcDbEntity
  8
Defpoints
 62
     0
100
AcDbPoint
 10
371.2585889619747
 20
475.5501747355622
 30
0.0
  0
POINT
  5
173E9
330
173DE
100
AcDbEntity
  8
Defpoints
 62
     0
100
AcDbPoint
 10
371.2585889619747
 20
345.5021762917933
 30
0.0
  0
ENDBLK
  5
173E0
330
173DE
100
AcDbEntity
  8
0
100
AcDbBlockEnd
  0
BLOCK
  5
17431
330
17430
100
AcDbEntity
  8
0
100
AcDbBlockBegin
  2
*D8
 70
     1
 10
0.0
 20
0.0
 30
0.0
  3
*D8
  1

  0
LINE
  5
17432
330
17430
100
AcDbEntity
  8
DIM
 62
     0
370
    -2
100
AcDbLine
 10
197.841215805472
 20
319.801569009499
 30
0.0
 11
197.841215805472
 21
455.0940590471885
 31
0.0
  0
LINE
  5
17433
330
17430
100
AcDbEntity
  8
DIM
 62
     0
370
    -2
100
AcDbLine
 10
426.1972036474166
 20
319.801569009499
 30
0.0
 11
426.1972036474166
 21
455.0940590471885
 31
0.0
  0
LINE
  5
17434
330
17430
100
AcDbEntity
  8
DIM
 62
     0
370
    -2
100
AcDbLine
 10
200.841215805472
 20
455.0940590471885
 30
0.0
 11
423.1972036474166
 21
455.0940590471885
 31
0.0
  0
INSERT
  5
17435
330
17430
100
AcDbEntity
  8
DIM
 62
     0
370
    -2
100
AcDbBlockReference
  2
_DOT
 10
197.841215805472
 20
455.0940590471885
 30
0.0
 41
3.0
 42
3.0
 43
3.0
 50
180.0
  0
INSERT
  5
17436
330
17430
100
AcDbEntity
  8
DIM
 62
     0
370
    -2
100
AcDbBlockReference
  2
_DOT
 10
426.1972036474166
 20
455.0940590471885
 30
0.0
 41
3.0
 42
3.0
 43
3.0
  0
MTEXT
  5
17437
330
17430
100
AcDbEntity
  8
DIM
 62
     0
100
AcDbMText
 10
312.0192097264438
 20
463.0940590471885
 30
0.0
 40
6.0
 41
0.0
 46
0.0
 71
     5
 72
     1
  1
\A1;228
  7
ＭＳ ゴシック
 73
     1
 44
1.0
  0
POINT
  5
17438
330
17430
100
AcDbEntity
  8
Defpoints
 62
     0
100
AcDbPoint
 10
197.841215805472
 20
314.801569009499
 30
0.0
  0
POINT
  5
17439
330
17430
100
AcDbEntity
  8
Defpoints
 62
     0
100
AcDbPoint
 10
426.1972036474166
 20
314.801569009499
 30
0.0
  0
POINT
  5
1743A
330
17430
100
AcDbEntity
  8
Defpoints
 62
     0
100
AcDbPoint
 10
426.1972036474166
 20
455.0940590471885
 30
0.0
  0
ENDBLK
  5
1743B
330
17430
100
AcDbEntity
  8
0
100
AcDbBlockEnd
  0
BLOCK
  5
17440
330
1743F
100
AcDbEntity
  8
0
100
AcDbBlockBegin
  2
*D9
 70
     1
 10
0.0
 20
0.0
 30
0.0
  3
*D9
  1

  0
LINE
  5
17441
330
1743F
100
AcDbEntity
  8
DIM
 62
     0
370
    -2
100
AcDbLine
 10
236.2453869564755
 20
309.801569009499
 30
0.0
 11
236.2453869564755
 21
141.4042377511404
 31
0.0
  0
LINE
  5
17442
330
1743F
100
AcDbEntity
  8
DIM
 62
     0
370
    -2
100
AcDbLine
 10
387.7930324964131
 20
309.801569009499
 30
0.0
 11
387.7930324964131
 21
141.4042377511404
 31
0.0
  0
LINE
  5
17443
330
1743F
100
AcDbEntity
  8
DIM
 62
     0
370
    -2
100
AcDbLine
 10
239.2453869564755
 20
141.4042377511404
 30
0.0
 11
384.7930324964131
 21
141.4042377511404
 31
0.0
  0
INSERT
  5
17444
330
1743F
100
AcDbEntity
  8
DIM
 62
     0
370
    -2
100
AcDbBlockReference
  2
_DOT
 10
236.2453869564755
 20
141.4042377511404
 30
0.0
 41
3.0
 42
3.0
 43
3.0
 50
180.0
  0
INSERT
  5
17445
330
1743F
100
AcDbEntity
  8
DIM
 62
     0
370
    -2
100
AcDbBlockReference
  2
_DOT
 10
387.7930324964131
 20
141.4042377511404
 30
0.0
 41
3.0
 42
3.0
 43
3.0
  0
MTEXT
  5
17446
330
1743F
100
AcDbEntity
  8
DIM
 62
     0
100
AcDbMText
 10
312.0192097264443
 20
149.4042377511404
 30
0.0
 40
6.0
 41
0.0
 46
0.0
 71
     5
 72
     1
  1
\A1;152
  7
ＭＳ ゴシック
 73
     1
 44
1.0
  0
POINT
  5
17447
330
1743F
100
AcDbEntity
  8
Defpoints
 62
     0
100
AcDbPoint
 10
236.2453869564755
 20
314.801569009499
 30
0.0
  0
POINT
  5
17448
330
1743F
100
AcDbEntity
  8
Defpoints
 62
     0
100
AcDbPoint
 10
387.7930324964131
 20
314.801569009499
 30
0.0
  0
POINT
  5
17449
330
1743F
100
AcDbEntity
  8
Defpoints
 62
     0
100
AcDbPoint
 10
387.7930324964131
 20
141.4042377511404
 30
0.0
  0
ENDBLK
  5
1744A
330
1743F
100
AcDbEntity
  8
0
100
AcDbBlockEnd
  0
BLOCK
  5
17456
330
17455
100
AcDbEntity
  8
0
100
AcDbBlockBegin
  2
*D10
 70
     1
 10
0.0
 20
0.0
 30
0.0
  3
*D10
  1

  0
LINE
  5
17457
330
17455
100
AcDbEntity
  8
MODEL
 62
     0
370
    -2
100
AcDbLine
 10
53.99185504562735
 20
131.4998502064053
 30
0.0
 11
62.18481687835794
 21
131.4998502064053
 31
0.0
  0
LINE
  5
17458
330
17455
100
AcDbEntity
  8
MODEL
 62
     0
370
    -2
100
AcDbLine
 10
34.45624923182351
 20
146.4998502064051
 30
0.0
 11
62.18481687835794
 21
146.4998502064051
 31
0.0
  0
LINE
  5
17459
330
17455
100
AcDbEntity
  8
MODEL
 62
     0
370
    -2
100
AcDbLine
 10
62.18481687835794
 20
128.4998502064053
 30
0.0
 11
62.18481687835794
 21
125.4998502064053
 31
0.0
  0
LINE
  5
1745A
330
17455
100
AcDbEntity
  8
MODEL
 62
     0
370
    -2
100
AcDbLine
 10
62.18481687835794
 20
149.4998502064051
 30
0.0
 11
62.18481687835794
 21
152.4998502064051
 31
0.0
  0
INSERT
  5
1745B
330
17455
100
AcDbEntity
  8
MODEL
 62
     0
370
    -2
100
AcDbBlockReference
  2
_DOT
 10
62.18481687835794
 20
131.4998502064053
 30
0.0
 41
3.0
 42
3.0
 43
3.0
 50
90.0
  0
INSERT
  5
1745C
330
17455
100
AcDbEntity
  8
MODEL
 62
     0
370
    -2
100
AcDbBlockReference
  2
_DOT
 10
62.18481687835794
 20
146.4998502064051
 30
0.0
 41
3.0
 42
3.0
 43
3.0
 50
270.0
  0
MTEXT
  5
1745D
330
17455
100
AcDbEntity
  8
MODEL
 62
     0
100
AcDbMText
 10
54.18481687835794
 20
138.9998502064052
 30
0.0
 40
6.0
 41
0.0
 46
0.0
 71
     5
 72
     1
  1
\A1;15
  7
ＭＳ ゴシック
 11
0.0
 21
1.0
 31
0.0
 73
     1
 44
1.0
  0
POINT
  5
1745E
330
17455
100
AcDbEntity
  8
Defpoints
 62
     0
100
AcDbPoint
 10
48.99185504562735
 20
131.4998502064053
 30
0.0
  0
POINT
  5
1745F
330
17455
100
AcDbEntity
  8
Defpoints
 62
     0
100
AcDbPoint
 10
29.45624923182351
 20
146.4998502064051
 30
0.0
  0
POINT
  5
178C5
330
17455
100
AcDbEntity
  8
Defpoints
 62
     0
100
AcDbPoint
 10
62.18481687835794
 20
146.4998502064051
 30
0.0
  0
ENDBLK
  5
17461
330
17455
100
AcDbEntity
  8
0
100
AcDbBlockEnd
  0
BLOCK
  5
17466
330
17465
100
AcDbEntity
  8
0
100
AcDbBlockBegin
  2
*D11
 70
     1
 10
0.0
 20
0.0
 30
0.0
  3
*D11
  1

  0
LINE
  5
17467
330
17465
100
AcDbEntity
  8
MODEL
 62
     0
370
    -2
100
AcDbLine
 10
55.99185504562735
 20
131.4998502064053
 30
0.0
 11
62.18481687835794
 21
131.4998502064053
 31
0.0
  0
LINE
  5
17468
330
17465
100
AcDbEntity
  8
MODEL
 62
     0
370
    -2
100
AcDbLine
 10
53.99185504562735
 20
101.4998502064053
 30
0.0
 11
62.18481687835794
 21
101.4998502064053
 31
0.0
  0
LINE
  5
17469
330
17465
100
AcDbEntity
  8
MODEL
 62
     0
370
    -2
100
AcDbLine
 10
62.18481687835794
 20
128.4998502064053
 30
0.0
 11
62.18481687835794
 21
104.4998502064053
 31
0.0
  0
INSERT
  5
1746A
330
17465
100
AcDbEntity
  8
MODEL
 62
     0
370
    -2
100
AcDbBlockReference
  2
_DOT
 10
62.18481687835794
 20
131.4998502064053
 30
0.0
 41
3.0
 42
3.0
 43
3.0
 50
90.0
  0
INSERT
  5
1746B
330
17465
100
AcDbEntity
  8
MODEL
 62
     0
370
    -2
100
AcDbBlockReference
  2
_DOT
 10
62.18481687835794
 20
101.4998502064053
 30
0.0
 41
3.0
 42
3.0
 43
3.0
 50
270.0
  0
MTEXT
  5
1746C
330
17465
100
AcDbEntity
  8
MODEL
 62
     0
100
AcDbMText
 10
54.18481687835794
 20
116.4998502064053
 30
0.0
 40
6.0
 41
0.0
 46
0.0
 71
     5
 72
     1
  1
\A1;30
  7
ＭＳ ゴシック
 11
0.0
 21
1.0
 31
0.0
 73
     1
 44
1.0
  0
POINT
  5
1746D
330
17465
100
AcDbEntity
  8
Defpoints
 62
     0
100
AcDbPoint
 10
50.99185504562735
 20
131.4998502064053
 30
0.0
  0
POINT
  5
1746E
330
17465
100
AcDbEntity
  8
Defpoints
 62
     0
100
AcDbPoint
 10
48.99185504562735
 20
101.4998502064053
 30
0.0
  0
POINT
  5
1746F
330
17465
100
AcDbEntity
  8
Defpoints
 62
     0
100
AcDbPoint
 10
62.18481687835794
 20
101.4998502064053
 30
0.0
  0
ENDBLK
  5
17470
330
17465
100
AcDbEntity
  8
0
100
AcDbBlockEnd
  0
BLOCK
  5
17478
330
17477
100
AcDbEntity
  8
0
100
AcDbBlockBegin
  2
*D12
 70
     1
 10
0.0
 20
0.0
 30
0.0
  3
*D12
  1

  0
LINE
  5
17479
330
17477
100
AcDbEntity
  8
DIM
 62
     0
370
    -2
100
AcDbLine
 10
501.8872886512514
 20
195.1921505401208
 30
0.0
 11
506.5685065726381
 21
195.1921505401208
 31
0.0
  0
LINE
  5
1747A
330
17477
100
AcDbEntity
  8
DIM
 62
     0
370
    -2
100
AcDbLine
 10
501.8872886512514
 20
295.1921505401208
 30
0.0
 11
506.5685065726381
 21
295.1921505401208
 31
0.0
  0
LINE
  5
1747B
330
17477
100
AcDbEntity
  8
DIM
 62
     0
370
    -2
100
AcDbLine
 10
506.5685065726381
 20
198.1921505401208
 30
0.0
 11
506.5685065726381
 21
292.1921505401208
 31
0.0
  0
INSERT
  5
1747C
330
17477
100
AcDbEntity
  8
DIM
 62
     0
370
    -2
100
AcDbBlockReference
  2
_DOT
 10
506.5685065726381
 20
195.1921505401208
 30
0.0
 41
3.0
 42
3.0
 43
3.0
 50
270.0
  0
INSERT
  5
1747D
330
17477
100
AcDbEntity
  8
DIM
 62
     0
370
    -2
100
AcDbBlockReference
  2
_DOT
 10
506.5685065726381
 20
295.1921505401208
 30
0.0
 41
3.0
 42
3.0
 43
3.0
 50
90.0
  0
MTEXT
  5
1747E
330
17477
100
AcDbEntity
  8
DIM
 62
     0
100
AcDbMText
 10
498.5685065726381
 20
245.1921505401208
 30
0.0
 40
6.0
 41
0.0
 46
0.0
 71
     5
 72
     1
  1
\A1;100
  7
ＭＳ ゴシック
 11
0.0
 21
1.0
 31
0.0
 73
     1
 44
1.0
  0
POINT
  5
1747F
330
17477
100
AcDbEntity
  8
Defpoints
 62
     0
100
AcDbPoint
 10
496.8872886512514
 20
195.1921505401208
 30
0.0
  0
POINT
  5
17480
330
17477
100
AcDbEntity
  8
Defpoints
 62
     0
100
AcDbPoint
 10
496.8872886512514
 20
295.1921505401208
 30
0.0
  0
POINT
  5
17481
330
17477
100
AcDbEntity
  8
Defpoints
 62
     0
100
AcDbPoint
 10
506.5685065726381
 20
295.1921505401208
 30
0.0
  0
ENDBLK
  5
17482
330
17477
100
AcDbEntity
  8
0
100
AcDbBlockEnd
  0
BLOCK
  5
1748B
330
1748A
100
AcDbEntity
  8
0
100
AcDbBlockBegin
  2
*D13
 70
     1
 10
0.0
 20
0.0
 30
0.0
  3
*D13
  1

  0
LINE
  5
1748C
330
1748A
100
AcDbEntity
  8
DIM
 62
     0
370
    -2
100
AcDbLine
 10
501.8872886512514
 20
298.1921505401208
 30
0.0
 11
506.5685065726381
 21
298.1921505401208
 31
0.0
  0
LINE
  5
1748D
330
1748A
100
AcDbEntity
  8
DIM
 62
     0
370
    -2
100
AcDbLine
 10
503.8872886512514
 20
295.1921505401208
 30
0.0
 11
506.5685065726381
 21
295.1921505401208
 31
0.0
  0
LINE
  5
1748E
330
1748A
100
AcDbEntity
  8
DIM
 62
     0
370
    -2
100
AcDbLine
 10
506.5685065726381
 20
295.1921505401208
 30
0.0
 11
506.5685065726381
 21
298.1921505401208
 31
0.0
  0
INSERT
  5
1748F
330
1748A
100
AcDbEntity
  8
DIM
 62
     0
370
    -2
100
AcDbBlockReference
  2
_DOT
 10
506.5685065726381
 20
298.1921505401208
 30
0.0
 41
3.0
 42
3.0
 43
3.0
 50
90.0
  0
INSERT
  5
17490
330
1748A
100
AcDbEntity
  8
DIM
 62
     0
370
    -2
100
AcDbBlockReference
  2
_DOT
 10
506.5685065726381
 20
295.1921505401208
 30
0.0
 41
3.0
 42
3.0
 43
3.0
 50
270.0
  0
MTEXT
  5
17491
330
1748A
100
AcDbEntity
  8
DIM
 62
     0
100
AcDbMText
 10
498.5685065726381
 20
296.6921505401208
 30
0.0
 40
6.0
 41
0.0
 46
0.0
 71
     5
 72
     1
  1
\A1;3
  7
ＭＳ ゴシック
 11
0.0
 21
1.0
 31
0.0
 73
     1
 44
1.0
  0
POINT
  5
17492
330
1748A
100
AcDbEntity
  8
Defpoints
 62
     0
100
AcDbPoint
 10
496.8872886512514
 20
298.1921505401208
 30
0.0
  0
POINT
  5
17493
330
1748A
100
AcDbEntity
  8
Defpoints
 62
     0
100
AcDbPoint
 10
498.8872886512514
 20
295.1921505401208
 30
0.0
  0
POINT
  5
17494
330
1748A
100
AcDbEntity
  8
Defpoints
 62
     0
100
AcDbPoint
 10
506.5685065726381
 20
295.1921505401208
 30
0.0
  0
ENDBLK
  5
17495
330
1748A
100
AcDbEntity
  8
0
100
AcDbBlockEnd
  0
BLOCK
  5
1749C
330
1749B
100
AcDbEntity
  8
0
100
AcDbBlockBegin
  2
*D14
 70
     1
 10
0.0
 20
0.0
 30
0.0
  3
*D14
  1

  0
LINE
  5
1749D
330
1749B
100
AcDbEntity
  8
DIM
 62
     0
370
    -2
100
AcDbLine
 10
47.3966099604159
 20
116.4848112399995
 30
0.0
 11
55.15584160223881
 21
116.4848112399995
 31
0.0
  0
LINE
  5
1749E
330
1749B
100
AcDbEntity
  8
DIM
 62
     0
370
    -2
100
AcDbLine
 10
47.3966099604159
 20
106.514889172811
 30
0.0
 11
55.15584160223881
 21
106.514889172811
 31
0.0
  0
LINE
  5
1749F
330
1749B
100
AcDbEntity
  8
DIM
 62
     0
370
    -2
100
AcDbLine
 10
55.15584160223881
 20
113.4848112399995
 30
0.0
 11
55.15584160223881
 21
109.514889172811
 31
0.0
  0
INSERT
  5
174A0
330
1749B
100
AcDbEntity
  8
DIM
 62
     0
370
    -2
100
AcDbBlockReference
  2
_DOT
 10
55.15584160223881
 20
116.4848112399995
 30
0.0
 41
3.0
 42
3.0
 43
3.0
 50
90.0
  0
INSERT
  5
174A1
330
1749B
100
AcDbEntity
  8
DIM
 62
     0
370
    -2
100
AcDbBlockReference
  2
_DOT
 10
55.15584160223881
 20
106.514889172811
 30
0.0
 41
3.0
 42
3.0
 43
3.0
 50
270.0
  0
MTEXT
  5
174A2
330
1749B
100
AcDbEntity
  8
DIM
 62
     0
100
AcDbMText
 10
47.15584160223881
 20
111.4998502064053
 30
0.0
 40
6.0
 41
0.0
 46
0.0
 71
     5
 72
     1
  1
\A1;10
  7
ＭＳ ゴシック
 11
0.0
 21
1.0
 31
0.0
 73
     1
 44
1.0
  0
POINT
  5
174A3
330
1749B
100
AcDbEntity
  8
Defpoints
 62
     0
100
AcDbPoint
 10
42.3966099604159
 20
116.4848112399995
 30
0.0
  0
POINT
  5
174A4
330
1749B
100
AcDbEntity
  8
Defpoints
 62
     0
100
AcDbPoint
 10
42.3966099604159
 20
106.514889172811
 30
0.0
  0
POINT
  5
174A5
330
1749B
100
AcDbEntity
  8
Defpoints
 62
     0
100
AcDbPoint
 10
55.15584160223881
 20
106.514889172811
 30
0.0
  0
ENDBLK
  5
174A6
330
1749B
100
AcDbEntity
  8
0
100
AcDbBlockEnd
  0
BLOCK
  5
174AA
330
174A9
100
AcDbEntity
  8
0
100
AcDbBlockBegin
  2
*D15
 70
     1
 10
0.0
 20
0.0
 30
0.0
  3
*D15
  1

  0
LINE
  5
174AB
330
174A9
100
AcDbEntity
  8
DIM
 62
     0
370
    -2
100
AcDbLine
 10
28.99185504562735
 20
105.172262156314
 30
0.0
 11
28.99185504562735
 21
92.64411757042114
 31
0.0
  0
LINE
  5
174AC
330
174A9
100
AcDbEntity
  8
DIM
 62
     0
370
    -2
100
AcDbLine
 10
43.99185504562735
 20
105.172262156314
 30
0.0
 11
43.99185504562735
 21
92.64411757042114
 31
0.0
  0
LINE
  5
174AD
330
174A9
100
AcDbEntity
  8
DIM
 62
     0
370
    -2
100
AcDbLine
 10
25.99185504562735
 20
92.64411757042114
 30
0.0
 11
22.99185504562735
 21
92.64411757042114
 31
0.0
  0
LINE
  5
174AE
330
174A9
100
AcDbEntity
  8
DIM
 62
     0
370
    -2
100
AcDbLine
 10
46.99185504562735
 20
92.64411757042114
 30
0.0
 11
49.99185504562735
 21
92.64411757042114
 31
0.0
  0
INSERT
  5
174AF
330
174A9
100
AcDbEntity
  8
DIM
 62
     0
370
    -2
100
AcDbBlockReference
  2
_DOT
 10
28.99185504562735
 20
92.64411757042114
 30
0.0
 41
3.0
 42
3.0
 43
3.0
  0
INSERT
  5
174B0
330
174A9
100
AcDbEntity
  8
DIM
 62
     0
370
    -2
100
AcDbBlockReference
  2
_DOT
 10
43.99185504562735
 20
92.64411757042114
 30
0.0
 41
3.0
 42
3.0
 43
3.0
 50
180.0
  0
MTEXT
  5
174B1
330
174A9
100
AcDbEntity
  8
DIM
 62
     0
100
AcDbMText
 10
36.49185504562735
 20
100.6441175704211
 30
0.0
 40
6.0
 41
0.0
 46
0.0
 71
     5
 72
     1
  1
\A1;15
  7
ＭＳ ゴシック
 73
     1
 44
1.0
  0
POINT
  5
174B2
330
174A9
100
AcDbEntity
  8
Defpoints
 62
     0
100
AcDbPoint
 10
28.99185504562735
 20
110.172262156314
 30
0.0
  0
POINT
  5
174B3
330
174A9
100
AcDbEntity
  8
Defpoints
 62
     0
100
AcDbPoint
 10
43.99185504562735
 20
110.172262156314
 30
0.0
  0
POINT
  5
178C6
330
174A9
100
AcDbEntity
  8
Defpoints
 62
     0
100
AcDbPoint
 10
43.99185504562735
 20
92.64411757042114
 30
0.0
  0
ENDBLK
  5
174B5
330
174A9
100
AcDbEntity
  8
0
100
AcDbBlockEnd
  0
BLOCK
  5
174C9
330
174C8
100
AcDbEntity
  8
0
100
AcDbBlockBegin
  2
*D16
 70
     1
 10
0.0
 20
0.0
 30
0.0
  3
*D16
  1

  0
LINE
  5
174CA
330
174C8
100
AcDbEntity
  8
DIM
 62
     0
370
    -2
100
AcDbLine
 10
496.8872886512514
 20
303.1921505401208
 30
0.0
 11
496.8872886512514
 21
357.4076502744718
 31
0.0
  0
LINE
  5
174CB
330
174C8
100
AcDbEntity
  8
DIM
 62
     0
370
    -2
100
AcDbLine
 10
23.99185504562735
 20
303.1921505401207
 30
0.0
 11
23.99185504562735
 21
357.4076502744718
 31
0.0
  0
LINE
  5
174CC
330
174C8
100
AcDbEntity
  8
DIM
 62
     0
370
    -2
100
AcDbLine
 10
493.8872886512514
 20
357.4076502744718
 30
0.0
 11
26.99185504562735
 21
357.4076502744718
 31
0.0
  0
INSERT
  5
174CD
330
174C8
100
AcDbEntity
  8
DIM
 62
     0
370
    -2
100
AcDbBlockReference
  2
_DOT
 10
496.8872886512514
 20
357.4076502744718
 30
0.0
 41
3.0
 42
3.0
 43
3.0
  0
INSERT
  5
174CE
330
174C8
100
AcDbEntity
  8
DIM
 62
     0
370
    -2
100
AcDbBlockReference
  2
_DOT
 10
23.99185504562735
 20
357.4076502744718
 30
0.0
 41
3.0
 42
3.0
 43
3.0
 50
180.0
  0
MTEXT
  5
174CF
330
174C8
100
AcDbEntity
  8
DIM
 62
     0
100
AcDbMText
 10
260.4395718484394
 20
365.4076502744718
 30
0.0
 40
6.0
 41
0.0
 46
0.0
 71
     5
 72
     1
  1
\A1;1150
  7
ＭＳ ゴシック
 73
     1
 44
1.0
  0
POINT
  5
174D0
330
174C8
100
AcDbEntity
  8
Defpoints
 62
     0
100
AcDbPoint
 10
496.8872886512514
 20
298.1921505401208
 30
0.0
  0
POINT
  5
174D1
330
174C8
100
AcDbEntity
  8
Defpoints
 62
     0
100
AcDbPoint
 10
23.99185504562735
 20
298.1921505401207
 30
0.0
  0
POINT
  5
174D2
330
174C8
100
AcDbEntity
  8
Defpoints
 62
     0
100
AcDbPoint
 10
23.99185504562735
 20
357.4076502744718
 30
0.0
  0
ENDBLK
  5
174D3
330
174C8
100
AcDbEntity
  8
0
100
AcDbBlockEnd
  0
BLOCK
  5
174E2
330
174E1
100
AcDbEntity
  8
0
100
AcDbBlockBegin
  2
*D17
 70
     1
 10
0.0
 20
0.0
 30
0.0
  3
*D17
  1

  0
LINE
  5
174E3
330
174E1
100
AcDbEntity
  8
DIM
 62
     0
370
    -2
100
AcDbLine
 10
36.49185504562735
 20
303.1921505401207
 30
0.0
 11
36.49185504562735
 21
325.5609490340009
 31
0.0
  0
LINE
  5
174E4
330
174E1
100
AcDbEntity
  8
DIM
 62
     0
370
    -2
100
AcDbLine
 10
484.3872886512514
 20
303.1921505401208
 30
0.0
 11
484.3872886512514
 21
325.5609490340009
 31
0.0
  0
LINE
  5
174E5
330
174E1
100
AcDbEntity
  8
DIM
 62
     0
370
    -2
100
AcDbLine
 10
39.49185504562735
 20
325.5609490340009
 30
0.0
 11
481.3872886512514
 21
325.5609490340009
 31
0.0
  0
INSERT
  5
174E6
330
174E1
100
AcDbEntity
  8
DIM
 62
     0
370
    -2
100
AcDbBlockReference
  2
_DOT
 10
36.49185504562735
 20
325.5609490340009
 30
0.0
 41
3.0
 42
3.0
 43
3.0
 50
180.0
  0
INSERT
  5
174E7
330
174E1
100
AcDbEntity
  8
DIM
 62
     0
370
    -2
100
AcDbBlockReference
  2
_DOT
 10
484.3872886512514
 20
325.5609490340009
 30
0.0
 41
3.0
 42
3.0
 43
3.0
  0
MTEXT
  5
174E8
330
174E1
100
AcDbEntity
  8
DIM
 62
     0
100
AcDbMText
 10
260.4395718484394
 20
333.5609490340009
 30
0.0
 40
6.0
 41
0.0
 46
0.0
 71
     5
 72
     1
  1
\A1;1125
  7
ＭＳ ゴシック
 73
     1
 44
1.0
  0
POINT
  5
174E9
330
174E1
100
AcDbEntity
  8
Defpoints
 62
     0
100
AcDbPoint
 10
36.49185504562735
 20
298.1921505401207
 30
0.0
  0
POINT
  5
174EA
330
174E1
100
AcDbEntity
  8
Defpoints
 62
     0
100
AcDbPoint
 10
484.3872886512514
 20
298.1921505401208
 30
0.0
  0
POINT
  5
174EB
330
174E1
100
AcDbEntity
  8
Defpoints
 62
     0
100
AcDbPoint
 10
484.3872886512514
 20
325.5609490340009
 30
0.0
  0
ENDBLK
  5
174EC
330
174E1
100
AcDbEntity
  8
0
100
AcDbBlockEnd
  0
BLOCK
  5
17501
330
17500
100
AcDbEntity
  8
0
100
AcDbBlockBegin
  2
*D18
 70
     1
 10
0.0
 20
0.0
 30
0.0
  3
*D18
  1

  0
LINE
  5
17502
330
17500
100
AcDbEntity
  8
DIM
 62
     0
370
    -2
100
AcDbLine
 10
501.8872886512514
 20
146.4998502064053
 30
0.0
 11
515.687677614964
 21
146.4998502064053
 31
0.0
  0
LINE
  5
17503
330
17500
100
AcDbEntity
  8
DIM
 62
     0
370
    -2
100
AcDbLine
 10
501.8872886512514
 20
101.4998502064053
 30
0.0
 11
515.687677614964
 21
101.4998502064053
 31
0.0
  0
LINE
  5
17504
330
17500
100
AcDbEntity
  8
DIM
 62
     0
370
    -2
100
AcDbLine
 10
515.687677614964
 20
143.4998502064053
 30
0.0
 11
515.687677614964
 21
104.4998502064053
 31
0.0
  0
INSERT
  5
17505
330
17500
100
AcDbEntity
  8
DIM
 62
     0
370
    -2
100
AcDbBlockReference
  2
_DOT
 10
515.687677614964
 20
146.4998502064053
 30
0.0
 41
3.0
 42
3.0
 43
3.0
 50
90.0
  0
INSERT
  5
17506
330
17500
100
AcDbEntity
  8
DIM
 62
     0
370
    -2
100
AcDbBlockReference
  2
_DOT
 10
515.687677614964
 20
101.4998502064053
 30
0.0
 41
3.0
 42
3.0
 43
3.0
 50
270.0
  0
MTEXT
  5
17507
330
17500
100
AcDbEntity
  8
DIM
 62
     0
100
AcDbMText
 10
507.6876776149639
 20
123.9998502064053
 30
0.0
 40
6.0
 41
0.0
 46
0.0
 71
     5
 72
     1
  1
\A1;45
  7
ＭＳ ゴシック
 11
0.0
 21
1.0
 31
0.0
 73
     1
 44
1.0
  0
POINT
  5
17508
330
17500
100
AcDbEntity
  8
Defpoints
 62
     0
100
AcDbPoint
 10
496.8872886512514
 20
146.4998502064053
 30
0.0
  0
POINT
  5
17509
330
17500
100
AcDbEntity
  8
Defpoints
 62
     0
100
AcDbPoint
 10
496.8872886512514
 20
101.4998502064053
 30
0.0
  0
POINT
  5
1750A
330
17500
100
AcDbEntity
  8
Defpoints
 62
     0
100
AcDbPoint
 10
515.687677614964
 20
101.4998502064053
 30
0.0
  0
ENDBLK
  5
1750B
330
17500
100
AcDbEntity
  8
0
100
AcDbBlockEnd
  0
BLOCK
  5
17510
330
1750F
100
AcDbEntity
  8
0
100
AcDbBlockBegin
  2
*D19
 70
     1
 10
0.0
 20
0.0
 30
0.0
  3
*D19
  1

  0
LINE
  5
17511
330
1750F
100
AcDbEntity
  8
DIM
 62
     0
370
    -2
100
AcDbLine
 10
557.8501120919801
 20
146.4998502064051
 30
0.0
 11
548.4730119527306
 21
146.4998502064051
 31
0.0
  0
LINE
  5
17512
330
1750F
100
AcDbEntity
  8
DIM
 62
     0
370
    -2
100
AcDbLine
 10
557.8501120919801
 20
120.5907592973142
 30
0.0
 11
548.4730119527306
 21
120.5907592973142
 31
0.0
  0
LINE
  5
17513
330
1750F
100
AcDbEntity
  8
DIM
 62
     0
370
    -2
100
AcDbLine
 10
548.4730119527306
 20
143.4998502064051
 30
0.0
 11
548.4730119527306
 21
123.5907592973142
 31
0.0
  0
INSERT
  5
17514
330
1750F
100
AcDbEntity
  8
DIM
 62
     0
370
    -2
100
AcDbBlockReference
  2
_DOT
 10
548.4730119527306
 20
146.4998502064051
 30
0.0
 41
3.0
 42
3.0
 43
3.0
 50
90.0
  0
INSERT
  5
17515
330
1750F
100
AcDbEntity
  8
DIM
 62
     0
370
    -2
100
AcDbBlockReference
  2
_DOT
 10
548.4730119527306
 20
120.5907592973142
 30
0.0
 41
3.0
 42
3.0
 43
3.0
 50
270.0
  0
MTEXT
  5
17516
330
1750F
100
AcDbEntity
  8
DIM
 62
     0
100
AcDbMText
 10
540.4730119527306
 20
133.5453047518597
 30
0.0
 40
6.0
 41
0.0
 46
0.0
 71
     5
 72
     1
  1
\A1;26
  7
ＭＳ ゴシック
 11
0.0
 21
1.0
 31
0.0
 73
     1
 44
1.0
  0
POINT
  5
17517
330
1750F
100
AcDbEntity
  8
Defpoints
 62
     0
100
AcDbPoint
 10
562.8501120919801
 20
146.4998502064051
 30
0.0
  0
POINT
  5
17518
330
1750F
100
AcDbEntity
  8
Defpoints
 62
     0
100
AcDbPoint
 10
562.8501120919801
 20
120.5907592973142
 30
0.0
  0
POINT
  5
17519
330
1750F
100
AcDbEntity
  8
Defpoints
 62
     0
100
AcDbPoint
 10
548.4730119527306
 20
120.5907592973142
 30
0.0
  0
ENDBLK
  5
1751A
330
1750F
100
AcDbEntity
  8
0
100
AcDbBlockEnd
  0
BLOCK
  5
1751F
330
1751E
100
AcDbEntity
  8
0
100
AcDbBlockBegin
  2
*D20
 70
     1
 10
0.0
 20
0.0
 30
0.0
  3
*D20
  1

  0
LINE
  5
17520
330
1751E
100
AcDbEntity
  8
DIM
 62
     0
370
    -2
100
AcDbLine
 10
471.8872886512523
 20
96.49985020640736
 30
0.0
 11
471.8872886512523
 21
88.78716171466618
 31
0.0
  0
LINE
  5
17521
330
1751E
100
AcDbEntity
  8
DIM
 62
     0
370
    -2
100
AcDbLine
 10
496.8872886512523
 20
96.49985020640753
 30
0.0
 11
496.8872886512523
 21
88.78716171466618
 31
0.0
  0
LINE
  5
17522
330
1751E
100
AcDbEntity
  8
DIM
 62
     0
370
    -2
100
AcDbLine
 10
474.8872886512523
 20
88.78716171466618
 30
0.0
 11
493.8872886512523
 21
88.78716171466618
 31
0.0
  0
INSERT
  5
17523
330
1751E
100
AcDbEntity
  8
DIM
 62
     0
370
    -2
100
AcDbBlockReference
  2
_DOT
 10
471.8872886512523
 20
88.78716171466618
 30
0.0
 41
3.0
 42
3.0
 43
3.0
 50
180.0
  0
INSERT
  5
17524
330
1751E
100
AcDbEntity
  8
DIM
 62
     0
370
    -2
100
AcDbBlockReference
  2
_DOT
 10
496.8872886512523
 20
88.78716171466618
 30
0.0
 41
3.0
 42
3.0
 43
3.0
  0
MTEXT
  5
17525
330
1751E
100
AcDbEntity
  8
DIM
 62
     0
100
AcDbMText
 10
484.3872886512523
 20
96.78716171466618
 30
0.0
 40
6.0
 41
0.0
 46
0.0
 71
     5
 72
     1
  1
\A1;25
  7
ＭＳ ゴシック
 73
     1
 44
1.0
  0
POINT
  5
17526
330
1751E
100
AcDbEntity
  8
Defpoints
 62
     0
100
AcDbPoint
 10
471.8872886512523
 20
101.4998502064074
 30
0.0
  0
POINT
  5
17527
330
1751E
100
AcDbEntity
  8
Defpoints
 62
     0
100
AcDbPoint
 10
496.8872886512523
 20
101.4998502064075
 30
0.0
  0
POINT
  5
17528
330
1751E
100
AcDbEntity
  8
Defpoints
 62
     0
100
AcDbPoint
 10
496.8872886512523
 20
88.78716171466618
 30
0.0
  0
ENDBLK
  5
17529
330
1751E
100
AcDbEntity
  8
0
100
AcDbBlockEnd
  0
BLOCK
  5
1752E
330
1752D
100
AcDbEntity
  8
0
100
AcDbBlockBegin
  2
*D21
 70
     1
 10
0.0
 20
0.0
 30
0.0
  3
*D21
  1

  0
LINE
  5
1752F
330
1752D
100
AcDbEntity
  8
DIM
 62
     0
370
    -2
100
AcDbLine
 10
18.99185504562735
 20
146.4998502064053
 30
0.0
 11
14.00000000000006
 21
146.4998502064053
 31
0.0
  0
LINE
  5
17530
330
1752D
100
AcDbEntity
  8
DIM
 62
     0
370
    -2
100
AcDbLine
 10
21.99185504562735
 20
111.4998502064053
 30
0.0
 11
14.00000000000006
 21
111.4998502064053
 31
0.0
  0
LINE
  5
17531
330
1752D
100
AcDbEntity
  8
DIM
 62
     0
370
    -2
100
AcDbLine
 10
14.00000000000006
 20
143.4998502064053
 30
0.0
 11
14.00000000000006
 21
114.4998502064053
 31
0.0
  0
INSERT
  5
17532
330
1752D
100
AcDbEntity
  8
DIM
 62
     0
370
    -2
100
AcDbBlockReference
  2
_DOT
 10
14.00000000000006
 20
146.4998502064053
 30
0.0
 41
3.0
 42
3.0
 43
3.0
 50
90.0
  0
INSERT
  5
17533
330
1752D
100
AcDbEntity
  8
DIM
 62
     0
370
    -2
100
AcDbBlockReference
  2
_DOT
 10
14.00000000000006
 20
111.4998502064053
 30
0.0
 41
3.0
 42
3.0
 43
3.0
 50
270.0
  0
MTEXT
  5
17534
330
1752D
100
AcDbEntity
  8
DIM
 62
     0
100
AcDbMText
 10
6.000000000000057
 20
128.9998502064053
 30
0.0
 40
6.0
 41
0.0
 46
0.0
 71
     5
 72
     1
  1
\A1;35
  7
ＭＳ ゴシック
 11
5.075305255429287E-17
 21
1.0
 31
0.0
 73
     1
 44
1.0
  0
POINT
  5
17535
330
1752D
100
AcDbEntity
  8
Defpoints
 62
     0
100
AcDbPoint
 10
23.99185504562735
 20
146.4998502064053
 30
0.0
  0
POINT
  5
17536
330
1752D
100
AcDbEntity
  8
Defpoints
 62
     0
100
AcDbPoint
 10
26.99185504562735
 20
111.4998502064053
 30
0.0
  0
POINT
  5
17537
330
1752D
100
AcDbEntity
  8
Defpoints
 62
     0
100
AcDbPoint
 10
14.00000000000006
 20
111.4998502064053
 30
0.0
  0
ENDBLK
  5
17538
330
1752D
100
AcDbEntity
  8
0
100
AcDbBlockEnd
  0
BLOCK
  5
1753D
330
1753C
100
AcDbEntity
  8
0
100
AcDbBlockBegin
  2
*D22
 70
     1
 10
0.0
 20
0.0
 30
0.0
  3
*D22
  1

  0
LINE
  5
1753E
330
1753C
100
AcDbEntity
  8
DIM
 62
     0
370
    -2
100
AcDbLine
 10
23.99185504562735
 20
151.4998502064053
 30
0.0
 11
23.99185504562735
 21
155.5568688003805
 31
0.0
  0
LINE
  5
1753F
330
1753C
100
AcDbEntity
  8
DIM
 62
     0
370
    -2
100
AcDbLine
 10
36.49185504562735
 20
121.4998502064053
 30
0.0
 11
36.49185504562735
 21
155.5568688003805
 31
0.0
  0
LINE
  5
17540
330
1753C
100
AcDbEntity
  8
DIM
 62
     0
370
    -2
100
AcDbLine
 10
20.99185504562735
 20
155.5568688003805
 30
0.0
 11
17.99185504562735
 21
155.5568688003805
 31
0.0
  0
LINE
  5
17541
330
1753C
100
AcDbEntity
  8
DIM
 62
     0
370
    -2
100
AcDbLine
 10
39.49185504562735
 20
155.5568688003805
 30
0.0
 11
42.49185504562735
 21
155.5568688003805
 31
0.0
  0
INSERT
  5
17542
330
1753C
100
AcDbEntity
  8
DIM
 62
     0
370
    -2
100
AcDbBlockReference
  2
_DOT
 10
23.99185504562735
 20
155.5568688003805
 30
0.0
 41
3.0
 42
3.0
 43
3.0
  0
INSERT
  5
17543
330
1753C
100
AcDbEntity
  8
DIM
 62
     0
370
    -2
100
AcDbBlockReference
  2
_DOT
 10
36.49185504562735
 20
155.5568688003805
 30
0.0
 41
3.0
 42
3.0
 43
3.0
 50
180.0
  0
MTEXT
  5
17544
330
1753C
100
AcDbEntity
  8
DIM
 62
     0
100
AcDbMText
 10
30.24185504562735
 20
163.5568688003805
 30
0.0
 40
6.0
 41
0.0
 46
0.0
 71
     5
 72
     1
  1
\A1;12.5
  7
ＭＳ ゴシック
 73
     1
 44
1.0
  0
POINT
  5
17545
330
1753C
100
AcDbEntity
  8
Defpoints
 62
     0
100
AcDbPoint
 10
23.99185504562735
 20
146.4998502064053
 30
0.0
  0
POINT
  5
17546
330
1753C
100
AcDbEntity
  8
Defpoints
 62
     0
100
AcDbPoint
 10
36.49185504562735
 20
116.4998502064053
 30
0.0
  0
POINT
  5
17547
330
1753C
100
AcDbEntity
  8
Defpoints
 62
     0
100
AcDbPoint
 10
36.49185504562735
 20
155.5568688003805
 30
0.0
  0
ENDBLK
  5
17548
330
1753C
100
AcDbEntity
  8
0
100
AcDbBlockEnd
  0
BLOCK
  5
175BE
330
175BD
100
AcDbEntity
  8
0
100
AcDbBlockBegin
  2
*D23
 70
     1
 10
0.0
 20
0.0
 30
0.0
  3
*D23
  1

  0
LINE
  5
175C0
330
175BD
100
AcDbEntity
  8
DIM
 62
     0
370
    -2
100
AcDbLine
 10
1058.409452887539
 20
507.8763410459732
 30
0.0
 11
1058.409452887539
 21
638.1688310836628
 31
0.0
  0
LINE
  5
175C1
330
175BD
100
AcDbEntity
  8
DIM
 62
     0
370
    -2
100
AcDbLine
 10
1286.765440729484
 20
507.8763410459732
 30
0.0
 11
1286.765440729484
 21
638.1688310836628
 31
0.0
  0
LINE
  5
175C2
330
175BD
100
AcDbEntity
  8
DIM
 62
     0
370
    -2
100
AcDbLine
 10
1061.409452887539
 20
638.1688310836628
 30
0.0
 11
1283.765440729484
 21
638.1688310836628
 31
0.0
  0
INSERT
  5
175C3
330
175BD
100
AcDbEntity
  8
DIM
 62
     0
370
    -2
100
AcDbBlockReference
  2
_DOT
 10
1058.409452887539
 20
638.1688310836628
 30
0.0
 41
3.0
 42
3.0
 43
3.0
 50
180.0
  0
INSERT
  5
175C4
330
175BD
100
AcDbEntity
  8
DIM
 62
     0
370
    -2
100
AcDbBlockReference
  2
_DOT
 10
1286.765440729484
 20
638.1688310836628
 30
0.0
 41
3.0
 42
3.0
 43
3.0
  0
MTEXT
  5
175C5
330
175BD
100
AcDbEntity
  8
DIM
 62
     0
100
AcDbMText
 10
1172.587446808511
 20
648.1688310836628
 30
0.0
 40
8.0
 41
0.0
 46
0.0
 71
     5
 72
     1
  1
\A1;228
  7
ＭＳ ゴシック
 73
     1
 44
1.0
  0
POINT
  5
175C6
330
175BD
100
AcDbEntity
  8
Defpoints
 62
     0
100
AcDbPoint
 10
1058.409452887539
 20
497.8763410459732
 30
0.0
  0
POINT
  5
175C7
330
175BD
100
AcDbEntity
  8
Defpoints
 62
     0
100
AcDbPoint
 10
1286.765440729484
 20
497.8763410459732
 30
0.0
  0
POINT
  5
175C8
330
175BD
100
AcDbEntity
  8
Defpoints
 62
     0
100
AcDbPoint
 10
1286.765440729484
 20
638.1688310836628
 30
0.0
  0
ENDBLK
  5
175BF
330
175BD
100
AcDbEntity
  8
0
100
AcDbBlockEnd
  0
BLOCK
  5
175CA
330
175C9
100
AcDbEntity
  8
0
100
AcDbBlockBegin
  2
*D24
 70
     1
 10
0.0
 20
0.0
 30
0.0
  3
*D24
  1

  0
LINE
  5
175CC
330
175C9
100
AcDbEntity
  8
DIM
 62
     0
370
    -2
100
AcDbLine
 10
1096.813624038542
 20
487.8763410459732
 30
0.0
 11
1096.813624038542
 21
324.4790097876146
 31
0.0
  0
LINE
  5
175CD
330
175C9
100
AcDbEntity
  8
DIM
 62
     0
370
    -2
100
AcDbLine
 10
1248.36126957848
 20
487.8763410459732
 30
0.0
 11
1248.36126957848
 21
324.4790097876146
 31
0.0
  0
LINE
  5
175CE
330
175C9
100
AcDbEntity
  8
DIM
 62
     0
370
    -2
100
AcDbLine
 10
1099.813624038542
 20
324.4790097876146
 30
0.0
 11
1245.36126957848
 21
324.4790097876146
 31
0.0
  0
INSERT
  5
175CF
330
175C9
100
AcDbEntity
  8
DIM
 62
     0
370
    -2
100
AcDbBlockReference
  2
_DOT
 10
1096.813624038542
 20
324.4790097876146
 30
0.0
 41
3.0
 42
3.0
 43
3.0
 50
180.0
  0
INSERT
  5
175D0
330
175C9
100
AcDbEntity
  8
DIM
 62
     0
370
    -2
100
AcDbBlockReference
  2
_DOT
 10
1248.36126957848
 20
324.4790097876146
 30
0.0
 41
3.0
 42
3.0
 43
3.0
  0
MTEXT
  5
175D1
330
175C9
100
AcDbEntity
  8
DIM
 62
     0
100
AcDbMText
 10
1172.587446808511
 20
334.4790097876146
 30
0.0
 40
8.0
 41
0.0
 46
0.0
 71
     5
 72
     1
  1
\A1;152
  7
ＭＳ ゴシック
 73
     1
 44
1.0
  0
POINT
  5
175D2
330
175C9
100
AcDbEntity
  8
Defpoints
 62
     0
100
AcDbPoint
 10
1096.813624038542
 20
497.8763410459732
 30
0.0
  0
POINT
  5
175D3
330
175C9
100
AcDbEntity
  8
Defpoints
 62
     0
100
AcDbPoint
 10
1248.36126957848
 20
497.8763410459732
 30
0.0
  0
POINT
  5
175D4
330
175C9
100
AcDbEntity
  8
Defpoints
 62
     0
100
AcDbPoint
 10
1248.36126957848
 20
324.4790097876146
 30
0.0
  0
ENDBLK
  5
175CB
330
175C9
100
AcDbEntity
  8
0
100
AcDbBlockEnd
  0
BLOCK
  5
175D6
330
175D5
100
AcDbEntity
  8
0
100
AcDbBlockBegin
  2
*D25
 70
     1
 10
0.0
 20
0.0
 30
0.0
  3
*D25
  1

  0
LINE
  5
175D8
330
175D5
100
AcDbEntity
  8
MODEL
 62
     0
370
    -2
100
AcDbLine
 10
919.5600921276941
 20
314.5746222428795
 30
0.0
 11
922.7530539604247
 21
314.5746222428795
 31
0.0
  0
LINE
  5
175D9
330
175D5
100
AcDbEntity
  8
MODEL
 62
     0
370
    -2
100
AcDbLine
 10
900.0244863138903
 20
329.5746222428793
 30
0.0
 11
922.7530539604247
 21
329.5746222428793
 31
0.0
  0
LINE
  5
175DA
330
175D5
100
AcDbEntity
  8
MODEL
 62
     0
370
    -2
100
AcDbLine
 10
922.7530539604247
 20
311.5746222428795
 30
0.0
 11
922.7530539604247
 21
308.5746222428795
 31
0.0
  0
LINE
  5
175DB
330
175D5
100
AcDbEntity
  8
MODEL
 62
     0
370
    -2
100
AcDbLine
 10
922.7530539604247
 20
332.5746222428793
 30
0.0
 11
922.7530539604247
 21
335.5746222428793
 31
0.0
  0
INSERT
  5
175DC
330
175D5
100
AcDbEntity
  8
MODEL
 62
     0
370
    -2
100
AcDbBlockReference
  2
_DOT
 10
922.7530539604247
 20
314.5746222428795
 30
0.0
 41
3.0
 42
3.0
 43
3.0
 50
90.0
  0
INSERT
  5
175DD
330
175D5
100
AcDbEntity
  8
MODEL
 62
     0
370
    -2
100
AcDbBlockReference
  2
_DOT
 10
922.7530539604247
 20
329.5746222428793
 30
0.0
 41
3.0
 42
3.0
 43
3.0
 50
270.0
  0
MTEXT
  5
175DE
330
175D5
100
AcDbEntity
  8
MODEL
 62
     0
100
AcDbMText
 10
912.7530539604247
 20
322.0746222428794
 30
0.0
 40
8.0
 41
0.0
 46
0.0
 71
     5
 72
     1
  1
\A1;15
  7
ＭＳ ゴシック
 11
0.0
 21
1.0
 31
0.0
 73
     1
 44
1.0
  0
POINT
  5
175DF
330
175D5
100
AcDbEntity
  8
Defpoints
 62
     0
100
AcDbPoint
 10
909.5600921276941
 20
314.5746222428795
 30
0.0
  0
POINT
  5
175E0
330
175D5
100
AcDbEntity
  8
Defpoints
 62
     0
100
AcDbPoint
 10
890.0244863138903
 20
329.5746222428793
 30
0.0
  0
POINT
  5
175E1
330
175D5
100
AcDbEntity
  8
Defpoints
 62
     0
100
AcDbPoint
 10
922.7530539604247
 20
329.5746222428793
 30
0.0
  0
ENDBLK
  5
175D7
330
175D5
100
AcDbEntity
  8
0
100
AcDbBlockEnd
  0
BLOCK
  5
175E3
330
175E2
100
AcDbEntity
  8
0
100
AcDbBlockBegin
  2
*D26
 70
     1
 10
0.0
 20
0.0
 30
0.0
  3
*D26
  1

  0
LINE
  5
175E5
330
175E2
100
AcDbEntity
  8
MODEL
 62
     0
370
    -2
100
AcDbLine
 10
921.5600921276941
 20
314.5746222428795
 30
0.0
 11
922.7530539604247
 21
314.5746222428795
 31
0.0
  0
LINE
  5
175E6
330
175E2
100
AcDbEntity
  8
MODEL
 62
     0
370
    -2
100
AcDbLine
 10
919.5600921276941
 20
284.5746222428795
 30
0.0
 11
922.7530539604247
 21
284.5746222428795
 31
0.0
  0
LINE
  5
175E7
330
175E2
100
AcDbEntity
  8
MODEL
 62
     0
370
    -2
100
AcDbLine
 10
922.7530539604247
 20
311.5746222428795
 30
0.0
 11
922.7530539604247
 21
287.5746222428795
 31
0.0
  0
INSERT
  5
175E8
330
175E2
100
AcDbEntity
  8
MODEL
 62
     0
370
    -2
100
AcDbBlockReference
  2
_DOT
 10
922.7530539604247
 20
314.5746222428795
 30
0.0
 41
3.0
 42
3.0
 43
3.0
 50
90.0
  0
INSERT
  5
175E9
330
175E2
100
AcDbEntity
  8
MODEL
 62
     0
370
    -2
100
AcDbBlockReference
  2
_DOT
 10
922.7530539604247
 20
284.5746222428795
 30
0.0
 41
3.0
 42
3.0
 43
3.0
 50
270.0
  0
MTEXT
  5
175EA
330
175E2
100
AcDbEntity
  8
MODEL
 62
     0
100
AcDbMText
 10
912.7530539604247
 20
299.5746222428795
 30
0.0
 40
8.0
 41
0.0
 46
0.0
 71
     5
 72
     1
  1
\A1;30
  7
ＭＳ ゴシック
 11
0.0
 21
1.0
 31
0.0
 73
     1
 44
1.0
  0
POINT
  5
175EB
330
175E2
100
AcDbEntity
  8
Defpoints
 62
     0
100
AcDbPoint
 10
911.5600921276941
 20
314.5746222428795
 30
0.0
  0
POINT
  5
175EC
330
175E2
100
AcDbEntity
  8
Defpoints
 62
     0
100
AcDbPoint
 10
909.5600921276941
 20
284.5746222428795
 30
0.0
  0
POINT
  5
175ED
330
175E2
100
AcDbEntity
  8
Defpoints
 62
     0
100
AcDbPoint
 10
922.7530539604247
 20
284.5746222428795
 30
0.0
  0
ENDBLK
  5
175E4
330
175E2
100
AcDbEntity
  8
0
100
AcDbBlockEnd
  0
BLOCK
  5
175EF
330
175EE
100
AcDbEntity
  8
0
100
AcDbBlockBegin
  2
*D27
 70
     1
 10
0.0
 20
0.0
 30
0.0
  3
*D27
  1

  0
LINE
  5
175F1
330
175EE
100
AcDbEntity
  8
DIM
 62
     0
370
    -2
100
AcDbLine
 10
1367.455525733318
 20
378.2669225765951
 30
0.0
 11
1367.136743654705
 21
378.2669225765951
 31
0.0
  0
LINE
  5
175F2
330
175EE
100
AcDbEntity
  8
DIM
 62
     0
370
    -2
100
AcDbLine
 10
1367.455525733318
 20
478.2669225765951
 30
0.0
 11
1367.136743654705
 21
478.2669225765951
 31
0.0
  0
LINE
  5
175F3
330
175EE
100
AcDbEntity
  8
DIM
 62
     0
370
    -2
100
AcDbLine
 10
1367.136743654705
 20
381.2669225765951
 30
0.0
 11
1367.136743654705
 21
475.2669225765951
 31
0.0
  0
INSERT
  5
175F4
330
175EE
100
AcDbEntity
  8
DIM
 62
     0
370
    -2
100
AcDbBlockReference
  2
_DOT
 10
1367.136743654705
 20
378.2669225765951
 30
0.0
 41
3.0
 42
3.0
 43
3.0
 50
270.0
  0
INSERT
  5
175F5
330
175EE
100
AcDbEntity
  8
DIM
 62
     0
370
    -2
100
AcDbBlockReference
  2
_DOT
 10
1367.136743654705
 20
478.2669225765951
 30
0.0
 41
3.0
 42
3.0
 43
3.0
 50
90.0
  0
MTEXT
  5
175F6
330
175EE
100
AcDbEntity
  8
DIM
 62
     0
100
AcDbMText
 10
1357.136743654705
 20
428.2669225765951
 30
0.0
 40
8.0
 41
0.0
 46
0.0
 71
     5
 72
     1
  1
\A1;100
  7
ＭＳ ゴシック
 11
0.0
 21
1.0
 31
0.0
 73
     1
 44
1.0
  0
POINT
  5
175F7
330
175EE
100
AcDbEntity
  8
Defpoints
 62
     0
100
AcDbPoint
 10
1357.455525733318
 20
378.2669225765951
 30
0.0
  0
POINT
  5
175F8
330
175EE
100
AcDbEntity
  8
Defpoints
 62
     0
100
AcDbPoint
 10
1357.455525733318
 20
478.2669225765951
 30
0.0
  0
POINT
  5
175F9
330
175EE
100
AcDbEntity
  8
Defpoints
 62
     0
100
AcDbPoint
 10
1367.136743654705
 20
478.2669225765951
 30
0.0
  0
ENDBLK
  5
175F0
330
175EE
100
AcDbEntity
  8
0
100
AcDbBlockEnd
  0
BLOCK
  5
175FB
330
175FA
100
AcDbEntity
  8
0
100
AcDbBlockBegin
  2
*D28
 70
     1
 10
0.0
 20
0.0
 30
0.0
  3
*D28
  1

  0
LINE
  5
175FD
330
175FA
100
AcDbEntity
  8
DIM
 62
     0
370
    -2
100
AcDbLine
 10
1367.455525733318
 20
481.2669225765951
 30
0.0
 11
1367.136743654705
 21
481.2669225765951
 31
0.0
  0
LINE
  5
175FE
330
175FA
100
AcDbEntity
  8
DIM
 62
     0
370
    -2
100
AcDbLine
 10
1369.455525733318
 20
478.2669225765951
 30
0.0
 11
1367.136743654705
 21
478.2669225765951
 31
0.0
  0
LINE
  5
175FF
330
175FA
100
AcDbEntity
  8
DIM
 62
     0
370
    -2
100
AcDbLine
 10
1367.136743654705
 20
478.2669225765951
 30
0.0
 11
1367.136743654705
 21
481.2669225765951
 31
0.0
  0
INSERT
  5
17600
330
175FA
100
AcDbEntity
  8
DIM
 62
     0
370
    -2
100
AcDbBlockReference
  2
_DOT
 10
1367.136743654705
 20
481.2669225765951
 30
0.0
 41
3.0
 42
3.0
 43
3.0
 50
90.0
  0
INSERT
  5
17601
330
175FA
100
AcDbEntity
  8
DIM
 62
     0
370
    -2
100
AcDbBlockReference
  2
_DOT
 10
1367.136743654705
 20
478.2669225765951
 30
0.0
 41
3.0
 42
3.0
 43
3.0
 50
270.0
  0
MTEXT
  5
17602
330
175FA
100
AcDbEntity
  8
DIM
 62
     0
100
AcDbMText
 10
1357.136743654705
 20
479.7669225765951
 30
0.0
 40
8.0
 41
0.0
 46
0.0
 71
     5
 72
     1
  1
\A1;3
  7
ＭＳ ゴシック
 11
0.0
 21
1.0
 31
0.0
 73
     1
 44
1.0
  0
POINT
  5
17603
330
175FA
100
AcDbEntity
  8
Defpoints
 62
     0
100
AcDbPoint
 10
1357.455525733318
 20
481.2669225765951
 30
0.0
  0
POINT
  5
17604
330
175FA
100
AcDbEntity
  8
Defpoints
 62
     0
100
AcDbPoint
 10
1359.455525733318
 20
478.2669225765951
 30
0.0
  0
POINT
  5
17605
330
175FA
100
AcDbEntity
  8
Defpoints
 62
     0
100
AcDbPoint
 10
1367.136743654705
 20
478.2669225765951
 30
0.0
  0
ENDBLK
  5
175FC
330
175FA
100
AcDbEntity
  8
0
100
AcDbBlockEnd
  0
BLOCK
  5
17607
330
17606
100
AcDbEntity
  8
0
100
AcDbBlockBegin
  2
*D29
 70
     1
 10
0.0
 20
0.0
 30
0.0
  3
*D29
  1

  0
LINE
  5
17609
330
17606
100
AcDbEntity
  8
DIM
 62
     0
370
    -2
100
AcDbLine
 10
912.9648470424827
 20
299.5595832764737
 30
0.0
 11
915.7240786843056
 21
299.5595832764737
 31
0.0
  0
LINE
  5
1760A
330
17606
100
AcDbEntity
  8
DIM
 62
     0
370
    -2
100
AcDbLine
 10
912.9648470424827
 20
289.5896612092852
 30
0.0
 11
915.7240786843056
 21
289.5896612092852
 31
0.0
  0
LINE
  5
1760B
330
17606
100
AcDbEntity
  8
DIM
 62
     0
370
    -2
100
AcDbLine
 10
915.7240786843056
 20
296.5595832764737
 30
0.0
 11
915.7240786843056
 21
292.5896612092852
 31
0.0
  0
INSERT
  5
1760C
330
17606
100
AcDbEntity
  8
DIM
 62
     0
370
    -2
100
AcDbBlockReference
  2
_DOT
 10
915.7240786843056
 20
299.5595832764737
 30
0.0
 41
3.0
 42
3.0
 43
3.0
 50
90.0
  0
INSERT
  5
1760D
330
17606
100
AcDbEntity
  8
DIM
 62
     0
370
    -2
100
AcDbBlockReference
  2
_DOT
 10
915.7240786843056
 20
289.5896612092852
 30
0.0
 41
3.0
 42
3.0
 43
3.0
 50
270.0
  0
MTEXT
  5
1760E
330
17606
100
AcDbEntity
  8
DIM
 62
     0
100
AcDbMText
 10
905.7240786843056
 20
294.5746222428795
 30
0.0
 40
8.0
 41
0.0
 46
0.0
 71
     5
 72
     1
  1
\A1;10
  7
ＭＳ ゴシック
 11
0.0
 21
1.0
 31
0.0
 73
     1
 44
1.0
  0
POINT
  5
1760F
330
17606
100
AcDbEntity
  8
Defpoints
 62
     0
100
AcDbPoint
 10
902.9648470424827
 20
299.5595832764737
 30
0.0
  0
POINT
  5
17610
330
17606
100
AcDbEntity
  8
Defpoints
 62
     0
100
AcDbPoint
 10
902.9648470424827
 20
289.5896612092852
 30
0.0
  0
POINT
  5
17611
330
17606
100
AcDbEntity
  8
Defpoints
 62
     0
100
AcDbPoint
 10
915.7240786843056
 20
289.5896612092852
 30
0.0
  0
ENDBLK
  5
17608
330
17606
100
AcDbEntity
  8
0
100
AcDbBlockEnd
  0
BLOCK
  5
17613
330
17612
100
AcDbEntity
  8
0
100
AcDbBlockBegin
  2
*D30
 70
     1
 10
0.0
 20
0.0
 30
0.0
  3
*D30
  1

  0
LINE
  5
17615
330
17612
100
AcDbEntity
  8
DIM
 62
     0
370
    -2
100
AcDbLine
 10
889.5600921276941
 20
283.2470341927882
 30
0.0
 11
889.5600921276941
 21
275.7188896068953
 31
0.0
  0
LINE
  5
17616
330
17612
100
AcDbEntity
  8
DIM
 62
     0
370
    -2
100
AcDbLine
 10
904.5600921276941
 20
283.2470341927882
 30
0.0
 11
904.5600921276941
 21
275.7188896068953
 31
0.0
  0
LINE
  5
17617
330
17612
100
AcDbEntity
  8
DIM
 62
     0
370
    -2
100
AcDbLine
 10
886.5600921276941
 20
275.7188896068953
 30
0.0
 11
883.5600921276941
 21
275.7188896068953
 31
0.0
  0
LINE
  5
17618
330
17612
100
AcDbEntity
  8
DIM
 62
     0
370
    -2
100
AcDbLine
 10
907.5600921276941
 20
275.7188896068953
 30
0.0
 11
910.5600921276941
 21
275.7188896068953
 31
0.0
  0
INSERT
  5
17619
330
17612
100
AcDbEntity
  8
DIM
 62
     0
370
    -2
100
AcDbBlockReference
  2
_DOT
 10
889.5600921276941
 20
275.7188896068953
 30
0.0
 41
3.0
 42
3.0
 43
3.0
  0
INSERT
  5
1761A
330
17612
100
AcDbEntity
  8
DIM
 62
     0
370
    -2
100
AcDbBlockReference
  2
_DOT
 10
904.5600921276941
 20
275.7188896068953
 30
0.0
 41
3.0
 42
3.0
 43
3.0
 50
180.0
  0
MTEXT
  5
1761B
330
17612
100
AcDbEntity
  8
DIM
 62
     0
100
AcDbMText
 10
897.0600921276941
 20
285.7188896068953
 30
0.0
 40
8.0
 41
0.0
 46
0.0
 71
     5
 72
     1
  1
\A1;15
  7
ＭＳ ゴシック
 73
     1
 44
1.0
  0
POINT
  5
1761C
330
17612
100
AcDbEntity
  8
Defpoints
 62
     0
100
AcDbPoint
 10
889.5600921276941
 20
293.2470341927882
 30
0.0
  0
POINT
  5
1761D
330
17612
100
AcDbEntity
  8
Defpoints
 62
     0
100
AcDbPoint
 10
904.5600921276941
 20
293.2470341927882
 30
0.0
  0
POINT
  5
1761E
330
17612
100
AcDbEntity
  8
Defpoints
 62
     0
100
AcDbPoint
 10
904.5600921276941
 20
275.7188896068953
 30
0.0
  0
ENDBLK
  5
17614
330
17612
100
AcDbEntity
  8
0
100
AcDbBlockEnd
  0
BLOCK
  5
17620
330
1761F
100
AcDbEntity
  8
0
100
AcDbBlockBegin
  2
*D31
 70
     1
 10
0.0
 20
0.0
 30
0.0
  3
*D31
  1

  0
LINE
  5
17622
330
1761F
100
AcDbEntity
  8
DIM
 62
     0
370
    -2
100
AcDbLine
 10
1357.455525733318
 20
491.2669225765951
 30
0.0
 11
1357.455525733318
 21
540.482422310946
 31
0.0
  0
LINE
  5
17623
330
1761F
100
AcDbEntity
  8
DIM
 62
     0
370
    -2
100
AcDbLine
 10
884.5600921276941
 20
491.2669225765949
 30
0.0
 11
884.5600921276941
 21
540.482422310946
 31
0.0
  0
LINE
  5
17624
330
1761F
100
AcDbEntity
  8
DIM
 62
     0
370
    -2
100
AcDbLine
 10
1354.455525733318
 20
540.482422310946
 30
0.0
 11
887.5600921276941
 21
540.482422310946
 31
0.0
  0
INSERT
  5
17625
330
1761F
100
AcDbEntity
  8
DIM
 62
     0
370
    -2
100
AcDbBlockReference
  2
_DOT
 10
1357.455525733318
 20
540.482422310946
 30
0.0
 41
3.0
 42
3.0
 43
3.0
  0
INSERT
  5
17626
330
1761F
100
AcDbEntity
  8
DIM
 62
     0
370
    -2
100
AcDbBlockReference
  2
_DOT
 10
884.5600921276941
 20
540.482422310946
 30
0.0
 41
3.0
 42
3.0
 43
3.0
 50
180.0
  0
MTEXT
  5
17627
330
1761F
100
AcDbEntity
  8
DIM
 62
     0
100
AcDbMText
 10
1121.007808930506
 20
550.482422310946
 30
0.0
 40
8.0
 41
0.0
 46
0.0
 71
     5
 72
     1
  1
\A1;1150
  7
ＭＳ ゴシック
 73
     1
 44
1.0
  0
POINT
  5
17628
330
1761F
100
AcDbEntity
  8
Defpoints
 62
     0
100
AcDbPoint
 10
1357.455525733318
 20
481.2669225765951
 30
0.0
  0
POINT
  5
17629
330
1761F
100
AcDbEntity
  8
Defpoints
 62
     0
100
AcDbPoint
 10
884.5600921276941
 20
481.2669225765949
 30
0.0
  0
POINT
  5
1762A
330
1761F
100
AcDbEntity
  8
Defpoints
 62
     0
100
AcDbPoint
 10
884.5600921276941
 20
540.482422310946
 30
0.0
  0
ENDBLK
  5
17621
330
1761F
100
AcDbEntity
  8
0
100
AcDbBlockEnd
  0
BLOCK
  5
1762C
330
1762B
100
AcDbEntity
  8
0
100
AcDbBlockBegin
  2
*D32
 70
     1
 10
0.0
 20
0.0
 30
0.0
  3
*D32
  1

  0
LINE
  5
1762E
330
1762B
100
AcDbEntity
  8
DIM
 62
     0
370
    -2
100
AcDbLine
 10
897.0600921276941
 20
491.2669225765949
 30
0.0
 11
897.0600921276941
 21
508.6357210704751
 31
0.0
  0
LINE
  5
1762F
330
1762B
100
AcDbEntity
  8
DIM
 62
     0
370
    -2
100
AcDbLine
 10
1344.955525733318
 20
491.2669225765951
 30
0.0
 11
1344.955525733318
 21
508.6357210704751
 31
0.0
  0
LINE
  5
17630
330
1762B
100
AcDbEntity
  8
DIM
 62
     0
370
    -2
100
AcDbLine
 10
900.0600921276941
 20
508.6357210704751
 30
0.0
 11
1341.955525733318
 21
508.6357210704751
 31
0.0
  0
INSERT
  5
17631
330
1762B
100
AcDbEntity
  8
DIM
 62
     0
370
    -2
100
AcDbBlockReference
  2
_DOT
 10
897.0600921276941
 20
508.6357210704751
 30
0.0
 41
3.0
 42
3.0
 43
3.0
 50
180.0
  0
INSERT
  5
17632
330
1762B
100
AcDbEntity
  8
DIM
 62
     0
370
    -2
100
AcDbBlockReference
  2
_DOT
 10
1344.955525733318
 20
508.6357210704751
 30
0.0
 41
3.0
 42
3.0
 43
3.0
  0
MTEXT
  5
17633
330
1762B
100
AcDbEntity
  8
DIM
 62
     0
100
AcDbMText
 10
1121.007808930506
 20
518.635721070475
 30
0.0
 40
8.0
 41
0.0
 46
0.0
 71
     5
 72
     1
  1
\A1;1125
  7
ＭＳ ゴシック
 73
     1
 44
1.0
  0
POINT
  5
17634
330
1762B
100
AcDbEntity
  8
Defpoints
 62
     0
100
AcDbPoint
 10
897.0600921276941
 20
481.2669225765949
 30
0.0
  0
POINT
  5
17635
330
1762B
100
AcDbEntity
  8
Defpoints
 62
     0
100
AcDbPoint
 10
1344.955525733318
 20
481.2669225765951
 30
0.0
  0
POINT
  5
17636
330
1762B
100
AcDbEntity
  8
Defpoints
 62
     0
100
AcDbPoint
 10
1344.955525733318
 20
508.6357210704751
 30
0.0
  0
ENDBLK
  5
1762D
330
1762B
100
AcDbEntity
  8
0
100
AcDbBlockEnd
  0
BLOCK
  5
17638
330
17637
100
AcDbEntity
  8
0
100
AcDbBlockBegin
  2
*D33
 70
     1
 10
0.0
 20
0.0
 30
0.0
  3
*D33
  1

  0
LINE
  5
1763A
330
17637
100
AcDbEntity
  8
DIM
 62
     0
370
    -2
100
AcDbLine
 10
1367.455525733318
 20
329.5746222428795
 30
0.0
 11
1376.255914697031
 21
329.5746222428795
 31
0.0
  0
LINE
  5
1763B
330
17637
100
AcDbEntity
  8
DIM
 62
     0
370
    -2
100
AcDbLine
 10
1367.455525733318
 20
284.5746222428795
 30
0.0
 11
1376.255914697031
 21
284.5746222428795
 31
0.0
  0
LINE
  5
1763C
330
17637
100
AcDbEntity
  8
DIM
 62
     0
370
    -2
100
AcDbLine
 10
1376.255914697031
 20
326.5746222428795
 30
0.0
 11
1376.255914697031
 21
287.5746222428795
 31
0.0
  0
INSERT
  5
1763D
330
17637
100
AcDbEntity
  8
DIM
 62
     0
370
    -2
100
AcDbBlockReference
  2
_DOT
 10
1376.255914697031
 20
329.5746222428795
 30
0.0
 41
3.0
 42
3.0
 43
3.0
 50
90.0
  0
INSERT
  5
1763E
330
17637
100
AcDbEntity
  8
DIM
 62
     0
370
    -2
100
AcDbBlockReference
  2
_DOT
 10
1376.255914697031
 20
284.5746222428795
 30
0.0
 41
3.0
 42
3.0
 43
3.0
 50
270.0
  0
MTEXT
  5
1763F
330
17637
100
AcDbEntity
  8
DIM
 62
     0
100
AcDbMText
 10
1366.255914697031
 20
307.0746222428795
 30
0.0
 40
8.0
 41
0.0
 46
0.0
 71
     5
 72
     1
  1
\A1;45
  7
ＭＳ ゴシック
 11
0.0
 21
1.0
 31
0.0
 73
     1
 44
1.0
  0
POINT
  5
17640
330
17637
100
AcDbEntity
  8
Defpoints
 62
     0
100
AcDbPoint
 10
1357.455525733318
 20
329.5746222428795
 30
0.0
  0
POINT
  5
17641
330
17637
100
AcDbEntity
  8
Defpoints
 62
     0
100
AcDbPoint
 10
1357.455525733318
 20
284.5746222428795
 30
0.0
  0
POINT
  5
17642
330
17637
100
AcDbEntity
  8
Defpoints
 62
     0
100
AcDbPoint
 10
1376.255914697031
 20
284.5746222428795
 30
0.0
  0
ENDBLK
  5
17639
330
17637
100
AcDbEntity
  8
0
100
AcDbBlockEnd
  0
BLOCK
  5
17644
330
17643
100
AcDbEntity
  8
0
100
AcDbBlockBegin
  2
*D34
 70
     1
 10
0.0
 20
0.0
 30
0.0
  3
*D34
  1

  0
LINE
  5
17646
330
17643
100
AcDbEntity
  8
DIM
 62
     0
370
    -2
100
AcDbLine
 10
1413.418349174047
 20
329.5746222428793
 30
0.0
 11
1409.041249034798
 21
329.5746222428793
 31
0.0
  0
LINE
  5
17647
330
17643
100
AcDbEntity
  8
DIM
 62
     0
370
    -2
100
AcDbLine
 10
1413.418349174047
 20
303.6655313337884
 30
0.0
 11
1409.041249034798
 21
303.6655313337884
 31
0.0
  0
LINE
  5
17648
330
17643
100
AcDbEntity
  8
DIM
 62
     0
370
    -2
100
AcDbLine
 10
1409.041249034798
 20
326.5746222428793
 30
0.0
 11
1409.041249034798
 21
306.6655313337884
 31
0.0
  0
INSERT
  5
17649
330
17643
100
AcDbEntity
  8
DIM
 62
     0
370
    -2
100
AcDbBlockReference
  2
_DOT
 10
1409.041249034798
 20
329.5746222428793
 30
0.0
 41
3.0
 42
3.0
 43
3.0
 50
90.0
  0
INSERT
  5
1764A
330
17643
100
AcDbEntity
  8
DIM
 62
     0
370
    -2
100
AcDbBlockReference
  2
_DOT
 10
1409.041249034798
 20
303.6655313337884
 30
0.0
 41
3.0
 42
3.0
 43
3.0
 50
270.0
  0
MTEXT
  5
1764B
330
17643
100
AcDbEntity
  8
DIM
 62
     0
100
AcDbMText
 10
1399.041249034798
 20
316.6200767883339
 30
0.0
 40
8.0
 41
0.0
 46
0.0
 71
     5
 72
     1
  1
\A1;26
  7
ＭＳ ゴシック
 11
0.0
 21
1.0
 31
0.0
 73
     1
 44
1.0
  0
POINT
  5
1764C
330
17643
100
AcDbEntity
  8
Defpoints
 62
     0
100
AcDbPoint
 10
1423.418349174047
 20
329.5746222428793
 30
0.0
  0
POINT
  5
1764D
330
17643
100
AcDbEntity
  8
Defpoints
 62
     0
100
AcDbPoint
 10
1423.418349174047
 20
303.6655313337884
 30
0.0
  0
POINT
  5
1764E
330
17643
100
AcDbEntity
  8
Defpoints
 62
     0
100
AcDbPoint
 10
1409.041249034798
 20
303.6655313337884
 30
0.0
  0
ENDBLK
  5
17645
330
17643
100
AcDbEntity
  8
0
100
AcDbBlockEnd
  0
BLOCK
  5
17650
330
1764F
100
AcDbEntity
  8
0
100
AcDbBlockBegin
  2
*D35
 70
     1
 10
0.0
 20
0.0
 30
0.0
  3
*D35
  1

  0
LINE
  5
17652
330
1764F
100
AcDbEntity
  8
DIM
 62
     0
370
    -2
100
AcDbLine
 10
1332.455525733319
 20
274.5746222428816
 30
0.0
 11
1332.455525733319
 21
271.8619337511404
 31
0.0
  0
LINE
  5
17653
330
1764F
100
AcDbEntity
  8
DIM
 62
     0
370
    -2
100
AcDbLine
 10
1357.455525733319
 20
274.5746222428817
 30
0.0
 11
1357.455525733319
 21
271.8619337511404
 31
0.0
  0
LINE
  5
17654
330
1764F
100
AcDbEntity
  8
DIM
 62
     0
370
    -2
100
AcDbLine
 10
1335.455525733319
 20
271.8619337511404
 30
0.0
 11
1354.455525733319
 21
271.8619337511404
 31
0.0
  0
INSERT
  5
17655
330
1764F
100
AcDbEntity
  8
DIM
 62
     0
370
    -2
100
AcDbBlockReference
  2
_DOT
 10
1332.455525733319
 20
271.8619337511404
 30
0.0
 41
3.0
 42
3.0
 43
3.0
 50
180.0
  0
INSERT
  5
17656
330
1764F
100
AcDbEntity
  8
DIM
 62
     0
370
    -2
100
AcDbBlockReference
  2
_DOT
 10
1357.455525733319
 20
271.8619337511404
 30
0.0
 41
3.0
 42
3.0
 43
3.0
  0
MTEXT
  5
17657
330
1764F
100
AcDbEntity
  8
DIM
 62
     0
100
AcDbMText
 10
1344.955525733319
 20
281.8619337511404
 30
0.0
 40
8.0
 41
0.0
 46
0.0
 71
     5
 72
     1
  1
\A1;25
  7
ＭＳ ゴシック
 73
     1
 44
1.0
  0
POINT
  5
17658
330
1764F
100
AcDbEntity
  8
Defpoints
 62
     0
100
AcDbPoint
 10
1332.455525733319
 20
284.5746222428816
 30
0.0
  0
POINT
  5
17659
330
1764F
100
AcDbEntity
  8
Defpoints
 62
     0
100
AcDbPoint
 10
1357.455525733319
 20
284.5746222428817
 30
0.0
  0
POINT
  5
1765A
330
1764F
100
AcDbEntity
  8
Defpoints
 62
     0
100
AcDbPoint
 10
1357.455525733319
 20
271.8619337511404
 30
0.0
  0
ENDBLK
  5
17651
330
1764F
100
AcDbEntity
  8
0
100
AcDbBlockEnd
  0
BLOCK
  5
1765C
330
1765B
100
AcDbEntity
  8
0
100
AcDbBlockBegin
  2
*D36
 70
     1
 10
0.0
 20
0.0
 30
0.0
  3
*D36
  1

  0
LINE
  5
1765E
330
1765B
100
AcDbEntity
  8
DIM
 62
     0
370
    -2
100
AcDbLine
 10
874.5600921276941
 20
329.5746222428795
 30
0.0
 11
874.5682370820668
 21
329.5746222428795
 31
0.0
  0
LINE
  5
1765F
330
1765B
100
AcDbEntity
  8
DIM
 62
     0
370
    -2
100
AcDbLine
 10
877.5600921276941
 20
294.5746222428795
 30
0.0
 11
874.5682370820668
 21
294.5746222428795
 31
0.0
  0
LINE
  5
17660
330
1765B
100
AcDbEntity
  8
DIM
 62
     0
370
    -2
100
AcDbLine
 10
874.5682370820668
 20
326.5746222428795
 30
0.0
 11
874.5682370820668
 21
297.5746222428795
 31
0.0
  0
INSERT
  5
17661
330
1765B
100
AcDbEntity
  8
DIM
 62
     0
370
    -2
100
AcDbBlockReference
  2
_DOT
 10
874.5682370820668
 20
329.5746222428795
 30
0.0
 41
3.0
 42
3.0
 43
3.0
 50
90.0
  0
INSERT
  5
17662
330
1765B
100
AcDbEntity
  8
DIM
 62
     0
370
    -2
100
AcDbBlockReference
  2
_DOT
 10
874.5682370820668
 20
294.5746222428795
 30
0.0
 41
3.0
 42
3.0
 43
3.0
 50
270.0
  0
MTEXT
  5
17663
330
1765B
100
AcDbEntity
  8
DIM
 62
     0
100
AcDbMText
 10
864.5682370820668
 20
312.0746222428795
 30
0.0
 40
8.0
 41
0.0
 46
0.0
 71
     5
 72
     1
  1
\A1;35
  7
ＭＳ ゴシック
 11
0.0
 21
1.0
 31
0.0
 73
     1
 44
1.0
  0
POINT
  5
17664
330
1765B
100
AcDbEntity
  8
Defpoints
 62
     0
100
AcDbPoint
 10
884.5600921276941
 20
329.5746222428795
 30
0.0
  0
POINT
  5
17665
330
1765B
100
AcDbEntity
  8
Defpoints
 62
     0
100
AcDbPoint
 10
887.5600921276941
 20
294.5746222428795
 30
0.0
  0
POINT
  5
17666
330
1765B
100
AcDbEntity
  8
Defpoints
 62
     0
100
AcDbPoint
 10
874.5682370820668
 20
294.5746222428795
 30
0.0
  0
ENDBLK
  5
1765D
330
1765B
100
AcDbEntity
  8
0
100
AcDbBlockEnd
  0
BLOCK
  5
17668
330
17667
100
AcDbEntity
  8
0
100
AcDbBlockBegin
  2
*D37
 70
     1
 10
0.0
 20
0.0
 30
0.0
  3
*D37
  1

  0
LINE
  5
1766A
330
17667
100
AcDbEntity
  8
DIM
 62
     0
370
    -2
100
AcDbLine
 10
884.5600921276941
 20
339.5746222428795
 30
0.0
 11
884.5600921276941
 21
338.6316408368547
 31
0.0
  0
LINE
  5
1766B
330
17667
100
AcDbEntity
  8
DIM
 62
     0
370
    -2
100
AcDbLine
 10
897.0600921276941
 20
309.5746222428795
 30
0.0
 11
897.0600921276941
 21
338.6316408368547
 31
0.0
  0
LINE
  5
1766C
330
17667
100
AcDbEntity
  8
DIM
 62
     0
370
    -2
100
AcDbLine
 10
881.5600921276941
 20
338.6316408368547
 30
0.0
 11
878.5600921276941
 21
338.6316408368547
 31
0.0
  0
LINE
  5
1766D
330
17667
100
AcDbEntity
  8
DIM
 62
     0
370
    -2
100
AcDbLine
 10
900.0600921276941
 20
338.6316408368547
 30
0.0
 11
903.0600921276941
 21
338.6316408368547
 31
0.0
  0
INSERT
  5
1766E
330
17667
100
AcDbEntity
  8
DIM
 62
     0
370
    -2
100
AcDbBlockReference
  2
_DOT
 10
884.5600921276941
 20
338.6316408368547
 30
0.0
 41
3.0
 42
3.0
 43
3.0
  0
INSERT
  5
1766F
330
17667
100
AcDbEntity
  8
DIM
 62
     0
370
    -2
100
AcDbBlockReference
  2
_DOT
 10
897.0600921276941
 20
338.6316408368547
 30
0.0
 41
3.0
 42
3.0
 43
3.0
 50
180.0
  0
MTEXT
  5
17670
330
17667
100
AcDbEntity
  8
DIM
 62
     0
100
AcDbMText
 10
890.8100921276941
 20
348.6316408368547
 30
0.0
 40
8.0
 41
0.0
 46
0.0
 71
     5
 72
     1
  1
\A1;12.5
  7
ＭＳ ゴシック
 73
     1
 44
1.0
  0
POINT
  5
17671
330
17667
100
AcDbEntity
  8
Defpoints
 62
     0
100
AcDbPoint
 10
884.5600921276941
 20
329.5746222428795
 30
0.0
  0
POINT
  5
17672
330
17667
100
AcDbEntity
  8
Defpoints
 62
     0
100
AcDbPoint
 10
897.0600921276941
 20
299.5746222428795
 30
0.0
  0
POINT
  5
17673
330
17667
100
AcDbEntity
  8
Defpoints
 62
     0
100
AcDbPoint
 10
897.0600921276941
 20
338.6316408368547
 30
0.0
  0
ENDBLK
  5
17669
330
17667
100
AcDbEntity
  8
0
100
AcDbBlockEnd
  0
BLOCK
  5
176AC
330
176AB
100
AcDbEntity
  8
0
100
AcDbBlockBegin
  2
*D38
 70
     1
 10
0.0
 20
0.0
 30
0.0
  3
*D38
  1

  0
LINE
  5
176AD
330
176AB
100
AcDbEntity
  8
MODEL
 62
     0
370
    -2
100
AcDbLine
 10
136.1767967356358
 20
57.00522414268914
 30
0.0
 11
144.3697585683664
 21
57.00522414268914
 31
0.0
  0
LINE
  5
176AE
330
176AB
100
AcDbEntity
  8
MODEL
 62
     0
370
    -2
100
AcDbLine
 10
116.641190921832
 20
72.00522414268914
 30
0.0
 11
144.3697585683664
 21
72.00522414268914
 31
0.0
  0
LINE
  5
176AF
330
176AB
100
AcDbEntity
  8
MODEL
 62
     0
370
    -2
100
AcDbLine
 10
144.3697585683664
 20
54.00522414268914
 30
0.0
 11
144.3697585683664
 21
51.00522414268914
 31
0.0
  0
LINE
  5
176B0
330
176AB
100
AcDbEntity
  8
MODEL
 62
     0
370
    -2
100
AcDbLine
 10
144.3697585683664
 20
75.00522414268914
 30
0.0
 11
144.3697585683664
 21
78.00522414268914
 31
0.0
  0
INSERT
  5
176B1
330
176AB
100
AcDbEntity
  8
MODEL
 62
     0
370
    -2
100
AcDbBlockReference
  2
_DOT
 10
144.3697585683664
 20
57.00522414268914
 30
0.0
 41
3.0
 42
3.0
 43
3.0
 50
90.0
  0
INSERT
  5
176B2
330
176AB
100
AcDbEntity
  8
MODEL
 62
     0
370
    -2
100
AcDbBlockReference
  2
_DOT
 10
144.3697585683664
 20
72.00522414268914
 30
0.0
 41
3.0
 42
3.0
 43
3.0
 50
270.0
  0
MTEXT
  5
176B3
330
176AB
100
AcDbEntity
  8
MODEL
 62
     0
100
AcDbMText
 10
136.3697585683664
 20
64.50522414268914
 30
0.0
 40
6.0
 41
0.0
 46
0.0
 71
     5
 72
     1
  1
\A1;15
  7
ＭＳ ゴシック
 11
0.0
 21
1.0
 31
0.0
 73
     1
 44
1.0
  0
POINT
  5
176B4
330
176AB
100
AcDbEntity
  8
Defpoints
 62
     0
100
AcDbPoint
 10
131.1767967356358
 20
57.00522414268914
 30
0.0
  0
POINT
  5
176B5
330
176AB
100
AcDbEntity
  8
Defpoints
 62
     0
100
AcDbPoint
 10
111.641190921832
 20
72.00522414268914
 30
0.0
  0
POINT
  5
178C7
330
176AB
100
AcDbEntity
  8
Defpoints
 62
     0
100
AcDbPoint
 10
144.3697585683664
 20
72.00522414268914
 30
0.0
  0
ENDBLK
  5
176B7
330
176AB
100
AcDbEntity
  8
0
100
AcDbBlockEnd
  0
BLOCK
  5
176BB
330
176BA
100
AcDbEntity
  8
0
100
AcDbBlockBegin
  2
*D39
 70
     1
 10
0.0
 20
0.0
 30
0.0
  3
*D39
  1

  0
LINE
  5
176BC
330
176BA
100
AcDbEntity
  8
MODEL
 62
     0
370
    -2
100
AcDbLine
 10
138.1767967356358
 20
57.00522414268914
 30
0.0
 11
144.3697585683664
 21
57.00522414268914
 31
0.0
  0
LINE
  5
176BD
330
176BA
100
AcDbEntity
  8
MODEL
 62
     0
370
    -2
100
AcDbLine
 10
136.1767967356358
 20
27.00522414268914
 30
0.0
 11
144.3697585683664
 21
27.00522414268914
 31
0.0
  0
LINE
  5
176BE
330
176BA
100
AcDbEntity
  8
MODEL
 62
     0
370
    -2
100
AcDbLine
 10
144.3697585683664
 20
54.00522414268914
 30
0.0
 11
144.3697585683664
 21
30.00522414268914
 31
0.0
  0
INSERT
  5
176BF
330
176BA
100
AcDbEntity
  8
MODEL
 62
     0
370
    -2
100
AcDbBlockReference
  2
_DOT
 10
144.3697585683664
 20
57.00522414268914
 30
0.0
 41
3.0
 42
3.0
 43
3.0
 50
90.0
  0
INSERT
  5
176C0
330
176BA
100
AcDbEntity
  8
MODEL
 62
     0
370
    -2
100
AcDbBlockReference
  2
_DOT
 10
144.3697585683664
 20
27.00522414268914
 30
0.0
 41
3.0
 42
3.0
 43
3.0
 50
270.0
  0
MTEXT
  5
176C1
330
176BA
100
AcDbEntity
  8
MODEL
 62
     0
100
AcDbMText
 10
136.3697585683664
 20
42.00522414268914
 30
0.0
 40
6.0
 41
0.0
 46
0.0
 71
     5
 72
     1
  1
\A1;30
  7
ＭＳ ゴシック
 11
0.0
 21
1.0
 31
0.0
 73
     1
 44
1.0
  0
POINT
  5
176C2
330
176BA
100
AcDbEntity
  8
Defpoints
 62
     0
100
AcDbPoint
 10
133.1767967356358
 20
57.00522414268914
 30
0.0
  0
POINT
  5
176C3
330
176BA
100
AcDbEntity
  8
Defpoints
 62
     0
100
AcDbPoint
 10
131.1767967356358
 20
27.00522414268914
 30
0.0
  0
POINT
  5
176C4
330
176BA
100
AcDbEntity
  8
Defpoints
 62
     0
100
AcDbPoint
 10
144.3697585683664
 20
27.00522414268914
 30
0.0
  0
ENDBLK
  5
176C5
330
176BA
100
AcDbEntity
  8
0
100
AcDbBlockEnd
  0
BLOCK
  5
176CD
330
176CC
100
AcDbEntity
  8
0
100
AcDbBlockBegin
  2
*D40
 70
     1
 10
0.0
 20
0.0
 30
0.0
  3
*D40
  1

  0
LINE
  5
176CE
330
176CC
100
AcDbEntity
  8
DIM
 62
     0
370
    -2
100
AcDbLine
 10
501.8872886512514
 20
254.8235188836996
 30
0.0
 11
519.4931474285715
 21
254.8235188836996
 31
0.0
  0
LINE
  5
176CF
330
176CC
100
AcDbEntity
  8
DIM
 62
     0
370
    -2
100
AcDbLine
 10
501.8872886512514
 20
354.8235188836996
 30
0.0
 11
519.4931474285715
 21
354.8235188836996
 31
0.0
  0
LINE
  5
176D0
330
176CC
100
AcDbEntity
  8
DIM
 62
     0
370
    -2
100
AcDbLine
 10
519.4931474285715
 20
257.8235188836996
 30
0.0
 11
519.4931474285715
 21
351.8235188836996
 31
0.0
  0
INSERT
  5
176D1
330
176CC
100
AcDbEntity
  8
DIM
 62
     0
370
    -2
100
AcDbBlockReference
  2
_DOT
 10
519.4931474285715
 20
254.8235188836996
 30
0.0
 41
3.0
 42
3.0
 43
3.0
 50
270.0
  0
INSERT
  5
176D2
330
176CC
100
AcDbEntity
  8
DIM
 62
     0
370
    -2
100
AcDbBlockReference
  2
_DOT
 10
519.4931474285715
 20
354.8235188836996
 30
0.0
 41
3.0
 42
3.0
 43
3.0
 50
90.0
  0
MTEXT
  5
176D3
330
176CC
100
AcDbEntity
  8
DIM
 62
     0
100
AcDbMText
 10
511.4931474285715
 20
304.8235188836996
 30
0.0
 40
6.0
 41
0.0
 46
0.0
 71
     5
 72
     1
  1
\A1;100
  7
ＭＳ ゴシック
 11
0.0
 21
1.0
 31
0.0
 73
     1
 44
1.0
  0
POINT
  5
176D4
330
176CC
100
AcDbEntity
  8
Defpoints
 62
     0
100
AcDbPoint
 10
496.8872886512514
 20
254.8235188836996
 30
0.0
  0
POINT
  5
176D5
330
176CC
100
AcDbEntity
  8
Defpoints
 62
     0
100
AcDbPoint
 10
496.8872886512514
 20
354.8235188836996
 30
0.0
  0
POINT
  5
176D6
330
176CC
100
AcDbEntity
  8
Defpoints
 62
     0
100
AcDbPoint
 10
519.4931474285715
 20
354.8235188836996
 30
0.0
  0
ENDBLK
  5
176D7
330
176CC
100
AcDbEntity
  8
0
100
AcDbBlockEnd
  0
BLOCK
  5
176E0
330
176DF
100
AcDbEntity
  8
0
100
AcDbBlockBegin
  2
*D41
 70
     1
 10
0.0
 20
0.0
 30
0.0
  3
*D41
  1

  0
LINE
  5
176E1
330
176DF
100
AcDbEntity
  8
DIM
 62
     0
370
    -2
100
AcDbLine
 10
501.8872886512514
 20
357.8235188836996
 30
0.0
 11
519.4931474285714
 21
357.8235188836996
 31
0.0
  0
LINE
  5
176E2
330
176DF
100
AcDbEntity
  8
DIM
 62
     0
370
    -2
100
AcDbLine
 10
503.8872886512514
 20
354.8235188836996
 30
0.0
 11
519.4931474285714
 21
354.8235188836996
 31
0.0
  0
LINE
  5
176E3
330
176DF
100
AcDbEntity
  8
DIM
 62
     0
370
    -2
100
AcDbLine
 10
519.4931474285714
 20
357.8235188836996
 30
0.0
 11
519.4931474285714
 21
378.9595188836997
 31
0.0
  0
LINE
  5
176E4
330
176DF
100
AcDbEntity
  8
DIM
 62
     0
370
    -2
100
AcDbLine
 10
519.4931474285714
 20
360.8235188836996
 30
0.0
 11
519.4931474285714
 21
363.8235188836996
 31
0.0
  0
LINE
  5
176E5
330
176DF
100
AcDbEntity
  8
DIM
 62
     0
370
    -2
100
AcDbLine
 10
519.4931474285714
 20
351.8235188836996
 30
0.0
 11
519.4931474285714
 21
348.8235188836996
 31
0.0
  0
INSERT
  5
176E6
330
176DF
100
AcDbEntity
  8
DIM
 62
     0
370
    -2
100
AcDbBlockReference
  2
_DOT
 10
519.4931474285714
 20
357.8235188836996
 30
0.0
 41
3.0
 42
3.0
 43
3.0
 50
270.0
  0
INSERT
  5
176E7
330
176DF
100
AcDbEntity
  8
DIM
 62
     0
370
    -2
100
AcDbBlockReference
  2
_DOT
 10
519.4931474285714
 20
354.8235188836996
 30
0.0
 41
3.0
 42
3.0
 43
3.0
 50
90.0
  0
MTEXT
  5
176E8
330
176DF
100
AcDbEntity
  8
DIM
 62
     0
100
AcDbMText
 10
511.4931474285714
 20
372.4085188836997
 30
0.0
 40
6.0
 41
0.0
 46
0.0
 71
     5
 72
     1
  1
\A1;3
  7
ＭＳ ゴシック
 11
0.0
 21
1.0
 31
0.0
 73
     1
 44
1.0
  0
POINT
  5
176E9
330
176DF
100
AcDbEntity
  8
Defpoints
 62
     0
100
AcDbPoint
 10
496.8872886512514
 20
357.8235188836996
 30
0.0
  0
POINT
  5
176EA
330
176DF
100
AcDbEntity
  8
Defpoints
 62
     0
100
AcDbPoint
 10
498.8872886512514
 20
354.8235188836996
 30
0.0
  0
POINT
  5
176EB
330
176DF
100
AcDbEntity
  8
Defpoints
 62
     0
100
AcDbPoint
 10
519.4931474285714
 20
354.8235188836996
 30
0.0
  0
ENDBLK
  5
176EC
330
176DF
100
AcDbEntity
  8
0
100
AcDbBlockEnd
  0
BLOCK
  5
176F3
330
176F2
100
AcDbEntity
  8
0
100
AcDbBlockBegin
  2
*D42
 70
     1
 10
0.0
 20
0.0
 30
0.0
  3
*D42
  1

  0
LINE
  5
176F4
330
176F2
100
AcDbEntity
  8
DIM
 62
     0
370
    -2
100
AcDbLine
 10
47.39660996041584
 20
41.99018517628349
 30
0.0
 11
71.58800773310887
 21
41.9901851762835
 31
0.0
  0
LINE
  5
176F5
330
176F2
100
AcDbEntity
  8
DIM
 62
     0
370
    -2
100
AcDbLine
 10
47.39660996041584
 20
32.02026310909491
 30
0.0
 11
71.58800773310887
 21
32.02026310909492
 31
0.0
  0
LINE
  5
176F6
330
176F2
100
AcDbEntity
  8
DIM
 62
     0
370
    -2
100
AcDbLine
 10
71.58800773310887
 20
38.9901851762835
 30
0.0
 11
71.58800773310887
 21
35.02026310909492
 31
0.0
  0
INSERT
  5
176F7
330
176F2
100
AcDbEntity
  8
DIM
 62
     0
370
    -2
100
AcDbBlockReference
  2
_DOT
 10
71.58800773310887
 20
41.9901851762835
 30
0.0
 41
3.0
 42
3.0
 43
3.0
 50
90.0
  0
INSERT
  5
176F8
330
176F2
100
AcDbEntity
  8
DIM
 62
     0
370
    -2
100
AcDbBlockReference
  2
_DOT
 10
71.58800773310887
 20
32.02026310909492
 30
0.0
 41
3.0
 42
3.0
 43
3.0
 50
270.0
  0
MTEXT
  5
176F9
330
176F2
100
AcDbEntity
  8
DIM
 62
     0
100
AcDbMText
 10
63.58800773310887
 20
37.00522414268914
 30
0.0
 40
6.0
 41
0.0
 46
0.0
 71
     5
 72
     1
  1
\A1;10
  7
ＭＳ ゴシック
 11
0.0
 21
1.0
 31
0.0
 73
     1
 44
1.0
  0
POINT
  5
176FA
330
176F2
100
AcDbEntity
  8
Defpoints
 62
     0
100
AcDbPoint
 10
42.39660996041584
 20
41.99018517628349
 30
0.0
  0
POINT
  5
176FB
330
176F2
100
AcDbEntity
  8
Defpoints
 62
     0
100
AcDbPoint
 10
42.39660996041584
 20
32.02026310909491
 30
0.0
  0
POINT
  5
176FC
330
176F2
100
AcDbEntity
  8
Defpoints
 62
     0
100
AcDbPoint
 10
71.58800773310887
 20
32.02026310909492
 30
0.0
  0
ENDBLK
  5
176FD
330
176F2
100
AcDbEntity
  8
0
100
AcDbBlockEnd
  0
BLOCK
  5
17701
330
17700
100
AcDbEntity
  8
0
100
AcDbBlockBegin
  2
*D43
 70
     1
 10
0.0
 20
0.0
 30
0.0
  3
*D43
  1

  0
LINE
  5
17702
330
17700
100
AcDbEntity
  8
DIM
 62
     0
370
    -2
100
AcDbLine
 10
28.99185504562729
 20
30.67763609259794
 30
0.0
 11
28.99185504562729
 21
2.0
 31
0.0
  0
LINE
  5
17703
330
17700
100
AcDbEntity
  8
DIM
 62
     0
370
    -2
100
AcDbLine
 10
43.99185504562729
 20
30.67763609259794
 30
0.0
 11
43.99185504562729
 21
2.0
 31
0.0
  0
LINE
  5
17704
330
17700
100
AcDbEntity
  8
DIM
 62
     0
370
    -2
100
AcDbLine
 10
25.99185504562729
 20
2.0
 30
0.0
 11
22.99185504562729
 21
2.0
 31
0.0
  0
LINE
  5
17705
330
17700
100
AcDbEntity
  8
DIM
 62
     0
370
    -2
100
AcDbLine
 10
46.99185504562729
 20
2.0
 30
0.0
 11
49.99185504562729
 21
2.0
 31
0.0
  0
INSERT
  5
17706
330
17700
100
AcDbEntity
  8
DIM
 62
     0
370
    -2
100
AcDbBlockReference
  2
_DOT
 10
28.99185504562729
 20
2.0
 30
0.0
 41
3.0
 42
3.0
 43
3.0
  0
INSERT
  5
17707
330
17700
100
AcDbEntity
  8
DIM
 62
     0
370
    -2
100
AcDbBlockReference
  2
_DOT
 10
43.99185504562729
 20
2.0
 30
0.0
 41
3.0
 42
3.0
 43
3.0
 50
180.0
  0
MTEXT
  5
17708
330
17700
100
AcDbEntity
  8
DIM
 62
     0
100
AcDbMText
 10
36.49185504562729
 20
10.0
 30
0.0
 40
6.0
 41
0.0
 46
0.0
 71
     5
 72
     1
  1
\A1;15
  7
ＭＳ ゴシック
 73
     1
 44
1.0
  0
POINT
  5
17709
330
17700
100
AcDbEntity
  8
Defpoints
 62
     0
100
AcDbPoint
 10
28.99185504562729
 20
35.67763609259794
 30
0.0
  0
POINT
  5
1770A
330
17700
100
AcDbEntity
  8
Defpoints
 62
     0
100
AcDbPoint
 10
43.99185504562729
 20
35.67763609259794
 30
0.0
  0
POINT
  5
178C8
330
17700
100
AcDbEntity
  8
Defpoints
 62
     0
100
AcDbPoint
 10
43.99185504562729
 20
2.0
 30
0.0
  0
ENDBLK
  5
1770C
330
17700
100
AcDbEntity
  8
0
100
AcDbBlockEnd
  0
BLOCK
  5
17725
330
17724
100
AcDbEntity
  8
0
100
AcDbBlockBegin
  2
*D44
 70
     1
 10
0.0
 20
0.0
 30
0.0
  3
*D44
  1

  0
LINE
  5
17726
330
17724
100
AcDbEntity
  8
DIM
 62
     0
370
    -2
100
AcDbLine
 10
496.8872886512514
 20
362.8235188836996
 30
0.0
 11
496.8872886512514
 21
417.0390186180506
 31
0.0
  0
LINE
  5
17727
330
17724
100
AcDbEntity
  8
DIM
 62
     0
370
    -2
100
AcDbLine
 10
23.9918550456274
 20
362.8235188836996
 30
0.0
 11
23.9918550456274
 21
417.0390186180506
 31
0.0
  0
LINE
  5
17728
330
17724
100
AcDbEntity
  8
DIM
 62
     0
370
    -2
100
AcDbLine
 10
493.8872886512514
 20
417.0390186180506
 30
0.0
 11
26.9918550456274
 21
417.0390186180506
 31
0.0
  0
INSERT
  5
17729
330
17724
100
AcDbEntity
  8
DIM
 62
     0
370
    -2
100
AcDbBlockReference
  2
_DOT
 10
496.8872886512514
 20
417.0390186180506
 30
0.0
 41
3.0
 42
3.0
 43
3.0
  0
INSERT
  5
1772A
330
17724
100
AcDbEntity
  8
DIM
 62
     0
370
    -2
100
AcDbBlockReference
  2
_DOT
 10
23.9918550456274
 20
417.0390186180506
 30
0.0
 41
3.0
 42
3.0
 43
3.0
 50
180.0
  0
MTEXT
  5
1772B
330
17724
100
AcDbEntity
  8
DIM
 62
     0
100
AcDbMText
 10
260.4395718484394
 20
425.0390186180506
 30
0.0
 40
6.0
 41
0.0
 46
0.0
 71
     5
 72
     1
  1
\A1;1150
  7
ＭＳ ゴシック
 73
     1
 44
1.0
  0
POINT
  5
1772C
330
17724
100
AcDbEntity
  8
Defpoints
 62
     0
100
AcDbPoint
 10
496.8872886512514
 20
357.8235188836996
 30
0.0
  0
POINT
  5
1772D
330
17724
100
AcDbEntity
  8
Defpoints
 62
     0
100
AcDbPoint
 10
23.9918550456274
 20
357.8235188836996
 30
0.0
  0
POINT
  5
1772E
330
17724
100
AcDbEntity
  8
Defpoints
 62
     0
100
AcDbPoint
 10
23.9918550456274
 20
417.0390186180506
 30
0.0
  0
ENDBLK
  5
1772F
330
17724
100
AcDbEntity
  8
0
100
AcDbBlockEnd
  0
BLOCK
  5
1773E
330
1773D
100
AcDbEntity
  8
0
100
AcDbBlockBegin
  2
*D45
 70
     1
 10
0.0
 20
0.0
 30
0.0
  3
*D45
  1

  0
LINE
  5
1773F
330
1773D
100
AcDbEntity
  8
DIM
 62
     0
370
    -2
100
AcDbLine
 10
36.4918550456274
 20
362.8235188836996
 30
0.0
 11
36.4918550456274
 21
385.1923173775797
 31
0.0
  0
LINE
  5
17740
330
1773D
100
AcDbEntity
  8
DIM
 62
     0
370
    -2
100
AcDbLine
 10
484.3872886512514
 20
362.8235188836996
 30
0.0
 11
484.3872886512514
 21
385.1923173775797
 31
0.0
  0
LINE
  5
17741
330
1773D
100
AcDbEntity
  8
DIM
 62
     0
370
    -2
100
AcDbLine
 10
39.4918550456274
 20
385.1923173775797
 30
0.0
 11
481.3872886512514
 21
385.1923173775797
 31
0.0
  0
INSERT
  5
17742
330
1773D
100
AcDbEntity
  8
DIM
 62
     0
370
    -2
100
AcDbBlockReference
  2
_DOT
 10
36.4918550456274
 20
385.1923173775797
 30
0.0
 41
3.0
 42
3.0
 43
3.0
 50
180.0
  0
INSERT
  5
17743
330
1773D
100
AcDbEntity
  8
DIM
 62
     0
370
    -2
100
AcDbBlockReference
  2
_DOT
 10
484.3872886512514
 20
385.1923173775797
 30
0.0
 41
3.0
 42
3.0
 43
3.0
  0
MTEXT
  5
17744
330
1773D
100
AcDbEntity
  8
DIM
 62
     0
100
AcDbMText
 10
260.4395718484394
 20
393.1923173775797
 30
0.0
 40
6.0
 41
0.0
 46
0.0
 71
     5
 72
     1
  1
\A1;1125
  7
ＭＳ ゴシック
 73
     1
 44
1.0
  0
POINT
  5
17745
330
1773D
100
AcDbEntity
  8
Defpoints
 62
     0
100
AcDbPoint
 10
36.4918550456274
 20
357.8235188836996
 30
0.0
  0
POINT
  5
17746
330
1773D
100
AcDbEntity
  8
Defpoints
 62
     0
100
AcDbPoint
 10
484.3872886512514
 20
357.8235188836996
 30
0.0
  0
POINT
  5
17747
330
1773D
100
AcDbEntity
  8
Defpoints
 62
     0
100
AcDbPoint
 10
484.3872886512514
 20
385.1923173775797
 30
0.0
  0
ENDBLK
  5
17748
330
1773D
100
AcDbEntity
  8
0
100
AcDbBlockEnd
  0
BLOCK
  5
1775D
330
1775C
100
AcDbEntity
  8
0
100
AcDbBlockBegin
  2
*D46
 70
     1
 10
0.0
 20
0.0
 30
0.0
  3
*D46
  1

  0
LINE
  5
1775E
330
1775C
100
AcDbEntity
  8
DIM
 62
     0
370
    -2
100
AcDbLine
 10
501.8872886512513
 20
72.00522414268914
 30
0.0
 11
515.6876776149638
 21
72.00522414268916
 31
0.0
  0
LINE
  5
1775F
330
1775C
100
AcDbEntity
  8
DIM
 62
     0
370
    -2
100
AcDbLine
 10
501.8872886512513
 20
27.00522414268914
 30
0.0
 11
515.6876776149638
 21
27.00522414268915
 31
0.0
  0
LINE
  5
17760
330
1775C
100
AcDbEntity
  8
DIM
 62
     0
370
    -2
100
AcDbLine
 10
515.6876776149638
 20
69.00522414268916
 30
0.0
 11
515.6876776149638
 21
30.00522414268915
 31
0.0
  0
INSERT
  5
17761
330
1775C
100
AcDbEntity
  8
DIM
 62
     0
370
    -2
100
AcDbBlockReference
  2
_DOT
 10
515.6876776149638
 20
72.00522414268916
 30
0.0
 41
3.0
 42
3.0
 43
3.0
 50
90.0
  0
INSERT
  5
17762
330
1775C
100
AcDbEntity
  8
DIM
 62
     0
370
    -2
100
AcDbBlockReference
  2
_DOT
 10
515.6876776149638
 20
27.00522414268915
 30
0.0
 41
3.0
 42
3.0
 43
3.0
 50
270.0
  0
MTEXT
  5
17763
330
1775C
100
AcDbEntity
  8
DIM
 62
     0
100
AcDbMText
 10
507.6876776149638
 20
49.50522414268915
 30
0.0
 40
6.0
 41
0.0
 46
0.0
 71
     5
 72
     1
  1
\A1;45
  7
ＭＳ ゴシック
 11
0.0
 21
1.0
 31
0.0
 73
     1
 44
1.0
  0
POINT
  5
17764
330
1775C
100
AcDbEntity
  8
Defpoints
 62
     0
100
AcDbPoint
 10
496.8872886512513
 20
72.00522414268914
 30
0.0
  0
POINT
  5
17765
330
1775C
100
AcDbEntity
  8
Defpoints
 62
     0
100
AcDbPoint
 10
496.8872886512513
 20
27.00522414268914
 30
0.0
  0
POINT
  5
17766
330
1775C
100
AcDbEntity
  8
Defpoints
 62
     0
100
AcDbPoint
 10
515.6876776149638
 20
27.00522414268915
 30
0.0
  0
ENDBLK
  5
17767
330
1775C
100
AcDbEntity
  8
0
100
AcDbBlockEnd
  0
BLOCK
  5
1776C
330
1776B
100
AcDbEntity
  8
0
100
AcDbBlockBegin
  2
*D47
 70
     1
 10
0.0
 20
0.0
 30
0.0
  3
*D47
  1

  0
LINE
  5
1776D
330
1776B
100
AcDbEntity
  8
DIM
 62
     0
370
    -2
100
AcDbLine
 10
596.0748418865089
 20
72.00522414268914
 30
0.0
 11
586.6977417472594
 21
72.00522414268914
 31
0.0
  0
LINE
  5
1776E
330
1776B
100
AcDbEntity
  8
DIM
 62
     0
370
    -2
100
AcDbLine
 10
596.0748418865089
 20
46.09613323359838
 30
0.0
 11
586.6977417472594
 21
46.09613323359838
 31
0.0
  0
LINE
  5
1776F
330
1776B
100
AcDbEntity
  8
DIM
 62
     0
370
    -2
100
AcDbLine
 10
586.6977417472594
 20
69.00522414268914
 30
0.0
 11
586.6977417472594
 21
49.09613323359838
 31
0.0
  0
INSERT
  5
17770
330
1776B
100
AcDbEntity
  8
DIM
 62
     0
370
    -2
100
AcDbBlockReference
  2
_DOT
 10
586.6977417472594
 20
72.00522414268914
 30
0.0
 41
3.0
 42
3.0
 43
3.0
 50
90.0
  0
INSERT
  5
17771
330
1776B
100
AcDbEntity
  8
DIM
 62
     0
370
    -2
100
AcDbBlockReference
  2
_DOT
 10
586.6977417472594
 20
46.09613323359838
 30
0.0
 41
3.0
 42
3.0
 43
3.0
 50
270.0
  0
MTEXT
  5
17772
330
1776B
100
AcDbEntity
  8
DIM
 62
     0
100
AcDbMText
 10
578.6977417472594
 20
59.05067868814376
 30
0.0
 40
6.0
 41
0.0
 46
0.0
 71
     5
 72
     1
  1
\A1;26
  7
ＭＳ ゴシック
 11
0.0
 21
1.0
 31
0.0
 73
     1
 44
1.0
  0
POINT
  5
17773
330
1776B
100
AcDbEntity
  8
Defpoints
 62
     0
100
AcDbPoint
 10
601.0748418865089
 20
72.00522414268914
 30
0.0
  0
POINT
  5
17774
330
1776B
100
AcDbEntity
  8
Defpoints
 62
     0
100
AcDbPoint
 10
601.0748418865089
 20
46.09613323359838
 30
0.0
  0
POINT
  5
17775
330
1776B
100
AcDbEntity
  8
Defpoints
 62
     0
100
AcDbPoint
 10
586.6977417472594
 20
46.09613323359838
 30
0.0
  0
ENDBLK
  5
17776
330
1776B
100
AcDbEntity
  8
0
100
AcDbBlockEnd
  0
BLOCK
  5
1777B
330
1777A
100
AcDbEntity
  8
0
100
AcDbBlockBegin
  2
*D48
 70
     1
 10
0.0
 20
0.0
 30
0.0
  3
*D48
  1

  0
LINE
  5
1777C
330
1777A
100
AcDbEntity
  8
DIM
 62
     0
370
    -2
100
AcDbLine
 10
471.8872886512522
 20
22.0052241426913
 30
0.0
 11
471.8872886512522
 21
14.29253565095013
 31
0.0
  0
LINE
  5
1777D
330
1777A
100
AcDbEntity
  8
DIM
 62
     0
370
    -2
100
AcDbLine
 10
496.8872886512522
 20
22.00522414269142
 30
0.0
 11
496.8872886512522
 21
14.29253565095013
 31
0.0
  0
LINE
  5
1777E
330
1777A
100
AcDbEntity
  8
DIM
 62
     0
370
    -2
100
AcDbLine
 10
474.8872886512522
 20
14.29253565095013
 30
0.0
 11
493.8872886512522
 21
14.29253565095013
 31
0.0
  0
INSERT
  5
1777F
330
1777A
100
AcDbEntity
  8
DIM
 62
     0
370
    -2
100
AcDbBlockReference
  2
_DOT
 10
471.8872886512522
 20
14.29253565095013
 30
0.0
 41
3.0
 42
3.0
 43
3.0
 50
180.0
  0
INSERT
  5
17780
330
1777A
100
AcDbEntity
  8
DIM
 62
     0
370
    -2
100
AcDbBlockReference
  2
_DOT
 10
496.8872886512522
 20
14.29253565095013
 30
0.0
 41
3.0
 42
3.0
 43
3.0
  0
MTEXT
  5
17781
330
1777A
100
AcDbEntity
  8
DIM
 62
     0
100
AcDbMText
 10
484.3872886512522
 20
22.29253565095013
 30
0.0
 40
6.0
 41
0.0
 46
0.0
 71
     5
 72
     1
  1
\A1;25
  7
ＭＳ ゴシック
 73
     1
 44
1.0
  0
POINT
  5
17782
330
1777A
100
AcDbEntity
  8
Defpoints
 62
     0
100
AcDbPoint
 10
471.8872886512522
 20
27.0052241426913
 30
0.0
  0
POINT
  5
17783
330
1777A
100
AcDbEntity
  8
Defpoints
 62
     0
100
AcDbPoint
 10
496.8872886512522
 20
27.00522414269142
 30
0.0
  0
POINT
  5
17784
330
1777A
100
AcDbEntity
  8
Defpoints
 62
     0
100
AcDbPoint
 10
496.8872886512522
 20
14.29253565095013
 30
0.0
  0
ENDBLK
  5
17785
330
1777A
100
AcDbEntity
  8
0
100
AcDbBlockEnd
  0
BLOCK
  5
1778A
330
17789
100
AcDbEntity
  8
0
100
AcDbBlockBegin
  2
*D49
 70
     1
 10
0.0
 20
0.0
 30
0.0
  3
*D49
  1

  0
LINE
  5
1778B
330
17789
100
AcDbEntity
  8
DIM
 62
     0
370
    -2
100
AcDbLine
 10
18.99185504562729
 20
72.00522414268914
 30
0.0
 11
14.0
 21
72.00522414268914
 31
0.0
  0
LINE
  5
1778C
330
17789
100
AcDbEntity
  8
DIM
 62
     0
370
    -2
100
AcDbLine
 10
21.99185504562729
 20
37.00522414268914
 30
0.0
 11
14.0
 21
37.00522414268914
 31
0.0
  0
LINE
  5
1778D
330
17789
100
AcDbEntity
  8
DIM
 62
     0
370
    -2
100
AcDbLine
 10
14.0
 20
69.00522414268914
 30
0.0
 11
14.0
 21
40.00522414268914
 31
0.0
  0
INSERT
  5
1778E
330
17789
100
AcDbEntity
  8
DIM
 62
     0
370
    -2
100
AcDbBlockReference
  2
_DOT
 10
14.0
 20
72.00522414268914
 30
0.0
 41
3.0
 42
3.0
 43
3.0
 50
90.0
  0
INSERT
  5
1778F
330
17789
100
AcDbEntity
  8
DIM
 62
     0
370
    -2
100
AcDbBlockReference
  2
_DOT
 10
14.0
 20
37.00522414268914
 30
0.0
 41
3.0
 42
3.0
 43
3.0
 50
270.0
  0
MTEXT
  5
17790
330
17789
100
AcDbEntity
  8
DIM
 62
     0
100
AcDbMText
 10
6.0
 20
54.50522414268914
 30
0.0
 40
6.0
 41
0.0
 46
0.0
 71
     5
 72
     1
  1
\A1;35
  7
ＭＳ ゴシック
 11
5.075305255429287E-17
 21
1.0
 31
0.0
 73
     1
 44
1.0
  0
POINT
  5
17791
330
17789
100
AcDbEntity
  8
Defpoints
 62
     0
100
AcDbPoint
 10
23.99185504562729
 20
72.00522414268914
 30
0.0
  0
POINT
  5
17792
330
17789
100
AcDbEntity
  8
Defpoints
 62
     0
100
AcDbPoint
 10
26.99185504562729
 20
37.00522414268914
 30
0.0
  0
POINT
  5
17793
330
17789
100
AcDbEntity
  8
Defpoints
 62
     0
100
AcDbPoint
 10
14.0
 20
37.00522414268914
 30
0.0
  0
ENDBLK
  5
17794
330
17789
100
AcDbEntity
  8
0
100
AcDbBlockEnd
  0
BLOCK
  5
17799
330
17798
100
AcDbEntity
  8
0
100
AcDbBlockBegin
  2
*D50
 70
     1
 10
0.0
 20
0.0
 30
0.0
  3
*D50
  1

  0
LINE
  5
1779A
330
17798
100
AcDbEntity
  8
DIM
 62
     0
370
    -2
100
AcDbLine
 10
23.99185504562729
 20
77.00522414268914
 30
0.0
 11
23.99185504562729
 21
81.06224273666442
 31
0.0
  0
LINE
  5
1779B
330
17798
100
AcDbEntity
  8
DIM
 62
     0
370
    -2
100
AcDbLine
 10
36.49185504562729
 20
47.00522414268914
 30
0.0
 11
36.49185504562729
 21
81.06224273666442
 31
0.0
  0
LINE
  5
1779C
330
17798
100
AcDbEntity
  8
DIM
 62
     0
370
    -2
100
AcDbLine
 10
20.99185504562729
 20
81.06224273666442
 30
0.0
 11
17.99185504562729
 21
81.06224273666442
 31
0.0
  0
LINE
  5
1779D
330
17798
100
AcDbEntity
  8
DIM
 62
     0
370
    -2
100
AcDbLine
 10
39.49185504562729
 20
81.06224273666442
 30
0.0
 11
42.49185504562729
 21
81.06224273666442
 31
0.0
  0
INSERT
  5
1779E
330
17798
100
AcDbEntity
  8
DIM
 62
     0
370
    -2
100
AcDbBlockReference
  2
_DOT
 10
23.99185504562729
 20
81.06224273666442
 30
0.0
 41
3.0
 42
3.0
 43
3.0
  0
INSERT
  5
1779F
330
17798
100
AcDbEntity
  8
DIM
 62
     0
370
    -2
100
AcDbBlockReference
  2
_DOT
 10
36.49185504562729
 20
81.06224273666442
 30
0.0
 41
3.0
 42
3.0
 43
3.0
 50
180.0
  0
MTEXT
  5
177A0
330
17798
100
AcDbEntity
  8
DIM
 62
     0
100
AcDbMText
 10
30.24185504562729
 20
89.06224273666442
 30
0.0
 40
6.0
 41
0.0
 46
0.0
 71
     5
 72
     1
  1
\A1;12.5
  7
ＭＳ ゴシック
 73
     1
 44
1.0
  0
POINT
  5
177A1
330
17798
100
AcDbEntity
  8
Defpoints
 62
     0
100
AcDbPoint
 10
23.99185504562729
 20
72.00522414268914
 30
0.0
  0
POINT
  5
177A2
330
17798
100
AcDbEntity
  8
Defpoints
 62
     0
100
AcDbPoint
 10
36.49185504562729
 20
42.00522414268914
 30
0.0
  0
POINT
  5
177A3
330
17798
100
AcDbEntity
  8
Defpoints
 62
     0
100
AcDbPoint
 10
36.49185504562729
 20
81.06224273666442
 30
0.0
  0
ENDBLK
  5
177A4
330
17798
100
AcDbEntity
  8
0
100
AcDbBlockEnd
  0
BLOCK
  5
17807
330
17806
100
AcDbEntity
  8
0
100
AcDbBlockBegin
  2
*D51
 70
     1
 10
0.0
 20
0.0
 30
0.0
  3
*D51
  1

  0
LINE
  5
17809
330
17806
100
AcDbEntity
  8
MODEL
 62
     0
370
    -2
100
AcDbLine
 10
458.2666603557914
 20
267.6229669484017
 30
0.0
 11
458.2666603557914
 21
270.8159287811322
 31
0.0
  0
LINE
  5
1780A
330
17806
100
AcDbEntity
  8
MODEL
 62
     0
370
    -2
100
AcDbLine
 10
443.2666603557914
 20
248.0873611345978
 30
0.0
 11
443.2666603557914
 21
270.8159287811322
 31
0.0
  0
LINE
  5
1780B
330
17806
100
AcDbEntity
  8
MODEL
 62
     0
370
    -2
100
AcDbLine
 10
461.2666603557914
 20
270.8159287811322
 30
0.0
 11
464.2666603557914
 21
270.8159287811322
 31
0.0
  0
LINE
  5
1780C
330
17806
100
AcDbEntity
  8
MODEL
 62
     0
370
    -2
100
AcDbLine
 10
440.2666603557914
 20
270.8159287811322
 30
0.0
 11
437.2666603557914
 21
270.8159287811322
 31
0.0
  0
INSERT
  5
1780D
330
17806
100
AcDbEntity
  8
MODEL
 62
     0
370
    -2
100
AcDbBlockReference
  2
_DOT
 10
458.2666603557914
 20
270.8159287811322
 30
0.0
 41
3.0
 42
3.0
 43
3.0
 50
180.0
  0
INSERT
  5
1780E
330
17806
100
AcDbEntity
  8
MODEL
 62
     0
370
    -2
100
AcDbBlockReference
  2
_DOT
 10
443.2666603557914
 20
270.8159287811322
 30
0.0
 41
3.0
 42
3.0
 43
3.0
  0
MTEXT
  5
1780F
330
17806
100
AcDbEntity
  8
MODEL
 62
     0
100
AcDbMText
 10
450.7666603557914
 20
280.8159287811322
 30
0.0
 40
8.0
 41
0.0
 46
0.0
 71
     5
 72
     1
  1
\A1;15
  7
ＭＳ ゴシック
 73
     1
 44
1.0
  0
POINT
  5
17810
330
17806
100
AcDbEntity
  8
Defpoints
 62
     0
100
AcDbPoint
 10
458.2666603557914
 20
257.6229669484017
 30
0.0
  0
POINT
  5
17811
330
17806
100
AcDbEntity
  8
Defpoints
 62
     0
100
AcDbPoint
 10
443.2666603557914
 20
238.0873611345978
 30
0.0
  0
POINT
  5
17812
330
17806
100
AcDbEntity
  8
Defpoints
 62
     0
100
AcDbPoint
 10
443.2666603557914
 20
270.8159287811322
 30
0.0
  0
ENDBLK
  5
17808
330
17806
100
AcDbEntity
  8
0
100
AcDbBlockEnd
  0
BLOCK
  5
17814
330
17813
100
AcDbEntity
  8
0
100
AcDbBlockBegin
  2
*D52
 70
     1
 10
0.0
 20
0.0
 30
0.0
  3
*D52
  1

  0
LINE
  5
17816
330
17813
100
AcDbEntity
  8
MODEL
 62
     0
370
    -2
100
AcDbLine
 10
458.2666603557914
 20
269.6229669484017
 30
0.0
 11
458.2666603557914
 21
270.8159287811322
 31
0.0
  0
LINE
  5
17817
330
17813
100
AcDbEntity
  8
MODEL
 62
     0
370
    -2
100
AcDbLine
 10
488.2666603557914
 20
267.6229669484017
 30
0.0
 11
488.2666603557914
 21
270.8159287811322
 31
0.0
  0
LINE
  5
17818
330
17813
100
AcDbEntity
  8
MODEL
 62
     0
370
    -2
100
AcDbLine
 10
461.2666603557914
 20
270.8159287811322
 30
0.0
 11
485.2666603557914
 21
270.8159287811322
 31
0.0
  0
INSERT
  5
17819
330
17813
100
AcDbEntity
  8
MODEL
 62
     0
370
    -2
100
AcDbBlockReference
  2
_DOT
 10
458.2666603557914
 20
270.8159287811322
 30
0.0
 41
3.0
 42
3.0
 43
3.0
 50
180.0
  0
INSERT
  5
1781A
330
17813
100
AcDbEntity
  8
MODEL
 62
     0
370
    -2
100
AcDbBlockReference
  2
_DOT
 10
488.2666603557914
 20
270.8159287811322
 30
0.0
 41
3.0
 42
3.0
 43
3.0
  0
MTEXT
  5
1781B
330
17813
100
AcDbEntity
  8
MODEL
 62
     0
100
AcDbMText
 10
473.2666603557914
 20
280.8159287811322
 30
0.0
 40
8.0
 41
0.0
 46
0.0
 71
     5
 72
     1
  1
\A1;30
  7
ＭＳ ゴシック
 73
     1
 44
1.0
  0
POINT
  5
1781C
330
17813
100
AcDbEntity
  8
Defpoints
 62
     0
100
AcDbPoint
 10
458.2666603557914
 20
259.6229669484017
 30
0.0
  0
POINT
  5
1781D
330
17813
100
AcDbEntity
  8
Defpoints
 62
     0
100
AcDbPoint
 10
488.2666603557914
 20
257.6229669484017
 30
0.0
  0
POINT
  5
1781E
330
17813
100
AcDbEntity
  8
Defpoints
 62
     0
100
AcDbPoint
 10
488.2666603557914
 20
270.8159287811322
 30
0.0
  0
ENDBLK
  5
17815
330
17813
100
AcDbEntity
  8
0
100
AcDbBlockEnd
  0
BLOCK
  5
17820
330
1781F
100
AcDbEntity
  8
0
100
AcDbBlockBegin
  2
*D53
 70
     1
 10
0.0
 20
0.0
 30
0.0
  3
*D53
  1

  0
LINE
  5
17822
330
1781F
100
AcDbEntity
  8
DIM
 62
     0
370
    -2
100
AcDbLine
 10
507.4769835977031
 20
659.6521019060203
 30
0.0
 11
507.4769835977031
 21
689.1238918014817
 31
0.0
  0
LINE
  5
17823
330
1781F
100
AcDbEntity
  8
DIM
 62
     0
370
    -2
100
AcDbLine
 10
407.4769835977027
 20
659.6521019060203
 30
0.0
 11
407.4769835977027
 21
689.1238918014817
 31
0.0
  0
LINE
  5
17824
330
1781F
100
AcDbEntity
  8
DIM
 62
     0
370
    -2
100
AcDbLine
 10
504.4769835977031
 20
689.1238918014817
 30
0.0
 11
410.4769835977027
 21
689.1238918014817
 31
0.0
  0
INSERT
  5
17825
330
1781F
100
AcDbEntity
  8
DIM
 62
     0
370
    -2
100
AcDbBlockReference
  2
_DOT
 10
507.4769835977031
 20
689.1238918014817
 30
0.0
 41
3.0
 42
3.0
 43
3.0
  0
INSERT
  5
17826
330
1781F
100
AcDbEntity
  8
DIM
 62
     0
370
    -2
100
AcDbBlockReference
  2
_DOT
 10
407.4769835977027
 20
689.1238918014817
 30
0.0
 41
3.0
 42
3.0
 43
3.0
 50
180.0
  0
MTEXT
  5
17827
330
1781F
100
AcDbEntity
  8
DIM
 62
     0
100
AcDbMText
 10
457.4769835977031
 20
696.1238918014817
 30
0.0
 40
6.0
 41
0.0
 46
0.0
 71
     5
 72
     1
  1
\A1;100
  7
ＭＳ ゴシック
 73
     1
 44
1.0
  0
POINT
  5
17828
330
1781F
100
AcDbEntity
  8
Defpoints
 62
     0
100
AcDbPoint
 10
507.4769835977031
 20
654.6521019060203
 30
0.0
  0
POINT
  5
17829
330
1781F
100
AcDbEntity
  8
Defpoints
 62
     0
100
AcDbPoint
 10
407.4769835977027
 20
654.6521019060203
 30
0.0
  0
POINT
  5
1782A
330
1781F
100
AcDbEntity
  8
Defpoints
 62
     0
100
AcDbPoint
 10
407.4769835977027
 20
689.1238918014817
 30
0.0
  0
ENDBLK
  5
17821
330
1781F
100
AcDbEntity
  8
0
100
AcDbBlockEnd
  0
BLOCK
  5
1782C
330
1782B
100
AcDbEntity
  8
0
100
AcDbBlockBegin
  2
*D54
 70
     1
 10
0.0
 20
0.0
 30
0.0
  3
*D54
  1

  0
LINE
  5
1782E
330
1782B
100
AcDbEntity
  8
DIM
 62
     0
370
    -2
100
AcDbLine
 10
404.4769835977027
 20
659.6521019060203
 30
0.0
 11
404.4769835977027
 21
689.1238918014817
 31
0.0
  0
LINE
  5
1782F
330
1782B
100
AcDbEntity
  8
DIM
 62
     0
370
    -2
100
AcDbLine
 10
407.4769835977027
 20
661.6521019060203
 30
0.0
 11
407.4769835977027
 21
689.1238918014817
 31
0.0
  0
LINE
  5
17830
330
1782B
100
AcDbEntity
  8
DIM
 62
     0
370
    -2
100
AcDbLine
 10
404.4769835977027
 20
689.1238918014817
 30
0.0
 11
386.3749835977027
 21
689.1238918014817
 31
0.0
  0
LINE
  5
17831
330
1782B
100
AcDbEntity
  8
DIM
 62
     0
370
    -2
100
AcDbLine
 10
401.4769835977027
 20
689.1238918014817
 30
0.0
 11
398.4769835977027
 21
689.1238918014817
 31
0.0
  0
LINE
  5
17832
330
1782B
100
AcDbEntity
  8
DIM
 62
     0
370
    -2
100
AcDbLine
 10
410.4769835977027
 20
689.1238918014817
 30
0.0
 11
413.4769835977027
 21
689.1238918014817
 31
0.0
  0
INSERT
  5
17833
330
1782B
100
AcDbEntity
  8
DIM
 62
     0
370
    -2
100
AcDbBlockReference
  2
_DOT
 10
404.4769835977027
 20
689.1238918014817
 30
0.0
 41
3.0
 42
3.0
 43
3.0
  0
INSERT
  5
17834
330
1782B
100
AcDbEntity
  8
DIM
 62
     0
370
    -2
100
AcDbBlockReference
  2
_DOT
 10
407.4769835977027
 20
689.1238918014817
 30
0.0
 41
3.0
 42
3.0
 43
3.0
 50
180.0
  0
MTEXT
  5
17835
330
1782B
100
AcDbEntity
  8
DIM
 62
     0
100
AcDbMText
 10
391.9259835977027
 20
696.1238918014817
 30
0.0
 40
6.0
 41
0.0
 46
0.0
 71
     5
 72
     1
  1
\A1;3
  7
ＭＳ ゴシック
 73
     1
 44
1.0
  0
POINT
  5
17836
330
1782B
100
AcDbEntity
  8
Defpoints
 62
     0
100
AcDbPoint
 10
404.4769835977027
 20
654.6521019060203
 30
0.0
  0
POINT
  5
17AB2
330
1782B
100
AcDbEntity
  8
Defpoints
 62
     0
100
AcDbPoint
 10
407.4769835977027
 20
656.6521019060203
 30
0.0
  0
POINT
  5
17AB3
330
1782B
100
AcDbEntity
  8
Defpoints
 62
     0
100
AcDbPoint
 10
407.4769835977027
 20
689.1238918014817
 30
0.0
  0
ENDBLK
  5
1782D
330
1782B
100
AcDbEntity
  8
0
100
AcDbBlockEnd
  0
BLOCK
  5
1783A
330
17839
100
AcDbEntity
  8
0
100
AcDbBlockBegin
  2
*D55
 70
     1
 10
0.0
 20
0.0
 30
0.0
  3
*D55
  1

  0
LINE
  5
1783C
330
17839
100
AcDbEntity
  8
DIM
 62
     0
370
    -2
100
AcDbLine
 10
137.6065074121216
 20
203.415290598657
 30
0.0
 11
137.6065074121216
 21
218.3152593408698
 31
0.0
  0
LINE
  5
1783D
330
17839
100
AcDbEntity
  8
DIM
 62
     0
370
    -2
100
AcDbLine
 10
128.6065074121216
 20
203.415290598657
 30
0.0
 11
128.6065074121216
 21
218.3152593408698
 31
0.0
  0
LINE
  5
1783E
330
17839
100
AcDbEntity
  8
DIM
 62
     0
370
    -2
100
AcDbLine
 10
134.6065074121216
 20
218.3152593408698
 30
0.0
 11
131.6065074121216
 21
218.3152593408698
 31
0.0
  0
INSERT
  5
1783F
330
17839
100
AcDbEntity
  8
DIM
 62
     0
370
    -2
100
AcDbBlockReference
  2
_DOT
 10
137.6065074121216
 20
218.3152593408698
 30
0.0
 41
3.0
 42
3.0
 43
3.0
  0
INSERT
  5
17840
330
17839
100
AcDbEntity
  8
DIM
 62
     0
370
    -2
100
AcDbBlockReference
  2
_DOT
 10
128.6065074121216
 20
218.3152593408698
 30
0.0
 41
3.0
 42
3.0
 43
3.0
 50
180.0
  0
MTEXT
  5
17841
330
17839
100
AcDbEntity
  8
DIM
 62
     0
100
AcDbMText
 10
133.1065074121216
 20
225.3152593408698
 30
0.0
 40
6.0
 41
0.0
 46
0.0
 71
     5
 72
     1
  1
\A1;9
  7
ＭＳ ゴシック
 73
     1
 44
1.0
  0
POINT
  5
17842
330
17839
100
AcDbEntity
  8
Defpoints
 62
     0
100
AcDbPoint
 10
137.6065074121216
 20
198.415290598657
 30
0.0
  0
POINT
  5
17843
330
17839
100
AcDbEntity
  8
Defpoints
 62
     0
100
AcDbPoint
 10
128.6065074121216
 20
198.415290598657
 30
0.0
  0
POINT
  5
17844
330
17839
100
AcDbEntity
  8
Defpoints
 62
     0
100
AcDbPoint
 10
128.6065074121216
 20
218.3152593408698
 30
0.0
  0
ENDBLK
  5
1783B
330
17839
100
AcDbEntity
  8
0
100
AcDbBlockEnd
  0
BLOCK
  5
17846
330
17845
100
AcDbEntity
  8
0
100
AcDbBlockBegin
  2
*D56
 70
     1
 10
0.0
 20
0.0
 30
0.0
  3
*D56
  1

  0
LINE
  5
17848
330
17845
100
AcDbEntity
  8
DIM
 62
     0
370
    -2
100
AcDbLine
 10
122.2037516306559
 20
186.7566683003957
 30
0.0
 11
107.6839942842821
 21
186.7566683003957
 31
0.0
  0
LINE
  5
17849
330
17845
100
AcDbEntity
  8
DIM
 62
     0
370
    -2
100
AcDbLine
 10
122.2037516306559
 20
201.7566683003957
 30
0.0
 11
107.6839942842821
 21
201.7566683003957
 31
0.0
  0
LINE
  5
1784A
330
17845
100
AcDbEntity
  8
DIM
 62
     0
370
    -2
100
AcDbLine
 10
107.6839942842821
 20
189.7566683003957
 30
0.0
 11
107.6839942842821
 21
198.7566683003957
 31
0.0
  0
INSERT
  5
1784B
330
17845
100
AcDbEntity
  8
DIM
 62
     0
370
    -2
100
AcDbBlockReference
  2
_DOT
 10
107.6839942842821
 20
186.7566683003957
 30
0.0
 41
3.0
 42
3.0
 43
3.0
 50
270.0
  0
INSERT
  5
1784C
330
17845
100
AcDbEntity
  8
DIM
 62
     0
370
    -2
100
AcDbBlockReference
  2
_DOT
 10
107.6839942842821
 20
201.7566683003957
 30
0.0
 41
3.0
 42
3.0
 43
3.0
 50
90.0
  0
MTEXT
  5
1784D
330
17845
100
AcDbEntity
  8
DIM
 62
     0
100
AcDbMText
 10
100.6839942842821
 20
194.2566683003956
 30
0.0
 40
6.0
 41
0.0
 46
0.0
 71
     5
 72
     1
  1
\A1;15
  7
ＭＳ ゴシック
 11
0.0
 21
1.0
 31
0.0
 73
     1
 44
1.0
  0
POINT
  5
1784E
330
17845
100
AcDbEntity
  8
Defpoints
 62
     0
100
AcDbPoint
 10
127.2037516306559
 20
186.7566683003957
 30
0.0
  0
POINT
  5
1784F
330
17845
100
AcDbEntity
  8
Defpoints
 62
     0
100
AcDbPoint
 10
127.2037516306559
 20
201.7566683003957
 30
0.0
  0
POINT
  5
17850
330
17845
100
AcDbEntity
  8
Defpoints
 62
     0
100
AcDbPoint
 10
107.6839942842821
 20
201.7566683003957
 30
0.0
  0
ENDBLK
  5
17847
330
17845
100
AcDbEntity
  8
0
100
AcDbBlockEnd
  0
BLOCK
  5
17853
330
17852
100
AcDbEntity
  8
0
100
AcDbBlockBegin
  2
*D57
 70
     1
 10
0.0
 20
0.0
 30
0.0
  3
*D57
  1

  0
LINE
  5
17855
330
17852
100
AcDbEntity
  8
DIM
 62
     0
370
    -2
100
AcDbLine
 10
399.4769835977027
 20
654.6521019060203
 30
0.0
 11
356.0825271375559
 21
654.6521019060203
 31
0.0
  0
LINE
  5
17856
330
17852
100
AcDbEntity
  8
DIM
 62
     0
370
    -2
100
AcDbLine
 10
399.4769835977027
 20
181.7566683003954
 30
0.0
 11
356.0825271375556
 21
181.7566683003954
 31
0.0
  0
LINE
  5
17857
330
17852
100
AcDbEntity
  8
DIM
 62
     0
370
    -2
100
AcDbLine
 10
356.0825271375559
 20
651.6521019060203
 30
0.0
 11
356.0825271375556
 21
184.7566683003954
 31
0.0
  0
INSERT
  5
17858
330
17852
100
AcDbEntity
  8
DIM
 62
     0
370
    -2
100
AcDbBlockReference
  2
_DOT
 10
356.0825271375559
 20
654.6521019060203
 30
0.0
 41
3.0
 42
3.0
 43
3.0
 50
89.99999999999997
  0
INSERT
  5
17859
330
17852
100
AcDbEntity
  8
DIM
 62
     0
370
    -2
100
AcDbBlockReference
  2
_DOT
 10
356.0825271375556
 20
181.7566683003954
 30
0.0
 41
3.0
 42
3.0
 43
3.0
 50
270.0
  0
MTEXT
  5
1785A
330
17852
100
AcDbEntity
  8
DIM
 62
     0
100
AcDbMText
 10
349.0825271375558
 20
418.2043851032079
 30
0.0
 40
6.0
 41
0.0
 46
0.0
 71
     5
 72
     1
  1
\A1;1150
  7
ＭＳ ゴシック
 11
4.808117382517426E-16
 21
1.0
 31
0.0
 73
     1
 44
1.0
  0
POINT
  5
1785B
330
17852
100
AcDbEntity
  8
Defpoints
 62
     0
100
AcDbPoint
 10
404.4769835977027
 20
654.6521019060203
 30
0.0
  0
POINT
  5
1785C
330
17852
100
AcDbEntity
  8
Defpoints
 62
     0
100
AcDbPoint
 10
404.4769835977027
 20
181.7566683003954
 30
0.0
  0
POINT
  5
1785D
330
17852
100
AcDbEntity
  8
Defpoints
 62
     0
100
AcDbPoint
 10
356.0825271375556
 20
181.7566683003954
 30
0.0
  0
ENDBLK
  5
17854
330
17852
100
AcDbEntity
  8
0
100
AcDbBlockEnd
  0
BLOCK
  5
1785F
330
1785E
100
AcDbEntity
  8
0
100
AcDbBlockBegin
  2
*D58
 70
     1
 10
0.0
 20
0.0
 30
0.0
  3
*D58
  1

  0
LINE
  5
17861
330
1785E
100
AcDbEntity
  8
DIM
 62
     0
370
    -2
100
AcDbLine
 10
399.4769835977027
 20
194.2566683003954
 30
0.0
 11
377.1081851038227
 21
194.2566683003954
 31
0.0
  0
LINE
  5
17862
330
1785E
100
AcDbEntity
  8
DIM
 62
     0
370
    -2
100
AcDbLine
 10
399.4769835977027
 20
642.1521019060203
 30
0.0
 11
377.108185103823
 21
642.1521019060203
 31
0.0
  0
LINE
  5
17863
330
1785E
100
AcDbEntity
  8
DIM
 62
     0
370
    -2
100
AcDbLine
 10
377.1081851038227
 20
197.2566683003954
 30
0.0
 11
377.108185103823
 21
639.1521019060203
 31
0.0
  0
INSERT
  5
17864
330
1785E
100
AcDbEntity
  8
DIM
 62
     0
370
    -2
100
AcDbBlockReference
  2
_DOT
 10
377.1081851038227
 20
194.2566683003954
 30
0.0
 41
3.0
 42
3.0
 43
3.0
 50
269.9999999999999
  0
INSERT
  5
17865
330
1785E
100
AcDbEntity
  8
DIM
 62
     0
370
    -2
100
AcDbBlockReference
  2
_DOT
 10
377.108185103823
 20
642.1521019060203
 30
0.0
 41
3.0
 42
3.0
 43
3.0
 50
89.99999999999997
  0
MTEXT
  5
17866
330
1785E
100
AcDbEntity
  8
DIM
 62
     0
100
AcDbMText
 10
370.1081851038228
 20
418.2043851032079
 30
0.0
 40
6.0
 41
0.0
 46
0.0
 71
     5
 72
     1
  1
\A1;1125
  7
ＭＳ ゴシック
 11
5.076490144425902E-16
 21
1.0
 31
0.0
 73
     1
 44
1.0
  0
POINT
  5
17867
330
1785E
100
AcDbEntity
  8
Defpoints
 62
     0
100
AcDbPoint
 10
404.4769835977027
 20
194.2566683003954
 30
0.0
  0
POINT
  5
17868
330
1785E
100
AcDbEntity
  8
Defpoints
 62
     0
100
AcDbPoint
 10
404.4769835977027
 20
642.1521019060203
 30
0.0
  0
POINT
  5
17869
330
1785E
100
AcDbEntity
  8
Defpoints
 62
     0
100
AcDbPoint
 10
377.108185103823
 20
642.1521019060203
 30
0.0
  0
ENDBLK
  5
17860
330
1785E
100
AcDbEntity
  8
0
100
AcDbBlockEnd
  0
BLOCK
  5
1786B
330
1786A
100
AcDbEntity
  8
0
100
AcDbBlockBegin
  2
*D59
 70
     1
 10
0.0
 20
0.0
 30
0.0
  3
*D59
  1

  0
LINE
  5
1786D
330
1786A
100
AcDbEntity
  8
DIM
 62
     0
370
    -2
100
AcDbLine
 10
1939.535577576283
 20
893.3037993434777
 30
0.0
 11
1966.381170515125
 21
893.3037993434777
 31
0.0
  0
LINE
  5
1786E
330
1786A
100
AcDbEntity
  8
DIM
 62
     0
370
    -2
100
AcDbLine
 10
1939.535577576283
 20
938.3037993434777
 30
0.0
 11
1966.381170515125
 21
938.3037993434777
 31
0.0
  0
LINE
  5
1786F
330
1786A
100
AcDbEntity
  8
DIM
 62
     0
370
    -2
100
AcDbLine
 10
1966.381170515125
 20
896.3037993434777
 30
0.0
 11
1966.381170515125
 21
935.3037993434777
 31
0.0
  0
INSERT
  5
17870
330
1786A
100
AcDbEntity
  8
DIM
 62
     0
370
    -2
100
AcDbBlockReference
  2
_DOT
 10
1966.381170515125
 20
893.3037993434777
 30
0.0
 41
3.0
 42
3.0
 43
3.0
 50
270.0
  0
INSERT
  5
17871
330
1786A
100
AcDbEntity
  8
DIM
 62
     0
370
    -2
100
AcDbBlockReference
  2
_DOT
 10
1966.381170515125
 20
938.3037993434777
 30
0.0
 41
3.0
 42
3.0
 43
3.0
 50
90.0
  0
MTEXT
  5
17872
330
1786A
100
AcDbEntity
  8
DIM
 62
     0
100
AcDbMText
 10
1958.381170515125
 20
915.8037993434777
 30
0.0
 40
6.0
 41
0.0
 46
0.0
 71
     5
 72
     1
  1
\A1;45
  7
ＭＳ ゴシック
 11
0.0
 21
1.0
 31
0.0
 73
     1
 44
1.0
  0
POINT
  5
17873
330
1786A
100
AcDbEntity
  8
Defpoints
 62
     0
100
AcDbPoint
 10
1934.535577576283
 20
893.3037993434777
 30
0.0
  0
POINT
  5
17874
330
1786A
100
AcDbEntity
  8
Defpoints
 62
     0
100
AcDbPoint
 10
1934.535577576283
 20
938.3037993434777
 30
0.0
  0
POINT
  5
17875
330
1786A
100
AcDbEntity
  8
Defpoints
 62
     0
100
AcDbPoint
 10
1966.381170515125
 20
938.3037993434777
 30
0.0
  0
ENDBLK
  5
1786C
330
1786A
100
AcDbEntity
  8
0
100
AcDbBlockEnd
  0
BLOCK
  5
17877
330
17876
100
AcDbEntity
  8
0
100
AcDbBlockBegin
  2
*D60
 70
     1
 10
0.0
 20
0.0
 30
0.0
  3
*D60
  1

  0
LINE
  5
17879
330
17876
100
AcDbEntity
  8
DIM
 62
     0
370
    -2
100
AcDbLine
 10
2050.468704607491
 20
461.1826242473182
 30
0.0
 11
2050.468704607491
 21
441.7691245609583
 31
0.0
  0
LINE
  5
1787A
330
17876
100
AcDbEntity
  8
DIM
 62
     0
370
    -2
100
AcDbLine
 10
2070.468704607491
 20
461.1826242473182
 30
0.0
 11
2070.468704607491
 21
441.7691245609583
 31
0.0
  0
LINE
  5
1787B
330
17876
100
AcDbEntity
  8
DIM
 62
     0
370
    -2
100
AcDbLine
 10
2053.468704607491
 20
441.7691245609583
 30
0.0
 11
2067.468704607491
 21
441.7691245609583
 31
0.0
  0
INSERT
  5
1787C
330
17876
100
AcDbEntity
  8
DIM
 62
     0
370
    -2
100
AcDbBlockReference
  2
_DOT
 10
2050.468704607491
 20
441.7691245609583
 30
0.0
 41
3.0
 42
3.0
 43
3.0
 50
180.0
  0
INSERT
  5
1787D
330
17876
100
AcDbEntity
  8
DIM
 62
     0
370
    -2
100
AcDbBlockReference
  2
_DOT
 10
2070.468704607491
 20
441.7691245609583
 30
0.0
 41
3.0
 42
3.0
 43
3.0
  0
MTEXT
  5
1787E
330
17876
100
AcDbEntity
  8
DIM
 62
     0
100
AcDbMText
 10
2060.468704607491
 20
449.7691245609583
 30
0.0
 40
6.0
 41
0.0
 46
0.0
 71
     5
 72
     1
  1
\A1;20
  7
ＭＳ ゴシック
 73
     1
 44
1.0
  0
POINT
  5
1787F
330
17876
100
AcDbEntity
  8
Defpoints
 62
     0
100
AcDbPoint
 10
2050.468704607491
 20
466.1826242473182
 30
0.0
  0
POINT
  5
17880
330
17876
100
AcDbEntity
  8
Defpoints
 62
     0
100
AcDbPoint
 10
2070.468704607491
 20
466.1826242473182
 30
0.0
  0
POINT
  5
17881
330
17876
100
AcDbEntity
  8
Defpoints
 62
     0
100
AcDbPoint
 10
2070.468704607491
 20
441.7691245609583
 30
0.0
  0
ENDBLK
  5
17878
330
17876
100
AcDbEntity
  8
0
100
AcDbBlockEnd
  0
BLOCK
  5
17883
330
17882
100
AcDbEntity
  8
0
100
AcDbBlockBegin
  2
*D61
 70
     1
 10
0.0
 20
0.0
 30
0.0
  3
*D61
  1

  0
LINE
  5
17885
330
17882
100
AcDbEntity
  8
DIM
 62
     0
370
    -2
100
AcDbLine
 10
1909.535577576284
 20
943.3037993434755
 30
0.0
 11
1909.535577576284
 21
953.7263124713172
 31
0.0
  0
LINE
  5
17886
330
17882
100
AcDbEntity
  8
DIM
 62
     0
370
    -2
100
AcDbLine
 10
1934.535577576284
 20
943.3037993434755
 30
0.0
 11
1934.535577576284
 21
953.7263124713172
 31
0.0
  0
LINE
  5
17887
330
17882
100
AcDbEntity
  8
DIM
 62
     0
370
    -2
100
AcDbLine
 10
1912.535577576284
 20
953.7263124713172
 30
0.0
 11
1931.535577576284
 21
953.7263124713172
 31
0.0
  0
INSERT
  5
17888
330
17882
100
AcDbEntity
  8
DIM
 62
     0
370
    -2
100
AcDbBlockReference
  2
_DOT
 10
1909.535577576284
 20
953.7263124713172
 30
0.0
 41
3.0
 42
3.0
 43
3.0
 50
180.0
  0
INSERT
  5
17889
330
17882
100
AcDbEntity
  8
DIM
 62
     0
370
    -2
100
AcDbBlockReference
  2
_DOT
 10
1934.535577576284
 20
953.7263124713172
 30
0.0
 41
3.0
 42
3.0
 43
3.0
  0
MTEXT
  5
1788A
330
17882
100
AcDbEntity
  8
DIM
 62
     0
100
AcDbMText
 10
1922.035577576284
 20
961.7263124713172
 30
0.0
 40
6.0
 41
0.0
 46
0.0
 71
     5
 72
     1
  1
\A1;25
  7
ＭＳ ゴシック
 73
     1
 44
1.0
  0
POINT
  5
1788B
330
17882
100
AcDbEntity
  8
Defpoints
 62
     0
100
AcDbPoint
 10
1909.535577576284
 20
938.3037993434755
 30
0.0
  0
POINT
  5
1788C
330
17882
100
AcDbEntity
  8
Defpoints
 62
     0
100
AcDbPoint
 10
1934.535577576284
 20
938.3037993434755
 30
0.0
  0
POINT
  5
1788D
330
17882
100
AcDbEntity
  8
Defpoints
 62
     0
100
AcDbPoint
 10
1934.535577576284
 20
953.7263124713172
 30
0.0
  0
ENDBLK
  5
17884
330
17882
100
AcDbEntity
  8
0
100
AcDbBlockEnd
  0
BLOCK
  5
1788F
330
1788E
100
AcDbEntity
  8
0
100
AcDbBlockBegin
  2
*D62
 70
     1
 10
0.0
 20
0.0
 30
0.0
  3
*D62
  1

  0
LINE
  5
17891
330
1788E
100
AcDbEntity
  8
DIM
 62
     0
370
    -2
100
AcDbLine
 10
170.1065074121216
 20
176.7566683003953
 30
0.0
 11
170.1065074121216
 21
162.0571252954138
 31
0.0
  0
LINE
  5
17892
330
1788E
100
AcDbEntity
  8
DIM
 62
     0
370
    -2
100
AcDbLine
 10
133.1065074121216
 20
179.7566683003957
 30
0.0
 11
133.1065074121216
 21
162.0571252954138
 31
0.0
  0
LINE
  5
17893
330
1788E
100
AcDbEntity
  8
DIM
 62
     0
370
    -2
100
AcDbLine
 10
167.1065074121216
 20
162.0571252954138
 30
0.0
 11
136.1065074121216
 21
162.0571252954138
 31
0.0
  0
INSERT
  5
17894
330
1788E
100
AcDbEntity
  8
DIM
 62
     0
370
    -2
100
AcDbBlockReference
  2
_DOT
 10
170.1065074121216
 20
162.0571252954138
 30
0.0
 41
3.0
 42
3.0
 43
3.0
  0
INSERT
  5
17895
330
1788E
100
AcDbEntity
  8
DIM
 62
     0
370
    -2
100
AcDbBlockReference
  2
_DOT
 10
133.1065074121216
 20
162.0571252954138
 30
0.0
 41
3.0
 42
3.0
 43
3.0
 50
180.0
  0
MTEXT
  5
17896
330
1788E
100
AcDbEntity
  8
DIM
 62
     0
100
AcDbMText
 10
151.6065074121216
 20
169.0571252954138
 30
0.0
 40
6.0
 41
0.0
 46
0.0
 71
     5
 72
     1
  1
\A1;37
  7
ＭＳ ゴシック
 73
     1
 44
1.0
  0
POINT
  5
17897
330
1788E
100
AcDbEntity
  8
Defpoints
 62
     0
100
AcDbPoint
 10
170.1065074121216
 20
181.7566683003953
 30
0.0
  0
POINT
  5
17898
330
1788E
100
AcDbEntity
  8
Defpoints
 62
     0
100
AcDbPoint
 10
133.1065074121216
 20
184.7566683003957
 30
0.0
  0
POINT
  5
17899
330
1788E
100
AcDbEntity
  8
Defpoints
 62
     0
100
AcDbPoint
 10
133.1065074121216
 20
162.0571252954138
 30
0.0
  0
ENDBLK
  5
17890
330
1788E
100
AcDbEntity
  8
0
100
AcDbBlockEnd
  0
BLOCK
  5
1789B
330
1789A
100
AcDbEntity
  8
0
100
AcDbBlockBegin
  2
*D63
 70
     1
 10
0.0
 20
0.0
 30
0.0
  3
*D63
  1

  0
LINE
  5
1789D
330
1789A
100
AcDbEntity
  8
DIM
 62
     0
370
    -2
100
AcDbLine
 10
173.1065074121216
 20
181.7566683003957
 30
0.0
 11
189.0944544723593
 21
181.7566683003957
 31
0.0
  0
LINE
  5
1789E
330
1789A
100
AcDbEntity
  8
DIM
 62
     0
370
    -2
100
AcDbLine
 10
143.1065074121216
 20
194.2566683003957
 30
0.0
 11
189.0944544723593
 21
194.2566683003957
 31
0.0
  0
LINE
  5
1789F
330
1789A
100
AcDbEntity
  8
DIM
 62
     0
370
    -2
100
AcDbLine
 10
189.0944544723593
 20
181.7566683003957
 30
0.0
 11
189.0944544723593
 21
149.9846683003955
 31
0.0
  0
LINE
  5
178A0
330
1789A
100
AcDbEntity
  8
DIM
 62
     0
370
    -2
100
AcDbLine
 10
189.0944544723593
 20
184.7566683003957
 30
0.0
 11
189.0944544723593
 21
191.2566683003957
 31
0.0
  0
LINE
  5
178A1
330
1789A
100
AcDbEntity
  8
DIM
 62
     0
370
    -2
100
AcDbLine
 10
189.0944544723593
 20
184.7566683003957
 30
0.0
 11
189.0944544723593
 21
187.7566683003957
 31
0.0
  0
INSERT
  5
178A2
330
1789A
100
AcDbEntity
  8
DIM
 62
     0
370
    -2
100
AcDbBlockReference
  2
_DOT
 10
189.0944544723593
 20
181.7566683003957
 30
0.0
 41
3.0
 42
3.0
 43
3.0
 50
270.0
  0
INSERT
  5
178A3
330
1789A
100
AcDbEntity
  8
DIM
 62
     0
370
    -2
100
AcDbBlockReference
  2
_DOT
 10
189.0944544723593
 20
194.2566683003957
 30
0.0
 41
3.0
 42
3.0
 43
3.0
 50
90.0
  0
MTEXT
  5
178A4
330
1789A
100
AcDbEntity
  8
DIM
 62
     0
100
AcDbMText
 10
182.0944544723593
 20
161.1726683003955
 30
0.0
 40
6.0
 41
0.0
 46
0.0
 71
     5
 72
     1
  1
\A1;12.5
  7
ＭＳ ゴシック
 11
0.0
 21
1.0
 31
0.0
 73
     1
 44
1.0
  0
POINT
  5
178A5
330
1789A
100
AcDbEntity
  8
Defpoints
 62
     0
100
AcDbPoint
 10
168.1065074121216
 20
181.7566683003957
 30
0.0
  0
POINT
  5
178D6
330
1789A
100
AcDbEntity
  8
Defpoints
 62
     0
100
AcDbPoint
 10
138.1065074121216
 20
194.2566683003957
 30
0.0
  0
POINT
  5
178D7
330
1789A
100
AcDbEntity
  8
Defpoints
 62
     0
100
AcDbPoint
 10
189.0944544723593
 20
194.2566683003957
 30
0.0
  0
ENDBLK
  5
1789C
330
1789A
100
AcDbEntity
  8
0
100
AcDbBlockEnd
  0
BLOCK
  5
178E4
330
178E3
100
AcDbEntity
  8
0
100
AcDbBlockBegin
  2
*D64
 70
     1
 10
0.0
 20
0.0
 30
0.0
  3
*D64
  1

  0
LINE
  5
178E6
330
178E3
100
AcDbEntity
  8
DIM
 62
     0
370
    -2
100
AcDbLine
 10
133.1065074121216
 20
174.7566683003957
 30
0.0
 11
133.1065074121216
 21
162.0571252954138
 31
0.0
  0
LINE
  5
178E7
330
178E3
100
AcDbEntity
  8
DIM
 62
     0
370
    -2
100
AcDbLine
 10
123.1065074121216
 20
176.7566683003957
 30
0.0
 11
123.1065074121216
 21
162.0571252954138
 31
0.0
  0
LINE
  5
178E8
330
178E3
100
AcDbEntity
  8
DIM
 62
     0
370
    -2
100
AcDbLine
 10
130.1065074121216
 20
162.0571252954138
 30
0.0
 11
126.1065074121216
 21
162.0571252954138
 31
0.0
  0
INSERT
  5
178E9
330
178E3
100
AcDbEntity
  8
DIM
 62
     0
370
    -2
100
AcDbBlockReference
  2
_DOT
 10
133.1065074121216
 20
162.0571252954138
 30
0.0
 41
3.0
 42
3.0
 43
3.0
  0
INSERT
  5
178EA
330
178E3
100
AcDbEntity
  8
DIM
 62
     0
370
    -2
100
AcDbBlockReference
  2
_DOT
 10
123.1065074121216
 20
162.0571252954138
 30
0.0
 41
3.0
 42
3.0
 43
3.0
 50
180.0
  0
MTEXT
  5
178EB
330
178E3
100
AcDbEntity
  8
DIM
 62
     0
100
AcDbMText
 10
128.1065074121216
 20
169.0571252954138
 30
0.0
 40
6.0
 41
0.0
 46
0.0
 71
     5
 72
     1
  1
\A1;10
  7
ＭＳ ゴシック
 73
     1
 44
1.0
  0
POINT
  5
178EC
330
178E3
100
AcDbEntity
  8
Defpoints
 62
     0
100
AcDbPoint
 10
133.1065074121216
 20
179.7566683003957
 30
0.0
  0
POINT
  5
178ED
330
178E3
100
AcDbEntity
  8
Defpoints
 62
     0
100
AcDbPoint
 10
123.1065074121216
 20
181.7566683003957
 30
0.0
  0
POINT
  5
178EE
330
178E3
100
AcDbEntity
  8
Defpoints
 62
     0
100
AcDbPoint
 10
123.1065074121216
 20
162.0571252954138
 30
0.0
  0
ENDBLK
  5
178E5
330
178E3
100
AcDbEntity
  8
0
100
AcDbBlockEnd
  0
BLOCK
  5
1791C
330
1791B
100
AcDbEntity
  8
0
100
AcDbBlockBegin
  2
*D65
 70
     1
 10
0.0
 20
0.0
 30
0.0
  3
*D65
  1

  0
LINE
  5
1791E
330
1791B
100
AcDbEntity
  8
DIM
 62
     0
370
    -2
100
AcDbLine
 10
151.9117826590564
 20
667.7556907447581
 30
0.0
 11
151.9117826590564
 21
678.3805715079394
 31
0.0
  0
LINE
  5
1791F
330
1791B
100
AcDbEntity
  8
DIM
 62
     0
370
    -2
100
AcDbLine
 10
177.8208735681471
 20
667.7556907447581
 30
0.0
 11
177.8208735681471
 21
678.3805715079394
 31
0.0
  0
LINE
  5
17920
330
1791B
100
AcDbEntity
  8
DIM
 62
     0
370
    -2
100
AcDbLine
 10
154.9117826590564
 20
678.3805715079394
 30
0.0
 11
174.8208735681471
 21
678.3805715079394
 31
0.0
  0
INSERT
  5
17921
330
1791B
100
AcDbEntity
  8
DIM
 62
     0
370
    -2
100
AcDbBlockReference
  2
_DOT
 10
151.9117826590564
 20
678.3805715079394
 30
0.0
 41
3.0
 42
3.0
 43
3.0
 50
180.0
  0
INSERT
  5
17922
330
1791B
100
AcDbEntity
  8
DIM
 62
     0
370
    -2
100
AcDbBlockReference
  2
_DOT
 10
177.8208735681471
 20
678.3805715079394
 30
0.0
 41
3.0
 42
3.0
 43
3.0
  0
MTEXT
  5
17923
330
1791B
100
AcDbEntity
  8
DIM
 62
     0
100
AcDbMText
 10
164.8663281136018
 20
686.3805715079394
 30
0.0
 40
6.0
 41
0.0
 46
0.0
 71
     5
 72
     1
  1
\A1;26
  7
ＭＳ ゴシック
 73
     1
 44
1.0
  0
POINT
  5
17924
330
1791B
100
AcDbEntity
  8
Defpoints
 62
     0
100
AcDbPoint
 10
151.9117826590564
 20
662.7556907447581
 30
0.0
  0
POINT
  5
17925
330
1791B
100
AcDbEntity
  8
Defpoints
 62
     0
100
AcDbPoint
 10
177.8208735681471
 20
662.7556907447581
 30
0.0
  0
POINT
  5
17926
330
1791B
100
AcDbEntity
  8
Defpoints
 62
     0
100
AcDbPoint
 10
177.8208735681471
 20
678.3805715079394
 30
0.0
  0
ENDBLK
  5
1791D
330
1791B
100
AcDbEntity
  8
0
100
AcDbBlockEnd
  0
BLOCK
  5
1792B
330
1792A
100
AcDbEntity
  8
0
100
AcDbBlockBegin
  2
*D66
 70
     1
 10
0.0
 20
0.0
 30
0.0
  3
*D66
  1

  0
LINE
  5
1792D
330
1792A
100
AcDbEntity
  8
DIM
 62
     0
370
    -2
100
AcDbLine
 10
496.7737950375586
 20
773.6888177759657
 30
0.0
 11
496.7737950375586
 21
725.9129240040656
 31
0.0
  0
LINE
  5
1792E
330
1792A
100
AcDbEntity
  8
DIM
 62
     0
370
    -2
100
AcDbLine
 10
470.7737950375586
 20
773.6888177759656
 30
0.0
 11
470.7737950375586
 21
725.9129240040656
 31
0.0
  0
LINE
  5
1792F
330
1792A
100
AcDbEntity
  8
DIM
 62
     0
370
    -2
100
AcDbLine
 10
493.7737950375586
 20
725.9129240040656
 30
0.0
 11
473.7737950375586
 21
725.9129240040656
 31
0.0
  0
INSERT
  5
17930
330
1792A
100
AcDbEntity
  8
DIM
 62
     0
370
    -2
100
AcDbBlockReference
  2
_DOT
 10
496.7737950375586
 20
725.9129240040656
 30
0.0
 41
3.0
 42
3.0
 43
3.0
  0
INSERT
  5
17931
330
1792A
100
AcDbEntity
  8
DIM
 62
     0
370
    -2
100
AcDbBlockReference
  2
_DOT
 10
470.7737950375586
 20
725.9129240040656
 30
0.0
 41
3.0
 42
3.0
 43
3.0
 50
180.0
  0
MTEXT
  5
17932
330
1792A
100
AcDbEntity
  8
DIM
 62
     0
100
AcDbMText
 10
483.7737950375586
 20
733.9129240040656
 30
0.0
 40
6.0
 41
0.0
 46
0.0
 71
     5
 72
     1
  1
\A1;26
  7
ＭＳ ゴシック
 73
     1
 44
1.0
  0
POINT
  5
17933
330
1792A
100
AcDbEntity
  8
Defpoints
 62
     0
100
AcDbPoint
 10
496.7737950375586
 20
778.6888177759657
 30
0.0
  0
POINT
  5
17934
330
1792A
100
AcDbEntity
  8
Defpoints
 62
     0
100
AcDbPoint
 10
470.7737950375586
 20
778.6888177759656
 30
0.0
  0
POINT
  5
17935
330
1792A
100
AcDbEntity
  8
Defpoints
 62
     0
100
AcDbPoint
 10
470.7737950375586
 20
725.9129240040656
 30
0.0
  0
ENDBLK
  5
1792C
330
1792A
100
AcDbEntity
  8
0
100
AcDbBlockEnd
  0
BLOCK
  5
1793B
330
1793A
100
AcDbEntity
  8
0
100
AcDbBlockBegin
  2
*D67
 70
     1
 10
0.0
 20
0.0
 30
0.0
  3
*D67
  1

  0
LINE
  5
1793D
330
1793A
100
AcDbEntity
  8
DIM
 62
     0
370
    -2
100
AcDbLine
 10
496.7737950375586
 20
773.6888177759657
 30
0.0
 11
496.7737950375586
 21
752.5193816335533
 31
0.0
  0
LINE
  5
1793E
330
1793A
100
AcDbEntity
  8
DIM
 62
     0
370
    -2
100
AcDbLine
 10
474.7737950375586
 20
786.6433632305112
 30
0.0
 11
474.7737950375586
 21
752.5193816335533
 31
0.0
  0
LINE
  5
1793F
330
1793A
100
AcDbEntity
  8
DIM
 62
     0
370
    -2
100
AcDbLine
 10
493.7737950375586
 20
752.5193816335533
 30
0.0
 11
477.7737950375586
 21
752.5193816335533
 31
0.0
  0
INSERT
  5
17940
330
1793A
100
AcDbEntity
  8
DIM
 62
     0
370
    -2
100
AcDbBlockReference
  2
_DOT
 10
496.7737950375586
 20
752.5193816335533
 30
0.0
 41
3.0
 42
3.0
 43
3.0
  0
INSERT
  5
17941
330
1793A
100
AcDbEntity
  8
DIM
 62
     0
370
    -2
100
AcDbBlockReference
  2
_DOT
 10
474.7737950375586
 20
752.5193816335533
 30
0.0
 41
3.0
 42
3.0
 43
3.0
 50
180.0
  0
MTEXT
  5
17942
330
1793A
100
AcDbEntity
  8
DIM
 62
     0
100
AcDbMText
 10
485.7737950375586
 20
760.5193816335533
 30
0.0
 40
6.0
 41
0.0
 46
0.0
 71
     5
 72
     1
  1
\A1;22
  7
ＭＳ ゴシック
 73
     1
 44
1.0
  0
POINT
  5
17943
330
1793A
100
AcDbEntity
  8
Defpoints
 62
     0
100
AcDbPoint
 10
496.7737950375586
 20
778.6888177759657
 30
0.0
  0
POINT
  5
17944
330
1793A
100
AcDbEntity
  8
Defpoints
 62
     0
100
AcDbPoint
 10
474.7737950375586
 20
791.6433632305112
 30
0.0
  0
POINT
  5
17945
330
1793A
100
AcDbEntity
  8
Defpoints
 62
     0
100
AcDbPoint
 10
474.7737950375586
 20
752.5193816335533
 30
0.0
  0
ENDBLK
  5
1793C
330
1793A
100
AcDbEntity
  8
0
100
AcDbBlockEnd
  0
BLOCK
  5
1794A
330
17949
100
AcDbEntity
  8
0
100
AcDbBlockBegin
  2
*D68
 70
     1
 10
0.0
 20
0.0
 30
0.0
  3
*D68
  1

  0
LINE
  5
1794C
330
17949
100
AcDbEntity
  8
DIM
 62
     0
370
    -2
100
AcDbLine
 10
496.7737950375586
 20
778.0639014115961
 30
0.0
 11
496.7737950375586
 21
761.0500777446296
 31
0.0
  0
LINE
  5
1794D
330
17949
100
AcDbEntity
  8
DIM
 62
     0
370
    -2
100
AcDbLine
 10
474.7737950375586
 20
786.6433632305112
 30
0.0
 11
474.7737950375586
 21
761.0500777446296
 31
0.0
  0
LINE
  5
1794E
330
17949
100
AcDbEntity
  8
DIM
 62
     0
370
    -2
100
AcDbLine
 10
493.7737950375586
 20
761.0500777446296
 30
0.0
 11
477.7737950375586
 21
761.0500777446296
 31
0.0
  0
INSERT
  5
1794F
330
17949
100
AcDbEntity
  8
DIM
 62
     0
370
    -2
100
AcDbBlockReference
  2
_DOT
 10
496.7737950375586
 20
761.0500777446296
 30
0.0
 41
3.0
 42
3.0
 43
3.0
  0
INSERT
  5
17950
330
17949
100
AcDbEntity
  8
DIM
 62
     0
370
    -2
100
AcDbBlockReference
  2
_DOT
 10
474.7737950375586
 20
761.0500777446296
 30
0.0
 41
3.0
 42
3.0
 43
3.0
 50
180.0
  0
MTEXT
  5
17951
330
17949
100
AcDbEntity
  8
DIM
 62
     0
100
AcDbMText
 10
485.7737950375586
 20
769.0500777446296
 30
0.0
 40
6.0
 41
0.0
 46
0.0
 71
     5
 72
     1
  1
\A1;22
  7
ＭＳ ゴシック
 73
     1
 44
1.0
  0
POINT
  5
17952
330
17949
100
AcDbEntity
  8
Defpoints
 62
     0
100
AcDbPoint
 10
496.7737950375586
 20
783.0639014115961
 30
0.0
  0
POINT
  5
17953
330
17949
100
AcDbEntity
  8
Defpoints
 62
     0
100
AcDbPoint
 10
474.7737950375586
 20
791.6433632305112
 30
0.0
  0
POINT
  5
17954
330
17949
100
AcDbEntity
  8
Defpoints
 62
     0
100
AcDbPoint
 10
474.7737950375586
 20
761.0500777446296
 30
0.0
  0
ENDBLK
  5
1794B
330
17949
100
AcDbEntity
  8
0
100
AcDbBlockEnd
  0
BLOCK
  5
17959
330
17958
100
AcDbEntity
  8
0
100
AcDbBlockBegin
  2
*D69
 70
     1
 10
0.0
 20
0.0
 30
0.0
  3
*D69
  1

  0
LINE
  5
1795B
330
17958
100
AcDbEntity
  8
DIM
 62
     0
370
    -2
100
AcDbLine
 10
496.7737950375586
 20
772.1605845022438
 30
0.0
 11
496.7737950375586
 21
747.5086796336996
 31
0.0
  0
LINE
  5
1795C
330
17958
100
AcDbEntity
  8
DIM
 62
     0
370
    -2
100
AcDbLine
 10
474.7737950375586
 20
772.1605845022438
 30
0.0
 11
474.7737950375586
 21
747.5086796336996
 31
0.0
  0
LINE
  5
1795D
330
17958
100
AcDbEntity
  8
DIM
 62
     0
370
    -2
100
AcDbLine
 10
493.7737950375586
 20
747.5086796336996
 30
0.0
 11
477.7737950375586
 21
747.5086796336996
 31
0.0
  0
INSERT
  5
1795E
330
17958
100
AcDbEntity
  8
DIM
 62
     0
370
    -2
100
AcDbBlockReference
  2
_DOT
 10
496.7737950375586
 20
747.5086796336996
 30
0.0
 41
3.0
 42
3.0
 43
3.0
  0
INSERT
  5
1795F
330
17958
100
AcDbEntity
  8
DIM
 62
     0
370
    -2
100
AcDbBlockReference
  2
_DOT
 10
474.7737950375586
 20
747.5086796336996
 30
0.0
 41
3.0
 42
3.0
 43
3.0
 50
180.0
  0
MTEXT
  5
17960
330
17958
100
AcDbEntity
  8
DIM
 62
     0
100
AcDbMText
 10
485.7737950375586
 20
755.5086796336996
 30
0.0
 40
6.0
 41
0.0
 46
0.0
 71
     5
 72
     1
  1
\A1;22
  7
ＭＳ ゴシック
 73
     1
 44
1.0
  0
POINT
  5
17961
330
17958
100
AcDbEntity
  8
Defpoints
 62
     0
100
AcDbPoint
 10
496.7737950375586
 20
777.1605845022438
 30
0.0
  0
POINT
  5
17962
330
17958
100
AcDbEntity
  8
Defpoints
 62
     0
100
AcDbPoint
 10
474.7737950375586
 20
777.1605845022438
 30
0.0
  0
POINT
  5
17963
330
17958
100
AcDbEntity
  8
Defpoints
 62
     0
100
AcDbPoint
 10
474.7737950375586
 20
747.5086796336996
 30
0.0
  0
ENDBLK
  5
1795A
330
17958
100
AcDbEntity
  8
0
100
AcDbBlockEnd
  0
BLOCK
  5
17968
330
17967
100
AcDbEntity
  8
0
100
AcDbBlockBegin
  2
*D70
 70
     1
 10
0.0
 20
0.0
 30
0.0
  3
*D70
  1

  0
LINE
  5
1796A
330
17967
100
AcDbEntity
  8
DIM
 62
     0
370
    -2
100
AcDbLine
 10
493.7737950375586
 20
773.6888177759657
 30
0.0
 11
493.7737950375586
 21
761.0863299501337
 31
0.0
  0
LINE
  5
1796B
330
17967
100
AcDbEntity
  8
DIM
 62
     0
370
    -2
100
AcDbLine
 10
474.7737950375586
 20
786.6433632305112
 30
0.0
 11
474.7737950375586
 21
761.0863299501337
 31
0.0
  0
LINE
  5
1796C
330
17967
100
AcDbEntity
  8
DIM
 62
     0
370
    -2
100
AcDbLine
 10
490.7737950375586
 20
761.0863299501337
 30
0.0
 11
477.7737950375586
 21
761.0863299501337
 31
0.0
  0
INSERT
  5
1796D
330
17967
100
AcDbEntity
  8
DIM
 62
     0
370
    -2
100
AcDbBlockReference
  2
_DOT
 10
493.7737950375586
 20
761.0863299501337
 30
0.0
 41
3.0
 42
3.0
 43
3.0
  0
INSERT
  5
1796E
330
17967
100
AcDbEntity
  8
DIM
 62
     0
370
    -2
100
AcDbBlockReference
  2
_DOT
 10
474.7737950375586
 20
761.0863299501337
 30
0.0
 41
3.0
 42
3.0
 43
3.0
 50
180.0
  0
MTEXT
  5
1796F
330
17967
100
AcDbEntity
  8
DIM
 62
     0
100
AcDbMText
 10
484.2737950375586
 20
769.0863299501337
 30
0.0
 40
6.0
 41
0.0
 46
0.0
 71
     5
 72
     1
  1
\A1;19
  7
ＭＳ ゴシック
 73
     1
 44
1.0
  0
POINT
  5
17970
330
17967
100
AcDbEntity
  8
Defpoints
 62
     0
100
AcDbPoint
 10
493.7737950375586
 20
778.6888177759657
 30
0.0
  0
POINT
  5
17971
330
17967
100
AcDbEntity
  8
Defpoints
 62
     0
100
AcDbPoint
 10
474.7737950375586
 20
791.6433632305112
 30
0.0
  0
POINT
  5
17972
330
17967
100
AcDbEntity
  8
Defpoints
 62
     0
100
AcDbPoint
 10
474.7737950375586
 20
761.0863299501337
 30
0.0
  0
ENDBLK
  5
17969
330
17967
100
AcDbEntity
  8
0
100
AcDbBlockEnd
  0
BLOCK
  5
179B8
330
179B7
100
AcDbEntity
  8
0
100
AcDbBlockBegin
  2
*D71
 70
     1
 10
0.0
 20
0.0
 30
0.0
  3
*D71
  1

  0
LINE
  5
179B9
330
179B7
100
AcDbEntity
  8
DIM
 62
     0
370
    -2
100
AcDbLine
 10
238.5824806864707
 20
1.499999999999999
 30
0.0
 11
265.4280736253122
 21
1.499999999999993
 31
0.0
  0
LINE
  5
179BA
330
179B7
100
AcDbEntity
  8
DIM
 62
     0
370
    -2
100
AcDbLine
 10
238.5824806864707
 20
46.5
 30
0.0
 11
265.4280736253122
 21
46.49999999999999
 31
0.0
  0
LINE
  5
179BB
330
179B7
100
AcDbEntity
  8
DIM
 62
     0
370
    -2
100
AcDbLine
 10
265.4280736253122
 20
4.499999999999993
 30
0.0
 11
265.4280736253122
 21
43.49999999999999
 31
0.0
  0
INSERT
  5
179BC
330
179B7
100
AcDbEntity
  8
DIM
 62
     0
370
    -2
100
AcDbBlockReference
  2
_DOT
 10
265.4280736253122
 20
1.499999999999993
 30
0.0
 41
3.0
 42
3.0
 43
3.0
 50
270.0
  0
INSERT
  5
179BD
330
179B7
100
AcDbEntity
  8
DIM
 62
     0
370
    -2
100
AcDbBlockReference
  2
_DOT
 10
265.4280736253122
 20
46.49999999999999
 30
0.0
 41
3.0
 42
3.0
 43
3.0
 50
90.0
  0
MTEXT
  5
179BE
330
179B7
100
AcDbEntity
  8
DIM
 62
     0
100
AcDbMText
 10
257.4280736253122
 20
23.99999999999999
 30
0.0
 40
6.0
 41
0.0
 46
0.0
 71
     5
 72
     1
  1
\A1;45
  7
ＭＳ ゴシック
 11
0.0
 21
1.0
 31
0.0
 73
     1
 44
1.0
  0
POINT
  5
179BF
330
179B7
100
AcDbEntity
  8
Defpoints
 62
     0
100
AcDbPoint
 10
233.5824806864707
 20
1.5
 30
0.0
  0
POINT
  5
179C0
330
179B7
100
AcDbEntity
  8
Defpoints
 62
     0
100
AcDbPoint
 10
233.5824806864707
 20
46.5
 30
0.0
  0
POINT
  5
179C1
330
179B7
100
AcDbEntity
  8
Defpoints
 62
     0
100
AcDbPoint
 10
265.4280736253122
 20
46.49999999999999
 30
0.0
  0
ENDBLK
  5
179C2
330
179B7
100
AcDbEntity
  8
0
100
AcDbBlockEnd
  0
BLOCK
  5
179C7
330
179C6
100
AcDbEntity
  8
0
100
AcDbBlockBegin
  2
*D72
 70
     1
 10
0.0
 20
0.0
 30
0.0
  3
*D72
  1

  0
LINE
  5
179C8
330
179C6
100
AcDbEntity
  8
DIM
 62
     0
370
    -2
100
AcDbLine
 10
208.5824806864716
 20
51.49999999999773
 30
0.0
 11
208.5824806864716
 21
61.92251312783947
 31
0.0
  0
LINE
  5
179C9
330
179C6
100
AcDbEntity
  8
DIM
 62
     0
370
    -2
100
AcDbLine
 10
233.5824806864716
 20
51.49999999999773
 30
0.0
 11
233.5824806864716
 21
61.92251312783947
 31
0.0
  0
LINE
  5
179CA
330
179C6
100
AcDbEntity
  8
DIM
 62
     0
370
    -2
100
AcDbLine
 10
211.5824806864716
 20
61.92251312783947
 30
0.0
 11
230.5824806864716
 21
61.92251312783947
 31
0.0
  0
INSERT
  5
179CB
330
179C6
100
AcDbEntity
  8
DIM
 62
     0
370
    -2
100
AcDbBlockReference
  2
_DOT
 10
208.5824806864716
 20
61.92251312783947
 30
0.0
 41
3.0
 42
3.0
 43
3.0
 50
180.0
  0
INSERT
  5
179CC
330
179C6
100
AcDbEntity
  8
DIM
 62
     0
370
    -2
100
AcDbBlockReference
  2
_DOT
 10
233.5824806864716
 20
61.92251312783947
 30
0.0
 41
3.0
 42
3.0
 43
3.0
  0
MTEXT
  5
179CD
330
179C6
100
AcDbEntity
  8
DIM
 62
     0
100
AcDbMText
 10
221.0824806864716
 20
69.92251312783947
 30
0.0
 40
6.0
 41
0.0
 46
0.0
 71
     5
 72
     1
  1
\A1;25
  7
ＭＳ ゴシック
 73
     1
 44
1.0
  0
POINT
  5
179CE
330
179C6
100
AcDbEntity
  8
Defpoints
 62
     0
100
AcDbPoint
 10
208.5824806864716
 20
46.49999999999773
 30
0.0
  0
POINT
  5
179CF
330
179C6
100
AcDbEntity
  8
Defpoints
 62
     0
100
AcDbPoint
 10
233.5824806864716
 20
46.49999999999773
 30
0.0
  0
POINT
  5
179D0
330
179C6
100
AcDbEntity
  8
Defpoints
 62
     0
100
AcDbPoint
 10
233.5824806864716
 20
61.92251312783947
 30
0.0
  0
ENDBLK
  5
179D1
330
179C6
100
AcDbEntity
  8
0
100
AcDbBlockEnd
  0
BLOCK
  5
179EB
330
179EA
100
AcDbEntity
  8
0
100
AcDbBlockBegin
  2
*D73
 70
     1
 10
0.0
 20
0.0
 30
0.0
  3
*D73
  1

  0
LINE
  5
179ED
330
179EA
100
AcDbEntity
  8
DIM
 62
     0
370
    -2
100
AcDbLine
 10
170.1065074121212
 20
659.6521019060201
 30
0.0
 11
170.1065074121212
 21
676.0670155631972
 31
0.0
  0
LINE
  5
179EE
330
179EA
100
AcDbEntity
  8
DIM
 62
     0
370
    -2
100
AcDbLine
 10
123.106507412119
 20
659.6521019060192
 30
0.0
 11
123.106507412119
 21
676.0670155631972
 31
0.0
  0
LINE
  5
179EF
330
179EA
100
AcDbEntity
  8
DIM
 62
     0
370
    -2
100
AcDbLine
 10
167.1065074121212
 20
676.0670155631972
 30
0.0
 11
126.106507412119
 21
676.0670155631972
 31
0.0
  0
INSERT
  5
179F0
330
179EA
100
AcDbEntity
  8
DIM
 62
     0
370
    -2
100
AcDbBlockReference
  2
_DOT
 10
170.1065074121212
 20
676.0670155631972
 30
0.0
 41
3.0
 42
3.0
 43
3.0
  0
INSERT
  5
179F1
330
179EA
100
AcDbEntity
  8
DIM
 62
     0
370
    -2
100
AcDbBlockReference
  2
_DOT
 10
123.106507412119
 20
676.0670155631972
 30
0.0
 41
3.0
 42
3.0
 43
3.0
 50
180.0
  0
MTEXT
  5
179F2
330
179EA
100
AcDbEntity
  8
DIM
 62
     0
100
AcDbMText
 10
146.6065074121203
 20
683.0670155631972
 30
0.0
 40
6.0
 41
0.0
 46
0.0
 71
     5
 72
     1
  1
\A1;47
  7
ＭＳ ゴシック
 73
     1
 44
1.0
  0
POINT
  5
179F3
330
179EA
100
AcDbEntity
  8
Defpoints
 62
     0
100
AcDbPoint
 10
170.1065074121212
 20
654.6521019060201
 30
0.0
  0
POINT
  5
179F4
330
179EA
100
AcDbEntity
  8
Defpoints
 62
     0
100
AcDbPoint
 10
123.106507412119
 20
654.6521019060192
 30
0.0
  0
POINT
  5
179F5
330
179EA
100
AcDbEntity
  8
Defpoints
 62
     0
100
AcDbPoint
 10
123.106507412119
 20
676.0670155631972
 30
0.0
  0
ENDBLK
  5
179EC
330
179EA
100
AcDbEntity
  8
0
100
AcDbBlockEnd
  0
BLOCK
  5
179F7
330
179F6
100
AcDbEntity
  8
0
100
AcDbBlockBegin
  2
*D74
 70
     1
 10
0.0
 20
0.0
 30
0.0
  3
*D74
  1

  0
LINE
  5
179F9
330
179F6
100
AcDbEntity
  8
DIM
 62
     0
370
    -2
100
AcDbLine
 10
118.1065074121211
 20
629.6521019060201
 30
0.0
 11
107.6839942842795
 21
629.6521019060201
 31
0.0
  0
LINE
  5
179FA
330
179F6
100
AcDbEntity
  8
DIM
 62
     0
370
    -2
100
AcDbLine
 10
118.1065074121212
 20
654.6521019060201
 30
0.0
 11
107.6839942842795
 21
654.6521019060201
 31
0.0
  0
LINE
  5
179FB
330
179F6
100
AcDbEntity
  8
DIM
 62
     0
370
    -2
100
AcDbLine
 10
107.6839942842795
 20
632.6521019060201
 30
0.0
 11
107.6839942842795
 21
651.6521019060201
 31
0.0
  0
INSERT
  5
179FC
330
179F6
100
AcDbEntity
  8
DIM
 62
     0
370
    -2
100
AcDbBlockReference
  2
_DOT
 10
107.6839942842795
 20
629.6521019060201
 30
0.0
 41
3.0
 42
3.0
 43
3.0
 50
269.9999999999999
  0
INSERT
  5
179FD
330
179F6
100
AcDbEntity
  8
DIM
 62
     0
370
    -2
100
AcDbBlockReference
  2
_DOT
 10
107.6839942842795
 20
654.6521019060201
 30
0.0
 41
3.0
 42
3.0
 43
3.0
 50
89.99999999999994
  0
MTEXT
  5
179FE
330
179F6
100
AcDbEntity
  8
DIM
 62
     0
100
AcDbMText
 10
100.6839942842795
 20
642.1521019060201
 30
0.0
 40
6.0
 41
0.0
 46
0.0
 71
     5
 72
     1
  1
\A1;25
  7
ＭＳ ゴシック
 11
1.136868377216160E-15
 21
1.0
 31
0.0
 73
     1
 44
1.0
  0
POINT
  5
179FF
330
179F6
100
AcDbEntity
  8
Defpoints
 62
     0
100
AcDbPoint
 10
123.1065074121211
 20
629.6521019060201
 30
0.0
  0
POINT
  5
17A00
330
179F6
100
AcDbEntity
  8
Defpoints
 62
     0
100
AcDbPoint
 10
123.1065074121212
 20
654.6521019060201
 30
0.0
  0
POINT
  5
17A01
330
179F6
100
AcDbEntity
  8
Defpoints
 62
     0
100
AcDbPoint
 10
107.6839942842795
 20
654.6521019060201
 30
0.0
  0
ENDBLK
  5
179F8
330
179F6
100
AcDbEntity
  8
0
100
AcDbBlockEnd
  0
BLOCK
  5
17A09
330
17A08
100
AcDbEntity
  8
0
100
AcDbBlockBegin
  2
*D75
 70
     1
 10
0.0
 20
0.0
 30
0.0
  3
*D75
  1

  0
LINE
  5
17A0B
330
17A08
100
AcDbEntity
  8
DIM
 62
     0
370
    -2
100
AcDbLine
 10
1914.535577576284
 20
701.8291907641703
 30
0.0
 11
1914.535577576284
 21
679.0319880332021
 31
0.0
  0
LINE
  5
17A0C
330
17A08
100
AcDbEntity
  8
DIM
 62
     0
370
    -2
100
AcDbLine
 10
1934.535577576284
 20
689.5297827987944
 30
0.0
 11
1934.535577576284
 21
679.0319880332021
 31
0.0
  0
LINE
  5
17A0D
330
17A08
100
AcDbEntity
  8
DIM
 62
     0
370
    -2
100
AcDbLine
 10
1917.535577576284
 20
679.0319880332021
 30
0.0
 11
1931.535577576284
 21
679.0319880332021
 31
0.0
  0
INSERT
  5
17A0E
330
17A08
100
AcDbEntity
  8
DIM
 62
     0
370
    -2
100
AcDbBlockReference
  2
_DOT
 10
1914.535577576284
 20
679.0319880332021
 30
0.0
 41
3.0
 42
3.0
 43
3.0
 50
180.0
  0
INSERT
  5
17A0F
330
17A08
100
AcDbEntity
  8
DIM
 62
     0
370
    -2
100
AcDbBlockReference
  2
_DOT
 10
1934.535577576284
 20
679.0319880332021
 30
0.0
 41
3.0
 42
3.0
 43
3.0
  0
MTEXT
  5
17A10
330
17A08
100
AcDbEntity
  8
DIM
 62
     0
100
AcDbMText
 10
1924.535577576284
 20
686.0319880332021
 30
0.0
 40
6.0
 41
0.0
 46
0.0
 71
     5
 72
     1
  1
\A1;20
  7
ＭＳ ゴシック
 73
     1
 44
1.0
  0
POINT
  5
17A11
330
17A08
100
AcDbEntity
  8
Defpoints
 62
     0
100
AcDbPoint
 10
1914.535577576284
 20
706.8291907641703
 30
0.0
  0
POINT
  5
17A12
330
17A08
100
AcDbEntity
  8
Defpoints
 62
     0
100
AcDbPoint
 10
1934.535577576284
 20
694.5297827987944
 30
0.0
  0
POINT
  5
17A13
330
17A08
100
AcDbEntity
  8
Defpoints
 62
     0
100
AcDbPoint
 10
1934.535577576284
 20
679.0319880332021
 30
0.0
  0
ENDBLK
  5
17A0A
330
17A08
100
AcDbEntity
  8
0
100
AcDbBlockEnd
  0
BLOCK
  5
17A52
330
17A51
100
AcDbEntity
  8
0
100
AcDbBlockBegin
  2
*D76
 70
     1
 10
0.0
 20
0.0
 30
0.0
  3
*D76
  1

  0
LINE
  5
17A54
330
17A51
100
AcDbEntity
  8
DIM
 62
     0
370
    -2
100
AcDbLine
 10
1076.120246854099
 20
438.5365003522502
 30
0.0
 11
1064.896758156255
 21
438.5365003522502
 31
0.0
  0
LINE
  5
17A55
330
17A51
100
AcDbEntity
  8
DIM
 62
     0
370
    -2
100
AcDbLine
 10
1076.120246854099
 20
458.5365003522502
 30
0.0
 11
1064.896758156255
 21
458.5365003522502
 31
0.0
  0
LINE
  5
17A56
330
17A51
100
AcDbEntity
  8
DIM
 62
     0
370
    -2
100
AcDbLine
 10
1064.896758156255
 20
441.5365003522502
 30
0.0
 11
1064.896758156255
 21
455.5365003522502
 31
0.0
  0
INSERT
  5
17A57
330
17A51
100
AcDbEntity
  8
DIM
 62
     0
370
    -2
100
AcDbBlockReference
  2
_DOT
 10
1064.896758156255
 20
438.5365003522502
 30
0.0
 41
3.0
 42
3.0
 43
3.0
 50
270.0
  0
INSERT
  5
17A58
330
17A51
100
AcDbEntity
  8
DIM
 62
     0
370
    -2
100
AcDbBlockReference
  2
_DOT
 10
1064.896758156255
 20
458.5365003522502
 30
0.0
 41
3.0
 42
3.0
 43
3.0
 50
90.0
  0
MTEXT
  5
17A59
330
17A51
100
AcDbEntity
  8
DIM
 62
     0
100
AcDbMText
 10
1057.896758156255
 20
448.5365003522502
 30
0.0
 40
6.0
 41
0.0
 46
0.0
 71
     5
 72
     1
  1
\A1;20
  7
ＭＳ ゴシック
 11
0.0
 21
1.0
 31
0.0
 73
     1
 44
1.0
  0
POINT
  5
17A5A
330
17A51
100
AcDbEntity
  8
Defpoints
 62
     0
100
AcDbPoint
 10
1081.120246854099
 20
438.5365003522502
 30
0.0
  0
POINT
  5
17A5B
330
17A51
100
AcDbEntity
  8
Defpoints
 62
     0
100
AcDbPoint
 10
1081.120246854099
 20
458.5365003522502
 30
0.0
  0
POINT
  5
17A5C
330
17A51
100
AcDbEntity
  8
Defpoints
 62
     0
100
AcDbPoint
 10
1064.896758156255
 20
458.5365003522502
 30
0.0
  0
ENDBLK
  5
17A53
330
17A51
100
AcDbEntity
  8
0
100
AcDbBlockEnd
  0
BLOCK
  5
17A69
330
17A68
100
AcDbEntity
  8
0
100
AcDbBlockBegin
  2
*D77
 70
     1
 10
0.0
 20
0.0
 30
0.0
  3
*D77
  1

  0
LINE
  5
17A6B
330
17A68
100
AcDbEntity
  8
DIM
 62
     0
370
    -2
100
AcDbLine
 10
1695.953096889813
 20
811.0446366258204
 30
0.0
 11
1687.964381671475
 21
811.0446366258204
 31
0.0
  0
LINE
  5
17A6C
330
17A68
100
AcDbEntity
  8
DIM
 62
     0
370
    -2
100
AcDbLine
 10
1701.293680476439
 20
785.1355457167294
 30
0.0
 11
1687.964381671475
 21
785.1355457167294
 31
0.0
  0
LINE
  5
17A6D
330
17A68
100
AcDbEntity
  8
DIM
 62
     0
370
    -2
100
AcDbLine
 10
1687.964381671475
 20
808.0446366258204
 30
0.0
 11
1687.964381671475
 21
788.1355457167294
 31
0.0
  0
INSERT
  5
17A6E
330
17A68
100
AcDbEntity
  8
DIM
 62
     0
370
    -2
100
AcDbBlockReference
  2
_DOT
 10
1687.964381671475
 20
811.0446366258204
 30
0.0
 41
3.0
 42
3.0
 43
3.0
 50
90.0
  0
INSERT
  5
17A6F
330
17A68
100
AcDbEntity
  8
DIM
 62
     0
370
    -2
100
AcDbBlockReference
  2
_DOT
 10
1687.964381671475
 20
785.1355457167294
 30
0.0
 41
3.0
 42
3.0
 43
3.0
 50
270.0
  0
MTEXT
  5
17A70
330
17A68
100
AcDbEntity
  8
DIM
 62
     0
100
AcDbMText
 10
1679.964381671475
 20
798.0900911712749
 30
0.0
 40
6.0
 41
0.0
 46
0.0
 71
     5
 72
     1
  1
\A1;26
  7
ＭＳ ゴシック
 11
0.0
 21
1.0
 31
0.0
 73
     1
 44
1.0
  0
POINT
  5
17A71
330
17A68
100
AcDbEntity
  8
Defpoints
 62
     0
100
AcDbPoint
 10
1700.953096889813
 20
811.0446366258204
 30
0.0
  0
POINT
  5
17A72
330
17A68
100
AcDbEntity
  8
Defpoints
 62
     0
100
AcDbPoint
 10
1706.293680476439
 20
785.1355457167294
 30
0.0
  0
POINT
  5
17A73
330
17A68
100
AcDbEntity
  8
Defpoints
 62
     0
100
AcDbPoint
 10
1687.964381671475
 20
785.1355457167294
 30
0.0
  0
ENDBLK
  5
17A6A
330
17A68
100
AcDbEntity
  8
0
100
AcDbBlockEnd
  0
BLOCK
  5
17A8B
330
17A8A
100
AcDbEntity
  8
0
100
AcDbBlockBegin
  2
*D78
 70
     1
 10
0.0
 20
0.0
 30
0.0
  3
*D78
  1

  0
LINE
  5
17A8D
330
17A8A
100
AcDbEntity
  8
DIM
 62
     0
370
    -2
100
AcDbLine
 10
1909.535577576284
 20
486.1826242473184
 30
0.0
 11
1887.297157240041
 21
486.1826242473184
 31
0.0
  0
LINE
  5
17A8E
330
17A8A
100
AcDbEntity
  8
DIM
 62
     0
370
    -2
100
AcDbLine
 10
1911.262714696576
 20
466.1826242473182
 30
0.0
 11
1887.297157240041
 21
466.1826242473182
 31
0.0
  0
LINE
  5
17A8F
330
17A8A
100
AcDbEntity
  8
DIM
 62
     0
370
    -2
100
AcDbLine
 10
1887.297157240041
 20
483.1826242473184
 30
0.0
 11
1887.297157240041
 21
469.1826242473182
 31
0.0
  0
INSERT
  5
17A90
330
17A8A
100
AcDbEntity
  8
DIM
 62
     0
370
    -2
100
AcDbBlockReference
  2
_DOT
 10
1887.297157240041
 20
486.1826242473184
 30
0.0
 41
3.0
 42
3.0
 43
3.0
 50
90.0
  0
INSERT
  5
17A91
330
17A8A
100
AcDbEntity
  8
DIM
 62
     0
370
    -2
100
AcDbBlockReference
  2
_DOT
 10
1887.297157240041
 20
466.1826242473182
 30
0.0
 41
3.0
 42
3.0
 43
3.0
 50
270.0
  0
MTEXT
  5
17A92
330
17A8A
100
AcDbEntity
  8
DIM
 62
     0
100
AcDbMText
 10
1879.297157240041
 20
476.1826242473182
 30
0.0
 40
6.0
 41
0.0
 46
0.0
 71
     5
 72
     1
  1
\A1;20
  7
ＭＳ ゴシック
 11
0.0
 21
1.0
 31
0.0
 73
     1
 44
1.0
  0
POINT
  5
17A93
330
17A8A
100
AcDbEntity
  8
Defpoints
 62
     0
100
AcDbPoint
 10
1914.535577576284
 20
486.1826242473184
 30
0.0
  0
POINT
  5
17A94
330
17A8A
100
AcDbEntity
  8
Defpoints
 62
     0
100
AcDbPoint
 10
1916.262714696576
 20
466.1826242473182
 30
0.0
  0
POINT
  5
17A95
330
17A8A
100
AcDbEntity
  8
Defpoints
 62
     0
100
AcDbPoint
 10
1887.297157240041
 20
466.1826242473182
 30
0.0
  0
ENDBLK
  5
17A8C
330
17A8A
100
AcDbEntity
  8
0
100
AcDbBlockEnd
  0
BLOCK
  5
17A9A
330
17A99
100
AcDbEntity
  8
0
100
AcDbBlockBegin
  2
*D79
 70
     1
 10
0.0
 20
0.0
 30
0.0
  3
*D79
  1

  0
LINE
  5
17A9C
330
17A99
100
AcDbEntity
  8
DIM
 62
     0
370
    -2
100
AcDbLine
 10
1914.535577576284
 20
491.1826242473184
 30
0.0
 11
1914.535577576284
 21
496.164437784218
 31
0.0
  0
LINE
  5
17A9D
330
17A99
100
AcDbEntity
  8
DIM
 62
     0
370
    -2
100
AcDbLine
 10
1934.535577576284
 20
491.1826242473184
 30
0.0
 11
1934.535577576284
 21
496.164437784218
 31
0.0
  0
LINE
  5
17A9E
330
17A99
100
AcDbEntity
  8
DIM
 62
     0
370
    -2
100
AcDbLine
 10
1917.535577576284
 20
496.164437784218
 30
0.0
 11
1931.535577576284
 21
496.164437784218
 31
0.0
  0
INSERT
  5
17A9F
330
17A99
100
AcDbEntity
  8
DIM
 62
     0
370
    -2
100
AcDbBlockReference
  2
_DOT
 10
1914.535577576284
 20
496.164437784218
 30
0.0
 41
3.0
 42
3.0
 43
3.0
 50
180.0
  0
INSERT
  5
17AA0
330
17A99
100
AcDbEntity
  8
DIM
 62
     0
370
    -2
100
AcDbBlockReference
  2
_DOT
 10
1934.535577576284
 20
496.164437784218
 30
0.0
 41
3.0
 42
3.0
 43
3.0
  0
MTEXT
  5
17AA1
330
17A99
100
AcDbEntity
  8
DIM
 62
     0
100
AcDbMText
 10
1924.535577576284
 20
504.164437784218
 30
0.0
 40
6.0
 41
0.0
 46
0.0
 71
     5
 72
     1
  1
\A1;20
  7
ＭＳ ゴシック
 73
     1
 44
1.0
  0
POINT
  5
17AA2
330
17A99
100
AcDbEntity
  8
Defpoints
 62
     0
100
AcDbPoint
 10
1914.535577576284
 20
486.1826242473184
 30
0.0
  0
POINT
  5
17AA3
330
17A99
100
AcDbEntity
  8
Defpoints
 62
     0
100
AcDbPoint
 10
1934.535577576284
 20
486.1826242473184
 30
0.0
  0
POINT
  5
17AA4
330
17A99
100
AcDbEntity
  8
Defpoints
 62
     0
100
AcDbPoint
 10
1934.535577576284
 20
496.164437784218
 30
0.0
  0
ENDBLK
  5
17A9B
330
17A99
100
AcDbEntity
  8
0
100
AcDbBlockEnd
  0
BLOCK
  5
17ACA
330
17AC9
100
AcDbEntity
  8
0
100
AcDbBlockBegin
  2
*D80
 70
     1
 10
0.0
 20
0.0
 30
0.0
  3
*D80
  1

  0
LINE
  5
17ACC
330
17AC9
100
AcDbEntity
  8
DIM
 62
     0
370
    -2
100
AcDbLine
 10
2050.468704607491
 20
461.1826242473182
 30
0.0
 11
2050.468704607491
 21
455.4785797913316
 31
0.0
  0
LINE
  5
17ACD
330
17AC9
100
AcDbEntity
  8
DIM
 62
     0
370
    -2
100
AcDbLine
 10
2070.468704607491
 20
461.1826242473182
 30
0.0
 11
2070.468704607491
 21
455.4785797913316
 31
0.0
  0
LINE
  5
17ACE
330
17AC9
100
AcDbEntity
  8
DIM
 62
     0
370
    -2
100
AcDbLine
 10
2053.468704607491
 20
455.4785797913316
 30
0.0
 11
2067.468704607491
 21
455.4785797913316
 31
0.0
  0
INSERT
  5
17ACF
330
17AC9
100
AcDbEntity
  8
DIM
 62
     0
370
    -2
100
AcDbBlockReference
  2
_DOT
 10
2050.468704607491
 20
455.4785797913316
 30
0.0
 41
3.0
 42
3.0
 43
3.0
 50
180.0
  0
INSERT
  5
17AD0
330
17AC9
100
AcDbEntity
  8
DIM
 62
     0
370
    -2
100
AcDbBlockReference
  2
_DOT
 10
2070.468704607491
 20
455.4785797913316
 30
0.0
 41
3.0
 42
3.0
 43
3.0
  0
MTEXT
  5
17AD1
330
17AC9
100
AcDbEntity
  8
DIM
 62
     0
100
AcDbMText
 10
2060.468704607491
 20
463.4785797913316
 30
0.0
 40
6.0
 41
0.0
 46
0.0
 71
     5
 72
     1
  1
\A1;20
  7
ＭＳ ゴシック
 73
     1
 44
1.0
  0
POINT
  5
17AD2
330
17AC9
100
AcDbEntity
  8
Defpoints
 62
     0
100
AcDbPoint
 10
2050.468704607491
 20
466.1826242473182
 30
0.0
  0
POINT
  5
17AD3
330
17AC9
100
AcDbEntity
  8
Defpoints
 62
     0
100
AcDbPoint
 10
2070.468704607491
 20
466.1826242473182
 30
0.0
  0
POINT
  5
17AD4
330
17AC9
100
AcDbEntity
  8
Defpoints
 62
     0
100
AcDbPoint
 10
2070.468704607491
 20
455.4785797913316
 30
0.0
  0
ENDBLK
  5
17ACB
330
17AC9
100
AcDbEntity
  8
0
100
AcDbBlockEnd
  0
BLOCK
  5
17AF3
330
17AF2
100
AcDbEntity
  8
0
100
AcDbBlockBegin
  2
*D81
 70
     1
 10
0.0
 20
0.0
 30
0.0
  3
*D81
  1

  0
LINE
  5
17AF5
330
17AF2
100
AcDbEntity
  8
DIM
 62
     0
370
    -2
100
AcDbLine
 10
507.4769835977031
 20
659.6521019060203
 30
0.0
 11
507.4769835977031
 21
676.0670155631974
 31
0.0
  0
LINE
  5
17AF6
330
17AF2
100
AcDbEntity
  8
DIM
 62
     0
370
    -2
100
AcDbLine
 10
487.4769835977027
 20
639.6521019060201
 30
0.0
 11
487.4769835977027
 21
676.0670155631974
 31
0.0
  0
LINE
  5
17AF7
330
17AF2
100
AcDbEntity
  8
DIM
 62
     0
370
    -2
100
AcDbLine
 10
504.4769835977031
 20
676.0670155631974
 30
0.0
 11
490.4769835977027
 21
676.0670155631974
 31
0.0
  0
INSERT
  5
17AF8
330
17AF2
100
AcDbEntity
  8
DIM
 62
     0
370
    -2
100
AcDbBlockReference
  2
_DOT
 10
507.4769835977031
 20
676.0670155631974
 30
0.0
 41
3.0
 42
3.0
 43
3.0
  0
INSERT
  5
17AF9
330
17AF2
100
AcDbEntity
  8
DIM
 62
     0
370
    -2
100
AcDbBlockReference
  2
_DOT
 10
487.4769835977027
 20
676.0670155631974
 30
0.0
 41
3.0
 42
3.0
 43
3.0
 50
180.0
  0
MTEXT
  5
17AFA
330
17AF2
100
AcDbEntity
  8
DIM
 62
     0
100
AcDbMText
 10
497.4769835977031
 20
683.0670155631974
 30
0.0
 40
6.0
 41
0.0
 46
0.0
 71
     5
 72
     1
  1
\A1;20
  7
ＭＳ ゴシック
 73
     1
 44
1.0
  0
POINT
  5
17AFB
330
17AF2
100
AcDbEntity
  8
Defpoints
 62
     0
100
AcDbPoint
 10
507.4769835977031
 20
654.6521019060203
 30
0.0
  0
POINT
  5
17AFC
330
17AF2
100
AcDbEntity
  8
Defpoints
 62
     0
100
AcDbPoint
 10
487.4769835977027
 20
634.6521019060201
 30
0.0
  0
POINT
  5
17AFD
330
17AF2
100
AcDbEntity
  8
Defpoints
 62
     0
100
AcDbPoint
 10
487.4769835977027
 20
676.0670155631974
 30
0.0
  0
ENDBLK
  5
17AF4
330
17AF2
100
AcDbEntity
  8
0
100
AcDbBlockEnd
  0
BLOCK
  5
17B1F
330
17B1E
100
AcDbEntity
  8
0
100
AcDbBlockBegin
  2
*D82
 70
     1
 10
0.0
 20
0.0
 30
0.0
  3
*D82
  1

  0
LINE
  5
17B21
330
17B1E
100
AcDbEntity
  8
DIM
 62
     0
370
    -2
100
AcDbLine
 10
505.6542356552118
 20
783.6911304192474
 30
0.0
 11
505.6542356552118
 21
804.012692929097
 31
0.0
  0
LINE
  5
17B22
330
17B1E
100
AcDbEntity
  8
DIM
 62
     0
370
    -2
100
AcDbLine
 10
485.6542356552113
 20
783.6911304192479
 30
0.0
 11
485.6542356552113
 21
804.012692929097
 31
0.0
  0
LINE
  5
17B23
330
17B1E
100
AcDbEntity
  8
DIM
 62
     0
370
    -2
100
AcDbLine
 10
502.6542356552118
 20
804.012692929097
 30
0.0
 11
488.6542356552113
 21
804.012692929097
 31
0.0
  0
INSERT
  5
17B24
330
17B1E
100
AcDbEntity
  8
DIM
 62
     0
370
    -2
100
AcDbBlockReference
  2
_DOT
 10
505.6542356552118
 20
804.012692929097
 30
0.0
 41
3.0
 42
3.0
 43
3.0
  0
INSERT
  5
17B25
330
17B1E
100
AcDbEntity
  8
DIM
 62
     0
370
    -2
100
AcDbBlockReference
  2
_DOT
 10
485.6542356552113
 20
804.012692929097
 30
0.0
 41
3.0
 42
3.0
 43
3.0
 50
180.0
  0
MTEXT
  5
17B26
330
17B1E
100
AcDbEntity
  8
DIM
 62
     0
100
AcDbMText
 10
495.6542356552116
 20
811.012692929097
 30
0.0
 40
6.0
 41
0.0
 46
0.0
 71
     5
 72
     1
  1
\A1;20
  7
ＭＳ ゴシック
 73
     1
 44
1.0
  0
POINT
  5
17B27
330
17B1E
100
AcDbEntity
  8
Defpoints
 62
     0
100
AcDbPoint
 10
505.6542356552118
 20
778.6911304192474
 30
0.0
  0
POINT
  5
17B28
330
17B1E
100
AcDbEntity
  8
Defpoints
 62
     0
100
AcDbPoint
 10
485.6542356552113
 20
778.6911304192479
 30
0.0
  0
POINT
  5
17B29
330
17B1E
100
AcDbEntity
  8
Defpoints
 62
     0
100
AcDbPoint
 10
485.6542356552113
 20
804.012692929097
 30
0.0
  0
ENDBLK
  5
17B20
330
17B1E
100
AcDbEntity
  8
0
100
AcDbBlockEnd
  0
BLOCK
  5
17B2E
330
17B2D
100
AcDbEntity
  8
0
100
AcDbBlockBegin
  2
*D83
 70
     1
 10
0.0
 20
0.0
 30
0.0
  3
*D83
  1

  0
LINE
  5
17B30
330
17B2D
100
AcDbEntity
  8
DIM
 62
     0
370
    -2
100
AcDbLine
 10
507.6542356552118
 20
788.6911304192474
 30
0.0
 11
524.0346600670073
 21
788.6911304192474
 31
0.0
  0
LINE
  5
17B31
330
17B2D
100
AcDbEntity
  8
DIM
 62
     0
370
    -2
100
AcDbLine
 10
507.6542356552118
 20
768.6911304192474
 30
0.0
 11
524.0346600670073
 21
768.6911304192474
 31
0.0
  0
LINE
  5
17B32
330
17B2D
100
AcDbEntity
  8
DIM
 62
     0
370
    -2
100
AcDbLine
 10
524.0346600670073
 20
785.6911304192474
 30
0.0
 11
524.0346600670073
 21
771.6911304192474
 31
0.0
  0
INSERT
  5
17B33
330
17B2D
100
AcDbEntity
  8
DIM
 62
     0
370
    -2
100
AcDbBlockReference
  2
_DOT
 10
524.0346600670073
 20
788.6911304192474
 30
0.0
 41
3.0
 42
3.0
 43
3.0
 50
90.0
  0
INSERT
  5
17B34
330
17B2D
100
AcDbEntity
  8
DIM
 62
     0
370
    -2
100
AcDbBlockReference
  2
_DOT
 10
524.0346600670073
 20
768.6911304192474
 30
0.0
 41
3.0
 42
3.0
 43
3.0
 50
270.0
  0
MTEXT
  5
17B35
330
17B2D
100
AcDbEntity
  8
DIM
 62
     0
100
AcDbMText
 10
517.0346600670073
 20
778.6911304192474
 30
0.0
 40
6.0
 41
0.0
 46
0.0
 71
     5
 72
     1
  1
\A1;20
  7
ＭＳ ゴシック
 11
0.0
 21
1.0
 31
0.0
 73
     1
 44
1.0
  0
POINT
  5
17B36
330
17B2D
100
AcDbEntity
  8
Defpoints
 62
     0
100
AcDbPoint
 10
502.6542356552118
 20
788.6911304192474
 30
0.0
  0
POINT
  5
17B37
330
17B2D
100
AcDbEntity
  8
Defpoints
 62
     0
100
AcDbPoint
 10
502.6542356552118
 20
768.6911304192474
 30
0.0
  0
POINT
  5
17B38
330
17B2D
100
AcDbEntity
  8
Defpoints
 62
     0
100
AcDbPoint
 10
524.0346600670073
 20
768.6911304192474
 30
0.0
  0
ENDBLK
  5
17B2F
330
17B2D
100
AcDbEntity
  8
0
100
AcDbBlockEnd
  0
BLOCK
  5
17B52
330
17B51
100
AcDbEntity
  8
0
100
AcDbBlockBegin
  2
*D84
 70
     1
 10
0.0
 20
0.0
 30
0.0
  3
*D84
  1

  0
LINE
  5
17B54
330
17B51
100
AcDbEntity
  8
DIM
 62
     0
370
    -2
100
AcDbLine
 10
1422.236606475881
 20
746.5921638538979
 30
0.0
 11
1453.511361799937
 21
746.5921638538979
 31
0.0
  0
LINE
  5
17B55
330
17B51
100
AcDbEntity
  8
DIM
 62
     0
370
    -2
100
AcDbLine
 10
1422.236606475881
 20
766.5921638538979
 30
0.0
 11
1453.511361799937
 21
766.5921638538979
 31
0.0
  0
LINE
  5
17B56
330
17B51
100
AcDbEntity
  8
DIM
 62
     0
370
    -2
100
AcDbLine
 10
1453.511361799937
 20
749.5921638538979
 30
0.0
 11
1453.511361799937
 21
763.5921638538979
 31
0.0
  0
INSERT
  5
17B57
330
17B51
100
AcDbEntity
  8
DIM
 62
     0
370
    -2
100
AcDbBlockReference
  2
_DOT
 10
1453.511361799937
 20
746.5921638538979
 30
0.0
 41
3.0
 42
3.0
 43
3.0
 50
270.0
  0
INSERT
  5
17B58
330
17B51
100
AcDbEntity
  8
DIM
 62
     0
370
    -2
100
AcDbBlockReference
  2
_DOT
 10
1453.511361799937
 20
766.5921638538979
 30
0.0
 41
3.0
 42
3.0
 43
3.0
 50
90.0
  0
MTEXT
  5
17B59
330
17B51
100
AcDbEntity
  8
DIM
 62
     0
100
AcDbMText
 10
1446.511361799937
 20
756.5921638538979
 30
0.0
 40
6.0
 41
0.0
 46
0.0
 71
     5
 72
     1
  1
\A1;20
  7
ＭＳ ゴシック
 11
0.0
 21
1.0
 31
0.0
 73
     1
 44
1.0
  0
POINT
  5
17B5A
330
17B51
100
AcDbEntity
  8
Defpoints
 62
     0
100
AcDbPoint
 10
1417.236606475881
 20
746.5921638538979
 30
0.0
  0
POINT
  5
17B5B
330
17B51
100
AcDbEntity
  8
Defpoints
 62
     0
100
AcDbPoint
 10
1417.236606475881
 20
766.5921638538979
 30
0.0
  0
POINT
  5
17B5C
330
17B51
100
AcDbEntity
  8
Defpoints
 62
     0
100
AcDbPoint
 10
1453.511361799937
 20
766.5921638538979
 30
0.0
  0
ENDBLK
  5
17B53
330
17B51
100
AcDbEntity
  8
0
100
AcDbBlockEnd
  0
BLOCK
  5
17B61
330
17B60
100
AcDbEntity
  8
0
100
AcDbBlockBegin
  2
*D85
 70
     1
 10
0.0
 20
0.0
 30
0.0
  3
*D85
  1

  0
LINE
  5
17B63
330
17B60
100
AcDbEntity
  8
DIM
 62
     0
370
    -2
100
AcDbLine
 10
1417.236606475881
 20
771.5921638538979
 30
0.0
 11
1417.236606475881
 21
778.7451001635794
 31
0.0
  0
LINE
  5
17B64
330
17B60
100
AcDbEntity
  8
DIM
 62
     0
370
    -2
100
AcDbLine
 10
1397.23660647588
 20
761.5921638538983
 30
0.0
 11
1397.23660647588
 21
778.7451001635794
 31
0.0
  0
LINE
  5
17B65
330
17B60
100
AcDbEntity
  8
DIM
 62
     0
370
    -2
100
AcDbLine
 10
1414.236606475881
 20
778.7451001635794
 30
0.0
 11
1400.23660647588
 21
778.7451001635794
 31
0.0
  0
INSERT
  5
17B66
330
17B60
100
AcDbEntity
  8
DIM
 62
     0
370
    -2
100
AcDbBlockReference
  2
_DOT
 10
1417.236606475881
 20
778.7451001635794
 30
0.0
 41
3.0
 42
3.0
 43
3.0
  0
INSERT
  5
17B67
330
17B60
100
AcDbEntity
  8
DIM
 62
     0
370
    -2
100
AcDbBlockReference
  2
_DOT
 10
1397.23660647588
 20
778.7451001635794
 30
0.0
 41
3.0
 42
3.0
 43
3.0
 50
180.0
  0
MTEXT
  5
17B68
330
17B60
100
AcDbEntity
  8
DIM
 62
     0
100
AcDbMText
 10
1407.236606475881
 20
785.7451001635794
 30
0.0
 40
6.0
 41
0.0
 46
0.0
 71
     5
 72
     1
  1
\A1;20
  7
ＭＳ ゴシック
 73
     1
 44
1.0
  0
POINT
  5
17B69
330
17B60
100
AcDbEntity
  8
Defpoints
 62
     0
100
AcDbPoint
 10
1417.236606475881
 20
766.5921638538979
 30
0.0
  0
POINT
  5
17B6A
330
17B60
100
AcDbEntity
  8
Defpoints
 62
     0
100
AcDbPoint
 10
1397.23660647588
 20
756.5921638538983
 30
0.0
  0
POINT
  5
17B6B
330
17B60
100
AcDbEntity
  8
Defpoints
 62
     0
100
AcDbPoint
 10
1397.23660647588
 20
778.7451001635794
 30
0.0
  0
ENDBLK
  5
17B62
330
17B60
100
AcDbEntity
  8
0
100
AcDbBlockEnd
  0
BLOCK
  5
17B70
330
17B6F
100
AcDbEntity
  8
0
100
AcDbBlockBegin
  2
*D86
 70
     1
 10
0.0
 20
0.0
 30
0.0
  3
*D86
  1

  0
LINE
  5
17B72
330
17B6F
100
AcDbEntity
  8
DIM
 62
     0
370
    -2
100
AcDbLine
 10
1111.120246854099
 20
413.6571901749877
 30
0.0
 11
1142.081228901832
 21
413.6571901749877
 31
0.0
  0
LINE
  5
17B73
330
17B6F
100
AcDbEntity
  8
DIM
 62
     0
370
    -2
100
AcDbLine
 10
1115.322365206971
 20
443.3614356854945
 30
0.0
 11
1142.081228901832
 21
443.3614356854945
 31
0.0
  0
LINE
  5
17B74
330
17B6F
100
AcDbEntity
  8
DIM
 62
     0
370
    -2
100
AcDbLine
 10
1142.081228901832
 20
416.6571901749877
 30
0.0
 11
1142.081228901832
 21
440.3614356854945
 31
0.0
  0
INSERT
  5
17B75
330
17B6F
100
AcDbEntity
  8
DIM
 62
     0
370
    -2
100
AcDbBlockReference
  2
_DOT
 10
1142.081228901832
 20
413.6571901749877
 30
0.0
 41
3.0
 42
3.0
 43
3.0
 50
270.0
  0
INSERT
  5
17B76
330
17B6F
100
AcDbEntity
  8
DIM
 62
     0
370
    -2
100
AcDbBlockReference
  2
_DOT
 10
1142.081228901832
 20
443.3614356854945
 30
0.0
 41
3.0
 42
3.0
 43
3.0
 50
90.0
  0
MTEXT
  5
17B77
330
17B6F
100
AcDbEntity
  8
DIM
 62
     0
100
AcDbMText
 10
1135.081228901832
 20
428.5093129302411
 30
0.0
 40
6.0
 41
0.0
 46
0.0
 71
     5
 72
     1
  1
\A1;30
  7
ＭＳ ゴシック
 11
0.0
 21
1.0
 31
0.0
 73
     1
 44
1.0
  0
POINT
  5
17B78
330
17B6F
100
AcDbEntity
  8
Defpoints
 62
     0
100
AcDbPoint
 10
1106.120246854099
 20
413.6571901749877
 30
0.0
  0
POINT
  5
17B79
330
17B6F
100
AcDbEntity
  8
Defpoints
 62
     0
100
AcDbPoint
 10
1110.322365206971
 20
443.3614356854945
 30
0.0
  0
POINT
  5
17B7A
330
17B6F
100
AcDbEntity
  8
Defpoints
 62
     0
100
AcDbPoint
 10
1142.081228901832
 20
443.3614356854945
 30
0.0
  0
ENDBLK
  5
17B71
330
17B6F
100
AcDbEntity
  8
0
100
AcDbBlockEnd
  0
BLOCK
  5
17B7F
330
17B7E
100
AcDbEntity
  8
0
100
AcDbBlockBegin
  2
*D87
 70
     1
 10
0.0
 20
0.0
 30
0.0
  3
*D87
  1

  0
LINE
  5
17B81
330
17B7E
100
AcDbEntity
  8
DIM
 62
     0
370
    -2
100
AcDbLine
 10
1236.730741689291
 20
599.301088664352
 30
0.0
 11
1236.730741689291
 21
588.5872482331305
 31
0.0
  0
LINE
  5
17B82
330
17B7E
100
AcDbEntity
  8
DIM
 62
     0
370
    -2
100
AcDbLine
 10
1216.730741689291
 20
599.301088664352
 30
0.0
 11
1216.730741689291
 21
588.5872482331305
 31
0.0
  0
LINE
  5
17B83
330
17B7E
100
AcDbEntity
  8
DIM
 62
     0
370
    -2
100
AcDbLine
 10
1233.730741689291
 20
588.5872482331305
 30
0.0
 11
1219.730741689291
 21
588.5872482331305
 31
0.0
  0
INSERT
  5
17B84
330
17B7E
100
AcDbEntity
  8
DIM
 62
     0
370
    -2
100
AcDbBlockReference
  2
_DOT
 10
1236.730741689291
 20
588.5872482331305
 30
0.0
 41
3.0
 42
3.0
 43
3.0
  0
INSERT
  5
17B85
330
17B7E
100
AcDbEntity
  8
DIM
 62
     0
370
    -2
100
AcDbBlockReference
  2
_DOT
 10
1216.730741689291
 20
588.5872482331305
 30
0.0
 41
3.0
 42
3.0
 43
3.0
 50
180.0
  0
MTEXT
  5
17B86
330
17B7E
100
AcDbEntity
  8
DIM
 62
     0
100
AcDbMText
 10
1226.730741689291
 20
595.5872482331305
 30
0.0
 40
6.0
 41
0.0
 46
0.0
 71
     5
 72
     1
  1
\A1;20
  7
ＭＳ ゴシック
 73
     1
 44
1.0
  0
POINT
  5
17B87
330
17B7E
100
AcDbEntity
  8
Defpoints
 62
     0
100
AcDbPoint
 10
1236.730741689291
 20
604.301088664352
 30
0.0
  0
POINT
  5
17B88
330
17B7E
100
AcDbEntity
  8
Defpoints
 62
     0
100
AcDbPoint
 10
1216.730741689291
 20
604.301088664352
 30
0.0
  0
POINT
  5
17B89
330
17B7E
100
AcDbEntity
  8
Defpoints
 62
     0
100
AcDbPoint
 10
1216.730741689291
 20
588.5872482331305
 30
0.0
  0
ENDBLK
  5
17B80
330
17B7E
100
AcDbEntity
  8
0
100
AcDbBlockEnd
  0
BLOCK
  5
17B8F
330
17B8E
100
AcDbEntity
  8
0
100
AcDbBlockBegin
  2
*D88
 70
     1
 10
0.0
 20
0.0
 30
0.0
  3
*D88
  1

  0
LINE
  5
17B91
330
17B8E
100
AcDbEntity
  8
DIM
 62
     0
370
    -2
100
AcDbLine
 10
1114.443615036748
 20
443.3614356854945
 30
0.0
 11
1109.56225796009
 21
443.3614356854945
 31
0.0
  0
LINE
  5
17B92
330
17B8E
100
AcDbEntity
  8
DIM
 62
     0
370
    -2
100
AcDbLine
 10
1114.443615036748
 20
458.5365003522501
 30
0.0
 11
1109.56225796009
 21
458.5365003522501
 31
0.0
  0
LINE
  5
17B93
330
17B8E
100
AcDbEntity
  8
DIM
 62
     0
370
    -2
100
AcDbLine
 10
1109.56225796009
 20
446.3614356854945
 30
0.0
 11
1109.56225796009
 21
455.5365003522501
 31
0.0
  0
INSERT
  5
17B94
330
17B8E
100
AcDbEntity
  8
DIM
 62
     0
370
    -2
100
AcDbBlockReference
  2
_DOT
 10
1109.56225796009
 20
443.3614356854945
 30
0.0
 41
3.0
 42
3.0
 43
3.0
 50
270.0
  0
INSERT
  5
17B95
330
17B8E
100
AcDbEntity
  8
DIM
 62
     0
370
    -2
100
AcDbBlockReference
  2
_DOT
 10
1109.56225796009
 20
458.5365003522501
 30
0.0
 41
3.0
 42
3.0
 43
3.0
 50
90.0
  0
MTEXT
  5
17B96
330
17B8E
100
AcDbEntity
  8
DIM
 62
     0
100
AcDbMText
 10
1102.56225796009
 20
450.9489680188723
 30
0.0
 40
6.0
 41
0.0
 46
0.0
 71
     5
 72
     1
  1
\A1;15
  7
ＭＳ ゴシック
 11
0.0
 21
1.0
 31
0.0
 73
     1
 44
1.0
  0
POINT
  5
17B97
330
17B8E
100
AcDbEntity
  8
Defpoints
 62
     0
100
AcDbPoint
 10
1109.443615036748
 20
443.3614356854945
 30
0.0
  0
POINT
  5
17B98
330
17B8E
100
AcDbEntity
  8
Defpoints
 62
     0
100
AcDbPoint
 10
1109.443615036748
 20
458.5365003522501
 30
0.0
  0
POINT
  5
17B99
330
17B8E
100
AcDbEntity
  8
Defpoints
 62
     0
100
AcDbPoint
 10
1109.56225796009
 20
458.5365003522501
 30
0.0
  0
ENDBLK
  5
17B90
330
17B8E
100
AcDbEntity
  8
0
100
AcDbBlockEnd
  0
BLOCK
  5
17B9E
330
17B9D
100
AcDbEntity
  8
0
100
AcDbBlockBegin
  2
*D89
 70
     1
 10
0.0
 20
0.0
 30
0.0
  3
*D89
  1

  0
LINE
  5
17BA0
330
17B9D
100
AcDbEntity
  8
DIM
 62
     0
370
    -2
100
AcDbLine
 10
1111.120246854099
 20
413.5365003522521
 30
0.0
 11
1162.121073000581
 21
413.5365003522521
 31
0.0
  0
LINE
  5
17BA1
330
17B9D
100
AcDbEntity
  8
DIM
 62
     0
370
    -2
100
AcDbLine
 10
1111.120246854099
 20
443.3614356854945
 30
0.0
 11
1162.121073000581
 21
443.3614356854945
 31
0.0
  0
LINE
  5
17BA2
330
17B9D
100
AcDbEntity
  8
DIM
 62
     0
370
    -2
100
AcDbLine
 10
1162.121073000581
 20
416.5365003522521
 30
0.0
 11
1162.121073000581
 21
440.3614356854945
 31
0.0
  0
INSERT
  5
17BA3
330
17B9D
100
AcDbEntity
  8
DIM
 62
     0
370
    -2
100
AcDbBlockReference
  2
_DOT
 10
1162.121073000581
 20
413.5365003522521
 30
0.0
 41
3.0
 42
3.0
 43
3.0
 50
270.0
  0
INSERT
  5
17BA4
330
17B9D
100
AcDbEntity
  8
DIM
 62
     0
370
    -2
100
AcDbBlockReference
  2
_DOT
 10
1162.121073000581
 20
443.3614356854945
 30
0.0
 41
3.0
 42
3.0
 43
3.0
 50
90.0
  0
MTEXT
  5
17BA5
330
17B9D
100
AcDbEntity
  8
DIM
 62
     0
100
AcDbMText
 10
1155.121073000581
 20
428.4489680188733
 30
0.0
 40
6.0
 41
0.0
 46
0.0
 71
     5
 72
     1
  1
\A1;30
  7
ＭＳ ゴシック
 11
0.0
 21
1.0
 31
0.0
 73
     1
 44
1.0
  0
POINT
  5
17BA6
330
17B9D
100
AcDbEntity
  8
Defpoints
 62
     0
100
AcDbPoint
 10
1106.120246854099
 20
413.5365003522521
 30
0.0
  0
POINT
  5
17BA7
330
17B9D
100
AcDbEntity
  8
Defpoints
 62
     0
100
AcDbPoint
 10
1106.120246854099
 20
443.3614356854945
 30
0.0
  0
POINT
  5
17BA8
330
17B9D
100
AcDbEntity
  8
Defpoints
 62
     0
100
AcDbPoint
 10
1162.121073000581
 20
443.3614356854945
 30
0.0
  0
ENDBLK
  5
17B9F
330
17B9D
100
AcDbEntity
  8
0
100
AcDbBlockEnd
  0
BLOCK
  5
17BB4
330
17BB3
100
AcDbEntity
  8
0
100
AcDbBlockBegin
  2
*D90
 70
     1
 10
0.0
 20
0.0
 30
0.0
  3
*D90
  1

  0
LINE
  5
17BB6
330
17BB3
100
AcDbEntity
  8
MODEL
 62
     0
370
    -2
100
AcDbLine
 10
1022.641696491668
 20
326.0364824332567
 30
0.0
 11
987.0899160525184
 21
326.0364824332567
 31
0.0
  0
LINE
  5
17BB7
330
17BB3
100
AcDbEntity
  8
MODEL
 62
     0
370
    -2
100
AcDbLine
 10
1022.641696491668
 20
299.0364824332567
 30
0.0
 11
987.0899160525184
 21
299.0364824332567
 31
0.0
  0
LINE
  5
17BB8
330
17BB3
100
AcDbEntity
  8
MODEL
 62
     0
370
    -2
100
AcDbLine
 10
987.0899160525184
 20
323.0364824332567
 30
0.0
 11
987.0899160525184
 21
302.0364824332567
 31
0.0
  0
INSERT
  5
17BB9
330
17BB3
100
AcDbEntity
  8
MODEL
 62
     0
370
    -2
100
AcDbBlockReference
  2
_DOT
 10
987.0899160525184
 20
326.0364824332567
 30
0.0
 41
3.0
 42
3.0
 43
3.0
 50
90.0
  0
INSERT
  5
17BBA
330
17BB3
100
AcDbEntity
  8
MODEL
 62
     0
370
    -2
100
AcDbBlockReference
  2
_DOT
 10
987.0899160525184
 20
299.0364824332567
 30
0.0
 41
3.0
 42
3.0
 43
3.0
 50
270.0
  0
MTEXT
  5
17BBB
330
17BB3
100
AcDbEntity
  8
MODEL
 62
     0
100
AcDbMText
 10
980.0899160525184
 20
312.5364824332567
 30
0.0
 40
6.0
 41
0.0
 46
0.0
 71
     5
 72
     1
  1
\A1;27
  7
ＭＳ ゴシック
 11
0.0
 21
1.0
 31
0.0
 73
     1
 44
1.0
  0
POINT
  5
17BBC
330
17BB3
100
AcDbEntity
  8
Defpoints
 62
     0
100
AcDbPoint
 10
1027.641696491668
 20
326.0364824332567
 30
0.0
  0
POINT
  5
17BBD
330
17BB3
100
AcDbEntity
  8
Defpoints
 62
     0
100
AcDbPoint
 10
1027.641696491668
 20
299.0364824332567
 30
0.0
  0
POINT
  5
17BBE
330
17BB3
100
AcDbEntity
  8
Defpoints
 62
     0
100
AcDbPoint
 10
987.0899160525184
 20
299.0364824332567
 30
0.0
  0
ENDBLK
  5
17BB5
330
17BB3
100
AcDbEntity
  8
0
100
AcDbBlockEnd
  0
BLOCK
  5
17BC1
330
17BC0
100
AcDbEntity
  8
0
100
AcDbBlockBegin
  2
*D91
 70
     1
 10
0.0
 20
0.0
 30
0.0
  3
*D91
  1

  0
LINE
  5
17BC3
330
17BC0
100
AcDbEntity
  8
MODEL
 62
     0
370
    -2
100
AcDbLine
 10
1027.641696491668
 20
329.2227520654512
 30
0.0
 11
1027.641696491668
 21
345.6572645832871
 31
0.0
  0
LINE
  5
17BC4
330
17BC0
100
AcDbEntity
  8
MODEL
 62
     0
370
    -2
100
AcDbLine
 10
1047.641696491668
 20
329.2227520654512
 30
0.0
 11
1047.641696491668
 21
345.6572645832871
 31
0.0
  0
LINE
  5
17BC5
330
17BC0
100
AcDbEntity
  8
MODEL
 62
     0
370
    -2
100
AcDbLine
 10
1030.641696491668
 20
345.6572645832871
 30
0.0
 11
1044.641696491668
 21
345.6572645832871
 31
0.0
  0
INSERT
  5
17BC6
330
17BC0
100
AcDbEntity
  8
MODEL
 62
     0
370
    -2
100
AcDbBlockReference
  2
_DOT
 10
1027.641696491668
 20
345.6572645832871
 30
0.0
 41
3.0
 42
3.0
 43
3.0
 50
180.0
  0
INSERT
  5
17BC7
330
17BC0
100
AcDbEntity
  8
MODEL
 62
     0
370
    -2
100
AcDbBlockReference
  2
_DOT
 10
1047.641696491668
 20
345.6572645832871
 30
0.0
 41
3.0
 42
3.0
 43
3.0
  0
MTEXT
  5
17BC8
330
17BC0
100
AcDbEntity
  8
MODEL
 62
     0
100
AcDbMText
 10
1037.641696491668
 20
352.6572645832871
 30
0.0
 40
6.0
 41
0.0
 46
0.0
 71
     5
 72
     1
  1
\A1;20
  7
ＭＳ ゴシック
 73
     1
 44
1.0
  0
POINT
  5
17BC9
330
17BC0
100
AcDbEntity
  8
Defpoints
 62
     0
100
AcDbPoint
 10
1027.641696491668
 20
324.2227520654512
 30
0.0
  0
POINT
  5
17BCA
330
17BC0
100
AcDbEntity
  8
Defpoints
 62
     0
100
AcDbPoint
 10
1047.641696491668
 20
324.2227520654512
 30
0.0
  0
POINT
  5
17BCB
330
17BC0
100
AcDbEntity
  8
Defpoints
 62
     0
100
AcDbPoint
 10
1047.641696491668
 20
345.6572645832871
 30
0.0
  0
ENDBLK
  5
17BC2
330
17BC0
100
AcDbEntity
  8
0
100
AcDbBlockEnd
  0
BLOCK
  5
17BD1
330
17BD0
100
AcDbEntity
  8
0
100
AcDbBlockBegin
  2
*D92
 70
     1
 10
0.0
 20
0.0
 30
0.0
  3
*D92
  1

  0
LINE
  5
17BD3
330
17BD0
100
AcDbEntity
  8
MODEL
 62
     0
370
    -2
100
AcDbLine
 10
1022.641696491668
 20
326.0364824332567
 30
0.0
 11
987.6692272016492
 21
326.0364824332567
 31
0.0
  0
LINE
  5
17BD4
330
17BD0
100
AcDbEntity
  8
MODEL
 62
     0
370
    -2
100
AcDbLine
 10
1022.641696491668
 20
299.0364824332567
 30
0.0
 11
987.6692272016492
 21
299.0364824332567
 31
0.0
  0
LINE
  5
17BD5
330
17BD0
100
AcDbEntity
  8
MODEL
 62
     0
370
    -2
100
AcDbLine
 10
987.6692272016492
 20
323.0364824332567
 30
0.0
 11
987.6692272016492
 21
302.0364824332567
 31
0.0
  0
INSERT
  5
17BD6
330
17BD0
100
AcDbEntity
  8
MODEL
 62
     0
370
    -2
100
AcDbBlockReference
  2
_DOT
 10
987.6692272016492
 20
326.0364824332567
 30
0.0
 41
3.0
 42
3.0
 43
3.0
 50
90.0
  0
INSERT
  5
17BD7
330
17BD0
100
AcDbEntity
  8
MODEL
 62
     0
370
    -2
100
AcDbBlockReference
  2
_DOT
 10
987.6692272016492
 20
299.0364824332567
 30
0.0
 41
3.0
 42
3.0
 43
3.0
 50
270.0
  0
MTEXT
  5
17BD8
330
17BD0
100
AcDbEntity
  8
MODEL
 62
     0
100
AcDbMText
 10
980.6692272016492
 20
312.5364824332567
 30
0.0
 40
6.0
 41
0.0
 46
0.0
 71
     5
 72
     1
  1
\A1;27
  7
ＭＳ ゴシック
 11
0.0
 21
1.0
 31
0.0
 73
     1
 44
1.0
  0
POINT
  5
17BD9
330
17BD0
100
AcDbEntity
  8
Defpoints
 62
     0
100
AcDbPoint
 10
1027.641696491668
 20
326.0364824332567
 30
0.0
  0
POINT
  5
17BDA
330
17BD0
100
AcDbEntity
  8
Defpoints
 62
     0
100
AcDbPoint
 10
1027.641696491668
 20
299.0364824332567
 30
0.0
  0
POINT
  5
17BDB
330
17BD0
100
AcDbEntity
  8
Defpoints
 62
     0
100
AcDbPoint
 10
987.6692272016492
 20
299.0364824332567
 30
0.0
  0
ENDBLK
  5
17BD2
330
17BD0
100
AcDbEntity
  8
0
100
AcDbBlockEnd
  0
BLOCK
  5
17BE6
330
17BE5
100
AcDbEntity
  8
0
100
AcDbBlockBegin
  2
*D93
 70
     1
 10
0.0
 20
0.0
 30
0.0
  3
*D93
  1

  0
LINE
  5
17BE8
330
17BE5
100
AcDbEntity
  8
MODEL
 62
     0
370
    -2
100
AcDbLine
 10
1022.641696491668
 20
326.0364824332567
 30
0.0
 11
1023.306711162723
 21
326.0364824332567
 31
0.0
  0
LINE
  5
17BE9
330
17BE5
100
AcDbEntity
  8
MODEL
 62
     0
370
    -2
100
AcDbLine
 10
1022.641696491668
 20
299.0364824332567
 30
0.0
 11
1023.306711162723
 21
299.0364824332567
 31
0.0
  0
LINE
  5
17BEA
330
17BE5
100
AcDbEntity
  8
MODEL
 62
     0
370
    -2
100
AcDbLine
 10
1023.306711162723
 20
323.0364824332567
 30
0.0
 11
1023.306711162723
 21
302.0364824332567
 31
0.0
  0
INSERT
  5
17BEB
330
17BE5
100
AcDbEntity
  8
MODEL
 62
     0
370
    -2
100
AcDbBlockReference
  2
_DOT
 10
1023.306711162723
 20
326.0364824332567
 30
0.0
 41
3.0
 42
3.0
 43
3.0
 50
90.0
  0
INSERT
  5
17BEC
330
17BE5
100
AcDbEntity
  8
MODEL
 62
     0
370
    -2
100
AcDbBlockReference
  2
_DOT
 10
1023.306711162723
 20
299.0364824332567
 30
0.0
 41
3.0
 42
3.0
 43
3.0
 50
270.0
  0
MTEXT
  5
17BED
330
17BE5
100
AcDbEntity
  8
MODEL
 62
     0
100
AcDbMText
 10
1016.306711162723
 20
312.5364824332567
 30
0.0
 40
6.0
 41
0.0
 46
0.0
 71
     5
 72
     1
  1
\A1;27
  7
ＭＳ ゴシック
 11
0.0
 21
1.0
 31
0.0
 73
     1
 44
1.0
  0
POINT
  5
17BEE
330
17BE5
100
AcDbEntity
  8
Defpoints
 62
     0
100
AcDbPoint
 10
1027.641696491668
 20
326.0364824332567
 30
0.0
  0
POINT
  5
17BEF
330
17BE5
100
AcDbEntity
  8
Defpoints
 62
     0
100
AcDbPoint
 10
1027.641696491668
 20
299.0364824332567
 30
0.0
  0
POINT
  5
17BF0
330
17BE5
100
AcDbEntity
  8
Defpoints
 62
     0
100
AcDbPoint
 10
1023.306711162723
 20
299.0364824332567
 30
0.0
  0
ENDBLK
  5
17BE7
330
17BE5
100
AcDbEntity
  8
0
100
AcDbBlockEnd
  0
BLOCK
  5
17BFC
330
17BFB
100
AcDbEntity
  8
0
100
AcDbBlockBegin
  2
*D94
 70
     1
 10
0.0
 20
0.0
 30
0.0
  3
*D94
  1

  0
LINE
  5
17BFE
330
17BFB
100
AcDbEntity
  8
MODEL
 62
     0
370
    -2
100
AcDbLine
 10
1025.616005062513
 20
279.0364824332567
 30
0.0
 11
1000.955274227021
 21
279.0364824332567
 31
0.0
  0
LINE
  5
17BFF
330
17BFB
100
AcDbEntity
  8
MODEL
 62
     0
370
    -2
100
AcDbLine
 10
1022.641696491668
 20
326.0364824332567
 30
0.0
 11
1000.955274227021
 21
326.0364824332567
 31
0.0
  0
LINE
  5
17C00
330
17BFB
100
AcDbEntity
  8
MODEL
 62
     0
370
    -2
100
AcDbLine
 10
1000.955274227021
 20
282.0364824332567
 30
0.0
 11
1000.955274227021
 21
323.0364824332567
 31
0.0
  0
INSERT
  5
17C01
330
17BFB
100
AcDbEntity
  8
MODEL
 62
     0
370
    -2
100
AcDbBlockReference
  2
_DOT
 10
1000.955274227021
 20
279.0364824332567
 30
0.0
 41
3.0
 42
3.0
 43
3.0
 50
270.0
  0
INSERT
  5
17C02
330
17BFB
100
AcDbEntity
  8
MODEL
 62
     0
370
    -2
100
AcDbBlockReference
  2
_DOT
 10
1000.955274227021
 20
326.0364824332567
 30
0.0
 41
3.0
 42
3.0
 43
3.0
 50
90.0
  0
MTEXT
  5
17C03
330
17BFB
100
AcDbEntity
  8
MODEL
 62
     0
100
AcDbMText
 10
993.955274227021
 20
302.5364824332567
 30
0.0
 40
6.0
 41
0.0
 46
0.0
 71
     5
 72
     1
  1
\A1;47
  7
ＭＳ ゴシック
 11
0.0
 21
1.0
 31
0.0
 73
     1
 44
1.0
  0
POINT
  5
17C04
330
17BFB
100
AcDbEntity
  8
Defpoints
 62
     0
100
AcDbPoint
 10
1030.616005062513
 20
279.0364824332567
 30
0.0
  0
POINT
  5
17C05
330
17BFB
100
AcDbEntity
  8
Defpoints
 62
     0
100
AcDbPoint
 10
1027.641696491668
 20
326.0364824332567
 30
0.0
  0
POINT
  5
17C06
330
17BFB
100
AcDbEntity
  8
Defpoints
 62
     0
100
AcDbPoint
 10
1000.955274227021
 20
326.0364824332567
 30
0.0
  0
ENDBLK
  5
17BFD
330
17BFB
100
AcDbEntity
  8
0
100
AcDbBlockEnd
  0
BLOCK
  5
17C0B
330
17C0A
100
AcDbEntity
  8
0
100
AcDbBlockBegin
  2
*D95
 70
     1
 10
0.0
 20
0.0
 30
0.0
  3
*D95
  1

  0
LINE
  5
17C0D
330
17C0A
100
AcDbEntity
  8
MODEL
 62
     0
370
    -2
100
AcDbLine
 10
1022.641696491668
 20
279.0364824332567
 30
0.0
 11
960.4034937878721
 21
279.0364824332567
 31
0.0
  0
LINE
  5
17C0E
330
17C0A
100
AcDbEntity
  8
MODEL
 62
     0
370
    -2
100
AcDbLine
 10
1022.641696491668
 20
289.0364824332567
 30
0.0
 11
960.4034937878721
 21
289.0364824332567
 31
0.0
  0
LINE
  5
17C0F
330
17C0A
100
AcDbEntity
  8
MODEL
 62
     0
370
    -2
100
AcDbLine
 10
960.4034937878721
 20
276.0364824332567
 30
0.0
 11
960.4034937878721
 21
273.0364824332567
 31
0.0
  0
LINE
  5
17C10
330
17C0A
100
AcDbEntity
  8
MODEL
 62
     0
370
    -2
100
AcDbLine
 10
960.4034937878721
 20
292.0364824332567
 30
0.0
 11
960.4034937878721
 21
295.0364824332567
 31
0.0
  0
INSERT
  5
17C11
330
17C0A
100
AcDbEntity
  8
MODEL
 62
     0
370
    -2
100
AcDbBlockReference
  2
_DOT
 10
960.4034937878721
 20
279.0364824332567
 30
0.0
 41
3.0
 42
3.0
 43
3.0
 50
90.0
  0
INSERT
  5
17C12
330
17C0A
100
AcDbEntity
  8
MODEL
 62
     0
370
    -2
100
AcDbBlockReference
  2
_DOT
 10
960.4034937878721
 20
289.0364824332567
 30
0.0
 41
3.0
 42
3.0
 43
3.0
 50
270.0
  0
MTEXT
  5
17C13
330
17C0A
100
AcDbEntity
  8
MODEL
 62
     0
100
AcDbMText
 10
953.4034937878721
 20
284.0364824332567
 30
0.0
 40
6.0
 41
0.0
 46
0.0
 71
     5
 72
     1
  1
\A1;10
  7
ＭＳ ゴシック
 11
0.0
 21
1.0
 31
0.0
 73
     1
 44
1.0
  0
POINT
  5
17C14
330
17C0A
100
AcDbEntity
  8
Defpoints
 62
     0
100
AcDbPoint
 10
1027.641696491668
 20
279.0364824332567
 30
0.0
  0
POINT
  5
17C15
330
17C0A
100
AcDbEntity
  8
Defpoints
 62
     0
100
AcDbPoint
 10
1027.641696491668
 20
289.0364824332567
 30
0.0
  0
POINT
  5
17C16
330
17C0A
100
AcDbEntity
  8
Defpoints
 62
     0
100
AcDbPoint
 10
960.4034937878721
 20
289.0364824332567
 30
0.0
  0
ENDBLK
  5
17C0C
330
17C0A
100
AcDbEntity
  8
0
100
AcDbBlockEnd
  0
BLOCK
  5
17C1B
330
17C1A
100
AcDbEntity
  8
0
100
AcDbBlockBegin
  2
*D96
 70
     1
 10
0.0
 20
0.0
 30
0.0
  3
*D96
  1

  0
LINE
  5
17C1D
330
17C1A
100
AcDbEntity
  8
MODEL
 62
     0
370
    -2
100
AcDbLine
 10
1032.641696491668
 20
294.1330225555498
 30
0.0
 11
1032.641696491668
 21
265.0695269866647
 31
0.0
  0
LINE
  5
17C1E
330
17C1A
100
AcDbEntity
  8
MODEL
 62
     0
370
    -2
100
AcDbLine
 10
1047.641696491668
 20
294.1330225555498
 30
0.0
 11
1047.641696491668
 21
265.0695269866647
 31
0.0
  0
LINE
  5
17C1F
330
17C1A
100
AcDbEntity
  8
MODEL
 62
     0
370
    -2
100
AcDbLine
 10
1035.641696491668
 20
265.0695269866647
 30
0.0
 11
1044.641696491668
 21
265.0695269866647
 31
0.0
  0
INSERT
  5
17C20
330
17C1A
100
AcDbEntity
  8
MODEL
 62
     0
370
    -2
100
AcDbBlockReference
  2
_DOT
 10
1032.641696491668
 20
265.0695269866647
 30
0.0
 41
3.0
 42
3.0
 43
3.0
 50
180.0
  0
INSERT
  5
17C21
330
17C1A
100
AcDbEntity
  8
MODEL
 62
     0
370
    -2
100
AcDbBlockReference
  2
_DOT
 10
1047.641696491668
 20
265.0695269866647
 30
0.0
 41
3.0
 42
3.0
 43
3.0
  0
MTEXT
  5
17C22
330
17C1A
100
AcDbEntity
  8
MODEL
 62
     0
100
AcDbMText
 10
1040.141696491668
 20
272.0695269866647
 30
0.0
 40
6.0
 41
0.0
 46
0.0
 71
     5
 72
     1
  1
\A1;15
  7
ＭＳ ゴシック
 73
     1
 44
1.0
  0
POINT
  5
17C23
330
17C1A
100
AcDbEntity
  8
Defpoints
 62
     0
100
AcDbPoint
 10
1032.641696491668
 20
299.1330225555498
 30
0.0
  0
POINT
  5
17C24
330
17C1A
100
AcDbEntity
  8
Defpoints
 62
     0
100
AcDbPoint
 10
1047.641696491668
 20
299.1330225555498
 30
0.0
  0
POINT
  5
17C25
330
17C1A
100
AcDbEntity
  8
Defpoints
 62
     0
100
AcDbPoint
 10
1047.641696491668
 20
265.0695269866647
 30
0.0
  0
ENDBLK
  5
17C1C
330
17C1A
100
AcDbEntity
  8
0
100
AcDbBlockEnd
  0
BLOCK
  5
17C33
330
17C32
100
AcDbEntity
  8
0
100
AcDbBlockBegin
  2
*D97
 70
     1
 10
0.0
 20
0.0
 30
0.0
  3
*D97
  1

  0
LINE
  5
17C35
330
17C32
100
AcDbEntity
  8
MODEL
 62
     0
370
    -2
100
AcDbLine
 10
1027.641696491668
 20
289.0364824332567
 30
0.0
 11
1016.228400204314
 21
289.0364824332567
 31
0.0
  0
LINE
  5
17C36
330
17C32
100
AcDbEntity
  8
MODEL
 62
     0
370
    -2
100
AcDbLine
 10
1027.641696491668
 20
279.0364824332567
 30
0.0
 11
1016.228400204314
 21
279.0364824332567
 31
0.0
  0
LINE
  5
17C37
330
17C32
100
AcDbEntity
  8
MODEL
 62
     0
370
    -2
100
AcDbLine
 10
1016.228400204314
 20
292.0364824332567
 30
0.0
 11
1016.228400204314
 21
295.0364824332567
 31
0.0
  0
LINE
  5
17C38
330
17C32
100
AcDbEntity
  8
MODEL
 62
     0
370
    -2
100
AcDbLine
 10
1016.228400204314
 20
276.0364824332567
 30
0.0
 11
1016.228400204314
 21
273.0364824332567
 31
0.0
  0
INSERT
  5
17C39
330
17C32
100
AcDbEntity
  8
MODEL
 62
     0
370
    -2
100
AcDbBlockReference
  2
_DOT
 10
1016.228400204314
 20
289.0364824332567
 30
0.0
 41
3.0
 42
3.0
 43
3.0
 50
270.0
  0
INSERT
  5
17C3A
330
17C32
100
AcDbEntity
  8
MODEL
 62
     0
370
    -2
100
AcDbBlockReference
  2
_DOT
 10
1016.228400204314
 20
279.0364824332567
 30
0.0
 41
3.0
 42
3.0
 43
3.0
 50
90.0
  0
MTEXT
  5
17C3B
330
17C32
100
AcDbEntity
  8
MODEL
 62
     0
100
AcDbMText
 10
1009.228400204314
 20
284.0364824332567
 30
0.0
 40
6.0
 41
0.0
 46
0.0
 71
     5
 72
     1
  1
\A1;10
  7
ＭＳ ゴシック
 11
0.0
 21
1.0
 31
0.0
 73
     1
 44
1.0
  0
POINT
  5
17C3C
330
17C32
100
AcDbEntity
  8
Defpoints
 62
     0
100
AcDbPoint
 10
1032.641696491668
 20
289.0364824332567
 30
0.0
  0
POINT
  5
17C3D
330
17C32
100
AcDbEntity
  8
Defpoints
 62
     0
100
AcDbPoint
 10
1032.641696491668
 20
279.0364824332567
 30
0.0
  0
POINT
  5
17C3E
330
17C32
100
AcDbEntity
  8
Defpoints
 62
     0
100
AcDbPoint
 10
1016.228400204314
 20
279.0364824332567
 30
0.0
  0
ENDBLK
  5
17C34
330
17C32
100
AcDbEntity
  8
0
100
AcDbBlockEnd
  0
BLOCK
  5
17C53
330
17C52
100
AcDbEntity
  8
0
100
AcDbBlockBegin
  2
*D98
 70
     1
 10
0.0
 20
0.0
 30
0.0
  3
*D98
  1

  0
LINE
  5
17C55
330
17C52
100
AcDbEntity
  8
MODEL
 62
     0
370
    -2
100
AcDbLine
 10
1052.641696491668
 20
313.5658941979624
 30
0.0
 11
1052.641696491668
 21
320.9557569641087
 31
0.0
  0
LINE
  5
17C56
330
17C52
100
AcDbEntity
  8
MODEL
 62
     0
370
    -2
100
AcDbLine
 10
1047.641696491668
 20
317.5364824332567
 30
0.0
 11
1047.641696491668
 21
320.9557569641087
 31
0.0
  0
LINE
  5
17C57
330
17C52
100
AcDbEntity
  8
MODEL
 62
     0
370
    -2
100
AcDbLine
 10
1055.641696491668
 20
320.9557569641087
 30
0.0
 11
1058.641696491668
 21
320.9557569641087
 31
0.0
  0
LINE
  5
17C58
330
17C52
100
AcDbEntity
  8
MODEL
 62
     0
370
    -2
100
AcDbLine
 10
1044.641696491668
 20
320.9557569641087
 30
0.0
 11
1041.641696491668
 21
320.9557569641087
 31
0.0
  0
INSERT
  5
17C59
330
17C52
100
AcDbEntity
  8
MODEL
 62
     0
370
    -2
100
AcDbBlockReference
  2
_DOT
 10
1052.641696491668
 20
320.9557569641087
 30
0.0
 41
3.0
 42
3.0
 43
3.0
 50
180.0
  0
INSERT
  5
17C5A
330
17C52
100
AcDbEntity
  8
MODEL
 62
     0
370
    -2
100
AcDbBlockReference
  2
_DOT
 10
1047.641696491668
 20
320.9557569641087
 30
0.0
 41
3.0
 42
3.0
 43
3.0
  0
MTEXT
  5
17C5B
330
17C52
100
AcDbEntity
  8
MODEL
 62
     0
100
AcDbMText
 10
1050.141696491668
 20
327.9557569641087
 30
0.0
 40
6.0
 41
0.0
 46
0.0
 71
     5
 72
     1
  1
\A1;5
  7
ＭＳ ゴシック
 73
     1
 44
1.0
  0
POINT
  5
17C5C
330
17C52
100
AcDbEntity
  8
Defpoints
 62
     0
100
AcDbPoint
 10
1052.641696491668
 20
308.5658941979624
 30
0.0
  0
POINT
  5
17C5D
330
17C52
100
AcDbEntity
  8
Defpoints
 62
     0
100
AcDbPoint
 10
1047.641696491668
 20
312.5364824332567
 30
0.0
  0
POINT
  5
17C5E
330
17C52
100
AcDbEntity
  8
Defpoints
 62
     0
100
AcDbPoint
 10
1047.641696491668
 20
320.9557569641087
 30
0.0
  0
ENDBLK
  5
17C54
330
17C52
100
AcDbEntity
  8
0
100
AcDbBlockEnd
  0
BLOCK
  5
17C63
330
17C62
100
AcDbEntity
  8
0
100
AcDbBlockBegin
  2
*D99
 70
     1
 10
0.0
 20
0.0
 30
0.0
  3
*D99
  1

  0
LINE
  5
17C65
330
17C62
100
AcDbEntity
  8
MODEL
 62
     0
370
    -2
100
AcDbLine
 10
1022.641696491668
 20
279.0364824332567
 30
0.0
 11
1012.550469580713
 21
279.0364824332567
 31
0.0
  0
LINE
  5
17C66
330
17C62
100
AcDbEntity
  8
MODEL
 62
     0
370
    -2
100
AcDbLine
 10
1027.641696491668
 20
289.0364824332567
 30
0.0
 11
1012.550469580713
 21
289.0364824332567
 31
0.0
  0
LINE
  5
17C67
330
17C62
100
AcDbEntity
  8
MODEL
 62
     0
370
    -2
100
AcDbLine
 10
1012.550469580713
 20
276.0364824332567
 30
0.0
 11
1012.550469580713
 21
273.0364824332567
 31
0.0
  0
LINE
  5
17C68
330
17C62
100
AcDbEntity
  8
MODEL
 62
     0
370
    -2
100
AcDbLine
 10
1012.550469580713
 20
292.0364824332567
 30
0.0
 11
1012.550469580713
 21
295.0364824332567
 31
0.0
  0
INSERT
  5
17C69
330
17C62
100
AcDbEntity
  8
MODEL
 62
     0
370
    -2
100
AcDbBlockReference
  2
_DOT
 10
1012.550469580713
 20
279.0364824332567
 30
0.0
 41
3.0
 42
3.0
 43
3.0
 50
90.0
  0
INSERT
  5
17C6A
330
17C62
100
AcDbEntity
  8
MODEL
 62
     0
370
    -2
100
AcDbBlockReference
  2
_DOT
 10
1012.550469580713
 20
289.0364824332567
 30
0.0
 41
3.0
 42
3.0
 43
3.0
 50
270.0
  0
MTEXT
  5
17C6B
330
17C62
100
AcDbEntity
  8
MODEL
 62
     0
100
AcDbMText
 10
1005.550469580713
 20
284.0364824332567
 30
0.0
 40
6.0
 41
0.0
 46
0.0
 71
     5
 72
     1
  1
\A1;10
  7
ＭＳ ゴシック
 11
0.0
 21
1.0
 31
0.0
 73
     1
 44
1.0
  0
POINT
  5
17C6C
330
17C62
100
AcDbEntity
  8
Defpoints
 62
     0
100
AcDbPoint
 10
1027.641696491668
 20
279.0364824332567
 30
0.0
  0
POINT
  5
17C6D
330
17C62
100
AcDbEntity
  8
Defpoints
 62
     0
100
AcDbPoint
 10
1032.641696491668
 20
289.0364824332567
 30
0.0
  0
POINT
  5
17C6E
330
17C62
100
AcDbEntity
  8
Defpoints
 62
     0
100
AcDbPoint
 10
1012.550469580713
 20
289.0364824332567
 30
0.0
  0
ENDBLK
  5
17C64
330
17C62
100
AcDbEntity
  8
0
100
AcDbBlockEnd
  0
BLOCK
  5
17C73
330
17C72
100
AcDbEntity
  8
0
100
AcDbBlockBegin
  2
*D100
 70
     1
 10
0.0
 20
0.0
 30
0.0
  3
*D100
  1

  0
LINE
  5
17C75
330
17C72
100
AcDbEntity
  8
MODEL
 62
     0
370
    -2
100
AcDbLine
 10
1022.641696491668
 20
289.0364824332567
 30
0.0
 11
1018.126686977785
 21
289.0364824332567
 31
0.0
  0
LINE
  5
17C76
330
17C72
100
AcDbEntity
  8
MODEL
 62
     0
370
    -2
100
AcDbLine
 10
1022.641696491668
 20
326.0364824332567
 30
0.0
 11
1018.126686977785
 21
326.0364824332567
 31
0.0
  0
LINE
  5
17C77
330
17C72
100
AcDbEntity
  8
MODEL
 62
     0
370
    -2
100
AcDbLine
 10
1018.126686977785
 20
292.0364824332567
 30
0.0
 11
1018.126686977785
 21
323.0364824332567
 31
0.0
  0
INSERT
  5
17C78
330
17C72
100
AcDbEntity
  8
MODEL
 62
     0
370
    -2
100
AcDbBlockReference
  2
_DOT
 10
1018.126686977785
 20
289.0364824332567
 30
0.0
 41
3.0
 42
3.0
 43
3.0
 50
270.0
  0
INSERT
  5
17C79
330
17C72
100
AcDbEntity
  8
MODEL
 62
     0
370
    -2
100
AcDbBlockReference
  2
_DOT
 10
1018.126686977785
 20
326.0364824332567
 30
0.0
 41
3.0
 42
3.0
 43
3.0
 50
90.0
  0
MTEXT
  5
17C7A
330
17C72
100
AcDbEntity
  8
MODEL
 62
     0
100
AcDbMText
 10
1011.126686977785
 20
307.5364824332567
 30
0.0
 40
6.0
 41
0.0
 46
0.0
 71
     5
 72
     1
  1
\A1;37
  7
ＭＳ ゴシック
 11
0.0
 21
1.0
 31
0.0
 73
     1
 44
1.0
  0
POINT
  5
17C7B
330
17C72
100
AcDbEntity
  8
Defpoints
 62
     0
100
AcDbPoint
 10
1027.641696491668
 20
289.0364824332567
 30
0.0
  0
POINT
  5
17C7C
330
17C72
100
AcDbEntity
  8
Defpoints
 62
     0
100
AcDbPoint
 10
1027.641696491668
 20
326.0364824332567
 30
0.0
  0
POINT
  5
17C7D
330
17C72
100
AcDbEntity
  8
Defpoints
 62
     0
100
AcDbPoint
 10
1018.126686977785
 20
326.0364824332567
 30
0.0
  0
ENDBLK
  5
17C74
330
17C72
100
AcDbEntity
  8
0
100
AcDbBlockEnd
  0
BLOCK
  5
17C87
330
17C86
100
AcDbEntity
  8
0
100
AcDbBlockBegin
  2
*D101
 70
     1
 10
0.0
 20
0.0
 30
0.0
  3
*D101
  1

  0
LINE
  5
17C89
330
17C86
100
AcDbEntity
  8
MODEL
 62
     0
370
    -2
100
AcDbLine
 10
1317.981013115405
 20
325.4805565783292
 30
0.0
 11
1397.624320157223
 21
325.4805565783292
 31
0.0
  0
LINE
  5
17C8A
330
17C86
100
AcDbEntity
  8
MODEL
 62
     0
370
    -2
100
AcDbLine
 10
1313.872871894923
 20
305.4805565783292
 30
0.0
 11
1397.624320157223
 21
305.4805565783292
 31
0.0
  0
LINE
  5
17C8B
330
17C86
100
AcDbEntity
  8
MODEL
 62
     0
370
    -2
100
AcDbLine
 10
1397.624320157223
 20
322.4805565783292
 30
0.0
 11
1397.624320157223
 21
308.4805565783292
 31
0.0
  0
INSERT
  5
17C8C
330
17C86
100
AcDbEntity
  8
MODEL
 62
     0
370
    -2
100
AcDbBlockReference
  2
_DOT
 10
1397.624320157223
 20
325.4805565783292
 30
0.0
 41
3.0
 42
3.0
 43
3.0
 50
90.0
  0
INSERT
  5
17C8D
330
17C86
100
AcDbEntity
  8
MODEL
 62
     0
370
    -2
100
AcDbBlockReference
  2
_DOT
 10
1397.624320157223
 20
305.4805565783292
 30
0.0
 41
3.0
 42
3.0
 43
3.0
 50
270.0
  0
MTEXT
  5
17C8E
330
17C86
100
AcDbEntity
  8
MODEL
 62
     0
100
AcDbMText
 10
1390.624320157223
 20
315.4805565783292
 30
0.0
 40
6.0
 41
0.0
 46
0.0
 71
     5
 72
     1
  1
\A1;20
  7
ＭＳ ゴシック
 11
0.0
 21
1.0
 31
0.0
 73
     1
 44
1.0
  0
POINT
  5
17C8F
330
17C86
100
AcDbEntity
  8
Defpoints
 62
     0
100
AcDbPoint
 10
1312.981013115405
 20
325.4805565783292
 30
0.0
  0
POINT
  5
17C90
330
17C86
100
AcDbEntity
  8
Defpoints
 62
     0
100
AcDbPoint
 10
1308.872871894923
 20
305.4805565783292
 30
0.0
  0
POINT
  5
17C91
330
17C86
100
AcDbEntity
  8
Defpoints
 62
     0
100
AcDbPoint
 10
1397.624320157223
 20
305.4805565783292
 30
0.0
  0
ENDBLK
  5
17C88
330
17C86
100
AcDbEntity
  8
0
100
AcDbBlockEnd
  0
BLOCK
  5
17CBC
330
17CBB
100
AcDbEntity
  8
0
100
AcDbBlockBegin
  2
*D102
 70
     1
 10
0.0
 20
0.0
 30
0.0
  3
*D102
  1

  0
LINE
  5
17CBE
330
17CBB
100
AcDbEntity
  8
MODEL
 62
     0
370
    -2
100
AcDbLine
 10
1609.564355042686
 20
361.7930364909281
 30
0.0
 11
1609.564355042686
 21
343.4094422398746
 31
0.0
  0
LINE
  5
17CBF
330
17CBB
100
AcDbEntity
  8
MODEL
 62
     0
370
    -2
100
AcDbLine
 10
1629.564355042686
 20
361.7930364909281
 30
0.0
 11
1629.564355042686
 21
343.4094422398746
 31
0.0
  0
LINE
  5
17CC0
330
17CBB
100
AcDbEntity
  8
MODEL
 62
     0
370
    -2
100
AcDbLine
 10
1612.564355042686
 20
343.4094422398746
 30
0.0
 11
1626.564355042686
 21
343.4094422398746
 31
0.0
  0
INSERT
  5
17CC1
330
17CBB
100
AcDbEntity
  8
MODEL
 62
     0
370
    -2
100
AcDbBlockReference
  2
_DOT
 10
1609.564355042686
 20
343.4094422398746
 30
0.0
 41
3.0
 42
3.0
 43
3.0
 50
180.0
  0
INSERT
  5
17CC2
330
17CBB
100
AcDbEntity
  8
MODEL
 62
     0
370
    -2
100
AcDbBlockReference
  2
_DOT
 10
1629.564355042686
 20
343.4094422398746
 30
0.0
 41
3.0
 42
3.0
 43
3.0
  0
MTEXT
  5
17CC3
330
17CBB
100
AcDbEntity
  8
MODEL
 62
     0
100
AcDbMText
 10
1619.564355042686
 20
350.4094422398746
 30
0.0
 40
6.0
 41
0.0
 46
0.0
 71
     5
 72
     1
  1
\A1;20
  7
ＭＳ ゴシック
 73
     1
 44
1.0
  0
POINT
  5
17CC4
330
17CBB
100
AcDbEntity
  8
Defpoints
 62
     0
100
AcDbPoint
 10
1609.564355042686
 20
366.7930364909281
 30
0.0
  0
POINT
  5
17CC5
330
17CBB
100
AcDbEntity
  8
Defpoints
 62
     0
100
AcDbPoint
 10
1629.564355042686
 20
366.7930364909281
 30
0.0
  0
POINT
  5
17CC6
330
17CBB
100
AcDbEntity
  8
Defpoints
 62
     0
100
AcDbPoint
 10
1629.564355042686
 20
343.4094422398746
 30
0.0
  0
ENDBLK
  5
17CBD
330
17CBB
100
AcDbEntity
  8
0
100
AcDbBlockEnd
  0
BLOCK
  5
17CC9
330
17CC8
100
AcDbEntity
  8
0
100
AcDbBlockBegin
  2
*D103
 70
     1
 10
0.0
 20
0.0
 30
0.0
  3
*D103
  1

  0
LINE
  5
17CCB
330
17CC8
100
AcDbEntity
  8
DIM
 62
     0
370
    -2
100
AcDbLine
 10
512.4769835977031
 20
766.4416727062239
 30
0.0
 11
529.8126645558298
 21
766.4416727062239
 31
0.0
  0
LINE
  5
17CCC
330
17CC8
100
AcDbEntity
  8
DIM
 62
     0
370
    -2
100
AcDbLine
 10
512.4769835977031
 20
793.4416727062239
 30
0.0
 11
529.8126645558298
 21
793.4416727062239
 31
0.0
  0
LINE
  5
17CCD
330
17CC8
100
AcDbEntity
  8
DIM
 62
     0
370
    -2
100
AcDbLine
 10
529.8126645558298
 20
769.4416727062239
 30
0.0
 11
529.8126645558298
 21
790.4416727062239
 31
0.0
  0
INSERT
  5
17CCE
330
17CC8
100
AcDbEntity
  8
DIM
 62
     0
370
    -2
100
AcDbBlockReference
  2
_DOT
 10
529.8126645558298
 20
766.4416727062239
 30
0.0
 41
3.0
 42
3.0
 43
3.0
 50
270.0
  0
INSERT
  5
17CCF
330
17CC8
100
AcDbEntity
  8
DIM
 62
     0
370
    -2
100
AcDbBlockReference
  2
_DOT
 10
529.8126645558298
 20
793.4416727062239
 30
0.0
 41
3.0
 42
3.0
 43
3.0
 50
90.0
  0
MTEXT
  5
17CD0
330
17CC8
100
AcDbEntity
  8
DIM
 62
     0
100
AcDbMText
 10
522.8126645558298
 20
779.9416727062239
 30
0.0
 40
6.0
 41
0.0
 46
0.0
 71
     5
 72
     1
  1
\A1;27
  7
ＭＳ ゴシック
 11
0.0
 21
1.0
 31
0.0
 73
     1
 44
1.0
  0
POINT
  5
17CD1
330
17CC8
100
AcDbEntity
  8
Defpoints
 62
     0
100
AcDbPoint
 10
507.4769835977031
 20
766.4416727062239
 30
0.0
  0
POINT
  5
17CD2
330
17CC8
100
AcDbEntity
  8
Defpoints
 62
     0
100
AcDbPoint
 10
507.4769835977031
 20
793.4416727062239
 30
0.0
  0
POINT
  5
17CD3
330
17CC8
100
AcDbEntity
  8
Defpoints
 62
     0
100
AcDbPoint
 10
529.8126645558298
 20
793.4416727062239
 30
0.0
  0
ENDBLK
  5
17CCA
330
17CC8
100
AcDbEntity
  8
0
100
AcDbBlockEnd
  0
BLOCK
  5
17CDC
330
17CDB
100
AcDbEntity
  8
0
100
AcDbBlockBegin
  2
*D104
 70
     1
 10
0.0
 20
0.0
 30
0.0
  3
*D104
  1

  0
LINE
  5
17CDE
330
17CDB
100
AcDbEntity
  8
MODEL
 62
     0
370
    -2
100
AcDbLine
 10
1618.064355042686
 20
386.7930364909285
 30
0.0
 11
1596.624440195845
 21
386.7930364909285
 31
0.0
  0
LINE
  5
17CDF
330
17CDB
100
AcDbEntity
  8
MODEL
 62
     0
370
    -2
100
AcDbLine
 10
1618.064355042686
 20
366.7930364909281
 30
0.0
 11
1596.624440195845
 21
366.7930364909281
 31
0.0
  0
LINE
  5
17CE0
330
17CDB
100
AcDbEntity
  8
MODEL
 62
     0
370
    -2
100
AcDbLine
 10
1596.624440195845
 20
383.7930364909285
 30
0.0
 11
1596.624440195845
 21
369.7930364909281
 31
0.0
  0
INSERT
  5
17CE1
330
17CDB
100
AcDbEntity
  8
MODEL
 62
     0
370
    -2
100
AcDbBlockReference
  2
_DOT
 10
1596.624440195845
 20
386.7930364909285
 30
0.0
 41
3.0
 42
3.0
 43
3.0
 50
90.0
  0
INSERT
  5
17CE2
330
17CDB
100
AcDbEntity
  8
MODEL
 62
     0
370
    -2
100
AcDbBlockReference
  2
_DOT
 10
1596.624440195845
 20
366.7930364909281
 30
0.0
 41
3.0
 42
3.0
 43
3.0
 50
270.0
  0
MTEXT
  5
17CE3
330
17CDB
100
AcDbEntity
  8
MODEL
 62
     0
100
AcDbMText
 10
1589.624440195845
 20
376.7930364909283
 30
0.0
 40
6.0
 41
0.0
 46
0.0
 71
     5
 72
     1
  1
\A1;20
  7
ＭＳ ゴシック
 11
0.0
 21
1.0
 31
0.0
 73
     1
 44
1.0
  0
POINT
  5
17CE4
330
17CDB
100
AcDbEntity
  8
Defpoints
 62
     0
100
AcDbPoint
 10
1623.064355042686
 20
386.7930364909285
 30
0.0
  0
POINT
  5
17CE5
330
17CDB
100
AcDbEntity
  8
Defpoints
 62
     0
100
AcDbPoint
 10
1623.064355042686
 20
366.7930364909281
 30
0.0
  0
POINT
  5
17CE6
330
17CDB
100
AcDbEntity
  8
Defpoints
 62
     0
100
AcDbPoint
 10
1596.624440195845
 20
366.7930364909281
 30
0.0
  0
ENDBLK
  5
17CDD
330
17CDB
100
AcDbEntity
  8
0
100
AcDbBlockEnd
  0
BLOCK
  5
17CEB
330
17CEA
100
AcDbEntity
  8
0
100
AcDbBlockBegin
  2
*D105
 70
     1
 10
0.0
 20
0.0
 30
0.0
  3
*D105
  1

  0
LINE
  5
17CED
330
17CEA
100
AcDbEntity
  8
DIM
 62
     0
370
    -2
100
AcDbLine
 10
512.4769835977031
 20
654.6521019060203
 30
0.0
 11
529.8126645558298
 21
654.6521019060203
 31
0.0
  0
LINE
  5
17CEE
330
17CEA
100
AcDbEntity
  8
DIM
 62
     0
370
    -2
100
AcDbLine
 10
492.4769835977027
 20
634.6521019060201
 30
0.0
 11
529.8126645558298
 21
634.6521019060201
 31
0.0
  0
LINE
  5
17CEF
330
17CEA
100
AcDbEntity
  8
DIM
 62
     0
370
    -2
100
AcDbLine
 10
529.8126645558298
 20
651.6521019060203
 30
0.0
 11
529.8126645558298
 21
637.6521019060201
 31
0.0
  0
INSERT
  5
17CF0
330
17CEA
100
AcDbEntity
  8
DIM
 62
     0
370
    -2
100
AcDbBlockReference
  2
_DOT
 10
529.8126645558298
 20
654.6521019060203
 30
0.0
 41
3.0
 42
3.0
 43
3.0
 50
90.0
  0
INSERT
  5
17CF1
330
17CEA
100
AcDbEntity
  8
DIM
 62
     0
370
    -2
100
AcDbBlockReference
  2
_DOT
 10
529.8126645558298
 20
634.6521019060201
 30
0.0
 41
3.0
 42
3.0
 43
3.0
 50
270.0
  0
MTEXT
  5
17CF2
330
17CEA
100
AcDbEntity
  8
DIM
 62
     0
100
AcDbMText
 10
522.8126645558298
 20
644.6521019060202
 30
0.0
 40
6.0
 41
0.0
 46
0.0
 71
     5
 72
     1
  1
\A1;20
  7
ＭＳ ゴシック
 11
0.0
 21
1.0
 31
0.0
 73
     1
 44
1.0
  0
POINT
  5
17CF3
330
17CEA
100
AcDbEntity
  8
Defpoints
 62
     0
100
AcDbPoint
 10
507.4769835977031
 20
654.6521019060203
 30
0.0
  0
POINT
  5
17CF4
330
17CEA
100
AcDbEntity
  8
Defpoints
 62
     0
100
AcDbPoint
 10
487.4769835977027
 20
634.6521019060201
 30
0.0
  0
POINT
  5
17CF5
330
17CEA
100
AcDbEntity
  8
Defpoints
 62
     0
100
AcDbPoint
 10
529.8126645558298
 20
634.6521019060201
 30
0.0
  0
ENDBLK
  5
17CEC
330
17CEA
100
AcDbEntity
  8
0
100
AcDbBlockEnd
  0
ENDSEC
  0
SECTION
  2
ENTITIES
  0
MTEXT
  5
177
330
A
100
AcDbEntity
  8
TEMPLATE
390
1D
100
AcDbMText
 10
23.76064336431923
 20
103.1195254894285
 30
0.0
 40
4.886523437499998
 41
0.0
 46
0.0
 71
     1
 72
     1
  1
品名
  7
ＭＳ ゴシック
 73
     1
 44
0.7828267384257843
  0
MTEXT
  5
178
330
A
100
AcDbEntity
  8
TEMPLATE
390
1D
100
AcDbMText
 10
23.76064336431923
 20
77.6195254894284
 30
0.0
 40
4.886523437499998
 41
0.0
 46
0.0
 71
     1
 72
     1
  1
仕様
  7
ＭＳ ゴシック
 73
     1
 44
0.7828267384257843
  0
LINE
  5
179
330
A
100
AcDbEntity
  8
TEMPLATE
390
1D
100
AcDbLine
 10
606.6606433641745
 20
80.14400205192852
 30
0.0
 11
21.66064336417462
 21
80.14400205192852
 31
0.0
  0
LWPOLYLINE
  5
17A
330
A
100
AcDbEntity
  8
TEMPLATE
390
1D
100
AcDbPolyline
 90
        5
 70
   128
 43
0.0
 10
606.6606433641745
 20
869.1440020519278
 10
21.66064336417462
 20
869.1440020519278
 10
21.66064336417462
 20
29.14400205192847
 10
606.6606433641745
 20
29.14400205192847
 10
606.6606433641745
 20
869.1440020519278
  0
LINE
  5
17B
330
A
100
AcDbEntity
  8
TEMPLATE
390
1D
100
AcDbLine
 10
606.6606433641745
 20
105.6440020519285
 30
0.0
 11
21.66064336417462
 21
105.6440020519285
 31
0.0
  0
LINE
  5
17C
330
A
100
AcDbEntity
  8
TEMPLATE
390
1D
100
AcDbLine
 10
606.6606433643196
 20
54.64400205192847
 30
0.0
 11
380.760643364319
 21
54.64400205192847
 31
0.0
  0
MTEXT
  5
17E
330
A
100
AcDbEntity
  8
TEMPLATE
390
1D
100
AcDbMText
 10
389.7220652399973
 20
45.67088370993605
 30
0.0
 40
7.329785156250001
 41
0.0
 46
0.0
 71
     1
 72
     1
  1
大洋金物株式会社 ティーフォルム事業部
  7
ＭＳ ゴシック
 73
     1
 44
0.7828267384257843
  0
MTEXT
  5
180
330
A
100
AcDbEntity
  8
TEMPLATE
390
1D
100
AcDbMText
 10
549.360643364397
 20
69.04478720817846
 30
0.0
 40
7.329785156250001
 41
0.0
 46
7.329785156250001
 71
     1
 72
     1
  1
{1:3}
  7
ＭＳ ゴシック
 73
     1
 44
0.7828267384257843
1001
ACAD
1000
ACAD_MTEXT_DEFINED_HEIGHT_BEGIN
1070
    46
1040
7.329785156250001
1000
ACAD_MTEXT_DEFINED_HEIGHT_END
  0
MTEXT
  5
181
330
A
100
AcDbEntity
  8
TEMPLATE
390
1D
100
AcDbMText
 10
533.4606433643969
 20
77.6195254894284
 30
0.0
 40
4.886523437499998
 41
0.0
 46
0.0
 71
     1
 72
     1
  1
縮尺
  7
ＭＳ ゴシック
 73
     1
 44
0.7828267384257843
  0
LINE
  5
182
330
A
100
AcDbEntity
  8
TEMPLATE
390
1D
100
AcDbLine
 10
531.360643364397
 20
54.64400205192847
 30
0.0
 11
531.360643364397
 21
80.14400205192852
 31
0.0
  0
MTEXT
  5
183
330
A
100
AcDbEntity
  8
TEMPLATE
390
1D
100
AcDbMText
 10
458.1606433643969
 20
77.6195254894284
 30
0.0
 40
4.886523437499998
 41
0.0
 46
0.0
 71
     1
 72
     1
  1
容量
  7
ＭＳ ゴシック
 73
     1
 44
0.7828267384257843
  0
LINE
  5
184
330
A
100
AcDbEntity
  8
TEMPLATE
390
1D
100
AcDbLine
 10
456.060643364397
 20
54.64400205192847
 30
0.0
 11
456.060643364397
 21
80.14400205192852
 31
0.0
  0
MTEXT
  5
185
330
A
100
AcDbEntity
  8
TEMPLATE
390
1D
100
AcDbMText
 10
382.860643364397
 20
103.1195254894285
 30
0.0
 40
4.886523437499998
 41
0.0
 46
0.0
 71
     1
 72
     1
  1
品番
  7
ＭＳ ゴシック
 73
     1
 44
0.7828267384257843
  0
MTEXT
  5
186
330
A
100
AcDbEntity
  8
TEMPLATE
390
1D
100
AcDbMText
 10
382.860643364397
 20
77.6195254894284
 30
0.0
 40
4.886523437499998
 41
0.0
 46
0.0
 71
     1
 72
     1
  1
重量
  7
ＭＳ ゴシック
 73
     1
 44
0.7828267384257843
  0
MTEXT
  5
187
330
A
100
AcDbEntity
  8
TEMPLATE
390
1D
100
AcDbMText
 10
398.760643364397
 20
94.54478720817846
 30
0.0
 40
7.329785156250001
 41
0.0
 46
7.329785156250001
 71
     1
 72
     1
  1
{ADF75-2501}
  7
ＭＳ ゴシック
 73
     1
 44
0.7828267384257843
1001
ACAD
1000
ACAD_MTEXT_DEFINED_HEIGHT_BEGIN
1070
    46
1040
7.329785156250001
1000
ACAD_MTEXT_DEFINED_HEIGHT_END
  0
LINE
  5
188
330
A
100
AcDbEntity
  8
TEMPLATE
390
1D
100
AcDbLine
 10
380.760643364397
 20
29.14400205192847
 30
0.0
 11
380.760643364397
 21
105.6440020519285
 31
0.0
  0
MTEXT
  5
189
330
A
100
AcDbEntity
  8
TEMPLATE
390
1D
100
AcDbMText
 10
39.66064336431923
 20
94.54478720817846
 30
0.0
 40
7.329785156250001
 41
0.0
 46
8.260667871093752
 71
     1
 72
     1
  1
{タオルバー　-CATALANO, Premium-}
  7
ＭＳ ゴシック
 73
     1
 44
0.7828267384257843
1001
ACAD
1000
ACAD_MTEXT_DEFINED_HEIGHT_BEGIN
1070
    46
1040
8.260667871093752
1000
ACAD_MTEXT_DEFINED_HEIGHT_END
  0
INSERT
  5
68C
330
A
100
AcDbEntity
  8
TEMPLATE
100
AcDbBlockReference
  2
block 2
 10
367.7097207081031
 20
3.349230605734547
 30
0.0
 41
0.1524
 42
0.1524
 43
0.1524
  0
LWPOLYLINE
  5
D69
330
A
100
AcDbEntity
  8
BORDER
100
AcDbPolyline
 90
        4
 70
     1
 43
0.0
 10
0.0
 20
0.0
 10
0.0
 20
891.0
 10
630.0
 20
891.0
 10
630.0
 20
0.0
  0
INSERT
  5
1343
330
A
100
AcDbEntity
  8
TEMPLATE
100
AcDbBlockReference
  2
block 2
 10
838.6973883465873
 20
9.774128564918277
 30
0.0
 41
0.1524
 42
0.1524
 43
0.1524
  0
MTEXT
  5
36AC
102
{ACAD_XDICTIONARY
360
36AE
102
}
330
A
100
AcDbEntity
  8
TEMPLATE
 48
0.05
100
AcDbMText
 10
22.06848147481188
 20
25.15049698669364
 30
0.0
 40
7.0
 41
0.0
 46
7.0
 71
     1
 72
     1
  1
{20181220N}
  7
ＭＳ ゴシック
 73
     1
 44
1.0
1001
ACAD
1000
ACAD_MTEXT_DEFINED_HEIGHT_BEGIN
1070
    46
1040
7.0
1000
ACAD_MTEXT_DEFINED_HEIGHT_END
  0
HATCH
  5
172F9
102
{ACAD_REACTORS
330
1730A
102
}
330
A
100
AcDbEntity
  8
TEMPLATE
100
AcDbHatch
 10
0.0
 20
0.0
 30
0.0
210
0.0
220
0.0
230
1.0
  2
SOLID
 70
     1
 71
     1
 91
        6
 92
        1
 93
        8
 72
     1
 10
580.3195574690816
 20
45.81237511424545
 11
580.3195574690816
 21
44.03955282504737
 72
     1
 10
580.3195574690816
 20
44.03955282504737
 11
577.5113800039879
 21
44.03955282504737
 72
     1
 10
577.5113800039879
 20
44.03955282504737
 11
577.5113800039879
 21
36.81237511467916
 72
     1
 10
577.5113800039879
 20
36.81237511467916
 11
575.0415960580052
 21
36.81237511467916
 72
     1
 10
575.0415960580052
 20
36.81237511467916
 11
575.0415960580052
 21
44.03955282504737
 72
     1
 10
575.0415960580052
 20
44.03955282504737
 11
572.2831856276422
 21
44.03955282504737
 72
     1
 10
572.2831856276422
 20
44.03955282504737
 11
572.2831856276422
 21
45.81237511424545
 72
     1
 10
572.2831856276422
 20
45.81237511424545
 11
580.3195574690816
 21
45.81237511424545
 97
        1
330
172FA
 92
        1
 93
        1
 72
     4
 94
        3
 73
     0
 74
     1
 95
       56
 96
       52
 40
0.0
 40
0.0
 40
0.0
 40
0.0
 40
1.0
 40
1.0
 40
1.0
 40
2.0
 40
2.0
 40
2.0
 40
3.0
 40
3.0
 40
3.0
 40
4.0
 40
4.0
 40
4.0
 40
5.0
 40
5.0
 40
5.0
 40
6.0
 40
6.0
 40
6.0
 40
7.0
 40
7.0
 40
7.0
 40
8.0
 40
8.0
 40
8.0
 40
9.0
 40
9.0
 40
9.0
 40
10.0
 40
10.0
 40
10.0
 40
11.0
 40
11.0
 40
11.0
 40
12.0
 40
12.0
 40
12.0
 40
13.0
 40
13.0
 40
13.0
 40
14.0
 40
14.0
 40
14.0
 40
15.0
 40
15.0
 40
15.0
 40
16.0
 40
16.0
 40
16.0
 40
17.0
 40
17.0
 40
17.0
 40
17.0
 10
584.0822130993691
 20
45.59806442612169
 10
584.4283729539446
 20
45.69550069232489
 10
584.8752496819451
 20
45.61399880405779
 10
584.8752496819451
 20
45.61399880405779
 10
584.8752496819451
 20
45.61399880405779
 10
584.6605596038704
 20
44.96972771633077
 10
584.6605596038704
 20
44.96972771633077
 10
584.6605596038704
 20
44.96972771633077
 10
584.2218509183414
 20
45.07124800376958
 10
583.8834797162866
 20
44.80442528303579
 10
583.6205401632852
 20
44.59576081006296
 10
583.4501940753495
 20
44.04131587246591
 10
583.3848497355779
 20
43.83050896212374
 10
583.3848497355779
 20
43.83050896212374
 10
583.0935228874299
 20
42.93630916500408
 10
583.0935228874299
 20
42.93630916500408
 10
583.0935228874299
 20
42.93630916500408
 10
584.0487598325259
 20
42.93630916500408
 10
584.0487598325259
 20
42.93630916500408
 10
584.0487598325259
 20
42.93630916500408
 10
583.9001951911804
 20
42.37351764848811
 10
583.9001951911804
 20
42.37351764848811
 10
583.9001951911804
 20
42.37351764848811
 10
582.9371695935639
 20
42.37351764848811
 10
582.9371695935639
 20
42.37351764848811
 10
582.9371695935639
 20
42.37351764848811
 10
581.2141366561519
 20
36.81237511467916
 10
581.2141366561519
 20
36.81237511467916
 10
581.2141366561519
 20
36.81237511467916
 10
580.6746664630858
 20
36.81237511467916
 10
580.6746664630858
 20
36.81237511467916
 10
580.6746664630858
 20
36.81237511467916
 10
582.3992615944129
 20
42.37351764848811
 10
582.3992615944129
 20
42.37351764848811
 10
582.3992615944129
 20
42.37351764848811
 10
581.6886418993973
 20
42.37351764848811
 10
581.6886418993973
 20
42.37351764848811
 10
581.6886418993973
 20
42.37351764848811
 10
581.8376082477495
 20
42.93630916500408
 10
581.8376082477495
 20
42.93630916500408
 10
581.8376082477495
 20
42.93630916500408
 10
582.5556148882789
 20
42.93630916500408
 10
582.5556148882789
 20
42.93630916500408
 10
582.5556148882789
 20
42.93630916500408
 10
582.8095829847954
 20
43.71615636752356
 10
582.8095829847954
 20
43.71615636752356
 10
583.0149445334899
 20
44.36997915518985
 10
583.1891961062141
 20
44.72100412795849
 10
583.3385641615731
 20
44.98566209426688
 10
583.4863477059606
 20
45.25054323113452
 10
583.7788350410173
 20
45.51073778625616
 10
584.0822130993691
 20
45.59806442612169
 97
        1
330
17305
 92
        1
 93
        1
 72
     4
 94
        3
 73
     0
 74
     1
 95
       32
 96
       28
 40
0.0
 40
0.0
 40
0.0
 40
0.0
 40
1.0
 40
1.0
 40
1.0
 40
2.0
 40
2.0
 40
2.0
 40
3.0
 40
3.0
 40
3.0
 40
4.0
 40
4.0
 40
4.0
 40
5.0
 40
5.0
 40
5.0
 40
6.0
 40
6.0
 40
6.0
 40
7.0
 40
7.0
 40
7.0
 40
8.0
 40
8.0
 40
8.0
 40
9.0
 40
9.0
 40
9.0
 40
9.0
 10
585.394880012287
 20
42.5961972325865
 10
585.0701222143513
 20
42.17612328876155
 10
584.8200372855671
 20
41.79807236125814
 10
584.4151612568324
 20
40.60984535222244
 10
584.0429350809274
 20
39.52296009417805
 10
583.8060618492556
 20
38.73222216836346
 10
583.7702876085951
 20
37.76919657074652
 10
583.7430608003568
 20
37.0525512706291
 10
584.1794485120689
 20
36.81237511467916
 10
584.8192785056652
 20
36.81237511467916
 10
585.0950280487724
 20
36.81237511467916
 10
585.7908738527602
 20
36.82991632064248
 10
586.2864017626947
 20
37.44247487188884
 10
586.6332980801157
 20
37.87283697849896
 10
586.9530122234106
 20
38.3189549265978
 10
587.3816335996579
 20
39.78237355234214
 10
587.7383047875777
 20
41.00579455858404
 10
587.985265328531
 20
41.79651016734281
 10
587.9670099767781
 20
42.24671213667737
 10
587.9670099767781
 20
42.24671213667737
 10
587.9670099767781
 20
42.24671213667737
 10
587.9670099767781
 20
42.24671213667737
 10
587.8506934812557
 20
42.9977703370432
 10
587.305398536591
 20
43.1564669217822
 10
586.9938524357677
 20
43.1564669217822
 10
586.6869929166902
 20
43.1564669217822
 10
585.8647433078983
 20
43.20955919784658
 10
585.394880012287
 20
42.5961972325865
 97
        1
330
17308
 92
        1
 93
        1
 72
     4
 94
        3
 73
     0
 74
     1
 95
       38
 96
       34
 40
0.0
 40
0.0
 40
0.0
 40
0.0
 40
1.0
 40
1.0
 40
1.0
 40
2.0
 40
2.0
 40
2.0
 40
3.0
 40
3.0
 40
3.0
 40
4.0
 40
4.0
 40
4.0
 40
5.0
 40
5.0
 40
5.0
 40
6.0
 40
6.0
 40
6.0
 40
7.0
 40
7.0
 40
7.0
 40
8.0
 40
8.0
 40
8.0
 40
9.0
 40
9.0
 40
9.0
 40
10.0
 40
10.0
 40
10.0
 40
11.0
 40
11.0
 40
11.0
 40
11.0
 10
589.9393467460162
 20
42.91472857191693
 10
589.9393467460162
 20
42.91472857191693
 10
590.4939702200608
 20
42.91472857191693
 10
590.4939702200608
 20
42.91472857191693
 10
590.4939702200608
 20
42.91472857191693
 10
590.2462062650937
 20
42.12146881878184
 10
590.2462062650937
 20
42.12146881878184
 10
590.4344729489438
 20
42.34414840288034
 10
590.7316022316344
 20
42.6407197591727
 10
590.9867754491712
 20
42.79026635097919
 10
591.3679507645053
 20
43.01294593507769
 10
591.5857652304104
 20
43.04231518068534
 10
591.8253165087943
 20
43.03646811203098
 10
591.8253165087943
 20
43.03646811203098
 10
591.591210592058
 20
42.28639186212602
 10
591.591210592058
 20
42.28639186212602
 10
591.4387404659245
 20
42.35095510493986
 10
590.968877170313
 20
42.22805507791734
 10
590.6993317687555
 20
42.03416449597226
 10
590.4562543955343
 20
41.85933267979383
 10
590.2882069643596
 20
41.71056718494513
 10
590.0890941913261
 20
41.33657796162161
 10
589.8914989780961
 20
40.96203081189956
 10
589.735547391237
 20
40.36480407807901
 10
589.4671624765878
 20
39.49841133265191
 10
589.4671624765878
 20
39.49841133265191
 10
588.6289784898598
 20
36.81237511467916
 10
588.6289784898598
 20
36.81237511467916
 10
588.6289784898598
 20
36.81237511467916
 10
588.0906911007581
 20
36.81237511467916
 10
588.0906911007581
 20
36.81237511467916
 10
588.0906911007581
 20
36.81237511467916
 10
589.9393467460162
 20
42.91472857191693
 10
589.9393467460162
 20
42.91472857191693
 97
        1
330
17306
 92
        1
 93
        1
 72
     4
 94
        3
 73
     0
 74
     1
 95
      104
 96
      100
 40
0.0
 40
0.0
 40
0.0
 40
0.0
 40
1.0
 40
1.0
 40
1.0
 40
2.0
 40
2.0
 40
2.0
 40
3.0
 40
3.0
 40
3.0
 40
4.0
 40
4.0
 40
4.0
 40
5.0
 40
5.0
 40
5.0
 40
6.0
 40
6.0
 40
6.0
 40
7.0
 40
7.0
 40
7.0
 40
8.0
 40
8.0
 40
8.0
 40
9.0
 40
9.0
 40
9.0
 40
10.0
 40
10.0
 40
10.0
 40
11.0
 40
11.0
 40
11.0
 40
12.0
 40
12.0
 40
12.0
 40
13.0
 40
13.0
 40
13.0
 40
14.0
 40
14.0
 40
14.0
 40
15.0
 40
15.0
 40
15.0
 40
16.0
 40
16.0
 40
16.0
 40
17.0
 40
17.0
 40
17.0
 40
18.0
 40
18.0
 40
18.0
 40
19.0
 40
19.0
 40
19.0
 40
20.0
 40
20.0
 40
20.0
 40
21.0
 40
21.0
 40
21.0
 40
22.0
 40
22.0
 40
22.0
 40
23.0
 40
23.0
 40
23.0
 40
24.0
 40
24.0
 40
24.0
 40
25.0
 40
25.0
 40
25.0
 40
26.0
 40
26.0
 40
26.0
 40
27.0
 40
27.0
 40
27.0
 40
28.0
 40
28.0
 40
28.0
 40
29.0
 40
29.0
 40
29.0
 40
30.0
 40
30.0
 40
30.0
 40
31.0
 40
31.0
 40
31.0
 40
32.0
 40
32.0
 40
32.0
 40
33.0
 40
33.0
 40
33.0
 40
33.0
 10
592.9921860953021
 20
42.91803149619498
 10
592.9921860953021
 20
42.91803149619498
 10
593.4764215749343
 20
42.91803149619498
 10
593.4764215749343
 20
42.91803149619498
 10
593.4764215749343
 20
42.91803149619498
 10
593.2317820077977
 20
42.12401296315816
 10
593.2317820077977
 20
42.12401296315816
 10
593.4441064779436
 20
42.4569388035653
 10
593.6346941356106
 20
42.6053249084632
 10
593.8879034522253
 20
42.79707305303871
 10
594.1418715487417
 20
42.98609851679041
 10
594.4433303402833
 20
43.02461775533059
 10
594.6525750567104
 20
43.02461775533059
 10
594.9116314419795
 20
43.02461775533059
 10
595.1617163707637
 20
42.97346706313235
 10
595.2931638302083
 20
42.68952716049805
 10
595.3939030206897
 20
42.46686989345537
 10
595.3985896024354
 20
42.44060271862234
 10
595.369800600282
 20
42.0010906190797
 10
595.6330972261784
 20
42.451694295421
 10
595.8275680515779
 20
42.64578573086951
 10
596.1581729181679
 20
42.83226705024479
 10
596.5051138697007
 20
43.02461775533059
 10
596.7073510305648
 20
43.0390122564073
 10
596.9423049954265
 20
43.00437618559952
 10
597.2884425329456
 20
42.95324781045711
 10
597.5093813866816
 20
42.82974522292441
 10
597.6248944681903
 20
42.45441697624481
 10
597.7408092567058
 20
42.0802492164738
 10
597.678187597758
 20
41.87955193246919
 10
597.5350460010044
 20
41.28388739256386
 10
597.4697016612328
 20
41.01260126064356
 10
597.3751666123011
 20
40.68411651436711
 10
597.251485488321
 20
40.29325559675826
 10
597.251485488321
 20
40.29325559675826
 10
596.1581729181679
 20
36.81237511467916
 10
596.1581729181679
 20
36.81237511467916
 10
596.1581729181679
 20
36.81237511467916
 10
595.5895343329975
 20
36.81237511467916
 10
595.5895343329975
 20
36.81237511467916
 10
595.5895343329975
 20
36.81237511467916
 10
596.5467574960716
 20
39.85548422757834
 10
596.5467574960716
 20
39.85548422757834
 10
596.7466736831187
 20
40.49218983334411
 10
596.8820043102957
 20
40.95716569370618
 10
596.952035231813
 20
41.24869339535778
 10
597.0399197980768
 20
41.61234982178448
 10
597.0749129417799
 20
41.73234863153571
 10
597.0333139495209
 20
41.99702891489992
 10
596.9951964179876
 20
42.24340921239921
 10
596.8707118799938
 20
42.40384652750092
 10
596.6575839958344
 20
42.40384652750092
 10
596.4304410005492
 20
42.40384652750092
 10
596.2464591914385
 20
42.37856130312887
 10
595.9890096341963
 20
42.11992894192245
 10
595.7315154428426
 20
41.85933267979383
 10
595.5187446315782
 20
41.55343279412157
 10
595.3519023214238
 20
41.20162672439526
 10
595.1854170841642
 20
40.8476782172995
 10
595.0166108730879
 20
40.39903844188016
 10
594.8454836881943
 20
39.85548422757834
 10
594.8454836881943
 20
39.85548422757834
 10
593.8879034522253
 20
36.81237511467916
 10
593.8879034522253
 20
36.81237511467916
 10
593.8879034522253
 20
36.81237511467916
 10
593.3530975238492
 20
36.81237511467916
 10
593.3530975238492
 20
36.81237511467916
 10
593.3530975238492
 20
36.81237511467916
 10
594.4479722879174
 20
40.29169340284293
 10
594.4479722879174
 20
40.29169340284293
 10
594.5634853694261
 20
40.66197799488166
 10
594.6502540828932
 20
40.96379385931832
 10
594.7074303801934
 20
41.19968514052912
 10
594.804643475837
 20
41.60574397322828
 10
594.8318702840753
 20
41.88033302942674
 10
594.7583579018323
 20
42.12401296315816
 10
594.6860060064979
 20
42.36691179993202
 10
594.5588434217922
 20
42.42895321542549
 10
594.3464743175347
 20
42.42895321542549
 10
594.1683395770782
 20
42.42895321542549
 10
593.9944897113609
 20
42.3525172988552
 10
593.7961357182293
 20
42.20042656267251
 10
593.5464078623398
 20
42.00908012510374
 10
593.4464720858722
 20
41.85194573428019
 10
593.3239514488008
 20
41.66524124434543
 10
593.1586266984499
 20
41.41825838633597
 10
593.0812311484743
 20
41.25199631963583
 10
592.941615646558
 20
40.88715708924472
 10
592.8019555105301
 20
40.52017542148403
 10
592.6697492711836
 20
40.09311623915196
 10
592.5775351960687
 20
39.7977276868239
 10
592.5775351960687
 20
39.7977276868239
 10
591.6382549459648
 20
36.81237511467916
 10
591.6382549459648
 20
36.81237511467916
 10
591.6382549459648
 20
36.81237511467916
 10
591.0781861102724
 20
36.81237511467916
 10
591.0781861102724
 20
36.81237511467916
 10
591.0781861102724
 20
36.81237511467916
 10
592.9921860953021
 20
42.91803149619498
 10
592.9921860953021
 20
42.91803149619498
 97
        1
330
17307
 92
       16
 93
        1
 72
     4
 94
        3
 73
     0
 74
     1
 95
       29
 96
       25
 40
0.0
 40
0.0
 40
0.0
 40
0.0
 40
1.0
 40
1.0
 40
1.0
 40
2.0
 40
2.0
 40
2.0
 40
3.0
 40
3.0
 40
3.0
 40
4.0
 40
4.0
 40
4.0
 40
5.0
 40
5.0
 40
5.0
 40
6.0
 40
6.0
 40
6.0
 40
7.0
 40
7.0
 40
7.0
 40
8.0
 40
8.0
 40
8.0
 40
8.0
 10
584.3513791109762
 20
37.94925057801331
 10
584.3490135030473
 20
38.37439049353518
 10
584.4832282774277
 20
39.12973356864027
 10
584.82704484113
 20
40.1403837636178
 10
585.2953459428262
 20
41.50888795047954
 10
585.5761837746858
 20
42.00908012510374
 10
585.821939194619
 20
42.25255920533161
 10
586.1809759904676
 20
42.60708795588196
 10
586.6636492761844
 20
42.62476306418078
 10
586.8060320930364
 20
42.60708795588196
 10
587.0086709609071
 20
42.58276236491495
 10
587.2949095203024
 20
42.45013210150578
 10
587.3120043851471
 20
42.00363476345613
 10
587.325662423378
 20
41.621499814717
 10
587.2155500694051
 20
40.90583646506057
 10
586.8301345134438
 20
39.78237355234214
 10
586.3859358321553
 20
38.47687041437903
 10
586.1191131114214
 20
37.96366739614584
 10
585.9052264473606
 20
37.74000586158636
 10
585.5022696854361
 20
37.32071301471897
 10
585.0701222143513
 20
37.36097298362186
 10
585.006340068495
 20
37.36097298362186
 10
584.923499156872
 20
37.36097298362186
 10
584.3525395978846
 20
37.45086608491963
 10
584.3513791109762
 20
37.94925057801331
 97
        1
330
17309
 75
     0
 76
     1
 98
        1
 10
557.776987685974
 20
21.56103299246715
1001
ACAD
1010
0.0
1020
0.0
1030
0.0
  0
POLYLINE
  5
172FA
102
{ACAD_REACTORS
330
172F9
330
1730A
102
}
330
A
100
AcDbEntity
  8
TEMPLATE
100
AcDb2dPolyline
 66
     1
 10
0.0
 20
0.0
 30
0.0
  0
VERTEX
  5
172FB
330
172FA
100
AcDbEntity
  8
TEMPLATE
100
AcDbVertex
100
AcDb2dVertex
 10
580.3195574690816
 20
45.81237511424545
 30
0.0
  0
VERTEX
  5
172FC
330
172FA
100
AcDbEntity
  8
TEMPLATE
100
AcDbVertex
100
AcDb2dVertex
 10
580.3195574690816
 20
44.03955282504737
 30
0.0
  0
VERTEX
  5
172FD
330
172FA
100
AcDbEntity
  8
TEMPLATE
100
AcDbVertex
100
AcDb2dVertex
 10
577.5113800039879
 20
44.03955282504737
 30
0.0
  0
VERTEX
  5
172FE
330
172FA
100
AcDbEntity
  8
TEMPLATE
100
AcDbVertex
100
AcDb2dVertex
 10
577.5113800039879
 20
36.81237511467916
 30
0.0
  0
VERTEX
  5
172FF
330
172FA
100
AcDbEntity
  8
TEMPLATE
100
AcDbVertex
100
AcDb2dVertex
 10
575.0415960580052
 20
36.81237511467916
 30
0.0
  0
VERTEX
  5
17300
330
172FA
100
AcDbEntity
  8
TEMPLATE
100
AcDbVertex
100
AcDb2dVertex
 10
575.0415960580052
 20
44.03955282504737
 30
0.0
  0
VERTEX
  5
17301
330
172FA
100
AcDbEntity
  8
TEMPLATE
100
AcDbVertex
100
AcDb2dVertex
 10
572.2831856276422
 20
44.03955282504737
 30
0.0
  0
VERTEX
  5
17302
330
172FA
100
AcDbEntity
  8
TEMPLATE
100
AcDbVertex
100
AcDb2dVertex
 10
572.2831856276422
 20
45.81237511424545
 30
0.0
  0
VERTEX
  5
17303
330
172FA
100
AcDbEntity
  8
TEMPLATE
100
AcDbVertex
100
AcDb2dVertex
 10
580.3195574690816
 20
45.81237511424545
 30
0.0
  0
SEQEND
  5
17304
330
172FA
100
AcDbEntity
  8
TEMPLATE
  0
SPLINE
  5
17305
102
{ACAD_REACTORS
330
172F9
330
1730A
102
}
330
A
100
AcDbEntity
  8
TEMPLATE
100
AcDbSpline
210
0.0
220
0.0
230
1.0
 70
    11
 71
     3
 72
    56
 73
    52
 74
     0
 42
0.000000001
 43
0.0000000001
 40
0.0
 40
0.0
 40
0.0
 40
0.0
 40
1.0
 40
1.0
 40
1.0
 40
2.0
 40
2.0
 40
2.0
 40
3.0
 40
3.0
 40
3.0
 40
4.0
 40
4.0
 40
4.0
 40
5.0
 40
5.0
 40
5.0
 40
6.0
 40
6.0
 40
6.0
 40
7.0
 40
7.0
 40
7.0
 40
8.0
 40
8.0
 40
8.0
 40
9.0
 40
9.0
 40
9.0
 40
10.0
 40
10.0
 40
10.0
 40
11.0
 40
11.0
 40
11.0
 40
12.0
 40
12.0
 40
12.0
 40
13.0
 40
13.0
 40
13.0
 40
14.0
 40
14.0
 40
14.0
 40
15.0
 40
15.0
 40
15.0
 40
16.0
 40
16.0
 40
16.0
 40
17.0
 40
17.0
 40
17.0
 40
17.0
 10
584.0822130993691
 20
45.59806442612169
 30
0.0
 10
584.4283729539446
 20
45.69550069232489
 30
0.0
 10
584.8752496819451
 20
45.61399880405779
 30
0.0
 10
584.8752496819451
 20
45.61399880405779
 30
0.0
 10
584.8752496819451
 20
45.61399880405779
 30
0.0
 10
584.6605596038704
 20
44.96972771633077
 30
0.0
 10
584.6605596038704
 20
44.96972771633077
 30
0.0
 10
584.6605596038704
 20
44.96972771633077
 30
0.0
 10
584.2218509183414
 20
45.07124800376958
 30
0.0
 10
583.8834797162866
 20
44.80442528303579
 30
0.0
 10
583.6205401632852
 20
44.59576081006296
 30
0.0
 10
583.4501940753495
 20
44.04131587246591
 30
0.0
 10
583.3848497355779
 20
43.83050896212374
 30
0.0
 10
583.3848497355779
 20
43.83050896212374
 30
0.0
 10
583.0935228874299
 20
42.93630916500408
 30
0.0
 10
583.0935228874299
 20
42.93630916500408
 30
0.0
 10
583.0935228874299
 20
42.93630916500408
 30
0.0
 10
584.0487598325259
 20
42.93630916500408
 30
0.0
 10
584.0487598325259
 20
42.93630916500408
 30
0.0
 10
584.0487598325259
 20
42.93630916500408
 30
0.0
 10
583.9001951911804
 20
42.37351764848811
 30
0.0
 10
583.9001951911804
 20
42.37351764848811
 30
0.0
 10
583.9001951911804
 20
42.37351764848811
 30
0.0
 10
582.9371695935639
 20
42.37351764848811
 30
0.0
 10
582.9371695935639
 20
42.37351764848811
 30
0.0
 10
582.9371695935639
 20
42.37351764848811
 30
0.0
 10
581.2141366561519
 20
36.81237511467916
 30
0.0
 10
581.2141366561519
 20
36.81237511467916
 30
0.0
 10
581.2141366561519
 20
36.81237511467916
 30
0.0
 10
580.6746664630858
 20
36.81237511467916
 30
0.0
 10
580.6746664630858
 20
36.81237511467916
 30
0.0
 10
580.6746664630858
 20
36.81237511467916
 30
0.0
 10
582.3992615944129
 20
42.37351764848811
 30
0.0
 10
582.3992615944129
 20
42.37351764848811
 30
0.0
 10
582.3992615944129
 20
42.37351764848811
 30
0.0
 10
581.6886418993973
 20
42.37351764848811
 30
0.0
 10
581.6886418993973
 20
42.37351764848811
 30
0.0
 10
581.6886418993973
 20
42.37351764848811
 30
0.0
 10
581.8376082477495
 20
42.93630916500408
 30
0.0
 10
581.8376082477495
 20
42.93630916500408
 30
0.0
 10
581.8376082477495
 20
42.93630916500408
 30
0.0
 10
582.5556148882789
 20
42.93630916500408
 30
0.0
 10
582.5556148882789
 20
42.93630916500408
 30
0.0
 10
582.5556148882789
 20
42.93630916500408
 30
0.0
 10
582.8095829847954
 20
43.71615636752356
 30
0.0
 10
582.8095829847954
 20
43.71615636752356
 30
0.0
 10
583.0149445334899
 20
44.36997915518985
 30
0.0
 10
583.1891961062141
 20
44.72100412795849
 30
0.0
 10
583.3385641615731
 20
44.98566209426688
 30
0.0
 10
583.4863477059606
 20
45.25054323113452
 30
0.0
 10
583.7788350410173
 20
45.51073778625616
 30
0.0
 10
584.0822130993691
 20
45.59806442612169
 30
0.0
  0
SPLINE
  5
17306
102
{ACAD_REACTORS
330
172F9
330
1730A
102
}
330
A
100
AcDbEntity
  8
TEMPLATE
100
AcDbSpline
210
0.0
220
0.0
230
1.0
 70
    11
 71
     3
 72
    38
 73
    34
 74
     0
 42
0.000000001
 43
0.0000000001
 40
0.0
 40
0.0
 40
0.0
 40
0.0
 40
1.0
 40
1.0
 40
1.0
 40
2.0
 40
2.0
 40
2.0
 40
3.0
 40
3.0
 40
3.0
 40
4.0
 40
4.0
 40
4.0
 40
5.0
 40
5.0
 40
5.0
 40
6.0
 40
6.0
 40
6.0
 40
7.0
 40
7.0
 40
7.0
 40
8.0
 40
8.0
 40
8.0
 40
9.0
 40
9.0
 40
9.0
 40
10.0
 40
10.0
 40
10.0
 40
11.0
 40
11.0
 40
11.0
 40
11.0
 10
589.9393467460162
 20
42.91472857191693
 30
0.0
 10
589.9393467460162
 20
42.91472857191693
 30
0.0
 10
590.4939702200608
 20
42.91472857191693
 30
0.0
 10
590.4939702200608
 20
42.91472857191693
 30
0.0
 10
590.4939702200608
 20
42.91472857191693
 30
0.0
 10
590.2462062650937
 20
42.12146881878184
 30
0.0
 10
590.2462062650937
 20
42.12146881878184
 30
0.0
 10
590.4344729489438
 20
42.34414840288034
 30
0.0
 10
590.7316022316344
 20
42.6407197591727
 30
0.0
 10
590.9867754491712
 20
42.79026635097919
 30
0.0
 10
591.3679507645053
 20
43.01294593507769
 30
0.0
 10
591.5857652304104
 20
43.04231518068534
 30
0.0
 10
591.8253165087943
 20
43.03646811203098
 30
0.0
 10
591.8253165087943
 20
43.03646811203098
 30
0.0
 10
591.591210592058
 20
42.28639186212602
 30
0.0
 10
591.591210592058
 20
42.28639186212602
 30
0.0
 10
591.4387404659245
 20
42.35095510493986
 30
0.0
 10
590.968877170313
 20
42.22805507791734
 30
0.0
 10
590.6993317687555
 20
42.03416449597226
 30
0.0
 10
590.4562543955343
 20
41.85933267979383
 30
0.0
 10
590.2882069643596
 20
41.71056718494513
 30
0.0
 10
590.0890941913261
 20
41.33657796162161
 30
0.0
 10
589.8914989780961
 20
40.96203081189956
 30
0.0
 10
589.735547391237
 20
40.36480407807901
 30
0.0
 10
589.4671624765878
 20
39.49841133265191
 30
0.0
 10
589.4671624765878
 20
39.49841133265191
 30
0.0
 10
588.6289784898598
 20
36.81237511467916
 30
0.0
 10
588.6289784898598
 20
36.81237511467916
 30
0.0
 10
588.6289784898598
 20
36.81237511467916
 30
0.0
 10
588.0906911007581
 20
36.81237511467916
 30
0.0
 10
588.0906911007581
 20
36.81237511467916
 30
0.0
 10
588.0906911007581
 20
36.81237511467916
 30
0.0
 10
589.9393467460162
 20
42.91472857191693
 30
0.0
 10
589.9393467460162
 20
42.91472857191693
 30
0.0
  0
SPLINE
  5
17307
102
{ACAD_REACTORS
330
172F9
330
1730A
102
}
330
A
100
AcDbEntity
  8
TEMPLATE
100
AcDbSpline
210
0.0
220
0.0
230
1.0
 70
    11
 71
     3
 72
   104
 73
   100
 74
     0
 42
0.000000001
 43
0.0000000001
 40
0.0
 40
0.0
 40
0.0
 40
0.0
 40
1.0
 40
1.0
 40
1.0
 40
2.0
 40
2.0
 40
2.0
 40
3.0
 40
3.0
 40
3.0
 40
4.0
 40
4.0
 40
4.0
 40
5.0
 40
5.0
 40
5.0
 40
6.0
 40
6.0
 40
6.0
 40
7.0
 40
7.0
 40
7.0
 40
8.0
 40
8.0
 40
8.0
 40
9.0
 40
9.0
 40
9.0
 40
10.0
 40
10.0
 40
10.0
 40
11.0
 40
11.0
 40
11.0
 40
12.0
 40
12.0
 40
12.0
 40
13.0
 40
13.0
 40
13.0
 40
14.0
 40
14.0
 40
14.0
 40
15.0
 40
15.0
 40
15.0
 40
16.0
 40
16.0
 40
16.0
 40
17.0
 40
17.0
 40
17.0
 40
18.0
 40
18.0
 40
18.0
 40
19.0
 40
19.0
 40
19.0
 40
20.0
 40
20.0
 40
20.0
 40
21.0
 40
21.0
 40
21.0
 40
22.0
 40
22.0
 40
22.0
 40
23.0
 40
23.0
 40
23.0
 40
24.0
 40
24.0
 40
24.0
 40
25.0
 40
25.0
 40
25.0
 40
26.0
 40
26.0
 40
26.0
 40
27.0
 40
27.0
 40
27.0
 40
28.0
 40
28.0
 40
28.0
 40
29.0
 40
29.0
 40
29.0
 40
30.0
 40
30.0
 40
30.0
 40
31.0
 40
31.0
 40
31.0
 40
32.0
 40
32.0
 40
32.0
 40
33.0
 40
33.0
 40
33.0
 40
33.0
 10
592.9921860953021
 20
42.91803149619498
 30
0.0
 10
592.9921860953021
 20
42.91803149619498
 30
0.0
 10
593.4764215749343
 20
42.91803149619498
 30
0.0
 10
593.4764215749343
 20
42.91803149619498
 30
0.0
 10
593.4764215749343
 20
42.91803149619498
 30
0.0
 10
593.2317820077977
 20
42.12401296315816
 30
0.0
 10
593.2317820077977
 20
42.12401296315816
 30
0.0
 10
593.4441064779436
 20
42.4569388035653
 30
0.0
 10
593.6346941356106
 20
42.6053249084632
 30
0.0
 10
593.8879034522253
 20
42.79707305303871
 30
0.0
 10
594.1418715487417
 20
42.98609851679041
 30
0.0
 10
594.4433303402833
 20
43.02461775533059
 30
0.0
 10
594.6525750567104
 20
43.02461775533059
 30
0.0
 10
594.9116314419795
 20
43.02461775533059
 30
0.0
 10
595.1617163707637
 20
42.97346706313235
 30
0.0
 10
595.2931638302083
 20
42.68952716049805
 30
0.0
 10
595.3939030206897
 20
42.46686989345537
 30
0.0
 10
595.3985896024354
 20
42.44060271862234
 30
0.0
 10
595.369800600282
 20
42.0010906190797
 30
0.0
 10
595.6330972261784
 20
42.451694295421
 30
0.0
 10
595.8275680515779
 20
42.64578573086951
 30
0.0
 10
596.1581729181679
 20
42.83226705024479
 30
0.0
 10
596.5051138697007
 20
43.02461775533059
 30
0.0
 10
596.7073510305648
 20
43.0390122564073
 30
0.0
 10
596.9423049954265
 20
43.00437618559952
 30
0.0
 10
597.2884425329456
 20
42.95324781045711
 30
0.0
 10
597.5093813866816
 20
42.82974522292441
 30
0.0
 10
597.6248944681903
 20
42.45441697624481
 30
0.0
 10
597.7408092567058
 20
42.0802492164738
 30
0.0
 10
597.678187597758
 20
41.87955193246919
 30
0.0
 10
597.5350460010044
 20
41.28388739256386
 30
0.0
 10
597.4697016612328
 20
41.01260126064356
 30
0.0
 10
597.3751666123011
 20
40.68411651436711
 30
0.0
 10
597.251485488321
 20
40.29325559675826
 30
0.0
 10
597.251485488321
 20
40.29325559675826
 30
0.0
 10
596.1581729181679
 20
36.81237511467916
 30
0.0
 10
596.1581729181679
 20
36.81237511467916
 30
0.0
 10
596.1581729181679
 20
36.81237511467916
 30
0.0
 10
595.5895343329975
 20
36.81237511467916
 30
0.0
 10
595.5895343329975
 20
36.81237511467916
 30
0.0
 10
595.5895343329975
 20
36.81237511467916
 30
0.0
 10
596.5467574960716
 20
39.85548422757834
 30
0.0
 10
596.5467574960716
 20
39.85548422757834
 30
0.0
 10
596.7466736831187
 20
40.49218983334411
 30
0.0
 10
596.8820043102957
 20
40.95716569370618
 30
0.0
 10
596.952035231813
 20
41.24869339535778
 30
0.0
 10
597.0399197980768
 20
41.61234982178448
 30
0.0
 10
597.0749129417799
 20
41.73234863153571
 30
0.0
 10
597.0333139495209
 20
41.99702891489992
 30
0.0
 10
596.9951964179876
 20
42.24340921239921
 30
0.0
 10
596.8707118799938
 20
42.40384652750092
 30
0.0
 10
596.6575839958344
 20
42.40384652750092
 30
0.0
 10
596.4304410005492
 20
42.40384652750092
 30
0.0
 10
596.2464591914385
 20
42.37856130312887
 30
0.0
 10
595.9890096341963
 20
42.11992894192245
 30
0.0
 10
595.7315154428426
 20
41.85933267979383
 30
0.0
 10
595.5187446315782
 20
41.55343279412157
 30
0.0
 10
595.3519023214238
 20
41.20162672439526
 30
0.0
 10
595.1854170841642
 20
40.8476782172995
 30
0.0
 10
595.0166108730879
 20
40.39903844188016
 30
0.0
 10
594.8454836881943
 20
39.85548422757834
 30
0.0
 10
594.8454836881943
 20
39.85548422757834
 30
0.0
 10
593.8879034522253
 20
36.81237511467916
 30
0.0
 10
593.8879034522253
 20
36.81237511467916
 30
0.0
 10
593.8879034522253
 20
36.81237511467916
 30
0.0
 10
593.3530975238492
 20
36.81237511467916
 30
0.0
 10
593.3530975238492
 20
36.81237511467916
 30
0.0
 10
593.3530975238492
 20
36.81237511467916
 30
0.0
 10
594.4479722879174
 20
40.29169340284293
 30
0.0
 10
594.4479722879174
 20
40.29169340284293
 30
0.0
 10
594.5634853694261
 20
40.66197799488166
 30
0.0
 10
594.6502540828932
 20
40.96379385931832
 30
0.0
 10
594.7074303801934
 20
41.19968514052912
 30
0.0
 10
594.804643475837
 20
41.60574397322828
 30
0.0
 10
594.8318702840753
 20
41.88033302942674
 30
0.0
 10
594.7583579018323
 20
42.12401296315816
 30
0.0
 10
594.6860060064979
 20
42.36691179993202
 30
0.0
 10
594.5588434217922
 20
42.42895321542549
 30
0.0
 10
594.3464743175347
 20
42.42895321542549
 30
0.0
 10
594.1683395770782
 20
42.42895321542549
 30
0.0
 10
593.9944897113609
 20
42.3525172988552
 30
0.0
 10
593.7961357182293
 20
42.20042656267251
 30
0.0
 10
593.5464078623398
 20
42.00908012510374
 30
0.0
 10
593.4464720858722
 20
41.85194573428019
 30
0.0
 10
593.3239514488008
 20
41.66524124434543
 30
0.0
 10
593.1586266984499
 20
41.41825838633597
 30
0.0
 10
593.0812311484743
 20
41.25199631963583
 30
0.0
 10
592.941615646558
 20
40.88715708924472
 30
0.0
 10
592.8019555105301
 20
40.52017542148403
 30
0.0
 10
592.6697492711836
 20
40.09311623915196
 30
0.0
 10
592.5775351960687
 20
39.7977276868239
 30
0.0
 10
592.5775351960687
 20
39.7977276868239
 30
0.0
 10
591.6382549459648
 20
36.81237511467916
 30
0.0
 10
591.6382549459648
 20
36.81237511467916
 30
0.0
 10
591.6382549459648
 20
36.81237511467916
 30
0.0
 10
591.0781861102724
 20
36.81237511467916
 30
0.0
 10
591.0781861102724
 20
36.81237511467916
 30
0.0
 10
591.0781861102724
 20
36.81237511467916
 30
0.0
 10
592.9921860953021
 20
42.91803149619498
 30
0.0
 10
592.9921860953021
 20
42.91803149619498
 30
0.0
  0
SPLINE
  5
17308
102
{ACAD_REACTORS
330
172F9
330
1730A
102
}
330
A
100
AcDbEntity
  8
TEMPLATE
100
AcDbSpline
210
0.0
220
0.0
230
1.0
 70
    11
 71
     3
 72
    32
 73
    28
 74
     0
 42
0.000000001
 43
0.0000000001
 40
0.0
 40
0.0
 40
0.0
 40
0.0
 40
1.0
 40
1.0
 40
1.0
 40
2.0
 40
2.0
 40
2.0
 40
3.0
 40
3.0
 40
3.0
 40
4.0
 40
4.0
 40
4.0
 40
5.0
 40
5.0
 40
5.0
 40
6.0
 40
6.0
 40
6.0
 40
7.0
 40
7.0
 40
7.0
 40
8.0
 40
8.0
 40
8.0
 40
9.0
 40
9.0
 40
9.0
 40
9.0
 10
585.394880012287
 20
42.5961972325865
 30
0.0
 10
585.0701222143513
 20
42.17612328876155
 30
0.0
 10
584.8200372855671
 20
41.79807236125814
 30
0.0
 10
584.4151612568324
 20
40.60984535222244
 30
0.0
 10
584.0429350809274
 20
39.52296009417805
 30
0.0
 10
583.8060618492556
 20
38.73222216836346
 30
0.0
 10
583.7702876085951
 20
37.76919657074652
 30
0.0
 10
583.7430608003568
 20
37.0525512706291
 30
0.0
 10
584.1794485120689
 20
36.81237511467916
 30
0.0
 10
584.8192785056652
 20
36.81237511467916
 30
0.0
 10
585.0950280487724
 20
36.81237511467916
 30
0.0
 10
585.7908738527602
 20
36.82991632064248
 30
0.0
 10
586.2864017626947
 20
37.44247487188884
 30
0.0
 10
586.6332980801157
 20
37.87283697849896
 30
0.0
 10
586.9530122234106
 20
38.3189549265978
 30
0.0
 10
587.3816335996579
 20
39.78237355234214
 30
0.0
 10
587.7383047875777
 20
41.00579455858404
 30
0.0
 10
587.985265328531
 20
41.79651016734281
 30
0.0
 10
587.9670099767781
 20
42.24671213667737
 30
0.0
 10
587.9670099767781
 20
42.24671213667737
 30
0.0
 10
587.9670099767781
 20
42.24671213667737
 30
0.0
 10
587.9670099767781
 20
42.24671213667737
 30
0.0
 10
587.8506934812557
 20
42.9977703370432
 30
0.0
 10
587.305398536591
 20
43.1564669217822
 30
0.0
 10
586.9938524357677
 20
43.1564669217822
 30
0.0
 10
586.6869929166902
 20
43.1564669217822
 30
0.0
 10
585.8647433078983
 20
43.20955919784658
 30
0.0
 10
585.394880012287
 20
42.5961972325865
 30
0.0
  0
SPLINE
  5
17309
102
{ACAD_REACTORS
330
172F9
330
1730A
102
}
330
A
100
AcDbEntity
  8
TEMPLATE
100
AcDbSpline
210
0.0
220
0.0
230
1.0
 70
    11
 71
     3
 72
    29
 73
    25
 74
     0
 42
0.000000001
 43
0.0000000001
 40
0.0
 40
0.0
 40
0.0
 40
0.0
 40
1.0
 40
1.0
 40
1.0
 40
2.0
 40
2.0
 40
2.0
 40
3.0
 40
3.0
 40
3.0
 40
4.0
 40
4.0
 40
4.0
 40
5.0
 40
5.0
 40
5.0
 40
6.0
 40
6.0
 40
6.0
 40
7.0
 40
7.0
 40
7.0
 40
8.0
 40
8.0
 40
8.0
 40
8.0
 10
584.3513791109762
 20
37.94925057801331
 30
0.0
 10
584.3490135030473
 20
38.37439049353518
 30
0.0
 10
584.4832282774277
 20
39.12973356864027
 30
0.0
 10
584.82704484113
 20
40.1403837636178
 30
0.0
 10
585.2953459428262
 20
41.50888795047954
 30
0.0
 10
585.5761837746858
 20
42.00908012510374
 30
0.0
 10
585.821939194619
 20
42.25255920533161
 30
0.0
 10
586.1809759904676
 20
42.60708795588196
 30
0.0
 10
586.6636492761844
 20
42.62476306418078
 30
0.0
 10
586.8060320930364
 20
42.60708795588196
 30
0.0
 10
587.0086709609071
 20
42.58276236491495
 30
0.0
 10
587.2949095203024
 20
42.45013210150578
 30
0.0
 10
587.3120043851471
 20
42.00363476345613
 30
0.0
 10
587.325662423378
 20
41.621499814717
 30
0.0
 10
587.2155500694051
 20
40.90583646506057
 30
0.0
 10
586.8301345134438
 20
39.78237355234214
 30
0.0
 10
586.3859358321553
 20
38.47687041437903
 30
0.0
 10
586.1191131114214
 20
37.96366739614584
 30
0.0
 10
585.9052264473606
 20
37.74000586158636
 30
0.0
 10
585.5022696854361
 20
37.32071301471897
 30
0.0
 10
585.0701222143513
 20
37.36097298362186
 30
0.0
 10
585.006340068495
 20
37.36097298362186
 30
0.0
 10
584.923499156872
 20
37.36097298362186
 30
0.0
 10
584.3525395978846
 20
37.45086608491963
 30
0.0
 10
584.3513791109762
 20
37.94925057801331
 30
0.0
  0
MTEXT
  5
17353
330
A
100
AcDbEntity
  8
TEMPLATE
390
1D
100
AcDbMText
 10
39.66064336431923
 20
69.04478720817849
 30
0.0
 40
7.329785156250001
 41
0.0
 46
8.11407216796875
 71
     1
 72
     1
  1
{W1200用}
  7
ＭＳ ゴシック
 73
     1
 44
0.7828267384257843
1001
ACAD
1000
ACAD_MTEXT_DEFINED_HEIGHT_BEGIN
1070
    46
1040
8.11407216796875
1000
ACAD_MTEXT_DEFINED_HEIGHT_END
  0
LINE
  5
177B1
330
A
100
AcDbEntity
  8
MODEL
100
AcDbLine
 10
504.4769835977031
 20
651.6521019060203
 30
0.0
 11
404.4769835977027
 21
651.6521019060203
 31
0.0
  0
LINE
  5
177B2
102
{ACAD_REACTORS
330
17AF1
330
17CE9
102
}
330
A
100
AcDbEntity
  8
MODEL
100
AcDbLine
 10
507.4769835977031
 20
654.6521019060203
 30
0.0
 11
487.4769835977027
 21
634.6521019060201
 31
0.0
  0
LINE
  5
177B3
102
{ACAD_REACTORS
330
17AF1
330
17CE9
102
}
330
A
100
AcDbEntity
  8
MODEL
100
AcDbLine
 10
487.4769835977027
 20
634.6521019060201
 30
0.0
 11
407.4769835977024
 21
634.6521019060201
 31
0.0
  0
DIMENSION
  5
177B4
330
A
100
AcDbEntity
  8
DIM
100
AcDbDimension
  2
*D53
 10
407.4769835977027
 20
689.1238918014817
 30
0.0
 11
457.4769835977031
 21
689.1238918014817
 31
0.0
 70
   160
 71
     5
 42
100.0000000000005
 73
     0
 74
     0
 75
     0
  3
tfrom線あり
100
AcDbAlignedDimension
 13
507.4769835977031
 23
654.6521019060203
 33
0.0
 14
407.4769835977027
 24
654.6521019060203
 34
0.0
 50
-0.0000000000000254
100
AcDbRotatedDimension
1001
ACAD
1000
DSTYLE
1002
{
1070
   144
1040
1.0
1002
}
  0
LINE
  5
177B5
102
{ACAD_REACTORS
102
}
330
A
100
AcDbEntity
  8
MODEL
100
AcDbLine
 10
507.4769835977031
 20
654.6521019060203
 30
0.0
 11
404.4769835977027
 21
654.6521019060203
 31
0.0
  0
LINE
  5
177B6
102
{ACAD_REACTORS
330
177BB
330
177D9
330
177E6
102
}
330
A
100
AcDbEntity
  8
MODEL
100
AcDbLine
 10
404.4769835977027
 20
654.6521019060203
 30
0.0
 11
404.4769835977024
 21
629.6521019060203
 31
0.0
  0
LINE
  5
177B7
330
A
100
AcDbEntity
  8
MODEL
100
AcDbLine
 10
407.4769835977027
 20
654.6521019060203
 30
0.0
 11
407.4769835977024
 21
629.6521019060203
 31
0.0
  0
LINE
  5
177B8
330
A
100
AcDbEntity
  8
MODEL
100
AcDbLine
 10
407.4769835977024
 20
629.6521019060203
 30
0.0
 11
404.4769835977024
 21
629.6521019060203
 31
0.0
  0
DIMENSION
  5
177B9
102
{ACAD_REACTORS
330
177BB
102
}
102
{ACAD_XDICTIONARY
360
177BA
102
}
330
A
100
AcDbEntity
  8
DIM
100
AcDbDimension
  2
*D54
 10
407.4769835977027
 20
689.1238918014817
 30
0.0
 11
391.9259835977027
 21
689.1238918014817
 31
0.0
 70
   160
 71
     5
 42
2.999999999999999
 73
     0
 74
     0
 75
     0
  3
tfrom線あり
100
AcDbAlignedDimension
 13
404.4769835977027
 23
654.6521019060203
 33
0.0
 14
407.4769835977027
 24
656.6521019060203
 34
0.0
 50
-0.0000000000000254
100
AcDbRotatedDimension
1001
ACAD
1000
DSTYLE
1002
{
1070
   144
1040
1.0
1002
}
  0
DIMENSION
  5
177C0
330
A
100
AcDbEntity
  8
DIM
100
AcDbDimension
  2
*D55
 10
128.6065074121216
 20
218.3152593408698
 30
0.0
 11
133.1065074121216
 21
218.3152593408698
 31
0.0
 70
   160
 71
     5
 42
9.0
 73
     0
 74
     0
 75
     0
  3
tfrom線あり
100
AcDbAlignedDimension
 13
137.6065074121216
 23
198.415290598657
 33
0.0
 14
128.6065074121216
 24
198.415290598657
 34
0.0
 50
-0.0000000000000127
100
AcDbRotatedDimension
1001
ACAD
1000
DSTYLE
1002
{
1070
   172
1070
     1
1070
   144
1040
1.0
1002
}
  0
DIMENSION
  5
177C1
330
A
100
AcDbEntity
  8
DIM
100
AcDbDimension
  2
*D56
 10
107.6839942842821
 20
201.7566683003957
 30
0.0
 11
107.6839942842821
 21
194.2566683003956
 31
0.0
 70
   160
 71
     5
 42
15.0
 73
     0
 74
     0
 75
     0
 52
-90.00000000000001
  3
tfrom線あり
100
AcDbAlignedDimension
 13
127.2037516306559
 23
186.7566683003957
 33
0.0
 14
127.2037516306559
 24
201.7566683003957
 34
0.0
 50
90.0
100
AcDbRotatedDimension
1001
ACAD
1000
DSTYLE
1002
{
1070
   144
1040
1.0
1002
}
  0
LINE
  5
177C3
102
{ACAD_REACTORS
102
}
330
A
100
AcDbEntity
  8
MODEL
100
AcDbLine
 10
507.4769835977031
 20
766.4416727062239
 30
0.0
 11
404.4769835977031
 21
766.4416727062239
 31
0.0
  0
LINE
  5
177C4
330
A
100
AcDbEntity
  8
MODEL
100
AcDbLine
 10
404.4769835977031
 20
766.4416727062239
 30
0.0
 11
404.4769835977031
 21
811.4416727062239
 31
0.0
  0
LINE
  5
177C5
330
A
100
AcDbEntity
  8
MODEL
100
AcDbLine
 10
407.4769835977031
 20
766.4416727062239
 30
0.0
 11
407.4769835977031
 21
811.4416727062239
 31
0.0
  0
LINE
  5
177C6
330
A
100
AcDbEntity
  8
MODEL
100
AcDbLine
 10
407.4769835977031
 20
811.4416727062239
 30
0.0
 11
404.4769835977031
 21
811.4416727062239
 31
0.0
  0
LINE
  5
177C8
330
A
100
AcDbEntity
  8
MODEL
100
AcDbLine
 10
404.4769835977031
 20
811.4416727062239
 30
0.0
 11
407.4769835977031
 21
811.4416727062239
 31
0.0
  0
LINE
  5
177D1
102
{ACAD_REACTORS
102
}
330
A
100
AcDbEntity
  8
MODEL
100
AcDbLine
 10
404.4769835977031
 20
766.4416727062239
 30
0.0
 11
507.4769835977031
 21
766.4416727062239
 31
0.0
  0
LINE
  5
177D2
330
A
100
AcDbEntity
  8
HIDDEN
 48
0.753
100
AcDbLine
 10
407.4769835977031
 20
779.941672706223
 30
0.0
 11
487.4769835977027
 21
779.9416727062239
 31
0.0
  0
LINE
  5
177D4
102
{ACAD_REACTORS
102
}
330
A
100
AcDbEntity
  8
MODEL
100
AcDbLine
 10
507.4769835977031
 20
793.4416727062239
 30
0.0
 11
507.4769835977031
 21
766.4416727062239
 31
0.0
  0
LINE
  5
177D5
102
{ACAD_REACTORS
102
}
330
A
100
AcDbEntity
  8
HIDDEN
 48
0.753
100
AcDbLine
 10
487.4769835977027
 20
779.9416727062239
 30
0.0
 11
504.4769835977031
 21
793.4416727062239
 31
0.0
  0
LINE
  5
177D6
102
{ACAD_REACTORS
102
}
330
A
100
AcDbEntity
  8
HIDDEN
 48
0.753
100
AcDbLine
 10
487.4769835977027
 20
779.9416727062239
 30
0.0
 11
504.4769835977031
 21
766.4416727062239
 31
0.0
  0
DIMENSION
  5
177D7
102
{ACAD_REACTORS
330
177D9
102
}
102
{ACAD_XDICTIONARY
360
177D8
102
}
330
A
100
AcDbEntity
  8
DIM
100
AcDbDimension
  2
*D57
 10
356.0825271375556
 20
181.7566683003954
 30
0.0
 11
349.0825271375558
 21
418.2043851032079
 31
0.0
 70
    32
  1
1150
 71
     5
 42
472.8954336056249
 73
     0
 74
     0
 75
     0
  3
tfrom線あり
100
AcDbAlignedDimension
 13
404.4769835977027
 23
654.6521019060203
 33
0.0
 14
404.4769835977027
 24
181.7566683003954
 34
0.0
 50
89.99999999999997
100
AcDbRotatedDimension
1001
ACAD
1000
DSTYLE
1002
{
1070
   144
1040
1.0
1002
}
  0
DIMENSION
  5
177E4
102
{ACAD_REACTORS
330
177E6
102
}
102
{ACAD_XDICTIONARY
360
177E5
102
}
330
A
100
AcDbEntity
  8
DIM
100
AcDbDimension
  2
*D58
 10
377.108185103823
 20
642.1521019060203
 30
0.0
 11
370.1081851038228
 21
418.2043851032079
 31
0.0
 70
    32
  1
1125
 71
     5
 42
447.8954336056249
 73
     0
 74
     0
 75
     0
  3
tfrom線あり
100
AcDbAlignedDimension
 13
404.4769835977027
 23
194.2566683003954
 33
0.0
 14
404.4769835977027
 24
642.1521019060203
 34
0.0
 50
89.99999999999997
100
AcDbRotatedDimension
1001
ACAD
1000
DSTYLE
1002
{
1070
   144
1040
1.0
1002
}
  0
LINE
  5
177E9
330
A
100
AcDbEntity
  8
MODEL
100
AcDbLine
 10
487.4769835977027
 20
634.6521019060201
 30
0.0
 11
487.4769835977027
 21
426.8994768651967
 31
0.0
  0
LINE
  5
177EB
102
{ACAD_REACTORS
102
}
330
A
100
AcDbEntity
  8
MODEL
100
AcDbLine
 10
507.4769835977031
 20
654.6521019060203
 30
0.0
 11
507.4769835977027
 21
422.7913356447152
 31
0.0
  0
LINE
  5
177EC
330
A
100
AcDbEntity
  8
MODEL
100
AcDbLine
 10
504.4769835977027
 20
425.3747617164522
 30
0.0
 11
504.4769835977031
 21
651.6521019060203
 31
0.0
  0
SPLINE
  5
177EF
102
{ACAD_REACTORS
102
}
330
A
100
AcDbEntity
  8
MODEL
100
AcDbSpline
210
0.0
220
0.0
230
1.0
 70
  1064
 71
     3
 72
    10
 73
     6
 74
     4
 42
0.000000001
 43
0.0000000001
 44
0.0
 40
0.0
 40
0.0
 40
0.0
 40
0.0
 40
8.212793179137167
 40
15.00432278201101
 40
23.10385385594952
 40
23.10385385594952
 40
23.10385385594952
 40
23.10385385594952
 10
170.1065074121215
 20
406.2538380979578
 30
0.0
 10
166.7870824055175
 20
409.3264516387994
 30
0.0
 10
160.7226749422581
 20
414.9399480882508
 30
0.0
 10
152.2632173118445
 20
402.981405614894
 30
0.0
 10
146.332394643381
 20
408.6931191426233
 30
0.0
 10
143.1065074121215
 20
411.7998287456079
 30
0.0
 11
170.1065074121215
 21
406.2538380979578
 31
0.0
 11
160.3191829779433
 21
411.4630466781188
 31
0.0
 11
152.6426139645226
 21
406.4497771183334
 31
0.0
 11
143.1065074121215
 21
411.7998287456079
 31
0.0
  0
DIMENSION
  5
17800
102
{ACAD_XDICTIONARY
360
17801
102
}
330
A
100
AcDbEntity
  8
DIM
100
AcDbDimension
  2
*D62
 10
133.1065074121216
 20
162.0571252954138
 30
0.0
 11
151.6065074121216
 21
162.0571252954138
 31
0.0
 70
   160
 71
     5
 42
37.0
 73
     0
 74
     0
 75
     0
 52
-90.00000000000001
  3
tfrom線あり
100
AcDbAlignedDimension
 13
170.1065074121216
 23
181.7566683003953
 33
0.0
 14
133.1065074121216
 24
184.7566683003957
 34
0.0
 50
0.0000000000000127
100
AcDbRotatedDimension
1001
ACAD
1000
DSTYLE
1002
{
1070
   144
1040
1.0
1002
}
  0
DIMENSION
  5
179E3
102
{ACAD_XDICTIONARY
360
179E4
102
}
330
A
100
AcDbEntity
  8
DIM
100
AcDbDimension
  2
*D73
 10
123.106507412119
 20
676.0670155631972
 30
0.0
 11
146.6065074121203
 21
676.0670155631972
 31
0.0
 70
   160
 71
     5
 42
47.00000000000227
 73
     0
 74
     0
 75
     0
  3
tfrom線あり
100
AcDbAlignedDimension
 13
170.1065074121212
 23
654.6521019060201
 33
0.0
 14
123.106507412119
 24
654.6521019060192
 34
0.0
 50
-0.0000000000000636
100
AcDbRotatedDimension
1001
ACAD
1000
DSTYLE
1002
{
1070
   144
1040
1.0
1002
}
  0
DIMENSION
  5
179E6
102
{ACAD_XDICTIONARY
360
179E7
102
}
330
A
100
AcDbEntity
  8
DIM
100
AcDbDimension
  2
*D74
 10
107.6839942842795
 20
654.6521019060201
 30
0.0
 11
107.6839942842795
 21
642.1521019060201
 31
0.0
 70
   160
 71
     5
 42
25.0
 73
     0
 74
     0
 75
     0
 52
-90.0
  3
tfrom線あり
100
AcDbAlignedDimension
 13
123.1065074121211
 23
629.6521019060201
 33
0.0
 14
123.1065074121212
 24
654.6521019060201
 34
0.0
 50
89.99999999999994
100
AcDbRotatedDimension
1001
ACAD
1000
DSTYLE
1002
{
1070
   144
1040
1.0
1002
}
  0
SPLINE
  5
17A82
102
{ACAD_REACTORS
102
}
330
A
100
AcDbEntity
  8
MODEL
100
AcDbSpline
210
0.0
220
0.0
230
1.0
 70
  1064
 71
     3
 72
    10
 73
     6
 74
     4
 42
0.000000001
 43
0.0000000001
 44
0.0
 40
0.0
 40
0.0
 40
0.0
 40
0.0
 40
8.21279317913738
 40
15.00432278201147
 40
23.10385385594999
 40
23.10385385594999
 40
23.10385385594999
 40
23.10385385594999
 10
170.1065074121215
 20
423.5240779279976
 30
0.0
 10
166.7870824055175
 20
426.5966914688395
 30
0.0
 10
160.7226749422581
 20
432.2101879182916
 30
0.0
 10
152.2632173118447
 20
420.2516454449338
 30
0.0
 10
146.332394643381
 20
425.9633589726634
 30
0.0
 10
143.1065074121215
 20
429.070068575648
 30
0.0
 11
170.1065074121215
 21
423.5240779279976
 31
0.0
 11
160.3191829779433
 21
428.7332865081593
 31
0.0
 11
152.6426139645226
 21
423.7200169483734
 31
0.0
 11
143.1065074121215
 21
429.070068575648
 31
0.0
  0
LINE
  5
17AA5
330
A
100
AcDbEntity
  8
MODEL
100
AcDbLine
 10
504.4769835977013
 20
184.7566683003947
 30
0.0
 11
404.4769835977011
 21
184.7566683003954
 31
0.0
  0
LINE
  5
17AA6
330
A
100
AcDbEntity
  8
MODEL
100
AcDbLine
 10
507.4769835977013
 20
181.7566683003947
 30
0.0
 11
487.4769835977013
 21
201.7566683003949
 31
0.0
  0
LINE
  5
17AA7
102
{ACAD_REACTORS
102
}
330
A
100
AcDbEntity
  8
MODEL
100
AcDbLine
 10
487.4769835977013
 20
201.7566683003949
 30
0.0
 11
407.4769835977013
 21
201.7566683003956
 31
0.0
  0
LINE
  5
17AA8
102
{ACAD_REACTORS
102
}
330
A
100
AcDbEntity
  8
MODEL
100
AcDbLine
 10
507.4769835977013
 20
181.7566683003947
 30
0.0
 11
404.4769835977011
 21
181.7566683003954
 31
0.0
  0
LINE
  5
17AA9
102
{ACAD_REACTORS
330
177BB
330
177D9
330
177E6
102
}
330
A
100
AcDbEntity
  8
MODEL
100
AcDbLine
 10
404.4769835977011
 20
181.7566683003954
 30
0.0
 11
404.4769835977013
 21
206.7566683003954
 31
0.0
  0
LINE
  5
17AAA
330
A
100
AcDbEntity
  8
MODEL
100
AcDbLine
 10
407.4769835977011
 20
181.7566683003954
 30
0.0
 11
407.4769835977013
 21
206.7566683003954
 31
0.0
  0
LINE
  5
17AAB
330
A
100
AcDbEntity
  8
MODEL
100
AcDbLine
 10
407.4769835977013
 20
206.7566683003954
 30
0.0
 11
404.4769835977013
 21
206.7566683003954
 31
0.0
  0
LINE
  5
17AAD
330
A
100
AcDbEntity
  8
MODEL
100
AcDbLine
 10
487.4769835977013
 20
201.7566683003949
 30
0.0
 11
487.4769835977027
 21
414.1067066207224
 31
0.0
  0
LINE
  5
17AAE
102
{ACAD_REACTORS
102
}
330
A
100
AcDbEntity
  8
MODEL
100
AcDbLine
 10
507.4769835977013
 20
181.7566683003947
 30
0.0
 11
507.4769835977027
 21
409.9985654002408
 31
0.0
  0
LINE
  5
17AAF
330
A
100
AcDbEntity
  8
MODEL
100
AcDbLine
 10
504.4769835977027
 20
412.5819914719777
 30
0.0
 11
504.4769835977013
 21
184.7566683003947
 31
0.0
  0
SPLINE
  5
17AB0
102
{ACAD_REACTORS
102
}
330
A
100
AcDbEntity
  8
MODEL
100
AcDbSpline
210
0.0
220
0.0
230
1.0
 70
  1064
 71
     3
 72
    10
 73
     6
 74
     4
 42
0.000000001
 43
0.0000000001
 44
0.0
 40
0.0
 40
0.0
 40
0.0
 40
0.0
 40
8.212793179137474
 40
15.00432278201144
 40
23.10385385594976
 40
23.10385385594976
 40
23.10385385594976
 40
23.10385385594976
 10
507.4769835977029
 20
422.791335644715
 30
0.0
 10
505.0181502594776
 20
425.0673456749681
 30
0.0
 10
500.5259965829892
 20
429.2254911930804
 30
0.0
 10
494.2597316715717
 20
420.3673115831864
 30
0.0
 10
489.8665296949321
 20
424.5982104926156
 30
0.0
 10
487.4769835977029
 20
426.8994768651967
 30
0.0
 11
507.4769835977029
 21
422.791335644715
 31
0.0
 11
500.2271136464597
 21
426.6500086670567
 31
0.0
 11
494.5407662291109
 21
422.9364756598081
 31
0.0
 11
487.4769835977029
 21
426.8994768651967
 31
0.0
  0
SPLINE
  5
17AB1
102
{ACAD_REACTORS
102
}
330
A
100
AcDbEntity
  8
MODEL
100
AcDbSpline
210
0.0
220
0.0
230
1.0
 70
  1064
 71
     3
 72
    10
 73
     6
 74
     4
 42
0.000000001
 43
0.0000000001
 44
0.0
 40
0.0
 40
0.0
 40
0.0
 40
0.0
 40
8.212793179137273
 40
15.00432278201124
 40
23.10385385594975
 40
23.10385385594975
 40
23.10385385594975
 40
23.10385385594975
 10
507.4769835977027
 20
409.9985654002408
 30
0.0
 10
505.0181502594776
 20
412.2745754304939
 30
0.0
 10
500.5259965829891
 20
416.4327209486062
 30
0.0
 10
494.2597316715716
 20
407.574541338712
 30
0.0
 10
489.8665296949319
 20
411.8054402481413
 30
0.0
 10
487.4769835977027
 20
414.1067066207224
 30
0.0
 11
507.4769835977027
 21
409.9985654002408
 31
0.0
 11
500.2271136464597
 21
413.8572384225824
 31
0.0
 11
494.5407662291109
 21
410.1437054153339
 31
0.0
 11
487.4769835977027
 21
414.1067066207224
 31
0.0
  0
DIMENSION
  5
17AEF
102
{ACAD_REACTORS
330
17AF1
102
}
102
{ACAD_XDICTIONARY
360
17AF0
102
}
330
A
100
AcDbEntity
  8
DIM
100
AcDbDimension
  2
*D81
 10
487.4769835977027
 20
676.0670155631974
 30
0.0
 11
497.4769835977031
 21
676.0670155631974
 31
0.0
 70
   160
 71
     5
 42
20.00000000000046
 73
     0
 74
     0
 75
     0
  3
tfrom線あり
100
AcDbAlignedDimension
 13
507.4769835977031
 23
654.6521019060203
 33
0.0
 14
487.4769835977027
 24
634.6521019060201
 34
0.0
 50
-180.0
100
AcDbRotatedDimension
1001
ACAD
1000
DSTYLE
1002
{
1070
   144
1040
1.0
1002
}
  0
LINE
  5
17BAC
102
{ACAD_REACTORS
102
}
330
A
100
AcDbEntity
  8
MODEL
100
AcDbLine
 10
123.1065074121212
 20
654.6521019060201
 30
0.0
 11
123.1065074121213
 21
629.6521019060201
 31
0.0
  0
LINE
  5
17BAD
102
{ACAD_REACTORS
102
}
330
A
100
AcDbEntity
  8
MODEL
100
AcDbLine
 10
123.1065074121212
 20
654.6521019060201
 30
0.0
 11
170.1065074121212
 21
654.6521019060201
 31
0.0
  0
LINE
  5
17BAE
330
A
100
AcDbEntity
  8
MODEL
100
AcDbLine
 10
170.1065074121212
 20
654.6521019060201
 30
0.0
 11
170.1065074121215
 21
423.5240779279974
 31
0.0
  0
LINE
  5
17BB0
102
{ACAD_REACTORS
102
}
330
A
100
AcDbEntity
  8
MODEL
100
AcDbLine
 10
143.1065074121213
 20
629.6521019060201
 30
0.0
 11
143.1065074121215
 21
429.070068575648
 31
0.0
  0
LINE
  5
17BDC
102
{ACAD_REACTORS
102
}
330
A
100
AcDbEntity
  8
MODEL
100
AcDbLine
 10
156.6065074121213
 20
634.6521019060201
 30
0.0
 11
156.6065074121213
 21
426.318725598379
 31
0.0
  0
LINE
  5
17BDD
330
A
100
AcDbEntity
  8
MODEL
100
AcDbLine
 10
170.1065074121212
 20
651.6521019060201
 30
0.0
 11
152.6359191768273
 21
629.6521019060201
 31
0.0
  0
LINE
  5
17BDF
330
A
100
AcDbEntity
  8
HIDDEN
100
AcDbLine
 10
143.1065074121212
 20
651.6521019060201
 30
0.0
 11
156.6065074121213
 21
634.6521019060201
 31
0.0
  0
LINE
  5
17BE0
102
{ACAD_REACTORS
102
}
330
A
100
AcDbEntity
  8
MODEL
100
AcDbLine
 10
123.1065074121213
 20
629.6521019060201
 30
0.0
 11
152.6359191768271
 21
629.6521019060199
 31
0.0
  0
LINE
  5
17BE1
102
{ACAD_REACTORS
102
}
330
A
100
AcDbEntity
  8
HIDDEN
100
AcDbLine
 10
143.1065074121213
 20
629.6521019060201
 30
0.0
 11
143.1065074121212
 21
654.6521019060201
 31
0.0
  0
ARC
  5
17C26
330
A
100
AcDbEntity
  8
MODEL
100
AcDbCircle
 10
133.1065074121213
 20
639.1521019060201
 30
0.0
 40
4.5
100
AcDbArc
 50
180.0
 51
0.0
  0
LINE
  5
17C27
330
A
100
AcDbEntity
  8
MODEL
100
AcDbLine
 10
137.6065074121213
 20
639.1521019060201
 30
0.0
 11
137.6065074121212
 21
645.1521019060201
 31
0.0
  0
LINE
  5
17C28
330
A
100
AcDbEntity
  8
MODEL
100
AcDbLine
 10
128.6065074121213
 20
639.1521019060201
 30
0.0
 11
128.6065074121212
 21
645.1521019060201
 31
0.0
  0
ARC
  5
17C2C
330
A
100
AcDbEntity
  8
MODEL
100
AcDbCircle
 10
133.1065074121212
 20
645.1521019060201
 30
0.0
 40
4.5
100
AcDbArc
 50
0.0
 51
180.0
  0
LINE
  5
17C94
330
A
100
AcDbEntity
  8
MODEL
100
AcDbLine
 10
170.1065074121215
 20
406.2538380979578
 30
0.0
 11
170.1065074121215
 21
406.0672865802829
 31
0.0
  0
LINE
  5
17CA1
102
{ACAD_REACTORS
102
}
330
A
100
AcDbEntity
  8
MODEL
100
AcDbLine
 10
123.1065074121216
 20
181.7566683003953
 30
0.0
 11
123.1065074121216
 21
206.7566683003953
 31
0.0
  0
LINE
  5
17CA2
102
{ACAD_REACTORS
102
}
330
A
100
AcDbEntity
  8
MODEL
100
AcDbLine
 10
123.1065074121216
 20
181.7566683003953
 30
0.0
 11
170.1065074121216
 21
181.7566683003953
 31
0.0
  0
LINE
  5
17CA3
330
A
100
AcDbEntity
  8
MODEL
100
AcDbLine
 10
170.1065074121216
 20
184.7566683003953
 30
0.0
 11
152.6359191768274
 21
206.7566683003953
 31
0.0
  0
LINE
  5
17CA4
330
A
100
AcDbEntity
  8
HIDDEN
100
AcDbLine
 10
143.1065074121216
 20
184.7566683003953
 30
0.0
 11
156.6065074121216
 21
201.7566683003953
 31
0.0
  0
LINE
  5
17CA5
102
{ACAD_REACTORS
102
}
330
A
100
AcDbEntity
  8
MODEL
100
AcDbLine
 10
123.1065074121216
 20
206.7566683003953
 30
0.0
 11
152.6359191768272
 21
206.7566683003955
 31
0.0
  0
LINE
  5
17CA6
102
{ACAD_REACTORS
102
}
330
A
100
AcDbEntity
  8
HIDDEN
100
AcDbLine
 10
143.1065074121216
 20
206.7566683003953
 30
0.0
 11
143.1065074121216
 21
181.7566683003953
 31
0.0
  0
LINE
  5
17CA7
330
A
100
AcDbEntity
  8
MODEL
100
AcDbLine
 10
137.6065074121216
 20
197.2566683003953
 30
0.0
 11
137.6065074121216
 21
191.2566683003953
 31
0.0
  0
LINE
  5
17CA8
330
A
100
AcDbEntity
  8
MODEL
100
AcDbLine
 10
128.6065074121216
 20
197.2566683003953
 30
0.0
 11
128.6065074121216
 21
191.2566683003953
 31
0.0
  0
ARC
  5
17CA9
330
A
100
AcDbEntity
  8
MODEL
100
AcDbCircle
 10
133.1065074121216
 20
191.2566683003953
 30
0.0
 40
4.5
100
AcDbArc
 50
180.0
 51
0.0
  0
ARC
  5
17CAA
330
A
100
AcDbEntity
  8
MODEL
100
AcDbCircle
 10
133.1065074121216
 20
197.2566683003953
 30
0.0
 40
4.5
100
AcDbArc
 50
0.0
 51
180.0
  0
LINE
  5
17CAB
102
{ACAD_REACTORS
102
}
330
A
100
AcDbEntity
  8
MODEL
100
AcDbLine
 10
143.1065074121216
 20
206.7566683003953
 30
0.0
 11
143.1065074121215
 21
411.7998287456079
 31
0.0
  0
LINE
  5
17CAC
330
A
100
AcDbEntity
  8
MODEL
100
AcDbLine
 10
170.1065074121216
 20
181.7566683003953
 30
0.0
 11
170.1065074121215
 21
406.2538380979578
 31
0.0
  0
LINE
  5
17CAD
102
{ACAD_REACTORS
102
}
330
A
100
AcDbEntity
  8
MODEL
100
AcDbLine
 10
156.6065074121216
 20
201.7566683003953
 30
0.0
 11
156.6065074121216
 21
409.0484857683385
 31
0.0
  0
DIMENSION
  5
17CC7
330
A
100
AcDbEntity
  8
DIM
100
AcDbDimension
  2
*D103
 10
529.8126645558298
 20
793.4416727062239
 30
0.0
 11
522.8126645558298
 21
779.9416727062239
 31
0.0
 70
    32
 71
     5
 42
27.0
 73
     0
 74
     0
 75
     0
 52
-270.0
  3
tfrom線あり
100
AcDbAlignedDimension
 13
507.4769835977031
 23
766.4416727062239
 33
0.0
 14
507.4769835977031
 24
793.4416727062239
 34
0.0
 50
90.00000000000004
100
AcDbRotatedDimension
1001
ACAD
1000
DSTYLE
1002
{
1070
   144
1040
1.0
1002
}
  0
LINE
  5
17CD4
330
A
100
AcDbEntity
  8
MODEL
100
AcDbLine
 10
507.4769835977031
 20
793.4416727062239
 30
0.0
 11
407.4769835977031
 21
793.4416727062239
 31
0.0
  0
DIMENSION
  5
17CE7
102
{ACAD_REACTORS
330
17CE9
102
}
102
{ACAD_XDICTIONARY
360
17CE8
102
}
330
A
100
AcDbEntity
  8
DIM
100
AcDbDimension
  2
*D105
 10
529.8126645558298
 20
634.6521019060201
 30
0.0
 11
522.8126645558298
 21
644.6521019060202
 31
0.0
 70
    32
 71
     5
 42
20.00000000000022
 73
     0
 74
     0
 75
     0
 52
-270.0
  3
tfrom線あり
100
AcDbAlignedDimension
 13
507.4769835977031
 23
654.6521019060203
 33
0.0
 14
487.4769835977027
 24
634.6521019060201
 34
0.0
 50
90.00000000000004
100
AcDbRotatedDimension
1001
ACAD
1000
DSTYLE
1002
{
1070
   144
1040
1.0
1002
}
  0
MTEXT
  5
17D1E
330
A
100
AcDbEntity
  8
TEMPLATE
390
1D
100
AcDbMText
 10
39.66064336431926
 20
57.92201314486904
 30
0.0
 40
7.329785156250001
 41
0.0
 46
7.439731933593751
 71
     1
 72
     1
  1
{クローム}
  7
ＭＳ ゴシック
 73
     1
 44
0.7828267384257843
1001
ACAD
1000
ACAD_MTEXT_DEFINED_HEIGHT_BEGIN
1070
    46
1040
7.439731933593751
1000
ACAD_MTEXT_DEFINED_HEIGHT_END
  0
VIEWPORT
  5
349
330
B
100
AcDbEntity
 67
     1
  8
0
100
AcDbViewport
 10
202.5
 20
128.5
 30
0.0
 40
486.0
 41
308.4
 68
     1
 69
     1
 12
202.5
 22
128.5
 13
0.0
 23
0.0
 14
0.5
 24
0.5
 15
0.0
 25
0.0
 16
0.0
 26
0.0
 36
1.0
 17
0.0
 27
0.0
 37
0.0
 42
50.0
 43
0.0
 44
0.0
 45
308.4
 50
0.0
 51
0.0
 72
   100
 90
   557152
  1

281
     0
 71
     1
 74
     0
110
0.0
120
0.0
130
0.0
111
1.0
121
0.0
131
0.0
112
0.0
122
1.0
132
0.0
 79
     0
146
0.0
170
     0
 61
     5
348
26C
292
     1
282
     1
141
0.0
142
0.0
 63
   256
  0
VIEWPORT
  5
34A
330
B
100
AcDbEntity
 67
     1
  8
0
100
AcDbViewport
 10
202.5
 20
128.5
 30
0.0
 40
324.0
 41
205.6
 68
     2
 69
     2
 12
986.6781359294573
 22
1427.077061889956
 13
0.0
 23
0.0
 14
0.5
 24
0.5
 15
0.0
 25
0.0
 16
0.0
 26
0.0
 36
1.0
 17
0.0
 27
0.0
 37
0.0
 42
50.0
 43
0.0
 44
0.0
 45
2890.021615685494
 50
0.0
 51
0.0
 72
   100
 90
   557152
  1

281
     0
 71
     1
 74
     0
110
0.0
120
0.0
130
0.0
111
1.0
121
0.0
131
0.0
112
0.0
122
1.0
132
0.0
 79
     0
146
0.0
170
     0
 61
     5
348
26C
292
     1
282
     1
141
0.0
142
0.0
 63
   256
  0
ENDSEC
  0
SECTION
  2
OBJECTS
  0
DICTIONARY
  5
19
330
0
100
AcDbDictionary
281
     1
  3
ACAD_COLOR
350
674
  3
ACAD_DETAILVIEWSTYLE
350
BBF
  3
ACAD_FIELDLIST
350
36B0
  3
ACAD_GROUP
350
1A
  3
ACAD_IMAGE_VARS
350
27B
  3
ACAD_LAYOUT
350
1E
  3
ACAD_MATERIAL
350
263
  3
ACAD_MLEADERSTYLE
350
336
  3
ACAD_MLINESTYLE
350
1B
  3
ACAD_PLOTSETTINGS
350
22
  3
ACAD_PLOTSTYLENAME
350
1F
  3
ACAD_SCALELIST
350
241
  3
ACAD_SECTIONVIEWSTYLE
350
BC0
  3
ACAD_TABLESTYLE
350
278
  3
ACAD_VISUALSTYLE
350
267
  3
ACDB_RECOMPOSE_DATA
350
17D2A
  3
AcDbVariableDictionary
350
330
  3
APPDATA
350
27A
  3
CENTERLINE
350
366B
  3
DimOffsetDictionary
350
E38
  0
SUN
  5
904
330
15
100
AcDbSun
 90
        1
290
     0
 63
     7
421
 16777215
 40
1.0
291
     1
 91
  2455826
 92
 54000000
292
     0
 70
     2
 71
   256
280
     1
  0
DICTIONARY
  5
2E1
330
2
100
AcDbDictionary
280
     1
281
     1
  3
ACAD_LAYERSTATES
360
2E2
  3
ACLYDICTIONARY
360
DDE
  0
DICTIONARY
  5
1733E
330
A
100
AcDbDictionary
280
     1
281
     1
  3
ACAD_SORTENTS
360
1733F
  0
DICTIONARY
  5
36AE
330
36AC
100
AcDbDictionary
280
     1
281
     1
  3
ACAD_FIELD
360
178F6
  0
DICTIONARY
  5
177BA
330
177B9
100
AcDbDictionary
280
     1
281
     1
  3
ACAD_DIMASSOC
360
177BB
  0
DICTIONARY
  5
177D8
330
177D7
100
AcDbDictionary
280
     1
281
     1
  3
ACAD_DIMASSOC
360
177D9
  0
DICTIONARY
  5
177E5
330
177E4
100
AcDbDictionary
280
     1
281
     1
  3
ACAD_DIMASSOC
360
177E6
  0
DICTIONARY
  5
17801
330
17800
100
AcDbDictionary
280
     1
281
     1
  0
DICTIONARY
  5
179E4
330
179E3
100
AcDbDictionary
280
     1
281
     1
  3
ACAD_DIMASSOC
360
179E5
  0
DICTIONARY
  5
179E7
330
179E6
100
AcDbDictionary
280
     1
281
     1
  0
DICTIONARY
  5
17AF0
330
17AEF
100
AcDbDictionary
280
     1
281
     1
  3
ACAD_DIMASSOC
360
17AF1
  0
DICTIONARY
  5
17CE8
330
17CE7
100
AcDbDictionary
280
     1
281
     1
  3
ACAD_DIMASSOC
360
17CE9
  0
DICTIONARY
  5
674
102
{ACAD_REACTORS
330
19
102
}
330
19
100
AcDbDictionary
281
     1
  0
DICTIONARY
  5
BBF
102
{ACAD_REACTORS
330
19
102
}
330
19
100
AcDbDictionary
281
     1
  0
FIELDLIST
  5
36B0
102
{ACAD_REACTORS
330
19
102
}
330
19
100
AcDbIdSet
 90
        2
330
36B1
330
36AD
100
AcDbFieldList
  0
DICTIONARY
  5
1A
102
{ACAD_REACTORS
330
19
102
}
330
19
100
AcDbDictionary
281
     1
  3
*A2
350
1730A
  0
RASTERVARIABLES
  5
27B
102
{ACAD_REACTORS
330
19
102
}
330
19
100
AcDbRasterVariables
 90
        0
 70
     1
 71
     1
 72
     1
  0
DICTIONARY
  5
1E
102
{ACAD_REACTORS
330
19
102
}
330
19
100
AcDbDictionary
281
     1
  3
Layout1
350
21
  3
Model
350
20
  0
DICTIONARY
  5
263
102
{ACAD_REACTORS
330
19
102
}
330
19
100
AcDbDictionary
281
     1
  3
ByBlock
350
265
  3
ByLayer
350
264
  3
Global
350
266
  0
DICTIONARY
  5
336
102
{ACAD_REACTORS
330
19
102
}
330
19
100
AcDbDictionary
281
     1
  3
Standard
350
D59
  0
DICTIONARY
  5
1B
102
{ACAD_REACTORS
330
19
102
}
330
19
100
AcDbDictionary
281
     1
  3
Standard
350
1C
  0
DICTIONARY
  5
22
102
{ACAD_REACTORS
330
19
102
}
330
19
100
AcDbDictionary
281
     1
  0
ACDBDICTIONARYWDFLT
  5
1F
102
{ACAD_REACTORS
330
19
102
}
330
19
100
AcDbDictionary
281
     1
  3
Normal
350
1D
100
AcDbDictionaryWithDefault
340
1D
  0
DICTIONARY
  5
241
102
{ACAD_REACTORS
330
19
102
}
330
19
100
AcDbDictionary
281
     1
  3
A0
350
242
  3
A1
350
243
  3
A2
350
244
  3
A3
350
245
  3
A4
350
246
  3
A5
350
247
  3
A6
350
248
  3
A7
350
249
  3
A8
350
24A
  3
A9
350
24B
  3
B0
350
24C
  3
B1
350
24D
  3
B2
350
24E
  3
B3
350
24F
  3
B4
350
250
  3
B5
350
251
  3
B6
350
252
  3
B7
350
253
  3
B8
350
254
  3
B9
350
255
  3
C0
350
256
  3
C1
350
257
  3
C2
350
258
  3
C3
350
259
  3
C4
350
25A
  3
C5
350
25B
  3
C6
350
25C
  3
C7
350
25D
  3
C8
350
25E
  3
C9
350
25F
  3
D0
350
260
  3
D1
350
261
  3
D2
350
262
  0
DICTIONARY
  5
BC0
102
{ACAD_REACTORS
330
19
102
}
330
19
100
AcDbDictionary
281
     1
  0
DICTIONARY
  5
278
102
{ACAD_REACTORS
330
19
102
}
330
19
100
AcDbDictionary
281
     1
  3
Standard
350
279
  0
DICTIONARY
  5
267
102
{ACAD_REACTORS
330
19
102
}
330
19
100
AcDbDictionary
281
     1
  3
*A1
350
3666
  3
2dWireframe
350
26C
  3
3D Hidden
350
26E
  3
3dWireframe
350
26D
  3
Basic
350
26F
  3
Brighten
350
273
  3
ColorChange
350
277
  3
Conceptual
350
271
  3
Dim
350
272
  3
EdgeColorOff
350
8FE
  3
Facepattern
350
276
  3
Flat
350
268
  3
FlatWithEdges
350
269
  3
Gouraud
350
26A
  3
GouraudWithEdges
350
26B
  3
Hidden
350
8FB
  3
JitterOff
350
8FC
  3
Linepattern
350
275
  3
OverhangOff
350
8FD
  3
Realistic
350
270
  3
Shaded
350
903
  3
Shaded with edges
350
902
  3
Shades of Gray
350
8FF
  3
Sketchy
350
900
  3
Thicken
350
274
  3
Wireframe
350
8FA
  3
X-Ray
350
901
  0
XRECORD
  5
17D2A
102
{ACAD_REACTORS
330
19
102
}
330
19
100
AcDbXrecord
280
     1
 90
        1
330
279
  0
DICTIONARY
  5
330
102
{ACAD_REACTORS
330
19
102
}
330
19
100
AcDbDictionary
281
     1
  3
CANNOSCALE
350
331
  3
CMLEADERSTYLE
350
D5E
  3
CTABLESTYLE
350
335
  3
HPTRANSPARENCY
350
D52
  3
XCLIPFRAME
350
896
  0
DICTIONARY
  5
27A
102
{ACAD_REACTORS
330
19
102
}
330
19
100
AcDbDictionary
281
     1
  0
DICTIONARY
  5
366B
102
{ACAD_REACTORS
330
19
102
}
330
19
100
AcDbDictionary
281
     1
  3
CLEXTENSION
350
36AB
  0
DICTIONARY
  5
E38
102
{ACAD_REACTORS
330
19
102
}
330
19
100
AcDbDictionary
281
     1
  3
DIMRAILANGLE
350
36A9
  3
DIMRAILFIRSTOFFSET
350
36A7
  3
DIMRAILOFFSET
350
36A8
  3
DIMRAILSENABLED
350
36AA
  0
DICTIONARY
  5
2E2
102
{ACAD_REACTORS
330
2E1
102
}
330
2E1
100
AcDbDictionary
281
     1
  0
DICTIONARY
  5
DDE
102
{ACAD_REACTORS
330
2E1
102
}
330
2E1
100
AcDbDictionary
281
     1
1001
ACAD
1000
<All
  0
SORTENTSTABLE
  5
1733F
102
{ACAD_REACTORS
330
1733E
102
}
330
1733E
100
AcDbSortentsTable
330
A
331
0
  5
172B6
331
172F9
  5
172B7
331
172FA
  5
172F8
331
17305
  5
172F9
331
17306
  5
172FA
331
17307
  5
17305
331
17308
  5
17306
331
17309
  5
17307
331
17353
  5
1734E
  0
DICTIONARY
  5
178F6
102
{ACAD_REACTORS
330
36AE
102
}
330
36AE
100
AcDbDictionary
280
     1
281
     1
  3
TEXT
360
36AD
  0
DIMASSOC
  5
177BB
102
{ACAD_REACTORS
330
177BA
102
}
330
177BA
100
AcDbDimAssoc
330
177B9
 90
        1
 70
     0
 71
     1
  1
AcDbOsnapPointRef
 72
    13
331
177B6
 73
     0
 91
        0
 40
0.0
 10
0.0
 20
0.0
 30
0.0
 75
     0
  0
DIMASSOC
  5
177D9
102
{ACAD_REACTORS
330
177D8
102
}
330
177D8
100
AcDbDimAssoc
330
177D7
 90
        1
 70
     0
 71
     1
  1
AcDbOsnapPointRef
 72
    13
331
177B6
 73
     0
 91
        0
 40
0.0
 10
0.0
 20
0.0
 30
0.0
 75
     0
  0
DIMASSOC
  5
177E6
102
{ACAD_REACTORS
330
177E5
102
}
330
177E5
100
AcDbDimAssoc
330
177E4
 90
        2
 70
     0
 71
     1
  1
AcDbOsnapPointRef
 72
     2
331
177B6
 73
     0
 91
        0
 40
0.5
 10
0.0
 20
0.0
 30
0.0
 75
     0
  0
DIMASSOC
  5
179E5
102
{ACAD_REACTORS
330
179E4
102
}
330
179E4
100
AcDbDimAssoc
330
179E3
 90
        0
 70
     0
 71
     1
  0
DIMASSOC
  5
17AF1
102
{ACAD_REACTORS
330
17AF0
102
}
330
17AF0
100
AcDbDimAssoc
330
17AEF
 90
        3
 70
     0
 71
     1
  1
AcDbOsnapPointRef
 72
    13
331
177B2
 73
     0
 91
        0
 40
0.0
 10
0.0
 20
0.0
 30
0.0
 75
     0
  1
AcDbOsnapPointRef
 72
    13
331
177B3
 73
     0
 91
        0
 40
0.0
 10
0.0
 20
0.0
 30
0.0
 75
     0
  0
DIMASSOC
  5
17CE9
102
{ACAD_REACTORS
330
17CE8
102
}
330
17CE8
100
AcDbDimAssoc
330
17CE7
 90
        3
 70
     0
 71
     1
  1
AcDbOsnapPointRef
 72
    13
331
177B2
 73
     0
 91
        0
 40
0.0
 10
0.0
 20
0.0
 30
0.0
 75
     0
  1
AcDbOsnapPointRef
 72
    13
331
177B3
 73
     0
 91
        0
 40
0.0
 10
0.0
 20
0.0
 30
0.0
 75
     0
  0
GROUP
  5
1730A
102
{ACAD_REACTORS
330
1A
102
}
330
1A
100
AcDbGroup
300

 70
     1
 71
     1
340
172F9
340
172FA
340
17305
340
17306
340
17307
340
17308
340
17309
  0
LAYOUT
  5
21
102
{ACAD_REACTORS
330
1E
102
}
330
1E
100
AcDbPlotSettings
  1

  2
none_device
  4
ISO_A3_(420.00_x_297.00_MM)
  6

 40
7.5
 41
20.0
 42
7.5
 43
20.0
 44
420.0
 45
297.0
 46
0.0
 47
0.0
 48
0.0
 49
0.0
140
0.0
141
0.0
142
1.0
143
1.0
 70
     0
 72
     1
 73
     0
 74
     0
  7

 75
     0
 76
     0
 77
     2
 78
   300
147
1.0
148
0.0
149
0.0
100
AcDbLayout
  1
Layout1
 70
     0
 71
     0
 10
-7.5
 20
-20.0
 11
412.5
 21
277.0
 12
0.0
 22
0.0
 32
0.0
 14
0.0
 24
0.0
 34
0.0
 15
0.0
 25
0.0
 35
0.0
146
0.0
 13
0.0
 23
0.0
 33
0.0
 16
0.0
 26
0.0
 36
0.0
 17
0.0
 27
0.0
 37
0.0
 76
     0
330
B
331
349
  0
LAYOUT
  5
20
102
{ACAD_REACTORS
330
1E
102
}
330
1E
100
AcDbPlotSettings
  1

  2
none_device
  4
ISO_A3_(420.00_x_297.00_MM)
  6

 40
7.5
 41
20.0
 42
7.5
 43
20.0
 44
420.0
 45
297.0
 46
0.0
 47
0.0
 48
0.0
 49
0.0
140
0.0
141
0.0
142
1.0
143
1.0
 70
  1024
 72
     1
 73
     0
 74
     0
  7

 75
     0
 76
     0
 77
     2
 78
   300
147
1.0
148
0.0
149
0.0
100
AcDbLayout
  1
Model
 70
     0
 71
     1
 10
0.0
 20
0.0
 11
630.0
 21
891.0
 12
0.0
 22
0.0
 32
0.0
 14
0.0
 24
0.0
 34
-0.0000000000000071
 15
630.0
 25
891.0
 35
0.0000000000000071
146
0.0
 13
0.0
 23
0.0
 33
0.0
 16
0.0
 26
0.0
 36
0.0
 17
0.0
 27
0.0
 37
0.0
 76
     0
330
A
331
15
  0
MATERIAL
  5
265
102
{ACAD_REACTORS
330
263
102
}
330
263
100
AcDbMaterial
  1
ByBlock
 72
     1
 94
      127
  0
MATERIAL
  5
264
102
{ACAD_REACTORS
330
263
102
}
330
263
100
AcDbMaterial
  1
ByLayer
 72
     1
 94
      127
  0
MATERIAL
  5
266
102
{ACAD_REACTORS
330
263
102
}
330
263
100
AcDbMaterial
  1
Global
 72
     1
 94
      127
  0
MLEADERSTYLE
  5
D59
102
{ACAD_REACTORS
330
336
102
}
330
336
100
AcDbMLeaderStyle
170
     2
171
     1
172
     0
 90
        2
 40
0.0
 41
0.0
173
     1
 91
-1056964608
340
11
 92
       -2
290
     1
 42
2.0
291
     1
 43
8.0
  3
Standard
341
0
 44
4.0
300

342
17
174
     1
178
     6
175
     1
176
     0
 93
-1056964608
 45
4.0
292
     0
297
     0
 46
4.0
343
0
 94
-1056964608
 47
1.0
 49
1.0
140
1.0
293
     1
141
0.0
294
     1
177
     0
142
1.0
295
     0
296
     0
143
3.75
1001
ACAD_MLEADERVER
1070
     2
  0
MLINESTYLE
  5
1C
102
{ACAD_REACTORS
330
1B
102
}
330
1B
100
AcDbMlineStyle
  2
Standard
 70
     0
  3

 62
     0
 51
90.0
 52
90.0
 71
     2
 49
0.5
 62
   256
  6
BYLAYER
 49
-0.5
 62
   256
  6
BYLAYER
  0
ACDBPLACEHOLDER
  5
1D
102
{ACAD_REACTORS
330
1F
102
}
330
1F
  0
SCALE
  5
242
102
{ACAD_REACTORS
330
241
102
}
330
241
100
AcDbScale
 70
     0
300
1:1
140
1.0
141
1.0
290
     1
  0
SCALE
  5
243
102
{ACAD_REACTORS
330
241
102
}
330
241
100
AcDbScale
 70
     0
300
1:2
140
1.0
141
2.0
290
     0
  0
SCALE
  5
244
102
{ACAD_REACTORS
330
241
102
}
330
241
100
AcDbScale
 70
     0
300
1:4
140
1.0
141
4.0
290
     0
  0
SCALE
  5
245
102
{ACAD_REACTORS
330
241
102
}
330
241
100
AcDbScale
 70
     0
300
1:5
140
1.0
141
5.0
290
     0
  0
SCALE
  5
246
102
{ACAD_REACTORS
330
241
102
}
330
241
100
AcDbScale
 70
     0
300
1:8
140
1.0
141
8.0
290
     0
  0
SCALE
  5
247
102
{ACAD_REACTORS
330
241
102
}
330
241
100
AcDbScale
 70
     0
300
1:10
140
1.0
141
10.0
290
     0
  0
SCALE
  5
248
102
{ACAD_REACTORS
330
241
102
}
330
241
100
AcDbScale
 70
     0
300
1:16
140
1.0
141
16.0
290
     0
  0
SCALE
  5
249
102
{ACAD_REACTORS
330
241
102
}
330
241
100
AcDbScale
 70
     0
300
1:20
140
1.0
141
20.0
290
     0
  0
SCALE
  5
24A
102
{ACAD_REACTORS
330
241
102
}
330
241
100
AcDbScale
 70
     0
300
1:30
140
1.0
141
30.0
290
     0
  0
SCALE
  5
24B
102
{ACAD_REACTORS
330
241
102
}
330
241
100
AcDbScale
 70
     0
300
1:40
140
1.0
141
40.0
290
     0
  0
SCALE
  5
24C
102
{ACAD_REACTORS
330
241
102
}
330
241
100
AcDbScale
 70
     0
300
1:50
140
1.0
141
50.0
290
     0
  0
SCALE
  5
24D
102
{ACAD_REACTORS
330
241
102
}
330
241
100
AcDbScale
 70
     0
300
1:100
140
1.0
141
100.0
290
     0
  0
SCALE
  5
24E
102
{ACAD_REACTORS
330
241
102
}
330
241
100
AcDbScale
 70
     0
300
2:1
140
2.0
141
1.0
290
     0
  0
SCALE
  5
24F
102
{ACAD_REACTORS
330
241
102
}
330
241
100
AcDbScale
 70
     0
300
4:1
140
4.0
141
1.0
290
     0
  0
SCALE
  5
250
102
{ACAD_REACTORS
330
241
102
}
330
241
100
AcDbScale
 70
     0
300
8:1
140
8.0
141
1.0
290
     0
  0
SCALE
  5
251
102
{ACAD_REACTORS
330
241
102
}
330
241
100
AcDbScale
 70
     0
300
10:1
140
10.0
141
1.0
290
     0
  0
SCALE
  5
252
102
{ACAD_REACTORS
330
241
102
}
330
241
100
AcDbScale
 70
     0
300
100:1
140
100.0
141
1.0
290
     0
  0
SCALE
  5
253
102
{ACAD_REACTORS
330
241
102
}
330
241
100
AcDbScale
 70
     0
300
1/128" = 1'-0"
140
0.0078125
141
12.0
290
     0
  0
SCALE
  5
254
102
{ACAD_REACTORS
330
241
102
}
330
241
100
AcDbScale
 70
     0
300
1/64" = 1'-0"
140
0.015625
141
12.0
290
     0
  0
SCALE
  5
255
102
{ACAD_REACTORS
330
241
102
}
330
241
100
AcDbScale
 70
     0
300
1/32" = 1'-0"
140
0.03125
141
12.0
290
     0
  0
SCALE
  5
256
102
{ACAD_REACTORS
330
241
102
}
330
241
100
AcDbScale
 70
     0
300
1/16" = 1'-0"
140
0.0625
141
12.0
290
     0
  0
SCALE
  5
257
102
{ACAD_REACTORS
330
241
102
}
330
241
100
AcDbScale
 70
     0
300
3/32" = 1'-0"
140
0.09375
141
12.0
290
     0
  0
SCALE
  5
258
102
{ACAD_REACTORS
330
241
102
}
330
241
100
AcDbScale
 70
     0
300
1/8" = 1'-0"
140
0.125
141
12.0
290
     0
  0
SCALE
  5
259
102
{ACAD_REACTORS
330
241
102
}
330
241
100
AcDbScale
 70
     0
300
3/16" = 1'-0"
140
0.1875
141
12.0
290
     0
  0
SCALE
  5
25A
102
{ACAD_REACTORS
330
241
102
}
330
241
100
AcDbScale
 70
     0
300
1/4" = 1'-0"
140
0.25
141
12.0
290
     0
  0
SCALE
  5
25B
102
{ACAD_REACTORS
330
241
102
}
330
241
100
AcDbScale
 70
     0
300
3/8" = 1'-0"
140
0.375
141
12.0
290
     0
  0
SCALE
  5
25C
102
{ACAD_REACTORS
330
241
102
}
330
241
100
AcDbScale
 70
     0
300
1/2" = 1'-0"
140
0.5
141
12.0
290
     0
  0
SCALE
  5
25D
102
{ACAD_REACTORS
330
241
102
}
330
241
100
AcDbScale
 70
     0
300
3/4" = 1'-0"
140
0.75
141
12.0
290
     0
  0
SCALE
  5
25E
102
{ACAD_REACTORS
330
241
102
}
330
241
100
AcDbScale
 70
     0
300
1" = 1'-0"
140
1.0
141
12.0
290
     0
  0
SCALE
  5
25F
102
{ACAD_REACTORS
330
241
102
}
330
241
100
AcDbScale
 70
     0
300
1-1/2" = 1'-0"
140
1.5
141
12.0
290
     0
  0
SCALE
  5
260
102
{ACAD_REACTORS
330
241
102
}
330
241
100
AcDbScale
 70
     0
300
3" = 1'-0"
140
3.0
141
12.0
290
     0
  0
SCALE
  5
261
102
{ACAD_REACTORS
330
241
102
}
330
241
100
AcDbScale
 70
     0
300
6" = 1'-0"
140
6.0
141
12.0
290
     0
  0
SCALE
  5
262
102
{ACAD_REACTORS
330
241
102
}
330
241
100
AcDbScale
 70
     0
300
1'-0" = 1'-0"
140
12.0
141
12.0
290
     0
  0
TABLESTYLE
  5
279
102
{ACAD_REACTORS
330
278
102
}
102
{ACAD_XDICTIONARY
360
17D28
102
}
330
278
100
AcDbTableStyle
  3
Standard
 70
     0
 71
     0
 40
0.06
 41
0.06
280
     0
281
     0
  7
Standard
140
4.5
170
     2
 62
     0
 63
   257
283
     0
 90
        4
 91
        0
  1

274
    -2
284
     1
 64
     0
275
    -2
285
     1
 65
     0
276
    -2
286
     1
 66
     0
277
    -2
287
     1
 67
     0
278
    -2
288
     1
 68
     0
279
    -2
289
     1
 69
     0
  7
Standard
140
6.0
170
     5
 62
     0
 63
   257
283
     0
 90
        4
 91
        0
  1

274
    -2
284
     1
 64
     0
275
    -2
285
     1
 65
     0
276
    -2
286
     1
 66
     0
277
    -2
287
     1
 67
     0
278
    -2
288
     1
 68
     0
279
    -2
289
     1
 69
     0
  7
Standard
140
4.5
170
     5
 62
     0
 63
   257
283
     0
 90
        4
 91
        0
  1

274
    -2
284
     1
 64
     0
275
    -2
285
     1
 65
     0
276
    -2
286
     1
 66
     0
277
    -2
287
     1
 67
     0
278
    -2
288
     1
 68
     0
279
    -2
289
     1
 69
     0
  0
VISUALSTYLE
  5
3666
102
{ACAD_REACTORS
330
267
102
}
330
267
100
AcDbVisualStyle
  2
*
 70
    10
 71
     0
 72
     2
 73
     0
 90
        0
 40
-0.6
 41
-30.0
 62
     5
 63
     7
421
 16777215
 74
     1
 91
        4
 64
     7
 65
   257
 75
     1
175
     1
 42
1.0
 92
        8
 66
     7
 43
1.0
 76
     1
 77
     6
 78
     2
 67
     7
 79
     5
170
     0
171
     0
290
     0
174
     0
 93
        1
 44
0.0
173
     0
291
     0
 45
0.0
  0
VISUALSTYLE
  5
26C
102
{ACAD_REACTORS
330
267
102
}
330
267
100
AcDbVisualStyle
  2
2dWireframe
 70
     4
 71
     0
 72
     2
 73
     0
 90
        0
 40
-0.6
 41
-30.0
 62
     5
 63
     7
421
 16777215
 74
     1
 91
        4
 64
     7
 65
   257
 75
     1
175
     1
 42
1.0
 92
        0
 66
   257
 43
1.0
 76
     1
 77
     6
 78
     2
 67
     7
 79
     5
170
     0
171
     0
290
     0
174
     0
 93
        1
 44
0.0
173
     0
291
     0
 45
0.0
  0
VISUALSTYLE
  5
26E
102
{ACAD_REACTORS
330
267
102
}
330
267
100
AcDbVisualStyle
  2
3D Hidden
 70
     6
 71
     1
 72
     2
 73
     2
 90
        0
 40
-0.6
 41
-30.0
 62
     5
 63
     7
421
 16777215
 74
     2
 91
        2
 64
     7
 65
   257
 75
     2
175
     1
 42
40.0
 92
        0
 66
   257
 43
1.0
 76
     1
 77
     6
 78
     2
 67
     7
 79
     3
170
     0
171
     0
290
     0
174
     0
 93
        1
 44
0.0
173
     0
291
     0
 45
0.0
  0
VISUALSTYLE
  5
26D
102
{ACAD_REACTORS
330
267
102
}
330
267
100
AcDbVisualStyle
  2
3dWireframe
 70
     5
 71
     0
 72
     2
 73
     0
 90
        0
 40
-0.6
 41
-30.0
 62
     5
 63
     7
421
 16777215
 74
     1
 91
        4
 64
     7
 65
   257
 75
     1
175
     1
 42
1.0
 92
        0
 66
   257
 43
1.0
 76
     1
 77
     6
 78
     2
 67
     7
 79
     5
170
     0
171
     0
290
     0
174
     0
 93
        1
 44
0.0
173
     0
291
     0
 45
0.0
  0
VISUALSTYLE
  5
26F
102
{ACAD_REACTORS
330
267
102
}
330
267
100
AcDbVisualStyle
  2
Basic
 70
     7
 71
     1
 72
     0
 73
     1
 90
        0
 40
-0.6
 41
-30.0
 62
     5
 63
     7
421
 16777215
 74
     0
 91
        4
 64
     7
 65
   257
 75
     1
175
     1
 42
1.0
 92
        8
 66
     7
 43
1.0
 76
     1
 77
     6
 78
     2
 67
     7
 79
     5
170
     0
171
     0
290
     0
174
     0
 93
        1
 44
0.0
173
     0
291
     1
 45
0.0
  0
VISUALSTYLE
  5
273
102
{ACAD_REACTORS
330
267
102
}
330
267
100
AcDbVisualStyle
  2
Brighten
 70
    12
 71
     2
 72
     2
 73
     0
 90
        0
 40
-0.6
 41
-30.0
 62
     5
 63
     7
421
 16777215
 74
     1
 91
        4
 64
     7
 65
   257
 75
     1
175
     1
 42
1.0
 92
        8
 66
     7
 43
1.0
 76
     1
 77
     6
 78
     2
 67
     7
 79
     5
170
     0
171
     0
290
     0
174
     0
 93
        1
 44
50.0
173
     0
291
     1
 45
0.0
  0
VISUALSTYLE
  5
277
102
{ACAD_REACTORS
330
267
102
}
330
267
100
AcDbVisualStyle
  2
ColorChange
 70
    16
 71
     2
 72
     2
 73
     3
 90
        0
 40
-0.6
 41
-30.0
 62
     5
 63
     8
421
  8421504
 74
     1
 91
        4
 64
     7
 65
   257
 75
     1
175
     1
 42
1.0
 92
        8
 66
     8
424
  8421504
 43
1.0
 76
     1
 77
     6
 78
     2
 67
     7
 79
     5
170
     0
171
     0
290
     0
174
     0
 93
        1
 44
0.0
173
     0
291
     1
 45
0.0
  0
VISUALSTYLE
  5
271
102
{ACAD_REACTORS
330
267
102
}
330
267
100
AcDbVisualStyle
  2
Conceptual
 70
     9
 71
     3
 72
     2
 73
     0
 90
        0
 40
-0.6
 41
-30.0
 62
     5
 63
     7
421
 16777215
 74
     2
 91
        2
 64
     7
 65
   257
 75
     1
175
     1
 42
40.0
 92
        8
 66
     7
 43
1.0
 76
     1
 77
     6
 78
     2
 67
     7
 79
     3
170
     0
171
     0
290
     0
174
     0
 93
        1
 44
0.0
173
     0
291
     0
 45
0.0
  0
VISUALSTYLE
  5
272
102
{ACAD_REACTORS
330
267
102
}
330
267
100
AcDbVisualStyle
  2
Dim
 70
    11
 71
     2
 72
     2
 73
     0
 90
        0
 40
-0.6
 41
-30.0
 62
     5
 63
     7
421
 16777215
 74
     1
 91
        4
 64
     7
 65
   257
 75
     1
175
     1
 42
1.0
 92
        8
 66
     7
 43
1.0
 76
     1
 77
     6
 78
     2
 67
     7
 79
     5
170
     0
171
     0
290
     0
174
     0
 93
        1
 44
-50.0
173
     0
291
     1
 45
0.0
  0
VISUALSTYLE
  5
8FE
102
{ACAD_REACTORS
330
267
102
}
330
267
100
AcDbVisualStyle
  2
EdgeColorOff
 70
    22
 71
     2
 72
     2
 73
     0
 90
        0
 40
0.6
 41
30.0
 62
     5
 63
     7
421
 16777215
 74
     1
 91
        4
 64
     7
 65
   257
 75
     1
175
     1
 42
1.0
 92
        8
 66
     7
 43
1.0
 76
     1
 77
     6
 78
     2
 67
     7
 79
     5
170
     0
171
     0
290
     0
174
     0
 93
        1
 44
0.0
173
     0
291
     1
 45
0.0
  0
VISUALSTYLE
  5
276
102
{ACAD_REACTORS
330
267
102
}
330
267
100
AcDbVisualStyle
  2
Facepattern
 70
    15
 71
     2
 72
     2
 73
     0
 90
        0
 40
-0.6
 41
-30.0
 62
     5
 63
     7
421
 16777215
 74
     1
 91
        4
 64
     7
 65
   257
 75
     1
175
     1
 42
1.0
 92
        8
 66
     7
 43
1.0
 76
     1
 77
     6
 78
     2
 67
     7
 79
     5
170
     0
171
     0
290
     0
174
     0
 93
        1
 44
0.0
173
     0
291
     1
 45
0.0
  0
VISUALSTYLE
  5
268
102
{ACAD_REACTORS
330
267
102
}
330
267
100
AcDbVisualStyle
  2
Flat
 70
     0
 71
     2
 72
     1
 73
     1
 90
        2
 40
-0.6
 41
30.0
 62
     5
 63
     7
421
 16777215
 74
     0
 91
        4
 64
     7
 65
   257
 75
     1
175
     1
 42
1.0
 92
        8
 66
     7
 43
1.0
 76
     1
 77
     6
 78
     2
 67
     7
 79
     5
170
     0
171
     0
290
     0
174
     0
 93
       13
 44
0.0
173
     0
291
     1
 45
0.0
  0
VISUALSTYLE
  5
269
102
{ACAD_REACTORS
330
267
102
}
330
267
100
AcDbVisualStyle
  2
FlatWithEdges
 70
     1
 71
     2
 72
     1
 73
     1
 90
        2
 40
-0.6
 41
30.0
 62
     5
 63
     7
421
 16777215
 74
     1
 91
        4
 64
     7
 65
   257
 75
     1
175
     1
 42
1.0
 92
        0
 66
   257
 43
1.0
 76
     1
 77
     6
 78
     2
 67
     7
 79
     5
170
     0
171
     0
290
     0
174
     0
 93
       13
 44
0.0
173
     0
291
     1
 45
0.0
  0
VISUALSTYLE
  5
26A
102
{ACAD_REACTORS
330
267
102
}
330
267
100
AcDbVisualStyle
  2
Gouraud
 70
     2
 71
     2
 72
     2
 73
     1
 90
        2
 40
-0.6
 41
30.0
 62
     5
 63
     7
421
 16777215
 74
     0
 91
        4
 64
     7
 65
   257
 75
     1
175
     1
 42
1.0
 92
        0
 66
     7
 43
1.0
 76
     1
 77
     6
 78
     2
 67
     7
 79
     5
170
     0
171
     0
290
     0
174
     0
 93
       13
 44
0.0
173
     0
291
     1
 45
0.0
  0
VISUALSTYLE
  5
26B
102
{ACAD_REACTORS
330
267
102
}
330
267
100
AcDbVisualStyle
  2
GouraudWithEdges
 70
     3
 71
     2
 72
     2
 73
     1
 90
        2
 40
-0.6
 41
30.0
 62
     5
 63
     7
421
 16777215
 74
     1
 91
        4
 64
     7
 65
   257
 75
     1
175
     1
 42
1.0
 92
        0
 66
   257
 43
1.0
 76
     1
 77
     6
 78
     2
 67
     7
 79
     5
170
     0
171
     0
290
     0
174
     0
 93
       13
 44
0.0
173
     0
291
     1
 45
0.0
  0
VISUALSTYLE
  5
8FB
102
{ACAD_REACTORS
330
267
102
}
330
267
100
AcDbVisualStyle
  2
Hidden
 70
     6
 71
     1
 72
     2
 73
     2
 90
        0
 40
0.6
 41
30.0
 62
     5
 63
     7
421
 16777215
 74
     2
 91
        2
 64
     7
 65
   257
 75
     2
175
     1
 42
40.0
 92
        0
 66
   257
 43
1.0
 76
     1
 77
     6
 78
     2
 67
     7
 79
     3
170
     0
171
     0
290
     0
174
     0
 93
        1
 44
0.0
173
     0
291
     0
 45
0.0
  0
VISUALSTYLE
  5
8FC
102
{ACAD_REACTORS
330
267
102
}
330
267
100
AcDbVisualStyle
  2
JitterOff
 70
    20
 71
     2
 72
     2
 73
     0
 90
        0
 40
0.6
 41
30.0
 62
     5
 63
     7
421
 16777215
 74
     1
 91
        4
 64
     7
 65
   257
 75
     1
175
     1
 42
1.0
 92
       10
 66
     7
 43
1.0
 76
     1
 77
     6
 78
     2
 67
     7
 79
     5
170
     0
171
     0
290
     0
174
     0
 93
        1
 44
0.0
173
     0
291
     1
 45
0.0
  0
VISUALSTYLE
  5
275
102
{ACAD_REACTORS
330
267
102
}
330
267
100
AcDbVisualStyle
  2
Linepattern
 70
    14
 71
     2
 72
     2
 73
     0
 90
        0
 40
-0.6
 41
-30.0
 62
     5
 63
     7
421
 16777215
 74
     1
 91
        4
 64
     7
 65
   257
 75
     7
175
     7
 42
1.0
 92
        8
 66
     7
 43
1.0
 76
     1
 77
     6
 78
     2
 67
     7
 79
     5
170
     0
171
     0
290
     0
174
     0
 93
        1
 44
0.0
173
     0
291
     1
 45
0.0
  0
VISUALSTYLE
  5
8FD
102
{ACAD_REACTORS
330
267
102
}
330
267
100
AcDbVisualStyle
  2
OverhangOff
 70
    21
 71
     2
 72
     2
 73
     0
 90
        0
 40
0.6
 41
30.0
 62
     5
 63
     7
421
 16777215
 74
     1
 91
        4
 64
     7
 65
   257
 75
     1
175
     1
 42
1.0
 92
        9
 66
     7
 43
1.0
 76
     1
 77
     6
 78
     2
 67
     7
 79
     5
170
     0
171
     0
290
     0
174
     0
 93
        1
 44
0.0
173
     0
291
     1
 45
0.0
  0
VISUALSTYLE
  5
270
102
{ACAD_REACTORS
330
267
102
}
330
267
100
AcDbVisualStyle
  2
Realistic
 70
     8
 71
     2
 72
     2
 73
     0
 90
        0
 40
-0.6
 41
-30.0
 62
     5
 63
     7
421
 16777215
 74
     1
 91
        0
 64
     7
 65
   257
 75
     1
175
     1
 42
1.0
 92
        8
 66
     8
424
  7895160
 43
1.0
 76
     1
 77
     6
 78
     2
 67
     7
 79
     5
170
     0
171
     0
290
     0
174
     0
 93
       13
 44
0.0
173
     0
291
     0
 45
0.0
  0
VISUALSTYLE
  5
903
102
{ACAD_REACTORS
330
267
102
}
330
267
100
AcDbVisualStyle
  2
Shaded
 70
    27
 71
     2
 72
     2
 73
     1
 90
        2
 40
0.6
 41
30.0
 62
     5
 63
     7
421
 16777215
 74
     0
 91
        4
 64
     7
 65
   257
 75
     1
175
     1
 42
1.0
 92
        8
 66
   257
 43
1.0
 76
     1
 77
     6
 78
     2
 67
     8
425
  7895160
 79
     3
170
     0
171
     0
290
     0
174
     0
 93
        5
 44
0.0
173
     0
291
     0
 45
0.0
  0
VISUALSTYLE
  5
902
102
{ACAD_REACTORS
330
267
102
}
330
267
100
AcDbVisualStyle
  2
Shaded with edges
 70
    26
 71
     2
 72
     2
 73
     1
 90
        2
 40
0.6
 41
30.0
 62
     5
 63
     7
421
 16777215
 74
     1
 91
       10
 64
     7
 65
   257
 75
     2
175
     1
 42
1.0
 92
        8
 66
   257
 43
1.0
 76
     1
 77
     6
 78
     2
 67
     7
 79
     3
170
     0
171
     0
290
     0
174
     0
 93
        5
 44
0.0
173
     0
291
     0
 45
0.0
  0
VISUALSTYLE
  5
8FF
102
{ACAD_REACTORS
330
267
102
}
330
267
100
AcDbVisualStyle
  2
Shades of Gray
 70
    23
 71
     2
 72
     2
 73
     3
 90
        0
 40
0.6
 41
30.0
 62
     5
 63
     7
421
 16777215
 74
     2
 91
        2
 64
     7
 65
     7
 75
     1
175
     1
 42
40.0
 92
        8
 66
     7
 43
1.0
 76
     1
 77
     6
 78
     2
 67
     7
 79
     3
170
     0
171
     0
290
     0
174
     0
 93
        1
 44
0.0
173
     0
291
     0
 45
0.0
  0
VISUALSTYLE
  5
900
102
{ACAD_REACTORS
330
267
102
}
330
267
100
AcDbVisualStyle
  2
Sketchy
 70
    24
 71
     1
 72
     2
 73
     2
 90
        0
 40
0.6
 41
30.0
 62
     5
 63
     7
421
 16777215
 74
     2
 91
        2
 64
     7
 65
     7
 75
     1
175
     1
 42
40.0
 92
       11
 66
     7
 43
1.0
 76
     1
 77
     6
 78
     2
 67
     7
 79
     6
170
     0
171
     0
290
     0
174
     0
 93
        1
 44
0.0
173
     0
291
     0
 45
0.0
  0
VISUALSTYLE
  5
274
102
{ACAD_REACTORS
330
267
102
}
330
267
100
AcDbVisualStyle
  2
Thicken
 70
    13
 71
     2
 72
     2
 73
     0
 90
        0
 40
-0.6
 41
-30.0
 62
     5
 63
     7
421
 16777215
 74
     1
 91
        4
 64
     7
 65
   257
 75
     1
175
     1
 42
1.0
 92
       12
 66
     7
 43
1.0
 76
     1
 77
     6
 78
     2
 67
     7
 79
     5
170
     0
171
     0
290
     0
174
     0
 93
        1
 44
0.0
173
     0
291
     1
 45
0.0
  0
VISUALSTYLE
  5
8FA
102
{ACAD_REACTORS
330
267
102
}
330
267
100
AcDbVisualStyle
  2
Wireframe
 70
     5
 71
     0
 72
     2
 73
     0
 90
        0
 40
0.6
 41
30.0
 62
     5
 63
     7
421
 16777215
 74
     1
 91
        4
 64
     7
 65
   257
 75
     1
175
     1
 42
1.0
 92
        0
 66
   257
 43
1.0
 76
     1
 77
     6
 78
     2
 67
     7
 79
     3
170
     0
171
     0
290
     0
174
     0
 93
        1
 44
0.0
173
     0
291
     0
 45
0.0
  0
VISUALSTYLE
  5
901
102
{ACAD_REACTORS
330
267
102
}
330
267
100
AcDbVisualStyle
  2
X-Ray
 70
    25
 71
     2
 72
     2
 73
     1
 90
        1
 40
0.5
 41
30.0
 62
     5
 63
     7
421
 16777215
 74
     1
 91
        0
 64
     7
 65
   257
 75
     1
175
     1
 42
1.0
 92
        8
 66
     7
 43
1.0
 76
     1
 77
     6
 78
     2
 67
     7
 79
     3
170
     0
171
     0
290
     0
174
     0
 93
       13
 44
0.0
173
     0
291
     0
 45
0.0
  0
DICTIONARYVAR
  5
331
102
{ACAD_REACTORS
330
330
102
}
330
330
100
DictionaryVariables
280
     0
  1
1:1
  0
DICTIONARYVAR
  5
D5E
102
{ACAD_REACTORS
330
330
102
}
330
330
100
DictionaryVariables
280
     0
  1
Standard
  0
DICTIONARYVAR
  5
335
102
{ACAD_REACTORS
330
330
102
}
330
330
100
DictionaryVariables
280
     0
  1
Standard
  0
DICTIONARYVAR
  5
D52
102
{ACAD_REACTORS
330
330
102
}
330
330
100
DictionaryVariables
280
     0
  1
ByLayer
  0
DICTIONARYVAR
  5
896
102
{ACAD_REACTORS
330
330
102
}
330
330
100
DictionaryVariables
280
     0
  1
0
  0
DICTIONARYVAR
  5
36AB
102
{ACAD_REACTORS
330
366B
102
}
330
366B
100
DictionaryVariables
280
     0
  1
0.250000
  0
DICTIONARYVAR
  5
36A9
102
{ACAD_REACTORS
330
E38
102
}
330
E38
100
DictionaryVariables
280
     0
  1
0.261799
  0
DICTIONARYVAR
  5
36A7
102
{ACAD_REACTORS
330
E38
102
}
330
E38
100
DictionaryVariables
280
     0
  1
0.400000
  0
DICTIONARYVAR
  5
36A8
102
{ACAD_REACTORS
330
E38
102
}
330
E38
100
DictionaryVariables
280
     0
  1
0.250000
  0
DICTIONARYVAR
  5
36AA
102
{ACAD_REACTORS
330
E38
102
}
330
E38
100
DictionaryVariables
280
     0
  1
1
  0
FIELD
  5
36AD
102
{ACAD_REACTORS
330
178F6
102
}
330
178F6
100
AcDbField
  1
_text
  2
{%<\_FldIdx 0>%N}
 90
        1
360
36B1
 97
        0
 91
       63
 92
        0
 94
       11
 95
        2
 96
        0
300

 93
        1
  6
ACFD_FIELDTEXT_CHECKSUM
 93
        2
 90
        2
140
4474.0
 94
        0
300

302

304
ACVALUE_END
  7
ACFD_FIELD_VALUE
 93
        6
 90
        4
  1
{20181220N}
 94
        0
300

302

304
ACVALUE_END
301
{20181220N}
 98
       11
  0
DICTIONARY
  5
17D28
330
279
100
AcDbDictionary
280
     1
281
     1
  3
ACAD_ROUNDTRIP_2008_TABLESTYLE_CELLSTYLEMAP
360
17D29
  0
FIELD
  5
36B1
330
36AD
100
AcDbField
  1
AcVar
  2
\AcVar Date \f "yyyyMMdd"
 90
        0
 97
        0
 91
       63
 92
        0
 94
        8
 95
       64
 96
        0
300
Variable not supported
 93
        1
  6
Variable
 93
        2
 90
        4
  1
Date
 94
        0
300

302

304
ACVALUE_END
  7
ACFD_FIELD_VALUE
 93
        6
 90
        8
 92
       16
310
E2070C00000014000B002D0015000000
 94
        0
300
yyyyMMdd
302

304
ACVALUE_END
301
20181220
 98
        8
  0
CELLSTYLEMAP
  5
17D29
102
{ACAD_REACTORS
330
17D28
102
}
330
17D28
100
AcDbCellStyleMap
 90
        3
300
CELLSTYLE
  1
TABLEFORMAT_BEGIN
 90
        5
170
     1
 91
        0
 92
    32768
 62
   257
 93
        1
300
CONTENTFORMAT
  1
CONTENTFORMAT_BEGIN
 90
        0
 91
        0
 92
        4
 93
        0
300

 40
0.0
140
1.0
 94
        5
 62
     0
340
17
144
6.0
309
CONTENTFORMAT_END
171
     1
301
MARGIN
  1
CELLMARGIN_BEGIN
 40
0.06
 40
0.06
 40
0.06
 40
0.06
 40
0.18
 40
0.18
309
CELLMARGIN_END
 94
        6
 95
        1
302
GRIDFORMAT
  1
GRIDFORMAT_BEGIN
 90
        0
 91
        1
 62
     0
 92
       -2
340
0
 93
        0
 40
0.045
309
GRIDFORMAT_END
 95
        2
302
GRIDFORMAT
  1
GRIDFORMAT_BEGIN
 90
        0
 91
        1
 62
     0
 92
       -2
340
0
 93
        0
 40
0.045
309
GRIDFORMAT_END
 95
        4
302
GRIDFORMAT
  1
GRIDFORMAT_BEGIN
 90
        0
 91
        1
 62
     0
 92
       -2
340
0
 93
        0
 40
0.045
309
GRIDFORMAT_END
 95
        8
302
GRIDFORMAT
  1
GRIDFORMAT_BEGIN
 90
        0
 91
        1
 62
     0
 92
       -2
340
0
 93
        0
 40
0.045
309
GRIDFORMAT_END
 95
       16
302
GRIDFORMAT
  1
GRIDFORMAT_BEGIN
 90
        0
 91
        1
 62
     0
 92
       -2
340
0
 93
        0
 40
0.045
309
GRIDFORMAT_END
 95
       32
302
GRIDFORMAT
  1
GRIDFORMAT_BEGIN
 90
        0
 91
        1
 62
     0
 92
       -2
340
0
 93
        0
 40
0.045
309
GRIDFORMAT_END
309
TABLEFORMAT_END
  1
CELLSTYLE_BEGIN
 90
        1
 91
        1
300
_TITLE
309
CELLSTYLE_END
300
CELLSTYLE
  1
TABLEFORMAT_BEGIN
 90
        5
170
     1
 91
        0
 92
        0
 62
   257
 93
        1
300
CONTENTFORMAT
  1
CONTENTFORMAT_BEGIN
 90
        0
 91
        0
 92
        4
 93
        0
300

 40
0.0
140
1.0
 94
        5
 62
     0
340
17
144
4.5
309
CONTENTFORMAT_END
171
     1
301
MARGIN
  1
CELLMARGIN_BEGIN
 40
0.06
 40
0.06
 40
0.06
 40
0.06
 40
0.18
 40
0.18
309
CELLMARGIN_END
 94
        6
 95
        1
302
GRIDFORMAT
  1
GRIDFORMAT_BEGIN
 90
        0
 91
        1
 62
     0
 92
       -2
340
0
 93
        0
 40
0.045
309
GRIDFORMAT_END
 95
        2
302
GRIDFORMAT
  1
GRIDFORMAT_BEGIN
 90
        0
 91
        1
 62
     0
 92
       -2
340
0
 93
        0
 40
0.045
309
GRIDFORMAT_END
 95
        4
302
GRIDFORMAT
  1
GRIDFORMAT_BEGIN
 90
        0
 91
        1
 62
     0
 92
       -2
340
0
 93
        0
 40
0.045
309
GRIDFORMAT_END
 95
        8
302
GRIDFORMAT
  1
GRIDFORMAT_BEGIN
 90
        0
 91
        1
 62
     0
 92
       -2
340
0
 93
        0
 40
0.045
309
GRIDFORMAT_END
 95
       16
302
GRIDFORMAT
  1
GRIDFORMAT_BEGIN
 90
        0
 91
        1
 62
     0
 92
       -2
340
0
 93
        0
 40
0.045
309
GRIDFORMAT_END
 95
       32
302
GRIDFORMAT
  1
GRIDFORMAT_BEGIN
 90
        0
 91
        1
 62
     0
 92
       -2
340
0
 93
        0
 40
0.045
309
GRIDFORMAT_END
309
TABLEFORMAT_END
  1
CELLSTYLE_BEGIN
 90
        2
 91
        1
300
_HEADER
309
CELLSTYLE_END
300
CELLSTYLE
  1
TABLEFORMAT_BEGIN
 90
        5
170
     1
 91
        0
 92
        0
 62
   257
 93
        1
300
CONTENTFORMAT
  1
CONTENTFORMAT_BEGIN
 90
        0
 91
        0
 92
        4
 93
        0
300

 40
0.0
140
1.0
 94
        2
 62
     0
340
17
144
4.5
309
CONTENTFORMAT_END
171
     1
301
MARGIN
  1
CELLMARGIN_BEGIN
 40
0.06
 40
0.06
 40
0.06
 40
0.06
 40
0.18
 40
0.18
309
CELLMARGIN_END
 94
        6
 95
        1
302
GRIDFORMAT
  1
GRIDFORMAT_BEGIN
 90
        0
 91
        1
 62
     0
 92
       -2
340
0
 93
        0
 40
0.045
309
GRIDFORMAT_END
 95
        2
302
GRIDFORMAT
  1
GRIDFORMAT_BEGIN
 90
        0
 91
        1
 62
     0
 92
       -2
340
0
 93
        0
 40
0.045
309
GRIDFORMAT_END
 95
        4
302
GRIDFORMAT
  1
GRIDFORMAT_BEGIN
 90
        0
 91
        1
 62
     0
 92
       -2
340
0
 93
        0
 40
0.045
309
GRIDFORMAT_END
 95
        8
302
GRIDFORMAT
  1
GRIDFORMAT_BEGIN
 90
        0
 91
        1
 62
     0
 92
       -2
340
0
 93
        0
 40
0.045
309
GRIDFORMAT_END
 95
       16
302
GRIDFORMAT
  1
GRIDFORMAT_BEGIN
 90
        0
 91
        1
 62
     0
 92
       -2
340
0
 93
        0
 40
0.045
309
GRIDFORMAT_END
 95
       32
302
GRIDFORMAT
  1
GRIDFORMAT_BEGIN
 90
        0
 91
        1
 62
     0
 92
       -2
340
0
 93
        0
 40
0.045
309
GRIDFORMAT_END
309
TABLEFORMAT_END
  1
CELLSTYLE_BEGIN
 90
        3
 91
        2
300
_DATA
309
CELLSTYLE_END
  0
ENDSEC
  0
EOF
