  0
SECTION
  2
HEADER
  9
$ACADVER
  1
AC1021
  9
$ACADMAINTVER
 70
    25
  9
$DWGCODEPAGE
  3
ANSI_932
  9
$LASTSAVEDBY
  1
howeNelson
  9
$INSBASE
 10
0.0
 20
0.0
 30
0.0
  9
$EXTMIN
 10
0.0
 20
0.0
 30
0.0
  9
$EXTMAX
 10
2100.0
 20
2970.0
 30
0.0
  9
$LIMMIN
 10
0.0
 20
0.0
  9
$LIMMAX
 10
2100.0
 20
2970.0
  9
$ORTHOMODE
 70
     0
  9
$REGENMODE
 70
     1
  9
$FILLMODE
 70
     1
  9
$QTEXTMODE
 70
     0
  9
$MIRRTEXT
 70
     1
  9
$LTSCALE
 40
5.0
  9
$ATTMODE
 70
     1
  9
$TEXTSIZE
 40
533.0403732820173
  9
$TRACEWID
 40
1.0
  9
$TEXTSTYLE
  7
Standard
  9
$CLAYER
  8
Dim
  9
$CELTYPE
  6
ByLayer
  9
$CECOLOR
 62
   256
  9
$CELTSCALE
 40
1.0
  9
$DISPSILH
 70
     0
  9
$DIMSCALE
 40
1.0
  9
$DIMASZ
 40
9.999389648437498
  9
$DIMEXO
 40
25.0
  9
$DIMDLI
 40
0.9999999999999999
  9
$DIMRND
 40
0.0
  9
$DIMDLE
 40
0.0
  9
$DIMEXE
 40
0.0
  9
$DIMTP
 40
0.0
  9
$DIMTM
 40
0.0
  9
$DIMTXT
 40
24.4326171875
  9
$DIMCEN
 40
0.0
  9
$DIMTSZ
 40
0.0
  9
$DIMTOL
 70
     0
  9
$DIMLIM
 70
     0
  9
$DIMTIH
 70
     0
  9
$DIMTOH
 70
     0
  9
$DIMSE1
 70
     0
  9
$DIMSE2
 70
     0
  9
$DIMTAD
 70
     1
  9
$DIMZIN
 70
    11
  9
$DIMBLK
  1
DOT
  9
$DIMASO
 70
     1
  9
$DIMSHO
 70
     1
  9
$DIMPOST
  1
<>
  9
$DIMAPOST
  1
[]
  9
$DIMALT
 70
     0
  9
$DIMALTD
 70
     1
  9
$DIMALTF
 40
1.0
  9
$DIMLFAC
 40
1.0
  9
$DIMTOFL
 70
     1
  9
$DIMTVP
 40
0.0
  9
$DIMTIX
 70
     1
  9
$DIMSOXD
 70
     0
  9
$DIMSAH
 70
     0
  9
$DIMBLK1
  1

  9
$DIMBLK2
  1

  9
$DIMSTYLE
  2
tform線あり
  9
$DIMCLRD
 70
     0
  9
$DIMCLRE
 70
     0
  9
$DIMCLRT
 70
     0
  9
$DIMTFAC
 40
0.8
  9
$DIMGAP
 40
10.0
  9
$DIMJUST
 70
     0
  9
$DIMSD1
 70
     0
  9
$DIMSD2
 70
     0
  9
$DIMTOLJ
 70
     1
  9
$DIMTZIN
 70
    11
  9
$DIMALTZ
 70
    11
  9
$DIMALTTZ
 70
    11
  9
$DIMUPT
 70
     0
  9
$DIMDEC
 70
     1
  9
$DIMTDEC
 70
     1
  9
$DIMALTU
 70
     2
  9
$DIMALTTD
 70
     2
  9
$DIMTXSTY
  7
ＭＳ ゴシック
  9
$DIMAUNIT
 70
     0
  9
$DIMADEC
 70
     2
  9
$DIMALTRND
 40
0.0
  9
$DIMAZIN
 70
     0
  9
$DIMDSEP
 70
    46
  9
$DIMATFIT
 70
     0
  9
$DIMFRAC
 70
     2
  9
$DIMLDRBLK
  1
DOT
  9
$DIMLUNIT
 70
     2
  9
$DIMLWD
 70
    -2
  9
$DIMLWE
 70
    -2
  9
$DIMTMOVE
 70
     0
  9
$DIMFXL
 40
1.0
  9
$DIMFXLON
 70
     0
  9
$DIMJOGANG
 40
0.7853981633974483
  9
$DIMTFILL
 70
     0
  9
$DIMTFILLCLR
 70
     0
  9
$DIMARCSYM
 70
     0
  9
$DIMLTYPE
  6

  9
$DIMLTEX1
  6

  9
$DIMLTEX2
  6

  9
$LUNITS
 70
     2
  9
$LUPREC
 70
     0
  9
$SKETCHINC
 40
0.1
  9
$FILLETRAD
 40
0.0
  9
$AUNITS
 70
     0
  9
$AUPREC
 70
     0
  9
$MENU
  1
acad
  9
$ELEVATION
 40
0.0
  9
$PELEVATION
 40
0.0
  9
$THICKNESS
 40
0.0
  9
$LIMCHECK
 70
     0
  9
$CHAMFERA
 40
0.0
  9
$CHAMFERB
 40
0.0
  9
$CHAMFERC
 40
0.0
  9
$CHAMFERD
 40
0.0
  9
$SKPOLY
 70
     0
  9
$TDCREATE
 40
2447893.375
  9
$TDUCREATE
 40
0.0
  9
$TDUPDATE
 40
2457959.73123154
  9
$TDUUPDATE
 40
2457959.35623154
  9
$TDINDWG
 40
0.0290634838
  9
$TDUSRTIMER
 40
2457959.351565729
  9
$USRTIMER
 70
     1
  9
$ANGBASE
 50
0.0
  9
$ANGDIR
 70
     0
  9
$PDMODE
 70
     1
  9
$PDSIZE
 40
-2.0
  9
$PLINEWID
 40
0.0
  9
$SPLFRAME
 70
     0
  9
$SPLINETYPE
 70
     6
  9
$SPLINESEGS
 70
     8
  9
$HANDSEED
  5
55C8
  9
$SURFTAB1
 70
     6
  9
$SURFTAB2
 70
     6
  9
$SURFTYPE
 70
     6
  9
$SURFU
 70
     6
  9
$SURFV
 70
     6
  9
$UCSBASE
  2

  9
$UCSNAME
  2

  9
$UCSORG
 10
0.0
 20
0.0
 30
0.0
  9
$UCSXDIR
 10
1.0
 20
0.0
 30
0.0
  9
$UCSYDIR
 10
0.0
 20
1.0
 30
0.0
  9
$UCSORTHOREF
  2

  9
$UCSORTHOVIEW
 70
     0
  9
$UCSORGTOP
 10
0.0
 20
0.0
 30
0.0
  9
$UCSORGBOTTOM
 10
0.0
 20
0.0
 30
0.0
  9
$UCSORGLEFT
 10
0.0
 20
0.0
 30
0.0
  9
$UCSORGRIGHT
 10
0.0
 20
0.0
 30
0.0
  9
$UCSORGFRONT
 10
0.0
 20
0.0
 30
0.0
  9
$UCSORGBACK
 10
0.0
 20
0.0
 30
0.0
  9
$PUCSBASE
  2

  9
$PUCSNAME
  2

  9
$PUCSORG
 10
0.0
 20
0.0
 30
0.0
  9
$PUCSXDIR
 10
1.0
 20
0.0
 30
0.0
  9
$PUCSYDIR
 10
0.0
 20
1.0
 30
0.0
  9
$PUCSORTHOREF
  2

  9
$PUCSORTHOVIEW
 70
     0
  9
$PUCSORGTOP
 10
0.0
 20
0.0
 30
0.0
  9
$PUCSORGBOTTOM
 10
0.0
 20
0.0
 30
0.0
  9
$PUCSORGLEFT
 10
0.0
 20
0.0
 30
0.0
  9
$PUCSORGRIGHT
 10
0.0
 20
0.0
 30
0.0
  9
$PUCSORGFRONT
 10
0.0
 20
0.0
 30
0.0
  9
$PUCSORGBACK
 10
0.0
 20
0.0
 30
0.0
  9
$USERI1
 70
     0
  9
$USERI2
 70
     0
  9
$USERI3
 70
     0
  9
$USERI4
 70
     0
  9
$USERI5
 70
     0
  9
$USERR1
 40
0.0
  9
$USERR2
 40
0.0
  9
$USERR3
 40
0.0
  9
$USERR4
 40
0.0
  9
$USERR5
 40
0.0
  9
$WORLDVIEW
 70
     1
  9
$SHADEDGE
 70
     3
  9
$SHADEDIF
 70
    70
  9
$TILEMODE
 70
     1
  9
$MAXACTVP
 70
    64
  9
$PINSBASE
 10
0.0
 20
0.0
 30
0.0
  9
$PLIMCHECK
 70
     0
  9
$PEXTMIN
 10
0.0
 20
0.0
 30
0.0
  9
$PEXTMAX
 10
0.0
 20
0.0
 30
0.0
  9
$PLIMMIN
 10
-7.5
 20
-20.0
  9
$PLIMMAX
 10
412.5
 20
277.0
  9
$UNITMODE
 70
     0
  9
$VISRETAIN
 70
     0
  9
$PLINEGEN
 70
     1
  9
$PSLTSCALE
 70
     0
  9
$TREEDEPTH
 70
  3020
  9
$CMLSTYLE
  2
Standard
  9
$CMLJUST
 70
     0
  9
$CMLSCALE
 40
1.0
  9
$PROXYGRAPHICS
 70
     0
  9
$MEASUREMENT
 70
     1
  9
$CELWEIGHT
370
    -1
  9
$ENDCAPS
280
     0
  9
$JOINSTYLE
280
     0
  9
$LWDISPLAY
290
     1
  9
$INSUNITS
 70
     4
  9
$HYPERLINKBASE
  1

  9
$STYLESHEET
  1

  9
$XEDIT
290
     1
  9
$CEPSNTYPE
380
     0
  9
$PSTYLEMODE
290
     1
  9
$FINGERPRINTGUID
  2

  9
$VERSIONGUID
  2

  9
$EXTNAMES
290
     1
  9
$PSVPSCALE
 40
0.0
  9
$OLESTARTUP
290
     0
  9
$SORTENTS
280
   127
  9
$INDEXCTL
280
     0
  9
$HIDETEXT
280
     1
  9
$XCLIPFRAME
290
     0
  9
$HALOGAP
280
     0
  9
$OBSCOLOR
 70
   257
  9
$OBSLTYPE
280
     0
  9
$INTERSECTIONDISPLAY
280
     0
  9
$INTERSECTIONCOLOR
 70
   257
  9
$DIMASSOC
280
     2
  9
$PROJECTNAME
  1

  9
$CAMERADISPLAY
290
     0
  9
$LENSLENGTH
 40
50.0
  9
$CAMERAHEIGHT
 40
0.0
  9
$STEPSPERSEC
 40
2.0
  9
$STEPSIZE
 40
6.0
  9
$3DDWFPREC
 40
2.0
  9
$PSOLWIDTH
 40
0.25
  9
$PSOLHEIGHT
 40
4.0
  9
$LOFTANG1
 40
1.570796326794897
  9
$LOFTANG2
 40
1.570796326794897
  9
$LOFTMAG1
 40
0.0
  9
$LOFTMAG2
 40
0.0
  9
$LOFTPARAM
 70
     7
  9
$LOFTNORMALS
280
     1
  9
$LATITUDE
 40
37.795
  9
$LONGITUDE
 40
-122.394
  9
$NORTHDIRECTION
 40
0.0
  9
$TIMEZONE
 70
 -8000
  9
$LIGHTGLYPHDISPLAY
280
     1
  9
$TILEMODELIGHTSYNCH
280
     1
  9
$SOLIDHIST
280
     1
  9
$SHOWHIST
280
     1
  9
$DWFFRAME
280
     2
  9
$DGNFRAME
280
     2
  9
$REALWORLDSCALE
290
     1
  9
$INTERFERECOLOR
 62
   256
  9
$CSHADOW
280
     0
  9
$SHADOWPLANELOCATION
 40
0.0
  0
ENDSEC
  0
SECTION
  2
CLASSES
  0
CLASS
  1
LWPOLYLINE
  2
AcDbPolyline
  3
ObjectDBX Classes
 90
        0
 91
        1
280
     0
281
     1
  0
CLASS
  1
IMAGE
  2
AcDbRasterImage
  3
ISM
 90
      127
 91
        6
280
     0
281
     1
  0
CLASS
  1
OLE2FRAME
  2
AcDbOle2Frame
  3
ObjectDBX Classes
 90
        0
 91
        1
280
     0
281
     1
  0
CLASS
  1
HATCH
  2
AcDbHatch
  3
ObjectDBX Classes
 90
        0
 91
        1
280
     0
281
     1
  0
CLASS
  1
DICTIONARYVAR
  2
AcDbDictionaryVar
  3
ObjectDBX Classes
 90
        0
 91
        5
280
     0
281
     0
  0
CLASS
  1
RASTERVARIABLES
  2
AcDbRasterVariables
  3
ISM
 90
        0
 91
        5
280
     0
281
     0
  0
CLASS
  1
IMAGEDEF
  2
AcDbRasterImageDef
  3
ISM
 90
        0
 91
        5
280
     0
281
     0
  0
CLASS
  1
IMAGEDEF_REACTOR
  2
AcDbRasterImageDefReactor
  3
ISM
 90
        1
 91
        5
280
     0
281
     0
  0
CLASS
  1
IDBUFFER
  2
AcDbIdBuffer
  3
ObjectDBX Classes
 90
        0
 91
        5
280
     0
281
     0
  0
CLASS
  1
SPATIAL_FILTER
  2
AcDbSpatialFilter
  3
ObjectDBX Classes
 90
        0
 91
        5
280
     0
281
     0
  0
CLASS
  1
XRECORD
  2
AcDbXrecord
  3
ObjectDBX Classes
 90
        0
 91
        1
280
     0
281
     0
  0
CLASS
  1
SORTENTSTABLE
  2
AcDbSortentsTable
  3
ObjectDBX Classes
 90
        0
 91
        5
280
     0
281
     0
  0
CLASS
  1
LAYER_INDEX
  2
AcDbLayerIndex
  3
ObjectDBX Classes
 90
        0
 91
        5
280
     0
281
     0
  0
CLASS
  1
SPATIAL_INDEX
  2
AcDbSpatialIndex
  3
AutoCAD 2000
 90
        0
 91
        5
280
     0
281
     0
  0
CLASS
  1
OBJECT_PTR
  2
CAseDLPNTableRecord
  3
ASE-LPNTableRecord
 90
        1
 91
        5
280
     0
281
     0
  0
CLASS
  1
LAYOUT
  2
AcDbLayout
  3
ObjectDBX Classes
 90
        0
 91
        1
280
     0
281
     0
  0
CLASS
  1
PLOTSETTINGS
  2
AcDbPlotSettings
  3
ObjectDBX Classes
 90
        0
 91
        5
280
     0
281
     0
  0
CLASS
  1
ACDBDICTIONARYWDFLT
  2
AcDbDictionaryWithDefault
  3
ObjectDBX Classes
 90
        0
 91
        5
280
     0
281
     0
  0
CLASS
  1
ACDBPLACEHOLDER
  2
AcDbPlaceHolder
  3
ObjectDBX Classes
 90
        0
 91
        1
280
     0
281
     0
  0
CLASS
  1
SCALE
  2
AcDbScale
  3
ObjectDBX Classes
 90
     1153
 91
        5
280
     0
281
     0
  0
CLASS
  1
MATERIAL
  2
AcDbMaterial
  3
ObjectDBX Classes
 90
     1153
 91
        5
280
     0
281
     0
  0
CLASS
  1
VISUALSTYLE
  2
AcDbVisualStyle
  3
ObjectDBX Classes
 90
     4095
 91
        5
280
     0
281
     0
  0
CLASS
  1
TABLESTYLE
  2
AcDbTableStyle
  3
ObjectDBX Classes
 90
     4095
 91
        5
280
     0
281
     0
  0
CLASS
  1
DIMASSOC
  2
AcDbDimAssoc
  3
"AcDbDimAssoc|Product Desc:     AcDim ARX App For Dimension|Company:          Autodesk, Inc.|WEB Address:      www.autodesk.com"
 90
        0
 91
        5
280
     0
281
     0
  0
CLASS
  1
CELLSTYLEMAP
  2
AcDbCellStyleMap
  3
ObjectDBX Classes
 90
     1152
 91
        5
280
     0
281
     0
  0
CLASS
  1
SUN
  2
AcDbSun
  3
SCENEOE
 90
     1153
 91
        5
280
     0
281
     0
  0
CLASS
  1
MLEADERSTYLE
  2
AcDbMLeaderStyle
  3
ACDB_MLEADERSTYLE_CLASS
 90
     4095
 91
        5
280
     0
281
     0
  0
CLASS
  1
FIELD
  2
AcDbField
  3
ObjectDBX Classes
 90
     1152
 91
        5
280
     0
281
     0
  0
CLASS
  1
FIELDLIST
  2
AcDbFieldList
  3
ObjectDBX Classes
 90
     1152
 91
        5
280
     0
281
     0
  0
CLASS
  1
ACDB_ALDIMOBJECTCONTEXTDATA_CLASS
  2
AcDbAlignedDimensionObjectContextData
  3
ObjectDBX Classes
 90
     1153
 91
        5
280
     0
281
     0
  0
ENDSEC
  0
SECTION
  2
TABLES
  0
TABLE
  2
VPORT
  5
7
330
0
100
AcDbSymbolTable
 70
     1
  0
VPORT
  5
15
330
7
100
AcDbSymbolTableRecord
100
AcDbViewportTableRecord
  2
*ACTIVE
 70
     0
 10
0.0
 20
0.0
 11
1.0
 21
1.0
 12
672.9525617540362
 22
1782.612370234516
 13
0.0
 23
0.0
 14
1.0
 24
1.0
 15
0.0
 25
0.0
 16
0.0
 26
0.0
 36
1.0
 17
377.0474382459638
 27
-297.6123702345158
 37
0.0
 40
3029.4
 41
2.227272727272727
 42
50.0
 43
0.0
 44
0.0
 50
0.0
 51
0.0
 71
    16
 72
  2000
 73
     1
 74
     1
 75
     0
 76
     0
 77
     0
 78
     0
281
     0
 65
     1
110
0.0
120
0.0
130
0.0
111
1.0
121
0.0
131
0.0
112
0.0
122
1.0
132
0.0
 79
     0
146
0.0
348
26C
 60
     3
 61
     5
292
     1
282
     1
141
0.0
142
0.0
 63
   256
361
8C2
  0
ENDTAB
  0
TABLE
  2
LTYPE
  5
4
330
0
100
AcDbSymbolTable
 70
     4
  0
LTYPE
  5
11
330
4
100
AcDbSymbolTableRecord
100
AcDbLinetypeTableRecord
  2
ByBlock
 70
     0
  3

 72
    65
 73
     0
 40
0.0
  0
LTYPE
  5
12
330
4
100
AcDbSymbolTableRecord
100
AcDbLinetypeTableRecord
  2
ByLayer
 70
     0
  3

 72
    65
 73
     0
 40
0.0
  0
LTYPE
  5
13
330
4
100
AcDbSymbolTableRecord
100
AcDbLinetypeTableRecord
  2
Continuous
 70
     0
  3
Solid line
 72
    65
 73
     0
 40
0.0
  0
LTYPE
  5
8D4
330
4
100
AcDbSymbolTableRecord
100
AcDbLinetypeTableRecord
  2
HIDDEN
 70
     0
  3
Hidden _ _ _ _ _ _ _ _ _ _ _ _ _ _ _ _ _ _ _ _ 
 72
    65
 73
     2
 40
9.524999999999999
 49
6.35
 74
     0
 49
-3.175
 74
     0
  0
LTYPE
  5
BF2
330
4
100
AcDbSymbolTableRecord
100
AcDbLinetypeTableRecord
  2
BORDER
 70
     0
  3
Border __  __  . __  __  . __  __  . __  __  . 
 72
    65
 73
     6
 40
44.45
 49
12.7
 74
     0
 49
-6.35
 74
     0
 49
12.7
 74
     0
 49
-6.35
 74
     0
 49
0.0
 74
     0
 49
-6.35
 74
     0
  0
LTYPE
  5
50F3
330
4
100
AcDbSymbolTableRecord
100
AcDbLinetypeTableRecord
  2
CENTER
 70
     0
  3
 Center _____  _  _____  _  _____  _  _____  _ 
 72
    65
 73
     4
 40
50.8
 49
31.75
 74
     0
 49
-6.35
 74
     0
 49
6.35
 74
     0
 49
-6.35
 74
     0
  0
ENDTAB
  0
TABLE
  2
LAYER
  5
2
102
{ACAD_XDICTIONARY
360
2E1
102
}
330
0
100
AcDbSymbolTable
 70
     9
  0
LAYER
  5
14
330
2
100
AcDbSymbolTableRecord
100
AcDbLayerTableRecord
  2
0
 70
     0
 62
     7
  6
Continuous
370
    -3
390
1D
347
266
  0
LAYER
  5
4A
330
2
100
AcDbSymbolTableRecord
100
AcDbLayerTableRecord
  2
Defpoints
 70
     0
 62
     7
  6
Continuous
290
     0
370
    20
390
1D
347
266
  0
LAYER
  5
4B
330
2
100
AcDbSymbolTableRecord
100
AcDbLayerTableRecord
  2
template
 70
     0
 62
     7
  6
Continuous
370
    20
390
1D
347
266
  0
LAYER
  5
382
330
2
100
AcDbSymbolTableRecord
100
AcDbLayerTableRecord
  2
レイヤー 1
 70
     0
 62
     7
  6
Continuous
370
    -3
390
1D
347
266
  0
LAYER
  5
5C4
330
2
100
AcDbSymbolTableRecord
100
AcDbLayerTableRecord
  2
HIDDEN
 70
     0
 62
   253
  6
HIDDEN
370
    13
390
1D
347
266
1001
AcAecLayerStandard
1000

1000

  0
LAYER
  5
5EB
330
2
100
AcDbSymbolTableRecord
100
AcDbLayerTableRecord
  2
Dim
 70
     0
 62
     3
  6
Continuous
370
    13
390
1D
347
266
1001
AcAecLayerStandard
1000

1000

  0
LAYER
  5
BF1
330
2
100
AcDbSymbolTableRecord
100
AcDbLayerTableRecord
  2
PRINT BORDER
 70
     0
 62
     4
  6
BORDER
290
     0
370
    20
390
1D
347
266
1001
AcAecLayerStandard
1000

1000

  0
LAYER
  5
1BD2
330
2
100
AcDbSymbolTableRecord
100
AcDbLayerTableRecord
  2
retino
 70
     0
 62
   253
  6
Continuous
370
     0
390
1D
347
266
  0
LAYER
  5
50ED
330
2
100
AcDbSymbolTableRecord
100
AcDbLayerTableRecord
  2
MODEL
 70
     0
 62
     7
  6
Continuous
370
    20
390
1D
347
266
  0
ENDTAB
  0
TABLE
  2
STYLE
  5
3
330
0
100
AcDbSymbolTable
 70
     2
  0
STYLE
  5
17
330
3
100
AcDbSymbolTableRecord
100
AcDbTextStyleTableRecord
  2
Standard
 70
     0
 40
0.0
 41
1.0
 50
0.0
 71
     0
 42
533.0403732820173
  3
txt
  4
BIGFONT.SHX
  0
STYLE
  5
39
330
3
100
AcDbSymbolTableRecord
100
AcDbTextStyleTableRecord
  2
ＭＳ ゴシック
 70
     0
 40
0.0
 41
1.0
 50
0.0
 71
     0
 42
533.0403732820173
  3
msgothic.ttc
  4
ＭＳ ゴシック
1001
ACAD
1000
ＭＳ ゴシック
1071
        0
  0
ENDTAB
  0
TABLE
  2
VIEW
  5
5
330
0
100
AcDbSymbolTable
 70
     0
  0
ENDTAB
  0
TABLE
  2
UCS
  5
6
330
0
100
AcDbSymbolTable
 70
     0
  0
ENDTAB
  0
TABLE
  2
APPID
  5
8
330
0
100
AcDbSymbolTable
 70
    14
  0
APPID
  5
16
330
8
100
AcDbSymbolTableRecord
100
AcDbRegAppTableRecord
  2
ACAD
 70
     0
  0
APPID
  5
5C5
330
8
100
AcDbSymbolTableRecord
100
AcDbRegAppTableRecord
  2
AcAecLayerStandard
 70
     0
  0
APPID
  5
913
330
8
100
AcDbSymbolTableRecord
100
AcDbRegAppTableRecord
  2
ACAD_DSTYLE_DIMBREAK
 70
     0
  0
APPID
  5
914
330
8
100
AcDbSymbolTableRecord
100
AcDbRegAppTableRecord
  2
ACAD_DSTYLE_DIMJAG
 70
     0
  0
APPID
  5
915
330
8
100
AcDbSymbolTableRecord
100
AcDbRegAppTableRecord
  2
ACAD_DSTYLE_DIMTALN
 70
     0
  0
APPID
  5
E4F
330
8
100
AcDbSymbolTableRecord
100
AcDbRegAppTableRecord
  2
ACAD_MLEADERVER
 70
     0
  0
APPID
  5
E79
330
8
100
AcDbSymbolTableRecord
100
AcDbRegAppTableRecord
  2
ACAD_PSEXT
 70
     0
  0
APPID
  5
E7A
330
8
100
AcDbSymbolTableRecord
100
AcDbRegAppTableRecord
  2
ACAD_NAV_VCDISPLAY
 70
     0
  0
APPID
  5
166E
330
8
100
AcDbSymbolTableRecord
100
AcDbRegAppTableRecord
  2
AcadAnnotative
 70
     0
  0
APPID
  5
166F
330
8
100
AcDbSymbolTableRecord
100
AcDbRegAppTableRecord
  2
GradientColor1ACI
 70
     0
  0
APPID
  5
1670
330
8
100
AcDbSymbolTableRecord
100
AcDbRegAppTableRecord
  2
GradientColor2ACI
 70
     0
  0
APPID
  5
20FE
330
8
100
AcDbSymbolTableRecord
100
AcDbRegAppTableRecord
  2
AcLayerTools
 70
     0
  0
APPID
  5
27AB
330
8
100
AcDbSymbolTableRecord
100
AcDbRegAppTableRecord
  2
ACAD_DSTYLE_DIMRADIAL_EXTENSION
 70
     0
  0
APPID
  5
4377
330
8
100
AcDbSymbolTableRecord
100
AcDbRegAppTableRecord
  2
RAK
 70
     0
  0
ENDTAB
  0
TABLE
  2
DIMSTYLE
  5
9
330
0
100
AcDbSymbolTable
 70
     2
100
AcDbDimStyleTable
  0
DIMSTYLE
105
18
330
9
100
AcDbSymbolTableRecord
100
AcDbDimStyleTableRecord
  2
Standard
 70
     0
178
     0
340
17
  0
DIMSTYLE
105
56
102
{ACAD_REACTORS
330
52EB
330
52EE
330
5312
330
5317
330
53A1
330
5448
330
5460
330
546D
330
547A
330
5487
330
5494
330
54A3
330
54AF
102
}
330
9
100
AcDbSymbolTableRecord
100
AcDbDimStyleTableRecord
  2
tform線あり
 70
     0
  3
<>
  4
[]
 41
9.999389648437498
 42
25.0
 43
0.9999999999999999
 44
0.0
 73
     0
 74
     0
 77
     1
 78
    11
140
24.4326171875
141
0.0
143
1.0
146
0.8
147
10.0
171
     1
172
     1
174
     1
178
     0
179
     2
271
     1
272
     1
276
     2
284
    11
285
    11
286
    11
289
     0
340
39
341
4E
342
4E
  0
ENDTAB
  0
TABLE
  2
BLOCK_RECORD
  5
1
330
0
100
AcDbSymbolTable
 70
    53
  0
BLOCK_RECORD
  5
A
330
1
100
AcDbSymbolTableRecord
100
AcDbBlockTableRecord
  2
*MODEL_SPACE
340
20
 70
     0
280
     1
281
     0
  0
BLOCK_RECORD
  5
B
330
1
100
AcDbSymbolTableRecord
100
AcDbBlockTableRecord
  2
*PAPER_SPACE
340
21
 70
     0
280
     1
281
     0
  0
BLOCK_RECORD
  5
4E
330
1
100
AcDbSymbolTableRecord
100
AcDbBlockTableRecord
  2
_DOT
340
0
102
{BLKREFS
331
4FFE
331
4FFF
331
5013
331
5014
331
505D
331
505E
331
5085
331
5086
331
50AA
331
50AB
331
50D5
331
50D6
331
5194
331
5195
331
51A8
331
51A9
331
51B4
331
51B5
331
51C1
331
51C2
331
51CE
331
51CF
331
51DB
331
51DC
331
51EA
331
51EB
331
51F8
331
51F9
331
528C
331
528D
331
5298
331
5299
331
52A4
331
52A5
331
52B0
331
52B1
331
52BC
331
52BD
331
52C8
331
52C9
331
52D6
331
52D7
331
52E2
331
52E3
331
52FE
331
52FF
331
530A
331
530B
331
532B
331
532C
331
5337
331
5338
331
5345
331
5346
331
53AD
331
0
331
53AC
331
54AA
331
5540
331
5541
331
554C
331
554D
331
5558
331
5559
331
5564
331
5565
331
5570
331
5571
331
557C
331
557D
331
5588
331
5589
331
5594
331
5595
102
}
 70
     0
280
     1
281
     0
  0
BLOCK_RECORD
  5
3A5
330
1
100
AcDbSymbolTableRecord
100
AcDbBlockTableRecord
  2
名称未設定-1
340
0
102
{BLKREFS
331
3D0
102
}
 70
     1
280
     1
281
     0
  0
BLOCK_RECORD
  5
3A8
330
1
100
AcDbSymbolTableRecord
100
AcDbBlockTableRecord
  2
block 2
340
0
102
{BLKREFS
331
3A7
102
}
 70
     0
280
     1
281
     0
  0
BLOCK_RECORD
  5
3AB
330
1
100
AcDbSymbolTableRecord
100
AcDbBlockTableRecord
  2
block 3
340
0
102
{BLKREFS
331
3AA
102
}
 70
     0
280
     1
281
     0
  0
BLOCK_RECORD
  5
3AE
330
1
100
AcDbSymbolTableRecord
100
AcDbBlockTableRecord
  2
block 4
340
0
102
{BLKREFS
331
3AD
102
}
 70
     0
280
     1
281
     0
  0
BLOCK_RECORD
  5
3BD
330
1
100
AcDbSymbolTableRecord
100
AcDbBlockTableRecord
  2
block 5
340
0
102
{BLKREFS
331
3BC
102
}
 70
     0
280
     1
281
     0
  0
BLOCK_RECORD
  5
11F0
330
1
100
AcDbSymbolTableRecord
100
AcDbBlockTableRecord
  2
BLOCK_2
340
0
102
{BLKREFS
331
1273
331
127B
331
127C
102
}
 70
     0
280
     1
281
     0
  0
BLOCK_RECORD
  5
38B6
330
1
100
AcDbSymbolTableRecord
100
AcDbBlockTableRecord
  2
mobile_latù
340
0
310
2800000020000000200000000100080000000000000400000000000000000000000000000000000000000000000080000080000000808000800000008000800080800000C0C0C000C0DCC000F0CAA6000020400000206000002080000020A0000020C0000020E00000400000004020000040400000406000004080000040A0
310
000040C0000040E00000600000006020000060400000606000006080000060A0000060C0000060E00000800000008020000080400000806000008080000080A0000080C0000080E00000A0000000A0200000A0400000A0600000A0800000A0A00000A0C00000A0E00000C0000000C0200000C0400000C0600000C0800000C0
310
A00000C0C00000C0E00000E0000000E0200000E0400000E0600000E0800000E0A00000E0C00000E0E00040000000400020004000400040006000400080004000A0004000C0004000E00040200000402020004020400040206000402080004020A0004020C0004020E000404000004040200040404000404060004040800040
310
40A0004040C0004040E00040600000406020004060400040606000406080004060A0004060C0004060E00040800000408020004080400040806000408080004080A0004080C0004080E00040A0000040A0200040A0400040A0600040A0800040A0A00040A0C00040A0E00040C0000040C0200040C0400040C0600040C08000
310
40C0A00040C0C00040C0E00040E0000040E0200040E0400040E0600040E0800040E0A00040E0C00040E0E00080000000800020008000400080006000800080008000A0008000C0008000E00080200000802020008020400080206000802080008020A0008020C0008020E00080400000804020008040400080406000804080
310
008040A0008040C0008040E00080600000806020008060400080606000806080008060A0008060C0008060E00080800000808020008080400080806000808080008080A0008080C0008080E00080A0000080A0200080A0400080A0600080A0800080A0A00080A0C00080A0E00080C0000080C0200080C0400080C0600080C0
310
800080C0A00080C0C00080C0E00080E0000080E0200080E0400080E0600080E0800080E0A00080E0C00080E0E000C0000000C0002000C0004000C0006000C0008000C000A000C000C000C000E000C0200000C0202000C0204000C0206000C0208000C020A000C020C000C020E000C0400000C0402000C0404000C0406000C0
310
408000C040A000C040C000C040E000C0600000C0602000C0604000C0606000C0608000C060A000C060C000C060E000C0800000C0802000C0804000C0806000C0808000C080A000C080C000C080E000C0A00000C0A02000C0A04000C0A06000C0A08000C0A0A000C0A0C000C0A0E000C0C00000C0C02000C0C04000C0C06000
310
C0C08000C0C0A000F0FBFF00A4A0A000808080000000FF0000FF000000FFFF00FF000000FF00FF00FFFF0000FFFFFF0049494949494949494949494949494949494949494949494949494949494949494949494949494949494949494949494949494949494949494949494949494949494949494949494949494949494949
310
49494949494949494949494949494949494949494949494949494949494949494949494949494949494949494949494949494949494949494949494949494949494949494949494949494949494949494949FAFAFAFAFAFAFAFAFAFAFAFAFAFAFAFAFAFAFAFAFAFAFAFAFAFAFAFAFAFA4949FAFA4949494949494949494949
310
494949494949494949494949494949FAFA4949FAFA4949494949494949494949494949494949494949494949494949FAFA4949FAFA4949494949494949494949494949494949494949494949494949FAFA4949FAFA4949494949494949494949494949494949494949494949494949FAFA4949FAFA49494949494949494949
310
49494949494949494949494949494949FAFA4949FAFA4949494949494949494949494949494949494949494949494949FAFA4949FAFA4949494949494949494949494949494949494949494949494949FAFA4949FAFA4949494949494949494949494949494949494949494949494949FAFA4949FAFA494949494949494949
310
4949494949494949494949494949494949FAFA4949FAFA4949494949494949494949494949494949494949494949494949FAFA4949FAFA4949494949494949494949494949494949494949494949494949FAFA4949FAFA4949494949494949494949494949494949494949494949494949FAFA4949FAFA4949494949494949
310
494949494949494949494949494949494949FAFA4949FAFA4949494949494949494949494949494949494949494949494949FAFA4949FAFA4949494949494949494949494949494949494949494949494949FAFA4949FAFA4949494949494949494949494949494949494949494949494949FAFA4949FAFA49494949494949
310
49494949494949494949494949494949494949FAFA4949FAFAFAFAFAFAFAFAFAFAFAFAFAFAFAFAFAFAFAFAFAFAFAFAFAFAFAFAFAFA4949FAFAFAFAFAFAFAFAFAFAFAFAFAFAFAFAFAFAFAFAFAFAFAFAFAFAFAFAFAFA4949FAFA4949494949494949494949494949494949494949494949494949FAFA4949FAFAFAFAFAFAFAFA
310
FAFAFAFAFAFAFAFAFAFAFAFAFAFAFAFAFAFAFAFAFAFA494949494949494949494949494949494949494949494949494949494949494949494949494949494949494949494949494949494949494949494949494949494949494949494949494949494949494949494949494949494949494949494949494949494949494949
310
4949494949494949494949494949494949494949494949494949494949494949494949494949494949494949494949494949494949494949
102
{BLKREFS
331
3B99
331
467E
102
}
 70
     4
280
     1
281
     0
  0
BLOCK_RECORD
  5
4FF8
330
1
100
AcDbSymbolTableRecord
100
AcDbBlockTableRecord
  2
*D8
340
0
 70
     0
280
     1
281
     0
  0
BLOCK_RECORD
  5
500B
330
1
100
AcDbSymbolTableRecord
100
AcDbBlockTableRecord
  2
*D9
340
0
 70
     0
280
     1
281
     0
  0
BLOCK_RECORD
  5
5057
330
1
100
AcDbSymbolTableRecord
100
AcDbBlockTableRecord
  2
*D10
340
0
 70
     0
280
     1
281
     0
  0
BLOCK_RECORD
  5
507F
330
1
100
AcDbSymbolTableRecord
100
AcDbBlockTableRecord
  2
*D11
340
0
 70
     0
280
     1
281
     0
  0
BLOCK_RECORD
  5
50A2
330
1
100
AcDbSymbolTableRecord
100
AcDbBlockTableRecord
  2
*D12
340
0
 70
     0
280
     1
281
     0
  0
BLOCK_RECORD
  5
50CF
330
1
100
AcDbSymbolTableRecord
100
AcDbBlockTableRecord
  2
*D13
340
0
 70
     0
280
     1
281
     0
  0
BLOCK_RECORD
  5
518F
330
1
100
AcDbSymbolTableRecord
100
AcDbBlockTableRecord
  2
*D14
340
0
 70
     0
280
     1
281
     0
  0
BLOCK_RECORD
  5
51A3
330
1
100
AcDbSymbolTableRecord
100
AcDbBlockTableRecord
  2
*D15
340
0
 70
     0
280
     1
281
     0
  0
BLOCK_RECORD
  5
51AF
330
1
100
AcDbSymbolTableRecord
100
AcDbBlockTableRecord
  2
*D16
340
0
 70
     0
280
     1
281
     0
  0
BLOCK_RECORD
  5
51BC
330
1
100
AcDbSymbolTableRecord
100
AcDbBlockTableRecord
  2
*D17
340
0
 70
     0
280
     1
281
     0
  0
BLOCK_RECORD
  5
51C9
330
1
100
AcDbSymbolTableRecord
100
AcDbBlockTableRecord
  2
*D18
340
0
 70
     0
280
     1
281
     0
  0
BLOCK_RECORD
  5
51D6
330
1
100
AcDbSymbolTableRecord
100
AcDbBlockTableRecord
  2
*D19
340
0
 70
     0
280
     1
281
     0
  0
BLOCK_RECORD
  5
51E3
330
1
100
AcDbSymbolTableRecord
100
AcDbBlockTableRecord
  2
*D20
340
0
 70
     0
280
     1
281
     0
  0
BLOCK_RECORD
  5
51F3
330
1
100
AcDbSymbolTableRecord
100
AcDbBlockTableRecord
  2
*D21
340
0
 70
     0
280
     1
281
     0
  0
BLOCK_RECORD
  5
5286
330
1
100
AcDbSymbolTableRecord
100
AcDbBlockTableRecord
  2
*D22
340
0
 70
     0
280
     1
281
     0
  0
BLOCK_RECORD
  5
5292
330
1
100
AcDbSymbolTableRecord
100
AcDbBlockTableRecord
  2
*D23
340
0
 70
     0
280
     1
281
     0
  0
BLOCK_RECORD
  5
529E
330
1
100
AcDbSymbolTableRecord
100
AcDbBlockTableRecord
  2
*D24
340
0
 70
     0
280
     1
281
     0
  0
BLOCK_RECORD
  5
52AA
330
1
100
AcDbSymbolTableRecord
100
AcDbBlockTableRecord
  2
*D25
340
0
 70
     0
280
     1
281
     0
  0
BLOCK_RECORD
  5
52B6
330
1
100
AcDbSymbolTableRecord
100
AcDbBlockTableRecord
  2
*D26
340
0
 70
     0
280
     1
281
     0
  0
BLOCK_RECORD
  5
52C2
330
1
100
AcDbSymbolTableRecord
100
AcDbBlockTableRecord
  2
*D27
340
0
 70
     0
280
     1
281
     0
  0
BLOCK_RECORD
  5
52CE
330
1
100
AcDbSymbolTableRecord
100
AcDbBlockTableRecord
  2
*D28
340
0
 70
     0
280
     1
281
     0
  0
BLOCK_RECORD
  5
52DC
330
1
100
AcDbSymbolTableRecord
100
AcDbBlockTableRecord
  2
*D29
340
0
 70
     0
280
     1
281
     0
  0
BLOCK_RECORD
  5
52F6
330
1
100
AcDbSymbolTableRecord
100
AcDbBlockTableRecord
  2
*D30
340
0
 70
     0
280
     1
281
     0
  0
BLOCK_RECORD
  5
5304
330
1
100
AcDbSymbolTableRecord
100
AcDbBlockTableRecord
  2
*D31
340
0
 70
     0
280
     1
281
     0
  0
BLOCK_RECORD
  5
5325
330
1
100
AcDbSymbolTableRecord
100
AcDbBlockTableRecord
  2
*D32
340
0
 70
     0
280
     1
281
     0
  0
BLOCK_RECORD
  5
5331
330
1
100
AcDbSymbolTableRecord
100
AcDbBlockTableRecord
  2
*D33
340
0
 70
     0
280
     1
281
     0
  0
BLOCK_RECORD
  5
533D
330
1
100
AcDbSymbolTableRecord
100
AcDbBlockTableRecord
  2
*D34
340
0
 70
     0
280
     1
281
     0
  0
BLOCK_RECORD
  5
53A4
330
1
100
AcDbSymbolTableRecord
100
AcDbBlockTableRecord
  2
*D35
340
0
 70
     0
280
     1
281
     0
  0
BLOCK_RECORD
  5
544B
330
1
100
AcDbSymbolTableRecord
100
AcDbBlockTableRecord
  2
*D37
340
0
 70
     0
280
     1
281
     0
  0
BLOCK_RECORD
  5
5461
330
1
100
AcDbSymbolTableRecord
100
AcDbBlockTableRecord
  2
*D38
340
0
 70
     0
280
     1
281
     0
  0
BLOCK_RECORD
  5
546E
330
1
100
AcDbSymbolTableRecord
100
AcDbBlockTableRecord
  2
*D39
340
0
 70
     0
280
     1
281
     0
  0
BLOCK_RECORD
  5
547B
330
1
100
AcDbSymbolTableRecord
100
AcDbBlockTableRecord
  2
*D40
340
0
 70
     0
280
     1
281
     0
  0
BLOCK_RECORD
  5
5488
330
1
100
AcDbSymbolTableRecord
100
AcDbBlockTableRecord
  2
*D41
340
0
 70
     0
280
     1
281
     0
  0
BLOCK_RECORD
  5
5497
330
1
100
AcDbSymbolTableRecord
100
AcDbBlockTableRecord
  2
*D42
340
0
 70
     0
280
     1
281
     0
  0
BLOCK_RECORD
  5
54A4
330
1
100
AcDbSymbolTableRecord
100
AcDbBlockTableRecord
  2
*D43
340
0
 70
     0
280
     1
281
     0
  0
BLOCK_RECORD
  5
54B2
330
1
100
AcDbSymbolTableRecord
100
AcDbBlockTableRecord
  2
*D44
340
0
 70
     0
280
     1
281
     0
  0
BLOCK_RECORD
  5
553A
330
1
100
AcDbSymbolTableRecord
100
AcDbBlockTableRecord
  2
*D45
340
0
 70
     0
280
     1
281
     0
  0
BLOCK_RECORD
  5
5546
330
1
100
AcDbSymbolTableRecord
100
AcDbBlockTableRecord
  2
*D46
340
0
 70
     0
280
     1
281
     0
  0
BLOCK_RECORD
  5
5552
330
1
100
AcDbSymbolTableRecord
100
AcDbBlockTableRecord
  2
*D47
340
0
 70
     0
280
     1
281
     0
  0
BLOCK_RECORD
  5
555E
330
1
100
AcDbSymbolTableRecord
100
AcDbBlockTableRecord
  2
*D48
340
0
 70
     0
280
     1
281
     0
  0
BLOCK_RECORD
  5
556A
330
1
100
AcDbSymbolTableRecord
100
AcDbBlockTableRecord
  2
*D49
340
0
 70
     0
280
     1
281
     0
  0
BLOCK_RECORD
  5
5576
330
1
100
AcDbSymbolTableRecord
100
AcDbBlockTableRecord
  2
*D50
340
0
 70
     0
280
     1
281
     0
  0
BLOCK_RECORD
  5
5582
330
1
100
AcDbSymbolTableRecord
100
AcDbBlockTableRecord
  2
*D51
340
0
 70
     0
280
     1
281
     0
  0
BLOCK_RECORD
  5
558E
330
1
100
AcDbSymbolTableRecord
100
AcDbBlockTableRecord
  2
*D52
340
0
 70
     0
280
     1
281
     0
  0
ENDTAB
  0
ENDSEC
  0
SECTION
  2
BLOCKS
  0
BLOCK
  5
D
330
A
100
AcDbEntity
  8
0
390
1D
100
AcDbBlockBegin
  2
*MODEL_SPACE
 70
     0
 10
0.0
 20
0.0
 30
0.0
  3
*MODEL_SPACE
  1
*MODEL_SPACE
  0
ENDBLK
  5
E
330
A
100
AcDbEntity
  8
0
390
1D
100
AcDbBlockEnd
  0
BLOCK
  5
F
330
B
100
AcDbEntity
 67
     1
  8
0
390
1D
100
AcDbBlockBegin
  2
*PAPER_SPACE
 70
     0
 10
0.0
 20
0.0
 30
0.0
  3
*PAPER_SPACE
  1
*PAPER_SPACE
  0
ENDBLK
  5
10
330
B
100
AcDbEntity
 67
     1
  8
0
390
1D
100
AcDbBlockEnd
  0
BLOCK
  5
2C14
330
4E
100
AcDbEntity
  8
0
390
1D
100
AcDbBlockBegin
  2
_DOT
 70
     0
 10
0.0
 20
0.0
 30
0.0
  3
_DOT
  1
_DOT
  0
POLYLINE
  5
2C16
330
4E
100
AcDbEntity
  8
0
  6
ByBlock
 62
     0
370
    -2
390
1D
100
AcDb2dPolyline
 66
     1
 10
0.0
 20
0.0
 30
0.0
 70
     1
 40
0.5
 41
0.5
  0
VERTEX
  5
2C17
330
2C16
100
AcDbEntity
  8
0
  6
ByBlock
 62
     0
370
    -2
390
1D
100
AcDbVertex
100
AcDb2dVertex
 10
-0.25
 20
0.0
 30
0.0
 42
1.0
  0
VERTEX
  5
2C18
330
2C16
100
AcDbEntity
  8
0
  6
ByBlock
 62
     0
370
    -2
390
1D
100
AcDbVertex
100
AcDb2dVertex
 10
0.25
 20
0.0
 30
0.0
 42
1.0
  0
SEQEND
  5
2C19
330
2C16
100
AcDbEntity
  8
0
390
1D
  0
LINE
  5
2C1A
330
4E
100
AcDbEntity
  8
0
  6
ByBlock
 62
     0
370
    -2
390
1D
100
AcDbLine
 10
-0.5
 20
0.0
 30
0.0
 11
-1.0
 21
0.0
 31
0.0
  0
ENDBLK
  5
2C1B
330
4E
100
AcDbEntity
  8
0
390
1D
100
AcDbBlockEnd
  0
BLOCK
  5
3A6
330
3A5
100
AcDbEntity
  8
0
100
AcDbBlockBegin
  2
名称未設定-1
 70
     0
 10
0.0
 20
0.0
 30
0.0
  3
名称未設定-1
  1
名称未設定-1
  0
INSERT
  5
3A7
330
3A5
100
AcDbEntity
  8
レイヤー 1
100
AcDbBlockReference
  2
block 2
 10
0.0
 20
0.0
 30
0.0
  0
ENDBLK
  5
3CC
330
3A5
100
AcDbEntity
  8
0
100
AcDbBlockEnd
  0
BLOCK
  5
3A9
330
3A8
100
AcDbEntity
  8
0
100
AcDbBlockBegin
  2
block 2
 70
     0
 10
0.0
 20
0.0
 30
0.0
  3
block 2
  1
block 2
  0
INSERT
  5
3AA
330
3A8
100
AcDbEntity
  8
レイヤー 1
100
AcDbBlockReference
  2
block 3
 10
0.0
 20
0.0
 30
0.0
  0
ENDBLK
  5
3CB
330
3A8
100
AcDbEntity
  8
0
100
AcDbBlockEnd
  0
BLOCK
  5
3AC
330
3AB
100
AcDbEntity
  8
0
100
AcDbBlockBegin
  2
block 3
 70
     0
 10
0.0
 20
0.0
 30
0.0
  3
block 3
  1
block 3
  0
INSERT
  5
3AD
330
3AB
100
AcDbEntity
  8
レイヤー 1
100
AcDbBlockReference
  2
block 4
 10
0.0
 20
0.0
 30
0.0
  0
ENDBLK
  5
3CA
330
3AB
100
AcDbEntity
  8
0
100
AcDbBlockEnd
  0
BLOCK
  5
3AF
330
3AE
100
AcDbEntity
  8
0
100
AcDbBlockBegin
  2
block 4
 70
     0
 10
0.0
 20
0.0
 30
0.0
  3
block 4
  1
block 4
  0
POLYLINE
  5
3B0
330
3AE
100
AcDbEntity
  8
レイヤー 1
370
     0
100
AcDb2dPolyline
 66
     1
 10
0.0
 20
0.0
 30
0.0
  0
VERTEX
  5
3B1
330
3B0
100
AcDbEntity
  8
レイヤー 1
370
     0
100
AcDbVertex
100
AcDb2dVertex
 10
83.79545727667795
 20
167.6444858234922
 30
0.0
  0
VERTEX
  5
3B2
330
3B0
100
AcDbEntity
  8
レイヤー 1
370
     0
100
AcDbVertex
100
AcDb2dVertex
 10
83.79545727667795
 20
159.7968976406313
 30
0.0
  0
VERTEX
  5
3B3
330
3B0
100
AcDbEntity
  8
レイヤー 1
370
     0
100
AcDbVertex
100
AcDb2dVertex
 10
71.3631329975216
 20
159.7968976406313
 30
0.0
  0
VERTEX
  5
3B4
330
3B0
100
AcDbEntity
  8
レイヤー 1
370
     0
100
AcDbVertex
100
AcDb2dVertex
 10
71.3631329975216
 20
127.8027915271048
 30
0.0
  0
VERTEX
  5
3B5
330
3B0
100
AcDbEntity
  8
レイヤー 1
370
     0
100
AcDbVertex
100
AcDb2dVertex
 10
60.43011526263018
 20
127.8027915271048
 30
0.0
  0
VERTEX
  5
3B6
330
3B0
100
AcDbEntity
  8
レイヤー 1
370
     0
100
AcDbVertex
100
AcDb2dVertex
 10
60.43011526263018
 20
159.7968976406313
 30
0.0
  0
VERTEX
  5
3B7
330
3B0
100
AcDbEntity
  8
レイヤー 1
370
     0
100
AcDbVertex
100
AcDb2dVertex
 10
48.21793273020759
 20
159.7968976406313
 30
0.0
  0
VERTEX
  5
3B8
330
3B0
100
AcDbEntity
  8
レイヤー 1
370
     0
100
AcDbVertex
100
AcDb2dVertex
 10
48.21793273020759
 20
167.6444858234922
 30
0.0
  0
VERTEX
  5
3B9
330
3B0
100
AcDbEntity
  8
レイヤー 1
370
     0
100
AcDbVertex
100
AcDb2dVertex
 10
83.79545727667795
 20
167.6444858234922
 30
0.0
  0
SEQEND
  5
3BA
330
3B0
100
AcDbEntity
  8
レイヤー 1
370
     0
  0
HATCH
  5
3BB
330
3AE
100
AcDbEntity
  8
レイヤー 1
 62
   250
420
  2234388
100
AcDbHatch
 10
0.0
 20
0.0
 30
0.0
210
0.0
220
0.0
230
1.0
  2
SOLID
 70
     1
 71
     0
 91
        1
 92
        1
 93
        8
 72
     1
 10
83.79545727667795
 20
167.6444858234922
 11
83.79545727667795
 21
159.7968976406313
 72
     1
 10
83.79545727667795
 20
159.7968976406313
 11
71.3631329975216
 21
159.7968976406313
 72
     1
 10
71.3631329975216
 20
159.7968976406313
 11
71.3631329975216
 21
127.8027915271048
 72
     1
 10
71.3631329975216
 20
127.8027915271048
 11
60.43011526263018
 21
127.8027915271048
 72
     1
 10
60.43011526263018
 20
127.8027915271048
 11
60.43011526263018
 21
159.7968976406313
 72
     1
 10
60.43011526263018
 20
159.7968976406313
 11
48.21793273020759
 21
159.7968976406313
 72
     1
 10
48.21793273020759
 20
159.7968976406313
 11
48.21793273020759
 21
167.6444858234922
 72
     1
 10
48.21793273020759
 20
167.6444858234922
 11
83.79545727667795
 21
167.6444858234922
 97
        0
 75
     2
 76
     1
 98
        0
  0
INSERT
  5
3BC
330
3AE
100
AcDbEntity
  8
レイヤー 1
100
AcDbBlockReference
  2
block 5
 10
0.0
 20
0.0
 30
0.0
  0
ENDBLK
  5
3C9
330
3AE
100
AcDbEntity
  8
0
100
AcDbBlockEnd
  0
BLOCK
  5
3BE
330
3BD
100
AcDbEntity
  8
0
100
AcDbBlockBegin
  2
block 5
 70
     0
 10
0.0
 20
0.0
 30
0.0
  3
block 5
  1
block 5
  0
SPLINE
  5
3BF
330
3BD
100
AcDbEntity
  8
レイヤー 1
370
     0
100
AcDbSpline
210
0.0
220
0.0
230
1.0
 70
    11
 71
     3
 72
    56
 73
    52
 74
     0
 42
0.000000001
 43
0.0000000001
 40
0.0
 40
0.0
 40
0.0
 40
0.0
 40
1.0
 40
1.0
 40
1.0
 40
2.0
 40
2.0
 40
2.0
 40
3.0
 40
3.0
 40
3.0
 40
4.0
 40
4.0
 40
4.0
 40
5.0
 40
5.0
 40
5.0
 40
6.0
 40
6.0
 40
6.0
 40
7.0
 40
7.0
 40
7.0
 40
8.0
 40
8.0
 40
8.0
 40
9.0
 40
9.0
 40
9.0
 40
10.0
 40
10.0
 40
10.0
 40
11.0
 40
11.0
 40
11.0
 40
12.0
 40
12.0
 40
12.0
 40
13.0
 40
13.0
 40
13.0
 40
14.0
 40
14.0
 40
14.0
 40
15.0
 40
15.0
 40
15.0
 40
16.0
 40
16.0
 40
16.0
 40
17.0
 40
17.0
 40
17.0
 40
17.0
 10
100.4504378777679
 20
166.69157178364
 30
0.0
 10
101.9848844191641
 20
167.1313385124438
 30
0.0
 10
103.9637485713373
 20
166.7649523658846
 30
0.0
 10
103.9637485713373
 20
166.7649523658846
 30
0.0
 10
103.9637485713373
 20
166.7649523658846
 30
0.0
 10
103.0132460999156
 20
163.911205638077
 30
0.0
 10
103.0132460999156
 20
163.911205638077
 30
0.0
 10
103.0132460999156
 20
163.911205638077
 30
0.0
 10
101.0674548862189
 20
164.3601018759394
 30
0.0
 10
99.57090442016032
 20
163.1805004036133
 30
0.0
 10
98.40508333886608
 20
162.258247733807
 30
0.0
 10
97.65301849830304
 20
159.804132345923
 30
0.0
 10
97.3598406791005
 20
158.8699940888517
 30
0.0
 10
97.3598406791005
 20
158.8699940888517
 30
0.0
 10
96.07137411762282
 20
154.9119212747295
 30
0.0
 10
96.07137411762282
 20
154.9119212747295
 30
0.0
 10
96.07137411762282
 20
154.9119212747295
 30
0.0
 10
100.3012651448482
 20
154.9119212747295
 30
0.0
 10
100.3012651448482
 20
154.9119212747295
 30
0.0
 10
100.3012651448482
 20
154.9119212747295
 30
0.0
 10
99.64152892419852
 20
152.4199098115079
 30
0.0
 10
99.64152892419852
 20
152.4199098115079
 30
0.0
 10
99.64152892419852
 20
152.4199098115079
 30
0.0
 10
95.38097652692731
 20
152.4199098115079
 30
0.0
 10
95.38097652692731
 20
152.4199098115079
 30
0.0
 10
95.38097652692731
 20
152.4199098115079
 30
0.0
 10
87.75353009080013
 20
127.8027915271048
 30
0.0
 10
87.75353009080013
 20
127.8027915271048
 30
0.0
 10
87.75353009080013
 20
127.8027915271048
 30
0.0
 10
85.36538832498108
 20
127.8027915271048
 30
0.0
 10
85.36538832498108
 20
127.8027915271048
 30
0.0
 10
85.36538832498108
 20
127.8027915271048
 30
0.0
 10
93.00006946639998
 20
152.4199098115079
 30
0.0
 10
93.00006946639998
 20
152.4199098115079
 30
0.0
 10
93.00006946639998
 20
152.4199098115079
 30
0.0
 10
89.85297266450198
 20
152.4199098115079
 30
0.0
 10
89.85297266450198
 20
152.4199098115079
 30
0.0
 10
89.85297266450198
 20
152.4199098115079
 30
0.0
 10
90.51270888515164
 20
154.9119212747295
 30
0.0
 10
90.51270888515164
 20
154.9119212747295
 30
0.0
 10
90.51270888515164
 20
154.9119212747295
 30
0.0
 10
93.6904670570955
 20
154.9119212747295
 30
0.0
 10
93.6904670570955
 20
154.9119212747295
 30
0.0
 10
93.6904670570955
 20
154.9119212747295
 30
0.0
 10
94.81598049462158
 20
158.3616699146644
 30
0.0
 10
94.81598049462158
 20
158.3616699146644
 30
0.0
 10
95.7237637538445
 20
161.2605474231013
 30
0.0
 10
96.4968436907311
 20
162.8139420021662
 30
0.0
 10
97.15657991138076
 20
163.9844139654337
 30
0.0
 10
97.81183750494507
 20
165.1523021053827
 30
0.0
 10
99.1047826935081
 20
166.3084769129547
 30
0.0
 10
100.4504378777679
 20
166.69157178364
 30
0.0
  0
HATCH
  5
3C0
330
3BD
100
AcDbEntity
  8
レイヤー 1
 62
   250
420
  2234388
100
AcDbHatch
 10
0.0
 20
0.0
 30
0.0
210
0.0
220
0.0
230
1.0
  2
SOLID
 70
     1
 71
     0
 91
        1
 92
        1
 93
        1
 72
     4
 94
        3
 73
     0
 74
     1
 95
       56
 96
       52
 40
0.0
 40
0.0
 40
0.0
 40
0.0
 40
1.0
 40
1.0
 40
1.0
 40
2.0
 40
2.0
 40
2.0
 40
3.0
 40
3.0
 40
3.0
 40
4.0
 40
4.0
 40
4.0
 40
5.0
 40
5.0
 40
5.0
 40
6.0
 40
6.0
 40
6.0
 40
7.0
 40
7.0
 40
7.0
 40
8.0
 40
8.0
 40
8.0
 40
9.0
 40
9.0
 40
9.0
 40
10.0
 40
10.0
 40
10.0
 40
11.0
 40
11.0
 40
11.0
 40
12.0
 40
12.0
 40
12.0
 40
13.0
 40
13.0
 40
13.0
 40
14.0
 40
14.0
 40
14.0
 40
15.0
 40
15.0
 40
15.0
 40
16.0
 40
16.0
 40
16.0
 40
17.0
 40
17.0
 40
17.0
 40
17.0
 10
100.4504378777679
 20
166.69157178364
 10
101.9848844191641
 20
167.1313385124438
 10
103.9637485713373
 20
166.7649523658846
 10
103.9637485713373
 20
166.7649523658846
 10
103.9637485713373
 20
166.7649523658846
 10
103.0132460999156
 20
163.911205638077
 10
103.0132460999156
 20
163.911205638077
 10
103.0132460999156
 20
163.911205638077
 10
101.0674548862189
 20
164.3601018759394
 10
99.57090442016032
 20
163.1805004036133
 10
98.40508333886608
 20
162.258247733807
 10
97.65301849830304
 20
159.804132345923
 10
97.3598406791005
 20
158.8699940888517
 10
97.3598406791005
 20
158.8699940888517
 10
96.07137411762282
 20
154.9119212747295
 10
96.07137411762282
 20
154.9119212747295
 10
96.07137411762282
 20
154.9119212747295
 10
100.3012651448482
 20
154.9119212747295
 10
100.3012651448482
 20
154.9119212747295
 10
100.3012651448482
 20
154.9119212747295
 10
99.64152892419852
 20
152.4199098115079
 10
99.64152892419852
 20
152.4199098115079
 10
99.64152892419852
 20
152.4199098115079
 10
95.38097652692731
 20
152.4199098115079
 10
95.38097652692731
 20
152.4199098115079
 10
95.38097652692731
 20
152.4199098115079
 10
87.75353009080013
 20
127.8027915271048
 10
87.75353009080013
 20
127.8027915271048
 10
87.75353009080013
 20
127.8027915271048
 10
85.36538832498108
 20
127.8027915271048
 10
85.36538832498108
 20
127.8027915271048
 10
85.36538832498108
 20
127.8027915271048
 10
93.00006946639998
 20
152.4199098115079
 10
93.00006946639998
 20
152.4199098115079
 10
93.00006946639998
 20
152.4199098115079
 10
89.85297266450198
 20
152.4199098115079
 10
89.85297266450198
 20
152.4199098115079
 10
89.85297266450198
 20
152.4199098115079
 10
90.51270888515164
 20
154.9119212747295
 10
90.51270888515164
 20
154.9119212747295
 10
90.51270888515164
 20
154.9119212747295
 10
93.6904670570955
 20
154.9119212747295
 10
93.6904670570955
 20
154.9119212747295
 10
93.6904670570955
 20
154.9119212747295
 10
94.81598049462158
 20
158.3616699146644
 10
94.81598049462158
 20
158.3616699146644
 10
95.7237637538445
 20
161.2605474231013
 10
96.4968436907311
 20
162.8139420021662
 10
97.15657991138076
 20
163.9844139654337
 10
97.81183750494507
 20
165.1523021053827
 10
99.1047826935081
 20
166.3084769129547
 10
100.4504378777679
 20
166.69157178364
 97
        0
 75
     2
 76
     1
 98
        0
  0
SPLINE
  5
3C1
330
3BD
100
AcDbEntity
  8
レイヤー 1
370
     0
100
AcDbSpline
210
0.0
220
0.0
230
1.0
 70
    11
 71
     3
 72
    38
 73
    34
 74
     0
 42
0.000000001
 43
0.0000000001
 40
0.0
 40
0.0
 40
0.0
 40
0.0
 40
1.0
 40
1.0
 40
1.0
 40
2.0
 40
2.0
 40
2.0
 40
3.0
 40
3.0
 40
3.0
 40
4.0
 40
4.0
 40
4.0
 40
5.0
 40
5.0
 40
5.0
 40
6.0
 40
6.0
 40
6.0
 40
7.0
 40
7.0
 40
7.0
 40
8.0
 40
8.0
 40
8.0
 40
9.0
 40
9.0
 40
9.0
 40
10.0
 40
10.0
 40
10.0
 40
11.0
 40
11.0
 40
11.0
 40
11.0
 10
126.377554584636
 20
154.8151140277308
 30
0.0
 10
126.377554584636
 20
154.8151140277308
 30
0.0
 10
128.8311532078563
 20
154.8151140277308
 30
0.0
 10
128.8311532078563
 20
154.8151140277308
 30
0.0
 10
128.8311532078563
 20
154.8151140277308
 30
0.0
 10
127.7345785914971
 20
151.3062819612468
 30
0.0
 10
127.7345785914971
 20
151.3062819612468
 30
0.0
 10
128.571392836906
 20
152.2922689395754
 30
0.0
 10
129.8860421413442
 20
153.604506675583
 30
0.0
 10
131.0163787157314
 20
154.2664822097754
 30
0.0
 10
132.7044766171327
 20
155.2500576196734
 30
0.0
 10
133.6642808525008
 20
155.3847609420097
 30
0.0
 10
134.7284715499351
 20
155.3565111403944
 30
0.0
 10
134.7284715499351
 20
155.3565111403944
 30
0.0
 10
133.6877075172549
 20
152.0345756272799
 30
0.0
 10
133.6877075172549
 20
152.0345756272799
 30
0.0
 10
133.011434827367
 20
152.3184516825359
 30
0.0
 10
130.930940291334
 20
151.7768823149844
 30
0.0
 10
129.739280976855
 20
150.9162968950455
 30
0.0
 10
128.66613302525
 20
150.1454562717016
 30
0.0
 10
127.9192358313239
 20
149.4857200510519
 30
0.0
 10
127.0393578639405
 20
147.8282835196966
 30
0.0
 10
126.164647543194
 20
146.1699857139017
 30
0.0
 10
125.4742499524985
 20
143.5262176944419
 30
0.0
 10
124.2822461282437
 20
139.6959580071401
 30
0.0
 10
124.2822461282437
 20
139.6959580071401
 30
0.0
 10
120.5753209406769
 20
127.8027915271048
 30
0.0
 10
120.5753209406769
 20
127.8027915271048
 30
0.0
 10
120.5753209406769
 20
127.8027915271048
 30
0.0
 10
118.1964809388044
 20
127.8027915271048
 30
0.0
 10
118.1964809388044
 20
127.8027915271048
 30
0.0
 10
118.1964809388044
 20
127.8027915271048
 30
0.0
 10
126.377554584636
 20
154.8151140277308
 30
0.0
 10
126.377554584636
 20
154.8151140277308
 30
0.0
  0
HATCH
  5
3C2
330
3BD
100
AcDbEntity
  8
レイヤー 1
 62
   250
420
  2234388
100
AcDbHatch
 10
0.0
 20
0.0
 30
0.0
210
0.0
220
0.0
230
1.0
  2
SOLID
 70
     1
 71
     0
 91
        1
 92
        1
 93
        1
 72
     4
 94
        3
 73
     0
 74
     1
 95
       38
 96
       34
 40
0.0
 40
0.0
 40
0.0
 40
0.0
 40
1.0
 40
1.0
 40
1.0
 40
2.0
 40
2.0
 40
2.0
 40
3.0
 40
3.0
 40
3.0
 40
4.0
 40
4.0
 40
4.0
 40
5.0
 40
5.0
 40
5.0
 40
6.0
 40
6.0
 40
6.0
 40
7.0
 40
7.0
 40
7.0
 40
8.0
 40
8.0
 40
8.0
 40
9.0
 40
9.0
 40
9.0
 40
10.0
 40
10.0
 40
10.0
 40
11.0
 40
11.0
 40
11.0
 40
11.0
 10
126.377554584636
 20
154.8151140277308
 10
126.377554584636
 20
154.8151140277308
 10
128.8311532078563
 20
154.8151140277308
 10
128.8311532078563
 20
154.8151140277308
 10
128.8311532078563
 20
154.8151140277308
 10
127.7345785914971
 20
151.3062819612468
 10
127.7345785914971
 20
151.3062819612468
 10
128.571392836906
 20
152.2922689395754
 10
129.8860421413442
 20
153.604506675583
 10
131.0163787157314
 20
154.2664822097754
 10
132.7044766171327
 20
155.2500576196734
 10
133.6642808525008
 20
155.3847609420097
 10
134.7284715499351
 20
155.3565111403944
 10
134.7284715499351
 20
155.3565111403944
 10
133.6877075172549
 20
152.0345756272799
 10
133.6877075172549
 20
152.0345756272799
 10
133.011434827367
 20
152.3184516825359
 10
130.930940291334
 20
151.7768823149844
 10
129.739280976855
 20
150.9162968950455
 10
128.66613302525
 20
150.1454562717016
 10
127.9192358313239
 20
149.4857200510519
 10
127.0393578639405
 20
147.8282835196966
 10
126.164647543194
 20
146.1699857139017
 10
125.4742499524985
 20
143.5262176944419
 10
124.2822461282437
 20
139.6959580071401
 10
124.2822461282437
 20
139.6959580071401
 10
120.5753209406769
 20
127.8027915271048
 10
120.5753209406769
 20
127.8027915271048
 10
120.5753209406769
 20
127.8027915271048
 10
118.1964809388044
 20
127.8027915271048
 10
118.1964809388044
 20
127.8027915271048
 10
118.1964809388044
 20
127.8027915271048
 10
126.377554584636
 20
154.8151140277308
 10
126.377554584636
 20
154.8151140277308
 97
        0
 75
     2
 76
     1
 98
        0
  0
SPLINE
  5
3C3
330
3BD
100
AcDbEntity
  8
レイヤー 1
370
     0
100
AcDbSpline
210
0.0
220
0.0
230
1.0
 70
    11
 71
     3
 72
   104
 73
   100
 74
     0
 42
0.000000001
 43
0.0000000001
 40
0.0
 40
0.0
 40
0.0
 40
0.0
 40
1.0
 40
1.0
 40
1.0
 40
2.0
 40
2.0
 40
2.0
 40
3.0
 40
3.0
 40
3.0
 40
4.0
 40
4.0
 40
4.0
 40
5.0
 40
5.0
 40
5.0
 40
6.0
 40
6.0
 40
6.0
 40
7.0
 40
7.0
 40
7.0
 40
8.0
 40
8.0
 40
8.0
 40
9.0
 40
9.0
 40
9.0
 40
10.0
 40
10.0
 40
10.0
 40
11.0
 40
11.0
 40
11.0
 40
12.0
 40
12.0
 40
12.0
 40
13.0
 40
13.0
 40
13.0
 40
14.0
 40
14.0
 40
14.0
 40
15.0
 40
15.0
 40
15.0
 40
16.0
 40
16.0
 40
16.0
 40
17.0
 40
17.0
 40
17.0
 40
18.0
 40
18.0
 40
18.0
 40
19.0
 40
19.0
 40
19.0
 40
20.0
 40
20.0
 40
20.0
 40
21.0
 40
21.0
 40
21.0
 40
22.0
 40
22.0
 40
22.0
 40
23.0
 40
23.0
 40
23.0
 40
24.0
 40
24.0
 40
24.0
 40
25.0
 40
25.0
 40
25.0
 40
26.0
 40
26.0
 40
26.0
 40
27.0
 40
27.0
 40
27.0
 40
28.0
 40
28.0
 40
28.0
 40
29.0
 40
29.0
 40
29.0
 40
30.0
 40
30.0
 40
30.0
 40
31.0
 40
31.0
 40
31.0
 40
32.0
 40
32.0
 40
32.0
 40
33.0
 40
33.0
 40
33.0
 40
33.0
 10
139.8926730891197
 20
154.8294111834263
 30
0.0
 10
139.8926730891197
 20
154.8294111834263
 30
0.0
 10
142.0344903652445
 20
154.8294111834263
 30
0.0
 10
142.0344903652445
 20
154.8294111834263
 30
0.0
 10
142.0344903652445
 20
154.8294111834263
 30
0.0
 10
140.9516961399171
 20
151.3157559800812
 30
0.0
 10
140.9516961399171
 20
151.3157559800812
 30
0.0
 10
141.8928968473923
 20
152.7887075264977
 30
0.0
 10
142.7341897198865
 20
153.4484437471474
 30
0.0
 10
143.8552245303272
 20
154.2926649527359
 30
0.0
 10
144.9803934580775
 20
155.1296514530327
 30
0.0
 10
146.3139908001845
 20
155.3044901642492
 30
0.0
 10
147.241066606852
 20
155.3044901642492
 30
0.0
 10
148.3855280820469
 20
155.3044901642492
 30
0.0
 10
149.4969166187653
 20
155.0752189084569
 30
0.0
 10
150.0784491203092
 20
153.8172414621372
 30
0.0
 10
150.5228667310863
 20
152.833838307127
 30
0.0
 10
150.5414702589793
 20
152.7201500811143
 30
0.0
 10
150.4140016419347
 20
150.7765981809602
 30
0.0
 10
151.5818897818837
 20
152.7699317437168
 30
0.0
 10
152.4424752018226
 20
153.6256940267945
 30
0.0
 10
153.9038856707499
 20
154.4507949398263
 30
0.0
 10
155.4455669174378
 20
155.3044901642492
 30
0.0
 10
156.339225275853
 20
155.3659851592288
 30
0.0
 10
157.3748216618963
 20
155.2147453676543
 30
0.0
 10
158.911679771723
 20
154.9877134254046
 30
0.0
 10
159.8859534176746
 20
154.4390816074493
 30
0.0
 10
160.3965169054045
 20
152.7816450760939
 30
0.0
 10
160.9070803931344
 20
151.1219692311958
 30
0.0
 10
160.6328506116007
 20
150.2303779314354
 30
0.0
 10
159.9992971339115
 20
147.597634224801
 30
0.0
 10
159.7105979417943
 20
146.4014962832367
 30
0.0
 10
159.2947746424084
 20
144.9400858143094
 30
0.0
 10
158.7463150793409
 20
143.2092687007094
 30
0.0
 10
158.7463150793409
 20
143.2092687007094
 30
0.0
 10
153.9038856707499
 20
127.8027915271048
 30
0.0
 10
153.9038856707499
 20
127.8027915271048
 30
0.0
 10
153.9038856707499
 20
127.8027915271048
 30
0.0
 10
151.3882752878863
 20
127.8027915271048
 30
0.0
 10
151.3882752878863
 20
127.8027915271048
 30
0.0
 10
151.3882752878863
 20
127.8027915271048
 30
0.0
 10
155.6250565106276
 20
141.2751908193897
 30
0.0
 10
155.6250565106276
 20
141.2751908193897
 30
0.0
 10
156.5094131050963
 20
144.0936252951782
 30
0.0
 10
157.109893644309
 20
146.1506931664571
 30
0.0
 10
157.4220195011804
 20
147.4415712963654
 30
0.0
 10
157.8095929989511
 20
149.0530157726519
 30
0.0
 10
157.9656559273867
 20
149.5826995529385
 30
0.0
 10
157.7816877071116
 20
150.7529992613181
 30
0.0
 10
157.6111553680925
 20
151.8430281919372
 30
0.0
 10
157.0582171779396
 20
152.5547853887321
 30
0.0
 10
156.1170164704645
 20
152.5547853887321
 30
0.0
 10
155.1096698860365
 20
152.5547853887321
 30
0.0
 10
154.2962823053817
 20
152.4412694176073
 30
0.0
 10
153.156643967048
 20
151.2945686288697
 30
0.0
 10
152.0170056287143
 20
150.1476955852443
 30
0.0
 10
151.076149431015
 20
148.7930831468137
 30
0.0
 10
150.3337308641742
 20
147.2290087646991
 30
0.0
 10
149.5957909244188
 20
145.6683794803425
 30
0.0
 10
148.8530278478023
 20
143.6822806228776
 30
0.0
 10
148.0964843801539
 20
141.2751908193897
 30
0.0
 10
148.0964843801539
 20
141.2751908193897
 30
0.0
 10
143.8552245303272
 20
127.8027915271048
 30
0.0
 10
143.8552245303272
 20
127.8027915271048
 30
0.0
 10
143.8552245303272
 20
127.8027915271048
 30
0.0
 10
141.486030802177
 20
127.8027915271048
 30
0.0
 10
141.486030802177
 20
127.8027915271048
 30
0.0
 10
141.486030802177
 20
127.8027915271048
 30
0.0
 10
146.3329388378533
 20
143.2092687007094
 30
0.0
 10
146.3329388378533
 20
143.2092687007094
 30
0.0
 10
146.8483254624444
 20
144.8408669988801
 30
0.0
 10
147.2314203331297
 20
146.1837661049335
 30
0.0
 10
147.4867020769946
 20
147.224185627838
 30
0.0
 10
147.9169947869641
 20
149.0197705792876
 30
0.0
 10
148.0306830129768
 20
150.2400242051577
 30
0.0
 10
147.709255392159
 20
151.3157559800812
 30
0.0
 10
147.3874832615654
 20
152.3916600098926
 30
0.0
 10
146.8245542879144
 20
152.6683013598569
 30
0.0
 10
145.8840425999909
 20
152.6683013598569
 30
0.0
 10
145.0989048209514
 20
152.6683013598569
 30
0.0
 10
144.3282364524954
 20
152.3275811915945
 30
0.0
 10
143.4531816219731
 20
151.6538923250251
 30
0.0
 10
142.34627171234
 20
150.8074318058939
 30
0.0
 10
141.901854101563
 20
150.1097995099067
 30
0.0
 10
141.3578731655808
 20
149.289521733736
 30
0.0
 10
140.6299240093235
 20
148.192602607601
 30
0.0
 10
140.2850697237515
 20
147.455696197173
 30
0.0
 10
139.6652966370942
 20
145.8385673095858
 30
0.0
 10
139.0506911970739
 20
144.2214384219986
 30
0.0
 10
138.463991048893
 20
142.3252566160164
 30
0.0
 10
138.0571250036777
 20
141.0154304484394
 30
0.0
 10
138.0571250036777
 20
141.0154304484394
 30
0.0
 10
133.9009590684727
 20
127.8027915271048
 30
0.0
 10
133.9009590684727
 20
127.8027915271048
 30
0.0
 10
133.9009590684727
 20
127.8027915271048
 30
0.0
 10
131.4180771143097
 20
127.8027915271048
 30
0.0
 10
131.4180771143097
 20
127.8027915271048
 30
0.0
 10
131.4180771143097
 20
127.8027915271048
 30
0.0
 10
139.8926730891197
 20
154.8294111834263
 30
0.0
 10
139.8926730891197
 20
154.8294111834263
 30
0.0
  0
HATCH
  5
3C4
330
3BD
100
AcDbEntity
  8
レイヤー 1
 62
   250
420
  2234388
100
AcDbHatch
 10
0.0
 20
0.0
 30
0.0
210
0.0
220
0.0
230
1.0
  2
SOLID
 70
     1
 71
     0
 91
        1
 92
        1
 93
        1
 72
     4
 94
        3
 73
     0
 74
     1
 95
      104
 96
      100
 40
0.0
 40
0.0
 40
0.0
 40
0.0
 40
1.0
 40
1.0
 40
1.0
 40
2.0
 40
2.0
 40
2.0
 40
3.0
 40
3.0
 40
3.0
 40
4.0
 40
4.0
 40
4.0
 40
5.0
 40
5.0
 40
5.0
 40
6.0
 40
6.0
 40
6.0
 40
7.0
 40
7.0
 40
7.0
 40
8.0
 40
8.0
 40
8.0
 40
9.0
 40
9.0
 40
9.0
 40
10.0
 40
10.0
 40
10.0
 40
11.0
 40
11.0
 40
11.0
 40
12.0
 40
12.0
 40
12.0
 40
13.0
 40
13.0
 40
13.0
 40
14.0
 40
14.0
 40
14.0
 40
15.0
 40
15.0
 40
15.0
 40
16.0
 40
16.0
 40
16.0
 40
17.0
 40
17.0
 40
17.0
 40
18.0
 40
18.0
 40
18.0
 40
19.0
 40
19.0
 40
19.0
 40
20.0
 40
20.0
 40
20.0
 40
21.0
 40
21.0
 40
21.0
 40
22.0
 40
22.0
 40
22.0
 40
23.0
 40
23.0
 40
23.0
 40
24.0
 40
24.0
 40
24.0
 40
25.0
 40
25.0
 40
25.0
 40
26.0
 40
26.0
 40
26.0
 40
27.0
 40
27.0
 40
27.0
 40
28.0
 40
28.0
 40
28.0
 40
29.0
 40
29.0
 40
29.0
 40
30.0
 40
30.0
 40
30.0
 40
31.0
 40
31.0
 40
31.0
 40
32.0
 40
32.0
 40
32.0
 40
33.0
 40
33.0
 40
33.0
 40
33.0
 10
139.8926730891197
 20
154.8294111834263
 10
139.8926730891197
 20
154.8294111834263
 10
142.0344903652445
 20
154.8294111834263
 10
142.0344903652445
 20
154.8294111834263
 10
142.0344903652445
 20
154.8294111834263
 10
140.9516961399171
 20
151.3157559800812
 10
140.9516961399171
 20
151.3157559800812
 10
141.8928968473923
 20
152.7887075264977
 10
142.7341897198865
 20
153.4484437471474
 10
143.8552245303272
 20
154.2926649527359
 10
144.9803934580775
 20
155.1296514530327
 10
146.3139908001845
 20
155.3044901642492
 10
147.241066606852
 20
155.3044901642492
 10
148.3855280820469
 20
155.3044901642492
 10
149.4969166187653
 20
155.0752189084569
 10
150.0784491203092
 20
153.8172414621372
 10
150.5228667310863
 20
152.833838307127
 10
150.5414702589793
 20
152.7201500811143
 10
150.4140016419347
 20
150.7765981809602
 10
151.5818897818837
 20
152.7699317437168
 10
152.4424752018226
 20
153.6256940267945
 10
153.9038856707499
 20
154.4507949398263
 10
155.4455669174378
 20
155.3044901642492
 10
156.339225275853
 20
155.3659851592288
 10
157.3748216618963
 20
155.2147453676543
 10
158.911679771723
 20
154.9877134254046
 10
159.8859534176746
 20
154.4390816074493
 10
160.3965169054045
 20
152.7816450760939
 10
160.9070803931344
 20
151.1219692311958
 10
160.6328506116007
 20
150.2303779314354
 10
159.9992971339115
 20
147.597634224801
 10
159.7105979417943
 20
146.4014962832367
 10
159.2947746424084
 20
144.9400858143094
 10
158.7463150793409
 20
143.2092687007094
 10
158.7463150793409
 20
143.2092687007094
 10
153.9038856707499
 20
127.8027915271048
 10
153.9038856707499
 20
127.8027915271048
 10
153.9038856707499
 20
127.8027915271048
 10
151.3882752878863
 20
127.8027915271048
 10
151.3882752878863
 20
127.8027915271048
 10
151.3882752878863
 20
127.8027915271048
 10
155.6250565106276
 20
141.2751908193897
 10
155.6250565106276
 20
141.2751908193897
 10
156.5094131050963
 20
144.0936252951782
 10
157.109893644309
 20
146.1506931664571
 10
157.4220195011804
 20
147.4415712963654
 10
157.8095929989511
 20
149.0530157726519
 10
157.9656559273867
 20
149.5826995529385
 10
157.7816877071116
 20
150.7529992613181
 10
157.6111553680925
 20
151.8430281919372
 10
157.0582171779396
 20
152.5547853887321
 10
156.1170164704645
 20
152.5547853887321
 10
155.1096698860365
 20
152.5547853887321
 10
154.2962823053817
 20
152.4412694176073
 10
153.156643967048
 20
151.2945686288697
 10
152.0170056287143
 20
150.1476955852443
 10
151.076149431015
 20
148.7930831468137
 10
150.3337308641742
 20
147.2290087646991
 10
149.5957909244188
 20
145.6683794803425
 10
148.8530278478023
 20
143.6822806228776
 10
148.0964843801539
 20
141.2751908193897
 10
148.0964843801539
 20
141.2751908193897
 10
143.8552245303272
 20
127.8027915271048
 10
143.8552245303272
 20
127.8027915271048
 10
143.8552245303272
 20
127.8027915271048
 10
141.486030802177
 20
127.8027915271048
 10
141.486030802177
 20
127.8027915271048
 10
141.486030802177
 20
127.8027915271048
 10
146.3329388378533
 20
143.2092687007094
 10
146.3329388378533
 20
143.2092687007094
 10
146.8483254624444
 20
144.8408669988801
 10
147.2314203331297
 20
146.1837661049335
 10
147.4867020769946
 20
147.224185627838
 10
147.9169947869641
 20
149.0197705792876
 10
148.0306830129768
 20
150.2400242051577
 10
147.709255392159
 20
151.3157559800812
 10
147.3874832615654
 20
152.3916600098926
 10
146.8245542879144
 20
152.6683013598569
 10
145.8840425999909
 20
152.6683013598569
 10
145.0989048209514
 20
152.6683013598569
 10
144.3282364524954
 20
152.3275811915945
 10
143.4531816219731
 20
151.6538923250251
 10
142.34627171234
 20
150.8074318058939
 10
141.901854101563
 20
150.1097995099067
 10
141.3578731655808
 20
149.289521733736
 10
140.6299240093235
 20
148.192602607601
 10
140.2850697237515
 20
147.455696197173
 10
139.6652966370942
 20
145.8385673095858
 10
139.0506911970739
 20
144.2214384219986
 10
138.463991048893
 20
142.3252566160164
 10
138.0571250036777
 20
141.0154304484394
 10
138.0571250036777
 20
141.0154304484394
 10
133.9009590684727
 20
127.8027915271048
 10
133.9009590684727
 20
127.8027915271048
 10
133.9009590684727
 20
127.8027915271048
 10
131.4180771143097
 20
127.8027915271048
 10
131.4180771143097
 20
127.8027915271048
 10
131.4180771143097
 20
127.8027915271048
 10
139.8926730891197
 20
154.8294111834263
 10
139.8926730891197
 20
154.8294111834263
 97
        0
 75
     2
 76
     1
 98
        0
  0
SPLINE
  5
3C5
330
3BD
100
AcDbEntity
  8
レイヤー 1
370
     0
100
AcDbSpline
210
0.0
220
0.0
230
1.0
 70
    11
 71
     3
 72
    29
 73
    25
 74
     0
 42
0.000000001
 43
0.0000000001
 40
0.0
 40
0.0
 40
0.0
 40
0.0
 40
1.0
 40
1.0
 40
1.0
 40
2.0
 40
2.0
 40
2.0
 40
3.0
 40
3.0
 40
3.0
 40
4.0
 40
4.0
 40
4.0
 40
5.0
 40
5.0
 40
5.0
 40
6.0
 40
6.0
 40
6.0
 40
7.0
 40
7.0
 40
7.0
 40
8.0
 40
8.0
 40
8.0
 40
8.0
 10
101.6420971922469
 20
132.8388354296931
 30
0.0
 10
101.630039350094
 20
134.7164137077823
 30
0.0
 10
102.2236296937908
 20
138.0598810818841
 30
0.0
 10
103.7487744712405
 20
142.5378191476827
 30
0.0
 10
105.819967243327
 20
148.5896501242061
 30
0.0
 10
107.0602024361932
 20
150.8074318058939
 30
0.0
 10
108.1522984254671
 20
151.8833358357054
 30
0.0
 10
109.741177511439
 20
153.4532668840085
 30
0.0
 10
111.8740375333931
 20
153.5290590346837
 30
0.0
 10
112.5075910110823
 20
153.4532668840085
 30
0.0
 10
113.4012493694975
 20
153.3490526768302
 30
0.0
 10
114.6683563248758
 20
152.7580461564518
 30
0.0
 10
114.7493161221879
 20
150.7838328862519
 30
0.0
 10
114.8106388622796
 20
149.0909118479895
 30
0.0
 10
114.3186789024427
 20
145.9191825971221
 30
0.0
 10
112.6164561002338
 20
140.9489400617108
 30
0.0
 10
110.6444821435766
 20
135.1746117095912
 30
0.0
 10
109.4669477299053
 20
132.8960240524753
 30
0.0
 10
108.5212683953448
 20
131.9072809959403
 30
0.0
 10
106.7346406980658
 20
130.0538184021569
 30
0.0
 10
104.8222669326213
 20
130.2336525051225
 30
0.0
 10
104.5408024457958
 20
130.2336525051225
 30
0.0
 10
104.1721769856939
 20
130.2336525051225
 30
0.0
 10
101.6465758193322
 20
130.6305277668397
 30
0.0
 10
101.6420971922469
 20
132.8388354296931
 30
0.0
  0
SPLINE
  5
3C6
330
3BD
100
AcDbEntity
  8
レイヤー 1
370
     0
100
AcDbSpline
210
0.0
220
0.0
230
1.0
 70
    11
 71
     3
 72
    32
 73
    28
 74
     0
 42
0.000000001
 43
0.0000000001
 40
0.0
 40
0.0
 40
0.0
 40
0.0
 40
1.0
 40
1.0
 40
1.0
 40
2.0
 40
2.0
 40
2.0
 40
3.0
 40
3.0
 40
3.0
 40
4.0
 40
4.0
 40
4.0
 40
5.0
 40
5.0
 40
5.0
 40
6.0
 40
6.0
 40
6.0
 40
7.0
 40
7.0
 40
7.0
 40
8.0
 40
8.0
 40
8.0
 40
9.0
 40
9.0
 40
9.0
 40
9.0
 10
106.2595617172429
 20
153.4105476718098
 30
0.0
 10
104.8222669326213
 20
151.5474388043041
 30
0.0
 10
103.7177685914188
 20
149.8758773721411
 30
0.0
 10
101.9232171692965
 20
144.6141795664062
 30
0.0
 10
100.2754269116635
 20
139.7999999594306
 30
0.0
 10
99.22777268346732
 20
136.3052927937542
 30
0.0
 10
99.06964269637689
 20
132.039572749846
 30
0.0
 10
98.94665270641765
 20
128.8673267343149
 30
0.0
 10
100.8807305877373
 20
127.8027915271048
 30
0.0
 10
103.7129454545577
 20
127.8027915271048
 30
0.0
 10
104.9352661390825
 20
127.8027915271048
 30
0.0
 10
108.0151835347002
 20
127.8827177950895
 30
0.0
 10
110.2045431598849
 20
130.5926316915021
 30
0.0
 10
111.7417457794874
 20
132.4984597712065
 30
0.0
 10
113.155269389579
 20
134.475256864725
 30
0.0
 10
115.0562743324223
 20
140.9489400617108
 30
0.0
 10
116.6361961642235
 20
146.3680788349845
 30
0.0
 10
117.7282921534974
 20
149.8639917848761
 30
0.0
 10
117.6480213757369
 20
151.8595646611754
 30
0.0
 10
117.6480213757369
 20
151.8595646611754
 30
0.0
 10
117.6480213757369
 20
151.8595646611754
 30
0.0
 10
117.6480213757369
 20
151.8595646611754
 30
0.0
 10
117.13229024137
 20
155.18150017429
 30
0.0
 10
114.7162431837115
 20
155.886194920681
 30
0.0
 10
113.3351034925446
 20
155.886194920681
 30
0.0
 10
111.9829026225447
 20
155.886194920681
 30
0.0
 10
108.3414342923792
 20
156.1251124501957
 30
0.0
 10
106.2595617172429
 20
153.4105476718098
 30
0.0
  0
HATCH
  5
3C7
330
3BD
100
AcDbEntity
  8
レイヤー 1
 62
   250
420
  2234388
100
AcDbHatch
 10
0.0
 20
0.0
 30
0.0
210
0.0
220
0.0
230
1.0
  2
SOLID
 70
     1
 71
     0
 91
        2
 92
        1
 93
        1
 72
     4
 94
        3
 73
     0
 74
     1
 95
       29
 96
       25
 40
0.0
 40
0.0
 40
0.0
 40
0.0
 40
1.0
 40
1.0
 40
1.0
 40
2.0
 40
2.0
 40
2.0
 40
3.0
 40
3.0
 40
3.0
 40
4.0
 40
4.0
 40
4.0
 40
5.0
 40
5.0
 40
5.0
 40
6.0
 40
6.0
 40
6.0
 40
7.0
 40
7.0
 40
7.0
 40
8.0
 40
8.0
 40
8.0
 40
8.0
 10
101.6420971922469
 20
132.8388354296931
 10
101.630039350094
 20
134.7164137077823
 10
102.2236296937908
 20
138.0598810818841
 10
103.7487744712405
 20
142.5378191476827
 10
105.819967243327
 20
148.5896501242061
 10
107.0602024361932
 20
150.8074318058939
 10
108.1522984254671
 20
151.8833358357054
 10
109.741177511439
 20
153.4532668840085
 10
111.8740375333931
 20
153.5290590346837
 10
112.5075910110823
 20
153.4532668840085
 10
113.4012493694975
 20
153.3490526768302
 10
114.6683563248758
 20
152.7580461564518
 10
114.7493161221879
 20
150.7838328862519
 10
114.8106388622796
 20
149.0909118479895
 10
114.3186789024427
 20
145.9191825971221
 10
112.6164561002338
 20
140.9489400617108
 10
110.6444821435766
 20
135.1746117095912
 10
109.4669477299053
 20
132.8960240524753
 10
108.5212683953448
 20
131.9072809959403
 10
106.7346406980658
 20
130.0538184021569
 10
104.8222669326213
 20
130.2336525051225
 10
104.5408024457958
 20
130.2336525051225
 10
104.1721769856939
 20
130.2336525051225
 10
101.6465758193322
 20
130.6305277668397
 10
101.6420971922469
 20
132.8388354296931
 97
        0
 92
        1
 93
        1
 72
     4
 94
        3
 73
     0
 74
     1
 95
       32
 96
       28
 40
0.0
 40
0.0
 40
0.0
 40
0.0
 40
1.0
 40
1.0
 40
1.0
 40
2.0
 40
2.0
 40
2.0
 40
3.0
 40
3.0
 40
3.0
 40
4.0
 40
4.0
 40
4.0
 40
5.0
 40
5.0
 40
5.0
 40
6.0
 40
6.0
 40
6.0
 40
7.0
 40
7.0
 40
7.0
 40
8.0
 40
8.0
 40
8.0
 40
9.0
 40
9.0
 40
9.0
 40
9.0
 10
106.2595617172429
 20
153.4105476718098
 10
104.8222669326213
 20
151.5474388043041
 10
103.7177685914188
 20
149.8758773721411
 10
101.9232171692965
 20
144.6141795664062
 10
100.2754269116635
 20
139.7999999594306
 10
99.22777268346732
 20
136.3052927937542
 10
99.06964269637689
 20
132.039572749846
 10
98.94665270641765
 20
128.8673267343149
 10
100.8807305877373
 20
127.8027915271048
 10
103.7129454545577
 20
127.8027915271048
 10
104.9352661390825
 20
127.8027915271048
 10
108.0151835347002
 20
127.8827177950895
 10
110.2045431598849
 20
130.5926316915021
 10
111.7417457794874
 20
132.4984597712065
 10
113.155269389579
 20
134.475256864725
 10
115.0562743324223
 20
140.9489400617108
 10
116.6361961642235
 20
146.3680788349845
 10
117.7282921534974
 20
149.8639917848761
 10
117.6480213757369
 20
151.8595646611754
 10
117.6480213757369
 20
151.8595646611754
 10
117.6480213757369
 20
151.8595646611754
 10
117.6480213757369
 20
151.8595646611754
 10
117.13229024137
 20
155.18150017429
 10
114.7162431837115
 20
155.886194920681
 10
113.3351034925446
 20
155.886194920681
 10
111.9829026225447
 20
155.886194920681
 10
108.3414342923792
 20
156.1251124501957
 10
106.2595617172429
 20
153.4105476718098
 97
        0
 75
     2
 76
     1
 98
        0
  0
ENDBLK
  5
3C8
330
3BD
100
AcDbEntity
  8
0
100
AcDbBlockEnd
  0
BLOCK
  5
11F1
330
11F0
100
AcDbEntity
  8
0
100
AcDbBlockBegin
  2
BLOCK_2
 70
     0
 10
0.0
 20
0.0
 30
0.0
  3
BLOCK_2
  1
BLOCK_2
  0
ENDBLK
  5
11F2
330
11F0
100
AcDbEntity
  8
0
100
AcDbBlockEnd
  0
BLOCK
  5
38B7
330
38B6
100
AcDbEntity
  8
0
100
AcDbBlockBegin
  2
mobile_latù
 70
     0
 10
0.0
 20
0.0
 30
0.0
  3
mobile_latù
  1
mobile_latù
  0
ENDBLK
  5
38B8
330
38B6
100
AcDbEntity
  8
0
100
AcDbBlockEnd
  0
BLOCK
  5
4FF9
330
4FF8
100
AcDbEntity
  8
0
100
AcDbBlockBegin
  2
*D8
 70
     1
 10
0.0
 20
0.0
 30
0.0
  3
*D8
  1
*D26
  0
LINE
  5
4FFB
330
4FF8
100
AcDbEntity
  8
Dim
 62
     0
370
    -2
100
AcDbLine
 10
1018.775732351491
 20
1537.191964660655
 30
0.0
 11
1089.192180018747
 21
1537.191964660655
 31
0.0
  0
LINE
  5
4FFC
330
4FF8
100
AcDbEntity
  8
Dim
 62
     0
370
    -2
100
AcDbLine
 10
998.7757323514908
 20
1437.191964660655
 30
0.0
 11
1089.192180018747
 21
1437.191964660655
 31
0.0
  0
LINE
  5
4FFD
330
4FF8
100
AcDbEntity
  8
Dim
 62
     0
370
    -2
100
AcDbLine
 10
1089.192180018747
 20
1527.192575012218
 30
0.0
 11
1089.192180018747
 21
1447.191354309093
 31
0.0
  0
INSERT
  5
4FFE
330
4FF8
100
AcDbEntity
  8
Dim
 62
     0
370
    -2
100
AcDbBlockReference
  2
_DOT
 10
1089.192180018747
 20
1537.191964660655
 30
0.0
 41
9.999389648437498
 42
9.999389648437498
 43
9.999389648437498
 50
90.0
  0
INSERT
  5
4FFF
330
4FF8
100
AcDbEntity
  8
Dim
 62
     0
370
    -2
100
AcDbBlockReference
  2
_DOT
 10
1089.192180018747
 20
1437.191964660655
 30
0.0
 41
9.999389648437498
 42
9.999389648437498
 43
9.999389648437498
 50
270.0
  0
MTEXT
  5
5000
330
4FF8
100
AcDbEntity
  8
Dim
 62
     0
100
AcDbMText
 10
1066.975871424997
 20
1486.191964660655
 30
0.0
 40
24.4326171875
 41
0.0
 46
0.0
 71
     5
 72
     1
  1
\A1;100
  7
ＭＳ ゴシック
 11
0.0
 21
1.0
 31
0.0
 73
     1
 44
1.0
  0
POINT
  5
5001
330
4FF8
100
AcDbEntity
  8
Defpoints
 62
     0
100
AcDbPoint
 10
993.7757323514908
 20
1537.191964660655
 30
0.0
  0
POINT
  5
5002
330
4FF8
100
AcDbEntity
  8
Defpoints
 62
     0
100
AcDbPoint
 10
973.7757323514908
 20
1437.191964660655
 30
0.0
  0
POINT
  5
5003
330
4FF8
100
AcDbEntity
  8
Defpoints
 62
     0
100
AcDbPoint
 10
1089.192180018747
 20
1437.191964660655
 30
0.0
  0
ENDBLK
  5
4FFA
330
4FF8
100
AcDbEntity
  8
0
100
AcDbBlockEnd
  0
BLOCK
  5
500C
330
500B
100
AcDbEntity
  8
0
100
AcDbBlockBegin
  2
*D9
 70
     1
 10
0.0
 20
0.0
 30
0.0
  3
*D9
  1
*D27
  0
LINE
  5
500E
330
500B
100
AcDbEntity
  8
Dim
 62
     0
370
    -2
100
AcDbLine
 10
993.7757323514908
 20
1562.191964660655
 30
0.0
 11
993.7757323514908
 21
1672.42118731208
 31
0.0
  0
LINE
  5
500F
330
500B
100
AcDbEntity
  8
Dim
 62
     0
370
    -2
100
AcDbLine
 10
973.7757323514908
 20
1562.191964660655
 30
0.0
 11
973.7757323514908
 21
1672.42118731208
 31
0.0
  0
LINE
  5
5010
330
500B
100
AcDbEntity
  8
Dim
 62
     0
370
    -2
100
AcDbLine
 10
993.7757323514908
 20
1672.42118731208
 30
0.0
 11
900.2114896689768
 21
1672.42118731208
 31
0.0
  0
LINE
  5
5011
330
500B
100
AcDbEntity
  8
Dim
 62
     0
370
    -2
100
AcDbLine
 10
983.7763427030533
 20
1672.42118731208
 30
0.0
 11
983.7751219999283
 21
1672.42118731208
 31
0.0
  0
LINE
  5
5012
330
500B
100
AcDbEntity
  8
Dim
 62
     0
370
    -2
100
AcDbLine
 10
983.7751219999283
 20
1672.42118731208
 30
0.0
 11
993.7745116483658
 21
1672.42118731208
 31
0.0
  0
INSERT
  5
5013
330
500B
100
AcDbEntity
  8
Dim
 62
     0
370
    -2
100
AcDbBlockReference
  2
_DOT
 10
993.7757323514908
 20
1672.42118731208
 30
0.0
 41
9.999389648437498
 42
9.999389648437498
 43
9.999389648437498
  0
INSERT
  5
5014
330
500B
100
AcDbEntity
  8
Dim
 62
     0
370
    -2
100
AcDbBlockReference
  2
_DOT
 10
973.7757323514908
 20
1672.42118731208
 30
0.0
 41
9.999389648437498
 42
9.999389648437498
 43
9.999389648437498
 50
180.0
  0
MTEXT
  5
5015
330
500B
100
AcDbEntity
  8
Dim
 62
     0
100
AcDbMText
 10
924.7244642783518
 20
1694.63749590583
 30
0.0
 40
24.4326171875
 41
0.0
 46
0.0
 71
     5
 72
     1
  1
\A1;20
  7
ＭＳ ゴシック
 73
     1
 44
1.0
  0
POINT
  5
5016
330
500B
100
AcDbEntity
  8
Defpoints
 62
     0
100
AcDbPoint
 10
993.7757323514908
 20
1537.191964660655
 30
0.0
  0
POINT
  5
508B
330
500B
100
AcDbEntity
  8
Defpoints
 62
     0
100
AcDbPoint
 10
973.7757323514908
 20
1537.191964660655
 30
0.0
  0
POINT
  5
50CD
330
500B
100
AcDbEntity
  8
Defpoints
 62
     0
100
AcDbPoint
 10
973.7757323514908
 20
1672.42118731208
 30
0.0
  0
ENDBLK
  5
500D
330
500B
100
AcDbEntity
  8
0
100
AcDbBlockEnd
  0
BLOCK
  5
5058
330
5057
100
AcDbEntity
  8
0
100
AcDbBlockBegin
  2
*D10
 70
     1
 10
0.0
 20
0.0
 30
0.0
  3
*D10
  1
*D31
  0
LINE
  5
505A
330
5057
100
AcDbEntity
  8
Dim
 62
     0
370
    -2
100
AcDbLine
 10
1474.040036263704
 20
1559.191964660655
 30
0.0
 11
1474.040036263704
 21
1672.42118731208
 31
0.0
  0
LINE
  5
505B
330
5057
100
AcDbEntity
  8
Dim
 62
     0
370
    -2
100
AcDbLine
 10
1524.040036263704
 20
1559.191964660655
 30
0.0
 11
1524.040036263704
 21
1672.42118731208
 31
0.0
  0
LINE
  5
505C
330
5057
100
AcDbEntity
  8
Dim
 62
     0
370
    -2
100
AcDbLine
 10
1484.039425912142
 20
1672.42118731208
 30
0.0
 11
1514.040646615267
 21
1672.42118731208
 31
0.0
  0
INSERT
  5
505D
330
5057
100
AcDbEntity
  8
Dim
 62
     0
370
    -2
100
AcDbBlockReference
  2
_DOT
 10
1474.040036263704
 20
1672.42118731208
 30
0.0
 41
9.999389648437498
 42
9.999389648437498
 43
9.999389648437498
 50
180.0
  0
INSERT
  5
505E
330
5057
100
AcDbEntity
  8
Dim
 62
     0
370
    -2
100
AcDbBlockReference
  2
_DOT
 10
1524.040036263704
 20
1672.42118731208
 30
0.0
 41
9.999389648437498
 42
9.999389648437498
 43
9.999389648437498
  0
MTEXT
  5
505F
330
5057
100
AcDbEntity
  8
Dim
 62
     0
100
AcDbMText
 10
1499.040036263704
 20
1694.63749590583
 30
0.0
 40
24.4326171875
 41
0.0
 46
0.0
 71
     5
 72
     1
  1
\A1;50
  7
ＭＳ ゴシック
 73
     1
 44
1.0
  0
POINT
  5
5060
330
5057
100
AcDbEntity
  8
Defpoints
 62
     0
100
AcDbPoint
 10
1474.040036263704
 20
1534.191964660655
 30
0.0
  0
POINT
  5
5061
330
5057
100
AcDbEntity
  8
Defpoints
 62
     0
100
AcDbPoint
 10
1524.040036263704
 20
1534.191964660655
 30
0.0
  0
POINT
  5
5062
330
5057
100
AcDbEntity
  8
Defpoints
 62
     0
100
AcDbPoint
 10
1524.040036263704
 20
1672.42118731208
 30
0.0
  0
ENDBLK
  5
5059
330
5057
100
AcDbEntity
  8
0
100
AcDbBlockEnd
  0
BLOCK
  5
5080
330
507F
100
AcDbEntity
  8
0
100
AcDbBlockBegin
  2
*D11
 70
     1
 10
0.0
 20
0.0
 30
0.0
  3
*D11
  1
*D33
  0
LINE
  5
5082
330
507F
100
AcDbEntity
  8
Dim
 62
     0
370
    -2
100
AcDbLine
 10
993.7757323514908
 20
1429.317205371051
 30
0.0
 11
993.7757323514909
 21
1308.597093863823
 31
0.0
  0
LINE
  5
5083
330
507F
100
AcDbEntity
  8
Dim
 62
     0
370
    -2
100
AcDbLine
 10
453.7757323514908
 20
1432.191964660655
 30
0.0
 11
453.7757323514908
 21
1308.597093863823
 31
0.0
  0
LINE
  5
5084
330
507F
100
AcDbEntity
  8
Dim
 62
     0
370
    -2
100
AcDbLine
 10
983.7763427030534
 20
1308.597093863823
 30
0.0
 11
463.7751219999283
 21
1308.597093863823
 31
0.0
  0
INSERT
  5
5085
330
507F
100
AcDbEntity
  8
Dim
 62
     0
370
    -2
100
AcDbBlockReference
  2
_DOT
 10
993.7757323514909
 20
1308.597093863823
 30
0.0
 41
9.999389648437498
 42
9.999389648437498
 43
9.999389648437498
  0
INSERT
  5
5086
330
507F
100
AcDbEntity
  8
Dim
 62
     0
370
    -2
100
AcDbBlockReference
  2
_DOT
 10
453.7757323514908
 20
1308.597093863823
 30
0.0
 41
9.999389648437498
 42
9.999389648437498
 43
9.999389648437498
 50
180.0
  0
MTEXT
  5
5087
330
507F
100
AcDbEntity
  8
Dim
 62
     0
100
AcDbMText
 10
723.7757323514909
 20
1330.813402457573
 30
0.0
 40
24.4326171875
 41
0.0
 46
0.0
 71
     5
 72
     1
  1
\A1;540
  7
ＭＳ ゴシック
 73
     1
 44
1.0
  0
POINT
  5
5088
330
507F
100
AcDbEntity
  8
Defpoints
 62
     0
100
AcDbPoint
 10
993.7757323514908
 20
1454.317205371051
 30
0.0
  0
POINT
  5
5089
330
507F
100
AcDbEntity
  8
Defpoints
 62
     0
100
AcDbPoint
 10
453.7757323514908
 20
1457.191964660655
 30
0.0
  0
POINT
  5
508A
330
507F
100
AcDbEntity
  8
Defpoints
 62
     0
100
AcDbPoint
 10
453.7757323514908
 20
1308.597093863823
 30
0.0
  0
ENDBLK
  5
5081
330
507F
100
AcDbEntity
  8
0
100
AcDbBlockEnd
  0
BLOCK
  5
50A3
330
50A2
100
AcDbEntity
  8
0
100
AcDbBlockBegin
  2
*D12
 70
     1
 10
0.0
 20
0.0
 30
0.0
  3
*D12
  1
*D34
  0
LINE
  5
50A5
330
50A2
100
AcDbEntity
  8
Dim
 62
     0
370
    -2
100
AcDbLine
 10
1474.040036263704
 20
1422.191964660655
 30
0.0
 11
1474.040036263704
 21
1308.597093863823
 31
0.0
  0
LINE
  5
50A6
330
50A2
100
AcDbEntity
  8
Dim
 62
     0
370
    -2
100
AcDbLine
 10
1494.040036263704
 20
1422.191964660655
 30
0.0
 11
1494.040036263704
 21
1308.597093863823
 31
0.0
  0
LINE
  5
50A7
330
50A2
100
AcDbEntity
  8
Dim
 62
     0
370
    -2
100
AcDbLine
 10
1474.040036263704
 20
1308.597093863823
 30
0.0
 11
1563.064764779329
 21
1308.597093863823
 31
0.0
  0
LINE
  5
50A8
330
50A2
100
AcDbEntity
  8
Dim
 62
     0
370
    -2
100
AcDbLine
 10
1484.039425912141
 20
1308.597093863823
 30
0.0
 11
1484.040646615266
 21
1308.597093863823
 31
0.0
  0
LINE
  5
50A9
330
50A2
100
AcDbEntity
  8
Dim
 62
     0
370
    -2
100
AcDbLine
 10
1484.040646615266
 20
1308.597093863823
 30
0.0
 11
1474.041256966829
 21
1308.597093863823
 31
0.0
  0
INSERT
  5
50AA
330
50A2
100
AcDbEntity
  8
Dim
 62
     0
370
    -2
100
AcDbBlockReference
  2
_DOT
 10
1474.040036263704
 20
1308.597093863823
 30
0.0
 41
9.999389648437498
 42
9.999389648437498
 43
9.999389648437498
 50
180.0
  0
INSERT
  5
50AB
330
50A2
100
AcDbEntity
  8
Dim
 62
     0
370
    -2
100
AcDbBlockReference
  2
_DOT
 10
1494.040036263704
 20
1308.597093863823
 30
0.0
 41
9.999389648437498
 42
9.999389648437498
 43
9.999389648437498
  0
MTEXT
  5
50AC
330
50A2
100
AcDbEntity
  8
Dim
 62
     0
100
AcDbMText
 10
1538.551790169954
 20
1330.813402457573
 30
0.0
 40
24.4326171875
 41
0.0
 46
0.0
 71
     5
 72
     1
  1
\A1;20
  7
ＭＳ ゴシック
 73
     1
 44
1.0
  0
POINT
  5
50AD
330
50A2
100
AcDbEntity
  8
Defpoints
 62
     0
100
AcDbPoint
 10
1474.040036263704
 20
1447.191964660655
 30
0.0
  0
POINT
  5
50AE
330
50A2
100
AcDbEntity
  8
Defpoints
 62
     0
100
AcDbPoint
 10
1494.040036263704
 20
1447.191964660655
 30
0.0
  0
POINT
  5
50CC
330
50A2
100
AcDbEntity
  8
Defpoints
 62
     0
100
AcDbPoint
 10
1494.040036263704
 20
1308.597093863823
 30
0.0
  0
ENDBLK
  5
50A4
330
50A2
100
AcDbEntity
  8
0
100
AcDbBlockEnd
  0
BLOCK
  5
50D0
330
50CF
100
AcDbEntity
  8
0
100
AcDbBlockBegin
  2
*D13
 70
     1
 10
0.0
 20
0.0
 30
0.0
  3
*D13
  1

  0
LINE
  5
50D2
330
50CF
100
AcDbEntity
  8
Dim
 62
     0
370
    -2
100
AcDbLine
 10
253.7757323514907
 20
1562.191964660655
 30
0.0
 11
253.7757323514907
 21
1681.644763400095
 31
0.0
  0
LINE
  5
50D3
330
50CF
100
AcDbEntity
  8
Dim
 62
     0
370
    -2
100
AcDbLine
 10
791.2646409997852
 20
1614.208049481269
 30
0.0
 11
791.2646409997852
 21
1681.644763400095
 31
0.0
  0
LINE
  5
50D4
330
50CF
100
AcDbEntity
  8
Dim
 62
     0
370
    -2
100
AcDbLine
 10
263.7751219999282
 20
1681.644763400095
 30
0.0
 11
781.2652513513477
 21
1681.644763400095
 31
0.0
  0
INSERT
  5
50D5
330
50CF
100
AcDbEntity
  8
Dim
 62
     0
370
    -2
100
AcDbBlockReference
  2
_DOT
 10
253.7757323514907
 20
1681.644763400095
 30
0.0
 41
9.999389648437498
 42
9.999389648437498
 43
9.999389648437498
 50
180.0
  0
INSERT
  5
50D6
330
50CF
100
AcDbEntity
  8
Dim
 62
     0
370
    -2
100
AcDbBlockReference
  2
_DOT
 10
791.2646409997852
 20
1681.644763400095
 30
0.0
 41
9.999389648437498
 42
9.999389648437498
 43
9.999389648437498
  0
MTEXT
  5
50D7
330
50CF
100
AcDbEntity
  8
Dim
 62
     0
100
AcDbMText
 10
522.5201866756379
 20
1703.861071993845
 30
0.0
 40
24.4326171875
 41
0.0
 46
0.0
 71
     5
 72
     1
  1
\A1;537.5
  7
ＭＳ ゴシック
 73
     1
 44
1.0
  0
POINT
  5
50D8
330
50CF
100
AcDbEntity
  8
Defpoints
 62
     0
100
AcDbPoint
 10
253.7757323514907
 20
1537.191964660655
 30
0.0
  0
POINT
  5
50D9
330
50CF
100
AcDbEntity
  8
Defpoints
 62
     0
100
AcDbPoint
 10
791.2646409997852
 20
1589.208049481269
 30
0.0
  0
POINT
  5
50DA
330
50CF
100
AcDbEntity
  8
Defpoints
 62
     0
100
AcDbPoint
 10
791.2646409997852
 20
1681.644763400095
 30
0.0
  0
ENDBLK
  5
50D1
330
50CF
100
AcDbEntity
  8
0
100
AcDbBlockEnd
  0
BLOCK
  5
5190
330
518F
100
AcDbEntity
  8
0
100
AcDbBlockBegin
  2
*D14
 70
     1
 10
0.0
 20
0.0
 30
0.0
  3
*D14
  1
*D69
  0
LINE
  5
5191
330
518F
100
AcDbEntity
  8
Dim
 62
     0
370
    -2
100
AcDbLine
 10
130.3797336786799
 20
340.7588762918108
 30
0.0
 11
72.56019142934086
 21
340.7588762918108
 31
0.0
  0
LINE
  5
5192
330
518F
100
AcDbEntity
  8
Dim
 62
     0
370
    -2
100
AcDbLine
 10
130.3797336786799
 20
620.7588762918112
 30
0.0
 11
72.56019142934088
 21
620.7588762918112
 31
0.0
  0
LINE
  5
5193
330
518F
100
AcDbEntity
  8
Dim
 62
     0
370
    -2
100
AcDbLine
 10
72.56019142934086
 20
350.7582659402483
 30
0.0
 11
72.56019142934088
 21
610.7594866433737
 31
0.0
  0
INSERT
  5
5194
330
518F
100
AcDbEntity
  8
Dim
 62
     0
370
    -2
100
AcDbBlockReference
  2
_DOT
 10
72.56019142934086
 20
340.7588762918108
 30
0.0
 41
9.999389648437498
 42
9.999389648437498
 43
9.999389648437498
 50
270.0
  0
INSERT
  5
5195
330
518F
100
AcDbEntity
  8
Dim
 62
     0
370
    -2
100
AcDbBlockReference
  2
_DOT
 10
72.56019142934088
 20
620.7588762918112
 30
0.0
 41
9.999389648437498
 42
9.999389648437498
 43
9.999389648437498
 50
90.0
  0
MTEXT
  5
5196
330
518F
100
AcDbEntity
  8
Dim
 62
     0
100
AcDbMText
 10
50.34388283559088
 20
480.758876291811
 30
0.0
 40
24.4326171875
 41
0.0
 46
0.0
 71
     5
 72
     1
  1
\A1;280
  7
ＭＳ ゴシック
 11
5.075305255429279E-17
 21
1.0
 31
0.0
 73
     1
 44
1.0
  0
POINT
  5
5197
330
518F
100
AcDbEntity
  8
Defpoints
 62
     0
100
AcDbPoint
 10
155.3797336786799
 20
340.7588762918108
 30
0.0
  0
POINT
  5
5198
330
518F
100
AcDbEntity
  8
Defpoints
 62
     0
100
AcDbPoint
 10
155.3797336786799
 20
620.7588762918112
 30
0.0
  0
POINT
  5
5199
330
518F
100
AcDbEntity
  8
Defpoints
 62
     0
100
AcDbPoint
 10
72.56019142934088
 20
620.7588762918112
 30
0.0
  0
ENDBLK
  5
519A
330
518F
100
AcDbEntity
  8
0
100
AcDbBlockEnd
  0
BLOCK
  5
51A4
330
51A3
100
AcDbEntity
  8
0
100
AcDbBlockBegin
  2
*D15
 70
     1
 10
0.0
 20
0.0
 30
0.0
  3
*D15
  1
*D75
  0
LINE
  5
51A5
330
51A3
100
AcDbEntity
  8
Dim
  6
Continuous
 62
     0
370
    -2
100
AcDbLine
 10
294.9573965107479
 20
1803.375370219414
 30
0.0
 11
0.0000000000000853
 21
1803.375370219414
 31
0.0
  0
LINE
  5
51A6
330
51A3
100
AcDbEntity
  8
Dim
  6
Continuous
 62
     0
370
    -2
100
AcDbLine
 10
284.9580068623104
 20
1803.375370219414
 30
0.0
 11
175.1786831054685
 21
1803.375370219414
 31
0.0
  0
LINE
  5
51A7
330
51A3
100
AcDbEntity
  8
Dim
  6
Continuous
 62
     0
370
    -2
100
AcDbLine
 10
175.1786831054685
 20
1803.375370219414
 30
0.0
 11
185.178072753906
 21
1803.375370219414
 31
0.0
  0
INSERT
  5
51A8
330
51A3
100
AcDbEntity
  8
Dim
 62
     0
370
    -2
100
AcDbBlockReference
  2
_DOT
 10
294.9573965107479
 20
1803.375370219414
 30
0.0
 41
9.999389648437498
 42
9.999389648437498
 43
9.999389648437498
  0
INSERT
  5
51A9
330
51A3
100
AcDbEntity
  8
Dim
 62
     0
370
    -2
100
AcDbBlockReference
  2
_DOT
 10
165.179293457031
 20
1803.375370219414
 30
0.0
 41
9.999389648437498
 42
9.999389648437498
 43
9.999389648437498
 50
180.0
  0
MTEXT
  5
51AA
330
51A3
100
AcDbEntity
  8
Dim
 62
     0
100
AcDbMText
 10
68.99255419921883
 20
1827.753965434258
 30
0.0
 40
24.4326171875
 41
0.0
 46
0.0
 71
     5
 72
     1
  1
\A1;??(深さ)
  7
ＭＳ ゴシック
 73
     1
 44
1.0
  0
POINT
  5
51AB
330
51A3
100
AcDbEntity
  8
Defpoints
 62
     0
100
AcDbPoint
 10
294.9573965107479
 20
1803.375370219414
 30
0.0
  0
POINT
  5
51AC
330
51A3
100
AcDbEntity
  8
Defpoints
 62
     0
100
AcDbPoint
 10
165.179293457031
 20
1803.375370219414
 30
0.0
  0
POINT
  5
5201
330
51A3
100
AcDbEntity
  8
Defpoints
 62
     0
100
AcDbPoint
 10
165.179293457031
 20
1803.375370219414
 30
0.0
  0
ENDBLK
  5
51AD
330
51A3
100
AcDbEntity
  8
0
100
AcDbBlockEnd
  0
BLOCK
  5
51B0
330
51AF
100
AcDbEntity
  8
0
100
AcDbBlockBegin
  2
*D16
 70
     1
 10
0.0
 20
0.0
 30
0.0
  3
*D16
  1
*D76
  0
LINE
  5
51B1
330
51AF
100
AcDbEntity
  8
Dim
  6
Continuous
 62
     0
370
    -2
100
AcDbLine
 10
144.9751981290808
 20
2029.19717397047
 30
0.0
 11
85.24462232946603
 21
2029.19717397047
 31
0.0
  0
LINE
  5
51B2
330
51AF
100
AcDbEntity
  8
Dim
  6
Continuous
 62
     0
370
    -2
100
AcDbLine
 10
144.9751981290808
 20
1964.19717397047
 30
0.0
 11
85.24462232946598
 21
1964.19717397047
 31
0.0
  0
LINE
  5
51B3
330
51AF
100
AcDbEntity
  8
Dim
  6
Continuous
 62
     0
370
    -2
100
AcDbLine
 10
85.24462232946603
 20
2019.197784322033
 30
0.0
 11
85.24462232946598
 21
1974.196563618908
 31
0.0
  0
INSERT
  5
51B4
330
51AF
100
AcDbEntity
  8
Dim
 62
     0
370
    -2
100
AcDbBlockReference
  2
_DOT
 10
85.24462232946603
 20
2029.19717397047
 30
0.0
 41
9.999389648437498
 42
9.999389648437498
 43
9.999389648437498
 50
89.99999999999996
  0
INSERT
  5
51B5
330
51AF
100
AcDbEntity
  8
Dim
 62
     0
370
    -2
100
AcDbBlockReference
  2
_DOT
 10
85.24462232946598
 20
1964.19717397047
 30
0.0
 41
9.999389648437498
 42
9.999389648437498
 43
9.999389648437498
 50
269.9999999999999
  0
MTEXT
  5
51B6
330
51AF
100
AcDbEntity
  8
Dim
 62
     0
100
AcDbMText
 10
62.40528199743474
 20
1996.69717397047
 30
0.0
 40
24.4326171875
 41
0.0
 46
0.0
 71
     5
 72
     1
  1
\A1;??
  7
ＭＳ ゴシック
 11
6.558856022400925E-16
 21
1.0
 31
0.0
 73
     1
 44
1.0
  0
POINT
  5
51B7
330
51AF
100
AcDbEntity
  8
Defpoints
 62
     0
100
AcDbPoint
 10
169.9751981290808
 20
2029.19717397047
 30
0.0
  0
POINT
  5
51B8
330
51AF
100
AcDbEntity
  8
Defpoints
 62
     0
100
AcDbPoint
 10
169.9751981290808
 20
1964.19717397047
 30
0.0
  0
POINT
  5
51B9
330
51AF
100
AcDbEntity
  8
Defpoints
 62
     0
100
AcDbPoint
 10
85.24462232946598
 20
1964.19717397047
 30
0.0
  0
ENDBLK
  5
51BA
330
51AF
100
AcDbEntity
  8
0
100
AcDbBlockEnd
  0
BLOCK
  5
51BD
330
51BC
100
AcDbEntity
  8
0
100
AcDbBlockBegin
  2
*D17
 70
     1
 10
0.0
 20
0.0
 30
0.0
  3
*D17
  1
*D77
  0
LINE
  5
51BE
330
51BC
100
AcDbEntity
  8
Dim
 62
     0
370
    -2
100
AcDbLine
 10
316.5224151563748
 20
2029.196276380398
 30
0.0
 11
425.8510729091279
 21
2029.196276380398
 31
0.0
  0
LINE
  5
51BF
330
51BC
100
AcDbEntity
  8
Dim
 62
     0
370
    -2
100
AcDbLine
 10
369.8453394934529
 20
1804.19625323028
 30
0.0
 11
425.8510729091279
 21
1804.19625323028
 31
0.0
  0
LINE
  5
51C0
330
51BC
100
AcDbEntity
  8
Dim
 62
     0
370
    -2
100
AcDbLine
 10
425.8510729091279
 20
2019.196886731961
 30
0.0
 11
425.8510729091279
 21
1814.195642878718
 31
0.0
  0
INSERT
  5
51C1
330
51BC
100
AcDbEntity
  8
Dim
 62
     0
370
    -2
100
AcDbBlockReference
  2
_DOT
 10
425.8510729091279
 20
2029.196276380398
 30
0.0
 41
9.999389648437498
 42
9.999389648437498
 43
9.999389648437498
 50
90.0
  0
INSERT
  5
51C2
330
51BC
100
AcDbEntity
  8
Dim
 62
     0
370
    -2
100
AcDbBlockReference
  2
_DOT
 10
425.8510729091279
 20
1804.19625323028
 30
0.0
 41
9.999389648437498
 42
9.999389648437498
 43
9.999389648437498
 50
270.0
  0
MTEXT
  5
51C3
330
51BC
100
AcDbEntity
  8
Dim
 62
     0
100
AcDbMText
 10
403.6347643153779
 20
1916.696264805339
 30
0.0
 40
24.4326171875
 41
0.0
 46
0.0
 71
     5
 72
     1
  1
\A1;225
  7
ＭＳ ゴシック
 11
0.0
 21
1.0
 31
0.0
 73
     1
 44
1.0
  0
POINT
  5
51C4
330
51BC
100
AcDbEntity
  8
Defpoints
 62
     0
100
AcDbPoint
 10
291.5224151563748
 20
2029.196276380398
 30
0.0
  0
POINT
  5
51C5
330
51BC
100
AcDbEntity
  8
Defpoints
 62
     0
100
AcDbPoint
 10
344.8453394934529
 20
1804.19625323028
 30
0.0
  0
POINT
  5
51C6
330
51BC
100
AcDbEntity
  8
Defpoints
 62
     0
100
AcDbPoint
 10
425.8510729091279
 20
1804.19625323028
 30
0.0
  0
ENDBLK
  5
51C7
330
51BC
100
AcDbEntity
  8
0
100
AcDbBlockEnd
  0
BLOCK
  5
51CA
330
51C9
100
AcDbEntity
  8
0
100
AcDbBlockBegin
  2
*D18
 70
     1
 10
0.0
 20
0.0
 30
0.0
  3
*D18
  1
*D78
  0
LINE
  5
51CB
330
51C9
100
AcDbEntity
  8
Dim
  6
Continuous
 62
     0
370
    -2
100
AcDbLine
 10
181.01621042376
 20
1462.846241847039
 30
0.0
 11
181.01621042376
 21
1456.427652558354
 31
0.0
  0
LINE
  5
51CC
330
51C9
100
AcDbEntity
  8
Dim
  6
Continuous
 62
     0
370
    -2
100
AcDbLine
 10
256.01621042376
 20
1556.873085784575
 30
0.0
 11
256.01621042376
 21
1456.427652558354
 31
0.0
  0
LINE
  5
51CD
330
51C9
100
AcDbEntity
  8
Dim
  6
Continuous
 62
     0
370
    -2
100
AcDbLine
 10
191.0156000721975
 20
1456.427652558354
 30
0.0
 11
246.0168207753225
 21
1456.427652558354
 31
0.0
  0
INSERT
  5
51CE
330
51C9
100
AcDbEntity
  8
Dim
 62
     0
370
    -2
100
AcDbBlockReference
  2
_DOT
 10
181.01621042376
 20
1456.427652558354
 30
0.0
 41
9.999389648437498
 42
9.999389648437498
 43
9.999389648437498
 50
180.0
  0
INSERT
  5
51CF
330
51C9
100
AcDbEntity
  8
Dim
 62
     0
370
    -2
100
AcDbBlockReference
  2
_DOT
 10
256.01621042376
 20
1456.427652558354
 30
0.0
 41
9.999389648437498
 42
9.999389648437498
 43
9.999389648437498
  0
MTEXT
  5
51D0
330
51C9
100
AcDbEntity
  8
Dim
 62
     0
100
AcDbMText
 10
218.51621042376
 20
1478.643961152104
 30
0.0
 40
24.4326171875
 41
0.0
 46
0.0
 71
     5
 72
     1
  1
\A1;75
  7
ＭＳ ゴシック
 73
     1
 44
1.0
  0
POINT
  5
51D1
330
51C9
100
AcDbEntity
  8
Defpoints
 62
     0
100
AcDbPoint
 10
181.01621042376
 20
1487.846241847039
 30
0.0
  0
POINT
  5
51D2
330
51C9
100
AcDbEntity
  8
Defpoints
 62
     0
100
AcDbPoint
 10
256.01621042376
 20
1581.873085784575
 30
0.0
  0
POINT
  5
51D3
330
51C9
100
AcDbEntity
  8
Defpoints
 62
     0
100
AcDbPoint
 10
256.01621042376
 20
1456.427652558354
 30
0.0
  0
ENDBLK
  5
51D4
330
51C9
100
AcDbEntity
  8
0
100
AcDbBlockEnd
  0
BLOCK
  5
51D7
330
51D6
100
AcDbEntity
  8
0
100
AcDbBlockBegin
  2
*D19
 70
     1
 10
0.0
 20
0.0
 30
0.0
  3
*D19
  1
*D79
  0
LINE
  5
51D8
330
51D6
100
AcDbEntity
  8
Dim
  6
Continuous
 62
     0
370
    -2
100
AcDbLine
 10
256.01621042376
 20
1531.873085784575
 30
0.0
 11
256.01621042376
 21
1456.427652558354
 31
0.0
  0
LINE
  5
51D9
330
51D6
100
AcDbEntity
  8
Dim
  6
Continuous
 62
     0
370
    -2
100
AcDbLine
 10
346.01621042376
 20
1746.547351202102
 30
0.0
 11
346.01621042376
 21
1456.427652558354
 31
0.0
  0
LINE
  5
51DA
330
51D6
100
AcDbEntity
  8
Dim
  6
Continuous
 62
     0
370
    -2
100
AcDbLine
 10
266.0156000721975
 20
1456.427652558354
 30
0.0
 11
336.0168207753225
 21
1456.427652558354
 31
0.0
  0
INSERT
  5
51DB
330
51D6
100
AcDbEntity
  8
Dim
 62
     0
370
    -2
100
AcDbBlockReference
  2
_DOT
 10
256.01621042376
 20
1456.427652558354
 30
0.0
 41
9.999389648437498
 42
9.999389648437498
 43
9.999389648437498
 50
180.0
  0
INSERT
  5
51DC
330
51D6
100
AcDbEntity
  8
Dim
 62
     0
370
    -2
100
AcDbBlockReference
  2
_DOT
 10
346.01621042376
 20
1456.427652558354
 30
0.0
 41
9.999389648437498
 42
9.999389648437498
 43
9.999389648437498
  0
MTEXT
  5
51DD
330
51D6
100
AcDbEntity
  8
Dim
 62
     0
100
AcDbMText
 10
301.01621042376
 20
1478.643961152104
 30
0.0
 40
24.4326171875
 41
0.0
 46
0.0
 71
     5
 72
     1
  1
\A1;90
  7
ＭＳ ゴシック
 73
     1
 44
1.0
  0
POINT
  5
51DE
330
51D6
100
AcDbEntity
  8
Defpoints
 62
     0
100
AcDbPoint
 10
256.01621042376
 20
1556.873085784575
 30
0.0
  0
POINT
  5
51DF
330
51D6
100
AcDbEntity
  8
Defpoints
 62
     0
100
AcDbPoint
 10
346.01621042376
 20
1771.547351202102
 30
0.0
  0
POINT
  5
51E0
330
51D6
100
AcDbEntity
  8
Defpoints
 62
     0
100
AcDbPoint
 10
346.01621042376
 20
1456.427652558354
 30
0.0
  0
ENDBLK
  5
51E1
330
51D6
100
AcDbEntity
  8
0
100
AcDbBlockEnd
  0
BLOCK
  5
51E4
330
51E3
100
AcDbEntity
  8
0
100
AcDbBlockBegin
  2
*D20
 70
     1
 10
0.0
 20
0.0
 30
0.0
  3
*D20
  1
*D80
  0
LINE
  5
51E5
330
51E3
100
AcDbEntity
  8
Dim
  6
Continuous
 62
     0
370
    -2
100
AcDbLine
 10
166.01621042376
 20
1487.846241847039
 30
0.0
 11
166.01621042376
 21
1456.427652558354
 31
0.0
  0
LINE
  5
51E6
330
51E3
100
AcDbEntity
  8
Dim
  6
Continuous
 62
     0
370
    -2
100
AcDbLine
 10
181.01621042376
 20
1487.846241847039
 30
0.0
 11
181.01621042376
 21
1456.427652558354
 31
0.0
  0
LINE
  5
51E7
330
51E3
100
AcDbEntity
  8
Dim
  6
Continuous
 62
     0
370
    -2
100
AcDbLine
 10
166.01621042376
 20
1456.427652558354
 30
0.0
 11
99.23928268938289
 21
1456.427652558354
 31
0.0
  0
LINE
  5
51E8
330
51E3
100
AcDbEntity
  8
Dim
  6
Continuous
 62
     0
370
    -2
100
AcDbLine
 10
176.0156000721975
 20
1456.427652558354
 30
0.0
 11
171.0168207753225
 21
1456.427652558354
 31
0.0
  0
LINE
  5
51E9
330
51E3
100
AcDbEntity
  8
Dim
  6
Continuous
 62
     0
370
    -2
100
AcDbLine
 10
176.0156000721975
 20
1456.427652558354
 30
0.0
 11
186.014989720635
 21
1456.427652558354
 31
0.0
  0
INSERT
  5
51EA
330
51E3
100
AcDbEntity
  8
Dim
 62
     0
370
    -2
100
AcDbBlockReference
  2
_DOT
 10
166.01621042376
 20
1456.427652558354
 30
0.0
 41
9.999389648437498
 42
9.999389648437498
 43
9.999389648437498
 50
180.0
  0
INSERT
  5
51EB
330
51E3
100
AcDbEntity
  8
Dim
 62
     0
370
    -2
100
AcDbBlockReference
  2
_DOT
 10
181.01621042376
 20
1456.427652558354
 30
0.0
 41
9.999389648437498
 42
9.999389648437498
 43
9.999389648437498
  0
MTEXT
  5
51EC
330
51E3
100
AcDbEntity
  8
Dim
 62
     0
100
AcDbMText
 10
122.6283569081329
 20
1478.643961152104
 30
0.0
 40
24.4326171875
 41
0.0
 46
0.0
 71
     5
 72
     1
  1
\A1;15
  7
ＭＳ ゴシック
 73
     1
 44
1.0
  0
POINT
  5
51ED
330
51E3
100
AcDbEntity
  8
Defpoints
 62
     0
100
AcDbPoint
 10
166.01621042376
 20
1512.846241847039
 30
0.0
  0
POINT
  5
51EE
330
51E3
100
AcDbEntity
  8
Defpoints
 62
     0
100
AcDbPoint
 10
181.01621042376
 20
1512.846241847039
 30
0.0
  0
POINT
  5
5202
330
51E3
100
AcDbEntity
  8
Defpoints
 62
     0
100
AcDbPoint
 10
181.01621042376
 20
1456.427652558354
 30
0.0
  0
ENDBLK
  5
51EF
330
51E3
100
AcDbEntity
  8
0
100
AcDbBlockEnd
  0
BLOCK
  5
51F4
330
51F3
100
AcDbEntity
  8
0
100
AcDbBlockBegin
  2
*D21
 70
     1
 10
0.0
 20
0.0
 30
0.0
  3
*D21
  1
*D81
  0
LINE
  5
51F5
330
51F3
100
AcDbEntity
  8
Dim
 62
     0
370
    -2
100
AcDbLine
 10
206.0162204076819
 20
291.259386915654
 30
0.0
 11
206.0162204076819
 21
4.999694824218747
 31
0.0
  0
LINE
  5
51F6
330
51F3
100
AcDbEntity
  8
Dim
 62
     0
370
    -2
100
AcDbLine
 10
166.0162204076819
 20
62.46568916960905
 30
0.0
 11
166.0162204076819
 21
4.999694824218753
 31
0.0
  0
LINE
  5
51F7
330
51F3
100
AcDbEntity
  8
Dim
 62
     0
370
    -2
100
AcDbLine
 10
196.0168307592444
 20
4.999694824218748
 30
0.0
 11
176.0156100561194
 21
4.999694824218752
 31
0.0
  0
INSERT
  5
51F8
330
51F3
100
AcDbEntity
  8
Dim
 62
     0
370
    -2
100
AcDbBlockReference
  2
_DOT
 10
206.0162204076819
 20
4.999694824218747
 30
0.0
 41
9.999389648437498
 42
9.999389648437498
 43
9.999389648437498
 50
360.0
  0
INSERT
  5
51F9
330
51F3
100
AcDbEntity
  8
Dim
 62
     0
370
    -2
100
AcDbBlockReference
  2
_DOT
 10
166.0162204076819
 20
4.999694824218753
 30
0.0
 41
9.999389648437498
 42
9.999389648437498
 43
9.999389648437498
 50
180.0
  0
MTEXT
  5
51FA
330
51F3
100
AcDbEntity
  8
Dim
 62
     0
100
AcDbMText
 10
186.0162204076819
 20
27.21600341796875
 30
0.0
 40
24.4326171875
 41
0.0
 46
0.0
 71
     5
 72
     1
  1
\A1;40
  7
ＭＳ ゴシック
 73
     1
 44
1.0
  0
POINT
  5
51FB
330
51F3
100
AcDbEntity
  8
Defpoints
 62
     0
100
AcDbPoint
 10
206.0162204076819
 20
316.259386915654
 30
0.0
  0
POINT
  5
51FC
330
51F3
100
AcDbEntity
  8
Defpoints
 62
     0
100
AcDbPoint
 10
166.0162204076819
 20
87.46568916960905
 30
0.0
  0
POINT
  5
51FD
330
51F3
100
AcDbEntity
  8
Defpoints
 62
     0
100
AcDbPoint
 10
166.0162204076819
 20
4.99969482421875
 30
0.0
  0
ENDBLK
  5
51FE
330
51F3
100
AcDbEntity
  8
0
100
AcDbBlockEnd
  0
BLOCK
  5
5287
330
5286
100
AcDbEntity
  8
0
100
AcDbBlockBegin
  2
*D22
 70
     1
 10
0.0
 20
0.0
 30
0.0
  3
*D22
  1

  0
LINE
  5
5289
330
5286
100
AcDbEntity
  8
Dim
 62
     0
370
    -2
100
AcDbLine
 10
3366.124833738619
 20
2209.601117385149
 30
0.0
 11
3366.124833738619
 21
2267.420659634488
 31
0.0
  0
LINE
  5
528A
330
5286
100
AcDbEntity
  8
Dim
 62
     0
370
    -2
100
AcDbLine
 10
3646.12483373862
 20
2209.601117385149
 30
0.0
 11
3646.12483373862
 21
2267.420659634488
 31
0.0
  0
LINE
  5
528B
330
5286
100
AcDbEntity
  8
Dim
 62
     0
370
    -2
100
AcDbLine
 10
3376.124223387057
 20
2267.420659634488
 30
0.0
 11
3636.125444090182
 21
2267.420659634488
 31
0.0
  0
INSERT
  5
528C
330
5286
100
AcDbEntity
  8
Dim
 62
     0
370
    -2
100
AcDbBlockReference
  2
_DOT
 10
3366.124833738619
 20
2267.420659634488
 30
0.0
 41
9.999389648437498
 42
9.999389648437498
 43
9.999389648437498
 50
180.0
  0
INSERT
  5
528D
330
5286
100
AcDbEntity
  8
Dim
 62
     0
370
    -2
100
AcDbBlockReference
  2
_DOT
 10
3646.12483373862
 20
2267.420659634488
 30
0.0
 41
9.999389648437498
 42
9.999389648437498
 43
9.999389648437498
  0
MTEXT
  5
528E
330
5286
100
AcDbEntity
  8
Dim
 62
     0
100
AcDbMText
 10
3506.12483373862
 20
2289.636968228238
 30
0.0
 40
24.4326171875
 41
0.0
 46
0.0
 71
     5
 72
     1
  1
\A1;280
  7
ＭＳ ゴシック
 73
     1
 44
1.0
  0
POINT
  5
528F
330
5286
100
AcDbEntity
  8
Defpoints
 62
     0
100
AcDbPoint
 10
3366.124833738619
 20
2184.601117385149
 30
0.0
  0
POINT
  5
5290
330
5286
100
AcDbEntity
  8
Defpoints
 62
     0
100
AcDbPoint
 10
3646.12483373862
 20
2184.601117385149
 30
0.0
  0
POINT
  5
5291
330
5286
100
AcDbEntity
  8
Defpoints
 62
     0
100
AcDbPoint
 10
3646.12483373862
 20
2267.420659634488
 30
0.0
  0
ENDBLK
  5
5288
330
5286
100
AcDbEntity
  8
0
100
AcDbBlockEnd
  0
BLOCK
  5
5293
330
5292
100
AcDbEntity
  8
0
100
AcDbBlockBegin
  2
*D23
 70
     1
 10
0.0
 20
0.0
 30
0.0
  3
*D23
  1

  0
LINE
  5
5295
330
5292
100
AcDbEntity
  8
Dim
  6
Continuous
 62
     0
370
    -2
100
AcDbLine
 10
4828.741327666223
 20
2045.023454553081
 30
0.0
 11
4828.741327666223
 21
2339.980851063829
 31
0.0
  0
LINE
  5
5296
330
5292
100
AcDbEntity
  8
Dim
  6
Continuous
 62
     0
370
    -2
100
AcDbLine
 10
4828.741327666223
 20
2055.022844201519
 30
0.0
 11
4828.741327666223
 21
2164.80216795836
 31
0.0
  0
LINE
  5
5297
330
5292
100
AcDbEntity
  8
Dim
  6
Continuous
 62
     0
370
    -2
100
AcDbLine
 10
4828.741327666223
 20
2164.80216795836
 30
0.0
 11
4828.741327666223
 21
2154.802778309923
 31
0.0
  0
INSERT
  5
5298
330
5292
100
AcDbEntity
  8
Dim
 62
     0
370
    -2
100
AcDbBlockReference
  2
_DOT
 10
4828.741327666223
 20
2045.023454553081
 30
0.0
 41
9.999389648437498
 42
9.999389648437498
 43
9.999389648437498
 50
270.0
  0
INSERT
  5
5299
330
5292
100
AcDbEntity
  8
Dim
 62
     0
370
    -2
100
AcDbBlockReference
  2
_DOT
 10
4828.741327666223
 20
2174.801557606798
 30
0.0
 41
9.999389648437498
 42
9.999389648437498
 43
9.999389648437498
 50
90.0
  0
MTEXT
  5
529A
330
5292
100
AcDbEntity
  8
Dim
 62
     0
100
AcDbMText
 10
4804.362732451379
 20
2270.98829686461
 30
0.0
 40
24.4326171875
 41
0.0
 46
0.0
 71
     5
 72
     1
  1
\A1;??(深さ)
  7
ＭＳ ゴシック
 11
0.0
 21
1.0
 31
0.0
 73
     1
 44
1.0
  0
POINT
  5
529B
330
5292
100
AcDbEntity
  8
Defpoints
 62
     0
100
AcDbPoint
 10
4828.741327666223
 20
2045.023454553081
 30
0.0
  0
POINT
  5
529C
330
5292
100
AcDbEntity
  8
Defpoints
 62
     0
100
AcDbPoint
 10
4828.741327666223
 20
2174.801557606798
 30
0.0
  0
POINT
  5
529D
330
5292
100
AcDbEntity
  8
Defpoints
 62
     0
100
AcDbPoint
 10
4828.741327666223
 20
2174.801557606798
 30
0.0
  0
ENDBLK
  5
5294
330
5292
100
AcDbEntity
  8
0
100
AcDbBlockEnd
  0
BLOCK
  5
529F
330
529E
100
AcDbEntity
  8
0
100
AcDbBlockBegin
  2
*D24
 70
     1
 10
0.0
 20
0.0
 30
0.0
  3
*D24
  1

  0
LINE
  5
52A1
330
529E
100
AcDbEntity
  8
Dim
  6
Continuous
 62
     0
370
    -2
100
AcDbLine
 10
5054.563131417279
 20
2195.005652934748
 30
0.0
 11
5054.563131417279
 21
2254.736228734363
 31
0.0
  0
LINE
  5
52A2
330
529E
100
AcDbEntity
  8
Dim
  6
Continuous
 62
     0
370
    -2
100
AcDbLine
 10
4989.563131417279
 20
2195.005652934748
 30
0.0
 11
4989.563131417279
 21
2254.736228734363
 31
0.0
  0
LINE
  5
52A3
330
529E
100
AcDbEntity
  8
Dim
  6
Continuous
 62
     0
370
    -2
100
AcDbLine
 10
5044.563741768841
 20
2254.736228734363
 30
0.0
 11
4999.562521065716
 21
2254.736228734363
 31
0.0
  0
INSERT
  5
52A4
330
529E
100
AcDbEntity
  8
Dim
 62
     0
370
    -2
100
AcDbBlockReference
  2
_DOT
 10
5054.563131417279
 20
2254.736228734363
 30
0.0
 41
9.999389648437498
 42
9.999389648437498
 43
9.999389648437498
  0
INSERT
  5
52A5
330
529E
100
AcDbEntity
  8
Dim
 62
     0
370
    -2
100
AcDbBlockReference
  2
_DOT
 10
4989.563131417279
 20
2254.736228734363
 30
0.0
 41
9.999389648437498
 42
9.999389648437498
 43
9.999389648437498
 50
180.0
  0
MTEXT
  5
52A6
330
529E
100
AcDbEntity
  8
Dim
 62
     0
100
AcDbMText
 10
5022.063131417279
 20
2277.575569066394
 30
0.0
 40
24.4326171875
 41
0.0
 46
0.0
 71
     5
 72
     1
  1
\A1;??
  7
ＭＳ ゴシック
 73
     1
 44
1.0
  0
POINT
  5
52A7
330
529E
100
AcDbEntity
  8
Defpoints
 62
     0
100
AcDbPoint
 10
5054.563131417279
 20
2170.005652934748
 30
0.0
  0
POINT
  5
52A8
330
529E
100
AcDbEntity
  8
Defpoints
 62
     0
100
AcDbPoint
 10
4989.563131417279
 20
2170.005652934748
 30
0.0
  0
POINT
  5
52A9
330
529E
100
AcDbEntity
  8
Defpoints
 62
     0
100
AcDbPoint
 10
4989.563131417279
 20
2254.736228734363
 30
0.0
  0
ENDBLK
  5
52A0
330
529E
100
AcDbEntity
  8
0
100
AcDbBlockEnd
  0
BLOCK
  5
52AB
330
52AA
100
AcDbEntity
  8
0
100
AcDbBlockBegin
  2
*D25
 70
     1
 10
0.0
 20
0.0
 30
0.0
  3
*D25
  1

  0
LINE
  5
52AD
330
52AA
100
AcDbEntity
  8
Dim
 62
     0
370
    -2
100
AcDbLine
 10
5054.562233827207
 20
2023.458435907454
 30
0.0
 11
5054.562233827207
 21
1914.129778154701
 31
0.0
  0
LINE
  5
52AE
330
52AA
100
AcDbEntity
  8
Dim
 62
     0
370
    -2
100
AcDbLine
 10
4829.562210677089
 20
1970.135511570376
 30
0.0
 11
4829.562210677089
 21
1914.129778154701
 31
0.0
  0
LINE
  5
52AF
330
52AA
100
AcDbEntity
  8
Dim
 62
     0
370
    -2
100
AcDbLine
 10
5044.562844178769
 20
1914.129778154701
 30
0.0
 11
4839.561600325526
 21
1914.129778154701
 31
0.0
  0
INSERT
  5
52B0
330
52AA
100
AcDbEntity
  8
Dim
 62
     0
370
    -2
100
AcDbBlockReference
  2
_DOT
 10
5054.562233827207
 20
1914.129778154701
 30
0.0
 41
9.999389648437498
 42
9.999389648437498
 43
9.999389648437498
  0
INSERT
  5
52B1
330
52AA
100
AcDbEntity
  8
Dim
 62
     0
370
    -2
100
AcDbBlockReference
  2
_DOT
 10
4829.562210677089
 20
1914.129778154701
 30
0.0
 41
9.999389648437498
 42
9.999389648437498
 43
9.999389648437498
 50
180.0
  0
MTEXT
  5
52B2
330
52AA
100
AcDbEntity
  8
Dim
 62
     0
100
AcDbMText
 10
4942.062222252148
 20
1936.346086748451
 30
0.0
 40
24.4326171875
 41
0.0
 46
0.0
 71
     5
 72
     1
  1
\A1;225
  7
ＭＳ ゴシック
 73
     1
 44
1.0
  0
POINT
  5
52B3
330
52AA
100
AcDbEntity
  8
Defpoints
 62
     0
100
AcDbPoint
 10
5054.562233827207
 20
2048.458435907454
 30
0.0
  0
POINT
  5
52B4
330
52AA
100
AcDbEntity
  8
Defpoints
 62
     0
100
AcDbPoint
 10
4829.562210677089
 20
1995.135511570376
 30
0.0
  0
POINT
  5
52B5
330
52AA
100
AcDbEntity
  8
Defpoints
 62
     0
100
AcDbPoint
 10
4829.562210677089
 20
1914.129778154701
 30
0.0
  0
ENDBLK
  5
52AC
330
52AA
100
AcDbEntity
  8
0
100
AcDbBlockEnd
  0
BLOCK
  5
52B7
330
52B6
100
AcDbEntity
  8
0
100
AcDbBlockBegin
  2
*D26
 70
     1
 10
0.0
 20
0.0
 30
0.0
  3
*D26
  1

  0
LINE
  5
52B9
330
52B6
100
AcDbEntity
  8
Dim
  6
Continuous
 62
     0
370
    -2
100
AcDbLine
 10
4488.212199293848
 20
2158.964640640069
 30
0.0
 11
4481.793610005163
 21
2158.964640640069
 31
0.0
  0
LINE
  5
52BA
330
52B6
100
AcDbEntity
  8
Dim
  6
Continuous
 62
     0
370
    -2
100
AcDbLine
 10
4582.239043231384
 20
2083.964640640069
 30
0.0
 11
4481.793610005163
 21
2083.964640640069
 31
0.0
  0
LINE
  5
52BB
330
52B6
100
AcDbEntity
  8
Dim
  6
Continuous
 62
     0
370
    -2
100
AcDbLine
 10
4481.793610005163
 20
2148.965250991632
 30
0.0
 11
4481.793610005163
 21
2093.964030288507
 31
0.0
  0
INSERT
  5
52BC
330
52B6
100
AcDbEntity
  8
Dim
 62
     0
370
    -2
100
AcDbBlockReference
  2
_DOT
 10
4481.793610005163
 20
2158.964640640069
 30
0.0
 41
9.999389648437498
 42
9.999389648437498
 43
9.999389648437498
 50
90.0
  0
INSERT
  5
52BD
330
52B6
100
AcDbEntity
  8
Dim
 62
     0
370
    -2
100
AcDbBlockReference
  2
_DOT
 10
4481.793610005163
 20
2083.964640640069
 30
0.0
 41
9.999389648437498
 42
9.999389648437498
 43
9.999389648437498
 50
270.0
  0
MTEXT
  5
52BE
330
52B6
100
AcDbEntity
  8
Dim
 62
     0
100
AcDbMText
 10
4459.577301411413
 20
2121.464640640069
 30
0.0
 40
24.4326171875
 41
0.0
 46
0.0
 71
     5
 72
     1
  1
\A1;75
  7
ＭＳ ゴシック
 11
0.0
 21
1.0
 31
0.0
 73
     1
 44
1.0
  0
POINT
  5
52BF
330
52B6
100
AcDbEntity
  8
Defpoints
 62
     0
100
AcDbPoint
 10
4513.212199293848
 20
2158.964640640069
 30
0.0
  0
POINT
  5
52C0
330
52B6
100
AcDbEntity
  8
Defpoints
 62
     0
100
AcDbPoint
 10
4607.239043231384
 20
2083.964640640069
 30
0.0
  0
POINT
  5
52C1
330
52B6
100
AcDbEntity
  8
Defpoints
 62
     0
100
AcDbPoint
 10
4481.793610005163
 20
2083.964640640069
 30
0.0
  0
ENDBLK
  5
52B8
330
52B6
100
AcDbEntity
  8
0
100
AcDbBlockEnd
  0
BLOCK
  5
52C3
330
52C2
100
AcDbEntity
  8
0
100
AcDbBlockBegin
  2
*D27
 70
     1
 10
0.0
 20
0.0
 30
0.0
  3
*D27
  1

  0
LINE
  5
52C5
330
52C2
100
AcDbEntity
  8
Dim
  6
Continuous
 62
     0
370
    -2
100
AcDbLine
 10
4557.239043231384
 20
2083.964640640069
 30
0.0
 11
4481.793610005163
 21
2083.964640640069
 31
0.0
  0
LINE
  5
52C6
330
52C2
100
AcDbEntity
  8
Dim
  6
Continuous
 62
     0
370
    -2
100
AcDbLine
 10
4771.913308648911
 20
1993.964640640069
 30
0.0
 11
4481.793610005163
 21
1993.96464064007
 31
0.0
  0
LINE
  5
52C7
330
52C2
100
AcDbEntity
  8
Dim
  6
Continuous
 62
     0
370
    -2
100
AcDbLine
 10
4481.793610005163
 20
2073.965250991632
 30
0.0
 11
4481.793610005163
 21
2003.964030288507
 31
0.0
  0
INSERT
  5
52C8
330
52C2
100
AcDbEntity
  8
Dim
 62
     0
370
    -2
100
AcDbBlockReference
  2
_DOT
 10
4481.793610005163
 20
2083.964640640069
 30
0.0
 41
9.999389648437498
 42
9.999389648437498
 43
9.999389648437498
 50
90.0
  0
INSERT
  5
52C9
330
52C2
100
AcDbEntity
  8
Dim
 62
     0
370
    -2
100
AcDbBlockReference
  2
_DOT
 10
4481.793610005163
 20
1993.96464064007
 30
0.0
 41
9.999389648437498
 42
9.999389648437498
 43
9.999389648437498
 50
270.0
  0
MTEXT
  5
52CA
330
52C2
100
AcDbEntity
  8
Dim
 62
     0
100
AcDbMText
 10
4459.577301411413
 20
2038.964640640069
 30
0.0
 40
24.4326171875
 41
0.0
 46
0.0
 71
     5
 72
     1
  1
\A1;90
  7
ＭＳ ゴシック
 11
0.0
 21
1.0
 31
0.0
 73
     1
 44
1.0
  0
POINT
  5
52CB
330
52C2
100
AcDbEntity
  8
Defpoints
 62
     0
100
AcDbPoint
 10
4582.239043231384
 20
2083.964640640069
 30
0.0
  0
POINT
  5
52CC
330
52C2
100
AcDbEntity
  8
Defpoints
 62
     0
100
AcDbPoint
 10
4796.913308648911
 20
1993.964640640069
 30
0.0
  0
POINT
  5
52CD
330
52C2
100
AcDbEntity
  8
Defpoints
 62
     0
100
AcDbPoint
 10
4481.793610005163
 20
1993.96464064007
 30
0.0
  0
ENDBLK
  5
52C4
330
52C2
100
AcDbEntity
  8
0
100
AcDbBlockEnd
  0
BLOCK
  5
52CF
330
52CE
100
AcDbEntity
  8
0
100
AcDbBlockBegin
  2
*D28
 70
     1
 10
0.0
 20
0.0
 30
0.0
  3
*D28
  1

  0
LINE
  5
52D1
330
52CE
100
AcDbEntity
  8
Dim
  6
Continuous
 62
     0
370
    -2
100
AcDbLine
 10
4513.212199293848
 20
2173.964640640069
 30
0.0
 11
4481.793610005163
 21
2173.964640640069
 31
0.0
  0
LINE
  5
52D2
330
52CE
100
AcDbEntity
  8
Dim
  6
Continuous
 62
     0
370
    -2
100
AcDbLine
 10
4513.212199293848
 20
2158.964640640069
 30
0.0
 11
4481.793610005163
 21
2158.964640640069
 31
0.0
  0
LINE
  5
52D3
330
52CE
100
AcDbEntity
  8
Dim
  6
Continuous
 62
     0
370
    -2
100
AcDbLine
 10
4481.793610005163
 20
2173.964640640069
 30
0.0
 11
4481.793610005163
 21
2240.741568374446
 31
0.0
  0
LINE
  5
52D4
330
52CE
100
AcDbEntity
  8
Dim
  6
Continuous
 62
     0
370
    -2
100
AcDbLine
 10
4481.793610005163
 20
2163.965250991632
 30
0.0
 11
4481.793610005163
 21
2168.964030288507
 31
0.0
  0
LINE
  5
52D5
330
52CE
100
AcDbEntity
  8
Dim
  6
Continuous
 62
     0
370
    -2
100
AcDbLine
 10
4481.793610005163
 20
2163.965250991632
 30
0.0
 11
4481.793610005163
 21
2153.965861343194
 31
0.0
  0
INSERT
  5
52D6
330
52CE
100
AcDbEntity
  8
Dim
 62
     0
370
    -2
100
AcDbBlockReference
  2
_DOT
 10
4481.793610005163
 20
2173.964640640069
 30
0.0
 41
9.999389648437498
 42
9.999389648437498
 43
9.999389648437498
 50
90.0
  0
INSERT
  5
52D7
330
52CE
100
AcDbEntity
  8
Dim
 62
     0
370
    -2
100
AcDbBlockReference
  2
_DOT
 10
4481.793610005163
 20
2158.964640640069
 30
0.0
 41
9.999389648437498
 42
9.999389648437498
 43
9.999389648437498
 50
270.0
  0
MTEXT
  5
52D8
330
52CE
100
AcDbEntity
  8
Dim
 62
     0
100
AcDbMText
 10
4459.577301411413
 20
2217.352494155696
 30
0.0
 40
24.4326171875
 41
0.0
 46
0.0
 71
     5
 72
     1
  1
\A1;15
  7
ＭＳ ゴシック
 11
0.0
 21
1.0
 31
0.0
 73
     1
 44
1.0
  0
POINT
  5
52D9
330
52CE
100
AcDbEntity
  8
Defpoints
 62
     0
100
AcDbPoint
 10
4538.212199293848
 20
2173.964640640069
 30
0.0
  0
POINT
  5
52DA
330
52CE
100
AcDbEntity
  8
Defpoints
 62
     0
100
AcDbPoint
 10
4538.212199293848
 20
2158.964640640069
 30
0.0
  0
POINT
  5
52DB
330
52CE
100
AcDbEntity
  8
Defpoints
 62
     0
100
AcDbPoint
 10
4481.793610005163
 20
2158.964640640069
 30
0.0
  0
ENDBLK
  5
52D0
330
52CE
100
AcDbEntity
  8
0
100
AcDbBlockEnd
  0
BLOCK
  5
52DD
330
52DC
100
AcDbEntity
  8
0
100
AcDbBlockBegin
  2
*D29
 70
     1
 10
0.0
 20
0.0
 30
0.0
  3
*D29
  1

  0
LINE
  5
52DF
330
52DC
100
AcDbEntity
  8
Dim
 62
     0
370
    -2
100
AcDbLine
 10
3316.625344362462
 20
2133.964630656148
 30
0.0
 11
3030.365652271027
 21
2133.964630656148
 31
0.0
  0
LINE
  5
52E0
330
52DC
100
AcDbEntity
  8
Dim
 62
     0
370
    -2
100
AcDbLine
 10
3087.831646616417
 20
2173.964630656148
 30
0.0
 11
3030.365652271027
 21
2173.964630656148
 31
0.0
  0
LINE
  5
52E1
330
52DC
100
AcDbEntity
  8
Dim
 62
     0
370
    -2
100
AcDbLine
 10
3030.365652271027
 20
2143.964020304585
 30
0.0
 11
3030.365652271027
 21
2163.96524100771
 31
0.0
  0
INSERT
  5
52E2
330
52DC
100
AcDbEntity
  8
Dim
 62
     0
370
    -2
100
AcDbBlockReference
  2
_DOT
 10
3030.365652271027
 20
2133.964630656148
 30
0.0
 41
9.999389648437498
 42
9.999389648437498
 43
9.999389648437498
 50
270.0
  0
INSERT
  5
52E3
330
52DC
100
AcDbEntity
  8
Dim
 62
     0
370
    -2
100
AcDbBlockReference
  2
_DOT
 10
3030.365652271027
 20
2173.964630656148
 30
0.0
 41
9.999389648437498
 42
9.999389648437498
 43
9.999389648437498
 50
90.0
  0
MTEXT
  5
52E4
330
52DC
100
AcDbEntity
  8
Dim
 62
     0
100
AcDbMText
 10
3008.149343677277
 20
2153.964630656148
 30
0.0
 40
24.4326171875
 41
0.0
 46
0.0
 71
     5
 72
     1
  1
\A1;40
  7
ＭＳ ゴシック
 11
0.0
 21
1.0
 31
0.0
 73
     1
 44
1.0
  0
POINT
  5
52E5
330
52DC
100
AcDbEntity
  8
Defpoints
 62
     0
100
AcDbPoint
 10
3341.625344362462
 20
2133.964630656148
 30
0.0
  0
POINT
  5
52E6
330
52DC
100
AcDbEntity
  8
Defpoints
 62
     0
100
AcDbPoint
 10
3112.831646616417
 20
2173.964630656148
 30
0.0
  0
POINT
  5
52E7
330
52DC
100
AcDbEntity
  8
Defpoints
 62
     0
100
AcDbPoint
 10
3030.365652271027
 20
2173.964630656148
 30
0.0
  0
ENDBLK
  5
52DE
330
52DC
100
AcDbEntity
  8
0
100
AcDbBlockEnd
  0
BLOCK
  5
52F7
330
52F6
100
AcDbEntity
  8
0
100
AcDbBlockBegin
  2
*D30
 70
     1
 10
0.0
 20
0.0
 30
0.0
  3
*D30
  1

  0
LINE
  5
52F9
330
52F6
100
AcDbEntity
  8
Dim
 62
     0
370
    -2
100
AcDbLine
 10
1366.006577452144
 20
1457.961687459158
 30
0.0
 11
1366.006577452144
 21
1344.366816662326
 31
0.0
  0
LINE
  5
52FA
330
52F6
100
AcDbEntity
  8
Dim
 62
     0
370
    -2
100
AcDbLine
 10
1386.006577452144
 20
1457.961687459158
 30
0.0
 11
1386.006577452144
 21
1344.366816662326
 31
0.0
  0
LINE
  5
52FB
330
52F6
100
AcDbEntity
  8
Dim
 62
     0
370
    -2
100
AcDbLine
 10
1366.006577452144
 20
1344.366816662326
 30
0.0
 11
1455.031305967769
 21
1344.366816662326
 31
0.0
  0
LINE
  5
52FC
330
52F6
100
AcDbEntity
  8
Dim
 62
     0
370
    -2
100
AcDbLine
 10
1376.005967100582
 20
1344.366816662326
 30
0.0
 11
1376.007187803707
 21
1344.366816662326
 31
0.0
  0
LINE
  5
52FD
330
52F6
100
AcDbEntity
  8
Dim
 62
     0
370
    -2
100
AcDbLine
 10
1376.007187803707
 20
1344.366816662326
 30
0.0
 11
1366.007798155269
 21
1344.366816662326
 31
0.0
  0
INSERT
  5
52FE
330
52F6
100
AcDbEntity
  8
Dim
 62
     0
370
    -2
100
AcDbBlockReference
  2
_DOT
 10
1366.006577452144
 20
1344.366816662326
 30
0.0
 41
9.999389648437498
 42
9.999389648437498
 43
9.999389648437498
 50
180.0
  0
INSERT
  5
52FF
330
52F6
100
AcDbEntity
  8
Dim
 62
     0
370
    -2
100
AcDbBlockReference
  2
_DOT
 10
1386.006577452144
 20
1344.366816662326
 30
0.0
 41
9.999389648437498
 42
9.999389648437498
 43
9.999389648437498
  0
MTEXT
  5
5300
330
52F6
100
AcDbEntity
  8
Dim
 62
     0
100
AcDbMText
 10
1430.518331358394
 20
1366.583125256076
 30
0.0
 40
24.4326171875
 41
0.0
 46
0.0
 71
     5
 72
     1
  1
\A1;20
  7
ＭＳ ゴシック
 73
     1
 44
1.0
  0
POINT
  5
5301
330
52F6
100
AcDbEntity
  8
Defpoints
 62
     0
100
AcDbPoint
 10
1366.006577452144
 20
1482.961687459158
 30
0.0
  0
POINT
  5
5302
330
52F6
100
AcDbEntity
  8
Defpoints
 62
     0
100
AcDbPoint
 10
1386.006577452144
 20
1482.961687459158
 30
0.0
  0
POINT
  5
5303
330
52F6
100
AcDbEntity
  8
Defpoints
 62
     0
100
AcDbPoint
 10
1386.006577452144
 20
1344.366816662326
 30
0.0
  0
ENDBLK
  5
52F8
330
52F6
100
AcDbEntity
  8
0
100
AcDbBlockEnd
  0
BLOCK
  5
5305
330
5304
100
AcDbEntity
  8
0
100
AcDbBlockBegin
  2
*D31
 70
     1
 10
0.0
 20
0.0
 30
0.0
  3
*D31
  1

  0
LINE
  5
5307
330
5304
100
AcDbEntity
  8
Dim
 62
     0
370
    -2
100
AcDbLine
 10
1366.006577452144
 20
1594.961687459158
 30
0.0
 11
1366.006577452144
 21
1711.9205118
 31
0.0
  0
LINE
  5
5308
330
5304
100
AcDbEntity
  8
Dim
 62
     0
370
    -2
100
AcDbLine
 10
1416.006577452144
 20
1594.961687459158
 30
0.0
 11
1416.006577452144
 21
1711.9205118
 31
0.0
  0
LINE
  5
5309
330
5304
100
AcDbEntity
  8
Dim
 62
     0
370
    -2
100
AcDbLine
 10
1376.005967100582
 20
1711.9205118
 30
0.0
 11
1406.007187803707
 21
1711.9205118
 31
0.0
  0
INSERT
  5
530A
330
5304
100
AcDbEntity
  8
Dim
 62
     0
370
    -2
100
AcDbBlockReference
  2
_DOT
 10
1366.006577452144
 20
1711.9205118
 30
0.0
 41
9.999389648437498
 42
9.999389648437498
 43
9.999389648437498
 50
180.0
  0
INSERT
  5
530B
330
5304
100
AcDbEntity
  8
Dim
 62
     0
370
    -2
100
AcDbBlockReference
  2
_DOT
 10
1416.006577452144
 20
1711.9205118
 30
0.0
 41
9.999389648437498
 42
9.999389648437498
 43
9.999389648437498
  0
MTEXT
  5
530C
330
5304
100
AcDbEntity
  8
Dim
 62
     0
100
AcDbMText
 10
1391.006577452144
 20
1734.13682039375
 30
0.0
 40
24.4326171875
 41
0.0
 46
0.0
 71
     5
 72
     1
  1
\A1;50
  7
ＭＳ ゴシック
 73
     1
 44
1.0
  0
POINT
  5
530D
330
5304
100
AcDbEntity
  8
Defpoints
 62
     0
100
AcDbPoint
 10
1366.006577452144
 20
1569.961687459158
 30
0.0
  0
POINT
  5
530E
330
5304
100
AcDbEntity
  8
Defpoints
 62
     0
100
AcDbPoint
 10
1416.006577452144
 20
1569.961687459158
 30
0.0
  0
POINT
  5
530F
330
5304
100
AcDbEntity
  8
Defpoints
 62
     0
100
AcDbPoint
 10
1416.006577452144
 20
1711.9205118
 30
0.0
  0
ENDBLK
  5
5306
330
5304
100
AcDbEntity
  8
0
100
AcDbBlockEnd
  0
BLOCK
  5
5326
330
5325
100
AcDbEntity
  8
0
100
AcDbBlockBegin
  2
*D32
 70
     1
 10
0.0
 20
0.0
 30
0.0
  3
*D32
  1

  0
LINE
  5
5328
330
5325
100
AcDbEntity
  8
Dim
 62
     0
370
    -2
100
AcDbLine
 10
1441.006577452144
 20
1572.961687459158
 30
0.0
 11
1511.4230251194
 21
1572.961687459158
 31
0.0
  0
LINE
  5
5329
330
5325
100
AcDbEntity
  8
Dim
 62
     0
370
    -2
100
AcDbLine
 10
1421.006577452144
 20
1472.961687459158
 30
0.0
 11
1511.4230251194
 21
1472.961687459158
 31
0.0
  0
LINE
  5
532A
330
5325
100
AcDbEntity
  8
Dim
 62
     0
370
    -2
100
AcDbLine
 10
1511.4230251194
 20
1562.96229781072
 30
0.0
 11
1511.4230251194
 21
1482.961077107595
 31
0.0
  0
INSERT
  5
532B
330
5325
100
AcDbEntity
  8
Dim
 62
     0
370
    -2
100
AcDbBlockReference
  2
_DOT
 10
1511.4230251194
 20
1572.961687459158
 30
0.0
 41
9.999389648437498
 42
9.999389648437498
 43
9.999389648437498
 50
90.0
  0
INSERT
  5
532C
330
5325
100
AcDbEntity
  8
Dim
 62
     0
370
    -2
100
AcDbBlockReference
  2
_DOT
 10
1511.4230251194
 20
1472.961687459158
 30
0.0
 41
9.999389648437498
 42
9.999389648437498
 43
9.999389648437498
 50
270.0
  0
MTEXT
  5
532D
330
5325
100
AcDbEntity
  8
Dim
 62
     0
100
AcDbMText
 10
1489.20671652565
 20
1521.961687459158
 30
0.0
 40
24.4326171875
 41
0.0
 46
0.0
 71
     5
 72
     1
  1
\A1;100
  7
ＭＳ ゴシック
 11
0.0
 21
1.0
 31
0.0
 73
     1
 44
1.0
  0
POINT
  5
532E
330
5325
100
AcDbEntity
  8
Defpoints
 62
     0
100
AcDbPoint
 10
1416.006577452144
 20
1572.961687459158
 30
0.0
  0
POINT
  5
532F
330
5325
100
AcDbEntity
  8
Defpoints
 62
     0
100
AcDbPoint
 10
1396.006577452144
 20
1472.961687459158
 30
0.0
  0
POINT
  5
5330
330
5325
100
AcDbEntity
  8
Defpoints
 62
     0
100
AcDbPoint
 10
1511.4230251194
 20
1472.961687459158
 30
0.0
  0
ENDBLK
  5
5327
330
5325
100
AcDbEntity
  8
0
100
AcDbBlockEnd
  0
BLOCK
  5
5332
330
5331
100
AcDbEntity
  8
0
100
AcDbBlockBegin
  2
*D33
 70
     1
 10
0.0
 20
0.0
 30
0.0
  3
*D33
  1

  0
LINE
  5
5334
330
5331
100
AcDbEntity
  8
Dim
 62
     0
370
    -2
100
AcDbLine
 10
999.6710686734584
 20
1465.086931933553
 30
0.0
 11
999.6710686734585
 21
1344.366820426325
 31
0.0
  0
LINE
  5
5335
330
5331
100
AcDbEntity
  8
Dim
 62
     0
370
    -2
100
AcDbLine
 10
259.6710686734587
 20
1467.961691223157
 30
0.0
 11
259.6710686734588
 21
1344.366820426325
 31
0.0
  0
LINE
  5
5336
330
5331
100
AcDbEntity
  8
Dim
 62
     0
370
    -2
100
AcDbLine
 10
989.671679025021
 20
1344.366820426325
 30
0.0
 11
269.6704583218963
 21
1344.366820426325
 31
0.0
  0
INSERT
  5
5337
330
5331
100
AcDbEntity
  8
Dim
 62
     0
370
    -2
100
AcDbBlockReference
  2
_DOT
 10
999.6710686734585
 20
1344.366820426325
 30
0.0
 41
9.999389648437498
 42
9.999389648437498
 43
9.999389648437498
  0
INSERT
  5
5338
330
5331
100
AcDbEntity
  8
Dim
 62
     0
370
    -2
100
AcDbBlockReference
  2
_DOT
 10
259.6710686734588
 20
1344.366820426325
 30
0.0
 41
9.999389648437498
 42
9.999389648437498
 43
9.999389648437498
 50
180.0
  0
MTEXT
  5
5339
330
5331
100
AcDbEntity
  8
Dim
 62
     0
100
AcDbMText
 10
629.6710686734586
 20
1366.583129020075
 30
0.0
 40
24.4326171875
 41
0.0
 46
0.0
 71
     5
 72
     1
  1
\A1;740
  7
ＭＳ ゴシック
 73
     1
 44
1.0
  0
POINT
  5
533A
330
5331
100
AcDbEntity
  8
Defpoints
 62
     0
100
AcDbPoint
 10
999.6710686734584
 20
1490.086931933553
 30
0.0
  0
POINT
  5
533B
330
5331
100
AcDbEntity
  8
Defpoints
 62
     0
100
AcDbPoint
 10
259.6710686734587
 20
1492.961691223157
 30
0.0
  0
POINT
  5
533C
330
5331
100
AcDbEntity
  8
Defpoints
 62
     0
100
AcDbPoint
 10
259.6710686734588
 20
1344.366820426325
 30
0.0
  0
ENDBLK
  5
5333
330
5331
100
AcDbEntity
  8
0
100
AcDbBlockEnd
  0
BLOCK
  5
533E
330
533D
100
AcDbEntity
  8
0
100
AcDbBlockBegin
  2
*D34
 70
     1
 10
0.0
 20
0.0
 30
0.0
  3
*D34
  1

  0
LINE
  5
5340
330
533D
100
AcDbEntity
  8
Dim
 62
     0
370
    -2
100
AcDbLine
 10
1093.77573235149
 20
1562.191964660657
 30
0.0
 11
1093.77573235149
 21
1672.421187312082
 31
0.0
  0
LINE
  5
5341
330
533D
100
AcDbEntity
  8
Dim
 62
     0
370
    -2
100
AcDbLine
 10
1073.77573235149
 20
1562.191964660657
 30
0.0
 11
1073.77573235149
 21
1672.421187312082
 31
0.0
  0
LINE
  5
5342
330
533D
100
AcDbEntity
  8
Dim
 62
     0
370
    -2
100
AcDbLine
 10
1093.77573235149
 20
1672.421187312082
 30
0.0
 11
1000.211489668976
 21
1672.421187312082
 31
0.0
  0
LINE
  5
5343
330
533D
100
AcDbEntity
  8
Dim
 62
     0
370
    -2
100
AcDbLine
 10
1083.776342703053
 20
1672.421187312082
 30
0.0
 11
1083.775121999928
 21
1672.421187312082
 31
0.0
  0
LINE
  5
5344
330
533D
100
AcDbEntity
  8
Dim
 62
     0
370
    -2
100
AcDbLine
 10
1083.775121999928
 20
1672.421187312082
 30
0.0
 11
1093.774511648365
 21
1672.421187312082
 31
0.0
  0
INSERT
  5
5345
330
533D
100
AcDbEntity
  8
Dim
 62
     0
370
    -2
100
AcDbBlockReference
  2
_DOT
 10
1093.77573235149
 20
1672.421187312082
 30
0.0
 41
9.999389648437498
 42
9.999389648437498
 43
9.999389648437498
  0
INSERT
  5
5346
330
533D
100
AcDbEntity
  8
Dim
 62
     0
370
    -2
100
AcDbBlockReference
  2
_DOT
 10
1073.77573235149
 20
1672.421187312082
 30
0.0
 41
9.999389648437498
 42
9.999389648437498
 43
9.999389648437498
 50
180.0
  0
MTEXT
  5
5347
330
533D
100
AcDbEntity
  8
Dim
 62
     0
100
AcDbMText
 10
1024.724464278351
 20
1694.637495905832
 30
0.0
 40
24.4326171875
 41
0.0
 46
0.0
 71
     5
 72
     1
  1
\A1;20
  7
ＭＳ ゴシック
 73
     1
 44
1.0
  0
POINT
  5
5348
330
533D
100
AcDbEntity
  8
Defpoints
 62
     0
100
AcDbPoint
 10
1093.77573235149
 20
1537.191964660657
 30
0.0
  0
POINT
  5
5349
330
533D
100
AcDbEntity
  8
Defpoints
 62
     0
100
AcDbPoint
 10
1073.77573235149
 20
1537.191964660657
 30
0.0
  0
POINT
  5
534A
330
533D
100
AcDbEntity
  8
Defpoints
 62
     0
100
AcDbPoint
 10
1073.77573235149
 20
1672.421187312082
 30
0.0
  0
ENDBLK
  5
533F
330
533D
100
AcDbEntity
  8
0
100
AcDbBlockEnd
  0
BLOCK
  5
53A5
330
53A4
100
AcDbEntity
  8
0
100
AcDbBlockBegin
  2
*D35
 70
     1
 10
0.0
 20
0.0
 30
0.0
  3
*D35
  1

  0
LINE
  5
53A7
330
53A4
100
AcDbEntity
  8
Dim
 62
     0
370
    -2
100
AcDbLine
 10
1004.671068673458
 20
1492.961691223157
 30
0.0
 11
1084.340829419823
 21
1492.961691223157
 31
0.0
  0
LINE
  5
53A8
330
53A4
100
AcDbEntity
  8
Dim
 62
     0
370
    -2
100
AcDbLine
 10
1002.554305617285
 20
1472.961691223157
 30
0.0
 11
1084.340829419823
 21
1472.961691223157
 31
0.0
  0
LINE
  5
53A9
330
53A4
100
AcDbEntity
  8
Dim
 62
     0
370
    -2
100
AcDbLine
 10
1084.340829419823
 20
1492.961691223157
 30
0.0
 11
1084.340829419823
 21
1561.986419738782
 31
0.0
  0
LINE
  5
53AA
330
53A4
100
AcDbEntity
  8
Dim
 62
     0
370
    -2
100
AcDbLine
 10
1084.340829419823
 20
1482.96230157472
 30
0.0
 11
1084.340829419823
 21
1482.961080871595
 31
0.0
  0
LINE
  5
53AB
330
53A4
100
AcDbEntity
  8
Dim
 62
     0
370
    -2
100
AcDbLine
 10
1084.340829419823
 20
1482.96230157472
 30
0.0
 11
1084.340829419823
 21
1472.962911926282
 31
0.0
  0
INSERT
  5
53AC
330
53A4
100
AcDbEntity
  8
Dim
 62
     0
370
    -2
100
AcDbBlockReference
  2
_DOT
 10
1084.340829419823
 20
1492.961691223157
 30
0.0
 41
9.999389648437498
 42
9.999389648437498
 43
9.999389648437498
 50
90.0
  0
INSERT
  5
53AD
330
53A4
100
AcDbEntity
  8
Dim
 62
     0
370
    -2
100
AcDbBlockReference
  2
_DOT
 10
1084.340829419823
 20
1472.961691223157
 30
0.0
 41
9.999389648437498
 42
9.999389648437498
 43
9.999389648437498
 50
270.0
  0
MTEXT
  5
53AE
330
53A4
100
AcDbEntity
  8
Dim
 62
     0
100
AcDbMText
 10
1062.124520826073
 20
1537.473445129407
 30
0.0
 40
24.4326171875
 41
0.0
 46
0.0
 71
     5
 72
     1
  1
\A1;20
  7
ＭＳ ゴシック
 11
0.0
 21
1.0
 31
0.0
 73
     1
 44
1.0
  0
POINT
  5
53AF
330
53A4
100
AcDbEntity
  8
Defpoints
 62
     0
100
AcDbPoint
 10
979.6710686734584
 20
1492.961691223157
 30
0.0
  0
POINT
  5
53B0
330
53A4
100
AcDbEntity
  8
Defpoints
 62
     0
100
AcDbPoint
 10
977.5543056172851
 20
1472.961691223157
 30
0.0
  0
POINT
  5
53B1
330
53A4
100
AcDbEntity
  8
Defpoints
 62
     0
100
AcDbPoint
 10
1084.340829419823
 20
1472.961691223157
 30
0.0
  0
ENDBLK
  5
53A6
330
53A4
100
AcDbEntity
  8
0
100
AcDbBlockEnd
  0
BLOCK
  5
544C
330
544B
100
AcDbEntity
  8
0
100
AcDbBlockBegin
  2
*D37
 70
     1
 10
0.0
 20
0.0
 30
0.0
  3
*D37
  1
*D89
  0
LINE
  5
544D
330
544B
100
AcDbEntity
  8
Dim
  6
Continuous
 62
     0
370
    -2
100
AcDbLine
 10
346.4985884311347
 20
335.2660152056628
 30
0.0
 11
291.5052961067638
 21
335.2660152056628
 31
0.0
  0
LINE
  5
544E
330
544B
100
AcDbEntity
  8
Dim
  6
Continuous
 62
     0
370
    -2
100
AcDbLine
 10
346.4985884311347
 20
615.2660152056633
 30
0.0
 11
291.5052961067638
 21
615.2660152056633
 31
0.0
  0
LINE
  5
544F
330
544B
100
AcDbEntity
  8
Dim
  6
Continuous
 62
     0
370
    -2
100
AcDbLine
 10
291.5052961067638
 20
345.2654048541003
 30
0.0
 11
291.5052961067638
 21
605.2666255572258
 31
0.0
  0
INSERT
  5
5450
330
544B
100
AcDbEntity
  8
Dim
 62
     0
370
    -2
100
AcDbBlockReference
  2
_DOT
 10
291.5052961067638
 20
335.2660152056628
 30
0.0
 41
9.999389648437498
 42
9.999389648437498
 43
9.999389648437498
 50
270.0
  0
INSERT
  5
5451
330
544B
100
AcDbEntity
  8
Dim
 62
     0
370
    -2
100
AcDbBlockReference
  2
_DOT
 10
291.5052961067638
 20
615.2660152056633
 30
0.0
 41
9.999389648437498
 42
9.999389648437498
 43
9.999389648437498
 50
90.0
  0
MTEXT
  5
5452
330
544B
100
AcDbEntity
  8
Dim
 62
     0
100
AcDbMText
 10
269.2889875130138
 20
475.2660152056631
 30
0.0
 40
24.4326171875
 41
0.0
 46
0.0
 71
     5
 72
     1
  1
\A1;280
  7
ＭＳ ゴシック
 11
0.0
 21
1.0
 31
0.0
 73
     1
 44
1.0
  0
POINT
  5
5453
330
544B
100
AcDbEntity
  8
Defpoints
 62
     0
100
AcDbPoint
 10
371.4985884311347
 20
335.2660152056628
 30
0.0
  0
POINT
  5
5454
330
544B
100
AcDbEntity
  8
Defpoints
 62
     0
100
AcDbPoint
 10
371.4985884311347
 20
615.2660152056633
 30
0.0
  0
POINT
  5
5455
330
544B
100
AcDbEntity
  8
Defpoints
 62
     0
100
AcDbPoint
 10
291.5052961067638
 20
615.2660152056633
 30
0.0
  0
ENDBLK
  5
5456
330
544B
100
AcDbEntity
  8
0
100
AcDbBlockEnd
  0
BLOCK
  5
5462
330
5461
100
AcDbEntity
  8
0
100
AcDbBlockBegin
  2
*D38
 70
     1
 10
0.0
 20
0.0
 30
0.0
  3
*D38
  1
*D92
  0
LINE
  5
5463
330
5461
100
AcDbEntity
  8
Dim
  6
Continuous
 62
     0
370
    -2
100
AcDbLine
 10
355.9980855645488
 20
895.3524584358963
 30
0.0
 11
355.9980855645488
 21
996.1460496644784
 31
0.0
  0
LINE
  5
5464
330
5461
100
AcDbEntity
  8
Dim
  6
Continuous
 62
     0
370
    -2
100
AcDbLine
 10
535.9980855645488
 20
541.9471364718413
 30
0.0
 11
535.9980855645487
 21
996.1460496644784
 31
0.0
  0
LINE
  5
5465
330
5461
100
AcDbEntity
  8
Dim
  6
Continuous
 62
     0
370
    -2
100
AcDbLine
 10
365.9974752129863
 20
996.1460496644784
 30
0.0
 11
525.9986959161112
 21
996.1460496644784
 31
0.0
  0
INSERT
  5
5466
330
5461
100
AcDbEntity
  8
Dim
 62
     0
370
    -2
100
AcDbBlockReference
  2
_DOT
 10
355.9980855645488
 20
996.1460496644784
 30
0.0
 41
9.999389648437498
 42
9.999389648437498
 43
9.999389648437498
 50
180.0
  0
INSERT
  5
5467
330
5461
100
AcDbEntity
  8
Dim
 62
     0
370
    -2
100
AcDbBlockReference
  2
_DOT
 10
535.9980855645487
 20
996.1460496644784
 30
0.0
 41
9.999389648437498
 42
9.999389648437498
 43
9.999389648437498
  0
MTEXT
  5
5468
330
5461
100
AcDbEntity
  8
Dim
 62
     0
100
AcDbMText
 10
445.9980855645487
 20
1018.362358258228
 30
0.0
 40
24.4326171875
 41
0.0
 46
0.0
 71
     5
 72
     1
  1
\A1;180
  7
ＭＳ ゴシック
 73
     1
 44
1.0
  0
POINT
  5
5469
330
5461
100
AcDbEntity
  8
Defpoints
 62
     0
100
AcDbPoint
 10
355.9980855645488
 20
870.3524584358963
 30
0.0
  0
POINT
  5
546A
330
5461
100
AcDbEntity
  8
Defpoints
 62
     0
100
AcDbPoint
 10
535.9980855645488
 20
516.9471364718413
 30
0.0
  0
POINT
  5
546B
330
5461
100
AcDbEntity
  8
Defpoints
 62
     0
100
AcDbPoint
 10
535.9980855645487
 20
996.1460496644784
 30
0.0
  0
ENDBLK
  5
546C
330
5461
100
AcDbEntity
  8
0
100
AcDbBlockEnd
  0
BLOCK
  5
546F
330
546E
100
AcDbEntity
  8
0
100
AcDbBlockBegin
  2
*D39
 70
     1
 10
0.0
 20
0.0
 30
0.0
  3
*D39
  1
*D93
  0
LINE
  5
5470
330
546E
100
AcDbEntity
  8
Dim
  6
Continuous
 62
     0
370
    -2
100
AcDbLine
 10
355.9980529617487
 20
1298.873265795293
 30
0.0
 11
355.9980529617487
 21
1211.531117247096
 31
0.0
  0
LINE
  5
5471
330
546E
100
AcDbEntity
  8
Dim
  6
Continuous
 62
     0
370
    -2
100
AcDbLine
 10
465.9980529617487
 20
1298.873265795293
 30
0.0
 11
465.9980529617487
 21
1211.531117247096
 31
0.0
  0
LINE
  5
5472
330
546E
100
AcDbEntity
  8
Dim
  6
Continuous
 62
     0
370
    -2
100
AcDbLine
 10
365.9974426101862
 20
1211.531117247096
 30
0.0
 11
455.9986633133112
 21
1211.531117247096
 31
0.0
  0
INSERT
  5
5473
330
546E
100
AcDbEntity
  8
Dim
 62
     0
370
    -2
100
AcDbBlockReference
  2
_DOT
 10
355.9980529617487
 20
1211.531117247096
 30
0.0
 41
9.999389648437498
 42
9.999389648437498
 43
9.999389648437498
 50
180.0
  0
INSERT
  5
5474
330
546E
100
AcDbEntity
  8
Dim
 62
     0
370
    -2
100
AcDbBlockReference
  2
_DOT
 10
465.9980529617487
 20
1211.531117247096
 30
0.0
 41
9.999389648437498
 42
9.999389648437498
 43
9.999389648437498
  0
MTEXT
  5
5475
330
546E
100
AcDbEntity
  8
Dim
 62
     0
100
AcDbMText
 10
410.9980529617487
 20
1233.747425840846
 30
0.0
 40
24.4326171875
 41
0.0
 46
0.0
 71
     5
 72
     1
  1
\A1;110
  7
ＭＳ ゴシック
 73
     1
 44
1.0
  0
POINT
  5
5476
330
546E
100
AcDbEntity
  8
Defpoints
 62
     0
100
AcDbPoint
 10
355.9980529617487
 20
1323.873265795293
 30
0.0
  0
POINT
  5
5477
330
546E
100
AcDbEntity
  8
Defpoints
 62
     0
100
AcDbPoint
 10
465.9980529617487
 20
1323.873265795293
 30
0.0
  0
POINT
  5
5478
330
546E
100
AcDbEntity
  8
Defpoints
 62
     0
100
AcDbPoint
 10
465.9980529617487
 20
1211.531117247096
 30
0.0
  0
ENDBLK
  5
5479
330
546E
100
AcDbEntity
  8
0
100
AcDbBlockEnd
  0
BLOCK
  5
547C
330
547B
100
AcDbEntity
  8
0
100
AcDbBlockBegin
  2
*D40
 70
     1
 10
0.0
 20
0.0
 30
0.0
  3
*D40
  1
*D94
  0
LINE
  5
547D
330
547B
100
AcDbEntity
  8
Dim
  6
Continuous
 62
     0
370
    -2
100
AcDbLine
 10
465.9980529617487
 20
1298.873265795293
 30
0.0
 11
465.9980529617487
 21
1211.531117247096
 31
0.0
  0
LINE
  5
547E
330
547B
100
AcDbEntity
  8
Dim
  6
Continuous
 62
     0
370
    -2
100
AcDbLine
 10
535.9980529617487
 20
1531.871369422632
 30
0.0
 11
535.9980529617487
 21
1211.531117247096
 31
0.0
  0
LINE
  5
547F
330
547B
100
AcDbEntity
  8
Dim
  6
Continuous
 62
     0
370
    -2
100
AcDbLine
 10
475.9974426101862
 20
1211.531117247096
 30
0.0
 11
525.9986633133112
 21
1211.531117247096
 31
0.0
  0
INSERT
  5
5480
330
547B
100
AcDbEntity
  8
Dim
 62
     0
370
    -2
100
AcDbBlockReference
  2
_DOT
 10
465.9980529617487
 20
1211.531117247096
 30
0.0
 41
9.999389648437498
 42
9.999389648437498
 43
9.999389648437498
 50
180.0
  0
INSERT
  5
5481
330
547B
100
AcDbEntity
  8
Dim
 62
     0
370
    -2
100
AcDbBlockReference
  2
_DOT
 10
535.9980529617487
 20
1211.531117247096
 30
0.0
 41
9.999389648437498
 42
9.999389648437498
 43
9.999389648437498
  0
MTEXT
  5
5482
330
547B
100
AcDbEntity
  8
Dim
 62
     0
100
AcDbMText
 10
500.9980529617487
 20
1233.747425840846
 30
0.0
 40
24.4326171875
 41
0.0
 46
0.0
 71
     5
 72
     1
  1
\A1;70
  7
ＭＳ ゴシック
 73
     1
 44
1.0
  0
POINT
  5
5483
330
547B
100
AcDbEntity
  8
Defpoints
 62
     0
100
AcDbPoint
 10
465.9980529617487
 20
1323.873265795293
 30
0.0
  0
POINT
  5
5484
330
547B
100
AcDbEntity
  8
Defpoints
 62
     0
100
AcDbPoint
 10
535.9980529617487
 20
1556.871369422632
 30
0.0
  0
POINT
  5
5485
330
547B
100
AcDbEntity
  8
Defpoints
 62
     0
100
AcDbPoint
 10
535.9980529617487
 20
1211.531117247096
 30
0.0
  0
ENDBLK
  5
5486
330
547B
100
AcDbEntity
  8
0
100
AcDbBlockEnd
  0
BLOCK
  5
5489
330
5488
100
AcDbEntity
  8
0
100
AcDbBlockBegin
  2
*D41
 70
     1
 10
0.0
 20
0.0
 30
0.0
  3
*D41
  1
*D95
  0
LINE
  5
548A
330
5488
100
AcDbEntity
  8
Dim
  6
Continuous
 62
     0
370
    -2
100
AcDbLine
 10
561.8272417785438
 20
1594.070347748298
 30
0.0
 11
654.7570424280059
 21
1594.070347748298
 31
0.0
  0
LINE
  5
548B
330
5488
100
AcDbEntity
  8
Dim
  6
Continuous
 62
     0
370
    -2
100
AcDbLine
 10
561.8272417785438
 20
1819.070347748298
 30
0.0
 11
654.7570424280059
 21
1819.070347748298
 31
0.0
  0
LINE
  5
548C
330
5488
100
AcDbEntity
  8
Dim
  6
Continuous
 62
     0
370
    -2
100
AcDbLine
 10
654.7570424280059
 20
1604.069737396736
 30
0.0
 11
654.7570424280059
 21
1809.070958099861
 31
0.0
  0
INSERT
  5
548D
330
5488
100
AcDbEntity
  8
Dim
 62
     0
370
    -2
100
AcDbBlockReference
  2
_DOT
 10
654.7570424280059
 20
1594.070347748298
 30
0.0
 41
9.999389648437498
 42
9.999389648437498
 43
9.999389648437498
 50
270.0
  0
INSERT
  5
548E
330
5488
100
AcDbEntity
  8
Dim
 62
     0
370
    -2
100
AcDbBlockReference
  2
_DOT
 10
654.7570424280059
 20
1819.070347748298
 30
0.0
 41
9.999389648437498
 42
9.999389648437498
 43
9.999389648437498
 50
90.0
  0
MTEXT
  5
548F
330
5488
100
AcDbEntity
  8
Dim
 62
     0
100
AcDbMText
 10
632.5407338342559
 20
1706.570347748298
 30
0.0
 40
24.4326171875
 41
0.0
 46
0.0
 71
     5
 72
     1
  1
\A1;225
  7
ＭＳ ゴシック
 11
0.0
 21
1.0
 31
0.0
 73
     1
 44
1.0
  0
POINT
  5
5490
330
5488
100
AcDbEntity
  8
Defpoints
 62
     0
100
AcDbPoint
 10
536.8272417785438
 20
1594.070347748298
 30
0.0
  0
POINT
  5
5491
330
5488
100
AcDbEntity
  8
Defpoints
 62
     0
100
AcDbPoint
 10
536.8272417785438
 20
1819.070347748298
 30
0.0
  0
POINT
  5
5492
330
5488
100
AcDbEntity
  8
Defpoints
 62
     0
100
AcDbPoint
 10
654.7570424280059
 20
1819.070347748298
 30
0.0
  0
ENDBLK
  5
5493
330
5488
100
AcDbEntity
  8
0
100
AcDbBlockEnd
  0
BLOCK
  5
5498
330
5497
100
AcDbEntity
  8
0
100
AcDbBlockBegin
  2
*D42
 70
     1
 10
0.0
 20
0.0
 30
0.0
  3
*D42
  1
*D96
  0
LINE
  5
5499
330
5497
100
AcDbEntity
  8
Dim
  6
Continuous
 62
     0
370
    -2
100
AcDbLine
 10
333.4980917641408
 20
1819.070332158266
 30
0.0
 11
284.5044461098139
 21
1819.070332158266
 31
0.0
  0
LINE
  5
549A
330
5497
100
AcDbEntity
  8
Dim
  6
Continuous
 62
     0
370
    -2
100
AcDbLine
 10
332.1936846283418
 20
1754.083421768373
 30
0.0
 11
284.5044461098139
 21
1754.083421768373
 31
0.0
  0
LINE
  5
549B
330
5497
100
AcDbEntity
  8
Dim
  6
Continuous
 62
     0
370
    -2
100
AcDbLine
 10
284.5044461098139
 20
1809.070942509829
 30
0.0
 11
284.5044461098139
 21
1764.082811416811
 31
0.0
  0
INSERT
  5
549C
330
5497
100
AcDbEntity
  8
Dim
 62
     0
370
    -2
100
AcDbBlockReference
  2
_DOT
 10
284.5044461098139
 20
1819.070332158266
 30
0.0
 41
9.999389648437498
 42
9.999389648437498
 43
9.999389648437498
 50
90.0
  0
INSERT
  5
549D
330
5497
100
AcDbEntity
  8
Dim
 62
     0
370
    -2
100
AcDbBlockReference
  2
_DOT
 10
284.5044461098139
 20
1754.083421768373
 30
0.0
 41
9.999389648437498
 42
9.999389648437498
 43
9.999389648437498
 50
270.0
  0
MTEXT
  5
549E
330
5497
100
AcDbEntity
  8
Dim
 62
     0
100
AcDbMText
 10
262.2881375160639
 20
1786.57687696332
 30
0.0
 40
24.4326171875
 41
0.0
 46
0.0
 71
     5
 72
     1
  1
\A1;65
  7
ＭＳ ゴシック
 11
0.0
 21
1.0
 31
0.0
 73
     1
 44
1.0
  0
POINT
  5
549F
330
5497
100
AcDbEntity
  8
Defpoints
 62
     0
100
AcDbPoint
 10
358.4980917641408
 20
1819.070332158266
 30
0.0
  0
POINT
  5
54A0
330
5497
100
AcDbEntity
  8
Defpoints
 62
     0
100
AcDbPoint
 10
357.1936846283418
 20
1754.083421768373
 30
0.0
  0
POINT
  5
54A1
330
5497
100
AcDbEntity
  8
Defpoints
 62
     0
100
AcDbPoint
 10
284.5044461098139
 20
1754.083421768373
 30
0.0
  0
ENDBLK
  5
54A2
330
5497
100
AcDbEntity
  8
0
100
AcDbBlockEnd
  0
BLOCK
  5
54A5
330
54A4
100
AcDbEntity
  8
0
100
AcDbBlockBegin
  2
*D43
 70
     1
 10
0.0
 20
0.0
 30
0.0
  3
*D43
  1
*D97
  0
LINE
  5
54A6
330
54A4
100
AcDbEntity
  8
Dim
  6
Continuous
 62
     0
370
    -2
100
AcDbLine
 10
485.7762360953468
 20
1594.520241041468
 30
0.0
 11
183.6234338228808
 21
1594.520241041468
 31
0.0
  0
LINE
  5
54A7
330
54A4
100
AcDbEntity
  8
Dim
  6
Continuous
 62
     0
370
    -2
100
AcDbLine
 10
475.7768464469093
 20
1594.520241041468
 30
0.0
 11
365.9975226900683
 21
1594.520241041468
 31
0.0
  0
LINE
  5
54A8
330
54A4
100
AcDbEntity
  8
Dim
  6
Continuous
 62
     0
370
    -2
100
AcDbLine
 10
365.9975226900683
 20
1594.520241041468
 30
0.0
 11
375.9969123385058
 21
1594.520241041468
 31
0.0
  0
INSERT
  5
54A9
330
54A4
100
AcDbEntity
  8
Dim
 62
     0
370
    -2
100
AcDbBlockReference
  2
_DOT
 10
485.7762360953468
 20
1594.520241041468
 30
0.0
 41
9.999389648437498
 42
9.999389648437498
 43
9.999389648437498
  0
INSERT
  5
54AA
330
54A4
100
AcDbEntity
  8
Dim
 62
     0
370
    -2
100
AcDbBlockReference
  2
_DOT
 10
355.9981330416308
 20
1594.520241041468
 30
0.0
 41
9.999389648437498
 42
9.999389648437498
 43
9.999389648437498
 50
180.0
  0
MTEXT
  5
54AB
330
54A4
100
AcDbEntity
  8
Dim
 62
     0
100
AcDbMText
 10
259.8113937838183
 20
1618.898836256312
 30
0.0
 40
24.4326171875
 41
0.0
 46
0.0
 71
     5
 72
     1
  1
\A1;130(深さ)
  7
ＭＳ ゴシック
 73
     1
 44
1.0
  0
POINT
  5
54AC
330
54A4
100
AcDbEntity
  8
Defpoints
 62
     0
100
AcDbPoint
 10
485.7762360953468
 20
1594.520241041468
 30
0.0
  0
POINT
  5
54AD
330
54A4
100
AcDbEntity
  8
Defpoints
 62
     0
100
AcDbPoint
 10
355.9981330416308
 20
1594.520241041468
 30
0.0
  0
POINT
  5
54C0
330
54A4
100
AcDbEntity
  8
Defpoints
 62
     0
100
AcDbPoint
 10
355.9981330416308
 20
1594.520241041468
 30
0.0
  0
ENDBLK
  5
54AE
330
54A4
100
AcDbEntity
  8
0
100
AcDbBlockEnd
  0
BLOCK
  5
54B3
330
54B2
100
AcDbEntity
  8
0
100
AcDbBlockBegin
  2
*D44
 70
     1
 10
0.0
 20
0.0
 30
0.0
  3
*D44
  1
*D98
  0
LINE
  5
54B4
330
54B2
100
AcDbEntity
  8
Dim
  6
Continuous
 62
     0
370
    -2
100
AcDbLine
 10
395.9980778072909
 20
285.7665258295078
 30
0.0
 11
395.9980778072909
 21
4.999694824218747
 31
0.0
  0
LINE
  5
54B5
330
54B2
100
AcDbEntity
  8
Dim
  6
Continuous
 62
     0
370
    -2
100
AcDbLine
 10
355.9980855645488
 20
55.17957199808689
 30
0.0
 11
355.9980855645488
 21
4.999694824218753
 31
0.0
  0
LINE
  5
54B6
330
54B2
100
AcDbEntity
  8
Dim
  6
Continuous
 62
     0
370
    -2
100
AcDbLine
 10
385.9986881588534
 20
4.999694824218748
 30
0.0
 11
365.9974752129863
 21
4.999694824218752
 31
0.0
  0
INSERT
  5
54B7
330
54B2
100
AcDbEntity
  8
Dim
 62
     0
370
    -2
100
AcDbBlockReference
  2
_DOT
 10
395.9980778072909
 20
4.999694824218747
 30
0.0
 41
9.999389648437498
 42
9.999389648437498
 43
9.999389648437498
 50
360.0
  0
INSERT
  5
54B8
330
54B2
100
AcDbEntity
  8
Dim
 62
     0
370
    -2
100
AcDbBlockReference
  2
_DOT
 10
355.9980855645488
 20
4.999694824218753
 30
0.0
 41
9.999389648437498
 42
9.999389648437498
 43
9.999389648437498
 50
180.0
  0
MTEXT
  5
54B9
330
54B2
100
AcDbEntity
  8
Dim
 62
     0
100
AcDbMText
 10
375.9980816859188
 20
27.21600341796875
 30
0.0
 40
24.4326171875
 41
0.0
 46
0.0
 71
     5
 72
     1
  1
\A1;40
  7
ＭＳ ゴシック
 73
     1
 44
1.0
  0
POINT
  5
54BA
330
54B2
100
AcDbEntity
  8
Defpoints
 62
     0
100
AcDbPoint
 10
395.9980778072909
 20
310.7665258295078
 30
0.0
  0
POINT
  5
54BB
330
54B2
100
AcDbEntity
  8
Defpoints
 62
     0
100
AcDbPoint
 10
355.9980855645488
 20
80.17957199808689
 30
0.0
  0
POINT
  5
54BC
330
54B2
100
AcDbEntity
  8
Defpoints
 62
     0
100
AcDbPoint
 10
355.9980855645488
 20
4.99969482421875
 30
0.0
  0
ENDBLK
  5
54BD
330
54B2
100
AcDbEntity
  8
0
100
AcDbBlockEnd
  0
BLOCK
  5
553B
330
553A
100
AcDbEntity
  8
0
100
AcDbBlockBegin
  2
*D45
 70
     1
 10
0.0
 20
0.0
 30
0.0
  3
*D45
  1

  0
LINE
  5
553D
330
553A
100
AcDbEntity
  8
Dim
  6
Continuous
 62
     0
370
    -2
100
AcDbLine
 10
2851.078041563999
 20
2274.297397477282
 30
0.0
 11
2851.078041563999
 21
2329.290689801652
 31
0.0
  0
LINE
  5
553E
330
553A
100
AcDbEntity
  8
Dim
  6
Continuous
 62
     0
370
    -2
100
AcDbLine
 10
3131.078041563999
 20
2274.297397477282
 30
0.0
 11
3131.078041563999
 21
2329.290689801652
 31
0.0
  0
LINE
  5
553F
330
553A
100
AcDbEntity
  8
Dim
  6
Continuous
 62
     0
370
    -2
100
AcDbLine
 10
2861.077431212436
 20
2329.290689801652
 30
0.0
 11
3121.078651915562
 21
2329.290689801652
 31
0.0
  0
INSERT
  5
5540
330
553A
100
AcDbEntity
  8
Dim
 62
     0
370
    -2
100
AcDbBlockReference
  2
_DOT
 10
2851.078041563999
 20
2329.290689801652
 30
0.0
 41
9.999389648437498
 42
9.999389648437498
 43
9.999389648437498
 50
180.0
  0
INSERT
  5
5541
330
553A
100
AcDbEntity
  8
Dim
 62
     0
370
    -2
100
AcDbBlockReference
  2
_DOT
 10
3131.078041563999
 20
2329.290689801652
 30
0.0
 41
9.999389648437498
 42
9.999389648437498
 43
9.999389648437498
  0
MTEXT
  5
5542
330
553A
100
AcDbEntity
  8
Dim
 62
     0
100
AcDbMText
 10
2991.078041563999
 20
2351.506998395402
 30
0.0
 40
24.4326171875
 41
0.0
 46
0.0
 71
     5
 72
     1
  1
\A1;280
  7
ＭＳ ゴシック
 73
     1
 44
1.0
  0
POINT
  5
5543
330
553A
100
AcDbEntity
  8
Defpoints
 62
     0
100
AcDbPoint
 10
2851.078041563999
 20
2249.297397477282
 30
0.0
  0
POINT
  5
5544
330
553A
100
AcDbEntity
  8
Defpoints
 62
     0
100
AcDbPoint
 10
3131.078041563999
 20
2249.297397477282
 30
0.0
  0
POINT
  5
5545
330
553A
100
AcDbEntity
  8
Defpoints
 62
     0
100
AcDbPoint
 10
3131.078041563999
 20
2329.290689801652
 30
0.0
  0
ENDBLK
  5
553C
330
553A
100
AcDbEntity
  8
0
100
AcDbBlockEnd
  0
BLOCK
  5
5547
330
5546
100
AcDbEntity
  8
0
100
AcDbBlockBegin
  2
*D46
 70
     1
 10
0.0
 20
0.0
 30
0.0
  3
*D46
  1

  0
LINE
  5
5549
330
5546
100
AcDbEntity
  8
Dim
  6
Continuous
 62
     0
370
    -2
100
AcDbLine
 10
3411.164484794233
 20
2264.797900343867
 30
0.0
 11
3511.958076022815
 21
2264.797900343867
 31
0.0
  0
LINE
  5
554A
330
5546
100
AcDbEntity
  8
Dim
  6
Continuous
 62
     0
370
    -2
100
AcDbLine
 10
3057.759162830177
 20
2084.797900343868
 30
0.0
 11
3511.958076022815
 21
2084.797900343868
 31
0.0
  0
LINE
  5
554B
330
5546
100
AcDbEntity
  8
Dim
  6
Continuous
 62
     0
370
    -2
100
AcDbLine
 10
3511.958076022815
 20
2254.79851069543
 30
0.0
 11
3511.958076022815
 21
2094.797289992305
 31
0.0
  0
INSERT
  5
554C
330
5546
100
AcDbEntity
  8
Dim
 62
     0
370
    -2
100
AcDbBlockReference
  2
_DOT
 10
3511.958076022815
 20
2264.797900343867
 30
0.0
 41
9.999389648437498
 42
9.999389648437498
 43
9.999389648437498
 50
90.0
  0
INSERT
  5
554D
330
5546
100
AcDbEntity
  8
Dim
 62
     0
370
    -2
100
AcDbBlockReference
  2
_DOT
 10
3511.958076022815
 20
2084.797900343868
 30
0.0
 41
9.999389648437498
 42
9.999389648437498
 43
9.999389648437498
 50
270.0
  0
MTEXT
  5
554E
330
5546
100
AcDbEntity
  8
Dim
 62
     0
100
AcDbMText
 10
3489.741767429065
 20
2174.797900343868
 30
0.0
 40
24.4326171875
 41
0.0
 46
0.0
 71
     5
 72
     1
  1
\A1;180
  7
ＭＳ ゴシック
 11
0.0
 21
1.0
 31
0.0
 73
     1
 44
1.0
  0
POINT
  5
554F
330
5546
100
AcDbEntity
  8
Defpoints
 62
     0
100
AcDbPoint
 10
3386.164484794233
 20
2264.797900343867
 30
0.0
  0
POINT
  5
5550
330
5546
100
AcDbEntity
  8
Defpoints
 62
     0
100
AcDbPoint
 10
3032.759162830177
 20
2084.797900343868
 30
0.0
  0
POINT
  5
5551
330
5546
100
AcDbEntity
  8
Defpoints
 62
     0
100
AcDbPoint
 10
3511.958076022815
 20
2084.797900343868
 30
0.0
  0
ENDBLK
  5
5548
330
5546
100
AcDbEntity
  8
0
100
AcDbBlockEnd
  0
BLOCK
  5
5553
330
5552
100
AcDbEntity
  8
0
100
AcDbBlockBegin
  2
*D47
 70
     1
 10
0.0
 20
0.0
 30
0.0
  3
*D47
  1

  0
LINE
  5
5555
330
5552
100
AcDbEntity
  8
Dim
  6
Continuous
 62
     0
370
    -2
100
AcDbLine
 10
3814.685292153629
 20
2264.797932946668
 30
0.0
 11
3727.343143605432
 21
2264.797932946668
 31
0.0
  0
LINE
  5
5556
330
5552
100
AcDbEntity
  8
Dim
  6
Continuous
 62
     0
370
    -2
100
AcDbLine
 10
3814.685292153629
 20
2154.797932946668
 30
0.0
 11
3727.343143605432
 21
2154.797932946668
 31
0.0
  0
LINE
  5
5557
330
5552
100
AcDbEntity
  8
Dim
  6
Continuous
 62
     0
370
    -2
100
AcDbLine
 10
3727.343143605432
 20
2254.79854329823
 30
0.0
 11
3727.343143605432
 21
2164.797322595105
 31
0.0
  0
INSERT
  5
5558
330
5552
100
AcDbEntity
  8
Dim
 62
     0
370
    -2
100
AcDbBlockReference
  2
_DOT
 10
3727.343143605432
 20
2264.797932946668
 30
0.0
 41
9.999389648437498
 42
9.999389648437498
 43
9.999389648437498
 50
90.0
  0
INSERT
  5
5559
330
5552
100
AcDbEntity
  8
Dim
 62
     0
370
    -2
100
AcDbBlockReference
  2
_DOT
 10
3727.343143605432
 20
2154.797932946668
 30
0.0
 41
9.999389648437498
 42
9.999389648437498
 43
9.999389648437498
 50
270.0
  0
MTEXT
  5
555A
330
5552
100
AcDbEntity
  8
Dim
 62
     0
100
AcDbMText
 10
3705.126835011682
 20
2209.797932946668
 30
0.0
 40
24.4326171875
 41
0.0
 46
0.0
 71
     5
 72
     1
  1
\A1;110
  7
ＭＳ ゴシック
 11
0.0
 21
1.0
 31
0.0
 73
     1
 44
1.0
  0
POINT
  5
555B
330
5552
100
AcDbEntity
  8
Defpoints
 62
     0
100
AcDbPoint
 10
3839.685292153629
 20
2264.797932946668
 30
0.0
  0
POINT
  5
555C
330
5552
100
AcDbEntity
  8
Defpoints
 62
     0
100
AcDbPoint
 10
3839.685292153629
 20
2154.797932946668
 30
0.0
  0
POINT
  5
555D
330
5552
100
AcDbEntity
  8
Defpoints
 62
     0
100
AcDbPoint
 10
3727.343143605432
 20
2154.797932946668
 30
0.0
  0
ENDBLK
  5
5554
330
5552
100
AcDbEntity
  8
0
100
AcDbBlockEnd
  0
BLOCK
  5
555F
330
555E
100
AcDbEntity
  8
0
100
AcDbBlockBegin
  2
*D48
 70
     1
 10
0.0
 20
0.0
 30
0.0
  3
*D48
  1

  0
LINE
  5
5561
330
555E
100
AcDbEntity
  8
Dim
  6
Continuous
 62
     0
370
    -2
100
AcDbLine
 10
3814.685292153629
 20
2154.797932946668
 30
0.0
 11
3727.343143605432
 21
2154.797932946668
 31
0.0
  0
LINE
  5
5562
330
555E
100
AcDbEntity
  8
Dim
  6
Continuous
 62
     0
370
    -2
100
AcDbLine
 10
4047.683395780969
 20
2084.797932946668
 30
0.0
 11
3727.343143605432
 21
2084.797932946668
 31
0.0
  0
LINE
  5
5563
330
555E
100
AcDbEntity
  8
Dim
  6
Continuous
 62
     0
370
    -2
100
AcDbLine
 10
3727.343143605432
 20
2144.79854329823
 30
0.0
 11
3727.343143605432
 21
2094.797322595105
 31
0.0
  0
INSERT
  5
5564
330
555E
100
AcDbEntity
  8
Dim
 62
     0
370
    -2
100
AcDbBlockReference
  2
_DOT
 10
3727.343143605432
 20
2154.797932946668
 30
0.0
 41
9.999389648437498
 42
9.999389648437498
 43
9.999389648437498
 50
90.0
  0
INSERT
  5
5565
330
555E
100
AcDbEntity
  8
Dim
 62
     0
370
    -2
100
AcDbBlockReference
  2
_DOT
 10
3727.343143605432
 20
2084.797932946668
 30
0.0
 41
9.999389648437498
 42
9.999389648437498
 43
9.999389648437498
 50
270.0
  0
MTEXT
  5
5566
330
555E
100
AcDbEntity
  8
Dim
 62
     0
100
AcDbMText
 10
3705.126835011682
 20
2119.797932946668
 30
0.0
 40
24.4326171875
 41
0.0
 46
0.0
 71
     5
 72
     1
  1
\A1;70
  7
ＭＳ ゴシック
 11
0.0
 21
1.0
 31
0.0
 73
     1
 44
1.0
  0
POINT
  5
5567
330
555E
100
AcDbEntity
  8
Defpoints
 62
     0
100
AcDbPoint
 10
3839.685292153629
 20
2154.797932946668
 30
0.0
  0
POINT
  5
5568
330
555E
100
AcDbEntity
  8
Defpoints
 62
     0
100
AcDbPoint
 10
4072.683395780969
 20
2084.797932946668
 30
0.0
  0
POINT
  5
5569
330
555E
100
AcDbEntity
  8
Defpoints
 62
     0
100
AcDbPoint
 10
3727.343143605432
 20
2084.797932946668
 30
0.0
  0
ENDBLK
  5
5560
330
555E
100
AcDbEntity
  8
0
100
AcDbBlockEnd
  0
BLOCK
  5
556B
330
556A
100
AcDbEntity
  8
0
100
AcDbBlockBegin
  2
*D49
 70
     1
 10
0.0
 20
0.0
 30
0.0
  3
*D49
  1

  0
LINE
  5
556D
330
556A
100
AcDbEntity
  8
Dim
  6
Continuous
 62
     0
370
    -2
100
AcDbLine
 10
4109.882374106634
 20
2058.968744129872
 30
0.0
 11
4109.882374106634
 21
1966.038943480411
 31
0.0
  0
LINE
  5
556E
330
556A
100
AcDbEntity
  8
Dim
  6
Continuous
 62
     0
370
    -2
100
AcDbLine
 10
4334.882374106634
 20
2058.968744129872
 30
0.0
 11
4334.882374106634
 21
1966.038943480411
 31
0.0
  0
LINE
  5
556F
330
556A
100
AcDbEntity
  8
Dim
  6
Continuous
 62
     0
370
    -2
100
AcDbLine
 10
4119.881763755072
 20
1966.038943480411
 30
0.0
 11
4324.882984458197
 21
1966.038943480411
 31
0.0
  0
INSERT
  5
5570
330
556A
100
AcDbEntity
  8
Dim
 62
     0
370
    -2
100
AcDbBlockReference
  2
_DOT
 10
4109.882374106634
 20
1966.038943480411
 30
0.0
 41
9.999389648437498
 42
9.999389648437498
 43
9.999389648437498
 50
180.0
  0
INSERT
  5
5571
330
556A
100
AcDbEntity
  8
Dim
 62
     0
370
    -2
100
AcDbBlockReference
  2
_DOT
 10
4334.882374106634
 20
1966.038943480411
 30
0.0
 41
9.999389648437498
 42
9.999389648437498
 43
9.999389648437498
  0
MTEXT
  5
5572
330
556A
100
AcDbEntity
  8
Dim
 62
     0
100
AcDbMText
 10
4222.382374106634
 20
1988.255252074161
 30
0.0
 40
24.4326171875
 41
0.0
 46
0.0
 71
     5
 72
     1
  1
\A1;225
  7
ＭＳ ゴシック
 73
     1
 44
1.0
  0
POINT
  5
5573
330
556A
100
AcDbEntity
  8
Defpoints
 62
     0
100
AcDbPoint
 10
4109.882374106634
 20
2083.968744129872
 30
0.0
  0
POINT
  5
5574
330
556A
100
AcDbEntity
  8
Defpoints
 62
     0
100
AcDbPoint
 10
4334.882374106634
 20
2083.968744129872
 30
0.0
  0
POINT
  5
5575
330
556A
100
AcDbEntity
  8
Defpoints
 62
     0
100
AcDbPoint
 10
4334.882374106634
 20
1966.038943480411
 30
0.0
  0
ENDBLK
  5
556C
330
556A
100
AcDbEntity
  8
0
100
AcDbBlockEnd
  0
BLOCK
  5
5577
330
5576
100
AcDbEntity
  8
0
100
AcDbBlockBegin
  2
*D50
 70
     1
 10
0.0
 20
0.0
 30
0.0
  3
*D50
  1

  0
LINE
  5
5579
330
5576
100
AcDbEntity
  8
Dim
  6
Continuous
 62
     0
370
    -2
100
AcDbLine
 10
4334.882358516603
 20
2287.297894144276
 30
0.0
 11
4334.882358516603
 21
2336.291539798602
 31
0.0
  0
LINE
  5
557A
330
5576
100
AcDbEntity
  8
Dim
  6
Continuous
 62
     0
370
    -2
100
AcDbLine
 10
4269.89544812671
 20
2288.602301280075
 30
0.0
 11
4269.89544812671
 21
2336.291539798602
 31
0.0
  0
LINE
  5
557B
330
5576
100
AcDbEntity
  8
Dim
  6
Continuous
 62
     0
370
    -2
100
AcDbLine
 10
4324.882968868165
 20
2336.291539798602
 30
0.0
 11
4279.894837775148
 21
2336.291539798602
 31
0.0
  0
INSERT
  5
557C
330
5576
100
AcDbEntity
  8
Dim
 62
     0
370
    -2
100
AcDbBlockReference
  2
_DOT
 10
4334.882358516603
 20
2336.291539798602
 30
0.0
 41
9.999389648437498
 42
9.999389648437498
 43
9.999389648437498
  0
INSERT
  5
557D
330
5576
100
AcDbEntity
  8
Dim
 62
     0
370
    -2
100
AcDbBlockReference
  2
_DOT
 10
4269.89544812671
 20
2336.291539798602
 30
0.0
 41
9.999389648437498
 42
9.999389648437498
 43
9.999389648437498
 50
180.0
  0
MTEXT
  5
557E
330
5576
100
AcDbEntity
  8
Dim
 62
     0
100
AcDbMText
 10
4302.388903321656
 20
2358.507848392352
 30
0.0
 40
24.4326171875
 41
0.0
 46
0.0
 71
     5
 72
     1
  1
\A1;65
  7
ＭＳ ゴシック
 73
     1
 44
1.0
  0
POINT
  5
557F
330
5576
100
AcDbEntity
  8
Defpoints
 62
     0
100
AcDbPoint
 10
4334.882358516603
 20
2262.297894144276
 30
0.0
  0
POINT
  5
5580
330
5576
100
AcDbEntity
  8
Defpoints
 62
     0
100
AcDbPoint
 10
4269.89544812671
 20
2263.602301280075
 30
0.0
  0
POINT
  5
5581
330
5576
100
AcDbEntity
  8
Defpoints
 62
     0
100
AcDbPoint
 10
4269.89544812671
 20
2336.291539798602
 30
0.0
  0
ENDBLK
  5
5578
330
5576
100
AcDbEntity
  8
0
100
AcDbBlockEnd
  0
BLOCK
  5
5583
330
5582
100
AcDbEntity
  8
0
100
AcDbBlockBegin
  2
*D51
 70
     1
 10
0.0
 20
0.0
 30
0.0
  3
*D51
  1

  0
LINE
  5
5585
330
5582
100
AcDbEntity
  8
Dim
  6
Continuous
 62
     0
370
    -2
100
AcDbLine
 10
4110.332267399805
 20
2135.01974981307
 30
0.0
 11
4110.332267399805
 21
2437.172552085535
 31
0.0
  0
LINE
  5
5586
330
5582
100
AcDbEntity
  8
Dim
  6
Continuous
 62
     0
370
    -2
100
AcDbLine
 10
4110.332267399805
 20
2145.019139461507
 30
0.0
 11
4110.332267399805
 21
2254.798463218348
 31
0.0
  0
LINE
  5
5587
330
5582
100
AcDbEntity
  8
Dim
  6
Continuous
 62
     0
370
    -2
100
AcDbLine
 10
4110.332267399805
 20
2254.798463218348
 30
0.0
 11
4110.332267399805
 21
2244.79907356991
 31
0.0
  0
INSERT
  5
5588
330
5582
100
AcDbEntity
  8
Dim
 62
     0
370
    -2
100
AcDbBlockReference
  2
_DOT
 10
4110.332267399805
 20
2135.01974981307
 30
0.0
 41
9.999389648437498
 42
9.999389648437498
 43
9.999389648437498
 50
270.0
  0
INSERT
  5
5589
330
5582
100
AcDbEntity
  8
Dim
 62
     0
370
    -2
100
AcDbBlockReference
  2
_DOT
 10
4110.332267399805
 20
2264.797852866785
 30
0.0
 41
9.999389648437498
 42
9.999389648437498
 43
9.999389648437498
 50
90.0
  0
MTEXT
  5
558A
330
5582
100
AcDbEntity
  8
Dim
 62
     0
100
AcDbMText
 10
4085.953672184961
 20
2360.984592124598
 30
0.0
 40
24.4326171875
 41
0.0
 46
0.0
 71
     5
 72
     1
  1
\A1;130(深さ)
  7
ＭＳ ゴシック
 11
0.0
 21
1.0
 31
0.0
 73
     1
 44
1.0
  0
POINT
  5
558B
330
5582
100
AcDbEntity
  8
Defpoints
 62
     0
100
AcDbPoint
 10
4110.332267399805
 20
2135.01974981307
 30
0.0
  0
POINT
  5
558C
330
5582
100
AcDbEntity
  8
Defpoints
 62
     0
100
AcDbPoint
 10
4110.332267399805
 20
2264.797852866785
 30
0.0
  0
POINT
  5
558D
330
5582
100
AcDbEntity
  8
Defpoints
 62
     0
100
AcDbPoint
 10
4110.332267399805
 20
2264.797852866785
 30
0.0
  0
ENDBLK
  5
5584
330
5582
100
AcDbEntity
  8
0
100
AcDbBlockEnd
  0
BLOCK
  5
558F
330
558E
100
AcDbEntity
  8
0
100
AcDbBlockBegin
  2
*D52
 70
     1
 10
0.0
 20
0.0
 30
0.0
  3
*D52
  1

  0
LINE
  5
5591
330
558E
100
AcDbEntity
  8
Dim
  6
Continuous
 62
     0
370
    -2
100
AcDbLine
 10
2801.578552187844
 20
2224.797908101126
 30
0.0
 11
2520.811721182555
 21
2224.797908101126
 31
0.0
  0
LINE
  5
5592
330
558E
100
AcDbEntity
  8
Dim
  6
Continuous
 62
     0
370
    -2
100
AcDbLine
 10
2570.991598356423
 20
2264.797900343868
 30
0.0
 11
2520.811721182555
 21
2264.797900343868
 31
0.0
  0
LINE
  5
5593
330
558E
100
AcDbEntity
  8
Dim
  6
Continuous
 62
     0
370
    -2
100
AcDbLine
 10
2520.811721182555
 20
2234.797297749563
 30
0.0
 11
2520.811721182555
 21
2254.79851069543
 31
0.0
  0
INSERT
  5
5594
330
558E
100
AcDbEntity
  8
Dim
 62
     0
370
    -2
100
AcDbBlockReference
  2
_DOT
 10
2520.811721182555
 20
2224.797908101126
 30
0.0
 41
9.999389648437498
 42
9.999389648437498
 43
9.999389648437498
 50
270.0
  0
INSERT
  5
5595
330
558E
100
AcDbEntity
  8
Dim
 62
     0
370
    -2
100
AcDbBlockReference
  2
_DOT
 10
2520.811721182555
 20
2264.797900343868
 30
0.0
 41
9.999389648437498
 42
9.999389648437498
 43
9.999389648437498
 50
90.0
  0
MTEXT
  5
5596
330
558E
100
AcDbEntity
  8
Dim
 62
     0
100
AcDbMText
 10
2498.595412588805
 20
2244.797904222498
 30
0.0
 40
24.4326171875
 41
0.0
 46
0.0
 71
     5
 72
     1
  1
\A1;40
  7
ＭＳ ゴシック
 11
0.0
 21
1.0
 31
0.0
 73
     1
 44
1.0
  0
POINT
  5
5597
330
558E
100
AcDbEntity
  8
Defpoints
 62
     0
100
AcDbPoint
 10
2826.578552187844
 20
2224.797908101126
 30
0.0
  0
POINT
  5
5598
330
558E
100
AcDbEntity
  8
Defpoints
 62
     0
100
AcDbPoint
 10
2595.991598356423
 20
2264.797900343868
 30
0.0
  0
POINT
  5
5599
330
558E
100
AcDbEntity
  8
Defpoints
 62
     0
100
AcDbPoint
 10
2520.811721182555
 20
2264.797900343868
 30
0.0
  0
ENDBLK
  5
5590
330
558E
100
AcDbEntity
  8
0
100
AcDbBlockEnd
  0
ENDSEC
  0
SECTION
  2
ENTITIES
  0
MTEXT
  5
177
330
A
100
AcDbEntity
  8
template
390
1D
100
AcDbMText
 10
82.00000000048226
 20
348.023957835319
 30
0.0
 40
16.28841145833333
 41
0.0
 46
0.0
 71
     1
 72
     1
  1
品名
  7
ＭＳ ゴシック
 73
     1
 44
0.7828267384257843
  0
MTEXT
  5
178
330
A
100
AcDbEntity
  8
template
390
1D
100
AcDbMText
 10
82.00000000048226
 20
263.0239578353188
 30
0.0
 40
16.28841145833333
 41
0.0
 46
0.0
 71
     1
 72
     1
  1
仕様
  7
ＭＳ ゴシック
 73
     1
 44
0.7828267384257843
  0
LINE
  5
179
330
A
100
AcDbEntity
  8
template
390
1D
100
AcDbLine
 10
2025.0
 20
271.4388797103189
 30
0.0
 11
75.00000000000023
 21
271.4388797103189
 31
0.0
  0
LWPOLYLINE
  5
17A
330
A
100
AcDbEntity
  8
template
390
1D
100
AcDbPolyline
 90
        5
 70
   128
 43
0.0
 10
2025.0
 20
2901.438879710319
 10
75.00000000000023
 20
2901.438879710319
 10
75.00000000000023
 20
101.4388797103188
 10
2025.0
 20
101.4388797103188
 10
2025.0
 20
2901.438879710319
  0
LINE
  5
17B
330
A
100
AcDbEntity
  8
template
390
1D
100
AcDbLine
 10
2025.0
 20
356.4388797103188
 30
0.0
 11
75.00000000000023
 21
356.4388797103188
 31
0.0
  0
LINE
  5
17C
330
A
100
AcDbEntity
  8
template
390
1D
100
AcDbLine
 10
2025.000000000482
 20
186.4388797103189
 30
0.0
 11
1272.000000000482
 21
186.4388797103189
 31
0.0
  0
MTEXT
  5
17E
330
A
100
AcDbEntity
  8
template
390
1D
100
AcDbMText
 10
1301.871406252743
 20
156.5284852370108
 30
0.0
 40
24.4326171875
 41
0.0
 46
0.0
 71
     1
 72
     1
  1
大洋金物株式会社 ティーフォルム事業部
  7
ＭＳ ゴシック
 73
     1
 44
0.7828267384257843
  0
MTEXT
  5
180
330
A
100
AcDbEntity
  8
template
390
1D
100
AcDbMText
 10
1834.000000000742
 20
234.4414968978188
 30
0.0
 40
24.4326171875
 41
0.0
 46
0.0
 71
     1
 72
     1
  1
1:10
  7
ＭＳ ゴシック
 73
     1
 44
0.7828267384257843
  0
MTEXT
  5
181
330
A
100
AcDbEntity
  8
template
390
1D
100
AcDbMText
 10
1781.000000000742
 20
263.0239578353188
 30
0.0
 40
16.28841145833333
 41
0.0
 46
0.0
 71
     1
 72
     1
  1
縮尺
  7
ＭＳ ゴシック
 73
     1
 44
0.7828267384257843
  0
LINE
  5
182
330
A
100
AcDbEntity
  8
template
390
1D
100
AcDbLine
 10
1774.000000000742
 20
186.4388797103189
 30
0.0
 11
1774.000000000742
 21
271.4388797103189
 31
0.0
  0
MTEXT
  5
183
330
A
100
AcDbEntity
  8
template
390
1D
100
AcDbMText
 10
1530.000000000742
 20
263.0239578353188
 30
0.0
 40
16.28841145833333
 41
0.0
 46
0.0
 71
     1
 72
     1
  1
容量
  7
ＭＳ ゴシック
 73
     1
 44
0.7828267384257843
  0
LINE
  5
184
330
A
100
AcDbEntity
  8
template
390
1D
100
AcDbLine
 10
1523.000000000742
 20
186.4388797103189
 30
0.0
 11
1523.000000000742
 21
271.4388797103189
 31
0.0
  0
MTEXT
  5
185
330
A
100
AcDbEntity
  8
template
390
1D
100
AcDbMText
 10
1279.000000000742
 20
348.023957835319
 30
0.0
 40
16.28841145833333
 41
0.0
 46
0.0
 71
     1
 72
     1
  1
品番
  7
ＭＳ ゴシック
 73
     1
 44
0.7828267384257843
  0
MTEXT
  5
186
330
A
100
AcDbEntity
  8
template
390
1D
100
AcDbMText
 10
1279.000000000742
 20
263.0239578353188
 30
0.0
 40
16.28841145833333
 41
0.0
 46
0.0
 71
     1
 72
     1
  1
重量
  7
ＭＳ ゴシック
 73
     1
 44
0.7828267384257843
  0
MTEXT
  5
187
330
A
100
AcDbEntity
  8
template
390
1D
100
AcDbMText
 10
1332.000000000742
 20
319.4414968978188
 30
0.0
 40
24.4326171875
 41
0.0
 46
24.4326171875
 71
     1
 72
     1
  1
{ADF75-2602}
  7
ＭＳ ゴシック
 73
     1
 44
0.7828267384257843
1001
ACAD
1000
ACAD_MTEXT_DEFINED_HEIGHT_BEGIN
1070
    46
1040
24.4326171875
1000
ACAD_MTEXT_DEFINED_HEIGHT_END
  0
LINE
  5
188
330
A
100
AcDbEntity
  8
template
390
1D
100
AcDbLine
 10
1272.000000000742
 20
101.4388797103188
 30
0.0
 11
1272.000000000742
 21
356.4388797103188
 31
0.0
  0
MTEXT
  5
189
330
A
100
AcDbEntity
  8
template
390
1D
100
AcDbMText
 10
135.0000000004822
 20
319.4414968978188
 30
0.0
 40
24.4326171875
 41
0.0
 46
27.5355595703125
 71
     1
 72
     1
  1
{タオルバー -CATALANO, Green-}
  7
ＭＳ ゴシック
 73
     1
 44
0.7828267384257843
1001
ACAD
1000
ACAD_MTEXT_DEFINED_HEIGHT_BEGIN
1070
    46
1040
27.5355595703125
1000
ACAD_MTEXT_DEFINED_HEIGHT_END
  0
MTEXT
  5
18A
330
A
100
AcDbEntity
  8
template
 62
     1
390
1D
100
AcDbMText
 10
135.0000000004822
 20
234.4414968978188
 30
0.0
 40
24.4326171875
 41
0.0
 46
24.7991064453125
 71
     1
 72
     1
  1
{\C256;クローム}
  7
ＭＳ ゴシック
 73
     1
 44
0.9822934569727008
1001
ACAD
1000
ACAD_MTEXT_DEFINED_HEIGHT_BEGIN
1070
    46
1040
24.7991064453125
1000
ACAD_MTEXT_DEFINED_HEIGHT_END
  0
INSERT
  5
3D0
330
A
100
AcDbEntity
  8
template
100
AcDbBlockReference
  2
名称未設定-1
 10
1873.559250554905
 20
30.23897196054438
 30
0.0
 41
0.7619999999999999
 42
0.7619999999999999
 43
0.7619999999999999
  0
MTEXT
  5
BDB
102
{ACAD_XDICTIONARY
360
BDC
102
}
330
A
100
AcDbEntity
  8
template
  6
Continuous
100
AcDbMText
 10
78.95663872901252
 20
86.10730750352229
 30
0.0
 40
23.0
 41
0.0
 46
23.0
 71
     1
 72
     1
  1
{20170725N}
  7
ＭＳ ゴシック
 73
     1
 44
1.0
1001
ACAD
1000
ACAD_MTEXT_DEFINED_HEIGHT_BEGIN
1070
    46
1040
23.0
1000
ACAD_MTEXT_DEFINED_HEIGHT_END
  0
LWPOLYLINE
  5
BEE
330
A
100
AcDbEntity
  8
PRINT BORDER
100
AcDbPolyline
 90
        4
 70
     1
 43
0.0
 10
0.0
 20
0.0
 10
0.0
 20
2970.0
 10
2100.0
 20
2970.0
 10
2100.0
 20
0.0
  0
INSERT
  5
1273
330
A
100
AcDbEntity
  8
0
 62
     7
100
AcDbBlockReference
  2
BLOCK_2
 10
591.2037060744204
 20
943.564364962162
 30
0.0
  0
INSERT
  5
127B
330
A
100
AcDbEntity
  8
0
 62
     7
100
AcDbBlockReference
  2
BLOCK_2
 10
1291.863324028138
 20
1038.76992320659
 30
0.0
  0
INSERT
  5
127C
330
A
100
AcDbEntity
  8
0
 62
     7
100
AcDbBlockReference
  2
BLOCK_2
 10
652.1648429406905
 20
1595.641631888467
 30
0.0
  0
CIRCLE
  5
142C
330
A
100
AcDbEntity
  8
Dim
  6
Continuous
100
AcDbCircle
 10
1366.841726484681
 20
1758.85027442579
 30
0.0
 40
0.0
  0
INSERT
  5
3B99
330
A
100
AcDbEntity
  8
retino
100
AcDbBlockReference
  2
mobile_latù
 10
-92101.31485198285
 20
1730.415535296608
 30
0.0
  0
INSERT
  5
467E
330
A
100
AcDbEntity
  8
retino
100
AcDbBlockReference
  2
mobile_latù
 10
-100894.893236163
 20
1696.039721945452
 30
0.0
  0
DIMENSION
  5
52EB
102
{ACAD_XDICTIONARY
360
52EC
102
}
330
A
100
AcDbEntity
  8
Dim
100
AcDbDimension
  2
*D30
 10
1386.006577452144
 20
1344.366816662326
 30
0.0
 11
1430.518331358394
 21
1344.366816662326
 31
0.0
 70
   160
 71
     5
 42
20.0
 73
     0
 74
     1
 75
     1
  3
tform線あり
100
AcDbAlignedDimension
 13
1366.006577452144
 23
1482.961687459158
 33
0.0
 14
1386.006577452144
 24
1482.961687459158
 34
0.0
100
AcDbRotatedDimension
  0
DIMENSION
  5
52EE
330
A
100
AcDbEntity
  8
Dim
100
AcDbDimension
  2
*D31
 10
1416.006577452144
 20
1711.9205118
 30
0.0
 11
1391.006577452144
 21
1711.9205118
 31
0.0
 70
   160
 71
     5
 42
50.0
 73
     0
 74
     0
 75
     0
  3
tform線あり
100
AcDbAlignedDimension
 13
1366.006577452144
 23
1569.961687459158
 33
0.0
 14
1416.006577452144
 24
1569.961687459158
 34
0.0
 50
-0.000000000000014
100
AcDbRotatedDimension
  0
LINE
  5
52EF
102
{ACAD_REACTORS
330
52ED
102
}
330
A
100
AcDbEntity
  8
Dim
 62
     0
100
AcDbLine
 10
1366.006577452144
 20
1572.961687459158
 30
0.0
 11
1366.006577452144
 21
1482.961687459158
 31
0.0
  0
ARC
  5
52F0
330
A
100
AcDbEntity
  8
Dim
 62
     0
100
AcDbCircle
 10
1376.006577452144
 20
1482.961687459158
 30
0.0
 40
10.0
100
AcDbArc
 50
180.0
 51
0.0
  0
LINE
  5
52F1
102
{ACAD_REACTORS
330
52ED
102
}
330
A
100
AcDbEntity
  8
Dim
 62
     0
100
AcDbLine
 10
1386.006577452144
 20
1569.961687459158
 30
0.0
 11
1386.006577452144
 21
1482.961687459158
 31
0.0
  0
LINE
  5
52F2
330
A
100
AcDbEntity
  8
Dim
 62
     0
100
AcDbLine
 10
1366.006577452144
 20
1572.961687459158
 30
0.0
 11
1386.006577452144
 21
1572.961687459158
 31
0.0
  0
LINE
  5
52F3
330
A
100
AcDbEntity
  8
Dim
 62
     0
100
AcDbLine
 10
1366.006577452144
 20
1569.961687459158
 30
0.0
 11
1416.006577452144
 21
1569.961687459158
 31
0.0
  0
LINE
  5
52F4
330
A
100
AcDbEntity
  8
Dim
 62
     0
100
AcDbLine
 10
1366.006577452144
 20
1572.961687459158
 30
0.0
 11
1416.006577452144
 21
1572.961687459158
 31
0.0
  0
LINE
  5
52F5
330
A
100
AcDbEntity
  8
Dim
 62
     0
100
AcDbLine
 10
1416.006577452144
 20
1572.961687459158
 30
0.0
 11
1416.006577452144
 21
1569.961687459158
 31
0.0
  0
DIMENSION
  5
5312
330
A
100
AcDbEntity
  8
Dim
100
AcDbDimension
  2
*D32
 10
1511.4230251194
 20
1472.961687459158
 30
0.0
 11
1511.4230251194
 21
1521.961687459158
 31
0.0
 70
   160
 71
     5
 42
100.0
 73
     0
 74
     0
 75
     0
  3
tform線あり
100
AcDbAlignedDimension
 13
1416.006577452144
 23
1572.961687459158
 33
0.0
 14
1396.006577452144
 24
1472.961687459158
 34
0.0
 50
89.99999999999999
100
AcDbRotatedDimension
  0
LINE
  5
5315
330
A
100
AcDbEntity
  8
Dim
 62
     0
100
AcDbLine
 10
629.6710686734586
 20
1492.961691223157
 30
0.0
 11
329.6710686734587
 21
1492.961691223157
 31
0.0
  0
DIMENSION
  5
5317
330
A
100
AcDbEntity
  8
Dim
100
AcDbDimension
  2
*D33
 10
259.6710686734588
 20
1344.366820426325
 30
0.0
 11
629.6710686734586
 21
1366.583129020075
 31
0.0
 70
    32
 71
     5
 42
739.9999999999998
 73
     0
 74
     0
 75
     0
 52
-90.0
  3
tform線あり
100
AcDbAlignedDimension
 13
999.6710686734584
 23
1490.086931933553
 33
0.0
 14
259.6710686734587
 24
1492.961691223157
 34
0.0
 50
0.000000000000014
100
AcDbRotatedDimension
  0
LINE
  5
531E
330
A
100
AcDbEntity
  8
Dim
 62
     0
100
AcDbLine
 10
279.6710686734587
 20
1572.961691223157
 30
0.0
 11
279.6710686734587
 21
1472.961691223157
 31
0.0
  0
LINE
  5
531F
330
A
100
AcDbEntity
  8
Dim
 62
     0
100
AcDbLine
 10
259.6710686734587
 20
1492.961691223157
 30
0.0
 11
259.6710686734587
 21
1572.961691223157
 31
0.0
  0
ARC
  5
5320
330
A
100
AcDbEntity
  8
Dim
 62
     0
100
AcDbCircle
 10
279.6710686734587
 20
1492.961691223157
 30
0.0
 40
20.0
100
AcDbArc
 50
180.0
 51
270.0
  0
LINE
  5
5321
330
A
100
AcDbEntity
  8
Dim
 62
     0
100
AcDbLine
 10
279.6710686734587
 20
1492.961691223157
 30
0.0
 11
629.6710686734586
 21
1492.961691223157
 31
0.0
  0
LINE
  5
5322
330
A
100
AcDbEntity
  8
Dim
 62
     0
100
AcDbLine
 10
629.6710686734586
 20
1472.961691223157
 30
0.0
 11
279.6710686734587
 21
1472.961691223157
 31
0.0
  0
LINE
  5
5323
330
A
100
AcDbEntity
  8
Dim
 62
     0
100
AcDbLine
 10
259.6710686734587
 20
1572.961691223157
 30
0.0
 11
279.6710686734587
 21
1572.961691223157
 31
0.0
  0
LINE
  5
5324
330
A
100
AcDbEntity
  8
Dim
 62
     0
100
AcDbLine
 10
259.6710686734587
 20
1569.961691223157
 30
0.0
 11
279.6710686734587
 21
1569.961691223157
 31
0.0
  0
LINE
  5
5368
330
A
100
AcDbEntity
  8
Dim
 62
     0
100
AcDbLine
 10
979.6710686734584
 20
1572.961691223157
 30
0.0
 11
979.6710686734584
 21
1472.961691223157
 31
0.0
  0
LINE
  5
5369
330
A
100
AcDbEntity
  8
Dim
 62
     0
100
AcDbLine
 10
999.6710686734584
 20
1492.961691223157
 30
0.0
 11
999.6710686734584
 21
1572.961691223157
 31
0.0
  0
ARC
  5
536A
330
A
100
AcDbEntity
  8
Dim
 62
     0
100
AcDbCircle
 10
979.6710686734584
 20
1492.961691223157
 30
0.0
 40
20.0
100
AcDbArc
 50
270.0
 51
0.0
  0
LINE
  5
536B
102
{ACAD_REACTORS
330
53A3
102
}
330
A
100
AcDbEntity
  8
Dim
 62
     0
100
AcDbLine
 10
629.6710686734586
 20
1472.961691223157
 30
0.0
 11
979.6710686734584
 21
1472.961691223157
 31
0.0
  0
LINE
  5
536C
330
A
100
AcDbEntity
  8
Dim
 62
     0
100
AcDbLine
 10
999.6710686734584
 20
1572.961691223157
 30
0.0
 11
979.6710686734584
 21
1572.961691223157
 31
0.0
  0
LINE
  5
536D
330
A
100
AcDbEntity
  8
Dim
 62
     0
100
AcDbLine
 10
999.6710686734584
 20
1569.961691223157
 30
0.0
 11
979.6710686734584
 21
1569.961691223157
 31
0.0
  0
LINE
  5
536E
102
{ACAD_REACTORS
330
53A3
102
}
330
A
100
AcDbEntity
  8
Dim
 62
     0
100
AcDbLine
 10
979.6710686734584
 20
1492.961691223157
 30
0.0
 11
629.6710686734586
 21
1492.961691223157
 31
0.0
  0
LINE
  5
536F
330
A
100
AcDbEntity
  8
Dim
 62
     0
100
AcDbLine
 10
629.6710686734586
 20
1492.961691223157
 30
0.0
 11
929.6710686734584
 21
1492.961691223157
 31
0.0
  0
LINE
  5
53A0
330
A
100
AcDbEntity
  8
HIDDEN
 48
0.25
100
AcDbLine
 10
1366.006577452144
 20
1492.961691223157
 30
0.0
 11
1386.006577452144
 21
1492.961691223157
 31
0.0
  0
DIMENSION
  5
53A1
102
{ACAD_REACTORS
330
53A3
102
}
102
{ACAD_XDICTIONARY
360
53A2
102
}
330
A
100
AcDbEntity
  8
Dim
100
AcDbDimension
  2
*D35
 10
1084.340829419823
 20
1472.961691223157
 30
0.0
 11
1084.340829419823
 21
1537.473445129407
 31
0.0
 70
   160
 71
     5
 42
20.0
 73
     0
 74
     1
 75
     1
  3
tform線あり
100
AcDbAlignedDimension
 13
979.6710686734584
 23
1492.961691223157
 33
0.0
 14
977.5543056172851
 24
1472.961691223157
 34
0.0
 50
90.0
100
AcDbRotatedDimension
1001
ACAD
1000
DSTYLE
1002
{
1070
   144
1040
1.0
1002
}
  0
LINE
  5
54C3
102
{ACAD_REACTORS
330
559E
102
}
330
A
100
AcDbEntity
  8
HIDDEN
100
AcDbLine
 10
959.6731279233209
 20
1679.241751633303
 30
0.0
 11
629.6710686734586
 21
1679.241751633304
 31
0.0
  0
LINE
  5
54C4
102
{ACAD_REACTORS
330
559E
102
}
330
A
100
AcDbEntity
  8
HIDDEN
100
AcDbLine
 10
629.6710686734586
 20
1679.241751633304
 30
0.0
 11
299.6690094462679
 21
1679.241751633304
 31
0.0
  0
SPLINE
  5
54C5
102
{ACAD_REACTORS
330
559E
102
}
330
A
100
AcDbEntity
  8
HIDDEN
100
AcDbSpline
210
0.0
220
0.0
230
1.0
 70
     8
 71
     5
 72
    12
 73
     6
 74
     0
 42
0.000000001
 43
0.0000000001
 40
0.3673310031512139
 40
0.3673310031512139
 40
0.3673310031512139
 40
0.3673310031512139
 40
0.3673310031512139
 40
0.3673310031512139
 40
1.00214881491255
 40
1.00214881491255
 40
1.00214881491255
 40
1.00214881491255
 40
1.00214881491255
 40
1.00214881491255
 10
229.820017663747
 20
1676.050447188934
 30
0.0
 10
230.0122435260996
 20
1676.99312486317
 30
0.0
 10
230.3751330802038
 20
1677.90555291543
 30
0.0
 10
231.0065274451185
 20
1678.727061548873
 30
0.0
 10
232.1049049976132
 20
1679.24175152947
 30
0.0
 10
234.4801679235675
 20
1679.241751633304
 30
0.0
  0
LINE
  5
54C6
102
{ACAD_REACTORS
330
559E
102
}
330
A
100
AcDbEntity
  8
HIDDEN
100
AcDbLine
 10
234.4801679235675
 20
1679.241751633303
 30
0.0
 11
299.6690094462679
 21
1679.241751633304
 31
0.0
  0
SPLINE
  5
54C7
102
{ACAD_REACTORS
330
559E
102
}
330
A
100
AcDbEntity
  8
HIDDEN
100
AcDbSpline
210
0.0
220
0.0
230
1.0
 70
     8
 71
     5
 72
    12
 73
     6
 74
     0
 42
0.000000001
 43
0.0000000001
 40
0.3673310031512139
 40
0.3673310031512139
 40
0.3673310031512139
 40
0.3673310031512139
 40
0.3673310031512139
 40
0.3673310031512139
 40
1.00214881491255
 40
1.00214881491255
 40
1.00214881491255
 40
1.00214881491255
 40
1.00214881491255
 40
1.00214881491255
 10
1029.522119705827
 20
1676.050447188933
 30
0.0
 10
1029.329893843474
 20
1676.99312486317
 30
0.0
 10
1028.96700428937
 20
1677.90555291543
 30
0.0
 10
1028.335609924456
 20
1678.727061548872
 30
0.0
 10
1027.237232371961
 20
1679.24175152947
 30
0.0
 10
1024.861969446021
 20
1679.241751633303
 30
0.0
  0
LINE
  5
54C8
102
{ACAD_REACTORS
330
559E
102
}
330
A
100
AcDbEntity
  8
HIDDEN
100
AcDbLine
 10
1024.861969446021
 20
1679.241751633302
 30
0.0
 11
959.6731279233209
 21
1679.241751633303
 31
0.0
  0
LINE
  5
54CB
102
{ACAD_REACTORS
330
559E
102
}
330
A
100
AcDbEntity
  8
HIDDEN
100
AcDbLine
 10
705.5459657081365
 20
1512.875479379989
 30
0.0
 11
553.7961820495252
 21
1512.875479379989
 31
0.0
  0
LINE
  5
54CC
102
{ACAD_REACTORS
330
559E
102
}
330
A
100
AcDbEntity
  8
HIDDEN
100
AcDbLine
 10
705.5459358681105
 20
1512.855107264518
 30
0.0
 11
705.5459358669314
 21
1512.875551037622
 31
0.0
  0
LINE
  5
54CF
102
{ACAD_REACTORS
330
559E
102
}
330
A
100
AcDbEntity
  8
HIDDEN
100
AcDbLine
 10
594.407598578051
 20
1512.855033186124
 30
0.0
 11
595.4315637650866
 21
1501.151057542044
 31
0.0
  0
LINE
  5
54D0
102
{ACAD_REACTORS
330
559E
102
}
330
A
100
AcDbEntity
  8
HIDDEN
100
AcDbLine
 10
660.9219895102137
 20
1498.412524770285
 30
0.0
 11
598.4201478593595
 21
1498.412524770285
 31
0.0
  0
ARC
  5
54D1
102
{ACAD_REACTORS
330
559E
102
}
330
A
100
AcDbEntity
  8
HIDDEN
100
AcDbCircle
 10
598.4201478593595
 20
1501.412524770285
 30
0.0
 40
3.000000000000002
100
AcDbArc
 50
185.0000000002003
 51
270.0
  0
LINE
  5
54D2
102
{ACAD_REACTORS
330
559E
102
}
330
A
100
AcDbEntity
  8
HIDDEN
100
AcDbLine
 10
229.6690094462679
 20
1673.24174995865
 30
0.0
 11
232.2903459568183
 21
1573.136947321325
 31
0.0
  0
LINE
  5
54D3
102
{ACAD_REACTORS
330
559E
102
}
330
A
100
AcDbEntity
  8
HIDDEN
100
AcDbLine
 10
1029.673127923321
 20
1673.24174995865
 30
0.0
 11
1027.051791412756
 21
1573.136947321334
 31
0.0
  0
ARC
  5
54D4
102
{ACAD_REACTORS
330
559E
102
}
330
A
100
AcDbEntity
  8
HIDDEN
100
AcDbCircle
 10
1023.053162112847
 20
1573.241655114566
 30
0.0
 40
4.000000000000014
100
AcDbArc
 50
270.0
 51
358.4999999997757
  0
LINE
  5
54D5
102
{ACAD_REACTORS
330
559E
102
}
330
A
100
AcDbEntity
  8
HIDDEN
100
AcDbLine
 10
1023.053162112847
 20
1569.241655114566
 30
0.0
 11
957.0490514218395
 21
1569.241655114565
 31
0.0
  0
LINE
  5
54D6
102
{ACAD_REACTORS
330
559E
102
}
330
A
100
AcDbEntity
  8
HIDDEN
100
AcDbLine
 10
957.0490514218395
 20
1569.241655114565
 30
0.0
 11
302.2930859477488
 21
1569.241655114557
 31
0.0
  0
ARC
  5
54D7
102
{ACAD_REACTORS
330
559E
102
}
330
A
100
AcDbEntity
  8
HIDDEN
100
AcDbCircle
 10
236.2889752567276
 20
1573.241655114556
 30
0.0
 40
4.0
100
AcDbArc
 50
181.5000000002112
 51
270.0
  0
LINE
  5
54D8
102
{ACAD_REACTORS
330
559E
102
}
330
A
100
AcDbEntity
  8
HIDDEN
100
AcDbLine
 10
302.2930859477488
 20
1569.241655114557
 30
0.0
 11
236.2889752567276
 21
1569.241655114556
 31
0.0
  0
SPLINE
  5
54D9
102
{ACAD_REACTORS
330
559E
102
}
330
A
100
AcDbEntity
  8
HIDDEN
100
AcDbSpline
210
0.0
220
0.0
230
1.0
 70
     8
 71
     7
 72
    31
 73
    23
 74
     0
 42
0.000000001
 43
0.0000000001
 40
0.0528621970120751
 40
0.0528621970120751
 40
0.0528621970120751
 40
0.0528621970120751
 40
0.0528621970120751
 40
0.0528621970120751
 40
0.0528621970120751
 40
0.0528621970120751
 40
0.144144
 40
0.144144
 40
0.144144
 40
0.144144
 40
0.144144
 40
0.1843190058221613
 40
0.1843190058221613
 40
0.1843190058221613
 40
0.1843190058221613
 40
0.1843190058221613
 40
0.2039375520000001
 40
0.2039375520000001
 40
0.2039375520000001
 40
0.2039375520000001
 40
0.2039375520000001
 40
0.4101092416854829
 40
0.4101092416854829
 40
0.4101092416854829
 40
0.4101092416854829
 40
0.4101092416854829
 40
0.4101092416854829
 40
0.4101092416854829
 40
0.4101092416854829
 10
949.2759453006147
 20
1569.241655114565
 30
0.0
 10
947.1497753940926
 20
1567.448323058726
 30
0.0
 10
944.9609697425176
 20
1565.750200808171
 30
0.0
 10
942.7205488982577
 20
1564.135849418687
 30
0.0
 10
940.4299680399554
 20
1562.59103432639
 30
0.0
 10
938.0833050312358
 20
1561.103023422652
 30
0.0
 10
934.6116212421766
 20
1559.025958963261
 30
0.0
 10
930.9897827411769
 20
1557.026852591828
 30
0.0
 10
929.8681719198494
 20
1556.422480763323
 30
0.0
 10
928.7311497581686
 20
1555.82409777422
 30
0.0
 10
927.5780753593717
 20
1555.231212477032
 30
0.0
 10
925.8372802405938
 20
1554.356439535886
 30
0.0
 10
924.0590476335483
 20
1553.492463470748
 30
0.0
 10
923.4715309163284
 20
1553.210121435738
 30
0.0
 10
922.8799132272825
 20
1552.928888674962
 30
0.0
 10
922.2841737735425
 20
1552.648748021434
 30
0.0
 10
915.3802327388107
 20
1549.437037946655
 30
0.0
 10
907.9284675425006
 20
1546.367411101949
 30
0.0
 10
900.6639031105296
 20
1543.674437786056
 30
0.0
 10
893.0459566037166
 20
1541.136987334628
 30
0.0
 10
885.2429847893218
 20
1538.78084942612
 30
0.0
 10
877.4040522584974
 20
1536.612739976943
 30
0.0
 10
869.5868170531166
 20
1534.618685979013
 30
0.0
  0
SPLINE
  5
54DA
102
{ACAD_REACTORS
330
559E
102
}
330
A
100
AcDbEntity
  8
HIDDEN
100
AcDbSpline
210
0.0
220
0.0
230
1.0
 70
     8
 71
     7
 72
    31
 73
    23
 74
     0
 42
0.000000001
 43
0.0000000001
 40
0.052862197012135
 40
0.052862197012135
 40
0.052862197012135
 40
0.052862197012135
 40
0.052862197012135
 40
0.052862197012135
 40
0.052862197012135
 40
0.052862197012135
 40
0.144144
 40
0.144144
 40
0.144144
 40
0.144144
 40
0.144144
 40
0.1843190058221613
 40
0.1843190058221613
 40
0.1843190058221613
 40
0.1843190058221613
 40
0.1843190058221613
 40
0.2039375520000001
 40
0.2039375520000001
 40
0.2039375520000001
 40
0.2039375520000001
 40
0.2039375520000001
 40
0.4101092416854832
 40
0.4101092416854832
 40
0.4101092416854832
 40
0.4101092416854832
 40
0.4101092416854832
 40
0.4101092416854832
 40
0.4101092416854832
 40
0.4101092416854832
 10
310.066192068974
 20
1569.241655114557
 30
0.0
 10
312.1923619754957
 20
1567.44832305872
 30
0.0
 10
314.3811676270702
 20
1565.750200808167
 30
0.0
 10
316.6215884713306
 20
1564.135849418685
 30
0.0
 10
318.9121693296324
 20
1562.591034326389
 30
0.0
 10
321.2588323383384
 20
1561.103023422651
 30
0.0
 10
324.7305161274121
 20
1559.025958963261
 30
0.0
 10
328.3523546283973
 20
1557.026852591828
 30
0.0
 10
329.4739654497239
 20
1556.422480763325
 30
0.0
 10
330.6109876114056
 20
1555.824097774221
 30
0.0
 10
331.7640620102025
 20
1555.231212477033
 30
0.0
 10
333.5048571289803
 20
1554.356439535886
 30
0.0
 10
335.283089736025
 20
1553.49246347075
 30
0.0
 10
335.8706064532594
 20
1553.210121435738
 30
0.0
 10
336.4622241423053
 20
1552.928888674963
 30
0.0
 10
337.0579635960453
 20
1552.648748021436
 30
0.0
 10
343.9619046307776
 20
1549.437037946656
 30
0.0
 10
351.4136698270736
 20
1546.36741110195
 30
0.0
 10
358.6782342590445
 20
1543.674437786057
 30
0.0
 10
366.2961807658717
 20
1541.136987334629
 30
0.0
 10
374.0991525802524
 20
1538.780849426119
 30
0.0
 10
381.9380851110759
 20
1536.612739976943
 30
0.0
 10
389.7553203164566
 20
1534.618685979013
 30
0.0
  0
SPLINE
  5
54DB
102
{ACAD_REACTORS
330
559E
102
}
330
A
100
AcDbEntity
  8
HIDDEN
100
AcDbSpline
210
0.0
220
0.0
230
1.0
 70
     8
 71
     3
 72
    15
 73
    11
 74
     0
 42
0.000000001
 43
0.0000000001
 40
96.25788591380363
 40
96.25788591380363
 40
96.25788591380363
 40
96.25788591380363
 40
96.41683535938908
 40
97.69694639950198
 40
100.3987244158665
 40
103.1286682481635
 40
104.867177728493
 40
106.6088544029707
 40
108.3535895411376
 40
110.1011938105128
 40
110.1011938105128
 40
110.1011938105128
 40
110.1011938105128
 10
398.5326188199829
 20
1532.467069968576
 30
0.0
 10
398.532619963094
 20
1532.467074880283
 30
0.0
 10
398.530702312753
 20
1532.467567029489
 30
0.0
 10
398.3331647316513
 20
1532.513875682456
 30
0.0
 10
397.2213114828478
 20
1532.77795096408
 30
0.0
 10
397.1585163948907
 20
1532.791453780427
 30
0.0
 10
394.7617517431786
 20
1533.369088311678
 30
0.0
 10
393.1581732198242
 20
1533.76323948576
 30
0.0
 10
391.4420673097916
 20
1534.190585782614
 30
0.0
 10
390.3197803193611
 20
1534.474701092299
 30
0.0
 10
389.7553203164566
 20
1534.618685979013
 30
0.0
  0
SPLINE
  5
54DC
102
{ACAD_REACTORS
330
559E
102
}
330
A
100
AcDbEntity
  8
HIDDEN
100
AcDbSpline
210
0.0
220
0.0
230
1.0
 70
     8
 71
     3
 72
    82
 73
    78
 74
     0
 42
0.000000001
 43
0.0000000001
 40
0.0
 40
0.0
 40
0.0
 40
0.0
 40
1.096509018765199
 40
2.195664905965029
 40
3.297090685793342
 40
4.400426522210902
 40
5.505330491440885
 40
6.611479182693337
 40
7.718568118273775
 40
8.826311984467026
 40
9.94255659178245
 40
11.0592657160212
 40
12.17621772518724
 40
13.29320911015041
 40
14.41005143985086
 40
16.64261256795903
 40
17.75803326219481
 40
21.09992804053682
 40
23.32288013632652
 40
24.43265992969614
 40
25.54125002737334
 40
26.64862222809223
 40
27.74165984519531
 40
28.83301086880446
 40
29.92267200067099
 40
32.09696471035747
 40
33.18164170955573
 40
34.26471878664043
 40
35.34624204274442
 40
36.40056480964873
 40
37.45273925018803
 40
38.50281942379873
 40
39.5508666073207
 40
40.59694889764698
 40
41.64114081452931
 40
42.683522903876
 40
43.72418134188244
 40
44.74676250094952
 40
45.7673060896396
 40
46.78590379123511
 40
47.80265159937022
 40
48.80722799701708
 40
49.80985151090236
 40
50.81062419677188
 40
51.80965119349761
 40
52.79613082319705
 40
53.7807767391129
 40
54.7636976375662
 40
55.7450042078023
 40
57.68416364806244
 40
59.61722921220606
 40
61.52421528461151
 40
63.42594205928816
 40
65.30854684711365
 40
67.18712552924006
 40
68.91585593856641
 40
70.64242527977446
 40
72.36888403032611
 40
74.09501535756029
 40
75.16336430256874
 40
76.23279646127965
 40
77.30347083447249
 40
78.37553850803268
 40
79.60406461645049
 40
80.83857796844423
 40
82.07924253813478
 40
83.32620818876285
 40
84.66044967171075
 40
86.00432969465254
 40
87.98950509042099
 40
88.97619898381933
 40
89.95899291805318
 40
91.2464829969462
 40
92.53899482811738
 40
93.836663468
 40
95.13960412902703
 40
96.25788591380363
 40
96.25788591380363
 40
96.25788591380363
 40
96.25788591380363
 10
480.4822832733475
 20
1518.394217604223
 30
0.0
 10
480.1249293384312
 20
1518.438235146615
 30
0.0
 10
479.4154367058941
 20
1518.525976295643
 30
0.0
 10
478.3464783577215
 20
1518.659223277769
 30
0.0
 10
477.2776515377041
 20
1518.793520631431
 30
0.0
 10
476.2077526098724
 20
1518.929027339593
 30
0.0
 10
475.1376652700415
 20
1519.065642904391
 30
0.0
 10
474.0673077166571
 20
1519.203387999554
 30
0.0
 10
472.9982626221313
 20
1519.342063628058
 30
0.0
 10
471.9236893622578
 20
1519.482577083379
 30
0.0
 10
470.860851434481
 20
1519.622668175646
 30
0.0
 10
469.7932546342922
 20
1519.764506737697
 30
0.0
 10
468.7281520963584
 20
1519.907146643774
 30
0.0
 10
467.664588168554
 20
1520.050716517592
 30
0.0
 10
466.2495278473211
 20
1520.243258115919
 30
0.0
 10
464.8388552764222
 20
1520.437496585823
 30
0.0
 10
462.7312697654265
 20
1520.731161287511
 30
0.0
 10
460.6358467384994
 20
1521.027764048015
 30
0.0
 10
458.5531423714124
 20
1521.328417810769
 30
0.0
 10
457.1727108827758
 20
1521.530045247848
 30
0.0
 10
456.1399483349519
 20
1521.682077458061
 30
0.0
 10
455.1207135488362
 20
1521.833282790494
 30
0.0
 10
454.0878350174894
 20
1521.987707995969
 30
0.0
 10
453.0682310398984
 20
1522.141344641889
 30
0.0
 10
451.7129508584617
 20
1522.347144122157
 30
0.0
 10
450.3644196337113
 20
1522.554307803282
 30
0.0
 10
449.0234056766635
 20
1522.762709151714
 30
0.0
 10
448.0196067128559
 20
1522.919916950811
 30
0.0
 10
447.037636211418
 20
1523.074875702528
 30
0.0
 10
446.0306446122845
 20
1523.235003821207
 30
0.0
 10
445.0447745471752
 20
1523.392989407378
 30
0.0
 10
444.0600602302434
 20
1523.55198987948
 30
0.0
 10
443.079725623887
 20
1523.711494742818
 30
0.0
 10
442.1026822306007
 20
1523.871676461589
 30
0.0
 10
441.129796741006
 20
1524.032389469995
 30
0.0
 10
440.158382684021
 20
1524.194085918009
 30
0.0
 10
439.2030046968134
 20
1524.354309134231
 30
0.0
 10
438.2286553120643
 20
1524.518955049968
 30
0.0
 10
437.2701056559304
 20
1524.682170075477
 30
0.0
 10
436.3115717527976
 20
1524.846617447435
 30
0.0
 10
435.3647235064996
 20
1525.010283788109
 30
0.0
 10
434.4064333461715
 20
1525.177180943919
 30
0.0
 10
433.4592890475465
 20
1525.343390624512
 30
0.0
 10
432.5124068705186
 20
1525.510810212746
 30
0.0
 10
431.5770872548451
 20
1525.677426862411
 30
0.0
 10
430.6292501874555
 20
1525.847547951496
 30
0.0
 10
429.6924562788331
 20
1526.016963256849
 30
0.0
 10
428.755968863115
 20
1526.187600584642
 30
0.0
 10
427.5221225863202
 20
1526.414104594648
 30
0.0
 10
425.9605478734879
 20
1526.704019998693
 30
0.0
 10
424.1252368602577
 20
1527.049906733014
 30
0.0
 10
422.2631894317306
 20
1527.406147953357
 30
0.0
 10
420.4362824100676
 20
1527.760981148746
 30
0.0
 10
418.5901184467943
 20
1528.124993740824
 30
0.0
 10
416.8133201248561
 20
1528.480679914514
 30
0.0
 10
415.0691770097033
 20
1528.834947279417
 30
0.0
 10
413.3786587447826
 20
1529.183227949457
 30
0.0
 10
411.69465284649
 20
1529.535064541611
 30
0.0
 10
410.2098644110661
 20
1529.849771045115
 30
0.0
 10
408.9836604442385
 20
1530.112646272006
 30
0.0
 10
407.9562851680962
 20
1530.334820358658
 30
0.0
 10
406.9459090309824
 20
1530.555168543741
 30
0.0
 10
405.8279263646541
 20
1530.801278327927
 30
0.0
 10
404.903665485122
 20
1531.006537838701
 30
0.0
 10
403.8557173784206
 20
1531.241224422685
 30
0.0
 10
402.8746400631931
 20
1531.462733178885
 30
0.0
 10
401.6844846913004
 20
1531.734365568427
 30
0.0
 10
401.1936060344156
 20
1531.847057915933
 30
0.0
 10
399.6267812555302
 20
1532.209552562078
 30
0.0
 10
401.7009647619266
 20
1531.730279875788
 30
0.0
 10
402.3900246574772
 20
1531.57317189529
 30
0.0
 10
403.8013358252788
 20
1531.253337375048
 30
0.0
 10
401.9400834558905
 20
1531.675218264377
 30
0.0
 10
401.0167935672503
 20
1531.888033208992
 30
0.0
 10
399.9061901104574
 20
1532.144641651563
 30
0.0
 10
398.5097713077698
 20
1532.4722598665
 30
0.0
 10
398.532610777736
 20
1532.46703541247
 30
0.0
 10
398.5326188199829
 20
1532.467069968576
 30
0.0
  0
SPLINE
  5
54DE
102
{ACAD_REACTORS
330
559E
102
}
330
A
100
AcDbEntity
  8
HIDDEN
100
AcDbSpline
210
0.0
220
0.0
230
1.0
 70
     8
 71
     3
 72
    21
 73
    17
 74
     0
 42
0.000000001
 43
0.0000000001
 40
0.0
 40
0.0
 40
0.0
 40
0.0
 40
2.167744598167307
 40
4.443941552862535
 40
6.857013984021166
 40
9.429449068036021
 40
12.17548666756676
 40
15.10069081908132
 40
18.20294221123133
 40
21.47377423386762
 40
24.44210654285362
 40
27.51572736505237
 40
30.68112957897292
 40
37.22783034813909
 40
40.57857664554047
 40
43.28833998078244
 40
43.28833998078244
 40
43.28833998078244
 40
43.28833998078244
 10
553.7961820495252
 20
1512.855033186124
 30
0.0
 10
522.8261322076719
 20
1513.91874494439
 30
0.0
 10
521.3272844249436
 20
1514.053880010659
 30
0.0
 10
519.0611041769876
 20
1514.261649848213
 30
0.0
 10
516.6480964157813
 20
1514.486729497604
 30
0.0
 10
514.0833260978975
 20
1514.730445007015
 30
0.0
 10
511.3479961716362
 20
1514.995530539817
 30
0.0
 10
508.437791332311
 20
1515.283545559816
 30
0.0
 10
505.3540899249633
 20
1515.59559772327
 30
0.0
 10
502.2568722138963
 20
1515.916480553926
 30
0.0
 10
499.1699061893446
 20
1516.243759286537
 30
0.0
 10
496.1186640966912
 20
1516.574541645142
 30
0.0
 10
491.8827363807209
 20
1517.044437583292
 30
0.0
 10
487.5569223170601
 20
1517.541675604532
 30
0.0
 10
483.3840769281373
 20
1518.039257626029
 30
0.0
 10
481.3787618003112
 20
1518.283792602607
 30
0.0
 10
480.4822832718633
 20
1518.394217592115
 30
0.0
  0
SPLINE
  5
54DF
102
{ACAD_REACTORS
330
559E
102
}
330
A
100
AcDbEntity
  8
HIDDEN
100
AcDbSpline
210
0.0
220
0.0
230
1.0
 70
     8
 71
     3
 72
    15
 73
    11
 74
     0
 42
0.000000001
 43
0.0000000001
 40
96.25788591431562
 40
96.25788591431562
 40
96.25788591431562
 40
96.25788591431562
 40
96.41683535938922
 40
97.69694639950215
 40
100.3987244158666
 40
103.1286682481636
 40
104.8671777284931
 40
106.6088544029708
 40
108.3535895411378
 40
110.1011938105131
 40
110.1011938105131
 40
110.1011938105131
 40
110.1011938105131
 10
860.8095185495904
 20
1532.467069968575
 30
0.0
 10
860.8095174064947
 20
1532.467074880283
 30
0.0
 10
860.8114350568358
 20
1532.467567029495
 30
0.0
 10
861.0089726379229
 20
1532.513875682455
 30
0.0
 10
862.1208258867409
 20
1532.777950964079
 30
0.0
 10
862.1836209746825
 20
1532.791453780427
 30
0.0
 10
864.5803856263956
 20
1533.369088311676
 30
0.0
 10
866.18396414975
 20
1533.76323948576
 30
0.0
 10
867.9000700597826
 20
1534.190585782614
 30
0.0
 10
869.0223570502126
 20
1534.474701092298
 30
0.0
 10
869.5868170531166
 20
1534.618685979012
 30
0.0
  0
SPLINE
  5
54E0
102
{ACAD_REACTORS
330
559E
102
}
330
A
100
AcDbEntity
  8
HIDDEN
100
AcDbSpline
210
0.0
220
0.0
230
1.0
 70
     8
 71
     3
 72
    82
 73
    78
 74
     0
 42
0.000000001
 43
0.0000000001
 40
0.0
 40
0.0
 40
0.0
 40
0.0
 40
1.096509018765168
 40
2.195664905965001
 40
3.297090685793314
 40
4.40042652221087
 40
5.505330491440826
 40
6.611479182693278
 40
7.718568118273687
 40
8.826311984466965
 40
9.942556591782358
 40
11.05926571602111
 40
12.17621772518711
 40
13.29320911015029
 40
14.41005143985073
 40
16.64261256795887
 40
17.75803326219462
 40
21.0999280405366
 40
23.32288013632633
 40
24.43265992969592
 40
25.54125002737311
 40
26.64862222809199
 40
27.74165984519506
 40
28.83301086880418
 40
29.92267200067071
 40
32.09696471035715
 40
33.18164170955541
 40
34.2647187866401
 40
35.34624204274407
 40
36.40056480964841
 40
37.45273925018775
 40
38.50281942379841
 40
39.55086660732039
 40
40.59694889764664
 40
41.64114081452897
 40
42.68352290387566
 40
43.72418134188211
 40
44.74676250094915
 40
45.76730608963923
 40
46.78590379123478
 40
47.80265159936986
 40
48.80722799701672
 40
49.80985151090206
 40
50.81062419677151
 40
51.80965119349727
 40
52.79613082319671
 40
53.78077673911254
 40
54.76369763756587
 40
55.74500420780195
 40
57.68416364806211
 40
59.61722921220573
 40
61.52421528461119
 40
63.42594205928784
 40
65.3085468471133
 40
67.18712552923972
 40
68.9158559385661
 40
70.64242527977417
 40
72.36888403032586
 40
74.09501535756
 40
75.16336430256851
 40
76.23279646127942
 40
77.3034708344723
 40
78.3755385080325
 40
79.60406461645033
 40
80.83857796844408
 40
82.07924253813465
 40
83.32620818876278
 40
84.66044967171067
 40
86.00432969465247
 40
87.98950509042098
 40
88.97619898381933
 40
89.95899291805324
 40
91.24648299694628
 40
92.5389948281175
 40
93.83666346800013
 40
95.1396041290272
 40
96.25788591431562
 40
96.25788591431562
 40
96.25788591431562
 40
96.25788591431562
 10
778.8598540962266
 20
1518.394217604222
 30
0.0
 10
779.217208031143
 20
1518.438235146615
 30
0.0
 10
779.9267006636796
 20
1518.525976295643
 30
0.0
 10
780.9956590118663
 20
1518.659223277768
 30
0.0
 10
782.0644858318847
 20
1518.793520631429
 30
0.0
 10
783.1343847597018
 20
1518.929027339592
 30
0.0
 10
784.2044720995464
 20
1519.065642904391
 30
0.0
 10
785.2748296529167
 20
1519.203387999553
 30
0.0
 10
786.3438747474429
 20
1519.342063628057
 30
0.0
 10
787.4184480073154
 20
1519.482577083377
 30
0.0
 10
788.4812859350927
 20
1519.622668175646
 30
0.0
 10
789.548882735282
 20
1519.764506737697
 30
0.0
 10
790.6139852732294
 20
1519.907146643773
 30
0.0
 10
791.6775492010197
 20
1520.050716517591
 30
0.0
 10
793.0926095222676
 20
1520.243258115919
 30
0.0
 10
794.5032820931656
 20
1520.437496585822
 30
0.0
 10
796.6108676041476
 20
1520.73116128751
 30
0.0
 10
798.7062906310885
 20
1521.027764048014
 30
0.0
 10
800.7889949981618
 20
1521.328417810769
 30
0.0
 10
802.1694264868129
 20
1521.530045247848
 30
0.0
 10
803.2021890346214
 20
1521.682077458061
 30
0.0
 10
804.2214238207375
 20
1521.833282790493
 30
0.0
 10
805.2543023520848
 20
1521.987707995967
 30
0.0
 10
806.2739063296758
 20
1522.141344641888
 30
0.0
 10
807.6291865111116
 20
1522.347144122157
 30
0.0
 10
808.9777177358765
 20
1522.554307803281
 30
0.0
 10
810.3187316929107
 20
1522.762709151714
 30
0.0
 10
811.3225306567329
 20
1522.919916950811
 30
0.0
 10
812.3045011581708
 20
1523.074875702526
 30
0.0
 10
813.3114927572897
 20
1523.235003821207
 30
0.0
 10
814.2973628224127
 20
1523.392989407377
 30
0.0
 10
815.2820771393308
 20
1523.55198987948
 30
0.0
 10
816.2624117457017
 20
1523.711494742818
 30
0.0
 10
817.2394551389725
 20
1523.871676461588
 30
0.0
 10
818.2123406285828
 20
1524.032389469995
 30
0.0
 10
819.1837546855677
 20
1524.194085918007
 30
0.0
 10
820.1391326727608
 20
1524.354309134231
 30
0.0
 10
821.1134820575098
 20
1524.518955049968
 30
0.0
 10
822.0720317136438
 20
1524.682170075476
 30
0.0
 10
823.0305656167766
 20
1524.846617447435
 30
0.0
 10
823.9774138630746
 20
1525.010283788108
 30
0.0
 10
824.9357040234026
 20
1525.177180943919
 30
0.0
 10
825.8828483220277
 20
1525.343390624511
 30
0.0
 10
826.8297304990556
 20
1525.510810212746
 30
0.0
 10
827.7650501147286
 20
1525.677426862411
 30
0.0
 10
828.7128871821187
 20
1525.847547951495
 30
0.0
 10
829.6496810907556
 20
1526.016963256847
 30
0.0
 10
830.5861685064738
 20
1526.18760058464
 30
0.0
 10
831.8200147832677
 20
1526.414104594648
 30
0.0
 10
833.3815894960853
 20
1526.704019998692
 30
0.0
 10
835.2169005093156
 20
1527.049906733013
 30
0.0
 10
837.0789479378436
 20
1527.406147953355
 30
0.0
 10
838.9058549595056
 20
1527.760981148745
 30
0.0
 10
840.7520189227798
 20
1528.124993740824
 30
0.0
 10
842.5288172447176
 20
1528.480679914512
 30
0.0
 10
844.2729603598709
 20
1528.834947279417
 30
0.0
 10
845.9634786247916
 20
1529.183227949456
 30
0.0
 10
847.6474845230837
 20
1529.535064541611
 30
0.0
 10
849.1322729585077
 20
1529.849771045114
 30
0.0
 10
850.3584769253357
 20
1530.112646272006
 30
0.0
 10
851.3858522014775
 20
1530.334820358657
 30
0.0
 10
852.3962283385918
 20
1530.55516854374
 30
0.0
 10
853.5142110049346
 20
1530.801278327926
 30
0.0
 10
854.4384718844667
 20
1531.006537838699
 30
0.0
 10
855.4864199911676
 20
1531.241224422683
 30
0.0
 10
856.4674973063807
 20
1531.462733178885
 30
0.0
 10
857.6576526782874
 20
1531.734365568427
 30
0.0
 10
858.1485313351586
 20
1531.847057915932
 30
0.0
 10
859.7153561140576
 20
1532.209552562077
 30
0.0
 10
857.6411726076476
 20
1531.730279875787
 30
0.0
 10
856.9521127120966
 20
1531.573171895289
 30
0.0
 10
855.5408015443099
 20
1531.253337375047
 30
0.0
 10
857.4020539136836
 20
1531.675218264376
 30
0.0
 10
858.3253438023239
 20
1531.888033208992
 30
0.0
 10
859.4359472591168
 20
1532.144641651563
 30
0.0
 10
860.8323660620076
 20
1532.472259866543
 30
0.0
 10
860.8095265918373
 20
1532.467035412468
 30
0.0
 10
860.8095185495904
 20
1532.467069968575
 30
0.0
  0
SPLINE
  5
54E2
102
{ACAD_REACTORS
330
559E
102
}
330
A
100
AcDbEntity
  8
HIDDEN
100
AcDbSpline
210
0.0
220
0.0
230
1.0
 70
     8
 71
     3
 72
    21
 73
    17
 74
     0
 42
0.000000001
 43
0.0000000001
 40
0.0
 40
0.0
 40
0.0
 40
0.0
 40
2.16774459816735
 40
4.443941552862635
 40
6.85701398402131
 40
9.429449068036234
 40
12.17548666756706
 40
15.10069081908169
 40
18.20294221123179
 40
21.47377423386816
 40
24.44210654285453
 40
27.51572736505369
 40
30.6811295789746
 40
37.2278303481416
 40
40.57857664554341
 40
43.28833998078243
 40
43.28833998078243
 40
43.28833998078243
 40
43.28833998078243
 10
705.5459657081365
 20
1512.855033186124
 30
0.0
 10
736.5160051619014
 20
1513.91874494439
 30
0.0
 10
738.0148529446446
 20
1514.053880010659
 30
0.0
 10
740.2810331925866
 20
1514.261649848213
 30
0.0
 10
742.6940409537929
 20
1514.486729497603
 30
0.0
 10
745.2588112716767
 20
1514.730445007015
 30
0.0
 10
747.9941411979376
 20
1514.995530539817
 30
0.0
 10
750.9043460372777
 20
1515.283545559816
 30
0.0
 10
753.9880474446109
 20
1515.59559772327
 30
0.0
 10
757.0852651556916
 20
1515.916480553926
 30
0.0
 10
760.1722311802437
 20
1516.243759286537
 30
0.0
 10
763.2234732728825
 20
1516.574541645141
 30
0.0
 10
767.4594009888524
 20
1517.044437583292
 30
0.0
 10
771.7852150525287
 20
1517.541675604531
 30
0.0
 10
775.9580604414505
 20
1518.039257626029
 30
0.0
 10
777.9633755692626
 20
1518.283792602607
 30
0.0
 10
778.8598540977246
 20
1518.394217592114
 30
0.0
  0
SPLINE
  5
54E3
102
{ACAD_REACTORS
330
559E
102
}
330
A
100
AcDbEntity
  8
HIDDEN
100
AcDbSpline
210
0.0
220
0.0
230
1.0
 70
     8
 71
     3
 72
    13
 73
     9
 74
     0
 42
0.000000001
 43
0.0000000001
 40
1.060134712406323
 40
1.060134712406323
 40
1.060134712406323
 40
1.060134712406323
 40
1.186123817823477
 40
1.754376207240397
 40
2.334305057604855
 40
2.940456312602331
 40
3.534866243115607
 40
4.766023527697731
 40
4.766023527697731
 40
4.766023527697731
 40
4.766023527697731
 10
1024.861969448684
 20
1679.241747932503
 30
0.0
 10
1024.85766670623
 20
1679.241744832219
 30
0.0
 10
1024.828811023879
 20
1679.241713446323
 30
0.0
 10
1024.865429356039
 20
1679.241750650012
 30
0.0
 10
1024.855892413412
 20
1679.24174488176
 30
0.0
 10
1024.829743124646
 20
1679.241750721927
 30
0.0
 10
1024.819033679945
 20
1679.241735165704
 30
0.0
 10
1024.777559130423
 20
1679.241750618444
 30
0.0
 10
1024.757511903692
 20
1679.241743876043
 30
0.0
  0
SPLINE
  5
54E4
102
{ACAD_REACTORS
330
559E
102
}
330
A
100
AcDbEntity
  8
HIDDEN
100
AcDbSpline
210
0.0
220
0.0
230
1.0
 70
     8
 71
     3
 72
    13
 73
     9
 74
     0
 42
0.000000001
 43
0.0000000001
 40
1.060134712406323
 40
1.060134712406323
 40
1.060134712406323
 40
1.060134712406323
 40
1.186123817823477
 40
1.754376207240397
 40
2.334305057604855
 40
2.940456312602331
 40
3.534866243115607
 40
4.766023527697731
 40
4.766023527697731
 40
4.766023527697731
 40
4.766023527697731
 10
234.4801679208899
 20
1679.241747932503
 30
0.0
 10
234.4844706633444
 20
1679.24174483222
 30
0.0
 10
234.5133263456951
 20
1679.241713446323
 30
0.0
 10
234.4767080135348
 20
1679.241750650013
 30
0.0
 10
234.4862449561765
 20
1679.241744881761
 30
0.0
 10
234.5123942449277
 20
1679.241750721927
 30
0.0
 10
234.5231036896289
 20
1679.241735165704
 30
0.0
 10
234.5645782391507
 20
1679.241750618444
 30
0.0
 10
234.5846254658823
 20
1679.241743876043
 30
0.0
  0
ARC
  5
54E5
102
{ACAD_REACTORS
330
559E
102
}
330
A
100
AcDbEntity
  8
HIDDEN
100
AcDbCircle
 10
660.9219895102137
 20
1501.412524770285
 30
0.0
 40
2.999999999999998
100
AcDbArc
 50
270.0
 51
354.9999999997997
  0
LINE
  5
54E6
102
{ACAD_REACTORS
330
559E
102
}
330
A
100
AcDbEntity
  8
HIDDEN
100
AcDbLine
 10
663.9105736044876
 20
1501.151057542044
 30
0.0
 11
664.9345387915237
 21
1512.855033186124
 31
0.0
  0
LINE
  5
54E8
102
{ACAD_REACTORS
330
559E
102
}
330
A
100
AcDbEntity
  8
HIDDEN
100
AcDbLine
 10
705.5459657081365
 20
1512.855033186124
 30
0.0
 11
553.7961820495252
 21
1512.855033186124
 31
0.0
  0
SPLINE
  5
54EA
102
{ACAD_REACTORS
330
559E
102
}
330
A
100
AcDbEntity
  8
HIDDEN
100
AcDbSpline
210
0.0
220
0.0
230
1.0
 70
     8
 71
     3
 72
    11
 73
     7
 74
     0
 42
0.000000001
 43
0.0000000001
 40
0.0
 40
0.0
 40
0.0
 40
0.0
 40
0.8354578622942017
 40
1.540375228427474
 40
2.180011864275757
 40
2.819521028192161
 40
2.819521028192161
 40
2.819521028192161
 40
2.819521028192161
 10
1029.673127923321
 20
1673.24174995865
 30
0.0
 10
1029.680406801533
 20
1673.519719103333
 30
0.0
 10
1029.693776466258
 20
1674.033395763925
 30
0.0
 10
1029.681569303153
 20
1674.760078486466
 30
0.0
 10
1029.629941417195
 20
1675.419777161091
 30
0.0
 10
1029.564693208813
 20
1675.84163058193
 30
0.0
 10
1029.522136140207
 20
1676.050450540144
 30
0.0
  0
SPLINE
  5
54EB
102
{ACAD_REACTORS
330
559E
102
}
330
A
100
AcDbEntity
  8
HIDDEN
100
AcDbSpline
210
0.0
220
0.0
230
1.0
 70
     8
 71
     3
 72
    11
 73
     7
 74
     0
 42
0.000000001
 43
0.0000000001
 40
0.0
 40
0.0
 40
0.0
 40
0.0
 40
0.8354578622942017
 40
1.540375228427474
 40
2.180011864275757
 40
2.819521028192161
 40
2.819521028192161
 40
2.819521028192161
 40
2.819521028192161
 10
229.6690094462679
 20
1673.24174995865
 30
0.0
 10
229.6617305680406
 20
1673.519719103333
 30
0.0
 10
229.6483609033162
 20
1674.033395763925
 30
0.0
 10
229.6605680664211
 20
1674.760078486466
 30
0.0
 10
229.7121959523788
 20
1675.419777161092
 30
0.0
 10
229.7774441607612
 20
1675.84163058193
 30
0.0
 10
229.8200012293669
 20
1676.050450540144
 30
0.0
  0
LINE
  5
54EC
102
{ACAD_REACTORS
330
559D
102
}
330
A
100
AcDbEntity
  8
HIDDEN
100
AcDbLine
 10
1726.287726700757
 20
1679.241726787763
 30
0.0
 11
1355.642699263089
 21
1679.241776478843
 31
0.0
  0
LINE
  5
54ED
102
{ACAD_REACTORS
330
559D
102
}
330
A
100
AcDbEntity
  8
HIDDEN
100
AcDbLine
 10
1366.18134168464
 20
1569.241681000453
 30
0.0
 11
1429.577190690849
 21
1569.24168654271
 31
0.0
  0
ARC
  5
54EE
102
{ACAD_REACTORS
330
559D
102
}
330
A
100
AcDbEntity
  8
HIDDEN
100
AcDbCircle
 10
1670.023384150503
 20
1534.473596532671
 30
0.0
 40
15.00053227959837
100
AcDbArc
 50
93.2410905258332
 51
130.0001303895717
  0
ARC
  5
54EF
102
{ACAD_REACTORS
330
559D
102
}
330
A
100
AcDbEntity
  8
HIDDEN
 48
0.5
100
AcDbCircle
 10
1581.596277282864
 20
1534.524541255409
 30
0.0
 40
15.0
100
AcDbArc
 50
50.00000500925164
 51
86.9853301060966
  0
LINE
  5
54F0
102
{ACAD_REACTORS
330
559D
102
}
330
A
100
AcDbEntity
  8
HIDDEN
100
AcDbLine
 10
1720.491578575174
 20
1673.241817169796
 30
0.0
 11
1720.492792173867
 21
1673.241817597244
 31
0.0
  0
LINE
  5
54F1
102
{ACAD_REACTORS
330
559D
102
}
330
A
100
AcDbEntity
  8
HIDDEN
100
AcDbLine
 10
1720.492792173867
 20
1673.241817597244
 30
0.0
 11
1720.493896284177
 21
1673.241818004465
 31
0.0
  0
SPLINE
  5
54F2
102
{ACAD_REACTORS
330
559D
102
}
330
A
100
AcDbEntity
  8
HIDDEN
100
AcDbSpline
210
0.0
220
0.0
230
1.0
 70
     8
 71
     3
 72
    14
 73
    10
 74
     0
 42
0.000000001
 43
0.0000000001
 40
0.0
 40
0.0
 40
0.0
 40
0.0
 40
4.438430945365438
 40
8.092808733495133
 40
11.35523118913847
 40
14.61778340086059
 40
17.88039678143204
 40
20.15819553687219
 40
22.77677681348288
 40
22.77677681348288
 40
22.77677681348288
 40
22.77677681348288
 10
1718.857736895875
 20
1644.241783486274
 30
0.0
 10
1718.764084896071
 20
1642.768084008103
 30
0.0
 10
1718.588691589987
 20
1640.082119602916
 30
0.0
 10
1718.351068708747
 20
1636.634324451139
 30
0.0
 10
1718.159323729295
 20
1633.973505953242
 30
0.0
 10
1718.006623549722
 20
1631.93321647763
 30
0.0
 10
1717.908151114643
 20
1630.656369414197
 30
0.0
 10
1717.85378393716
 20
1629.961832774325
 30
0.0
 10
1717.842187462594
 20
1629.814967816654
 30
0.0
 10
1717.842186815106
 20
1629.814970482318
 30
0.0
  0
LINE
  5
54F4
102
{ACAD_REACTORS
330
559D
102
}
330
A
100
AcDbEntity
  8
HIDDEN
100
AcDbLine
 10
1850.839785734417
 20
1530.913943467605
 30
0.0
 11
1850.839785539981
 21
1533.138042148364
 31
0.0
  0
LINE
  5
54F5
102
{ACAD_REACTORS
330
559D
102
}
330
A
100
AcDbEntity
  8
HIDDEN
100
AcDbLine
 10
1850.839785166774
 20
1533.138042148364
 30
0.0
 11
1850.839784778107
 21
1535.778170007442
 31
0.0
  0
LINE
  5
54F6
102
{ACAD_REACTORS
330
559D
102
}
330
A
100
AcDbEntity
  8
HIDDEN
100
AcDbLine
 10
1850.839784778107
 20
1535.778170007442
 30
0.0
 11
1850.839784760662
 21
1535.909824370306
 31
0.0
  0
LINE
  5
54F7
102
{ACAD_REACTORS
330
559D
102
}
330
A
100
AcDbEntity
  8
HIDDEN
100
AcDbLine
 10
1850.839784159905
 20
1540.981846576165
 30
0.0
 11
1850.839784760662
 21
1535.909824058764
 31
0.0
  0
LINE
  5
54F8
102
{ACAD_REACTORS
330
559D
102
}
330
A
100
AcDbEntity
  8
HIDDEN
100
AcDbLine
 10
1850.839777923092
 20
1598.721801719149
 30
0.0
 11
1850.839784159905
 21
1540.981846576165
 31
0.0
  0
LINE
  5
54F9
102
{ACAD_REACTORS
330
559D
102
}
330
A
100
AcDbEntity
  8
HIDDEN
100
AcDbLine
 10
1850.839775920702
 20
1611.524665987164
 30
0.0
 11
1850.839777923092
 21
1598.721801719149
 31
0.0
  0
ARC
  5
54FA
102
{ACAD_REACTORS
330
559D
102
}
330
A
100
AcDbEntity
  8
HIDDEN
100
AcDbCircle
 10
1848.339785734419
 20
1530.91394324905
 30
0.0
 40
2.5
100
AcDbArc
 50
270.0000050091667
 51
0.0000050092500651
  0
LINE
  5
54FB
102
{ACAD_REACTORS
330
559D
102
}
330
A
100
AcDbEntity
  8
HIDDEN
100
AcDbLine
 10
1603.839781216094
 20
1498.412585738743
 30
0.0
 11
1647.839781216094
 21
1498.412589585353
 31
0.0
  0
LINE
  5
54FC
102
{ACAD_REACTORS
330
559D
102
}
330
A
100
AcDbEntity
  8
HIDDEN
 48
0.5
100
AcDbLine
 10
1648.763647828952
 20
1535.863750263294
 30
0.0
 11
1602.915908055062
 21
1535.863746255158
 31
0.0
  0
SPLINE
  5
54FD
102
{ACAD_REACTORS
330
559D
102
}
330
A
100
AcDbEntity
  8
HIDDEN
100
AcDbSpline
210
0.0
220
0.0
230
1.0
 70
     8
 71
     5
 72
    12
 73
     6
 74
     0
 42
0.000000001
 43
0.0000000001
 40
0.0
 40
0.0
 40
0.0
 40
0.0
 40
0.0
 40
0.0
 40
0.9833692212748546
 40
0.9833692212748546
 40
0.9833692212748546
 40
0.9833692212748546
 40
0.9833692212748546
 40
0.9833692212748546
 10
1350.83152688548
 20
1673.241788808433
 30
0.0
 10
1350.741097526428
 20
1674.967280882835
 30
0.0
 10
1350.670919569061
 20
1676.306353839946
 30
0.0
 10
1351.347182211079
 20
1678.006751290205
 30
0.0
 10
1351.962613624564
 20
1679.241790418486
 30
0.0
 10
1355.64203220171
 20
1679.241790903633
 30
0.0
  0
LINE
  5
54FE
102
{ACAD_REACTORS
330
559D
102
}
330
A
100
AcDbEntity
  8
HIDDEN
100
AcDbLine
 10
1591.600276056985
 20
1501.15111744049
 30
0.0
 11
1590.532750270974
 21
1513.352980723141
 31
0.0
  0
LINE
  5
54FF
102
{ACAD_REACTORS
330
559D
102
}
330
A
100
AcDbEntity
  8
HIDDEN
100
AcDbLine
 10
1660.144259970059
 20
1501.893781235327
 30
0.0
 11
1660.079285896383
 21
1501.151123427119
 31
0.0
  0
LINE
  5
5500
102
{ACAD_REACTORS
330
559D
102
}
330
A
100
AcDbEntity
  8
HIDDEN
100
AcDbLine
 10
1657.090702041518
 20
1498.41259039409
 30
0.0
 11
1647.839781216094
 21
1498.412589585353
 31
0.0
  0
LINE
  5
5501
102
{ACAD_REACTORS
330
559D
102
}
330
A
100
AcDbEntity
  8
HIDDEN
100
AcDbLine
 10
1603.839781216094
 20
1498.412585738743
 30
0.0
 11
1594.58886039067
 21
1498.412584930006
 31
0.0
  0
ARC
  5
5502
102
{ACAD_REACTORS
330
559D
102
}
330
A
100
AcDbEntity
  8
HIDDEN
100
AcDbCircle
 10
1663.13287218082
 20
1501.632309548181
 30
0.0
 40
3.00002860380356
100
AcDbArc
 50
95.02585124868041
 51
174.9999619675245
  0
ARC
  5
5503
102
{ACAD_REACTORS
330
559D
102
}
330
A
100
AcDbEntity
  8
HIDDEN
100
AcDbCircle
 10
1657.090685192909
 20
1501.412608494897
 30
0.0
 40
3.000018100859332
100
AcDbArc
 50
270.0003217830043
 51
354.9996882352369
  0
ARC
  5
5504
102
{ACAD_REACTORS
330
559D
102
}
330
A
100
AcDbEntity
  8
HIDDEN
100
AcDbCircle
 10
1594.58887671474
 20
1501.412603030827
 30
0.0
 40
3.000018100859014
100
AcDbArc
 50
185.0003217829775
 51
269.9996882351401
  0
LINE
  5
5505
102
{ACAD_REACTORS
330
559D
102
}
330
A
100
AcDbEntity
  8
HIDDEN
100
AcDbLine
 10
1350.83152688548
 20
1673.241788808433
 30
0.0
 11
1356.083289789913
 21
1573.032350598487
 31
0.0
  0
ARC
  5
5506
102
{ACAD_REACTORS
330
559D
102
}
330
A
100
AcDbEntity
  8
HIDDEN
100
AcDbCircle
 10
1360.077807910629
 20
1573.241694772676
 30
0.0
 40
3.999999999999986
100
AcDbArc
 50
183.0000050098683
 51
270.0000050089635
  0
LINE
  5
5507
102
{ACAD_REACTORS
330
559D
102
}
330
A
100
AcDbEntity
  8
HIDDEN
 48
0.5
100
AcDbLine
 10
1591.238090423614
 20
1546.015208745116
 30
0.0
 11
1602.136515055581
 21
1536.870346279628
 31
0.0
  0
LINE
  5
5508
102
{ACAD_REACTORS
330
559D
102
}
330
A
100
AcDbEntity
  8
HIDDEN
 48
0.5
100
AcDbLine
 10
1649.543040652438
 20
1536.870350424028
 30
0.0
 11
1660.381201329255
 21
1545.964648665208
 31
0.0
  0
LINE
  5
5509
102
{ACAD_REACTORS
330
559D
102
}
330
A
100
AcDbEntity
  8
HIDDEN
 48
0.5
100
AcDbLine
 10
1603.839781216094
 20
1498.412585738743
 30
0.0
 11
1603.207695508323
 21
1534.624570263217
 31
0.0
  0
LINE
  5
550A
102
{ACAD_REACTORS
330
559D
102
}
330
A
100
AcDbEntity
  8
HIDDEN
 48
0.5
100
AcDbLine
 10
1648.471860592361
 20
1534.624574220334
 30
0.0
 11
1647.839781216094
 21
1498.412589585353
 31
0.0
  0
ARC
  5
550B
102
{ACAD_REACTORS
330
559D
102
}
330
A
100
AcDbEntity
  8
HIDDEN
 48
0.5
100
AcDbCircle
 10
1651.471404931974
 20
1534.572216667252
 30
0.0
 40
3.00000125977775
100
AcDbArc
 50
130.0000159740421
 51
178.9999940444521
  0
ARC
  5
550C
102
{ACAD_REACTORS
330
559D
102
}
330
A
100
AcDbEntity
  8
HIDDEN
 48
0.5
100
AcDbCircle
 10
1600.208151177864
 20
1534.572212185669
 30
0.0
 40
3.000001259778438
100
AcDbArc
 50
1.000015973901992
 51
49.99999404405823
  0
SPLINE
  5
550D
102
{ACAD_REACTORS
330
559D
102
}
330
A
100
AcDbEntity
  8
HIDDEN
100
AcDbSpline
210
0.0
220
0.0
230
1.0
 70
     8
 71
     7
 72
    61
 73
    53
 74
     0
 42
0.000000001
 43
0.0000000001
 40
0.057771924528794
 40
0.057771924528794
 40
0.057771924528794
 40
0.057771924528794
 40
0.057771924528794
 40
0.057771924528794
 40
0.057771924528794
 40
0.057771924528794
 40
0.0972975301328526
 40
0.0972975301328526
 40
0.0972975301328526
 40
0.0972975301328526
 40
0.0972975301328526
 40
0.1248
 40
0.1248
 40
0.1248
 40
0.1248
 40
0.1248
 40
0.1843190058221613
 40
0.1843190058221613
 40
0.1843190058221613
 40
0.1843190058221613
 40
0.1843190058221613
 40
0.2623920000000001
 40
0.2623920000000001
 40
0.2623920000000001
 40
0.2623920000000001
 40
0.2623920000000001
 40
0.36073752
 40
0.36073752
 40
0.36073752
 40
0.36073752
 40
0.36073752
 40
0.4416695050444348
 40
0.4416695050444348
 40
0.4416695050444348
 40
0.4416695050444348
 40
0.4416695050444348
 40
0.4529752656000001
 40
0.4529752656000001
 40
0.4529752656000001
 40
0.4529752656000001
 40
0.4529752656000001
 40
0.78
 40
0.78
 40
0.78
 40
0.78
 40
0.78
 40
0.8214326499366187
 40
0.8214326499366187
 40
0.8214326499366187
 40
0.8214326499366187
 40
0.8214326499366187
 40
0.9430757404431614
 40
0.9430757404431614
 40
0.9430757404431614
 40
0.9430757404431614
 40
0.9430757404431614
 40
0.9430757404431614
 40
0.9430757404431614
 40
0.9430757404431614
 10
1429.577190690848
 20
1569.241686542708
 30
0.0
 10
1430.108241776746
 20
1568.476846830398
 30
0.0
 10
1430.644262696398
 20
1567.717856100103
 30
0.0
 10
1431.184467018023
 20
1566.965770535915
 30
0.0
 10
1431.727966146269
 20
1566.221687909898
 30
0.0
 10
1432.27386087435
 20
1565.486604852937
 30
0.0
 10
1433.202298678031
 20
1564.256618831539
 30
0.0
 10
1434.133487330366
 20
1563.056194411884
 30
0.0
 10
1434.515814476863
 20
1562.568791576867
 30
0.0
 10
1434.8982145782
 20
1562.086640990167
 30
0.0
 10
1435.28056200127
 20
1561.609775870619
 30
0.0
 10
1436.489977316739
 20
1560.117507678401
 30
0.0
 10
1437.698069487086
 20
1558.676714278905
 30
0.0
 10
1438.52335245649
 20
1557.714617939726
 30
0.0
 10
1439.348386159614
 20
1556.773922278111
 30
0.0
 10
1440.174282574579
 20
1555.852523591619
 30
0.0
 10
1442.088056546285
 20
1553.762822409235
 30
0.0
 10
1444.017147411858
 20
1551.758424931397
 30
0.0
 10
1445.118744604368
 20
1550.645202668531
 30
0.0
 10
1446.22883532308
 20
1549.553855935754
 30
0.0
 10
1447.347740264761
 20
1548.483706575442
 30
0.0
 10
1449.89504111696
 20
1546.113168135011
 30
0.0
 10
1452.480776144088
 20
1543.851914938585
 30
0.0
 10
1453.932227231771
 20
1542.626118870411
 30
0.0
 10
1455.390700857917
 20
1541.436377333421
 30
0.0
 10
1456.851115796448
 20
1540.285649426211
 30
0.0
 10
1459.50799571391
 20
1538.262262340608
 30
0.0
 10
1462.139329603584
 20
1536.378738569331
 30
0.0
 10
1463.319362425856
 20
1535.557672648606
 30
0.0
 10
1464.489103057321
 20
1534.766198085085
 30
0.0
 10
1465.646495779118
 20
1534.004238948825
 30
0.0
 10
1466.950133912502
 20
1533.168693400456
 30
0.0
 10
1468.236085503198
 20
1532.368918841372
 30
0.0
 10
1468.39344118218
 20
1532.271422818407
 30
0.0
 10
1468.550531173489
 20
1532.174456959607
 30
0.0
 10
1468.707356149504
 20
1532.078017294555
 30
0.0
 10
1473.392524388453
 20
1529.207633471701
 30
0.0
 10
1477.842797015228
 20
1526.800757690873
 30
0.0
 10
1481.961846590617
 20
1524.798337920658
 30
0.0
 10
1486.234012717358
 20
1522.892046922005
 30
0.0
 10
1491.12349741775
 20
1520.90624605198
 30
0.0
 10
1497.721478477533
 20
1518.682108153649
 30
0.0
 10
1505.434640556774
 20
1516.717977716211
 30
0.0
 10
1506.315929154511
 20
1516.500771411711
 30
0.0
 10
1507.210881026253
 20
1516.287638796452
 30
0.0
 10
1508.119061046411
 20
1516.079018563005
 30
0.0
 10
1511.74339193051
 20
1515.277407820557
 30
0.0
 10
1515.552969809307
 20
1514.559234952498
 30
0.0
 10
1518.480116840458
 20
1514.080862102596
 30
0.0
 10
1521.466124431669
 20
1513.6698699086
 30
0.0
 10
1524.479351569618
 20
1513.33205708281
 30
0.0
 10
1527.493952585234
 20
1513.06793402089
 30
0.0
 10
1531.356257235411
 20
1512.857477691783
 30
0.0
  0
SPLINE
  5
550E
102
{ACAD_REACTORS
330
559D
102
}
330
A
100
AcDbEntity
  8
HIDDEN
100
AcDbSpline
210
0.0
220
0.0
230
1.0
 70
     8
 71
     3
 72
    17
 73
    13
 74
     0
 42
0.000000001
 43
0.0000000001
 40
141.0045774274799
 40
141.0045774274799
 40
141.0045774274799
 40
141.0045774274799
 40
145.3097494280932
 40
150.5435875323547
 40
154.9069414655408
 40
159.7082520063685
 40
164.508350879384
 40
173.6479541749806
 40
183.1428144504829
 40
192.0830916960171
 40
200.4034007745809
 40
206.141483522712
 40
206.141483522712
 40
206.141483522712
 40
206.141483522712
 10
1722.593694574645
 20
1526.998014014359
 30
0.0
 10
1721.585878089972
 20
1525.97638355886
 30
0.0
 10
1719.268636538839
 20
1523.795829205653
 30
0.0
 10
1715.639972055386
 20
1520.906064926358
 30
0.0
 10
1711.656447168598
 20
1518.223580464068
 30
0.0
 10
1707.615914496242
 20
1515.90613324044
 30
0.0
 10
1701.991703340627
 20
1513.17878078118
 30
0.0
 10
1694.673377745958
 20
1510.414947079439
 30
0.0
 10
1685.794539939052
 20
1508.005570131414
 30
0.0
 10
1677.034500818914
 20
1506.308409999185
 30
0.0
 10
1669.437890482578
 20
1505.26311047892
 30
0.0
 10
1664.775335828947
 20
1504.788348133634
 30
0.0
 10
1662.870054055915
 20
1504.620803860862
 30
0.0
  0
LINE
  5
550F
102
{ACAD_REACTORS
330
559D
102
}
330
A
100
AcDbEntity
  8
HIDDEN
100
AcDbLine
 10
1850.839771326835
 20
1611.532491242194
 30
0.0
 11
1850.839765626062
 21
1676.741737676451
 31
0.0
  0
LINE
  5
5510
102
{ACAD_REACTORS
330
559D
102
}
330
A
100
AcDbEntity
  8
HIDDEN
100
AcDbLine
 10
1360.077808260321
 20
1569.241694772676
 30
0.0
 11
1366.181327378832
 21
1569.241695306266
 31
0.0
  0
LINE
  5
5511
102
{ACAD_REACTORS
330
559D
102
}
330
A
100
AcDbEntity
  8
HIDDEN
100
AcDbLine
 10
1726.287726700757
 20
1679.241726787763
 30
0.0
 11
1848.339765407505
 21
1679.241737457896
 31
0.0
  0
ARC
  5
5512
102
{ACAD_REACTORS
330
559D
102
}
330
A
100
AcDbEntity
  8
HIDDEN
100
AcDbCircle
 10
1848.339765626062
 20
1676.741737457881
 30
0.0
 40
2.5
100
AcDbArc
 50
0.0000050092500651
 51
90.00000500895825
  0
SPLINE
  5
5515
102
{ACAD_REACTORS
330
559D
102
}
330
A
100
AcDbEntity
  8
HIDDEN
100
AcDbSpline
210
0.0
220
0.0
230
1.0
 70
     8
 71
     3
 72
    12
 73
     8
 74
     0
 42
0.000000001
 43
0.0000000001
 40
0.0
 40
0.0
 40
0.0
 40
0.0
 40
3.843767388656473
 40
10.37739932761589
 40
14.60278378768997
 40
20.74040104328184
 40
23.53008503124657
 40
23.53008503124657
 40
23.53008503124657
 40
23.53008503124657
 10
1848.339785952985
 20
1528.41394324905
 30
0.0
 10
1743.74382354178
 20
1528.413932219179
 30
0.0
 10
1740.283553760255
 20
1528.379182696199
 30
0.0
 10
1735.490796545824
 20
1528.199120199281
 30
0.0
 10
1730.182227555889
 20
1527.845353426283
 30
0.0
 10
1726.29959735962
 20
1527.470060660682
 30
0.0
 10
1723.869292165439
 20
1527.167999257908
 30
0.0
 10
1722.593694574644
 20
1526.99801401436
 30
0.0
  0
SPLINE
  5
5517
102
{ACAD_REACTORS
330
559D
102
}
330
A
100
AcDbEntity
  8
HIDDEN
100
AcDbSpline
210
0.0
220
0.0
230
1.0
 70
     8
 71
     3
 72
    23
 73
    19
 74
     0
 42
0.000000001
 43
0.0000000001
 40
0.0
 40
0.0
 40
0.0
 40
0.0
 40
2.818461270217004
 40
7.365463641386683
 40
9.938488645196932
 40
11.65916213952704
 40
13.67699044059734
 40
14.82917915103152
 40
15.98071645522834
 40
18.29095875146279
 40
19.74015451352969
 40
22.35350776975495
 40
26.4210445398246
 40
29.90756105425493
 40
33.10425721106276
 40
34.557034596477
 40
36.29974956698224
 40
36.37142433828448
 40
36.37142433828448
 40
36.37142433828448
 40
36.37142433828448
 10
1590.532750270974
 20
1513.352980723141
 30
0.0
 10
1554.33630255853
 20
1513.352974843513
 30
0.0
 10
1551.880138185128
 20
1513.341574314809
 30
0.0
 10
1548.633311531756
 20
1513.295968938767
 30
0.0
 10
1545.883220689011
 20
1513.240896163831
 30
0.0
 10
1543.998957771388
 20
1513.197488049702
 30
0.0
 10
1542.596470012093
 20
1513.162484105504
 30
0.0
 10
1541.411188151345
 20
1513.13200476242
 30
0.0
 10
1540.190570622325
 20
1513.099081435927
 30
0.0
 10
1538.963077871765
 20
1513.0641042839
 30
0.0
 10
1537.480690989137
 20
1513.021197816723
 30
0.0
 10
1535.753946397767
 20
1512.971460438598
 30
0.0
 10
1533.968273254921
 20
1512.921956865046
 30
0.0
 10
1532.57962552099
 20
1512.885475177291
 30
0.0
 10
1531.874748840846
 20
1512.868490904193
 30
0.0
 10
1531.518394938061
 20
1512.860623016825
 30
0.0
 10
1531.399841644972
 20
1512.858309892736
 30
0.0
 10
1531.357877804108
 20
1512.857508590054
 30
0.0
 10
1531.356257235411
 20
1512.857477691783
 30
0.0
  0
SPLINE
  5
5522
102
{ACAD_REACTORS
330
559D
102
}
330
A
100
AcDbEntity
  8
HIDDEN
100
AcDbSpline
210
0.0
220
0.0
230
1.0
 70
  1064
 71
     3
 72
    40
 73
    36
 74
    34
 42
0.000000001
 43
0.0000000001
 44
0.0
 40
0.0
 40
0.0
 40
0.0
 40
0.0
 40
2.005214488966014
 40
4.511813079310055
 40
9.04057627717588
 40
29.44455622037911
 40
53.95458480271141
 40
83.42600394309208
 40
117.7254671132139
 40
153.6754463839661
 40
190.548536671181
 40
219.0194417550939
 40
239.8353464110638
 40
265.0155967175239
 40
280.7327995038942
 40
296.2740684208067
 40
319.7228300949384
 40
338.8961651282766
 40
358.5230450402064
 40
364.6765407594779
 40
374.9897719664825
 40
383.8323469761599
 40
395.6734006173234
 40
410.8991243299654
 40
427.7656326415022
 40
448.7095227886209
 40
471.3491417639093
 40
498.6553392535876
 40
513.5981638939581
 40
517.0062002995822
 40
518.9498877986372
 40
521.2604054855161
 40
523.595649928492
 40
526.4016120349041
 40
531.7908803172448
 40
531.7908803172448
 40
531.7908803172448
 40
531.7908803172448
 10
1355.642699263089
 20
1679.241776478843
 30
0.0
 10
1356.325630235976
 20
1679.207712700949
 30
0.0
 10
1357.862252334358
 20
1679.13106783354
 30
0.0
 10
1360.269194712364
 20
1676.96387905678
 30
0.0
 10
1363.002243495672
 20
1668.109407993401
 30
0.0
 10
1368.711778413044
 20
1652.729659949261
 30
0.0
 10
1380.620197427754
 20
1630.794323832029
 30
0.0
 10
1399.451715755237
 20
1607.924955059944
 30
0.0
 10
1425.781260234021
 20
1587.195858950809
 30
0.0
 10
1457.863742339297
 20
1571.077645758581
 30
0.0
 10
1490.197260178523
 20
1560.953194325288
 30
0.0
 10
1518.408492262966
 20
1555.423740238939
 30
0.0
 10
1543.031148028796
 20
1552.181547159187
 30
0.0
 10
1563.544352288742
 20
1550.63119820252
 30
0.0
 10
1582.320120067365
 20
1549.278065740702
 30
0.0
 10
1600.564881219517
 20
1549.558168298174
 30
0.0
 10
1619.949538495073
 20
1549.446992986015
 30
0.0
 10
1640.699230564324
 20
1549.448519427754
 30
0.0
 10
1655.685903085153
 20
1549.508242705191
 30
0.0
 10
1667.713238764984
 20
1549.431979728721
 30
0.0
 10
1676.166187285184
 20
1549.836665692057
 30
0.0
 10
1686.309593510892
 20
1551.996824705725
 30
0.0
 10
1697.29790761875
 20
1557.404826801703
 30
0.0
 10
1706.55439741347
 20
1569.389348558911
 30
0.0
 10
1712.253913735575
 20
1586.256174821183
 30
0.0
 10
1715.694228585929
 20
1606.145813981932
 30
0.0
 10
1717.991853661882
 20
1629.674231298867
 30
0.0
 10
1719.254591847556
 20
1651.26189736264
 30
0.0
 10
1720.221606687282
 20
1666.461881308084
 30
0.0
 10
1720.434836451576
 20
1673.214767570078
 30
0.0
 10
1720.771210639138
 20
1675.767165137903
 30
0.0
 10
1721.869397527273
 20
1677.749386899934
 30
0.0
 10
1724.021891446976
 20
1679.233211734635
 30
0.0
 10
1727.626439157409
 20
1679.246561646962
 30
0.0
 10
1730.337559893646
 20
1679.243645189965
 30
0.0
 10
1732.120420936021
 20
1679.241727297674
 30
0.0
 11
1355.642699263089
 21
1679.241776478843
 31
0.0
 11
1357.625241253494
 21
1678.941089926037
 31
0.0
 11
1359.582002828513
 21
1677.37452660729
 31
0.0
 11
1361.434077894353
 21
1673.241789735332
 31
0.0
 11
1368.651154804954
 21
1654.156816631104
 31
0.0
 11
1380.418223914868
 21
1632.656175113483
 31
0.0
 11
1399.112623388553
 21
1609.872760653261
 31
0.0
 11
1425.939326091693
 21
1588.500320553078
 31
0.0
 11
1457.937098358703
 21
1572.113021217432
 31
0.0
 11
1493.050396818331
 21
1560.857753179122
 31
0.0
 11
1520.967964215914
 21
1555.271890049885
 31
0.0
 11
1541.604491963186
 21
1552.545058705169
 31
0.0
 11
1566.694167980273
 21
1550.411244548879
 31
0.0
 11
1582.38515190661
 21
1549.503782785874
 31
0.0
 11
1597.92639252329
 21
1549.474124022318
 31
0.0
 11
1621.3751519227
 21
1549.463795478787
 31
0.0
 11
1640.548486731855
 21
1549.460863468056
 31
0.0
 11
1660.175361752617
 21
1549.474719754472
 31
0.0
 11
1666.328852683973
 21
1549.482396004419
 31
0.0
 11
1676.619908192196
 21
1550.15835048204
 31
0.0
 11
1685.24808381715
 21
1552.093736279939
 31
0.0
 11
1695.768485863328
 21
1557.528043238484
 31
0.0
 11
1705.463001554172
 21
1569.268529944481
 31
0.0
 11
1711.435385843318
 21
1585.042233647984
 31
0.0
 11
1715.351136666342
 21
1605.616815781932
 31
0.0
 11
1717.707696720065
 21
1628.133453454094
 31
0.0
 11
1719.525537295287
 21
1655.379074698404
 31
0.0
 11
1720.336044493468
 21
1670.299901964831
 31
0.0
 11
1720.522695036336
 21
1673.702823315216
 31
0.0
 11
1720.864121321252
 21
1675.616288545094
 31
0.0
 11
1722.005698018176
 21
1677.625092822872
 31
0.0
 11
1723.942603556966
 21
1678.929609416195
 31
0.0
 11
1726.731152653681
 21
1679.241726826528
 31
0.0
 11
1732.120420936021
 21
1679.241727297674
 31
0.0
  0
SPLINE
  5
5526
102
{ACAD_REACTORS
330
559E
102
}
330
A
100
AcDbEntity
  8
HIDDEN
100
AcDbSpline
210
0.0
220
0.0
230
1.0
 70
     8
 71
     3
 72
    12
 73
     8
 74
     0
 42
0.000000001
 43
0.0000000001
 40
0.0
 40
0.0
 40
0.0
 40
0.0
 40
57.31740130194485
 40
107.2856960728718
 40
202.9501828589493
 40
240.8543715671484
 40
446.4302801143328
 40
446.4302801143328
 40
446.4302801143328
 40
446.4302801143328
 10
234.5846254658818
 20
1679.241743876043
 30
0.0
 10
239.3042552125598
 20
1659.711072113827
 30
0.0
 10
248.1383745389257
 20
1623.153906799547
 30
0.0
 10
311.2099351639426
 20
1589.265286543641
 30
0.0
 10
367.5268964023135
 20
1567.24448372754
 30
0.0
 10
479.8961539058664
 20
1550.90906921653
 30
0.0
 10
561.0641217340612
 20
1549.18311206908
 30
0.0
 10
629.6710686847928
 20
1549.239011604076
 30
0.0
  0
SPLINE
  5
5527
102
{ACAD_REACTORS
330
559E
102
}
330
A
100
AcDbEntity
  8
HIDDEN
100
AcDbSpline
210
0.0
220
0.0
230
1.0
 70
     8
 71
     3
 72
    12
 73
     8
 74
     0
 42
0.000000001
 43
0.0000000001
 40
0.0
 40
0.0
 40
0.0
 40
0.0
 40
57.31740130194485
 40
107.2856960728718
 40
202.9501828589493
 40
240.8543715671484
 40
446.4302801143328
 40
446.4302801143328
 40
446.4302801143328
 40
446.4302801143328
 10
1024.757511903703
 20
1679.241743876043
 30
0.0
 10
1020.037882157025
 20
1659.711072113827
 30
0.0
 10
1011.203762830659
 20
1623.153906799546
 30
0.0
 10
948.1322022056415
 20
1589.26528654364
 30
0.0
 10
891.8152409672716
 20
1567.244483727539
 30
0.0
 10
779.4459834637187
 20
1550.90906921653
 30
0.0
 10
698.2780156355238
 20
1549.18311206908
 30
0.0
 10
629.6710686847928
 20
1549.239011604076
 30
0.0
  0
LINE
  5
5528
102
{ACAD_REACTORS
330
559E
102
}
330
A
100
AcDbEntity
  8
HIDDEN
 48
0.5
100
AcDbLine
 10
652.594935297645
 20
1535.863687371532
 30
0.0
 11
606.7471955237547
 21
1535.863683363397
 31
0.0
  0
LINE
  5
5529
102
{ACAD_REACTORS
330
559E
102
}
330
A
100
AcDbEntity
  8
HIDDEN
 48
0.5
100
AcDbLine
 10
653.3743281211318
 20
1536.870287532266
 30
0.0
 11
664.2124887979467
 21
1545.964585773446
 31
0.0
  0
LINE
  5
552A
102
{ACAD_REACTORS
330
559E
102
}
330
A
100
AcDbEntity
  8
HIDDEN
 48
0.5
100
AcDbLine
 10
652.3031480610534
 20
1534.624511328572
 30
0.0
 11
651.6710686847864
 21
1498.412526693591
 31
0.0
  0
ARC
  5
552B
102
{ACAD_REACTORS
330
559E
102
}
330
A
100
AcDbEntity
  8
HIDDEN
 48
0.5
100
AcDbCircle
 10
655.3026924006667
 20
1534.57215377549
 30
0.0
 40
3.00000125977775
100
AcDbArc
 50
130.0000159740343
 51
178.9999940444521
  0
LINE
  5
552C
102
{ACAD_REACTORS
330
559E
102
}
330
A
100
AcDbEntity
  8
HIDDEN
 48
0.5
100
AcDbLine
 10
595.0693778923078
 20
1546.015145853353
 30
0.0
 11
605.9678025242747
 21
1536.870283387866
 31
0.0
  0
LINE
  5
552D
102
{ACAD_REACTORS
330
559E
102
}
330
A
100
AcDbEntity
  8
HIDDEN
 48
0.5
100
AcDbLine
 10
607.6710686847864
 20
1498.412522846981
 30
0.0
 11
607.0389829770156
 21
1534.624507371456
 31
0.0
  0
ARC
  5
552E
102
{ACAD_REACTORS
330
559E
102
}
330
A
100
AcDbEntity
  8
HIDDEN
 48
0.5
100
AcDbCircle
 10
604.0394386465578
 20
1534.572149293908
 30
0.0
 40
3.000001259778438
100
AcDbArc
 50
1.000015973901992
 51
49.99999404407048
  0
VIEWPORT
  5
349
330
B
100
AcDbEntity
 67
     1
  8
0
100
AcDbViewport
 10
202.5
 20
128.5
 30
0.0
 40
486.0
 41
308.4
 68
     1
 69
     1
 12
202.5
 22
128.5
 13
0.0
 23
0.0
 14
0.5
 24
0.5
 15
0.0
 25
0.0
 16
0.0
 26
0.0
 36
1.0
 17
0.0
 27
0.0
 37
0.0
 42
50.0
 43
0.0
 44
0.0
 45
308.4
 50
0.0
 51
0.0
 72
   100
 90
   557152
  1

281
     0
 71
     1
 74
     0
110
0.0
120
0.0
130
0.0
111
1.0
121
0.0
131
0.0
112
0.0
122
1.0
132
0.0
 79
     0
146
0.0
170
     0
 61
     5
348
26C
292
     1
282
     1
141
0.0
142
0.0
 63
   256
  0
VIEWPORT
  5
34A
330
B
100
AcDbEntity
 67
     1
  8
0
100
AcDbViewport
 10
202.5
 20
128.5
 30
0.0
 40
324.0
 41
205.6
 68
     2
 69
     2
 12
986.6781359294573
 22
1427.077061889956
 13
0.0
 23
0.0
 14
0.5
 24
0.5
 15
0.0
 25
0.0
 16
0.0
 26
0.0
 36
1.0
 17
0.0
 27
0.0
 37
0.0
 42
50.0
 43
0.0
 44
0.0
 45
2890.021615685494
 50
0.0
 51
0.0
 72
   100
 90
   557152
  1

281
     0
 71
     1
 74
     0
110
0.0
120
0.0
130
0.0
111
1.0
121
0.0
131
0.0
112
0.0
122
1.0
132
0.0
 79
     0
146
0.0
170
     0
 61
     5
348
26C
292
     1
282
     1
141
0.0
142
0.0
 63
   256
  0
ENDSEC
  0
SECTION
  2
OBJECTS
  0
DICTIONARY
  5
19
330
0
100
AcDbDictionary
281
     1
  3
ACAD_COLOR
350
38F
  3
ACAD_DETAILVIEWSTYLE
350
8CF
  3
ACAD_FIELDLIST
350
BA6
  3
ACAD_GROUP
350
1A
  3
ACAD_IMAGE_VARS
350
27B
  3
ACAD_LAYOUT
350
1E
  3
ACAD_MATERIAL
350
263
  3
ACAD_MLEADERSTYLE
350
336
  3
ACAD_MLINESTYLE
350
1B
  3
ACAD_PLOTSETTINGS
350
22
  3
ACAD_PLOTSTYLENAME
350
1F
  3
ACAD_SCALELIST
350
241
  3
ACAD_SECTIONVIEWSTYLE
350
8D0
  3
ACAD_TABLESTYLE
350
278
  3
ACAD_VISUALSTYLE
350
267
  3
ACDB_RECOMPOSE_DATA
350
55C7
  3
AcDbVariableDictionary
350
330
  3
APPDATA
350
27A
  3
DimOffsetDictionary
350
C08
  0
SUN
  5
8C2
330
15
100
AcDbSun
 90
        1
290
     0
 63
     7
421
 16777215
 40
1.0
291
     1
 91
  2455826
 92
 54000000
292
     0
 70
     2
 71
   256
280
     1
  0
DICTIONARY
  5
2E1
330
2
100
AcDbDictionary
280
     1
281
     1
  3
ACAD_LAYERSTATES
360
2E2
  3
ACLYDICTIONARY
360
50B8
  0
DICTIONARY
  5
BDC
330
BDB
100
AcDbDictionary
280
     1
281
     1
  3
ACAD_FIELD
360
BE4
  0
DICTIONARY
  5
52EC
330
52EB
100
AcDbDictionary
280
     1
281
     1
  3
ACAD_DIMASSOC
360
52ED
  0
DICTIONARY
  5
53A2
330
53A1
100
AcDbDictionary
280
     1
281
     1
  3
ACAD_DIMASSOC
360
53A3
  0
DICTIONARY
  5
38F
102
{ACAD_REACTORS
330
19
102
}
330
19
100
AcDbDictionary
281
     1
  0
DICTIONARY
  5
8CF
102
{ACAD_REACTORS
330
19
102
}
330
19
100
AcDbDictionary
281
     1
  0
FIELDLIST
  5
BA6
102
{ACAD_REACTORS
330
19
102
}
330
19
100
AcDbIdSet
 90
        2
330
BDF
330
BDE
100
AcDbFieldList
  0
DICTIONARY
  5
1A
102
{ACAD_REACTORS
330
19
102
}
330
19
100
AcDbDictionary
281
     1
  3
*A1
350
559D
  3
*A2
350
559E
  0
RASTERVARIABLES
  5
27B
102
{ACAD_REACTORS
330
19
102
}
330
19
100
AcDbRasterVariables
 90
        0
 70
     1
 71
     1
 72
     1
  0
DICTIONARY
  5
1E
102
{ACAD_REACTORS
330
19
102
}
330
19
100
AcDbDictionary
281
     1
  3
Layout1
350
21
  3
Model
350
20
  0
DICTIONARY
  5
263
102
{ACAD_REACTORS
330
19
102
}
330
19
100
AcDbDictionary
281
     1
  3
ByBlock
350
50C8
  3
ByLayer
350
264
  3
Global
350
266
  0
DICTIONARY
  5
336
102
{ACAD_REACTORS
330
19
102
}
330
19
100
AcDbDictionary
281
     1
  3
Standard
350
8D1
  0
DICTIONARY
  5
1B
102
{ACAD_REACTORS
330
19
102
}
330
19
100
AcDbDictionary
281
     1
  3
Standard
350
1C
  0
DICTIONARY
  5
22
102
{ACAD_REACTORS
330
19
102
}
330
19
100
AcDbDictionary
281
     1
  0
ACDBDICTIONARYWDFLT
  5
1F
102
{ACAD_REACTORS
330
19
102
}
330
19
100
AcDbDictionary
281
     1
  3
Normal
350
1D
100
AcDbDictionaryWithDefault
340
1D
  0
DICTIONARY
  5
241
102
{ACAD_REACTORS
330
19
102
}
330
19
100
AcDbDictionary
281
     1
  3
A0
350
242
  3
A1
350
243
  3
A2
350
244
  3
A3
350
245
  3
A4
350
246
  3
A5
350
247
  3
A6
350
248
  3
A7
350
249
  3
A8
350
24A
  3
A9
350
24B
  3
B0
350
24C
  3
B1
350
24D
  3
B2
350
24E
  3
B3
350
24F
  3
B4
350
250
  3
B5
350
251
  3
B6
350
252
  3
B7
350
253
  3
B8
350
254
  3
B9
350
255
  3
C0
350
256
  3
C1
350
257
  3
C2
350
258
  3
C3
350
259
  3
C4
350
25A
  3
C5
350
25B
  3
C6
350
25C
  3
C7
350
25D
  3
C8
350
25E
  3
C9
350
25F
  3
D0
350
260
  3
D1
350
261
  3
D2
350
262
  0
DICTIONARY
  5
8D0
102
{ACAD_REACTORS
330
19
102
}
330
19
100
AcDbDictionary
281
     1
  0
DICTIONARY
  5
278
102
{ACAD_REACTORS
330
19
102
}
330
19
100
AcDbDictionary
281
     1
  3
Standard
350
279
  0
DICTIONARY
  5
267
102
{ACAD_REACTORS
330
19
102
}
330
19
100
AcDbDictionary
281
     1
  3
2dWireframe
350
26C
  3
3D Hidden
350
26E
  3
3dWireframe
350
26D
  3
Basic
350
26F
  3
Brighten
350
273
  3
ColorChange
350
277
  3
Conceptual
350
271
  3
Dim
350
272
  3
EdgeColorOff
350
8BC
  3
Facepattern
350
276
  3
Flat
350
268
  3
FlatWithEdges
350
269
  3
Gouraud
350
26A
  3
GouraudWithEdges
350
26B
  3
Hidden
350
8B9
  3
JitterOff
350
8BA
  3
Linepattern
350
275
  3
OverhangOff
350
8BB
  3
Realistic
350
270
  3
Shaded
350
8C1
  3
Shaded with edges
350
8C0
  3
Shades of Gray
350
8BD
  3
Sketchy
350
8BE
  3
Thicken
350
274
  3
Wireframe
350
8B8
  3
X-Ray
350
8BF
  0
XRECORD
  5
55C7
102
{ACAD_REACTORS
330
19
102
}
330
19
100
AcDbXrecord
280
     1
 90
        1
330
279
  0
DICTIONARY
  5
330
102
{ACAD_REACTORS
330
19
102
}
330
19
100
AcDbDictionary
281
     1
  3
CANNOSCALE
350
331
  3
CMLEADERSTYLE
350
8DA
  3
CTABLESTYLE
350
335
  3
HPTRANSPARENCY
350
C07
  3
XCLIPFRAME
350
64A
  0
DICTIONARY
  5
27A
102
{ACAD_REACTORS
330
19
102
}
330
19
100
AcDbDictionary
281
     1
  0
DICTIONARY
  5
C08
102
{ACAD_REACTORS
330
19
102
}
330
19
100
AcDbDictionary
281
     1
  3
DIMRAILANGLE
350
4342
  3
DIMRAILFIRSTOFFSET
350
4340
  3
DIMRAILOFFSET
350
4341
  3
DIMRAILSENABLED
350
4343
  0
DICTIONARY
  5
2E2
102
{ACAD_REACTORS
330
2E1
102
}
330
2E1
100
AcDbDictionary
281
     1
  0
DICTIONARY
  5
50B8
102
{ACAD_REACTORS
330
2E1
102
}
330
2E1
100
AcDbDictionary
281
     1
1001
ACAD
1000
<All
  0
DICTIONARY
  5
BE4
102
{ACAD_REACTORS
330
BDC
102
}
330
BDC
100
AcDbDictionary
280
     1
281
     1
  3
TEXT
360
BDE
  0
DIMASSOC
  5
52ED
102
{ACAD_REACTORS
330
52EC
102
}
330
52EC
100
AcDbDimAssoc
330
52EB
 90
        0
 70
     0
 71
     1
  0
DIMASSOC
  5
53A3
102
{ACAD_REACTORS
330
53A2
102
}
330
53A2
100
AcDbDimAssoc
330
53A1
 90
        3
 70
     0
 71
     1
  1
AcDbOsnapPointRef
 72
    13
331
536E
 73
     0
 91
        0
 40
0.0
 10
0.0
 20
0.0
 30
0.0
 75
     0
  1
AcDbOsnapPointRef
 72
    10
331
536B
 73
     0
 91
        0
 40
0.9939521055537904
 10
0.0
 20
0.0
 30
0.0
 75
     0
  0
GROUP
  5
559D
102
{ACAD_REACTORS
330
1A
102
}
330
1A
100
AcDbGroup
300

 70
     1
 71
     1
340
54EC
340
54ED
340
54EE
340
54EF
340
54F0
340
54F1
340
54F2
340
54F4
340
54F5
340
54F6
340
54F7
340
54F8
340
54F9
340
54FA
340
54FB
340
54FC
340
54FD
340
54FE
340
54FF
340
5500
340
5501
340
5502
340
5503
340
5504
340
5505
340
5506
340
5507
340
5508
340
5509
340
550A
340
550B
340
550C
340
550D
340
550E
340
550F
340
5510
340
5511
340
5512
340
5515
340
5517
340
5522
  0
GROUP
  5
559E
102
{ACAD_REACTORS
330
1A
102
}
330
1A
100
AcDbGroup
300

 70
     1
 71
     1
340
54C3
340
54C4
340
54C5
340
54C6
340
54C7
340
54C8
340
54CB
340
54CC
340
54CF
340
54D0
340
54D1
340
54D2
340
54D3
340
54D4
340
54D5
340
54D6
340
54D7
340
54D8
340
54D9
340
54DA
340
54DB
340
54DC
340
54DE
340
54DF
340
54E0
340
54E2
340
54E3
340
54E4
340
54E5
340
54E6
340
54E8
340
54EA
340
54EB
340
5526
340
5527
340
5528
340
5529
340
552A
340
552B
340
552C
340
552D
340
552E
  0
LAYOUT
  5
21
102
{ACAD_REACTORS
330
1E
102
}
330
1E
100
AcDbPlotSettings
  1

  2
none_device
  4
ISO_A3_(420.00_x_297.00_MM)
  6

 40
7.5
 41
20.0
 42
7.5
 43
20.0
 44
420.0
 45
297.0
 46
0.0
 47
0.0
 48
0.0
 49
0.0
140
0.0
141
0.0
142
1.0
143
1.0
 70
     0
 72
     1
 73
     0
 74
     0
  7

 75
     0
 76
     0
 77
     2
 78
   300
147
1.0
148
0.0
149
0.0
100
AcDbLayout
  1
Layout1
 70
     0
 71
     0
 10
0.0
 20
0.0
 11
0.0
 21
0.0
 12
0.0
 22
0.0
 32
0.0
 14
0.0
 24
0.0
 34
0.0
 15
0.0
 25
0.0
 35
0.0
146
0.0
 13
0.0
 23
0.0
 33
0.0
 16
0.0
 26
0.0
 36
0.0
 17
0.0
 27
0.0
 37
0.0
 76
     0
330
B
331
349
  0
LAYOUT
  5
20
102
{ACAD_REACTORS
330
1E
102
}
330
1E
100
AcDbPlotSettings
  1

  2
none_device
  4
ISO_A3_(420.00_x_297.00_MM)
  6

 40
7.5
 41
20.0
 42
7.5
 43
20.0
 44
420.0
 45
297.0
 46
0.0
 47
0.0
 48
0.0
 49
0.0
140
0.0
141
0.0
142
1.0
143
1.0
 70
  1024
 72
     1
 73
     0
 74
     0
  7

 75
     0
 76
     0
 77
     2
 78
   300
147
1.0
148
0.0
149
0.0
100
AcDbLayout
  1
Model
 70
     0
 71
     1
 10
0.0
 20
0.0
 11
2100.0
 21
2970.0
 12
0.0
 22
0.0
 32
0.0
 14
0.0
 24
0.0
 34
0.0
 15
2100.0
 25
2970.0
 35
0.0
146
0.0
 13
0.0
 23
0.0
 33
0.0
 16
0.0
 26
0.0
 36
0.0
 17
0.0
 27
0.0
 37
0.0
 76
     0
330
A
331
15
  0
MATERIAL
  5
50C8
102
{ACAD_REACTORS
330
263
102
}
330
263
100
AcDbMaterial
  1
ByBlock
 72
     1
 94
      127
  0
MATERIAL
  5
264
102
{ACAD_REACTORS
330
263
102
}
330
263
100
AcDbMaterial
  1
ByLayer
 72
     1
 94
      127
  0
MATERIAL
  5
266
102
{ACAD_REACTORS
330
263
102
}
330
263
100
AcDbMaterial
  1
Global
 72
     1
 94
      127
  0
MLEADERSTYLE
  5
8D1
102
{ACAD_REACTORS
330
336
102
}
330
336
100
AcDbMLeaderStyle
170
     2
171
     1
172
     0
 90
        2
 40
0.0
 41
0.0
173
     1
 91
-1056964608
340
11
 92
       -2
290
     1
 42
2.0
291
     1
 43
8.0
  3
Standard
341
0
 44
4.0
300

342
17
174
     1
178
     6
175
     1
176
     0
 93
-1056964608
 45
4.0
292
     0
297
     0
 46
4.0
343
0
 94
-1056964608
 47
1.0
 49
1.0
140
1.0
293
     1
141
0.0
294
     1
177
     0
142
1.0
295
     0
296
     0
143
3.75
1001
ACAD_MLEADERVER
1070
     2
  0
MLINESTYLE
  5
1C
102
{ACAD_REACTORS
330
1B
102
}
330
1B
100
AcDbMlineStyle
  2
Standard
 70
     0
  3

 62
     0
 51
90.0
 52
90.0
 71
     2
 49
0.5
 62
   256
  6
BYLAYER
 49
-0.5
 62
   256
  6
BYLAYER
  0
ACDBPLACEHOLDER
  5
1D
102
{ACAD_REACTORS
330
1F
102
}
330
1F
  0
SCALE
  5
242
102
{ACAD_REACTORS
330
241
102
}
330
241
100
AcDbScale
 70
     0
300
1:1
140
1.0
141
1.0
290
     1
  0
SCALE
  5
243
102
{ACAD_REACTORS
330
241
102
}
330
241
100
AcDbScale
 70
     0
300
1:2
140
1.0
141
2.0
290
     0
  0
SCALE
  5
244
102
{ACAD_REACTORS
330
241
102
}
330
241
100
AcDbScale
 70
     0
300
1:4
140
1.0
141
4.0
290
     0
  0
SCALE
  5
245
102
{ACAD_REACTORS
330
241
102
}
330
241
100
AcDbScale
 70
     0
300
1:5
140
1.0
141
5.0
290
     0
  0
SCALE
  5
246
102
{ACAD_REACTORS
330
241
102
}
330
241
100
AcDbScale
 70
     0
300
1:8
140
1.0
141
8.0
290
     0
  0
SCALE
  5
247
102
{ACAD_REACTORS
330
241
102
}
330
241
100
AcDbScale
 70
     0
300
1:10
140
1.0
141
10.0
290
     0
  0
SCALE
  5
248
102
{ACAD_REACTORS
330
241
102
}
330
241
100
AcDbScale
 70
     0
300
1:16
140
1.0
141
16.0
290
     0
  0
SCALE
  5
249
102
{ACAD_REACTORS
330
241
102
}
330
241
100
AcDbScale
 70
     0
300
1:20
140
1.0
141
20.0
290
     0
  0
SCALE
  5
24A
102
{ACAD_REACTORS
330
241
102
}
330
241
100
AcDbScale
 70
     0
300
1:30
140
1.0
141
30.0
290
     0
  0
SCALE
  5
24B
102
{ACAD_REACTORS
330
241
102
}
330
241
100
AcDbScale
 70
     0
300
1:40
140
1.0
141
40.0
290
     0
  0
SCALE
  5
24C
102
{ACAD_REACTORS
330
241
102
}
330
241
100
AcDbScale
 70
     0
300
1:50
140
1.0
141
50.0
290
     0
  0
SCALE
  5
24D
102
{ACAD_REACTORS
330
241
102
}
330
241
100
AcDbScale
 70
     0
300
1:100
140
1.0
141
100.0
290
     0
  0
SCALE
  5
24E
102
{ACAD_REACTORS
330
241
102
}
330
241
100
AcDbScale
 70
     0
300
2:1
140
2.0
141
1.0
290
     0
  0
SCALE
  5
24F
102
{ACAD_REACTORS
330
241
102
}
330
241
100
AcDbScale
 70
     0
300
4:1
140
4.0
141
1.0
290
     0
  0
SCALE
  5
250
102
{ACAD_REACTORS
330
241
102
}
330
241
100
AcDbScale
 70
     0
300
8:1
140
8.0
141
1.0
290
     0
  0
SCALE
  5
251
102
{ACAD_REACTORS
330
241
102
}
330
241
100
AcDbScale
 70
     0
300
10:1
140
10.0
141
1.0
290
     0
  0
SCALE
  5
252
102
{ACAD_REACTORS
330
241
102
}
330
241
100
AcDbScale
 70
     0
300
100:1
140
100.0
141
1.0
290
     0
  0
SCALE
  5
253
102
{ACAD_REACTORS
330
241
102
}
330
241
100
AcDbScale
 70
     0
300
1/128" = 1'-0"
140
0.0078125
141
12.0
290
     0
  0
SCALE
  5
254
102
{ACAD_REACTORS
330
241
102
}
330
241
100
AcDbScale
 70
     0
300
1/64" = 1'-0"
140
0.015625
141
12.0
290
     0
  0
SCALE
  5
255
102
{ACAD_REACTORS
330
241
102
}
330
241
100
AcDbScale
 70
     0
300
1/32" = 1'-0"
140
0.03125
141
12.0
290
     0
  0
SCALE
  5
256
102
{ACAD_REACTORS
330
241
102
}
330
241
100
AcDbScale
 70
     0
300
1/16" = 1'-0"
140
0.0625
141
12.0
290
     0
  0
SCALE
  5
257
102
{ACAD_REACTORS
330
241
102
}
330
241
100
AcDbScale
 70
     0
300
3/32" = 1'-0"
140
0.09375
141
12.0
290
     0
  0
SCALE
  5
258
102
{ACAD_REACTORS
330
241
102
}
330
241
100
AcDbScale
 70
     0
300
1/8" = 1'-0"
140
0.125
141
12.0
290
     0
  0
SCALE
  5
259
102
{ACAD_REACTORS
330
241
102
}
330
241
100
AcDbScale
 70
     0
300
3/16" = 1'-0"
140
0.1875
141
12.0
290
     0
  0
SCALE
  5
25A
102
{ACAD_REACTORS
330
241
102
}
330
241
100
AcDbScale
 70
     0
300
1/4" = 1'-0"
140
0.25
141
12.0
290
     0
  0
SCALE
  5
25B
102
{ACAD_REACTORS
330
241
102
}
330
241
100
AcDbScale
 70
     0
300
3/8" = 1'-0"
140
0.375
141
12.0
290
     0
  0
SCALE
  5
25C
102
{ACAD_REACTORS
330
241
102
}
330
241
100
AcDbScale
 70
     0
300
1/2" = 1'-0"
140
0.5
141
12.0
290
     0
  0
SCALE
  5
25D
102
{ACAD_REACTORS
330
241
102
}
330
241
100
AcDbScale
 70
     0
300
3/4" = 1'-0"
140
0.75
141
12.0
290
     0
  0
SCALE
  5
25E
102
{ACAD_REACTORS
330
241
102
}
330
241
100
AcDbScale
 70
     0
300
1" = 1'-0"
140
1.0
141
12.0
290
     0
  0
SCALE
  5
25F
102
{ACAD_REACTORS
330
241
102
}
330
241
100
AcDbScale
 70
     0
300
1-1/2" = 1'-0"
140
1.5
141
12.0
290
     0
  0
SCALE
  5
260
102
{ACAD_REACTORS
330
241
102
}
330
241
100
AcDbScale
 70
     0
300
3" = 1'-0"
140
3.0
141
12.0
290
     0
  0
SCALE
  5
261
102
{ACAD_REACTORS
330
241
102
}
330
241
100
AcDbScale
 70
     0
300
6" = 1'-0"
140
6.0
141
12.0
290
     0
  0
SCALE
  5
262
102
{ACAD_REACTORS
330
241
102
}
330
241
100
AcDbScale
 70
     0
300
1'-0" = 1'-0"
140
12.0
141
12.0
290
     0
  0
TABLESTYLE
  5
279
102
{ACAD_REACTORS
330
278
102
}
102
{ACAD_XDICTIONARY
360
55C5
102
}
330
278
100
AcDbTableStyle
  3
Standard
 70
     0
 71
     0
 40
0.06
 41
0.06
280
     0
281
     0
  7
Standard
140
4.5
170
     2
 62
     0
 63
   257
283
     0
 90
        4
 91
        0
  1

274
    -2
284
     1
 64
     0
275
    -2
285
     1
 65
     0
276
    -2
286
     1
 66
     0
277
    -2
287
     1
 67
     0
278
    -2
288
     1
 68
     0
279
    -2
289
     1
 69
     0
  7
Standard
140
6.0
170
     5
 62
     0
 63
   257
283
     0
 90
        4
 91
        0
  1

274
    -2
284
     1
 64
     0
275
    -2
285
     1
 65
     0
276
    -2
286
     1
 66
     0
277
    -2
287
     1
 67
     0
278
    -2
288
     1
 68
     0
279
    -2
289
     1
 69
     0
  7
Standard
140
4.5
170
     5
 62
     0
 63
   257
283
     0
 90
        4
 91
        0
  1

274
    -2
284
     1
 64
     0
275
    -2
285
     1
 65
     0
276
    -2
286
     1
 66
     0
277
    -2
287
     1
 67
     0
278
    -2
288
     1
 68
     0
279
    -2
289
     1
 69
     0
  0
VISUALSTYLE
  5
26C
102
{ACAD_REACTORS
330
267
102
}
330
267
100
AcDbVisualStyle
  2
2dWireframe
 70
     4
 71
     0
 72
     2
 73
     0
 90
        0
 40
-0.6
 41
-30.0
 62
     5
 63
     7
421
 16777215
 74
     1
 91
        4
 64
     7
 65
   257
 75
     1
175
     1
 42
1.0
 92
        0
 66
   257
 43
1.0
 76
     1
 77
     6
 78
     2
 67
     7
 79
     5
170
     0
171
     0
290
     0
174
     0
 93
        1
 44
0.0
173
     0
291
     0
 45
0.0
  0
VISUALSTYLE
  5
26E
102
{ACAD_REACTORS
330
267
102
}
330
267
100
AcDbVisualStyle
  2
3D Hidden
 70
     6
 71
     1
 72
     2
 73
     2
 90
        0
 40
-0.6
 41
-30.0
 62
     5
 63
     7
421
 16777215
 74
     2
 91
        2
 64
     7
 65
   257
 75
     2
175
     1
 42
40.0
 92
        0
 66
   257
 43
1.0
 76
     1
 77
     6
 78
     2
 67
     7
 79
     3
170
     0
171
     0
290
     0
174
     0
 93
        1
 44
0.0
173
     0
291
     0
 45
0.0
  0
VISUALSTYLE
  5
26D
102
{ACAD_REACTORS
330
267
102
}
330
267
100
AcDbVisualStyle
  2
3dWireframe
 70
     5
 71
     0
 72
     2
 73
     0
 90
        0
 40
-0.6
 41
-30.0
 62
     5
 63
     7
421
 16777215
 74
     1
 91
        4
 64
     7
 65
   257
 75
     1
175
     1
 42
1.0
 92
        0
 66
   257
 43
1.0
 76
     1
 77
     6
 78
     2
 67
     7
 79
     5
170
     0
171
     0
290
     0
174
     0
 93
        1
 44
0.0
173
     0
291
     0
 45
0.0
  0
VISUALSTYLE
  5
26F
102
{ACAD_REACTORS
330
267
102
}
330
267
100
AcDbVisualStyle
  2
Basic
 70
     7
 71
     1
 72
     0
 73
     1
 90
        0
 40
-0.6
 41
-30.0
 62
     5
 63
     7
421
 16777215
 74
     0
 91
        4
 64
     7
 65
   257
 75
     1
175
     1
 42
1.0
 92
        8
 66
     7
 43
1.0
 76
     1
 77
     6
 78
     2
 67
     7
 79
     5
170
     0
171
     0
290
     0
174
     0
 93
        1
 44
0.0
173
     0
291
     1
 45
0.0
  0
VISUALSTYLE
  5
273
102
{ACAD_REACTORS
330
267
102
}
330
267
100
AcDbVisualStyle
  2
Brighten
 70
    12
 71
     2
 72
     2
 73
     0
 90
        0
 40
-0.6
 41
-30.0
 62
     5
 63
     7
421
 16777215
 74
     1
 91
        4
 64
     7
 65
   257
 75
     1
175
     1
 42
1.0
 92
        8
 66
     7
 43
1.0
 76
     1
 77
     6
 78
     2
 67
     7
 79
     5
170
     0
171
     0
290
     0
174
     0
 93
        1
 44
50.0
173
     0
291
     1
 45
0.0
  0
VISUALSTYLE
  5
277
102
{ACAD_REACTORS
330
267
102
}
330
267
100
AcDbVisualStyle
  2
ColorChange
 70
    16
 71
     2
 72
     2
 73
     3
 90
        0
 40
-0.6
 41
-30.0
 62
     5
 63
     8
421
  8421504
 74
     1
 91
        4
 64
     7
 65
   257
 75
     1
175
     1
 42
1.0
 92
        8
 66
     8
424
  8421504
 43
1.0
 76
     1
 77
     6
 78
     2
 67
     7
 79
     5
170
     0
171
     0
290
     0
174
     0
 93
        1
 44
0.0
173
     0
291
     1
 45
0.0
  0
VISUALSTYLE
  5
271
102
{ACAD_REACTORS
330
267
102
}
330
267
100
AcDbVisualStyle
  2
Conceptual
 70
     9
 71
     3
 72
     2
 73
     0
 90
        0
 40
-0.6
 41
-30.0
 62
     5
 63
     7
421
 16777215
 74
     2
 91
        2
 64
     7
 65
   257
 75
     1
175
     1
 42
40.0
 92
        8
 66
     7
 43
1.0
 76
     1
 77
     6
 78
     2
 67
     7
 79
     3
170
     0
171
     0
290
     0
174
     0
 93
        1
 44
0.0
173
     0
291
     0
 45
0.0
  0
VISUALSTYLE
  5
272
102
{ACAD_REACTORS
330
267
102
}
330
267
100
AcDbVisualStyle
  2
Dim
 70
    11
 71
     2
 72
     2
 73
     0
 90
        0
 40
-0.6
 41
-30.0
 62
     5
 63
     7
421
 16777215
 74
     1
 91
        4
 64
     7
 65
   257
 75
     1
175
     1
 42
1.0
 92
        8
 66
     7
 43
1.0
 76
     1
 77
     6
 78
     2
 67
     7
 79
     5
170
     0
171
     0
290
     0
174
     0
 93
        1
 44
-50.0
173
     0
291
     1
 45
0.0
  0
VISUALSTYLE
  5
8BC
102
{ACAD_REACTORS
330
267
102
}
330
267
100
AcDbVisualStyle
  2
EdgeColorOff
 70
    22
 71
     2
 72
     2
 73
     0
 90
        0
 40
0.6
 41
30.0
 62
     5
 63
     7
421
 16777215
 74
     1
 91
        4
 64
     7
 65
   257
 75
     1
175
     1
 42
1.0
 92
        8
 66
     7
 43
1.0
 76
     1
 77
     6
 78
     2
 67
     7
 79
     5
170
     0
171
     0
290
     0
174
     0
 93
        1
 44
0.0
173
     0
291
     1
 45
0.0
  0
VISUALSTYLE
  5
276
102
{ACAD_REACTORS
330
267
102
}
330
267
100
AcDbVisualStyle
  2
Facepattern
 70
    15
 71
     2
 72
     2
 73
     0
 90
        0
 40
-0.6
 41
-30.0
 62
     5
 63
     7
421
 16777215
 74
     1
 91
        4
 64
     7
 65
   257
 75
     1
175
     1
 42
1.0
 92
        8
 66
     7
 43
1.0
 76
     1
 77
     6
 78
     2
 67
     7
 79
     5
170
     0
171
     0
290
     0
174
     0
 93
        1
 44
0.0
173
     0
291
     1
 45
0.0
  0
VISUALSTYLE
  5
268
102
{ACAD_REACTORS
330
267
102
}
330
267
100
AcDbVisualStyle
  2
Flat
 70
     0
 71
     2
 72
     1
 73
     1
 90
        2
 40
-0.6
 41
30.0
 62
     5
 63
     7
421
 16777215
 74
     0
 91
        4
 64
     7
 65
   257
 75
     1
175
     1
 42
1.0
 92
        8
 66
     7
 43
1.0
 76
     1
 77
     6
 78
     2
 67
     7
 79
     5
170
     0
171
     0
290
     0
174
     0
 93
       13
 44
0.0
173
     0
291
     1
 45
0.0
  0
VISUALSTYLE
  5
269
102
{ACAD_REACTORS
330
267
102
}
330
267
100
AcDbVisualStyle
  2
FlatWithEdges
 70
     1
 71
     2
 72
     1
 73
     1
 90
        2
 40
-0.6
 41
30.0
 62
     5
 63
     7
421
 16777215
 74
     1
 91
        4
 64
     7
 65
   257
 75
     1
175
     1
 42
1.0
 92
        0
 66
   257
 43
1.0
 76
     1
 77
     6
 78
     2
 67
     7
 79
     5
170
     0
171
     0
290
     0
174
     0
 93
       13
 44
0.0
173
     0
291
     1
 45
0.0
  0
VISUALSTYLE
  5
26A
102
{ACAD_REACTORS
330
267
102
}
330
267
100
AcDbVisualStyle
  2
Gouraud
 70
     2
 71
     2
 72
     2
 73
     1
 90
        2
 40
-0.6
 41
30.0
 62
     5
 63
     7
421
 16777215
 74
     0
 91
        4
 64
     7
 65
   257
 75
     1
175
     1
 42
1.0
 92
        0
 66
     7
 43
1.0
 76
     1
 77
     6
 78
     2
 67
     7
 79
     5
170
     0
171
     0
290
     0
174
     0
 93
       13
 44
0.0
173
     0
291
     1
 45
0.0
  0
VISUALSTYLE
  5
26B
102
{ACAD_REACTORS
330
267
102
}
330
267
100
AcDbVisualStyle
  2
GouraudWithEdges
 70
     3
 71
     2
 72
     2
 73
     1
 90
        2
 40
-0.6
 41
30.0
 62
     5
 63
     7
421
 16777215
 74
     1
 91
        4
 64
     7
 65
   257
 75
     1
175
     1
 42
1.0
 92
        0
 66
   257
 43
1.0
 76
     1
 77
     6
 78
     2
 67
     7
 79
     5
170
     0
171
     0
290
     0
174
     0
 93
       13
 44
0.0
173
     0
291
     1
 45
0.0
  0
VISUALSTYLE
  5
8B9
102
{ACAD_REACTORS
330
267
102
}
330
267
100
AcDbVisualStyle
  2
Hidden
 70
     6
 71
     1
 72
     2
 73
     2
 90
        0
 40
0.6
 41
30.0
 62
     5
 63
     7
421
 16777215
 74
     2
 91
        2
 64
     7
 65
   257
 75
     2
175
     1
 42
40.0
 92
        0
 66
   257
 43
1.0
 76
     1
 77
     6
 78
     2
 67
     7
 79
     3
170
     0
171
     0
290
     0
174
     0
 93
        1
 44
0.0
173
     0
291
     0
 45
0.0
  0
VISUALSTYLE
  5
8BA
102
{ACAD_REACTORS
330
267
102
}
330
267
100
AcDbVisualStyle
  2
JitterOff
 70
    20
 71
     2
 72
     2
 73
     0
 90
        0
 40
0.6
 41
30.0
 62
     5
 63
     7
421
 16777215
 74
     1
 91
        4
 64
     7
 65
   257
 75
     1
175
     1
 42
1.0
 92
       10
 66
     7
 43
1.0
 76
     1
 77
     6
 78
     2
 67
     7
 79
     5
170
     0
171
     0
290
     0
174
     0
 93
        1
 44
0.0
173
     0
291
     1
 45
0.0
  0
VISUALSTYLE
  5
275
102
{ACAD_REACTORS
330
267
102
}
330
267
100
AcDbVisualStyle
  2
Linepattern
 70
    14
 71
     2
 72
     2
 73
     0
 90
        0
 40
-0.6
 41
-30.0
 62
     5
 63
     7
421
 16777215
 74
     1
 91
        4
 64
     7
 65
   257
 75
     7
175
     7
 42
1.0
 92
        8
 66
     7
 43
1.0
 76
     1
 77
     6
 78
     2
 67
     7
 79
     5
170
     0
171
     0
290
     0
174
     0
 93
        1
 44
0.0
173
     0
291
     1
 45
0.0
  0
VISUALSTYLE
  5
8BB
102
{ACAD_REACTORS
330
267
102
}
330
267
100
AcDbVisualStyle
  2
OverhangOff
 70
    21
 71
     2
 72
     2
 73
     0
 90
        0
 40
0.6
 41
30.0
 62
     5
 63
     7
421
 16777215
 74
     1
 91
        4
 64
     7
 65
   257
 75
     1
175
     1
 42
1.0
 92
        9
 66
     7
 43
1.0
 76
     1
 77
     6
 78
     2
 67
     7
 79
     5
170
     0
171
     0
290
     0
174
     0
 93
        1
 44
0.0
173
     0
291
     1
 45
0.0
  0
VISUALSTYLE
  5
270
102
{ACAD_REACTORS
330
267
102
}
330
267
100
AcDbVisualStyle
  2
Realistic
 70
     8
 71
     2
 72
     2
 73
     0
 90
        0
 40
-0.6
 41
-30.0
 62
     5
 63
     7
421
 16777215
 74
     1
 91
        0
 64
     7
 65
   257
 75
     1
175
     1
 42
1.0
 92
        8
 66
     8
424
  7895160
 43
1.0
 76
     1
 77
     6
 78
     2
 67
     7
 79
     5
170
     0
171
     0
290
     0
174
     0
 93
       13
 44
0.0
173
     0
291
     0
 45
0.0
  0
VISUALSTYLE
  5
8C1
102
{ACAD_REACTORS
330
267
102
}
330
267
100
AcDbVisualStyle
  2
Shaded
 70
    27
 71
     2
 72
     2
 73
     1
 90
        2
 40
0.6
 41
30.0
 62
     5
 63
     7
421
 16777215
 74
     0
 91
        4
 64
     7
 65
   257
 75
     1
175
     1
 42
1.0
 92
        8
 66
   257
 43
1.0
 76
     1
 77
     6
 78
     2
 67
     8
425
  7895160
 79
     3
170
     0
171
     0
290
     0
174
     0
 93
        5
 44
0.0
173
     0
291
     0
 45
0.0
  0
VISUALSTYLE
  5
8C0
102
{ACAD_REACTORS
330
267
102
}
330
267
100
AcDbVisualStyle
  2
Shaded with edges
 70
    26
 71
     2
 72
     2
 73
     1
 90
        2
 40
0.6
 41
30.0
 62
     5
 63
     7
421
 16777215
 74
     1
 91
       10
 64
     7
 65
   257
 75
     2
175
     1
 42
1.0
 92
        8
 66
   257
 43
1.0
 76
     1
 77
     6
 78
     2
 67
     7
 79
     3
170
     0
171
     0
290
     0
174
     0
 93
        5
 44
0.0
173
     0
291
     0
 45
0.0
  0
VISUALSTYLE
  5
8BD
102
{ACAD_REACTORS
330
267
102
}
330
267
100
AcDbVisualStyle
  2
Shades of Gray
 70
    23
 71
     2
 72
     2
 73
     3
 90
        0
 40
0.6
 41
30.0
 62
     5
 63
     7
421
 16777215
 74
     2
 91
        2
 64
     7
 65
     7
 75
     1
175
     1
 42
40.0
 92
        8
 66
     7
 43
1.0
 76
     1
 77
     6
 78
     2
 67
     7
 79
     3
170
     0
171
     0
290
     0
174
     0
 93
        1
 44
0.0
173
     0
291
     0
 45
0.0
  0
VISUALSTYLE
  5
8BE
102
{ACAD_REACTORS
330
267
102
}
330
267
100
AcDbVisualStyle
  2
Sketchy
 70
    24
 71
     1
 72
     2
 73
     2
 90
        0
 40
0.6
 41
30.0
 62
     5
 63
     7
421
 16777215
 74
     2
 91
        2
 64
     7
 65
     7
 75
     1
175
     1
 42
40.0
 92
       11
 66
     7
 43
1.0
 76
     1
 77
     6
 78
     2
 67
     7
 79
     6
170
     0
171
     0
290
     0
174
     0
 93
        1
 44
0.0
173
     0
291
     0
 45
0.0
  0
VISUALSTYLE
  5
274
102
{ACAD_REACTORS
330
267
102
}
330
267
100
AcDbVisualStyle
  2
Thicken
 70
    13
 71
     2
 72
     2
 73
     0
 90
        0
 40
-0.6
 41
-30.0
 62
     5
 63
     7
421
 16777215
 74
     1
 91
        4
 64
     7
 65
   257
 75
     1
175
     1
 42
1.0
 92
       12
 66
     7
 43
1.0
 76
     1
 77
     6
 78
     2
 67
     7
 79
     5
170
     0
171
     0
290
     0
174
     0
 93
        1
 44
0.0
173
     0
291
     1
 45
0.0
  0
VISUALSTYLE
  5
8B8
102
{ACAD_REACTORS
330
267
102
}
330
267
100
AcDbVisualStyle
  2
Wireframe
 70
     5
 71
     0
 72
     2
 73
     0
 90
        0
 40
0.6
 41
30.0
 62
     5
 63
     7
421
 16777215
 74
     1
 91
        4
 64
     7
 65
   257
 75
     1
175
     1
 42
1.0
 92
        0
 66
   257
 43
1.0
 76
     1
 77
     6
 78
     2
 67
     7
 79
     3
170
     0
171
     0
290
     0
174
     0
 93
        1
 44
0.0
173
     0
291
     0
 45
0.0
  0
VISUALSTYLE
  5
8BF
102
{ACAD_REACTORS
330
267
102
}
330
267
100
AcDbVisualStyle
  2
X-Ray
 70
    25
 71
     2
 72
     2
 73
     1
 90
        1
 40
0.5
 41
30.0
 62
     5
 63
     7
421
 16777215
 74
     1
 91
        0
 64
     7
 65
   257
 75
     1
175
     1
 42
1.0
 92
        8
 66
     7
 43
1.0
 76
     1
 77
     6
 78
     2
 67
     7
 79
     3
170
     0
171
     0
290
     0
174
     0
 93
       13
 44
0.0
173
     0
291
     0
 45
0.0
  0
DICTIONARYVAR
  5
331
102
{ACAD_REACTORS
330
330
102
}
330
330
100
DictionaryVariables
280
     0
  1
1:1
  0
DICTIONARYVAR
  5
8DA
102
{ACAD_REACTORS
330
330
102
}
330
330
100
DictionaryVariables
280
     0
  1
Standard
  0
DICTIONARYVAR
  5
335
102
{ACAD_REACTORS
330
330
102
}
330
330
100
DictionaryVariables
280
     0
  1
Standard
  0
DICTIONARYVAR
  5
C07
102
{ACAD_REACTORS
330
330
102
}
330
330
100
DictionaryVariables
280
     0
  1
ByLayer
  0
DICTIONARYVAR
  5
64A
102
{ACAD_REACTORS
330
330
102
}
330
330
100
DictionaryVariables
280
     0
  1
0
  0
DICTIONARYVAR
  5
4342
102
{ACAD_REACTORS
330
C08
102
}
330
C08
100
DictionaryVariables
280
     0
  1
0.261799
  0
DICTIONARYVAR
  5
4340
102
{ACAD_REACTORS
330
C08
102
}
330
C08
100
DictionaryVariables
280
     0
  1
0.400000
  0
DICTIONARYVAR
  5
4341
102
{ACAD_REACTORS
330
C08
102
}
330
C08
100
DictionaryVariables
280
     0
  1
0.250000
  0
DICTIONARYVAR
  5
4343
102
{ACAD_REACTORS
330
C08
102
}
330
C08
100
DictionaryVariables
280
     0
  1
1
  0
FIELD
  5
BDE
102
{ACAD_REACTORS
330
BE4
102
}
330
BE4
100
AcDbField
  1
_text
  2
{%<\_FldIdx 0>%N}
 90
        1
360
BDF
 97
        0
 91
       63
 92
        0
 94
        8
 95
        2
 96
        0
300

 93
        1
  6
ACFD_FIELDTEXT_CHECKSUM
 93
        2
 90
        2
140
4543.0
 94
        0
300

302

304
ACVALUE_END
  7
ACFD_FIELD_VALUE
 93
        6
 90
        4
  1
{20170725N}
 94
        0
300

302

304
ACVALUE_END
301
{20170725N}
 98
       11
  0
DICTIONARY
  5
55C5
330
279
100
AcDbDictionary
280
     1
281
     1
  3
ACAD_ROUNDTRIP_2008_TABLESTYLE_CELLSTYLEMAP
360
55C6
  0
FIELD
  5
BDF
330
BDE
100
AcDbField
  1
AcVar
  2
\AcVar Date \f "yyyyMMdd"
 90
        0
 97
        0
 91
       63
 92
        0
 94
        8
 95
        2
 96
        0
300

 93
        1
  6
Variable
 93
        2
 90
        4
  1
Date
 94
        0
300

302

304
ACVALUE_END
  7
ACFD_FIELD_VALUE
 93
        6
 90
        8
 92
       16
310
E10707000000180011001A0013000000
 94
        0
300
yyyyMMdd
302

304
ACVALUE_END
301
20170725
 98
        8
  0
CELLSTYLEMAP
  5
55C6
102
{ACAD_REACTORS
330
55C5
102
}
330
55C5
100
AcDbCellStyleMap
 90
        3
300
CELLSTYLE
  1
TABLEFORMAT_BEGIN
 90
        5
170
     1
 91
        0
 92
    32768
 62
   257
 93
        1
300
CONTENTFORMAT
  1
CONTENTFORMAT_BEGIN
 90
        0
 91
        0
 92
        4
 93
        0
300

 40
0.0
140
1.0
 94
        5
 62
     0
340
17
144
6.0
309
CONTENTFORMAT_END
171
     1
301
MARGIN
  1
CELLMARGIN_BEGIN
 40
0.06
 40
0.06
 40
0.06
 40
0.06
 40
0.18
 40
0.18
309
CELLMARGIN_END
 94
        6
 95
        1
302
GRIDFORMAT
  1
GRIDFORMAT_BEGIN
 90
        0
 91
        1
 62
     0
 92
       -2
340
0
 93
        0
 40
0.045
309
GRIDFORMAT_END
 95
        2
302
GRIDFORMAT
  1
GRIDFORMAT_BEGIN
 90
        0
 91
        1
 62
     0
 92
       -2
340
0
 93
        0
 40
0.045
309
GRIDFORMAT_END
 95
        4
302
GRIDFORMAT
  1
GRIDFORMAT_BEGIN
 90
        0
 91
        1
 62
     0
 92
       -2
340
0
 93
        0
 40
0.045
309
GRIDFORMAT_END
 95
        8
302
GRIDFORMAT
  1
GRIDFORMAT_BEGIN
 90
        0
 91
        1
 62
     0
 92
       -2
340
0
 93
        0
 40
0.045
309
GRIDFORMAT_END
 95
       16
302
GRIDFORMAT
  1
GRIDFORMAT_BEGIN
 90
        0
 91
        1
 62
     0
 92
       -2
340
0
 93
        0
 40
0.045
309
GRIDFORMAT_END
 95
       32
302
GRIDFORMAT
  1
GRIDFORMAT_BEGIN
 90
        0
 91
        1
 62
     0
 92
       -2
340
0
 93
        0
 40
0.045
309
GRIDFORMAT_END
309
TABLEFORMAT_END
  1
CELLSTYLE_BEGIN
 90
        1
 91
        1
300
_TITLE
309
CELLSTYLE_END
300
CELLSTYLE
  1
TABLEFORMAT_BEGIN
 90
        5
170
     1
 91
        0
 92
        0
 62
   257
 93
        1
300
CONTENTFORMAT
  1
CONTENTFORMAT_BEGIN
 90
        0
 91
        0
 92
        4
 93
        0
300

 40
0.0
140
1.0
 94
        5
 62
     0
340
17
144
4.5
309
CONTENTFORMAT_END
171
     1
301
MARGIN
  1
CELLMARGIN_BEGIN
 40
0.06
 40
0.06
 40
0.06
 40
0.06
 40
0.18
 40
0.18
309
CELLMARGIN_END
 94
        6
 95
        1
302
GRIDFORMAT
  1
GRIDFORMAT_BEGIN
 90
        0
 91
        1
 62
     0
 92
       -2
340
0
 93
        0
 40
0.045
309
GRIDFORMAT_END
 95
        2
302
GRIDFORMAT
  1
GRIDFORMAT_BEGIN
 90
        0
 91
        1
 62
     0
 92
       -2
340
0
 93
        0
 40
0.045
309
GRIDFORMAT_END
 95
        4
302
GRIDFORMAT
  1
GRIDFORMAT_BEGIN
 90
        0
 91
        1
 62
     0
 92
       -2
340
0
 93
        0
 40
0.045
309
GRIDFORMAT_END
 95
        8
302
GRIDFORMAT
  1
GRIDFORMAT_BEGIN
 90
        0
 91
        1
 62
     0
 92
       -2
340
0
 93
        0
 40
0.045
309
GRIDFORMAT_END
 95
       16
302
GRIDFORMAT
  1
GRIDFORMAT_BEGIN
 90
        0
 91
        1
 62
     0
 92
       -2
340
0
 93
        0
 40
0.045
309
GRIDFORMAT_END
 95
       32
302
GRIDFORMAT
  1
GRIDFORMAT_BEGIN
 90
        0
 91
        1
 62
     0
 92
       -2
340
0
 93
        0
 40
0.045
309
GRIDFORMAT_END
309
TABLEFORMAT_END
  1
CELLSTYLE_BEGIN
 90
        2
 91
        1
300
_HEADER
309
CELLSTYLE_END
300
CELLSTYLE
  1
TABLEFORMAT_BEGIN
 90
        5
170
     1
 91
        0
 92
        0
 62
   257
 93
        1
300
CONTENTFORMAT
  1
CONTENTFORMAT_BEGIN
 90
        0
 91
        0
 92
        4
 93
        0
300

 40
0.0
140
1.0
 94
        2
 62
     0
340
17
144
4.5
309
CONTENTFORMAT_END
171
     1
301
MARGIN
  1
CELLMARGIN_BEGIN
 40
0.06
 40
0.06
 40
0.06
 40
0.06
 40
0.18
 40
0.18
309
CELLMARGIN_END
 94
        6
 95
        1
302
GRIDFORMAT
  1
GRIDFORMAT_BEGIN
 90
        0
 91
        1
 62
     0
 92
       -2
340
0
 93
        0
 40
0.045
309
GRIDFORMAT_END
 95
        2
302
GRIDFORMAT
  1
GRIDFORMAT_BEGIN
 90
        0
 91
        1
 62
     0
 92
       -2
340
0
 93
        0
 40
0.045
309
GRIDFORMAT_END
 95
        4
302
GRIDFORMAT
  1
GRIDFORMAT_BEGIN
 90
        0
 91
        1
 62
     0
 92
       -2
340
0
 93
        0
 40
0.045
309
GRIDFORMAT_END
 95
        8
302
GRIDFORMAT
  1
GRIDFORMAT_BEGIN
 90
        0
 91
        1
 62
     0
 92
       -2
340
0
 93
        0
 40
0.045
309
GRIDFORMAT_END
 95
       16
302
GRIDFORMAT
  1
GRIDFORMAT_BEGIN
 90
        0
 91
        1
 62
     0
 92
       -2
340
0
 93
        0
 40
0.045
309
GRIDFORMAT_END
 95
       32
302
GRIDFORMAT
  1
GRIDFORMAT_BEGIN
 90
        0
 91
        1
 62
     0
 92
       -2
340
0
 93
        0
 40
0.045
309
GRIDFORMAT_END
309
TABLEFORMAT_END
  1
CELLSTYLE_BEGIN
 90
        3
 91
        2
300
_DATA
309
CELLSTYLE_END
  0
ENDSEC
  0
EOF
