  0
SECTION
  2
HEADER
  9
$ACADVER
  1
AC1021
  9
$ACADMAINTVER
 70
    25
  9
$DWGCODEPAGE
  3
ANSI_932
  9
$LASTSAVEDBY
  1
howeNelson
  9
$INSBASE
 10
0.0
 20
0.0
 30
0.0
  9
$EXTMIN
 10
-0.0000000000000071
 20
-0.0000000000000284
 30
0.0
  9
$EXTMAX
 10
1050.0
 20
1485.0
 30
0.0
  9
$LIMMIN
 10
0.0
 20
0.0
  9
$LIMMAX
 10
1050.0
 20
1485.0
  9
$ORTHOMODE
 70
     0
  9
$REGENMODE
 70
     1
  9
$FILLMODE
 70
     1
  9
$QTEXTMODE
 70
     0
  9
$MIRRTEXT
 70
     1
  9
$LTSCALE
 40
1.0
  9
$ATTMODE
 70
     1
  9
$TEXTSIZE
 40
2.5
  9
$TRACEWID
 40
1.0
  9
$TEXTSTYLE
  7
ＭＳ ゴシック
  9
$CLAYER
  8
DIM
  9
$CELTYPE
  6
ByLayer
  9
$CECOLOR
 62
   256
  9
$CELTSCALE
 40
1.0
  9
$DISPSILH
 70
     0
  9
$DIMSCALE
 40
1.0
  9
$DIMASZ
 40
6.0
  9
$DIMEXO
 40
15.0
  9
$DIMDLI
 40
0.9999999999999999
  9
$DIMRND
 40
0.0
  9
$DIMDLE
 40
0.0
  9
$DIMEXE
 40
0.0
  9
$DIMTP
 40
0.0
  9
$DIMTM
 40
0.0
  9
$DIMTXT
 40
12.0
  9
$DIMCEN
 40
0.0
  9
$DIMTSZ
 40
0.0
  9
$DIMTOL
 70
     0
  9
$DIMLIM
 70
     0
  9
$DIMTIH
 70
     0
  9
$DIMTOH
 70
     0
  9
$DIMSE1
 70
     0
  9
$DIMSE2
 70
     0
  9
$DIMTAD
 70
     1
  9
$DIMZIN
 70
    11
  9
$DIMBLK
  1
DOT
  9
$DIMASO
 70
     1
  9
$DIMSHO
 70
     1
  9
$DIMPOST
  1
<>
  9
$DIMAPOST
  1
[]
  9
$DIMALT
 70
     0
  9
$DIMALTD
 70
     1
  9
$DIMALTF
 40
1.0
  9
$DIMLFAC
 40
1.0
  9
$DIMTOFL
 70
     0
  9
$DIMTVP
 40
0.0
  9
$DIMTIX
 70
     1
  9
$DIMSOXD
 70
     0
  9
$DIMSAH
 70
     0
  9
$DIMBLK1
  1

  9
$DIMBLK2
  1

  9
$DIMSTYLE
  2
tfrom線あり
  9
$DIMCLRD
 70
     0
  9
$DIMCLRE
 70
     0
  9
$DIMCLRT
 70
     0
  9
$DIMTFAC
 40
1.0
  9
$DIMGAP
 40
5.0
  9
$DIMJUST
 70
     0
  9
$DIMSD1
 70
     0
  9
$DIMSD2
 70
     0
  9
$DIMTOLJ
 70
     1
  9
$DIMTZIN
 70
    11
  9
$DIMALTZ
 70
    11
  9
$DIMALTTZ
 70
    11
  9
$DIMUPT
 70
     0
  9
$DIMDEC
 70
     0
  9
$DIMTDEC
 70
     1
  9
$DIMALTU
 70
     2
  9
$DIMALTTD
 70
     2
  9
$DIMTXSTY
  7
ＭＳ ゴシック
  9
$DIMAUNIT
 70
     0
  9
$DIMADEC
 70
     2
  9
$DIMALTRND
 40
0.0
  9
$DIMAZIN
 70
     0
  9
$DIMDSEP
 70
    46
  9
$DIMATFIT
 70
     0
  9
$DIMFRAC
 70
     2
  9
$DIMLDRBLK
  1
DOT
  9
$DIMLUNIT
 70
     2
  9
$DIMLWD
 70
    -2
  9
$DIMLWE
 70
    -2
  9
$DIMTMOVE
 70
     0
  9
$DIMFXL
 40
1.0
  9
$DIMFXLON
 70
     0
  9
$DIMJOGANG
 40
0.7853981633974483
  9
$DIMTFILL
 70
     0
  9
$DIMTFILLCLR
 70
     0
  9
$DIMARCSYM
 70
     0
  9
$DIMLTYPE
  6

  9
$DIMLTEX1
  6

  9
$DIMLTEX2
  6

  9
$LUNITS
 70
     2
  9
$LUPREC
 70
     0
  9
$SKETCHINC
 40
0.1
  9
$FILLETRAD
 40
0.0
  9
$AUNITS
 70
     0
  9
$AUPREC
 70
     0
  9
$MENU
  1
acad
  9
$ELEVATION
 40
0.0
  9
$PELEVATION
 40
0.0
  9
$THICKNESS
 40
0.0
  9
$LIMCHECK
 70
     0
  9
$CHAMFERA
 40
0.0
  9
$CHAMFERB
 40
0.0
  9
$CHAMFERC
 40
0.0
  9
$CHAMFERD
 40
0.0
  9
$SKPOLY
 70
     0
  9
$TDCREATE
 40
2447893.375
  9
$TDUCREATE
 40
0.0
  9
$TDUPDATE
 40
2458320.738624572
  9
$TDUUPDATE
 40
2458320.363624572
  9
$TDINDWG
 40
0.0849268403
  9
$TDUSRTIMER
 40
0.0002366551
  9
$USRTIMER
 70
     1
  9
$ANGBASE
 50
0.0
  9
$ANGDIR
 70
     0
  9
$PDMODE
 70
     1
  9
$PDSIZE
 40
-2.0
  9
$PLINEWID
 40
0.0
  9
$SPLFRAME
 70
     0
  9
$SPLINETYPE
 70
     6
  9
$SPLINESEGS
 70
     8
  9
$HANDSEED
  5
14C3
  9
$SURFTAB1
 70
     6
  9
$SURFTAB2
 70
     6
  9
$SURFTYPE
 70
     6
  9
$SURFU
 70
     6
  9
$SURFV
 70
     6
  9
$UCSBASE
  2

  9
$UCSNAME
  2

  9
$UCSORG
 10
0.0
 20
0.0
 30
0.0
  9
$UCSXDIR
 10
1.0
 20
0.0
 30
0.0
  9
$UCSYDIR
 10
0.0
 20
1.0
 30
0.0
  9
$UCSORTHOREF
  2

  9
$UCSORTHOVIEW
 70
     0
  9
$UCSORGTOP
 10
0.0
 20
0.0
 30
0.0
  9
$UCSORGBOTTOM
 10
0.0
 20
0.0
 30
0.0
  9
$UCSORGLEFT
 10
0.0
 20
0.0
 30
0.0
  9
$UCSORGRIGHT
 10
0.0
 20
0.0
 30
0.0
  9
$UCSORGFRONT
 10
0.0
 20
0.0
 30
0.0
  9
$UCSORGBACK
 10
0.0
 20
0.0
 30
0.0
  9
$PUCSBASE
  2

  9
$PUCSNAME
  2

  9
$PUCSORG
 10
0.0
 20
0.0
 30
0.0
  9
$PUCSXDIR
 10
1.0
 20
0.0
 30
0.0
  9
$PUCSYDIR
 10
0.0
 20
1.0
 30
0.0
  9
$PUCSORTHOREF
  2

  9
$PUCSORTHOVIEW
 70
     0
  9
$PUCSORGTOP
 10
0.0
 20
0.0
 30
0.0
  9
$PUCSORGBOTTOM
 10
0.0
 20
0.0
 30
0.0
  9
$PUCSORGLEFT
 10
0.0
 20
0.0
 30
0.0
  9
$PUCSORGRIGHT
 10
0.0
 20
0.0
 30
0.0
  9
$PUCSORGFRONT
 10
0.0
 20
0.0
 30
0.0
  9
$PUCSORGBACK
 10
0.0
 20
0.0
 30
0.0
  9
$USERI1
 70
     0
  9
$USERI2
 70
     0
  9
$USERI3
 70
     0
  9
$USERI4
 70
     0
  9
$USERI5
 70
     0
  9
$USERR1
 40
0.0
  9
$USERR2
 40
0.0
  9
$USERR3
 40
0.0
  9
$USERR4
 40
0.0
  9
$USERR5
 40
0.0
  9
$WORLDVIEW
 70
     1
  9
$SHADEDGE
 70
     3
  9
$SHADEDIF
 70
    70
  9
$TILEMODE
 70
     1
  9
$MAXACTVP
 70
    64
  9
$PINSBASE
 10
0.0
 20
0.0
 30
0.0
  9
$PLIMCHECK
 70
     0
  9
$PEXTMIN
 10
0.0
 20
0.0
 30
0.0
  9
$PEXTMAX
 10
0.0
 20
0.0
 30
0.0
  9
$PLIMMIN
 10
-7.5
 20
-20.0
  9
$PLIMMAX
 10
412.5
 20
277.0
  9
$UNITMODE
 70
     0
  9
$VISRETAIN
 70
     0
  9
$PLINEGEN
 70
     1
  9
$PSLTSCALE
 70
     0
  9
$TREEDEPTH
 70
  3020
  9
$CMLSTYLE
  2
Standard
  9
$CMLJUST
 70
     0
  9
$CMLSCALE
 40
1.0
  9
$PROXYGRAPHICS
 70
     0
  9
$MEASUREMENT
 70
     1
  9
$CELWEIGHT
370
    -3
  9
$ENDCAPS
280
     0
  9
$JOINSTYLE
280
     0
  9
$LWDISPLAY
290
     1
  9
$INSUNITS
 70
     4
  9
$HYPERLINKBASE
  1

  9
$STYLESHEET
  1

  9
$XEDIT
290
     1
  9
$CEPSNTYPE
380
     0
  9
$PSTYLEMODE
290
     1
  9
$FINGERPRINTGUID
  2

  9
$VERSIONGUID
  2

  9
$EXTNAMES
290
     1
  9
$PSVPSCALE
 40
0.0
  9
$OLESTARTUP
290
     0
  9
$SORTENTS
280
   127
  9
$INDEXCTL
280
     0
  9
$HIDETEXT
280
     1
  9
$XCLIPFRAME
290
     0
  9
$HALOGAP
280
     0
  9
$OBSCOLOR
 70
   257
  9
$OBSLTYPE
280
     0
  9
$INTERSECTIONDISPLAY
280
     0
  9
$INTERSECTIONCOLOR
 70
   257
  9
$DIMASSOC
280
     2
  9
$PROJECTNAME
  1

  9
$CAMERADISPLAY
290
     0
  9
$LENSLENGTH
 40
50.0
  9
$CAMERAHEIGHT
 40
0.0
  9
$STEPSPERSEC
 40
2.0
  9
$STEPSIZE
 40
6.0
  9
$3DDWFPREC
 40
2.0
  9
$PSOLWIDTH
 40
0.25
  9
$PSOLHEIGHT
 40
4.0
  9
$LOFTANG1
 40
1.570796326794897
  9
$LOFTANG2
 40
1.570796326794897
  9
$LOFTMAG1
 40
0.0
  9
$LOFTMAG2
 40
0.0
  9
$LOFTPARAM
 70
     7
  9
$LOFTNORMALS
280
     1
  9
$LATITUDE
 40
37.795
  9
$LONGITUDE
 40
-122.394
  9
$NORTHDIRECTION
 40
0.0
  9
$TIMEZONE
 70
 -8000
  9
$LIGHTGLYPHDISPLAY
280
     1
  9
$TILEMODELIGHTSYNCH
280
     1
  9
$SOLIDHIST
280
     1
  9
$SHOWHIST
280
     1
  9
$DWFFRAME
280
     2
  9
$DGNFRAME
280
     2
  9
$REALWORLDSCALE
290
     1
  9
$INTERFERECOLOR
 62
   256
  9
$CSHADOW
280
     0
  9
$SHADOWPLANELOCATION
 40
0.0
  0
ENDSEC
  0
SECTION
  2
CLASSES
  0
CLASS
  1
LWPOLYLINE
  2
AcDbPolyline
  3
ObjectDBX Classes
 90
        0
 91
        1
280
     0
281
     1
  0
CLASS
  1
IMAGE
  2
AcDbRasterImage
  3
ISM
 90
      127
 91
        5
280
     0
281
     1
  0
CLASS
  1
OLE2FRAME
  2
AcDbOle2Frame
  3
ObjectDBX Classes
 90
        0
 91
        1
280
     0
281
     1
  0
CLASS
  1
HATCH
  2
AcDbHatch
  3
ObjectDBX Classes
 90
        0
 91
        1
280
     0
281
     1
  0
CLASS
  1
DICTIONARYVAR
  2
AcDbDictionaryVar
  3
ObjectDBX Classes
 90
        0
 91
        4
280
     0
281
     0
  0
CLASS
  1
RASTERVARIABLES
  2
AcDbRasterVariables
  3
ISM
 90
        0
 91
        4
280
     0
281
     0
  0
CLASS
  1
IMAGEDEF
  2
AcDbRasterImageDef
  3
ISM
 90
        0
 91
        4
280
     0
281
     0
  0
CLASS
  1
IMAGEDEF_REACTOR
  2
AcDbRasterImageDefReactor
  3
ISM
 90
        1
 91
        4
280
     0
281
     0
  0
CLASS
  1
IDBUFFER
  2
AcDbIdBuffer
  3
ObjectDBX Classes
 90
        0
 91
        4
280
     0
281
     0
  0
CLASS
  1
SPATIAL_FILTER
  2
AcDbSpatialFilter
  3
ObjectDBX Classes
 90
        0
 91
        4
280
     0
281
     0
  0
CLASS
  1
XRECORD
  2
AcDbXrecord
  3
ObjectDBX Classes
 90
        0
 91
        1
280
     0
281
     0
  0
CLASS
  1
SORTENTSTABLE
  2
AcDbSortentsTable
  3
ObjectDBX Classes
 90
        0
 91
        4
280
     0
281
     0
  0
CLASS
  1
LAYER_INDEX
  2
AcDbLayerIndex
  3
ObjectDBX Classes
 90
        0
 91
        4
280
     0
281
     0
  0
CLASS
  1
SPATIAL_INDEX
  2
AcDbSpatialIndex
  3
AutoCAD 2000
 90
        0
 91
        4
280
     0
281
     0
  0
CLASS
  1
OBJECT_PTR
  2
CAseDLPNTableRecord
  3
ASE-LPNTableRecord
 90
        1
 91
        4
280
     0
281
     0
  0
CLASS
  1
LAYOUT
  2
AcDbLayout
  3
ObjectDBX Classes
 90
        0
 91
        1
280
     0
281
     0
  0
CLASS
  1
PLOTSETTINGS
  2
AcDbPlotSettings
  3
ObjectDBX Classes
 90
        0
 91
        4
280
     0
281
     0
  0
CLASS
  1
ACDBDICTIONARYWDFLT
  2
AcDbDictionaryWithDefault
  3
ObjectDBX Classes
 90
        0
 91
        4
280
     0
281
     0
  0
CLASS
  1
ACDBPLACEHOLDER
  2
AcDbPlaceHolder
  3
ObjectDBX Classes
 90
        0
 91
        1
280
     0
281
     0
  0
CLASS
  1
SCALE
  2
AcDbScale
  3
ObjectDBX Classes
 90
     1153
 91
        4
280
     0
281
     0
  0
CLASS
  1
MATERIAL
  2
AcDbMaterial
  3
ObjectDBX Classes
 90
     1153
 91
        4
280
     0
281
     0
  0
CLASS
  1
VISUALSTYLE
  2
AcDbVisualStyle
  3
ObjectDBX Classes
 90
     4095
 91
        4
280
     0
281
     0
  0
CLASS
  1
TABLESTYLE
  2
AcDbTableStyle
  3
ObjectDBX Classes
 90
     4095
 91
        4
280
     0
281
     0
  0
CLASS
  1
DIMASSOC
  2
AcDbDimAssoc
  3
"AcDbDimAssoc|Product Desc:     AcDim ARX App For Dimension|Company:          Autodesk, Inc.|WEB Address:      www.autodesk.com"
 90
        0
 91
        4
280
     0
281
     0
  0
CLASS
  1
CELLSTYLEMAP
  2
AcDbCellStyleMap
  3
ObjectDBX Classes
 90
     1152
 91
        4
280
     0
281
     0
  0
CLASS
  1
SUN
  2
AcDbSun
  3
SCENEOE
 90
     1153
 91
        4
280
     0
281
     0
  0
CLASS
  1
MLEADERSTYLE
  2
AcDbMLeaderStyle
  3
ACDB_MLEADERSTYLE_CLASS
 90
     4095
 91
        4
280
     0
281
     0
  0
ENDSEC
  0
SECTION
  2
TABLES
  0
TABLE
  2
VPORT
  5
7
330
0
100
AcDbSymbolTable
 70
     1
  0
VPORT
  5
15
330
7
100
AcDbSymbolTableRecord
100
AcDbViewportTableRecord
  2
*ACTIVE
 70
     0
 10
0.0
 20
0.0
 11
1.0
 21
1.0
 12
525.0
 22
742.5
 13
0.0
 23
0.0
 14
1.0
 24
1.0
 15
0.0
 25
0.0
 16
0.0
 26
0.0
 36
1.0
 17
0.0
 27
0.0
 37
0.0
 40
1514.7
 41
2.294372294372294
 42
50.0
 43
0.0
 44
0.0
 50
0.0
 51
0.0
 71
    16
 72
  2000
 73
     1
 74
     1
 75
     0
 76
     0
 77
     0
 78
     0
281
     0
 65
     1
110
0.0
120
0.0
130
0.0
111
1.0
121
0.0
131
0.0
112
0.0
122
1.0
132
0.0
 79
     0
146
0.0
348
12E4
 60
     3
 61
     5
292
     1
282
     1
141
0.0
142
0.0
 63
   256
361
A37
  0
ENDTAB
  0
TABLE
  2
LTYPE
  5
4
330
0
100
AcDbSymbolTable
 70
     3
  0
LTYPE
  5
11
330
4
100
AcDbSymbolTableRecord
100
AcDbLinetypeTableRecord
  2
ByBlock
 70
     0
  3

 72
    65
 73
     0
 40
0.0
  0
LTYPE
  5
12
330
4
100
AcDbSymbolTableRecord
100
AcDbLinetypeTableRecord
  2
ByLayer
 70
     0
  3

 72
    65
 73
     0
 40
0.0
  0
LTYPE
  5
13
330
4
100
AcDbSymbolTableRecord
100
AcDbLinetypeTableRecord
  2
Continuous
 70
     0
  3
Solid line
 72
    65
 73
     0
 40
0.0
  0
LTYPE
  5
A41
330
4
100
AcDbSymbolTableRecord
100
AcDbLinetypeTableRecord
  2
CENTER2
 70
     0
  3
Center (.5x) ___ _ ___ _ ___ _ ___ _ ___ _ ___
 72
    65
 73
     4
 40
28.575
 49
19.05
 74
     0
 49
-3.175
 74
     0
 49
3.175
 74
     0
 49
-3.175
 74
     0
  0
LTYPE
  5
A42
330
4
100
AcDbSymbolTableRecord
100
AcDbLinetypeTableRecord
  2
HIDDEN2
 70
     0
  3
Hidden (.5x) _ _ _ _ _ _ _ _ _ _ _ _ _ _ _ _ _ 
 72
    65
 73
     2
 40
4.762499999999999
 49
3.175
 74
     0
 49
-1.5875
 74
     0
  0
ENDTAB
  0
TABLE
  2
LAYER
  5
2
102
{ACAD_XDICTIONARY
360
2E1
102
}
330
0
100
AcDbSymbolTable
 70
     8
  0
LAYER
  5
14
330
2
100
AcDbSymbolTableRecord
100
AcDbLayerTableRecord
  2
0
 70
     0
 62
     7
  6
Continuous
370
    -3
390
1D
347
266
  0
LAYER
  5
4A
330
2
100
AcDbSymbolTableRecord
100
AcDbLayerTableRecord
  2
Defpoints
 70
     0
 62
     7
  6
Continuous
290
     0
370
    -3
390
1D
347
266
  0
LAYER
  5
4B
330
2
100
AcDbSymbolTableRecord
100
AcDbLayerTableRecord
  2
template
 70
     0
 62
     7
  6
Continuous
370
    -3
390
1D
347
266
  0
LAYER
  5
4D
330
2
100
AcDbSymbolTableRecord
100
AcDbLayerTableRecord
  2
MODEL
 70
     0
 62
     7
  6
Continuous
370
    20
390
1D
347
266
  0
LAYER
  5
667
330
2
100
AcDbSymbolTableRecord
100
AcDbLayerTableRecord
  2
レイヤー 1
 70
     0
 62
     7
  6
Continuous
370
    -3
390
1D
347
266
  0
LAYER
  5
120A
330
2
100
AcDbSymbolTableRecord
100
AcDbLayerTableRecord
  2
HIDDEN
 70
     0
 62
   252
  6
HIDDEN2
370
    20
390
1D
347
266
1001
AcAecLayerStandard
1000

1000

  0
LAYER
  5
120B
330
2
100
AcDbSymbolTableRecord
100
AcDbLayerTableRecord
  2
DIM
 70
     0
 62
     3
  6
Continuous
370
    13
390
1D
347
266
1001
AcAecLayerStandard
1000

1000

  0
LAYER
  5
1441
330
2
100
AcDbSymbolTableRecord
100
AcDbLayerTableRecord
  2
PRINT
 70
     0
 62
     4
  6
HIDDEN2
290
     0
370
    13
390
1D
347
266
1001
AcAecLayerStandard
1000

1000

  0
ENDTAB
  0
TABLE
  2
STYLE
  5
3
330
0
100
AcDbSymbolTable
 70
     5
  0
STYLE
  5
17
330
3
100
AcDbSymbolTableRecord
100
AcDbTextStyleTableRecord
  2
Standard
 70
     0
 40
0.0
 41
1.0
 50
0.0
 71
     0
 42
2.5
  3
txt
  4
BIGFONT.SHX
  0
STYLE
  5
39
330
3
100
AcDbSymbolTableRecord
100
AcDbTextStyleTableRecord
  2
ＭＳ ゴシック
 70
     0
 40
0.0
 41
1.0
 50
0.0
 71
     0
 42
2.5
  3
msgothic.ttc
  4
ＭＳ ゴシック
1001
ACAD
1000
ＭＳ ゴシック
1071
        0
  0
STYLE
  5
384
330
3
100
AcDbSymbolTableRecord
100
AcDbTextStyleTableRecord
  2
ARIAL
 70
     0
 40
0.0
 41
1.0
 50
0.0
 71
     0
 42
12.0
  3
ARIAL.TTF
  4

1001
ACAD
1000
Arial
1071
       34
  0
STYLE
  5
385
330
3
100
AcDbSymbolTableRecord
100
AcDbTextStyleTableRecord
  2
ROMANS
 70
     0
 40
0.0
 41
1.0
 50
0.0
 71
     0
 42
5.0
  3
romans.shx
  4

  0
STYLE
  5
A45
330
3
100
AcDbSymbolTableRecord
100
AcDbTextStyleTableRecord
  2
ISO
 70
     0
 40
0.0
 41
1.0
 50
0.0
 71
     0
 42
2.5
  3
txt_____.ttf
  4

1001
ACAD
1000
txt
1071
        0
  0
ENDTAB
  0
TABLE
  2
VIEW
  5
5
330
0
100
AcDbSymbolTable
 70
     0
  0
ENDTAB
  0
TABLE
  2
UCS
  5
6
330
0
100
AcDbSymbolTable
 70
     0
  0
ENDTAB
  0
TABLE
  2
APPID
  5
8
330
0
100
AcDbSymbolTable
 70
     4
  0
APPID
  5
16
330
8
100
AcDbSymbolTableRecord
100
AcDbRegAppTableRecord
  2
ACAD
 70
     0
  0
APPID
  5
7AC
330
8
100
AcDbSymbolTableRecord
100
AcDbRegAppTableRecord
  2
AcAecLayerStandard
 70
     0
  0
APPID
  5
121D
330
8
100
AcDbSymbolTableRecord
100
AcDbRegAppTableRecord
  2
ACAD_MLEADERVER
 70
     0
  0
APPID
  5
145B
330
8
100
AcDbSymbolTableRecord
100
AcDbRegAppTableRecord
  2
ACAD_DSTYLE_DIMBREAK
 70
     0
  0
ENDTAB
  0
TABLE
  2
DIMSTYLE
  5
9
330
0
100
AcDbSymbolTable
 70
     2
100
AcDbDimStyleTable
  0
DIMSTYLE
105
18
330
9
100
AcDbSymbolTableRecord
100
AcDbDimStyleTableRecord
  2
Standard
 70
     0
178
     0
340
17
  0
DIMSTYLE
105
57
102
{ACAD_REACTORS
330
1229
330
1245
330
1252
330
1261
330
1275
330
135F
330
13AA
102
}
330
9
100
AcDbSymbolTableRecord
100
AcDbDimStyleTableRecord
  2
tfrom線あり
 70
     0
  3
<>
  4
[]
 41
6.0
 42
15.0
 43
0.9999999999999999
 44
0.0
 73
     0
 74
     0
 77
     1
 78
    11
140
12.0
141
0.0
143
1.0
147
5.0
171
     1
174
     1
178
     0
179
     2
271
     0
272
     1
276
     2
284
    11
285
    11
286
    11
289
     0
340
39
341
4E
342
4E
1001
ACAD_DSTYLE_DIMBREAK
1070
   391
1040
0.0
  0
ENDTAB
  0
TABLE
  2
BLOCK_RECORD
  5
1
330
0
100
AcDbSymbolTable
 70
    13
  0
BLOCK_RECORD
  5
A
330
1
100
AcDbSymbolTableRecord
100
AcDbBlockTableRecord
  2
*MODEL_SPACE
340
20
 70
     0
280
     1
281
     0
  0
BLOCK_RECORD
  5
B
330
1
100
AcDbSymbolTableRecord
100
AcDbBlockTableRecord
  2
*PAPER_SPACE
340
21
 70
     0
280
     1
281
     0
  0
BLOCK_RECORD
  5
4E
330
1
100
AcDbSymbolTableRecord
100
AcDbBlockTableRecord
  2
_DOT
340
0
102
{BLKREFS
331
1230
331
1231
331
124C
331
124D
331
1259
331
125A
331
126A
331
126B
331
127E
331
127F
331
136A
331
136B
331
13B3
331
13B4
102
}
 70
     0
280
     1
281
     0
  0
BLOCK_RECORD
  5
68A
330
1
100
AcDbSymbolTableRecord
100
AcDbBlockTableRecord
  2
名称未設定-1
340
0
102
{BLKREFS
331
6B5
102
}
 70
     1
280
     1
281
     0
  0
BLOCK_RECORD
  5
68D
330
1
100
AcDbSymbolTableRecord
100
AcDbBlockTableRecord
  2
block 2
340
0
102
{BLKREFS
331
68C
102
}
 70
     0
280
     1
281
     0
  0
BLOCK_RECORD
  5
690
330
1
100
AcDbSymbolTableRecord
100
AcDbBlockTableRecord
  2
block 3
340
0
102
{BLKREFS
331
68F
102
}
 70
     0
280
     1
281
     0
  0
BLOCK_RECORD
  5
693
330
1
100
AcDbSymbolTableRecord
100
AcDbBlockTableRecord
  2
block 4
340
0
102
{BLKREFS
331
692
102
}
 70
     0
280
     1
281
     0
  0
BLOCK_RECORD
  5
6A2
330
1
100
AcDbSymbolTableRecord
100
AcDbBlockTableRecord
  2
block 5
340
0
102
{BLKREFS
331
6A1
102
}
 70
     0
280
     1
281
     0
  0
BLOCK_RECORD
  5
122A
330
1
100
AcDbSymbolTableRecord
100
AcDbBlockTableRecord
  2
*D6
340
0
 70
     0
280
     1
281
     0
  0
BLOCK_RECORD
  5
1246
330
1
100
AcDbSymbolTableRecord
100
AcDbBlockTableRecord
  2
*D7
340
0
 70
     0
280
     1
281
     0
  0
BLOCK_RECORD
  5
1253
330
1
100
AcDbSymbolTableRecord
100
AcDbBlockTableRecord
  2
*D8
340
0
 70
     0
280
     1
281
     0
  0
BLOCK_RECORD
  5
1264
330
1
100
AcDbSymbolTableRecord
100
AcDbBlockTableRecord
  2
*D9
340
0
 70
     0
280
     1
281
     0
  0
BLOCK_RECORD
  5
1278
330
1
100
AcDbSymbolTableRecord
100
AcDbBlockTableRecord
  2
*D10
340
0
 70
     0
280
     1
281
     0
  0
BLOCK_RECORD
  5
1362
330
1
100
AcDbSymbolTableRecord
100
AcDbBlockTableRecord
  2
*D11
340
0
 70
     0
280
     1
281
     0
  0
BLOCK_RECORD
  5
13AD
330
1
100
AcDbSymbolTableRecord
100
AcDbBlockTableRecord
  2
*D12
340
0
 70
     0
280
     1
281
     0
  0
ENDTAB
  0
ENDSEC
  0
SECTION
  2
BLOCKS
  0
BLOCK
  5
D
330
A
100
AcDbEntity
  8
0
390
1D
100
AcDbBlockBegin
  2
*MODEL_SPACE
 70
     0
 10
0.0
 20
0.0
 30
0.0
  3
*MODEL_SPACE
  1
*MODEL_SPACE
  0
ENDBLK
  5
E
330
A
100
AcDbEntity
  8
0
390
1D
100
AcDbBlockEnd
  0
BLOCK
  5
F
330
B
100
AcDbEntity
 67
     1
  8
0
390
1D
100
AcDbBlockBegin
  2
*PAPER_SPACE
 70
     0
 10
0.0
 20
0.0
 30
0.0
  3
*PAPER_SPACE
  1
*PAPER_SPACE
  0
ENDBLK
  5
10
330
B
100
AcDbEntity
 67
     1
  8
0
390
1D
100
AcDbBlockEnd
  0
BLOCK
  5
1460
330
4E
100
AcDbEntity
  8
0
390
1D
100
AcDbBlockBegin
  2
_DOT
 70
     0
 10
0.0
 20
0.0
 30
0.0
  3
_DOT
  1
_DOT
  0
POLYLINE
  5
1462
330
4E
100
AcDbEntity
  8
0
  6
ByBlock
 62
     0
370
    -2
390
1D
100
AcDb2dPolyline
 66
     1
 10
0.0
 20
0.0
 30
0.0
 70
     1
 40
0.5
 41
0.5
  0
VERTEX
  5
1463
330
1462
100
AcDbEntity
  8
0
  6
ByBlock
 62
     0
370
    -2
390
1D
100
AcDbVertex
100
AcDb2dVertex
 10
-0.25
 20
0.0
 30
0.0
 42
1.0
  0
VERTEX
  5
1464
330
1462
100
AcDbEntity
  8
0
  6
ByBlock
 62
     0
370
    -2
390
1D
100
AcDbVertex
100
AcDb2dVertex
 10
0.25
 20
0.0
 30
0.0
 42
1.0
  0
SEQEND
  5
1465
330
1462
100
AcDbEntity
  8
0
390
1D
  0
LINE
  5
1466
330
4E
100
AcDbEntity
  8
0
  6
ByBlock
 62
     0
370
    -2
390
1D
100
AcDbLine
 10
-0.5
 20
0.0
 30
0.0
 11
-1.0
 21
0.0
 31
0.0
  0
ENDBLK
  5
1467
330
4E
100
AcDbEntity
  8
0
390
1D
100
AcDbBlockEnd
  0
BLOCK
  5
68B
330
68A
100
AcDbEntity
  8
0
100
AcDbBlockBegin
  2
名称未設定-1
 70
     0
 10
0.0
 20
0.0
 30
0.0
  3
名称未設定-1
  1
名称未設定-1
  0
INSERT
  5
68C
330
68A
100
AcDbEntity
  8
レイヤー 1
100
AcDbBlockReference
  2
block 2
 10
0.0
 20
0.0
 30
0.0
  0
ENDBLK
  5
6B1
330
68A
100
AcDbEntity
  8
0
100
AcDbBlockEnd
  0
BLOCK
  5
68E
330
68D
100
AcDbEntity
  8
0
100
AcDbBlockBegin
  2
block 2
 70
     0
 10
0.0
 20
0.0
 30
0.0
  3
block 2
  1
block 2
  0
INSERT
  5
68F
330
68D
100
AcDbEntity
  8
レイヤー 1
100
AcDbBlockReference
  2
block 3
 10
0.0
 20
0.0
 30
0.0
  0
ENDBLK
  5
6B0
330
68D
100
AcDbEntity
  8
0
100
AcDbBlockEnd
  0
BLOCK
  5
691
330
690
100
AcDbEntity
  8
0
100
AcDbBlockBegin
  2
block 3
 70
     0
 10
0.0
 20
0.0
 30
0.0
  3
block 3
  1
block 3
  0
INSERT
  5
692
330
690
100
AcDbEntity
  8
レイヤー 1
100
AcDbBlockReference
  2
block 4
 10
0.0
 20
0.0
 30
0.0
  0
ENDBLK
  5
6AF
330
690
100
AcDbEntity
  8
0
100
AcDbBlockEnd
  0
BLOCK
  5
694
330
693
100
AcDbEntity
  8
0
100
AcDbBlockBegin
  2
block 4
 70
     0
 10
0.0
 20
0.0
 30
0.0
  3
block 4
  1
block 4
  0
POLYLINE
  5
695
330
693
100
AcDbEntity
  8
レイヤー 1
370
     0
100
AcDb2dPolyline
 66
     1
 10
0.0
 20
0.0
 30
0.0
  0
VERTEX
  5
696
330
695
100
AcDbEntity
  8
レイヤー 1
370
     0
100
AcDbVertex
100
AcDb2dVertex
 10
83.79545727667795
 20
167.6444858234922
 30
0.0
  0
VERTEX
  5
697
330
695
100
AcDbEntity
  8
レイヤー 1
370
     0
100
AcDbVertex
100
AcDb2dVertex
 10
83.79545727667795
 20
159.7968976406313
 30
0.0
  0
VERTEX
  5
698
330
695
100
AcDbEntity
  8
レイヤー 1
370
     0
100
AcDbVertex
100
AcDb2dVertex
 10
71.3631329975216
 20
159.7968976406313
 30
0.0
  0
VERTEX
  5
699
330
695
100
AcDbEntity
  8
レイヤー 1
370
     0
100
AcDbVertex
100
AcDb2dVertex
 10
71.3631329975216
 20
127.8027915271048
 30
0.0
  0
VERTEX
  5
69A
330
695
100
AcDbEntity
  8
レイヤー 1
370
     0
100
AcDbVertex
100
AcDb2dVertex
 10
60.43011526263018
 20
127.8027915271048
 30
0.0
  0
VERTEX
  5
69B
330
695
100
AcDbEntity
  8
レイヤー 1
370
     0
100
AcDbVertex
100
AcDb2dVertex
 10
60.43011526263018
 20
159.7968976406313
 30
0.0
  0
VERTEX
  5
69C
330
695
100
AcDbEntity
  8
レイヤー 1
370
     0
100
AcDbVertex
100
AcDb2dVertex
 10
48.21793273020759
 20
159.7968976406313
 30
0.0
  0
VERTEX
  5
69D
330
695
100
AcDbEntity
  8
レイヤー 1
370
     0
100
AcDbVertex
100
AcDb2dVertex
 10
48.21793273020759
 20
167.6444858234922
 30
0.0
  0
VERTEX
  5
69E
330
695
100
AcDbEntity
  8
レイヤー 1
370
     0
100
AcDbVertex
100
AcDb2dVertex
 10
83.79545727667795
 20
167.6444858234922
 30
0.0
  0
SEQEND
  5
69F
330
695
100
AcDbEntity
  8
レイヤー 1
370
     0
  0
HATCH
  5
6A0
330
693
100
AcDbEntity
  8
レイヤー 1
 62
   250
420
  2234388
100
AcDbHatch
 10
0.0
 20
0.0
 30
0.0
210
0.0
220
0.0
230
1.0
  2
SOLID
 70
     1
 71
     0
 91
        1
 92
        1
 93
        8
 72
     1
 10
83.79545727667795
 20
167.6444858234922
 11
83.79545727667795
 21
159.7968976406313
 72
     1
 10
83.79545727667795
 20
159.7968976406313
 11
71.3631329975216
 21
159.7968976406313
 72
     1
 10
71.3631329975216
 20
159.7968976406313
 11
71.3631329975216
 21
127.8027915271048
 72
     1
 10
71.3631329975216
 20
127.8027915271048
 11
60.43011526263018
 21
127.8027915271048
 72
     1
 10
60.43011526263018
 20
127.8027915271048
 11
60.43011526263018
 21
159.7968976406313
 72
     1
 10
60.43011526263018
 20
159.7968976406313
 11
48.21793273020759
 21
159.7968976406313
 72
     1
 10
48.21793273020759
 20
159.7968976406313
 11
48.21793273020759
 21
167.6444858234922
 72
     1
 10
48.21793273020759
 20
167.6444858234922
 11
83.79545727667795
 21
167.6444858234922
 97
        0
 75
     2
 76
     1
 98
        0
  0
INSERT
  5
6A1
330
693
100
AcDbEntity
  8
レイヤー 1
100
AcDbBlockReference
  2
block 5
 10
0.0
 20
0.0
 30
0.0
  0
ENDBLK
  5
6AE
330
693
100
AcDbEntity
  8
0
100
AcDbBlockEnd
  0
BLOCK
  5
6A3
330
6A2
100
AcDbEntity
  8
0
100
AcDbBlockBegin
  2
block 5
 70
     0
 10
0.0
 20
0.0
 30
0.0
  3
block 5
  1
block 5
  0
SPLINE
  5
6A4
330
6A2
100
AcDbEntity
  8
レイヤー 1
370
     0
100
AcDbSpline
210
0.0
220
0.0
230
1.0
 70
    11
 71
     3
 72
    56
 73
    52
 74
     0
 42
0.000000001
 43
0.0000000001
 40
0.0
 40
0.0
 40
0.0
 40
0.0
 40
1.0
 40
1.0
 40
1.0
 40
2.0
 40
2.0
 40
2.0
 40
3.0
 40
3.0
 40
3.0
 40
4.0
 40
4.0
 40
4.0
 40
5.0
 40
5.0
 40
5.0
 40
6.0
 40
6.0
 40
6.0
 40
7.0
 40
7.0
 40
7.0
 40
8.0
 40
8.0
 40
8.0
 40
9.0
 40
9.0
 40
9.0
 40
10.0
 40
10.0
 40
10.0
 40
11.0
 40
11.0
 40
11.0
 40
12.0
 40
12.0
 40
12.0
 40
13.0
 40
13.0
 40
13.0
 40
14.0
 40
14.0
 40
14.0
 40
15.0
 40
15.0
 40
15.0
 40
16.0
 40
16.0
 40
16.0
 40
17.0
 40
17.0
 40
17.0
 40
17.0
 10
100.4504378777679
 20
166.69157178364
 30
0.0
 10
101.9848844191641
 20
167.1313385124438
 30
0.0
 10
103.9637485713373
 20
166.7649523658846
 30
0.0
 10
103.9637485713373
 20
166.7649523658846
 30
0.0
 10
103.9637485713373
 20
166.7649523658846
 30
0.0
 10
103.0132460999156
 20
163.911205638077
 30
0.0
 10
103.0132460999156
 20
163.911205638077
 30
0.0
 10
103.0132460999156
 20
163.911205638077
 30
0.0
 10
101.0674548862189
 20
164.3601018759394
 30
0.0
 10
99.57090442016032
 20
163.1805004036133
 30
0.0
 10
98.40508333886608
 20
162.258247733807
 30
0.0
 10
97.65301849830304
 20
159.804132345923
 30
0.0
 10
97.3598406791005
 20
158.8699940888517
 30
0.0
 10
97.3598406791005
 20
158.8699940888517
 30
0.0
 10
96.07137411762282
 20
154.9119212747295
 30
0.0
 10
96.07137411762282
 20
154.9119212747295
 30
0.0
 10
96.07137411762282
 20
154.9119212747295
 30
0.0
 10
100.3012651448482
 20
154.9119212747295
 30
0.0
 10
100.3012651448482
 20
154.9119212747295
 30
0.0
 10
100.3012651448482
 20
154.9119212747295
 30
0.0
 10
99.64152892419852
 20
152.4199098115079
 30
0.0
 10
99.64152892419852
 20
152.4199098115079
 30
0.0
 10
99.64152892419852
 20
152.4199098115079
 30
0.0
 10
95.38097652692731
 20
152.4199098115079
 30
0.0
 10
95.38097652692731
 20
152.4199098115079
 30
0.0
 10
95.38097652692731
 20
152.4199098115079
 30
0.0
 10
87.75353009080013
 20
127.8027915271048
 30
0.0
 10
87.75353009080013
 20
127.8027915271048
 30
0.0
 10
87.75353009080013
 20
127.8027915271048
 30
0.0
 10
85.36538832498108
 20
127.8027915271048
 30
0.0
 10
85.36538832498108
 20
127.8027915271048
 30
0.0
 10
85.36538832498108
 20
127.8027915271048
 30
0.0
 10
93.00006946639998
 20
152.4199098115079
 30
0.0
 10
93.00006946639998
 20
152.4199098115079
 30
0.0
 10
93.00006946639998
 20
152.4199098115079
 30
0.0
 10
89.85297266450198
 20
152.4199098115079
 30
0.0
 10
89.85297266450198
 20
152.4199098115079
 30
0.0
 10
89.85297266450198
 20
152.4199098115079
 30
0.0
 10
90.51270888515164
 20
154.9119212747295
 30
0.0
 10
90.51270888515164
 20
154.9119212747295
 30
0.0
 10
90.51270888515164
 20
154.9119212747295
 30
0.0
 10
93.6904670570955
 20
154.9119212747295
 30
0.0
 10
93.6904670570955
 20
154.9119212747295
 30
0.0
 10
93.6904670570955
 20
154.9119212747295
 30
0.0
 10
94.81598049462158
 20
158.3616699146644
 30
0.0
 10
94.81598049462158
 20
158.3616699146644
 30
0.0
 10
95.7237637538445
 20
161.2605474231013
 30
0.0
 10
96.4968436907311
 20
162.8139420021662
 30
0.0
 10
97.15657991138076
 20
163.9844139654337
 30
0.0
 10
97.81183750494507
 20
165.1523021053827
 30
0.0
 10
99.1047826935081
 20
166.3084769129547
 30
0.0
 10
100.4504378777679
 20
166.69157178364
 30
0.0
  0
HATCH
  5
6A5
330
6A2
100
AcDbEntity
  8
レイヤー 1
 62
   250
420
  2234388
100
AcDbHatch
 10
0.0
 20
0.0
 30
0.0
210
0.0
220
0.0
230
1.0
  2
SOLID
 70
     1
 71
     0
 91
        1
 92
        1
 93
        1
 72
     4
 94
        3
 73
     0
 74
     1
 95
       56
 96
       52
 40
0.0
 40
0.0
 40
0.0
 40
0.0
 40
1.0
 40
1.0
 40
1.0
 40
2.0
 40
2.0
 40
2.0
 40
3.0
 40
3.0
 40
3.0
 40
4.0
 40
4.0
 40
4.0
 40
5.0
 40
5.0
 40
5.0
 40
6.0
 40
6.0
 40
6.0
 40
7.0
 40
7.0
 40
7.0
 40
8.0
 40
8.0
 40
8.0
 40
9.0
 40
9.0
 40
9.0
 40
10.0
 40
10.0
 40
10.0
 40
11.0
 40
11.0
 40
11.0
 40
12.0
 40
12.0
 40
12.0
 40
13.0
 40
13.0
 40
13.0
 40
14.0
 40
14.0
 40
14.0
 40
15.0
 40
15.0
 40
15.0
 40
16.0
 40
16.0
 40
16.0
 40
17.0
 40
17.0
 40
17.0
 40
17.0
 10
100.4504378777679
 20
166.69157178364
 10
101.9848844191641
 20
167.1313385124438
 10
103.9637485713373
 20
166.7649523658846
 10
103.9637485713373
 20
166.7649523658846
 10
103.9637485713373
 20
166.7649523658846
 10
103.0132460999156
 20
163.911205638077
 10
103.0132460999156
 20
163.911205638077
 10
103.0132460999156
 20
163.911205638077
 10
101.0674548862189
 20
164.3601018759394
 10
99.57090442016032
 20
163.1805004036133
 10
98.40508333886608
 20
162.258247733807
 10
97.65301849830304
 20
159.804132345923
 10
97.3598406791005
 20
158.8699940888517
 10
97.3598406791005
 20
158.8699940888517
 10
96.07137411762282
 20
154.9119212747295
 10
96.07137411762282
 20
154.9119212747295
 10
96.07137411762282
 20
154.9119212747295
 10
100.3012651448482
 20
154.9119212747295
 10
100.3012651448482
 20
154.9119212747295
 10
100.3012651448482
 20
154.9119212747295
 10
99.64152892419852
 20
152.4199098115079
 10
99.64152892419852
 20
152.4199098115079
 10
99.64152892419852
 20
152.4199098115079
 10
95.38097652692731
 20
152.4199098115079
 10
95.38097652692731
 20
152.4199098115079
 10
95.38097652692731
 20
152.4199098115079
 10
87.75353009080013
 20
127.8027915271048
 10
87.75353009080013
 20
127.8027915271048
 10
87.75353009080013
 20
127.8027915271048
 10
85.36538832498108
 20
127.8027915271048
 10
85.36538832498108
 20
127.8027915271048
 10
85.36538832498108
 20
127.8027915271048
 10
93.00006946639998
 20
152.4199098115079
 10
93.00006946639998
 20
152.4199098115079
 10
93.00006946639998
 20
152.4199098115079
 10
89.85297266450198
 20
152.4199098115079
 10
89.85297266450198
 20
152.4199098115079
 10
89.85297266450198
 20
152.4199098115079
 10
90.51270888515164
 20
154.9119212747295
 10
90.51270888515164
 20
154.9119212747295
 10
90.51270888515164
 20
154.9119212747295
 10
93.6904670570955
 20
154.9119212747295
 10
93.6904670570955
 20
154.9119212747295
 10
93.6904670570955
 20
154.9119212747295
 10
94.81598049462158
 20
158.3616699146644
 10
94.81598049462158
 20
158.3616699146644
 10
95.7237637538445
 20
161.2605474231013
 10
96.4968436907311
 20
162.8139420021662
 10
97.15657991138076
 20
163.9844139654337
 10
97.81183750494507
 20
165.1523021053827
 10
99.1047826935081
 20
166.3084769129547
 10
100.4504378777679
 20
166.69157178364
 97
        0
 75
     2
 76
     1
 98
        0
  0
SPLINE
  5
6A6
330
6A2
100
AcDbEntity
  8
レイヤー 1
370
     0
100
AcDbSpline
210
0.0
220
0.0
230
1.0
 70
    11
 71
     3
 72
    38
 73
    34
 74
     0
 42
0.000000001
 43
0.0000000001
 40
0.0
 40
0.0
 40
0.0
 40
0.0
 40
1.0
 40
1.0
 40
1.0
 40
2.0
 40
2.0
 40
2.0
 40
3.0
 40
3.0
 40
3.0
 40
4.0
 40
4.0
 40
4.0
 40
5.0
 40
5.0
 40
5.0
 40
6.0
 40
6.0
 40
6.0
 40
7.0
 40
7.0
 40
7.0
 40
8.0
 40
8.0
 40
8.0
 40
9.0
 40
9.0
 40
9.0
 40
10.0
 40
10.0
 40
10.0
 40
11.0
 40
11.0
 40
11.0
 40
11.0
 10
126.377554584636
 20
154.8151140277308
 30
0.0
 10
126.377554584636
 20
154.8151140277308
 30
0.0
 10
128.8311532078563
 20
154.8151140277308
 30
0.0
 10
128.8311532078563
 20
154.8151140277308
 30
0.0
 10
128.8311532078563
 20
154.8151140277308
 30
0.0
 10
127.7345785914971
 20
151.3062819612468
 30
0.0
 10
127.7345785914971
 20
151.3062819612468
 30
0.0
 10
128.571392836906
 20
152.2922689395754
 30
0.0
 10
129.8860421413442
 20
153.604506675583
 30
0.0
 10
131.0163787157314
 20
154.2664822097754
 30
0.0
 10
132.7044766171327
 20
155.2500576196734
 30
0.0
 10
133.6642808525008
 20
155.3847609420097
 30
0.0
 10
134.7284715499351
 20
155.3565111403944
 30
0.0
 10
134.7284715499351
 20
155.3565111403944
 30
0.0
 10
133.6877075172549
 20
152.0345756272799
 30
0.0
 10
133.6877075172549
 20
152.0345756272799
 30
0.0
 10
133.011434827367
 20
152.3184516825359
 30
0.0
 10
130.930940291334
 20
151.7768823149844
 30
0.0
 10
129.739280976855
 20
150.9162968950455
 30
0.0
 10
128.66613302525
 20
150.1454562717016
 30
0.0
 10
127.9192358313239
 20
149.4857200510519
 30
0.0
 10
127.0393578639405
 20
147.8282835196966
 30
0.0
 10
126.164647543194
 20
146.1699857139017
 30
0.0
 10
125.4742499524985
 20
143.5262176944419
 30
0.0
 10
124.2822461282437
 20
139.6959580071401
 30
0.0
 10
124.2822461282437
 20
139.6959580071401
 30
0.0
 10
120.5753209406769
 20
127.8027915271048
 30
0.0
 10
120.5753209406769
 20
127.8027915271048
 30
0.0
 10
120.5753209406769
 20
127.8027915271048
 30
0.0
 10
118.1964809388044
 20
127.8027915271048
 30
0.0
 10
118.1964809388044
 20
127.8027915271048
 30
0.0
 10
118.1964809388044
 20
127.8027915271048
 30
0.0
 10
126.377554584636
 20
154.8151140277308
 30
0.0
 10
126.377554584636
 20
154.8151140277308
 30
0.0
  0
HATCH
  5
6A7
330
6A2
100
AcDbEntity
  8
レイヤー 1
 62
   250
420
  2234388
100
AcDbHatch
 10
0.0
 20
0.0
 30
0.0
210
0.0
220
0.0
230
1.0
  2
SOLID
 70
     1
 71
     0
 91
        1
 92
        1
 93
        1
 72
     4
 94
        3
 73
     0
 74
     1
 95
       38
 96
       34
 40
0.0
 40
0.0
 40
0.0
 40
0.0
 40
1.0
 40
1.0
 40
1.0
 40
2.0
 40
2.0
 40
2.0
 40
3.0
 40
3.0
 40
3.0
 40
4.0
 40
4.0
 40
4.0
 40
5.0
 40
5.0
 40
5.0
 40
6.0
 40
6.0
 40
6.0
 40
7.0
 40
7.0
 40
7.0
 40
8.0
 40
8.0
 40
8.0
 40
9.0
 40
9.0
 40
9.0
 40
10.0
 40
10.0
 40
10.0
 40
11.0
 40
11.0
 40
11.0
 40
11.0
 10
126.377554584636
 20
154.8151140277308
 10
126.377554584636
 20
154.8151140277308
 10
128.8311532078563
 20
154.8151140277308
 10
128.8311532078563
 20
154.8151140277308
 10
128.8311532078563
 20
154.8151140277308
 10
127.7345785914971
 20
151.3062819612468
 10
127.7345785914971
 20
151.3062819612468
 10
128.571392836906
 20
152.2922689395754
 10
129.8860421413442
 20
153.604506675583
 10
131.0163787157314
 20
154.2664822097754
 10
132.7044766171327
 20
155.2500576196734
 10
133.6642808525008
 20
155.3847609420097
 10
134.7284715499351
 20
155.3565111403944
 10
134.7284715499351
 20
155.3565111403944
 10
133.6877075172549
 20
152.0345756272799
 10
133.6877075172549
 20
152.0345756272799
 10
133.011434827367
 20
152.3184516825359
 10
130.930940291334
 20
151.7768823149844
 10
129.739280976855
 20
150.9162968950455
 10
128.66613302525
 20
150.1454562717016
 10
127.9192358313239
 20
149.4857200510519
 10
127.0393578639405
 20
147.8282835196966
 10
126.164647543194
 20
146.1699857139017
 10
125.4742499524985
 20
143.5262176944419
 10
124.2822461282437
 20
139.6959580071401
 10
124.2822461282437
 20
139.6959580071401
 10
120.5753209406769
 20
127.8027915271048
 10
120.5753209406769
 20
127.8027915271048
 10
120.5753209406769
 20
127.8027915271048
 10
118.1964809388044
 20
127.8027915271048
 10
118.1964809388044
 20
127.8027915271048
 10
118.1964809388044
 20
127.8027915271048
 10
126.377554584636
 20
154.8151140277308
 10
126.377554584636
 20
154.8151140277308
 97
        0
 75
     2
 76
     1
 98
        0
  0
SPLINE
  5
6A8
330
6A2
100
AcDbEntity
  8
レイヤー 1
370
     0
100
AcDbSpline
210
0.0
220
0.0
230
1.0
 70
    11
 71
     3
 72
   104
 73
   100
 74
     0
 42
0.000000001
 43
0.0000000001
 40
0.0
 40
0.0
 40
0.0
 40
0.0
 40
1.0
 40
1.0
 40
1.0
 40
2.0
 40
2.0
 40
2.0
 40
3.0
 40
3.0
 40
3.0
 40
4.0
 40
4.0
 40
4.0
 40
5.0
 40
5.0
 40
5.0
 40
6.0
 40
6.0
 40
6.0
 40
7.0
 40
7.0
 40
7.0
 40
8.0
 40
8.0
 40
8.0
 40
9.0
 40
9.0
 40
9.0
 40
10.0
 40
10.0
 40
10.0
 40
11.0
 40
11.0
 40
11.0
 40
12.0
 40
12.0
 40
12.0
 40
13.0
 40
13.0
 40
13.0
 40
14.0
 40
14.0
 40
14.0
 40
15.0
 40
15.0
 40
15.0
 40
16.0
 40
16.0
 40
16.0
 40
17.0
 40
17.0
 40
17.0
 40
18.0
 40
18.0
 40
18.0
 40
19.0
 40
19.0
 40
19.0
 40
20.0
 40
20.0
 40
20.0
 40
21.0
 40
21.0
 40
21.0
 40
22.0
 40
22.0
 40
22.0
 40
23.0
 40
23.0
 40
23.0
 40
24.0
 40
24.0
 40
24.0
 40
25.0
 40
25.0
 40
25.0
 40
26.0
 40
26.0
 40
26.0
 40
27.0
 40
27.0
 40
27.0
 40
28.0
 40
28.0
 40
28.0
 40
29.0
 40
29.0
 40
29.0
 40
30.0
 40
30.0
 40
30.0
 40
31.0
 40
31.0
 40
31.0
 40
32.0
 40
32.0
 40
32.0
 40
33.0
 40
33.0
 40
33.0
 40
33.0
 10
139.8926730891197
 20
154.8294111834263
 30
0.0
 10
139.8926730891197
 20
154.8294111834263
 30
0.0
 10
142.0344903652445
 20
154.8294111834263
 30
0.0
 10
142.0344903652445
 20
154.8294111834263
 30
0.0
 10
142.0344903652445
 20
154.8294111834263
 30
0.0
 10
140.9516961399171
 20
151.3157559800812
 30
0.0
 10
140.9516961399171
 20
151.3157559800812
 30
0.0
 10
141.8928968473923
 20
152.7887075264977
 30
0.0
 10
142.7341897198865
 20
153.4484437471474
 30
0.0
 10
143.8552245303272
 20
154.2926649527359
 30
0.0
 10
144.9803934580775
 20
155.1296514530327
 30
0.0
 10
146.3139908001845
 20
155.3044901642492
 30
0.0
 10
147.241066606852
 20
155.3044901642492
 30
0.0
 10
148.3855280820469
 20
155.3044901642492
 30
0.0
 10
149.4969166187653
 20
155.0752189084569
 30
0.0
 10
150.0784491203092
 20
153.8172414621372
 30
0.0
 10
150.5228667310863
 20
152.833838307127
 30
0.0
 10
150.5414702589793
 20
152.7201500811143
 30
0.0
 10
150.4140016419347
 20
150.7765981809602
 30
0.0
 10
151.5818897818837
 20
152.7699317437168
 30
0.0
 10
152.4424752018226
 20
153.6256940267945
 30
0.0
 10
153.9038856707499
 20
154.4507949398263
 30
0.0
 10
155.4455669174378
 20
155.3044901642492
 30
0.0
 10
156.339225275853
 20
155.3659851592288
 30
0.0
 10
157.3748216618963
 20
155.2147453676543
 30
0.0
 10
158.911679771723
 20
154.9877134254046
 30
0.0
 10
159.8859534176746
 20
154.4390816074493
 30
0.0
 10
160.3965169054045
 20
152.7816450760939
 30
0.0
 10
160.9070803931344
 20
151.1219692311958
 30
0.0
 10
160.6328506116007
 20
150.2303779314354
 30
0.0
 10
159.9992971339115
 20
147.597634224801
 30
0.0
 10
159.7105979417943
 20
146.4014962832367
 30
0.0
 10
159.2947746424084
 20
144.9400858143094
 30
0.0
 10
158.7463150793409
 20
143.2092687007094
 30
0.0
 10
158.7463150793409
 20
143.2092687007094
 30
0.0
 10
153.9038856707499
 20
127.8027915271048
 30
0.0
 10
153.9038856707499
 20
127.8027915271048
 30
0.0
 10
153.9038856707499
 20
127.8027915271048
 30
0.0
 10
151.3882752878863
 20
127.8027915271048
 30
0.0
 10
151.3882752878863
 20
127.8027915271048
 30
0.0
 10
151.3882752878863
 20
127.8027915271048
 30
0.0
 10
155.6250565106276
 20
141.2751908193897
 30
0.0
 10
155.6250565106276
 20
141.2751908193897
 30
0.0
 10
156.5094131050963
 20
144.0936252951782
 30
0.0
 10
157.109893644309
 20
146.1506931664571
 30
0.0
 10
157.4220195011804
 20
147.4415712963654
 30
0.0
 10
157.8095929989511
 20
149.0530157726519
 30
0.0
 10
157.9656559273867
 20
149.5826995529385
 30
0.0
 10
157.7816877071116
 20
150.7529992613181
 30
0.0
 10
157.6111553680925
 20
151.8430281919372
 30
0.0
 10
157.0582171779396
 20
152.5547853887321
 30
0.0
 10
156.1170164704645
 20
152.5547853887321
 30
0.0
 10
155.1096698860365
 20
152.5547853887321
 30
0.0
 10
154.2962823053817
 20
152.4412694176073
 30
0.0
 10
153.156643967048
 20
151.2945686288697
 30
0.0
 10
152.0170056287143
 20
150.1476955852443
 30
0.0
 10
151.076149431015
 20
148.7930831468137
 30
0.0
 10
150.3337308641742
 20
147.2290087646991
 30
0.0
 10
149.5957909244188
 20
145.6683794803425
 30
0.0
 10
148.8530278478023
 20
143.6822806228776
 30
0.0
 10
148.0964843801539
 20
141.2751908193897
 30
0.0
 10
148.0964843801539
 20
141.2751908193897
 30
0.0
 10
143.8552245303272
 20
127.8027915271048
 30
0.0
 10
143.8552245303272
 20
127.8027915271048
 30
0.0
 10
143.8552245303272
 20
127.8027915271048
 30
0.0
 10
141.486030802177
 20
127.8027915271048
 30
0.0
 10
141.486030802177
 20
127.8027915271048
 30
0.0
 10
141.486030802177
 20
127.8027915271048
 30
0.0
 10
146.3329388378533
 20
143.2092687007094
 30
0.0
 10
146.3329388378533
 20
143.2092687007094
 30
0.0
 10
146.8483254624444
 20
144.8408669988801
 30
0.0
 10
147.2314203331297
 20
146.1837661049335
 30
0.0
 10
147.4867020769946
 20
147.224185627838
 30
0.0
 10
147.9169947869641
 20
149.0197705792876
 30
0.0
 10
148.0306830129768
 20
150.2400242051577
 30
0.0
 10
147.709255392159
 20
151.3157559800812
 30
0.0
 10
147.3874832615654
 20
152.3916600098926
 30
0.0
 10
146.8245542879144
 20
152.6683013598569
 30
0.0
 10
145.8840425999909
 20
152.6683013598569
 30
0.0
 10
145.0989048209514
 20
152.6683013598569
 30
0.0
 10
144.3282364524954
 20
152.3275811915945
 30
0.0
 10
143.4531816219731
 20
151.6538923250251
 30
0.0
 10
142.34627171234
 20
150.8074318058939
 30
0.0
 10
141.901854101563
 20
150.1097995099067
 30
0.0
 10
141.3578731655808
 20
149.289521733736
 30
0.0
 10
140.6299240093235
 20
148.192602607601
 30
0.0
 10
140.2850697237515
 20
147.455696197173
 30
0.0
 10
139.6652966370942
 20
145.8385673095858
 30
0.0
 10
139.0506911970739
 20
144.2214384219986
 30
0.0
 10
138.463991048893
 20
142.3252566160164
 30
0.0
 10
138.0571250036777
 20
141.0154304484394
 30
0.0
 10
138.0571250036777
 20
141.0154304484394
 30
0.0
 10
133.9009590684727
 20
127.8027915271048
 30
0.0
 10
133.9009590684727
 20
127.8027915271048
 30
0.0
 10
133.9009590684727
 20
127.8027915271048
 30
0.0
 10
131.4180771143097
 20
127.8027915271048
 30
0.0
 10
131.4180771143097
 20
127.8027915271048
 30
0.0
 10
131.4180771143097
 20
127.8027915271048
 30
0.0
 10
139.8926730891197
 20
154.8294111834263
 30
0.0
 10
139.8926730891197
 20
154.8294111834263
 30
0.0
  0
HATCH
  5
6A9
330
6A2
100
AcDbEntity
  8
レイヤー 1
 62
   250
420
  2234388
100
AcDbHatch
 10
0.0
 20
0.0
 30
0.0
210
0.0
220
0.0
230
1.0
  2
SOLID
 70
     1
 71
     0
 91
        1
 92
        1
 93
        1
 72
     4
 94
        3
 73
     0
 74
     1
 95
      104
 96
      100
 40
0.0
 40
0.0
 40
0.0
 40
0.0
 40
1.0
 40
1.0
 40
1.0
 40
2.0
 40
2.0
 40
2.0
 40
3.0
 40
3.0
 40
3.0
 40
4.0
 40
4.0
 40
4.0
 40
5.0
 40
5.0
 40
5.0
 40
6.0
 40
6.0
 40
6.0
 40
7.0
 40
7.0
 40
7.0
 40
8.0
 40
8.0
 40
8.0
 40
9.0
 40
9.0
 40
9.0
 40
10.0
 40
10.0
 40
10.0
 40
11.0
 40
11.0
 40
11.0
 40
12.0
 40
12.0
 40
12.0
 40
13.0
 40
13.0
 40
13.0
 40
14.0
 40
14.0
 40
14.0
 40
15.0
 40
15.0
 40
15.0
 40
16.0
 40
16.0
 40
16.0
 40
17.0
 40
17.0
 40
17.0
 40
18.0
 40
18.0
 40
18.0
 40
19.0
 40
19.0
 40
19.0
 40
20.0
 40
20.0
 40
20.0
 40
21.0
 40
21.0
 40
21.0
 40
22.0
 40
22.0
 40
22.0
 40
23.0
 40
23.0
 40
23.0
 40
24.0
 40
24.0
 40
24.0
 40
25.0
 40
25.0
 40
25.0
 40
26.0
 40
26.0
 40
26.0
 40
27.0
 40
27.0
 40
27.0
 40
28.0
 40
28.0
 40
28.0
 40
29.0
 40
29.0
 40
29.0
 40
30.0
 40
30.0
 40
30.0
 40
31.0
 40
31.0
 40
31.0
 40
32.0
 40
32.0
 40
32.0
 40
33.0
 40
33.0
 40
33.0
 40
33.0
 10
139.8926730891197
 20
154.8294111834263
 10
139.8926730891197
 20
154.8294111834263
 10
142.0344903652445
 20
154.8294111834263
 10
142.0344903652445
 20
154.8294111834263
 10
142.0344903652445
 20
154.8294111834263
 10
140.9516961399171
 20
151.3157559800812
 10
140.9516961399171
 20
151.3157559800812
 10
141.8928968473923
 20
152.7887075264977
 10
142.7341897198865
 20
153.4484437471474
 10
143.8552245303272
 20
154.2926649527359
 10
144.9803934580775
 20
155.1296514530327
 10
146.3139908001845
 20
155.3044901642492
 10
147.241066606852
 20
155.3044901642492
 10
148.3855280820469
 20
155.3044901642492
 10
149.4969166187653
 20
155.0752189084569
 10
150.0784491203092
 20
153.8172414621372
 10
150.5228667310863
 20
152.833838307127
 10
150.5414702589793
 20
152.7201500811143
 10
150.4140016419347
 20
150.7765981809602
 10
151.5818897818837
 20
152.7699317437168
 10
152.4424752018226
 20
153.6256940267945
 10
153.9038856707499
 20
154.4507949398263
 10
155.4455669174378
 20
155.3044901642492
 10
156.339225275853
 20
155.3659851592288
 10
157.3748216618963
 20
155.2147453676543
 10
158.911679771723
 20
154.9877134254046
 10
159.8859534176746
 20
154.4390816074493
 10
160.3965169054045
 20
152.7816450760939
 10
160.9070803931344
 20
151.1219692311958
 10
160.6328506116007
 20
150.2303779314354
 10
159.9992971339115
 20
147.597634224801
 10
159.7105979417943
 20
146.4014962832367
 10
159.2947746424084
 20
144.9400858143094
 10
158.7463150793409
 20
143.2092687007094
 10
158.7463150793409
 20
143.2092687007094
 10
153.9038856707499
 20
127.8027915271048
 10
153.9038856707499
 20
127.8027915271048
 10
153.9038856707499
 20
127.8027915271048
 10
151.3882752878863
 20
127.8027915271048
 10
151.3882752878863
 20
127.8027915271048
 10
151.3882752878863
 20
127.8027915271048
 10
155.6250565106276
 20
141.2751908193897
 10
155.6250565106276
 20
141.2751908193897
 10
156.5094131050963
 20
144.0936252951782
 10
157.109893644309
 20
146.1506931664571
 10
157.4220195011804
 20
147.4415712963654
 10
157.8095929989511
 20
149.0530157726519
 10
157.9656559273867
 20
149.5826995529385
 10
157.7816877071116
 20
150.7529992613181
 10
157.6111553680925
 20
151.8430281919372
 10
157.0582171779396
 20
152.5547853887321
 10
156.1170164704645
 20
152.5547853887321
 10
155.1096698860365
 20
152.5547853887321
 10
154.2962823053817
 20
152.4412694176073
 10
153.156643967048
 20
151.2945686288697
 10
152.0170056287143
 20
150.1476955852443
 10
151.076149431015
 20
148.7930831468137
 10
150.3337308641742
 20
147.2290087646991
 10
149.5957909244188
 20
145.6683794803425
 10
148.8530278478023
 20
143.6822806228776
 10
148.0964843801539
 20
141.2751908193897
 10
148.0964843801539
 20
141.2751908193897
 10
143.8552245303272
 20
127.8027915271048
 10
143.8552245303272
 20
127.8027915271048
 10
143.8552245303272
 20
127.8027915271048
 10
141.486030802177
 20
127.8027915271048
 10
141.486030802177
 20
127.8027915271048
 10
141.486030802177
 20
127.8027915271048
 10
146.3329388378533
 20
143.2092687007094
 10
146.3329388378533
 20
143.2092687007094
 10
146.8483254624444
 20
144.8408669988801
 10
147.2314203331297
 20
146.1837661049335
 10
147.4867020769946
 20
147.224185627838
 10
147.9169947869641
 20
149.0197705792876
 10
148.0306830129768
 20
150.2400242051577
 10
147.709255392159
 20
151.3157559800812
 10
147.3874832615654
 20
152.3916600098926
 10
146.8245542879144
 20
152.6683013598569
 10
145.8840425999909
 20
152.6683013598569
 10
145.0989048209514
 20
152.6683013598569
 10
144.3282364524954
 20
152.3275811915945
 10
143.4531816219731
 20
151.6538923250251
 10
142.34627171234
 20
150.8074318058939
 10
141.901854101563
 20
150.1097995099067
 10
141.3578731655808
 20
149.289521733736
 10
140.6299240093235
 20
148.192602607601
 10
140.2850697237515
 20
147.455696197173
 10
139.6652966370942
 20
145.8385673095858
 10
139.0506911970739
 20
144.2214384219986
 10
138.463991048893
 20
142.3252566160164
 10
138.0571250036777
 20
141.0154304484394
 10
138.0571250036777
 20
141.0154304484394
 10
133.9009590684727
 20
127.8027915271048
 10
133.9009590684727
 20
127.8027915271048
 10
133.9009590684727
 20
127.8027915271048
 10
131.4180771143097
 20
127.8027915271048
 10
131.4180771143097
 20
127.8027915271048
 10
131.4180771143097
 20
127.8027915271048
 10
139.8926730891197
 20
154.8294111834263
 10
139.8926730891197
 20
154.8294111834263
 97
        0
 75
     2
 76
     1
 98
        0
  0
SPLINE
  5
6AA
330
6A2
100
AcDbEntity
  8
レイヤー 1
370
     0
100
AcDbSpline
210
0.0
220
0.0
230
1.0
 70
    11
 71
     3
 72
    29
 73
    25
 74
     0
 42
0.000000001
 43
0.0000000001
 40
0.0
 40
0.0
 40
0.0
 40
0.0
 40
1.0
 40
1.0
 40
1.0
 40
2.0
 40
2.0
 40
2.0
 40
3.0
 40
3.0
 40
3.0
 40
4.0
 40
4.0
 40
4.0
 40
5.0
 40
5.0
 40
5.0
 40
6.0
 40
6.0
 40
6.0
 40
7.0
 40
7.0
 40
7.0
 40
8.0
 40
8.0
 40
8.0
 40
8.0
 10
101.6420971922469
 20
132.8388354296931
 30
0.0
 10
101.630039350094
 20
134.7164137077823
 30
0.0
 10
102.2236296937908
 20
138.0598810818841
 30
0.0
 10
103.7487744712405
 20
142.5378191476827
 30
0.0
 10
105.819967243327
 20
148.5896501242061
 30
0.0
 10
107.0602024361932
 20
150.8074318058939
 30
0.0
 10
108.1522984254671
 20
151.8833358357054
 30
0.0
 10
109.741177511439
 20
153.4532668840085
 30
0.0
 10
111.8740375333931
 20
153.5290590346837
 30
0.0
 10
112.5075910110823
 20
153.4532668840085
 30
0.0
 10
113.4012493694975
 20
153.3490526768302
 30
0.0
 10
114.6683563248758
 20
152.7580461564518
 30
0.0
 10
114.7493161221879
 20
150.7838328862519
 30
0.0
 10
114.8106388622796
 20
149.0909118479895
 30
0.0
 10
114.3186789024427
 20
145.9191825971221
 30
0.0
 10
112.6164561002338
 20
140.9489400617108
 30
0.0
 10
110.6444821435766
 20
135.1746117095912
 30
0.0
 10
109.4669477299053
 20
132.8960240524753
 30
0.0
 10
108.5212683953448
 20
131.9072809959403
 30
0.0
 10
106.7346406980658
 20
130.0538184021569
 30
0.0
 10
104.8222669326213
 20
130.2336525051225
 30
0.0
 10
104.5408024457958
 20
130.2336525051225
 30
0.0
 10
104.1721769856939
 20
130.2336525051225
 30
0.0
 10
101.6465758193322
 20
130.6305277668397
 30
0.0
 10
101.6420971922469
 20
132.8388354296931
 30
0.0
  0
SPLINE
  5
6AB
330
6A2
100
AcDbEntity
  8
レイヤー 1
370
     0
100
AcDbSpline
210
0.0
220
0.0
230
1.0
 70
    11
 71
     3
 72
    32
 73
    28
 74
     0
 42
0.000000001
 43
0.0000000001
 40
0.0
 40
0.0
 40
0.0
 40
0.0
 40
1.0
 40
1.0
 40
1.0
 40
2.0
 40
2.0
 40
2.0
 40
3.0
 40
3.0
 40
3.0
 40
4.0
 40
4.0
 40
4.0
 40
5.0
 40
5.0
 40
5.0
 40
6.0
 40
6.0
 40
6.0
 40
7.0
 40
7.0
 40
7.0
 40
8.0
 40
8.0
 40
8.0
 40
9.0
 40
9.0
 40
9.0
 40
9.0
 10
106.2595617172429
 20
153.4105476718098
 30
0.0
 10
104.8222669326213
 20
151.5474388043041
 30
0.0
 10
103.7177685914188
 20
149.8758773721411
 30
0.0
 10
101.9232171692965
 20
144.6141795664062
 30
0.0
 10
100.2754269116635
 20
139.7999999594306
 30
0.0
 10
99.22777268346732
 20
136.3052927937542
 30
0.0
 10
99.06964269637689
 20
132.039572749846
 30
0.0
 10
98.94665270641765
 20
128.8673267343149
 30
0.0
 10
100.8807305877373
 20
127.8027915271048
 30
0.0
 10
103.7129454545577
 20
127.8027915271048
 30
0.0
 10
104.9352661390825
 20
127.8027915271048
 30
0.0
 10
108.0151835347002
 20
127.8827177950895
 30
0.0
 10
110.2045431598849
 20
130.5926316915021
 30
0.0
 10
111.7417457794874
 20
132.4984597712065
 30
0.0
 10
113.155269389579
 20
134.475256864725
 30
0.0
 10
115.0562743324223
 20
140.9489400617108
 30
0.0
 10
116.6361961642235
 20
146.3680788349845
 30
0.0
 10
117.7282921534974
 20
149.8639917848761
 30
0.0
 10
117.6480213757369
 20
151.8595646611754
 30
0.0
 10
117.6480213757369
 20
151.8595646611754
 30
0.0
 10
117.6480213757369
 20
151.8595646611754
 30
0.0
 10
117.6480213757369
 20
151.8595646611754
 30
0.0
 10
117.13229024137
 20
155.18150017429
 30
0.0
 10
114.7162431837115
 20
155.886194920681
 30
0.0
 10
113.3351034925446
 20
155.886194920681
 30
0.0
 10
111.9829026225447
 20
155.886194920681
 30
0.0
 10
108.3414342923792
 20
156.1251124501957
 30
0.0
 10
106.2595617172429
 20
153.4105476718098
 30
0.0
  0
HATCH
  5
6AC
330
6A2
100
AcDbEntity
  8
レイヤー 1
 62
   250
420
  2234388
100
AcDbHatch
 10
0.0
 20
0.0
 30
0.0
210
0.0
220
0.0
230
1.0
  2
SOLID
 70
     1
 71
     0
 91
        2
 92
        1
 93
        1
 72
     4
 94
        3
 73
     0
 74
     1
 95
       29
 96
       25
 40
0.0
 40
0.0
 40
0.0
 40
0.0
 40
1.0
 40
1.0
 40
1.0
 40
2.0
 40
2.0
 40
2.0
 40
3.0
 40
3.0
 40
3.0
 40
4.0
 40
4.0
 40
4.0
 40
5.0
 40
5.0
 40
5.0
 40
6.0
 40
6.0
 40
6.0
 40
7.0
 40
7.0
 40
7.0
 40
8.0
 40
8.0
 40
8.0
 40
8.0
 10
101.6420971922469
 20
132.8388354296931
 10
101.630039350094
 20
134.7164137077823
 10
102.2236296937908
 20
138.0598810818841
 10
103.7487744712405
 20
142.5378191476827
 10
105.819967243327
 20
148.5896501242061
 10
107.0602024361932
 20
150.8074318058939
 10
108.1522984254671
 20
151.8833358357054
 10
109.741177511439
 20
153.4532668840085
 10
111.8740375333931
 20
153.5290590346837
 10
112.5075910110823
 20
153.4532668840085
 10
113.4012493694975
 20
153.3490526768302
 10
114.6683563248758
 20
152.7580461564518
 10
114.7493161221879
 20
150.7838328862519
 10
114.8106388622796
 20
149.0909118479895
 10
114.3186789024427
 20
145.9191825971221
 10
112.6164561002338
 20
140.9489400617108
 10
110.6444821435766
 20
135.1746117095912
 10
109.4669477299053
 20
132.8960240524753
 10
108.5212683953448
 20
131.9072809959403
 10
106.7346406980658
 20
130.0538184021569
 10
104.8222669326213
 20
130.2336525051225
 10
104.5408024457958
 20
130.2336525051225
 10
104.1721769856939
 20
130.2336525051225
 10
101.6465758193322
 20
130.6305277668397
 10
101.6420971922469
 20
132.8388354296931
 97
        0
 92
        1
 93
        1
 72
     4
 94
        3
 73
     0
 74
     1
 95
       32
 96
       28
 40
0.0
 40
0.0
 40
0.0
 40
0.0
 40
1.0
 40
1.0
 40
1.0
 40
2.0
 40
2.0
 40
2.0
 40
3.0
 40
3.0
 40
3.0
 40
4.0
 40
4.0
 40
4.0
 40
5.0
 40
5.0
 40
5.0
 40
6.0
 40
6.0
 40
6.0
 40
7.0
 40
7.0
 40
7.0
 40
8.0
 40
8.0
 40
8.0
 40
9.0
 40
9.0
 40
9.0
 40
9.0
 10
106.2595617172429
 20
153.4105476718098
 10
104.8222669326213
 20
151.5474388043041
 10
103.7177685914188
 20
149.8758773721411
 10
101.9232171692965
 20
144.6141795664062
 10
100.2754269116635
 20
139.7999999594306
 10
99.22777268346732
 20
136.3052927937542
 10
99.06964269637689
 20
132.039572749846
 10
98.94665270641765
 20
128.8673267343149
 10
100.8807305877373
 20
127.8027915271048
 10
103.7129454545577
 20
127.8027915271048
 10
104.9352661390825
 20
127.8027915271048
 10
108.0151835347002
 20
127.8827177950895
 10
110.2045431598849
 20
130.5926316915021
 10
111.7417457794874
 20
132.4984597712065
 10
113.155269389579
 20
134.475256864725
 10
115.0562743324223
 20
140.9489400617108
 10
116.6361961642235
 20
146.3680788349845
 10
117.7282921534974
 20
149.8639917848761
 10
117.6480213757369
 20
151.8595646611754
 10
117.6480213757369
 20
151.8595646611754
 10
117.6480213757369
 20
151.8595646611754
 10
117.6480213757369
 20
151.8595646611754
 10
117.13229024137
 20
155.18150017429
 10
114.7162431837115
 20
155.886194920681
 10
113.3351034925446
 20
155.886194920681
 10
111.9829026225447
 20
155.886194920681
 10
108.3414342923792
 20
156.1251124501957
 10
106.2595617172429
 20
153.4105476718098
 97
        0
 75
     2
 76
     1
 98
        0
  0
ENDBLK
  5
6AD
330
6A2
100
AcDbEntity
  8
0
100
AcDbBlockEnd
  0
BLOCK
  5
122B
330
122A
100
AcDbEntity
  8
0
100
AcDbBlockBegin
  2
*D6
 70
     1
 10
0.0
 20
0.0
 30
0.0
  3
*D6
  1

  0
LINE
  5
122D
330
122A
100
AcDbEntity
  8
DIM
  6
Continuous
 62
     0
370
    -2
100
AcDbLine
 10
314.9643279892102
 20
825.4901502818292
 30
0.0
 11
371.3859723863413
 21
825.4901502818292
 31
0.0
  0
LINE
  5
122E
330
122A
100
AcDbEntity
  8
DIM
  6
Continuous
 62
     0
370
    -2
100
AcDbLine
 10
314.9643279892102
 20
997.4901502818292
 30
0.0
 11
371.3859723863413
 21
997.4901502818292
 31
0.0
  0
LINE
  5
122F
330
122A
100
AcDbEntity
  8
DIM
  6
Continuous
 62
     0
370
    -2
100
AcDbLine
 10
371.3859723863413
 20
831.4901502818292
 30
0.0
 11
371.3859723863413
 21
991.4901502818292
 31
0.0
  0
INSERT
  5
1230
330
122A
100
AcDbEntity
  8
DIM
 62
     0
370
    -2
100
AcDbBlockReference
  2
_DOT
 10
371.3859723863413
 20
825.4901502818292
 30
0.0
 41
6.0
 42
6.0
 43
6.0
 50
270.0
  0
INSERT
  5
1231
330
122A
100
AcDbEntity
  8
DIM
 62
     0
370
    -2
100
AcDbBlockReference
  2
_DOT
 10
371.3859723863413
 20
997.4901502818292
 30
0.0
 41
6.0
 42
6.0
 43
6.0
 50
90.0
  0
MTEXT
  5
1232
330
122A
100
AcDbEntity
  8
DIM
 62
     0
370
    -3
100
AcDbMText
 10
360.3859723863413
 20
911.4901502818292
 30
0.0
 40
12.0
 41
0.0
 46
0.0
 71
     5
 72
     1
  1
\A1;172
  7
ＭＳ ゴシック
 11
0.0
 21
1.0
 31
0.0
 73
     1
 44
1.0
  0
POINT
  5
1233
330
122A
100
AcDbEntity
  8
Defpoints
 62
     0
100
AcDbPoint
 10
299.9643279892102
 20
825.4901502818292
 30
0.0
  0
POINT
  5
1234
330
122A
100
AcDbEntity
  8
Defpoints
 62
     0
100
AcDbPoint
 10
299.9643279892102
 20
997.4901502818292
 30
0.0
  0
POINT
  5
1235
330
122A
100
AcDbEntity
  8
Defpoints
 62
     0
100
AcDbPoint
 10
371.3859723863413
 20
997.4901502818292
 30
0.0
  0
ENDBLK
  5
122C
330
122A
100
AcDbEntity
  8
0
100
AcDbBlockEnd
  0
BLOCK
  5
1247
330
1246
100
AcDbEntity
  8
0
100
AcDbBlockBegin
  2
*D7
 70
     1
 10
0.0
 20
0.0
 30
0.0
  3
*D7
  1

  0
LINE
  5
1249
330
1246
100
AcDbEntity
  8
DIM
  6
Continuous
 62
     0
370
    -2
100
AcDbLine
 10
586.9951428599261
 20
1012.090149367794
 30
0.0
 11
586.9951428599261
 21
1063.409499302036
 31
0.0
  0
LINE
  5
124A
330
1246
100
AcDbEntity
  8
DIM
  6
Continuous
 62
     0
370
    -2
100
AcDbLine
 10
701.9951428599261
 20
938.0313873020359
 30
0.0
 11
701.9951428599261
 21
1063.409499302036
 31
0.0
  0
LINE
  5
124B
330
1246
100
AcDbEntity
  8
DIM
  6
Continuous
 62
     0
370
    -2
100
AcDbLine
 10
592.9951428599261
 20
1063.409499302036
 30
0.0
 11
695.9951428599261
 21
1063.409499302036
 31
0.0
  0
INSERT
  5
124C
330
1246
100
AcDbEntity
  8
DIM
 62
     0
370
    -2
100
AcDbBlockReference
  2
_DOT
 10
586.9951428599261
 20
1063.409499302036
 30
0.0
 41
6.0
 42
6.0
 43
6.0
 50
180.0
  0
INSERT
  5
124D
330
1246
100
AcDbEntity
  8
DIM
 62
     0
370
    -2
100
AcDbBlockReference
  2
_DOT
 10
701.9951428599261
 20
1063.409499302036
 30
0.0
 41
6.0
 42
6.0
 43
6.0
  0
MTEXT
  5
124E
330
1246
100
AcDbEntity
  8
DIM
 62
     0
370
    -3
100
AcDbMText
 10
644.4951428599261
 20
1074.409499302036
 30
0.0
 40
12.0
 41
0.0
 46
0.0
 71
     5
 72
     1
  1
\A1;115
  7
ＭＳ ゴシック
 73
     1
 44
1.0
  0
POINT
  5
124F
330
1246
100
AcDbEntity
  8
Defpoints
 62
     0
100
AcDbPoint
 10
586.9951428599261
 20
997.0901493677943
 30
0.0
  0
POINT
  5
1250
330
1246
100
AcDbEntity
  8
Defpoints
 62
     0
100
AcDbPoint
 10
701.9951428599261
 20
923.0313873020359
 30
0.0
  0
POINT
  5
1251
330
1246
100
AcDbEntity
  8
Defpoints
 62
     0
100
AcDbPoint
 10
701.9951428599261
 20
1063.409499302036
 30
0.0
  0
ENDBLK
  5
1248
330
1246
100
AcDbEntity
  8
0
100
AcDbBlockEnd
  0
BLOCK
  5
1254
330
1253
100
AcDbEntity
  8
0
100
AcDbBlockBegin
  2
*D8
 70
     1
 10
0.0
 20
0.0
 30
0.0
  3
*D8
  1

  0
LINE
  5
1256
330
1253
100
AcDbEntity
  8
DIM
  6
Continuous
 62
     0
370
    -2
100
AcDbLine
 10
627.2951457996318
 20
825.4901502818292
 30
0.0
 11
825.1413966516499
 21
825.4901502818292
 31
0.0
  0
LINE
  5
1257
330
1253
100
AcDbEntity
  8
DIM
  6
Continuous
 62
     0
370
    -2
100
AcDbLine
 10
718.6505215389227
 20
898.4901502818292
 30
0.0
 11
825.1413966516499
 21
898.4901502818292
 31
0.0
  0
LINE
  5
1258
330
1253
100
AcDbEntity
  8
DIM
  6
Continuous
 62
     0
370
    -2
100
AcDbLine
 10
825.1413966516499
 20
831.4901502818292
 30
0.0
 11
825.1413966516499
 21
892.4901502818292
 31
0.0
  0
INSERT
  5
1259
330
1253
100
AcDbEntity
  8
DIM
 62
     0
370
    -2
100
AcDbBlockReference
  2
_DOT
 10
825.1413966516499
 20
825.4901502818292
 30
0.0
 41
6.0
 42
6.0
 43
6.0
 50
270.0
  0
INSERT
  5
125A
330
1253
100
AcDbEntity
  8
DIM
 62
     0
370
    -2
100
AcDbBlockReference
  2
_DOT
 10
825.1413966516499
 20
898.4901502818292
 30
0.0
 41
6.0
 42
6.0
 43
6.0
 50
90.0
  0
MTEXT
  5
125B
330
1253
100
AcDbEntity
  8
DIM
 62
     0
370
    -3
100
AcDbMText
 10
814.1413966516499
 20
861.9901502818292
 30
0.0
 40
12.0
 41
0.0
 46
0.0
 71
     5
 72
     1
  1
\A1;73
  7
ＭＳ ゴシック
 11
0.0
 21
1.0
 31
0.0
 73
     1
 44
1.0
  0
POINT
  5
125C
330
1253
100
AcDbEntity
  8
Defpoints
 62
     0
100
AcDbPoint
 10
612.2951457996318
 20
825.4901502818292
 30
0.0
  0
POINT
  5
125D
330
1253
100
AcDbEntity
  8
Defpoints
 62
     0
100
AcDbPoint
 10
703.6505215389227
 20
898.4901502818292
 30
0.0
  0
POINT
  5
125E
330
1253
100
AcDbEntity
  8
Defpoints
 62
     0
100
AcDbPoint
 10
825.1413966516499
 20
898.4901502818292
 30
0.0
  0
ENDBLK
  5
1255
330
1253
100
AcDbEntity
  8
0
100
AcDbBlockEnd
  0
BLOCK
  5
1265
330
1264
100
AcDbEntity
  8
0
100
AcDbBlockBegin
  2
*D9
 70
     1
 10
0.0
 20
0.0
 30
0.0
  3
*D9
  1

  0
LINE
  5
1267
330
1264
100
AcDbEntity
  8
DIM
  6
Continuous
 62
     0
370
    -2
100
AcDbLine
 10
703.0124164144871
 20
887.2599865757321
 30
0.0
 11
703.0124164144871
 21
840.8658417956575
 31
0.0
  0
LINE
  5
1268
330
1264
100
AcDbEntity
  8
DIM
  6
Continuous
 62
     0
370
    -2
100
AcDbLine
 10
707.8577091730804
 20
888.5708922132911
 30
0.0
 11
731.0610766585687
 21
848.3814531802756
 31
0.0
  0
ARC
  5
1269
330
1264
100
AcDbEntity
  8
DIM
  6
Continuous
 62
     0
370
    -2
100
AcDbCircle
 10
703.0124164144871
 20
896.9631912207684
 30
0.0
 40
56.09734942511089
100
AcDbArc
 50
276.1311052069893
 51
293.8688777293445
  0
INSERT
  5
126A
330
1264
100
AcDbEntity
  8
DIM
 62
     0
370
    -2
100
AcDbBlockReference
  2
_DOT
 10
703.0124164144871
 20
840.8658417956575
 30
0.0
 41
6.0
 42
6.0
 43
6.0
 50
183.0655526034946
  0
INSERT
  5
126B
330
1264
100
AcDbEntity
  8
DIM
 62
     0
370
    -2
100
AcDbBlockReference
  2
_DOT
 10
731.0610766585687
 20
848.3814531802756
 30
0.0
 41
6.0
 42
6.0
 43
6.0
 50
26.93443033283905
  0
MTEXT
  5
126C
330
1264
100
AcDbEntity
  8
DIM
 62
     0
370
    -3
100
AcDbMText
 10
714.6301108735215
 20
853.6053394074172
 30
0.0
 40
12.0
 41
0.0
 46
0.0
 71
     5
 72
     1
  1
\A1;30%%d
  7
ＭＳ ゴシック
 11
0.965925864829434
 21
0.2588189012678753
 31
0.0
 73
     1
 44
1.0
  0
POINT
  5
126D
330
1264
100
AcDbEntity
  8
Defpoints
 62
     0
100
AcDbPoint
 10
712.7536134297892
 20
841.7180856164521
 30
0.0
  0
POINT
  5
126E
330
1264
100
AcDbEntity
  8
Defpoints
 62
     0
100
AcDbPoint
 10
703.0124164144871
 20
896.3507337411334
 30
0.0
  0
POINT
  5
126F
330
1264
100
AcDbEntity
  8
Defpoints
 62
     0
100
AcDbPoint
 10
703.2776181457377
 20
896.5038480320604
 30
0.0
  0
POINT
  5
1270
330
1264
100
AcDbEntity
  8
Defpoints
 62
     0
100
AcDbPoint
 10
705.3577104626665
 20
892.9010199767561
 30
0.0
  0
POINT
  5
1271
330
1264
100
AcDbEntity
  8
Defpoints
 62
     0
100
AcDbPoint
 10
703.0124164144871
 20
892.2599865757321
 30
0.0
  0
ENDBLK
  5
1266
330
1264
100
AcDbEntity
  8
0
100
AcDbBlockEnd
  0
BLOCK
  5
1279
330
1278
100
AcDbEntity
  8
0
100
AcDbBlockBegin
  2
*D10
 70
     1
 10
0.0
 20
0.0
 30
0.0
  3
*D10
  1

  0
LINE
  5
127B
330
1278
100
AcDbEntity
  8
DIM
  6
Continuous
 62
     0
370
    -2
100
AcDbLine
 10
546.6951457996319
 20
825.4901502818292
 30
0.0
 11
478.4471137616506
 21
825.4901502818292
 31
0.0
  0
LINE
  5
127C
330
1278
100
AcDbEntity
  8
DIM
  6
Continuous
 62
     0
370
    -2
100
AcDbLine
 10
563.5682747744391
 20
582.6014972575327
 30
0.0
 11
478.4471137616506
 21
582.6014972575327
 31
0.0
  0
LINE
  5
127D
330
1278
100
AcDbEntity
  8
DIM
  6
Continuous
 62
     0
370
    -2
100
AcDbLine
 10
478.4471137616506
 20
819.4901502818292
 30
0.0
 11
478.4471137616506
 21
588.6014972575327
 31
0.0
  0
INSERT
  5
127E
330
1278
100
AcDbEntity
  8
DIM
 62
     0
370
    -2
100
AcDbBlockReference
  2
_DOT
 10
478.4471137616506
 20
825.4901502818292
 30
0.0
 41
6.0
 42
6.0
 43
6.0
 50
90.0
  0
INSERT
  5
127F
330
1278
100
AcDbEntity
  8
DIM
 62
     0
370
    -2
100
AcDbBlockReference
  2
_DOT
 10
478.4471137616506
 20
582.6014972575327
 30
0.0
 41
6.0
 42
6.0
 43
6.0
 50
270.0
  0
MTEXT
  5
1280
330
1278
100
AcDbEntity
  8
DIM
 62
     0
370
    -3
100
AcDbMText
 10
467.4471137616506
 20
704.045823769681
 30
0.0
 40
12.0
 41
0.0
 46
0.0
 71
     5
 72
     1
  1
\A1;350
  7
ＭＳ ゴシック
 11
0.0
 21
1.0
 31
0.0
 73
     1
 44
1.0
  0
POINT
  5
1281
330
1278
100
AcDbEntity
  8
Defpoints
 62
     0
100
AcDbPoint
 10
561.6951457996319
 20
825.4901502818292
 30
0.0
  0
POINT
  5
1282
330
1278
100
AcDbEntity
  8
Defpoints
 62
     0
100
AcDbPoint
 10
578.5682747744391
 20
582.6014972575327
 30
0.0
  0
POINT
  5
1283
330
1278
100
AcDbEntity
  8
Defpoints
 62
     0
100
AcDbPoint
 10
478.4471137616506
 20
582.6014972575327
 30
0.0
  0
ENDBLK
  5
127A
330
1278
100
AcDbEntity
  8
0
100
AcDbBlockEnd
  0
BLOCK
  5
1363
330
1362
100
AcDbEntity
  8
0
100
AcDbBlockBegin
  2
*D11
 70
     1
 10
0.0
 20
0.0
 30
0.0
  3
*D11
  1

  0
LINE
  5
1365
330
1362
100
AcDbEntity
  8
DIM
 62
     0
370
    -2
100
AcDbLine
 10
622.8951428599258
 20
785.4901502818292
 30
0.0
 11
652.9149243131043
 21
785.4901502818292
 31
0.0
  0
LINE
  5
1366
330
1362
100
AcDbEntity
  8
DIM
 62
     0
370
    -2
100
AcDbLine
 10
624.4951428599257
 20
825.4901502818292
 30
0.0
 11
652.9149243131043
 21
825.4901502818292
 31
0.0
  0
LINE
  5
1367
330
1362
100
AcDbEntity
  8
DIM
 62
     0
370
    -2
100
AcDbLine
 10
652.9149243131043
 20
785.4901502818292
 30
0.0
 11
652.9149243131043
 21
709.7421502818291
 31
0.0
  0
LINE
  5
1368
330
1362
100
AcDbEntity
  8
DIM
 62
     0
370
    -2
100
AcDbLine
 10
652.9149243131043
 20
791.4901502818292
 30
0.0
 11
652.9149243131043
 21
819.4901502818292
 31
0.0
  0
LINE
  5
1369
330
1362
100
AcDbEntity
  8
DIM
 62
     0
370
    -2
100
AcDbLine
 10
652.9149243131043
 20
791.4901502818292
 30
0.0
 11
652.9149243131043
 21
797.4901502818292
 31
0.0
  0
INSERT
  5
136A
330
1362
100
AcDbEntity
  8
DIM
 62
     0
370
    -2
100
AcDbBlockReference
  2
_DOT
 10
652.9149243131043
 20
785.4901502818292
 30
0.0
 41
6.0
 42
6.0
 43
6.0
 50
270.0
  0
INSERT
  5
136B
330
1362
100
AcDbEntity
  8
DIM
 62
     0
370
    -2
100
AcDbBlockReference
  2
_DOT
 10
652.9149243131043
 20
825.4901502818292
 30
0.0
 41
6.0
 42
6.0
 43
6.0
 50
90.0
  0
MTEXT
  5
136C
330
1362
100
AcDbEntity
  8
DIM
 62
     0
370
    -3
100
AcDbMText
 10
641.9149243131043
 20
741.6161502818292
 30
0.0
 40
12.0
 41
0.0
 46
0.0
 71
     5
 72
     1
  1
\A1;max. 40
  7
ＭＳ ゴシック
 11
0.0
 21
1.0
 31
0.0
 73
     1
 44
1.0
  0
POINT
  5
136D
330
1362
100
AcDbEntity
  8
Defpoints
 62
     0
100
AcDbPoint
 10
607.8951428599258
 20
785.4901502818292
 30
0.0
  0
POINT
  5
136E
330
1362
100
AcDbEntity
  8
Defpoints
 62
     0
100
AcDbPoint
 10
609.4951428599257
 20
825.4901502818292
 30
0.0
  0
POINT
  5
1372
330
1362
100
AcDbEntity
  8
Defpoints
 62
     0
100
AcDbPoint
 10
652.9149243131043
 20
825.4901502818292
 30
0.0
  0
ENDBLK
  5
1364
330
1362
100
AcDbEntity
  8
0
100
AcDbBlockEnd
  0
BLOCK
  5
13AE
330
13AD
100
AcDbEntity
  8
0
100
AcDbBlockBegin
  2
*D12
 70
     1
 10
0.0
 20
0.0
 30
0.0
  3
*D12
  1

  0
LINE
  5
13B0
330
13AD
100
AcDbEntity
  8
DIM
 62
     0
370
    -2
100
AcDbLine
 10
566.2138108269963
 20
999.8502768764606
 30
0.0
 11
478.4471137616506
 21
999.8502768764606
 31
0.0
  0
LINE
  5
13B1
330
13AD
100
AcDbEntity
  8
DIM
 62
     0
370
    -2
100
AcDbLine
 10
546.6951457996319
 20
825.4901502818292
 30
0.0
 11
478.4471137616506
 21
825.4901502818292
 31
0.0
  0
LINE
  5
13B2
330
13AD
100
AcDbEntity
  8
DIM
 62
     0
370
    -2
100
AcDbLine
 10
478.4471137616506
 20
993.8502768764606
 30
0.0
 11
478.4471137616506
 21
831.4901502818292
 31
0.0
  0
INSERT
  5
13B3
330
13AD
100
AcDbEntity
  8
DIM
 62
     0
370
    -2
100
AcDbBlockReference
  2
_DOT
 10
478.4471137616506
 20
999.8502768764606
 30
0.0
 41
6.0
 42
6.0
 43
6.0
 50
90.0
  0
INSERT
  5
13B4
330
13AD
100
AcDbEntity
  8
DIM
 62
     0
370
    -2
100
AcDbBlockReference
  2
_DOT
 10
478.4471137616506
 20
825.4901502818292
 30
0.0
 41
6.0
 42
6.0
 43
6.0
 50
270.0
  0
MTEXT
  5
13B5
330
13AD
100
AcDbEntity
  8
DIM
 62
     0
370
    -3
100
AcDbMText
 10
467.4471137616506
 20
912.670213579145
 30
0.0
 40
12.0
 41
0.0
 46
0.0
 71
     5
 72
     1
  1
\A1;174
  7
ＭＳ ゴシック
 11
0.0
 21
1.0
 31
0.0
 73
     1
 44
1.0
  0
POINT
  5
13B6
330
13AD
100
AcDbEntity
  8
Defpoints
 62
     0
100
AcDbPoint
 10
581.2138108269963
 20
999.8502768764606
 30
0.0
  0
POINT
  5
13B7
330
13AD
100
AcDbEntity
  8
Defpoints
 62
     0
100
AcDbPoint
 10
561.6951457996319
 20
825.4901502818292
 30
0.0
  0
POINT
  5
13B8
330
13AD
100
AcDbEntity
  8
Defpoints
 62
     0
100
AcDbPoint
 10
478.4471137616506
 20
825.4901502818292
 30
0.0
  0
ENDBLK
  5
13AF
330
13AD
100
AcDbEntity
  8
0
100
AcDbBlockEnd
  0
ENDSEC
  0
SECTION
  2
ENTITIES
  0
MTEXT
  5
177
330
A
100
AcDbEntity
  8
template
 62
     7
390
1D
100
AcDbMText
 10
33.88545454535267
 20
167.2655694517236
 30
0.0
 40
8.144205729166664
 41
0.0
 46
0.0
 71
     1
 72
     1
  1
品名
  7
ＭＳ ゴシック
 73
     1
 44
0.7828267384257843
  0
MTEXT
  5
178
330
A
100
AcDbEntity
  8
template
 62
     7
390
1D
100
AcDbMText
 10
33.88545454535267
 20
124.7655694517235
 30
0.0
 40
8.144205729166664
 41
0.0
 46
0.0
 71
     1
 72
     1
  1
仕様
  7
ＭＳ ゴシック
 73
     1
 44
0.7828267384257843
  0
LINE
  5
179
330
A
100
AcDbEntity
  8
template
  6
Continuous
 62
     7
370
     5
390
1D
100
AcDbLine
 10
1005.385454545112
 20
128.9730303892237
 30
0.0
 11
30.38545454511166
 21
128.9730303892237
 31
0.0
  0
LWPOLYLINE
  5
17A
330
A
100
AcDbEntity
  8
template
  6
Continuous
 62
     7
370
     5
390
1D
100
AcDbPolyline
 90
        5
 70
   128
 43
0.0
 10
1005.385454545112
 20
1443.973030389223
 10
30.38545454511166
 20
1443.973030389223
 10
30.38545454511166
 20
43.97303038922358
 10
1005.385454545112
 20
43.97303038922358
 10
1005.385454545112
 20
1443.973030389223
  0
LINE
  5
17B
330
A
100
AcDbEntity
  8
template
  6
Continuous
 62
     7
370
     5
390
1D
100
AcDbLine
 10
1005.385454545112
 20
171.4730303892235
 30
0.0
 11
30.38545454511166
 21
171.4730303892235
 31
0.0
  0
LINE
  5
17C
330
A
100
AcDbEntity
  8
template
  6
Continuous
 62
     7
370
     5
390
1D
100
AcDbLine
 10
1005.385454545353
 20
86.4730303892236
 30
0.0
 11
628.8854545453526
 21
86.4730303892236
 31
0.0
  0
MTEXT
  5
17E
330
A
100
AcDbEntity
  8
template
 62
     7
390
1D
100
AcDbMText
 10
643.821157671483
 20
71.51783315256954
 30
0.0
 40
12.21630859375
 41
0.0
 46
0.0
 71
     1
 72
     1
  1
大洋金物株式会社 ティーフォルム事業部
  7
ＭＳ ゴシック
 73
     1
 44
0.7828267384257843
  0
MTEXT
  5
180
330
A
100
AcDbEntity
  8
template
 62
     7
390
1D
100
AcDbMText
 10
909.8854545454825
 20
110.4743389829735
 30
0.0
 40
12.21630859375
 41
0.0
 46
31.87751004016064
 71
     1
 72
     1
  1
{1:5}
  7
ＭＳ ゴシック
 73
     1
 44
0.7828267384257843
1001
ACAD
1000
ACAD_MTEXT_DEFINED_HEIGHT_BEGIN
1070
    46
1040
31.87751004016064
1000
ACAD_MTEXT_DEFINED_HEIGHT_END
  0
MTEXT
  5
181
330
A
100
AcDbEntity
  8
template
 62
     7
390
1D
100
AcDbMText
 10
883.3854545454825
 20
124.7655694517235
 30
0.0
 40
8.144205729166664
 41
0.0
 46
0.0
 71
     1
 72
     1
  1
縮尺
  7
ＭＳ ゴシック
 73
     1
 44
0.7828267384257843
  0
LINE
  5
182
330
A
100
AcDbEntity
  8
template
  6
Continuous
 62
     7
370
     5
390
1D
100
AcDbLine
 10
879.8854545454825
 20
86.4730303892236
 30
0.0
 11
879.8854545454825
 21
128.9730303892237
 31
0.0
  0
MTEXT
  5
183
330
A
100
AcDbEntity
  8
template
 62
     7
390
1D
100
AcDbMText
 10
757.8854545454825
 20
124.7655694517235
 30
0.0
 40
8.144205729166664
 41
0.0
 46
0.0
 71
     1
 72
     1
  1
容量
  7
ＭＳ ゴシック
 73
     1
 44
0.7828267384257843
  0
LINE
  5
184
330
A
100
AcDbEntity
  8
template
  6
Continuous
 62
     7
370
     5
390
1D
100
AcDbLine
 10
754.3854545454825
 20
86.4730303892236
 30
0.0
 11
754.3854545454825
 21
128.9730303892237
 31
0.0
  0
MTEXT
  5
185
330
A
100
AcDbEntity
  8
template
 62
     7
390
1D
100
AcDbMText
 10
632.3854545454825
 20
167.2655694517236
 30
0.0
 40
8.144205729166664
 41
0.0
 46
0.0
 71
     1
 72
     1
  1
品番
  7
ＭＳ ゴシック
 73
     1
 44
0.7828267384257843
  0
MTEXT
  5
186
330
A
100
AcDbEntity
  8
template
 62
     7
390
1D
100
AcDbMText
 10
632.3854545454825
 20
124.7655694517235
 30
0.0
 40
8.144205729166664
 41
0.0
 46
0.0
 71
     1
 72
     1
  1
重量
  7
ＭＳ ゴシック
 73
     1
 44
0.7828267384257843
  0
MTEXT
  5
187
330
A
100
AcDbEntity
  8
template
 62
     7
390
1D
100
AcDbMText
 10
658.8854545454825
 20
152.9743389829736
 30
0.0
 40
12.21630859375
 41
0.0
 46
12.21630859375
 71
     1
 72
     1
  1
{AGN73-0188}
  7
ＭＳ ゴシック
 73
     1
 44
0.7828267384257843
1001
ACAD
1000
ACAD_MTEXT_DEFINED_HEIGHT_BEGIN
1070
    46
1040
12.21630859375
1000
ACAD_MTEXT_DEFINED_HEIGHT_END
  0
LINE
  5
188
330
A
100
AcDbEntity
  8
template
  6
Continuous
 62
     7
370
     5
390
1D
100
AcDbLine
 10
628.8854545454825
 20
43.97303038922358
 30
0.0
 11
628.8854545454825
 21
171.4730303892235
 31
0.0
  0
MTEXT
  5
189
330
A
100
AcDbEntity
  8
template
 62
     7
390
1D
100
AcDbMText
 10
60.38545454535267
 20
152.9743389829736
 30
0.0
 40
12.21630859375
 41
0.0
 46
16.61065199273657
 71
     1
 72
     1
  1
{混合栓 -FANTINI,Nostromo-}
  7
ＭＳ ゴシック
 73
     1
 44
0.7828267384257843
1001
ACAD
1000
ACAD_MTEXT_DEFINED_HEIGHT_BEGIN
1070
    46
1040
16.61065199273657
1000
ACAD_MTEXT_DEFINED_HEIGHT_END
  0
INSERT
  5
6B5
330
A
100
AcDbEntity
  8
template
  6
Continuous
370
     0
100
AcDbBlockReference
  2
名称未設定-1
 10
929.6597563157122
 20
8.373076514336368
 30
0.0
 41
0.3809999999999999
 42
0.3809999999999999
 43
0.3809999999999999
  0
MTEXT
  5
828
330
A
100
AcDbEntity
  8
template
 62
     7
390
1D
100
AcDbMText
 10
658.8854545454825
 20
190.1944736898687
 30
0.0
 40
12.21630859375
 41
0.0
 46
13.38907421875
 71
     1
 72
     1
  1
{AGN73-0188-N25 マットブラック}
  7
ＭＳ ゴシック
 73
     1
 44
0.7828267384257843
1001
ACAD
1000
ACAD_MTEXT_DEFINED_HEIGHT_BEGIN
1070
    46
1040
13.38907421875
1000
ACAD_MTEXT_DEFINED_HEIGHT_END
  0
MTEXT
  5
850
330
A
100
AcDbEntity
  8
template
 62
     7
390
1D
100
AcDbMText
 10
658.8854545454825
 20
209.9145789435664
 30
0.0
 40
12.21630859375
 41
0.0
 46
12.7782587890625
 71
     1
 72
     1
  1
{AGN73-0188-N24 マットホワイト}
  7
ＭＳ ゴシック
 73
     1
 44
0.7828267384257843
1001
ACAD
1000
ACAD_MTEXT_DEFINED_HEIGHT_BEGIN
1070
    46
1040
12.7782587890625
1000
ACAD_MTEXT_DEFINED_HEIGHT_END
  0
LINE
  5
E6B
330
A
100
AcDbEntity
  8
MODEL
100
AcDbLine
 10
603.6387160128985
 20
825.4901407765166
 30
0.0
 11
603.6387160128985
 21
785.4901381414944
 31
0.0
  0
LINE
  5
E6C
330
A
100
AcDbEntity
  8
MODEL
100
AcDbLine
 10
568.6387160128985
 20
825.4901402222353
 30
0.0
 11
568.6387160128985
 21
785.490137587213
 31
0.0
  0
LINE
  5
E70
102
{ACAD_REACTORS
330
120D
102
}
330
A
100
AcDbEntity
  8
HIDDEN
 48
2.0
100
AcDbLine
 10
600.4613094247853
 20
959.6992731572576
 30
0.0
 11
564.208998211033
 21
942.7945421135158
 31
0.0
  0
LINE
  5
E71
102
{ACAD_REACTORS
330
120D
102
}
330
A
100
AcDbEntity
  8
HIDDEN
 48
2.0
100
AcDbLine
 10
550.7448946089727
 20
971.66840427276
 30
0.0
 11
564.208998211033
 21
942.7945421135158
 31
0.0
  0
LINE
  5
E72
102
{ACAD_REACTORS
330
120D
102
}
330
A
100
AcDbEntity
  8
HIDDEN
 48
2.0
100
AcDbLine
 10
549.6351101201818
 20
974.3961780347066
 30
0.0
 11
549.8887060004416
 21
973.8524049843707
 31
0.0
  0
LINE
  5
E73
102
{ACAD_REACTORS
330
120D
102
}
330
A
100
AcDbEntity
  8
HIDDEN
 48
2.0
100
AcDbLine
 10
550.9179298699052
 20
971.2980507134613
 30
0.0
 11
550.7366791258095
 21
971.2135320999167
 31
0.0
  0
ELLIPSE
  5
E74
102
{ACAD_REACTORS
330
120D
102
}
330
A
100
AcDbEntity
  8
HIDDEN
 48
2.0
100
AcDbEllipse
 10
549.4476933837242
 20
973.9777708299653
 30
0.0
 11
1.288985742485659
 21
-2.764238729861931
 31
0.0
210
0.0
220
0.0
230
1.0
 40
0.0109221440928974
 41
-0.0000000132606139
 42
3.141592640329713
  0
ELLIPSE
  5
E75
102
{ACAD_REACTORS
330
120D
102
}
330
A
100
AcDbEntity
  8
HIDDEN
 48
2.0
100
AcDbEllipse
 10
549.6289441278199
 20
974.0622894435098
 30
0.0
 11
1.288985742485659
 21
-2.764238729861931
 31
0.0
210
0.0
220
0.0
230
1.0
 40
0.0109221440928974
 41
-0.0000000132605065
 42
3.14159264032918
  0
ARC
  5
E76
102
{ACAD_REACTORS
330
120D
102
}
330
A
100
AcDbEntity
  8
HIDDEN
 48
2.0
100
AcDbCircle
 10
559.8046283304874
 20
978.8072891121652
 30
0.0
 40
11.82828934093525
100
AcDbArc
 50
190.0699063768801
 51
219.9300954408892
  0
LINE
  5
E77
102
{ACAD_REACTORS
330
120D
102
}
330
A
100
AcDbEntity
  8
HIDDEN
 48
2.0
100
AcDbLine
 10
548.3399583857346
 20
976.8265281735585
 30
0.0
 11
548.1587076416389
 21
976.7420095600138
 31
0.0
  0
LINE
  5
E78
102
{ACAD_REACTORS
330
120D
102
}
330
A
100
AcDbEntity
  8
HIDDEN
 48
2.0
100
AcDbLine
 10
545.6036060150624
 20
982.6939327868703
 30
0.0
 11
548.5124043718848
 21
976.4559948382146
 31
0.0
  0
ARC
  5
E79
102
{ACAD_REACTORS
330
120D
102
}
330
A
100
AcDbEntity
  8
HIDDEN
 48
2.0
100
AcDbCircle
 10
546.0567599052343
 20
982.9052419249173
 30
0.0
 40
0.5
100
AcDbArc
 50
117.7960266036769
 51
205.0000009071582
  0
ARC
  5
E7A
102
{ACAD_REACTORS
330
120D
102
}
330
A
100
AcDbEntity
  8
HIDDEN
 48
2.0
100
AcDbCircle
 10
732.4702964001405
 20
629.2810686682486
 30
0.0
 40
400.2500000000001
100
AcDbArc
 50
115.000000907371
 51
117.796026603656
  0
ARC
  5
E7B
102
{ACAD_REACTORS
330
120D
102
}
330
A
100
AcDbEntity
  8
HIDDEN
 48
2.0
100
AcDbCircle
 10
732.4702964001405
 20
629.2810686682486
 30
0.0
 40
400.2500000000001
100
AcDbArc
 50
112.2039752110859
 51
115.000000907371
  0
ARC
  5
E7C
102
{ACAD_REACTORS
330
120D
330
13AC
102
}
330
A
100
AcDbEntity
  8
HIDDEN
 48
2.0
100
AcDbCircle
 10
581.402763338643
 20
999.3873546925653
 30
0.0
 40
0.5
100
AcDbArc
 50
25.00000090758942
 51
112.2039752110816
  0
LINE
  5
E7D
102
{ACAD_REACTORS
330
120D
102
}
330
A
100
AcDbEntity
  8
HIDDEN
 48
2.0
100
AcDbLine
 10
581.8559172288147
 20
999.5986638306123
 30
0.0
 11
600.4613094247853
 21
959.6992731572576
 31
0.0
  0
LINE
  5
E7E
330
A
100
AcDbEntity
  8
MODEL
100
AcDbLine
 10
586.9951428599257
 20
949.7401493677943
 30
0.0
 11
566.9951428599257
 21
949.7401493677943
 31
0.0
  0
LINE
  5
E7F
330
A
100
AcDbEntity
  8
MODEL
100
AcDbLine
 10
606.9951428599257
 20
949.7401493677943
 30
0.0
 11
586.9951428599257
 21
949.7401493677943
 31
0.0
  0
LINE
  5
E80
330
A
100
AcDbEntity
  8
MODEL
100
AcDbLine
 10
566.9951428599257
 20
829.4900993677919
 30
0.0
 11
566.9951428599257
 21
949.7401493677943
 31
0.0
  0
LINE
  5
E81
330
A
100
AcDbEntity
  8
MODEL
100
AcDbLine
 10
606.9951428599257
 20
829.4900993677919
 30
0.0
 11
606.9951428599257
 21
916.9901493677943
 31
0.0
  0
LINE
  5
E82
330
A
100
AcDbEntity
  8
MODEL
100
AcDbLine
 10
606.9951428599257
 20
940.9901493677944
 30
0.0
 11
606.9951428599257
 21
949.7401493677943
 31
0.0
  0
LINE
  5
E83
330
A
100
AcDbEntity
  8
MODEL
100
AcDbLine
 10
606.9951428599257
 20
949.7401493677943
 30
0.0
 11
606.7928393145672
 21
949.942452913153
 31
0.0
  0
LINE
  5
E84
330
A
100
AcDbEntity
  8
MODEL
100
AcDbLine
 10
566.9951428599257
 20
949.7401493677943
 30
0.0
 11
567.1974464052847
 21
949.942452913153
 31
0.0
  0
LINE
  5
E85
330
A
100
AcDbEntity
  8
MODEL
100
AcDbLine
 10
599.3816428599258
 20
785.4901502818292
 30
0.0
 11
599.3816428599258
 21
824.7547392748338
 31
0.0
  0
LINE
  5
E86
330
A
100
AcDbEntity
  8
MODEL
100
AcDbLine
 10
599.3816428599258
 20
760.6086857437808
 30
0.0
 11
599.3816428599258
 21
779.4901502818292
 31
0.0
  0
ARC
  5
E87
330
A
100
AcDbEntity
  8
MODEL
100
AcDbCircle
 10
586.9951428599257
 20
940.816050824165
 30
0.0
 40
21.8
100
AcDbArc
 50
24.74889970328404
 51
31.14197436512256
  0
ARC
  5
E88
330
A
100
AcDbEntity
  8
MODEL
100
AcDbCircle
 10
586.9951428599257
 20
940.816050824165
 30
0.0
 40
21.8
100
AcDbArc
 50
148.8580256348773
 51
155.2511002967149
  0
LINE
  5
E89
330
A
100
AcDbEntity
  8
MODEL
100
AcDbLine
 10
606.995142859926
 20
952.0901493677944
 30
0.0
 11
566.9963124946304
 21
952.0901493677942
 31
0.0
  0
LINE
  5
E8A
330
A
100
AcDbEntity
  8
MODEL
100
AcDbLine
 10
566.9963124946304
 20
952.0901493677942
 30
0.0
 11
566.995142859926
 21
952.0901493677942
 31
0.0
  0
LINE
  5
E8B
330
A
100
AcDbEntity
  8
MODEL
100
AcDbLine
 10
567.1439828373881
 20
986.5901493677942
 30
0.0
 11
567.1428308795572
 21
986.8115905816212
 31
0.0
  0
LINE
  5
E8C
330
A
100
AcDbEntity
  8
MODEL
100
AcDbLine
 10
567.1428308795572
 20
986.3687081539672
 30
0.0
 11
567.1439828373881
 21
986.5901493677942
 31
0.0
  0
LWPOLYLINE
  5
E8D
330
A
100
AcDbEntity
  8
MODEL
100
AcDbPolyline
 90
       12
 70
     0
 43
0.0
 10
567.0126605551121
 20
989.1664922923272
 10
567.0467181722996
 20
988.9429205149833
 10
567.0916400472996
 20
988.5828130931083
 10
567.1381793539402
 20
988.1071661204522
 10
567.1764789144871
 20
987.5430792063893
 10
567.1982379476902
 20
986.9229620188893
 10
567.1987262289402
 20
986.2831304759212
 10
567.1777301351902
 20
985.6614874095143
 10
567.1399493734715
 20
985.0944097727962
 10
567.0935626547215
 20
984.6146124095143
 10
567.0483966390965
 20
984.2494390696712
 10
567.0126605551121
 20
984.0138433665462
  0
LINE
  5
E8E
330
A
100
AcDbEntity
  8
MODEL
100
AcDbLine
 10
566.9951428599257
 20
996.1142563419382
 30
0.0
 11
566.9951428599257
 21
989.6401493677943
 31
0.0
  0
LINE
  5
E8F
330
A
100
AcDbEntity
  8
MODEL
100
AcDbLine
 10
566.9951428599257
 20
983.5401493677942
 30
0.0
 11
566.995142859926
 21
952.0901493677943
 31
0.0
  0
LINE
  5
E90
330
A
100
AcDbEntity
  8
MODEL
100
AcDbLine
 10
606.9951428599257
 20
996.1142563419382
 30
0.0
 11
606.995142859926
 21
952.0901493677944
 31
0.0
  0
ARC
  5
E91
330
A
100
AcDbEntity
  8
MODEL
100
AcDbCircle
 10
567.4951428599257
 20
996.1142563419382
 30
0.0
 40
0.5
100
AcDbArc
 50
92.79602569628929
 51
179.9999999997785
  0
ARC
  5
E92
330
A
100
AcDbEntity
  8
MODEL
100
AcDbCircle
 10
606.4951428599257
 20
996.1142563419382
 30
0.0
 40
0.5
100
AcDbArc
 50
0.0000000002214684
 51
87.20397430371072
  0
ARC
  5
E93
330
A
100
AcDbEntity
  8
MODEL
100
AcDbCircle
 10
586.9951428599267
 20
596.8401493677942
 30
0.0
 40
400.2500000000001
100
AcDbArc
 50
90.00000000000016
 51
92.7960256962852
  0
ARC
  5
E94
330
A
100
AcDbEntity
  8
MODEL
100
AcDbCircle
 10
586.9951428599267
 20
596.8401493677942
 30
0.0
 40
400.2500000000001
100
AcDbArc
 50
87.20397430371504
 51
90.00000000000009
  0
LINE
  5
E95
330
A
100
AcDbEntity
  8
MODEL
100
AcDbLine
 10
599.9951428599257
 20
785.4901502818292
 30
0.0
 11
599.9951428599257
 21
824.7547392748338
 31
0.0
  0
LINE
  5
E96
330
A
100
AcDbEntity
  8
MODEL
100
AcDbLine
 10
599.9951428599257
 20
760.6086857437808
 30
0.0
 11
599.9951428599257
 21
779.4901502818292
 31
0.0
  0
ELLIPSE
  5
E97
330
A
100
AcDbEntity
  8
MODEL
100
AcDbEllipse
 10
566.7950138699215
 20
986.5901493677942
 30
0.0
 11
5.926988719125247E-15
 21
-3.050000000000001
 31
0.0
210
0.0
220
0.0
230
1.0
 40
0.0108148139680282
 41
6.242649526953278
 42
9.465317406223493
  0
LINE
  5
E98
330
A
100
AcDbEntity
  8
MODEL
100
AcDbLine
 10
567.0279003039956
 20
986.3687081539672
 30
0.0
 11
567.199964322058
 21
986.3687081539672
 31
0.0
  0
LINE
  5
E99
330
A
100
AcDbEntity
  8
MODEL
100
AcDbLine
 10
567.1973735273478
 20
986.9684419317672
 30
0.0
 11
567.027732658598
 21
986.9684419317672
 31
0.0
  0
LINE
  5
E9A
330
A
100
AcDbEntity
  8
MODEL
100
AcDbLine
 10
567.0279003039956
 20
986.8115905816212
 30
0.0
 11
567.1999269924819
 21
986.8115905816212
 31
0.0
  0
LINE
  5
E9B
330
A
100
AcDbEntity
  8
MODEL
100
AcDbLine
 10
567.1977637231565
 20
986.9489144136833
 30
0.0
 11
567.0277583645471
 21
986.9489144136833
 31
0.0
  0
LINE
  5
E9C
330
A
100
AcDbEntity
  8
MODEL
100
AcDbLine
 10
567.0278842487447
 20
986.8311180997052
 30
0.0
 11
567.199681222687
 21
986.8311180997052
 31
0.0
  0
ELLIPSE
  5
E9D
330
A
100
AcDbEntity
  8
MODEL
100
AcDbEllipse
 10
566.9950021735593
 20
986.5901493677942
 30
0.0
 11
5.926492667621345E-15
 21
-3.050000000000001
 31
0.0
210
0.0
220
0.0
230
1.0
 40
0.0108148139680282
 41
0.0000000000000355
 42
3.141592653589829
  0
ARC
  5
E9E
330
A
100
AcDbEntity
  8
MODEL
100
AcDbCircle
 10
578.2232428769536
 20
986.5902506993333
 30
0.0
 40
11.82889737751834
100
AcDbArc
 50
180.018956486319
 51
194.9300677904082
  0
ARC
  5
E9F
330
A
100
AcDbEntity
  8
MODEL
100
AcDbCircle
 10
578.2232313204157
 20
986.5900498018473
 30
0.0
 40
11.82888575623058
100
AcDbArc
 50
165.0699260511054
 51
180.0179814861068
  0
LINE
  5
EA0
330
A
100
AcDbEntity
  8
MODEL
100
AcDbLine
 10
566.9950021735593
 20
983.5401493677942
 30
0.0
 11
566.7950138699215
 21
983.5401493677942
 31
0.0
  0
LINE
  5
EA1
330
A
100
AcDbEntity
  8
MODEL
100
AcDbLine
 10
566.9950021735593
 20
989.6401493677943
 30
0.0
 11
566.7950138699215
 21
989.6401493677943
 31
0.0
  0
LINE
  5
EA2
330
A
100
AcDbEntity
  8
MODEL
100
AcDbLine
 10
712.3874477053392
 20
904.9901493677943
 30
0.0
 11
701.9951428599257
 21
898.9901493677943
 31
0.0
  0
LINE
  5
EA3
330
A
100
AcDbEntity
  8
MODEL
100
AcDbLine
 10
701.9951428599257
 20
898.9901493677943
 30
0.0
 11
691.6028380145127
 21
892.9901493677943
 31
0.0
  0
LWPOLYLINE
  5
EA4
330
A
100
AcDbEntity
  8
MODEL
100
AcDbPolyline
 90
       17
 70
     0
 43
0.0
 10
602.9951434652684
 20
928.990161725921
 10
603.040217928159
 20
927.7881963938897
 10
603.1720233480809
 20
926.6045721263116
 10
603.3810077230809
 20
925.4552190989679
 10
603.6537738363621
 20
924.3522833079522
 10
603.9753070394871
 20
923.3045843333429
 10
604.330501131284
 20
922.3182256907647
 10
604.7049518148777
 20
921.3979986399835
 10
605.0855670492527
 20
920.5483282298272
 10
605.4597125570652
 20
919.7738836497491
 10
605.8155780355809
 20
919.0800665110772
 10
606.1419635336277
 20
918.4731634349054
 10
606.4284320394871
 20
917.9604070872491
 10
606.664729646909
 20
917.5493047923272
 10
606.842219881284
 20
917.2467230052179
 10
606.9539142172215
 20
917.0589788645929
 10
606.9951434652684
 20
916.990161725921
  0
LWPOLYLINE
  5
EA5
330
A
100
AcDbEntity
  8
MODEL
100
AcDbPolyline
 90
       17
 70
     0
 43
0.0
 10
606.9951434652684
 20
940.990161725921
 10
606.9589496176121
 20
940.9297369212335
 10
606.8519244711277
 20
940.7499883860772
 10
606.678645662534
 20
940.4549444407647
 10
606.4461627523777
 20
940.0510442942804
 10
606.162776521909
 20
939.5449712962335
 10
605.8387408773777
 20
938.9442022532647
 10
605.4845233480809
 20
938.256030866546
 10
605.111262850034
 20
937.4868658274835
 10
604.7306781332371
 20
936.6421697825616
 10
604.355403475034
 20
935.7265203684991
 10
603.998469881284
 20
934.7445257395929
 10
603.6741900961277
 20
933.7008245677179
 10
603.397639803159
 20
932.6013982981866
 10
603.1838641683934
 20
931.4548223704522
 10
603.0465045492527
 20
930.2730596751397
 10
602.9951434652684
 20
928.990161725921
  0
ARC
  5
EA6
330
A
100
AcDbEntity
  8
MODEL
100
AcDbCircle
 10
614.4951103070124
 20
905.5628863541625
 30
0.0
 40
11.63874453838006
100
AcDbArc
 50
79.06375768100547
 51
100.9344026968634
  0
LINE
  5
EA7
330
A
100
AcDbEntity
  8
MODEL
100
AcDbLine
 10
667.3541267085483
 20
916.9901493677943
 30
0.0
 11
616.703172637527
 21
916.9901493677943
 31
0.0
  0
LINE
  5
EA8
330
A
100
AcDbEntity
  8
MODEL
100
AcDbLine
 10
612.2874148603165
 20
916.9901493677944
 30
0.0
 11
606.9951428599257
 21
916.9901493677944
 31
0.0
  0
LINE
  5
EA9
330
A
100
AcDbEntity
  8
MODEL
100
AcDbLine
 10
667.3541267085485
 20
940.9901493677943
 30
0.0
 11
606.995142859926
 21
940.9901493677943
 31
0.0
  0
ARC
  5
EAA
330
A
100
AcDbEntity
  8
MODEL
100
AcDbCircle
 10
667.3541267085483
 20
898.9901493677943
 30
0.0
 40
18.0
100
AcDbArc
 50
30.0
 51
89.99999999985162
  0
ARC
  5
EAB
330
A
100
AcDbEntity
  8
MODEL
100
AcDbCircle
 10
667.3541267085483
 20
898.9901493677943
 30
0.0
 40
42.0
100
AcDbArc
 50
29.99999999999986
 51
89.99999999985111
  0
LINE
  5
EAC
330
A
100
AcDbEntity
  8
MODEL
100
AcDbLine
 10
691.6028380145127
 20
892.9901493677943
 30
0.0
 11
682.9425839766683
 21
907.9901493677943
 31
0.0
  0
LINE
  5
EAD
330
A
100
AcDbEntity
  8
MODEL
100
AcDbLine
 10
712.3874477053392
 20
904.9901493677943
 30
0.0
 11
703.7271936674948
 21
919.9901493677943
 31
0.0
  0
ARC
  5
EAE
330
A
100
AcDbEntity
  8
MODEL
100
AcDbCircle
 10
705.3226371934749
 20
903.836565848358
 30
0.0
 40
3.834133809390591
100
AcDbArc
 50
293.0009202540977
 51
306.9990795865057
  0
ARC
  5
EAF
330
A
100
AcDbEntity
  8
MODEL
100
AcDbCircle
 10
694.8997061542215
 20
908.9905152479031
 30
0.0
 40
14.3454603617574
100
AcDbArc
 50
298.6746646526412
 51
301.3253353855928
  0
LINE
  5
EB0
330
A
100
AcDbEntity
  8
MODEL
100
AcDbLine
 10
704.2122806330648
 20
897.8037587746766
 30
0.0
 11
703.9848538967041
 21
897.6713803032
 31
0.0
  0
LINE
  5
EB1
330
A
100
AcDbEntity
  8
MODEL
100
AcDbLine
 10
701.4463701474111
 20
896.3336735923698
 30
0.0
 11
701.3105372862163
 21
896.56894300932
 31
0.0
  0
LINE
  5
EB2
330
A
100
AcDbEntity
  8
MODEL
100
AcDbLine
 10
702.021067957104
 20
896.6654755277544
 30
0.0
 11
701.9504145080583
 21
896.7878508912439
 31
0.0
  0
LINE
  5
EB3
330
A
100
AcDbEntity
  8
MODEL
100
AcDbLine
 10
700.406712855112
 20
896.2656038781524
 30
0.0
 11
700.2740575878926
 21
896.4953695408909
 31
0.0
  0
LINE
  5
EB4
330
A
100
AcDbEntity
  8
MODEL
100
AcDbLine
 10
700.9814106648047
 20
896.597405813537
 30
0.0
 11
700.8702532241263
 21
896.7899361484502
 31
0.0
  0
ARC
  5
EB5
330
A
100
AcDbEntity
  8
MODEL
100
AcDbCircle
 10
694.6047075783725
 20
908.8473846310544
 30
0.0
 40
14.26188313892252
100
AcDbArc
 50
298.6668965492041
 51
301.3331034890502
  0
ARC
  5
EB6
330
A
100
AcDbEntity
  8
MODEL
100
AcDbCircle
 10
699.187817296499
 20
895.8009378674611
 30
0.0
 40
2.96221786367654
100
AcDbArc
 50
16.96903606783334
 51
19.6540744032784
  0
ARC
  5
EB7
330
A
100
AcDbEntity
  8
MODEL
100
AcDbCircle
 10
697.5652119516877
 20
909.4474431978779
 30
0.0
 40
13.3975839646113
100
AcDbArc
 50
286.4478399659256
 51
289.2282020414826
  0
ARC
  5
EB8
330
A
100
AcDbEntity
  8
MODEL
100
AcDbCircle
 10
694.0489353962449
 20
908.595284459563
 30
0.0
 40
14.04862097323348
100
AcDbArc
 50
298.6466559133352
 51
301.353344124904
  0
ARC
  5
EB9
330
A
100
AcDbEntity
  8
MODEL
100
AcDbCircle
 10
697.9572675313083
 20
895.252503723973
 30
0.0
 40
3.002977872131664
100
AcDbArc
 50
17.06302493649187
 51
19.73083354541175
  0
ARC
  5
EBA
330
A
100
AcDbEntity
  8
MODEL
100
AcDbCircle
 10
696.9856094623984
 20
909.0668704086207
 30
0.0
 40
13.49194897152876
100
AcDbArc
 50
286.5466525926588
 51
289.3066475852797
  0
ARC
  5
EBB
330
A
100
AcDbEntity
  8
MODEL
100
AcDbCircle
 10
693.745192411132
 20
908.4672996038918
 30
0.0
 40
13.90169893247188
100
AcDbArc
 50
298.6323502048227
 51
301.3676498334342
  0
LINE
  5
EBC
330
A
100
AcDbEntity
  8
MODEL
100
AcDbLine
 10
700.8990976668689
 20
896.796217064221
 30
0.0
 11
700.9814106648047
 21
896.597405813537
 31
0.0
  0
LINE
  5
EBD
330
A
100
AcDbEntity
  8
MODEL
100
AcDbLine
 10
700.7321907910531
 20
896.7598728700239
 30
0.0
 11
700.8990976668689
 21
896.796217064221
 31
0.0
  0
LINE
  5
EBE
330
A
100
AcDbEntity
  8
MODEL
100
AcDbLine
 10
699.7497020474833
 20
896.1326131934519
 30
0.0
 11
699.7299485073855
 21
896.1812280173092
 31
0.0
  0
ARC
  5
EBF
330
A
100
AcDbEntity
  8
MODEL
100
AcDbCircle
 10
697.3487942046678
 20
909.6831657504706
 30
0.0
 40
13.76160721246692
100
AcDbArc
 50
280.0474795859845
 51
282.8386648204626
  0
LINE
  5
EC0
330
A
100
AcDbEntity
  8
MODEL
100
AcDbLine
 10
699.7299485091556
 20
896.1812280142434
 30
0.0
 11
700.732190793041
 21
896.7598728665808
 31
0.0
  0
ARC
  5
EC1
330
A
100
AcDbEntity
  8
MODEL
100
AcDbCircle
 10
697.5975237978413
 20
901.5383639076022
 30
0.0
 40
6.435677406497591
100
AcDbArc
 50
298.015427062311
 51
301.9845730434067
  0
ARC
  5
EC2
330
A
100
AcDbEntity
  8
MODEL
100
AcDbCircle
 10
694.1212964138296
 20
912.9108307508803
 30
0.0
 40
18.25042978061184
100
AcDbArc
 50
288.4811564701371
 51
290.8613689450813
  0
ARC
  5
EC3
330
A
100
AcDbEntity
  8
MODEL
100
AcDbCircle
 10
699.3893393841821
 20
899.2731842791106
 30
0.0
 40
3.707821978355121
100
AcDbArc
 50
272.9194769770546
 51
278.0184438440555
  0
ARC
  5
EC4
330
A
100
AcDbEntity
  8
MODEL
100
AcDbCircle
 10
696.6034210285326
 20
901.1683621193251
 30
0.0
 40
6.339474739365716
100
AcDbArc
 50
297.9852984853178
 51
302.0147016203499
  0
ARC
  5
EC5
330
A
100
AcDbEntity
  8
MODEL
100
AcDbCircle
 10
694.2465681492034
 20
912.9851950513689
 30
0.0
 40
18.11798720741663
100
AcDbArc
 50
288.3957235559548
 51
290.7939232472233
  0
ARC
  5
EC6
330
A
100
AcDbEntity
  8
MODEL
100
AcDbCircle
 10
700.4775080627686
 20
899.7651265871147
 30
0.0
 40
3.723207686665995
100
AcDbArc
 50
273.096000081082
 51
278.1673260642048
  0
ARC
  5
EC7
330
A
100
AcDbEntity
  8
MODEL
100
AcDbCircle
 10
696.0548470382026
 20
900.9921456770337
 30
0.0
 40
6.273198422069294
100
AcDbArc
 50
297.964004254226
 51
302.0359958514729
  0
ARC
  5
EC8
330
A
100
AcDbEntity
  8
MODEL
100
AcDbCircle
 10
694.2134822728887
 20
912.9821360235825
 30
0.0
 40
18.1715119205297
100
AcDbArc
 50
282.8146412421516
 51
285.2607779859578
  0
LINE
  5
EC9
330
A
100
AcDbEntity
  8
MODEL
100
AcDbLine
 10
698.2438814223186
 20
895.2632272486543
 30
0.0
 11
698.1513477390255
 21
895.2698224372372
 31
0.0
  0
LINE
  5
ECA
330
A
100
AcDbEntity
  8
MODEL
100
AcDbLine
 10
698.1513477401
 20
895.269822435376
 30
0.0
 11
698.8245501677849
 21
895.6584960381807
 31
0.0
  0
LINE
  5
ECB
330
A
100
AcDbEntity
  8
MODEL
100
AcDbLine
 10
698.8245501663354
 20
895.6584960406915
 30
0.0
 11
699.015926199833
 21
895.708967509728
 31
0.0
  0
ARC
  5
ECC
330
A
100
AcDbEntity
  8
MODEL
100
AcDbCircle
 10
699.6541157426929
 20
900.496196801781
 30
0.0
 40
4.829580746535364
100
AcDbArc
 50
262.4066230772335
 51
266.7757134252508
  0
LINE
  5
ECD
330
A
100
AcDbEntity
  8
MODEL
100
AcDbLine
 10
700.6204212121521
 20
895.8568117514518
 30
0.0
 11
700.5403500825188
 21
895.9954990162099
 31
0.0
  0
LINE
  5
ECE
330
A
100
AcDbEntity
  8
MODEL
100
AcDbLine
 10
699.906550393646
 20
895.6016128723609
 30
0.0
 11
699.8397970813863
 21
895.7172330007799
 31
0.0
  0
LINE
  5
ECF
330
A
100
AcDbEntity
  8
MODEL
100
AcDbLine
 10
698.9964549384391
 20
895.4513910890809
 30
0.0
 11
698.8699674179726
 21
895.6704739010737
 31
0.0
  0
LINE
  5
ED0
330
A
100
AcDbEntity
  8
MODEL
100
AcDbLine
 10
698.2438814223186
 20
895.2632272486543
 30
0.0
 11
698.2178922011338
 21
895.3082419001997
 31
0.0
  0
ARC
  5
ED1
330
A
100
AcDbEntity
  8
MODEL
100
AcDbCircle
 10
698.1199682003154
 20
901.7598381237
 30
0.0
 40
6.473379263058934
100
AcDbArc
 50
298.0269900742608
 51
301.9730100314314
  0
ARC
  5
ED2
330
A
100
AcDbEntity
  8
MODEL
100
AcDbCircle
 10
700.0133232224165
 20
896.2326808455183
 30
0.0
 40
0.6329213789077845
100
AcDbArc
 50
293.6687628673448
 51
306.3312375592899
  0
ARC
  5
ED3
330
A
100
AcDbEntity
  8
MODEL
100
AcDbCircle
 10
694.5007248614812
 20
911.1694574895597
 30
0.0
 40
16.55340146505096
100
AcDbArc
 50
287.8904798342853
 51
290.3875579517822
  0
ARC
  5
ED4
330
A
100
AcDbEntity
  8
MODEL
100
AcDbCircle
 10
696.2134265292312
 20
905.7961609850072
 30
0.0
 40
10.9138086477872
100
AcDbArc
 50
284.9274522461635
 51
287.9995918436443
  0
ARC
  5
ED5
330
A
100
AcDbEntity
  8
MODEL
100
AcDbCircle
 10
698.7754259382278
 20
895.8221453078052
 30
0.0
 40
0.6235127128619034
100
AcDbArc
 50
293.5728262098244
 51
306.4271742155889
  0
ARC
  5
ED6
330
A
100
AcDbEntity
  8
MODEL
100
AcDbCircle
 10
694.1214577742131
 20
910.9681808177737
 30
0.0
 40
16.43453307545376
100
AcDbArc
 50
287.8009181981036
 51
290.3167383255117
  0
ARC
  5
ED7
330
A
100
AcDbEntity
  8
MODEL
100
AcDbCircle
 10
696.9770085467504
 20
906.1679769009561
 30
0.0
 40
10.98811666084655
100
AcDbArc
 50
285.0364065480956
 51
288.0865145795647
  0
ARC
  5
ED8
330
A
100
AcDbEntity
  8
MODEL
100
AcDbCircle
 10
698.0890481267764
 20
895.6354130350906
 30
0.0
 40
0.6170313300361455
100
AcDbArc
 50
293.5050251395251
 51
306.4949752867047
  0
ARC
  5
ED9
330
A
100
AcDbEntity
  8
MODEL
100
AcDbCircle
 10
694.1740484465109
 20
911.1374795092379
 30
0.0
 40
16.59795379701773
100
AcDbArc
 50
281.964623147548
 51
284.5188776699169
  0
LINE
  5
EDA
330
A
100
AcDbEntity
  8
MODEL
100
AcDbLine
 10
697.6149320939784
 20
894.9001031826102
 30
0.0
 11
697.4627982143248
 21
894.8722881817422
 31
0.0
  0
LINE
  5
EDB
330
A
100
AcDbEntity
  8
MODEL
100
AcDbLine
 10
697.462798214491
 20
894.8722881814543
 30
0.0
 11
697.6736247888863
 21
894.9940089609219
 31
0.0
  0
LINE
  5
EDC
330
A
100
AcDbEntity
  8
MODEL
100
AcDbLine
 10
697.6736247882619
 20
894.9940089620031
 30
0.0
 11
697.8567130929267
 21
895.0396955086375
 31
0.0
  0
ARC
  5
EDD
330
A
100
AcDbEntity
  8
MODEL
100
AcDbCircle
 10
696.2791325591423
 20
906.376186783623
 30
0.0
 40
11.44573260077298
100
AcDbArc
 50
277.9223739634674
 51
280.9640381973138
  0
LINE
  5
EDE
330
A
100
AcDbEntity
  8
MODEL
100
AcDbLine
 10
700.2674085644638
 20
895.6529998031898
 30
0.0
 11
700.252210389829
 21
895.6793238138423
 31
0.0
  0
LINE
  5
EDF
330
A
100
AcDbEntity
  8
MODEL
100
AcDbLine
 10
699.5859049334516
 20
895.4164881282366
 30
0.0
 11
699.5608445436361
 21
895.4598939966589
 31
0.0
  0
LINE
  5
EE0
330
A
100
AcDbEntity
  8
MODEL
100
AcDbLine
 10
698.3351384226047
 20
895.0695798188991
 30
0.0
 11
698.3105536803706
 21
895.1121618415439
 31
0.0
  0
LINE
  5
EE1
330
A
100
AcDbEntity
  8
MODEL
100
AcDbLine
 10
697.6149320939784
 20
894.9001031826102
 30
0.0
 11
697.5889428727936
 21
894.9451178341557
 31
0.0
  0
ARC
  5
EE2
330
A
100
AcDbEntity
  8
MODEL
100
AcDbCircle
 10
700.6606811702419
 20
896.4869975045588
 30
0.0
 40
0.6366088525066589
100
AcDbArc
 50
293.7055844188725
 51
306.2944160075237
  0
LINE
  5
EE3
330
A
100
AcDbEntity
  8
MODEL
100
AcDbLine
 10
702.2196410506846
 20
896.6519718496646
 30
0.0
 11
702.1423743594938
 21
896.6076242464547
 31
0.0
  0
ARC
  5
EE4
330
A
100
AcDbEntity
  8
MODEL
100
AcDbCircle
 10
701.5341244558255
 20
903.7309614581466
 30
0.0
 40
6.473343939810106
100
AcDbArc
 50
298.0270050923056
 51
301.0398001071906
  0
LINE
  5
EE5
330
A
100
AcDbEntity
  8
MODEL
100
AcDbLine
 10
704.5758689461221
 20
898.016771032651
 30
0.0
 11
704.5603818966025
 21
898.0435953892812
 31
0.0
  0
LINE
  5
EE6
330
A
100
AcDbEntity
  8
MODEL
100
AcDbLine
 10
706.2273306274489
 20
899.2292723744035
 30
0.0
 11
706.2946432396212
 21
899.2897799948953
 31
0.0
  0
LINE
  5
EE7
330
A
100
AcDbEntity
  8
MODEL
100
AcDbLine
 10
706.2946432396212
 20
899.2897799948954
 30
0.0
 11
706.3218116744121
 21
899.3143227279751
 31
0.0
  0
ARC
  5
EE8
330
A
100
AcDbEntity
  8
MODEL
100
AcDbCircle
 10
699.7484322563702
 20
906.3380411644555
 30
0.0
 40
9.617405359829046
100
AcDbArc
 50
312.8356590778086
 51
316.1016947334532
  0
ARC
  5
EE9
330
A
100
AcDbEntity
  8
MODEL
100
AcDbCircle
 10
694.7520839833584
 20
912.1682180985546
 30
0.0
 40
17.29232410092157
100
AcDbArc
 50
309.3972544702889
 51
311.8413739272559
  0
LINE
  5
EEA
330
A
100
AcDbEntity
  8
MODEL
100
AcDbLine
 10
707.7829162492654
 20
900.8306111070631
 30
0.0
 11
707.6912095159802
 21
900.7176446644166
 31
0.0
  0
ARC
  5
EEB
330
A
100
AcDbEntity
  8
MODEL
100
AcDbCircle
 10
694.9182938890007
 20
912.360480258725
 30
0.0
 40
17.28302619016796
100
AcDbArc
 50
315.144571286115
 51
317.6500367827659
  0
LINE
  5
EEC
330
A
100
AcDbEntity
  8
MODEL
100
AcDbLine
 10
705.7274094171318
 20
898.8053327651363
 30
0.0
 11
705.5911469181884
 21
899.0413463364954
 31
0.0
  0
LINE
  5
EED
330
A
100
AcDbEntity
  8
MODEL
100
AcDbLine
 10
706.2872852221177
 20
899.2855318416966
 30
0.0
 11
706.1480808103107
 21
899.5266409556077
 31
0.0
  0
LINE
  5
EEE
330
A
100
AcDbEntity
  8
MODEL
100
AcDbLine
 10
707.1700364086083
 20
900.1704105491921
 30
0.0
 11
707.0373811413887
 21
900.4001762119306
 31
0.0
  0
LINE
  5
EEF
330
A
100
AcDbEntity
  8
MODEL
100
AcDbLine
 10
707.6912095159802
 20
900.7176446644166
 30
0.0
 11
707.6652202947954
 21
900.7626593159622
 31
0.0
  0
ARC
  5
EF0
330
A
100
AcDbEntity
  8
MODEL
100
AcDbCircle
 10
702.5049170967735
 20
899.904938334795
 30
0.0
 40
2.849482023867578
100
AcDbArc
 50
325.8880842229104
 51
331.5759992184516
  0
ARC
  5
EF1
330
A
100
AcDbEntity
  8
MODEL
100
AcDbCircle
 10
693.7762051391134
 20
912.2705183730241
 30
0.0
 40
17.73440360432901
100
AcDbArc
 50
309.308579219332
 51
311.7321279452679
  0
ARC
  5
EF2
330
A
100
AcDbEntity
  8
MODEL
100
AcDbCircle
 10
702.1359114899375
 20
900.9711909111587
 30
0.0
 40
4.097914623079244
100
AcDbArc
 50
338.4213853554412
 51
342.9958694377502
  0
LINE
  5
EF3
330
A
100
AcDbEntity
  8
MODEL
100
AcDbLine
 10
706.0546803489866
 20
899.7727941123509
 30
0.0
 11
706.1922266251173
 21
899.9122260273136
 31
0.0
  0
ARC
  5
EF4
330
A
100
AcDbEntity
  8
MODEL
100
AcDbCircle
 10
696.4384806639945
 20
911.1343239423317
 30
0.0
 40
15.32554413663471
100
AcDbArc
 50
298.7139919979944
 51
301.2860079615079
  0
ARC
  5
EF5
330
A
100
AcDbEntity
  8
MODEL
100
AcDbCircle
 10
704.448465106973
 20
899.0640284848995
 30
0.0
 40
1.515687291477245
100
AcDbArc
 50
238.6876694990254
 51
244.730328150428
  0
ARC
  5
EF6
330
A
100
AcDbEntity
  8
MODEL
100
AcDbCircle
 10
695.6140965835494
 20
906.92160138297
 30
0.0
 40
12.18675254483927
100
AcDbArc
 50
311.3211827373602
 51
314.2329482566631
  0
ARC
  5
EF7
330
A
100
AcDbEntity
  8
MODEL
100
AcDbCircle
 10
696.8669441108947
 20
911.4321016792691
 30
0.0
 40
15.0963723941291
100
AcDbArc
 50
298.6944662923075
 51
301.3055336671792
  0
ARC
  5
EF8
330
A
100
AcDbEntity
  8
MODEL
100
AcDbCircle
 10
705.5095559826656
 20
899.8368703855695
 30
0.0
 40
1.528416095368299
100
AcDbArc
 50
238.5036536321641
 51
244.5288161583467
  0
ARC
  5
EF9
330
A
100
AcDbEntity
  8
MODEL
100
AcDbCircle
 10
696.3079156326306
 20
907.2649854831277
 30
0.0
 40
12.27134924238175
100
AcDbArc
 50
311.2389294111161
 51
314.1295590182889
  0
ARC
  5
EFA
330
A
100
AcDbEntity
  8
MODEL
100
AcDbCircle
 10
697.0943710965204
 20
911.598131767676
 30
0.0
 40
14.93848977867203
100
AcDbArc
 50
298.6806658798375
 51
301.3193340796641
  0
ARC
  5
EFB
330
A
100
AcDbEntity
  8
MODEL
100
AcDbCircle
 10
706.7648149187629
 20
901.819401165629
 30
0.0
 40
4.16217658676919
100
AcDbArc
 50
229.9091739746925
 51
233.0656152770695
  0
LINE
  5
EFC
330
A
100
AcDbEntity
  8
MODEL
100
AcDbLine
 10
704.084368429937
 20
898.635233996652
 30
0.0
 11
704.1922996343518
 21
898.7575676420537
 31
0.0
  0
LINE
  5
EFD
330
A
100
AcDbEntity
  8
MODEL
100
AcDbLine
 10
704.1922996363929
 20
898.7575676385186
 30
0.0
 11
705.2312487479859
 21
899.3574051877121
 31
0.0
  0
LINE
  5
EFE
330
A
100
AcDbEntity
  8
MODEL
100
AcDbLine
 10
705.2312487461314
 20
899.3574051909242
 30
0.0
 11
705.2758603249646
 21
899.3231421624218
 31
0.0
  0
ARC
  5
EFF
330
A
100
AcDbEntity
  8
MODEL
100
AcDbCircle
 10
695.4716945416586
 20
907.2884940608272
 30
0.0
 40
12.63204249406954
100
AcDbArc
 50
318.0025574642694
 51
320.9080167094381
  0
LINE
  5
F00
330
A
100
AcDbEntity
  8
MODEL
100
AcDbLine
 10
703.8014496541672
 20
897.693379379776
 30
0.0
 11
703.7249274408547
 21
897.8259197411538
 31
0.0
  0
LINE
  5
F01
330
A
100
AcDbEntity
  8
MODEL
100
AcDbLine
 10
704.3971956016809
 20
898.0373334626609
 30
0.0
 11
704.2622012073422
 21
898.2711506124158
 31
0.0
  0
LINE
  5
F02
330
A
100
AcDbEntity
  8
MODEL
100
AcDbLine
 10
704.2637628861006
 20
898.4924727520071
 30
0.0
 11
704.1429828260171
 21
898.7016699526333
 31
0.0
  0
LINE
  5
F03
330
A
100
AcDbEntity
  8
MODEL
100
AcDbLine
 10
704.8595088336143
 20
898.836426834892
 30
0.0
 11
704.7268535663949
 21
899.0661924976305
 31
0.0
  0
ARC
  5
F04
330
A
100
AcDbEntity
  8
MODEL
100
AcDbCircle
 10
696.204672091853
 20
910.9793470859619
 30
0.0
 40
15.41535628858994
100
AcDbArc
 50
298.7214857186763
 51
301.2785142408097
  0
ARC
  5
F05
330
A
100
AcDbEntity
  8
MODEL
100
AcDbCircle
 10
693.7992467776068
 20
912.9507659860303
 30
0.0
 40
18.21824603392928
100
AcDbArc
 50
298.8205028738532
 51
301.1794971243111
  0
ARC
  5
F06
330
A
100
AcDbEntity
  8
MODEL
100
AcDbCircle
 10
701.2350819889022
 20
902.7043829743237
 30
0.0
 40
5.871739546801668
100
AcDbArc
 50
279.1412926299303
 51
283.2578100669281
  0
ARC
  5
F07
330
A
100
AcDbEntity
  8
MODEL
100
AcDbCircle
 10
698.6046791562136
 20
900.0001827552015
 30
0.0
 40
4.718383702754812
100
AcDbArc
 50
319.041378518434
 51
323.615073581338
  0
ARC
  5
F08
330
A
100
AcDbEntity
  8
MODEL
100
AcDbCircle
 10
693.7570429458857
 20
912.9268431506322
 30
0.0
 40
17.94580706257894
100
AcDbArc
 50
298.8025940986723
 51
301.1974058994822
  0
ARC
  5
F09
330
A
100
AcDbEntity
  8
MODEL
100
AcDbCircle
 10
702.1398095406818
 20
903.3430644930328
 30
0.0
 40
5.838661829684969
100
AcDbArc
 50
278.9958592055071
 51
283.1389732787743
  0
ARC
  5
F0A
330
A
100
AcDbEntity
  8
MODEL
100
AcDbCircle
 10
699.6571346293061
 20
900.4810056712012
 30
0.0
 40
4.742236537420423
100
AcDbArc
 50
318.9092428918391
 51
323.4554130944565
  0
ARC
  5
F0B
330
A
100
AcDbEntity
  8
MODEL
100
AcDbCircle
 10
693.7342888670463
 20
912.9140117471501
 30
0.0
 40
17.75811638356517
100
AcDbArc
 50
298.7899364965317
 51
301.2100635016324
  0
ARC
  5
F0C
330
A
100
AcDbEntity
  8
MODEL
100
AcDbCircle
 10
701.8386660176426
 20
904.082507380384
 30
0.0
 40
6.746440425083694
100
AcDbArc
 50
269.9616273192183
 51
273.8069314002962
  0
LINE
  5
F0D
330
A
100
AcDbEntity
  8
MODEL
100
AcDbLine
 10
701.8341477269804
 20
897.3360684683169
 30
0.0
 11
701.8859392769631
 21
897.425989869169
 31
0.0
  0
LINE
  5
F0E
330
A
100
AcDbEntity
  8
MODEL
100
AcDbLine
 10
701.8859392790781
 20
897.4259898655058
 30
0.0
 11
703.0187150431456
 21
898.0799982577572
 31
0.0
  0
LINE
  5
F0F
330
A
100
AcDbEntity
  8
MODEL
100
AcDbLine
 10
703.0187150410133
 20
898.0799982614507
 30
0.0
 11
703.1332422894058
 21
898.0861010636082
 31
0.0
  0
ARC
  5
F10
330
A
100
AcDbEntity
  8
MODEL
100
AcDbCircle
 10
698.0132465466403
 20
900.6542971302339
 30
0.0
 40
5.728000300503478
100
AcDbArc
 50
329.2541838980418
 51
333.3616017191968
  0
LINE
  5
F11
330
A
100
AcDbEntity
  8
MODEL
100
AcDbLine
 10
702.5816660540141
 20
896.9891369900233
 30
0.0
 11
702.4456993806344
 21
897.2246381764762
 31
0.0
  0
LINE
  5
F12
330
A
100
AcDbEntity
  8
MODEL
100
AcDbLine
 10
703.2312133352267
 20
897.364153287669
 30
0.0
 11
703.1039560888117
 21
897.5845693041125
 31
0.0
  0
LINE
  5
F13
330
A
100
AcDbEntity
  8
MODEL
100
AcDbLine
 10
702.2865932965482
 20
897.3509533575735
 30
0.0
 11
702.1539380293285
 21
897.580719020312
 31
0.0
  0
LINE
  5
F14
330
A
100
AcDbEntity
  8
MODEL
100
AcDbLine
 10
702.936140577761
 20
897.7259696552192
 30
0.0
 11
702.8034853105413
 21
897.9557353179576
 31
0.0
  0
ARC
  5
F15
330
A
100
AcDbEntity
  8
MODEL
100
AcDbCircle
 10
693.8220451345131
 20
912.9635206976543
 30
0.0
 40
18.32501452031399
100
AcDbArc
 50
298.8273760340342
 51
301.1726239641235
  0
LINE
  5
F16
330
A
100
AcDbEntity
  8
MODEL
100
AcDbLine
 10
705.044733520254
 20
898.2809836741106
 30
0.0
 11
704.8835502765888
 21
898.1645285226911
 31
0.0
  0
LINE
  5
F17
330
A
100
AcDbEntity
  8
MODEL
100
AcDbLine
 10
704.8835502677872
 20
898.1645285345921
 30
0.0
 11
704.8267240355145
 21
898.2629544559217
 31
0.0
  0
LINE
  5
F18
330
A
100
AcDbEntity
  8
MODEL
100
AcDbLine
 10
703.4417962168205
 20
897.3321314648174
 30
0.0
 11
703.612558405831
 21
897.4606034363712
 31
0.0
  0
LINE
  5
F19
330
A
100
AcDbEntity
  8
MODEL
100
AcDbLine
 10
703.3074071831803
 20
897.2844242959025
 30
0.0
 11
703.4417962321155
 21
897.3321314396827
 31
0.0
  0
LINE
  5
F1A
330
A
100
AcDbEntity
  8
MODEL
100
AcDbLine
 10
704.5758689461221
 20
898.016771032651
 30
0.0
 11
704.3619436310411
 21
897.8633787848314
 31
0.0
  0
LINE
  5
F1B
330
A
100
AcDbEntity
  8
MODEL
100
AcDbLine
 10
704.3619436226569
 20
897.8633787969735
 30
0.0
 11
704.3525662523563
 21
897.8796208787209
 31
0.0
  0
LINE
  5
F1C
330
A
100
AcDbEntity
  8
MODEL
100
AcDbLine
 10
701.2659477631161
 20
896.075904773387
 30
0.0
 11
701.1617277907923
 21
896.0456157201578
 31
0.0
  0
LINE
  5
F1D
330
A
100
AcDbEntity
  8
MODEL
100
AcDbLine
 10
701.0375119964291
 20
895.9738996975814
 30
0.0
 11
701.2659477749277
 21
896.0759047462411
 31
0.0
  0
LINE
  5
F1E
330
A
100
AcDbEntity
  8
MODEL
100
AcDbLine
 10
701.2659477690219
 20
896.0759047598141
 30
0.0
 11
701.2543941451687
 21
896.0959162233778
 31
0.0
  0
LINE
  5
F1F
330
A
100
AcDbEntity
  8
MODEL
100
AcDbLine
 10
704.3619436142727
 20
897.8633788091156
 30
0.0
 11
704.3470445467493
 21
897.8753078170108
 31
0.0
  0
LINE
  5
F20
330
A
100
AcDbEntity
  8
MODEL
100
AcDbLine
 10
701.094111198439
 20
895.9779685304089
 30
0.0
 11
700.9166214969549
 21
895.9041035345676
 31
0.0
  0
LINE
  5
F21
330
A
100
AcDbEntity
  8
MODEL
100
AcDbLine
 10
704.9034760572371
 20
898.3281552627484
 30
0.0
 11
704.8641278461963
 21
898.3069169193712
 31
0.0
  0
ARC
  5
F22
330
A
100
AcDbEntity
  8
MODEL
100
AcDbCircle
 10
701.971772912562
 20
905.7770289027088
 30
0.0
 40
7.64652131991603
100
AcDbArc
 50
298.165565636746
 51
299.9508977979008
  0
LWPOLYLINE
  5
F23
330
A
100
AcDbEntity
  8
MODEL
100
AcDbPolyline
 90
        2
 70
     0
 43
0.0
 10
705.7893329183934
 20
899.1516912669366
 10
706.2448382894871
 20
899.6324041575616
  0
ARC
  5
F24
330
A
100
AcDbEntity
  8
MODEL
100
AcDbCircle
 10
702.3774324084192
 20
906.1356208989768
 30
0.0
 40
7.5662858748143
100
AcDbArc
 50
298.1461594296149
 51
300.7395628442175
  0
LINE
  5
F25
330
A
100
AcDbEntity
  8
MODEL
100
AcDbLine
 10
706.7721823907219
 20
900.2470637231786
 30
0.0
 11
706.8208093097516
 21
900.30725113041
 31
0.0
  0
LINE
  5
F26
330
A
100
AcDbEntity
  8
MODEL
100
AcDbLine
 10
706.1922266266803
 20
899.9122260246069
 30
0.0
 11
706.7721824424256
 21
900.2470636709126
 31
0.0
  0
LWPOLYLINE
  5
F27
330
A
100
AcDbEntity
  8
MODEL
100
AcDbPolyline
 90
        2
 70
     0
 43
0.0
 10
704.2450824301121
 20
897.7971685618585
 10
704.9034686605809
 20
898.3281439036554
  0
LINE
  5
F28
330
A
100
AcDbEntity
  8
MODEL
100
AcDbLine
 10
704.2083043533447
 20
897.8045575192562
 30
0.0
 11
704.2450657877486
 21
897.7971729793009
 31
0.0
  0
LWPOLYLINE
  5
F29
330
A
100
AcDbEntity
  8
MODEL
100
AcDbPolyline
 90
        2
 70
     0
 43
0.0
 10
702.2831073324559
 20
896.5420721263116
 10
703.1620135824559
 20
897.0495489329522
  0
LINE
  5
F2A
330
A
100
AcDbEntity
  8
MODEL
100
AcDbLine
 10
701.9033289769151
 20
896.4451713320394
 30
0.0
 11
701.7845326943117
 21
896.3958980623603
 31
0.0
  0
LINE
  5
F2B
330
A
100
AcDbEntity
  8
MODEL
100
AcDbLine
 10
701.9141359536301
 20
896.4768202599225
 30
0.0
 11
701.9033292541402
 21
896.4451707583482
 31
0.0
  0
LWPOLYLINE
  5
F2C
330
A
100
AcDbEntity
  8
MODEL
100
AcDbPolyline
 90
        2
 70
     0
 43
0.0
 10
703.9712787191746
 20
897.5167425364679
 10
703.1278338949559
 20
897.028247663421
  0
LWPOLYLINE
  5
F2D
330
A
100
AcDbEntity
  8
MODEL
100
AcDbPolyline
 90
        2
 70
     0
 43
0.0
 10
705.7126727621434
 20
898.7953680247491
 10
705.0542865316746
 20
898.2643621653741
  0
LINE
  5
F2E
330
A
100
AcDbEntity
  8
MODEL
100
AcDbLine
 10
705.7274094171318
 20
898.8053327651363
 30
0.0
 11
705.7126943016805
 21
898.7953576141076
 31
0.0
  0
ARC
  5
F2F
330
A
100
AcDbEntity
  8
MODEL
100
AcDbCircle
 10
705.9930309453238
 20
900.6623914801479
 30
0.0
 40
1.206486480608224
100
AcDbArc
 50
300.1262705202794
 51
304.6193228369798
  0
LWPOLYLINE
  5
F30
330
A
100
AcDbEntity
  8
MODEL
100
AcDbPolyline
 90
        2
 70
     0
 43
0.0
 10
707.0540423910496
 20
900.0995977610772
 10
706.5985980551121
 20
899.6188848704522
  0
ARC
  5
F31
330
A
100
AcDbEntity
  8
MODEL
100
AcDbCircle
 10
706.4917146123477
 20
901.1511084590632
 30
0.0
 40
1.192429809132272
100
AcDbArc
 50
298.1377125869471
 51
304.6705448198881
  0
LINE
  5
F32
330
A
100
AcDbEntity
  8
MODEL
100
AcDbLine
 10
707.6300273305129
 20
900.7744533710293
 30
0.0
 11
707.5814004072237
 21
900.7142659677589
 31
0.0
  0
LINE
  5
F33
330
A
100
AcDbEntity
  8
MODEL
100
AcDbLine
 10
707.5814004658106
 20
900.714265914501
 30
0.0
 11
707.7829162495901
 21
900.8306111065007
 31
0.0
  0
ARC
  5
F34
330
A
100
AcDbEntity
  8
MODEL
100
AcDbCircle
 10
699.0672129139881
 20
902.2110016785632
 30
0.0
 40
6.517552922958828
100
AcDbArc
 50
299.5654387153485
 51
301.3704813415325
  0
ARC
  5
F35
330
A
100
AcDbEntity
  8
MODEL
100
AcDbCircle
 10
695.4397247561416
 20
909.2699018181096
 30
0.0
 40
14.44448386775914
100
AcDbArc
 50
299.0794189160135
 51
300.9205795524626
  0
ARC
  5
F36
330
A
100
AcDbEntity
  8
MODEL
100
AcDbCircle
 10
693.8640916930336
 20
912.987718797349
 30
0.0
 40
18.45202434286963
100
AcDbArc
 50
299.1855034865404
 51
300.2582702071966
  0
LINE
  5
F37
330
A
100
AcDbEntity
  8
MODEL
100
AcDbLine
 10
701.7875544078289
 20
896.3770545107647
 30
0.0
 11
701.7831685825564
 21
896.404404729222
 31
0.0
  0
LINE
  5
F38
330
A
100
AcDbEntity
  8
MODEL
100
AcDbLine
 10
701.5477501795493
 20
896.2684858506947
 30
0.0
 11
701.7875544204754
 21
896.3770544841008
 31
0.0
  0
LINE
  5
F39
330
A
100
AcDbEntity
  8
MODEL
100
AcDbLine
 10
702.3578663922491
 20
896.7362066646066
 30
0.0
 11
702.5641057440056
 21
896.825396600126
 31
0.0
  0
LINE
  5
F3A
330
A
100
AcDbEntity
  8
MODEL
100
AcDbLine
 10
702.5641057301158
 20
896.825396626072
 30
0.0
 11
702.6578599019675
 21
896.9094079982568
 31
0.0
  0
LINE
  5
F3B
330
A
100
AcDbEntity
  8
MODEL
100
AcDbLine
 10
701.9033291155275
 20
896.4451710451939
 30
0.0
 11
701.8921108069313
 21
896.4646017242195
 31
0.0
  0
LINE
  5
F3C
330
A
100
AcDbEntity
  8
MODEL
100
AcDbLine
 10
703.9712599422816
 20
897.5167494088125
 30
0.0
 11
703.9078148905647
 21
897.6266394741604
 31
0.0
  0
LINE
  5
F3D
330
A
100
AcDbEntity
  8
MODEL
100
AcDbLine
 10
705.0542836795038
 20
898.2643754357134
 30
0.0
 11
704.9509673499321
 21
898.4433245716455
 31
0.0
  0
LINE
  5
F3E
330
A
100
AcDbEntity
  8
MODEL
100
AcDbLine
 10
705.7126925457943
 20
898.7953597280613
 30
0.0
 11
705.5762689229442
 21
899.0316526628916
 31
0.0
  0
LINE
  5
F3F
330
A
100
AcDbEntity
  8
MODEL
100
AcDbLine
 10
706.5985731459833
 20
899.6188778951794
 30
0.0
 11
706.369963626781
 21
900.014842530389
 31
0.0
  0
LINE
  5
F40
330
A
100
AcDbEntity
  8
MODEL
100
AcDbLine
 10
707.054055573337
 20
900.0996038785478
 30
0.0
 11
706.9197352916032
 21
900.3322533493117
 31
0.0
  0
LINE
  5
F41
330
A
100
AcDbEntity
  8
MODEL
100
AcDbLine
 10
707.581400436182
 20
900.7142659417101
 30
0.0
 11
706.9197352916032
 21
900.3322533493117
 31
0.0
  0
LINE
  5
F42
330
A
100
AcDbEntity
  8
MODEL
100
AcDbLine
 10
702.2830861109916
 20
896.5420817939878
 30
0.0
 11
702.2191379415327
 21
896.65284326018
 31
0.0
  0
LINE
  5
F43
330
A
100
AcDbEntity
  8
MODEL
100
AcDbLine
 10
701.0941111109993
 20
895.9779687373483
 30
0.0
 11
701.0843779417688
 21
895.9948270806134
 31
0.0
  0
LINE
  5
F44
330
A
100
AcDbEntity
  8
MODEL
100
AcDbLine
 10
704.9034746556832
 20
898.3281571335327
 30
0.0
 11
704.891763856324
 21
898.3484408619112
 31
0.0
  0
LINE
  5
F45
330
A
100
AcDbEntity
  8
MODEL
100
AcDbLine
 10
706.2448376037436
 20
899.6324015715303
 30
0.0
 11
706.1235026046644
 21
899.842559860804
 31
0.0
  0
LINE
  5
F46
330
A
100
AcDbEntity
  8
MODEL
100
AcDbLine
 10
703.1620419066495
 20
897.049547162857
 30
0.0
 11
703.0983607041397
 21
897.1598462575301
 31
0.0
  0
LINE
  5
F47
330
A
100
AcDbEntity
  8
MODEL
100
AcDbLine
 10
702.4600542334207
 20
896.6461904649341
 30
0.0
 11
702.3980502517462
 21
896.7535845113024
 31
0.0
  0
LINE
  5
F48
330
A
100
AcDbEntity
  8
MODEL
100
AcDbLine
 10
702.8620144049145
 20
896.8782622783284
 30
0.0
 11
702.7987845951053
 21
896.9877795212561
 31
0.0
  0
ARC
  5
F49
330
A
100
AcDbEntity
  8
MODEL
100
AcDbCircle
 10
708.1177154246908
 20
901.9855426107969
 30
0.0
 40
0.499999999999997
100
AcDbArc
 50
322.17879812577
 51
29.99999999739409
  0
ARC
  5
F4A
330
A
100
AcDbEntity
  8
MODEL
100
AcDbCircle
 10
696.3397699329322
 20
895.1855426112992
 30
0.0
 40
0.4999999999999911
100
AcDbArc
 50
209.9999999977269
 51
277.8212018693534
  0
ARC
  5
F4B
330
A
100
AcDbEntity
  8
MODEL
100
AcDbCircle
 10
693.8884762301801
 20
913.0313078501626
 30
0.0
 40
18.51333333333334
100
AcDbArc
 50
312.18939733403
 51
322.1787981257767
  0
ARC
  5
F4C
330
A
100
AcDbEntity
  8
MODEL
100
AcDbCircle
 10
693.8884762301801
 20
913.0313078501626
 30
0.0
 40
18.51333333333334
100
AcDbArc
 50
307.4046323319652
 51
311.7986652586712
  0
ARC
  5
F4D
330
A
100
AcDbEntity
  8
MODEL
100
AcDbCircle
 10
693.8884762301801
 20
913.0313078501626
 30
0.0
 40
18.51333333333334
100
AcDbArc
 50
277.8212018693354
 51
287.8106026610823
  0
ARC
  5
F4E
330
A
100
AcDbEntity
  8
MODEL
100
AcDbCircle
 10
693.8884762301801
 20
913.0313078501626
 30
0.0
 40
18.51333333333334
100
AcDbArc
 50
288.2013347364418
 51
292.3107860339111
  0
LINE
  5
F4F
330
A
100
AcDbEntity
  8
MODEL
100
AcDbLine
 10
695.6731574115385
 20
895.3401493673549
 30
0.0
 11
695.9067572310295
 21
894.9355426113177
 31
0.0
  0
LINE
  5
F50
330
A
100
AcDbEntity
  8
MODEL
100
AcDbLine
 10
708.3171283067912
 20
902.640149367355
 30
0.0
 11
708.5507281265938
 21
902.2355426107785
 31
0.0
  0
LINE
  5
F51
330
A
100
AcDbEntity
  8
MODEL
100
AcDbLine
 10
566.7451457996318
 20
829.4901502818292
 30
0.0
 11
607.2451457996318
 21
829.4901502818292
 31
0.0
  0
LINE
  5
F52
102
{ACAD_REACTORS
330
1277
330
1361
102
}
330
A
100
AcDbEntity
  8
MODEL
100
AcDbLine
 10
561.6951457996319
 20
825.4901502818292
 30
0.0
 11
612.2951457996318
 21
825.4901502818292
 31
0.0
  0
ARC
  5
F53
330
A
100
AcDbEntity
  8
MODEL
100
AcDbCircle
 10
561.6951457996319
 20
825.7847891941273
 30
0.0
 40
0.2
100
AcDbArc
 50
124.4389893089832
 51
180.0
  0
ARC
  5
F54
330
A
100
AcDbEntity
  8
MODEL
100
AcDbCircle
 10
612.2951457996318
 20
825.7847891941273
 30
0.0
 40
0.2
100
AcDbArc
 50
0.0
 51
55.5610106910168
  0
LINE
  5
F55
330
A
100
AcDbEntity
  8
MODEL
100
AcDbLine
 10
561.4951457996318
 20
825.6901502818292
 30
0.0
 11
561.4951457996318
 21
825.7847891941273
 31
0.0
  0
LINE
  5
F56
330
A
100
AcDbEntity
  8
MODEL
100
AcDbLine
 10
612.4951457996318
 20
825.6901502818292
 30
0.0
 11
612.4951457996318
 21
825.7847891941273
 31
0.0
  0
ARC
  5
F57
330
A
100
AcDbEntity
  8
MODEL
100
AcDbCircle
 10
561.6951457996319
 20
825.6901502818292
 30
0.0
 40
0.2
100
AcDbArc
 50
180.0000000002605
 51
270.0
  0
ARC
  5
F58
330
A
100
AcDbEntity
  8
MODEL
100
AcDbCircle
 10
612.2951457996318
 20
825.6901502818292
 30
0.0
 40
0.2
100
AcDbArc
 50
270.0
 51
359.9999999997394
  0
LINE
  5
F59
330
A
100
AcDbEntity
  8
MODEL
100
AcDbLine
 10
561.5820401285215
 20
825.9497349644964
 30
0.0
 11
566.7451457996318
 21
829.4901502818292
 31
0.0
  0
LINE
  5
F5A
330
A
100
AcDbEntity
  8
MODEL
100
AcDbLine
 10
612.4082514707421
 20
825.9497349644964
 30
0.0
 11
607.2451457996318
 21
829.4901502818292
 31
0.0
  0
LINE
  5
F5B
330
A
100
AcDbEntity
  8
MODEL
100
AcDbLine
 10
606.3901457424114
 20
824.7547392748338
 30
0.0
 11
567.6001458568522
 21
824.7547392748338
 31
0.0
  0
ARC
  5
F5C
330
A
100
AcDbEntity
  8
MODEL
100
AcDbCircle
 10
567.6001457424114
 20
826.0647392176134
 30
0.0
 40
1.309999942779541
100
AcDbArc
 50
206.0157071718755
 51
269.9999999997713
  0
ARC
  5
F5D
330
A
100
AcDbEntity
  8
MODEL
100
AcDbCircle
 10
606.3901458568522
 20
826.0647392176134
 30
0.0
 40
1.309999942779541
100
AcDbArc
 50
270.0000000002287
 51
333.9842928281245
  0
LINE
  5
F5E
330
A
100
AcDbEntity
  8
MODEL
100
AcDbLine
 10
593.9951405255625
 20
605.3931339911456
 30
0.0
 11
592.4194705658321
 21
605.3931339911456
 31
0.0
  0
LINE
  5
F5F
330
A
100
AcDbEntity
  8
MODEL
100
AcDbLine
 10
592.4194705658321
 20
605.3931339911456
 30
0.0
 11
587.5520761037263
 21
605.3931339911456
 31
0.0
  0
LINE
  5
F60
330
A
100
AcDbEntity
  8
MODEL
100
AcDbLine
 10
587.5520761037263
 20
605.3931339911456
 30
0.0
 11
584.1277460634566
 21
605.3931339911456
 31
0.0
  0
LINE
  5
F61
330
A
100
AcDbEntity
  8
MODEL
100
AcDbLine
 10
584.1277460634566
 20
605.3931339911456
 30
0.0
 11
583.9951405255625
 21
605.3931339911456
 31
0.0
  0
LINE
  5
F62
330
A
100
AcDbEntity
  8
MODEL
100
AcDbLine
 10
594.3867285984219
 20
604.8931339911456
 30
0.0
 11
594.089061052393
 21
604.8931339911456
 31
0.0
  0
LINE
  5
F63
330
A
100
AcDbEntity
  8
MODEL
100
AcDbLine
 10
590.7498800792713
 20
604.8931339911456
 30
0.0
 11
589.745860201041
 21
604.8931339911456
 31
0.0
  0
LINE
  5
F64
330
A
100
AcDbEntity
  8
MODEL
100
AcDbLine
 10
585.3582920064117
 20
604.8931339911456
 30
0.0
 11
584.6519396742104
 21
604.8931339911456
 31
0.0
  0
LINE
  5
F65
330
A
100
AcDbEntity
  8
MODEL
100
AcDbLine
 10
594.3867285984219
 20
604.8931339911456
 30
0.0
 11
594.3867285984219
 21
597.3931339911456
 31
0.0
  0
LINE
  5
F66
330
A
100
AcDbEntity
  8
MODEL
100
AcDbLine
 10
594.089061052393
 20
597.3931339911456
 30
0.0
 11
594.089061052393
 21
604.8931339911456
 31
0.0
  0
LINE
  5
F67
330
A
100
AcDbEntity
  8
MODEL
100
AcDbLine
 10
590.7498800792713
 20
604.8931339911456
 30
0.0
 11
590.7498800792713
 21
597.3931339911456
 31
0.0
  0
LINE
  5
F68
330
A
100
AcDbEntity
  8
MODEL
100
AcDbLine
 10
589.745860201041
 20
597.3931339911456
 30
0.0
 11
589.745860201041
 21
604.8931339911456
 31
0.0
  0
LINE
  5
F69
330
A
100
AcDbEntity
  8
MODEL
100
AcDbLine
 10
585.3582920064117
 20
604.8931339911456
 30
0.0
 11
585.3582920064117
 21
597.3931339911456
 31
0.0
  0
LINE
  5
F6A
330
A
100
AcDbEntity
  8
MODEL
100
AcDbLine
 10
584.6519396742104
 20
597.3931339911456
 30
0.0
 11
584.6519396742104
 21
604.8931339911456
 31
0.0
  0
LINE
  5
F6B
330
A
100
AcDbEntity
  8
MODEL
100
AcDbLine
 10
583.603552452703
 20
604.8931339911456
 30
0.0
 11
583.603552452703
 21
597.3931339911456
 31
0.0
  0
LINE
  5
F6C
330
A
100
AcDbEntity
  8
MODEL
100
AcDbLine
 10
583.4951405255625
 20
597.3931339911456
 30
0.0
 11
584.6519396742104
 21
597.3931339911456
 31
0.0
  0
LINE
  5
F6D
330
A
100
AcDbEntity
  8
MODEL
100
AcDbLine
 10
585.3582920064117
 20
597.3931339911456
 30
0.0
 11
589.745860201041
 21
597.3931339911456
 31
0.0
  0
LINE
  5
F6E
330
A
100
AcDbEntity
  8
MODEL
100
AcDbLine
 10
590.7498800792713
 20
597.3931339911456
 30
0.0
 11
594.089061052393
 21
597.3931339911456
 31
0.0
  0
LINE
  5
F6F
330
A
100
AcDbEntity
  8
MODEL
100
AcDbLine
 10
594.3867285984219
 20
597.3931339911456
 30
0.0
 11
594.4951405255625
 21
597.3931339911456
 31
0.0
  0
LWPOLYLINE
  5
F70
330
A
100
AcDbEntity
  8
MODEL
100
AcDbPolyline
 90
        3
 70
     0
 43
0.0
 10
594.3867145101902
 20
604.8931310862725
 10
594.3462176840184
 20
604.9644964427179
 10
594.1313434164402
 20
605.2569158763116
  0
LWPOLYLINE
  5
F71
330
A
100
AcDbEntity
  8
MODEL
100
AcDbPolyline
 90
        4
 70
     0
 43
0.0
 10
590.7498736898777
 20
604.8931310862725
 10
591.2522540609715
 20
605.1427953929132
 10
591.7716022055027
 20
605.3146856517022
 10
592.4194598715184
 20
605.3931310862725
  0
LWPOLYLINE
  5
F72
330
A
100
AcDbEntity
  8
MODEL
100
AcDbPolyline
 90
        4
 70
     0
 43
0.0
 10
592.4194598715184
 20
605.3931310862725
 10
592.9543414633152
 20
605.33929807846
 10
593.4794879476902
 20
605.1858862132257
 10
594.089046053159
 20
604.8931310862725
  0
LWPOLYLINE
  5
F73
330
A
100
AcDbEntity
  8
MODEL
100
AcDbPolyline
 90
        4
 70
     0
 43
0.0
 10
585.3583026449559
 20
604.8931310862725
 10
586.0183978597996
 20
605.1427953929132
 10
586.7008014242527
 20
605.3146856517022
 10
587.5520892660496
 20
605.3931310862725
  0
LWPOLYLINE
  5
F74
330
A
100
AcDbEntity
  8
MODEL
100
AcDbPolyline
 90
        4
 70
     0
 43
0.0
 10
587.5520892660496
 20
605.3931310862725
 10
588.2548785726902
 20
605.33929807846
 10
588.9449115316746
 20
605.1858862132257
 10
589.7458453695652
 20
604.8931310862725
  0
LWPOLYLINE
  5
F75
330
A
100
AcDbEntity
  8
MODEL
100
AcDbPolyline
 90
        4
 70
     0
 43
0.0
 10
583.6035419027684
 20
604.8931310862725
 10
583.7612872640965
 20
605.1427953929132
 10
583.9243426840184
 20
605.3146856517022
 10
584.1277423422215
 20
605.3931310862725
  0
LWPOLYLINE
  5
F76
330
A
100
AcDbEntity
  8
MODEL
100
AcDbPolyline
 90
        4
 70
     0
 43
0.0
 10
584.1277423422215
 20
605.3931310862725
 10
584.2956805746434
 20
605.33929807846
 10
584.4605670492527
 20
605.1858862132257
 10
584.6519427816746
 20
604.8931310862725
  0
LINE
  5
F77
330
A
100
AcDbEntity
  8
MODEL
100
AcDbLine
 10
583.8589230615145
 20
605.2569165270978
 30
0.0
 11
583.9951405255625
 21
605.3931339911456
 31
0.0
  0
LINE
  5
F78
330
A
100
AcDbEntity
  8
MODEL
100
AcDbLine
 10
594.1313574895163
 20
605.2569170271919
 30
0.0
 11
593.9951405255625
 21
605.3931339911456
 31
0.0
  0
LINE
  5
F79
330
A
100
AcDbEntity
  8
MODEL
100
AcDbLine
 10
594.4951405255625
 20
595.3931339911456
 30
0.0
 11
594.4951405255625
 21
597.3931339911456
 31
0.0
  0
LINE
  5
F7A
330
A
100
AcDbEntity
  8
MODEL
100
AcDbLine
 10
583.4951405255625
 20
595.3931339911456
 30
0.0
 11
583.4951405255625
 21
597.3931339911456
 31
0.0
  0
LINE
  5
F7B
330
A
100
AcDbEntity
  8
MODEL
100
AcDbLine
 10
593.0317845972974
 20
595.3931339911456
 30
0.0
 11
587.5109309493733
 21
595.3931339911456
 31
0.0
  0
LINE
  5
F7C
330
A
100
AcDbEntity
  8
MODEL
100
AcDbLine
 10
583.184884882273
 20
595.3931339911456
 30
0.0
 11
587.5109309493733
 21
595.3931339911456
 31
0.0
  0
LINE
  5
F7D
330
A
100
AcDbEntity
  8
MODEL
100
AcDbLine
 10
583.184884882273
 20
595.3931339911456
 30
0.0
 11
579.7762827358487
 21
595.3931339911456
 31
0.0
  0
LINE
  5
F7E
330
A
100
AcDbEntity
  8
MODEL
100
AcDbLine
 10
579.0951405255624
 20
595.3931339911456
 30
0.0
 11
579.7762827358487
 21
595.3931339911456
 31
0.0
  0
LINE
  5
F7F
330
A
100
AcDbEntity
  8
MODEL
100
AcDbLine
 10
593.0317845972974
 20
595.3931339911456
 30
0.0
 11
596.7297887390872
 21
595.3931339911456
 31
0.0
  0
LINE
  5
F80
330
A
100
AcDbEntity
  8
MODEL
100
AcDbLine
 10
598.8420402405869
 20
595.3931339911456
 30
0.0
 11
598.8951405255624
 21
595.3931339911456
 31
0.0
  0
LINE
  5
F81
330
A
100
AcDbEntity
  8
MODEL
100
AcDbLine
 10
598.8420402405869
 20
595.3931339911456
 30
0.0
 11
596.729788739087
 21
595.3931339911456
 31
0.0
  0
LINE
  5
F82
330
A
100
AcDbEntity
  8
MODEL
100
AcDbLine
 10
578.1782525831107
 20
583.3931339911456
 30
0.0
 11
578.2109843082384
 21
583.3931339911456
 31
0.0
  0
LINE
  5
F83
330
A
100
AcDbEntity
  8
MODEL
100
AcDbLine
 10
584.7501833098833
 20
583.3931339911456
 30
0.0
 11
584.9756442943359
 21
583.3931339911456
 31
0.0
  0
LINE
  5
F84
330
A
100
AcDbEntity
  8
MODEL
100
AcDbLine
 10
595.5670712523348
 20
583.3931339911456
 30
0.0
 11
595.7598005116598
 21
583.3931339911456
 31
0.0
  0
LINE
  5
F85
330
A
100
AcDbEntity
  8
MODEL
100
AcDbLine
 10
578.1782525831107
 20
594.815783721956
 30
0.0
 11
578.2109843082386
 21
594.815783721956
 31
0.0
  0
LINE
  5
F86
330
A
100
AcDbEntity
  8
MODEL
100
AcDbLine
 10
584.750183309883
 20
594.815783721956
 30
0.0
 11
584.9756442943359
 21
594.815783721956
 31
0.0
  0
LINE
  5
F87
330
A
100
AcDbEntity
  8
MODEL
100
AcDbLine
 10
595.5670712523348
 20
594.815783721956
 30
0.0
 11
595.7598005116598
 21
594.815783721956
 31
0.0
  0
LINE
  5
F88
330
A
100
AcDbEntity
  8
MODEL
100
AcDbLine
 10
584.9756442943359
 20
583.3931339911456
 30
0.0
 11
595.5670712523348
 21
583.3931339911456
 31
0.0
  0
LINE
  5
F89
330
A
100
AcDbEntity
  8
MODEL
100
AcDbLine
 10
578.2109843082384
 20
583.3931339911456
 30
0.0
 11
584.7501833098833
 21
583.3931339911456
 31
0.0
  0
LINE
  5
F8A
330
A
100
AcDbEntity
  8
MODEL
100
AcDbLine
 10
595.7598005116598
 20
583.3931339911456
 30
0.0
 11
599.8120284680141
 21
583.3931339911456
 31
0.0
  0
LINE
  5
F8B
330
A
100
AcDbEntity
  8
MODEL
100
AcDbLine
 10
584.9756442943359
 20
594.815783721956
 30
0.0
 11
584.9756442943359
 21
583.3931339911456
 31
0.0
  0
LINE
  5
F8C
330
A
100
AcDbEntity
  8
MODEL
100
AcDbLine
 10
595.5670712523348
 20
583.3931339911456
 30
0.0
 11
595.5670712523348
 21
594.815783721956
 31
0.0
  0
LINE
  5
F8D
330
A
100
AcDbEntity
  8
MODEL
100
AcDbLine
 10
578.2109843082386
 20
594.815783721956
 30
0.0
 11
578.2109843082386
 21
583.3931339911456
 31
0.0
  0
LINE
  5
F8E
330
A
100
AcDbEntity
  8
MODEL
100
AcDbLine
 10
584.750183309883
 20
583.3931339911456
 30
0.0
 11
584.750183309883
 21
594.815783721956
 31
0.0
  0
LINE
  5
F8F
330
A
100
AcDbEntity
  8
MODEL
100
AcDbLine
 10
578.1782525831107
 20
583.3931339911456
 30
0.0
 11
578.1782525831107
 21
594.815783721956
 31
0.0
  0
LINE
  5
F90
330
A
100
AcDbEntity
  8
MODEL
100
AcDbLine
 10
595.7598005116598
 20
594.815783721956
 30
0.0
 11
595.7598005116598
 21
583.3931339911456
 31
0.0
  0
LINE
  5
F91
330
A
100
AcDbEntity
  8
MODEL
100
AcDbLine
 10
599.8120284680141
 20
583.3931339911456
 30
0.0
 11
599.8120284680141
 21
594.815783721956
 31
0.0
  0
ARC
  5
F92
330
A
100
AcDbEntity
  8
MODEL
100
AcDbCircle
 10
589.3164675880304
 20
573.2230577061493
 30
0.0
 40
22.47923181431936
100
AcDbArc
 50
73.85547095524795
 51
80.48662969822378
  0
ARC
  5
F93
330
A
100
AcDbEntity
  8
MODEL
100
AcDbCircle
 10
591.2262479586453
 20
573.2230577061252
 30
0.0
 40
22.47923181434385
100
AcDbArc
 50
99.51337030176221
 51
106.1445290447304
  0
LWPOLYLINE
  5
F94
330
A
100
AcDbEntity
  8
MODEL
100
AcDbPolyline
 90
        3
 70
     0
 43
0.0
 10
584.750178865659
 20
594.8157842845147
 10
584.2474322836277
 20
595.0343130320733
 10
583.1848712484715
 20
595.3931310862725
  0
LWPOLYLINE
  5
F95
330
A
100
AcDbEntity
  8
MODEL
100
AcDbPolyline
 90
        3
 70
     0
 43
0.0
 10
579.7762713949559
 20
595.3931310862725
 10
579.2647052328465
 20
595.2389715403741
 10
578.2109942953465
 20
594.8157842845147
  0
ARC
  5
F96
330
A
100
AcDbEntity
  8
MODEL
100
AcDbCircle
 10
581.5630777009738
 20
590.31914167214
 30
0.0
 40
5.628217373440823
100
AcDbArc
 50
120.2390244489908
 51
126.9704247410449
  0
LWPOLYLINE
  5
F97
330
A
100
AcDbEntity
  8
MODEL
100
AcDbPolyline
 90
        3
 70
     0
 43
0.0
 10
599.8120379965184
 20
594.8157842845147
 10
599.5014300863621
 20
595.0336797923272
 10
598.8420367758152
 20
595.3931310862725
  0
LWPOLYLINE
  5
F98
330
A
100
AcDbEntity
  8
MODEL
100
AcDbPolyline
 90
        3
 70
     0
 43
0.0
 10
596.7297931234715
 20
595.3931310862725
 10
596.413753084409
 20
595.2395055979913
 10
595.7597919027684
 20
594.8157842845147
  0
LINE
  5
F99
330
A
100
AcDbEntity
  8
MODEL
100
AcDbLine
 10
599.2616246319157
 20
595.181544293689
 30
0.0
 11
598.8951405255624
 21
595.3931339911456
 31
0.0
  0
LINE
  5
F9A
330
A
100
AcDbEntity
  8
MODEL
100
AcDbLine
 10
578.7286564192092
 20
595.181544293689
 30
0.0
 11
579.0951405255624
 21
595.3931339911456
 31
0.0
  0
LINE
  5
F9B
330
A
100
AcDbEntity
  8
MODEL
100
AcDbLine
 10
594.9951405255625
 20
624.3931339911456
 30
0.0
 11
594.9804092220655
 21
624.3931339911456
 31
0.0
  0
LINE
  5
F9C
330
A
100
AcDbEntity
  8
MODEL
100
AcDbLine
 10
594.9804092220655
 20
624.3931339911456
 30
0.0
 11
582.9951405255625
 21
624.3931339911456
 31
0.0
  0
LINE
  5
F9D
330
A
100
AcDbEntity
  8
MODEL
100
AcDbLine
 10
583.7451405255625
 20
607.0545718189118
 30
0.0
 11
594.2322506350025
 21
607.0545718189118
 31
0.0
  0
LINE
  5
F9E
330
A
100
AcDbEntity
  8
MODEL
100
AcDbLine
 10
594.2322506350025
 20
607.0545718189118
 30
0.0
 11
594.2451405255625
 21
607.0545718189118
 31
0.0
  0
LWPOLYLINE
  5
F9F
330
A
100
AcDbEntity
  8
MODEL
100
AcDbPolyline
 90
        2
 70
     0
 43
0.0
 10
594.2446246664402
 20
617.7683752268975
 10
594.2322650472996
 20
617.7683752268975
  0
LINE
  5
FA0
330
A
100
AcDbEntity
  8
MODEL
100
AcDbLine
 10
583.7451405255625
 20
607.0545718189118
 30
0.0
 11
583.7451405255625
 21
617.7683761646498
 31
0.0
  0
LINE
  5
FA1
330
A
100
AcDbEntity
  8
MODEL
100
AcDbLine
 10
594.2451405255625
 20
607.0545718189118
 30
0.0
 11
594.2451405255625
 21
617.7683761646498
 31
0.0
  0
LWPOLYLINE
  5
FA2
330
A
100
AcDbEntity
  8
MODEL
100
AcDbPolyline
 90
        6
 70
     0
 43
0.0
 10
594.9951129476902
 20
619.3296240061944
 10
594.9643817465184
 20
618.9808080882257
 10
594.8732867758152
 20
618.6422003001397
 10
594.7244830648777
 20
618.3250311106866
 10
594.522639803159
 20
618.0385931224054
 10
594.2451434652684
 20
617.7683904856866
  0
LWPOLYLINE
  5
FA3
330
A
100
AcDbEntity
  8
MODEL
100
AcDbPolyline
 90
        6
 70
     0
 43
0.0
 10
582.9951739828465
 20
619.3296240061944
 10
583.0259051840184
 20
618.9808080882257
 10
583.1170001547215
 20
618.6422155589288
 10
583.265803865659
 20
618.3250311106866
 10
583.4676776449559
 20
618.0386083811944
 10
583.7451739828465
 20
617.7683904856866
  0
LINE
  5
FA4
330
A
100
AcDbEntity
  8
MODEL
100
AcDbLine
 10
582.9951405255625
 20
619.3296256642494
 30
0.0
 11
582.9951405255625
 21
624.3931339911456
 31
0.0
  0
LINE
  5
FA5
330
A
100
AcDbEntity
  8
MODEL
100
AcDbLine
 10
594.9951405255625
 20
619.3296256642494
 30
0.0
 11
594.9951405255625
 21
624.3931339911456
 31
0.0
  0
ARC
  5
FA6
330
A
100
AcDbEntity
  8
MODEL
100
AcDbCircle
 10
584.4951405255625
 20
606.3931339911456
 30
0.0
 40
1.0
100
AcDbArc
 50
138.5903778901628
 51
269.9999999991011
  0
ARC
  5
FA7
330
A
100
AcDbEntity
  8
MODEL
100
AcDbCircle
 10
593.4951405255625
 20
606.3931339911456
 30
0.0
 40
1.0
100
AcDbArc
 50
270.0000000008859
 51
41.40962210984207
  0
LINE
  5
FA8
330
A
100
AcDbEntity
  8
MODEL
100
AcDbLine
 10
583.9951428599257
 20
785.4901502818292
 30
0.0
 11
583.9951428599257
 21
824.7547392748338
 31
0.0
  0
LINE
  5
FA9
330
A
100
AcDbEntity
  8
MODEL
100
AcDbLine
 10
593.9951428599257
 20
785.4901502818292
 30
0.0
 11
593.9951428599257
 21
824.7547392748338
 31
0.0
  0
LINE
  5
FAA
330
A
100
AcDbEntity
  8
MODEL
100
AcDbLine
 10
580.8663906789812
 20
582.6014972575327
 30
0.0
 11
581.0307359903019
 21
582.6014972575327
 31
0.0
  0
LINE
  5
FAB
330
A
100
AcDbEntity
  8
MODEL
100
AcDbLine
 10
591.2196499960158
 20
582.6014972575327
 30
0.0
 11
591.4576021700838
 21
582.6014972575327
 31
0.0
  0
LINE
  5
FAC
330
A
100
AcDbEntity
  8
MODEL
100
AcDbLine
 10
599.3484002712554
 20
582.6014972575327
 30
0.0
 11
599.4220071340025
 21
582.6014972575327
 31
0.0
  0
LINE
  5
FAD
330
A
100
AcDbEntity
  8
MODEL
100
AcDbLine
 10
591.4576021700838
 20
582.6014972575327
 30
0.0
 11
599.3484002712554
 21
582.6014972575327
 31
0.0
  0
LINE
  5
FAE
330
A
100
AcDbEntity
  8
MODEL
100
AcDbLine
 10
581.0307359903019
 20
582.6014972575327
 30
0.0
 11
591.2196499960158
 21
582.6014972575327
 31
0.0
  0
LINE
  5
FAF
330
A
100
AcDbEntity
  8
MODEL
100
AcDbLine
 10
578.5682747744391
 20
582.6014972575327
 30
0.0
 11
580.8663906789812
 21
582.6014972575327
 31
0.0
  0
LINE
  5
FB0
330
A
100
AcDbEntity
  8
MODEL
100
AcDbLine
 10
599.4220071340025
 20
583.3931339911456
 30
0.0
 11
599.4220071340025
 21
582.6014972575327
 31
0.0
  0
LINE
  5
FB1
330
A
100
AcDbEntity
  8
MODEL
100
AcDbLine
 10
591.4576021700838
 20
583.3931339911456
 30
0.0
 11
591.4576021700838
 21
582.6014972575327
 31
0.0
  0
LINE
  5
FB2
330
A
100
AcDbEntity
  8
MODEL
100
AcDbLine
 10
599.3484002712554
 20
582.6014972575327
 30
0.0
 11
599.3484002712554
 21
583.3931339911456
 31
0.0
  0
LINE
  5
FB3
330
A
100
AcDbEntity
  8
MODEL
100
AcDbLine
 10
581.0307359903021
 20
583.3931339911456
 30
0.0
 11
581.0307359903021
 21
582.6014972575327
 31
0.0
  0
LINE
  5
FB4
330
A
100
AcDbEntity
  8
MODEL
100
AcDbLine
 10
591.2196499960156
 20
582.6014972575327
 30
0.0
 11
591.2196499960156
 21
583.3931339911456
 31
0.0
  0
LINE
  5
FB5
330
A
100
AcDbEntity
  8
MODEL
100
AcDbLine
 10
578.5682747744391
 20
583.3931339911456
 30
0.0
 11
578.5682747744391
 21
582.6014972575327
 31
0.0
  0
LINE
  5
FB6
330
A
100
AcDbEntity
  8
MODEL
100
AcDbLine
 10
580.8663906789812
 20
582.6014972575327
 30
0.0
 11
580.8663906789812
 21
583.3931339911456
 31
0.0
  0
LWPOLYLINE
  5
FB7
330
A
100
AcDbEntity
  8
MODEL
100
AcDbPolyline
 90
        6
 70
     0
 43
0.0
 10
594.9951129476902
 20
618.5379827708429
 10
594.9643512289402
 20
618.1891821116632
 10
594.8732562582371
 20
617.8505895823663
 10
594.7244525472996
 20
617.5334051341241
 10
594.5226092855809
 20
617.2469824046319
 10
594.2450824301121
 20
616.976749250335
  0
LWPOLYLINE
  5
FB8
330
A
100
AcDbEntity
  8
MODEL
100
AcDbPolyline
 90
        6
 70
     0
 43
0.0
 10
582.9951434652684
 20
618.5379827708429
 10
583.0258746664402
 20
618.1891668528741
 10
583.1169696371434
 20
617.8505590647882
 10
583.2657733480809
 20
617.533374616546
 10
583.4676166097996
 20
617.2469366282647
 10
583.7451434652684
 20
616.976733991546
  0
LINE
  5
FB9
330
A
100
AcDbEntity
  8
MODEL
100
AcDbLine
 10
582.9951409542208
 20
618.5379889306365
 30
0.0
 11
582.9951409542208
 21
619.3296256642494
 31
0.0
  0
LINE
  5
FBA
330
A
100
AcDbEntity
  8
MODEL
100
AcDbLine
 10
594.9951409542208
 20
618.5379889306365
 30
0.0
 11
594.9951409542208
 21
619.3296160631927
 31
0.0
  0
ARC
  5
FBB
330
A
100
AcDbEntity
  8
MODEL
100
AcDbCircle
 10
584.4951409542208
 20
605.6014972575327
 30
0.0
 40
1.0
100
AcDbArc
 50
156.6830077439564
 51
215.3494100117228
  0
ARC
  5
FBC
330
A
100
AcDbEntity
  8
MODEL
100
AcDbCircle
 10
593.4951409542208
 20
605.6014972575327
 30
0.0
 40
1.0
100
AcDbArc
 50
324.6509441185011
 51
23.31705430550507
  0
LINE
  5
FBD
330
A
100
AcDbEntity
  8
MODEL
100
AcDbLine
 10
607.8951428599258
 20
785.4901502818292
 30
0.0
 11
569.8815948185016
 21
785.4901502818292
 31
0.0
  0
LINE
  5
FBE
330
A
100
AcDbEntity
  8
MODEL
100
AcDbLine
 10
569.8815948185016
 20
785.4901502818292
 30
0.0
 11
568.7605282921162
 21
785.4901502818292
 31
0.0
  0
LINE
  5
FBF
330
A
100
AcDbEntity
  8
MODEL
100
AcDbLine
 10
584.1951431138019
 20
783.4901502818292
 30
0.0
 11
569.8815948185016
 21
783.4901502818292
 31
0.0
  0
LINE
  5
FC0
330
A
100
AcDbEntity
  8
MODEL
100
AcDbLine
 10
569.8815948185016
 20
783.4901502818292
 30
0.0
 11
568.7605282921162
 21
783.4901502818292
 31
0.0
  0
LINE
  5
FC1
330
A
100
AcDbEntity
  8
MODEL
100
AcDbLine
 10
568.7605282921162
 20
785.4901502818292
 30
0.0
 11
568.7605282921162
 21
783.4901502818292
 31
0.0
  0
LINE
  5
FC2
330
A
100
AcDbEntity
  8
MODEL
100
AcDbLine
 10
607.8951428599258
 20
785.4901502818292
 30
0.0
 11
607.8951428599258
 21
783.4901502818292
 31
0.0
  0
LINE
  5
FC3
330
A
100
AcDbEntity
  8
MODEL
100
AcDbLine
 10
584.1951431138019
 20
783.4901502818292
 30
0.0
 11
609.4951428599257
 21
783.4901502818292
 31
0.0
  0
LINE
  5
FC4
330
A
100
AcDbEntity
  8
MODEL
100
AcDbLine
 10
571.7573814830349
 20
779.4901502818292
 30
0.0
 11
608.9951428599257
 21
779.4901502818292
 31
0.0
  0
LINE
  5
FC5
330
A
100
AcDbEntity
  8
MODEL
100
AcDbLine
 10
570.8605282644425
 20
779.4901502818292
 30
0.0
 11
571.7573814830349
 21
779.4901502818292
 31
0.0
  0
ARC
  5
FC6
330
A
100
AcDbEntity
  8
MODEL
100
AcDbCircle
 10
570.8605282644425
 20
779.9901502818292
 30
0.0
 40
0.5
100
AcDbArc
 50
180.0
 51
269.9999999997655
  0
ARC
  5
FC7
330
A
100
AcDbEntity
  8
MODEL
100
AcDbCircle
 10
608.9951428599257
 20
779.9901502818292
 30
0.0
 40
0.5
100
AcDbArc
 50
270.0000000002345
 51
0.0
  0
LINE
  5
FC8
330
A
100
AcDbEntity
  8
MODEL
100
AcDbLine
 10
609.4951428599257
 20
779.9901502818292
 30
0.0
 11
609.4951428599257
 21
783.4901502818292
 31
0.0
  0
LINE
  5
FC9
330
A
100
AcDbEntity
  8
MODEL
100
AcDbLine
 10
570.3605282644425
 20
779.9901502818292
 30
0.0
 11
570.3605282644425
 21
783.4901502818292
 31
0.0
  0
LINE
  5
FCA
330
A
100
AcDbEntity
  8
MODEL
100
AcDbLine
 10
601.8451428599259
 20
760.6086857437808
 30
0.0
 11
596.0315247359566
 21
760.6086857437808
 31
0.0
  0
LINE
  5
FCB
330
A
100
AcDbEntity
  8
MODEL
100
AcDbLine
 10
596.0315247359566
 20
760.6086857437808
 30
0.0
 11
593.9951428599264
 21
760.6086857437808
 31
0.0
  0
LINE
  5
FCC
330
A
100
AcDbEntity
  8
MODEL
100
AcDbLine
 10
596.0324576045729
 20
740.6086857437808
 30
0.0
 11
593.9951428599262
 21
740.6086857437808
 31
0.0
  0
LINE
  5
FCD
330
A
100
AcDbEntity
  8
MODEL
100
AcDbLine
 10
601.9951428599257
 20
730.6086857437808
 30
0.0
 11
601.2098521668796
 21
730.6086857437808
 31
0.0
  0
LINE
  5
FCE
330
A
100
AcDbEntity
  8
MODEL
100
AcDbLine
 10
601.9951428599257
 20
740.6086857437808
 30
0.0
 11
601.2098521668796
 21
740.6086857437808
 31
0.0
  0
LINE
  5
FCF
330
A
100
AcDbEntity
  8
MODEL
100
AcDbLine
 10
601.2098521668796
 20
740.6086857437808
 30
0.0
 11
596.0324576045729
 21
740.6086857437808
 31
0.0
  0
LINE
  5
FD0
330
A
100
AcDbEntity
  8
MODEL
100
AcDbLine
 10
602.7451428599257
 20
731.041698445673
 30
0.0
 11
602.7393318391634
 21
731.041698445673
 31
0.0
  0
LINE
  5
FD1
330
A
100
AcDbEntity
  8
MODEL
100
AcDbLine
 10
599.6803724945954
 20
731.041698445673
 30
0.0
 11
599.1247270214188
 21
731.041698445673
 31
0.0
  0
LINE
  5
FD2
330
A
100
AcDbEntity
  8
MODEL
100
AcDbLine
 10
602.7451428599257
 20
740.1756730418886
 30
0.0
 11
602.7393318391634
 21
740.1756730418886
 31
0.0
  0
LINE
  5
FD3
330
A
100
AcDbEntity
  8
MODEL
100
AcDbLine
 10
599.6803724945954
 20
740.1756730418886
 30
0.0
 11
599.1247270214188
 21
740.1756730418886
 31
0.0
  0
LINE
  5
FD4
330
A
100
AcDbEntity
  8
MODEL
100
AcDbLine
 10
599.1247270214188
 20
731.041698445673
 30
0.0
 11
599.1247270214188
 21
740.1756730418886
 31
0.0
  0
ARC
  5
FD5
330
A
100
AcDbEntity
  8
MODEL
100
AcDbCircle
 10
596.0668195756936
 20
729.464573098143
 30
0.0
 40
11.14416562169305
100
AcDbArc
 50
90.17666634788968
 51
100.7134850024629
  0
LWPOLYLINE
  5
FD6
330
A
100
AcDbEntity
  8
MODEL
100
AcDbPolyline
 90
        4
 70
     0
 43
0.0
 10
599.1247211019871
 20
740.1756780833429
 10
598.2242084066746
 20
740.3847845286554
 10
597.3111529867527
 20
740.5308416575616
 10
596.0324664633152
 20
740.6086919993585
  0
LWPOLYLINE
  5
FD7
330
A
100
AcDbEntity
  8
MODEL
100
AcDbPolyline
 90
        4
 70
     0
 43
0.0
 10
599.6803851644871
 20
731.0417059153741
 10
600.1265216390965
 20
730.8322332591241
 10
600.5789447347996
 20
730.6862371653741
 10
601.2098651449559
 20
730.6086919993585
  0
LWPOLYLINE
  5
FD8
330
A
100
AcDbEntity
  8
MODEL
100
AcDbPolyline
 90
        4
 70
     0
 43
0.0
 10
601.2098651449559
 20
730.6086919993585
 10
601.666926912534
 20
730.6497076243585
 10
602.1209369222996
 20
730.768237897796
 10
602.7393451254246
 20
731.0417059153741
  0
LINE
  5
FD9
330
A
100
AcDbEntity
  8
MODEL
100
AcDbLine
 10
599.6803724945954
 20
740.1756730418886
 30
0.0
 11
599.6803724945954
 21
731.041698445673
 31
0.0
  0
LINE
  5
FDA
330
A
100
AcDbEntity
  8
MODEL
100
AcDbLine
 10
602.7393318391634
 20
731.041698445673
 30
0.0
 11
602.7393318391634
 21
740.1756730418886
 31
0.0
  0
LWPOLYLINE
  5
FDB
330
A
100
AcDbEntity
  8
MODEL
100
AcDbPolyline
 90
        4
 70
     0
 43
0.0
 10
601.2098651449559
 20
740.6086919993585
 10
600.7524371664402
 20
740.5675237864679
 10
600.298030428159
 20
740.448901960296
 10
599.6803851644871
 20
740.1756780833429
  0
LWPOLYLINE
  5
FDC
330
A
100
AcDbEntity
  8
MODEL
100
AcDbPolyline
 90
        4
 70
     0
 43
0.0
 10
602.7393451254246
 20
740.1756780833429
 10
602.2939105551121
 20
740.3847845286554
 10
601.8423114340184
 20
740.5308416575616
 10
601.2098651449559
 20
740.6086919993585
  0
LINE
  5
FDD
330
A
100
AcDbEntity
  8
MODEL
100
AcDbLine
 10
595.0319550469584
 20
730.6086857437808
 30
0.0
 11
593.9951428599262
 21
730.6086857437808
 31
0.0
  0
LINE
  5
FDE
330
A
100
AcDbEntity
  8
MODEL
100
AcDbLine
 10
601.2098521668796
 20
730.6086857437808
 30
0.0
 11
597.0319163690511
 21
730.6086857437808
 31
0.0
  0
LINE
  5
FDF
330
A
100
AcDbEntity
  8
MODEL
100
AcDbLine
 10
596.9614884783895
 20
730.6086857437808
 30
0.0
 11
597.0287585909358
 21
730.6086857437808
 31
0.0
  0
LINE
  5
FE0
330
A
100
AcDbEntity
  8
MODEL
100
AcDbLine
 10
596.9583307002741
 20
730.6086857437808
 30
0.0
 11
596.9614884783895
 21
730.6086857437808
 31
0.0
  0
LINE
  5
FE1
330
A
100
AcDbEntity
  8
MODEL
100
AcDbLine
 10
597.0287585909356
 20
730.6086857437808
 30
0.0
 11
597.0319163690511
 21
730.6086857437808
 31
0.0
  0
ARC
  5
FE2
330
A
100
AcDbEntity
  8
MODEL
100
AcDbCircle
 10
596.1472879962404
 20
742.3211706360277
 30
0.0
 40
11.71761969784174
100
AcDbArc
 50
259.4165492210982
 51
264.5407464814058
  0
LWPOLYLINE
  5
FE3
330
A
100
AcDbEntity
  8
MODEL
100
AcDbPolyline
 90
        3
 70
     0
 43
0.0
 10
597.0324359457371
 20
730.6566351145929
 10
597.8199115316746
 20
730.7591131419366
 10
599.1247211019871
 20
731.0417059153741
  0
LINE
  5
FE4
330
A
100
AcDbEntity
  8
MODEL
100
AcDbLine
 10
596.9678372383984
 20
731.6086857437808
 30
0.0
 11
597.0224098309267
 21
731.6086857437808
 31
0.0
  0
LINE
  5
FE5
330
A
100
AcDbEntity
  8
MODEL
100
AcDbLine
 10
597.0324382793093
 20
730.6564687142254
 30
0.0
 11
597.0324382793093
 21
734.6086857437808
 31
0.0
  0
LINE
  5
FE6
330
A
100
AcDbEntity
  8
MODEL
100
AcDbLine
 10
595.0324769571881
 20
730.6564687116291
 30
0.0
 11
595.0324769571881
 21
734.6086857437807
 31
0.0
  0
LINE
  5
FE7
330
A
100
AcDbEntity
  8
MODEL
100
AcDbLine
 10
597.0324382793093
 20
734.6086857437808
 30
0.0
 11
595.0324769571881
 21
734.6086857437808
 31
0.0
  0
LINE
  5
FE8
330
A
100
AcDbEntity
  8
MODEL
100
AcDbLine
 10
596.9578087900155
 20
730.6564687142254
 30
0.0
 11
596.9578087900155
 21
734.6086857437808
 31
0.0
  0
LINE
  5
FE9
330
A
100
AcDbEntity
  8
MODEL
100
AcDbLine
 10
595.0324768185188
 20
730.6564674022967
 30
0.0
 11
595.0319550469584
 21
730.6086857437807
 31
0.0
  0
LINE
  5
FEA
330
A
100
AcDbEntity
  8
MODEL
100
AcDbLine
 10
597.0319163690511
 20
730.6086857437808
 30
0.0
 11
597.0324312255644
 21
730.6565536586837
 31
0.0
  0
LINE
  5
FEB
330
A
100
AcDbEntity
  8
MODEL
100
AcDbLine
 10
596.9578089286848
 20
730.6564674048929
 30
0.0
 11
596.9583307002741
 21
730.6086857437808
 31
0.0
  0
LINE
  5
FEC
330
A
100
AcDbEntity
  8
MODEL
100
AcDbLine
 10
597.0224098309264
 20
731.6086857437808
 30
0.0
 11
597.0224098309264
 21
734.6086857437808
 31
0.0
  0
LINE
  5
FED
330
A
100
AcDbEntity
  8
MODEL
100
AcDbLine
 10
596.9678372383984
 20
734.6086857437808
 30
0.0
 11
596.9678372383984
 21
731.6086857437808
 31
0.0
  0
LINE
  5
FEE
330
A
100
AcDbEntity
  8
MODEL
100
AcDbLine
 10
597.0287585909356
 20
730.6086857437808
 30
0.0
 11
597.0224098309264
 21
731.6086857437808
 31
0.0
  0
LINE
  5
FEF
330
A
100
AcDbEntity
  8
MODEL
100
AcDbLine
 10
596.9678372383984
 20
731.6086857437808
 30
0.0
 11
596.9614884783895
 21
730.6086857437808
 31
0.0
  0
LINE
  5
FF0
330
A
100
AcDbEntity
  8
MODEL
100
AcDbLine
 10
602.7451428599257
 20
740.1756730418887
 30
0.0
 11
601.9951428599257
 21
740.6086857437808
 31
0.0
  0
LINE
  5
FF1
330
A
100
AcDbEntity
  8
MODEL
100
AcDbLine
 10
602.7451428599257
 20
731.041698445673
 30
0.0
 11
602.7451428599257
 21
740.1756730418886
 31
0.0
  0
LINE
  5
FF2
330
A
100
AcDbEntity
  8
MODEL
100
AcDbLine
 10
601.9951428599257
 20
730.6086857437807
 30
0.0
 11
602.7451428599257
 21
731.041698445673
 31
0.0
  0
LINE
  5
FF3
330
A
100
AcDbEntity
  8
MODEL
100
AcDbLine
 10
601.8451428599259
 20
740.6086857437808
 30
0.0
 11
601.8451428599259
 21
760.6086857437808
 31
0.0
  0
LINE
  5
FF4
330
A
100
AcDbEntity
  8
MODEL
100
AcDbLine
 10
583.9951405255625
 20
624.3931339911456
 30
0.0
 11
583.9951405255625
 21
651.2412538129131
 31
0.0
  0
LINE
  5
FF5
330
A
100
AcDbEntity
  8
MODEL
100
AcDbLine
 10
593.9951405255625
 20
624.3931339911456
 30
0.0
 11
593.9951405255625
 21
652.5241267834507
 31
0.0
  0
LINE
  5
FF7
330
A
100
AcDbEntity
  8
MODEL
100
AcDbLine
 10
583.9951428599257
 20
688.2790910473714
 30
0.0
 11
583.9951428599257
 21
779.4901502818292
 31
0.0
  0
LINE
  5
FF8
330
A
100
AcDbEntity
  8
MODEL
100
AcDbLine
 10
593.9951428599257
 20
689.5619640179091
 30
0.0
 11
593.9951428599257
 21
779.4901502818292
 31
0.0
  0
LINE
  5
FFD
330
A
100
AcDbEntity
  8
MODEL
100
AcDbLine
 10
294.4620252395022
 20
949.9424529131531
 30
0.0
 11
294.664328784861
 21
949.7401493677943
 31
0.0
  0
LINE
  5
FFE
330
A
100
AcDbEntity
  8
MODEL
100
AcDbLine
 10
254.8666323302201
 20
949.9424529131531
 30
0.0
 11
254.6643287848613
 21
949.7401493677943
 31
0.0
  0
LINE
  5
FFF
330
A
100
AcDbEntity
  8
MODEL
100
AcDbLine
 10
294.664328784861
 20
949.7401493677943
 30
0.0
 11
254.664328784861
 21
949.7401493677943
 31
0.0
  0
LINE
  5
1000
330
A
100
AcDbEntity
  8
MODEL
100
AcDbLine
 10
294.664328784861
 20
829.4901493677943
 30
0.0
 11
294.664328784861
 21
949.7401493677943
 31
0.0
  0
LINE
  5
1001
330
A
100
AcDbEntity
  8
MODEL
100
AcDbLine
 10
254.6643287848613
 20
829.4900993677919
 30
0.0
 11
254.6643287848613
 21
949.7401493677943
 31
0.0
  0
ARC
  5
1002
330
A
100
AcDbEntity
  8
MODEL
100
AcDbCircle
 10
274.664328784861
 20
940.816050824165
 30
0.0
 40
21.8
100
AcDbArc
 50
148.8580256348774
 51
155.251100296715
  0
ARC
  5
1003
330
A
100
AcDbEntity
  8
MODEL
100
AcDbCircle
 10
274.664328784861
 20
940.816050824165
 30
0.0
 40
21.8
100
AcDbArc
 50
24.74889970328443
 51
31.1419743651223
  0
LINE
  5
1004
330
A
100
AcDbEntity
  8
MODEL
100
AcDbLine
 10
294.664328784861
 20
952.0901493677943
 30
0.0
 11
254.664328784861
 21
952.0901493677943
 31
0.0
  0
LINE
  5
1005
330
A
100
AcDbEntity
  8
MODEL
100
AcDbLine
 10
294.664328784861
 20
996.1142563419382
 30
0.0
 11
294.664328784861
 21
952.0901493677944
 31
0.0
  0
LINE
  5
1006
330
A
100
AcDbEntity
  8
MODEL
100
AcDbLine
 10
254.664328784861
 20
996.1142563419382
 30
0.0
 11
254.664328784861
 21
952.0901493677944
 31
0.0
  0
ARC
  5
1007
330
A
100
AcDbEntity
  8
MODEL
100
AcDbCircle
 10
294.164328784861
 20
996.1142563419382
 30
0.0
 40
0.5
100
AcDbArc
 50
0.0000000002214684
 51
87.20397430371072
  0
ARC
  5
1008
330
A
100
AcDbEntity
  8
MODEL
100
AcDbCircle
 10
255.164328784861
 20
996.1142563419382
 30
0.0
 40
0.5
100
AcDbArc
 50
92.79602569631533
 51
179.9999999997785
  0
ARC
  5
1009
330
A
100
AcDbEntity
  8
MODEL
100
AcDbCircle
 10
274.6643287848609
 20
596.8401493677942
 30
0.0
 40
400.2500000000001
100
AcDbArc
 50
87.20397430371492
 51
89.99999999999996
  0
ARC
  5
100A
330
A
100
AcDbEntity
  8
MODEL
100
AcDbCircle
 10
274.6643287848609
 20
596.8401493677942
 30
0.0
 40
400.2500000000001
100
AcDbArc
 50
90.0
 51
92.79602569628506
  0
ELLIPSE
  5
100B
330
A
100
AcDbEntity
  8
MODEL
100
AcDbEllipse
 10
274.6643237580515
 20
898.9901493677943
 30
0.0
 11
12.0
 21
-3.028413817138115E-7
 31
0.0
210
0.0
220
0.0
230
1.0
 40
0.4999999999999994
 41
0.0
 42
6.283185307179586
  0
LINE
  5
100C
330
A
100
AcDbEntity
  8
MODEL
100
AcDbLine
 10
262.6643237580515
 20
898.9901493677943
 30
0.0
 11
262.6643241366032
 21
913.9901493677943
 31
0.0
  0
LINE
  5
100D
330
A
100
AcDbEntity
  8
MODEL
100
AcDbLine
 10
262.6643252722583
 20
913.9901493677943
 30
0.0
 11
262.6643252722583
 21
928.9901493677943
 31
0.0
  0
ARC
  5
100E
330
A
100
AcDbEntity
  8
MODEL
100
AcDbCircle
 10
274.6643252722583
 20
928.9901493677943
 30
0.0
 40
12.0
100
AcDbArc
 50
359.9999999995538
 51
179.9999999991065
  0
LWPOLYLINE
  5
100F
330
A
100
AcDbEntity
  8
MODEL
100
AcDbPolyline
 90
       25
 70
     0
 43
0.0
 10
265.2893245399312
 20
899.2499578684991
 10
265.3633601844624
 20
899.8093755931085
 10
265.5877559364155
 20
900.368335554046
 10
265.9654872596577
 20
900.9202154368585
 10
266.4949672401264
 20
901.4531744212335
 10
267.1688564002827
 20
901.9539983958429
 10
267.9751765907124
 20
902.4110906809991
 10
268.8992946327047
 20
902.8142278880304
 10
269.9245937049702
 20
903.1551397532647
 10
271.0323817909077
 20
903.4274786204522
 10
272.2034175575092
 20
903.6257208079522
 10
273.4171321571187
 20
903.7464178294366
 10
274.6524226844624
 20
903.7874334544366
 10
275.8878810584858
 20
903.747974225921
 10
277.1022060096577
 20
903.6288030833429
 10
278.2742488563374
 20
903.4319952220147
 10
279.3835170448139
 20
903.1611517161554
 10
280.4104335487202
 20
902.8213384837335
 10
281.3368251502827
 20
902.4194524974054
 10
282.1454494178608
 20
901.9632757395929
 10
282.8220546424702
 20
901.4631536692804
 10
283.3543727577047
 20
900.9307134837335
 10
283.7350795448139
 20
900.3790472239679
 10
283.9624049842672
 20
899.8201788157647
 10
284.0393092811422
 20
899.249927350921
  0
LINE
  5
1010
330
A
100
AcDbEntity
  8
MODEL
100
AcDbLine
 10
286.6643252722583
 20
913.9901493677847
 30
0.0
 11
286.6643252722583
 21
928.9901493677751
 31
0.0
  0
LINE
  5
1011
330
A
100
AcDbEntity
  8
MODEL
100
AcDbLine
 10
286.6643237580514
 20
898.9901493677943
 30
0.0
 11
286.6643241366031
 21
913.9901493677943
 31
0.0
  0
LINE
  5
1012
330
A
100
AcDbEntity
  8
MODEL
100
AcDbLine
 10
275.8166286262625
 20
897.4358348169902
 30
0.0
 11
276.5097770124362
 21
896.7799652837375
 31
0.0
  0
LINE
  5
1013
330
A
100
AcDbEntity
  8
MODEL
100
AcDbLine
 10
274.826378635591
 20
898.3728272592149
 30
0.0
 11
275.2803194953896
 21
897.943300211646
 31
0.0
  0
LINE
  5
1014
330
A
100
AcDbEntity
  8
MODEL
100
AcDbLine
 10
272.4008307457962
 20
900.6679245199085
 30
0.0
 11
274.1455758222996
 21
899.0170151882317
 31
0.0
  0
LINE
  5
1015
330
A
100
AcDbEntity
  8
MODEL
100
AcDbLine
 10
272.4630956176588
 20
897.3251671342142
 30
0.0
 11
272.6734853504931
 21
897.1260925657269
 31
0.0
  0
LINE
  5
1016
330
A
100
AcDbEntity
  8
MODEL
100
AcDbLine
 10
276.5833865842777
 20
895.0023482676185
 30
0.0
 11
276.5833866204752
 21
896.3913947546963
 31
0.0
  0
ARC
  5
1017
330
A
100
AcDbEntity
  8
MODEL
100
AcDbCircle
 10
267.3994748407894
 20
917.4275715398802
 30
0.0
 40
17.49010479808284
100
AcDbArc
 50
281.80276788065
 51
287.7970494985327
  0
ARC
  5
1018
330
A
100
AcDbEntity
  8
MODEL
100
AcDbCircle
 10
273.0889282256317
 20
911.7712101114058
 30
0.0
 40
17.12909707942422
100
AcDbArc
 50
281.7713850107782
 51
284.8105649662112
  0
ARC
  5
1019
330
A
100
AcDbEntity
  8
MODEL
100
AcDbCircle
 10
272.9038773542993
 20
912.4718234899141
 30
0.0
 40
17.85373691837173
100
AcDbArc
 50
284.8099525789589
 51
287.7663201595777
  0
LINE
  5
101A
330
A
100
AcDbEntity
  8
MODEL
100
AcDbLine
 10
272.6734853316867
 20
896.404404729222
 30
0.0
 11
272.6734853504931
 21
897.1260925657268
 31
0.0
  0
ARC
  5
101B
330
A
100
AcDbEntity
  8
MODEL
100
AcDbCircle
 10
280.7904874199085
 20
905.3339648054098
 30
0.0
 40
12.06742582552079
100
AcDbArc
 50
225.436774651431
 51
227.7290505950586
  0
ARC
  5
101C
330
A
100
AcDbEntity
  8
MODEL
100
AcDbCircle
 10
285.122824190765
 20
906.4786097898435
 30
0.0
 40
12.06742513030367
100
AcDbArc
 50
225.4367745854037
 51
227.7290506611081
  0
LINE
  5
101D
330
A
100
AcDbEntity
  8
MODEL
100
AcDbLine
 10
270.8283131075991
 20
896.7316273624723
 30
0.0
 11
270.9051844326236
 21
896.6588903251076
 31
0.0
  0
LINE
  5
101E
330
A
100
AcDbEntity
  8
MODEL
100
AcDbLine
 10
270.9051844326236
 20
896.6588903251076
 30
0.0
 11
271.6552128145161
 21
896.6448300856166
 31
0.0
  0
LINE
  5
101F
330
A
100
AcDbEntity
  8
MODEL
100
AcDbLine
 10
271.6552128145161
 20
896.6448300856166
 30
0.0
 11
271.6849272958567
 21
896.6684713093968
 31
0.0
  0
LINE
  5
1020
330
A
100
AcDbEntity
  8
MODEL
100
AcDbLine
 10
269.8869118966463
 20
896.1776278449973
 30
0.0
 11
270.152510332618
 21
896.3889413789108
 31
0.0
  0
LINE
  5
1021
330
A
100
AcDbEntity
  8
MODEL
100
AcDbLine
 10
270.9051844223935
 20
896.2663146362316
 30
0.0
 11
270.9051844326236
 21
896.6588903251077
 31
0.0
  0
LINE
  5
1022
330
A
100
AcDbEntity
  8
MODEL
100
AcDbLine
 10
271.6552128011949
 20
896.1336478690049
 30
0.0
 11
271.6552128145161
 21
896.6448300856166
 31
0.0
  0
LINE
  5
1023
330
A
100
AcDbEntity
  8
MODEL
100
AcDbLine
 10
269.8869118954735
 20
896.1326131934519
 30
0.0
 11
269.8869118966466
 21
896.1776278449973
 31
0.0
  0
LINE
  5
1024
330
A
100
AcDbEntity
  8
MODEL
100
AcDbLine
 10
269.6948645694823
 20
896.1812280173091
 30
0.0
 11
269.8869118966463
 21
896.1776278449973
 31
0.0
  0
ARC
  5
1025
330
A
100
AcDbEntity
  8
MODEL
100
AcDbCircle
 10
280.1232384494396
 20
905.2121422206411
 30
0.0
 40
11.99710190627469
100
AcDbArc
 50
225.4300553819323
 51
227.7357698646725
  0
ARC
  5
1026
330
A
100
AcDbEntity
  8
MODEL
100
AcDbCircle
 10
275.0035340808035
 20
917.6461881520015
 30
0.0
 40
21.23859135915315
100
AcDbArc
 50
259.0078890966865
 51
261.0623579776672
  0
ARC
  5
1027
330
A
100
AcDbEntity
  8
MODEL
100
AcDbCircle
 10
267.2021272611889
 20
903.8214089021074
 30
0.0
 40
7.963322861253207
100
AcDbArc
 50
294.8964453908112
 51
298.1076960131359
  0
ARC
  5
1028
330
A
100
AcDbEntity
  8
MODEL
100
AcDbCircle
 10
278.8504879739965
 20
905.0144170329422
 30
0.0
 40
11.81766237757877
100
AcDbArc
 50
225.4125479668236
 51
227.7532772798897
  0
ARC
  5
1029
330
A
100
AcDbEntity
  8
MODEL
100
AcDbCircle
 10
274.9516034975518
 20
916.9561805023908
 30
0.0
 40
21.08184187616099
100
AcDbArc
 50
258.9340600459299
 51
261.0042264079124
  0
ARC
  5
102A
330
A
100
AcDbEntity
  8
MODEL
100
AcDbCircle
 10
268.2517734225643
 20
903.4275813692443
 30
0.0
 40
8.048904615531555
100
AcDbArc
 50
295.0143373866944
 51
298.1942698535826
  0
ARC
  5
102B
330
A
100
AcDbEntity
  8
MODEL
100
AcDbCircle
 10
278.1465973047506
 20
904.9238904551421
 30
0.0
 40
11.6940381667157
100
AcDbArc
 50
225.4001736396025
 51
227.7656516070019
  0
ARC
  5
102C
330
A
100
AcDbEntity
  8
MODEL
100
AcDbCircle
 10
274.9096163638828
 20
916.8763095115909
 30
0.0
 40
20.88000468231518
100
AcDbArc
 50
254.0892801073841
 51
256.218595428145
  0
LINE
  5
102D
330
A
100
AcDbEntity
  8
MODEL
100
AcDbLine
 10
269.0833302238667
 20
896.7598728700239
 30
0.0
 11
269.1855895611347
 21
896.796217064221
 31
0.0
  0
LINE
  5
102E
330
A
100
AcDbEntity
  8
MODEL
100
AcDbLine
 10
269.8869118954734
 20
896.1326131934519
 30
0.0
 11
269.6948645694823
 21
896.1812280173091
 31
0.0
  0
ARC
  5
102F
330
A
100
AcDbEntity
  8
MODEL
100
AcDbCircle
 10
268.1095697357161
 20
902.1360601752623
 30
0.0
 40
6.261015957196102
100
AcDbArc
 50
286.4915779210625
 51
290.344301409229
  0
ELLIPSE
  5
1030
330
A
100
AcDbEntity
  8
MODEL
100
AcDbEllipse
 10
274.6643233912988
 20
897.8643162781776
 30
0.0
 11
-6.002221810851935
 21
1.564139838026455E-7
 31
0.0
210
0.0
220
0.0
230
-1.0
 40
0.4999999999630601
 41
5.687807264187542
 42
5.906315695473496
  0
ARC
  5
1031
330
A
100
AcDbEntity
  8
MODEL
100
AcDbCircle
 10
278.5106642628861
 20
911.4585078368306
 30
0.0
 40
16.51473872059596
100
AcDbArc
 50
248.6255198789158
 51
250.8588164738194
  0
ARC
  5
1032
330
A
100
AcDbEntity
  8
MODEL
100
AcDbCircle
 10
265.1566878663616
 20
898.3313144453766
 30
0.0
 40
8.315550797489191
100
AcDbArc
 50
340.8365179225785
 51
342.6879706925629
  0
ARC
  5
1033
330
A
100
AcDbEntity
  8
MODEL
100
AcDbCircle
 10
271.8920661079001
 20
912.5536731324329
 30
0.0
 40
16.98897709082348
100
AcDbArc
 50
271.4551305735512
 51
273.7778516031943
  0
ARC
  5
1034
330
A
100
AcDbEntity
  8
MODEL
100
AcDbCircle
 10
277.6530889744095
 20
910.940127602939
 30
0.0
 40
16.26776333159901
100
AcDbArc
 50
248.6085648517123
 51
250.8757715009683
  0
ARC
  5
1035
330
A
100
AcDbEntity
  8
MODEL
100
AcDbCircle
 10
264.0044646472575
 20
898.4852548814673
 30
0.0
 40
8.17139393437448
100
AcDbArc
 50
340.7635319372714
 51
342.6417198499979
  0
ARC
  5
1036
330
A
100
AcDbEntity
  8
MODEL
100
AcDbCircle
 10
271.3438144810625
 20
913.169970283151
 30
0.0
 40
17.12879233936145
100
AcDbArc
 50
271.5385529819446
 51
273.842449973593
  0
ARC
  5
1037
330
A
100
AcDbEntity
  8
MODEL
100
AcDbCircle
 10
277.1784473471967
 20
910.6616873875848
 30
0.0
 40
16.09761349900011
100
AcDbArc
 50
248.5965812127399
 51
250.8877551399347
  0
ARC
  5
1038
330
A
100
AcDbEntity
  8
MODEL
100
AcDbCircle
 10
268.684600739057
 20
896.7789713078965
 30
0.0
 40
3.485869322471334
100
AcDbArc
 50
334.2258241243521
 51
337.613889541465
  0
LINE
  5
1039
330
A
100
AcDbEntity
  8
MODEL
100
AcDbLine
 10
271.8236778136475
 20
895.2632272486543
 30
0.0
 11
271.6475250426905
 21
895.2698224372372
 31
0.0
  0
ELLIPSE
  5
103A
330
A
100
AcDbEntity
  8
MODEL
100
AcDbEllipse
 10
274.6643233912988
 20
897.8643162781776
 30
0.0
 11
-6.002221810851935
 21
1.564139836102778E-7
 31
0.0
210
0.0
220
0.0
230
-1.0
 40
0.4999999999630601
 41
5.239008313674713
 42
5.457516744960671
  0
LINE
  5
103B
330
A
100
AcDbEntity
  8
MODEL
100
AcDbLine
 10
270.5944224613381
 20
895.6584960406915
 30
0.0
 11
270.6159543784113
 21
895.708967509728
 31
0.0
  0
ARC
  5
103C
330
A
100
AcDbEntity
  8
MODEL
100
AcDbCircle
 10
271.7621993508685
 20
911.5942966436061
 30
0.0
 40
15.92663050455171
100
AcDbArc
 50
265.8728352360893
 51
268.351075700377
  0
LINE
  5
103D
330
A
100
AcDbEntity
  8
MODEL
100
AcDbLine
 10
272.3234857125105
 20
895.5701746790138
 30
0.0
 11
272.3234857227407
 21
895.9627503678898
 31
0.0
  0
LINE
  5
103E
330
A
100
AcDbEntity
  8
MODEL
100
AcDbLine
 10
272.069345439819
 20
896.0565471368801
 30
0.0
 11
272.3234857227407
 21
895.9627503678898
 31
0.0
  0
LINE
  5
103F
330
A
100
AcDbEntity
  8
MODEL
100
AcDbLine
 10
273.0114389373948
 20
895.6016128723609
 30
0.0
 11
273.0114389448123
 21
895.8862448948479
 31
0.0
  0
LINE
  5
1040
330
A
100
AcDbEntity
  8
MODEL
100
AcDbLine
 10
272.3234857227407
 20
895.9627503678898
 30
0.0
 11
272.6244335837002
 21
896.0283880246692
 31
0.0
  0
LINE
  5
1041
330
A
100
AcDbEntity
  8
MODEL
100
AcDbLine
 10
271.8236778136475
 20
895.2632272486543
 30
0.0
 11
271.8236778148204
 21
895.3082419001997
 31
0.0
  0
LINE
  5
1042
330
A
100
AcDbEntity
  8
MODEL
100
AcDbLine
 10
271.6475250426905
 20
895.2698224372372
 30
0.0
 11
271.8236778148204
 21
895.3082419001997
 31
0.0
  0
LINE
  5
1043
330
A
100
AcDbEntity
  8
MODEL
100
AcDbLine
 10
271.8236778148207
 20
895.3082419001997
 30
0.0
 11
271.859729271533
 21
895.4681168218603
 31
0.0
  0
ARC
  5
1044
330
A
100
AcDbEntity
  8
MODEL
100
AcDbCircle
 10
278.9599001737975
 20
911.7381321963419
 30
0.0
 40
16.61152902381568
100
AcDbArc
 50
248.6320270639597
 51
250.8523092886788
  0
LINE
  5
1045
330
A
100
AcDbEntity
  8
MODEL
100
AcDbLine
 10
273.5112468398294
 20
896.0456157201578
 30
0.0
 11
273.5112468586362
 21
896.7673035566626
 31
0.0
  0
LINE
  5
1046
330
A
100
AcDbEntity
  8
MODEL
100
AcDbLine
 10
272.9369209644784
 20
896.9792727596559
 30
0.0
 11
273.511246858636
 21
896.7673035566626
 31
0.0
  0
ARC
  5
1047
330
A
100
AcDbEntity
  8
MODEL
100
AcDbCircle
 10
276.0201473488034
 20
916.2034929583618
 30
0.0
 40
20.61060245792463
100
AcDbArc
 50
263.5637282744189
 51
265.6230787020456
  0
ARC
  5
1048
330
A
100
AcDbEntity
  8
MODEL
100
AcDbCircle
 10
278.6088623467695
 20
899.7658772493136
 30
0.0
 40
5.851085204313918
100
AcDbArc
 50
224.662197310762
 51
228.0173509622423
  0
ARC
  5
1049
330
A
100
AcDbEntity
  8
MODEL
100
AcDbCircle
 10
271.2125825208536
 20
904.8931621003885
 30
0.0
 40
10.09627918880329
100
AcDbArc
 50
287.243282788308
 51
290.1772023710003
  0
ARC
  5
104A
330
A
100
AcDbEntity
  8
MODEL
100
AcDbCircle
 10
275.749319256975
 20
915.4942467570171
 30
0.0
 40
20.3023719202248
100
AcDbArc
 50
263.548094027359
 51
265.6387129491291
  0
ARC
  5
104B
330
A
100
AcDbEntity
  8
MODEL
100
AcDbCircle
 10
277.320123943741
 20
899.6205399953914
 30
0.0
 40
5.77320290787803
100
AcDbArc
 50
224.7505546017855
 51
228.144885101156
  0
ARC
  5
104C
330
A
100
AcDbEntity
  8
MODEL
100
AcDbCircle
 10
270.1800433256668
 20
905.2866957716902
 30
0.0
 40
10.1944560729914
100
AcDbArc
 50
287.3500463474008
 51
290.2573149240661
  0
ARC
  5
104D
330
A
100
AcDbEntity
  8
MODEL
100
AcDbCircle
 10
275.5991179988004
 20
915.1017234695491
 30
0.0
 40
20.09002282997433
100
AcDbArc
 50
263.5370439883462
 51
265.649762988108
  0
ARC
  5
104E
330
A
100
AcDbEntity
  8
MODEL
100
AcDbCircle
 10
276.2639712428229
 20
898.0044005463036
 30
0.0
 40
3.661115385334698
100
AcDbArc
 50
233.2850128709876
 51
237.9851019500334
  0
LINE
  5
104F
330
A
100
AcDbEntity
  8
MODEL
100
AcDbLine
 10
274.3230684264749
 20
894.9001031826102
 30
0.0
 11
274.1976994274441
 21
894.8722881817422
 31
0.0
  0
ELLIPSE
  5
1050
330
A
100
AcDbEntity
  8
MODEL
100
AcDbEllipse
 10
274.6643233912988
 20
897.8643162781776
 30
0.0
 11
-6.002221810851935
 21
1.564139836102777E-7
 31
0.0
210
0.0
220
0.0
230
-1.0
 40
0.49999999996306
 41
4.790209363161886
 42
5.008717794447843
  0
LINE
  5
1051
330
A
100
AcDbEntity
  8
MODEL
100
AcDbLine
 10
272.9116084920479
 20
894.9940089620031
 30
0.0
 11
272.8481483284456
 21
895.0396955086375
 31
0.0
  0
ARC
  5
1052
330
A
100
AcDbEntity
  8
MODEL
100
AcDbCircle
 10
271.3896209192453
 20
903.4561596156512
 30
0.0
 40
8.541906711504009
100
AcDbArc
 50
279.8314069689447
 51
283.1834383749741
  0
LINE
  5
1053
330
A
100
AcDbEntity
  8
MODEL
100
AcDbLine
 10
273.467958562361
 20
895.3204593345176
 30
0.0
 11
273.4679585706098
 21
895.6370047672967
 31
0.0
  0
LINE
  5
1054
330
A
100
AcDbEntity
  8
MODEL
100
AcDbLine
 10
274.2054186113755
 20
895.250663171504
 30
0.0
 11
274.2054186216058
 21
895.64323886038
 31
0.0
  0
LINE
  5
1055
330
A
100
AcDbEntity
  8
MODEL
100
AcDbLine
 10
273.6386634519337
 20
895.6968788321509
 30
0.0
 11
274.2054186216058
 21
895.64323886038
 31
0.0
  0
LINE
  5
1056
330
A
100
AcDbEntity
  8
MODEL
100
AcDbLine
 10
274.2054186216059
 20
895.64323886038
 30
0.0
 11
274.2498602299837
 21
895.6690559833178
 31
0.0
  0
LINE
  5
1057
330
A
100
AcDbEntity
  8
MODEL
100
AcDbLine
 10
272.8762128025633
 20
895.0445986756715
 30
0.0
 11
272.9116084920479
 21
894.9940089620032
 31
0.0
  0
LINE
  5
1058
330
A
100
AcDbEntity
  8
MODEL
100
AcDbLine
 10
274.1976994274441
 20
894.8722881817423
 30
0.0
 11
274.2859686744503
 21
894.9235657588771
 31
0.0
  0
ARC
  5
1059
330
A
100
AcDbEntity
  8
MODEL
100
AcDbCircle
 10
276.1617206124096
 20
916.5748739822916
 30
0.0
 40
20.73139784529839
100
AcDbArc
 50
263.5697285109952
 51
265.6170784654975
  0
LINE
  5
105A
330
A
100
AcDbEntity
  8
MODEL
100
AcDbLine
 10
273.839929247807
 20
895.9738996975814
 30
0.0
 11
273.8399292646324
 21
896.6195579487043
 31
0.0
  0
LINE
  5
105B
330
A
100
AcDbEntity
  8
MODEL
100
AcDbLine
 10
274.5773892968218
 20
895.9041035345678
 30
0.0
 11
274.5773893156284
 21
896.6257913710725
 31
0.0
  0
LINE
  5
105C
330
A
100
AcDbEntity
  8
MODEL
100
AcDbLine
 10
274.0483275315171
 20
896.6758638903601
 30
0.0
 11
274.5773893156284
 21
896.6257913710725
 31
0.0
  0
ARC
  5
105D
330
A
100
AcDbEntity
  8
MODEL
100
AcDbCircle
 10
278.1875528493121
 20
906.1929531042821
 30
0.0
 40
11.25614505732994
100
AcDbArc
 50
253.1382895616196
 51
255.9412527070916
  0
ARC
  5
105E
330
A
100
AcDbEntity
  8
MODEL
100
AcDbCircle
 10
270.5847269577594
 20
899.0639131066341
 30
0.0
 40
5.664766141733085
100
AcDbArc
 50
319.9744421276849
 51
323.1357913897247
  0
LINE
  5
105F
330
A
100
AcDbEntity
  8
MODEL
100
AcDbLine
 10
275.5759412041916
 20
894.8980214492923
 30
0.0
 11
275.4400580233709
 21
894.9209585888476
 31
0.0
  0
ARC
  5
1060
330
A
100
AcDbEntity
  8
MODEL
100
AcDbCircle
 10
273.4130585305301
 20
897.3321392720696
 30
0.0
 40
3.150003052557459
100
AcDbArc
 50
310.0526507726059
 51
314.8439021500936
  0
LINE
  5
1061
330
A
100
AcDbEntity
  8
MODEL
100
AcDbLine
 10
275.4532478546261
 20
895.2739614957277
 30
0.0
 11
275.4532478648565
 21
895.6665371846037
 31
0.0
  0
LINE
  5
1062
330
A
100
AcDbEntity
  8
MODEL
100
AcDbLine
 10
275.1830711483157
 20
895.8016458260875
 30
0.0
 11
275.4532478648565
 21
895.6665371846037
 31
0.0
  0
LINE
  5
1063
330
A
100
AcDbEntity
  8
MODEL
100
AcDbLine
 10
275.4733802779278
 20
894.9493096120706
 30
0.0
 11
275.5759412041918
 21
894.8980214492923
 31
0.0
  0
ARC
  5
1064
330
A
100
AcDbEntity
  8
MODEL
100
AcDbCircle
 10
277.5174000075999
 20
914.2616977022275
 30
0.0
 40
18.10507843518922
100
AcDbArc
 50
268.3729039135982
 51
270.6150118099759
  0
ARC
  5
1065
330
A
100
AcDbEntity
  8
MODEL
100
AcDbCircle
 10
283.040917985199
 20
898.9654049739901
 30
0.0
 40
6.023587083598632
100
AcDbArc
 50
207.7830347557858
 51
210.5074534789312
  0
ARC
  5
1066
330
A
100
AcDbEntity
  8
MODEL
100
AcDbCircle
 10
277.2082901123969
 20
912.7794595886647
 30
0.0
 40
17.00999995417567
100
AcDbArc
 50
273.7060559860494
 51
276.1012023896256
  0
LINE
  5
1067
330
A
100
AcDbEntity
  8
MODEL
100
AcDbLine
 10
279.0161969054382
 20
895.8658091409134
 30
0.0
 11
279.0519116475829
 21
895.8164065290417
 31
0.0
  0
ARC
  5
1068
330
A
100
AcDbEntity
  8
MODEL
100
AcDbCircle
 10
268.6241765242115
 20
904.3968904796455
 30
0.0
 40
11.85130811058303
100
AcDbArc
 50
317.7828987187823
 51
319.990156122397
  0
ARC
  5
1069
330
A
100
AcDbEntity
  8
MODEL
100
AcDbCircle
 10
273.5814486302417
 20
917.8399389102306
 30
0.0
 40
21.46166222627051
100
AcDbArc
 50
281.0679159853221
 51
283.1043203927713
  0
ARC
  5
106A
330
A
100
AcDbEntity
  8
MODEL
100
AcDbCircle
 10
282.0880568062231
 20
905.1526454091191
 30
0.0
 40
8.986044052089245
100
AcDbArc
 50
246.0993162787132
 51
249.1722936323365
  0
ARC
  5
106B
330
A
100
AcDbEntity
  8
MODEL
100
AcDbCircle
 10
269.9492555474114
 20
904.2566476453436
 30
0.0
 40
11.67403125129388
100
AcDbArc
 50
317.7661373636455
 51
320.0069174776621
  0
ARC
  5
106C
330
A
100
AcDbEntity
  8
MODEL
100
AcDbCircle
 10
273.7357368339196
 20
917.1548121848235
 30
0.0
 40
21.30597210304622
100
AcDbArc
 50
281.1256207906437
 51
283.1774103540127
  0
ARC
  5
106D
330
A
100
AcDbEntity
  8
MODEL
100
AcDbCircle
 10
281.0911661133541
 20
904.7272556778765
 30
0.0
 40
9.077522997026747
100
AcDbArc
 50
246.015881045506
 51
249.0600270418171
  0
ARC
  5
106E
330
A
100
AcDbEntity
  8
MODEL
100
AcDbCircle
 10
270.6828580497792
 20
904.1991504356888
 30
0.0
 40
11.55190346525977
100
AcDbArc
 50
317.7542909628258
 51
320.0187638783376
  0
ARC
  5
106F
330
A
100
AcDbEntity
  8
MODEL
100
AcDbCircle
 10
273.7154680861086
 20
917.258042353196
 30
0.0
 40
21.29202090535033
100
AcDbArc
 50
285.8606843952269
 51
287.9585217881815
  0
LINE
  5
1070
330
A
100
AcDbEntity
  8
MODEL
100
AcDbLine
 10
280.2804031188718
 20
897.0033692566122
 30
0.0
 11
280.3945132197632
 21
896.9710649143016
 31
0.0
  0
ELLIPSE
  5
1071
330
A
100
AcDbEntity
  8
MODEL
100
AcDbEllipse
 10
274.6643233912988
 20
897.8643162781776
 30
0.0
 11
-6.002221810851935
 21
1.564139836102777E-7
 31
0.0
210
0.0
220
0.0
230
-1.0
 40
0.49999999996306
 41
3.443812511623405
 42
3.662320942909358
  0
LINE
  5
1072
330
A
100
AcDbEntity
  8
MODEL
100
AcDbLine
 10
279.8709931403225
 20
896.3712273654311
 30
0.0
 11
279.6800176673941
 21
896.3154610908424
 31
0.0
  0
ARC
  5
1073
330
A
100
AcDbEntity
  8
MODEL
100
AcDbCircle
 10
281.3287106012992
 20
903.4896518211884
 30
0.0
 40
7.361195624739997
100
AcDbArc
 50
253.4703676650502
 51
257.057634623238
  0
LINE
  5
1074
330
A
100
AcDbEntity
  8
MODEL
100
AcDbLine
 10
277.8469531714507
 20
896.2492543716055
 30
0.0
 11
277.8469531847718
 21
896.7604365882172
 31
0.0
  0
LINE
  5
1075
330
A
100
AcDbEntity
  8
MODEL
100
AcDbLine
 10
277.7946314110519
 20
896.795888900596
 30
0.0
 11
277.8469531847718
 21
896.7604365882172
 31
0.0
  0
LINE
  5
1076
330
A
100
AcDbEntity
  8
MODEL
100
AcDbLine
 10
278.5927954946445
 20
896.4098506658892
 30
0.0
 11
278.5927955048746
 21
896.8024263547652
 31
0.0
  0
LINE
  5
1077
330
A
100
AcDbEntity
  8
MODEL
100
AcDbLine
 10
277.8469531847718
 20
896.7604365882172
 30
0.0
 11
278.5927955048746
 21
896.8024263547651
 31
0.0
  0
LINE
  5
1078
330
A
100
AcDbEntity
  8
MODEL
100
AcDbLine
 10
278.5927955048746
 20
896.8024263547651
 30
0.0
 11
278.63868990131
 21
896.8550111234221
 31
0.0
  0
LINE
  5
1079
330
A
100
AcDbEntity
  8
MODEL
100
AcDbLine
 10
279.6800176673941
 20
896.3154610908424
 30
0.0
 11
279.6800176685674
 21
896.360475742388
 31
0.0
  0
LINE
  5
107A
330
A
100
AcDbEntity
  8
MODEL
100
AcDbLine
 10
279.3622199862139
 20
896.5758098548812
 30
0.0
 11
279.6800176685672
 21
896.360475742388
 31
0.0
  0
LINE
  5
107B
330
A
100
AcDbEntity
  8
MODEL
100
AcDbLine
 10
279.6800176685672
 20
896.360475742388
 30
0.0
 11
279.8709931403225
 21
896.3712273654311
 31
0.0
  0
ARC
  5
107C
330
A
100
AcDbEntity
  8
MODEL
100
AcDbCircle
 10
267.9302533633746
 20
904.4897771398822
 30
0.0
 40
11.92078026785567
100
AcDbArc
 50
317.7893312565218
 51
319.9837235848719
  0
LINE
  5
107D
330
A
100
AcDbEntity
  8
MODEL
100
AcDbLine
 10
276.7597310022722
 20
896.4806993640896
 30
0.0
 11
276.7597310210791
 21
897.2023872005943
 31
0.0
  0
LINE
  5
107E
330
A
100
AcDbEntity
  8
MODEL
100
AcDbLine
 10
276.7597310210791
 20
897.2023872005944
 30
0.0
 11
276.9033963987899
 21
897.3669957636807
 31
0.0
  0
LINE
  5
107F
330
A
100
AcDbEntity
  8
MODEL
100
AcDbLine
 10
277.8261333615316
 20
897.1066828904058
 30
0.0
 11
277.798125489546
 21
897.4816991880515
 31
0.0
  0
ARC
  5
1080
330
A
100
AcDbEntity
  8
MODEL
100
AcDbCircle
 10
269.0280402884499
 20
915.8401321461552
 30
0.0
 40
20.34567411298219
100
AcDbArc
 50
295.5344713367406
 51
297.5350613314267
  0
ARC
  5
1081
330
A
100
AcDbEntity
  8
MODEL
100
AcDbCircle
 10
280.1230951387604
 20
913.638364898368
 30
0.0
 40
15.92915641416977
100
AcDbArc
 50
263.9118313231048
 51
266.3074616677573
  0
LINE
  5
1082
330
A
100
AcDbEntity
  8
MODEL
100
AcDbLine
 10
279.0972200562815
 20
897.7422771915693
 30
0.0
 11
279.1252279282671
 21
897.3672608939237
 31
0.0
  0
ARC
  5
1083
330
A
100
AcDbEntity
  8
MODEL
100
AcDbCircle
 10
269.7567383665576
 20
915.2827992266713
 30
0.0
 40
20.21719838207101
100
AcDbArc
 50
295.5917760769434
 51
297.6062096174528
  0
ARC
  5
1084
330
A
100
AcDbEntity
  8
MODEL
100
AcDbCircle
 10
279.5482787615642
 20
913.0769970333359
 30
0.0
 40
16.06289882314948
100
AcDbArc
 50
263.8453401400022
 51
266.2212941590149
  0
LINE
  5
1085
330
A
100
AcDbEntity
  8
MODEL
100
AcDbLine
 10
279.8247403882052
 20
897.5431315756592
 30
0.0
 11
279.7967325162194
 21
897.9181478733049
 31
0.0
  0
ARC
  5
1086
330
A
100
AcDbEntity
  8
MODEL
100
AcDbCircle
 10
268.9312116248668
 20
916.6007399252948
 30
0.0
 40
21.61246839260821
100
AcDbArc
 50
300.1816532865681
 51
302.1508032260259
  0
LINE
  5
1087
330
A
100
AcDbEntity
  8
MODEL
100
AcDbLine
 10
280.4322758653295
 20
898.3025347849474
 30
0.0
 11
280.60218042025
 21
898.3026426871862
 31
0.0
  0
ELLIPSE
  5
1088
330
A
100
AcDbEntity
  8
MODEL
100
AcDbEllipse
 10
274.6643233912989
 20
897.8643162781776
 30
0.0
 11
-6.002221810851935
 21
1.564139836824155E-7
 31
0.0
210
0.0
220
0.0
230
-1.0
 40
0.4999999999630601
 41
2.995013561110575
 42
3.213521992396533
  0
LINE
  5
1089
330
A
100
AcDbEntity
  8
MODEL
100
AcDbLine
 10
280.6510246530033
 20
897.6486342949047
 30
0.0
 11
280.4882916093006
 21
897.5525021896561
 31
0.0
  0
ARC
  5
108A
330
A
100
AcDbEntity
  8
MODEL
100
AcDbCircle
 10
279.9480799611883
 20
912.3075740646372
 30
0.0
 40
14.76495765861198
100
AcDbArc
 50
269.5213722020824
 51
272.0967725013511
  0
LINE
  5
108B
330
A
100
AcDbEntity
  8
MODEL
100
AcDbLine
 10
277.8261333615316
 20
897.1066828904058
 30
0.0
 11
277.8261333716536
 21
897.4951025577944
 31
0.0
  0
LINE
  5
108C
330
A
100
AcDbEntity
  8
MODEL
100
AcDbLine
 10
278.4896845808805
 20
897.0490184657384
 30
0.0
 11
278.4896845942017
 21
897.5602006823501
 31
0.0
  0
LINE
  5
108D
330
A
100
AcDbEntity
  8
MODEL
100
AcDbLine
 10
278.1447821669871
 20
897.6513603746158
 30
0.0
 11
278.4896845942017
 21
897.56020068235
 31
0.0
  0
LINE
  5
108E
330
A
100
AcDbEntity
  8
MODEL
100
AcDbLine
 10
278.4896845942017
 20
897.56020068235
 30
0.0
 11
279.074119381896
 21
897.7437824413955
 31
0.0
  0
LINE
  5
108F
330
A
100
AcDbEntity
  8
MODEL
100
AcDbLine
 10
279.8247403882048
 20
897.5431315756592
 30
0.0
 11
279.8247403941925
 21
897.7728972383977
 31
0.0
  0
LINE
  5
1090
330
A
100
AcDbEntity
  8
MODEL
100
AcDbLine
 10
279.8131775332444
 20
897.9277201862158
 30
0.0
 11
279.8247403941925
 21
897.7728972383977
 31
0.0
  0
LINE
  5
1091
330
A
100
AcDbEntity
  8
MODEL
100
AcDbLine
 10
280.4882916093006
 20
897.5525021896561
 30
0.0
 11
280.4882916104738
 21
897.5975168412016
 31
0.0
  0
LINE
  5
1092
330
A
100
AcDbEntity
  8
MODEL
100
AcDbLine
 10
279.8247403941925
 20
897.7728972383977
 30
0.0
 11
280.4882916104738
 21
897.5975168412017
 31
0.0
  0
LINE
  5
1093
330
A
100
AcDbEntity
  8
MODEL
100
AcDbLine
 10
280.4882916104738
 20
897.5975168412017
 30
0.0
 11
280.6510246530033
 21
897.6486342949048
 31
0.0
  0
LINE
  5
1094
330
A
100
AcDbEntity
  8
MODEL
100
AcDbLine
 10
277.0986130314328
 20
897.3758488850889
 30
0.0
 11
277.1266209034183
 21
897.0008325874433
 31
0.0
  0
ARC
  5
1095
330
A
100
AcDbEntity
  8
MODEL
100
AcDbCircle
 10
285.6933875586884
 20
906.6838305657652
 30
0.0
 40
11.9971036779886
100
AcDbArc
 50
225.4300555521696
 51
227.7357696943602
  0
ARC
  5
1096
330
A
100
AcDbEntity
  8
MODEL
100
AcDbCircle
 10
263.7450828637818
 20
910.9457357978741
 30
0.0
 40
18.63043081553644
100
AcDbArc
 50
316.5668196074714
 51
318.3840240152782
  0
ARC
  5
1097
330
A
100
AcDbEntity
  8
MODEL
100
AcDbCircle
 10
275.1885187801731
 20
919.1423908662792
 30
0.0
 40
20.71932109074662
100
AcDbArc
 50
276.8881936040744
 51
278.9824390898196
  0
ARC
  5
1098
330
A
100
AcDbEntity
  8
MODEL
100
AcDbCircle
 10
286.7194258029749
 20
907.0934656767762
 30
0.0
 40
11.81766055118547
100
AcDbArc
 50
225.4125477858581
 51
227.7532774607297
  0
ARC
  5
1099
330
A
100
AcDbEntity
  8
MODEL
100
AcDbCircle
 10
264.8972145436182
 20
910.6452555207753
 30
0.0
 40
18.54335241715101
100
AcDbArc
 50
316.6198424126807
 51
318.4476101619833
  0
ARC
  5
109A
330
A
100
AcDbEntity
  8
MODEL
100
AcDbCircle
 10
275.142267848748
 20
918.5331968029667
 30
0.0
 40
20.87596224123744
100
AcDbArc
 50
276.829474488347
 51
278.9076681570608
  0
ARC
  5
109B
330
A
100
AcDbEntity
  8
MODEL
100
AcDbCircle
 10
287.2533483165564
 20
907.3299833521052
 30
0.0
 40
11.69404003559647
100
AcDbArc
 50
225.4001738285573
 51
227.7656514178665
  0
ARC
  5
109C
330
A
100
AcDbEntity
  8
MODEL
100
AcDbCircle
 10
261.8676186580273
 20
913.0634592307434
 30
0.0
 40
22.19582238782974
100
AcDbArc
 50
320.6948208932864
 51
322.3517788736652
  0
LINE
  5
109D
330
A
100
AcDbEntity
  8
MODEL
100
AcDbLine
 10
279.4417348847782
 20
899.5059900598125
 30
0.0
 11
279.6337822131154
 21
899.5474045390462
 31
0.0
  0
ELLIPSE
  5
109E
330
A
100
AcDbEntity
  8
MODEL
100
AcDbEllipse
 10
274.6643233912989
 20
897.8643162781776
 30
0.0
 11
-6.002221810851935
 21
1.564139838026455E-7
 31
0.0
210
0.0
220
0.0
230
-1.0
 40
0.4999999999630602
 41
2.546214610597749
 42
2.764723041883703
  0
LINE
  5
109F
330
A
100
AcDbEntity
  8
MODEL
100
AcDbLine
 10
280.2453165587312
 20
898.9687596863315
 30
0.0
 11
280.1430572191167
 21
898.8423861890433
 31
0.0
  0
ARC
  5
10A0
330
A
100
AcDbEntity
  8
MODEL
100
AcDbCircle
 10
275.2548837684731
 20
918.5882098988815
 30
0.0
 40
20.34187291435044
100
AcDbArc
 50
281.7376019959677
 51
283.9043093400077
  0
LINE
  5
10A1
330
A
100
AcDbEntity
  8
MODEL
100
AcDbLine
 10
277.6247279041395
 20
897.8053606503204
 30
0.0
 11
277.6247279205281
 21
898.4342588394607
 31
0.0
  0
LINE
  5
10A2
330
A
100
AcDbEntity
  8
MODEL
100
AcDbLine
 10
277.584051756482
 20
898.4727473611965
 30
0.0
 11
277.6247279205281
 21
898.4342588394607
 31
0.0
  0
LINE
  5
10A3
330
A
100
AcDbEntity
  8
MODEL
100
AcDbLine
 10
278.3747562890993
 20
897.9090163833579
 30
0.0
 11
278.3747563024203
 21
898.4201985999697
 31
0.0
  0
LINE
  5
10A4
330
A
100
AcDbEntity
  8
MODEL
100
AcDbLine
 10
277.6247279205281
 20
898.4342588394607
 30
0.0
 11
278.3747563024203
 21
898.4201985999697
 31
0.0
  0
LINE
  5
10A5
330
A
100
AcDbEntity
  8
MODEL
100
AcDbLine
 10
278.3747563024203
 20
898.4201985999696
 30
0.0
 11
278.5469642961802
 21
898.5572094961236
 31
0.0
  0
LINE
  5
10A6
330
A
100
AcDbEntity
  8
MODEL
100
AcDbLine
 10
279.3930288324099
 20
898.6716954173414
 30
0.0
 11
279.3930288383976
 21
898.9014610800799
 31
0.0
  0
LINE
  5
10A7
330
A
100
AcDbEntity
  8
MODEL
100
AcDbLine
 10
279.1479081650878
 20
899.1333986922868
 30
0.0
 11
279.3930288383976
 21
898.9014610800799
 31
0.0
  0
LINE
  5
10A8
330
A
100
AcDbEntity
  8
MODEL
100
AcDbLine
 10
280.1430572191168
 20
898.8423861890434
 30
0.0
 11
280.1430572202898
 21
898.8874008405888
 31
0.0
  0
LINE
  5
10A9
330
A
100
AcDbEntity
  8
MODEL
100
AcDbLine
 10
279.3930288383976
 20
898.9014610800799
 30
0.0
 11
280.1430572202898
 21
898.8874008405888
 31
0.0
  0
LINE
  5
10AA
330
A
100
AcDbEntity
  8
MODEL
100
AcDbLine
 10
280.1430572202898
 20
898.8874008405888
 30
0.0
 11
280.2453165587312
 21
898.9687596863315
 31
0.0
  0
ARC
  5
10AB
330
A
100
AcDbEntity
  8
MODEL
100
AcDbCircle
 10
282.2521121613253
 20
913.992851249464
 30
0.0
 40
16.51473964565471
100
AcDbArc
 50
248.625519941437
 51
250.8588164112289
  0
LINE
  5
10AC
330
A
100
AcDbEntity
  8
MODEL
100
AcDbLine
 10
276.2331163051363
 20
898.6140244266229
 30
0.0
 11
276.3172078185607
 21
899.1046552507711
 31
0.0
  0
ARC
  5
10AD
330
A
100
AcDbEntity
  8
MODEL
100
AcDbCircle
 10
269.0403791321644
 20
918.754086998266
 30
0.0
 40
20.9535773492408
100
AcDbArc
 50
290.3212428451687
 51
292.340844231068
  0
ARC
  5
10AE
330
A
100
AcDbEntity
  8
MODEL
100
AcDbCircle
 10
282.9386256995942
 20
914.5203884000524
 30
0.0
 40
16.26776237998782
100
AcDbArc
 50
248.6085647853631
 51
250.8757715672611
  0
LINE
  5
10AF
330
A
100
AcDbEntity
  8
MODEL
100
AcDbLine
 10
277.6090227672448
 20
899.1504363690525
 30
0.0
 11
277.5249312537969
 21
898.6589149896973
 31
0.0
  0
ARC
  5
10B0
330
A
100
AcDbEntity
  8
MODEL
100
AcDbCircle
 10
269.5309626940198
 20
918.1800355487748
 30
0.0
 40
21.09449409719827
100
AcDbArc
 50
290.2640450399575
 51
292.2692748254534
  0
ARC
  5
10B1
330
A
100
AcDbEntity
  8
MODEL
100
AcDbCircle
 10
283.2954175336569
 20
914.8051372217551
 30
0.0
 40
16.09761447093035
100
AcDbArc
 50
248.5965812818995
 51
250.887755070741
  0
LINE
  5
10B2
330
A
100
AcDbEntity
  8
MODEL
100
AcDbLine
 10
277.4208774514327
 20
899.8177101417974
 30
0.0
 11
277.5049689666041
 21
900.3753760046101
 31
0.0
  0
LINE
  5
10B3
330
A
100
AcDbEntity
  8
MODEL
100
AcDbLine
 10
277.5049689666041
 20
900.3753760046101
 30
0.0
 11
277.6811217399072
 21
900.4588101191181
 31
0.0
  0
ELLIPSE
  5
10B4
330
A
100
AcDbEntity
  8
MODEL
100
AcDbEllipse
 10
274.6643233912989
 20
897.8643162781776
 30
0.0
 11
-6.002221810851935
 21
1.564139836102778E-7
 31
0.0
210
0.0
220
0.0
230
-1.0
 40
0.4999999999630602
 41
2.09741566008492
 42
2.315924091370878
  0
LINE
  5
10B5
330
A
100
AcDbEntity
  8
MODEL
100
AcDbLine
 10
278.7342243212595
 20
900.0701365156639
 30
0.0
 11
278.7126924018402
 21
899.9296357435362
 31
0.0
  0
ARC
  5
10B6
330
A
100
AcDbEntity
  8
MODEL
100
AcDbCircle
 10
268.8205950023
 20
919.3821431706854
 30
0.0
 40
21.82323615244305
100
AcDbArc
 50
294.9456843632877
 51
296.9545003263242
  0
LINE
  5
10B7
330
A
100
AcDbEntity
  8
MODEL
100
AcDbLine
 10
276.8369780227544
 20
898.391154296086
 30
0.0
 11
276.8369780391432
 21
899.0200524852263
 31
0.0
  0
LINE
  5
10B8
330
A
100
AcDbEntity
  8
MODEL
100
AcDbLine
 10
276.4614206650796
 20
899.1586612404091
 30
0.0
 11
276.8369780391432
 21
899.0200524852263
 31
0.0
  0
LINE
  5
10B9
330
A
100
AcDbEntity
  8
MODEL
100
AcDbLine
 10
277.5249312537969
 20
898.6589149896973
 30
0.0
 11
277.5249312671181
 21
899.1700972063089
 31
0.0
  0
LINE
  5
10BA
330
A
100
AcDbEntity
  8
MODEL
100
AcDbLine
 10
276.8369780391432
 20
899.0200524852263
 30
0.0
 11
277.5249312671181
 21
899.1700972063089
 31
0.0
  0
LINE
  5
10BB
330
A
100
AcDbEntity
  8
MODEL
100
AcDbLine
 10
277.5249312671181
 20
899.1700972063089
 30
0.0
 11
277.5269674331205
 21
899.1791268519831
 31
0.0
  0
LINE
  5
10BC
330
A
100
AcDbEntity
  8
MODEL
100
AcDbLine
 10
278.0247391690507
 20
899.5948400112605
 30
0.0
 11
278.0247391750383
 21
899.824605673999
 31
0.0
  0
LINE
  5
10BD
330
A
100
AcDbEntity
  8
MODEL
100
AcDbLine
 10
277.4542068581158
 20
900.0351747633091
 30
0.0
 11
278.0247391750383
 21
899.824605673999
 31
0.0
  0
LINE
  5
10BE
330
A
100
AcDbEntity
  8
MODEL
100
AcDbLine
 10
278.7126924018402
 20
899.9296357435362
 30
0.0
 11
278.7126924030134
 21
899.9746503950818
 31
0.0
  0
LINE
  5
10BF
330
A
100
AcDbEntity
  8
MODEL
100
AcDbLine
 10
278.0247391750383
 20
899.824605673999
 30
0.0
 11
278.7126924030134
 21
899.9746503950818
 31
0.0
  0
LINE
  5
10C0
330
A
100
AcDbEntity
  8
MODEL
100
AcDbLine
 10
278.7126924030134
 20
899.9746503950818
 30
0.0
 11
278.7342243212595
 21
900.0701365156639
 31
0.0
  0
ARC
  5
10C1
330
A
100
AcDbEntity
  8
MODEL
100
AcDbCircle
 10
281.8699148315278
 20
913.7092871695367
 30
0.0
 40
16.61152866221828
100
AcDbArc
 50
248.6320270397433
 51
250.8523093127998
  0
ARC
  5
10C2
330
A
100
AcDbEntity
  8
MODEL
100
AcDbCircle
 10
277.1918550606799
 20
919.298533638585
 30
0.0
 40
20.61060273063634
100
AcDbArc
 50
263.5637282880346
 51
265.6230786884097
  0
ARC
  5
10C3
330
A
100
AcDbEntity
  8
MODEL
100
AcDbCircle
 10
294.2716610623374
 20
909.30158740047
 30
0.0
 40
22.04289975130661
100
AcDbArc
 50
207.0132460440583
 51
208.3988601949783
  0
ARC
  5
10C4
330
A
100
AcDbEntity
  8
MODEL
100
AcDbCircle
 10
263.0343935014293
 20
913.8797115313824
 30
0.0
 40
18.63888062755492
100
AcDbArc
 50
308.4852253923742
 51
310.434744268505
  0
ARC
  5
10C5
330
A
100
AcDbEntity
  8
MODEL
100
AcDbCircle
 10
277.4045888188267
 20
919.8666051489747
 30
0.0
 40
20.30237163839462
100
AcDbArc
 50
263.5480940128126
 51
265.6387129636072
  0
ARC
  5
10C6
330
A
100
AcDbEntity
  8
MODEL
100
AcDbCircle
 10
295.4368475880985
 20
909.5826406711915
 30
0.0
 40
21.9640620919319
100
AcDbArc
 50
206.9652922976545
 51
208.3579375347316
  0
ARC
  5
10C7
330
A
100
AcDbEntity
  8
MODEL
100
AcDbCircle
 10
263.9719538376773
 20
913.4275128541598
 30
0.0
 40
18.73868833909901
100
AcDbArc
 50
308.4291065020145
 51
310.3665110123288
  0
ARC
  5
10C8
330
A
100
AcDbEntity
  8
MODEL
100
AcDbCircle
 10
277.5147670998907
 20
920.1618691835182
 30
0.0
 40
20.09002311509762
100
AcDbArc
 50
263.5370440033337
 51
265.6497629731086
  0
ARC
  5
10C9
330
A
100
AcDbEntity
  8
MODEL
100
AcDbCircle
 10
300.7806756443019
 20
912.2642386977429
 30
0.0
 40
28.23470012654676
100
AcDbArc
 50
204.0925541961568
 51
205.2964001512763
  0
LINE
  5
10CA
330
A
100
AcDbEntity
  8
MODEL
100
AcDbLine
 10
275.0055783537769
 20
900.738500070654
 30
0.0
 11
275.1309473551534
 21
900.8563443746131
 31
0.0
  0
ELLIPSE
  5
10CB
330
A
100
AcDbEntity
  8
MODEL
100
AcDbEllipse
 10
274.6643233912989
 20
897.8643162781776
 30
0.0
 11
-6.002221810851935
 21
1.564139836102778E-7
 31
0.0
210
0.0
220
0.0
230
-1.0
 40
0.4999999999630602
 41
1.648616709572092
 42
1.867125140858049
  0
LINE
  5
10CC
330
A
100
AcDbEntity
  8
MODEL
100
AcDbLine
 10
276.41703829055
 20
900.7346235943522
 30
0.0
 11
276.4804984518061
 21
900.5989077446268
 31
0.0
  0
ARC
  5
10CD
330
A
100
AcDbEntity
  8
MODEL
100
AcDbCircle
 10
261.4659153362963
 20
915.7774738780851
 30
0.0
 40
21.35009545646852
100
AcDbArc
 50
312.8688944910003
 51
314.688822044241
  0
LINE
  5
10CE
330
A
100
AcDbEntity
  8
MODEL
100
AcDbLine
 10
274.8814471934883
 20
898.8178363748849
 30
0.0
 11
274.8814472098773
 21
899.4467345640252
 31
0.0
  0
LINE
  5
10CF
330
A
100
AcDbEntity
  8
MODEL
100
AcDbLine
 10
275.6189072425032
 20
898.7480402118713
 30
0.0
 11
275.6189072588919
 21
899.3769384010116
 31
0.0
  0
LINE
  5
10D0
330
A
100
AcDbEntity
  8
MODEL
100
AcDbLine
 10
274.8814472098773
 20
899.4467345640252
 30
0.0
 11
275.6189072588919
 21
899.3769384010116
 31
0.0
  0
LINE
  5
10D1
330
A
100
AcDbEntity
  8
MODEL
100
AcDbLine
 10
275.6189072588919
 20
899.3769384010116
 30
0.0
 11
275.9023431630087
 21
899.5415926484316
 31
0.0
  0
LINE
  5
10D2
330
A
100
AcDbEntity
  8
MODEL
100
AcDbLine
 10
274.862098775668
 20
899.4743885456493
 30
0.0
 11
274.8814472098773
 21
899.4467345640252
 31
0.0
  0
LINE
  5
10D3
330
A
100
AcDbEntity
  8
MODEL
100
AcDbLine
 10
275.2534178979121
 20
900.1995214119792
 30
0.0
 11
275.2534179038998
 21
900.4292870747178
 31
0.0
  0
LINE
  5
10D4
330
A
100
AcDbEntity
  8
MODEL
100
AcDbLine
 10
275.990877946927
 20
900.1297252489657
 30
0.0
 11
275.9908779529144
 21
900.359490911704
 31
0.0
  0
LINE
  5
10D5
330
A
100
AcDbEntity
  8
MODEL
100
AcDbLine
 10
275.2534179038998
 20
900.4292870747178
 30
0.0
 11
275.9908779529144
 21
900.359490911704
 31
0.0
  0
LINE
  5
10D6
330
A
100
AcDbEntity
  8
MODEL
100
AcDbLine
 10
275.9908779529144
 20
900.359490911704
 30
0.0
 11
276.4639460387484
 21
900.6343067290371
 31
0.0
  0
LINE
  5
10D7
330
A
100
AcDbEntity
  8
MODEL
100
AcDbLine
 10
275.0245779597963
 20
900.7563593091255
 30
0.0
 11
275.2534179038998
 21
900.4292870747178
 31
0.0
  0
ARC
  5
10D8
330
A
100
AcDbEntity
  8
MODEL
100
AcDbCircle
 10
277.0730488027484
 20
918.9821275275823
 30
0.0
 40
20.73139773893666
100
AcDbArc
 50
263.5697285057192
 51
265.6170784707266
  0
ARC
  5
10D9
330
A
100
AcDbEntity
  8
MODEL
100
AcDbCircle
 10
285.2483200964627
 20
914.8285407198429
 30
0.0
 40
18.9509697685718
100
AcDbArc
 50
233.121261027763
 51
235.1017727659411
  0
ARC
  5
10DA
330
A
100
AcDbEntity
  8
MODEL
100
AcDbCircle
 10
250.3927818240275
 20
908.7230936238823
 30
0.0
 40
25.80128195558903
100
AcDbArc
 50
337.3941094159537
 51
338.5444811633595
  0
LINE
  5
10DB
330
A
100
AcDbEntity
  8
MODEL
100
AcDbLine
 10
273.7527055784061
 20
900.8306111070631
 30
0.0
 11
273.8885887568806
 21
900.7176446644166
 31
0.0
  0
ARC
  5
10DC
330
A
100
AcDbEntity
  8
MODEL
100
AcDbCircle
 10
241.9606475399091
 20
911.7465343000895
 30
0.0
 40
33.77913315865626
100
AcDbArc
 50
339.9585149542743
 51
340.9435184022419
  0
LINE
  5
10DD
330
A
100
AcDbEntity
  8
MODEL
100
AcDbLine
 10
274.2117694200724
 20
898.8053327651363
 30
0.0
 11
274.2117694361654
 21
899.422891217523
 31
0.0
  0
LINE
  5
10DE
330
A
100
AcDbEntity
  8
MODEL
100
AcDbLine
 10
273.6942763247509
 20
900.1704105491921
 30
0.0
 11
273.6942763307387
 21
900.4001762119306
 31
0.0
  0
LINE
  5
10DF
330
A
100
AcDbEntity
  8
MODEL
100
AcDbLine
 10
273.6942763307387
 20
900.4001762119304
 30
0.0
 11
273.8718969762003
 21
900.7315213749583
 31
0.0
  0
ARC
  5
10E0
330
A
100
AcDbEntity
  8
MODEL
100
AcDbCircle
 10
278.8649530618769
 20
918.6343799308693
 30
0.0
 40
21.353511082169
100
AcDbArc
 50
250.1577928777106
 51
252.1663035565989
  0
ARC
  5
10E1
330
A
100
AcDbEntity
  8
MODEL
100
AcDbCircle
 10
303.6672550549287
 20
907.9852376536363
 30
0.0
 40
33.41069558585779
100
AcDbArc
 50
195.5367786158941
 51
196.4060911409511
  0
ARC
  5
10E2
330
A
100
AcDbEntity
  8
MODEL
100
AcDbCircle
 10
279.3892205414783
 20
919.6337887642648
 30
0.0
 40
21.8368238143412
100
AcDbArc
 50
245.4388926643892
 51
247.4665921938973
  0
LINE
  5
10E3
330
A
100
AcDbEntity
  8
MODEL
100
AcDbLine
 10
270.3124498748134
 20
899.7727941123509
 30
0.0
 11
270.2767351350149
 21
899.9122260273137
 31
0.0
  0
LINE
  5
10E4
330
A
100
AcDbEntity
  8
MODEL
100
AcDbLine
 10
272.3253289860986
 20
898.3069169193712
 30
0.0
 11
272.3253290024873
 21
898.9358151085115
 31
0.0
  0
LINE
  5
10E5
330
A
100
AcDbEntity
  8
MODEL
100
AcDbLine
 10
271.6169109119082
 20
898.5486058474891
 30
0.0
 11
271.6169109252291
 21
899.0597880641008
 31
0.0
  0
LINE
  5
10E6
330
A
100
AcDbEntity
  8
MODEL
100
AcDbLine
 10
271.6059153431942
 20
899.0888565309905
 30
0.0
 11
271.6169109252291
 21
899.0597880641008
 31
0.0
  0
LINE
  5
10E7
330
A
100
AcDbEntity
  8
MODEL
100
AcDbLine
 10
271.6169109252291
 20
899.0597880641008
 30
0.0
 11
272.3253290024874
 21
898.9358151085115
 31
0.0
  0
LINE
  5
10E8
330
A
100
AcDbEntity
  8
MODEL
100
AcDbLine
 10
271.0208679472572
 20
899.4640701455688
 30
0.0
 11
271.0208679532448
 21
899.6938358083072
 31
0.0
  0
LINE
  5
10E9
330
A
100
AcDbEntity
  8
MODEL
100
AcDbLine
 10
270.3124498748134
 20
899.7727941123509
 30
0.0
 11
270.3124498759864
 21
899.8178087638964
 31
0.0
  0
LINE
  5
10EA
330
A
100
AcDbEntity
  8
MODEL
100
AcDbLine
 10
270.2767351350149
 20
899.9122260273137
 30
0.0
 11
270.3124498759864
 21
899.8178087638964
 31
0.0
  0
LINE
  5
10EB
330
A
100
AcDbEntity
  8
MODEL
100
AcDbLine
 10
270.3124498759864
 20
899.8178087638964
 30
0.0
 11
271.0208679532445
 21
899.6938358083072
 31
0.0
  0
ARC
  5
10EC
330
A
100
AcDbEntity
  8
MODEL
100
AcDbCircle
 10
262.8500249348542
 20
905.6567658046471
 30
0.0
 40
11.8513060740807
100
AcDbArc
 50
317.7828985291521
 51
319.9901563121039
  0
ARC
  5
10ED
330
A
100
AcDbEntity
  8
MODEL
100
AcDbCircle
 10
273.3122064045942
 20
918.0006643892351
 30
0.0
 40
20.37707628746848
100
AcDbArc
 50
263.1485408601284
 51
265.2565830346718
  0
ARC
  5
10EE
330
A
100
AcDbEntity
  8
MODEL
100
AcDbCircle
 10
283.3361544086492
 20
911.4130348536022
 30
0.0
 40
18.47376522572874
100
AcDbArc
 50
225.7080777555437
 51
227.6086417190482
  0
ARC
  5
10EF
330
A
100
AcDbEntity
  8
MODEL
100
AcDbCircle
 10
261.7921170170648
 20
906.0364747860352
 30
0.0
 40
11.67403334464922
100
AcDbArc
 50
317.7661375645877
 51
320.006917276743
  0
ARC
  5
10F0
330
A
100
AcDbEntity
  8
MODEL
100
AcDbCircle
 10
273.1748210164506
 20
918.6077158678091
 30
0.0
 40
20.22170804556254
100
AcDbArc
 50
263.0726069736227
 51
265.197103999615
  0
ARC
  5
10F1
330
A
100
AcDbEntity
  8
MODEL
100
AcDbCircle
 10
284.4317877384203
 20
911.7619908103708
 30
0.0
 40
18.56683476340675
100
AcDbArc
 50
225.77440485049
 51
227.6635556281438
  0
ARC
  5
10F2
330
A
100
AcDbEntity
  8
MODEL
100
AcDbCircle
 10
261.2425775764954
 20
906.2589473793089
 30
0.0
 40
11.55190131773774
100
AcDbArc
 50
317.7542907524265
 51
320.0187640889635
  0
ARC
  5
10F3
330
A
100
AcDbEntity
  8
MODEL
100
AcDbCircle
 10
273.1206847823555
 20
917.8916376183317
 30
0.0
 40
19.68232346865709
100
AcDbArc
 50
258.0587530528741
 51
260.2694728401767
  0
LINE
  5
10F4
330
A
100
AcDbEntity
  8
MODEL
100
AcDbLine
 10
269.0482436613797
 20
898.6352339966521
 30
0.0
 11
268.9341335628345
 21
898.7575676420537
 31
0.0
  0
ELLIPSE
  5
10F5
330
A
100
AcDbEntity
  8
MODEL
100
AcDbEllipse
 10
274.6643233912989
 20
897.8643162781776
 30
0.0
 11
-6.002221810851935
 21
1.564139838026455E-7
 31
0.0
210
0.0
220
0.0
230
-1.0
 40
0.49999999996306
 41
0.3022198580336125
 42
0.5207282893195689
  0
LINE
  5
10F6
330
A
100
AcDbEntity
  8
MODEL
100
AcDbLine
 10
269.4576536422751
 20
899.3574051909242
 30
0.0
 11
269.6486291128575
 21
899.3231421624218
 31
0.0
  0
ARC
  5
10F7
330
A
100
AcDbEntity
  8
MODEL
100
AcDbCircle
 10
285.8129669861023
 20
913.6762608337607
 30
0.0
 40
21.61707275451415
100
AcDbArc
 50
221.6034644810363
 51
223.3526439982683
  0
LINE
  5
10F8
330
A
100
AcDbEntity
  8
MODEL
100
AcDbLine
 10
271.6271504500629
 20
897.693379379776
 30
0.0
 11
271.6271504663134
 21
898.3169812969936
 31
0.0
  0
LINE
  5
10F9
330
A
100
AcDbEntity
  8
MODEL
100
AcDbLine
 10
270.8813081330275
 20
897.7691055857566
 30
0.0
 11
270.8813081463487
 21
898.2802878023683
 31
0.0
  0
LINE
  5
10FA
330
A
100
AcDbEntity
  8
MODEL
100
AcDbLine
 10
270.6524557655484
 20
898.4353541450383
 30
0.0
 11
270.8813081463483
 21
898.2802878023683
 31
0.0
  0
LINE
  5
10FB
330
A
100
AcDbEntity
  8
MODEL
100
AcDbLine
 10
270.8813081463487
 20
898.2802878023683
 30
0.0
 11
271.6219022452528
 21
898.3219821021977
 31
0.0
  0
LINE
  5
10FC
330
A
100
AcDbEntity
  8
MODEL
100
AcDbLine
 10
269.7940859766682
 20
898.4924727520071
 30
0.0
 11
269.7940859826558
 21
898.7222384147454
 31
0.0
  0
LINE
  5
10FD
330
A
100
AcDbEntity
  8
MODEL
100
AcDbLine
 10
269.7940859826558
 20
898.7222384147454
 30
0.0
 11
269.9904221518962
 21
898.9471959877912
 31
0.0
  0
LINE
  5
10FE
330
A
100
AcDbEntity
  8
MODEL
100
AcDbLine
 10
269.0482436613797
 20
898.6352339966521
 30
0.0
 11
269.0482436625529
 21
898.6802486481976
 31
0.0
  0
LINE
  5
10FF
330
A
100
AcDbEntity
  8
MODEL
100
AcDbLine
 10
268.9341335628345
 20
898.7575676420537
 30
0.0
 11
269.0482436625529
 21
898.6802486481976
 31
0.0
  0
LINE
  5
1100
330
A
100
AcDbEntity
  8
MODEL
100
AcDbLine
 10
269.0482436625529
 20
898.6802486481976
 30
0.0
 11
269.7940859826558
 21
898.7222384147454
 31
0.0
  0
ARC
  5
1101
330
A
100
AcDbEntity
  8
MODEL
100
AcDbCircle
 10
263.4392447830251
 20
905.4696817315261
 30
0.0
 40
11.9207810575348
100
AcDbArc
 50
317.7893313291351
 51
319.9837235121012
  0
LINE
  5
1102
330
A
100
AcDbEntity
  8
MODEL
100
AcDbLine
 10
271.5025133882887
 20
897.364153287669
 30
0.0
 11
271.5305212602743
 21
896.9891369900233
 31
0.0
  0
ARC
  5
1103
330
A
100
AcDbEntity
  8
MODEL
100
AcDbCircle
 10
269.3039211356804
 20
911.7570671735374
 30
0.0
 40
14.93484214914856
100
AcDbArc
 50
276.1155089611486
 51
278.5740567226337
  0
ARC
  5
1104
330
A
100
AcDbEntity
  8
MODEL
100
AcDbCircle
 10
278.9125633546175
 20
915.8993637577591
 30
0.0
 40
20.61512338857161
100
AcDbArc
 50
245.0956138989422
 51
247.112830544599
  0
LINE
  5
1105
330
A
100
AcDbEntity
  8
MODEL
100
AcDbLine
 10
270.2314267058559
 20
897.2012039870341
 30
0.0
 11
270.2034188338702
 21
897.5762202846796
 31
0.0
  0
ARC
  5
1106
330
A
100
AcDbEntity
  8
MODEL
100
AcDbCircle
 10
268.6488555161768
 20
912.3021508204207
 30
0.0
 40
14.80775800896909
100
AcDbArc
 50
276.026188903095
 51
278.5054015973806
  0
ARC
  5
1107
330
A
100
AcDbEntity
  8
MODEL
100
AcDbCircle
 10
279.5534978979853
 20
916.4887278823164
 30
0.0
 40
20.75012542134671
100
AcDbArc
 50
245.1669853806466
 51
247.1700815278461
  0
LINE
  5
1108
330
A
100
AcDbEntity
  8
MODEL
100
AcDbLine
 10
269.5039063824177
 20
897.7259696552192
 30
0.0
 11
269.5319142544033
 21
897.3509533575735
 31
0.0
  0
ARC
  5
1109
330
A
100
AcDbEntity
  8
MODEL
100
AcDbCircle
 10
268.8969181827819
 20
910.8881098855759
 30
0.0
 40
13.5520414283092
100
AcDbArc
 50
269.9976862424227
 51
272.6856412184881
  0
LINE
  5
110A
330
A
100
AcDbEntity
  8
MODEL
100
AcDbLine
 10
268.896370914922
 20
897.336068468317
 30
0.0
 11
268.7264663623478
 21
897.425989869169
 31
0.0
  0
ELLIPSE
  5
110B
330
A
100
AcDbEntity
  8
MODEL
100
AcDbEllipse
 10
274.6643233912988
 20
897.8643162781776
 30
0.0
 11
-6.002221810851935
 21
1.564139838266914E-7
 31
0.0
210
0.0
220
0.0
230
-1.0
 40
0.4999999999630601
 41
6.136606214700368
 42
6.355114645986325
  0
LINE
  5
110C
330
A
100
AcDbEntity
  8
MODEL
100
AcDbLine
 10
268.6776221295942
 20
898.0799982614507
 30
0.0
 11
268.8403551709509
 21
898.0861010636081
 31
0.0
  0
ARC
  5
110D
330
A
100
AcDbEntity
  8
MODEL
100
AcDbCircle
 10
279.5408610270351
 20
917.0106826040643
 30
0.0
 40
21.74029926329125
100
AcDbArc
 50
240.514926200059
 51
242.5047489980204
  0
LINE
  5
110E
330
A
100
AcDbEntity
  8
MODEL
100
AcDbLine
 10
270.2314267058559
 20
897.2012039870341
 30
0.0
 11
270.2314267157062
 21
897.5792003918154
 31
0.0
  0
LINE
  5
110F
330
A
100
AcDbEntity
  8
MODEL
100
AcDbLine
 10
270.8949779190461
 20
896.9072170621023
 30
0.0
 11
270.8949779323672
 21
897.418399278714
 31
0.0
  0
LINE
  5
1110
330
A
100
AcDbEntity
  8
MODEL
100
AcDbLine
 10
270.2705075799392
 20
897.5834503791547
 30
0.0
 11
270.8949779323675
 21
897.418399278714
 31
0.0
  0
LINE
  5
1111
330
A
100
AcDbEntity
  8
MODEL
100
AcDbLine
 10
270.8949779323672
 20
897.418399278714
 30
0.0
 11
271.173669334552
 21
897.5059413944833
 31
0.0
  0
LINE
  5
1112
330
A
100
AcDbEntity
  8
MODEL
100
AcDbLine
 10
268.896370914922
 20
897.336068468317
 30
0.0
 11
268.8963709160953
 21
897.3810831198624
 31
0.0
  0
LINE
  5
1113
330
A
100
AcDbEntity
  8
MODEL
100
AcDbLine
 10
268.7264663623478
 20
897.425989869169
 30
0.0
 11
268.8963709160953
 21
897.3810831198624
 31
0.0
  0
LINE
  5
1114
330
A
100
AcDbEntity
  8
MODEL
100
AcDbLine
 10
268.8963709160953
 20
897.3810831198624
 30
0.0
 11
269.5149089250792
 21
897.5753773304684
 31
0.0
  0
LINE
  5
1115
330
A
100
AcDbEntity
  8
MODEL
100
AcDbLine
 10
272.2300337135516
 20
896.9094079982568
 30
0.0
 11
272.202025841566
 21
897.2844242959026
 31
0.0
  0
LINE
  5
1116
330
A
100
AcDbEntity
  8
MODEL
100
AcDbLine
 10
272.2300337135516
 20
896.9094079982568
 30
0.0
 11
272.2300337234801
 21
897.290410081281
 31
0.0
  0
LINE
  5
1117
330
A
100
AcDbEntity
  8
MODEL
100
AcDbLine
 10
276.8655511617889
 20
897.4150366938082
 30
0.0
 11
277.0986130314328
 21
897.3758488850889
 31
0.0
  0
LINE
  5
1118
330
A
100
AcDbEntity
  8
MODEL
100
AcDbLine
 10
275.8037276487034
 20
897.1834730408797
 30
0.0
 11
275.8037276701925
 21
898.0169216598828
 31
0.0
  0
LINE
  5
1119
330
A
100
AcDbEntity
  8
MODEL
100
AcDbLine
 10
276.8655511635511
 20
897.4150366813072
 30
0.0
 11
276.8655511705742
 21
897.6785869263584
 31
0.0
  0
LINE
  5
111A
330
A
100
AcDbEntity
  8
MODEL
100
AcDbLine
 10
275.5757672148802
 20
898.1645285464931
 30
0.0
 11
275.8173999051548
 21
898.2396411631879
 31
0.0
  0
LINE
  5
111B
330
A
100
AcDbEntity
  8
MODEL
100
AcDbLine
 10
275.4887174971772
 20
898.3113571857645
 30
0.0
 11
275.5757672163396
 21
898.1645285226912
 31
0.0
  0
LINE
  5
111C
330
A
100
AcDbEntity
  8
MODEL
100
AcDbLine
 10
272.425250387389
 20
897.3321314648175
 30
0.0
 11
272.2687230169731
 21
897.4606034363713
 31
0.0
  0
LINE
  5
111D
330
A
100
AcDbEntity
  8
MODEL
100
AcDbLine
 10
272.202025841566
 20
897.2844242959026
 30
0.0
 11
272.425250383804
 21
897.3321314396827
 31
0.0
  0
LINE
  5
111E
330
A
100
AcDbEntity
  8
MODEL
100
AcDbLine
 10
272.4252503855964
 20
897.3321314522501
 30
0.0
 11
272.4252503936605
 21
897.6366315109908
 31
0.0
  0
LINE
  5
111F
330
A
100
AcDbEntity
  8
MODEL
100
AcDbLine
 10
276.421261622773
 20
898.016771032651
 30
0.0
 11
276.3917258098433
 21
897.8633787848314
 31
0.0
  0
LINE
  5
1120
330
A
100
AcDbEntity
  8
MODEL
100
AcDbLine
 10
275.5584651468162
 20
897.415544854274
 30
0.0
 11
275.5584651665532
 21
898.1937123845877
 31
0.0
  0
LINE
  5
1121
330
A
100
AcDbEntity
  8
MODEL
100
AcDbLine
 10
276.3917258084604
 20
897.8633787969735
 30
0.0
 11
276.3917258129686
 21
898.0270534724721
 31
0.0
  0
LINE
  5
1122
330
A
100
AcDbEntity
  8
MODEL
100
AcDbLine
 10
276.9033963564272
 20
896.9083018550627
 30
0.0
 11
277.0599237280113
 21
896.8246534469745
 31
0.0
  0
LINE
  5
1123
330
A
100
AcDbEntity
  8
MODEL
100
AcDbLine
 10
277.1266209034183
 20
897.0008325874433
 30
0.0
 11
276.903396360012
 21
896.9083018292496
 31
0.0
  0
LINE
  5
1124
330
A
100
AcDbEntity
  8
MODEL
100
AcDbLine
 10
276.9033963582197
 20
896.9083018421562
 30
0.0
 11
276.9033963710474
 21
897.4086732811289
 31
0.0
  0
LINE
  5
1125
330
A
100
AcDbEntity
  8
MODEL
100
AcDbLine
 10
273.7528795289359
 20
896.075904773387
 30
0.0
 11
273.5112468398294
 21
896.0456157201578
 31
0.0
  0
LINE
  5
1126
330
A
100
AcDbEntity
  8
MODEL
100
AcDbLine
 10
273.839929247807
 20
895.9738996975814
 30
0.0
 11
273.7528795274765
 21
896.0759047462411
 31
0.0
  0
LINE
  5
1127
330
A
100
AcDbEntity
  8
MODEL
100
AcDbLine
 10
273.5112468586362
 20
896.7673035566626
 30
0.0
 11
273.6163600673635
 21
896.7902290717184
 31
0.0
  0
LINE
  5
1128
330
A
100
AcDbEntity
  8
MODEL
100
AcDbLine
 10
273.7528795282062
 20
896.0759047598141
 30
0.0
 11
273.7528795422608
 21
896.6621385595141
 31
0.0
  0
ARC
  5
1129
330
A
100
AcDbEntity
  8
MODEL
100
AcDbCircle
 10
284.032066883838
 20
906.1251385652922
 30
0.0
 40
12.15149986480957
100
AcDbArc
 50
225.7868439811202
 51
227.3789799079538
  0
LINE
  5
112A
330
A
100
AcDbEntity
  8
MODEL
100
AcDbLine
 10
276.3917258070776
 20
897.8633788091156
 30
0.0
 11
276.6551614132977
 21
897.8808521541238
 31
0.0
  0
LINE
  5
112B
330
A
100
AcDbEntity
  8
MODEL
100
AcDbLine
 10
277.0058225804668
 20
897.5490502187391
 30
0.0
 11
276.8655511653133
 21
897.4150366688062
 31
0.0
  0
LINE
  5
112C
330
A
100
AcDbEntity
  8
MODEL
100
AcDbLine
 10
275.6299354783836
 20
898.1813669734667
 30
0.0
 11
275.8037276701925
 21
898.0169216598828
 31
0.0
  0
LINE
  5
112D
330
A
100
AcDbEntity
  8
MODEL
100
AcDbLine
 10
274.741475850014
 20
895.9779685304089
 30
0.0
 11
274.5773892968218
 21
895.9041035345678
 31
0.0
  0
LWPOLYLINE
  5
112E
330
A
100
AcDbEntity
  8
MODEL
100
AcDbPolyline
 90
        2
 70
     0
 43
0.0
 10
275.1830775916889
 20
895.673267194671
 10
274.7414729774312
 20
895.977954694671
  0
LINE
  5
112F
330
A
100
AcDbEntity
  8
MODEL
100
AcDbLine
 10
275.1168773297481
 20
895.6655034129384
 30
0.0
 11
275.1830710957086
 21
895.6732595011414
 31
0.0
  0
ARC
  5
1130
330
A
100
AcDbEntity
  8
MODEL
100
AcDbCircle
 10
273.1858655048046
 20
914.9528238334926
 30
0.0
 40
19.80905463743769
100
AcDbArc
 50
276.5725901758922
 51
277.6009159966669
  0
LWPOLYLINE
  5
1131
330
A
100
AcDbEntity
  8
MODEL
100
AcDbPolyline
 90
        2
 70
     0
 43
0.0
 10
276.1415126502827
 20
895.1637151927179
 10
275.8060481727437
 20
895.3178289622491
  0
ARC
  5
1132
330
A
100
AcDbEntity
  8
MODEL
100
AcDbCircle
 10
273.3908638947923
 20
914.601858158154
 30
0.0
 40
19.63178196852947
100
AcDbArc
 50
276.5620586677601
 51
278.0543089590992
  0
LINE
  5
1133
330
A
100
AcDbEntity
  8
MODEL
100
AcDbLine
 10
276.5833865842777
 20
895.0023482676185
 30
0.0
 11
276.5452316095038
 21
895.0143667169003
 31
0.0
  0
ELLIPSE
  5
1134
330
A
100
AcDbEntity
  8
MODEL
100
AcDbEllipse
 10
274.6643233912988
 20
897.8643162781776
 30
0.0
 11
-6.002221810851935
 21
1.564139838026455E-7
 31
0.0
210
0.0
220
0.0
230
-1.0
 40
0.4999999999630601
 41
4.393650664040491
 42
4.559918843935015
  0
LINE
  5
1135
330
A
100
AcDbEntity
  8
MODEL
100
AcDbLine
 10
272.3772742440358
 20
898.3281552627484
 30
0.0
 11
272.3253289860986
 21
898.3069169193712
 31
0.0
  0
LINE
  5
1136
330
A
100
AcDbEntity
  8
MODEL
100
AcDbLine
 10
271.4774293102494
 20
899.0359528745028
 30
0.0
 11
271.7542917295268
 21
899.1516731056076
 31
0.0
  0
LWPOLYLINE
  5
1137
330
A
100
AcDbEntity
  8
MODEL
100
AcDbPolyline
 90
        2
 70
     0
 43
0.0
 10
271.7542903602437
 20
899.1516912669366
 10
271.4188411414937
 20
899.6324041575616
  0
ARC
  5
1138
330
A
100
AcDbEntity
  8
MODEL
100
AcDbCircle
 10
265.3373692555014
 20
913.455695365387
 30
0.0
 40
15.10191158996239
100
AcDbArc
 50
292.1073426932463
 51
293.7467910173598
  0
LINE
  5
1139
330
A
100
AcDbEntity
  8
MODEL
100
AcDbLine
 10
271.0151142543214
 20
900.2470637231786
 30
0.0
 11
270.9769592817058
 21
900.30725113041
 31
0.0
  0
ELLIPSE
  5
113A
330
A
100
AcDbEntity
  8
MODEL
100
AcDbEllipse
 10
274.6643233912989
 20
897.8643162781776
 30
0.0
 11
-6.002221810851935
 21
1.564139834179103E-7
 31
0.0
210
0.0
220
0.0
230
-1.0
 40
0.4999999999630601
 41
0.7510188085464383
 42
0.9172869884945891
  0
LWPOLYLINE
  5
113B
330
A
100
AcDbEntity
  8
MODEL
100
AcDbPolyline
 90
        2
 70
     0
 43
0.0
 10
272.8188655555562
 20
897.7971685618585
 10
272.3772762000874
 20
898.3281439036554
  0
LINE
  5
113C
330
A
100
AcDbEntity
  8
MODEL
100
AcDbLine
 10
272.5689157427119
 20
897.8045575192562
 30
0.0
 11
272.8188699220491
 21
897.7971729793009
 31
0.0
  0
LWPOLYLINE
  5
113D
330
A
100
AcDbEntity
  8
MODEL
100
AcDbPolyline
 90
        2
 70
     0
 43
0.0
 10
274.048327225478
 20
896.5420721263116
 10
273.5120113075092
 20
897.0495489329522
  0
LINE
  5
113E
330
A
100
AcDbEntity
  8
MODEL
100
AcDbLine
 10
276.9513725057263
 20
896.1404618801045
 30
0.0
 11
277.0033177637217
 21
896.1639192587035
 31
0.0
  0
LINE
  5
113F
330
A
100
AcDbEntity
  8
MODEL
100
AcDbLine
 10
277.8512174518879
 20
895.9075283041005
 30
0.0
 11
277.5743550324337
 21
895.7850253324315
 31
0.0
  0
LWPOLYLINE
  5
1140
330
A
100
AcDbEntity
  8
MODEL
100
AcDbPolyline
 90
        2
 70
     0
 43
0.0
 10
277.5743587196187
 20
895.7850225657647
 10
277.9098079383687
 20
895.6309393138116
  0
ARC
  5
1141
330
A
100
AcDbEntity
  8
MODEL
100
AcDbCircle
 10
271.9603970125038
 20
909.7725635157485
 30
0.0
 40
15.34213863997519
100
AcDbArc
 50
292.8165777742133
 51
294.4388667577286
  0
LINE
  5
1142
330
A
100
AcDbEntity
  8
MODEL
100
AcDbLine
 10
278.3135325282764
 20
895.4815689518497
 30
0.0
 11
278.3516875021471
 21
895.4695505082377
 31
0.0
  0
ELLIPSE
  5
1143
330
A
100
AcDbEntity
  8
MODEL
100
AcDbEllipse
 10
274.6643233912988
 20
897.8643162781776
 30
0.0
 11
-6.002221810851935
 21
1.564139838026455E-7
 31
0.0
210
0.0
220
0.0
230
-1.0
 40
0.4999999999630601
 41
3.892611462136231
 42
4.058879642084383
  0
LWPOLYLINE
  5
1144
330
A
100
AcDbEntity
  8
MODEL
100
AcDbPolyline
 90
        2
 70
     0
 43
0.0
 10
276.5097835243062
 20
896.4451788157647
 10
276.9513728797749
 20
896.1404607981866
  0
LINE
  5
1145
330
A
100
AcDbEntity
  8
MODEL
100
AcDbLine
 10
276.7597310022724
 20
896.4806993640896
 30
0.0
 11
276.509776821817
 21
896.4451707583482
 31
0.0
  0
LINE
  5
1146
330
A
100
AcDbEntity
  8
MODEL
100
AcDbLine
 10
275.816628405445
 20
897.0092838304245
 30
0.0
 11
275.8037276485074
 21
897.1834730436066
 31
0.0
  0
LWPOLYLINE
  5
1147
330
A
100
AcDbEntity
  8
MODEL
100
AcDbPolyline
 90
        2
 70
     0
 43
0.0
 10
275.2803218543842
 20
897.5167425364679
 10
275.8166225135639
 20
897.0092962474054
  0
LINE
  5
1148
330
A
100
AcDbEntity
  8
MODEL
100
AcDbLine
 10
275.5584651469698
 20
897.415544851587
 30
0.0
 11
275.2803192957913
 21
897.5167492139257
 31
0.0
  0
LINE
  5
1149
330
A
100
AcDbEntity
  8
MODEL
100
AcDbLine
 10
274.5871708938519
 20
898.2643752565187
 30
0.0
 11
274.7512574481626
 21
898.381153348778
 31
0.0
  0
LWPOLYLINE
  5
114A
330
A
100
AcDbEntity
  8
MODEL
100
AcDbPolyline
 90
        2
 70
     0
 43
0.0
 10
274.1455714881733
 20
898.7953680247491
 10
274.5871761024312
 20
898.2643621653741
  0
LINE
  5
114B
330
A
100
AcDbEntity
  8
MODEL
100
AcDbLine
 10
274.2117694200724
 20
898.8053327651363
 30
0.0
 11
274.145575654054
 21
898.7953576141077
 31
0.0
  0
ARC
  5
114C
330
A
100
AcDbEntity
  8
MODEL
100
AcDbCircle
 10
270.8629934431534
 20
919.4008230549463
 30
0.0
 40
19.95993285165008
100
AcDbArc
 50
277.6572607447948
 51
278.6803978117379
  0
LWPOLYLINE
  5
114D
330
A
100
AcDbEntity
  8
MODEL
100
AcDbPolyline
 90
        2
 70
     0
 43
0.0
 10
273.1871364295797
 20
900.0995977610772
 10
273.5226009071187
 20
899.6188848704522
  0
ARC
  5
114E
330
A
100
AcDbEntity
  8
MODEL
100
AcDbCircle
 10
270.7140571104844
 20
919.6640153117477
 30
0.0
 40
19.72009972601093
100
AcDbArc
 50
277.2043924609936
 51
278.6921838396012
  0
LINE
  5
114F
330
A
100
AcDbEntity
  8
MODEL
100
AcDbLine
 10
272.7452601995753
 20
900.7744533710293
 30
0.0
 11
272.7834151730937
 21
900.7142659677589
 31
0.0
  0
ELLIPSE
  5
1150
330
A
100
AcDbEntity
  8
MODEL
100
AcDbEllipse
 10
274.6643233912989
 20
897.8643162781776
 30
0.0
 11
-6.002221810851935
 21
1.564139834179103E-7
 31
0.0
210
0.0
220
0.0
230
-1.0
 40
0.49999999996306
 41
1.252058010450698
 42
1.418326190345221
  0
LINE
  5
1151
330
A
100
AcDbEntity
  8
MODEL
100
AcDbLine
 10
273.7701815921897
 20
896.6461904621146
 30
0.0
 11
274.0483274432925
 21
896.5420815868579
 31
0.0
  0
ARC
  5
1152
330
A
100
AcDbEntity
  8
MODEL
100
AcDbCircle
 10
281.9985200250466
 20
905.5878555602263
 30
0.0
 40
12.15149900162588
100
AcDbArc
 50
225.7868452998725
 51
227.3789813041175
  0
LINE
  5
1153
330
A
100
AcDbEntity
  8
MODEL
100
AcDbLine
 10
273.5120183336388
 20
897.0495469490032
 30
0.0
 11
273.524919090652
 21
896.8782622811078
 31
0.0
  0
LINE
  5
1154
330
A
100
AcDbEntity
  8
MODEL
100
AcDbLine
 10
272.9369209367385
 20
896.3770545107647
 30
0.0
 11
272.6734853316867
 21
896.404404729222
 31
0.0
  0
LINE
  5
1155
330
A
100
AcDbEntity
  8
MODEL
100
AcDbLine
 10
272.9073851222112
 20
896.2684858506947
 30
0.0
 11
272.9369209339729
 21
896.3770544841009
 31
0.0
  0
LINE
  5
1156
330
A
100
AcDbEntity
  8
MODEL
100
AcDbLine
 10
272.3228241645172
 20
896.7362066646066
 30
0.0
 11
272.463095578503
 21
896.825396600126
 31
0.0
  0
LINE
  5
1157
330
A
100
AcDbEntity
  8
MODEL
100
AcDbLine
 10
272.4630955820271
 20
896.825396626072
 30
0.0
 11
272.2300337135516
 21
896.9094079982568
 31
0.0
  0
LINE
  5
1158
330
A
100
AcDbEntity
  8
MODEL
100
AcDbLine
 10
272.4252504422911
 20
897.5794989372091
 30
0.0
 11
272.4630955992179
 21
897.569496244891
 31
0.0
  0
LINE
  5
1159
330
A
100
AcDbEntity
  8
MODEL
100
AcDbLine
 10
272.6734853504931
 20
897.1260925657268
 30
0.0
 11
272.9369209536425
 21
897.1211541290487
 31
0.0
  0
LINE
  5
115A
330
A
100
AcDbEntity
  8
MODEL
100
AcDbLine
 10
274.5773893156284
 20
896.6257913710725
 30
0.0
 11
274.7414758863883
 21
896.7211129250034
 31
0.0
  0
LINE
  5
115B
330
A
100
AcDbEntity
  8
MODEL
100
AcDbLine
 10
275.4532478648561
 20
895.6665371846037
 30
0.0
 11
275.8060538343236
 21
895.7137900259662
 31
0.0
  0
LINE
  5
115C
330
A
100
AcDbEntity
  8
MODEL
100
AcDbLine
 10
276.5097768042579
 20
897.1883151656225
 30
0.0
 11
276.7597310210791
 21
897.2023872005944
 31
0.0
  0
LINE
  5
115D
330
A
100
AcDbEntity
  8
MODEL
100
AcDbLine
 10
275.8037276701925
 20
898.0169216598828
 30
0.0
 11
275.8166284295036
 21
897.8441846880697
 31
0.0
  0
LINE
  5
115E
330
A
100
AcDbEntity
  8
MODEL
100
AcDbLine
 10
275.3621588146343
 20
898.3214451973352
 30
0.0
 11
275.51651077457
 21
898.2644777816904
 31
0.0
  0
LINE
  5
115F
330
A
100
AcDbEntity
  8
MODEL
100
AcDbLine
 10
274.1455753761948
 20
899.425365295247
 30
0.0
 11
274.1984454849525
 21
899.4324464193725
 31
0.0
  0
LINE
  5
1160
330
A
100
AcDbEntity
  8
MODEL
100
AcDbLine
 10
273.1871408717013
 20
900.3322533493117
 30
0.0
 11
273.6942763307387
 21
900.4001762119304
 31
0.0
  0
LINE
  5
1161
330
A
100
AcDbEntity
  8
MODEL
100
AcDbLine
 10
272.3253290024873
 20
898.9358151085115
 30
0.0
 11
272.377274458325
 21
898.9581630546278
 31
0.0
  0
LINE
  5
1162
330
A
100
AcDbEntity
  8
MODEL
100
AcDbLine
 10
271.0208679532448
 20
899.6938358083072
 30
0.0
 11
271.4188399538318
 21
899.8650511086925
 31
0.0
  0
LINE
  5
1163
330
A
100
AcDbEntity
  8
MODEL
100
AcDbLine
 10
277.5743544886886
 20
895.7850285551478
 30
0.0
 11
277.5743547360298
 21
896.1567036334493
 31
0.0
  0
LINE
  5
1164
330
A
100
AcDbEntity
  8
MODEL
100
AcDbLine
 10
278.3135325354147
 20
895.4815689175206
 30
0.0
 11
278.0791303813841
 21
895.7033644545827
 31
0.0
  0
LINE
  5
1165
330
A
100
AcDbEntity
  8
MODEL
100
AcDbLine
 10
276.509776789901
 20
896.4451710451939
 30
0.0
 11
276.5097768042579
 21
897.1883151656225
 31
0.0
  0
LINE
  5
1166
330
A
100
AcDbEntity
  8
MODEL
100
AcDbLine
 10
275.8166283900259
 20
897.009284044817
 30
0.0
 11
275.8166284295036
 21
897.8441846880697
 31
0.0
  0
LINE
  5
1167
330
A
100
AcDbEntity
  8
MODEL
100
AcDbLine
 10
275.2803192880538
 20
897.5167494088125
 30
0.0
 11
275.2803192714399
 21
898.3283856322397
 31
0.0
  0
LINE
  5
1168
330
A
100
AcDbEntity
  8
MODEL
100
AcDbLine
 10
274.1455757310982
 20
898.7953597280613
 30
0.0
 11
274.1455753761945
 21
899.425365295247
 31
0.0
  0
LINE
  5
1169
330
A
100
AcDbEntity
  8
MODEL
100
AcDbLine
 10
274.1455753761948
 20
899.425365295247
 30
0.0
 11
273.9331143609872
 21
899.6263997485589
 31
0.0
  0
LINE
  5
116A
330
A
100
AcDbEntity
  8
MODEL
100
AcDbLine
 10
273.1871408335591
 20
900.0996038785478
 30
0.0
 11
273.1871408717013
 21
900.3322533493117
 31
0.0
  0
LINE
  5
116B
330
A
100
AcDbEntity
  8
MODEL
100
AcDbLine
 10
272.7834151691158
 20
900.7142659417101
 30
0.0
 11
273.1871408717013
 21
900.3322533493117
 31
0.0
  0
LINE
  5
116C
330
A
100
AcDbEntity
  8
MODEL
100
AcDbLine
 10
276.5097768042579
 20
897.1883151656225
 30
0.0
 11
275.8166284295036
 21
897.8441846880697
 31
0.0
  0
LINE
  5
116D
330
A
100
AcDbEntity
  8
MODEL
100
AcDbLine
 10
274.0483274510302
 20
896.5420817939877
 30
0.0
 11
274.0483275116341
 21
897.3769824474506
 31
0.0
  0
LINE
  5
116E
330
A
100
AcDbEntity
  8
MODEL
100
AcDbLine
 10
274.7414758490787
 20
895.9779687373483
 30
0.0
 11
274.7414758863883
 21
896.7211129250032
 31
0.0
  0
LINE
  5
116F
330
A
100
AcDbEntity
  8
MODEL
100
AcDbLine
 10
275.1830710186644
 20
895.6732620787603
 30
0.0
 11
275.1830714064031
 21
896.3032672611083
 31
0.0
  0
LINE
  5
1170
330
A
100
AcDbEntity
  8
MODEL
100
AcDbLine
 10
275.8060532719455
 20
895.3178260571658
 30
0.0
 11
275.8060538343236
 21
895.7137900259662
 31
0.0
  0
LINE
  5
1171
330
A
100
AcDbEntity
  8
MODEL
100
AcDbLine
 10
275.1830714064031
 20
896.3032672611083
 30
0.0
 11
275.8060538343236
 21
895.7137900259662
 31
0.0
  0
LINE
  5
1172
330
A
100
AcDbEntity
  8
MODEL
100
AcDbLine
 10
276.1415059369114
 20
895.1637296954253
 30
0.0
 11
276.1415059108962
 21
895.3963792070437
 31
0.0
  0
LINE
  5
1173
330
A
100
AcDbEntity
  8
MODEL
100
AcDbLine
 10
276.5452316134817
 20
895.0143666787972
 30
0.0
 11
276.1415059108962
 21
895.3963792070437
 31
0.0
  0
LINE
  5
1174
330
A
100
AcDbEntity
  8
MODEL
100
AcDbLine
 10
272.3772745350614
 20
898.3281571335327
 30
0.0
 11
272.377274458325
 21
898.9581630546278
 31
0.0
  0
LINE
  5
1175
330
A
100
AcDbEntity
  8
MODEL
100
AcDbLine
 10
271.7542922732719
 20
899.1516756992576
 30
0.0
 11
271.7542920304044
 21
899.5476402897699
 31
0.0
  0
LINE
  5
1176
330
A
100
AcDbEntity
  8
MODEL
100
AcDbLine
 10
272.377274458325
 20
898.9581630546278
 30
0.0
 11
271.7542920304044
 21
899.5476402897699
 31
0.0
  0
LINE
  5
1177
330
A
100
AcDbEntity
  8
MODEL
100
AcDbLine
 10
271.4188399313176
 20
899.6324015715303
 30
0.0
 11
271.4188399538318
 21
899.8650511086925
 31
0.0
  0
LINE
  5
1178
330
A
100
AcDbEntity
  8
MODEL
100
AcDbLine
 10
271.0151142471832
 20
900.2470636981712
 30
0.0
 11
271.4188399538318
 21
899.8650511086925
 31
0.0
  0
LINE
  5
1179
330
A
100
AcDbEntity
  8
MODEL
100
AcDbLine
 10
272.8188699539648
 20
897.7971732427658
 30
0.0
 11
272.8188699783398
 21
898.5403173907329
 31
0.0
  0
LINE
  5
117A
330
A
100
AcDbEntity
  8
MODEL
100
AcDbLine
 10
273.5120183490577
 20
897.049547162857
 30
0.0
 11
273.5120183530939
 21
897.8844478682855
 31
0.0
  0
LINE
  5
117B
330
A
100
AcDbEntity
  8
MODEL
100
AcDbLine
 10
274.7414758863883
 20
896.7211129250034
 30
0.0
 11
274.0483275116341
 21
897.3769824474506
 31
0.0
  0
LINE
  5
117C
330
A
100
AcDbEntity
  8
MODEL
100
AcDbLine
 10
273.5120183530939
 20
897.8844478682855
 30
0.0
 11
272.8188699783398
 21
898.5403173907329
 31
0.0
  0
LINE
  5
117D
330
A
100
AcDbEntity
  8
MODEL
100
AcDbLine
 10
272.463095580265
 20
896.8253966130991
 30
0.0
 11
272.4630955992179
 21
897.5694962448911
 31
0.0
  0
LINE
  5
117E
330
A
100
AcDbEntity
  8
MODEL
100
AcDbLine
 10
272.9369209353558
 20
896.3770544974327
 30
0.0
 11
272.9369209536425
 21
897.1211541290487
 31
0.0
  0
LINE
  5
117F
330
A
100
AcDbEntity
  8
MODEL
100
AcDbLine
 10
273.8104180508191
 20
894.3848983601255
 30
0.0
 11
274.0054604640508
 21
894.7009701233428
 31
0.0
  0
LINE
  5
1180
330
A
100
AcDbEntity
  8
MODEL
100
AcDbLine
 10
270.4499320563496
 20
895.3820816211472
 30
0.0
 11
270.180178267845
 21
894.9449379550365
 31
0.0
  0
LINE
  5
1181
330
A
100
AcDbEntity
  8
MODEL
100
AcDbLine
 10
273.8104180593301
 20
894.7114972314973
 30
0.0
 11
273.8104180508191
 21
894.3848983601255
 31
0.0
  0
ELLIPSE
  5
1182
330
A
100
AcDbEntity
  8
MODEL
100
AcDbEllipse
 10
274.6643234206375
 20
898.9901493031251
 30
0.0
 11
-9.249999999999996
 21
2.410489638652176E-7
 31
0.0
210
0.0
220
0.0
230
-1.0
 40
0.4999999999630601
 41
3.647695624186811
 42
4.019436518486959
  0
ELLIPSE
  5
1183
330
A
100
AcDbEntity
  8
MODEL
100
AcDbEllipse
 10
274.6643234206375
 20
898.9901493031251
 30
0.0
 11
-9.249999999999996
 21
2.410489638652176E-7
 31
0.0
210
0.0
220
0.0
230
-1.0
 40
0.4999999999630601
 41
2.862297460789366
 42
3.234038355089512
  0
ELLIPSE
  5
1184
330
A
100
AcDbEntity
  8
MODEL
100
AcDbEllipse
 10
274.6643234206375
 20
898.9901493031251
 30
0.0
 11
-9.249999999999996
 21
2.410489638652176E-7
 31
0.0
210
0.0
220
0.0
230
-1.0
 40
0.4999999999630601
 41
2.076899297391917
 42
2.448640191692063
  0
ELLIPSE
  5
1185
330
A
100
AcDbEntity
  8
MODEL
100
AcDbEllipse
 10
274.6643234206375
 20
898.9901493031251
 30
0.0
 11
-9.249999999999996
 21
2.410489638652176E-7
 31
0.0
210
0.0
220
0.0
230
-1.0
 40
0.4999999999630601
 41
1.291501133994468
 42
1.663242028294615
  0
ELLIPSE
  5
1186
330
A
100
AcDbEntity
  8
MODEL
100
AcDbEllipse
 10
274.6643234206375
 20
898.9901493031251
 30
0.0
 11
-9.249999999999996
 21
2.410489638652176E-7
 31
0.0
210
0.0
220
0.0
230
-1.0
 40
0.4999999999630601
 41
0.5061029705970211
 42
0.8778438648971667
  0
ELLIPSE
  5
1187
330
A
100
AcDbEntity
  8
MODEL
100
AcDbEllipse
 10
274.6643234206375
 20
898.9901493031251
 30
0.0
 11
-9.249999999999996
 21
2.410489638652176E-7
 31
0.0
210
0.0
220
0.0
230
-1.0
 40
0.4999999999630601
 41
5.21849195098171
 42
5.590232845281855
  0
ELLIPSE
  5
1188
330
A
100
AcDbEntity
  8
MODEL
100
AcDbEllipse
 10
274.6643234206375
 20
898.9901493031251
 30
0.0
 11
-9.249999999999996
 21
2.410489638652176E-7
 31
0.0
210
0.0
220
0.0
230
-1.0
 40
0.4999999999630601
 41
6.003890114379156
 42
6.375631008679306
  0
ELLIPSE
  5
1189
330
A
100
AcDbEntity
  8
MODEL
100
AcDbEllipse
 10
274.6643234206375
 20
898.9901493031251
 30
0.0
 11
-9.249999999999996
 21
2.410489638652176E-7
 31
0.0
210
0.0
220
0.0
230
-1.0
 40
0.4999999999630601
 41
4.433093787584261
 42
4.804834681884407
  0
LINE
  5
118A
330
A
100
AcDbEntity
  8
MODEL
100
AcDbLine
 10
280.5733295089522
 20
895.4318438662519
 30
0.0
 11
280.1186731193806
 21
895.862047961027
 31
0.0
  0
LINE
  5
118B
330
A
100
AcDbEntity
  8
MODEL
100
AcDbLine
 10
276.8770358389979
 20
894.8635378701969
 30
0.0
 11
277.2143468507704
 21
894.5443680931836
 31
0.0
  0
LINE
  5
118C
330
A
100
AcDbEntity
  8
MODEL
100
AcDbLine
 10
283.8748253406955
 20
898.5631964382329
 30
0.0
 11
282.9449342716221
 21
898.7066513747574
 31
0.0
  0
ELLIPSE
  5
118D
330
A
100
AcDbEntity
  8
MODEL
100
AcDbEllipse
 10
274.6643234206375
 20
898.9901493031251
 30
0.0
 11
8.299999999999997
 21
-2.162925837925736E-7
 31
0.0
210
0.0
220
0.0
230
1.0
 40
0.4999999999630601
 41
5.429421198434444
 42
5.753002580430541
  0
LINE
  5
118E
330
A
100
AcDbEntity
  8
MODEL
100
AcDbLine
 10
281.82485522362
 20
896.8915315052956
 30
0.0
 11
282.7547462926933
 21
896.7480765687711
 31
0.0
  0
LINE
  5
118F
330
A
100
AcDbEntity
  8
MODEL
100
AcDbLine
 10
281.7809340639324
 20
901.9446522079736
 30
0.0
 11
280.9205258920906
 21
901.7173240300209
 31
0.0
  0
ELLIPSE
  5
1190
330
A
100
AcDbEntity
  8
MODEL
100
AcDbEllipse
 10
274.6643234206375
 20
898.9901493031251
 30
0.0
 11
8.299999999999997
 21
-2.162925837925736E-7
 31
0.0
210
0.0
220
0.0
230
1.0
 40
0.4999999999630601
 41
6.214819361831892
 42
6.53840074382799
  0
LINE
  5
1191
330
A
100
AcDbEntity
  8
MODEL
100
AcDbLine
 10
282.6954775696576
 20
900.0378326663636
 30
0.0
 11
283.5558857414994
 21
900.2651608443163
 31
0.0
  0
LINE
  5
1192
330
A
100
AcDbEntity
  8
MODEL
100
AcDbLine
 10
275.5182287904555
 20
903.5954002461249
 30
0.0
 11
275.231318953734
 21
903.13045471723
 31
0.0
  0
ELLIPSE
  5
1193
330
A
100
AcDbEntity
  8
MODEL
100
AcDbEllipse
 10
274.6643234206375
 20
898.9901493031251
 30
0.0
 11
8.299999999999997
 21
-2.162925837925736E-7
 31
0.0
210
0.0
220
0.0
230
1.0
 40
0.4999999999630601
 41
0.7170322180497557
 42
1.040613600045853
  0
LINE
  5
1194
330
A
100
AcDbEntity
  8
MODEL
100
AcDbLine
 10
278.8615587367082
 20
902.5704151223191
 30
0.0
 11
279.1484685734299
 21
903.0353606512139
 31
0.0
  0
LINE
  5
1195
330
A
100
AcDbEntity
  8
MODEL
100
AcDbLine
 10
268.7553173323226
 20
902.5484547399984
 30
0.0
 11
269.2099737218941
 21
902.1182506452234
 31
0.0
  0
ELLIPSE
  5
1196
330
A
100
AcDbEntity
  8
MODEL
100
AcDbEllipse
 10
274.6643234206375
 20
898.9901493031251
 30
0.0
 11
8.299999999999997
 21
-2.162925837925736E-7
 31
0.0
210
0.0
220
0.0
230
1.0
 40
0.4999999999630601
 41
1.502430381447203
 42
1.826011763443301
  0
LINE
  5
1197
330
A
100
AcDbEntity
  8
MODEL
100
AcDbLine
 10
272.5689563800759
 20
903.0057264182916
 30
0.0
 11
272.1142999905042
 21
903.4359305130666
 31
0.0
  0
LINE
  5
1198
330
A
100
AcDbEntity
  8
MODEL
100
AcDbLine
 10
265.4538215005791
 20
899.4171021680174
 30
0.0
 11
266.3837125696525
 21
899.273647231493
 31
0.0
  0
ELLIPSE
  5
1199
330
A
100
AcDbEntity
  8
MODEL
100
AcDbEllipse
 10
274.6643234206375
 20
898.9901493031251
 30
0.0
 11
8.299999999999997
 21
-2.162925837925736E-7
 31
0.0
210
0.0
220
0.0
230
1.0
 40
0.4999999999630601
 41
2.287828544844651
 42
2.611409926840749
  0
LINE
  5
119A
330
A
100
AcDbEntity
  8
MODEL
100
AcDbLine
 10
267.5037916176547
 20
901.0887671009547
 30
0.0
 11
266.5739005485813
 21
901.2322220374791
 31
0.0
  0
ELLIPSE
  5
119B
330
A
100
AcDbEntity
  8
MODEL
100
AcDbEllipse
 10
274.6643234206375
 20
898.9901493031251
 30
0.0
 11
8.299999999999997
 21
-2.162925837925736E-7
 31
0.0
210
0.0
220
0.0
230
1.0
 40
0.4999999999630601
 41
3.858624871639549
 42
4.123683843493886
  0
LINE
  5
119C
330
A
100
AcDbEntity
  8
MODEL
100
AcDbLine
 10
267.5477127773424
 20
896.0356463982768
 30
0.0
 11
268.4081209491839
 21
896.2629745762295
 31
0.0
  0
ELLIPSE
  5
119D
330
A
100
AcDbEntity
  8
MODEL
100
AcDbEllipse
 10
274.6643234206375
 20
898.9901493031251
 30
0.0
 11
8.299999999999997
 21
-2.162925837925736E-7
 31
0.0
210
0.0
220
0.0
230
1.0
 40
0.4999999999630601
 41
3.073226708242099
 42
3.396808090238197
  0
LINE
  5
119E
330
A
100
AcDbEntity
  8
MODEL
100
AcDbLine
 10
266.633169271617
 20
897.9424659398868
 30
0.0
 11
265.7727610997753
 21
897.715137761934
 31
0.0
  0
ELLIPSE
  5
119F
330
A
100
AcDbEntity
  8
MODEL
100
AcDbEllipse
 10
274.6643234499758
 20
900.1159823280726
 30
0.0
 11
8.299999999999997
 21
-2.162925837925736E-7
 31
0.0
210
0.0
220
0.0
230
1.0
 40
0.4999999999630601
 41
3.20995869988461
 42
3.396808090238196
  0
LINE
  5
11A0
330
A
100
AcDbEntity
  8
MODEL
100
AcDbLine
 10
281.8878651039856
 20
898.0076439570705
 30
0.0
 11
282.754746322032
 21
897.8739095937186
 31
0.0
  0
LINE
  5
11A1
330
A
100
AcDbEntity
  8
MODEL
100
AcDbLine
 10
282.6954775989961
 20
901.163665691311
 30
0.0
 11
283.0489798857544
 21
901.2570644215658
 31
0.0
  0
LINE
  5
11A2
330
A
100
AcDbEntity
  8
MODEL
100
AcDbLine
 10
265.6692142589
 20
900.5097064081194
 30
0.0
 11
266.3837125989911
 21
900.3994802564405
 31
0.0
  0
LINE
  5
11A3
330
A
100
AcDbEntity
  8
MODEL
100
AcDbLine
 10
267.5477128066809
 20
897.1614794232243
 30
0.0
 11
267.8004444281297
 21
897.2282535670495
 31
0.0
  0
LINE
  5
11A4
330
A
100
AcDbEntity
  8
MODEL
100
AcDbLine
 10
277.2143468507704
 20
894.5443680931836
 30
0.0
 11
277.2143468606625
 21
894.9239707794928
 31
0.0
  0
LINE
  5
11A5
330
A
100
AcDbEntity
  8
MODEL
100
AcDbLine
 10
282.7547462926934
 20
896.7480765687711
 30
0.0
 11
282.754746322032
 21
897.8739095937186
 31
0.0
  0
ELLIPSE
  5
11A6
330
A
100
AcDbEntity
  8
MODEL
100
AcDbEllipse
 10
274.6643234499758
 20
900.1159823280726
 30
0.0
 11
9.249999999999996
 21
-2.410489638652176E-7
 31
0.0
210
0.0
220
0.0
230
1.0
 40
0.4999999999630601
 41
5.777082336582568
 42
5.956661410337124
  0
LINE
  5
11A7
330
A
100
AcDbEntity
  8
MODEL
100
AcDbLine
 10
281.7809340701666
 20
902.1838829033906
 30
0.0
 11
281.7809340639324
 21
901.9446522079736
 31
0.0
  0
LINE
  5
11A8
330
A
100
AcDbEntity
  8
MODEL
100
AcDbLine
 10
283.5558857414993
 20
900.2651608443163
 30
0.0
 11
283.5558857519981
 21
900.6680450116762
 31
0.0
  0
LINE
  5
11A9
330
A
100
AcDbEntity
  8
MODEL
100
AcDbLine
 10
275.5182287949604
 20
903.7682696178023
 30
0.0
 11
275.5182287904555
 21
903.5954002461249
 31
0.0
  0
LINE
  5
11AA
330
A
100
AcDbEntity
  8
MODEL
100
AcDbLine
 10
279.1484685734299
 20
903.0353606512139
 30
0.0
 11
279.148468578403
 21
903.2261957755379
 31
0.0
  0
LINE
  5
11AB
330
A
100
AcDbEntity
  8
MODEL
100
AcDbLine
 10
268.7553173377883
 20
902.7581927290797
 30
0.0
 11
268.7553173323224
 21
902.5484547399984
 31
0.0
  0
LINE
  5
11AC
330
A
100
AcDbEntity
  8
MODEL
100
AcDbLine
 10
272.1142999905042
 20
903.4359305130666
 30
0.0
 11
272.1142999951338
 21
903.613579948725
 31
0.0
  0
LINE
  5
11AD
330
A
100
AcDbEntity
  8
MODEL
100
AcDbLine
 10
265.453821517918
 20
900.082460245681
 30
0.0
 11
265.4538215005791
 21
899.4171021680174
 31
0.0
  0
LINE
  5
11AE
330
A
100
AcDbEntity
  8
MODEL
100
AcDbLine
 10
266.5739005485813
 20
901.2322220374791
 30
0.0
 11
266.5739005560756
 21
901.51980643127
 31
0.0
  0
LINE
  5
11AF
330
A
100
AcDbEntity
  8
MODEL
100
AcDbLine
 10
267.5477128066809
 20
897.1614794232243
 30
0.0
 11
267.5477127773424
 21
896.0356463982768
 31
0.0
  0
ELLIPSE
  5
11B0
330
A
100
AcDbEntity
  8
MODEL
100
AcDbEllipse
 10
274.6643234499758
 20
900.1159823280726
 30
0.0
 11
9.249999999999996
 21
-2.410489638652176E-7
 31
0.0
210
0.0
220
0.0
230
1.0
 40
0.4999999999630601
 41
3.637582354550129
 42
3.834545115487523
  0
LINE
  5
11B1
330
A
100
AcDbEntity
  8
MODEL
100
AcDbLine
 10
280.1186731220411
 20
895.9641480012931
 30
0.0
 11
280.1186731193806
 21
895.862047961027
 31
0.0
  0
LINE
  5
11B2
330
A
100
AcDbEntity
  8
MODEL
100
AcDbLine
 10
282.9449342863977
 20
899.2736472178702
 30
0.0
 11
282.9449342716221
 21
898.7066513747574
 31
0.0
  0
LINE
  5
11B3
330
A
100
AcDbEntity
  8
MODEL
100
AcDbLine
 10
281.82485522362
 20
896.8915315052956
 30
0.0
 11
281.8248552474874
 21
897.8074136968971
 31
0.0
  0
LINE
  5
11B4
330
A
100
AcDbEntity
  8
MODEL
100
AcDbLine
 10
282.6954775696576
 20
900.0378326663636
 30
0.0
 11
282.6954775989961
 21
901.163665691311
 31
0.0
  0
LINE
  5
11B5
330
A
100
AcDbEntity
  8
MODEL
100
AcDbLine
 10
278.8615587367082
 20
902.5704151223191
 30
0.0
 11
278.8615587557155
 21
903.2997980149408
 31
0.0
  0
LINE
  5
11B6
330
A
100
AcDbEntity
  8
MODEL
100
AcDbLine
 10
269.209973742992
 20
902.9278550933601
 30
0.0
 11
269.2099737218941
 21
902.1182506452234
 31
0.0
  0
LINE
  5
11B7
330
A
100
AcDbEntity
  8
MODEL
100
AcDbLine
 10
266.3837125989911
 20
900.3994802564405
 30
0.0
 11
266.3837125696525
 21
899.273647231493
 31
0.0
  0
LINE
  5
11B8
330
A
100
AcDbEntity
  8
MODEL
100
AcDbLine
 10
268.4081209564698
 20
896.5425595265308
 30
0.0
 11
268.4081209491839
 21
896.2629745762295
 31
0.0
  0
LINE
  5
11B9
330
A
100
AcDbEntity
  8
MODEL
100
AcDbLine
 10
266.633169271617
 20
897.9424659398868
 30
0.0
 11
266.6331693009554
 21
899.0682989648343
 31
0.0
  0
LWPOLYLINE
  5
11BA
330
A
100
AcDbEntity
  8
MODEL
100
AcDbPolyline
 90
        9
 70
     0
 43
0.0
 10
277.9690272987202
 20
895.0960272044366
 10
278.8045833289937
 20
895.3550298899835
 10
279.5673244178608
 20
895.6712530345147
 10
280.2447841346577
 20
896.0410345286554
 10
280.8263576209858
 20
896.4613226145929
 10
281.3014857948139
 20
896.9294012278741
 10
281.6589076698139
 20
897.4428289622491
 10
281.8847072303608
 20
897.9958990306085
 10
281.9643275916889
 20
898.5855291575616
  0
LWPOLYLINE
  5
11BB
330
A
100
AcDbEntity
  8
MODEL
100
AcDbPolyline
 90
        5
 70
     0
 43
0.0
 10
267.3643214881733
 20
898.5855291575616
 10
267.4229152381733
 20
898.0791815013116
 10
267.5946529090717
 20
897.5897405833429
 10
267.8701198280172
 20
897.1284979075616
 10
268.3084438026264
 20
896.6338690013116
  0
LWPOLYLINE
  5
11BC
330
A
100
AcDbEntity
  8
MODEL
100
AcDbPolyline
 90
       11
 70
     0
 43
0.0
 10
268.3084438026264
 20
896.6338690013116
 10
268.9346950233297
 20
896.1377142161554
 10
269.6889980018452
 20
895.7061651438897
 10
270.5554988563374
 20
895.3437994212335
 10
271.5157344520405
 20
895.0560186595147
 10
272.5487086952047
 20
894.8479192942804
 10
273.6309383094624
 20
894.7236211985772
 10
274.7373531043842
 20
894.6857488841241
 10
275.8420589149312
 20
894.7350652903741
 10
276.919176834853
 20
894.8705633372491
 10
277.9690272987202
 20
895.0960272044366
  0
LINE
  5
11BD
330
A
100
AcDbEntity
  8
MODEL
100
AcDbLine
 10
281.9643234386917
 20
899.6829696201651
 30
0.0
 11
281.9643234100935
 21
898.5855426050433
 31
0.0
  0
LINE
  5
11BE
330
A
100
AcDbEntity
  8
MODEL
100
AcDbLine
 10
267.3643234386918
 20
899.6829696321745
 30
0.0
 11
267.3643234100934
 21
898.5855426170527
 31
0.0
  0
LINE
  5
11BF
330
A
100
AcDbEntity
  8
MODEL
100
AcDbLine
 10
265.414323446333
 20
899.9761887718475
 30
0.0
 11
265.4143234206375
 21
898.990149310734
 31
0.0
  0
LINE
  5
11C0
330
A
100
AcDbEntity
  8
MODEL
100
AcDbLine
 10
283.9143234463338
 20
899.9762263410157
 30
0.0
 11
283.9143234206371
 21
898.9901492955164
 31
0.0
  0
LINE
  5
11C1
330
A
100
AcDbEntity
  8
MODEL
100
AcDbLine
 10
254.4143279892102
 20
829.4901502818292
 30
0.0
 11
294.9143279892102
 21
829.4901502818292
 31
0.0
  0
LINE
  5
11C2
330
A
100
AcDbEntity
  8
MODEL
100
AcDbLine
 10
249.3643279892103
 20
825.4901502818292
 30
0.0
 11
299.9643279892102
 21
825.4901502818292
 31
0.0
  0
ARC
  5
11C3
330
A
100
AcDbEntity
  8
MODEL
100
AcDbCircle
 10
249.3643279892103
 20
825.7847891941273
 30
0.0
 40
0.2
100
AcDbArc
 50
124.4389893089832
 51
180.0
  0
ARC
  5
11C4
330
A
100
AcDbEntity
  8
MODEL
100
AcDbCircle
 10
299.9643279892105
 20
825.7847891941273
 30
0.0
 40
0.2
100
AcDbArc
 50
0.0
 51
55.56101069108897
  0
LINE
  5
11C5
330
A
100
AcDbEntity
  8
MODEL
100
AcDbLine
 10
249.1643279892102
 20
825.6901502818292
 30
0.0
 11
249.1643279892102
 21
825.7847891941273
 31
0.0
  0
LINE
  5
11C6
330
A
100
AcDbEntity
  8
MODEL
100
AcDbLine
 10
300.1643279892102
 20
825.6901502818292
 30
0.0
 11
300.1643279892102
 21
825.7847891941273
 31
0.0
  0
ARC
  5
11C7
330
A
100
AcDbEntity
  8
MODEL
100
AcDbCircle
 10
249.3643279892103
 20
825.6901502818292
 30
0.0
 40
0.2
100
AcDbArc
 50
180.0000000002605
 51
270.0
  0
ARC
  5
11C8
330
A
100
AcDbEntity
  8
MODEL
100
AcDbCircle
 10
299.9643279892105
 20
825.6901502818292
 30
0.0
 40
0.2
100
AcDbArc
 50
270.0
 51
359.9999999997394
  0
LINE
  5
11C9
330
A
100
AcDbEntity
  8
MODEL
100
AcDbLine
 10
249.2512223181002
 20
825.9497349644964
 30
0.0
 11
254.4143279892106
 21
829.4901502818292
 31
0.0
  0
LINE
  5
11CA
330
A
100
AcDbEntity
  8
MODEL
100
AcDbLine
 10
300.0774336603207
 20
825.9497349644964
 30
0.0
 11
294.9143279892102
 21
829.4901502818292
 31
0.0
  0
LINE
  5
11CB
330
A
100
AcDbEntity
  8
MODEL
100
AcDbLine
 10
294.0593279319899
 20
824.7547392748338
 30
0.0
 11
255.2693280464308
 21
824.7547392748338
 31
0.0
  0
ARC
  5
11CC
330
A
100
AcDbEntity
  8
MODEL
100
AcDbCircle
 10
294.0593280464307
 20
826.0647392176134
 30
0.0
 40
1.309999942779541
100
AcDbArc
 50
270.0000000002188
 51
333.9842928281188
  0
ARC
  5
11CD
330
A
100
AcDbEntity
  8
MODEL
100
AcDbCircle
 10
255.2693279319899
 20
826.0647392176134
 30
0.0
 40
1.309999942779541
100
AcDbArc
 50
206.0157071718761
 51
269.9999999997713
  0
LINE
  5
11D3
102
{ACAD_REACTORS
330
1263
102
}
330
A
100
AcDbEntity
  8
MODEL
100
AcDbLine
 10
703.0124164144871
 20
896.3507337411334
 30
0.0
 11
703.0124164144871
 21
892.2599865757321
 31
0.0
  0
LINE
  5
11D4
102
{ACAD_REACTORS
330
1263
102
}
330
A
100
AcDbEntity
  8
MODEL
100
AcDbLine
 10
703.2776181457377
 20
896.5038480320604
 30
0.0
 11
705.3577104626665
 21
892.9010199767561
 31
0.0
  0
LINE
  5
1223
330
A
100
AcDbEntity
  8
DIM
  6
Continuous
370
    -3
100
AcDbLine
 10
269.9863225682482
 20
997.0628108424256
 30
0.0
 11
242.7485752081595
 21
1022.668939709309
 31
0.0
  0
LINE
  5
1224
330
A
100
AcDbEntity
  8
DIM
  6
Continuous
370
    -3
100
AcDbLine
 10
242.7485752081595
 20
1022.668939709309
 30
0.0
 11
199.8694428154323
 21
1022.668939709309
 31
0.0
  0
LINE
  5
1225
330
A
100
AcDbEntity
  8
DIM
  6
Continuous
370
    -3
100
AcDbLine
 10
262.6643241366032
 20
913.9901493677943
 30
0.0
 11
235.9423637172505
 21
936.2300537747633
 31
0.0
  0
LINE
  5
1226
330
A
100
AcDbEntity
  8
DIM
  6
Continuous
370
    -3
100
AcDbLine
 10
235.9423637172505
 20
936.2300537747633
 30
0.0
 11
193.7438524736141
 21
936.2300537747633
 31
0.0
  0
LINE
  5
1227
330
A
100
AcDbEntity
  8
DIM
  6
Continuous
370
    -3
100
AcDbLine
 10
609.826698635187
 20
827.7199426231628
 30
0.0
 11
619.2429873099774
 21
843.3252669238542
 31
0.0
  0
LINE
  5
1228
330
A
100
AcDbEntity
  8
DIM
  6
Continuous
370
    -3
100
AcDbLine
 10
619.2429873099774
 20
843.3252669238542
 30
0.0
 11
651.2321813172501
 21
843.3252669238542
 31
0.0
  0
DIMENSION
  5
1229
330
A
100
AcDbEntity
  8
DIM
  6
Continuous
370
    -3
100
AcDbDimension
  2
*D6
 10
371.3859723863413
 20
997.4901502818292
 30
0.0
 11
360.3859723863413
 21
911.4901502818292
 31
0.0
 70
    32
 71
     5
 42
172.0
 73
     0
 74
     0
 75
     0
  3
tfrom線あり
100
AcDbAlignedDimension
 13
299.9643279892102
 23
825.4901502818292
 33
0.0
 14
299.9643279892102
 24
997.4901502818292
 34
0.0
 50
90.0
100
AcDbRotatedDimension
1001
ACAD
1000
DSTYLE
1002
{
1070
   144
1040
1.0
1002
}
  0
DIMENSION
  5
1245
330
A
100
AcDbEntity
  8
DIM
  6
Continuous
370
    -3
100
AcDbDimension
  2
*D7
 10
701.9951428599261
 20
1063.409499302036
 30
0.0
 11
644.4951428599261
 21
1074.409499302036
 31
0.0
 70
    32
 71
     5
 42
115.0
 73
     0
 74
     0
 75
     0
  3
tfrom線あり
100
AcDbAlignedDimension
 13
586.9951428599261
 23
997.0901493677943
 33
0.0
 14
701.9951428599261
 24
923.0313873020359
 34
0.0
100
AcDbRotatedDimension
1001
ACAD
1000
DSTYLE
1002
{
1070
   144
1040
1.0
1002
}
  0
DIMENSION
  5
1252
330
A
100
AcDbEntity
  8
DIM
  6
Continuous
370
    -3
100
AcDbDimension
  2
*D8
 10
825.1413966516499
 20
898.4901502818292
 30
0.0
 11
814.1413966516499
 21
861.9901502818292
 31
0.0
 70
    32
 71
     5
 42
73.0
 73
     0
 74
     0
 75
     0
  3
tfrom線あり
100
AcDbAlignedDimension
 13
612.2951457996318
 23
825.4901502818292
 33
0.0
 14
703.6505215389227
 24
898.4901502818292
 34
0.0
 50
90.0
100
AcDbRotatedDimension
1001
ACAD
1000
DSTYLE
1002
{
1070
   144
1040
1.0
1002
}
  0
DIMENSION
  5
1261
102
{ACAD_REACTORS
330
1263
102
}
102
{ACAD_XDICTIONARY
360
1262
102
}
330
A
100
AcDbEntity
  8
DIM
  6
Continuous
370
    -3
100
AcDbDimension
  2
*D9
 10
703.0124164144871
 20
892.2599865757321
 30
0.0
 11
717.5314707567344
 21
842.7773104626792
 31
0.0
 70
   162
  1
<>
 71
     5
 42
0.5235984777811412
 73
     0
 74
     0
 75
     0
  3
tfrom線あり
100
AcDb2LineAngularDimension
 13
703.2776181457377
 23
896.5038480320604
 33
0.0
 14
705.3577104626665
 24
892.9010199767561
 34
0.0
 15
703.0124164144871
 25
896.3507337411334
 35
0.0
 16
712.7536134297892
 26
841.7180856164521
 36
0.0
1001
ACAD
1000
DSTYLE
1002
{
1070
    42
1040
5.0
1070
   147
1040
5.0
1070
   179
1070
     0
1002
}
  0
DIMENSION
  5
1275
102
{ACAD_REACTORS
330
1277
102
}
102
{ACAD_XDICTIONARY
360
1276
102
}
330
A
100
AcDbEntity
  8
DIM
  6
Continuous
370
    -3
100
AcDbDimension
  2
*D10
 10
478.4471137616506
 20
582.6014972575327
 30
0.0
 11
467.4471137616506
 21
704.045823769681
 31
0.0
 70
    32
  1
350
 71
     5
 42
242.8886530242964
 73
     0
 74
     0
 75
     0
  3
tfrom線あり
100
AcDbAlignedDimension
 13
561.6951457996319
 23
825.4901502818292
 33
0.0
 14
578.5682747744391
 24
582.6014972575327
 34
0.0
 50
90.0
100
AcDbRotatedDimension
1001
ACAD
1000
DSTYLE
1002
{
1070
   144
1040
1.0
1002
}
  0
MTEXT
  5
12B6
330
A
100
AcDbEntity
  8
DIM
390
1D
100
AcDbMText
 10
582.6449125828327
 20
569.9387749998133
 30
0.0
 40
12.21630859375
 41
0.0
 46
12.21630859375
 71
     1
 72
     1
  1
{▲}
  7
ＭＳ ゴシック
 73
     1
 44
0.7828267384257843
1001
ACAD
1000
ACAD_MTEXT_DEFINED_HEIGHT_BEGIN
1070
    46
1040
12.21630859375
1000
ACAD_MTEXT_DEFINED_HEIGHT_END
  0
MTEXT
  5
12B7
330
A
100
AcDbEntity
  8
DIM
390
1D
100
AcDbMText
 10
572.6748762191963
 20
549.3340331816315
 30
0.0
 40
12.21630859375
 41
0.0
 46
13.9510244140625
 71
     1
 72
     1
  1
{G3/8"}
  7
ＭＳ ゴシック
 73
     1
 44
0.7828267384257843
1001
ACAD
1000
ACAD_MTEXT_DEFINED_HEIGHT_BEGIN
1070
    46
1040
13.9510244140625
1000
ACAD_MTEXT_DEFINED_HEIGHT_END
  0
MTEXT
  5
1325
330
A
100
AcDbEntity
  8
DIM
390
1D
100
AcDbMText
 10
222.0388638924502
 20
1043.351589502359
 30
0.0
 40
12.21630859375
 41
0.0
 46
12.21630859375
 71
     1
 72
     1
  1
{\pxsm1;40}
  7
ＭＳ ゴシック
 73
     1
 44
0.7828267384257843
1001
ACAD
1000
ACAD_MTEXT_DEFINED_HEIGHT_BEGIN
1070
    46
1040
12.21630859375
1000
ACAD_MTEXT_DEFINED_HEIGHT_END
  0
MTEXT
  5
1326
330
A
100
AcDbEntity
  8
DIM
390
1D
100
AcDbMText
 10
212.0688275288138
 20
957.9416113205403
 30
0.0
 40
12.21630859375
 41
0.0
 46
12.21630859375
 71
     1
 72
     1
  1
{\pxsm1;24}
  7
ＭＳ ゴシック
 73
     1
 44
0.7828267384257843
1001
ACAD
1000
ACAD_MTEXT_DEFINED_HEIGHT_BEGIN
1070
    46
1040
12.21630859375
1000
ACAD_MTEXT_DEFINED_HEIGHT_END
  0
CIRCLE
  5
1329
330
A
100
AcDbEntity
  8
MODEL
370
    -3
100
AcDbCircle
 10
274.664328784861
 20
1127.607452530867
 30
0.0
 40
17.5
  0
LINE
  5
132A
330
A
100
AcDbEntity
  8
DIM
370
    -3
100
AcDbLine
 10
284.5335798735507
 20
1113.15588227195
 30
0.0
 11
299.0624272960864
 21
1088.39197616723
 31
0.0
  0
LINE
  5
132B
330
A
100
AcDbEntity
  8
DIM
370
    -3
100
AcDbLine
 10
299.0624272960864
 20
1088.39197616723
 30
0.0
 11
338.2779036597227
 21
1088.39197616723
 31
0.0
  0
MTEXT
  5
135E
330
A
100
AcDbEntity
  8
DIM
390
1D
100
AcDbMText
 10
315.6445158139046
 20
1106.468143493225
 30
0.0
 40
12.0
 41
0.0
 46
12.0
 71
     1
 72
     1
  1
{\pxsm1;35^A^B^B^B }
  7
ＭＳ ゴシック
 73
     1
 44
0.7828267384257843
1001
ACAD
1000
ACAD_MTEXT_DEFINED_HEIGHT_BEGIN
1070
    46
1040
12.0
1000
ACAD_MTEXT_DEFINED_HEIGHT_END
  0
DIMENSION
  5
135F
102
{ACAD_REACTORS
330
1361
102
}
102
{ACAD_XDICTIONARY
360
1360
102
}
330
A
100
AcDbEntity
  8
DIM
370
    -3
100
AcDbDimension
  2
*D11
 10
652.9149243131043
 20
825.4901502818292
 30
0.0
 11
652.9149243131043
 21
741.6161502818292
 31
0.0
 70
   160
  1
max. 40
 71
     5
 42
40.0
 73
     0
 74
     1
 75
     1
  3
tfrom線あり
100
AcDbAlignedDimension
 13
607.8951428599258
 23
785.4901502818292
 33
0.0
 14
609.4951428599257
 24
825.4901502818292
 34
0.0
 50
90.0
100
AcDbRotatedDimension
1001
ACAD
1000
DSTYLE
1002
{
1070
   172
1070
     1
1070
   144
1040
1.0
1002
}
  0
MTEXT
  5
13A6
330
A
100
AcDbEntity
  8
DIM
390
1D
100
AcDbMText
 10
631.1413141155016
 20
862.8595735011253
 30
0.0
 40
12.21630859375
 41
0.0
 46
12.21630859375
 71
     1
 72
     1
  1
{\pxsm1;51}
  7
ＭＳ ゴシック
 73
     1
 44
0.7828267384257843
1001
ACAD
1000
ACAD_MTEXT_DEFINED_HEIGHT_BEGIN
1070
    46
1040
12.21630859375
1000
ACAD_MTEXT_DEFINED_HEIGHT_END
  0
DIMENSION
  5
13AA
102
{ACAD_REACTORS
330
13AC
102
}
102
{ACAD_XDICTIONARY
360
13AB
102
}
330
A
100
AcDbEntity
  8
DIM
370
    -3
100
AcDbDimension
  2
*D12
 10
478.4471137616506
 20
825.4901502818292
 30
0.0
 11
467.4471137616506
 21
912.670213579145
 31
0.0
 70
    32
 71
     5
 42
174.3601265946314
 73
     0
 74
     0
 75
     0
  3
tfrom線あり
100
AcDbAlignedDimension
 13
581.2138108269963
 23
999.8502768764606
 33
0.0
 14
561.6951457996319
 24
825.4901502818292
 34
0.0
 50
90.0
100
AcDbRotatedDimension
1001
ACAD
1000
DSTYLE
1002
{
1070
   144
1040
1.0
1002
}
  0
MTEXT
  5
13EE
330
A
100
AcDbEntity
  8
DIM
390
1D
100
AcDbMText
 10
239.4604785315017
 20
1181.242757123991
 30
0.0
 40
12.0
 41
0.0
 46
13.344
 71
     1
 72
     1
  1
{\fＭＳ ゴシック|b0|i0|c1|p0;水栓取付穴}
  7
ＭＳ ゴシック
 73
     1
 44
0.7828267384257843
1001
ACAD
1000
ACAD_MTEXT_DEFINED_HEIGHT_BEGIN
1070
    46
1040
13.344
1000
ACAD_MTEXT_DEFINED_HEIGHT_END
  0
SPLINE
  5
13F5
330
A
100
AcDbEntity
  8
DIM
370
    -3
100
AcDbSpline
210
0.0
220
0.0
230
1.0
 70
  1064
 71
     3
 72
    10
 73
     6
 74
     4
 42
0.000000001
 43
0.0000000001
 44
0.0
 40
0.0
 40
0.0
 40
0.0
 40
0.0
 40
3.429373225410954
 40
7.341034485322972
 40
11.0870978210534
 40
11.0870978210534
 40
11.0870978210534
 40
11.0870978210534
 10
583.9951428599257
 20
688.2790910473715
 30
0.0
 10
584.977734862484
 20
689.1791490199473
 30
0.0
 10
587.0811051583541
 20
691.1058441275284
 30
0.0
 10
590.3912504214347
 20
687.2298123192897
 30
0.0
 10
592.8112897918933
 20
688.7958687499038
 30
0.0
 10
593.9951428599257
 20
689.5619640179091
 30
0.0
 11
583.9951428599257
 21
688.2790910473715
 31
0.0
 11
586.9622009524172
 21
689.9987325783152
 31
0.0
 11
590.4755934967137
 21
688.2790911499999
 31
0.0
 11
593.9951428599257
 21
689.5619640179091
 31
0.0
  0
SPLINE
  5
13F6
330
A
100
AcDbEntity
  8
DIM
370
    -3
100
AcDbSpline
210
0.0
220
0.0
230
1.0
 70
  1064
 71
     3
 72
    10
 73
     6
 74
     4
 42
0.000000001
 43
0.0000000001
 44
0.0
 40
0.0
 40
0.0
 40
0.0
 40
0.0
 40
3.429373225410954
 40
7.341034485322972
 40
11.0870978210534
 40
11.0870978210534
 40
11.0870978210534
 40
11.0870978210534
 10
583.9951405255625
 20
651.2412538129131
 30
0.0
 10
584.9777325281208
 20
652.141311785489
 30
0.0
 10
587.0811028239909
 20
654.0680068930701
 30
0.0
 10
590.3912480870715
 20
650.1919750848313
 30
0.0
 10
592.81128745753
 20
651.7580315154455
 30
0.0
 10
593.9951405255625
 20
652.5241267834507
 30
0.0
 11
583.9951405255625
 21
651.2412538129131
 31
0.0
 11
586.962198618054
 21
652.9608953438568
 31
0.0
 11
590.4755911623505
 21
651.2412539155415
 31
0.0
 11
593.9951405255625
 21
652.5241267834507
 31
0.0
  0
LINE
  5
1404
330
A
100
AcDbEntity
  8
DIM
  6
CENTER2
370
    -3
100
AcDbLine
 10
589.2141534271616
 20
611.1938578313024
 30
0.0
 11
589.2141534271616
 21
821.8605326432993
 31
0.0
  0
MTEXT
  5
1408
330
A
100
AcDbEntity
  8
template
 62
     7
390
1D
100
AcDbMText
 10
658.8854545454825
 20
230.4273305595663
 30
0.0
 40
12.21630859375
 41
0.0
 46
12.39955322265625
 71
     1
 72
     1
  1
{AGN73-0188-N01 クローム}
  7
ＭＳ ゴシック
 73
     1
 44
0.7828267384257843
1001
ACAD
1000
ACAD_MTEXT_DEFINED_HEIGHT_BEGIN
1070
    46
1040
12.39955322265625
1000
ACAD_MTEXT_DEFINED_HEIGHT_END
  0
LWPOLYLINE
  5
1411
330
A
100
AcDbEntity
  8
PRINT
  6
CENTER2
 48
5.0
370
    -3
100
AcDbPolyline
 90
        4
 70
     1
 43
0.0
 10
0.0
 20
0.0
 10
0.0
 20
1485.0
 10
1050.0
 20
1485.0
 10
1050.0
 20
0.0
  0
MTEXT
  5
14AA
330
A
100
AcDbEntity
  8
DIM
390
1D
100
AcDbMText
 10
304.649276376
 20
1107.082309612
 30
0.0
 40
16.0
 41
0.0
 46
16.0
 71
     1
 72
     1
  1
{\pxsm1;∅}
  7
ＭＳ ゴシック
 73
     1
 44
0.7828267384257843
1001
ACAD
1000
ACAD_MTEXT_DEFINED_HEIGHT_BEGIN
1070
    46
1040
16.0
1000
ACAD_MTEXT_DEFINED_HEIGHT_END
  0
MTEXT
  5
14AB
330
A
100
AcDbEntity
  8
DIM
390
1D
100
AcDbMText
 10
211.586108376
 20
1044.476178412
 30
0.0
 40
16.0
 41
0.0
 46
16.0
 71
     1
 72
     1
  1
{\pxsm1;∅}
  7
ＭＳ ゴシック
 73
     1
 44
0.7828267384257843
1001
ACAD
1000
ACAD_MTEXT_DEFINED_HEIGHT_BEGIN
1070
    46
1040
16.0
1000
ACAD_MTEXT_DEFINED_HEIGHT_END
  0
MTEXT
  5
14AC
330
A
100
AcDbEntity
  8
DIM
390
1D
100
AcDbMText
 10
200.869743576
 20
958.1812408119999
 30
0.0
 40
16.0
 41
0.0
 46
16.0
 71
     1
 72
     1
  1
{\pxsm1;∅}
  7
ＭＳ ゴシック
 73
     1
 44
0.7828267384257843
1001
ACAD
1000
ACAD_MTEXT_DEFINED_HEIGHT_BEGIN
1070
    46
1040
16.0
1000
ACAD_MTEXT_DEFINED_HEIGHT_END
  0
MTEXT
  5
14AD
330
A
100
AcDbEntity
  8
DIM
390
1D
100
AcDbMText
 10
619.9360091760001
 20
863.795650834912
 30
0.0
 40
16.0
 41
0.0
 46
16.0
 71
     1
 72
     1
  1
{\pxsm1;∅}
  7
ＭＳ ゴシック
 73
     1
 44
0.7828267384257843
1001
ACAD
1000
ACAD_MTEXT_DEFINED_HEIGHT_BEGIN
1070
    46
1040
16.0
1000
ACAD_MTEXT_DEFINED_HEIGHT_END
  0
VIEWPORT
  5
349
330
B
100
AcDbEntity
 67
     1
  8
0
100
AcDbViewport
 10
202.5
 20
128.5
 30
0.0
 40
486.0
 41
308.4
 68
     1
 69
     1
 12
202.5
 22
128.5
 13
0.0
 23
0.0
 14
0.5
 24
0.5
 15
0.0
 25
0.0
 16
0.0
 26
0.0
 36
1.0
 17
0.0
 27
0.0
 37
0.0
 42
50.0
 43
0.0
 44
0.0
 45
308.4
 50
0.0
 51
0.0
 72
   100
 90
   557152
  1

281
     0
 71
     1
 74
     0
110
0.0
120
0.0
130
0.0
111
1.0
121
0.0
131
0.0
112
0.0
122
1.0
132
0.0
 79
     0
146
0.0
170
     0
 61
     5
348
26C
292
     1
282
     1
141
0.0
142
0.0
 63
   256
  0
VIEWPORT
  5
34A
330
B
100
AcDbEntity
 67
     1
  8
0
100
AcDbViewport
 10
202.5
 20
128.5
 30
0.0
 40
324.0
 41
205.6
 68
     2
 69
     2
 12
986.6781359294573
 22
1427.077061889956
 13
0.0
 23
0.0
 14
0.5
 24
0.5
 15
0.0
 25
0.0
 16
0.0
 26
0.0
 36
1.0
 17
0.0
 27
0.0
 37
0.0
 42
50.0
 43
0.0
 44
0.0
 45
2890.021615685494
 50
0.0
 51
0.0
 72
   100
 90
   557152
  1

281
     0
 71
     1
 74
     0
110
0.0
120
0.0
130
0.0
111
1.0
121
0.0
131
0.0
112
0.0
122
1.0
132
0.0
 79
     0
146
0.0
170
     0
 61
     5
348
26C
292
     1
282
     1
141
0.0
142
0.0
 63
   256
  0
ENDSEC
  0
SECTION
  2
OBJECTS
  0
DICTIONARY
  5
19
330
0
100
AcDbDictionary
281
     1
  3
ACAD_COLOR
350
674
  3
ACAD_DETAILVIEWSTYLE
350
A3B
  3
ACAD_GROUP
350
1A
  3
ACAD_IMAGE_VARS
350
27B
  3
ACAD_LAYOUT
350
1E
  3
ACAD_MATERIAL
350
263
  3
ACAD_MLEADERSTYLE
350
336
  3
ACAD_MLINESTYLE
350
1B
  3
ACAD_PLOTSETTINGS
350
22
  3
ACAD_PLOTSTYLENAME
350
1F
  3
ACAD_SCALELIST
350
241
  3
ACAD_SECTIONVIEWSTYLE
350
A3C
  3
ACAD_TABLESTYLE
350
278
  3
ACAD_VISUALSTYLE
350
267
  3
ACDB_RECOMPOSE_DATA
350
14C2
  3
AcDbVariableDictionary
350
330
  3
APPDATA
350
27A
  3
CENTERLINE
350
12EA
  3
DimOffsetDictionary
350
12E5
  0
SUN
  5
A37
330
15
100
AcDbSun
 90
        1
290
     0
 63
     7
421
 16777215
 40
1.0
291
     1
 91
  2455826
 92
 54000000
292
     0
 70
     2
 71
   256
280
     1
  0
DICTIONARY
  5
2E1
330
2
100
AcDbDictionary
280
     1
281
     1
  3
ACAD_LAYERSTATES
360
2E2
  3
ACLYDICTIONARY
360
1442
  0
DICTIONARY
  5
1262
330
1261
100
AcDbDictionary
280
     1
281
     1
  3
ACAD_DIMASSOC
360
1263
  0
DICTIONARY
  5
1276
330
1275
100
AcDbDictionary
280
     1
281
     1
  3
ACAD_DIMASSOC
360
1277
  0
DICTIONARY
  5
1360
330
135F
100
AcDbDictionary
280
     1
281
     1
  3
ACAD_DIMASSOC
360
1361
  0
DICTIONARY
  5
13AB
330
13AA
100
AcDbDictionary
280
     1
281
     1
  3
ACAD_DIMASSOC
360
13AC
  0
DICTIONARY
  5
674
102
{ACAD_REACTORS
330
19
102
}
330
19
100
AcDbDictionary
281
     1
  0
DICTIONARY
  5
A3B
102
{ACAD_REACTORS
330
19
102
}
330
19
100
AcDbDictionary
281
     1
  0
DICTIONARY
  5
1A
102
{ACAD_REACTORS
330
19
102
}
330
19
100
AcDbDictionary
281
     1
  3
*A1
350
120D
  0
RASTERVARIABLES
  5
27B
102
{ACAD_REACTORS
330
19
102
}
330
19
100
AcDbRasterVariables
 90
        0
 70
     1
 71
     1
 72
     1
  0
DICTIONARY
  5
1E
102
{ACAD_REACTORS
330
19
102
}
330
19
100
AcDbDictionary
281
     1
  3
Layout1
350
21
  3
Model
350
20
  0
DICTIONARY
  5
263
102
{ACAD_REACTORS
330
19
102
}
330
19
100
AcDbDictionary
281
     1
  3
ByBlock
350
265
  3
ByLayer
350
264
  3
Global
350
266
  0
DICTIONARY
  5
336
102
{ACAD_REACTORS
330
19
102
}
330
19
100
AcDbDictionary
281
     1
  3
Standard
350
A3D
  0
DICTIONARY
  5
1B
102
{ACAD_REACTORS
330
19
102
}
330
19
100
AcDbDictionary
281
     1
  3
Standard
350
1C
  0
DICTIONARY
  5
22
102
{ACAD_REACTORS
330
19
102
}
330
19
100
AcDbDictionary
281
     1
  0
ACDBDICTIONARYWDFLT
  5
1F
102
{ACAD_REACTORS
330
19
102
}
330
19
100
AcDbDictionary
281
     1
  3
Normal
350
1D
100
AcDbDictionaryWithDefault
340
1D
  0
DICTIONARY
  5
241
102
{ACAD_REACTORS
330
19
102
}
330
19
100
AcDbDictionary
281
     1
  3
A0
350
242
  3
A1
350
243
  3
A2
350
244
  3
A3
350
245
  3
A4
350
246
  3
A5
350
247
  3
A6
350
248
  3
A7
350
249
  3
A8
350
24A
  3
A9
350
24B
  3
B0
350
24C
  3
B1
350
24D
  3
B2
350
24E
  3
B3
350
24F
  3
B4
350
250
  3
B5
350
251
  3
B6
350
252
  3
B7
350
253
  3
B8
350
254
  3
B9
350
255
  3
C0
350
256
  3
C1
350
257
  3
C2
350
258
  3
C3
350
259
  3
C4
350
25A
  3
C5
350
25B
  3
C6
350
25C
  3
C7
350
25D
  3
C8
350
25E
  3
C9
350
25F
  3
D0
350
260
  3
D1
350
261
  3
D2
350
262
  0
DICTIONARY
  5
A3C
102
{ACAD_REACTORS
330
19
102
}
330
19
100
AcDbDictionary
281
     1
  0
DICTIONARY
  5
278
102
{ACAD_REACTORS
330
19
102
}
330
19
100
AcDbDictionary
281
     1
  3
Standard
350
279
  0
DICTIONARY
  5
267
102
{ACAD_REACTORS
330
19
102
}
330
19
100
AcDbDictionary
281
     1
  3
*A1
350
12E4
  3
2dWireframe
350
26C
  3
3D Hidden
350
26E
  3
3dWireframe
350
26D
  3
Basic
350
26F
  3
Brighten
350
273
  3
ColorChange
350
277
  3
Conceptual
350
271
  3
Dim
350
272
  3
EdgeColorOff
350
A31
  3
Facepattern
350
276
  3
Flat
350
268
  3
FlatWithEdges
350
269
  3
Gouraud
350
26A
  3
GouraudWithEdges
350
26B
  3
Hidden
350
A2E
  3
JitterOff
350
A2F
  3
Linepattern
350
275
  3
OverhangOff
350
A30
  3
Realistic
350
270
  3
Shaded
350
A36
  3
Shaded with edges
350
A35
  3
Shades of Gray
350
A32
  3
Sketchy
350
A33
  3
Thicken
350
274
  3
Wireframe
350
A2D
  3
X-Ray
350
A34
  0
XRECORD
  5
14C2
102
{ACAD_REACTORS
330
19
102
}
330
19
100
AcDbXrecord
280
     1
 90
        1
330
279
  0
DICTIONARY
  5
330
102
{ACAD_REACTORS
330
19
102
}
330
19
100
AcDbDictionary
281
     1
  3
CANNOSCALE
350
331
  3
CMLEADERSTYLE
350
A3E
  3
CTABLESTYLE
350
335
  3
HPTRANSPARENCY
350
12E3
  3
XCLIPFRAME
350
A3F
  0
DICTIONARY
  5
27A
102
{ACAD_REACTORS
330
19
102
}
330
19
100
AcDbDictionary
281
     1
  0
DICTIONARY
  5
12EA
102
{ACAD_REACTORS
330
19
102
}
330
19
100
AcDbDictionary
281
     1
  3
CLEXTENSION
350
146D
  0
DICTIONARY
  5
12E5
102
{ACAD_REACTORS
330
19
102
}
330
19
100
AcDbDictionary
281
     1
  3
DIMRAILANGLE
350
146B
  3
DIMRAILFIRSTOFFSET
350
1469
  3
DIMRAILOFFSET
350
146A
  3
DIMRAILSENABLED
350
146C
  0
DICTIONARY
  5
2E2
102
{ACAD_REACTORS
330
2E1
102
}
330
2E1
100
AcDbDictionary
281
     1
  0
DICTIONARY
  5
1442
102
{ACAD_REACTORS
330
2E1
102
}
330
2E1
100
AcDbDictionary
281
     1
1001
ACAD
1000
<All
  0
DIMASSOC
  5
1263
102
{ACAD_REACTORS
330
1262
102
}
330
1262
100
AcDbDimAssoc
330
1261
 90
        7
 70
     0
 71
     1
  1
AcDbOsnapPointRef
 72
    13
331
11D4
 73
     0
 91
        0
 40
0.0
 10
0.0
 20
0.0
 30
0.0
 75
     0
  1
AcDbOsnapPointRef
 72
     1
331
11D4
 73
     0
 91
        0
 40
0.0
 10
0.0
 20
0.0
 30
0.0
 75
     0
  1
AcDbOsnapPointRef
 72
    13
331
11D3
 73
     0
 91
        0
 40
0.0
 10
0.0
 20
0.0
 30
0.0
 75
     0
  0
DIMASSOC
  5
1277
102
{ACAD_REACTORS
330
1276
102
}
330
1276
100
AcDbDimAssoc
330
1275
 90
        1
 70
     0
 71
     1
  1
AcDbOsnapPointRef
 72
    13
331
F52
 73
     0
 91
        0
 40
0.0
 10
0.0
 20
0.0
 30
0.0
 75
     0
  0
DIMASSOC
  5
1361
102
{ACAD_REACTORS
330
1360
102
}
330
1360
100
AcDbDimAssoc
330
135F
 90
        2
 70
     0
 71
     1
  1
AcDbOsnapPointRef
 72
     8
331
F52
 73
     0
 91
        0
 40
0.9446639735235965
 10
0.0
 20
0.0
 30
0.0
 75
     1
  1
AcDbOsnapPointRef
 72
     1
331
FC3
 73
     0
 91
        0
 40
0.0
 10
0.0
 20
0.0
 30
0.0
 75
     0
  0
DIMASSOC
  5
13AC
102
{ACAD_REACTORS
330
13AB
102
}
330
13AB
100
AcDbDimAssoc
330
13AA
 90
        1
 70
     0
 71
     1
  1
AcDbOsnapPointRef
 72
     1
331
E7C
 73
     0
 91
        0
 40
0.0
 10
0.0
 20
0.0
 30
0.0
 75
     0
  0
GROUP
  5
120D
102
{ACAD_REACTORS
330
1A
102
}
330
1A
100
AcDbGroup
300

 70
     1
 71
     1
340
E70
340
E71
340
E72
340
E73
340
E74
340
E75
340
E76
340
E77
340
E78
340
E79
340
E7A
340
E7D
340
E7B
340
E7C
  0
LAYOUT
  5
21
102
{ACAD_REACTORS
330
1E
102
}
330
1E
100
AcDbPlotSettings
  1

  2
none_device
  4
ISO_A3_(420.00_x_297.00_MM)
  6

 40
7.5
 41
20.0
 42
7.5
 43
20.0
 44
420.0
 45
297.0
 46
0.0
 47
0.0
 48
0.0
 49
0.0
140
0.0
141
0.0
142
1.0
143
1.0
 70
     0
 72
     1
 73
     0
 74
     0
  7

 75
     0
 76
     0
 77
     2
 78
   300
147
1.0
148
0.0
149
0.0
100
AcDbLayout
  1
Layout1
 70
     0
 71
     0
 10
-7.5
 20
-20.0
 11
412.5
 21
277.0
 12
0.0
 22
0.0
 32
0.0
 14
0.0
 24
0.0
 34
0.0
 15
0.0
 25
0.0
 35
0.0
146
0.0
 13
0.0
 23
0.0
 33
0.0
 16
0.0
 26
0.0
 36
0.0
 17
0.0
 27
0.0
 37
0.0
 76
     0
330
B
331
349
  0
LAYOUT
  5
20
102
{ACAD_REACTORS
330
1E
102
}
330
1E
100
AcDbPlotSettings
  1

  2
none_device
  4
ISO_A3_(420.00_x_297.00_MM)
  6

 40
7.5
 41
20.0
 42
7.5
 43
20.0
 44
420.0
 45
297.0
 46
0.0
 47
0.0
 48
0.0
 49
0.0
140
0.0
141
0.0
142
1.0
143
1.0
 70
  1024
 72
     1
 73
     0
 74
     0
  7

 75
     0
 76
     0
 77
     2
 78
   300
147
1.0
148
0.0
149
0.0
100
AcDbLayout
  1
Model
 70
     0
 71
     1
 10
0.0
 20
0.0
 11
1050.0
 21
1485.0
 12
0.0
 22
0.0
 32
0.0
 14
-0.0000000000000071
 24
-0.0000000000000284
 34
0.0
 15
1050.0
 25
1485.0
 35
0.0
146
0.0
 13
0.0
 23
0.0
 33
0.0
 16
0.0
 26
0.0
 36
0.0
 17
0.0
 27
0.0
 37
0.0
 76
     0
330
A
331
15
  0
MATERIAL
  5
265
102
{ACAD_REACTORS
330
263
102
}
330
263
100
AcDbMaterial
  1
ByBlock
 72
     1
 94
      127
  0
MATERIAL
  5
264
102
{ACAD_REACTORS
330
263
102
}
330
263
100
AcDbMaterial
  1
ByLayer
 72
     1
 94
      127
  0
MATERIAL
  5
266
102
{ACAD_REACTORS
330
263
102
}
330
263
100
AcDbMaterial
  1
Global
 72
     1
 94
      127
  0
MLEADERSTYLE
  5
A3D
102
{ACAD_REACTORS
330
336
102
}
330
336
100
AcDbMLeaderStyle
170
     2
171
     1
172
     0
 90
        2
 40
0.0
 41
0.0
173
     1
 91
-1056964608
340
11
 92
       -2
290
     1
 42
2.0
291
     1
 43
8.0
  3
Standard
341
0
 44
4.0
300

342
17
174
     1
178
     1
175
     1
176
     0
 93
-1056964608
 45
4.0
292
     0
297
     0
 46
4.0
343
0
 94
-1056964608
 47
1.0
 49
1.0
140
1.0
293
     1
141
0.0
294
     1
177
     0
142
1.0
295
     0
296
     0
143
3.75
1001
ACAD_MLEADERVER
1070
     2
  0
MLINESTYLE
  5
1C
102
{ACAD_REACTORS
330
1B
102
}
330
1B
100
AcDbMlineStyle
  2
Standard
 70
     0
  3

 62
     0
 51
90.0
 52
90.0
 71
     2
 49
0.5
 62
   256
  6
BYLAYER
 49
-0.5
 62
   256
  6
BYLAYER
  0
ACDBPLACEHOLDER
  5
1D
102
{ACAD_REACTORS
330
1F
102
}
330
1F
  0
SCALE
  5
242
102
{ACAD_REACTORS
330
241
102
}
330
241
100
AcDbScale
 70
     0
300
1:1
140
1.0
141
1.0
290
     1
  0
SCALE
  5
243
102
{ACAD_REACTORS
330
241
102
}
330
241
100
AcDbScale
 70
     0
300
1:2
140
1.0
141
2.0
290
     0
  0
SCALE
  5
244
102
{ACAD_REACTORS
330
241
102
}
330
241
100
AcDbScale
 70
     0
300
1:4
140
1.0
141
4.0
290
     0
  0
SCALE
  5
245
102
{ACAD_REACTORS
330
241
102
}
330
241
100
AcDbScale
 70
     0
300
1:5
140
1.0
141
5.0
290
     0
  0
SCALE
  5
246
102
{ACAD_REACTORS
330
241
102
}
330
241
100
AcDbScale
 70
     0
300
1:8
140
1.0
141
8.0
290
     0
  0
SCALE
  5
247
102
{ACAD_REACTORS
330
241
102
}
330
241
100
AcDbScale
 70
     0
300
1:10
140
1.0
141
10.0
290
     0
  0
SCALE
  5
248
102
{ACAD_REACTORS
330
241
102
}
330
241
100
AcDbScale
 70
     0
300
1:16
140
1.0
141
16.0
290
     0
  0
SCALE
  5
249
102
{ACAD_REACTORS
330
241
102
}
330
241
100
AcDbScale
 70
     0
300
1:20
140
1.0
141
20.0
290
     0
  0
SCALE
  5
24A
102
{ACAD_REACTORS
330
241
102
}
330
241
100
AcDbScale
 70
     0
300
1:30
140
1.0
141
30.0
290
     0
  0
SCALE
  5
24B
102
{ACAD_REACTORS
330
241
102
}
330
241
100
AcDbScale
 70
     0
300
1:40
140
1.0
141
40.0
290
     0
  0
SCALE
  5
24C
102
{ACAD_REACTORS
330
241
102
}
330
241
100
AcDbScale
 70
     0
300
1:50
140
1.0
141
50.0
290
     0
  0
SCALE
  5
24D
102
{ACAD_REACTORS
330
241
102
}
330
241
100
AcDbScale
 70
     0
300
1:100
140
1.0
141
100.0
290
     0
  0
SCALE
  5
24E
102
{ACAD_REACTORS
330
241
102
}
330
241
100
AcDbScale
 70
     0
300
2:1
140
2.0
141
1.0
290
     0
  0
SCALE
  5
24F
102
{ACAD_REACTORS
330
241
102
}
330
241
100
AcDbScale
 70
     0
300
4:1
140
4.0
141
1.0
290
     0
  0
SCALE
  5
250
102
{ACAD_REACTORS
330
241
102
}
330
241
100
AcDbScale
 70
     0
300
8:1
140
8.0
141
1.0
290
     0
  0
SCALE
  5
251
102
{ACAD_REACTORS
330
241
102
}
330
241
100
AcDbScale
 70
     0
300
10:1
140
10.0
141
1.0
290
     0
  0
SCALE
  5
252
102
{ACAD_REACTORS
330
241
102
}
330
241
100
AcDbScale
 70
     0
300
100:1
140
100.0
141
1.0
290
     0
  0
SCALE
  5
253
102
{ACAD_REACTORS
330
241
102
}
330
241
100
AcDbScale
 70
     0
300
1/128" = 1'-0"
140
0.0078125
141
12.0
290
     0
  0
SCALE
  5
254
102
{ACAD_REACTORS
330
241
102
}
330
241
100
AcDbScale
 70
     0
300
1/64" = 1'-0"
140
0.015625
141
12.0
290
     0
  0
SCALE
  5
255
102
{ACAD_REACTORS
330
241
102
}
330
241
100
AcDbScale
 70
     0
300
1/32" = 1'-0"
140
0.03125
141
12.0
290
     0
  0
SCALE
  5
256
102
{ACAD_REACTORS
330
241
102
}
330
241
100
AcDbScale
 70
     0
300
1/16" = 1'-0"
140
0.0625
141
12.0
290
     0
  0
SCALE
  5
257
102
{ACAD_REACTORS
330
241
102
}
330
241
100
AcDbScale
 70
     0
300
3/32" = 1'-0"
140
0.09375
141
12.0
290
     0
  0
SCALE
  5
258
102
{ACAD_REACTORS
330
241
102
}
330
241
100
AcDbScale
 70
     0
300
1/8" = 1'-0"
140
0.125
141
12.0
290
     0
  0
SCALE
  5
259
102
{ACAD_REACTORS
330
241
102
}
330
241
100
AcDbScale
 70
     0
300
3/16" = 1'-0"
140
0.1875
141
12.0
290
     0
  0
SCALE
  5
25A
102
{ACAD_REACTORS
330
241
102
}
330
241
100
AcDbScale
 70
     0
300
1/4" = 1'-0"
140
0.25
141
12.0
290
     0
  0
SCALE
  5
25B
102
{ACAD_REACTORS
330
241
102
}
330
241
100
AcDbScale
 70
     0
300
3/8" = 1'-0"
140
0.375
141
12.0
290
     0
  0
SCALE
  5
25C
102
{ACAD_REACTORS
330
241
102
}
330
241
100
AcDbScale
 70
     0
300
1/2" = 1'-0"
140
0.5
141
12.0
290
     0
  0
SCALE
  5
25D
102
{ACAD_REACTORS
330
241
102
}
330
241
100
AcDbScale
 70
     0
300
3/4" = 1'-0"
140
0.75
141
12.0
290
     0
  0
SCALE
  5
25E
102
{ACAD_REACTORS
330
241
102
}
330
241
100
AcDbScale
 70
     0
300
1" = 1'-0"
140
1.0
141
12.0
290
     0
  0
SCALE
  5
25F
102
{ACAD_REACTORS
330
241
102
}
330
241
100
AcDbScale
 70
     0
300
1-1/2" = 1'-0"
140
1.5
141
12.0
290
     0
  0
SCALE
  5
260
102
{ACAD_REACTORS
330
241
102
}
330
241
100
AcDbScale
 70
     0
300
3" = 1'-0"
140
3.0
141
12.0
290
     0
  0
SCALE
  5
261
102
{ACAD_REACTORS
330
241
102
}
330
241
100
AcDbScale
 70
     0
300
6" = 1'-0"
140
6.0
141
12.0
290
     0
  0
SCALE
  5
262
102
{ACAD_REACTORS
330
241
102
}
330
241
100
AcDbScale
 70
     0
300
1'-0" = 1'-0"
140
12.0
141
12.0
290
     0
  0
TABLESTYLE
  5
279
102
{ACAD_REACTORS
330
278
102
}
102
{ACAD_XDICTIONARY
360
14C0
102
}
330
278
100
AcDbTableStyle
  3
Standard
 70
     0
 71
     0
 40
0.06
 41
0.06
280
     0
281
     0
  7
Standard
140
4.5
170
     2
 62
     0
 63
   257
283
     0
 90
        4
 91
        0
  1

274
    -2
284
     1
 64
     0
275
    -2
285
     1
 65
     0
276
    -2
286
     1
 66
     0
277
    -2
287
     1
 67
     0
278
    -2
288
     1
 68
     0
279
    -2
289
     1
 69
     0
  7
Standard
140
6.0
170
     5
 62
     0
 63
   257
283
     0
 90
        4
 91
        0
  1

274
    -2
284
     1
 64
     0
275
    -2
285
     1
 65
     0
276
    -2
286
     1
 66
     0
277
    -2
287
     1
 67
     0
278
    -2
288
     1
 68
     0
279
    -2
289
     1
 69
     0
  7
Standard
140
4.5
170
     5
 62
     0
 63
   257
283
     0
 90
        4
 91
        0
  1

274
    -2
284
     1
 64
     0
275
    -2
285
     1
 65
     0
276
    -2
286
     1
 66
     0
277
    -2
287
     1
 67
     0
278
    -2
288
     1
 68
     0
279
    -2
289
     1
 69
     0
  0
VISUALSTYLE
  5
12E4
102
{ACAD_REACTORS
330
267
102
}
330
267
100
AcDbVisualStyle
  2
*
 70
    10
 71
     0
 72
     2
 73
     0
 90
        0
 40
-0.6
 41
-30.0
 62
     5
 63
     7
421
 16777215
 74
     1
 91
        4
 64
     7
 65
   257
 75
     1
175
     1
 42
1.0
 92
        8
 66
     7
 43
1.0
 76
     1
 77
     6
 78
     2
 67
     7
 79
     5
170
     0
171
     0
290
     0
174
     0
 93
        1
 44
0.0
173
     0
291
     0
 45
0.0
  0
VISUALSTYLE
  5
26C
102
{ACAD_REACTORS
330
267
102
}
330
267
100
AcDbVisualStyle
  2
2dWireframe
 70
     4
 71
     0
 72
     2
 73
     0
 90
        0
 40
-0.6
 41
-30.0
 62
     5
 63
     7
421
 16777215
 74
     1
 91
        4
 64
     7
 65
   257
 75
     1
175
     1
 42
1.0
 92
        0
 66
   257
 43
1.0
 76
     1
 77
     6
 78
     2
 67
     7
 79
     5
170
     0
171
     0
290
     0
174
     0
 93
        1
 44
0.0
173
     0
291
     0
 45
0.0
  0
VISUALSTYLE
  5
26E
102
{ACAD_REACTORS
330
267
102
}
330
267
100
AcDbVisualStyle
  2
3D Hidden
 70
     6
 71
     1
 72
     2
 73
     2
 90
        0
 40
-0.6
 41
-30.0
 62
     5
 63
     7
421
 16777215
 74
     2
 91
        2
 64
     7
 65
   257
 75
     2
175
     1
 42
40.0
 92
        0
 66
   257
 43
1.0
 76
     1
 77
     6
 78
     2
 67
     7
 79
     3
170
     0
171
     0
290
     0
174
     0
 93
        1
 44
0.0
173
     0
291
     0
 45
0.0
  0
VISUALSTYLE
  5
26D
102
{ACAD_REACTORS
330
267
102
}
330
267
100
AcDbVisualStyle
  2
3dWireframe
 70
     5
 71
     0
 72
     2
 73
     0
 90
        0
 40
-0.6
 41
-30.0
 62
     5
 63
     7
421
 16777215
 74
     1
 91
        4
 64
     7
 65
   257
 75
     1
175
     1
 42
1.0
 92
        0
 66
   257
 43
1.0
 76
     1
 77
     6
 78
     2
 67
     7
 79
     5
170
     0
171
     0
290
     0
174
     0
 93
        1
 44
0.0
173
     0
291
     0
 45
0.0
  0
VISUALSTYLE
  5
26F
102
{ACAD_REACTORS
330
267
102
}
330
267
100
AcDbVisualStyle
  2
Basic
 70
     7
 71
     1
 72
     0
 73
     1
 90
        0
 40
-0.6
 41
-30.0
 62
     5
 63
     7
421
 16777215
 74
     0
 91
        4
 64
     7
 65
   257
 75
     1
175
     1
 42
1.0
 92
        8
 66
     7
 43
1.0
 76
     1
 77
     6
 78
     2
 67
     7
 79
     5
170
     0
171
     0
290
     0
174
     0
 93
        1
 44
0.0
173
     0
291
     1
 45
0.0
  0
VISUALSTYLE
  5
273
102
{ACAD_REACTORS
330
267
102
}
330
267
100
AcDbVisualStyle
  2
Brighten
 70
    12
 71
     2
 72
     2
 73
     0
 90
        0
 40
-0.6
 41
-30.0
 62
     5
 63
     7
421
 16777215
 74
     1
 91
        4
 64
     7
 65
   257
 75
     1
175
     1
 42
1.0
 92
        8
 66
     7
 43
1.0
 76
     1
 77
     6
 78
     2
 67
     7
 79
     5
170
     0
171
     0
290
     0
174
     0
 93
        1
 44
50.0
173
     0
291
     1
 45
0.0
  0
VISUALSTYLE
  5
277
102
{ACAD_REACTORS
330
267
102
}
330
267
100
AcDbVisualStyle
  2
ColorChange
 70
    16
 71
     2
 72
     2
 73
     3
 90
        0
 40
-0.6
 41
-30.0
 62
     5
 63
     8
421
  8421504
 74
     1
 91
        4
 64
     7
 65
   257
 75
     1
175
     1
 42
1.0
 92
        8
 66
     8
424
  8421504
 43
1.0
 76
     1
 77
     6
 78
     2
 67
     7
 79
     5
170
     0
171
     0
290
     0
174
     0
 93
        1
 44
0.0
173
     0
291
     1
 45
0.0
  0
VISUALSTYLE
  5
271
102
{ACAD_REACTORS
330
267
102
}
330
267
100
AcDbVisualStyle
  2
Conceptual
 70
     9
 71
     3
 72
     2
 73
     0
 90
        0
 40
-0.6
 41
-30.0
 62
     5
 63
     7
421
 16777215
 74
     2
 91
        2
 64
     7
 65
   257
 75
     1
175
     1
 42
40.0
 92
        8
 66
     7
 43
1.0
 76
     1
 77
     6
 78
     2
 67
     7
 79
     3
170
     0
171
     0
290
     0
174
     0
 93
        1
 44
0.0
173
     0
291
     0
 45
0.0
  0
VISUALSTYLE
  5
272
102
{ACAD_REACTORS
330
267
102
}
330
267
100
AcDbVisualStyle
  2
Dim
 70
    11
 71
     2
 72
     2
 73
     0
 90
        0
 40
-0.6
 41
-30.0
 62
     5
 63
     7
421
 16777215
 74
     1
 91
        4
 64
     7
 65
   257
 75
     1
175
     1
 42
1.0
 92
        8
 66
     7
 43
1.0
 76
     1
 77
     6
 78
     2
 67
     7
 79
     5
170
     0
171
     0
290
     0
174
     0
 93
        1
 44
-50.0
173
     0
291
     1
 45
0.0
  0
VISUALSTYLE
  5
A31
102
{ACAD_REACTORS
330
267
102
}
330
267
100
AcDbVisualStyle
  2
EdgeColorOff
 70
    22
 71
     2
 72
     2
 73
     0
 90
        0
 40
0.6
 41
30.0
 62
     5
 63
     7
421
 16777215
 74
     1
 91
        4
 64
     7
 65
   257
 75
     1
175
     1
 42
1.0
 92
        8
 66
     7
 43
1.0
 76
     1
 77
     6
 78
     2
 67
     7
 79
     5
170
     0
171
     0
290
     0
174
     0
 93
        1
 44
0.0
173
     0
291
     1
 45
0.0
  0
VISUALSTYLE
  5
276
102
{ACAD_REACTORS
330
267
102
}
330
267
100
AcDbVisualStyle
  2
Facepattern
 70
    15
 71
     2
 72
     2
 73
     0
 90
        0
 40
-0.6
 41
-30.0
 62
     5
 63
     7
421
 16777215
 74
     1
 91
        4
 64
     7
 65
   257
 75
     1
175
     1
 42
1.0
 92
        8
 66
     7
 43
1.0
 76
     1
 77
     6
 78
     2
 67
     7
 79
     5
170
     0
171
     0
290
     0
174
     0
 93
        1
 44
0.0
173
     0
291
     1
 45
0.0
  0
VISUALSTYLE
  5
268
102
{ACAD_REACTORS
330
267
102
}
330
267
100
AcDbVisualStyle
  2
Flat
 70
     0
 71
     2
 72
     1
 73
     1
 90
        2
 40
-0.6
 41
30.0
 62
     5
 63
     7
421
 16777215
 74
     0
 91
        4
 64
     7
 65
   257
 75
     1
175
     1
 42
1.0
 92
        8
 66
     7
 43
1.0
 76
     1
 77
     6
 78
     2
 67
     7
 79
     5
170
     0
171
     0
290
     0
174
     0
 93
       13
 44
0.0
173
     0
291
     1
 45
0.0
  0
VISUALSTYLE
  5
269
102
{ACAD_REACTORS
330
267
102
}
330
267
100
AcDbVisualStyle
  2
FlatWithEdges
 70
     1
 71
     2
 72
     1
 73
     1
 90
        2
 40
-0.6
 41
30.0
 62
     5
 63
     7
421
 16777215
 74
     1
 91
        4
 64
     7
 65
   257
 75
     1
175
     1
 42
1.0
 92
        0
 66
   257
 43
1.0
 76
     1
 77
     6
 78
     2
 67
     7
 79
     5
170
     0
171
     0
290
     0
174
     0
 93
       13
 44
0.0
173
     0
291
     1
 45
0.0
  0
VISUALSTYLE
  5
26A
102
{ACAD_REACTORS
330
267
102
}
330
267
100
AcDbVisualStyle
  2
Gouraud
 70
     2
 71
     2
 72
     2
 73
     1
 90
        2
 40
-0.6
 41
30.0
 62
     5
 63
     7
421
 16777215
 74
     0
 91
        4
 64
     7
 65
   257
 75
     1
175
     1
 42
1.0
 92
        0
 66
     7
 43
1.0
 76
     1
 77
     6
 78
     2
 67
     7
 79
     5
170
     0
171
     0
290
     0
174
     0
 93
       13
 44
0.0
173
     0
291
     1
 45
0.0
  0
VISUALSTYLE
  5
26B
102
{ACAD_REACTORS
330
267
102
}
330
267
100
AcDbVisualStyle
  2
GouraudWithEdges
 70
     3
 71
     2
 72
     2
 73
     1
 90
        2
 40
-0.6
 41
30.0
 62
     5
 63
     7
421
 16777215
 74
     1
 91
        4
 64
     7
 65
   257
 75
     1
175
     1
 42
1.0
 92
        0
 66
   257
 43
1.0
 76
     1
 77
     6
 78
     2
 67
     7
 79
     5
170
     0
171
     0
290
     0
174
     0
 93
       13
 44
0.0
173
     0
291
     1
 45
0.0
  0
VISUALSTYLE
  5
A2E
102
{ACAD_REACTORS
330
267
102
}
330
267
100
AcDbVisualStyle
  2
Hidden
 70
     6
 71
     1
 72
     2
 73
     2
 90
        0
 40
0.6
 41
30.0
 62
     5
 63
     7
421
 16777215
 74
     2
 91
        2
 64
     7
 65
   257
 75
     2
175
     1
 42
40.0
 92
        0
 66
   257
 43
1.0
 76
     1
 77
     6
 78
     2
 67
     7
 79
     3
170
     0
171
     0
290
     0
174
     0
 93
        1
 44
0.0
173
     0
291
     0
 45
0.0
  0
VISUALSTYLE
  5
A2F
102
{ACAD_REACTORS
330
267
102
}
330
267
100
AcDbVisualStyle
  2
JitterOff
 70
    20
 71
     2
 72
     2
 73
     0
 90
        0
 40
0.6
 41
30.0
 62
     5
 63
     7
421
 16777215
 74
     1
 91
        4
 64
     7
 65
   257
 75
     1
175
     1
 42
1.0
 92
       10
 66
     7
 43
1.0
 76
     1
 77
     6
 78
     2
 67
     7
 79
     5
170
     0
171
     0
290
     0
174
     0
 93
        1
 44
0.0
173
     0
291
     1
 45
0.0
  0
VISUALSTYLE
  5
275
102
{ACAD_REACTORS
330
267
102
}
330
267
100
AcDbVisualStyle
  2
Linepattern
 70
    14
 71
     2
 72
     2
 73
     0
 90
        0
 40
-0.6
 41
-30.0
 62
     5
 63
     7
421
 16777215
 74
     1
 91
        4
 64
     7
 65
   257
 75
     7
175
     7
 42
1.0
 92
        8
 66
     7
 43
1.0
 76
     1
 77
     6
 78
     2
 67
     7
 79
     5
170
     0
171
     0
290
     0
174
     0
 93
        1
 44
0.0
173
     0
291
     1
 45
0.0
  0
VISUALSTYLE
  5
A30
102
{ACAD_REACTORS
330
267
102
}
330
267
100
AcDbVisualStyle
  2
OverhangOff
 70
    21
 71
     2
 72
     2
 73
     0
 90
        0
 40
0.6
 41
30.0
 62
     5
 63
     7
421
 16777215
 74
     1
 91
        4
 64
     7
 65
   257
 75
     1
175
     1
 42
1.0
 92
        9
 66
     7
 43
1.0
 76
     1
 77
     6
 78
     2
 67
     7
 79
     5
170
     0
171
     0
290
     0
174
     0
 93
        1
 44
0.0
173
     0
291
     1
 45
0.0
  0
VISUALSTYLE
  5
270
102
{ACAD_REACTORS
330
267
102
}
330
267
100
AcDbVisualStyle
  2
Realistic
 70
     8
 71
     2
 72
     2
 73
     0
 90
        0
 40
-0.6
 41
-30.0
 62
     5
 63
     7
421
 16777215
 74
     1
 91
        0
 64
     7
 65
   257
 75
     1
175
     1
 42
1.0
 92
        8
 66
     8
424
  7895160
 43
1.0
 76
     1
 77
     6
 78
     2
 67
     7
 79
     5
170
     0
171
     0
290
     0
174
     0
 93
       13
 44
0.0
173
     0
291
     0
 45
0.0
  0
VISUALSTYLE
  5
A36
102
{ACAD_REACTORS
330
267
102
}
330
267
100
AcDbVisualStyle
  2
Shaded
 70
    27
 71
     2
 72
     2
 73
     1
 90
        2
 40
0.6
 41
30.0
 62
     5
 63
     7
421
 16777215
 74
     0
 91
        4
 64
     7
 65
   257
 75
     1
175
     1
 42
1.0
 92
        8
 66
   257
 43
1.0
 76
     1
 77
     6
 78
     2
 67
     8
425
  7895160
 79
     3
170
     0
171
     0
290
     0
174
     0
 93
        5
 44
0.0
173
     0
291
     0
 45
0.0
  0
VISUALSTYLE
  5
A35
102
{ACAD_REACTORS
330
267
102
}
330
267
100
AcDbVisualStyle
  2
Shaded with edges
 70
    26
 71
     2
 72
     2
 73
     1
 90
        2
 40
0.6
 41
30.0
 62
     5
 63
     7
421
 16777215
 74
     1
 91
       10
 64
     7
 65
   257
 75
     2
175
     1
 42
1.0
 92
        8
 66
   257
 43
1.0
 76
     1
 77
     6
 78
     2
 67
     7
 79
     3
170
     0
171
     0
290
     0
174
     0
 93
        5
 44
0.0
173
     0
291
     0
 45
0.0
  0
VISUALSTYLE
  5
A32
102
{ACAD_REACTORS
330
267
102
}
330
267
100
AcDbVisualStyle
  2
Shades of Gray
 70
    23
 71
     2
 72
     2
 73
     3
 90
        0
 40
0.6
 41
30.0
 62
     5
 63
     7
421
 16777215
 74
     2
 91
        2
 64
     7
 65
     7
 75
     1
175
     1
 42
40.0
 92
        8
 66
     7
 43
1.0
 76
     1
 77
     6
 78
     2
 67
     7
 79
     3
170
     0
171
     0
290
     0
174
     0
 93
        1
 44
0.0
173
     0
291
     0
 45
0.0
  0
VISUALSTYLE
  5
A33
102
{ACAD_REACTORS
330
267
102
}
330
267
100
AcDbVisualStyle
  2
Sketchy
 70
    24
 71
     1
 72
     2
 73
     2
 90
        0
 40
0.6
 41
30.0
 62
     5
 63
     7
421
 16777215
 74
     2
 91
        2
 64
     7
 65
     7
 75
     1
175
     1
 42
40.0
 92
       11
 66
     7
 43
1.0
 76
     1
 77
     6
 78
     2
 67
     7
 79
     6
170
     0
171
     0
290
     0
174
     0
 93
        1
 44
0.0
173
     0
291
     0
 45
0.0
  0
VISUALSTYLE
  5
274
102
{ACAD_REACTORS
330
267
102
}
330
267
100
AcDbVisualStyle
  2
Thicken
 70
    13
 71
     2
 72
     2
 73
     0
 90
        0
 40
-0.6
 41
-30.0
 62
     5
 63
     7
421
 16777215
 74
     1
 91
        4
 64
     7
 65
   257
 75
     1
175
     1
 42
1.0
 92
       12
 66
     7
 43
1.0
 76
     1
 77
     6
 78
     2
 67
     7
 79
     5
170
     0
171
     0
290
     0
174
     0
 93
        1
 44
0.0
173
     0
291
     1
 45
0.0
  0
VISUALSTYLE
  5
A2D
102
{ACAD_REACTORS
330
267
102
}
330
267
100
AcDbVisualStyle
  2
Wireframe
 70
     5
 71
     0
 72
     2
 73
     0
 90
        0
 40
0.6
 41
30.0
 62
     5
 63
     7
421
 16777215
 74
     1
 91
        4
 64
     7
 65
   257
 75
     1
175
     1
 42
1.0
 92
        0
 66
   257
 43
1.0
 76
     1
 77
     6
 78
     2
 67
     7
 79
     3
170
     0
171
     0
290
     0
174
     0
 93
        1
 44
0.0
173
     0
291
     0
 45
0.0
  0
VISUALSTYLE
  5
A34
102
{ACAD_REACTORS
330
267
102
}
330
267
100
AcDbVisualStyle
  2
X-Ray
 70
    25
 71
     2
 72
     2
 73
     1
 90
        1
 40
0.5
 41
30.0
 62
     5
 63
     7
421
 16777215
 74
     1
 91
        0
 64
     7
 65
   257
 75
     1
175
     1
 42
1.0
 92
        8
 66
     7
 43
1.0
 76
     1
 77
     6
 78
     2
 67
     7
 79
     3
170
     0
171
     0
290
     0
174
     0
 93
       13
 44
0.0
173
     0
291
     0
 45
0.0
  0
DICTIONARYVAR
  5
331
102
{ACAD_REACTORS
330
330
102
}
330
330
100
DictionaryVariables
280
     0
  1
1:1
  0
DICTIONARYVAR
  5
A3E
102
{ACAD_REACTORS
330
330
102
}
330
330
100
DictionaryVariables
280
     0
  1
Standard
  0
DICTIONARYVAR
  5
335
102
{ACAD_REACTORS
330
330
102
}
330
330
100
DictionaryVariables
280
     0
  1
Standard
  0
DICTIONARYVAR
  5
12E3
102
{ACAD_REACTORS
330
330
102
}
330
330
100
DictionaryVariables
280
     0
  1
.
  0
DICTIONARYVAR
  5
A3F
102
{ACAD_REACTORS
330
330
102
}
330
330
100
DictionaryVariables
280
     0
  1
0
  0
DICTIONARYVAR
  5
146D
102
{ACAD_REACTORS
330
12EA
102
}
330
12EA
100
DictionaryVariables
280
     0
  1
0.250000
  0
DICTIONARYVAR
  5
146B
102
{ACAD_REACTORS
330
12E5
102
}
330
12E5
100
DictionaryVariables
280
     0
  1
0.261799
  0
DICTIONARYVAR
  5
1469
102
{ACAD_REACTORS
330
12E5
102
}
330
12E5
100
DictionaryVariables
280
     0
  1
0.400000
  0
DICTIONARYVAR
  5
146A
102
{ACAD_REACTORS
330
12E5
102
}
330
12E5
100
DictionaryVariables
280
     0
  1
0.250000
  0
DICTIONARYVAR
  5
146C
102
{ACAD_REACTORS
330
12E5
102
}
330
12E5
100
DictionaryVariables
280
     0
  1
0
  0
DICTIONARY
  5
14C0
330
279
100
AcDbDictionary
280
     1
281
     1
  3
ACAD_ROUNDTRIP_2008_TABLESTYLE_CELLSTYLEMAP
360
14C1
  0
CELLSTYLEMAP
  5
14C1
102
{ACAD_REACTORS
330
14C0
102
}
330
14C0
100
AcDbCellStyleMap
 90
        3
300
CELLSTYLE
  1
TABLEFORMAT_BEGIN
 90
        5
170
     1
 91
        0
 92
    32768
 62
   257
 93
        1
300
CONTENTFORMAT
  1
CONTENTFORMAT_BEGIN
 90
        0
 91
        0
 92
        4
 93
        0
300

 40
0.0
140
1.0
 94
        5
 62
     0
340
17
144
6.0
309
CONTENTFORMAT_END
171
     1
301
MARGIN
  1
CELLMARGIN_BEGIN
 40
0.06
 40
0.06
 40
0.06
 40
0.06
 40
0.18
 40
0.18
309
CELLMARGIN_END
 94
        6
 95
        1
302
GRIDFORMAT
  1
GRIDFORMAT_BEGIN
 90
        0
 91
        1
 62
     0
 92
       -2
340
0
 93
        0
 40
0.045
309
GRIDFORMAT_END
 95
        2
302
GRIDFORMAT
  1
GRIDFORMAT_BEGIN
 90
        0
 91
        1
 62
     0
 92
       -2
340
0
 93
        0
 40
0.045
309
GRIDFORMAT_END
 95
        4
302
GRIDFORMAT
  1
GRIDFORMAT_BEGIN
 90
        0
 91
        1
 62
     0
 92
       -2
340
0
 93
        0
 40
0.045
309
GRIDFORMAT_END
 95
        8
302
GRIDFORMAT
  1
GRIDFORMAT_BEGIN
 90
        0
 91
        1
 62
     0
 92
       -2
340
0
 93
        0
 40
0.045
309
GRIDFORMAT_END
 95
       16
302
GRIDFORMAT
  1
GRIDFORMAT_BEGIN
 90
        0
 91
        1
 62
     0
 92
       -2
340
0
 93
        0
 40
0.045
309
GRIDFORMAT_END
 95
       32
302
GRIDFORMAT
  1
GRIDFORMAT_BEGIN
 90
        0
 91
        1
 62
     0
 92
       -2
340
0
 93
        0
 40
0.045
309
GRIDFORMAT_END
309
TABLEFORMAT_END
  1
CELLSTYLE_BEGIN
 90
        1
 91
        1
300
_TITLE
309
CELLSTYLE_END
300
CELLSTYLE
  1
TABLEFORMAT_BEGIN
 90
        5
170
     1
 91
        0
 92
        0
 62
   257
 93
        1
300
CONTENTFORMAT
  1
CONTENTFORMAT_BEGIN
 90
        0
 91
        0
 92
        4
 93
        0
300

 40
0.0
140
1.0
 94
        5
 62
     0
340
17
144
4.5
309
CONTENTFORMAT_END
171
     1
301
MARGIN
  1
CELLMARGIN_BEGIN
 40
0.06
 40
0.06
 40
0.06
 40
0.06
 40
0.18
 40
0.18
309
CELLMARGIN_END
 94
        6
 95
        1
302
GRIDFORMAT
  1
GRIDFORMAT_BEGIN
 90
        0
 91
        1
 62
     0
 92
       -2
340
0
 93
        0
 40
0.045
309
GRIDFORMAT_END
 95
        2
302
GRIDFORMAT
  1
GRIDFORMAT_BEGIN
 90
        0
 91
        1
 62
     0
 92
       -2
340
0
 93
        0
 40
0.045
309
GRIDFORMAT_END
 95
        4
302
GRIDFORMAT
  1
GRIDFORMAT_BEGIN
 90
        0
 91
        1
 62
     0
 92
       -2
340
0
 93
        0
 40
0.045
309
GRIDFORMAT_END
 95
        8
302
GRIDFORMAT
  1
GRIDFORMAT_BEGIN
 90
        0
 91
        1
 62
     0
 92
       -2
340
0
 93
        0
 40
0.045
309
GRIDFORMAT_END
 95
       16
302
GRIDFORMAT
  1
GRIDFORMAT_BEGIN
 90
        0
 91
        1
 62
     0
 92
       -2
340
0
 93
        0
 40
0.045
309
GRIDFORMAT_END
 95
       32
302
GRIDFORMAT
  1
GRIDFORMAT_BEGIN
 90
        0
 91
        1
 62
     0
 92
       -2
340
0
 93
        0
 40
0.045
309
GRIDFORMAT_END
309
TABLEFORMAT_END
  1
CELLSTYLE_BEGIN
 90
        2
 91
        1
300
_HEADER
309
CELLSTYLE_END
300
CELLSTYLE
  1
TABLEFORMAT_BEGIN
 90
        5
170
     1
 91
        0
 92
        0
 62
   257
 93
        1
300
CONTENTFORMAT
  1
CONTENTFORMAT_BEGIN
 90
        0
 91
        0
 92
        4
 93
        0
300

 40
0.0
140
1.0
 94
        2
 62
     0
340
17
144
4.5
309
CONTENTFORMAT_END
171
     1
301
MARGIN
  1
CELLMARGIN_BEGIN
 40
0.06
 40
0.06
 40
0.06
 40
0.06
 40
0.18
 40
0.18
309
CELLMARGIN_END
 94
        6
 95
        1
302
GRIDFORMAT
  1
GRIDFORMAT_BEGIN
 90
        0
 91
        1
 62
     0
 92
       -2
340
0
 93
        0
 40
0.045
309
GRIDFORMAT_END
 95
        2
302
GRIDFORMAT
  1
GRIDFORMAT_BEGIN
 90
        0
 91
        1
 62
     0
 92
       -2
340
0
 93
        0
 40
0.045
309
GRIDFORMAT_END
 95
        4
302
GRIDFORMAT
  1
GRIDFORMAT_BEGIN
 90
        0
 91
        1
 62
     0
 92
       -2
340
0
 93
        0
 40
0.045
309
GRIDFORMAT_END
 95
        8
302
GRIDFORMAT
  1
GRIDFORMAT_BEGIN
 90
        0
 91
        1
 62
     0
 92
       -2
340
0
 93
        0
 40
0.045
309
GRIDFORMAT_END
 95
       16
302
GRIDFORMAT
  1
GRIDFORMAT_BEGIN
 90
        0
 91
        1
 62
     0
 92
       -2
340
0
 93
        0
 40
0.045
309
GRIDFORMAT_END
 95
       32
302
GRIDFORMAT
  1
GRIDFORMAT_BEGIN
 90
        0
 91
        1
 62
     0
 92
       -2
340
0
 93
        0
 40
0.045
309
GRIDFORMAT_END
309
TABLEFORMAT_END
  1
CELLSTYLE_BEGIN
 90
        3
 91
        2
300
_DATA
309
CELLSTYLE_END
  0
ENDSEC
  0
EOF
