  0
SECTION
  2
HEADER
  9
$ACADVER
  1
AC1021
  9
$ACADMAINTVER
 70
    25
  9
$DWGCODEPAGE
  3
ANSI_932
  9
$LASTSAVEDBY
  1
T-HOWE-PC
  9
$INSBASE
 10
0.0
 20
0.0
 30
0.0
  9
$EXTMIN
 10
0.0
 20
0.0
 30
-0.0000000000000071
  9
$EXTMAX
 10
840.0
 20
1188.0
 30
0.0000000000000071
  9
$LIMMIN
 10
0.0
 20
0.0
  9
$LIMMAX
 10
840.0
 20
1188.0
  9
$ORTHOMODE
 70
     0
  9
$REGENMODE
 70
     1
  9
$FILLMODE
 70
     1
  9
$QTEXTMODE
 70
     0
  9
$MIRRTEXT
 70
     1
  9
$LTSCALE
 40
2.0
  9
$ATTMODE
 70
     1
  9
$TEXTSIZE
 40
2.5
  9
$TRACEWID
 40
1.0
  9
$TEXTSTYLE
  7
ＭＳ ゴシック
  9
$CLAYER
  8
DIM
  9
$CELTYPE
  6
ByLayer
  9
$CECOLOR
 62
   256
  9
$CELTSCALE
 40
1.0
  9
$DISPSILH
 70
     0
  9
$DIMSCALE
 40
1.0
  9
$DIMASZ
 40
4.0
  9
$DIMEXO
 40
5.0
  9
$DIMDLI
 40
0.9999999999999999
  9
$DIMRND
 40
0.0
  9
$DIMDLE
 40
0.0
  9
$DIMEXE
 40
0.0
  9
$DIMTP
 40
0.0
  9
$DIMTM
 40
0.0
  9
$DIMTXT
 40
10.0
  9
$DIMCEN
 40
0.0
  9
$DIMTSZ
 40
0.0
  9
$DIMTOL
 70
     0
  9
$DIMLIM
 70
     0
  9
$DIMTIH
 70
     0
  9
$DIMTOH
 70
     0
  9
$DIMSE1
 70
     0
  9
$DIMSE2
 70
     0
  9
$DIMTAD
 70
     1
  9
$DIMZIN
 70
    11
  9
$DIMBLK
  1
DOT
  9
$DIMASO
 70
     1
  9
$DIMSHO
 70
     1
  9
$DIMPOST
  1
<>
  9
$DIMAPOST
  1
[]
  9
$DIMALT
 70
     0
  9
$DIMALTD
 70
     1
  9
$DIMALTF
 40
1.0
  9
$DIMLFAC
 40
1.0
  9
$DIMTOFL
 70
     0
  9
$DIMTVP
 40
0.0
  9
$DIMTIX
 70
     1
  9
$DIMSOXD
 70
     0
  9
$DIMSAH
 70
     0
  9
$DIMBLK1
  1

  9
$DIMBLK2
  1

  9
$DIMSTYLE
  2
tfrom線あり
  9
$DIMCLRD
 70
     0
  9
$DIMCLRE
 70
     0
  9
$DIMCLRT
 70
     0
  9
$DIMTFAC
 40
1.0
  9
$DIMGAP
 40
4.0
  9
$DIMJUST
 70
     0
  9
$DIMSD1
 70
     0
  9
$DIMSD2
 70
     0
  9
$DIMTOLJ
 70
     1
  9
$DIMTZIN
 70
    11
  9
$DIMALTZ
 70
    11
  9
$DIMALTTZ
 70
    11
  9
$DIMUPT
 70
     0
  9
$DIMDEC
 70
     0
  9
$DIMTDEC
 70
     1
  9
$DIMALTU
 70
     2
  9
$DIMALTTD
 70
     2
  9
$DIMTXSTY
  7
ＭＳ ゴシック
  9
$DIMAUNIT
 70
     0
  9
$DIMADEC
 70
     2
  9
$DIMALTRND
 40
0.0
  9
$DIMAZIN
 70
     0
  9
$DIMDSEP
 70
    46
  9
$DIMATFIT
 70
     0
  9
$DIMFRAC
 70
     2
  9
$DIMLDRBLK
  1
DOT
  9
$DIMLUNIT
 70
     2
  9
$DIMLWD
 70
    -2
  9
$DIMLWE
 70
    -2
  9
$DIMTMOVE
 70
     0
  9
$DIMFXL
 40
1.0
  9
$DIMFXLON
 70
     0
  9
$DIMJOGANG
 40
0.7853981633974483
  9
$DIMTFILL
 70
     0
  9
$DIMTFILLCLR
 70
     0
  9
$DIMARCSYM
 70
     0
  9
$DIMLTYPE
  6

  9
$DIMLTEX1
  6

  9
$DIMLTEX2
  6

  9
$LUNITS
 70
     2
  9
$LUPREC
 70
     0
  9
$SKETCHINC
 40
0.1
  9
$FILLETRAD
 40
0.0
  9
$AUNITS
 70
     0
  9
$AUPREC
 70
     0
  9
$MENU
  1
acad
  9
$ELEVATION
 40
0.0
  9
$PELEVATION
 40
0.0
  9
$THICKNESS
 40
0.0
  9
$LIMCHECK
 70
     0
  9
$CHAMFERA
 40
0.0
  9
$CHAMFERB
 40
0.0
  9
$CHAMFERC
 40
0.0
  9
$CHAMFERD
 40
0.0
  9
$SKPOLY
 70
     0
  9
$TDCREATE
 40
2447893.375
  9
$TDUCREATE
 40
0.0
  9
$TDUPDATE
 40
2459033.494201354
  9
$TDUUPDATE
 40
2459033.119201354
  9
$TDINDWG
 40
0.1601947801
  9
$TDUSRTIMER
 40
0.0005284375
  9
$USRTIMER
 70
     1
  9
$ANGBASE
 50
0.0
  9
$ANGDIR
 70
     0
  9
$PDMODE
 70
     1
  9
$PDSIZE
 40
-2.0
  9
$PLINEWID
 40
0.0
  9
$SPLFRAME
 70
     0
  9
$SPLINETYPE
 70
     6
  9
$SPLINESEGS
 70
     8
  9
$HANDSEED
  5
A92C
  9
$SURFTAB1
 70
     6
  9
$SURFTAB2
 70
     6
  9
$SURFTYPE
 70
     6
  9
$SURFU
 70
     6
  9
$SURFV
 70
     6
  9
$UCSBASE
  2

  9
$UCSNAME
  2

  9
$UCSORG
 10
0.0
 20
0.0
 30
0.0
  9
$UCSXDIR
 10
1.0
 20
0.0
 30
0.0
  9
$UCSYDIR
 10
0.0
 20
1.0
 30
0.0
  9
$UCSORTHOREF
  2

  9
$UCSORTHOVIEW
 70
     0
  9
$UCSORGTOP
 10
0.0
 20
0.0
 30
0.0
  9
$UCSORGBOTTOM
 10
0.0
 20
0.0
 30
0.0
  9
$UCSORGLEFT
 10
0.0
 20
0.0
 30
0.0
  9
$UCSORGRIGHT
 10
0.0
 20
0.0
 30
0.0
  9
$UCSORGFRONT
 10
0.0
 20
0.0
 30
0.0
  9
$UCSORGBACK
 10
0.0
 20
0.0
 30
0.0
  9
$PUCSBASE
  2

  9
$PUCSNAME
  2

  9
$PUCSORG
 10
0.0
 20
0.0
 30
0.0
  9
$PUCSXDIR
 10
1.0
 20
0.0
 30
0.0
  9
$PUCSYDIR
 10
0.0
 20
1.0
 30
0.0
  9
$PUCSORTHOREF
  2

  9
$PUCSORTHOVIEW
 70
     0
  9
$PUCSORGTOP
 10
0.0
 20
0.0
 30
0.0
  9
$PUCSORGBOTTOM
 10
0.0
 20
0.0
 30
0.0
  9
$PUCSORGLEFT
 10
0.0
 20
0.0
 30
0.0
  9
$PUCSORGRIGHT
 10
0.0
 20
0.0
 30
0.0
  9
$PUCSORGFRONT
 10
0.0
 20
0.0
 30
0.0
  9
$PUCSORGBACK
 10
0.0
 20
0.0
 30
0.0
  9
$USERI1
 70
     0
  9
$USERI2
 70
     0
  9
$USERI3
 70
     0
  9
$USERI4
 70
     0
  9
$USERI5
 70
     0
  9
$USERR1
 40
0.0
  9
$USERR2
 40
0.0
  9
$USERR3
 40
0.0
  9
$USERR4
 40
0.0
  9
$USERR5
 40
0.0
  9
$WORLDVIEW
 70
     1
  9
$SHADEDGE
 70
     3
  9
$SHADEDIF
 70
    70
  9
$TILEMODE
 70
     1
  9
$MAXACTVP
 70
    64
  9
$PINSBASE
 10
0.0
 20
0.0
 30
0.0
  9
$PLIMCHECK
 70
     0
  9
$PEXTMIN
 10
0.0
 20
0.0
 30
0.0
  9
$PEXTMAX
 10
0.0
 20
0.0
 30
0.0
  9
$PLIMMIN
 10
-7.5
 20
-20.0
  9
$PLIMMAX
 10
412.5
 20
277.0
  9
$UNITMODE
 70
     0
  9
$VISRETAIN
 70
     0
  9
$PLINEGEN
 70
     1
  9
$PSLTSCALE
 70
     0
  9
$TREEDEPTH
 70
  3020
  9
$CMLSTYLE
  2
Standard
  9
$CMLJUST
 70
     0
  9
$CMLSCALE
 40
1.0
  9
$PROXYGRAPHICS
 70
     0
  9
$MEASUREMENT
 70
     1
  9
$CELWEIGHT
370
    -1
  9
$ENDCAPS
280
     0
  9
$JOINSTYLE
280
     0
  9
$LWDISPLAY
290
     1
  9
$INSUNITS
 70
     4
  9
$HYPERLINKBASE
  1

  9
$STYLESHEET
  1

  9
$XEDIT
290
     1
  9
$CEPSNTYPE
380
     0
  9
$PSTYLEMODE
290
     1
  9
$FINGERPRINTGUID
  2

  9
$VERSIONGUID
  2

  9
$EXTNAMES
290
     1
  9
$PSVPSCALE
 40
0.0
  9
$OLESTARTUP
290
     0
  9
$SORTENTS
280
   127
  9
$INDEXCTL
280
     0
  9
$HIDETEXT
280
     1
  9
$XCLIPFRAME
290
     0
  9
$HALOGAP
280
     0
  9
$OBSCOLOR
 70
   257
  9
$OBSLTYPE
280
     0
  9
$INTERSECTIONDISPLAY
280
     0
  9
$INTERSECTIONCOLOR
 70
   257
  9
$DIMASSOC
280
     2
  9
$PROJECTNAME
  1

  9
$CAMERADISPLAY
290
     0
  9
$LENSLENGTH
 40
50.0
  9
$CAMERAHEIGHT
 40
0.0
  9
$STEPSPERSEC
 40
2.0
  9
$STEPSIZE
 40
6.0
  9
$3DDWFPREC
 40
2.0
  9
$PSOLWIDTH
 40
0.25
  9
$PSOLHEIGHT
 40
4.0
  9
$LOFTANG1
 40
1.570796326794897
  9
$LOFTANG2
 40
1.570796326794897
  9
$LOFTMAG1
 40
0.0
  9
$LOFTMAG2
 40
0.0
  9
$LOFTPARAM
 70
     7
  9
$LOFTNORMALS
280
     1
  9
$LATITUDE
 40
37.795
  9
$LONGITUDE
 40
-122.394
  9
$NORTHDIRECTION
 40
0.0
  9
$TIMEZONE
 70
 -8000
  9
$LIGHTGLYPHDISPLAY
280
     1
  9
$TILEMODELIGHTSYNCH
280
     1
  9
$SOLIDHIST
280
     1
  9
$SHOWHIST
280
     1
  9
$DWFFRAME
280
     2
  9
$DGNFRAME
280
     2
  9
$REALWORLDSCALE
290
     1
  9
$INTERFERECOLOR
 62
   256
  9
$CSHADOW
280
     0
  9
$SHADOWPLANELOCATION
 40
0.0
  0
ENDSEC
  0
SECTION
  2
CLASSES
  0
CLASS
  1
LWPOLYLINE
  2
AcDbPolyline
  3
ObjectDBX Classes
 90
        0
 91
        1
280
     0
281
     1
  0
CLASS
  1
IMAGE
  2
AcDbRasterImage
  3
ISM
 90
      127
 91
        4
280
     0
281
     1
  0
CLASS
  1
OLE2FRAME
  2
AcDbOle2Frame
  3
ObjectDBX Classes
 90
        0
 91
        1
280
     0
281
     1
  0
CLASS
  1
HATCH
  2
AcDbHatch
  3
ObjectDBX Classes
 90
        0
 91
        1
280
     0
281
     1
  0
CLASS
  1
DICTIONARYVAR
  2
AcDbDictionaryVar
  3
ObjectDBX Classes
 90
        0
 91
        3
280
     0
281
     0
  0
CLASS
  1
RASTERVARIABLES
  2
AcDbRasterVariables
  3
ISM
 90
        0
 91
        3
280
     0
281
     0
  0
CLASS
  1
IMAGEDEF
  2
AcDbRasterImageDef
  3
ISM
 90
        0
 91
        3
280
     0
281
     0
  0
CLASS
  1
IMAGEDEF_REACTOR
  2
AcDbRasterImageDefReactor
  3
ISM
 90
        1
 91
        3
280
     0
281
     0
  0
CLASS
  1
IDBUFFER
  2
AcDbIdBuffer
  3
ObjectDBX Classes
 90
        0
 91
        3
280
     0
281
     0
  0
CLASS
  1
SPATIAL_FILTER
  2
AcDbSpatialFilter
  3
ObjectDBX Classes
 90
        0
 91
        3
280
     0
281
     0
  0
CLASS
  1
XRECORD
  2
AcDbXrecord
  3
ObjectDBX Classes
 90
        0
 91
        1
280
     0
281
     0
  0
CLASS
  1
SORTENTSTABLE
  2
AcDbSortentsTable
  3
ObjectDBX Classes
 90
        0
 91
        3
280
     0
281
     0
  0
CLASS
  1
LAYER_INDEX
  2
AcDbLayerIndex
  3
ObjectDBX Classes
 90
        0
 91
        3
280
     0
281
     0
  0
CLASS
  1
SPATIAL_INDEX
  2
AcDbSpatialIndex
  3
AutoCAD 2000
 90
        0
 91
        3
280
     0
281
     0
  0
CLASS
  1
OBJECT_PTR
  2
CAseDLPNTableRecord
  3
ASE-LPNTableRecord
 90
        1
 91
        3
280
     0
281
     0
  0
CLASS
  1
LAYOUT
  2
AcDbLayout
  3
ObjectDBX Classes
 90
        0
 91
        1
280
     0
281
     0
  0
CLASS
  1
PLOTSETTINGS
  2
AcDbPlotSettings
  3
ObjectDBX Classes
 90
        0
 91
        3
280
     0
281
     0
  0
CLASS
  1
ACDBDICTIONARYWDFLT
  2
AcDbDictionaryWithDefault
  3
ObjectDBX Classes
 90
        0
 91
        3
280
     0
281
     0
  0
CLASS
  1
ACDBPLACEHOLDER
  2
AcDbPlaceHolder
  3
ObjectDBX Classes
 90
        0
 91
        1
280
     0
281
     0
  0
CLASS
  1
SCALE
  2
AcDbScale
  3
ObjectDBX Classes
 90
     1153
 91
        3
280
     0
281
     0
  0
CLASS
  1
MATERIAL
  2
AcDbMaterial
  3
ObjectDBX Classes
 90
     1153
 91
        3
280
     0
281
     0
  0
CLASS
  1
VISUALSTYLE
  2
AcDbVisualStyle
  3
ObjectDBX Classes
 90
     4095
 91
        3
280
     0
281
     0
  0
CLASS
  1
TABLESTYLE
  2
AcDbTableStyle
  3
ObjectDBX Classes
 90
     4095
 91
        3
280
     0
281
     0
  0
CLASS
  1
DIMASSOC
  2
AcDbDimAssoc
  3
"AcDbDimAssoc|Product Desc:     AcDim ARX App For Dimension|Company:          Autodesk, Inc.|WEB Address:      www.autodesk.com"
 90
        0
 91
        3
280
     0
281
     0
  0
CLASS
  1
CELLSTYLEMAP
  2
AcDbCellStyleMap
  3
ObjectDBX Classes
 90
     1152
 91
        3
280
     0
281
     0
  0
CLASS
  1
SUN
  2
AcDbSun
  3
SCENEOE
 90
     1153
 91
        3
280
     0
281
     0
  0
CLASS
  1
MLEADERSTYLE
  2
AcDbMLeaderStyle
  3
ACDB_MLEADERSTYLE_CLASS
 90
     4095
 91
        3
280
     0
281
     0
  0
CLASS
  1
FIELD
  2
AcDbField
  3
ObjectDBX Classes
 90
     1152
 91
        3
280
     0
281
     0
  0
CLASS
  1
FIELDLIST
  2
AcDbFieldList
  3
ObjectDBX Classes
 90
     1152
 91
        3
280
     0
281
     0
  0
ENDSEC
  0
SECTION
  2
TABLES
  0
TABLE
  2
VPORT
  5
7
330
0
100
AcDbSymbolTable
 70
     1
  0
VPORT
  5
15
330
7
100
AcDbSymbolTableRecord
100
AcDbViewportTableRecord
  2
*ACTIVE
 70
     0
 10
0.0
 20
0.0
 11
1.0
 21
1.0
 12
511.0201356709001
 22
520.401285469834
 13
0.0
 23
0.0
 14
1.0
 24
1.0
 15
0.0
 25
0.0
 16
0.0
 26
0.0
 36
1.0
 17
-91.02013567090012
 27
73.59871453016603
 37
-46.86809886248109
 40
1211.76
 41
2.28134110787172
 42
50.0
 43
0.0
 44
0.0
 50
0.0
 51
0.0
 71
    16
 72
  2000
 73
     1
 74
     1
 75
     0
 76
     0
 77
     0
 78
     0
281
     0
 65
     1
110
0.0
120
0.0
130
0.0
111
1.0
121
0.0
131
0.0
112
0.0
122
1.0
132
0.0
 79
     0
146
0.0
348
26C
 60
     3
 61
     5
292
     1
282
     1
141
0.0
142
0.0
 63
   256
361
904
  0
ENDTAB
  0
TABLE
  2
LTYPE
  5
4
330
0
100
AcDbSymbolTable
 70
     3
  0
LTYPE
  5
11
330
4
100
AcDbSymbolTableRecord
100
AcDbLinetypeTableRecord
  2
ByBlock
 70
     0
  3

 72
    65
 73
     0
 40
0.0
  0
LTYPE
  5
12
330
4
100
AcDbSymbolTableRecord
100
AcDbLinetypeTableRecord
  2
ByLayer
 70
     0
  3

 72
    65
 73
     0
 40
0.0
  0
LTYPE
  5
13
330
4
100
AcDbSymbolTableRecord
100
AcDbLinetypeTableRecord
  2
Continuous
 70
     0
  3
Solid line
 72
    65
 73
     0
 40
0.0
  0
LTYPE
  5
D6C
330
4
100
AcDbSymbolTableRecord
100
AcDbLinetypeTableRecord
  2
BORDER
 70
     0
  3
Border __  __  . __  __  . __  __  . __  __  . 
 72
    65
 73
     6
 40
44.45
 49
12.7
 74
     0
 49
-6.35
 74
     0
 49
12.7
 74
     0
 49
-6.35
 74
     0
 49
0.0
 74
     0
 49
-6.35
 74
     0
  0
LTYPE
  5
8909
330
4
100
AcDbSymbolTableRecord
100
AcDbLinetypeTableRecord
  2
CENTER2
 70
     0
  3
Center (.5x) ___ _ ___ _ ___ _ ___ _ ___ _ ___
 72
    65
 73
     4
 40
28.575
 49
19.05
 74
     4
 75
     0
340
0
 46
0.0
 50
0.0
 44
0.0
 45
0.0
 49
-3.175
 74
     4
 75
     0
340
0
 46
0.0
 50
0.0
 44
0.0
 45
0.0
 49
3.175
 74
     4
 75
     0
340
0
 46
0.0
 50
0.0
 44
0.0
 45
0.0
 49
-3.175
 74
     4
 75
     0
340
0
 46
0.0
 50
0.0
 44
0.0
 45
0.0
  0
ENDTAB
  0
TABLE
  2
LAYER
  5
2
102
{ACAD_XDICTIONARY
360
2E1
102
}
330
0
100
AcDbSymbolTable
 70
     7
  0
LAYER
  5
14
330
2
100
AcDbSymbolTableRecord
100
AcDbLayerTableRecord
  2
0
 70
     0
 62
     7
  6
Continuous
370
    -3
390
1D
347
266
  0
LAYER
  5
4B
330
2
100
AcDbSymbolTableRecord
100
AcDbLayerTableRecord
  2
TEMPLATE
 70
     0
 62
     7
  6
Continuous
370
    20
390
1D
347
266
  0
LAYER
  5
4C
330
2
100
AcDbSymbolTableRecord
100
AcDbLayerTableRecord
  2
DIM
 70
     0
 62
     3
  6
Continuous
370
    13
390
1D
347
266
  0
LAYER
  5
4D
330
2
100
AcDbSymbolTableRecord
100
AcDbLayerTableRecord
  2
MODEL
 70
     0
 62
     7
  6
Continuous
370
    20
390
1D
347
266
  0
LAYER
  5
D6B
330
2
100
AcDbSymbolTableRecord
100
AcDbLayerTableRecord
  2
BORDER
 70
     0
 62
     4
  6
BORDER
290
     0
370
    20
390
1D
347
266
1001
AcAecLayerStandard
1000

1000

  0
LAYER
  5
D8C
330
2
100
AcDbSymbolTableRecord
100
AcDbLayerTableRecord
  2
Defpoints
 70
     0
 62
     7
  6
Continuous
290
     0
370
    -3
390
1D
347
266
  0
LAYER
  5
9E98
330
2
100
AcDbSymbolTableRecord
100
AcDbLayerTableRecord
  2
レイヤー 1
 70
     0
 62
     7
  6
Continuous
370
    -3
390
1D
347
266
  0
ENDTAB
  0
TABLE
  2
STYLE
  5
3
330
0
100
AcDbSymbolTable
 70
     2
  0
STYLE
  5
17
330
3
100
AcDbSymbolTableRecord
100
AcDbTextStyleTableRecord
  2
Standard
 70
     0
 40
0.0
 41
1.0
 50
0.0
 71
     0
 42
2.5
  3
txt
  4
BIGFONT.SHX
  0
STYLE
  5
39
330
3
100
AcDbSymbolTableRecord
100
AcDbTextStyleTableRecord
  2
ＭＳ ゴシック
 70
     0
 40
0.0
 41
1.0
 50
0.0
 71
     0
 42
2.5
  3
msgothic.ttc
  4
ＭＳ ゴシック
1001
ACAD
1000
ＭＳ ゴシック
1071
        0
  0
ENDTAB
  0
TABLE
  2
VIEW
  5
5
330
0
100
AcDbSymbolTable
 70
     0
  0
ENDTAB
  0
TABLE
  2
UCS
  5
6
330
0
100
AcDbSymbolTable
 70
     0
  0
ENDTAB
  0
TABLE
  2
APPID
  5
8
330
0
100
AcDbSymbolTable
 70
     5
  0
APPID
  5
16
330
8
100
AcDbSymbolTableRecord
100
AcDbRegAppTableRecord
  2
ACAD
 70
     0
  0
APPID
  5
7AC
330
8
100
AcDbSymbolTableRecord
100
AcDbRegAppTableRecord
  2
AcAecLayerStandard
 70
     0
  0
APPID
  5
E29
330
8
100
AcDbSymbolTableRecord
100
AcDbRegAppTableRecord
  2
ACAD_MLEADERVER
 70
     0
  0
APPID
  5
94D2
330
8
100
AcDbSymbolTableRecord
100
AcDbRegAppTableRecord
  2
ACAD_DSTYLE_DIMBREAK
 70
     0
  0
APPID
  5
A8F6
330
8
100
AcDbSymbolTableRecord
100
AcDbRegAppTableRecord
  2
PLOTTRANSPARENCY
 70
     0
  0
ENDTAB
  0
TABLE
  2
DIMSTYLE
  5
9
330
0
100
AcDbSymbolTable
 70
     1
100
AcDbDimStyleTable
  0
DIMSTYLE
105
57
102
{ACAD_REACTORS
330
9CED
330
9CEE
330
9CEF
330
9CF0
330
9CF3
330
9CFE
330
9D02
330
9DE0
330
9DE3
330
9DE6
330
9DEA
330
9DF0
330
9DF1
102
}
330
9
100
AcDbSymbolTableRecord
100
AcDbDimStyleTableRecord
  2
tfrom線あり
 70
     0
  3
<>
  4
[]
 41
4.0
 42
5.0
 43
0.9999999999999999
 44
0.0
 73
     0
 74
     0
 77
     1
 78
    11
140
10.0
141
0.0
143
1.0
147
4.0
171
     1
174
     1
178
     0
179
     2
271
     0
272
     1
276
     2
284
    11
285
    11
286
    11
289
     0
340
39
341
4E
342
4E
  0
ENDTAB
  0
TABLE
  2
BLOCK_RECORD
  5
1
330
0
100
AcDbSymbolTable
 70
    16
  0
BLOCK_RECORD
  5
A
102
{ACAD_XDICTIONARY
360
3E3E
102
}
330
1
100
AcDbSymbolTableRecord
100
AcDbBlockTableRecord
  2
*MODEL_SPACE
340
20
 70
     0
280
     1
281
     0
  0
BLOCK_RECORD
  5
B
330
1
100
AcDbSymbolTableRecord
100
AcDbBlockTableRecord
  2
*PAPER_SPACE
340
21
 70
     0
280
     1
281
     0
  0
BLOCK_RECORD
  5
4E
330
1
100
AcDbSymbolTableRecord
100
AcDbBlockTableRecord
  2
_DOT
340
0
102
{BLKREFS
331
9DF8
331
9DF9
331
9E04
331
9E05
331
9E10
331
9E11
331
9E1C
331
9E1D
331
9E2A
331
9E2B
331
9E38
331
9E39
331
9E44
331
9E45
331
9E50
331
9E51
331
9E5C
331
9E5D
331
9E68
331
9E69
331
9E74
331
9E75
331
9E82
331
9E83
331
9E8E
331
9E8F
102
}
 70
     0
280
     1
281
     0
  0
BLOCK_RECORD
  5
68D
330
1
100
AcDbSymbolTableRecord
100
AcDbBlockTableRecord
  2
block 2
340
0
102
{BLKREFS
331
9EC6
331
68C
331
1343
102
}
 70
     0
280
     1
281
     0
  0
BLOCK_RECORD
  5
9DF2
330
1
100
AcDbSymbolTableRecord
100
AcDbBlockTableRecord
  2
*D2
340
0
 70
     0
280
     1
281
     0
  0
BLOCK_RECORD
  5
9DFE
330
1
100
AcDbSymbolTableRecord
100
AcDbBlockTableRecord
  2
*D3
340
0
 70
     0
280
     1
281
     0
  0
BLOCK_RECORD
  5
9E0A
330
1
100
AcDbSymbolTableRecord
100
AcDbBlockTableRecord
  2
*D4
340
0
 70
     0
280
     1
281
     0
  0
BLOCK_RECORD
  5
9E16
330
1
100
AcDbSymbolTableRecord
100
AcDbBlockTableRecord
  2
*D5
340
0
 70
     0
280
     1
281
     0
  0
BLOCK_RECORD
  5
9E24
330
1
100
AcDbSymbolTableRecord
100
AcDbBlockTableRecord
  2
*D6
340
0
 70
     0
280
     1
281
     0
  0
BLOCK_RECORD
  5
9E30
330
1
100
AcDbSymbolTableRecord
100
AcDbBlockTableRecord
  2
*D7
340
0
 70
     0
280
     1
281
     0
  0
BLOCK_RECORD
  5
9E3E
330
1
100
AcDbSymbolTableRecord
100
AcDbBlockTableRecord
  2
*D8
340
0
 70
     0
280
     1
281
     0
  0
BLOCK_RECORD
  5
9E4A
330
1
100
AcDbSymbolTableRecord
100
AcDbBlockTableRecord
  2
*D9
340
0
 70
     0
280
     1
281
     0
  0
BLOCK_RECORD
  5
9E56
330
1
100
AcDbSymbolTableRecord
100
AcDbBlockTableRecord
  2
*D10
340
0
 70
     0
280
     1
281
     0
  0
BLOCK_RECORD
  5
9E62
330
1
100
AcDbSymbolTableRecord
100
AcDbBlockTableRecord
  2
*D11
340
0
 70
     0
280
     1
281
     0
  0
BLOCK_RECORD
  5
9E6E
330
1
100
AcDbSymbolTableRecord
100
AcDbBlockTableRecord
  2
*D12
340
0
 70
     0
280
     1
281
     0
  0
BLOCK_RECORD
  5
9E7A
330
1
100
AcDbSymbolTableRecord
100
AcDbBlockTableRecord
  2
*D13
340
0
 70
     0
280
     1
281
     0
  0
BLOCK_RECORD
  5
9E88
330
1
100
AcDbSymbolTableRecord
100
AcDbBlockTableRecord
  2
*D14
340
0
 70
     0
280
     1
281
     0
  0
BLOCK_RECORD
  5
9EC4
330
1
100
AcDbSymbolTableRecord
100
AcDbBlockTableRecord
  2
名称未設定-1
340
0
102
{BLKREFS
331
A3DE
102
}
 70
     1
280
     1
281
     0
  0
ENDTAB
  0
ENDSEC
  0
SECTION
  2
BLOCKS
  0
BLOCK
  5
D
330
A
100
AcDbEntity
  8
0
390
1D
100
AcDbBlockBegin
  2
*MODEL_SPACE
 70
     0
 10
0.0
 20
0.0
 30
0.0
  3
*MODEL_SPACE
  1
*MODEL_SPACE
  0
ENDBLK
  5
E
330
A
100
AcDbEntity
  8
0
390
1D
100
AcDbBlockEnd
  0
BLOCK
  5
F
330
B
100
AcDbEntity
 67
     1
  8
0
390
1D
100
AcDbBlockBegin
  2
*PAPER_SPACE
 70
     0
 10
0.0
 20
0.0
 30
0.0
  3
*PAPER_SPACE
  1
*PAPER_SPACE
  0
ENDBLK
  5
10
330
B
100
AcDbEntity
 67
     1
  8
0
390
1D
100
AcDbBlockEnd
  0
BLOCK
  5
45BC
330
4E
100
AcDbEntity
  8
0
390
1D
100
AcDbBlockBegin
  2
_DOT
 70
     0
 10
0.0
 20
0.0
 30
0.0
  3
_DOT
  1
_DOT
  0
POLYLINE
  5
45BE
330
4E
100
AcDbEntity
  8
0
  6
ByBlock
 62
     0
370
    -2
390
1D
100
AcDb2dPolyline
 66
     1
 10
0.0
 20
0.0
 30
0.0
 70
     1
 40
0.5
 41
0.5
  0
VERTEX
  5
45BF
330
45BE
100
AcDbEntity
  8
0
  6
ByBlock
 62
     0
370
    -2
390
1D
100
AcDbVertex
100
AcDb2dVertex
 10
-0.25
 20
0.0
 30
0.0
 42
1.0
  0
VERTEX
  5
45C0
330
45BE
100
AcDbEntity
  8
0
  6
ByBlock
 62
     0
370
    -2
390
1D
100
AcDbVertex
100
AcDb2dVertex
 10
0.25
 20
0.0
 30
0.0
 42
1.0
  0
SEQEND
  5
45C1
330
45BE
100
AcDbEntity
  8
0
390
1D
  0
LINE
  5
45C2
330
4E
100
AcDbEntity
  8
0
  6
ByBlock
 62
     0
370
    -2
390
1D
100
AcDbLine
 10
-0.5
 20
0.0
 30
0.0
 11
-1.0
 21
0.0
 31
0.0
  0
ENDBLK
  5
45C3
330
4E
100
AcDbEntity
  8
0
390
1D
100
AcDbBlockEnd
  0
BLOCK
  5
68E
330
68D
100
AcDbEntity
  8
0
100
AcDbBlockBegin
  2
block 2
 70
     0
 10
0.0
 20
0.0
 30
0.0
  3
block 2
  1
block 2
  0
ENDBLK
  5
6B0
330
68D
100
AcDbEntity
  8
0
100
AcDbBlockEnd
  0
BLOCK
  5
9DF3
330
9DF2
100
AcDbEntity
  8
0
100
AcDbBlockBegin
  2
*D2
 70
     1
 10
0.0
 20
0.0
 30
0.0
  3
*D2
  1

  0
LINE
  5
9DF5
330
9DF2
100
AcDbEntity
  8
DIM
  6
Continuous
 62
     0
370
    -2
100
AcDbLine
 10
205.2246949958819
 20
570.2548738458279
 30
0.0
 11
271.646339393013
 21
570.2548738458279
 31
0.0
  0
LINE
  5
9DF6
330
9DF2
100
AcDbEntity
  8
DIM
  6
Continuous
 62
     0
370
    -2
100
AcDbLine
 10
205.2246949958819
 20
742.2548738458279
 30
0.0
 11
271.646339393013
 21
742.2548738458279
 31
0.0
  0
LINE
  5
9DF7
330
9DF2
100
AcDbEntity
  8
DIM
  6
Continuous
 62
     0
370
    -2
100
AcDbLine
 10
271.646339393013
 20
574.2548738458279
 30
0.0
 11
271.646339393013
 21
738.2548738458279
 31
0.0
  0
INSERT
  5
9DF8
330
9DF2
100
AcDbEntity
  8
DIM
 62
     0
370
    -2
100
AcDbBlockReference
  2
_DOT
 10
271.646339393013
 20
570.2548738458279
 30
0.0
 41
4.0
 42
4.0
 43
4.0
 50
270.0
  0
INSERT
  5
9DF9
330
9DF2
100
AcDbEntity
  8
DIM
 62
     0
370
    -2
100
AcDbBlockReference
  2
_DOT
 10
271.646339393013
 20
742.2548738458279
 30
0.0
 41
4.0
 42
4.0
 43
4.0
 50
90.0
  0
MTEXT
  5
9DFA
330
9DF2
100
AcDbEntity
  8
DIM
 62
     0
100
AcDbMText
 10
262.6444636896242
 20
656.2548738458279
 30
0.0
 40
10.0
 41
0.0
 46
0.0
 71
     5
 72
     1
  1
\A1;172
  7
ＭＳ ゴシック
 11
0.0
 21
1.0
 31
0.0
 73
     1
 44
1.0
  0
POINT
  5
9DFB
330
9DF2
100
AcDbEntity
  8
Defpoints
 62
     0
100
AcDbPoint
 10
200.2246949958819
 20
570.2548738458279
 30
0.0
  0
POINT
  5
9DFC
330
9DF2
100
AcDbEntity
  8
Defpoints
 62
     0
100
AcDbPoint
 10
200.2246949958819
 20
742.2548738458279
 30
0.0
  0
POINT
  5
9DFD
330
9DF2
100
AcDbEntity
  8
Defpoints
 62
     0
100
AcDbPoint
 10
271.646339393013
 20
742.2548738458279
 30
0.0
  0
ENDBLK
  5
9DF4
330
9DF2
100
AcDbEntity
  8
0
100
AcDbBlockEnd
  0
BLOCK
  5
9DFF
330
9DFE
100
AcDbEntity
  8
0
100
AcDbBlockBegin
  2
*D3
 70
     1
 10
0.0
 20
0.0
 30
0.0
  3
*D3
  1

  0
LINE
  5
9E01
330
9DFE
100
AcDbEntity
  8
DIM
  6
Continuous
 62
     0
370
    -2
100
AcDbLine
 10
487.255509866598
 20
746.8548729317929
 30
0.0
 11
487.255509866598
 21
808.1742228660346
 31
0.0
  0
LINE
  5
9E02
330
9DFE
100
AcDbEntity
  8
DIM
  6
Continuous
 62
     0
370
    -2
100
AcDbLine
 10
602.255509866598
 20
672.7961108660345
 30
0.0
 11
602.255509866598
 21
808.1742228660346
 31
0.0
  0
LINE
  5
9E03
330
9DFE
100
AcDbEntity
  8
DIM
  6
Continuous
 62
     0
370
    -2
100
AcDbLine
 10
491.255509866598
 20
808.1742228660346
 30
0.0
 11
598.255509866598
 21
808.1742228660346
 31
0.0
  0
INSERT
  5
9E04
330
9DFE
100
AcDbEntity
  8
DIM
 62
     0
370
    -2
100
AcDbBlockReference
  2
_DOT
 10
487.255509866598
 20
808.1742228660346
 30
0.0
 41
4.0
 42
4.0
 43
4.0
 50
180.0
  0
INSERT
  5
9E05
330
9DFE
100
AcDbEntity
  8
DIM
 62
     0
370
    -2
100
AcDbBlockReference
  2
_DOT
 10
602.255509866598
 20
808.1742228660346
 30
0.0
 41
4.0
 42
4.0
 43
4.0
  0
MTEXT
  5
9E06
330
9DFE
100
AcDbEntity
  8
DIM
 62
     0
100
AcDbMText
 10
544.755509866598
 20
817.1760985694234
 30
0.0
 40
10.0
 41
0.0
 46
0.0
 71
     5
 72
     1
  1
\A1;115
  7
ＭＳ ゴシック
 73
     1
 44
1.0
  0
POINT
  5
9E07
330
9DFE
100
AcDbEntity
  8
Defpoints
 62
     0
100
AcDbPoint
 10
487.255509866598
 20
741.8548729317929
 30
0.0
  0
POINT
  5
9E08
330
9DFE
100
AcDbEntity
  8
Defpoints
 62
     0
100
AcDbPoint
 10
602.255509866598
 20
667.7961108660345
 30
0.0
  0
POINT
  5
9E09
330
9DFE
100
AcDbEntity
  8
Defpoints
 62
     0
100
AcDbPoint
 10
602.255509866598
 20
808.1742228660346
 30
0.0
  0
ENDBLK
  5
9E00
330
9DFE
100
AcDbEntity
  8
0
100
AcDbBlockEnd
  0
BLOCK
  5
9E0B
330
9E0A
100
AcDbEntity
  8
0
100
AcDbBlockBegin
  2
*D4
 70
     1
 10
0.0
 20
0.0
 30
0.0
  3
*D4
  1

  0
LINE
  5
9E0D
330
9E0A
100
AcDbEntity
  8
DIM
  6
Continuous
 62
     0
370
    -2
100
AcDbLine
 10
517.5555128063036
 20
570.2548738458279
 30
0.0
 11
725.4017636583217
 21
570.2548738458279
 31
0.0
  0
LINE
  5
9E0E
330
9E0A
100
AcDbEntity
  8
DIM
  6
Continuous
 62
     0
370
    -2
100
AcDbLine
 10
608.9108885455944
 20
643.2548738458279
 30
0.0
 11
725.4017636583217
 21
643.2548738458279
 31
0.0
  0
LINE
  5
9E0F
330
9E0A
100
AcDbEntity
  8
DIM
  6
Continuous
 62
     0
370
    -2
100
AcDbLine
 10
725.4017636583217
 20
574.2548738458279
 30
0.0
 11
725.4017636583217
 21
639.2548738458279
 31
0.0
  0
INSERT
  5
9E10
330
9E0A
100
AcDbEntity
  8
DIM
 62
     0
370
    -2
100
AcDbBlockReference
  2
_DOT
 10
725.4017636583217
 20
570.2548738458279
 30
0.0
 41
4.0
 42
4.0
 43
4.0
 50
270.0
  0
INSERT
  5
9E11
330
9E0A
100
AcDbEntity
  8
DIM
 62
     0
370
    -2
100
AcDbBlockReference
  2
_DOT
 10
725.4017636583217
 20
643.2548738458279
 30
0.0
 41
4.0
 42
4.0
 43
4.0
 50
90.0
  0
MTEXT
  5
9E12
330
9E0A
100
AcDbEntity
  8
DIM
 62
     0
100
AcDbMText
 10
716.3998879549329
 20
606.7548738458279
 30
0.0
 40
10.0
 41
0.0
 46
0.0
 71
     5
 72
     1
  1
\A1;73
  7
ＭＳ ゴシック
 11
0.0
 21
1.0
 31
0.0
 73
     1
 44
1.0
  0
POINT
  5
9E13
330
9E0A
100
AcDbEntity
  8
Defpoints
 62
     0
100
AcDbPoint
 10
512.5555128063036
 20
570.2548738458279
 30
0.0
  0
POINT
  5
9E14
330
9E0A
100
AcDbEntity
  8
Defpoints
 62
     0
100
AcDbPoint
 10
603.9108885455944
 20
643.2548738458279
 30
0.0
  0
POINT
  5
9E15
330
9E0A
100
AcDbEntity
  8
Defpoints
 62
     0
100
AcDbPoint
 10
725.4017636583217
 20
643.2548738458279
 30
0.0
  0
ENDBLK
  5
9E0C
330
9E0A
100
AcDbEntity
  8
0
100
AcDbBlockEnd
  0
BLOCK
  5
9E17
330
9E16
100
AcDbEntity
  8
0
100
AcDbBlockBegin
  2
*D5
 70
     1
 10
0.0
 20
0.0
 30
0.0
  3
*D5
  1

  0
LINE
  5
9E19
330
9E16
100
AcDbEntity
  8
DIM
  6
Continuous
 62
     0
370
    -2
100
AcDbLine
 10
603.2727834211589
 20
632.0247101397308
 30
0.0
 11
603.2727834211589
 21
585.6305653596561
 31
0.0
  0
LINE
  5
9E1A
330
9E16
100
AcDbEntity
  8
DIM
  6
Continuous
 62
     0
370
    -2
100
AcDbLine
 10
608.1180761797524
 20
633.3356157772898
 30
0.0
 11
631.3214436652427
 21
593.1461767442754
 31
0.0
  0
ARC
  5
9E1B
330
9E16
100
AcDbEntity
  8
DIM
  6
Continuous
 62
     0
370
    -2
100
AcDbCircle
 10
603.2727834211589
 20
641.7279147847668
 30
0.0
 40
56.09734942511067
100
AcDbArc
 50
274.0863195880773
 51
295.9136633482593
  0
INSERT
  5
9E1C
330
9E16
100
AcDbEntity
  8
DIM
 62
     0
370
    -2
100
AcDbBlockReference
  2
_DOT
 10
603.2727834211589
 20
585.6305653596561
 30
0.0
 41
4.0
 42
4.0
 43
4.0
 50
182.0431597940386
  0
INSERT
  5
9E1D
330
9E16
100
AcDbEntity
  8
DIM
 62
     0
370
    -2
100
AcDbBlockReference
  2
_DOT
 10
631.3214436652427
 20
593.1461767442754
 30
0.0
 41
4.0
 42
4.0
 43
4.0
 50
27.95682314229764
  0
MTEXT
  5
9E1E
330
9E16
100
AcDbEntity
  8
DIM
 62
     0
100
AcDbMText
 10
615.4164898351123
 20
596.4069584609772
 30
0.0
 40
10.0
 41
0.0
 46
0.0
 71
     5
 72
     1
  1
\A1;30%%d
  7
ＭＳ ゴシック
 11
0.9659258648294335
 21
0.2588189012678762
 31
0.0
 73
     1
 44
1.0
  0
POINT
  5
9E1F
330
9E16
100
AcDbEntity
  8
Defpoints
 62
     0
100
AcDbPoint
 10
613.0139804364618
 20
586.4828091804508
 30
0.0
  0
POINT
  5
9E20
330
9E16
100
AcDbEntity
  8
Defpoints
 62
     0
100
AcDbPoint
 10
603.2727834211589
 20
641.1154573051319
 30
0.0
  0
POINT
  5
9E21
330
9E16
100
AcDbEntity
  8
Defpoints
 62
     0
100
AcDbPoint
 10
603.5379851524094
 20
641.268571596059
 30
0.0
  0
POINT
  5
9E22
330
9E16
100
AcDbEntity
  8
Defpoints
 62
     0
100
AcDbPoint
 10
605.6180774693385
 20
637.6657435407546
 30
0.0
  0
POINT
  5
9E23
330
9E16
100
AcDbEntity
  8
Defpoints
 62
     0
100
AcDbPoint
 10
603.2727834211589
 20
637.0247101397308
 30
0.0
  0
ENDBLK
  5
9E18
330
9E16
100
AcDbEntity
  8
0
100
AcDbBlockEnd
  0
BLOCK
  5
9E25
330
9E24
100
AcDbEntity
  8
0
100
AcDbBlockBegin
  2
*D6
 70
     1
 10
0.0
 20
0.0
 30
0.0
  3
*D6
  1

  0
LINE
  5
9E27
330
9E24
100
AcDbEntity
  8
DIM
  6
Continuous
 62
     0
370
    -2
100
AcDbLine
 10
456.9555128063037
 20
570.2548738458279
 30
0.0
 11
378.7074807683225
 21
570.2548738458279
 31
0.0
  0
LINE
  5
9E28
330
9E24
100
AcDbEntity
  8
DIM
  6
Continuous
 62
     0
370
    -2
100
AcDbLine
 10
473.8286417811109
 20
327.3662208215314
 30
0.0
 11
378.7074807683225
 21
327.3662208215314
 31
0.0
  0
LINE
  5
9E29
330
9E24
100
AcDbEntity
  8
DIM
  6
Continuous
 62
     0
370
    -2
100
AcDbLine
 10
378.7074807683225
 20
566.2548738458279
 30
0.0
 11
378.7074807683225
 21
331.3662208215314
 31
0.0
  0
INSERT
  5
9E2A
330
9E24
100
AcDbEntity
  8
DIM
 62
     0
370
    -2
100
AcDbBlockReference
  2
_DOT
 10
378.7074807683225
 20
570.2548738458279
 30
0.0
 41
4.0
 42
4.0
 43
4.0
 50
90.0
  0
INSERT
  5
9E2B
330
9E24
100
AcDbEntity
  8
DIM
 62
     0
370
    -2
100
AcDbBlockReference
  2
_DOT
 10
378.7074807683225
 20
327.3662208215314
 30
0.0
 41
4.0
 42
4.0
 43
4.0
 50
270.0
  0
MTEXT
  5
9E2C
330
9E24
100
AcDbEntity
  8
DIM
 62
     0
100
AcDbMText
 10
369.7056050649338
 20
448.8105473336797
 30
0.0
 40
10.0
 41
0.0
 46
0.0
 71
     5
 72
     1
  1
\A1;350
  7
ＭＳ ゴシック
 11
0.0
 21
1.0
 31
0.0
 73
     1
 44
1.0
  0
POINT
  5
9E2D
330
9E24
100
AcDbEntity
  8
Defpoints
 62
     0
100
AcDbPoint
 10
461.9555128063037
 20
570.2548738458279
 30
0.0
  0
POINT
  5
9E2E
330
9E24
100
AcDbEntity
  8
Defpoints
 62
     0
100
AcDbPoint
 10
478.8286417811109
 20
327.3662208215314
 30
0.0
  0
POINT
  5
9E2F
330
9E24
100
AcDbEntity
  8
Defpoints
 62
     0
100
AcDbPoint
 10
378.7074807683225
 20
327.3662208215314
 30
0.0
  0
ENDBLK
  5
9E26
330
9E24
100
AcDbEntity
  8
0
100
AcDbBlockEnd
  0
BLOCK
  5
9E31
330
9E30
100
AcDbEntity
  8
0
100
AcDbBlockBegin
  2
*D7
 70
     1
 10
0.0
 20
0.0
 30
0.0
  3
*D7
  1

  0
LINE
  5
9E33
330
9E30
100
AcDbEntity
  8
DIM
 62
     0
370
    -2
100
AcDbLine
 10
513.1555098665976
 20
530.2548738458279
 30
0.0
 11
553.1752913197761
 21
530.2548738458279
 31
0.0
  0
LINE
  5
9E34
330
9E30
100
AcDbEntity
  8
DIM
 62
     0
370
    -2
100
AcDbLine
 10
514.7555098665975
 20
570.2548738458279
 30
0.0
 11
553.1752913197761
 21
570.2548738458279
 31
0.0
  0
LINE
  5
9E35
330
9E30
100
AcDbEntity
  8
DIM
 62
     0
370
    -2
100
AcDbLine
 10
553.1752913197761
 20
530.2548738458279
 30
0.0
 11
553.1752913197761
 21
469.4504159241073
 31
0.0
  0
LINE
  5
9E36
330
9E30
100
AcDbEntity
  8
DIM
 62
     0
370
    -2
100
AcDbLine
 10
553.1752913197761
 20
534.2548738458279
 30
0.0
 11
553.1752913197761
 21
566.2548738458279
 31
0.0
  0
LINE
  5
9E37
330
9E30
100
AcDbEntity
  8
DIM
 62
     0
370
    -2
100
AcDbLine
 10
553.1752913197761
 20
534.2548738458279
 30
0.0
 11
553.1752913197761
 21
538.2548738458279
 31
0.0
  0
INSERT
  5
9E38
330
9E30
100
AcDbEntity
  8
DIM
 62
     0
370
    -2
100
AcDbBlockReference
  2
_DOT
 10
553.1752913197761
 20
530.2548738458279
 30
0.0
 41
4.0
 42
4.0
 43
4.0
 50
270.0
  0
INSERT
  5
9E39
330
9E30
100
AcDbEntity
  8
DIM
 62
     0
370
    -2
100
AcDbBlockReference
  2
_DOT
 10
553.1752913197761
 20
570.2548738458279
 30
0.0
 41
4.0
 42
4.0
 43
4.0
 50
90.0
  0
MTEXT
  5
9E3A
330
9E30
100
AcDbEntity
  8
DIM
 62
     0
100
AcDbMText
 10
544.1752913197761
 20
495.8526448849676
 30
0.0
 40
10.0
 41
0.0
 46
0.0
 71
     5
 72
     1
  1
\A1;max. 40
  7
ＭＳ ゴシック
 11
0.0
 21
1.0
 31
0.0
 73
     1
 44
1.0
  0
POINT
  5
9E3B
330
9E30
100
AcDbEntity
  8
Defpoints
 62
     0
100
AcDbPoint
 10
508.1555098665976
 20
530.2548738458279
 30
0.0
  0
POINT
  5
9E3C
330
9E30
100
AcDbEntity
  8
Defpoints
 62
     0
100
AcDbPoint
 10
509.7555098665975
 20
570.2548738458279
 30
0.0
  0
POINT
  5
9E3D
330
9E30
100
AcDbEntity
  8
Defpoints
 62
     0
100
AcDbPoint
 10
553.1752913197761
 20
570.2548738458279
 30
0.0
  0
ENDBLK
  5
9E32
330
9E30
100
AcDbEntity
  8
0
100
AcDbBlockEnd
  0
BLOCK
  5
9E3F
330
9E3E
100
AcDbEntity
  8
0
100
AcDbBlockBegin
  2
*D8
 70
     1
 10
0.0
 20
0.0
 30
0.0
  3
*D8
  1

  0
LINE
  5
9E41
330
9E3E
100
AcDbEntity
  8
DIM
 62
     0
370
    -2
100
AcDbLine
 10
476.4741778336681
 20
744.6150004404592
 30
0.0
 11
378.7074807683225
 21
744.6150004404592
 31
0.0
  0
LINE
  5
9E42
330
9E3E
100
AcDbEntity
  8
DIM
 62
     0
370
    -2
100
AcDbLine
 10
456.9555128063037
 20
570.2548738458279
 30
0.0
 11
378.7074807683225
 21
570.2548738458279
 31
0.0
  0
LINE
  5
9E43
330
9E3E
100
AcDbEntity
  8
DIM
 62
     0
370
    -2
100
AcDbLine
 10
378.7074807683225
 20
740.6150004404592
 30
0.0
 11
378.7074807683225
 21
574.2548738458279
 31
0.0
  0
INSERT
  5
9E44
330
9E3E
100
AcDbEntity
  8
DIM
 62
     0
370
    -2
100
AcDbBlockReference
  2
_DOT
 10
378.7074807683225
 20
744.6150004404592
 30
0.0
 41
4.0
 42
4.0
 43
4.0
 50
90.0
  0
INSERT
  5
9E45
330
9E3E
100
AcDbEntity
  8
DIM
 62
     0
370
    -2
100
AcDbBlockReference
  2
_DOT
 10
378.7074807683225
 20
570.2548738458279
 30
0.0
 41
4.0
 42
4.0
 43
4.0
 50
270.0
  0
MTEXT
  5
9E46
330
9E3E
100
AcDbEntity
  8
DIM
 62
     0
100
AcDbMText
 10
369.7056050649337
 20
657.4349371431435
 30
0.0
 40
10.0
 41
0.0
 46
0.0
 71
     5
 72
     1
  1
\A1;174
  7
ＭＳ ゴシック
 11
0.0
 21
1.0
 31
0.0
 73
     1
 44
1.0
  0
POINT
  5
9E47
330
9E3E
100
AcDbEntity
  8
Defpoints
 62
     0
100
AcDbPoint
 10
481.4741778336681
 20
744.6150004404592
 30
0.0
  0
POINT
  5
9E48
330
9E3E
100
AcDbEntity
  8
Defpoints
 62
     0
100
AcDbPoint
 10
461.9555128063037
 20
570.2548738458279
 30
0.0
  0
POINT
  5
9E49
330
9E3E
100
AcDbEntity
  8
Defpoints
 62
     0
100
AcDbPoint
 10
378.7074807683225
 20
570.2548738458279
 30
0.0
  0
ENDBLK
  5
9E40
330
9E3E
100
AcDbEntity
  8
0
100
AcDbBlockEnd
  0
BLOCK
  5
9E4B
330
9E4A
100
AcDbEntity
  8
0
100
AcDbBlockBegin
  2
*D9
 70
     1
 10
0.0
 20
0.0
 30
0.0
  3
*D9
  1

  0
LINE
  5
9E4D
330
9E4A
100
AcDbEntity
  8
DIM
 62
     0
370
    -2
100
AcDbLine
 10
606.8927620734826
 20
520.6826208293505
 30
0.0
 11
606.8927620734826
 21
548.7098915787437
 31
0.0
  0
LINE
  5
9E4E
330
9E4A
100
AcDbEntity
  8
DIM
 62
     0
370
    -2
100
AcDbLine
 10
669.9027620734826
 20
520.6826218272154
 30
0.0
 11
669.9027620734826
 21
548.7098915787437
 31
0.0
  0
LINE
  5
9E4F
330
9E4A
100
AcDbEntity
  8
DIM
 62
     0
370
    -2
100
AcDbLine
 10
610.8927620734826
 20
548.7098915787437
 30
0.0
 11
665.9027620734826
 21
548.7098915787437
 31
0.0
  0
INSERT
  5
9E50
330
9E4A
100
AcDbEntity
  8
DIM
 62
     0
370
    -2
100
AcDbBlockReference
  2
_DOT
 10
606.8927620734826
 20
548.7098915787437
 30
0.0
 41
4.0
 42
4.0
 43
4.0
 50
180.0
  0
INSERT
  5
9E51
330
9E4A
100
AcDbEntity
  8
DIM
 62
     0
370
    -2
100
AcDbBlockReference
  2
_DOT
 10
669.9027620734826
 20
548.7098915787437
 30
0.0
 41
4.0
 42
4.0
 43
4.0
  0
MTEXT
  5
9E52
330
9E4A
100
AcDbEntity
  8
DIM
 62
     0
100
AcDbMText
 10
638.3977620734826
 20
557.7117672821325
 30
0.0
 40
10.0
 41
0.0
 46
0.0
 71
     5
 72
     1
  1
\A1;%%c63
  7
ＭＳ ゴシック
 73
     1
 44
1.0
  0
POINT
  5
9E53
330
9E4A
100
AcDbEntity
  8
Defpoints
 62
     0
100
AcDbPoint
 10
606.8927620734826
 20
515.6826208293505
 30
0.0
  0
POINT
  5
9E54
330
9E4A
100
AcDbEntity
  8
Defpoints
 62
     0
100
AcDbPoint
 10
669.9027620734826
 20
515.6826218272154
 30
0.0
  0
POINT
  5
9E55
330
9E4A
100
AcDbEntity
  8
Defpoints
 62
     0
100
AcDbPoint
 10
669.9027620734826
 20
548.7098915787437
 30
0.0
  0
ENDBLK
  5
9E4C
330
9E4A
100
AcDbEntity
  8
0
100
AcDbBlockEnd
  0
BLOCK
  5
9E57
330
9E56
100
AcDbEntity
  8
0
100
AcDbBlockBegin
  2
*D10
 70
     1
 10
0.0
 20
0.0
 30
0.0
  3
*D10
  1

  0
LINE
  5
9E59
330
9E56
100
AcDbEntity
  8
DIM
 62
     0
370
    -2
100
AcDbLine
 10
617.4427634493322
 20
423.8048216485004
 30
0.0
 11
617.4427634493322
 21
386.782176941931
 31
0.0
  0
LINE
  5
9E5A
330
9E56
100
AcDbEntity
  8
DIM
 62
     0
370
    -2
100
AcDbLine
 10
659.3527634493325
 20
423.8048223122127
 30
0.0
 11
659.3527634493325
 21
386.782176941931
 31
0.0
  0
LINE
  5
9E5B
330
9E56
100
AcDbEntity
  8
DIM
 62
     0
370
    -2
100
AcDbLine
 10
621.4427634493322
 20
386.782176941931
 30
0.0
 11
655.3527634493325
 21
386.782176941931
 31
0.0
  0
INSERT
  5
9E5C
330
9E56
100
AcDbEntity
  8
DIM
 62
     0
370
    -2
100
AcDbBlockReference
  2
_DOT
 10
617.4427634493322
 20
386.782176941931
 30
0.0
 41
4.0
 42
4.0
 43
4.0
 50
180.0
  0
INSERT
  5
9E5D
330
9E56
100
AcDbEntity
  8
DIM
 62
     0
370
    -2
100
AcDbBlockReference
  2
_DOT
 10
659.3527634493325
 20
386.782176941931
 30
0.0
 41
4.0
 42
4.0
 43
4.0
  0
MTEXT
  5
9E5E
330
9E56
100
AcDbEntity
  8
DIM
 62
     0
100
AcDbMText
 10
638.3977634493324
 20
396.8494521701416
 30
0.0
 40
10.0
 41
0.0
 46
0.0
 71
     5
 72
     1
  1
\A1;G1 1/4"
  7
ＭＳ ゴシック
 73
     1
 44
1.0
  0
POINT
  5
9E5F
330
9E56
100
AcDbEntity
  8
Defpoints
 62
     0
100
AcDbPoint
 10
617.4427634493322
 20
428.8048216485004
 30
0.0
  0
POINT
  5
9E60
330
9E56
100
AcDbEntity
  8
Defpoints
 62
     0
100
AcDbPoint
 10
659.3527634493325
 20
428.8048223122127
 30
0.0
  0
POINT
  5
9E61
330
9E56
100
AcDbEntity
  8
Defpoints
 62
     0
100
AcDbPoint
 10
659.3527634493325
 20
386.782176941931
 30
0.0
  0
ENDBLK
  5
9E58
330
9E56
100
AcDbEntity
  8
0
100
AcDbBlockEnd
  0
BLOCK
  5
9E63
330
9E62
100
AcDbEntity
  8
0
100
AcDbBlockBegin
  2
*D11
 70
     1
 10
0.0
 20
0.0
 30
0.0
  3
*D11
  1

  0
LINE
  5
9E65
330
9E62
100
AcDbEntity
  8
DIM
 62
     0
370
    -2
100
AcDbLine
 10
669.8795105765603
 20
480.3548345855022
 30
0.0
 11
723.8145240190333
 21
480.3548345855022
 31
0.0
  0
LINE
  5
9E66
330
9E62
100
AcDbEntity
  8
DIM
 62
     0
370
    -2
100
AcDbLine
 10
674.3305492265824
 20
516.2548346559913
 30
0.0
 11
723.8145240190333
 21
516.2548346559913
 31
0.0
  0
LINE
  5
9E67
330
9E62
100
AcDbEntity
  8
DIM
 62
     0
370
    -2
100
AcDbLine
 10
723.8145240190333
 20
484.3548345855022
 30
0.0
 11
723.8145240190333
 21
512.2548346559913
 31
0.0
  0
INSERT
  5
9E68
330
9E62
100
AcDbEntity
  8
DIM
 62
     0
370
    -2
100
AcDbBlockReference
  2
_DOT
 10
723.8145240190333
 20
480.3548345855022
 30
0.0
 41
4.0
 42
4.0
 43
4.0
 50
270.0
  0
INSERT
  5
9E69
330
9E62
100
AcDbEntity
  8
DIM
 62
     0
370
    -2
100
AcDbBlockReference
  2
_DOT
 10
723.8145240190333
 20
516.2548346559913
 30
0.0
 41
4.0
 42
4.0
 43
4.0
 50
90.0
  0
MTEXT
  5
9E6A
330
9E62
100
AcDbEntity
  8
DIM
 62
     0
100
AcDbMText
 10
714.8145240190333
 20
498.3048346207468
 30
0.0
 40
10.0
 41
0.0
 46
0.0
 71
     5
 72
     1
  1
\A1; 
  7
ＭＳ ゴシック
 11
0.0
 21
1.0
 31
0.0
 73
     1
 44
1.0
  0
POINT
  5
9E6B
330
9E62
100
AcDbEntity
  8
Defpoints
 62
     0
100
AcDbPoint
 10
664.8795105765603
 20
480.3548345855022
 30
0.0
  0
POINT
  5
9E6C
330
9E62
100
AcDbEntity
  8
Defpoints
 62
     0
100
AcDbPoint
 10
669.3305492265824
 20
516.2548346559913
 30
0.0
  0
POINT
  5
9E6D
330
9E62
100
AcDbEntity
  8
Defpoints
 62
     0
100
AcDbPoint
 10
723.8145240190333
 20
516.2548346559913
 30
0.0
  0
ENDBLK
  5
9E64
330
9E62
100
AcDbEntity
  8
0
100
AcDbBlockEnd
  0
BLOCK
  5
9E6F
330
9E6E
100
AcDbEntity
  8
0
100
AcDbBlockBegin
  2
*D12
 70
     1
 10
0.0
 20
0.0
 30
0.0
  3
*D12
  1

  0
LINE
  5
9E71
330
9E6E
100
AcDbEntity
  8
DIM
 62
     0
370
    -2
100
AcDbLine
 10
638.3977724169383
 20
347.6056468934449
 30
0.0
 11
638.3977724169383
 21
230.9890068934449
 31
0.0
  0
LINE
  5
9E72
330
9E6E
100
AcDbEntity
  8
DIM
 62
     0
370
    -2
100
AcDbLine
 10
489.4745204338333
 20
271.8155668934449
 30
0.0
 11
489.4745204338333
 21
230.9890068934449
 31
0.0
  0
LINE
  5
9E73
330
9E6E
100
AcDbEntity
  8
DIM
 62
     0
370
    -2
100
AcDbLine
 10
634.3977724169383
 20
230.9890068934449
 30
0.0
 11
493.4745204338333
 21
230.9890068934449
 31
0.0
  0
INSERT
  5
9E74
330
9E6E
100
AcDbEntity
  8
DIM
 62
     0
370
    -2
100
AcDbBlockReference
  2
_DOT
 10
638.3977724169383
 20
230.9890068934449
 30
0.0
 41
4.0
 42
4.0
 43
4.0
  0
INSERT
  5
9E75
330
9E6E
100
AcDbEntity
  8
DIM
 62
     0
370
    -2
100
AcDbBlockReference
  2
_DOT
 10
489.4745204338333
 20
230.9890068934449
 30
0.0
 41
4.0
 42
4.0
 43
4.0
 50
180.0
  0
MTEXT
  5
9E76
330
9E6E
100
AcDbEntity
  8
DIM
 62
     0
100
AcDbMText
 10
563.9361464253858
 20
239.9908825968336
 30
0.0
 40
10.0
 41
0.0
 46
0.0
 71
     5
 72
     1
  1
\A1;Max 180
  7
ＭＳ ゴシック
 73
     1
 44
1.0
  0
POINT
  5
9E77
330
9E6E
100
AcDbEntity
  8
Defpoints
 62
     0
100
AcDbPoint
 10
638.3977724169383
 20
352.6056468934449
 30
0.0
  0
POINT
  5
9E78
330
9E6E
100
AcDbEntity
  8
Defpoints
 62
     0
100
AcDbPoint
 10
489.4745204338333
 20
276.8155668934449
 30
0.0
  0
POINT
  5
9E79
330
9E6E
100
AcDbEntity
  8
Defpoints
 62
     0
100
AcDbPoint
 10
489.4745204338333
 20
230.9890068934449
 30
0.0
  0
ENDBLK
  5
9E70
330
9E6E
100
AcDbEntity
  8
0
100
AcDbBlockEnd
  0
BLOCK
  5
9E7B
330
9E7A
100
AcDbEntity
  8
0
100
AcDbBlockBegin
  2
*D13
 70
     1
 10
0.0
 20
0.0
 30
0.0
  3
*D13
  1

  0
LINE
  5
9E7D
330
9E7A
100
AcDbEntity
  8
DIM
 62
     0
370
    -2
100
AcDbLine
 10
662.8737637034915
 20
428.2548343720192
 30
0.0
 11
690.1386085155975
 21
428.2548343720192
 31
0.0
  0
LINE
  5
9E7E
330
9E7A
100
AcDbEntity
  8
DIM
 62
     0
370
    -2
100
AcDbLine
 10
665.4027632513744
 20
441.3048345146057
 30
0.0
 11
690.1386085155975
 21
441.3048345146057
 31
0.0
  0
LINE
  5
9E7F
330
9E7A
100
AcDbEntity
  8
DIM
 62
     0
370
    -2
100
AcDbLine
 10
690.1386085155975
 20
441.3048345146057
 30
0.0
 11
690.1386085155975
 21
468.5266989637741
 31
0.0
  0
LINE
  5
9E80
330
9E7A
100
AcDbEntity
  8
DIM
 62
     0
370
    -2
100
AcDbLine
 10
690.1386085155975
 20
432.2548343720192
 30
0.0
 11
690.1386085155975
 21
437.3048345146057
 31
0.0
  0
LINE
  5
9E81
330
9E7A
100
AcDbEntity
  8
DIM
 62
     0
370
    -2
100
AcDbLine
 10
690.1386085155975
 20
437.3048345146057
 30
0.0
 11
690.1386085155975
 21
433.3048345146057
 31
0.0
  0
INSERT
  5
9E82
330
9E7A
100
AcDbEntity
  8
DIM
 62
     0
370
    -2
100
AcDbBlockReference
  2
_DOT
 10
690.1386085155975
 20
428.2548343720192
 30
0.0
 41
4.0
 42
4.0
 43
4.0
 50
270.0
  0
INSERT
  5
9E83
330
9E7A
100
AcDbEntity
  8
DIM
 62
     0
370
    -2
100
AcDbBlockReference
  2
_DOT
 10
690.1386085155975
 20
441.3048345146057
 30
0.0
 41
4.0
 42
4.0
 43
4.0
 50
90.0
  0
MTEXT
  5
9E84
330
9E7A
100
AcDbEntity
  8
DIM
 62
     0
100
AcDbMText
 10
681.1367328122087
 20
458.9157667391899
 30
0.0
 40
10.0
 41
0.0
 46
0.0
 71
     5
 72
     1
  1
\A1;10
  7
ＭＳ ゴシック
 11
0.0
 21
1.0
 31
0.0
 73
     1
 44
1.0
  0
POINT
  5
9E85
330
9E7A
100
AcDbEntity
  8
Defpoints
 62
     0
100
AcDbPoint
 10
657.8737637034915
 20
428.2548343720192
 30
0.0
  0
POINT
  5
9E86
330
9E7A
100
AcDbEntity
  8
Defpoints
 62
     0
100
AcDbPoint
 10
660.4027632513744
 20
441.3048345146057
 30
0.0
  0
POINT
  5
9E87
330
9E7A
100
AcDbEntity
  8
Defpoints
 62
     0
100
AcDbPoint
 10
690.1386085155975
 20
441.3048345146057
 30
0.0
  0
ENDBLK
  5
9E7C
330
9E7A
100
AcDbEntity
  8
0
100
AcDbBlockEnd
  0
BLOCK
  5
9E89
330
9E88
100
AcDbEntity
  8
0
100
AcDbBlockBegin
  2
*D14
 70
     1
 10
0.0
 20
0.0
 30
0.0
  3
*D14
  1

  0
LINE
  5
9E8B
330
9E88
100
AcDbEntity
  8
DIM
 62
     0
370
    -2
100
AcDbLine
 10
669.533528631081
 20
428.2548343720192
 30
0.0
 11
723.8145240190333
 21
428.2548343720192
 31
0.0
  0
LINE
  5
9E8C
330
9E88
100
AcDbEntity
  8
DIM
 62
     0
370
    -2
100
AcDbLine
 10
686.5799519291959
 20
480.3548345855022
 30
0.0
 11
723.8145240190333
 21
480.3548345855022
 31
0.0
  0
LINE
  5
9E8D
330
9E88
100
AcDbEntity
  8
DIM
 62
     0
370
    -2
100
AcDbLine
 10
723.8145240190333
 20
432.2548343720192
 30
0.0
 11
723.8145240190333
 21
476.3548345855022
 31
0.0
  0
INSERT
  5
9E8E
330
9E88
100
AcDbEntity
  8
DIM
 62
     0
370
    -2
100
AcDbBlockReference
  2
_DOT
 10
723.8145240190333
 20
428.2548343720192
 30
0.0
 41
4.0
 42
4.0
 43
4.0
 50
270.0
  0
INSERT
  5
9E8F
330
9E88
100
AcDbEntity
  8
DIM
 62
     0
370
    -2
100
AcDbBlockReference
  2
_DOT
 10
723.8145240190333
 20
480.3548345855022
 30
0.0
 41
4.0
 42
4.0
 43
4.0
 50
90.0
  0
MTEXT
  5
9E90
330
9E88
100
AcDbEntity
  8
DIM
 62
     0
100
AcDbMText
 10
714.8126483156445
 20
454.3048344787607
 30
0.0
 40
10.0
 41
0.0
 46
0.0
 71
     5
 72
     1
  1
\A1;45
  7
ＭＳ ゴシック
 11
0.0
 21
1.0
 31
0.0
 73
     1
 44
1.0
  0
POINT
  5
9E91
330
9E88
100
AcDbEntity
  8
Defpoints
 62
     0
100
AcDbPoint
 10
664.533528631081
 20
428.2548343720192
 30
0.0
  0
POINT
  5
9E92
330
9E88
100
AcDbEntity
  8
Defpoints
 62
     0
100
AcDbPoint
 10
681.5799519291959
 20
480.3548345855022
 30
0.0
  0
POINT
  5
9E93
330
9E88
100
AcDbEntity
  8
Defpoints
 62
     0
100
AcDbPoint
 10
723.8145240190333
 20
480.3548345855022
 30
0.0
  0
ENDBLK
  5
9E8A
330
9E88
100
AcDbEntity
  8
0
100
AcDbBlockEnd
  0
BLOCK
  5
9EC5
330
9EC4
100
AcDbEntity
  8
0
100
AcDbBlockBegin
  2
名称未設定-1
 70
     0
 10
0.0
 20
0.0
 30
0.0
  3
名称未設定-1
  1
名称未設定-1
  0
INSERT
  5
9EC6
330
9EC4
100
AcDbEntity
  8
レイヤー 1
100
AcDbBlockReference
  2
block 2
 10
0.0
 20
0.0
 30
0.0
  0
ENDBLK
  5
9EEB
330
9EC4
100
AcDbEntity
  8
0
100
AcDbBlockEnd
  0
ENDSEC
  0
SECTION
  2
ENTITIES
  0
MTEXT
  5
177
330
A
100
AcDbEntity
  8
TEMPLATE
390
1D
100
AcDbMText
 10
31.6808578190923
 20
137.4927006525713
 30
0.0
 40
6.51536458333333
 41
0.0
 46
0.0
 71
     1
 72
     1
  1
品名
  7
ＭＳ ゴシック
 73
     1
 44
0.7828267384257843
  0
MTEXT
  5
178
330
A
100
AcDbEntity
  8
TEMPLATE
390
1D
100
AcDbMText
 10
31.6808578190923
 20
103.4927006525712
 30
0.0
 40
6.51536458333333
 41
0.0
 46
0.0
 71
     1
 72
     1
  1
仕様
  7
ＭＳ ゴシック
 73
     1
 44
0.7828267384257843
  0
LINE
  5
179
330
A
100
AcDbEntity
  8
TEMPLATE
390
1D
100
AcDbLine
 10
808.8808578188992
 20
106.8586694025714
 30
0.0
 11
28.8808578188995
 21
106.8586694025714
 31
0.0
  0
LWPOLYLINE
  5
17A
330
A
100
AcDbEntity
  8
TEMPLATE
390
1D
100
AcDbPolyline
 90
        5
 70
   128
 43
0.0
 10
808.8808578188992
 20
1158.858669402571
 10
28.8808578188995
 20
1158.858669402571
 10
28.8808578188995
 20
38.8586694025713
 10
808.8808578188992
 20
38.8586694025713
 10
808.8808578188992
 20
1158.858669402571
  0
LINE
  5
17B
330
A
100
AcDbEntity
  8
TEMPLATE
390
1D
100
AcDbLine
 10
808.8808578188992
 20
140.8586694025713
 30
0.0
 11
28.8808578188995
 21
140.8586694025713
 31
0.0
  0
LINE
  5
17C
330
A
100
AcDbEntity
  8
TEMPLATE
390
1D
100
AcDbLine
 10
808.8808578190929
 20
72.8586694025713
 30
0.0
 11
507.680857819092
 21
72.8586694025713
 31
0.0
  0
MTEXT
  5
17E
330
A
100
AcDbEntity
  8
TEMPLATE
390
1D
100
AcDbMText
 10
519.6294203199964
 20
60.89451161324806
 30
0.0
 40
9.773046875
 41
0.0
 46
0.0
 71
     1
 72
     1
  1
大洋金物株式会社 ティーフォルム事業部
  7
ＭＳ ゴシック
 73
     1
 44
0.7828267384257843
  0
MTEXT
  5
180
330
A
100
AcDbEntity
  8
TEMPLATE
390
1D
100
AcDbMText
 10
732.480857819196
 20
92.05971627757128
 30
0.0
 40
9.773046875
 41
0.0
 46
9.773046875
 71
     1
 72
     1
  1
{1:4}
  7
ＭＳ ゴシック
 73
     1
 44
0.7828267384257843
1001
ACAD
1000
ACAD_MTEXT_DEFINED_HEIGHT_BEGIN
1070
    46
1040
9.773046875
1000
ACAD_MTEXT_DEFINED_HEIGHT_END
  0
MTEXT
  5
181
330
A
100
AcDbEntity
  8
TEMPLATE
390
1D
100
AcDbMText
 10
711.280857819196
 20
103.4927006525712
 30
0.0
 40
6.51536458333333
 41
0.0
 46
0.0
 71
     1
 72
     1
  1
縮尺
  7
ＭＳ ゴシック
 73
     1
 44
0.7828267384257843
  0
LINE
  5
182
330
A
100
AcDbEntity
  8
TEMPLATE
390
1D
100
AcDbLine
 10
708.480857819196
 20
72.8586694025713
 30
0.0
 11
708.480857819196
 21
106.8586694025714
 31
0.0
  0
MTEXT
  5
183
330
A
100
AcDbEntity
  8
TEMPLATE
390
1D
100
AcDbMText
 10
610.880857819196
 20
103.4927006525712
 30
0.0
 40
6.51536458333333
 41
0.0
 46
0.0
 71
     1
 72
     1
  1
容量
  7
ＭＳ ゴシック
 73
     1
 44
0.7828267384257843
  0
LINE
  5
184
330
A
100
AcDbEntity
  8
TEMPLATE
390
1D
100
AcDbLine
 10
608.080857819196
 20
72.8586694025713
 30
0.0
 11
608.080857819196
 21
106.8586694025714
 31
0.0
  0
MTEXT
  5
185
330
A
100
AcDbEntity
  8
TEMPLATE
390
1D
100
AcDbMText
 10
510.480857819196
 20
137.4927006525713
 30
0.0
 40
6.51536458333333
 41
0.0
 46
0.0
 71
     1
 72
     1
  1
品番
  7
ＭＳ ゴシック
 73
     1
 44
0.7828267384257843
  0
MTEXT
  5
186
330
A
100
AcDbEntity
  8
TEMPLATE
390
1D
100
AcDbMText
 10
510.480857819196
 20
103.4927006525712
 30
0.0
 40
6.51536458333333
 41
0.0
 46
0.0
 71
     1
 72
     1
  1
重量
  7
ＭＳ ゴシック
 73
     1
 44
0.7828267384257843
  0
MTEXT
  5
187
330
A
100
AcDbEntity
  8
TEMPLATE
390
1D
100
AcDbMText
 10
531.680857819196
 20
126.0597162775713
 30
0.0
 40
9.773046875
 41
0.0
 46
9.773046875
 71
     1
 72
     1
  1
{{\C7;AGN73-0189-N01}}
  7
ＭＳ ゴシック
 73
     1
 44
0.7828267384257843
1001
ACAD
1000
ACAD_MTEXT_DEFINED_HEIGHT_BEGIN
1070
    46
1040
9.773046875
1000
ACAD_MTEXT_DEFINED_HEIGHT_END
  0
LINE
  5
188
330
A
100
AcDbEntity
  8
TEMPLATE
390
1D
100
AcDbLine
 10
507.680857819196
 20
38.8586694025713
 30
0.0
 11
507.680857819196
 21
140.8586694025713
 31
0.0
  0
MTEXT
  5
189
330
A
100
AcDbEntity
  8
TEMPLATE
390
1D
100
AcDbMText
 10
52.8808578190923
 20
126.0597162775713
 30
0.0
 40
9.773046875
 41
0.0
 46
11.01468944408841
 71
     1
 72
     1
  1
{{\C7;混合栓 -FANTINI,Nostromo-}}
  7
ＭＳ ゴシック
 73
     1
 44
0.7828267384257843
1001
ACAD
1000
ACAD_MTEXT_DEFINED_HEIGHT_BEGIN
1070
    46
1040
11.01468944408841
1000
ACAD_MTEXT_DEFINED_HEIGHT_END
  0
INSERT
  5
68C
330
A
100
AcDbEntity
  8
TEMPLATE
100
AcDbBlockReference
  2
block 2
 10
367.7097207081031
 20
3.349230605734547
 30
0.0
 41
0.1524
 42
0.1524
 43
0.1524
  0
LWPOLYLINE
  5
D69
330
A
100
AcDbEntity
  8
BORDER
100
AcDbPolyline
 90
        4
 70
     1
 43
0.0
 10
0.0
 20
0.0
 10
0.0
 20
1188.0
 10
840.0
 20
1188.0
 10
840.0
 20
0.0
  0
INSERT
  5
1343
330
A
100
AcDbEntity
  8
TEMPLATE
100
AcDbBlockReference
  2
block 2
 10
838.6973883465873
 20
9.774128564918277
 30
0.0
 41
0.1524
 42
0.1524
 43
0.1524
  0
HATCH
  5
3CE3
102
{ACAD_REACTORS
330
3CF4
102
}
330
A
100
AcDbEntity
  8
TEMPLATE
100
AcDbHatch
 10
0.0
 20
0.0
 30
0.0
210
0.0
220
0.0
230
1.0
  2
SOLID
 70
     1
 71
     1
 91
        6
 92
        1
 93
        8
 72
     1
 10
773.8270902791126
 20
61.34344299952348
 11
773.8270902791126
 21
58.97967994725929
 72
     1
 10
773.8270902791126
 20
58.97967994725929
 11
770.0828536589879
 21
58.97967994725929
 72
     1
 10
770.0828536589879
 20
58.97967994725929
 11
770.0828536589879
 21
49.34344300010187
 72
     1
 10
770.0828536589879
 20
49.34344300010187
 11
766.7898083976775
 21
49.34344300010187
 72
     1
 10
766.7898083976775
 20
49.34344300010187
 11
766.7898083976775
 21
58.97967994725929
 72
     1
 10
766.7898083976775
 20
58.97967994725929
 11
763.1119278238602
 21
58.97967994725929
 72
     1
 10
763.1119278238602
 20
58.97967994725929
 11
763.1119278238602
 21
61.34344299952348
 72
     1
 10
763.1119278238602
 20
61.34344299952348
 11
773.8270902791126
 21
61.34344299952348
 97
        1
330
3CE4
 92
        1
 93
        1
 72
     4
 94
        3
 73
     0
 74
     1
 95
       56
 96
       52
 40
0.0
 40
0.0
 40
0.0
 40
0.0
 40
1.0
 40
1.0
 40
1.0
 40
2.0
 40
2.0
 40
2.0
 40
3.0
 40
3.0
 40
3.0
 40
4.0
 40
4.0
 40
4.0
 40
5.0
 40
5.0
 40
5.0
 40
6.0
 40
6.0
 40
6.0
 40
7.0
 40
7.0
 40
7.0
 40
8.0
 40
8.0
 40
8.0
 40
9.0
 40
9.0
 40
9.0
 40
10.0
 40
10.0
 40
10.0
 40
11.0
 40
11.0
 40
11.0
 40
12.0
 40
12.0
 40
12.0
 40
13.0
 40
13.0
 40
13.0
 40
14.0
 40
14.0
 40
14.0
 40
15.0
 40
15.0
 40
15.0
 40
16.0
 40
16.0
 40
16.0
 40
17.0
 40
17.0
 40
17.0
 40
17.0
 10
778.8439644528296
 20
61.05769541535855
 10
779.3055109255968
 20
61.18761043696263
 10
779.9013465629307
 20
61.07894125260667
 10
779.9013465629307
 20
61.07894125260667
 10
779.9013465629307
 20
61.07894125260667
 10
779.6150931254979
 20
60.21991313563727
 10
779.6150931254979
 20
60.21991313563727
 10
779.6150931254979
 20
60.21991313563727
 10
779.0301482114592
 20
60.35527351888899
 10
778.5789866087196
 20
59.9995098912439
 10
778.2284005380509
 20
59.72129059394702
 10
778.0012724208032
 20
58.98203067715087
 10
777.9141466344411
 20
58.70095479669457
 10
777.9141466344411
 20
58.70095479669457
 10
777.5257108369103
 20
57.50868840053504
 10
777.5257108369103
 20
57.50868840053504
 10
777.5257108369103
 20
57.50868840053504
 10
778.7993600970385
 20
57.50868840053504
 10
778.7993600970385
 20
57.50868840053504
 10
778.7993600970385
 20
57.50868840053504
 10
778.6012739085779
 20
56.75829971184702
 10
778.6012739085779
 20
56.75829971184702
 10
778.6012739085779
 20
56.75829971184702
 10
777.3172397784224
 20
56.75829971184702
 10
777.3172397784224
 20
56.75829971184702
 10
777.3172397784224
 20
56.75829971184702
 10
775.0198625285398
 20
49.34344300010187
 10
775.0198625285398
 20
49.34344300010187
 10
775.0198625285398
 20
49.34344300010187
 10
774.3005689377851
 20
49.34344300010187
 10
774.3005689377851
 20
49.34344300010187
 10
774.3005689377851
 20
49.34344300010187
 10
776.6000291128878
 20
56.75829971184702
 10
776.6000291128878
 20
56.75829971184702
 10
776.6000291128878
 20
56.75829971184702
 10
775.6525361862005
 20
56.75829971184702
 10
775.6525361862005
 20
56.75829971184702
 10
775.6525361862005
 20
56.75829971184702
 10
775.8511579840033
 20
57.50868840053504
 10
775.8511579840033
 20
57.50868840053504
 10
775.8511579840033
 20
57.50868840053504
 10
776.8085001713757
 20
57.50868840053504
 10
776.8085001713757
 20
57.50868840053504
 10
776.8085001713757
 20
57.50868840053504
 10
777.1471243000644
 20
58.54848467056097
 10
777.1471243000644
 20
58.54848467056097
 10
777.4209396983238
 20
59.4202483874494
 10
777.6532751286227
 20
59.88828168447431
 10
777.852432535768
 20
60.24115897288539
 10
778.0494772616182
 20
60.59433382204227
 10
778.439460375027
 20
60.94125989553794
 10
778.8439644528296
 20
61.05769541535855
 97
        1
330
3CEF
 92
        1
 93
        1
 72
     4
 94
        3
 73
     0
 74
     1
 95
       32
 96
       28
 40
0.0
 40
0.0
 40
0.0
 40
0.0
 40
1.0
 40
1.0
 40
1.0
 40
2.0
 40
2.0
 40
2.0
 40
3.0
 40
3.0
 40
3.0
 40
4.0
 40
4.0
 40
4.0
 40
5.0
 40
5.0
 40
5.0
 40
6.0
 40
6.0
 40
6.0
 40
7.0
 40
7.0
 40
7.0
 40
8.0
 40
8.0
 40
8.0
 40
9.0
 40
9.0
 40
9.0
 40
9.0
 10
780.5941870033864
 20
57.0552058239784
 10
780.161176606139
 20
56.49510723221162
 10
779.8277300344266
 20
55.99103932887373
 10
779.2878953294471
 20
54.40673665015949
 10
778.7915937615737
 20
52.95755630610032
 10
778.4757627860113
 20
51.90323907168072
 10
778.4280637984641
 20
50.61920494152507
 10
778.3917613874798
 20
49.66367787470179
 10
778.9736116697625
 20
49.34344300010187
 10
779.8267183278911
 20
49.34344300010187
 10
780.1943843853671
 20
49.34344300010187
 10
781.1221787906843
 20
49.36683127471956
 10
781.7828826705968
 20
50.18357600971474
 10
782.2454110938247
 20
50.75739215186162
 10
782.671696618218
 20
51.35221608265999
 10
783.2431917865476
 20
53.30344091698579
 10
783.7187533704407
 20
54.93466892530829
 10
784.048034091712
 20
55.98895640365332
 10
784.0236936227079
 20
56.58922569609933
 10
784.0236936227079
 20
56.58922569609933
 10
784.0236936227079
 20
56.58922569609933
 10
784.0236936227079
 20
56.58922569609933
 10
783.8686049620114
 20
57.59063662992067
 10
783.141545035792
 20
57.80223207623919
 10
782.7261502346942
 20
57.80223207623919
 10
782.3170042092574
 20
57.80223207623919
 10
781.2206713975349
 20
57.87302177765837
 10
780.5941870033864
 20
57.0552058239784
 97
        1
330
3CF2
 92
        1
 93
        1
 72
     4
 94
        3
 73
     0
 74
     1
 95
       38
 96
       34
 40
0.0
 40
0.0
 40
0.0
 40
0.0
 40
1.0
 40
1.0
 40
1.0
 40
2.0
 40
2.0
 40
2.0
 40
3.0
 40
3.0
 40
3.0
 40
4.0
 40
4.0
 40
4.0
 40
5.0
 40
5.0
 40
5.0
 40
6.0
 40
6.0
 40
6.0
 40
7.0
 40
7.0
 40
7.0
 40
8.0
 40
8.0
 40
8.0
 40
9.0
 40
9.0
 40
9.0
 40
10.0
 40
10.0
 40
10.0
 40
11.0
 40
11.0
 40
11.0
 40
11.0
 10
786.6534759816923
 20
57.47991427641887
 10
786.6534759816923
 20
57.47991427641887
 10
787.392973947085
 20
57.47991427641887
 10
787.392973947085
 20
57.47991427641887
 10
787.392973947085
 20
57.47991427641887
 10
787.062622007129
 20
56.42223460557204
 10
787.062622007129
 20
56.42223460557204
 10
787.3136442522623
 20
56.71914071770341
 10
787.7098166291833
 20
57.11456919275992
 10
788.0500475858989
 20
57.31396464850179
 10
788.5582813396777
 20
57.61087076063316
 10
788.8487006275511
 20
57.65002975477677
 10
789.168102332063
 20
57.64223366323755
 10
789.168102332063
 20
57.64223366323755
 10
788.855961109748
 20
56.64213199669759
 10
788.855961109748
 20
56.64213199669759
 10
788.6526676082365
 20
56.72821632044946
 10
788.026183214088
 20
56.56434961775278
 10
787.6667893453446
 20
56.305828841826
 10
787.3426861810497
 20
56.07271975358816
 10
787.1186229394832
 20
55.8743657604565
 10
786.8531392421053
 20
55.37571346269166
 10
786.5896789577987
 20
54.87631726306238
 10
786.3817435086532
 20
54.08001495130175
 10
786.0238969557877
 20
52.92482462406541
 10
786.0238969557877
 20
52.92482462406541
 10
784.906318306817
 20
49.34344300010187
 10
784.906318306817
 20
49.34344300010187
 10
784.906318306817
 20
49.34344300010187
 10
784.1886017880147
 20
49.34344300010187
 10
784.1886017880147
 20
49.34344300010187
 10
784.1886017880147
 20
49.34344300010187
 10
786.6534759816923
 20
57.47991427641887
 10
786.6534759816923
 20
57.47991427641887
 97
        1
330
3CF0
 92
        1
 93
        1
 72
     4
 94
        3
 73
     0
 74
     1
 95
      104
 96
      100
 40
0.0
 40
0.0
 40
0.0
 40
0.0
 40
1.0
 40
1.0
 40
1.0
 40
2.0
 40
2.0
 40
2.0
 40
3.0
 40
3.0
 40
3.0
 40
4.0
 40
4.0
 40
4.0
 40
5.0
 40
5.0
 40
5.0
 40
6.0
 40
6.0
 40
6.0
 40
7.0
 40
7.0
 40
7.0
 40
8.0
 40
8.0
 40
8.0
 40
9.0
 40
9.0
 40
9.0
 40
10.0
 40
10.0
 40
10.0
 40
11.0
 40
11.0
 40
11.0
 40
12.0
 40
12.0
 40
12.0
 40
13.0
 40
13.0
 40
13.0
 40
14.0
 40
14.0
 40
14.0
 40
15.0
 40
15.0
 40
15.0
 40
16.0
 40
16.0
 40
16.0
 40
17.0
 40
17.0
 40
17.0
 40
18.0
 40
18.0
 40
18.0
 40
19.0
 40
19.0
 40
19.0
 40
20.0
 40
20.0
 40
20.0
 40
21.0
 40
21.0
 40
21.0
 40
22.0
 40
22.0
 40
22.0
 40
23.0
 40
23.0
 40
23.0
 40
24.0
 40
24.0
 40
24.0
 40
25.0
 40
25.0
 40
25.0
 40
26.0
 40
26.0
 40
26.0
 40
27.0
 40
27.0
 40
27.0
 40
28.0
 40
28.0
 40
28.0
 40
29.0
 40
29.0
 40
29.0
 40
30.0
 40
30.0
 40
30.0
 40
31.0
 40
31.0
 40
31.0
 40
32.0
 40
32.0
 40
32.0
 40
33.0
 40
33.0
 40
33.0
 40
33.0
 10
790.7239284474067
 20
57.48431817545629
 10
790.7239284474067
 20
57.48431817545629
 10
791.3695757535829
 20
57.48431817545629
 10
791.3695757535829
 20
57.48431817545629
 10
791.3695757535829
 20
57.48431817545629
 10
791.0433896640677
 20
56.42562679807384
 10
791.0433896640677
 20
56.42562679807384
 10
791.3264889575953
 20
56.86952791861661
 10
791.5806058344847
 20
57.06737605848048
 10
791.9182182566376
 20
57.32304025124783
 10
792.2568423853263
 20
57.57507420291678
 10
792.6587874407151
 20
57.62643318763705
 10
792.937780395951
 20
57.62643318763705
 10
793.2831889096433
 20
57.62643318763705
 10
793.6166354813554
 20
57.55823226470609
 10
793.7918987606151
 20
57.17964572786029
 10
793.9262176812567
 20
56.88276937180346
 10
793.9324664569178
 20
56.8477464720261
 10
793.8940811207133
 20
56.26173033930257
 10
794.2451432885753
 20
56.86253524109098
 10
794.504437722441
 20
57.12132382168895
 10
794.9452442112276
 20
57.36996558085609
 10
795.407832146605
 20
57.62643318763705
 10
795.6774816944237
 20
57.64562585573935
 10
795.9907536475725
 20
57.59944442799551
 10
796.4522703642649
 20
57.53127326113913
 10
796.7468555025794
 20
57.36660314442886
 10
796.9008729445909
 20
56.86616548218939
 10
797.0554259959449
 20
56.36727513582792
 10
796.9719304506814
 20
56.09967875715512
 10
796.7810749883431
 20
55.30545937061487
 10
796.693949201981
 20
54.94374452805434
 10
796.5679024700721
 20
54.50576486635242
 10
796.4029943047651
 20
53.98461697620721
 10
796.4029943047651
 20
53.98461697620721
 10
794.9452442112276
 20
49.34344300010187
 10
794.9452442112276
 20
49.34344300010187
 10
794.9452442112276
 20
49.34344300010187
 10
794.1870594310005
 20
49.34344300010187
 10
794.1870594310005
 20
49.34344300010187
 10
794.1870594310005
 20
49.34344300010187
 10
795.4633569817661
 20
53.40092181730071
 10
795.4633569817661
 20
53.40092181730071
 10
795.7299118978287
 20
54.24986262498844
 10
795.9103527340649
 20
54.86983043880454
 10
796.0037272960881
 20
55.25853404100661
 10
796.1209067177731
 20
55.7434092762422
 10
796.1675642427103
 20
55.90340768924385
 10
796.1120989196984
 20
56.25631473372954
 10
796.0612755443206
 20
56.58482179706189
 10
795.8952961603288
 20
56.79873821719745
 10
795.6111256481165
 20
56.79873821719745
 10
795.3082683210696
 20
56.79873821719745
 10
795.0629592422551
 20
56.76502458470146
 10
794.7196931659325
 20
56.4201814364262
 10
794.3763675774608
 20
56.07271975358816
 10
794.0926731624415
 20
55.66485323935839
 10
793.8702167489023
 20
55.19577847972329
 10
793.6482364325564
 20
54.72384713692878
 10
793.4231614844543
 20
54.12566076970317
 10
793.1949919045965
 20
53.40092181730071
 10
793.1949919045965
 20
53.40092181730071
 10
791.9182182566376
 20
49.34344300010187
 10
791.9182182566376
 20
49.34344300010187
 10
791.9182182566376
 20
49.34344300010187
 10
791.2051436854695
 20
49.34344300010187
 10
791.2051436854695
 20
49.34344300010187
 10
791.2051436854695
 20
49.34344300010187
 10
792.6649767042272
 20
53.98253405098681
 10
792.6649767042272
 20
53.98253405098681
 10
792.8189941462388
 20
54.47624684037184
 10
792.9346857641949
 20
54.87866799295399
 10
793.0109208272618
 20
55.19318970123506
 10
793.1405382881201
 20
55.73460147816736
 10
793.1768406991043
 20
56.10072021976531
 10
793.078824189447
 20
56.42562679807384
 10
792.9823549956677
 20
56.74949191377216
 10
792.8128048827268
 20
56.8322138010968
 10
792.5296460770501
 20
56.8322138010968
 10
792.2921330897748
 20
56.8322138010968
 10
792.0603332688183
 20
56.73029924566987
 10
791.7958612779762
 20
56.5275115974262
 10
791.4628908034572
 20
56.27238301400122
 10
791.3296431015003
 20
56.0628704929031
 10
791.1662822520716
 20
55.81393117299019
 10
790.9458492516037
 20
55.48462069564424
 10
790.8426551849698
 20
55.26293794004404
 10
790.6565011824148
 20
54.77648563285584
 10
790.4702876677106
 20
54.28717674250827
 10
790.2940126819153
 20
53.71776449939881
 10
790.1710605817623
 20
53.32391309629489
 10
790.1710605817623
 20
53.32391309629489
 10
788.9186869149569
 20
49.34344300010187
 10
788.9186869149569
 20
49.34344300010187
 10
788.9186869149569
 20
49.34344300010187
 10
788.1719284673673
 20
49.34344300010187
 10
788.1719284673673
 20
49.34344300010187
 10
788.1719284673673
 20
49.34344300010187
 10
790.7239284474067
 20
57.48431817545629
 10
790.7239284474067
 20
57.48431817545629
 97
        1
330
3CF1
 92
       16
 93
        1
 72
     4
 94
        3
 73
     0
 74
     1
 95
       29
 96
       25
 40
0.0
 40
0.0
 40
0.0
 40
0.0
 40
1.0
 40
1.0
 40
1.0
 40
2.0
 40
2.0
 40
2.0
 40
3.0
 40
3.0
 40
3.0
 40
4.0
 40
4.0
 40
4.0
 40
5.0
 40
5.0
 40
5.0
 40
6.0
 40
6.0
 40
6.0
 40
7.0
 40
7.0
 40
7.0
 40
8.0
 40
8.0
 40
8.0
 40
8.0
 10
779.2028524683053
 20
50.85927695121397
 10
779.1996983244003
 20
51.42613017190976
 10
779.3786513569075
 20
52.43325427204994
 10
779.837073441844
 20
53.78078786535333
 10
780.461474910772
 20
55.60546011450228
 10
780.8359253532517
 20
56.27238301400122
 10
781.1635992464958
 20
56.59702178763855
 10
781.6423149742939
 20
57.06972678837207
 10
782.2858793552498
 20
57.09329359943722
 10
782.4757231110525
 20
57.06972678837207
 10
782.7459082682135
 20
57.03729266708291
 10
783.1275596807407
 20
56.86045231587057
 10
783.1503528338669
 20
56.26512253180438
 10
783.168563551508
 20
55.75560926681887
 10
783.0217470795442
 20
54.80139146727697
 10
782.5078596715957
 20
53.30344091698579
 10
781.915594763211
 20
51.5627700663683
 10
781.5598311355659
 20
50.87849937539085
 10
781.274648916818
 20
50.58028399597808
 10
780.7373732342519
 20
50.02122686682151
 10
780.161176606139
 20
50.07490682535878
 10
780.0761337449972
 20
50.07490682535878
 10
779.9656791961665
 20
50.07490682535878
 10
779.2043997841834
 20
50.19476429375578
 10
779.2028524683053
 20
50.85927695121397
 97
        1
330
3CF3
 75
     0
 76
     1
 98
        1
 10
743.7703305683026
 20
29.00832017048585
1001
ACAD
1010
0.0
1020
0.0
1030
0.0
  0
POLYLINE
  5
3CE4
102
{ACAD_REACTORS
330
3CE3
330
3CF4
102
}
330
A
100
AcDbEntity
  8
TEMPLATE
100
AcDb2dPolyline
 66
     1
 10
0.0
 20
0.0
 30
0.0
  0
VERTEX
  5
3CE5
330
3CE4
100
AcDbEntity
  8
TEMPLATE
100
AcDbVertex
100
AcDb2dVertex
 10
773.8270902791126
 20
61.34344299952348
 30
0.0
  0
VERTEX
  5
3CE6
330
3CE4
100
AcDbEntity
  8
TEMPLATE
100
AcDbVertex
100
AcDb2dVertex
 10
773.8270902791126
 20
58.97967994725929
 30
0.0
  0
VERTEX
  5
3CE7
330
3CE4
100
AcDbEntity
  8
TEMPLATE
100
AcDbVertex
100
AcDb2dVertex
 10
770.0828536589879
 20
58.97967994725929
 30
0.0
  0
VERTEX
  5
3CE8
330
3CE4
100
AcDbEntity
  8
TEMPLATE
100
AcDbVertex
100
AcDb2dVertex
 10
770.0828536589879
 20
49.34344300010187
 30
0.0
  0
VERTEX
  5
3CE9
330
3CE4
100
AcDbEntity
  8
TEMPLATE
100
AcDbVertex
100
AcDb2dVertex
 10
766.7898083976775
 20
49.34344300010187
 30
0.0
  0
VERTEX
  5
3CEA
330
3CE4
100
AcDbEntity
  8
TEMPLATE
100
AcDbVertex
100
AcDb2dVertex
 10
766.7898083976775
 20
58.97967994725929
 30
0.0
  0
VERTEX
  5
3CEB
330
3CE4
100
AcDbEntity
  8
TEMPLATE
100
AcDbVertex
100
AcDb2dVertex
 10
763.1119278238602
 20
58.97967994725929
 30
0.0
  0
VERTEX
  5
3CEC
330
3CE4
100
AcDbEntity
  8
TEMPLATE
100
AcDbVertex
100
AcDb2dVertex
 10
763.1119278238602
 20
61.34344299952348
 30
0.0
  0
VERTEX
  5
3CED
330
3CE4
100
AcDbEntity
  8
TEMPLATE
100
AcDbVertex
100
AcDb2dVertex
 10
773.8270902791126
 20
61.34344299952348
 30
0.0
  0
SEQEND
  5
3CEE
330
3CE4
100
AcDbEntity
  8
TEMPLATE
  0
SPLINE
  5
3CEF
102
{ACAD_REACTORS
330
3CE3
330
3CF4
102
}
330
A
100
AcDbEntity
  8
TEMPLATE
100
AcDbSpline
210
0.0
220
0.0
230
1.0
 70
    11
 71
     3
 72
    56
 73
    52
 74
     0
 42
0.000000001
 43
0.0000000001
 40
0.0
 40
0.0
 40
0.0
 40
0.0
 40
1.0
 40
1.0
 40
1.0
 40
2.0
 40
2.0
 40
2.0
 40
3.0
 40
3.0
 40
3.0
 40
4.0
 40
4.0
 40
4.0
 40
5.0
 40
5.0
 40
5.0
 40
6.0
 40
6.0
 40
6.0
 40
7.0
 40
7.0
 40
7.0
 40
8.0
 40
8.0
 40
8.0
 40
9.0
 40
9.0
 40
9.0
 40
10.0
 40
10.0
 40
10.0
 40
11.0
 40
11.0
 40
11.0
 40
12.0
 40
12.0
 40
12.0
 40
13.0
 40
13.0
 40
13.0
 40
14.0
 40
14.0
 40
14.0
 40
15.0
 40
15.0
 40
15.0
 40
16.0
 40
16.0
 40
16.0
 40
17.0
 40
17.0
 40
17.0
 40
17.0
 10
778.8439644528296
 20
61.05769541535855
 30
0.0
 10
779.3055109255968
 20
61.18761043696263
 30
0.0
 10
779.9013465629307
 20
61.07894125260667
 30
0.0
 10
779.9013465629307
 20
61.07894125260667
 30
0.0
 10
779.9013465629307
 20
61.07894125260667
 30
0.0
 10
779.6150931254979
 20
60.21991313563727
 30
0.0
 10
779.6150931254979
 20
60.21991313563727
 30
0.0
 10
779.6150931254979
 20
60.21991313563727
 30
0.0
 10
779.0301482114592
 20
60.35527351888899
 30
0.0
 10
778.5789866087196
 20
59.9995098912439
 30
0.0
 10
778.2284005380509
 20
59.72129059394702
 30
0.0
 10
778.0012724208032
 20
58.98203067715087
 30
0.0
 10
777.9141466344411
 20
58.70095479669457
 30
0.0
 10
777.9141466344411
 20
58.70095479669457
 30
0.0
 10
777.5257108369103
 20
57.50868840053504
 30
0.0
 10
777.5257108369103
 20
57.50868840053504
 30
0.0
 10
777.5257108369103
 20
57.50868840053504
 30
0.0
 10
778.7993600970385
 20
57.50868840053504
 30
0.0
 10
778.7993600970385
 20
57.50868840053504
 30
0.0
 10
778.7993600970385
 20
57.50868840053504
 30
0.0
 10
778.6012739085779
 20
56.75829971184702
 30
0.0
 10
778.6012739085779
 20
56.75829971184702
 30
0.0
 10
778.6012739085779
 20
56.75829971184702
 30
0.0
 10
777.3172397784224
 20
56.75829971184702
 30
0.0
 10
777.3172397784224
 20
56.75829971184702
 30
0.0
 10
777.3172397784224
 20
56.75829971184702
 30
0.0
 10
775.0198625285398
 20
49.34344300010187
 30
0.0
 10
775.0198625285398
 20
49.34344300010187
 30
0.0
 10
775.0198625285398
 20
49.34344300010187
 30
0.0
 10
774.3005689377851
 20
49.34344300010187
 30
0.0
 10
774.3005689377851
 20
49.34344300010187
 30
0.0
 10
774.3005689377851
 20
49.34344300010187
 30
0.0
 10
776.6000291128878
 20
56.75829971184702
 30
0.0
 10
776.6000291128878
 20
56.75829971184702
 30
0.0
 10
776.6000291128878
 20
56.75829971184702
 30
0.0
 10
775.6525361862005
 20
56.75829971184702
 30
0.0
 10
775.6525361862005
 20
56.75829971184702
 30
0.0
 10
775.6525361862005
 20
56.75829971184702
 30
0.0
 10
775.8511579840033
 20
57.50868840053504
 30
0.0
 10
775.8511579840033
 20
57.50868840053504
 30
0.0
 10
775.8511579840033
 20
57.50868840053504
 30
0.0
 10
776.8085001713757
 20
57.50868840053504
 30
0.0
 10
776.8085001713757
 20
57.50868840053504
 30
0.0
 10
776.8085001713757
 20
57.50868840053504
 30
0.0
 10
777.1471243000644
 20
58.54848467056097
 30
0.0
 10
777.1471243000644
 20
58.54848467056097
 30
0.0
 10
777.4209396983238
 20
59.4202483874494
 30
0.0
 10
777.6532751286227
 20
59.88828168447431
 30
0.0
 10
777.852432535768
 20
60.24115897288539
 30
0.0
 10
778.0494772616182
 20
60.59433382204227
 30
0.0
 10
778.439460375027
 20
60.94125989553794
 30
0.0
 10
778.8439644528296
 20
61.05769541535855
 30
0.0
  0
SPLINE
  5
3CF0
102
{ACAD_REACTORS
330
3CE3
330
3CF4
102
}
330
A
100
AcDbEntity
  8
TEMPLATE
100
AcDbSpline
210
0.0
220
0.0
230
1.0
 70
    11
 71
     3
 72
    38
 73
    34
 74
     0
 42
0.000000001
 43
0.0000000001
 40
0.0
 40
0.0
 40
0.0
 40
0.0
 40
1.0
 40
1.0
 40
1.0
 40
2.0
 40
2.0
 40
2.0
 40
3.0
 40
3.0
 40
3.0
 40
4.0
 40
4.0
 40
4.0
 40
5.0
 40
5.0
 40
5.0
 40
6.0
 40
6.0
 40
6.0
 40
7.0
 40
7.0
 40
7.0
 40
8.0
 40
8.0
 40
8.0
 40
9.0
 40
9.0
 40
9.0
 40
10.0
 40
10.0
 40
10.0
 40
11.0
 40
11.0
 40
11.0
 40
11.0
 10
786.6534759816923
 20
57.47991427641887
 30
0.0
 10
786.6534759816923
 20
57.47991427641887
 30
0.0
 10
787.392973947085
 20
57.47991427641887
 30
0.0
 10
787.392973947085
 20
57.47991427641887
 30
0.0
 10
787.392973947085
 20
57.47991427641887
 30
0.0
 10
787.062622007129
 20
56.42223460557204
 30
0.0
 10
787.062622007129
 20
56.42223460557204
 30
0.0
 10
787.3136442522623
 20
56.71914071770341
 30
0.0
 10
787.7098166291833
 20
57.11456919275992
 30
0.0
 10
788.0500475858989
 20
57.31396464850179
 30
0.0
 10
788.5582813396777
 20
57.61087076063316
 30
0.0
 10
788.8487006275511
 20
57.65002975477677
 30
0.0
 10
789.168102332063
 20
57.64223366323755
 30
0.0
 10
789.168102332063
 20
57.64223366323755
 30
0.0
 10
788.855961109748
 20
56.64213199669759
 30
0.0
 10
788.855961109748
 20
56.64213199669759
 30
0.0
 10
788.6526676082365
 20
56.72821632044946
 30
0.0
 10
788.026183214088
 20
56.56434961775278
 30
0.0
 10
787.6667893453446
 20
56.305828841826
 30
0.0
 10
787.3426861810497
 20
56.07271975358816
 30
0.0
 10
787.1186229394832
 20
55.8743657604565
 30
0.0
 10
786.8531392421053
 20
55.37571346269166
 30
0.0
 10
786.5896789577987
 20
54.87631726306238
 30
0.0
 10
786.3817435086532
 20
54.08001495130175
 30
0.0
 10
786.0238969557877
 20
52.92482462406541
 30
0.0
 10
786.0238969557877
 20
52.92482462406541
 30
0.0
 10
784.906318306817
 20
49.34344300010187
 30
0.0
 10
784.906318306817
 20
49.34344300010187
 30
0.0
 10
784.906318306817
 20
49.34344300010187
 30
0.0
 10
784.1886017880147
 20
49.34344300010187
 30
0.0
 10
784.1886017880147
 20
49.34344300010187
 30
0.0
 10
784.1886017880147
 20
49.34344300010187
 30
0.0
 10
786.6534759816923
 20
57.47991427641887
 30
0.0
 10
786.6534759816923
 20
57.47991427641887
 30
0.0
  0
SPLINE
  5
3CF1
102
{ACAD_REACTORS
330
3CE3
330
3CF4
102
}
330
A
100
AcDbEntity
  8
TEMPLATE
100
AcDbSpline
210
0.0
220
0.0
230
1.0
 70
    11
 71
     3
 72
   104
 73
   100
 74
     0
 42
0.000000001
 43
0.0000000001
 40
0.0
 40
0.0
 40
0.0
 40
0.0
 40
1.0
 40
1.0
 40
1.0
 40
2.0
 40
2.0
 40
2.0
 40
3.0
 40
3.0
 40
3.0
 40
4.0
 40
4.0
 40
4.0
 40
5.0
 40
5.0
 40
5.0
 40
6.0
 40
6.0
 40
6.0
 40
7.0
 40
7.0
 40
7.0
 40
8.0
 40
8.0
 40
8.0
 40
9.0
 40
9.0
 40
9.0
 40
10.0
 40
10.0
 40
10.0
 40
11.0
 40
11.0
 40
11.0
 40
12.0
 40
12.0
 40
12.0
 40
13.0
 40
13.0
 40
13.0
 40
14.0
 40
14.0
 40
14.0
 40
15.0
 40
15.0
 40
15.0
 40
16.0
 40
16.0
 40
16.0
 40
17.0
 40
17.0
 40
17.0
 40
18.0
 40
18.0
 40
18.0
 40
19.0
 40
19.0
 40
19.0
 40
20.0
 40
20.0
 40
20.0
 40
21.0
 40
21.0
 40
21.0
 40
22.0
 40
22.0
 40
22.0
 40
23.0
 40
23.0
 40
23.0
 40
24.0
 40
24.0
 40
24.0
 40
25.0
 40
25.0
 40
25.0
 40
26.0
 40
26.0
 40
26.0
 40
27.0
 40
27.0
 40
27.0
 40
28.0
 40
28.0
 40
28.0
 40
29.0
 40
29.0
 40
29.0
 40
30.0
 40
30.0
 40
30.0
 40
31.0
 40
31.0
 40
31.0
 40
32.0
 40
32.0
 40
32.0
 40
33.0
 40
33.0
 40
33.0
 40
33.0
 10
790.7239284474067
 20
57.48431817545629
 30
0.0
 10
790.7239284474067
 20
57.48431817545629
 30
0.0
 10
791.3695757535829
 20
57.48431817545629
 30
0.0
 10
791.3695757535829
 20
57.48431817545629
 30
0.0
 10
791.3695757535829
 20
57.48431817545629
 30
0.0
 10
791.0433896640677
 20
56.42562679807384
 30
0.0
 10
791.0433896640677
 20
56.42562679807384
 30
0.0
 10
791.3264889575953
 20
56.86952791861661
 30
0.0
 10
791.5806058344847
 20
57.06737605848048
 30
0.0
 10
791.9182182566376
 20
57.32304025124783
 30
0.0
 10
792.2568423853263
 20
57.57507420291678
 30
0.0
 10
792.6587874407151
 20
57.62643318763705
 30
0.0
 10
792.937780395951
 20
57.62643318763705
 30
0.0
 10
793.2831889096433
 20
57.62643318763705
 30
0.0
 10
793.6166354813554
 20
57.55823226470609
 30
0.0
 10
793.7918987606151
 20
57.17964572786029
 30
0.0
 10
793.9262176812567
 20
56.88276937180346
 30
0.0
 10
793.9324664569178
 20
56.8477464720261
 30
0.0
 10
793.8940811207133
 20
56.26173033930257
 30
0.0
 10
794.2451432885753
 20
56.86253524109098
 30
0.0
 10
794.504437722441
 20
57.12132382168895
 30
0.0
 10
794.9452442112276
 20
57.36996558085609
 30
0.0
 10
795.407832146605
 20
57.62643318763705
 30
0.0
 10
795.6774816944237
 20
57.64562585573935
 30
0.0
 10
795.9907536475725
 20
57.59944442799551
 30
0.0
 10
796.4522703642649
 20
57.53127326113913
 30
0.0
 10
796.7468555025794
 20
57.36660314442886
 30
0.0
 10
796.9008729445909
 20
56.86616548218939
 30
0.0
 10
797.0554259959449
 20
56.36727513582792
 30
0.0
 10
796.9719304506814
 20
56.09967875715512
 30
0.0
 10
796.7810749883431
 20
55.30545937061487
 30
0.0
 10
796.693949201981
 20
54.94374452805434
 30
0.0
 10
796.5679024700721
 20
54.50576486635242
 30
0.0
 10
796.4029943047651
 20
53.98461697620721
 30
0.0
 10
796.4029943047651
 20
53.98461697620721
 30
0.0
 10
794.9452442112276
 20
49.34344300010187
 30
0.0
 10
794.9452442112276
 20
49.34344300010187
 30
0.0
 10
794.9452442112276
 20
49.34344300010187
 30
0.0
 10
794.1870594310005
 20
49.34344300010187
 30
0.0
 10
794.1870594310005
 20
49.34344300010187
 30
0.0
 10
794.1870594310005
 20
49.34344300010187
 30
0.0
 10
795.4633569817661
 20
53.40092181730071
 30
0.0
 10
795.4633569817661
 20
53.40092181730071
 30
0.0
 10
795.7299118978287
 20
54.24986262498844
 30
0.0
 10
795.9103527340649
 20
54.86983043880454
 30
0.0
 10
796.0037272960881
 20
55.25853404100661
 30
0.0
 10
796.1209067177731
 20
55.7434092762422
 30
0.0
 10
796.1675642427103
 20
55.90340768924385
 30
0.0
 10
796.1120989196984
 20
56.25631473372954
 30
0.0
 10
796.0612755443206
 20
56.58482179706189
 30
0.0
 10
795.8952961603288
 20
56.79873821719745
 30
0.0
 10
795.6111256481165
 20
56.79873821719745
 30
0.0
 10
795.3082683210696
 20
56.79873821719745
 30
0.0
 10
795.0629592422551
 20
56.76502458470146
 30
0.0
 10
794.7196931659325
 20
56.4201814364262
 30
0.0
 10
794.3763675774608
 20
56.07271975358816
 30
0.0
 10
794.0926731624415
 20
55.66485323935839
 30
0.0
 10
793.8702167489023
 20
55.19577847972329
 30
0.0
 10
793.6482364325564
 20
54.72384713692878
 30
0.0
 10
793.4231614844543
 20
54.12566076970317
 30
0.0
 10
793.1949919045965
 20
53.40092181730071
 30
0.0
 10
793.1949919045965
 20
53.40092181730071
 30
0.0
 10
791.9182182566376
 20
49.34344300010187
 30
0.0
 10
791.9182182566376
 20
49.34344300010187
 30
0.0
 10
791.9182182566376
 20
49.34344300010187
 30
0.0
 10
791.2051436854695
 20
49.34344300010187
 30
0.0
 10
791.2051436854695
 20
49.34344300010187
 30
0.0
 10
791.2051436854695
 20
49.34344300010187
 30
0.0
 10
792.6649767042272
 20
53.98253405098681
 30
0.0
 10
792.6649767042272
 20
53.98253405098681
 30
0.0
 10
792.8189941462388
 20
54.47624684037184
 30
0.0
 10
792.9346857641949
 20
54.87866799295399
 30
0.0
 10
793.0109208272618
 20
55.19318970123506
 30
0.0
 10
793.1405382881201
 20
55.73460147816736
 30
0.0
 10
793.1768406991043
 20
56.10072021976531
 30
0.0
 10
793.078824189447
 20
56.42562679807384
 30
0.0
 10
792.9823549956677
 20
56.74949191377216
 30
0.0
 10
792.8128048827268
 20
56.8322138010968
 30
0.0
 10
792.5296460770501
 20
56.8322138010968
 30
0.0
 10
792.2921330897748
 20
56.8322138010968
 30
0.0
 10
792.0603332688183
 20
56.73029924566987
 30
0.0
 10
791.7958612779762
 20
56.5275115974262
 30
0.0
 10
791.4628908034572
 20
56.27238301400122
 30
0.0
 10
791.3296431015003
 20
56.0628704929031
 30
0.0
 10
791.1662822520716
 20
55.81393117299019
 30
0.0
 10
790.9458492516037
 20
55.48462069564424
 30
0.0
 10
790.8426551849698
 20
55.26293794004404
 30
0.0
 10
790.6565011824148
 20
54.77648563285584
 30
0.0
 10
790.4702876677106
 20
54.28717674250827
 30
0.0
 10
790.2940126819153
 20
53.71776449939881
 30
0.0
 10
790.1710605817623
 20
53.32391309629489
 30
0.0
 10
790.1710605817623
 20
53.32391309629489
 30
0.0
 10
788.9186869149569
 20
49.34344300010187
 30
0.0
 10
788.9186869149569
 20
49.34344300010187
 30
0.0
 10
788.9186869149569
 20
49.34344300010187
 30
0.0
 10
788.1719284673673
 20
49.34344300010187
 30
0.0
 10
788.1719284673673
 20
49.34344300010187
 30
0.0
 10
788.1719284673673
 20
49.34344300010187
 30
0.0
 10
790.7239284474067
 20
57.48431817545629
 30
0.0
 10
790.7239284474067
 20
57.48431817545629
 30
0.0
  0
SPLINE
  5
3CF2
102
{ACAD_REACTORS
330
3CE3
330
3CF4
102
}
330
A
100
AcDbEntity
  8
TEMPLATE
100
AcDbSpline
210
0.0
220
0.0
230
1.0
 70
    11
 71
     3
 72
    32
 73
    28
 74
     0
 42
0.000000001
 43
0.0000000001
 40
0.0
 40
0.0
 40
0.0
 40
0.0
 40
1.0
 40
1.0
 40
1.0
 40
2.0
 40
2.0
 40
2.0
 40
3.0
 40
3.0
 40
3.0
 40
4.0
 40
4.0
 40
4.0
 40
5.0
 40
5.0
 40
5.0
 40
6.0
 40
6.0
 40
6.0
 40
7.0
 40
7.0
 40
7.0
 40
8.0
 40
8.0
 40
8.0
 40
9.0
 40
9.0
 40
9.0
 40
9.0
 10
780.5941870033864
 20
57.0552058239784
 30
0.0
 10
780.161176606139
 20
56.49510723221162
 30
0.0
 10
779.8277300344266
 20
55.99103932887373
 30
0.0
 10
779.2878953294471
 20
54.40673665015949
 30
0.0
 10
778.7915937615737
 20
52.95755630610032
 30
0.0
 10
778.4757627860113
 20
51.90323907168072
 30
0.0
 10
778.4280637984641
 20
50.61920494152507
 30
0.0
 10
778.3917613874798
 20
49.66367787470179
 30
0.0
 10
778.9736116697625
 20
49.34344300010187
 30
0.0
 10
779.8267183278911
 20
49.34344300010187
 30
0.0
 10
780.1943843853671
 20
49.34344300010187
 30
0.0
 10
781.1221787906843
 20
49.36683127471956
 30
0.0
 10
781.7828826705968
 20
50.18357600971474
 30
0.0
 10
782.2454110938247
 20
50.75739215186162
 30
0.0
 10
782.671696618218
 20
51.35221608265999
 30
0.0
 10
783.2431917865476
 20
53.30344091698579
 30
0.0
 10
783.7187533704407
 20
54.93466892530829
 30
0.0
 10
784.048034091712
 20
55.98895640365332
 30
0.0
 10
784.0236936227079
 20
56.58922569609933
 30
0.0
 10
784.0236936227079
 20
56.58922569609933
 30
0.0
 10
784.0236936227079
 20
56.58922569609933
 30
0.0
 10
784.0236936227079
 20
56.58922569609933
 30
0.0
 10
783.8686049620114
 20
57.59063662992067
 30
0.0
 10
783.141545035792
 20
57.80223207623919
 30
0.0
 10
782.7261502346942
 20
57.80223207623919
 30
0.0
 10
782.3170042092574
 20
57.80223207623919
 30
0.0
 10
781.2206713975349
 20
57.87302177765837
 30
0.0
 10
780.5941870033864
 20
57.0552058239784
 30
0.0
  0
SPLINE
  5
3CF3
102
{ACAD_REACTORS
330
3CE3
330
3CF4
102
}
330
A
100
AcDbEntity
  8
TEMPLATE
100
AcDbSpline
210
0.0
220
0.0
230
1.0
 70
    11
 71
     3
 72
    29
 73
    25
 74
     0
 42
0.000000001
 43
0.0000000001
 40
0.0
 40
0.0
 40
0.0
 40
0.0
 40
1.0
 40
1.0
 40
1.0
 40
2.0
 40
2.0
 40
2.0
 40
3.0
 40
3.0
 40
3.0
 40
4.0
 40
4.0
 40
4.0
 40
5.0
 40
5.0
 40
5.0
 40
6.0
 40
6.0
 40
6.0
 40
7.0
 40
7.0
 40
7.0
 40
8.0
 40
8.0
 40
8.0
 40
8.0
 10
779.2028524683053
 20
50.85927695121397
 30
0.0
 10
779.1996983244003
 20
51.42613017190976
 30
0.0
 10
779.3786513569075
 20
52.43325427204994
 30
0.0
 10
779.837073441844
 20
53.78078786535333
 30
0.0
 10
780.461474910772
 20
55.60546011450228
 30
0.0
 10
780.8359253532517
 20
56.27238301400122
 30
0.0
 10
781.1635992464958
 20
56.59702178763855
 30
0.0
 10
781.6423149742939
 20
57.06972678837207
 30
0.0
 10
782.2858793552498
 20
57.09329359943722
 30
0.0
 10
782.4757231110525
 20
57.06972678837207
 30
0.0
 10
782.7459082682135
 20
57.03729266708291
 30
0.0
 10
783.1275596807407
 20
56.86045231587057
 30
0.0
 10
783.1503528338669
 20
56.26512253180438
 30
0.0
 10
783.168563551508
 20
55.75560926681887
 30
0.0
 10
783.0217470795442
 20
54.80139146727697
 30
0.0
 10
782.5078596715957
 20
53.30344091698579
 30
0.0
 10
781.915594763211
 20
51.5627700663683
 30
0.0
 10
781.5598311355659
 20
50.87849937539085
 30
0.0
 10
781.274648916818
 20
50.58028399597808
 30
0.0
 10
780.7373732342519
 20
50.02122686682151
 30
0.0
 10
780.161176606139
 20
50.07490682535878
 30
0.0
 10
780.0761337449972
 20
50.07490682535878
 30
0.0
 10
779.9656791961665
 20
50.07490682535878
 30
0.0
 10
779.2043997841834
 20
50.19476429375578
 30
0.0
 10
779.2028524683053
 20
50.85927695121397
 30
0.0
  0
MTEXT
  5
3D12
330
A
100
AcDbEntity
  8
TEMPLATE
390
1D
100
AcDbMText
 10
52.8808578190923
 20
92.05971627757138
 30
0.0
 40
9.773046875
 41
0.0
 46
24.02999018688704
 71
     1
 72
     1
  1
{{\C7;ポップアップ排水金具、引棒付属/\Pクローム}}
  7
ＭＳ ゴシック
 73
     1
 44
0.7828267384257843
1001
ACAD
1000
ACAD_MTEXT_DEFINED_HEIGHT_BEGIN
1070
    46
1040
24.02999018688704
1000
ACAD_MTEXT_DEFINED_HEIGHT_END
  0
MTEXT
  5
3DB7
102
{ACAD_XDICTIONARY
360
3DB8
102
}
330
A
100
AcDbEntity
  8
TEMPLATE
100
AcDbMText
 10
29.38137849384168
 20
35.9671265159328
 30
0.0
 40
8.0
 41
0.0
 46
8.0
 71
     1
 72
     1
  1
{20200702N}
  7
ＭＳ ゴシック
 73
     1
 44
1.0
1001
ACAD
1000
ACAD_MTEXT_DEFINED_HEIGHT_BEGIN
1070
    46
1040
8.0
1000
ACAD_MTEXT_DEFINED_HEIGHT_END
  0
LINE
  5
99B8
330
A
100
AcDbEntity
  8
MODEL
100
AcDbLine
 10
503.8990830195703
 20
570.2548643405153
 30
0.0
 11
503.8990830195703
 21
530.2548617054931
 31
0.0
  0
LINE
  5
99B9
330
A
100
AcDbEntity
  8
MODEL
100
AcDbLine
 10
468.8990830195703
 20
570.254863786234
 30
0.0
 11
468.8990830195703
 21
530.2548611512116
 31
0.0
  0
LINE
  5
99C8
330
A
100
AcDbEntity
  8
MODEL
100
AcDbLine
 10
487.2555098665975
 20
694.504872931793
 30
0.0
 11
467.2555098665975
 21
694.504872931793
 31
0.0
  0
LINE
  5
99C9
330
A
100
AcDbEntity
  8
MODEL
100
AcDbLine
 10
507.2555098665975
 20
694.504872931793
 30
0.0
 11
487.2555098665975
 21
694.504872931793
 31
0.0
  0
LINE
  5
99CA
330
A
100
AcDbEntity
  8
MODEL
100
AcDbLine
 10
467.2555098665975
 20
574.2548229317906
 30
0.0
 11
467.2555098665975
 21
694.504872931793
 31
0.0
  0
LINE
  5
99CB
330
A
100
AcDbEntity
  8
MODEL
100
AcDbLine
 10
507.2555098665975
 20
574.2548229317906
 30
0.0
 11
507.2555098665975
 21
661.754872931793
 31
0.0
  0
LINE
  5
99CC
330
A
100
AcDbEntity
  8
MODEL
100
AcDbLine
 10
507.2555098665975
 20
685.754872931793
 30
0.0
 11
507.2555098665975
 21
694.504872931793
 31
0.0
  0
LINE
  5
99CD
330
A
100
AcDbEntity
  8
MODEL
100
AcDbLine
 10
507.2555098665975
 20
694.504872931793
 30
0.0
 11
507.053206321239
 21
694.7071764771517
 31
0.0
  0
LINE
  5
99CE
330
A
100
AcDbEntity
  8
MODEL
100
AcDbLine
 10
467.2555098665975
 20
694.504872931793
 30
0.0
 11
467.4578134119565
 21
694.7071764771517
 31
0.0
  0
ARC
  5
99CF
330
A
100
AcDbEntity
  8
MODEL
100
AcDbCircle
 10
487.2555098665975
 20
685.5807743881637
 30
0.0
 40
21.8
100
AcDbArc
 50
24.7488997032841
 51
31.1419743651223
  0
ARC
  5
99D0
330
A
100
AcDbEntity
  8
MODEL
100
AcDbCircle
 10
487.2555098665975
 20
685.5807743881637
 30
0.0
 40
21.8
100
AcDbArc
 50
148.8580256348777
 51
155.251100296715
  0
LINE
  5
99D1
330
A
100
AcDbEntity
  8
MODEL
100
AcDbLine
 10
507.2555098665978
 20
696.8548729317931
 30
0.0
 11
467.2566795013022
 21
696.8548729317929
 31
0.0
  0
LINE
  5
99D2
330
A
100
AcDbEntity
  8
MODEL
100
AcDbLine
 10
467.2566795013022
 20
696.8548729317929
 30
0.0
 11
467.2555098665978
 21
696.8548729317929
 31
0.0
  0
LINE
  5
99D3
330
A
100
AcDbEntity
  8
MODEL
100
AcDbLine
 10
467.4043498440599
 20
731.3548729317929
 30
0.0
 11
467.403197886229
 21
731.5763141456198
 31
0.0
  0
LINE
  5
99D4
330
A
100
AcDbEntity
  8
MODEL
100
AcDbLine
 10
467.403197886229
 20
731.1334317179658
 30
0.0
 11
467.4043498440599
 21
731.3548729317929
 31
0.0
  0
LWPOLYLINE
  5
99D5
330
A
100
AcDbEntity
  8
MODEL
100
AcDbPolyline
 90
       12
 70
     0
 43
0.0
 10
467.2730275617839
 20
733.9312158563259
 10
467.3070851789714
 20
733.707644078982
 10
467.3520070539714
 20
733.347536657107
 10
467.398546360612
 20
732.8718896844509
 10
467.4368459211589
 20
732.307802770388
 10
467.458604954362
 20
731.687685582888
 10
467.459093235612
 20
731.0478540399199
 10
467.438097141862
 20
730.426210973513
 10
467.4003163801433
 20
729.8591333367949
 10
467.3539296613933
 20
729.379335973513
 10
467.3087636457683
 20
729.0141626336699
 10
467.2730275617839
 20
728.7785669305449
  0
LINE
  5
99D6
330
A
100
AcDbEntity
  8
MODEL
100
AcDbLine
 10
467.2555098665975
 20
740.8789799059368
 30
0.0
 11
467.2555098665975
 21
734.4048729317929
 31
0.0
  0
LINE
  5
99D7
330
A
100
AcDbEntity
  8
MODEL
100
AcDbLine
 10
467.2555098665975
 20
728.3048729317929
 30
0.0
 11
467.2555098665978
 21
696.8548729317929
 31
0.0
  0
LINE
  5
99D8
330
A
100
AcDbEntity
  8
MODEL
100
AcDbLine
 10
507.2555098665975
 20
740.8789799059368
 30
0.0
 11
507.2555098665978
 21
696.8548729317931
 31
0.0
  0
ARC
  5
99D9
330
A
100
AcDbEntity
  8
MODEL
100
AcDbCircle
 10
467.7555098665975
 20
740.8789799059368
 30
0.0
 40
0.5
100
AcDbArc
 50
92.79602569628929
 51
179.9999999997655
  0
ARC
  5
99DA
330
A
100
AcDbEntity
  8
MODEL
100
AcDbCircle
 10
506.7555098665975
 20
740.8789799059368
 30
0.0
 40
0.5
100
AcDbArc
 50
0.0000000002344959
 51
87.20397430371072
  0
ARC
  5
99DB
330
A
100
AcDbEntity
  8
MODEL
100
AcDbCircle
 10
487.2555098665985
 20
341.6048729317928
 30
0.0
 40
400.2500000000001
100
AcDbArc
 50
90.00000000000016
 51
92.79602569628523
  0
ARC
  5
99DC
330
A
100
AcDbEntity
  8
MODEL
100
AcDbCircle
 10
487.2555098665985
 20
341.6048729317928
 30
0.0
 40
400.2500000000001
100
AcDbArc
 50
87.20397430371504
 51
90.00000000000009
  0
ELLIPSE
  5
99DD
330
A
100
AcDbEntity
  8
MODEL
100
AcDbEllipse
 10
467.0553808765933
 20
731.3548729317929
 30
0.0
 11
5.926988719125247E-15
 21
-3.050000000000001
 31
0.0
210
0.0
220
0.0
230
1.0
 40
0.0108148139680282
 41
6.242649526949725
 42
9.465317406218963
  0
LINE
  5
99DE
330
A
100
AcDbEntity
  8
MODEL
100
AcDbLine
 10
467.2882673106674
 20
731.1334317179658
 30
0.0
 11
467.4603313287298
 21
731.1334317179658
 31
0.0
  0
LINE
  5
99DF
330
A
100
AcDbEntity
  8
MODEL
100
AcDbLine
 10
467.4577405340196
 20
731.7331654957659
 30
0.0
 11
467.2880996652698
 21
731.7331654957659
 31
0.0
  0
LINE
  5
99E0
330
A
100
AcDbEntity
  8
MODEL
100
AcDbLine
 10
467.2882673106674
 20
731.5763141456198
 30
0.0
 11
467.4602939991537
 21
731.5763141456198
 31
0.0
  0
LINE
  5
99E1
330
A
100
AcDbEntity
  8
MODEL
100
AcDbLine
 10
467.4581307298283
 20
731.7136379776819
 30
0.0
 11
467.2881253712189
 21
731.7136379776819
 31
0.0
  0
LINE
  5
99E2
330
A
100
AcDbEntity
  8
MODEL
100
AcDbLine
 10
467.2882512554165
 20
731.5958416637038
 30
0.0
 11
467.4600482293588
 21
731.5958416637038
 31
0.0
  0
ELLIPSE
  5
99E3
330
A
100
AcDbEntity
  8
MODEL
100
AcDbEllipse
 10
467.2553691802311
 20
731.3548729317929
 30
0.0
 11
5.926492667621345E-15
 21
-3.050000000000001
 31
0.0
210
0.0
220
0.0
230
1.0
 40
0.0108148139680282
 41
6.283185307179586
 42
9.424777960769203
  0
ARC
  5
99E4
330
A
100
AcDbEntity
  8
MODEL
100
AcDbCircle
 10
478.4836098836254
 20
731.354974263332
 30
0.0
 40
11.82889737751834
100
AcDbArc
 50
180.0189564863196
 51
194.9300677904083
  0
ARC
  5
99E5
330
A
100
AcDbEntity
  8
MODEL
100
AcDbCircle
 10
478.4835983270875
 20
731.3547733658459
 30
0.0
 40
11.82888575623058
100
AcDbArc
 50
165.0699260511054
 51
180.0179814861062
  0
LINE
  5
99E6
330
A
100
AcDbEntity
  8
MODEL
100
AcDbLine
 10
467.2553691802311
 20
728.3048729317929
 30
0.0
 11
467.0553808765933
 21
728.3048729317929
 31
0.0
  0
LINE
  5
99E7
330
A
100
AcDbEntity
  8
MODEL
100
AcDbLine
 10
467.2553691802311
 20
734.4048729317929
 30
0.0
 11
467.0553808765933
 21
734.4048729317929
 31
0.0
  0
LINE
  5
99E8
330
A
100
AcDbEntity
  8
MODEL
100
AcDbLine
 10
612.647814712011
 20
649.754872931793
 30
0.0
 11
602.2555098665975
 21
643.754872931793
 31
0.0
  0
LINE
  5
99E9
330
A
100
AcDbEntity
  8
MODEL
100
AcDbLine
 10
602.2555098665975
 20
643.754872931793
 30
0.0
 11
591.8632050211845
 21
637.754872931793
 31
0.0
  0
LWPOLYLINE
  5
99EA
330
A
100
AcDbEntity
  8
MODEL
100
AcDbPolyline
 90
       17
 70
     0
 43
0.0
 10
503.2555104719402
 20
673.7548852899197
 10
503.3005849348308
 20
672.5529199578884
 10
503.4323903547527
 20
671.3692956903103
 10
503.6413747297527
 20
670.2199426629666
 10
503.9141408430339
 20
669.1170068719509
 10
504.2356740461589
 20
668.0693078973416
 10
504.5908681379558
 20
667.0829492547634
 10
504.9653188215495
 20
666.1627222039822
 10
505.3459340559245
 20
665.3130517938259
 10
505.720079563737
 20
664.5386072137478
 10
506.0759450422527
 20
663.8447900750759
 10
506.4023305402995
 20
663.2378869989041
 10
506.6887990461589
 20
662.7251306512478
 10
506.9250966535808
 20
662.3140283563259
 10
507.1025868879558
 20
662.0114465692166
 10
507.2142812238933
 20
661.8237024285916
 10
507.2555104719402
 20
661.7548852899197
  0
LWPOLYLINE
  5
99EB
330
A
100
AcDbEntity
  8
MODEL
100
AcDbPolyline
 90
       17
 70
     0
 43
0.0
 10
507.2555104719402
 20
685.7548852899197
 10
507.2193166242839
 20
685.6944604852322
 10
507.1122914777995
 20
685.5147119500759
 10
506.9390126692058
 20
685.2196680047634
 10
506.7065297590495
 20
684.8157678582791
 10
506.4231435285808
 20
684.3096948602322
 10
506.0991078840495
 20
683.7089258172634
 10
505.7448903547527
 20
683.0207544305447
 10
505.3716298567058
 20
682.2515893914822
 10
504.9910451399089
 20
681.4068933465603
 10
504.6157704817058
 20
680.4912439324978
 10
504.2588368879558
 20
679.5092493035916
 10
503.9345571027995
 20
678.4655481317166
 10
503.6580068098308
 20
677.3661218621853
 10
503.4442311750652
 20
676.2195459344509
 10
503.3068715559245
 20
675.0377832391384
 10
503.2555104719402
 20
673.7548852899197
  0
ARC
  5
99EC
330
A
100
AcDbEntity
  8
MODEL
100
AcDbCircle
 10
514.7554773136842
 20
650.3276099181612
 30
0.0
 40
11.63874453838006
100
AcDbArc
 50
79.06375768100547
 51
100.9344026968634
  0
LINE
  5
99ED
330
A
100
AcDbEntity
  8
MODEL
100
AcDbLine
 10
567.6144937152201
 20
661.754872931793
 30
0.0
 11
516.9635396441988
 21
661.754872931793
 31
0.0
  0
LINE
  5
99EE
330
A
100
AcDbEntity
  8
MODEL
100
AcDbLine
 10
512.5477818669883
 20
661.754872931793
 30
0.0
 11
507.2555098665975
 21
661.754872931793
 31
0.0
  0
LINE
  5
99EF
330
A
100
AcDbEntity
  8
MODEL
100
AcDbLine
 10
567.6144937152203
 20
685.754872931793
 30
0.0
 11
507.2555098665978
 21
685.754872931793
 31
0.0
  0
ARC
  5
99F0
330
A
100
AcDbEntity
  8
MODEL
100
AcDbCircle
 10
567.6144937152201
 20
643.754872931793
 30
0.0
 40
18.0
100
AcDbArc
 50
30.0
 51
89.99999999985162
  0
ARC
  5
99F1
330
A
100
AcDbEntity
  8
MODEL
100
AcDbCircle
 10
567.6144937152201
 20
643.754872931793
 30
0.0
 40
42.0
100
AcDbArc
 50
29.99999999999979
 51
89.99999999985111
  0
LINE
  5
99F2
330
A
100
AcDbEntity
  8
MODEL
100
AcDbLine
 10
591.8632050211845
 20
637.754872931793
 30
0.0
 11
583.2029509833401
 21
652.754872931793
 31
0.0
  0
LINE
  5
99F3
330
A
100
AcDbEntity
  8
MODEL
100
AcDbLine
 10
612.647814712011
 20
649.754872931793
 30
0.0
 11
603.9875606741666
 21
664.754872931793
 31
0.0
  0
ARC
  5
99F4
330
A
100
AcDbEntity
  8
MODEL
100
AcDbCircle
 10
605.5830042001467
 20
648.6012894123567
 30
0.0
 40
3.834133809390591
100
AcDbArc
 50
293.0009202540977
 51
306.9990795865057
  0
ARC
  5
99F5
330
A
100
AcDbEntity
  8
MODEL
100
AcDbCircle
 10
595.1600731608933
 20
653.7552388119018
 30
0.0
 40
14.3454603617574
100
AcDbArc
 50
298.6746646526412
 51
301.3253353855928
  0
LINE
  5
99F6
330
A
100
AcDbEntity
  8
MODEL
100
AcDbLine
 10
604.4726476397366
 20
642.5684823386753
 30
0.0
 11
604.2452209033759
 21
642.4361038671987
 31
0.0
  0
LINE
  5
99F7
330
A
100
AcDbEntity
  8
MODEL
100
AcDbLine
 10
601.7067371540829
 20
641.0983971563685
 30
0.0
 11
601.5709042928881
 21
641.3336665733186
 31
0.0
  0
LINE
  5
99F8
330
A
100
AcDbEntity
  8
MODEL
100
AcDbLine
 10
602.2814349637758
 20
641.4301990917531
 30
0.0
 11
602.2107815147301
 21
641.5525744552426
 31
0.0
  0
LINE
  5
99F9
330
A
100
AcDbEntity
  8
MODEL
100
AcDbLine
 10
600.6670798617838
 20
641.030327442151
 30
0.0
 11
600.5344245945644
 21
641.2600931048896
 31
0.0
  0
LINE
  5
99FA
330
A
100
AcDbEntity
  8
MODEL
100
AcDbLine
 10
601.2417776714765
 20
641.3621293775357
 30
0.0
 11
601.1306202307981
 21
641.5546597124489
 31
0.0
  0
ARC
  5
99FB
330
A
100
AcDbEntity
  8
MODEL
100
AcDbCircle
 10
594.8650745850443
 20
653.612108195053
 30
0.0
 40
14.26188313892252
100
AcDbArc
 50
298.6668965492041
 51
301.3331034890504
  0
ARC
  5
99FC
330
A
100
AcDbEntity
  8
MODEL
100
AcDbCircle
 10
599.4481843031708
 20
640.5656614314598
 30
0.0
 40
2.96221786367654
100
AcDbArc
 50
16.96903606783334
 51
19.6540744032784
  0
ARC
  5
99FD
330
A
100
AcDbEntity
  8
MODEL
100
AcDbCircle
 10
597.8255789583595
 20
654.2121667618765
 30
0.0
 40
13.3975839646113
100
AcDbArc
 50
286.4478399659256
 51
289.2282020414826
  0
ARC
  5
99FE
330
A
100
AcDbEntity
  8
MODEL
100
AcDbCircle
 10
594.3093024029167
 20
653.3600080235617
 30
0.0
 40
14.04862097323348
100
AcDbArc
 50
298.6466559133352
 51
301.353344124904
  0
ARC
  5
99FF
330
A
100
AcDbEntity
  8
MODEL
100
AcDbCircle
 10
598.2176345379801
 20
640.0172272879715
 30
0.0
 40
3.002977872131664
100
AcDbArc
 50
17.06302493649459
 51
19.73083354541175
  0
ARC
  5
9A00
330
A
100
AcDbEntity
  8
MODEL
100
AcDbCircle
 10
597.2459764690702
 20
653.8315939726194
 30
0.0
 40
13.49194897152876
100
AcDbArc
 50
286.5466525926588
 51
289.3066475852797
  0
ARC
  5
9A01
330
A
100
AcDbEntity
  8
MODEL
100
AcDbCircle
 10
594.0055594178039
 20
653.2320231678905
 30
0.0
 40
13.90169893247188
100
AcDbArc
 50
298.6323502048227
 51
301.367649833434
  0
LINE
  5
9A02
330
A
100
AcDbEntity
  8
MODEL
100
AcDbLine
 10
601.1594646735407
 20
641.5609406282197
 30
0.0
 11
601.2417776714765
 21
641.3621293775357
 31
0.0
  0
LINE
  5
9A03
330
A
100
AcDbEntity
  8
MODEL
100
AcDbLine
 10
600.9925577977249
 20
641.5245964340224
 30
0.0
 11
601.1594646735407
 21
641.5609406282197
 31
0.0
  0
LINE
  5
9A04
330
A
100
AcDbEntity
  8
MODEL
100
AcDbLine
 10
600.0100690541551
 20
640.8973367574506
 30
0.0
 11
599.9903155140573
 21
640.9459515813078
 31
0.0
  0
ARC
  5
9A05
330
A
100
AcDbEntity
  8
MODEL
100
AcDbCircle
 10
597.6091612113396
 20
654.4478893144692
 30
0.0
 40
13.76160721246692
100
AcDbArc
 50
280.0474795859845
 51
282.8386648204626
  0
LINE
  5
9A06
330
A
100
AcDbEntity
  8
MODEL
100
AcDbLine
 10
599.9903155158274
 20
640.9459515782421
 30
0.0
 11
600.9925577997128
 21
641.5245964305795
 31
0.0
  0
ARC
  5
9A07
330
A
100
AcDbEntity
  8
MODEL
100
AcDbCircle
 10
597.8578908045131
 20
646.3030874716007
 30
0.0
 40
6.435677406497591
100
AcDbArc
 50
298.015427062311
 51
301.9845730434073
  0
ARC
  5
9A08
330
A
100
AcDbEntity
  8
MODEL
100
AcDbCircle
 10
594.3816634205014
 20
657.675554314879
 30
0.0
 40
18.25042978061184
100
AcDbArc
 50
288.4811564701371
 51
290.8613689450813
  0
ARC
  5
9A09
330
A
100
AcDbEntity
  8
MODEL
100
AcDbCircle
 10
599.6497063908539
 20
644.0379078431092
 30
0.0
 40
3.707821978355121
100
AcDbArc
 50
272.9194769770546
 51
278.0184438440555
  0
ARC
  5
9A0A
330
A
100
AcDbEntity
  8
MODEL
100
AcDbCircle
 10
596.8637880352044
 20
645.9330856833237
 30
0.0
 40
6.339474739365716
100
AcDbArc
 50
297.9852984853178
 51
302.0147016203499
  0
ARC
  5
9A0B
330
A
100
AcDbEntity
  8
MODEL
100
AcDbCircle
 10
594.5069351558752
 20
657.7499186153675
 30
0.0
 40
18.11798720741663
100
AcDbArc
 50
288.3957235559548
 51
290.7939232472233
  0
ARC
  5
9A0C
330
A
100
AcDbEntity
  8
MODEL
100
AcDbCircle
 10
600.7378750694404
 20
644.5298501511134
 30
0.0
 40
3.723207686665995
100
AcDbArc
 50
273.096000081082
 51
278.1673260642048
  0
ARC
  5
9A0D
330
A
100
AcDbEntity
  8
MODEL
100
AcDbCircle
 10
596.3152140448744
 20
645.7568692410323
 30
0.0
 40
6.273198422069294
100
AcDbArc
 50
297.9640042542265
 51
302.0359958514729
  0
ARC
  5
9A0E
330
A
100
AcDbEntity
  8
MODEL
100
AcDbCircle
 10
594.4738492795605
 20
657.7468595875812
 30
0.0
 40
18.1715119205297
100
AcDbArc
 50
282.8146412421516
 51
285.2607779859578
  0
LINE
  5
9A0F
330
A
100
AcDbEntity
  8
MODEL
100
AcDbLine
 10
598.5042484289904
 20
640.027950812653
 30
0.0
 11
598.4117147456973
 21
640.0345460012359
 31
0.0
  0
LINE
  5
9A10
330
A
100
AcDbEntity
  8
MODEL
100
AcDbLine
 10
598.4117147467718
 20
640.0345459993746
 30
0.0
 11
599.0849171744567
 21
640.4232196021794
 31
0.0
  0
LINE
  5
9A11
330
A
100
AcDbEntity
  8
MODEL
100
AcDbLine
 10
599.0849171730072
 20
640.4232196046901
 30
0.0
 11
599.2762932065048
 21
640.4736910737267
 31
0.0
  0
ARC
  5
9A12
330
A
100
AcDbEntity
  8
MODEL
100
AcDbCircle
 10
599.9144827493647
 20
645.2609203657796
 30
0.0
 40
4.829580746535364
100
AcDbArc
 50
262.4066230772335
 51
266.7757134252508
  0
LINE
  5
9A13
330
A
100
AcDbEntity
  8
MODEL
100
AcDbLine
 10
600.8807882188239
 20
640.6215353154505
 30
0.0
 11
600.8007170891906
 21
640.7602225802086
 31
0.0
  0
LINE
  5
9A14
330
A
100
AcDbEntity
  8
MODEL
100
AcDbLine
 10
600.1669174003177
 20
640.3663364363595
 30
0.0
 11
600.1001640880581
 21
640.4819565647786
 31
0.0
  0
LINE
  5
9A15
330
A
100
AcDbEntity
  8
MODEL
100
AcDbLine
 10
599.2568219451109
 20
640.2161146530796
 30
0.0
 11
599.1303344246444
 21
640.4351974650724
 31
0.0
  0
LINE
  5
9A16
330
A
100
AcDbEntity
  8
MODEL
100
AcDbLine
 10
598.5042484289904
 20
640.027950812653
 30
0.0
 11
598.4782592078056
 21
640.0729654641984
 31
0.0
  0
ARC
  5
9A17
330
A
100
AcDbEntity
  8
MODEL
100
AcDbCircle
 10
598.3803352069872
 20
646.5245616876987
 30
0.0
 40
6.473379263058934
100
AcDbArc
 50
298.0269900742608
 51
301.9730100314314
  0
ARC
  5
9A18
330
A
100
AcDbEntity
  8
MODEL
100
AcDbCircle
 10
600.2736902290883
 20
640.997404409517
 30
0.0
 40
0.6329213789077845
100
AcDbArc
 50
293.6687628673448
 51
306.3312375592899
  0
ARC
  5
9A19
330
A
100
AcDbEntity
  8
MODEL
100
AcDbCircle
 10
594.761091868153
 20
655.9341810535584
 30
0.0
 40
16.55340146505096
100
AcDbArc
 50
287.8904798342853
 51
290.3875579517822
  0
ARC
  5
9A1A
330
A
100
AcDbEntity
  8
MODEL
100
AcDbCircle
 10
596.473793535903
 20
650.5608845490058
 30
0.0
 40
10.9138086477872
100
AcDbArc
 50
284.9274522461635
 51
287.9995918436443
  0
ARC
  5
9A1B
330
A
100
AcDbEntity
  8
MODEL
100
AcDbCircle
 10
599.0357929448996
 20
640.5868688718037
 30
0.0
 40
0.6235127128619034
100
AcDbArc
 50
293.5728262098244
 51
306.4271742155889
  0
ARC
  5
9A1C
330
A
100
AcDbEntity
  8
MODEL
100
AcDbCircle
 10
594.3818247808849
 20
655.7329043817724
 30
0.0
 40
16.43453307545376
100
AcDbArc
 50
287.8009181981036
 51
290.3167383255117
  0
ARC
  5
9A1D
330
A
100
AcDbEntity
  8
MODEL
100
AcDbCircle
 10
597.2373755534222
 20
650.9327004649547
 30
0.0
 40
10.98811666084655
100
AcDbArc
 50
285.0364065480956
 51
288.0865145795647
  0
ARC
  5
9A1E
330
A
100
AcDbEntity
  8
MODEL
100
AcDbCircle
 10
598.3494151334482
 20
640.4001365990891
 30
0.0
 40
0.6170313300361455
100
AcDbArc
 50
293.5050251395293
 51
306.4949752867047
  0
ARC
  5
9A1F
330
A
100
AcDbEntity
  8
MODEL
100
AcDbCircle
 10
594.4344154531827
 20
655.9022030732365
 30
0.0
 40
16.59795379701773
100
AcDbArc
 50
281.964623147548
 51
284.5188776699169
  0
LINE
  5
9A20
330
A
100
AcDbEntity
  8
MODEL
100
AcDbLine
 10
597.8752991006502
 20
639.6648267466089
 30
0.0
 11
597.7231652209966
 21
639.6370117457409
 31
0.0
  0
LINE
  5
9A21
330
A
100
AcDbEntity
  8
MODEL
100
AcDbLine
 10
597.7231652211628
 20
639.637011745453
 30
0.0
 11
597.9339917955581
 21
639.7587325249206
 31
0.0
  0
LINE
  5
9A22
330
A
100
AcDbEntity
  8
MODEL
100
AcDbLine
 10
597.9339917949337
 20
639.7587325260017
 30
0.0
 11
598.1170800995985
 21
639.8044190726362
 31
0.0
  0
ARC
  5
9A23
330
A
100
AcDbEntity
  8
MODEL
100
AcDbCircle
 10
596.5394995658141
 20
651.1409103476217
 30
0.0
 40
11.44573260077298
100
AcDbArc
 50
277.9223739634674
 51
280.9640381973138
  0
LINE
  5
9A24
330
A
100
AcDbEntity
  8
MODEL
100
AcDbLine
 10
600.5277755711356
 20
640.4177233671885
 30
0.0
 11
600.5125773965008
 21
640.4440473778409
 31
0.0
  0
LINE
  5
9A25
330
A
100
AcDbEntity
  8
MODEL
100
AcDbLine
 10
599.8462719401234
 20
640.1812116922351
 30
0.0
 11
599.8212115503079
 21
640.2246175606576
 31
0.0
  0
LINE
  5
9A26
330
A
100
AcDbEntity
  8
MODEL
100
AcDbLine
 10
598.5955054292765
 20
639.8343033828978
 30
0.0
 11
598.5709206870424
 21
639.8768854055425
 31
0.0
  0
LINE
  5
9A27
330
A
100
AcDbEntity
  8
MODEL
100
AcDbLine
 10
597.8752991006502
 20
639.6648267466089
 30
0.0
 11
597.8493098794654
 21
639.7098413981544
 31
0.0
  0
ARC
  5
9A28
330
A
100
AcDbEntity
  8
MODEL
100
AcDbCircle
 10
600.9210481769137
 20
641.2517210685573
 30
0.0
 40
0.6366088525066589
100
AcDbArc
 50
293.7055844188725
 51
306.2944160075237
  0
LINE
  5
9A29
330
A
100
AcDbEntity
  8
MODEL
100
AcDbLine
 10
602.4800080573564
 20
641.4166954136633
 30
0.0
 11
602.4027413661656
 21
641.3723478104534
 31
0.0
  0
ARC
  5
9A2A
330
A
100
AcDbEntity
  8
MODEL
100
AcDbCircle
 10
601.7944914624973
 20
648.4956850221452
 30
0.0
 40
6.473343939810106
100
AcDbArc
 50
298.0270050923056
 51
301.0398001071906
  0
LINE
  5
9A2B
330
A
100
AcDbEntity
  8
MODEL
100
AcDbLine
 10
604.8362359527939
 20
642.7814945966497
 30
0.0
 11
604.8207489032743
 21
642.8083189532799
 31
0.0
  0
LINE
  5
9A2C
330
A
100
AcDbEntity
  8
MODEL
100
AcDbLine
 10
606.4876976341207
 20
643.9939959384021
 30
0.0
 11
606.555010246293
 21
644.0545035588939
 31
0.0
  0
LINE
  5
9A2D
330
A
100
AcDbEntity
  8
MODEL
100
AcDbLine
 10
606.555010246293
 20
644.0545035588941
 30
0.0
 11
606.5821786810839
 21
644.0790462919738
 31
0.0
  0
ARC
  5
9A2E
330
A
100
AcDbEntity
  8
MODEL
100
AcDbCircle
 10
600.008799263042
 20
651.1027647284541
 30
0.0
 40
9.617405359829046
100
AcDbArc
 50
312.8356590778086
 51
316.1016947334532
  0
ARC
  5
9A2F
330
A
100
AcDbEntity
  8
MODEL
100
AcDbCircle
 10
595.0124509900302
 20
656.9329416625533
 30
0.0
 40
17.29232410092157
100
AcDbArc
 50
309.3972544702889
 51
311.8413739272559
  0
LINE
  5
9A30
330
A
100
AcDbEntity
  8
MODEL
100
AcDbLine
 10
608.0432832559372
 20
645.5953346710617
 30
0.0
 11
607.951576522652
 21
645.4823682284152
 31
0.0
  0
ARC
  5
9A31
330
A
100
AcDbEntity
  8
MODEL
100
AcDbCircle
 10
595.1786608956725
 20
657.1252038227237
 30
0.0
 40
17.28302619016796
100
AcDbArc
 50
315.1445712861148
 51
317.6500367827659
  0
LINE
  5
9A32
330
A
100
AcDbEntity
  8
MODEL
100
AcDbLine
 10
605.9877764238036
 20
643.570056329135
 30
0.0
 11
605.8515139248602
 21
643.8060699004941
 31
0.0
  0
LINE
  5
9A33
330
A
100
AcDbEntity
  8
MODEL
100
AcDbLine
 10
606.5476522287895
 20
644.0502554056952
 30
0.0
 11
606.4084478169825
 21
644.2913645196063
 31
0.0
  0
LINE
  5
9A34
330
A
100
AcDbEntity
  8
MODEL
100
AcDbLine
 10
607.4304034152801
 20
644.9351341131908
 30
0.0
 11
607.2977481480605
 21
645.1648997759291
 31
0.0
  0
LINE
  5
9A35
330
A
100
AcDbEntity
  8
MODEL
100
AcDbLine
 10
607.951576522652
 20
645.4823682284152
 30
0.0
 11
607.9255873014672
 21
645.5273828799609
 31
0.0
  0
ARC
  5
9A36
330
A
100
AcDbEntity
  8
MODEL
100
AcDbCircle
 10
602.7652841034453
 20
644.6696618987937
 30
0.0
 40
2.849482023867578
100
AcDbArc
 50
325.8880842229104
 51
331.5759992184516
  0
ARC
  5
9A37
330
A
100
AcDbEntity
  8
MODEL
100
AcDbCircle
 10
594.0365721457852
 20
657.0352419370226
 30
0.0
 40
17.73440360432901
100
AcDbArc
 50
309.308579219332
 51
311.7321279452677
  0
ARC
  5
9A38
330
A
100
AcDbEntity
  8
MODEL
100
AcDbCircle
 10
602.3962784966093
 20
645.7359144751574
 30
0.0
 40
4.097914623079244
100
AcDbArc
 50
338.4213853554397
 51
342.9958694377502
  0
LINE
  5
9A39
330
A
100
AcDbEntity
  8
MODEL
100
AcDbLine
 10
606.3150473556584
 20
644.5375176763496
 30
0.0
 11
606.4525936317891
 21
644.6769495913122
 31
0.0
  0
ARC
  5
9A3A
330
A
100
AcDbEntity
  8
MODEL
100
AcDbCircle
 10
596.6988476706663
 20
655.8990475063304
 30
0.0
 40
15.32554413663471
100
AcDbArc
 50
298.7139919979944
 51
301.2860079615077
  0
ARC
  5
9A3B
330
A
100
AcDbEntity
  8
MODEL
100
AcDbCircle
 10
604.7088321136448
 20
643.8287520488982
 30
0.0
 40
1.515687291477245
100
AcDbArc
 50
238.6876694990254
 51
244.730328150428
  0
ARC
  5
9A3C
330
A
100
AcDbEntity
  8
MODEL
100
AcDbCircle
 10
595.8744635902212
 20
651.6863249469686
 30
0.0
 40
12.18675254483927
100
AcDbArc
 50
311.3211827373605
 51
314.2329482566636
  0
ARC
  5
9A3D
330
A
100
AcDbEntity
  8
MODEL
100
AcDbCircle
 10
597.1273111175665
 20
656.1968252432678
 30
0.0
 40
15.0963723941291
100
AcDbArc
 50
298.6944662923075
 51
301.3055336671792
  0
ARC
  5
9A3E
330
A
100
AcDbEntity
  8
MODEL
100
AcDbCircle
 10
605.7699229893374
 20
644.601593949568
 30
0.0
 40
1.528416095368299
100
AcDbArc
 50
238.5036536321641
 51
244.5288161583467
  0
ARC
  5
9A3F
330
A
100
AcDbEntity
  8
MODEL
100
AcDbCircle
 10
596.5682826393024
 20
652.0297090471263
 30
0.0
 40
12.27134924238175
100
AcDbArc
 50
311.2389294111164
 51
314.1295590182889
  0
ARC
  5
9A40
330
A
100
AcDbEntity
  8
MODEL
100
AcDbCircle
 10
597.3547381031922
 20
656.3628553316746
 30
0.0
 40
14.93848977867203
100
AcDbArc
 50
298.6806658798375
 51
301.3193340796641
  0
ARC
  5
9A41
330
A
100
AcDbEntity
  8
MODEL
100
AcDbCircle
 10
607.0251819254347
 20
646.5841247296275
 30
0.0
 40
4.16217658676919
100
AcDbArc
 50
229.9091739746915
 51
233.0656152770685
  0
LINE
  5
9A42
330
A
100
AcDbEntity
  8
MODEL
100
AcDbLine
 10
604.3447354366087
 20
643.3999575606506
 30
0.0
 11
604.4526666410236
 21
643.5222912060524
 31
0.0
  0
LINE
  5
9A43
330
A
100
AcDbEntity
  8
MODEL
100
AcDbLine
 10
604.4526666430647
 20
643.5222912025172
 30
0.0
 11
605.4916157546577
 21
644.1221287517108
 31
0.0
  0
LINE
  5
9A44
330
A
100
AcDbEntity
  8
MODEL
100
AcDbLine
 10
605.4916157528032
 20
644.1221287549229
 30
0.0
 11
605.5362273316364
 21
644.0878657264204
 31
0.0
  0
ARC
  5
9A45
330
A
100
AcDbEntity
  8
MODEL
100
AcDbCircle
 10
595.7320615483304
 20
652.053217624826
 30
0.0
 40
12.63204249406954
100
AcDbArc
 50
318.0025574642684
 51
320.9080167094377
  0
LINE
  5
9A46
330
A
100
AcDbEntity
  8
MODEL
100
AcDbLine
 10
604.061816660839
 20
642.4581029437747
 30
0.0
 11
603.9852944475265
 21
642.5906433051525
 31
0.0
  0
LINE
  5
9A47
330
A
100
AcDbEntity
  8
MODEL
100
AcDbLine
 10
604.6575626083527
 20
642.8020570266594
 30
0.0
 11
604.522568214014
 21
643.0358741764144
 31
0.0
  0
LINE
  5
9A48
330
A
100
AcDbEntity
  8
MODEL
100
AcDbLine
 10
604.5241298927724
 20
643.2571963160058
 30
0.0
 11
604.403349832689
 21
643.466393516632
 31
0.0
  0
LINE
  5
9A49
330
A
100
AcDbEntity
  8
MODEL
100
AcDbLine
 10
605.1198758402861
 20
643.6011503988907
 30
0.0
 11
604.9872205730667
 21
643.8309160616291
 31
0.0
  0
ARC
  5
9A4A
330
A
100
AcDbEntity
  8
MODEL
100
AcDbCircle
 10
596.4650390985248
 20
655.7440706499606
 30
0.0
 40
15.41535628858994
100
AcDbArc
 50
298.7214857186763
 51
301.2785142408097
  0
ARC
  5
9A4B
330
A
100
AcDbEntity
  8
MODEL
100
AcDbCircle
 10
594.0596137842786
 20
657.7154895500289
 30
0.0
 40
18.21824603392928
100
AcDbArc
 50
298.8205028738533
 51
301.1794971243111
  0
ARC
  5
9A4C
330
A
100
AcDbEntity
  8
MODEL
100
AcDbCircle
 10
601.495448995574
 20
647.4691065383224
 30
0.0
 40
5.871739546801668
100
AcDbArc
 50
279.1412926299303
 51
283.2578100669278
  0
ARC
  5
9A4D
330
A
100
AcDbEntity
  8
MODEL
100
AcDbCircle
 10
598.8650461628854
 20
644.7649063192002
 30
0.0
 40
4.718383702754812
100
AcDbArc
 50
319.041378518433
 51
323.615073581336
  0
ARC
  5
9A4E
330
A
100
AcDbEntity
  8
MODEL
100
AcDbCircle
 10
594.0174099525575
 20
657.6915667146309
 30
0.0
 40
17.94580706257894
100
AcDbArc
 50
298.8025940986723
 51
301.1974058994822
  0
ARC
  5
9A4F
330
A
100
AcDbEntity
  8
MODEL
100
AcDbCircle
 10
602.4001765473536
 20
648.1077880570315
 30
0.0
 40
5.838661829684969
100
AcDbArc
 50
278.9958592055071
 51
283.1389732787743
  0
ARC
  5
9A50
330
A
100
AcDbEntity
  8
MODEL
100
AcDbCircle
 10
599.9175016359779
 20
645.2457292351999
 30
0.0
 40
4.742236537420423
100
AcDbArc
 50
318.9092428918382
 51
323.4554130944554
  0
ARC
  5
9A51
330
A
100
AcDbEntity
  8
MODEL
100
AcDbCircle
 10
593.9946558737181
 20
657.6787353111488
 30
0.0
 40
17.75811638356517
100
AcDbArc
 50
298.7899364965317
 51
301.2100635016324
  0
ARC
  5
9A52
330
A
100
AcDbEntity
  8
MODEL
100
AcDbCircle
 10
602.0990330243144
 20
648.8472309443825
 30
0.0
 40
6.746440425083694
100
AcDbArc
 50
269.9616273192183
 51
273.8069314002962
  0
LINE
  5
9A53
330
A
100
AcDbEntity
  8
MODEL
100
AcDbLine
 10
602.0945147336522
 20
642.1007920323154
 30
0.0
 11
602.1463062836349
 21
642.1907134331677
 31
0.0
  0
LINE
  5
9A54
330
A
100
AcDbEntity
  8
MODEL
100
AcDbLine
 10
602.1463062857499
 20
642.1907134295045
 30
0.0
 11
603.2790820498174
 21
642.8447218217559
 31
0.0
  0
LINE
  5
9A55
330
A
100
AcDbEntity
  8
MODEL
100
AcDbLine
 10
603.279082047685
 20
642.8447218254494
 30
0.0
 11
603.3936092960776
 21
642.8508246276069
 31
0.0
  0
ARC
  5
9A56
330
A
100
AcDbEntity
  8
MODEL
100
AcDbCircle
 10
598.2736135533121
 20
645.4190206942326
 30
0.0
 40
5.728000300503478
100
AcDbArc
 50
329.2541838980412
 51
333.3616017191953
  0
LINE
  5
9A57
330
A
100
AcDbEntity
  8
MODEL
100
AcDbLine
 10
602.8420330606859
 20
641.7538605540219
 30
0.0
 11
602.7060663873062
 21
641.9893617404748
 31
0.0
  0
LINE
  5
9A58
330
A
100
AcDbEntity
  8
MODEL
100
AcDbLine
 10
603.4915803418985
 20
642.1288768516677
 30
0.0
 11
603.3643230954835
 21
642.3492928681112
 31
0.0
  0
LINE
  5
9A59
330
A
100
AcDbEntity
  8
MODEL
100
AcDbLine
 10
602.54696030322
 20
642.1156769215722
 30
0.0
 11
602.4143050360003
 21
642.3454425843106
 31
0.0
  0
LINE
  5
9A5A
330
A
100
AcDbEntity
  8
MODEL
100
AcDbLine
 10
603.1965075844328
 20
642.4906932192177
 30
0.0
 11
603.0638523172131
 21
642.7204588819563
 31
0.0
  0
ARC
  5
9A5B
330
A
100
AcDbEntity
  8
MODEL
100
AcDbCircle
 10
594.0824121411849
 20
657.7282442616529
 30
0.0
 40
18.32501452031399
100
AcDbArc
 50
298.8273760340342
 51
301.1726239641235
  0
LINE
  5
9A5C
330
A
100
AcDbEntity
  8
MODEL
100
AcDbLine
 10
605.3051005269258
 20
643.0457072381093
 30
0.0
 11
605.1439172832606
 21
642.9292520866898
 31
0.0
  0
LINE
  5
9A5D
330
A
100
AcDbEntity
  8
MODEL
100
AcDbLine
 10
605.143917274459
 20
642.9292520985907
 30
0.0
 11
605.0870910421863
 21
643.0276780199204
 31
0.0
  0
LINE
  5
9A5E
330
A
100
AcDbEntity
  8
MODEL
100
AcDbLine
 10
603.7021632234923
 20
642.096855028816
 30
0.0
 11
603.8729254125028
 21
642.2253270003698
 31
0.0
  0
LINE
  5
9A5F
330
A
100
AcDbEntity
  8
MODEL
100
AcDbLine
 10
603.5677741898521
 20
642.049147859901
 30
0.0
 11
603.7021632387873
 21
642.0968550036814
 31
0.0
  0
LINE
  5
9A60
330
A
100
AcDbEntity
  8
MODEL
100
AcDbLine
 10
604.8362359527939
 20
642.7814945966497
 30
0.0
 11
604.6223106377129
 21
642.62810234883
 31
0.0
  0
LINE
  5
9A61
330
A
100
AcDbEntity
  8
MODEL
100
AcDbLine
 10
604.6223106293287
 20
642.6281023609722
 30
0.0
 11
604.6129332590281
 21
642.6443444427196
 31
0.0
  0
LINE
  5
9A62
330
A
100
AcDbEntity
  8
MODEL
100
AcDbLine
 10
601.5263147697879
 20
640.8406283373856
 30
0.0
 11
601.4220947974641
 21
640.8103392841565
 31
0.0
  0
LINE
  5
9A63
330
A
100
AcDbEntity
  8
MODEL
100
AcDbLine
 10
601.2978790031009
 20
640.73862326158
 30
0.0
 11
601.5263147815995
 21
640.8406283102397
 31
0.0
  0
LINE
  5
9A64
330
A
100
AcDbEntity
  8
MODEL
100
AcDbLine
 10
601.5263147756937
 20
640.8406283238128
 30
0.0
 11
601.5147611518405
 21
640.8606397873764
 31
0.0
  0
LINE
  5
9A65
330
A
100
AcDbEntity
  8
MODEL
100
AcDbLine
 10
604.6223106209445
 20
642.6281023731142
 30
0.0
 11
604.6074115534211
 21
642.6400313810095
 31
0.0
  0
LINE
  5
9A66
330
A
100
AcDbEntity
  8
MODEL
100
AcDbLine
 10
601.3544782051108
 20
640.7426920944076
 30
0.0
 11
601.1769885036267
 21
640.6688270985662
 31
0.0
  0
LINE
  5
9A67
330
A
100
AcDbEntity
  8
MODEL
100
AcDbLine
 10
605.1638430639089
 20
643.092878826747
 30
0.0
 11
605.1244948528681
 21
643.07164048337
 31
0.0
  0
ARC
  5
9A68
330
A
100
AcDbEntity
  8
MODEL
100
AcDbCircle
 10
602.2321399192338
 20
650.5417524667075
 30
0.0
 40
7.64652131991603
100
AcDbArc
 50
298.1655656367456
 51
299.9508977979008
  0
LWPOLYLINE
  5
9A69
330
A
100
AcDbEntity
  8
MODEL
100
AcDbPolyline
 90
        2
 70
     0
 43
0.0
 10
606.0496999250652
 20
643.9164148309353
 10
606.5052052961589
 20
644.3971277215603
  0
ARC
  5
9A6A
330
A
100
AcDbEntity
  8
MODEL
100
AcDbCircle
 10
602.637799415091
 20
650.9003444629755
 30
0.0
 40
7.5662858748143
100
AcDbArc
 50
298.1461594296149
 51
300.7395628442175
  0
LINE
  5
9A6B
330
A
100
AcDbEntity
  8
MODEL
100
AcDbLine
 10
607.0325493973937
 20
645.0117872871772
 30
0.0
 11
607.0811763164234
 21
645.0719746944087
 31
0.0
  0
LINE
  5
9A6C
330
A
100
AcDbEntity
  8
MODEL
100
AcDbLine
 10
606.4525936333521
 20
644.6769495886056
 30
0.0
 11
607.0325494490974
 21
645.0117872349113
 31
0.0
  0
LWPOLYLINE
  5
9A6D
330
A
100
AcDbEntity
  8
MODEL
100
AcDbPolyline
 90
        2
 70
     0
 43
0.0
 10
604.5054494367839
 20
642.5618921258572
 10
605.1638356672527
 20
643.0928674676541
  0
LINE
  5
9A6E
330
A
100
AcDbEntity
  8
MODEL
100
AcDbLine
 10
604.4686713600165
 20
642.5692810832547
 30
0.0
 11
604.5054327944204
 21
642.5618965432996
 31
0.0
  0
LWPOLYLINE
  5
9A6F
330
A
100
AcDbEntity
  8
MODEL
100
AcDbPolyline
 90
        2
 70
     0
 43
0.0
 10
602.5434743391277
 20
641.3067956903103
 10
603.4223805891277
 20
641.8142724969509
  0
LINE
  5
9A70
330
A
100
AcDbEntity
  8
MODEL
100
AcDbLine
 10
602.1636959835869
 20
641.2098948960381
 30
0.0
 11
602.0448997009835
 21
641.160621626359
 31
0.0
  0
LINE
  5
9A71
330
A
100
AcDbEntity
  8
MODEL
100
AcDbLine
 10
602.1745029603019
 20
641.2415438239211
 30
0.0
 11
602.163696260812
 21
641.2098943223468
 31
0.0
  0
LWPOLYLINE
  5
9A72
330
A
100
AcDbEntity
  8
MODEL
100
AcDbPolyline
 90
        2
 70
     0
 43
0.0
 10
604.2316457258464
 20
642.2814661004666
 10
603.3882009016277
 20
641.7929712274197
  0
LWPOLYLINE
  5
9A73
330
A
100
AcDbEntity
  8
MODEL
100
AcDbPolyline
 90
        2
 70
     0
 43
0.0
 10
605.9730397688152
 20
643.5600915887478
 10
605.3146535383464
 20
643.0290857293728
  0
LINE
  5
9A74
330
A
100
AcDbEntity
  8
MODEL
100
AcDbLine
 10
605.9877764238036
 20
643.570056329135
 30
0.0
 11
605.9730613083523
 21
643.5600811781062
 31
0.0
  0
ARC
  5
9A75
330
A
100
AcDbEntity
  8
MODEL
100
AcDbCircle
 10
606.2533979519956
 20
645.4271150441466
 30
0.0
 40
1.206486480608224
100
AcDbArc
 50
300.1262705202768
 51
304.6193228369798
  0
LWPOLYLINE
  5
9A76
330
A
100
AcDbEntity
  8
MODEL
100
AcDbPolyline
 90
        2
 70
     0
 43
0.0
 10
607.3144093977214
 20
644.8643213250759
 10
606.8589650617839
 20
644.3836084344509
  0
ARC
  5
9A77
330
A
100
AcDbEntity
  8
MODEL
100
AcDbCircle
 10
606.7520816190195
 20
645.9158320230617
 30
0.0
 40
1.192429809132272
100
AcDbArc
 50
298.1377125869471
 51
304.6705448198881
  0
LINE
  5
9A78
330
A
100
AcDbEntity
  8
MODEL
100
AcDbLine
 10
607.8903943371847
 20
645.5391769350279
 30
0.0
 11
607.8417674138955
 21
645.4789895317576
 31
0.0
  0
LINE
  5
9A79
330
A
100
AcDbEntity
  8
MODEL
100
AcDbLine
 10
607.8417674724824
 20
645.4789894784997
 30
0.0
 11
608.0432832562619
 21
645.5953346704994
 31
0.0
  0
ARC
  5
9A7A
330
A
100
AcDbEntity
  8
MODEL
100
AcDbCircle
 10
599.3275799206599
 20
646.9757252425618
 30
0.0
 40
6.517552922958828
100
AcDbArc
 50
299.5654387153485
 51
301.3704813415325
  0
ARC
  5
9A7B
330
A
100
AcDbEntity
  8
MODEL
100
AcDbCircle
 10
595.7000917628134
 20
654.0346253821083
 30
0.0
 40
14.44448386775914
100
AcDbArc
 50
299.0794189160135
 51
300.9205795524626
  0
ARC
  5
9A7C
330
A
100
AcDbEntity
  8
MODEL
100
AcDbCircle
 10
594.1244586997054
 20
657.7524423613477
 30
0.0
 40
18.45202434286963
100
AcDbArc
 50
299.1855034865404
 51
300.2582702071966
  0
LINE
  5
9A7D
330
A
100
AcDbEntity
  8
MODEL
100
AcDbLine
 10
602.0479214145007
 20
641.1417780747634
 30
0.0
 11
602.0435355892282
 21
641.1691282932206
 31
0.0
  0
LINE
  5
9A7E
330
A
100
AcDbEntity
  8
MODEL
100
AcDbLine
 10
601.8081171862211
 20
641.0332094146934
 30
0.0
 11
602.0479214271472
 21
641.1417780480995
 31
0.0
  0
LINE
  5
9A7F
330
A
100
AcDbEntity
  8
MODEL
100
AcDbLine
 10
602.6182333989209
 20
641.5009302286053
 30
0.0
 11
602.8244727506774
 21
641.5901201641248
 31
0.0
  0
LINE
  5
9A80
330
A
100
AcDbEntity
  8
MODEL
100
AcDbLine
 10
602.8244727367876
 20
641.5901201900706
 30
0.0
 11
602.9182269086393
 21
641.6741315622555
 31
0.0
  0
LINE
  5
9A81
330
A
100
AcDbEntity
  8
MODEL
100
AcDbLine
 10
602.1636961221993
 20
641.2098946091926
 30
0.0
 11
602.1524778136031
 21
641.2293252882182
 31
0.0
  0
LINE
  5
9A82
330
A
100
AcDbEntity
  8
MODEL
100
AcDbLine
 10
604.2316269489534
 20
642.2814729728111
 30
0.0
 11
604.1681818972365
 21
642.3913630381589
 31
0.0
  0
LINE
  5
9A83
330
A
100
AcDbEntity
  8
MODEL
100
AcDbLine
 10
605.3146506861756
 20
643.029098999712
 30
0.0
 11
605.2113343566039
 21
643.208048135644
 31
0.0
  0
LINE
  5
9A84
330
A
100
AcDbEntity
  8
MODEL
100
AcDbLine
 10
605.9730595524661
 20
643.56008329206
 30
0.0
 11
605.836635929616
 21
643.7963762268903
 31
0.0
  0
LINE
  5
9A85
330
A
100
AcDbEntity
  8
MODEL
100
AcDbLine
 10
606.8589401526551
 20
644.383601459178
 30
0.0
 11
606.6303306334528
 21
644.7795660943877
 31
0.0
  0
LINE
  5
9A86
330
A
100
AcDbEntity
  8
MODEL
100
AcDbLine
 10
607.3144225800088
 20
644.8643274425465
 30
0.0
 11
607.180102298275
 21
645.0969769133103
 31
0.0
  0
LINE
  5
9A87
330
A
100
AcDbEntity
  8
MODEL
100
AcDbLine
 10
607.8417674428538
 20
645.4789895057088
 30
0.0
 11
607.180102298275
 21
645.0969769133103
 31
0.0
  0
LINE
  5
9A88
330
A
100
AcDbEntity
  8
MODEL
100
AcDbLine
 10
602.5434531176634
 20
641.3068053579864
 30
0.0
 11
602.4795049482045
 21
641.4175668241787
 31
0.0
  0
LINE
  5
9A89
330
A
100
AcDbEntity
  8
MODEL
100
AcDbLine
 10
601.3544781176711
 20
640.742692301347
 30
0.0
 11
601.3447449484406
 21
640.7595506446121
 31
0.0
  0
LINE
  5
9A8A
330
A
100
AcDbEntity
  8
MODEL
100
AcDbLine
 10
605.163841662355
 20
643.0928806975314
 30
0.0
 11
605.1521308629958
 21
643.1131644259099
 31
0.0
  0
LINE
  5
9A8B
330
A
100
AcDbEntity
  8
MODEL
100
AcDbLine
 10
606.5052046104154
 20
644.397125135529
 30
0.0
 11
606.3838696113362
 21
644.6072834248027
 31
0.0
  0
LINE
  5
9A8C
330
A
100
AcDbEntity
  8
MODEL
100
AcDbLine
 10
603.4224089133213
 20
641.8142707268557
 30
0.0
 11
603.3587277108115
 21
641.9245698215288
 31
0.0
  0
LINE
  5
9A8D
330
A
100
AcDbEntity
  8
MODEL
100
AcDbLine
 10
602.7204212400925
 20
641.4109140289327
 30
0.0
 11
602.658417258418
 21
641.5183080753011
 31
0.0
  0
LINE
  5
9A8E
330
A
100
AcDbEntity
  8
MODEL
100
AcDbLine
 10
603.1223814115863
 20
641.6429858423271
 30
0.0
 11
603.0591516017771
 21
641.7525030852548
 31
0.0
  0
ARC
  5
9A8F
330
A
100
AcDbEntity
  8
MODEL
100
AcDbCircle
 10
608.3780824313626
 20
646.7502661747956
 30
0.0
 40
0.499999999999997
100
AcDbArc
 50
322.17879812577
 51
29.99999999738282
  0
ARC
  5
9A90
330
A
100
AcDbEntity
  8
MODEL
100
AcDbCircle
 10
596.600136939604
 20
639.9502661752979
 30
0.0
 40
0.4999999999999911
100
AcDbArc
 50
209.9999999977448
 51
277.8212018693534
  0
ARC
  5
9A91
330
A
100
AcDbEntity
  8
MODEL
100
AcDbCircle
 10
594.1488432368519
 20
657.7960314141612
 30
0.0
 40
18.51333333333334
100
AcDbArc
 50
312.18939733403
 51
322.178798125777
  0
ARC
  5
9A92
330
A
100
AcDbEntity
  8
MODEL
100
AcDbCircle
 10
594.1488432368519
 20
657.7960314141612
 30
0.0
 40
18.51333333333334
100
AcDbArc
 50
307.4046323319652
 51
311.7986652586716
  0
ARC
  5
9A93
330
A
100
AcDbEntity
  8
MODEL
100
AcDbCircle
 10
594.1488432368519
 20
657.7960314141612
 30
0.0
 40
18.51333333333334
100
AcDbArc
 50
277.8212018693354
 51
287.8106026610823
  0
ARC
  5
9A94
330
A
100
AcDbEntity
  8
MODEL
100
AcDbCircle
 10
594.1488432368519
 20
657.7960314141612
 30
0.0
 40
18.51333333333334
100
AcDbArc
 50
288.2013347364418
 51
292.3107860339111
  0
LINE
  5
9A95
330
A
100
AcDbEntity
  8
MODEL
100
AcDbLine
 10
595.9335244182103
 20
640.1048729313536
 30
0.0
 11
596.1671242377013
 21
639.7002661753163
 31
0.0
  0
LINE
  5
9A96
330
A
100
AcDbEntity
  8
MODEL
100
AcDbLine
 10
608.577495313463
 20
647.4048729313536
 30
0.0
 11
608.8110951332656
 21
647.0002661747772
 31
0.0
  0
LINE
  5
9A97
330
A
100
AcDbEntity
  8
MODEL
100
AcDbLine
 10
467.0055128063036
 20
574.2548738458279
 30
0.0
 11
507.5055128063036
 21
574.2548738458279
 31
0.0
  0
LINE
  5
9A98
102
{ACAD_REACTORS
330
9CF5
330
9D00
102
}
330
A
100
AcDbEntity
  8
MODEL
100
AcDbLine
 10
461.9555128063037
 20
570.2548738458279
 30
0.0
 11
512.5555128063036
 21
570.2548738458279
 31
0.0
  0
ARC
  5
9A99
330
A
100
AcDbEntity
  8
MODEL
100
AcDbCircle
 10
461.9555128063037
 20
570.549512758126
 30
0.0
 40
0.2
100
AcDbArc
 50
124.4389893089832
 51
180.0
  0
ARC
  5
9A9A
330
A
100
AcDbEntity
  8
MODEL
100
AcDbCircle
 10
512.5555128063036
 20
570.549512758126
 30
0.0
 40
0.2
100
AcDbArc
 50
0.0
 51
55.5610106910168
  0
LINE
  5
9A9B
330
A
100
AcDbEntity
  8
MODEL
100
AcDbLine
 10
461.7555128063036
 20
570.4548738458279
 30
0.0
 11
461.7555128063036
 21
570.549512758126
 31
0.0
  0
LINE
  5
9A9C
330
A
100
AcDbEntity
  8
MODEL
100
AcDbLine
 10
512.7555128063036
 20
570.4548738458279
 30
0.0
 11
512.7555128063036
 21
570.549512758126
 31
0.0
  0
ARC
  5
9A9D
330
A
100
AcDbEntity
  8
MODEL
100
AcDbCircle
 10
461.9555128063037
 20
570.4548738458279
 30
0.0
 40
0.2
100
AcDbArc
 50
180.0000000002605
 51
270.0
  0
ARC
  5
9A9E
330
A
100
AcDbEntity
  8
MODEL
100
AcDbCircle
 10
512.5555128063036
 20
570.4548738458279
 30
0.0
 40
0.2
100
AcDbArc
 50
270.0
 51
359.9999999997394
  0
LINE
  5
9A9F
330
A
100
AcDbEntity
  8
MODEL
100
AcDbLine
 10
461.8424071351933
 20
570.714458528495
 30
0.0
 11
467.0055128063036
 21
574.2548738458279
 31
0.0
  0
LINE
  5
9AA0
330
A
100
AcDbEntity
  8
MODEL
100
AcDbLine
 10
512.6686184774139
 20
570.714458528495
 30
0.0
 11
507.5055128063036
 21
574.2548738458279
 31
0.0
  0
LINE
  5
9AA1
330
A
100
AcDbEntity
  8
MODEL
100
AcDbLine
 10
506.6505127490832
 20
569.5194628388324
 30
0.0
 11
467.860512863524
 21
569.5194628388324
 31
0.0
  0
ARC
  5
9AA2
330
A
100
AcDbEntity
  8
MODEL
100
AcDbCircle
 10
467.8605127490832
 20
570.8294627816119
 30
0.0
 40
1.309999942779541
100
AcDbArc
 50
206.01570717187
 51
269.9999999997713
  0
ARC
  5
9AA3
330
A
100
AcDbEntity
  8
MODEL
100
AcDbCircle
 10
506.650512863524
 20
570.8294627816119
 30
0.0
 40
1.309999942779541
100
AcDbArc
 50
270.0000000002287
 51
333.98429282813
  0
LINE
  5
9AA4
330
A
100
AcDbEntity
  8
MODEL
100
AcDbLine
 10
494.2555075322343
 20
350.1578575551443
 30
0.0
 11
492.6798375725039
 21
350.1578575551443
 31
0.0
  0
LINE
  5
9AA5
330
A
100
AcDbEntity
  8
MODEL
100
AcDbLine
 10
492.6798375725039
 20
350.1578575551443
 30
0.0
 11
487.8124431103981
 21
350.1578575551443
 31
0.0
  0
LINE
  5
9AA6
330
A
100
AcDbEntity
  8
MODEL
100
AcDbLine
 10
487.8124431103981
 20
350.1578575551443
 30
0.0
 11
484.3881130701284
 21
350.1578575551443
 31
0.0
  0
LINE
  5
9AA7
330
A
100
AcDbEntity
  8
MODEL
100
AcDbLine
 10
484.3881130701284
 20
350.1578575551443
 30
0.0
 11
484.2555075322343
 21
350.1578575551443
 31
0.0
  0
LINE
  5
9AA8
330
A
100
AcDbEntity
  8
MODEL
100
AcDbLine
 10
494.6470956050937
 20
349.6578575551443
 30
0.0
 11
494.3494280590648
 21
349.6578575551443
 31
0.0
  0
LINE
  5
9AA9
330
A
100
AcDbEntity
  8
MODEL
100
AcDbLine
 10
491.0102470859431
 20
349.6578575551443
 30
0.0
 11
490.0062272077128
 21
349.6578575551443
 31
0.0
  0
LINE
  5
9AAA
330
A
100
AcDbEntity
  8
MODEL
100
AcDbLine
 10
485.6186590130835
 20
349.6578575551443
 30
0.0
 11
484.9123066808822
 21
349.6578575551443
 31
0.0
  0
LINE
  5
9AAB
330
A
100
AcDbEntity
  8
MODEL
100
AcDbLine
 10
494.6470956050937
 20
349.6578575551443
 30
0.0
 11
494.6470956050937
 21
342.1578575551443
 31
0.0
  0
LINE
  5
9AAC
330
A
100
AcDbEntity
  8
MODEL
100
AcDbLine
 10
494.3494280590648
 20
342.1578575551443
 30
0.0
 11
494.3494280590648
 21
349.6578575551443
 31
0.0
  0
LINE
  5
9AAD
330
A
100
AcDbEntity
  8
MODEL
100
AcDbLine
 10
491.0102470859431
 20
349.6578575551443
 30
0.0
 11
491.0102470859431
 21
342.1578575551443
 31
0.0
  0
LINE
  5
9AAE
330
A
100
AcDbEntity
  8
MODEL
100
AcDbLine
 10
490.0062272077128
 20
342.1578575551443
 30
0.0
 11
490.0062272077128
 21
349.6578575551443
 31
0.0
  0
LINE
  5
9AAF
330
A
100
AcDbEntity
  8
MODEL
100
AcDbLine
 10
485.6186590130835
 20
349.6578575551443
 30
0.0
 11
485.6186590130835
 21
342.1578575551443
 31
0.0
  0
LINE
  5
9AB0
330
A
100
AcDbEntity
  8
MODEL
100
AcDbLine
 10
484.9123066808822
 20
342.1578575551443
 30
0.0
 11
484.9123066808822
 21
349.6578575551443
 31
0.0
  0
LINE
  5
9AB1
330
A
100
AcDbEntity
  8
MODEL
100
AcDbLine
 10
483.8639194593748
 20
349.6578575551443
 30
0.0
 11
483.8639194593748
 21
342.1578575551443
 31
0.0
  0
LINE
  5
9AB2
330
A
100
AcDbEntity
  8
MODEL
100
AcDbLine
 10
483.7555075322343
 20
342.1578575551443
 30
0.0
 11
484.9123066808822
 21
342.1578575551443
 31
0.0
  0
LINE
  5
9AB3
330
A
100
AcDbEntity
  8
MODEL
100
AcDbLine
 10
485.6186590130835
 20
342.1578575551443
 30
0.0
 11
490.0062272077128
 21
342.1578575551443
 31
0.0
  0
LINE
  5
9AB4
330
A
100
AcDbEntity
  8
MODEL
100
AcDbLine
 10
491.0102470859431
 20
342.1578575551443
 30
0.0
 11
494.3494280590648
 21
342.1578575551443
 31
0.0
  0
LINE
  5
9AB5
330
A
100
AcDbEntity
  8
MODEL
100
AcDbLine
 10
494.6470956050937
 20
342.1578575551443
 30
0.0
 11
494.7555075322343
 21
342.1578575551443
 31
0.0
  0
LWPOLYLINE
  5
9AB6
330
A
100
AcDbEntity
  8
MODEL
100
AcDbPolyline
 90
        3
 70
     0
 43
0.0
 10
494.647081516862
 20
349.6578546502712
 10
494.6065846906902
 20
349.7292200067165
 10
494.391710423112
 20
350.0216394403103
  0
LWPOLYLINE
  5
9AB7
330
A
100
AcDbEntity
  8
MODEL
100
AcDbPolyline
 90
        4
 70
     0
 43
0.0
 10
491.0102406965495
 20
349.6578546502712
 10
491.5126210676433
 20
349.9075189569118
 10
492.0319692121745
 20
350.0794092157009
 10
492.6798268781902
 20
350.1578546502712
  0
LWPOLYLINE
  5
9AB8
330
A
100
AcDbEntity
  8
MODEL
100
AcDbPolyline
 90
        4
 70
     0
 43
0.0
 10
492.6798268781902
 20
350.1578546502712
 10
493.214708469987
 20
350.1040216424587
 10
493.739854954362
 20
349.9506097772243
 10
494.3494130598308
 20
349.6578546502712
  0
LWPOLYLINE
  5
9AB9
330
A
100
AcDbEntity
  8
MODEL
100
AcDbPolyline
 90
        4
 70
     0
 43
0.0
 10
485.6186696516277
 20
349.6578546502712
 10
486.2787648664714
 20
349.9075189569118
 10
486.9611684309245
 20
350.0794092157009
 10
487.8124562727214
 20
350.1578546502712
  0
LWPOLYLINE
  5
9ABA
330
A
100
AcDbEntity
  8
MODEL
100
AcDbPolyline
 90
        4
 70
     0
 43
0.0
 10
487.8124562727214
 20
350.1578546502712
 10
488.515245579362
 20
350.1040216424587
 10
489.2052785383464
 20
349.9506097772243
 10
490.006212376237
 20
349.6578546502712
  0
LWPOLYLINE
  5
9ABB
330
A
100
AcDbEntity
  8
MODEL
100
AcDbPolyline
 90
        4
 70
     0
 43
0.0
 10
483.8639089094402
 20
349.6578546502712
 10
484.0216542707683
 20
349.9075189569118
 10
484.1847096906902
 20
350.0794092157009
 10
484.3881093488933
 20
350.1578546502712
  0
LWPOLYLINE
  5
9ABC
330
A
100
AcDbEntity
  8
MODEL
100
AcDbPolyline
 90
        4
 70
     0
 43
0.0
 10
484.3881093488933
 20
350.1578546502712
 10
484.5560475813152
 20
350.1040216424587
 10
484.7209340559245
 20
349.9506097772243
 10
484.9123097883464
 20
349.6578546502712
  0
LINE
  5
9ABD
330
A
100
AcDbEntity
  8
MODEL
100
AcDbLine
 10
484.1192900681863
 20
350.0216400910965
 30
0.0
 11
484.2555075322343
 21
350.1578575551443
 31
0.0
  0
LINE
  5
9ABE
330
A
100
AcDbEntity
  8
MODEL
100
AcDbLine
 10
494.3917244961881
 20
350.0216405911905
 30
0.0
 11
494.2555075322343
 21
350.1578575551443
 31
0.0
  0
LINE
  5
9ABF
330
A
100
AcDbEntity
  8
MODEL
100
AcDbLine
 10
494.7555075322343
 20
340.1578575551443
 30
0.0
 11
494.7555075322343
 21
342.1578575551443
 31
0.0
  0
LINE
  5
9AC0
330
A
100
AcDbEntity
  8
MODEL
100
AcDbLine
 10
483.7555075322343
 20
340.1578575551443
 30
0.0
 11
483.7555075322343
 21
342.1578575551443
 31
0.0
  0
LINE
  5
9AC1
330
A
100
AcDbEntity
  8
MODEL
100
AcDbLine
 10
493.2921516039692
 20
340.1578575551443
 30
0.0
 11
487.7712979560451
 21
340.1578575551443
 31
0.0
  0
LINE
  5
9AC2
330
A
100
AcDbEntity
  8
MODEL
100
AcDbLine
 10
483.4452518889448
 20
340.1578575551443
 30
0.0
 11
487.7712979560451
 21
340.1578575551443
 31
0.0
  0
LINE
  5
9AC3
330
A
100
AcDbEntity
  8
MODEL
100
AcDbLine
 10
483.4452518889448
 20
340.1578575551443
 30
0.0
 11
480.0366497425205
 21
340.1578575551443
 31
0.0
  0
LINE
  5
9AC4
330
A
100
AcDbEntity
  8
MODEL
100
AcDbLine
 10
479.3555075322342
 20
340.1578575551443
 30
0.0
 11
480.0366497425205
 21
340.1578575551443
 31
0.0
  0
LINE
  5
9AC5
330
A
100
AcDbEntity
  8
MODEL
100
AcDbLine
 10
493.2921516039692
 20
340.1578575551443
 30
0.0
 11
496.990155745759
 21
340.1578575551443
 31
0.0
  0
LINE
  5
9AC6
330
A
100
AcDbEntity
  8
MODEL
100
AcDbLine
 10
499.1024072472587
 20
340.1578575551443
 30
0.0
 11
499.1555075322342
 21
340.1578575551443
 31
0.0
  0
LINE
  5
9AC7
330
A
100
AcDbEntity
  8
MODEL
100
AcDbLine
 10
499.1024072472587
 20
340.1578575551443
 30
0.0
 11
496.9901557457588
 21
340.1578575551443
 31
0.0
  0
LINE
  5
9AC8
330
A
100
AcDbEntity
  8
MODEL
100
AcDbLine
 10
478.4386195897825
 20
328.1578575551443
 30
0.0
 11
478.4713513149102
 21
328.1578575551443
 31
0.0
  0
LINE
  5
9AC9
330
A
100
AcDbEntity
  8
MODEL
100
AcDbLine
 10
485.0105503165551
 20
328.1578575551443
 30
0.0
 11
485.2360113010077
 21
328.1578575551443
 31
0.0
  0
LINE
  5
9ACA
330
A
100
AcDbEntity
  8
MODEL
100
AcDbLine
 10
495.8274382590066
 20
328.1578575551443
 30
0.0
 11
496.0201675183316
 21
328.1578575551443
 31
0.0
  0
LINE
  5
9ACB
330
A
100
AcDbEntity
  8
MODEL
100
AcDbLine
 10
478.4386195897825
 20
339.5805072859546
 30
0.0
 11
478.4713513149104
 21
339.5805072859546
 31
0.0
  0
LINE
  5
9ACC
330
A
100
AcDbEntity
  8
MODEL
100
AcDbLine
 10
485.0105503165548
 20
339.5805072859546
 30
0.0
 11
485.2360113010077
 21
339.5805072859546
 31
0.0
  0
LINE
  5
9ACD
330
A
100
AcDbEntity
  8
MODEL
100
AcDbLine
 10
495.8274382590066
 20
339.5805072859546
 30
0.0
 11
496.0201675183316
 21
339.5805072859546
 31
0.0
  0
LINE
  5
9ACE
330
A
100
AcDbEntity
  8
MODEL
100
AcDbLine
 10
485.2360113010077
 20
328.1578575551443
 30
0.0
 11
495.8274382590066
 21
328.1578575551443
 31
0.0
  0
LINE
  5
9ACF
330
A
100
AcDbEntity
  8
MODEL
100
AcDbLine
 10
478.4713513149102
 20
328.1578575551443
 30
0.0
 11
485.0105503165551
 21
328.1578575551443
 31
0.0
  0
LINE
  5
9AD0
330
A
100
AcDbEntity
  8
MODEL
100
AcDbLine
 10
496.0201675183316
 20
328.1578575551443
 30
0.0
 11
500.0723954746859
 21
328.1578575551443
 31
0.0
  0
LINE
  5
9AD1
330
A
100
AcDbEntity
  8
MODEL
100
AcDbLine
 10
485.2360113010077
 20
339.5805072859546
 30
0.0
 11
485.2360113010077
 21
328.1578575551443
 31
0.0
  0
LINE
  5
9AD2
330
A
100
AcDbEntity
  8
MODEL
100
AcDbLine
 10
495.8274382590066
 20
328.1578575551443
 30
0.0
 11
495.8274382590066
 21
339.5805072859546
 31
0.0
  0
LINE
  5
9AD3
330
A
100
AcDbEntity
  8
MODEL
100
AcDbLine
 10
478.4713513149104
 20
339.5805072859546
 30
0.0
 11
478.4713513149104
 21
328.1578575551443
 31
0.0
  0
LINE
  5
9AD4
330
A
100
AcDbEntity
  8
MODEL
100
AcDbLine
 10
485.0105503165548
 20
328.1578575551443
 30
0.0
 11
485.0105503165548
 21
339.5805072859546
 31
0.0
  0
LINE
  5
9AD5
330
A
100
AcDbEntity
  8
MODEL
100
AcDbLine
 10
478.4386195897825
 20
328.1578575551443
 30
0.0
 11
478.4386195897825
 21
339.5805072859546
 31
0.0
  0
LINE
  5
9AD6
330
A
100
AcDbEntity
  8
MODEL
100
AcDbLine
 10
496.0201675183316
 20
339.5805072859546
 30
0.0
 11
496.0201675183316
 21
328.1578575551443
 31
0.0
  0
LINE
  5
9AD7
330
A
100
AcDbEntity
  8
MODEL
100
AcDbLine
 10
500.0723954746859
 20
328.1578575551443
 30
0.0
 11
500.0723954746859
 21
339.5805072859546
 31
0.0
  0
ARC
  5
9AD8
330
A
100
AcDbEntity
  8
MODEL
100
AcDbCircle
 10
489.5768345947022
 20
317.987781270148
 30
0.0
 40
22.47923181431936
100
AcDbArc
 50
73.85547095524791
 51
80.4866296982238
  0
ARC
  5
9AD9
330
A
100
AcDbEntity
  8
MODEL
100
AcDbCircle
 10
491.4866149653171
 20
317.9877812701239
 30
0.0
 40
22.47923181434385
100
AcDbArc
 50
99.51337030176221
 51
106.1445290447304
  0
LWPOLYLINE
  5
9ADA
330
A
100
AcDbEntity
  8
MODEL
100
AcDbPolyline
 90
        3
 70
     0
 43
0.0
 10
485.0105458723308
 20
339.5805078485134
 10
484.5077992902995
 20
339.799036596072
 10
483.4452382551433
 20
340.1578546502712
  0
LWPOLYLINE
  5
9ADB
330
A
100
AcDbEntity
  8
MODEL
100
AcDbPolyline
 90
        3
 70
     0
 43
0.0
 10
480.0366384016277
 20
340.1578546502712
 10
479.5250722395183
 20
340.0036951043728
 10
478.4713613020183
 20
339.5805078485134
  0
ARC
  5
9ADC
330
A
100
AcDbEntity
  8
MODEL
100
AcDbCircle
 10
481.8234447076456
 20
335.0838652361386
 30
0.0
 40
5.628217373440823
100
AcDbArc
 50
120.2390244489908
 51
126.9704247410449
  0
LWPOLYLINE
  5
9ADD
330
A
100
AcDbEntity
  8
MODEL
100
AcDbPolyline
 90
        3
 70
     0
 43
0.0
 10
500.0724050031902
 20
339.5805078485134
 10
499.7617970930339
 20
339.7984033563259
 10
499.102403782487
 20
340.1578546502712
  0
LWPOLYLINE
  5
9ADE
330
A
100
AcDbEntity
  8
MODEL
100
AcDbPolyline
 90
        3
 70
     0
 43
0.0
 10
496.9901601301433
 20
340.1578546502712
 10
496.6741200910808
 20
340.0042291619899
 10
496.0201589094402
 20
339.5805078485134
  0
LINE
  5
9ADF
330
A
100
AcDbEntity
  8
MODEL
100
AcDbLine
 10
499.5219916385875
 20
339.9462678576876
 30
0.0
 11
499.1555075322342
 21
340.1578575551443
 31
0.0
  0
LINE
  5
9AE0
330
A
100
AcDbEntity
  8
MODEL
100
AcDbLine
 10
478.989023425881
 20
339.9462678576876
 30
0.0
 11
479.3555075322342
 21
340.1578575551443
 31
0.0
  0
LINE
  5
9AE1
330
A
100
AcDbEntity
  8
MODEL
100
AcDbLine
 10
495.2555075322343
 20
369.1578575551443
 30
0.0
 11
495.2407762287373
 21
369.1578575551443
 31
0.0
  0
LINE
  5
9AE2
330
A
100
AcDbEntity
  8
MODEL
100
AcDbLine
 10
495.2407762287373
 20
369.1578575551443
 30
0.0
 11
483.2555075322343
 21
369.1578575551443
 31
0.0
  0
LINE
  5
9AE3
330
A
100
AcDbEntity
  8
MODEL
100
AcDbLine
 10
484.0055075322343
 20
351.8192953829104
 30
0.0
 11
494.4926176416743
 21
351.8192953829104
 31
0.0
  0
LINE
  5
9AE4
330
A
100
AcDbEntity
  8
MODEL
100
AcDbLine
 10
494.4926176416743
 20
351.8192953829104
 30
0.0
 11
494.5055075322343
 21
351.8192953829104
 31
0.0
  0
LWPOLYLINE
  5
9AE5
330
A
100
AcDbEntity
  8
MODEL
100
AcDbPolyline
 90
        2
 70
     0
 43
0.0
 10
494.504991673112
 20
362.5330987908962
 10
494.4926320539714
 20
362.5330987908962
  0
LINE
  5
9AE6
330
A
100
AcDbEntity
  8
MODEL
100
AcDbLine
 10
484.0055075322343
 20
351.8192953829104
 30
0.0
 11
484.0055075322343
 21
362.5330997286484
 31
0.0
  0
LINE
  5
9AE7
330
A
100
AcDbEntity
  8
MODEL
100
AcDbLine
 10
494.5055075322343
 20
351.8192953829104
 30
0.0
 11
494.5055075322343
 21
362.5330997286484
 31
0.0
  0
LWPOLYLINE
  5
9AE8
330
A
100
AcDbEntity
  8
MODEL
100
AcDbPolyline
 90
        6
 70
     0
 43
0.0
 10
495.255479954362
 20
364.0943475701931
 10
495.2247487531902
 20
363.7455316522243
 10
495.133653782487
 20
363.4069238641384
 10
494.9848500715495
 20
363.0897546746853
 10
494.7830068098308
 20
362.803316686404
 10
494.5055104719402
 20
362.5331140496853
  0
LWPOLYLINE
  5
9AE9
330
A
100
AcDbEntity
  8
MODEL
100
AcDbPolyline
 90
        6
 70
     0
 43
0.0
 10
483.2555409895183
 20
364.0943475701931
 10
483.2862721906902
 20
363.7455316522243
 10
483.3773671613933
 20
363.4069391229274
 10
483.5261708723308
 20
363.0897546746853
 10
483.7280446516277
 20
362.8033319451931
 10
484.0055409895183
 20
362.5331140496853
  0
LINE
  5
9AEA
330
A
100
AcDbEntity
  8
MODEL
100
AcDbLine
 10
483.2555075322343
 20
364.0943492282481
 30
0.0
 11
483.2555075322343
 21
369.1578575551443
 31
0.0
  0
LINE
  5
9AEB
330
A
100
AcDbEntity
  8
MODEL
100
AcDbLine
 10
495.2555075322343
 20
364.0943492282481
 30
0.0
 11
495.2555075322343
 21
369.1578575551443
 31
0.0
  0
ARC
  5
9AEC
330
A
100
AcDbEntity
  8
MODEL
100
AcDbCircle
 10
484.7555075322343
 20
351.1578575551443
 30
0.0
 40
1.0
100
AcDbArc
 50
138.5903778901604
 51
269.9999999991011
  0
ARC
  5
9AED
330
A
100
AcDbEntity
  8
MODEL
100
AcDbCircle
 10
493.7555075322343
 20
351.1578575551443
 30
0.0
 40
1.0
100
AcDbArc
 50
270.0000000008859
 51
41.40962210984207
  0
LINE
  5
9AEE
330
A
100
AcDbEntity
  8
MODEL
100
AcDbLine
 10
484.2555098665975
 20
530.2548738458279
 30
0.0
 11
484.2555098665975
 21
569.5194628388324
 31
0.0
  0
LINE
  5
9AEF
330
A
100
AcDbEntity
  8
MODEL
100
AcDbLine
 10
494.2555098665975
 20
530.2548738458279
 30
0.0
 11
494.2555098665975
 21
569.5194628388324
 31
0.0
  0
LINE
  5
9AF0
330
A
100
AcDbEntity
  8
MODEL
100
AcDbLine
 10
481.126757685653
 20
327.3662208215314
 30
0.0
 11
481.2911029969737
 21
327.3662208215314
 31
0.0
  0
LINE
  5
9AF1
330
A
100
AcDbEntity
  8
MODEL
100
AcDbLine
 10
491.4800170026876
 20
327.3662208215314
 30
0.0
 11
491.7179691767556
 21
327.3662208215314
 31
0.0
  0
LINE
  5
9AF2
330
A
100
AcDbEntity
  8
MODEL
100
AcDbLine
 10
499.6087672779272
 20
327.3662208215314
 30
0.0
 11
499.6823741406743
 21
327.3662208215314
 31
0.0
  0
LINE
  5
9AF3
330
A
100
AcDbEntity
  8
MODEL
100
AcDbLine
 10
491.7179691767556
 20
327.3662208215314
 30
0.0
 11
499.6087672779272
 21
327.3662208215314
 31
0.0
  0
LINE
  5
9AF4
330
A
100
AcDbEntity
  8
MODEL
100
AcDbLine
 10
481.2911029969737
 20
327.3662208215314
 30
0.0
 11
491.4800170026876
 21
327.3662208215314
 31
0.0
  0
LINE
  5
9AF5
330
A
100
AcDbEntity
  8
MODEL
100
AcDbLine
 10
478.8286417811109
 20
327.3662208215314
 30
0.0
 11
481.126757685653
 21
327.3662208215314
 31
0.0
  0
LINE
  5
9AF6
330
A
100
AcDbEntity
  8
MODEL
100
AcDbLine
 10
499.6823741406743
 20
328.1578575551443
 30
0.0
 11
499.6823741406743
 21
327.3662208215314
 31
0.0
  0
LINE
  5
9AF7
330
A
100
AcDbEntity
  8
MODEL
100
AcDbLine
 10
491.7179691767556
 20
328.1578575551443
 30
0.0
 11
491.7179691767556
 21
327.3662208215314
 31
0.0
  0
LINE
  5
9AF8
330
A
100
AcDbEntity
  8
MODEL
100
AcDbLine
 10
499.6087672779272
 20
327.3662208215314
 30
0.0
 11
499.6087672779272
 21
328.1578575551443
 31
0.0
  0
LINE
  5
9AF9
330
A
100
AcDbEntity
  8
MODEL
100
AcDbLine
 10
481.2911029969739
 20
328.1578575551443
 30
0.0
 11
481.2911029969739
 21
327.3662208215314
 31
0.0
  0
LINE
  5
9AFA
330
A
100
AcDbEntity
  8
MODEL
100
AcDbLine
 10
491.4800170026874
 20
327.3662208215314
 30
0.0
 11
491.4800170026874
 21
328.1578575551443
 31
0.0
  0
LINE
  5
9AFB
330
A
100
AcDbEntity
  8
MODEL
100
AcDbLine
 10
478.8286417811109
 20
328.1578575551443
 30
0.0
 11
478.8286417811109
 21
327.3662208215314
 31
0.0
  0
LINE
  5
9AFC
330
A
100
AcDbEntity
  8
MODEL
100
AcDbLine
 10
481.126757685653
 20
327.3662208215314
 30
0.0
 11
481.126757685653
 21
328.1578575551443
 31
0.0
  0
LWPOLYLINE
  5
9AFD
330
A
100
AcDbEntity
  8
MODEL
100
AcDbPolyline
 90
        6
 70
     0
 43
0.0
 10
495.255479954362
 20
363.3027063348415
 10
495.224718235612
 20
362.9539056756618
 10
495.1336232649089
 20
362.6153131463649
 10
494.9848195539714
 20
362.2981286981228
 10
494.7829762922527
 20
362.0117059686306
 10
494.5054494367839
 20
361.7414728143337
  0
LWPOLYLINE
  5
9AFE
330
A
100
AcDbEntity
  8
MODEL
100
AcDbPolyline
 90
        6
 70
     0
 43
0.0
 10
483.2555104719402
 20
363.3027063348415
 10
483.286241673112
 20
362.9538904168728
 10
483.3773366438152
 20
362.6152826287868
 10
483.5261403547527
 20
362.2980981805446
 10
483.7279836164714
 20
362.0116601922634
 10
484.0055104719402
 20
361.7414575555446
  0
LINE
  5
9AFF
330
A
100
AcDbEntity
  8
MODEL
100
AcDbLine
 10
483.2555079608926
 20
363.3027124946352
 30
0.0
 11
483.2555079608926
 21
364.0943492282481
 31
0.0
  0
LINE
  5
9B00
330
A
100
AcDbEntity
  8
MODEL
100
AcDbLine
 10
495.2555079608926
 20
363.3027124946352
 30
0.0
 11
495.2555079608926
 21
364.0943396271913
 31
0.0
  0
ARC
  5
9B01
330
A
100
AcDbEntity
  8
MODEL
100
AcDbCircle
 10
484.7555079608926
 20
350.3662208215314
 30
0.0
 40
1.0
100
AcDbArc
 50
156.6830077439607
 51
215.3494100117228
  0
ARC
  5
9B02
330
A
100
AcDbEntity
  8
MODEL
100
AcDbCircle
 10
493.7555079608926
 20
350.3662208215314
 30
0.0
 40
1.0
100
AcDbArc
 50
324.6509441184965
 51
23.31705430550507
  0
LINE
  5
9B03
330
A
100
AcDbEntity
  8
MODEL
100
AcDbLine
 10
508.1555098665976
 20
530.2548738458279
 30
0.0
 11
470.1419618251734
 21
530.2548738458279
 31
0.0
  0
LINE
  5
9B04
330
A
100
AcDbEntity
  8
MODEL
100
AcDbLine
 10
470.1419618251734
 20
530.2548738458279
 30
0.0
 11
469.020895298788
 21
530.2548738458279
 31
0.0
  0
LINE
  5
9B05
330
A
100
AcDbEntity
  8
MODEL
100
AcDbLine
 10
484.4555101204737
 20
528.2548738458279
 30
0.0
 11
470.1419618251734
 21
528.2548738458279
 31
0.0
  0
LINE
  5
9B06
330
A
100
AcDbEntity
  8
MODEL
100
AcDbLine
 10
470.1419618251734
 20
528.2548738458279
 30
0.0
 11
469.020895298788
 21
528.2548738458279
 31
0.0
  0
LINE
  5
9B07
330
A
100
AcDbEntity
  8
MODEL
100
AcDbLine
 10
469.020895298788
 20
530.2548738458279
 30
0.0
 11
469.020895298788
 21
528.2548738458279
 31
0.0
  0
LINE
  5
9B08
330
A
100
AcDbEntity
  8
MODEL
100
AcDbLine
 10
508.1555098665976
 20
530.2548738458279
 30
0.0
 11
508.1555098665976
 21
528.2548738458279
 31
0.0
  0
LINE
  5
9B09
330
A
100
AcDbEntity
  8
MODEL
100
AcDbLine
 10
484.4555101204737
 20
528.2548738458279
 30
0.0
 11
509.7555098665975
 21
528.2548738458279
 31
0.0
  0
LINE
  5
9B0A
330
A
100
AcDbEntity
  8
MODEL
100
AcDbLine
 10
472.0177484897067
 20
524.2548738458279
 30
0.0
 11
509.2555098665975
 21
524.2548738458279
 31
0.0
  0
LINE
  5
9B0B
330
A
100
AcDbEntity
  8
MODEL
100
AcDbLine
 10
471.1208952711143
 20
524.2548738458279
 30
0.0
 11
472.0177484897067
 21
524.2548738458279
 31
0.0
  0
ARC
  5
9B0C
330
A
100
AcDbEntity
  8
MODEL
100
AcDbCircle
 10
471.1208952711143
 20
524.7548738458279
 30
0.0
 40
0.5
100
AcDbArc
 50
180.0
 51
269.9999999997655
  0
ARC
  5
9B0D
330
A
100
AcDbEntity
  8
MODEL
100
AcDbCircle
 10
509.2555098665975
 20
524.7548738458279
 30
0.0
 40
0.5
100
AcDbArc
 50
270.0000000002345
 51
0.0
  0
LINE
  5
9B0E
330
A
100
AcDbEntity
  8
MODEL
100
AcDbLine
 10
509.7555098665975
 20
524.7548738458279
 30
0.0
 11
509.7555098665975
 21
528.2548738458279
 31
0.0
  0
LINE
  5
9B0F
330
A
100
AcDbEntity
  8
MODEL
100
AcDbLine
 10
470.6208952711143
 20
524.7548738458279
 30
0.0
 11
470.6208952711143
 21
528.2548738458279
 31
0.0
  0
LINE
  5
9B10
330
A
100
AcDbEntity
  8
MODEL
100
AcDbLine
 10
484.2555075322343
 20
369.1578575551443
 30
0.0
 11
484.2555075322343
 21
396.0059773769117
 31
0.0
  0
LINE
  5
9B11
330
A
100
AcDbEntity
  8
MODEL
100
AcDbLine
 10
494.2555075322343
 20
369.1578575551443
 30
0.0
 11
494.2555075322343
 21
397.2888503474493
 31
0.0
  0
LINE
  5
9B12
330
A
100
AcDbEntity
  8
MODEL
100
AcDbLine
 10
484.2555098665975
 20
433.04381461137
 30
0.0
 11
484.2555098665975
 21
524.2548738458279
 31
0.0
  0
LINE
  5
9B13
330
A
100
AcDbEntity
  8
MODEL
100
AcDbLine
 10
494.2555098665975
 20
434.3266875819077
 30
0.0
 11
494.2555098665975
 21
524.2548738458279
 31
0.0
  0
LINE
  5
9B14
330
A
100
AcDbEntity
  8
MODEL
100
AcDbLine
 10
194.722392246174
 20
694.7071764771517
 30
0.0
 11
194.9246957915328
 21
694.504872931793
 31
0.0
  0
LINE
  5
9B15
330
A
100
AcDbEntity
  8
MODEL
100
AcDbLine
 10
155.1269993368919
 20
694.7071764771517
 30
0.0
 11
154.9246957915332
 21
694.504872931793
 31
0.0
  0
LINE
  5
9B16
330
A
100
AcDbEntity
  8
MODEL
100
AcDbLine
 10
194.9246957915328
 20
694.504872931793
 30
0.0
 11
154.9246957915328
 21
694.504872931793
 31
0.0
  0
LINE
  5
9B17
330
A
100
AcDbEntity
  8
MODEL
100
AcDbLine
 10
194.9246957915328
 20
574.254872931793
 30
0.0
 11
194.9246957915328
 21
694.504872931793
 31
0.0
  0
LINE
  5
9B18
330
A
100
AcDbEntity
  8
MODEL
100
AcDbLine
 10
154.9246957915332
 20
574.2548229317906
 30
0.0
 11
154.9246957915332
 21
694.504872931793
 31
0.0
  0
ARC
  5
9B19
330
A
100
AcDbEntity
  8
MODEL
100
AcDbCircle
 10
174.9246957915328
 20
685.5807743881637
 30
0.0
 40
21.8
100
AcDbArc
 50
148.8580256348777
 51
155.2511002967153
  0
ARC
  5
9B1A
330
A
100
AcDbEntity
  8
MODEL
100
AcDbCircle
 10
174.9246957915328
 20
685.5807743881637
 30
0.0
 40
21.8
100
AcDbArc
 50
24.74889970328407
 51
31.1419743651223
  0
LINE
  5
9B1B
330
A
100
AcDbEntity
  8
MODEL
100
AcDbLine
 10
194.9246957915328
 20
696.8548729317929
 30
0.0
 11
154.9246957915328
 21
696.8548729317929
 31
0.0
  0
LINE
  5
9B1C
330
A
100
AcDbEntity
  8
MODEL
100
AcDbLine
 10
194.9246957915328
 20
740.8789799059368
 30
0.0
 11
194.9246957915328
 21
696.8548729317931
 31
0.0
  0
LINE
  5
9B1D
330
A
100
AcDbEntity
  8
MODEL
100
AcDbLine
 10
154.9246957915328
 20
740.8789799059368
 30
0.0
 11
154.9246957915328
 21
696.8548729317931
 31
0.0
  0
ARC
  5
9B1E
330
A
100
AcDbEntity
  8
MODEL
100
AcDbCircle
 10
194.4246957915328
 20
740.8789799059368
 30
0.0
 40
0.5
100
AcDbArc
 50
0.0000000002344959
 51
87.20397430371072
  0
ARC
  5
9B1F
330
A
100
AcDbEntity
  8
MODEL
100
AcDbCircle
 10
155.4246957915328
 20
740.8789799059368
 30
0.0
 40
0.5
100
AcDbArc
 50
92.79602569631533
 51
179.9999999997655
  0
ARC
  5
9B20
330
A
100
AcDbEntity
  8
MODEL
100
AcDbCircle
 10
174.9246957915327
 20
341.6048729317928
 30
0.0
 40
400.2500000000001
100
AcDbArc
 50
87.20397430371492
 51
89.99999999999996
  0
ARC
  5
9B21
330
A
100
AcDbEntity
  8
MODEL
100
AcDbCircle
 10
174.9246957915327
 20
341.6048729317928
 30
0.0
 40
400.2500000000001
100
AcDbArc
 50
90.0
 51
92.79602569628506
  0
ELLIPSE
  5
9B22
330
A
100
AcDbEntity
  8
MODEL
100
AcDbEllipse
 10
174.9246907647233
 20
643.754872931793
 30
0.0
 11
12.0
 21
-3.028413817138115E-7
 31
0.0
210
0.0
220
0.0
230
1.0
 40
0.4999999999999994
 41
0.0
 42
6.283185307179586
  0
LINE
  5
9B23
330
A
100
AcDbEntity
  8
MODEL
100
AcDbLine
 10
162.9246907647233
 20
643.754872931793
 30
0.0
 11
162.924691143275
 21
658.754872931793
 31
0.0
  0
LINE
  5
9B24
330
A
100
AcDbEntity
  8
MODEL
100
AcDbLine
 10
162.92469227893
 20
658.754872931793
 30
0.0
 11
162.92469227893
 21
673.754872931793
 31
0.0
  0
ARC
  5
9B25
330
A
100
AcDbEntity
  8
MODEL
100
AcDbCircle
 10
174.92469227893
 20
673.754872931793
 30
0.0
 40
12.0
100
AcDbArc
 50
359.9999999995538
 51
179.9999999991065
  0
LWPOLYLINE
  5
9B26
330
A
100
AcDbEntity
  8
MODEL
100
AcDbPolyline
 90
       25
 70
     0
 43
0.0
 10
165.5496915466031
 20
644.0146814324978
 10
165.6237271911342
 20
644.5740991571072
 10
165.8481229430872
 20
645.1330591180447
 10
166.2258542663295
 20
645.6849390008572
 10
166.7553342467982
 20
646.2178979852322
 10
167.4292234069545
 20
646.7187219598416
 10
168.2355435973842
 20
647.1758142449978
 10
169.1596616393765
 20
647.5789514520291
 10
170.184960711642
 20
647.9198633172634
 10
171.2927487975795
 20
648.1922021844509
 10
172.463784564181
 20
648.3904443719509
 10
173.6774991637906
 20
648.5111413934353
 10
174.9127896911342
 20
648.5521570184353
 10
176.1482480651575
 20
648.5126977899197
 10
177.3625730163295
 20
648.3935266473416
 10
178.5346158630092
 20
648.1967187860134
 10
179.6438840514857
 20
647.9258752801541
 10
180.670800555392
 20
647.5860620477322
 10
181.5971921569545
 20
647.1841760614041
 10
182.4058164245325
 20
646.7279993035916
 10
183.082421649142
 20
646.2278772332791
 10
183.6147397643765
 20
645.6954370477322
 10
183.9954465514857
 20
645.1437707879666
 10
184.222771990939
 20
644.5849023797634
 10
184.299676287814
 20
644.0146509149197
  0
LINE
  5
9B27
330
A
100
AcDbEntity
  8
MODEL
100
AcDbLine
 10
186.92469227893
 20
658.7548729317834
 30
0.0
 11
186.92469227893
 21
673.7548729317737
 31
0.0
  0
LINE
  5
9B28
330
A
100
AcDbEntity
  8
MODEL
100
AcDbLine
 10
186.9246907647232
 20
643.754872931793
 30
0.0
 11
186.9246911432749
 21
658.754872931793
 31
0.0
  0
LINE
  5
9B29
330
A
100
AcDbEntity
  8
MODEL
100
AcDbLine
 10
176.0769956329343
 20
642.2005583809889
 30
0.0
 11
176.770144019108
 21
641.5446888477361
 31
0.0
  0
LINE
  5
9B2A
330
A
100
AcDbEntity
  8
MODEL
100
AcDbLine
 10
175.0867456422628
 20
643.1375508232136
 30
0.0
 11
175.5406865020614
 21
642.7080237756447
 31
0.0
  0
LINE
  5
9B2B
330
A
100
AcDbEntity
  8
MODEL
100
AcDbLine
 10
172.6611977524681
 20
645.4326480839072
 30
0.0
 11
174.4059428289713
 21
643.7817387522302
 31
0.0
  0
LINE
  5
9B2C
330
A
100
AcDbEntity
  8
MODEL
100
AcDbLine
 10
172.7234626243305
 20
642.0898906982129
 30
0.0
 11
172.9338523571648
 21
641.8908161297256
 31
0.0
  0
LINE
  5
9B2D
330
A
100
AcDbEntity
  8
MODEL
100
AcDbLine
 10
176.8437535909495
 20
639.7670718316172
 30
0.0
 11
176.843753627147
 21
641.156118318695
 31
0.0
  0
ARC
  5
9B2E
330
A
100
AcDbEntity
  8
MODEL
100
AcDbCircle
 10
167.6598418474612
 20
662.1922951038789
 30
0.0
 40
17.49010479808284
100
AcDbArc
 50
281.80276788065
 51
287.7970494985327
  0
ARC
  5
9B2F
330
A
100
AcDbEntity
  8
MODEL
100
AcDbCircle
 10
173.3492952323036
 20
656.5359336754045
 30
0.0
 40
17.12909707942422
100
AcDbArc
 50
281.7713850107782
 51
284.8105649662112
  0
ARC
  5
9B30
330
A
100
AcDbEntity
  8
MODEL
100
AcDbCircle
 10
173.1642443609711
 20
657.2365470539128
 30
0.0
 40
17.85373691837173
100
AcDbArc
 50
284.8099525789589
 51
287.7663201595775
  0
LINE
  5
9B31
330
A
100
AcDbEntity
  8
MODEL
100
AcDbLine
 10
172.9338523383585
 20
641.1691282932206
 30
0.0
 11
172.9338523571648
 21
641.8908161297254
 31
0.0
  0
ARC
  5
9B32
330
A
100
AcDbEntity
  8
MODEL
100
AcDbCircle
 10
181.0508544265804
 20
650.0986883694084
 30
0.0
 40
12.06742582552079
100
AcDbArc
 50
225.4367746514305
 51
227.7290505950577
  0
ARC
  5
9B33
330
A
100
AcDbEntity
  8
MODEL
100
AcDbCircle
 10
185.3831911974369
 20
651.2433333538422
 30
0.0
 40
12.06742513030367
100
AcDbArc
 50
225.4367745854038
 51
227.7290506611081
  0
LINE
  5
9B34
330
A
100
AcDbEntity
  8
MODEL
100
AcDbLine
 10
171.0886801142709
 20
641.496350926471
 30
0.0
 11
171.1655514392954
 21
641.4236138891063
 31
0.0
  0
LINE
  5
9B35
330
A
100
AcDbEntity
  8
MODEL
100
AcDbLine
 10
171.1655514392954
 20
641.4236138891063
 30
0.0
 11
171.915579821188
 21
641.4095536496152
 31
0.0
  0
LINE
  5
9B36
330
A
100
AcDbEntity
  8
MODEL
100
AcDbLine
 10
171.915579821188
 20
641.4095536496152
 30
0.0
 11
171.9452943025285
 21
641.4331948733955
 31
0.0
  0
LINE
  5
9B37
330
A
100
AcDbEntity
  8
MODEL
100
AcDbLine
 10
170.1472789033181
 20
640.942351408996
 30
0.0
 11
170.4128773392898
 21
641.1536649429095
 31
0.0
  0
LINE
  5
9B38
330
A
100
AcDbEntity
  8
MODEL
100
AcDbLine
 10
171.1655514290653
 20
641.0310382002303
 30
0.0
 11
171.1655514392954
 21
641.4236138891063
 31
0.0
  0
LINE
  5
9B39
330
A
100
AcDbEntity
  8
MODEL
100
AcDbLine
 10
171.9155798078667
 20
640.8983714330036
 30
0.0
 11
171.915579821188
 21
641.4095536496152
 31
0.0
  0
LINE
  5
9B3A
330
A
100
AcDbEntity
  8
MODEL
100
AcDbLine
 10
170.1472789021452
 20
640.8973367574506
 30
0.0
 11
170.1472789033185
 21
640.942351408996
 31
0.0
  0
LINE
  5
9B3B
330
A
100
AcDbEntity
  8
MODEL
100
AcDbLine
 10
169.9552315761541
 20
640.9459515813078
 30
0.0
 11
170.1472789033181
 21
640.942351408996
 31
0.0
  0
ARC
  5
9B3C
330
A
100
AcDbEntity
  8
MODEL
100
AcDbCircle
 10
180.3836054561114
 20
649.9768657846398
 30
0.0
 40
11.99710190627469
100
AcDbArc
 50
225.4300553819323
 51
227.7357698646726
  0
ARC
  5
9B3D
330
A
100
AcDbEntity
  8
MODEL
100
AcDbCircle
 10
175.2639010874752
 20
662.4109117160001
 30
0.0
 40
21.23859135915315
100
AcDbArc
 50
259.0078890966865
 51
261.0623579776675
  0
ARC
  5
9B3E
330
A
100
AcDbEntity
  8
MODEL
100
AcDbCircle
 10
167.4624942678606
 20
648.5861324661059
 30
0.0
 40
7.963322861253207
100
AcDbArc
 50
294.8964453908112
 51
298.1076960131368
  0
ARC
  5
9B3F
330
A
100
AcDbEntity
  8
MODEL
100
AcDbCircle
 10
179.1108549806684
 20
649.7791405969408
 30
0.0
 40
11.81766237757877
100
AcDbArc
 50
225.4125479668227
 51
227.7532772798892
  0
ARC
  5
9B40
330
A
100
AcDbEntity
  8
MODEL
100
AcDbCircle
 10
175.2119705042236
 20
661.7209040663895
 30
0.0
 40
21.08184187616099
100
AcDbArc
 50
258.9340600459299
 51
261.0042264079123
  0
ARC
  5
9B41
330
A
100
AcDbEntity
  8
MODEL
100
AcDbCircle
 10
168.5121404292361
 20
648.1923049332429
 30
0.0
 40
8.048904615531555
100
AcDbArc
 50
295.0143373866944
 51
298.1942698535826
  0
ARC
  5
9B42
330
A
100
AcDbEntity
  8
MODEL
100
AcDbCircle
 10
178.4069643114224
 20
649.6886140191407
 30
0.0
 40
11.6940381667157
100
AcDbArc
 50
225.4001736396025
 51
227.7656516070019
  0
ARC
  5
9B43
330
A
100
AcDbEntity
  8
MODEL
100
AcDbCircle
 10
175.1699833705545
 20
661.6410330755896
 30
0.0
 40
20.88000468231518
100
AcDbArc
 50
254.0892801073841
 51
256.2185954281453
  0
LINE
  5
9B44
330
A
100
AcDbEntity
  8
MODEL
100
AcDbLine
 10
169.3436972305385
 20
641.5245964340224
 30
0.0
 11
169.4459565678064
 21
641.5609406282197
 31
0.0
  0
LINE
  5
9B45
330
A
100
AcDbEntity
  8
MODEL
100
AcDbLine
 10
170.1472789021452
 20
640.8973367574506
 30
0.0
 11
169.9552315761541
 21
640.9459515813078
 31
0.0
  0
ARC
  5
9B46
330
A
100
AcDbEntity
  8
MODEL
100
AcDbCircle
 10
168.3699367423878
 20
646.900783739261
 30
0.0
 40
6.261015957196102
100
AcDbArc
 50
286.4915779210635
 51
290.34430140923
  0
ELLIPSE
  5
9B47
330
A
100
AcDbEntity
  8
MODEL
100
AcDbEllipse
 10
174.9246903979706
 20
642.6290398421763
 30
0.0
 11
-6.002221810851935
 21
1.564139838026455E-7
 31
0.0
210
0.0
220
0.0
230
-1.0
 40
0.4999999999630601
 41
5.687807264187573
 42
5.906315695473463
  0
ARC
  5
9B48
330
A
100
AcDbEntity
  8
MODEL
100
AcDbCircle
 10
178.7710312695579
 20
656.2232314008293
 30
0.0
 40
16.51473872059596
100
AcDbArc
 50
248.6255198789157
 51
250.8588164738194
  0
ARC
  5
9B49
330
A
100
AcDbEntity
  8
MODEL
100
AcDbCircle
 10
165.4170548730334
 20
643.0960380093752
 30
0.0
 40
8.315550797489191
100
AcDbArc
 50
340.8365179225793
 51
342.6879706925637
  0
ARC
  5
9B4A
330
A
100
AcDbEntity
  8
MODEL
100
AcDbCircle
 10
172.152433114572
 20
657.3183966964316
 30
0.0
 40
16.98897709082348
100
AcDbArc
 50
271.4551305735512
 51
273.777851603194
  0
ARC
  5
9B4B
330
A
100
AcDbEntity
  8
MODEL
100
AcDbCircle
 10
177.9134559810814
 20
655.7048511669377
 30
0.0
 40
16.26776333159901
100
AcDbArc
 50
248.6085648517123
 51
250.8757715009683
  0
ARC
  5
9B4C
330
A
100
AcDbEntity
  8
MODEL
100
AcDbCircle
 10
164.2648316539294
 20
643.249978445466
 30
0.0
 40
8.17139393437448
100
AcDbArc
 50
340.7635319372715
 51
342.6417198499978
  0
ARC
  5
9B4D
330
A
100
AcDbEntity
  8
MODEL
100
AcDbCircle
 10
171.6041814877343
 20
657.9346938471497
 30
0.0
 40
17.12879233936145
100
AcDbArc
 50
271.5385529819446
 51
273.8424499735927
  0
ARC
  5
9B4E
330
A
100
AcDbEntity
  8
MODEL
100
AcDbCircle
 10
177.4388143538686
 20
655.4264109515834
 30
0.0
 40
16.09761349900011
100
AcDbArc
 50
248.5965812127399
 51
250.8877551399347
  0
ARC
  5
9B4F
330
A
100
AcDbEntity
  8
MODEL
100
AcDbCircle
 10
168.9449677457287
 20
641.5436948718952
 30
0.0
 40
3.485869322471334
100
AcDbArc
 50
334.2258241243521
 51
337.613889541465
  0
LINE
  5
9B50
330
A
100
AcDbEntity
  8
MODEL
100
AcDbLine
 10
172.0840448203194
 20
640.027950812653
 30
0.0
 11
171.9078920493623
 21
640.0345460012359
 31
0.0
  0
ELLIPSE
  5
9B51
330
A
100
AcDbEntity
  8
MODEL
100
AcDbEllipse
 10
174.9246903979706
 20
642.6290398421763
 30
0.0
 11
-6.002221810851935
 21
1.564139836102780E-7
 31
0.0
210
0.0
220
0.0
230
-1.0
 40
0.4999999999630601
 41
5.239008313674726
 42
5.45751674496063
  0
LINE
  5
9B52
330
A
100
AcDbEntity
  8
MODEL
100
AcDbLine
 10
170.8547894680099
 20
640.4232196046901
 30
0.0
 11
170.8763213850831
 21
640.4736910737267
 31
0.0
  0
ARC
  5
9B53
330
A
100
AcDbEntity
  8
MODEL
100
AcDbCircle
 10
172.0225663575403
 20
656.3590202076048
 30
0.0
 40
15.92663050455171
100
AcDbArc
 50
265.8728352360893
 51
268.351075700377
  0
LINE
  5
9B54
330
A
100
AcDbEntity
  8
MODEL
100
AcDbLine
 10
172.5838527191822
 20
640.3348982430125
 30
0.0
 11
172.5838527294125
 21
640.7274739318884
 31
0.0
  0
LINE
  5
9B55
330
A
100
AcDbEntity
  8
MODEL
100
AcDbLine
 10
172.3297124464908
 20
640.8212707008788
 30
0.0
 11
172.5838527294125
 21
640.7274739318884
 31
0.0
  0
LINE
  5
9B56
330
A
100
AcDbEntity
  8
MODEL
100
AcDbLine
 10
173.2718059440666
 20
640.3663364363595
 30
0.0
 11
173.2718059514841
 21
640.6509684588466
 31
0.0
  0
LINE
  5
9B57
330
A
100
AcDbEntity
  8
MODEL
100
AcDbLine
 10
172.5838527294125
 20
640.7274739318884
 30
0.0
 11
172.8848005903719
 21
640.7931115886679
 31
0.0
  0
LINE
  5
9B58
330
A
100
AcDbEntity
  8
MODEL
100
AcDbLine
 10
172.0840448203194
 20
640.027950812653
 30
0.0
 11
172.0840448214922
 21
640.0729654641984
 31
0.0
  0
LINE
  5
9B59
330
A
100
AcDbEntity
  8
MODEL
100
AcDbLine
 10
171.9078920493623
 20
640.0345460012359
 30
0.0
 11
172.0840448214922
 21
640.0729654641984
 31
0.0
  0
LINE
  5
9B5A
330
A
100
AcDbEntity
  8
MODEL
100
AcDbLine
 10
172.0840448214925
 20
640.0729654641984
 30
0.0
 11
172.1200962782048
 21
640.2328403858589
 31
0.0
  0
ARC
  5
9B5B
330
A
100
AcDbEntity
  8
MODEL
100
AcDbCircle
 10
179.2202671804694
 20
656.5028557603405
 30
0.0
 40
16.61152902381568
100
AcDbArc
 50
248.6320270639597
 51
250.8523092886788
  0
LINE
  5
9B5C
330
A
100
AcDbEntity
  8
MODEL
100
AcDbLine
 10
173.7716138465012
 20
640.8103392841565
 30
0.0
 11
173.7716138653079
 21
641.5320271206613
 31
0.0
  0
LINE
  5
9B5D
330
A
100
AcDbEntity
  8
MODEL
100
AcDbLine
 10
173.1972879711502
 20
641.7439963236545
 30
0.0
 11
173.7716138653078
 21
641.5320271206613
 31
0.0
  0
ARC
  5
9B5E
330
A
100
AcDbEntity
  8
MODEL
100
AcDbCircle
 10
176.2805143554751
 20
660.9682165223605
 30
0.0
 40
20.61060245792463
100
AcDbArc
 50
263.5637282744189
 51
265.6230787020459
  0
ARC
  5
9B5F
330
A
100
AcDbEntity
  8
MODEL
100
AcDbCircle
 10
178.8692293534414
 20
644.5306008133123
 30
0.0
 40
5.851085204313918
100
AcDbArc
 50
224.6621973107618
 51
228.0173509622427
  0
ARC
  5
9B60
330
A
100
AcDbEntity
  8
MODEL
100
AcDbCircle
 10
171.4729495275253
 20
649.6578856643871
 30
0.0
 40
10.09627918880329
100
AcDbArc
 50
287.243282788308
 51
290.1772023710003
  0
ARC
  5
9B61
330
A
100
AcDbEntity
  8
MODEL
100
AcDbCircle
 10
176.0096862636468
 20
660.2589703210158
 30
0.0
 40
20.3023719202248
100
AcDbArc
 50
263.548094027359
 51
265.638712949129
  0
ARC
  5
9B62
330
A
100
AcDbEntity
  8
MODEL
100
AcDbCircle
 10
177.5804909504128
 20
644.3852635593901
 30
0.0
 40
5.77320290787803
100
AcDbArc
 50
224.7505546017867
 51
228.144885101156
  0
ARC
  5
9B63
330
A
100
AcDbEntity
  8
MODEL
100
AcDbCircle
 10
170.4404103323386
 20
650.0514193356889
 30
0.0
 40
10.1944560729914
100
AcDbArc
 50
287.3500463474008
 51
290.2573149240661
  0
ARC
  5
9B64
330
A
100
AcDbEntity
  8
MODEL
100
AcDbCircle
 10
175.8594850054722
 20
659.8664470335477
 30
0.0
 40
20.09002282997433
100
AcDbArc
 50
263.5370439883463
 51
265.649762988108
  0
ARC
  5
9B65
330
A
100
AcDbEntity
  8
MODEL
100
AcDbCircle
 10
176.5243382494947
 20
642.7691241103023
 30
0.0
 40
3.661115385334698
100
AcDbArc
 50
233.2850128709884
 51
237.9851019500342
  0
LINE
  5
9B66
330
A
100
AcDbEntity
  8
MODEL
100
AcDbLine
 10
174.5834354331466
 20
639.6648267466089
 30
0.0
 11
174.4580664341158
 21
639.6370117457409
 31
0.0
  0
ELLIPSE
  5
9B67
330
A
100
AcDbEntity
  8
MODEL
100
AcDbEllipse
 10
174.9246903979706
 20
642.6290398421763
 30
0.0
 11
-6.002221810851935
 21
1.564139836102779E-7
 31
0.0
210
0.0
220
0.0
230
-1.0
 40
0.49999999996306
 41
4.790209363161898
 42
5.008717794447834
  0
LINE
  5
9B68
330
A
100
AcDbEntity
  8
MODEL
100
AcDbLine
 10
173.1719754987197
 20
639.7587325260017
 30
0.0
 11
173.1085153351173
 21
639.8044190726362
 31
0.0
  0
ARC
  5
9B69
330
A
100
AcDbEntity
  8
MODEL
100
AcDbCircle
 10
171.6499879259171
 20
648.22088317965
 30
0.0
 40
8.541906711504009
100
AcDbArc
 50
279.8314069689447
 51
283.1834383749741
  0
LINE
  5
9B6A
330
A
100
AcDbEntity
  8
MODEL
100
AcDbLine
 10
173.7283255690328
 20
640.0851828985162
 30
0.0
 11
173.7283255772816
 21
640.4017283312953
 31
0.0
  0
LINE
  5
9B6B
330
A
100
AcDbEntity
  8
MODEL
100
AcDbLine
 10
174.4657856180472
 20
640.0153867355027
 30
0.0
 11
174.4657856282777
 21
640.4079624243786
 31
0.0
  0
LINE
  5
9B6C
330
A
100
AcDbEntity
  8
MODEL
100
AcDbLine
 10
173.8990304586055
 20
640.4616023961496
 30
0.0
 11
174.4657856282777
 21
640.4079624243786
 31
0.0
  0
LINE
  5
9B6D
330
A
100
AcDbEntity
  8
MODEL
100
AcDbLine
 10
174.4657856282777
 20
640.4079624243786
 30
0.0
 11
174.5102272366555
 21
640.4337795473164
 31
0.0
  0
LINE
  5
9B6E
330
A
100
AcDbEntity
  8
MODEL
100
AcDbLine
 10
173.1365798092352
 20
639.8093222396701
 30
0.0
 11
173.1719754987197
 21
639.758732526002
 31
0.0
  0
LINE
  5
9B6F
330
A
100
AcDbEntity
  8
MODEL
100
AcDbLine
 10
174.4580664341158
 20
639.6370117457409
 30
0.0
 11
174.5463356811222
 21
639.6882893228758
 31
0.0
  0
ARC
  5
9B70
330
A
100
AcDbEntity
  8
MODEL
100
AcDbCircle
 10
176.4220876190814
 20
661.3395975462902
 30
0.0
 40
20.73139784529839
100
AcDbArc
 50
263.5697285109952
 51
265.6170784654974
  0
LINE
  5
9B71
330
A
100
AcDbEntity
  8
MODEL
100
AcDbLine
 10
174.1002962544787
 20
640.73862326158
 30
0.0
 11
174.1002962713042
 21
641.384281512703
 31
0.0
  0
LINE
  5
9B72
330
A
100
AcDbEntity
  8
MODEL
100
AcDbLine
 10
174.8377563034936
 20
640.6688270985665
 30
0.0
 11
174.8377563223003
 21
641.3905149350712
 31
0.0
  0
LINE
  5
9B73
330
A
100
AcDbEntity
  8
MODEL
100
AcDbLine
 10
174.3086945381889
 20
641.4405874543588
 30
0.0
 11
174.8377563223003
 21
641.3905149350712
 31
0.0
  0
ARC
  5
9B74
330
A
100
AcDbEntity
  8
MODEL
100
AcDbCircle
 10
178.4479198559839
 20
650.9576766682808
 30
0.0
 40
11.25614505732994
100
AcDbArc
 50
253.1382895616196
 51
255.9412527070916
  0
ARC
  5
9B75
330
A
100
AcDbEntity
  8
MODEL
100
AcDbCircle
 10
170.8450939644313
 20
643.8286366706327
 30
0.0
 40
5.664766141733085
100
AcDbArc
 50
319.9744421276851
 51
323.1357913897262
  0
LINE
  5
9B76
330
A
100
AcDbEntity
  8
MODEL
100
AcDbLine
 10
175.8363082108634
 20
639.662745013291
 30
0.0
 11
175.7004250300427
 21
639.6856821528463
 31
0.0
  0
ARC
  5
9B77
330
A
100
AcDbEntity
  8
MODEL
100
AcDbCircle
 10
173.6734255372019
 20
642.0968628360683
 30
0.0
 40
3.150003052557459
100
AcDbArc
 50
310.0526507726051
 51
314.8439021500936
  0
LINE
  5
9B78
330
A
100
AcDbEntity
  8
MODEL
100
AcDbLine
 10
175.7136148612979
 20
640.0386850597263
 30
0.0
 11
175.7136148715283
 21
640.4312607486024
 31
0.0
  0
LINE
  5
9B79
330
A
100
AcDbEntity
  8
MODEL
100
AcDbLine
 10
175.4434381549875
 20
640.566369390086
 30
0.0
 11
175.7136148715283
 21
640.4312607486024
 31
0.0
  0
LINE
  5
9B7A
330
A
100
AcDbEntity
  8
MODEL
100
AcDbLine
 10
175.7337472845995
 20
639.7140331760693
 30
0.0
 11
175.8363082108635
 21
639.662745013291
 31
0.0
  0
ARC
  5
9B7B
330
A
100
AcDbEntity
  8
MODEL
100
AcDbCircle
 10
177.7777670142717
 20
659.0264212662262
 30
0.0
 40
18.10507843518922
100
AcDbArc
 50
268.3729039135982
 51
270.6150118099759
  0
ARC
  5
9B7C
330
A
100
AcDbEntity
  8
MODEL
100
AcDbCircle
 10
183.3012849918707
 20
643.7301285379888
 30
0.0
 40
6.023587083598632
100
AcDbArc
 50
207.7830347557858
 51
210.5074534789324
  0
ARC
  5
9B7D
330
A
100
AcDbEntity
  8
MODEL
100
AcDbCircle
 10
177.4686571190687
 20
657.5441831526634
 30
0.0
 40
17.00999995417567
100
AcDbArc
 50
273.7060559860494
 51
276.1012023896256
  0
LINE
  5
9B7E
330
A
100
AcDbEntity
  8
MODEL
100
AcDbLine
 10
179.2765639121101
 20
640.630532704912
 30
0.0
 11
179.3122786542547
 21
640.5811300930404
 31
0.0
  0
ARC
  5
9B7F
330
A
100
AcDbEntity
  8
MODEL
100
AcDbCircle
 10
168.8845435308833
 20
649.1616140436442
 30
0.0
 40
11.85130811058303
100
AcDbArc
 50
317.7828987187819
 51
319.990156122397
  0
ARC
  5
9B80
330
A
100
AcDbEntity
  8
MODEL
100
AcDbCircle
 10
173.8418156369135
 20
662.6046624742291
 30
0.0
 40
21.46166222627051
100
AcDbArc
 50
281.0679159853221
 51
283.1043203927713
  0
ARC
  5
9B81
330
A
100
AcDbEntity
  8
MODEL
100
AcDbCircle
 10
182.3484238128949
 20
649.9173689731178
 30
0.0
 40
8.986044052089245
100
AcDbArc
 50
246.0993162787132
 51
249.1722936323366
  0
ARC
  5
9B82
330
A
100
AcDbEntity
  8
MODEL
100
AcDbCircle
 10
170.2096225540831
 20
649.0213712093423
 30
0.0
 40
11.67403125129388
100
AcDbArc
 50
317.7661373636456
 51
320.0069174776622
  0
ARC
  5
9B83
330
A
100
AcDbEntity
  8
MODEL
100
AcDbCircle
 10
173.9961038405913
 20
661.9195357488222
 30
0.0
 40
21.30597210304622
100
AcDbArc
 50
281.1256207906437
 51
283.1774103540127
  0
ARC
  5
9B84
330
A
100
AcDbEntity
  8
MODEL
100
AcDbCircle
 10
181.3515331200259
 20
649.4919792418752
 30
0.0
 40
9.077522997026747
100
AcDbArc
 50
246.015881045506
 51
249.0600270418171
  0
ARC
  5
9B85
330
A
100
AcDbEntity
  8
MODEL
100
AcDbCircle
 10
170.943225056451
 20
648.9638739996874
 30
0.0
 40
11.55190346525977
100
AcDbArc
 50
317.7542909628265
 51
320.0187638783382
  0
ARC
  5
9B86
330
A
100
AcDbEntity
  8
MODEL
100
AcDbCircle
 10
173.9758350927805
 20
662.0227659171946
 30
0.0
 40
21.29202090535033
100
AcDbArc
 50
285.8606843952264
 51
287.9585217881813
  0
LINE
  5
9B87
330
A
100
AcDbEntity
  8
MODEL
100
AcDbLine
 10
180.5407701255435
 20
641.768092820611
 30
0.0
 11
180.654880226435
 21
641.7357884783003
 31
0.0
  0
ELLIPSE
  5
9B88
330
A
100
AcDbEntity
  8
MODEL
100
AcDbEllipse
 10
174.9246903979706
 20
642.6290398421763
 30
0.0
 11
-6.002221810851935
 21
1.564139836102779E-7
 31
0.0
210
0.0
220
0.0
230
-1.0
 40
0.49999999996306
 41
3.443812511623405
 42
3.662320942909361
  0
LINE
  5
9B89
330
A
100
AcDbEntity
  8
MODEL
100
AcDbLine
 10
180.1313601469943
 20
641.1359509294298
 30
0.0
 11
179.9403846740659
 21
641.0801846548411
 31
0.0
  0
ARC
  5
9B8A
330
A
100
AcDbEntity
  8
MODEL
100
AcDbCircle
 10
181.5890776079709
 20
648.2543753851871
 30
0.0
 40
7.361195624739997
100
AcDbArc
 50
253.4703676650502
 51
257.057634623238
  0
LINE
  5
9B8B
330
A
100
AcDbEntity
  8
MODEL
100
AcDbLine
 10
178.1073201781226
 20
641.0139779356041
 30
0.0
 11
178.1073201914436
 21
641.5251601522159
 31
0.0
  0
LINE
  5
9B8C
330
A
100
AcDbEntity
  8
MODEL
100
AcDbLine
 10
178.0549984177237
 20
641.5606124645947
 30
0.0
 11
178.1073201914436
 21
641.5251601522159
 31
0.0
  0
LINE
  5
9B8D
330
A
100
AcDbEntity
  8
MODEL
100
AcDbLine
 10
178.8531625013163
 20
641.1745742298879
 30
0.0
 11
178.8531625115463
 21
641.5671499187638
 31
0.0
  0
LINE
  5
9B8E
330
A
100
AcDbEntity
  8
MODEL
100
AcDbLine
 10
178.1073201914436
 20
641.5251601522159
 30
0.0
 11
178.8531625115463
 21
641.5671499187638
 31
0.0
  0
LINE
  5
9B8F
330
A
100
AcDbEntity
  8
MODEL
100
AcDbLine
 10
178.8531625115463
 20
641.5671499187638
 30
0.0
 11
178.8990569079817
 21
641.6197346874208
 31
0.0
  0
LINE
  5
9B90
330
A
100
AcDbEntity
  8
MODEL
100
AcDbLine
 10
179.9403846740659
 20
641.0801846548411
 30
0.0
 11
179.9403846752392
 21
641.1251993063865
 31
0.0
  0
LINE
  5
9B91
330
A
100
AcDbEntity
  8
MODEL
100
AcDbLine
 10
179.6225869928858
 20
641.3405334188799
 30
0.0
 11
179.940384675239
 21
641.1251993063865
 31
0.0
  0
LINE
  5
9B92
330
A
100
AcDbEntity
  8
MODEL
100
AcDbLine
 10
179.940384675239
 20
641.1251993063865
 30
0.0
 11
180.1313601469943
 21
641.1359509294298
 31
0.0
  0
ARC
  5
9B93
330
A
100
AcDbEntity
  8
MODEL
100
AcDbCircle
 10
168.1906203700464
 20
649.2545007038809
 30
0.0
 40
11.92078026785567
100
AcDbArc
 50
317.7893312565213
 51
319.9837235848721
  0
LINE
  5
9B94
330
A
100
AcDbEntity
  8
MODEL
100
AcDbLine
 10
177.0200980089439
 20
641.2454229280881
 30
0.0
 11
177.0200980277509
 21
641.9671107645929
 31
0.0
  0
LINE
  5
9B95
330
A
100
AcDbEntity
  8
MODEL
100
AcDbLine
 10
177.0200980277509
 20
641.9671107645931
 30
0.0
 11
177.1637634054616
 21
642.1317193276793
 31
0.0
  0
LINE
  5
9B96
330
A
100
AcDbEntity
  8
MODEL
100
AcDbLine
 10
178.0865003682034
 20
641.8714064544045
 30
0.0
 11
178.0584924962178
 21
642.2464227520502
 31
0.0
  0
ARC
  5
9B97
330
A
100
AcDbEntity
  8
MODEL
100
AcDbCircle
 10
169.2884072951217
 20
660.6048557101537
 30
0.0
 40
20.34567411298219
100
AcDbArc
 50
295.5344713367406
 51
297.5350613314267
  0
ARC
  5
9B98
330
A
100
AcDbEntity
  8
MODEL
100
AcDbCircle
 10
180.3834621454322
 20
658.4030884623667
 30
0.0
 40
15.92915641416977
100
AcDbArc
 50
263.9118313231048
 51
266.3074616677573
  0
LINE
  5
9B99
330
A
100
AcDbEntity
  8
MODEL
100
AcDbLine
 10
179.3575870629534
 20
642.507000755568
 30
0.0
 11
179.3855949349389
 21
642.1319844579223
 31
0.0
  0
ARC
  5
9B9A
330
A
100
AcDbEntity
  8
MODEL
100
AcDbCircle
 10
170.0171053732295
 20
660.04752279067
 30
0.0
 40
20.21719838207101
100
AcDbArc
 50
295.5917760769434
 51
297.6062096174528
  0
ARC
  5
9B9B
330
A
100
AcDbEntity
  8
MODEL
100
AcDbCircle
 10
179.8086457682359
 20
657.8417205973346
 30
0.0
 40
16.06289882314948
100
AcDbArc
 50
263.8453401400022
 51
266.2212941590149
  0
LINE
  5
9B9C
330
A
100
AcDbEntity
  8
MODEL
100
AcDbLine
 10
180.085107394877
 20
642.3078551396579
 30
0.0
 11
180.0570995228911
 21
642.6828714373034
 31
0.0
  0
ARC
  5
9B9D
330
A
100
AcDbEntity
  8
MODEL
100
AcDbCircle
 10
169.1915786315386
 20
661.3654634892935
 30
0.0
 40
21.61246839260821
100
AcDbArc
 50
300.1816532865682
 51
302.1508032260259
  0
LINE
  5
9B9E
330
A
100
AcDbEntity
  8
MODEL
100
AcDbLine
 10
180.6926428720012
 20
643.0672583489461
 30
0.0
 11
180.8625474269218
 21
643.0673662511849
 31
0.0
  0
ELLIPSE
  5
9B9F
330
A
100
AcDbEntity
  8
MODEL
100
AcDbEllipse
 10
174.9246903979707
 20
642.6290398421763
 30
0.0
 11
-6.002221810851935
 21
1.564139836824157E-7
 31
0.0
210
0.0
220
0.0
230
-1.0
 40
0.4999999999630601
 41
2.995013561110585
 42
3.213521992396565
  0
LINE
  5
9BA0
330
A
100
AcDbEntity
  8
MODEL
100
AcDbLine
 10
180.911391659675
 20
642.4133578589033
 30
0.0
 11
180.7486586159723
 21
642.3172257536548
 31
0.0
  0
ARC
  5
9BA1
330
A
100
AcDbEntity
  8
MODEL
100
AcDbCircle
 10
180.20844696786
 20
657.0722976286359
 30
0.0
 40
14.76495765861198
100
AcDbArc
 50
269.5213722020824
 51
272.0967725013511
  0
LINE
  5
9BA2
330
A
100
AcDbEntity
  8
MODEL
100
AcDbLine
 10
178.0865003682034
 20
641.8714064544045
 30
0.0
 11
178.0865003783254
 21
642.2598261217931
 31
0.0
  0
LINE
  5
9BA3
330
A
100
AcDbEntity
  8
MODEL
100
AcDbLine
 10
178.7500515875523
 20
641.8137420297371
 30
0.0
 11
178.7500516008736
 21
642.3249242463487
 31
0.0
  0
LINE
  5
9BA4
330
A
100
AcDbEntity
  8
MODEL
100
AcDbLine
 10
178.4051491736589
 20
642.4160839386145
 30
0.0
 11
178.7500516008736
 21
642.3249242463487
 31
0.0
  0
LINE
  5
9BA5
330
A
100
AcDbEntity
  8
MODEL
100
AcDbLine
 10
178.7500516008736
 20
642.3249242463487
 30
0.0
 11
179.3344863885678
 21
642.5085060053941
 31
0.0
  0
LINE
  5
9BA6
330
A
100
AcDbEntity
  8
MODEL
100
AcDbLine
 10
180.0851073948766
 20
642.3078551396579
 30
0.0
 11
180.0851074008642
 21
642.5376208023963
 31
0.0
  0
LINE
  5
9BA7
330
A
100
AcDbEntity
  8
MODEL
100
AcDbLine
 10
180.0735445399162
 20
642.6924437502144
 30
0.0
 11
180.0851074008642
 21
642.5376208023963
 31
0.0
  0
LINE
  5
9BA8
330
A
100
AcDbEntity
  8
MODEL
100
AcDbLine
 10
180.7486586159723
 20
642.3172257536548
 30
0.0
 11
180.7486586171456
 21
642.3622404052003
 31
0.0
  0
LINE
  5
9BA9
330
A
100
AcDbEntity
  8
MODEL
100
AcDbLine
 10
180.0851074008642
 20
642.5376208023963
 30
0.0
 11
180.7486586171456
 21
642.3622404052003
 31
0.0
  0
LINE
  5
9BAA
330
A
100
AcDbEntity
  8
MODEL
100
AcDbLine
 10
180.7486586171456
 20
642.3622404052003
 30
0.0
 11
180.911391659675
 21
642.4133578589035
 31
0.0
  0
LINE
  5
9BAB
330
A
100
AcDbEntity
  8
MODEL
100
AcDbLine
 10
177.3589800381046
 20
642.1405724490876
 30
0.0
 11
177.3869879100901
 21
641.7655561514418
 31
0.0
  0
ARC
  5
9BAC
330
A
100
AcDbEntity
  8
MODEL
100
AcDbCircle
 10
185.9537545653602
 20
651.4485541297638
 30
0.0
 40
11.9971036779886
100
AcDbArc
 50
225.4300555521689
 51
227.7357696943601
  0
ARC
  5
9BAD
330
A
100
AcDbEntity
  8
MODEL
100
AcDbCircle
 10
164.0054498704536
 20
655.7104593618728
 30
0.0
 40
18.63043081553644
100
AcDbArc
 50
316.5668196074714
 51
318.3840240152778
  0
ARC
  5
9BAE
330
A
100
AcDbEntity
  8
MODEL
100
AcDbCircle
 10
175.4488857868449
 20
663.9071144302779
 30
0.0
 40
20.71932109074662
100
AcDbArc
 50
276.8881936040744
 51
278.9824390898196
  0
ARC
  5
9BAF
330
A
100
AcDbEntity
  8
MODEL
100
AcDbCircle
 10
186.9797928096467
 20
651.8581892407749
 30
0.0
 40
11.81766055118547
100
AcDbArc
 50
225.4125477858586
 51
227.7532774607299
  0
ARC
  5
9BB0
330
A
100
AcDbEntity
  8
MODEL
100
AcDbCircle
 10
165.1575815502899
 20
655.409979084774
 30
0.0
 40
18.54335241715101
100
AcDbArc
 50
316.6198424126808
 51
318.4476101619834
  0
ARC
  5
9BB1
330
A
100
AcDbEntity
  8
MODEL
100
AcDbCircle
 10
175.4026348554198
 20
663.2979203669654
 30
0.0
 40
20.87596224123744
100
AcDbArc
 50
276.829474488347
 51
278.9076681570608
  0
ARC
  5
9BB2
330
A
100
AcDbEntity
  8
MODEL
100
AcDbCircle
 10
187.5137153232282
 20
652.0947069161039
 30
0.0
 40
11.69404003559647
100
AcDbArc
 50
225.4001738285573
 51
227.7656514178665
  0
ARC
  5
9BB3
330
A
100
AcDbEntity
  8
MODEL
100
AcDbCircle
 10
162.1279856646991
 20
657.8281827947421
 30
0.0
 40
22.19582238782974
100
AcDbArc
 50
320.6948208932864
 51
322.3517788736652
  0
LINE
  5
9BB4
330
A
100
AcDbEntity
  8
MODEL
100
AcDbLine
 10
179.70210189145
 20
644.2707136238112
 30
0.0
 11
179.8941492197872
 21
644.3121281030449
 31
0.0
  0
ELLIPSE
  5
9BB5
330
A
100
AcDbEntity
  8
MODEL
100
AcDbEllipse
 10
174.9246903979707
 20
642.6290398421763
 30
0.0
 11
-6.002221810851935
 21
1.564139838026455E-7
 31
0.0
210
0.0
220
0.0
230
-1.0
 40
0.4999999999630602
 41
2.546214610597826
 42
2.764723041883713
  0
LINE
  5
9BB6
330
A
100
AcDbEntity
  8
MODEL
100
AcDbLine
 10
180.5056835654029
 20
643.7334832503302
 30
0.0
 11
180.4034242257885
 21
643.6071097530419
 31
0.0
  0
ARC
  5
9BB7
330
A
100
AcDbEntity
  8
MODEL
100
AcDbCircle
 10
175.515250775145
 20
663.3529334628802
 30
0.0
 40
20.34187291435044
100
AcDbArc
 50
281.7376019959674
 51
283.9043093400076
  0
LINE
  5
9BB8
330
A
100
AcDbEntity
  8
MODEL
100
AcDbLine
 10
177.8850949108113
 20
642.570084214319
 30
0.0
 11
177.8850949271998
 21
643.1989824034592
 31
0.0
  0
LINE
  5
9BB9
330
A
100
AcDbEntity
  8
MODEL
100
AcDbLine
 10
177.8444187631537
 20
643.2374709251951
 30
0.0
 11
177.8850949271998
 21
643.1989824034592
 31
0.0
  0
LINE
  5
9BBA
330
A
100
AcDbEntity
  8
MODEL
100
AcDbLine
 10
178.6351232957711
 20
642.6737399473566
 30
0.0
 11
178.635123309092
 21
643.1849221639684
 31
0.0
  0
LINE
  5
9BBB
330
A
100
AcDbEntity
  8
MODEL
100
AcDbLine
 10
177.8850949271998
 20
643.1989824034592
 30
0.0
 11
178.635123309092
 21
643.1849221639684
 31
0.0
  0
LINE
  5
9BBC
330
A
100
AcDbEntity
  8
MODEL
100
AcDbLine
 10
178.635123309092
 20
643.1849221639682
 30
0.0
 11
178.8073313028519
 21
643.3219330601223
 31
0.0
  0
LINE
  5
9BBD
330
A
100
AcDbEntity
  8
MODEL
100
AcDbLine
 10
179.6533958390817
 20
643.43641898134
 30
0.0
 11
179.6533958450693
 21
643.6661846440786
 31
0.0
  0
LINE
  5
9BBE
330
A
100
AcDbEntity
  8
MODEL
100
AcDbLine
 10
179.4082751717597
 20
643.8981222562854
 30
0.0
 11
179.6533958450693
 21
643.6661846440786
 31
0.0
  0
LINE
  5
9BBF
330
A
100
AcDbEntity
  8
MODEL
100
AcDbLine
 10
180.4034242257886
 20
643.6071097530421
 30
0.0
 11
180.4034242269615
 21
643.6521244045875
 31
0.0
  0
LINE
  5
9BC0
330
A
100
AcDbEntity
  8
MODEL
100
AcDbLine
 10
179.6533958450693
 20
643.6661846440786
 30
0.0
 11
180.4034242269615
 21
643.6521244045875
 31
0.0
  0
LINE
  5
9BC1
330
A
100
AcDbEntity
  8
MODEL
100
AcDbLine
 10
180.4034242269615
 20
643.6521244045875
 30
0.0
 11
180.5056835654029
 21
643.7334832503302
 31
0.0
  0
ARC
  5
9BC2
330
A
100
AcDbEntity
  8
MODEL
100
AcDbCircle
 10
182.5124791679971
 20
658.7575748134627
 30
0.0
 40
16.51473964565471
100
AcDbArc
 50
248.625519941437
 51
250.8588164112289
  0
LINE
  5
9BC3
330
A
100
AcDbEntity
  8
MODEL
100
AcDbLine
 10
176.4934833118082
 20
643.3787479906216
 30
0.0
 11
176.5775748252324
 21
643.8693788147698
 31
0.0
  0
ARC
  5
9BC4
330
A
100
AcDbEntity
  8
MODEL
100
AcDbCircle
 10
169.3007461388362
 20
663.5188105622647
 30
0.0
 40
20.9535773492408
100
AcDbArc
 50
290.3212428451687
 51
292.340844231068
  0
ARC
  5
9BC5
330
A
100
AcDbEntity
  8
MODEL
100
AcDbCircle
 10
183.1989927062659
 20
659.2851119640511
 30
0.0
 40
16.26776237998782
100
AcDbArc
 50
248.6085647853631
 51
250.8757715672611
  0
LINE
  5
9BC6
330
A
100
AcDbEntity
  8
MODEL
100
AcDbLine
 10
177.8693897739166
 20
643.9151599330512
 30
0.0
 11
177.7852982604687
 21
643.423638553696
 31
0.0
  0
ARC
  5
9BC7
330
A
100
AcDbEntity
  8
MODEL
100
AcDbCircle
 10
169.7913297006917
 20
662.9447591127735
 30
0.0
 40
21.09449409719827
100
AcDbArc
 50
290.2640450399575
 51
292.2692748254534
  0
ARC
  5
9BC8
330
A
100
AcDbEntity
  8
MODEL
100
AcDbCircle
 10
183.5557845403287
 20
659.5698607857537
 30
0.0
 40
16.09761447093035
100
AcDbArc
 50
248.5965812818995
 51
250.887755070741
  0
LINE
  5
9BC9
330
A
100
AcDbEntity
  8
MODEL
100
AcDbLine
 10
177.6812444581045
 20
644.5824337057961
 30
0.0
 11
177.7653359732759
 21
645.1400995686088
 31
0.0
  0
LINE
  5
9BCA
330
A
100
AcDbEntity
  8
MODEL
100
AcDbLine
 10
177.7653359732759
 20
645.1400995686088
 30
0.0
 11
177.941488746579
 21
645.2235336831168
 31
0.0
  0
ELLIPSE
  5
9BCB
330
A
100
AcDbEntity
  8
MODEL
100
AcDbEllipse
 10
174.9246903979707
 20
642.6290398421763
 30
0.0
 11
-6.002221810851935
 21
1.564139836102780E-7
 31
0.0
210
0.0
220
0.0
230
-1.0
 40
0.4999999999630602
 41
2.097415660084934
 42
2.315924091370845
  0
LINE
  5
9BCC
330
A
100
AcDbEntity
  8
MODEL
100
AcDbLine
 10
178.9945913279313
 20
644.8348600796626
 30
0.0
 11
178.973059408512
 21
644.6943593075348
 31
0.0
  0
ARC
  5
9BCD
330
A
100
AcDbEntity
  8
MODEL
100
AcDbCircle
 10
169.0809620089718
 20
664.146866734684
 30
0.0
 40
21.82323615244305
100
AcDbArc
 50
294.9456843632877
 51
296.9545003263241
  0
LINE
  5
9BCE
330
A
100
AcDbEntity
  8
MODEL
100
AcDbLine
 10
177.0973450294262
 20
643.1558778600847
 30
0.0
 11
177.097345045815
 21
643.784776049225
 31
0.0
  0
LINE
  5
9BCF
330
A
100
AcDbEntity
  8
MODEL
100
AcDbLine
 10
176.7217876717514
 20
643.9233848044078
 30
0.0
 11
177.097345045815
 21
643.784776049225
 31
0.0
  0
LINE
  5
9BD0
330
A
100
AcDbEntity
  8
MODEL
100
AcDbLine
 10
177.7852982604687
 20
643.423638553696
 30
0.0
 11
177.78529827379
 21
643.9348207703076
 31
0.0
  0
LINE
  5
9BD1
330
A
100
AcDbEntity
  8
MODEL
100
AcDbLine
 10
177.097345045815
 20
643.784776049225
 30
0.0
 11
177.78529827379
 21
643.9348207703076
 31
0.0
  0
LINE
  5
9BD2
330
A
100
AcDbEntity
  8
MODEL
100
AcDbLine
 10
177.78529827379
 20
643.9348207703076
 30
0.0
 11
177.7873344397923
 21
643.9438504159818
 31
0.0
  0
LINE
  5
9BD3
330
A
100
AcDbEntity
  8
MODEL
100
AcDbLine
 10
178.2851061757225
 20
644.3595635752592
 30
0.0
 11
178.28510618171
 21
644.5893292379976
 31
0.0
  0
LINE
  5
9BD4
330
A
100
AcDbEntity
  8
MODEL
100
AcDbLine
 10
177.7145738647876
 20
644.7998983273078
 30
0.0
 11
178.28510618171
 21
644.5893292379976
 31
0.0
  0
LINE
  5
9BD5
330
A
100
AcDbEntity
  8
MODEL
100
AcDbLine
 10
178.973059408512
 20
644.6943593075348
 30
0.0
 11
178.9730594096852
 21
644.7393739590805
 31
0.0
  0
LINE
  5
9BD6
330
A
100
AcDbEntity
  8
MODEL
100
AcDbLine
 10
178.28510618171
 20
644.5893292379976
 30
0.0
 11
178.9730594096852
 21
644.7393739590805
 31
0.0
  0
LINE
  5
9BD7
330
A
100
AcDbEntity
  8
MODEL
100
AcDbLine
 10
178.9730594096852
 20
644.7393739590805
 30
0.0
 11
178.9945913279313
 21
644.8348600796626
 31
0.0
  0
ARC
  5
9BD8
330
A
100
AcDbEntity
  8
MODEL
100
AcDbCircle
 10
182.1302818381996
 20
658.4740107335354
 30
0.0
 40
16.61152866221828
100
AcDbArc
 50
248.6320270397435
 51
250.8523093127997
  0
ARC
  5
9BD9
330
A
100
AcDbEntity
  8
MODEL
100
AcDbCircle
 10
177.4522220673517
 20
664.0632572025836
 30
0.0
 40
20.61060273063634
100
AcDbArc
 50
263.5637282880345
 51
265.6230786884097
  0
ARC
  5
9BDA
330
A
100
AcDbEntity
  8
MODEL
100
AcDbCircle
 10
194.5320280690091
 20
654.0663109644686
 30
0.0
 40
22.04289975130661
100
AcDbArc
 50
207.0132460440583
 51
208.3988601949784
  0
ARC
  5
9BDB
330
A
100
AcDbEntity
  8
MODEL
100
AcDbCircle
 10
163.294760508101
 20
658.6444350953811
 30
0.0
 40
18.63888062755492
100
AcDbArc
 50
308.485225392374
 51
310.4347442685048
  0
ARC
  5
9BDC
330
A
100
AcDbEntity
  8
MODEL
100
AcDbCircle
 10
177.6649558254985
 20
664.6313287129733
 30
0.0
 40
20.30237163839462
100
AcDbArc
 50
263.5480940128126
 51
265.6387129636072
  0
ARC
  5
9BDD
330
A
100
AcDbEntity
  8
MODEL
100
AcDbCircle
 10
195.6972145947702
 20
654.3473642351901
 30
0.0
 40
21.9640620919319
100
AcDbArc
 50
206.9652922976541
 51
208.3579375347313
  0
ARC
  5
9BDE
330
A
100
AcDbEntity
  8
MODEL
100
AcDbCircle
 10
164.232320844349
 20
658.1922364181585
 30
0.0
 40
18.73868833909901
100
AcDbArc
 50
308.4291065020146
 51
310.3665110123288
  0
ARC
  5
9BDF
330
A
100
AcDbEntity
  8
MODEL
100
AcDbCircle
 10
177.7751341065625
 20
664.9265927475169
 30
0.0
 40
20.09002311509762
100
AcDbArc
 50
263.5370440033335
 51
265.6497629731086
  0
ARC
  5
9BE0
330
A
100
AcDbEntity
  8
MODEL
100
AcDbCircle
 10
201.0410426509736
 20
657.0289622617415
 30
0.0
 40
28.23470012654676
100
AcDbArc
 50
204.0925541961568
 51
205.2964001512761
  0
LINE
  5
9BE1
330
A
100
AcDbEntity
  8
MODEL
100
AcDbLine
 10
175.2659453604488
 20
645.5032236346526
 30
0.0
 11
175.3913143618252
 21
645.6210679386118
 31
0.0
  0
ELLIPSE
  5
9BE2
330
A
100
AcDbEntity
  8
MODEL
100
AcDbEllipse
 10
174.9246903979707
 20
642.6290398421763
 30
0.0
 11
-6.002221810851935
 21
1.564139836102780E-7
 31
0.0
210
0.0
220
0.0
230
-1.0
 40
0.4999999999630602
 41
1.648616709572104
 42
1.86712514085806
  0
LINE
  5
9BE3
330
A
100
AcDbEntity
  8
MODEL
100
AcDbLine
 10
176.6774052972219
 20
645.4993471583509
 30
0.0
 11
176.7408654584779
 21
645.3636313086254
 31
0.0
  0
ARC
  5
9BE4
330
A
100
AcDbEntity
  8
MODEL
100
AcDbCircle
 10
161.726282342968
 20
660.5421974420838
 30
0.0
 40
21.35009545646852
100
AcDbArc
 50
312.8688944910002
 51
314.688822044241
  0
LINE
  5
9BE5
330
A
100
AcDbEntity
  8
MODEL
100
AcDbLine
 10
175.1418142001601
 20
643.5825599388836
 30
0.0
 11
175.1418142165492
 21
644.2114581280239
 31
0.0
  0
LINE
  5
9BE6
330
A
100
AcDbEntity
  8
MODEL
100
AcDbLine
 10
175.8792742491751
 20
643.5127637758699
 30
0.0
 11
175.8792742655637
 21
644.1416619650101
 31
0.0
  0
LINE
  5
9BE7
330
A
100
AcDbEntity
  8
MODEL
100
AcDbLine
 10
175.1418142165492
 20
644.2114581280239
 30
0.0
 11
175.8792742655637
 21
644.1416619650101
 31
0.0
  0
LINE
  5
9BE8
330
A
100
AcDbEntity
  8
MODEL
100
AcDbLine
 10
175.8792742655637
 20
644.1416619650101
 30
0.0
 11
176.1627101696805
 21
644.3063162124301
 31
0.0
  0
LINE
  5
9BE9
330
A
100
AcDbEntity
  8
MODEL
100
AcDbLine
 10
175.1224657823398
 20
644.239112109648
 30
0.0
 11
175.1418142165492
 21
644.2114581280239
 31
0.0
  0
LINE
  5
9BEA
330
A
100
AcDbEntity
  8
MODEL
100
AcDbLine
 10
175.5137849045839
 20
644.9642449759779
 30
0.0
 11
175.5137849105715
 21
645.1940106387165
 31
0.0
  0
LINE
  5
9BEB
330
A
100
AcDbEntity
  8
MODEL
100
AcDbLine
 10
176.2512449535989
 20
644.8944488129644
 30
0.0
 11
176.2512449595862
 21
645.1242144757027
 31
0.0
  0
LINE
  5
9BEC
330
A
100
AcDbEntity
  8
MODEL
100
AcDbLine
 10
175.5137849105715
 20
645.1940106387165
 30
0.0
 11
176.2512449595862
 21
645.1242144757027
 31
0.0
  0
LINE
  5
9BED
330
A
100
AcDbEntity
  8
MODEL
100
AcDbLine
 10
176.2512449595862
 20
645.1242144757027
 30
0.0
 11
176.7243130454202
 21
645.3990302930358
 31
0.0
  0
LINE
  5
9BEE
330
A
100
AcDbEntity
  8
MODEL
100
AcDbLine
 10
175.2849449664682
 20
645.5210828731242
 30
0.0
 11
175.5137849105715
 21
645.1940106387165
 31
0.0
  0
ARC
  5
9BEF
330
A
100
AcDbEntity
  8
MODEL
100
AcDbCircle
 10
177.3334158094202
 20
663.746851091581
 30
0.0
 40
20.73139773893666
100
AcDbArc
 50
263.569728505719
 51
265.6170784707266
  0
ARC
  5
9BF0
330
A
100
AcDbEntity
  8
MODEL
100
AcDbCircle
 10
185.5086871031344
 20
659.5932642838416
 30
0.0
 40
18.9509697685718
100
AcDbArc
 50
233.1212610277632
 51
235.1017727659417
  0
ARC
  5
9BF1
330
A
100
AcDbEntity
  8
MODEL
100
AcDbCircle
 10
150.6531488306994
 20
653.4878171878809
 30
0.0
 40
25.80128195558903
100
AcDbArc
 50
337.3941094159537
 51
338.5444811633598
  0
LINE
  5
9BF2
330
A
100
AcDbEntity
  8
MODEL
100
AcDbLine
 10
174.0130725850779
 20
645.5953346710617
 30
0.0
 11
174.1489557635524
 21
645.4823682284152
 31
0.0
  0
ARC
  5
9BF3
330
A
100
AcDbEntity
  8
MODEL
100
AcDbCircle
 10
142.2210145465809
 20
656.5112578640881
 30
0.0
 40
33.77913315865626
100
AcDbArc
 50
339.9585149542745
 51
340.9435184022419
  0
LINE
  5
9BF4
330
A
100
AcDbEntity
  8
MODEL
100
AcDbLine
 10
174.4721364267442
 20
643.570056329135
 30
0.0
 11
174.4721364428372
 21
644.1876147815217
 31
0.0
  0
LINE
  5
9BF5
330
A
100
AcDbEntity
  8
MODEL
100
AcDbLine
 10
173.9546433314226
 20
644.9351341131908
 30
0.0
 11
173.9546433374105
 21
645.1648997759291
 31
0.0
  0
LINE
  5
9BF6
330
A
100
AcDbEntity
  8
MODEL
100
AcDbLine
 10
173.9546433374105
 20
645.1648997759291
 30
0.0
 11
174.132263982872
 21
645.496244938957
 31
0.0
  0
ARC
  5
9BF7
330
A
100
AcDbEntity
  8
MODEL
100
AcDbCircle
 10
179.1253200685487
 20
663.3991034948679
 30
0.0
 40
21.353511082169
100
AcDbArc
 50
250.1577928777106
 51
252.166303556599
  0
ARC
  5
9BF8
330
A
100
AcDbEntity
  8
MODEL
100
AcDbCircle
 10
203.9276220616005
 20
652.749961217635
 30
0.0
 40
33.41069558585779
100
AcDbArc
 50
195.5367786158943
 51
196.4060911409513
  0
ARC
  5
9BF9
330
A
100
AcDbEntity
  8
MODEL
100
AcDbCircle
 10
179.6495875481501
 20
664.3985123282635
 30
0.0
 40
21.8368238143412
100
AcDbArc
 50
245.4388926643892
 51
247.4665921938973
  0
LINE
  5
9BFA
330
A
100
AcDbEntity
  8
MODEL
100
AcDbLine
 10
170.5728168814852
 20
644.5375176763496
 30
0.0
 11
170.5371021416868
 21
644.6769495913125
 31
0.0
  0
LINE
  5
9BFB
330
A
100
AcDbEntity
  8
MODEL
100
AcDbLine
 10
172.5856959927704
 20
643.07164048337
 30
0.0
 11
172.5856960091592
 21
643.7005386725102
 31
0.0
  0
LINE
  5
9BFC
330
A
100
AcDbEntity
  8
MODEL
100
AcDbLine
 10
171.8772779185799
 20
643.3133294114878
 30
0.0
 11
171.8772779319008
 21
643.8245116280993
 31
0.0
  0
LINE
  5
9BFD
330
A
100
AcDbEntity
  8
MODEL
100
AcDbLine
 10
171.866282349866
 20
643.8535800949892
 30
0.0
 11
171.8772779319008
 21
643.8245116280993
 31
0.0
  0
LINE
  5
9BFE
330
A
100
AcDbEntity
  8
MODEL
100
AcDbLine
 10
171.8772779319008
 20
643.8245116280993
 30
0.0
 11
172.5856960091592
 21
643.7005386725102
 31
0.0
  0
LINE
  5
9BFF
330
A
100
AcDbEntity
  8
MODEL
100
AcDbLine
 10
171.281234953929
 20
644.2287937095675
 30
0.0
 11
171.2812349599167
 21
644.4585593723059
 31
0.0
  0
LINE
  5
9C00
330
A
100
AcDbEntity
  8
MODEL
100
AcDbLine
 10
170.5728168814852
 20
644.5375176763496
 30
0.0
 11
170.5728168826581
 21
644.582532327895
 31
0.0
  0
LINE
  5
9C01
330
A
100
AcDbEntity
  8
MODEL
100
AcDbLine
 10
170.5371021416868
 20
644.6769495913125
 30
0.0
 11
170.5728168826581
 21
644.582532327895
 31
0.0
  0
LINE
  5
9C02
330
A
100
AcDbEntity
  8
MODEL
100
AcDbLine
 10
170.5728168826581
 20
644.582532327895
 30
0.0
 11
171.2812349599162
 21
644.4585593723059
 31
0.0
  0
ARC
  5
9C03
330
A
100
AcDbEntity
  8
MODEL
100
AcDbCircle
 10
163.110391941526
 20
650.4214893686458
 30
0.0
 40
11.8513060740807
100
AcDbArc
 50
317.7828985291521
 51
319.9901563121033
  0
ARC
  5
9C04
330
A
100
AcDbEntity
  8
MODEL
100
AcDbCircle
 10
173.5725734112659
 20
662.7653879532338
 30
0.0
 40
20.37707628746848
100
AcDbArc
 50
263.1485408601285
 51
265.2565830346718
  0
ARC
  5
9C05
330
A
100
AcDbEntity
  8
MODEL
100
AcDbCircle
 10
183.5965214153209
 20
656.1777584176009
 30
0.0
 40
18.47376522572874
100
AcDbArc
 50
225.7080777555439
 51
227.6086417190482
  0
ARC
  5
9C06
330
A
100
AcDbEntity
  8
MODEL
100
AcDbCircle
 10
162.0524840237366
 20
650.8011983500339
 30
0.0
 40
11.67403334464922
100
AcDbArc
 50
317.7661375645876
 51
320.0069172767422
  0
ARC
  5
9C07
330
A
100
AcDbEntity
  8
MODEL
100
AcDbCircle
 10
173.4351880231225
 20
663.3724394318078
 30
0.0
 40
20.22170804556254
100
AcDbArc
 50
263.0726069736227
 51
265.197103999615
  0
ARC
  5
9C08
330
A
100
AcDbEntity
  8
MODEL
100
AcDbCircle
 10
184.6921547450921
 20
656.5267143743695
 30
0.0
 40
18.56683476340675
100
AcDbArc
 50
225.7744048504901
 51
227.663555628144
  0
ARC
  5
9C09
330
A
100
AcDbEntity
  8
MODEL
100
AcDbCircle
 10
161.5029445831672
 20
651.0236709433075
 30
0.0
 40
11.55190131773774
100
AcDbArc
 50
317.754290752427
 51
320.0187640889641
  0
ARC
  5
9C0A
330
A
100
AcDbEntity
  8
MODEL
100
AcDbCircle
 10
173.3810517890273
 20
662.6563611823303
 30
0.0
 40
19.68232346865709
100
AcDbArc
 50
258.0587530528741
 51
260.2694728401767
  0
LINE
  5
9C0B
330
A
100
AcDbEntity
  8
MODEL
100
AcDbLine
 10
169.3086106680514
 20
643.3999575606508
 30
0.0
 11
169.1945005695063
 21
643.5222912060524
 31
0.0
  0
ELLIPSE
  5
9C0C
330
A
100
AcDbEntity
  8
MODEL
100
AcDbEllipse
 10
174.9246903979707
 20
642.6290398421763
 30
0.0
 11
-6.002221810851935
 21
1.564139838026455E-7
 31
0.0
210
0.0
220
0.0
230
-1.0
 40
0.49999999996306
 41
0.3022198580336127
 42
0.5207282893195677
  0
LINE
  5
9C0D
330
A
100
AcDbEntity
  8
MODEL
100
AcDbLine
 10
169.7180206489469
 20
644.1221287549229
 30
0.0
 11
169.9089961195293
 21
644.0878657264204
 31
0.0
  0
ARC
  5
9C0E
330
A
100
AcDbEntity
  8
MODEL
100
AcDbCircle
 10
186.0733339927741
 20
658.4409843977594
 30
0.0
 40
21.61707275451415
100
AcDbArc
 50
221.6034644810363
 51
223.3526439982683
  0
LINE
  5
9C0F
330
A
100
AcDbEntity
  8
MODEL
100
AcDbLine
 10
171.8875174567347
 20
642.4581029437747
 30
0.0
 11
171.8875174729852
 21
643.0817048609922
 31
0.0
  0
LINE
  5
9C10
330
A
100
AcDbEntity
  8
MODEL
100
AcDbLine
 10
171.1416751396994
 20
642.5338291497553
 30
0.0
 11
171.1416751530205
 21
643.0450113663669
 31
0.0
  0
LINE
  5
9C11
330
A
100
AcDbEntity
  8
MODEL
100
AcDbLine
 10
170.9128227722201
 20
643.200077709037
 30
0.0
 11
171.1416751530201
 21
643.0450113663669
 31
0.0
  0
LINE
  5
9C12
330
A
100
AcDbEntity
  8
MODEL
100
AcDbLine
 10
171.1416751530205
 20
643.0450113663669
 30
0.0
 11
171.8822692519245
 21
643.0867056661964
 31
0.0
  0
LINE
  5
9C13
330
A
100
AcDbEntity
  8
MODEL
100
AcDbLine
 10
170.0544529833401
 20
643.2571963160058
 30
0.0
 11
170.0544529893276
 21
643.4869619787441
 31
0.0
  0
LINE
  5
9C14
330
A
100
AcDbEntity
  8
MODEL
100
AcDbLine
 10
170.0544529893276
 20
643.4869619787441
 30
0.0
 11
170.2507891585681
 21
643.7119195517898
 31
0.0
  0
LINE
  5
9C15
330
A
100
AcDbEntity
  8
MODEL
100
AcDbLine
 10
169.3086106680514
 20
643.3999575606508
 30
0.0
 11
169.3086106692247
 21
643.4449722121963
 31
0.0
  0
LINE
  5
9C16
330
A
100
AcDbEntity
  8
MODEL
100
AcDbLine
 10
169.1945005695063
 20
643.5222912060524
 30
0.0
 11
169.3086106692247
 21
643.4449722121963
 31
0.0
  0
LINE
  5
9C17
330
A
100
AcDbEntity
  8
MODEL
100
AcDbLine
 10
169.3086106692247
 20
643.4449722121963
 30
0.0
 11
170.0544529893276
 21
643.4869619787441
 31
0.0
  0
ARC
  5
9C18
330
A
100
AcDbEntity
  8
MODEL
100
AcDbCircle
 10
163.699611789697
 20
650.2344052955248
 30
0.0
 40
11.9207810575348
100
AcDbArc
 50
317.7893313291349
 51
319.9837235121011
  0
LINE
  5
9C19
330
A
100
AcDbEntity
  8
MODEL
100
AcDbLine
 10
171.7628803949606
 20
642.1288768516677
 30
0.0
 11
171.7908882669461
 21
641.7538605540219
 31
0.0
  0
ARC
  5
9C1A
330
A
100
AcDbEntity
  8
MODEL
100
AcDbCircle
 10
169.5642881423522
 20
656.5217907375361
 30
0.0
 40
14.93484214914856
100
AcDbArc
 50
276.1155089611486
 51
278.5740567226337
  0
ARC
  5
9C1B
330
A
100
AcDbEntity
  8
MODEL
100
AcDbCircle
 10
179.1729303612892
 20
660.6640873217577
 30
0.0
 40
20.61512338857161
100
AcDbArc
 50
245.0956138989421
 51
247.112830544599
  0
LINE
  5
9C1C
330
A
100
AcDbEntity
  8
MODEL
100
AcDbLine
 10
170.4917937125276
 20
641.9659275510328
 30
0.0
 11
170.463785840542
 21
642.3409438486783
 31
0.0
  0
ARC
  5
9C1D
330
A
100
AcDbEntity
  8
MODEL
100
AcDbCircle
 10
168.9092225228486
 20
657.0668743844194
 30
0.0
 40
14.80775800896909
100
AcDbArc
 50
276.0261889030947
 51
278.5054015973806
  0
ARC
  5
9C1E
330
A
100
AcDbEntity
  8
MODEL
100
AcDbCircle
 10
179.8138649046571
 20
661.253451446315
 30
0.0
 40
20.75012542134671
100
AcDbArc
 50
245.1669853806464
 51
247.1700815278461
  0
LINE
  5
9C1F
330
A
100
AcDbEntity
  8
MODEL
100
AcDbLine
 10
169.7642733890896
 20
642.4906932192177
 30
0.0
 11
169.7922812610751
 21
642.1156769215722
 31
0.0
  0
ARC
  5
9C20
330
A
100
AcDbEntity
  8
MODEL
100
AcDbCircle
 10
169.1572851894537
 20
655.6528334495745
 30
0.0
 40
13.5520414283092
100
AcDbArc
 50
269.9976862424227
 51
272.6856412184881
  0
LINE
  5
9C21
330
A
100
AcDbEntity
  8
MODEL
100
AcDbLine
 10
169.1567379215937
 20
642.1007920323157
 30
0.0
 11
168.9868333690197
 21
642.1907134331677
 31
0.0
  0
ELLIPSE
  5
9C22
330
A
100
AcDbEntity
  8
MODEL
100
AcDbEllipse
 10
174.9246903979706
 20
642.6290398421763
 30
0.0
 11
-6.002221810851935
 21
1.564139838266915E-7
 31
0.0
210
0.0
220
0.0
230
-1.0
 40
0.4999999999630601
 41
6.136606214700378
 42
6.355114645986283
  0
LINE
  5
9C23
330
A
100
AcDbEntity
  8
MODEL
100
AcDbLine
 10
168.937989136266
 20
642.8447218254494
 30
0.0
 11
169.1007221776226
 21
642.8508246276067
 31
0.0
  0
ARC
  5
9C24
330
A
100
AcDbEntity
  8
MODEL
100
AcDbCircle
 10
179.8012280337068
 20
661.775406168063
 30
0.0
 40
21.74029926329125
100
AcDbArc
 50
240.514926200059
 51
242.5047489980204
  0
LINE
  5
9C25
330
A
100
AcDbEntity
  8
MODEL
100
AcDbLine
 10
170.4917937125276
 20
641.9659275510328
 30
0.0
 11
170.491793722378
 21
642.343923955814
 31
0.0
  0
LINE
  5
9C26
330
A
100
AcDbEntity
  8
MODEL
100
AcDbLine
 10
171.1553449257178
 20
641.6719406261009
 30
0.0
 11
171.155344939039
 21
642.1831228427127
 31
0.0
  0
LINE
  5
9C27
330
A
100
AcDbEntity
  8
MODEL
100
AcDbLine
 10
170.5308745866109
 20
642.3481739431534
 30
0.0
 11
171.1553449390393
 21
642.1831228427127
 31
0.0
  0
LINE
  5
9C28
330
A
100
AcDbEntity
  8
MODEL
100
AcDbLine
 10
171.155344939039
 20
642.1831228427127
 30
0.0
 11
171.4340363412239
 21
642.270664958482
 31
0.0
  0
LINE
  5
9C29
330
A
100
AcDbEntity
  8
MODEL
100
AcDbLine
 10
169.1567379215937
 20
642.1007920323157
 30
0.0
 11
169.1567379227671
 21
642.1458066838611
 31
0.0
  0
LINE
  5
9C2A
330
A
100
AcDbEntity
  8
MODEL
100
AcDbLine
 10
168.9868333690197
 20
642.1907134331677
 30
0.0
 11
169.1567379227671
 21
642.1458066838611
 31
0.0
  0
LINE
  5
9C2B
330
A
100
AcDbEntity
  8
MODEL
100
AcDbLine
 10
169.1567379227671
 20
642.1458066838611
 30
0.0
 11
169.775275931751
 21
642.340100894467
 31
0.0
  0
LINE
  5
9C2C
330
A
100
AcDbEntity
  8
MODEL
100
AcDbLine
 10
172.4904007202234
 20
641.6741315622555
 30
0.0
 11
172.4623928482379
 21
642.0491478599013
 31
0.0
  0
LINE
  5
9C2D
330
A
100
AcDbEntity
  8
MODEL
100
AcDbLine
 10
172.4904007202234
 20
641.6741315622555
 30
0.0
 11
172.4904007301519
 21
642.0551336452797
 31
0.0
  0
LINE
  5
9C2E
330
A
100
AcDbEntity
  8
MODEL
100
AcDbLine
 10
177.1259181684607
 20
642.179760257807
 30
0.0
 11
177.3589800381046
 21
642.1405724490876
 31
0.0
  0
LINE
  5
9C2F
330
A
100
AcDbEntity
  8
MODEL
100
AcDbLine
 10
176.0640946553751
 20
641.9481966048784
 30
0.0
 11
176.0640946768642
 21
642.7816452238815
 31
0.0
  0
LINE
  5
9C30
330
A
100
AcDbEntity
  8
MODEL
100
AcDbLine
 10
177.1259181702229
 20
642.1797602453059
 30
0.0
 11
177.1259181772459
 21
642.4433104903571
 31
0.0
  0
LINE
  5
9C31
330
A
100
AcDbEntity
  8
MODEL
100
AcDbLine
 10
175.836134221552
 20
642.9292521104917
 30
0.0
 11
176.0777669118265
 21
643.0043647271866
 31
0.0
  0
LINE
  5
9C32
330
A
100
AcDbEntity
  8
MODEL
100
AcDbLine
 10
175.749084503849
 20
643.0760807497632
 30
0.0
 11
175.8361342230114
 21
642.9292520866898
 31
0.0
  0
LINE
  5
9C33
330
A
100
AcDbEntity
  8
MODEL
100
AcDbLine
 10
172.6856173940607
 20
642.0968550288162
 30
0.0
 11
172.5290900236449
 21
642.22532700037
 31
0.0
  0
LINE
  5
9C34
330
A
100
AcDbEntity
  8
MODEL
100
AcDbLine
 10
172.4623928482379
 20
642.0491478599013
 30
0.0
 11
172.6856173904757
 21
642.0968550036814
 31
0.0
  0
LINE
  5
9C35
330
A
100
AcDbEntity
  8
MODEL
100
AcDbLine
 10
172.6856173922682
 20
642.0968550162488
 30
0.0
 11
172.6856174003324
 21
642.4013550749894
 31
0.0
  0
LINE
  5
9C36
330
A
100
AcDbEntity
  8
MODEL
100
AcDbLine
 10
176.6816286294447
 20
642.7814945966497
 30
0.0
 11
176.6520928165151
 21
642.62810234883
 31
0.0
  0
LINE
  5
9C37
330
A
100
AcDbEntity
  8
MODEL
100
AcDbLine
 10
175.8188321534881
 20
642.1802684182726
 30
0.0
 11
175.818832173225
 21
642.9584359485864
 31
0.0
  0
LINE
  5
9C38
330
A
100
AcDbEntity
  8
MODEL
100
AcDbLine
 10
176.6520928151322
 20
642.6281023609722
 30
0.0
 11
176.6520928196404
 21
642.7917770364706
 31
0.0
  0
LINE
  5
9C39
330
A
100
AcDbEntity
  8
MODEL
100
AcDbLine
 10
177.163763363099
 20
641.6730254190613
 30
0.0
 11
177.3202907346831
 21
641.5893770109731
 31
0.0
  0
LINE
  5
9C3A
330
A
100
AcDbEntity
  8
MODEL
100
AcDbLine
 10
177.3869879100901
 20
641.7655561514418
 30
0.0
 11
177.1637633666837
 21
641.6730253932483
 31
0.0
  0
LINE
  5
9C3B
330
A
100
AcDbEntity
  8
MODEL
100
AcDbLine
 10
177.1637633648916
 20
641.6730254061549
 30
0.0
 11
177.1637633777192
 21
642.1733968451276
 31
0.0
  0
LINE
  5
9C3C
330
A
100
AcDbEntity
  8
MODEL
100
AcDbLine
 10
174.0132465356078
 20
640.8406283373856
 30
0.0
 11
173.7716138465012
 21
640.8103392841565
 31
0.0
  0
LINE
  5
9C3D
330
A
100
AcDbEntity
  8
MODEL
100
AcDbLine
 10
174.1002962544787
 20
640.73862326158
 30
0.0
 11
174.0132465341483
 21
640.8406283102397
 31
0.0
  0
LINE
  5
9C3E
330
A
100
AcDbEntity
  8
MODEL
100
AcDbLine
 10
173.7716138653079
 20
641.5320271206613
 30
0.0
 11
173.8767270740352
 21
641.554952635717
 31
0.0
  0
LINE
  5
9C3F
330
A
100
AcDbEntity
  8
MODEL
100
AcDbLine
 10
174.013246534878
 20
640.8406283238128
 30
0.0
 11
174.0132465489326
 21
641.4268621235128
 31
0.0
  0
ARC
  5
9C40
330
A
100
AcDbEntity
  8
MODEL
100
AcDbCircle
 10
184.2924338905098
 20
650.8898621292908
 30
0.0
 40
12.15149986480957
100
AcDbArc
 50
225.7868439811202
 51
227.3789799079537
  0
LINE
  5
9C41
330
A
100
AcDbEntity
  8
MODEL
100
AcDbLine
 10
176.6520928137494
 20
642.6281023731142
 30
0.0
 11
176.9155284199695
 21
642.6455757181225
 31
0.0
  0
LINE
  5
9C42
330
A
100
AcDbEntity
  8
MODEL
100
AcDbLine
 10
177.2661895871386
 20
642.3137737827378
 30
0.0
 11
177.1259181719852
 21
642.1797602328049
 31
0.0
  0
LINE
  5
9C43
330
A
100
AcDbEntity
  8
MODEL
100
AcDbLine
 10
175.8903024850554
 20
642.9460905374654
 30
0.0
 11
176.0640946768642
 21
642.7816452238815
 31
0.0
  0
LINE
  5
9C44
330
A
100
AcDbEntity
  8
MODEL
100
AcDbLine
 10
175.0018428566858
 20
640.7426920944076
 30
0.0
 11
174.8377563034936
 21
640.6688270985665
 31
0.0
  0
LWPOLYLINE
  5
9C45
330
A
100
AcDbEntity
  8
MODEL
100
AcDbPolyline
 90
        2
 70
     0
 43
0.0
 10
175.4434445983607
 20
640.4379907586697
 10
175.0018399841031
 20
640.7426782586697
  0
LINE
  5
9C46
330
A
100
AcDbEntity
  8
MODEL
100
AcDbLine
 10
175.3772443364198
 20
640.4302269769371
 30
0.0
 11
175.4434381023805
 21
640.4379830651401
 31
0.0
  0
ARC
  5
9C47
330
A
100
AcDbEntity
  8
MODEL
100
AcDbCircle
 10
173.4462325114764
 20
659.7175473974912
 30
0.0
 40
19.80905463743769
100
AcDbArc
 50
276.572590175892
 51
277.6009159966669
  0
LWPOLYLINE
  5
9C48
330
A
100
AcDbEntity
  8
MODEL
100
AcDbPolyline
 90
        2
 70
     0
 43
0.0
 10
176.4018796569545
 20
639.9284387567166
 10
176.0664151794156
 20
640.0825525262478
  0
ARC
  5
9C49
330
A
100
AcDbEntity
  8
MODEL
100
AcDbCircle
 10
173.651230901464
 20
659.3665817221527
 30
0.0
 40
19.63178196852947
100
AcDbArc
 50
276.5620586677601
 51
278.0543089590992
  0
LINE
  5
9C4A
330
A
100
AcDbEntity
  8
MODEL
100
AcDbLine
 10
176.8437535909495
 20
639.7670718316172
 30
0.0
 11
176.8055986161755
 21
639.779090280899
 31
0.0
  0
ELLIPSE
  5
9C4B
330
A
100
AcDbEntity
  8
MODEL
100
AcDbEllipse
 10
174.9246903979706
 20
642.6290398421763
 30
0.0
 11
-6.002221810851935
 21
1.564139838026455E-7
 31
0.0
210
0.0
220
0.0
230
-1.0
 40
0.4999999999630601
 41
4.393650664040509
 42
4.559918843935007
  0
LINE
  5
9C4C
330
A
100
AcDbEntity
  8
MODEL
100
AcDbLine
 10
172.6376412507076
 20
643.092878826747
 30
0.0
 11
172.5856959927704
 21
643.07164048337
 31
0.0
  0
LINE
  5
9C4D
330
A
100
AcDbEntity
  8
MODEL
100
AcDbLine
 10
171.7377963169213
 20
643.8006764385013
 30
0.0
 11
172.0146587361986
 21
643.9163966696062
 31
0.0
  0
LWPOLYLINE
  5
9C4E
330
A
100
AcDbEntity
  8
MODEL
100
AcDbPolyline
 90
        2
 70
     0
 43
0.0
 10
172.0146573669156
 20
643.9164148309353
 10
171.6792081481656
 20
644.3971277215603
  0
ARC
  5
9C4F
330
A
100
AcDbEntity
  8
MODEL
100
AcDbCircle
 10
165.5977362621732
 20
658.2204189293857
 30
0.0
 40
15.10191158996239
100
AcDbArc
 50
292.1073426932463
 51
293.7467910173598
  0
LINE
  5
9C50
330
A
100
AcDbEntity
  8
MODEL
100
AcDbLine
 10
171.2754812609933
 20
645.0117872871772
 30
0.0
 11
171.2373262883775
 21
645.0719746944087
 31
0.0
  0
ELLIPSE
  5
9C51
330
A
100
AcDbEntity
  8
MODEL
100
AcDbEllipse
 10
174.9246903979707
 20
642.6290398421763
 30
0.0
 11
-6.002221810851935
 21
1.564139834179105E-7
 31
0.0
210
0.0
220
0.0
230
-1.0
 40
0.4999999999630601
 41
0.7510188085464273
 42
0.9172869884945647
  0
LWPOLYLINE
  5
9C52
330
A
100
AcDbEntity
  8
MODEL
100
AcDbPolyline
 90
        2
 70
     0
 43
0.0
 10
173.0792325622281
 20
642.5618921258572
 10
172.6376432067592
 20
643.0928674676541
  0
LINE
  5
9C53
330
A
100
AcDbEntity
  8
MODEL
100
AcDbLine
 10
172.8292827493838
 20
642.5692810832547
 30
0.0
 11
173.0792369287209
 21
642.5618965432996
 31
0.0
  0
LWPOLYLINE
  5
9C54
330
A
100
AcDbEntity
  8
MODEL
100
AcDbPolyline
 90
        2
 70
     0
 43
0.0
 10
174.3086942321497
 20
641.3067956903103
 10
173.772378314181
 20
641.8142724969509
  0
LINE
  5
9C55
330
A
100
AcDbEntity
  8
MODEL
100
AcDbLine
 10
177.211739512398
 20
640.9051854441032
 30
0.0
 11
177.2636847703935
 21
640.9286428227022
 31
0.0
  0
LINE
  5
9C56
330
A
100
AcDbEntity
  8
MODEL
100
AcDbLine
 10
178.1115844585597
 20
640.6722518680992
 30
0.0
 11
177.8347220391055
 21
640.5497488964302
 31
0.0
  0
LWPOLYLINE
  5
9C57
330
A
100
AcDbEntity
  8
MODEL
100
AcDbPolyline
 90
        2
 70
     0
 43
0.0
 10
177.8347257262906
 20
640.5497461297634
 10
178.1701749450406
 20
640.3956628778103
  0
ARC
  5
9C58
330
A
100
AcDbEntity
  8
MODEL
100
AcDbCircle
 10
172.2207640191756
 20
654.5372870797471
 30
0.0
 40
15.34213863997519
100
AcDbArc
 50
292.8165777742135
 51
294.4388667577286
  0
LINE
  5
9C59
330
A
100
AcDbEntity
  8
MODEL
100
AcDbLine
 10
178.5738995349482
 20
640.2462925158484
 30
0.0
 11
178.6120545088189
 21
640.2342740722363
 31
0.0
  0
ELLIPSE
  5
9C5A
330
A
100
AcDbEntity
  8
MODEL
100
AcDbEllipse
 10
174.9246903979706
 20
642.6290398421763
 30
0.0
 11
-6.002221810851935
 21
1.564139838026455E-7
 31
0.0
210
0.0
220
0.0
230
-1.0
 40
0.4999999999630601
 41
3.892611462136273
 42
4.058879642084369
  0
LWPOLYLINE
  5
9C5B
330
A
100
AcDbEntity
  8
MODEL
100
AcDbPolyline
 90
        2
 70
     0
 43
0.0
 10
176.7701505309781
 20
641.2099023797634
 10
177.2117398864467
 20
640.9051843621853
  0
LINE
  5
9C5C
330
A
100
AcDbEntity
  8
MODEL
100
AcDbLine
 10
177.0200980089442
 20
641.2454229280881
 30
0.0
 11
176.7701438284888
 21
641.2098943223468
 31
0.0
  0
LINE
  5
9C5D
330
A
100
AcDbEntity
  8
MODEL
100
AcDbLine
 10
176.0769954121167
 20
641.774007394423
 30
0.0
 11
176.0640946551791
 21
641.9481966076053
 31
0.0
  0
LWPOLYLINE
  5
9C5E
330
A
100
AcDbEntity
  8
MODEL
100
AcDbPolyline
 90
        2
 70
     0
 43
0.0
 10
175.540688861056
 20
642.2814661004666
 10
176.0769895202357
 20
641.7740198114041
  0
LINE
  5
9C5F
330
A
100
AcDbEntity
  8
MODEL
100
AcDbLine
 10
175.8188321536416
 20
642.1802684155857
 30
0.0
 11
175.5406863024631
 21
642.2814727779244
 31
0.0
  0
LINE
  5
9C60
330
A
100
AcDbEntity
  8
MODEL
100
AcDbLine
 10
174.8475379005238
 20
643.0290988205174
 30
0.0
 11
175.0116244548344
 21
643.1458769127767
 31
0.0
  0
LWPOLYLINE
  5
9C61
330
A
100
AcDbEntity
  8
MODEL
100
AcDbPolyline
 90
        2
 70
     0
 43
0.0
 10
174.405938494845
 20
643.5600915887478
 10
174.8475431091031
 20
643.0290857293728
  0
LINE
  5
9C62
330
A
100
AcDbEntity
  8
MODEL
100
AcDbLine
 10
174.4721364267442
 20
643.570056329135
 30
0.0
 11
174.4059426607258
 21
643.5600811781064
 31
0.0
  0
ARC
  5
9C63
330
A
100
AcDbEntity
  8
MODEL
100
AcDbCircle
 10
171.1233604498252
 20
664.165546618945
 30
0.0
 40
19.95993285165008
100
AcDbArc
 50
277.6572607447948
 51
278.6803978117379
  0
LWPOLYLINE
  5
9C64
330
A
100
AcDbEntity
  8
MODEL
100
AcDbPolyline
 90
        2
 70
     0
 43
0.0
 10
173.4475034362515
 20
644.8643213250759
 10
173.7829679137906
 20
644.3836084344509
  0
ARC
  5
9C65
330
A
100
AcDbEntity
  8
MODEL
100
AcDbCircle
 10
170.9744241171562
 20
664.4287388757464
 30
0.0
 40
19.72009972601093
100
AcDbArc
 50
277.2043924609936
 51
278.6921838396012
  0
LINE
  5
9C66
330
A
100
AcDbEntity
  8
MODEL
100
AcDbLine
 10
173.005627206247
 20
645.5391769350279
 30
0.0
 11
173.0437821797655
 21
645.4789895317576
 31
0.0
  0
ELLIPSE
  5
9C67
330
A
100
AcDbEntity
  8
MODEL
100
AcDbEllipse
 10
174.9246903979707
 20
642.6290398421763
 30
0.0
 11
-6.002221810851935
 21
1.564139834179105E-7
 31
0.0
210
0.0
220
0.0
230
-1.0
 40
0.49999999996306
 41
1.252058010450734
 42
1.418326190345195
  0
LINE
  5
9C68
330
A
100
AcDbEntity
  8
MODEL
100
AcDbLine
 10
174.0305485988615
 20
641.4109140261132
 30
0.0
 11
174.3086944499644
 21
641.3068051508565
 31
0.0
  0
ARC
  5
9C69
330
A
100
AcDbEntity
  8
MODEL
100
AcDbCircle
 10
182.2588870317184
 20
650.352579124225
 30
0.0
 40
12.15149900162588
100
AcDbArc
 50
225.7868452998731
 51
227.3789813041174
  0
LINE
  5
9C6A
330
A
100
AcDbEntity
  8
MODEL
100
AcDbLine
 10
173.7723853403106
 20
641.8142705130019
 30
0.0
 11
173.7852860973238
 21
641.6429858451065
 31
0.0
  0
LINE
  5
9C6B
330
A
100
AcDbEntity
  8
MODEL
100
AcDbLine
 10
173.1972879434103
 20
641.1417780747634
 30
0.0
 11
172.9338523383585
 21
641.1691282932206
 31
0.0
  0
LINE
  5
9C6C
330
A
100
AcDbEntity
  8
MODEL
100
AcDbLine
 10
173.167752128883
 20
641.0332094146934
 30
0.0
 11
173.1972879406446
 21
641.1417780480995
 31
0.0
  0
LINE
  5
9C6D
330
A
100
AcDbEntity
  8
MODEL
100
AcDbLine
 10
172.583191171189
 20
641.5009302286053
 30
0.0
 11
172.7234625851747
 21
641.5901201641248
 31
0.0
  0
LINE
  5
9C6E
330
A
100
AcDbEntity
  8
MODEL
100
AcDbLine
 10
172.7234625886989
 20
641.5901201900706
 30
0.0
 11
172.4904007202234
 21
641.6741315622555
 31
0.0
  0
LINE
  5
9C6F
330
A
100
AcDbEntity
  8
MODEL
100
AcDbLine
 10
172.6856174489628
 20
642.3442225012077
 30
0.0
 11
172.7234626058897
 21
642.3342198088897
 31
0.0
  0
LINE
  5
9C70
330
A
100
AcDbEntity
  8
MODEL
100
AcDbLine
 10
172.9338523571648
 20
641.8908161297254
 30
0.0
 11
173.1972879603143
 21
641.8858776930474
 31
0.0
  0
LINE
  5
9C71
330
A
100
AcDbEntity
  8
MODEL
100
AcDbLine
 10
174.8377563223003
 20
641.3905149350712
 30
0.0
 11
175.00184289306
 21
641.4858364890019
 31
0.0
  0
LINE
  5
9C72
330
A
100
AcDbEntity
  8
MODEL
100
AcDbLine
 10
175.7136148715279
 20
640.4312607486024
 30
0.0
 11
176.0664208409954
 21
640.4785135899649
 31
0.0
  0
LINE
  5
9C73
330
A
100
AcDbEntity
  8
MODEL
100
AcDbLine
 10
176.7701438109298
 20
641.9530387296211
 30
0.0
 11
177.0200980277509
 21
641.9671107645931
 31
0.0
  0
LINE
  5
9C74
330
A
100
AcDbEntity
  8
MODEL
100
AcDbLine
 10
176.0640946768642
 20
642.7816452238815
 30
0.0
 11
176.0769954361754
 21
642.6089082520684
 31
0.0
  0
LINE
  5
9C75
330
A
100
AcDbEntity
  8
MODEL
100
AcDbLine
 10
175.6225258213061
 20
643.0861687613337
 30
0.0
 11
175.7768777812419
 21
643.029201345689
 31
0.0
  0
LINE
  5
9C76
330
A
100
AcDbEntity
  8
MODEL
100
AcDbLine
 10
174.4059423828667
 20
644.1900888592456
 30
0.0
 11
174.4588124916243
 21
644.1971699833712
 31
0.0
  0
LINE
  5
9C77
330
A
100
AcDbEntity
  8
MODEL
100
AcDbLine
 10
173.447507878373
 20
645.0969769133103
 30
0.0
 11
173.9546433374105
 21
645.1648997759291
 31
0.0
  0
LINE
  5
9C78
330
A
100
AcDbEntity
  8
MODEL
100
AcDbLine
 10
172.5856960091592
 20
643.7005386725102
 30
0.0
 11
172.6376414649968
 21
643.7228866186265
 31
0.0
  0
LINE
  5
9C79
330
A
100
AcDbEntity
  8
MODEL
100
AcDbLine
 10
171.2812349599167
 20
644.4585593723059
 30
0.0
 11
171.6792069605036
 21
644.6297746726912
 31
0.0
  0
LINE
  5
9C7A
330
A
100
AcDbEntity
  8
MODEL
100
AcDbLine
 10
177.8347214953603
 20
640.5497521191464
 30
0.0
 11
177.8347217427016
 21
640.9214271974479
 31
0.0
  0
LINE
  5
9C7B
330
A
100
AcDbEntity
  8
MODEL
100
AcDbLine
 10
178.5738995420866
 20
640.2462924815193
 30
0.0
 11
178.3394973880559
 21
640.4680880185813
 31
0.0
  0
LINE
  5
9C7C
330
A
100
AcDbEntity
  8
MODEL
100
AcDbLine
 10
176.7701437965728
 20
641.2098946091926
 30
0.0
 11
176.7701438109298
 21
641.9530387296211
 31
0.0
  0
LINE
  5
9C7D
330
A
100
AcDbEntity
  8
MODEL
100
AcDbLine
 10
176.0769953966977
 20
641.7740076088157
 30
0.0
 11
176.0769954361754
 21
642.6089082520684
 31
0.0
  0
LINE
  5
9C7E
330
A
100
AcDbEntity
  8
MODEL
100
AcDbLine
 10
175.5406862947257
 20
642.2814729728111
 30
0.0
 11
175.5406862781117
 21
643.0931091962384
 31
0.0
  0
LINE
  5
9C7F
330
A
100
AcDbEntity
  8
MODEL
100
AcDbLine
 10
174.4059427377699
 20
643.56008329206
 30
0.0
 11
174.4059423828662
 21
644.1900888592456
 31
0.0
  0
LINE
  5
9C80
330
A
100
AcDbEntity
  8
MODEL
100
AcDbLine
 10
174.4059423828667
 20
644.1900888592456
 30
0.0
 11
174.1934813676589
 21
644.3911233125575
 31
0.0
  0
LINE
  5
9C81
330
A
100
AcDbEntity
  8
MODEL
100
AcDbLine
 10
173.4475078402309
 20
644.8643274425465
 30
0.0
 11
173.447507878373
 21
645.0969769133103
 31
0.0
  0
LINE
  5
9C82
330
A
100
AcDbEntity
  8
MODEL
100
AcDbLine
 10
173.0437821757876
 20
645.4789895057088
 30
0.0
 11
173.447507878373
 21
645.0969769133103
 31
0.0
  0
LINE
  5
9C83
330
A
100
AcDbEntity
  8
MODEL
100
AcDbLine
 10
176.7701438109298
 20
641.9530387296211
 30
0.0
 11
176.0769954361754
 21
642.6089082520684
 31
0.0
  0
LINE
  5
9C84
330
A
100
AcDbEntity
  8
MODEL
100
AcDbLine
 10
174.308694457702
 20
641.3068053579864
 30
0.0
 11
174.3086945183059
 21
642.1417060114493
 31
0.0
  0
LINE
  5
9C85
330
A
100
AcDbEntity
  8
MODEL
100
AcDbLine
 10
175.0018428557505
 20
640.742692301347
 30
0.0
 11
175.00184289306
 21
641.4858364890019
 31
0.0
  0
LINE
  5
9C86
330
A
100
AcDbEntity
  8
MODEL
100
AcDbLine
 10
175.4434380253363
 20
640.437985642759
 30
0.0
 11
175.4434384130749
 21
641.067990825107
 31
0.0
  0
LINE
  5
9C87
330
A
100
AcDbEntity
  8
MODEL
100
AcDbLine
 10
176.0664202786172
 20
640.0825496211644
 30
0.0
 11
176.0664208409954
 21
640.4785135899649
 31
0.0
  0
LINE
  5
9C88
330
A
100
AcDbEntity
  8
MODEL
100
AcDbLine
 10
175.4434384130749
 20
641.067990825107
 30
0.0
 11
176.0664208409954
 21
640.4785135899649
 31
0.0
  0
LINE
  5
9C89
330
A
100
AcDbEntity
  8
MODEL
100
AcDbLine
 10
176.4018729435832
 20
639.928453259424
 30
0.0
 11
176.401872917568
 21
640.1611027710424
 31
0.0
  0
LINE
  5
9C8A
330
A
100
AcDbEntity
  8
MODEL
100
AcDbLine
 10
176.8055986201534
 20
639.7790902427957
 30
0.0
 11
176.401872917568
 21
640.1611027710424
 31
0.0
  0
LINE
  5
9C8B
330
A
100
AcDbEntity
  8
MODEL
100
AcDbLine
 10
172.6376415417333
 20
643.0928806975314
 30
0.0
 11
172.6376414649968
 21
643.7228866186265
 31
0.0
  0
LINE
  5
9C8C
330
A
100
AcDbEntity
  8
MODEL
100
AcDbLine
 10
172.0146592799438
 20
643.9163992632562
 30
0.0
 11
172.0146590370762
 21
644.3123638537686
 31
0.0
  0
LINE
  5
9C8D
330
A
100
AcDbEntity
  8
MODEL
100
AcDbLine
 10
172.6376414649968
 20
643.7228866186265
 30
0.0
 11
172.0146590370762
 21
644.3123638537686
 31
0.0
  0
LINE
  5
9C8E
330
A
100
AcDbEntity
  8
MODEL
100
AcDbLine
 10
171.6792069379894
 20
644.397125135529
 30
0.0
 11
171.6792069605036
 21
644.6297746726912
 31
0.0
  0
LINE
  5
9C8F
330
A
100
AcDbEntity
  8
MODEL
100
AcDbLine
 10
171.275481253855
 20
645.01178726217
 30
0.0
 11
171.6792069605036
 21
644.6297746726912
 31
0.0
  0
LINE
  5
9C90
330
A
100
AcDbEntity
  8
MODEL
100
AcDbLine
 10
173.0792369606365
 20
642.5618968067645
 30
0.0
 11
173.0792369850117
 21
643.3050409547316
 31
0.0
  0
LINE
  5
9C91
330
A
100
AcDbEntity
  8
MODEL
100
AcDbLine
 10
173.7723853557295
 20
641.8142707268557
 30
0.0
 11
173.7723853597656
 21
642.6491714322842
 31
0.0
  0
LINE
  5
9C92
330
A
100
AcDbEntity
  8
MODEL
100
AcDbLine
 10
175.00184289306
 20
641.4858364890019
 30
0.0
 11
174.3086945183059
 21
642.1417060114493
 31
0.0
  0
LINE
  5
9C93
330
A
100
AcDbEntity
  8
MODEL
100
AcDbLine
 10
173.7723853597656
 20
642.6491714322842
 30
0.0
 11
173.0792369850117
 21
643.3050409547316
 31
0.0
  0
LINE
  5
9C94
330
A
100
AcDbEntity
  8
MODEL
100
AcDbLine
 10
172.7234625869369
 20
641.5901201770978
 30
0.0
 11
172.7234626058897
 21
642.3342198088897
 31
0.0
  0
LINE
  5
9C95
330
A
100
AcDbEntity
  8
MODEL
100
AcDbLine
 10
173.1972879420275
 20
641.1417780614313
 30
0.0
 11
173.1972879603143
 21
641.8858776930474
 31
0.0
  0
LINE
  5
9C96
330
A
100
AcDbEntity
  8
MODEL
100
AcDbLine
 10
174.0707850574909
 20
639.1496219241242
 30
0.0
 11
174.2658274707226
 21
639.4656936873414
 31
0.0
  0
LINE
  5
9C97
330
A
100
AcDbEntity
  8
MODEL
100
AcDbLine
 10
170.7102990630215
 20
640.1468051851459
 30
0.0
 11
170.4405452745168
 21
639.7096615190351
 31
0.0
  0
LINE
  5
9C98
330
A
100
AcDbEntity
  8
MODEL
100
AcDbLine
 10
174.0707850660019
 20
639.4762207954959
 30
0.0
 11
174.0707850574909
 21
639.1496219241242
 31
0.0
  0
ELLIPSE
  5
9C99
330
A
100
AcDbEntity
  8
MODEL
100
AcDbEllipse
 10
174.9246904273093
 20
643.7548728671238
 30
0.0
 11
-9.249999999999996
 21
2.410489638652176E-7
 31
0.0
210
0.0
220
0.0
230
-1.0
 40
0.4999999999630601
 41
3.647695624186809
 42
4.019436518486959
  0
ELLIPSE
  5
9C9A
330
A
100
AcDbEntity
  8
MODEL
100
AcDbEllipse
 10
174.9246904273093
 20
643.7548728671238
 30
0.0
 11
-9.249999999999996
 21
2.410489638652176E-7
 31
0.0
210
0.0
220
0.0
230
-1.0
 40
0.4999999999630601
 41
2.862297460789363
 42
3.23403835508954
  0
ELLIPSE
  5
9C9B
330
A
100
AcDbEntity
  8
MODEL
100
AcDbEllipse
 10
174.9246904273093
 20
643.7548728671238
 30
0.0
 11
-9.249999999999996
 21
2.410489638652176E-7
 31
0.0
210
0.0
220
0.0
230
-1.0
 40
0.4999999999630601
 41
2.076899297391937
 42
2.448640191692091
  0
ELLIPSE
  5
9C9C
330
A
100
AcDbEntity
  8
MODEL
100
AcDbEllipse
 10
174.9246904273093
 20
643.7548728671238
 30
0.0
 11
-9.249999999999996
 21
2.410489638652176E-7
 31
0.0
210
0.0
220
0.0
230
-1.0
 40
0.4999999999630601
 41
1.291501133994482
 42
1.663242028294624
  0
ELLIPSE
  5
9C9D
330
A
100
AcDbEntity
  8
MODEL
100
AcDbEllipse
 10
174.9246904273093
 20
643.7548728671238
 30
0.0
 11
-9.249999999999996
 21
2.410489638652176E-7
 31
0.0
210
0.0
220
0.0
230
-1.0
 40
0.4999999999630601
 41
0.5061029705970168
 42
0.8778438648971542
  0
ELLIPSE
  5
9C9E
330
A
100
AcDbEntity
  8
MODEL
100
AcDbEllipse
 10
174.9246904273093
 20
643.7548728671238
 30
0.0
 11
-9.249999999999996
 21
2.410489638652176E-7
 31
0.0
210
0.0
220
0.0
230
-1.0
 40
0.4999999999630601
 41
5.218491950981727
 42
5.590232845281848
  0
ELLIPSE
  5
9C9F
330
A
100
AcDbEntity
  8
MODEL
100
AcDbEllipse
 10
174.9246904273093
 20
643.7548728671238
 30
0.0
 11
-9.249999999999996
 21
2.410489638652176E-7
 31
0.0
210
0.0
220
0.0
230
-1.0
 40
0.4999999999630601
 41
6.003890114379156
 42
6.375631008679283
  0
ELLIPSE
  5
9CA0
330
A
100
AcDbEntity
  8
MODEL
100
AcDbEllipse
 10
174.9246904273093
 20
643.7548728671238
 30
0.0
 11
-9.249999999999996
 21
2.410489638652176E-7
 31
0.0
210
0.0
220
0.0
230
-1.0
 40
0.4999999999630601
 41
4.433093787584272
 42
4.804834681884417
  0
LINE
  5
9CA1
330
A
100
AcDbEntity
  8
MODEL
100
AcDbLine
 10
180.8336965156241
 20
640.1965674302505
 30
0.0
 11
180.3790401260524
 21
640.6267715250256
 31
0.0
  0
LINE
  5
9CA2
330
A
100
AcDbEntity
  8
MODEL
100
AcDbLine
 10
177.1374028456697
 20
639.6282614341956
 30
0.0
 11
177.4747138574422
 21
639.3090916571823
 31
0.0
  0
LINE
  5
9CA3
330
A
100
AcDbEntity
  8
MODEL
100
AcDbLine
 10
184.1351923473674
 20
643.3279200022316
 30
0.0
 11
183.205301278294
 21
643.4713749387561
 31
0.0
  0
ELLIPSE
  5
9CA4
330
A
100
AcDbEntity
  8
MODEL
100
AcDbEllipse
 10
174.9246904273093
 20
643.7548728671238
 30
0.0
 11
8.299999999999997
 21
-2.162925837925736E-7
 31
0.0
210
0.0
220
0.0
230
1.0
 40
0.4999999999630601
 41
5.429421198434452
 42
5.75300258043054
  0
LINE
  5
9CA5
330
A
100
AcDbEntity
  8
MODEL
100
AcDbLine
 10
182.0852222302917
 20
641.6562550692943
 30
0.0
 11
183.0151132993651
 21
641.5128001327698
 31
0.0
  0
LINE
  5
9CA6
330
A
100
AcDbEntity
  8
MODEL
100
AcDbLine
 10
182.0413010706043
 20
646.7093757719722
 30
0.0
 11
181.1808928987624
 21
646.4820475940196
 31
0.0
  0
ELLIPSE
  5
9CA7
330
A
100
AcDbEntity
  8
MODEL
100
AcDbEllipse
 10
174.9246904273093
 20
643.7548728671238
 30
0.0
 11
8.299999999999997
 21
-2.162925837925736E-7
 31
0.0
210
0.0
220
0.0
230
1.0
 40
0.4999999999630601
 41
6.214819361831912
 42
6.538400743827976
  0
LINE
  5
9CA8
330
A
100
AcDbEntity
  8
MODEL
100
AcDbLine
 10
182.9558445763294
 20
644.8025562303621
 30
0.0
 11
183.8162527481712
 21
645.029884408315
 31
0.0
  0
LINE
  5
9CA9
330
A
100
AcDbEntity
  8
MODEL
100
AcDbLine
 10
175.7785957971273
 20
648.3601238101235
 30
0.0
 11
175.4916859604058
 21
647.8951782812287
 31
0.0
  0
ELLIPSE
  5
9CAA
330
A
100
AcDbEntity
  8
MODEL
100
AcDbEllipse
 10
174.9246904273093
 20
643.7548728671238
 30
0.0
 11
8.299999999999997
 21
-2.162925837925736E-7
 31
0.0
210
0.0
220
0.0
230
1.0
 40
0.4999999999630601
 41
0.7170322180497738
 42
1.040613600045864
  0
LINE
  5
9CAB
330
A
100
AcDbEntity
  8
MODEL
100
AcDbLine
 10
179.12192574338
 20
647.3351386863178
 30
0.0
 11
179.4088355801017
 21
647.8000842152126
 31
0.0
  0
LINE
  5
9CAC
330
A
100
AcDbEntity
  8
MODEL
100
AcDbLine
 10
169.0156843389943
 20
647.3131783039971
 30
0.0
 11
169.4703407285658
 21
646.8829742092221
 31
0.0
  0
ELLIPSE
  5
9CAD
330
A
100
AcDbEntity
  8
MODEL
100
AcDbEllipse
 10
174.9246904273093
 20
643.7548728671238
 30
0.0
 11
8.299999999999997
 21
-2.162925837925736E-7
 31
0.0
210
0.0
220
0.0
230
1.0
 40
0.4999999999630601
 41
1.502430381447203
 42
1.826011763443303
  0
LINE
  5
9CAE
330
A
100
AcDbEntity
  8
MODEL
100
AcDbLine
 10
172.8293233867478
 20
647.7704499822903
 30
0.0
 11
172.3746669971761
 21
648.2006540770653
 31
0.0
  0
LINE
  5
9CAF
330
A
100
AcDbEntity
  8
MODEL
100
AcDbLine
 10
165.7141885072509
 20
644.181825732016
 30
0.0
 11
166.6440795763243
 21
644.0383707954916
 31
0.0
  0
ELLIPSE
  5
9CB0
330
A
100
AcDbEntity
  8
MODEL
100
AcDbEllipse
 10
174.9246904273093
 20
643.7548728671238
 30
0.0
 11
8.299999999999997
 21
-2.162925837925736E-7
 31
0.0
210
0.0
220
0.0
230
1.0
 40
0.4999999999630601
 41
2.287828544844697
 42
2.611409926840748
  0
LINE
  5
9CB1
330
A
100
AcDbEntity
  8
MODEL
100
AcDbLine
 10
167.7641586243265
 20
645.8534906649534
 30
0.0
 11
166.8342675552531
 21
645.9969456014778
 31
0.0
  0
ELLIPSE
  5
9CB2
330
A
100
AcDbEntity
  8
MODEL
100
AcDbEllipse
 10
174.9246904273093
 20
643.7548728671238
 30
0.0
 11
8.299999999999997
 21
-2.162925837925736E-7
 31
0.0
210
0.0
220
0.0
230
1.0
 40
0.4999999999630601
 41
3.858624871639567
 42
4.123683843493904
  0
LINE
  5
9CB3
330
A
100
AcDbEntity
  8
MODEL
100
AcDbLine
 10
167.8080797840141
 20
640.8003699622755
 30
0.0
 11
168.6684879558557
 21
641.027698140228
 31
0.0
  0
ELLIPSE
  5
9CB4
330
A
100
AcDbEntity
  8
MODEL
100
AcDbEllipse
 10
174.9246904273093
 20
643.7548728671238
 30
0.0
 11
8.299999999999997
 21
-2.162925837925736E-7
 31
0.0
210
0.0
220
0.0
230
1.0
 40
0.4999999999630601
 41
3.07322670824212
 42
3.396808090238183
  0
LINE
  5
9CB5
330
A
100
AcDbEntity
  8
MODEL
100
AcDbLine
 10
166.8935362782888
 20
642.7071895038855
 30
0.0
 11
166.0331281064471
 21
642.4798613259327
 31
0.0
  0
ELLIPSE
  5
9CB6
330
A
100
AcDbEntity
  8
MODEL
100
AcDbEllipse
 10
174.9246904566476
 20
644.8807058920713
 30
0.0
 11
8.299999999999997
 21
-2.162925837925736E-7
 31
0.0
210
0.0
220
0.0
230
1.0
 40
0.4999999999630601
 41
3.209958699884606
 42
3.396808090238183
  0
LINE
  5
9CB7
330
A
100
AcDbEntity
  8
MODEL
100
AcDbLine
 10
182.1482321106573
 20
642.7723675210691
 30
0.0
 11
183.0151133287038
 21
642.6386331577173
 31
0.0
  0
LINE
  5
9CB8
330
A
100
AcDbEntity
  8
MODEL
100
AcDbLine
 10
182.9558446056678
 20
645.9283892553096
 30
0.0
 11
183.3093468924262
 21
646.0217879855645
 31
0.0
  0
LINE
  5
9CB9
330
A
100
AcDbEntity
  8
MODEL
100
AcDbLine
 10
165.9295812655719
 20
645.274429972118
 30
0.0
 11
166.6440796056629
 21
645.1642038204391
 31
0.0
  0
LINE
  5
9CBA
330
A
100
AcDbEntity
  8
MODEL
100
AcDbLine
 10
167.8080798133527
 20
641.926202987223
 30
0.0
 11
168.0608114348015
 21
641.9929771310481
 31
0.0
  0
LINE
  5
9CBB
330
A
100
AcDbEntity
  8
MODEL
100
AcDbLine
 10
177.4747138574422
 20
639.3090916571823
 30
0.0
 11
177.4747138673342
 21
639.6886943434915
 31
0.0
  0
LINE
  5
9CBC
330
A
100
AcDbEntity
  8
MODEL
100
AcDbLine
 10
183.0151132993652
 20
641.5128001327698
 30
0.0
 11
183.0151133287038
 21
642.6386331577173
 31
0.0
  0
ELLIPSE
  5
9CBD
330
A
100
AcDbEntity
  8
MODEL
100
AcDbEllipse
 10
174.9246904566476
 20
644.8807058920713
 30
0.0
 11
9.249999999999996
 21
-2.410489638652176E-7
 31
0.0
210
0.0
220
0.0
230
1.0
 40
0.4999999999630601
 41
5.77708233658257
 42
5.95666141033717
  0
LINE
  5
9CBE
330
A
100
AcDbEntity
  8
MODEL
100
AcDbLine
 10
182.0413010768384
 20
646.9486064673893
 30
0.0
 11
182.0413010706043
 21
646.7093757719722
 31
0.0
  0
LINE
  5
9CBF
330
A
100
AcDbEntity
  8
MODEL
100
AcDbLine
 10
183.8162527481711
 20
645.029884408315
 30
0.0
 11
183.8162527586699
 21
645.4327685756748
 31
0.0
  0
LINE
  5
9CC0
330
A
100
AcDbEntity
  8
MODEL
100
AcDbLine
 10
175.7785958016323
 20
648.532993181801
 30
0.0
 11
175.7785957971273
 21
648.3601238101235
 31
0.0
  0
LINE
  5
9CC1
330
A
100
AcDbEntity
  8
MODEL
100
AcDbLine
 10
179.4088355801017
 20
647.8000842152126
 30
0.0
 11
179.4088355850748
 21
647.9909193395365
 31
0.0
  0
LINE
  5
9CC2
330
A
100
AcDbEntity
  8
MODEL
100
AcDbLine
 10
169.0156843444602
 20
647.5229162930784
 30
0.0
 11
169.0156843389942
 21
647.3131783039971
 31
0.0
  0
LINE
  5
9CC3
330
A
100
AcDbEntity
  8
MODEL
100
AcDbLine
 10
172.3746669971761
 20
648.2006540770653
 30
0.0
 11
172.3746670018056
 21
648.3783035127237
 31
0.0
  0
LINE
  5
9CC4
330
A
100
AcDbEntity
  8
MODEL
100
AcDbLine
 10
165.7141885245899
 20
644.8471838096796
 30
0.0
 11
165.7141885072509
 21
644.181825732016
 31
0.0
  0
LINE
  5
9CC5
330
A
100
AcDbEntity
  8
MODEL
100
AcDbLine
 10
166.8342675552531
 20
645.9969456014778
 30
0.0
 11
166.8342675627474
 21
646.2845299952687
 31
0.0
  0
LINE
  5
9CC6
330
A
100
AcDbEntity
  8
MODEL
100
AcDbLine
 10
167.8080798133527
 20
641.926202987223
 30
0.0
 11
167.8080797840141
 21
640.8003699622755
 31
0.0
  0
ELLIPSE
  5
9CC7
330
A
100
AcDbEntity
  8
MODEL
100
AcDbEllipse
 10
174.9246904566476
 20
644.8807058920713
 30
0.0
 11
9.249999999999996
 21
-2.410489638652176E-7
 31
0.0
210
0.0
220
0.0
230
1.0
 40
0.4999999999630601
 41
3.637582354550147
 42
3.834545115487499
  0
LINE
  5
9CC8
330
A
100
AcDbEntity
  8
MODEL
100
AcDbLine
 10
180.3790401287129
 20
640.7288715652917
 30
0.0
 11
180.3790401260524
 21
640.6267715250256
 31
0.0
  0
LINE
  5
9CC9
330
A
100
AcDbEntity
  8
MODEL
100
AcDbLine
 10
183.2053012930695
 20
644.0383707818689
 30
0.0
 11
183.205301278294
 21
643.4713749387561
 31
0.0
  0
LINE
  5
9CCA
330
A
100
AcDbEntity
  8
MODEL
100
AcDbLine
 10
182.0852222302917
 20
641.6562550692943
 30
0.0
 11
182.0852222541591
 21
642.5721372608957
 31
0.0
  0
LINE
  5
9CCB
330
A
100
AcDbEntity
  8
MODEL
100
AcDbLine
 10
182.9558445763294
 20
644.8025562303621
 30
0.0
 11
182.9558446056678
 21
645.9283892553096
 31
0.0
  0
LINE
  5
9CCC
330
A
100
AcDbEntity
  8
MODEL
100
AcDbLine
 10
179.12192574338
 20
647.3351386863178
 30
0.0
 11
179.1219257623873
 21
648.0645215789395
 31
0.0
  0
LINE
  5
9CCD
330
A
100
AcDbEntity
  8
MODEL
100
AcDbLine
 10
169.4703407496638
 20
647.6925786573588
 30
0.0
 11
169.4703407285658
 21
646.8829742092221
 31
0.0
  0
LINE
  5
9CCE
330
A
100
AcDbEntity
  8
MODEL
100
AcDbLine
 10
166.6440796056629
 20
645.1642038204391
 30
0.0
 11
166.6440795763243
 21
644.0383707954916
 31
0.0
  0
LINE
  5
9CCF
330
A
100
AcDbEntity
  8
MODEL
100
AcDbLine
 10
168.6684879631416
 20
641.3072830905294
 30
0.0
 11
168.6684879558557
 21
641.027698140228
 31
0.0
  0
LINE
  5
9CD0
330
A
100
AcDbEntity
  8
MODEL
100
AcDbLine
 10
166.8935362782888
 20
642.7071895038855
 30
0.0
 11
166.8935363076272
 21
643.833022528833
 31
0.0
  0
LWPOLYLINE
  5
9CD1
330
A
100
AcDbEntity
  8
MODEL
100
AcDbPolyline
 90
        9
 70
     0
 43
0.0
 10
178.229394305392
 20
639.8607507684353
 10
179.0649503356656
 20
640.1197534539822
 10
179.8276914245325
 20
640.4359765985134
 10
180.5051511413295
 20
640.8057580926541
 10
181.0867246276575
 20
641.2260461785916
 10
181.5618528014857
 20
641.6941247918728
 10
181.9192746764857
 20
642.2075525262478
 10
182.1450742370325
 20
642.7606225946072
 10
182.2246945983607
 20
643.3502527215603
  0
LWPOLYLINE
  5
9CD2
330
A
100
AcDbEntity
  8
MODEL
100
AcDbPolyline
 90
        5
 70
     0
 43
0.0
 10
167.624688494845
 20
643.3502527215603
 10
167.683282244845
 20
642.8439050653103
 10
167.8550199157435
 20
642.3544641473416
 10
168.130486834689
 20
641.8932214715603
 10
168.5688108092982
 20
641.3985925653103
  0
LWPOLYLINE
  5
9CD3
330
A
100
AcDbEntity
  8
MODEL
100
AcDbPolyline
 90
       11
 70
     0
 43
0.0
 10
168.5688108092982
 20
641.3985925653103
 10
169.1950620300015
 20
640.9024377801541
 10
169.949365008517
 20
640.4708887078884
 10
170.8158658630092
 20
640.1085229852322
 10
171.7761014587122
 20
639.8207422235134
 10
172.8090757018765
 20
639.6126428582791
 10
173.8913053161342
 20
639.4883447625759
 10
174.997720111056
 20
639.4504724481228
 10
176.1024259216031
 20
639.4997888543728
 10
177.1795438415247
 20
639.6352869012478
 10
178.229394305392
 20
639.8607507684353
  0
LINE
  5
9CD4
330
A
100
AcDbEntity
  8
MODEL
100
AcDbLine
 10
182.2246904453634
 20
644.4476931841637
 30
0.0
 11
182.2246904167653
 21
643.350266169042
 31
0.0
  0
LINE
  5
9CD5
330
A
100
AcDbEntity
  8
MODEL
100
AcDbLine
 10
167.6246904453636
 20
644.4476931961731
 30
0.0
 11
167.6246904167651
 21
643.3502661810514
 31
0.0
  0
LINE
  5
9CD6
330
A
100
AcDbEntity
  8
MODEL
100
AcDbLine
 10
165.6746904530048
 20
644.7409123358461
 30
0.0
 11
165.6746904273093
 21
643.7548728747327
 31
0.0
  0
LINE
  5
9CD7
330
A
100
AcDbEntity
  8
MODEL
100
AcDbLine
 10
184.1746904530056
 20
644.7409499050143
 30
0.0
 11
184.1746904273089
 21
643.754872859515
 31
0.0
  0
LINE
  5
9CD8
330
A
100
AcDbEntity
  8
MODEL
100
AcDbLine
 10
154.674694995882
 20
574.2548738458279
 30
0.0
 11
195.174694995882
 21
574.2548738458279
 31
0.0
  0
LINE
  5
9CD9
330
A
100
AcDbEntity
  8
MODEL
100
AcDbLine
 10
149.6246949958821
 20
570.2548738458279
 30
0.0
 11
200.2246949958819
 21
570.2548738458279
 31
0.0
  0
ARC
  5
9CDA
330
A
100
AcDbEntity
  8
MODEL
100
AcDbCircle
 10
149.6246949958821
 20
570.549512758126
 30
0.0
 40
0.2
100
AcDbArc
 50
124.4389893089832
 51
180.0
  0
ARC
  5
9CDB
330
A
100
AcDbEntity
  8
MODEL
100
AcDbCircle
 10
200.2246949958824
 20
570.549512758126
 30
0.0
 40
0.2
100
AcDbArc
 50
0.0
 51
55.56101069108223
  0
LINE
  5
9CDC
330
A
100
AcDbEntity
  8
MODEL
100
AcDbLine
 10
149.424694995882
 20
570.4548738458279
 30
0.0
 11
149.424694995882
 21
570.549512758126
 31
0.0
  0
LINE
  5
9CDD
330
A
100
AcDbEntity
  8
MODEL
100
AcDbLine
 10
200.424694995882
 20
570.4548738458279
 30
0.0
 11
200.424694995882
 21
570.549512758126
 31
0.0
  0
ARC
  5
9CDE
330
A
100
AcDbEntity
  8
MODEL
100
AcDbCircle
 10
149.6246949958821
 20
570.4548738458279
 30
0.0
 40
0.2
100
AcDbArc
 50
180.0000000002605
 51
270.0
  0
ARC
  5
9CDF
330
A
100
AcDbEntity
  8
MODEL
100
AcDbCircle
 10
200.2246949958824
 20
570.4548738458279
 30
0.0
 40
0.2
100
AcDbArc
 50
270.0
 51
359.9999999997394
  0
LINE
  5
9CE0
330
A
100
AcDbEntity
  8
MODEL
100
AcDbLine
 10
149.511589324772
 20
570.714458528495
 30
0.0
 11
154.6746949958824
 21
574.2548738458279
 31
0.0
  0
LINE
  5
9CE1
330
A
100
AcDbEntity
  8
MODEL
100
AcDbLine
 10
200.3378006669925
 20
570.714458528495
 30
0.0
 11
195.174694995882
 21
574.2548738458279
 31
0.0
  0
LINE
  5
9CE2
330
A
100
AcDbEntity
  8
MODEL
100
AcDbLine
 10
194.3196949386618
 20
569.5194628388324
 30
0.0
 11
155.5296950531026
 21
569.5194628388324
 31
0.0
  0
ARC
  5
9CE3
330
A
100
AcDbEntity
  8
MODEL
100
AcDbCircle
 10
194.3196950531026
 20
570.8294627816119
 30
0.0
 40
1.309999942779541
100
AcDbArc
 50
270.0000000002188
 51
333.9842928281183
  0
ARC
  5
9CE4
330
A
100
AcDbEntity
  8
MODEL
100
AcDbCircle
 10
155.5296949386617
 20
570.8294627816119
 30
0.0
 40
1.309999942779541
100
AcDbArc
 50
206.0157071718706
 51
269.9999999997713
  0
LINE
  5
9CE5
102
{ACAD_REACTORS
330
9CF2
102
}
330
A
100
AcDbEntity
  8
MODEL
100
AcDbLine
 10
603.2727834211589
 20
641.1154573051319
 30
0.0
 11
603.2727834211589
 21
637.0247101397308
 31
0.0
  0
LINE
  5
9CE6
102
{ACAD_REACTORS
330
9CF2
102
}
330
A
100
AcDbEntity
  8
MODEL
100
AcDbLine
 10
603.5379851524094
 20
641.268571596059
 30
0.0
 11
605.6180774693385
 21
637.6657435407546
 31
0.0
  0
LINE
  5
9CE7
330
A
100
AcDbEntity
  8
DIM
  6
Continuous
100
AcDbLine
 10
170.2466895749201
 20
741.8275344064243
 30
0.0
 11
143.0089422148313
 21
767.4336632733077
 31
0.0
  0
LINE
  5
9CE8
330
A
100
AcDbEntity
  8
DIM
  6
Continuous
100
AcDbLine
 10
143.0089422148313
 20
767.4336632733077
 30
0.0
 11
100.1298098221041
 21
767.4336632733077
 31
0.0
  0
LINE
  5
9CE9
330
A
100
AcDbEntity
  8
DIM
  6
Continuous
100
AcDbLine
 10
162.924691143275
 20
658.754872931793
 30
0.0
 11
136.2027307239223
 21
680.9947773387619
 31
0.0
  0
LINE
  5
9CEA
330
A
100
AcDbEntity
  8
DIM
  6
Continuous
100
AcDbLine
 10
136.2027307239223
 20
680.9947773387619
 30
0.0
 11
94.00421948028588
 21
680.9947773387619
 31
0.0
  0
LINE
  5
9CEB
330
A
100
AcDbEntity
  8
DIM
  6
Continuous
100
AcDbLine
 10
510.0870656418588
 20
572.4846661871613
 30
0.0
 11
519.5033543166492
 21
588.0899904878529
 31
0.0
  0
LINE
  5
9CEC
330
A
100
AcDbEntity
  8
DIM
  6
Continuous
100
AcDbLine
 10
519.5033543166492
 20
588.0899904878529
 30
0.0
 11
551.4925483239219
 21
588.0899904878529
 31
0.0
  0
DIMENSION
  5
9CED
330
A
100
AcDbEntity
  8
DIM
  6
Continuous
100
AcDbDimension
  2
*D2
 10
271.646339393013
 20
742.2548738458279
 30
0.0
 11
262.6444636896242
 21
656.2548738458279
 31
0.0
 70
    32
 71
     5
 42
172.0
 73
     0
 74
     0
 75
     0
  3
tfrom線あり
100
AcDbAlignedDimension
 13
200.2246949958819
 23
570.2548738458279
 33
0.0
 14
200.2246949958819
 24
742.2548738458279
 34
0.0
 50
90.0
100
AcDbRotatedDimension
  0
DIMENSION
  5
9CEE
330
A
100
AcDbEntity
  8
DIM
  6
Continuous
100
AcDbDimension
  2
*D3
 10
602.255509866598
 20
808.1742228660346
 30
0.0
 11
544.755509866598
 21
817.1760985694234
 31
0.0
 70
    32
 71
     5
 42
115.0
 73
     0
 74
     0
 75
     0
  3
tfrom線あり
100
AcDbAlignedDimension
 13
487.255509866598
 23
741.8548729317929
 33
0.0
 14
602.255509866598
 24
667.7961108660345
 34
0.0
100
AcDbRotatedDimension
  0
DIMENSION
  5
9CEF
330
A
100
AcDbEntity
  8
DIM
  6
Continuous
100
AcDbDimension
  2
*D4
 10
725.4017636583217
 20
643.2548738458279
 30
0.0
 11
716.3998879549329
 21
606.7548738458279
 31
0.0
 70
    32
 71
     5
 42
73.0
 73
     0
 74
     0
 75
     0
  3
tfrom線あり
100
AcDbAlignedDimension
 13
512.5555128063036
 23
570.2548738458279
 33
0.0
 14
603.9108885455944
 24
643.2548738458279
 34
0.0
 50
90.0
100
AcDbRotatedDimension
  0
DIMENSION
  5
9CF0
102
{ACAD_REACTORS
330
9CF2
102
}
102
{ACAD_XDICTIONARY
360
9CF1
102
}
330
A
100
AcDbEntity
  8
DIM
  6
Continuous
100
AcDbDimension
  2
*D5
 10
603.2727834211589
 20
637.0247101397308
 30
0.0
 11
617.7918377634062
 21
587.5420340266778
 31
0.0
 70
   162
  1
<>
 71
     5
 42
0.5235984777811885
 73
     0
 74
     0
 75
     0
  3
tfrom線あり
100
AcDb2LineAngularDimension
 13
603.5379851524094
 23
641.268571596059
 33
0.0
 14
605.6180774693385
 24
637.6657435407546
 34
0.0
 15
603.2727834211589
 25
641.1154573051319
 35
0.0
 16
613.0139804364618
 26
586.4828091804508
 36
0.0
1001
ACAD
1000
DSTYLE
1002
{
1070
   179
1070
     0
1002
}
  0
DIMENSION
  5
9CF3
102
{ACAD_REACTORS
330
9CF5
102
}
102
{ACAD_XDICTIONARY
360
9CF4
102
}
330
A
100
AcDbEntity
  8
DIM
  6
Continuous
100
AcDbDimension
  2
*D6
 10
378.7074807683225
 20
327.3662208215314
 30
0.0
 11
369.7056050649338
 21
448.8105473336797
 31
0.0
 70
    32
  1
350
 71
     5
 42
242.8886530242965
 73
     0
 74
     0
 75
     0
  3
tfrom線あり
100
AcDbAlignedDimension
 13
461.9555128063037
 23
570.2548738458279
 33
0.0
 14
478.8286417811109
 24
327.3662208215314
 34
0.0
 50
90.0
100
AcDbRotatedDimension
  0
MTEXT
  5
9CF6
330
A
100
AcDbEntity
  8
DIM
390
1D
100
AcDbMText
 10
482.9052795895045
 20
314.7034985638119
 30
0.0
 40
10.0
 41
0.0
 46
12.21630859375
 71
     1
 72
     1
  1
{▲}
  7
ＭＳ ゴシック
 73
     1
 44
0.7828267384257843
1001
ACAD
1000
ACAD_MTEXT_DEFINED_HEIGHT_BEGIN
1070
    46
1040
12.21630859375
1000
ACAD_MTEXT_DEFINED_HEIGHT_END
  0
MTEXT
  5
9CF7
330
A
100
AcDbEntity
  8
DIM
390
1D
100
AcDbMText
 10
472.9352432258681
 20
299.5973179846913
 30
0.0
 40
10.0
 41
0.0
 46
13.9510244140625
 71
     1
 72
     1
  1
{G3/8"}
  7
ＭＳ ゴシック
 73
     1
 44
0.7828267384257843
1001
ACAD
1000
ACAD_MTEXT_DEFINED_HEIGHT_BEGIN
1070
    46
1040
13.9510244140625
1000
ACAD_MTEXT_DEFINED_HEIGHT_END
  0
MTEXT
  5
9CF8
330
A
100
AcDbEntity
  8
DIM
390
1D
100
AcDbMText
 10
112.8773148286846
 20
781.6335454451331
 30
0.0
 40
10.0
 41
0.0
 46
12.0
 71
     1
 72
     1
  1
{\pxsm1;\H0.999999x;%%c40}
  7
ＭＳ ゴシック
 73
     1
 44
0.7828267384257843
1001
ACAD
1000
ACAD_MTEXT_DEFINED_HEIGHT_BEGIN
1070
    46
1040
12.0
1000
ACAD_MTEXT_DEFINED_HEIGHT_END
  0
MTEXT
  5
9CF9
330
A
100
AcDbEntity
  8
DIM
390
1D
100
AcDbMText
 10
104.1780482544361
 20
698.0757865836644
 30
0.0
 40
10.0
 41
0.0
 46
12.0
 71
     1
 72
     1
  1
{\pxsm1;\H0.999999x;%%c24}
  7
ＭＳ ゴシック
 73
     1
 44
0.7828267384257843
1001
ACAD
1000
ACAD_MTEXT_DEFINED_HEIGHT_BEGIN
1070
    46
1040
12.0
1000
ACAD_MTEXT_DEFINED_HEIGHT_END
  0
CIRCLE
  5
9CFA
330
A
100
AcDbEntity
  8
MODEL
100
AcDbCircle
 10
174.9246957915328
 20
990.3585002896546
 30
0.0
 40
17.5
  0
LINE
  5
9CFB
330
A
100
AcDbEntity
  8
DIM
100
AcDbLine
 10
184.7939468802225
 20
975.9069300307376
 30
0.0
 11
199.3227943027582
 21
951.1430239260176
 31
0.0
  0
LINE
  5
9CFC
330
A
100
AcDbEntity
  8
DIM
100
AcDbLine
 10
199.3227943027582
 20
951.1430239260176
 30
0.0
 11
238.5382706663945
 21
951.1430239260176
 31
0.0
  0
MTEXT
  5
9CFD
330
A
100
AcDbEntity
  8
DIM
390
1D
100
AcDbMText
 10
208.1660789727397
 20
965.9778074414004
 30
0.0
 40
10.0
 41
0.0
 46
12.0
 71
     1
 72
     1
  1
{\pxsm1;%%c35^A^B^B^B }
  7
ＭＳ ゴシック
 73
     1
 44
0.7828267384257843
1001
ACAD
1000
ACAD_MTEXT_DEFINED_HEIGHT_BEGIN
1070
    46
1040
12.0
1000
ACAD_MTEXT_DEFINED_HEIGHT_END
  0
DIMENSION
  5
9CFE
102
{ACAD_REACTORS
330
9D00
102
}
102
{ACAD_XDICTIONARY
360
9CFF
102
}
330
A
100
AcDbEntity
  8
DIM
100
AcDbDimension
  2
*D7
 10
553.1752913197761
 20
570.2548738458279
 30
0.0
 11
553.1752913197761
 21
495.8526448849676
 31
0.0
 70
   160
  1
max. 40
 71
     5
 42
40.0
 73
     0
 74
     1
 75
     1
  3
tfrom線あり
100
AcDbAlignedDimension
 13
508.1555098665976
 23
530.2548738458279
 33
0.0
 14
509.7555098665975
 24
570.2548738458279
 34
0.0
 50
90.0
100
AcDbRotatedDimension
1001
ACAD
1000
DSTYLE
1002
{
1070
   172
1070
     1
1002
}
  0
MTEXT
  5
9D01
330
A
100
AcDbEntity
  8
DIM
390
1D
100
AcDbMText
 10
525.5172190321307
 20
600.9771474783479
 30
0.0
 40
10.0
 41
0.0
 46
10.0
 71
     1
 72
     1
  1
{\pxsm1;\H0.999999x;%%c51}
  7
ＭＳ ゴシック
 73
     1
 44
0.7828267384257843
1001
ACAD
1000
ACAD_MTEXT_DEFINED_HEIGHT_BEGIN
1070
    46
1040
10.0
1000
ACAD_MTEXT_DEFINED_HEIGHT_END
  0
DIMENSION
  5
9D02
330
A
100
AcDbEntity
  8
DIM
100
AcDbDimension
  2
*D8
 10
378.7074807683225
 20
570.2548738458279
 30
0.0
 11
369.7056050649337
 21
657.4349371431435
 31
0.0
 70
    32
 71
     5
 42
174.3601265946313
 73
     0
 74
     0
 75
     0
  3
tfrom線あり
100
AcDbAlignedDimension
 13
481.4741778336681
 23
744.6150004404592
 33
0.0
 14
461.9555128063037
 24
570.2548738458279
 34
0.0
 50
90.0
100
AcDbRotatedDimension
  0
MTEXT
  5
9D05
330
A
100
AcDbEntity
  8
DIM
390
1D
100
AcDbMText
 10
139.7208455381735
 20
1043.993804882778
 30
0.0
 40
10.0
 41
0.0
 46
13.344
 71
     1
 72
     1
  1
{\fＭＳ ゴシック|b0|i0|c1|p0;水栓取付穴}
  7
ＭＳ ゴシック
 73
     1
 44
0.7828267384257843
1001
ACAD
1000
ACAD_MTEXT_DEFINED_HEIGHT_BEGIN
1070
    46
1040
13.344
1000
ACAD_MTEXT_DEFINED_HEIGHT_END
  0
SPLINE
  5
9D06
330
A
100
AcDbEntity
  8
DIM
100
AcDbSpline
210
0.0
220
0.0
230
1.0
 70
  1064
 71
     3
 72
    10
 73
     6
 74
     4
 42
0.000000001
 43
0.0000000001
 44
0.0
 40
0.0
 40
0.0
 40
0.0
 40
0.0
 40
3.429373225411003
 40
7.341034485323045
 40
11.08709782105344
 40
11.08709782105344
 40
11.08709782105344
 40
11.08709782105344
 10
484.2555098665975
 20
433.0438146113701
 30
0.0
 10
485.2381018691557
 20
433.9438725839461
 30
0.0
 10
487.3414721650259
 20
435.8705676915271
 30
0.0
 10
490.6516174281063
 20
431.9945358832882
 30
0.0
 10
493.0716567985651
 20
433.5605923139025
 30
0.0
 10
494.2555098665975
 20
434.3266875819077
 30
0.0
 11
484.2555098665975
 21
433.0438146113701
 31
0.0
 11
487.222567959089
 21
434.7634561423138
 31
0.0
 11
490.7359605033855
 21
433.0438147139985
 31
0.0
 11
494.2555098665975
 21
434.3266875819077
 31
0.0
  0
SPLINE
  5
9D07
330
A
100
AcDbEntity
  8
DIM
100
AcDbSpline
210
0.0
220
0.0
230
1.0
 70
  1064
 71
     3
 72
    10
 73
     6
 74
     4
 42
0.000000001
 43
0.0000000001
 44
0.0
 40
0.0
 40
0.0
 40
0.0
 40
0.0
 40
3.429373225411003
 40
7.34103448532302
 40
11.0870978210534
 40
11.0870978210534
 40
11.0870978210534
 40
11.0870978210534
 10
484.2555075322343
 20
396.0059773769117
 30
0.0
 10
485.2380995347926
 20
396.9060353494876
 30
0.0
 10
487.3414698306627
 20
398.8327304570687
 30
0.0
 10
490.6516150937433
 20
394.95669864883
 30
0.0
 10
493.0716544642017
 20
396.522755079444
 30
0.0
 10
494.2555075322343
 20
397.2888503474493
 30
0.0
 11
484.2555075322343
 21
396.0059773769117
 31
0.0
 11
487.2225656247258
 21
397.7256189078554
 31
0.0
 11
490.7359581690223
 21
396.0059774795401
 31
0.0
 11
494.2555075322343
 21
397.2888503474493
 31
0.0
  0
LINE
  5
9D08
330
A
100
AcDbEntity
  8
DIM
  6
CENTER2
100
AcDbLine
 10
489.4745204338333
 20
355.958581395301
 30
0.0
 11
489.4745204338333
 21
566.625256207298
 31
0.0
  0
LINE
  5
9D09
330
A
100
AcDbEntity
  8
MODEL
100
AcDbLine
 10
499.4434658220073
 20
493.9878715932052
 30
0.0
 11
499.4434658177788
 21
494.2548715932053
 31
0.0
  0
LINE
  5
9D0A
330
A
100
AcDbEntity
  8
MODEL
100
AcDbLine
 10
493.9248679174996
 20
493.7548715370406
 30
0.0
 11
497.657289681845
 21
493.7548715961495
 31
0.0
  0
LINE
  5
9D0B
330
A
100
AcDbEntity
  8
MODEL
100
AcDbLine
 10
498.5715288152196
 20
493.754871610628
 30
0.0
 11
499.2104657509358
 21
493.7548716207466
 31
0.0
  0
LINE
  5
9D0C
330
A
100
AcDbEntity
  8
MODEL
100
AcDbLine
 10
497.6572896230414
 20
493.7548715858672
 30
0.0
 11
498.5715288152196
 21
493.7548715860873
 31
0.0
  0
LINE
  5
9D0D
330
A
100
AcDbEntity
  8
MODEL
100
AcDbLine
 10
494.8144202281619
 20
494.7548715511282
 30
0.0
 11
496.7186311327207
 21
494.7548715812843
 31
0.0
  0
LINE
  5
9D0E
330
A
100
AcDbEntity
  8
MODEL
100
AcDbLine
 10
497.657289681845
 20
493.7548715613023
 30
0.0
 11
497.9866407154909
 21
494.2545360821061
 31
0.0
  0
LINE
  5
9D0F
330
A
100
AcDbEntity
  8
MODEL
100
AcDbLine
 10
498.9008798488653
 20
494.254536106891
 30
0.0
 11
498.5715288152196
 21
493.7548715860871
 31
0.0
  0
LINE
  5
9D10
330
A
100
AcDbEntity
  8
MODEL
100
AcDbLine
 10
499.7104657430175
 20
494.2548716286649
 30
0.0
 11
499.2104657509358
 21
493.7548716207466
 31
0.0
  0
LINE
  5
9D11
330
A
100
AcDbEntity
  8
MODEL
100
AcDbLine
 10
495.7219135953314
 20
504.2548715587
 30
0.0
 11
493.7104607265385
 21
504.2548715268454
 31
0.0
  0
LINE
  5
9D12
330
A
100
AcDbEntity
  8
MODEL
100
AcDbLine
 10
502.2076648181683
 20
494.2548716614124
 30
0.0
 11
501.1438852002548
 21
494.2548716445656
 31
0.0
  0
LINE
  5
9D13
330
A
100
AcDbEntity
  8
MODEL
100
AcDbLine
 10
502.2076646598023
 20
504.2548716614124
 30
0.0
 11
501.1438850418886
 21
504.2548716445656
 31
0.0
  0
LINE
  5
9D14
330
A
100
AcDbEntity
  8
MODEL
100
AcDbLine
 10
501.1438850418886
 20
504.2548716445656
 30
0.0
 11
495.7219135953314
 21
504.2548715587
 31
0.0
  0
LINE
  5
9D15
330
A
100
AcDbEntity
  8
MODEL
100
AcDbLine
 10
502.9539157387312
 20
494.6878843672266
 30
0.0
 11
502.9017842326807
 21
494.687884366401
 31
0.0
  0
LINE
  5
9D16
330
A
100
AcDbEntity
  8
MODEL
100
AcDbLine
 10
499.3859861515525
 20
494.6878843107227
 30
0.0
 11
498.804092214815
 21
494.6878843015074
 31
0.0
  0
LINE
  5
9D17
330
A
100
AcDbEntity
  8
MODEL
100
AcDbLine
 10
502.9539155940802
 20
503.8218589792341
 30
0.0
 11
502.9017840880294
 21
503.8218589784085
 31
0.0
  0
LINE
  5
9D18
330
A
100
AcDbEntity
  8
MODEL
100
AcDbLine
 10
499.3859860069012
 20
503.8218589227301
 30
0.0
 11
498.8040920701637
 21
503.8218589135149
 31
0.0
  0
LINE
  5
9D19
330
A
100
AcDbEntity
  8
MODEL
100
AcDbLine
 10
498.8040922148148
 20
494.6878842188908
 30
0.0
 11
498.8040920701637
 21
503.8218588308982
 31
0.0
  0
ARC
  5
9D1A
330
A
100
AcDbEntity
  8
MODEL
100
AcDbCircle
 10
495.7554941773317
 20
493.1936023243304
 30
0.0
 40
11.06132012811014
100
AcDbArc
 50
90.17394204623116
 51
100.6542235588193
  0
ARC
  5
9D1B
330
A
100
AcDbEntity
  8
MODEL
100
AcDbCircle
 10
495.6230988387028
 20
492.3655495715179
 30
0.0
 40
11.88973253631747
100
AcDbArc
 50
74.48199422990244
 51
89.52381320682359
  0
LINE
  5
9D1C
330
A
100
AcDbEntity
  8
MODEL
100
AcDbLine
 10
502.9539157387312
 20
494.6878843642439
 30
0.0
 11
502.8405884018036
 21
494.6202902766136
 31
0.0
  0
LINE
  5
9D1D
330
A
100
AcDbEntity
  8
MODEL
100
AcDbLine
 10
502.9539155940802
 20
503.8218589762514
 30
0.0
 11
502.9539157387312
 21
494.6878843642439
 31
0.0
  0
LINE
  5
9D1E
330
A
100
AcDbEntity
  8
MODEL
100
AcDbLine
 10
502.8405882550132
 20
503.8894530666332
 30
0.0
 11
502.9539155940802
 21
503.8218589762514
 31
0.0
  0
LWPOLYLINE
  5
9D1F
330
A
100
AcDbEntity
  8
MODEL
100
AcDbPolyline
 90
        4
 70
     0
 43
0.0
 10
499.3859902974184
 20
494.6878784700968
 10
499.9643594380434
 20
494.4560974642375
 10
500.5516397114809
 20
494.3069275423625
 10
501.1438943501528
 20
494.2548645540812
  0
LWPOLYLINE
  5
9D20
330
A
100
AcDbEntity
  8
MODEL
100
AcDbPolyline
 90
        4
 70
     0
 43
0.0
 10
501.1438943501528
 20
494.2548645540812
 10
501.7361795064028
 20
494.3068665072062
 10
502.323398744684
 20
494.4561279818156
 10
502.9017984028872
 20
494.6878784700968
  0
LINE
  5
9D21
330
A
100
AcDbEntity
  8
MODEL
100
AcDbLine
 10
499.3859860069012
 20
503.8218588437701
 30
0.0
 11
499.3859861515525
 21
494.6878842317624
 31
0.0
  0
LINE
  5
9D22
330
A
100
AcDbEntity
  8
MODEL
100
AcDbLine
 10
502.9017842326807
 20
494.687884354908
 30
0.0
 11
502.9017840880294
 21
503.8218589669157
 31
0.0
  0
LWPOLYLINE
  5
9D23
330
A
100
AcDbEntity
  8
MODEL
100
AcDbPolyline
 90
        4
 70
     0
 43
0.0
 10
501.1438943501528
 20
504.2548645540812
 10
500.5516397114809
 20
504.2028015658
 10
499.9643594380434
 20
504.053631643925
 10
499.3859902974184
 20
503.8218506380656
  0
LWPOLYLINE
  5
9D24
330
A
100
AcDbEntity
  8
MODEL
100
AcDbPolyline
 90
        4
 70
     0
 43
0.0
 10
502.9017984028872
 20
503.8218506380656
 10
502.323398744684
 20
504.0536011263468
 10
501.7362100239809
 20
504.2029236361125
 10
501.1438943501528
 20
504.2548645540812
  0
LINE
  5
9D25
330
A
100
AcDbEntity
  8
MODEL
100
AcDbLine
 10
494.7319903367818
 20
494.254871543023
 30
0.0
 11
493.7104608847753
 21
494.2548715268454
 31
0.0
  0
LINE
  5
9D26
330
A
100
AcDbEntity
  8
MODEL
100
AcDbLine
 10
501.1438852002548
 20
494.2548716445656
 30
0.0
 11
496.7254252817318
 21
494.2548715745922
 31
0.0
  0
LINE
  5
9D27
330
A
100
AcDbEntity
  8
MODEL
100
AcDbLine
 10
494.7319903367818
 20
494.2548714659083
 30
0.0
 11
494.7730972528275
 21
494.25487147327
 31
0.0
  0
ARC
  5
9D28
330
A
100
AcDbEntity
  8
MODEL
100
AcDbCircle
 10
495.8346204754507
 20
505.8776140779162
 30
0.0
 40
11.62777241599741
100
AcDbArc
 50
259.4741081363787
 51
264.5250989656592
  0
ARC
  5
9D29
330
A
100
AcDbEntity
  8
MODEL
100
AcDbCircle
 10
495.4380878097047
 20
507.0780912026814
 30
0.0
 40
12.83928404376188
100
AcDbArc
 50
275.7239173724123
 51
285.1985344096955
  0
LINE
  5
9D2A
330
A
100
AcDbEntity
  8
MODEL
100
AcDbLine
 10
496.7186312226429
 20
494.3026544826587
 30
0.0
 11
496.7186311600531
 21
498.254871494114
 31
0.0
  0
LINE
  5
9D2B
330
A
100
AcDbEntity
  8
MODEL
100
AcDbLine
 10
494.7251962776929
 20
494.3026544532363
 30
0.0
 11
494.7251962151031
 21
498.2548714646916
 31
0.0
  0
LINE
  5
9D2C
330
A
100
AcDbEntity
  8
MODEL
100
AcDbLine
 10
496.7186311600531
 20
498.254871494114
 30
0.0
 11
494.7251962151031
 21
498.2548714646916
 31
0.0
  0
LINE
  5
9D2D
330
A
100
AcDbEntity
  8
MODEL
100
AcDbLine
 10
494.7251963416302
 20
494.3026531446271
 30
0.0
 11
494.7319903367818
 21
494.2548714659083
 31
0.0
  0
LINE
  5
9D2E
330
A
100
AcDbEntity
  8
MODEL
100
AcDbLine
 10
496.7254252817318
 20
494.2548714953307
 30
0.0
 11
496.7186110764585
 21
494.3027394238577
 31
0.0
  0
LINE
  5
9D2F
330
A
100
AcDbEntity
  8
MODEL
100
AcDbLine
 10
494.8557432551586
 20
498.2548714880704
 30
0.0
 11
494.8557433026685
 21
495.2548714880704
 31
0.0
  0
LINE
  5
9D30
330
A
100
AcDbEntity
  8
MODEL
100
AcDbLine
 10
494.8557433026685
 20
495.2548714880704
 30
0.0
 11
494.7730972528275
 21
494.25487147327
 31
0.0
  0
LINE
  5
9D31
330
A
100
AcDbEntity
  8
MODEL
100
AcDbLine
 10
502.847378804327
 20
503.8855325413742
 30
0.0
 11
502.2076646598023
 21
504.2548716614122
 31
0.0
  0
LINE
  5
9D32
330
A
100
AcDbEntity
  8
MODEL
100
AcDbLine
 10
502.2076648181683
 20
494.2548716614122
 30
0.0
 11
502.8473789509951
 21
494.624210801712
 31
0.0
  0
LINE
  5
9D33
330
A
100
AcDbEntity
  8
MODEL
100
AcDbLine
 10
502.0576646286145
 20
504.2548716590368
 30
0.0
 11
502.0576643118823
 21
524.2548716590368
 31
0.0
  0
LINE
  5
9D34
330
A
100
AcDbEntity
  8
MODEL
100
AcDbLine
 10
499.4434652476609
 20
530.254871593205
 30
0.0
 11
499.4434646262323
 21
569.4948740648326
 31
0.0
  0
LINE
  5
9D35
330
A
100
AcDbEntity
  8
MODEL
100
AcDbLine
 10
500.2104651728996
 20
530.2548716365832
 30
0.0
 11
500.210464551471
 21
569.4948741082108
 31
0.0
  0
LINE
  5
9D36
330
A
100
AcDbEntity
  8
MODEL
100
AcDbLine
 10
596.6977630462902
 20
454.2548335057345
 30
0.0
 11
493.7104610823258
 21
454.2548318747647
 31
0.0
  0
LINE
  5
9D37
330
A
100
AcDbEntity
  8
MODEL
100
AcDbLine
 10
596.6977631254733
 20
449.2548335057345
 30
0.0
 11
493.7104611615089
 21
449.2548318747647
 31
0.0
  0
LINE
  5
9D38
330
A
100
AcDbEntity
  8
MODEL
100
AcDbLine
 10
447.3977631175551
 20
449.7548311413286
 30
0.0
 11
447.3977631172361
 21
449.7749859774599
 31
0.0
  0
LINE
  5
9D39
330
A
100
AcDbEntity
  8
MODEL
100
AcDbLine
 10
447.3977631172361
 20
449.7749859774599
 30
0.0
 11
447.3977630542088
 21
453.7548311413286
 31
0.0
  0
LINE
  5
9D3A
330
A
100
AcDbEntity
  8
MODEL
100
AcDbLine
 10
447.8977631254734
 20
449.2548311492469
 30
0.0
 11
447.8977631250746
 21
449.2800246944109
 31
0.0
  0
LINE
  5
9D3B
330
A
100
AcDbEntity
  8
MODEL
100
AcDbLine
 10
447.8977631250746
 20
449.2800246944109
 30
0.0
 11
447.8977630462905
 21
454.2548311492469
 31
0.0
  0
LINE
  5
9D3C
330
A
100
AcDbEntity
  8
MODEL
100
AcDbLine
 10
447.3977630542088
 20
453.7548311413286
 30
0.0
 11
447.8977630462905
 21
454.2548311492469
 31
0.0
  0
LINE
  5
9D3D
330
A
100
AcDbEntity
  8
MODEL
100
AcDbLine
 10
447.3977631175553
 20
449.7548311413286
 30
0.0
 11
447.8977631254734
 21
449.2548311492469
 31
0.0
  0
LINE
  5
9D3E
330
A
100
AcDbEntity
  8
MODEL
100
AcDbLine
 10
481.3943374932728
 20
454.254831679719
 30
0.0
 11
447.8977630462905
 21
454.2548311492469
 31
0.0
  0
LINE
  5
9D3F
330
A
100
AcDbEntity
  8
MODEL
100
AcDbLine
 10
481.3943375724559
 20
449.254831679719
 30
0.0
 11
447.8977631254734
 21
449.2548311492469
 31
0.0
  0
LINE
  5
9D40
330
A
100
AcDbEntity
  8
MODEL
100
AcDbLine
 10
493.0943381242346
 20
457.5048315799238
 30
0.0
 11
493.0943382905189
 21
447.0048315799237
 31
0.0
  0
LINE
  5
9D41
330
A
100
AcDbEntity
  8
MODEL
100
AcDbLine
 10
481.3943381242348
 20
457.5048313946354
 30
0.0
 11
481.394338290519
 21
447.0048313946353
 31
0.0
  0
LINE
  5
9D42
330
A
100
AcDbEntity
  8
MODEL
100
AcDbLine
 10
481.3943381242348
 20
457.5048313946354
 30
0.0
 11
493.0943381242346
 21
457.5048315799238
 31
0.0
  0
LINE
  5
9D43
330
A
100
AcDbEntity
  8
MODEL
100
AcDbLine
 10
481.394338290519
 20
447.0048313946353
 30
0.0
 11
493.0943382905191
 21
447.0048315799237
 31
0.0
  0
CIRCLE
  5
9D44
330
A
100
AcDbEntity
  8
MODEL
100
AcDbCircle
 10
487.2443382073768
 20
452.2548314872795
 30
0.0
 40
3.0
  0
ELLIPSE
  5
9D45
330
A
100
AcDbEntity
  8
MODEL
100
AcDbEllipse
 10
486.0565631416234
 20
452.2548318816885
 30
0.0
 11
4.687085780298855E-7
 21
-2.799999999999959
 31
0.0
210
0.0
220
0.0
230
1.0
 40
0.9961947060056429
 41
0.8785286903049553
 42
3.103744958058522
  0
ELLIPSE
  5
9D46
330
A
100
AcDbEntity
  8
MODEL
100
AcDbEllipse
 10
486.0478475763944
 20
452.2548318802294
 30
0.0
 11
4.687085780298855E-7
 21
-2.799999999999959
 31
0.0
210
0.0
220
0.0
230
1.0
 40
0.9961947060056429
 41
0.040684490394056
 42
0.8785286903049839
  0
ELLIPSE
  5
9D47
330
A
100
AcDbEntity
  8
MODEL
100
AcDbEllipse
 10
486.0478475763944
 20
452.2548318802294
 30
0.0
 11
4.687085780298855E-7
 21
-2.799999999999959
 31
0.0
210
0.0
220
0.0
230
1.0
 40
0.9961947060056429
 41
0.8785286903049839
 42
3.100907169375499
  0
LINE
  5
9D48
330
A
100
AcDbEntity
  8
MODEL
100
AcDbLine
 10
484.7106286912533
 20
451.4192729837246
 30
0.0
 11
485.4775000788579
 21
450.7809886623584
 31
0.0
  0
LINE
  5
9D49
330
A
100
AcDbEntity
  8
MODEL
100
AcDbLine
 10
486.8802269273551
 20
450.9125050457842
 30
0.0
 11
487.5160823882477
 21
451.6823057505762
 31
0.0
  0
LINE
  5
9D4A
330
A
100
AcDbEntity
  8
MODEL
100
AcDbLine
 10
487.3850664615356
 20
453.0903907767342
 30
0.0
 11
486.6181950739308
 21
453.7286750981004
 31
0.0
  0
LINE
  5
9D4B
330
A
100
AcDbEntity
  8
MODEL
100
AcDbLine
 10
485.2154682254336
 20
453.5971587146746
 30
0.0
 11
484.579612764541
 21
452.8273580098826
 31
0.0
  0
LINE
  5
9D4C
330
A
100
AcDbEntity
  8
MODEL
100
AcDbLine
 10
485.4775000788582
 20
450.7809886623584
 30
0.0
 11
485.9225988939029
 21
451.3198491465362
 31
0.0
  0
LINE
  5
9D4D
330
A
100
AcDbEntity
  8
MODEL
100
AcDbLine
 10
486.3434169651737
 20
451.3593040631315
 30
0.0
 11
486.8802269273551
 21
450.9125050457842
 31
0.0
  0
LINE
  5
9D4E
330
A
100
AcDbEntity
  8
MODEL
100
AcDbLine
 10
486.4305726174653
 20
451.3593040777212
 30
0.0
 11
486.9157347209755
 21
450.9554927359538
 31
0.0
  0
ARC
  5
9D4F
330
A
100
AcDbEntity
  8
MODEL
100
AcDbCircle
 10
486.1526310049237
 20
451.1302808959956
 30
0.0
 40
0.2980786703432915
100
AcDbArc
 50
50.20427507818113
 51
140.5082448468374
  0
ARC
  5
9D50
330
A
100
AcDbEntity
  8
MODEL
100
AcDbCircle
 10
486.2397496589738
 20
451.1301972290269
 30
0.0
 40
0.2981666473737637
100
AcDbArc
 50
50.20910477128151
 51
89.98725825821577
  0
LINE
  5
9D51
330
A
100
AcDbEntity
  8
MODEL
100
AcDbLine
 10
487.5160823882479
 20
451.6823057505762
 30
0.0
 11
486.9792724260662
 21
452.1291047679235
 31
0.0
  0
LINE
  5
9D52
330
A
100
AcDbEntity
  8
MODEL
100
AcDbLine
 10
486.9399676464907
 20
452.5515302925567
 30
0.0
 11
487.3850664615356
 21
453.0903907767342
 31
0.0
  0
LINE
  5
9D53
330
A
100
AcDbEntity
  8
MODEL
100
AcDbLine
 10
486.6181950739308
 20
453.7286750981004
 30
0.0
 11
486.1730962588861
 21
453.1898146139229
 31
0.0
  0
LINE
  5
9D54
330
A
100
AcDbEntity
  8
MODEL
100
AcDbLine
 10
486.6698429007397
 20
453.6856874358307
 30
0.0
 11
486.2602519111774
 21
453.1898146285123
 31
0.0
  0
LINE
  5
9D55
330
A
100
AcDbEntity
  8
MODEL
100
AcDbLine
 10
485.752278187615
 20
453.1503596973273
 30
0.0
 11
485.2154682254334
 21
453.5971587146746
 31
0.0
  0
ARC
  5
9D56
330
A
100
AcDbEntity
  8
MODEL
100
AcDbCircle
 10
487.1719534482115
 20
452.3600741913929
 30
0.0
 40
0.3007870523689397
100
AcDbArc
 50
140.4674043047048
 51
230.1642102377798
  0
ARC
  5
9D57
330
A
100
AcDbEntity
  8
MODEL
100
AcDbCircle
 10
485.9430641478655
 20
453.3793828644646
 30
0.0
 40
0.2980786703441736
100
AcDbArc
 50
230.2042750782734
 51
320.5082448466113
  0
ARC
  5
9D58
330
A
100
AcDbEntity
  8
MODEL
100
AcDbCircle
 10
486.03006072023
 20
453.3797083605023
 30
0.0
 40
0.2984084681086127
100
AcDbArc
 50
270.0249164823693
 51
320.479442309428
  0
LINE
  5
9D59
330
A
100
AcDbEntity
  8
MODEL
100
AcDbLine
 10
484.579612764541
 20
452.8273580098828
 30
0.0
 11
485.1164227267225
 21
452.3805589925353
 31
0.0
  0
LINE
  5
9D5A
330
A
100
AcDbEntity
  8
MODEL
100
AcDbLine
 10
485.155727506298
 20
451.9581334679021
 30
0.0
 11
484.7106286912531
 21
451.4192729837246
 31
0.0
  0
ARC
  5
9D5B
330
A
100
AcDbEntity
  8
MODEL
100
AcDbCircle
 10
484.9237417045774
 20
452.1495895690666
 30
0.0
 40
0.3007870523688528
100
AcDbArc
 50
320.4674043045454
 51
50.1642102377271
  0
LINE
  5
9D5C
330
A
100
AcDbEntity
  8
DIM
  6
CENTER2
100
AcDbLine
 10
638.3977724169383
 20
411.5890171839984
 30
0.0
 11
638.3977620010758
 21
530.0330491839984
 31
0.0
  0
LINE
  5
9D5D
330
A
100
AcDbEntity
  8
MODEL
100
AcDbLine
 10
657.8737637034915
 20
428.2548343720192
 30
0.0
 11
657.8737635134521
 21
440.2548343720192
 31
0.0
  0
LINE
  5
9D5E
330
A
100
AcDbEntity
  8
MODEL
100
AcDbLine
 10
618.9217637034913
 20
428.2548337551515
 30
0.0
 11
618.9217635134519
 21
440.2548337551515
 31
0.0
  0
LINE
  5
9D5F
330
A
100
AcDbEntity
  8
MODEL
100
AcDbLine
 10
610.6977629061364
 20
463.1048337274472
 30
0.0
 11
610.6977632656274
 21
440.4048337274471
 31
0.0
  0
LINE
  5
9D60
330
A
100
AcDbEntity
  8
MODEL
100
AcDbLine
 10
596.6977629338503
 20
461.3548335057346
 30
0.0
 11
596.6977632379135
 21
442.1548335057344
 31
0.0
  0
ARC
  5
9D61
330
A
100
AcDbEntity
  8
MODEL
100
AcDbCircle
 10
608.6977632656274
 20
440.4048336957738
 30
0.0
 40
2.0
100
AcDbArc
 50
270.000000907597
 51
0.000000907372252
  0
LINE
  5
9D62
330
A
100
AcDbEntity
  8
MODEL
100
AcDbLine
 10
608.6977628055738
 20
469.4548336957739
 30
0.0
 11
600.6977628055738
 21
469.4548335690811
 31
0.0
  0
ARC
  5
9D63
330
A
100
AcDbEntity
  8
MODEL
100
AcDbCircle
 10
600.697762837247
 20
467.4548335690808
 30
0.0
 40
2.0
100
AcDbArc
 50
90.00000090759046
 51
180.0000009073755
  0
LINE
  5
9D64
330
A
100
AcDbEntity
  8
MODEL
100
AcDbLine
 10
608.69776336619
 20
434.0548336957738
 30
0.0
 11
600.69776336619
 21
434.0548335690809
 31
0.0
  0
ARC
  5
9D65
330
A
100
AcDbEntity
  8
MODEL
100
AcDbCircle
 10
600.6977633345166
 20
436.0548335690812
 30
0.0
 40
2.0
100
AcDbArc
 50
180.000000907369
 51
270.0000009071475
  0
LINE
  5
9D66
330
A
100
AcDbEntity
  8
MODEL
100
AcDbLine
 10
608.6977629403309
 20
464.9541707738215
 30
0.0
 11
608.697762900729
 21
467.4548336692544
 31
0.0
  0
LINE
  5
9D67
330
A
100
AcDbEntity
  8
MODEL
100
AcDbLine
 10
608.6977633583965
 20
438.5554965646874
 30
0.0
 11
608.6977633979986
 21
436.0548336692544
 31
0.0
  0
LINE
  5
9D68
330
A
100
AcDbEntity
  8
MODEL
100
AcDbLine
 10
608.6977628055738
 20
469.4548336957739
 30
0.0
 11
608.697762837247
 21
467.4548336692544
 31
0.0
  0
LINE
  5
9D69
330
A
100
AcDbEntity
  8
MODEL
100
AcDbLine
 10
608.69776336619
 20
434.0548336957738
 30
0.0
 11
608.6977633345166
 21
436.0548336692544
 31
0.0
  0
ARC
  5
9D6A
330
A
100
AcDbEntity
  8
MODEL
100
AcDbCircle
 10
608.704136581297
 20
462.9534518561204
 30
0.0
 40
2.000729069850869
100
AcDbArc
 50
90.18252513579512
 51
161.3338156364038
  0
ARC
  5
9D6B
330
A
100
AcDbEntity
  8
MODEL
100
AcDbCircle
 10
608.7041369359929
 20
440.5562154825899
 30
0.0
 40
2.000729069850454
100
AcDbArc
 50
198.6661861783373
 51
269.8174766789613
  0
ARC
  5
9D6C
330
A
100
AcDbEntity
  8
MODEL
100
AcDbCircle
 10
608.5380979182653
 20
463.0033741341047
 30
0.0
 40
1.82745084329449
100
AcDbArc
 50
161.1518482212111
 51
176.8265094358302
  0
ARC
  5
9D6D
330
A
100
AcDbEntity
  8
MODEL
100
AcDbCircle
 10
608.5379495311863
 20
440.5062642595829
 30
0.0
 40
1.827300726644445
100
AcDbArc
 50
183.1728448735122
 51
198.8488015610208
  0
LINE
  5
9D6E
330
A
100
AcDbEntity
  8
MODEL
100
AcDbLine
 10
598.697762837247
 20
467.4548335374075
 30
0.0
 11
598.6977628950588
 21
463.8043232801911
 31
0.0
  0
ARC
  5
9D6F
330
A
100
AcDbEntity
  8
MODEL
100
AcDbCircle
 10
598.1977628950588
 20
463.8043232722728
 30
0.0
 40
0.5000000000000042
100
AcDbArc
 50
281.5369599401899
 51
0.0000009071605542
  0
ARC
  5
9D70
330
A
100
AcDbEntity
  8
MODEL
100
AcDbCircle
 10
598.6977632379135
 20
442.1548335374077
 30
0.0
 40
1.999999999999998
100
AcDbArc
 50
180.000000907597
 51
258.4630418745805
  0
LINE
  5
9D71
330
A
100
AcDbEntity
  8
MODEL
100
AcDbLine
 10
598.6977633345166
 20
436.054833537408
 30
0.0
 11
598.6977632767048
 21
439.7053437946245
 31
0.0
  0
ARC
  5
9D72
330
A
100
AcDbEntity
  8
MODEL
100
AcDbCircle
 10
598.1977632767048
 20
439.7053437867061
 30
0.0
 40
0.5
100
AcDbArc
 50
0.0000009075774359
 51
78.46304187452678
  0
LINE
  5
9D73
330
A
100
AcDbEntity
  8
MODEL
100
AcDbLine
 10
606.7134497529573
 20
442.259501695374
 30
0.0
 11
606.7134497823245
 21
440.405126286546
 31
0.0
  0
LINE
  5
9D74
330
A
100
AcDbEntity
  8
MODEL
100
AcDbLine
 10
606.7134496311903
 20
449.9484575969334
 30
0.0
 11
606.7134497106695
 21
444.9297578177774
 31
0.0
  0
LINE
  5
9D75
330
A
100
AcDbEntity
  8
MODEL
100
AcDbLine
 10
606.7134494944974
 20
458.5799092621771
 30
0.0
 11
606.7134495739765
 21
453.5612094278922
 31
0.0
  0
LINE
  5
9D76
330
A
100
AcDbEntity
  8
MODEL
100
AcDbLine
 10
606.7134494228426
 20
463.1045409785931
 30
0.0
 11
606.7134494522095
 21
461.250165456619
 31
0.0
  0
LWPOLYLINE
  5
9D77
330
A
100
AcDbEntity
  8
MODEL
100
AcDbPolyline
 90
        9
 70
     0
 43
0.0
 10
606.7134439106997
 20
444.9297607943155
 10
606.7946206685122
 20
444.4615601107218
 10
606.9129068013247
 20
443.9890717074015
 10
607.0325357075747
 20
443.5320099398234
 10
607.1167031880434
 20
443.1097382113077
 10
607.1331216450747
 20
442.7488831087687
 10
607.0742837544497
 20
442.478710989628
 10
606.9651528950747
 20
442.3142975374796
 10
606.8418618794497
 20
442.2595032259562
  0
LWPOLYLINE
  5
9D78
330
A
100
AcDbEntity
  8
MODEL
100
AcDbPolyline
 90
       10
 70
     0
 43
0.0
 10
606.7134439106997
 20
453.561215262089
 10
606.7996255513247
 20
453.2905396029093
 10
606.9246255513247
 20
452.9294556185343
 10
607.0473062153872
 20
452.496273855839
 10
607.1256753560122
 20
452.0092896029093
 10
607.1256143208559
 20
451.5003784700968
 10
607.0472451802309
 20
451.0133179232218
 10
606.9246255513247
 20
450.5801666781047
 10
606.7996255513247
 20
450.2191284700968
 10
606.7134439106997
 20
449.9484528109172
  0
LWPOLYLINE
  5
9D79
330
A
100
AcDbEntity
  8
MODEL
100
AcDbPolyline
 90
        9
 70
     0
 43
0.0
 10
606.8414956685122
 20
461.25016484705
 10
606.9647866841372
 20
461.1955994173625
 10
607.0741006489809
 20
461.0314758822062
 10
607.1330606099184
 20
460.7613953158
 10
607.1168252583559
 20
460.40055547205
 10
607.0326577778872
 20
459.9780853792765
 10
606.9130899067934
 20
459.5209473177531
 10
606.7946817036684
 20
459.0482910677531
 10
606.7134439106997
 20
458.5799072786906
  0
LINE
  5
9D7A
330
A
100
AcDbEntity
  8
MODEL
100
AcDbLine
 10
606.7134500083894
 20
444.9297578177774
 30
0.0
 11
600.697763491688
 21
444.9297577225094
 31
0.0
  0
LINE
  5
9D7B
330
A
100
AcDbEntity
  8
MODEL
100
AcDbLine
 10
606.7134497922175
 20
458.5799092621771
 30
0.0
 11
600.6977632755159
 21
458.5799091669089
 31
0.0
  0
LINE
  5
9D7C
330
A
100
AcDbEntity
  8
MODEL
100
AcDbLine
 10
606.7134499948938
 20
449.9484575969334
 30
0.0
 11
600.6977634781924
 21
449.9484575016652
 31
0.0
  0
LINE
  5
9D7D
330
A
100
AcDbEntity
  8
MODEL
100
AcDbLine
 10
606.7134499376803
 20
453.5612094278922
 30
0.0
 11
600.6977634209786
 21
453.5612093326242
 31
0.0
  0
LWPOLYLINE
  5
9D7E
330
A
100
AcDbEntity
  8
MODEL
100
AcDbPolyline
 90
        7
 70
     0
 43
0.0
 10
599.6977578755434
 20
443.5523956820109
 10
599.7000161763247
 20
443.831738333378
 10
599.7282144185122
 20
444.1190155550577
 10
599.8244058247622
 20
444.4058807894327
 10
600.0204507466372
 20
444.6668060824015
 10
600.3229409810122
 20
444.8580597445109
 10
600.6977578755434
 20
444.9297607943155
  0
LWPOLYLINE
  5
9D7F
330
A
100
AcDbEntity
  8
MODEL
100
AcDbPolyline
 90
        3
 70
     0
 43
0.0
 10
599.6977578755434
 20
443.5523956820109
 10
599.7029458638247
 20
443.2181671663859
 10
599.7641030903872
 20
442.9016388460734
  0
LWPOLYLINE
  5
9D80
330
A
100
AcDbEntity
  8
MODEL
100
AcDbPolyline
 90
        3
 70
     0
 43
0.0
 10
599.6977578755434
 20
459.9572723909953
 10
599.7029458638247
 20
460.2915314241984
 10
599.7641641255434
 20
460.6080597445109
  0
LWPOLYLINE
  5
9D81
330
A
100
AcDbEntity
  8
MODEL
100
AcDbPolyline
 90
        7
 70
     0
 43
0.0
 10
599.6977578755434
 20
459.9572723909953
 10
599.7000161763247
 20
459.6779297396281
 10
599.7282754536684
 20
459.3906372591593
 10
599.8244058247622
 20
459.1038178011515
 10
600.0204507466372
 20
458.8428619906047
 10
600.3229409810122
 20
458.6516083284953
 10
600.6977578755434
 20
458.5799072786906
  0
LWPOLYLINE
  5
9D82
330
A
100
AcDbEntity
  8
MODEL
100
AcDbPolyline
 90
        8
 70
     0
 43
0.0
 10
599.6977578755434
 20
451.7548340365031
 10
599.6989175435122
 20
452.0878723665812
 10
599.7150918599184
 20
452.4201935335734
 10
599.7725259419497
 20
452.7473267122843
 10
599.8950235005434
 20
453.0543945833781
 10
600.0966836567934
 20
453.3159149691203
 10
600.3734170552309
 20
453.4961517855265
 10
600.6977578755434
 20
453.561215262089
  0
LWPOLYLINE
  5
9D83
330
A
100
AcDbEntity
  8
MODEL
100
AcDbPolyline
 90
        8
 70
     0
 43
0.0
 10
599.6977578755434
 20
451.7548340365031
 10
599.6989785786684
 20
451.4217804476359
 10
599.7150308247622
 20
451.0894897982218
 10
599.7725259419497
 20
450.7623261019328
 10
599.8950235005434
 20
450.4552734896281
 10
600.0966836567934
 20
450.1937378450968
 10
600.3734170552309
 20
450.0135010286906
 10
600.6977578755434
 20
449.9484528109172
  0
LINE
  5
9D84
330
A
100
AcDbEntity
  8
MODEL
100
AcDbLine
 10
606.842559406577
 20
442.2595016864304
 30
0.0
 11
600.6977634741647
 21
442.2595015891176
 31
0.0
  0
LINE
  5
9D85
330
A
100
AcDbEntity
  8
MODEL
100
AcDbLine
 10
606.8425530184059
 20
461.2501654475852
 30
0.0
 11
600.6977631734171
 21
461.2501653502725
 31
0.0
  0
ARC
  5
9D86
330
A
100
AcDbEntity
  8
MODEL
100
AcDbCircle
 10
600.6977634583282
 20
443.2595015891176
 30
0.0
 40
1.0
100
AcDbArc
 50
200.9720162619391
 51
270.0000009071475
  0
ARC
  5
9D87
330
A
100
AcDbEntity
  8
MODEL
100
AcDbCircle
 10
600.6977631892537
 20
460.2501653502725
 30
0.0
 40
1.0
100
AcDbArc
 50
90.00000090760349
 51
159.0263299431899
  0
ARC
  5
9D88
330
A
100
AcDbEntity
  8
MODEL
100
AcDbCircle
 10
608.6977629061362
 20
463.1048336957738
 30
0.0
 40
2.0
100
AcDbArc
 50
0.0000009073755089
 51
90.00000090714752
  0
ARC
  5
9D89
330
A
100
AcDbEntity
  8
MODEL
100
AcDbCircle
 10
598.6977629338503
 20
461.3548335374078
 30
0.0
 40
1.999999999999998
100
AcDbArc
 50
101.5369599401503
 51
180.0000009071475
  0
LINE
  5
9D8A
330
A
100
AcDbEntity
  8
MODEL
100
AcDbLine
 10
608.1427620949171
 20
514.3291580113082
 30
0.0
 11
668.6527620949164
 21
514.3291589695816
 31
0.0
  0
LINE
  5
9D8B
330
A
100
AcDbEntity
  8
MODEL
100
AcDbLine
 10
606.8927620825446
 20
515.1104079915124
 30
0.0
 11
669.9027620825443
 21
515.1104089893772
 31
0.0
  0
LINE
  5
9D8C
102
{ACAD_REACTORS
330
9DE8
102
}
330
A
100
AcDbEntity
  8
MODEL
100
AcDbLine
 10
607.4649749022587
 20
516.2548336762502
 30
0.0
 11
669.3305492265824
 21
516.2548346559913
 31
0.0
  0
ARC
  5
9D8D
330
A
100
AcDbEntity
  8
MODEL
100
AcDbCircle
 10
643.897784910826
 20
498.7548559037184
 30
0.0
 40
2.999978094545996
100
AcDbArc
 50
359.9995828242552
 51
90.00041887047675
  0
LINE
  5
9D8E
330
A
100
AcDbEntity
  8
MODEL
100
AcDbLine
 10
646.8977630905733
 20
487.754834060607
 30
0.0
 11
646.8977629163708
 21
498.754834060607
 31
0.0
  0
ARC
  5
9D8F
330
A
100
AcDbEntity
  8
MODEL
100
AcDbCircle
 10
643.89778165094
 20
487.7548155267398
 30
0.0
 40
2.999981528612324
100
AcDbArc
 50
269.9996485312024
 51
0.0003539727476317
  0
LINE
  5
9D90
330
A
100
AcDbEntity
  8
MODEL
100
AcDbLine
 10
632.8977631737821
 20
484.7548340790197
 30
0.0
 11
643.8977631737821
 21
484.7548342532223
 31
0.0
  0
ARC
  5
9D91
330
A
100
AcDbEntity
  8
MODEL
100
AcDbCircle
 10
632.8977416209295
 20
487.7548122654148
 30
0.0
 40
2.999978441511419
100
AcDbArc
 50
179.9995888813075
 51
270.0004130529983
  0
LINE
  5
9D92
330
A
100
AcDbEntity
  8
MODEL
100
AcDbLine
 10
629.897762916371
 20
498.7548337913845
 30
0.0
 11
629.8977630905736
 21
487.7548337913845
 31
0.0
  0
ARC
  5
9D93
330
A
100
AcDbEntity
  8
MODEL
100
AcDbCircle
 10
632.8977448089595
 20
498.7548520203138
 30
0.0
 40
2.999981803722386
100
AcDbArc
 50
89.99965297630138
 51
180.0003481487909
  0
LINE
  5
9D94
330
A
100
AcDbEntity
  8
MODEL
100
AcDbLine
 10
643.8977629045598
 20
501.7548342532223
 30
0.0
 11
632.8977629045598
 21
501.7548340790197
 31
0.0
  0
LINE
  5
9D95
330
A
100
AcDbEntity
  8
MODEL
100
AcDbLine
 10
618.3927625632737
 20
484.7548338493095
 30
0.0
 11
619.16367781894
 21
484.7548338615184
 31
0.0
  0
LINE
  5
9D96
330
A
100
AcDbEntity
  8
MODEL
100
AcDbLine
 10
657.6318476567583
 20
484.7548344707236
 30
0.0
 11
658.4027625632739
 21
484.7548344829324
 31
0.0
  0
LWPOLYLINE
  5
9D97
330
A
100
AcDbEntity
  8
MODEL
100
AcDbPolyline
 90
        8
 70
     0
 43
0.0
 10
619.1637002583559
 20
484.7548340365031
 10
619.3647500630434
 20
484.82828984705
 10
619.5781900044497
 20
485.0435303255656
 10
619.7904092427309
 20
485.3901184603312
 10
619.9854165669497
 20
485.8554504915812
 10
620.1451455708559
 20
486.4226501986125
 10
620.2511026021059
 20
487.0672424837687
 10
620.2883950825747
 20
487.7548340365031
  0
LWPOLYLINE
  5
9D98
330
A
100
AcDbEntity
  8
MODEL
100
AcDbPolyline
 90
        8
 70
     0
 43
0.0
 10
656.5071450825747
 20
487.7548340365031
 10
656.5444375630434
 20
487.0672424837687
 10
656.6503335591372
 20
486.4226501986125
 10
656.8101235981997
 20
485.8554504915812
 10
657.0051309224184
 20
485.3901184603312
 10
657.2173501606997
 20
485.0435303255656
 10
657.4307901021059
 20
484.82828984705
 10
657.6318399067934
 20
484.7548340365031
  0
LINE
  5
9D99
330
A
100
AcDbEntity
  8
MODEL
100
AcDbLine
 10
656.5071530316832
 20
498.7548343402048
 30
0.0
 11
656.507153205886
 21
487.7548343402048
 31
0.0
  0
LINE
  5
9D9A
330
A
100
AcDbEntity
  8
MODEL
100
AcDbLine
 10
620.2883723652385
 20
487.7548337666219
 30
0.0
 11
620.2883721910357
 21
498.7548337666221
 31
0.0
  0
LWPOLYLINE
  5
9D9B
330
A
100
AcDbEntity
  8
MODEL
100
AcDbPolyline
 90
        8
 70
     0
 43
0.0
 10
620.2883950825747
 20
498.7548340365031
 10
620.2511026021059
 20
499.4424255892375
 10
620.1451455708559
 20
500.0869873568156
 10
619.9854165669497
 20
500.6541870638468
 10
619.7905313130434
 20
501.1193970247843
 10
619.5783120747622
 20
501.4660156771281
 10
619.3647500630434
 20
501.6813782259562
 10
619.1637002583559
 20
501.7548340365031
  0
LWPOLYLINE
  5
9D9C
330
A
100
AcDbEntity
  8
MODEL
100
AcDbPolyline
 90
        8
 70
     0
 43
0.0
 10
657.6318399067934
 20
501.7548340365031
 10
657.4307901021059
 20
501.6813782259562
 10
657.2172280903872
 20
501.4660156771281
 10
657.0050088521059
 20
501.1193970247843
 10
656.8101235981997
 20
500.6541870638468
 10
656.6503335591372
 20
500.0869873568156
 10
656.5444375630434
 20
499.4424255892375
 10
656.5071450825747
 20
498.7548340365031
  0
LINE
  5
9D9D
330
A
100
AcDbEntity
  8
MODEL
100
AcDbLine
 10
658.4027622940514
 20
501.7548344829324
 30
0.0
 11
657.6318473875358
 21
501.7548344707236
 31
0.0
  0
LINE
  5
9D9E
330
A
100
AcDbEntity
  8
MODEL
100
AcDbLine
 10
619.1636775497175
 20
501.7548338615184
 30
0.0
 11
618.3927622940514
 21
501.7548338493095
 31
0.0
  0
ARC
  5
9D9F
330
A
100
AcDbEntity
  8
MODEL
100
AcDbCircle
 10
607.4649749113212
 20
515.6826208384123
 30
0.0
 40
0.5722128378379523
100
AcDbArc
 50
90.00000090760523
 51
180.0000009073548
  0
ARC
  5
9DA0
102
{ACAD_REACTORS
330
9DE2
102
}
330
A
100
AcDbEntity
  8
MODEL
100
AcDbCircle
 10
669.3305492356446
 20
515.6826218181534
 30
0.0
 40
0.5722128378379523
100
AcDbArc
 50
0.0000009073775519
 51
90.00000090714988
  0
LINE
  5
9DA1
102
{ACAD_REACTORS
330
9DE2
102
}
330
A
100
AcDbEntity
  8
MODEL
100
AcDbLine
 10
606.8927620825446
 20
515.1104079915124
 30
0.0
 11
606.8927620734826
 21
515.6826208293505
 31
0.0
  0
LINE
  5
9DA2
330
A
100
AcDbEntity
  8
MODEL
100
AcDbLine
 10
669.9027620825441
 20
515.1104089893772
 30
0.0
 11
669.9027620734823
 21
515.6826218272154
 31
0.0
  0
LINE
  5
9DA3
330
A
100
AcDbEntity
  8
MODEL
100
AcDbLine
 10
608.1427620949171
 20
514.3291580113082
 30
0.0
 11
606.8927620825448
 21
515.1104079915124
 31
0.0
  0
LINE
  5
9DA4
330
A
100
AcDbEntity
  8
MODEL
100
AcDbLine
 10
668.6527620949173
 20
514.3291589695816
 30
0.0
 11
669.902762082545
 21
515.1104089893772
 31
0.0
  0
LINE
  5
9DA5
330
A
100
AcDbEntity
  8
MODEL
100
AcDbLine
 10
614.5407341245875
 20
512.4244183570524
 30
0.0
 11
608.1427620949171
 21
514.3291580113082
 31
0.0
  0
LINE
  5
9DA6
330
A
100
AcDbEntity
  8
MODEL
100
AcDbLine
 10
662.2547901255759
 20
512.4244191126813
 30
0.0
 11
668.6527620949171
 21
514.3291589695816
 31
0.0
  0
ARC
  5
9DA7
330
A
100
AcDbEntity
  8
MODEL
100
AcDbCircle
 10
613.6847333557046
 20
509.5491335566069
 30
0.0
 40
3.000000000000002
100
AcDbArc
 50
13.50980486079981
 51
73.42121013189606
  0
ARC
  5
9DA8
330
A
100
AcDbEntity
  8
MODEL
100
AcDbCircle
 10
663.1107909855284
 20
509.5491343393483
 30
0.0
 40
3.000000000000002
100
AcDbArc
 50
106.5787916828455
 51
166.4901969539439
  0
LINE
  5
9DA9
330
A
100
AcDbEntity
  8
MODEL
100
AcDbLine
 10
617.2973076599119
 20
507.3548338319613
 30
0.0
 11
616.6017232277004
 21
510.2499688344546
 31
0.0
  0
LINE
  5
9DAA
330
A
100
AcDbEntity
  8
MODEL
100
AcDbLine
 10
659.4982167508215
 20
507.3548345002807
 30
0.0
 11
660.193801091335
 21
510.2499695248055
 31
0.0
  0
LINE
  5
9DAB
330
A
100
AcDbEntity
  8
MODEL
100
AcDbLine
 10
618.392762632955
 20
480.3548338493097
 30
0.0
 11
618.3927625632739
 21
484.7548338493095
 31
0.0
  0
LINE
  5
9DAC
330
A
100
AcDbEntity
  8
MODEL
100
AcDbLine
 10
618.3927622940514
 20
501.7548338493095
 30
0.0
 11
618.3927622845495
 21
502.3548338493097
 31
0.0
  0
LINE
  5
9DAD
330
A
100
AcDbEntity
  8
MODEL
100
AcDbLine
 10
658.4027626329548
 20
480.3548344829323
 30
0.0
 11
658.4027625632739
 21
484.7548344829324
 31
0.0
  0
LINE
  5
9DAE
330
A
100
AcDbEntity
  8
MODEL
100
AcDbLine
 10
658.4027622940514
 20
501.7548344829324
 30
0.0
 11
658.4027622845495
 21
502.3548344829323
 31
0.0
  0
LINE
  5
9DAF
330
A
100
AcDbEntity
  8
MODEL
100
AcDbLine
 10
657.8787634580422
 20
428.2548344746342
 30
0.0
 11
659.3527634493323
 21
428.8048223122127
 31
0.0
  0
LINE
  5
9DB0
330
A
100
AcDbEntity
  8
MODEL
100
AcDbLine
 10
659.3527634493323
 20
428.8048223122127
 30
0.0
 11
659.352763268003
 21
440.2548344979772
 31
0.0
  0
LINE
  5
9DB1
330
A
100
AcDbEntity
  8
MODEL
100
AcDbLine
 10
659.352763268003
 20
440.2548344979772
 30
0.0
 11
660.4027632513744
 21
441.3048345146057
 31
0.0
  0
LINE
  5
9DB2
330
A
100
AcDbEntity
  8
MODEL
100
AcDbLine
 10
660.4027632513744
 20
441.3048345146057
 30
0.0
 11
660.4027627317323
 21
474.117549541101
 31
0.0
  0
ARC
  5
9DB3
330
A
100
AcDbEntity
  8
MODEL
100
AcDbCircle
 10
661.4027627317323
 20
474.1175495569378
 30
0.0
 40
0.9999999999999987
100
AcDbArc
 50
132.4993532468566
 51
180.0000009071866
  0
LINE
  5
9DB4
330
A
100
AcDbEntity
  8
MODEL
100
AcDbLine
 10
618.9167634580422
 20
428.2548338576082
 30
0.0
 11
657.8787634580422
 21
428.2548344746342
 31
0.0
  0
LINE
  5
9DB5
102
{ACAD_REACTORS
330
9DE5
102
}
330
A
100
AcDbEntity
  8
MODEL
100
AcDbLine
 10
617.4427634493322
 20
428.8048216485004
 30
0.0
 11
659.3527634493325
 21
428.8048223122127
 31
0.0
  0
LINE
  5
9DB6
330
A
100
AcDbEntity
  8
MODEL
100
AcDbLine
 10
617.4427632680031
 20
440.254833834265
 30
0.0
 11
659.352763268003
 21
440.2548344979774
 31
0.0
  0
LINE
  5
9DB7
330
A
100
AcDbEntity
  8
MODEL
100
AcDbLine
 10
616.3927632513746
 20
441.3048338176365
 30
0.0
 11
660.4027632513744
 21
441.3048345146057
 31
0.0
  0
LINE
  5
9DB8
330
A
100
AcDbEntity
  8
MODEL
100
AcDbLine
 10
616.3927629484599
 20
460.4323338176366
 30
0.0
 11
610.6977629484597
 21
460.432333727447
 31
0.0
  0
LWPOLYLINE
  5
9DB9
330
A
100
AcDbEntity
  8
MODEL
100
AcDbPolyline
 90
       26
 70
     0
 43
0.0
 10
616.3927651997622
 20
460.4323395296672
 10
616.4202310200747
 20
460.3625153109172
 10
616.5006753560122
 20
460.1548737093547
 10
616.6290322896059
 20
459.814389090214
 10
616.7971841450747
 20
459.3485230013468
 10
616.9949380513247
 20
458.7661560579875
 10
617.2108193989809
 20
458.0768250033
 10
617.4320108052309
 20
457.2905090853312
 10
617.6453897114809
 20
456.4173248812297
 10
617.8378335591372
 20
455.4683197542765
 10
617.9962808247622
 20
454.4560669466593
 10
618.1095010396059
 20
453.395932058964
 10
618.1684610005434
 20
452.3053253695109
 10
618.1683999653872
 20
451.2043274447062
 10
618.1094400044497
 20
450.1137817904093
 10
617.9963418599184
 20
449.0535095736125
 10
617.8377725239809
 20
448.0413635775187
 10
617.6454507466372
 20
447.0924042269327
 10
617.4320718403872
 20
446.2193726107218
 10
617.2108193989809
 20
445.4329193636515
 10
616.9949380513247
 20
444.7434814974405
 10
616.7971841450747
 20
444.1611298128702
 10
616.6290933247622
 20
443.6953095003702
 10
616.5006753560122
 20
443.3547943636515
 10
616.4202310200747
 20
443.147168020878
 10
616.3928262349184
 20
443.0773743197062
  0
LINE
  5
9DBA
330
A
100
AcDbEntity
  8
MODEL
100
AcDbLine
 10
616.3928032234523
 20
443.0773338176372
 30
0.0
 11
610.697763223304
 21
443.0773337274471
 31
0.0
  0
ARC
  5
9DBB
330
A
100
AcDbEntity
  8
MODEL
100
AcDbCircle
 10
615.3927627317325
 20
474.1175488282952
 30
0.0
 40
0.9999999999999987
100
AcDbArc
 50
0.0000009075513808
 51
47.50064856788724
  0
LINE
  5
9DBC
330
A
100
AcDbEntity
  8
MODEL
100
AcDbLine
 10
616.3927632513746
 20
441.3048338176365
 30
0.0
 11
616.3927632233035
 21
443.0773753074754
 31
0.0
  0
LINE
  5
9DBD
330
A
100
AcDbEntity
  8
MODEL
100
AcDbLine
 10
616.3927629484599
 20
460.4323338176366
 30
0.0
 11
616.3927627317325
 21
474.1175488441318
 31
0.0
  0
LINE
  5
9DBE
330
A
100
AcDbEntity
  8
MODEL
100
AcDbLine
 10
617.4427632680031
 20
440.2548338342651
 30
0.0
 11
616.3927632513746
 21
441.3048338176365
 31
0.0
  0
LINE
  5
9DBF
102
{ACAD_REACTORS
330
9DE5
102
}
330
A
100
AcDbEntity
  8
MODEL
100
AcDbLine
 10
617.4427634493322
 20
428.8048216485004
 30
0.0
 11
617.4427632680029
 21
440.254833834265
 31
0.0
  0
LINE
  5
9DC0
330
A
100
AcDbEntity
  8
MODEL
100
AcDbLine
 10
618.9167634580422
 20
428.2548338576082
 30
0.0
 11
617.4427634493322
 21
428.8048216485004
 31
0.0
  0
LINE
  5
9DC1
330
A
100
AcDbEntity
  8
MODEL
100
AcDbLine
 10
669.8977627200563
 20
474.8548346649743
 30
0.0
 11
606.8977627200561
 21
474.8548336672677
 31
0.0
  0
LINE
  5
9DC2
102
{ACAD_REACTORS
330
9DE8
102
}
330
A
100
AcDbEntity
  8
MODEL
100
AcDbLine
 10
664.8795105765603
 20
480.3548345855022
 30
0.0
 11
611.9160146893496
 21
480.3548337467398
 31
0.0
  0
ARC
  5
9DC3
330
A
100
AcDbEntity
  8
MODEL
100
AcDbCircle
 10
664.8795106082334
 20
478.3548345855022
 30
0.0
 40
2.0
100
AcDbArc
 50
60.94539680814237
 51
90.00000090714752
  0
ARC
  5
9DC4
330
A
100
AcDbEntity
  8
MODEL
100
AcDbCircle
 10
611.916014721023
 20
478.3548337467398
 30
0.0
 40
2.0
100
AcDbArc
 50
90.00000090759698
 51
119.054605006594
  0
LINE
  5
9DC5
330
A
100
AcDbEntity
  8
MODEL
100
AcDbLine
 10
668.869048525853
 20
478.4263425029289
 30
0.0
 11
665.8507964429034
 21
480.1031491531271
 31
0.0
  0
LINE
  5
9DC6
330
A
100
AcDbEntity
  8
MODEL
100
AcDbLine
 10
607.926476801138
 20
478.426341537805
 30
0.0
 11
610.944728830978
 21
480.1031482836011
 31
0.0
  0
ARC
  5
9DC7
330
A
100
AcDbEntity
  8
MODEL
100
AcDbCircle
 10
667.8977626911831
 20
476.6780279353038
 30
0.0
 40
2.0
100
AcDbArc
 50
0.0000009073755089
 51
60.94539680814237
  0
ARC
  5
9DC8
330
A
100
AcDbEntity
  8
MODEL
100
AcDbCircle
 10
608.8977626911828
 20
476.678027000944
 30
0.0
 40
2.0
100
AcDbArc
 50
119.054605006594
 51
180.0000009073755
  0
LINE
  5
9DC9
330
A
100
AcDbEntity
  8
MODEL
100
AcDbLine
 10
669.8977627200563
 20
474.8548346649743
 30
0.0
 11
669.8977626911833
 21
476.6780279669772
 31
0.0
  0
LINE
  5
9DCA
330
A
100
AcDbEntity
  8
MODEL
100
AcDbLine
 10
606.8977627200561
 20
474.8548336672677
 30
0.0
 11
606.8977626911831
 21
476.6780269692706
 31
0.0
  0
LINE
  5
9DCB
330
A
100
AcDbEntity
  8
MODEL
100
AcDbLine
 10
669.8977622053665
 20
507.3548346649743
 30
0.0
 11
606.8977622053665
 21
507.3548336672677
 31
0.0
  0
LINE
  5
9DCC
330
A
100
AcDbEntity
  8
MODEL
100
AcDbLine
 10
669.8977622845496
 20
502.3548346649743
 30
0.0
 11
606.8977622845496
 21
502.3548336672677
 31
0.0
  0
LINE
  5
9DCD
330
A
100
AcDbEntity
  8
MODEL
100
AcDbLine
 10
669.8977622053662
 20
507.3548346649743
 30
0.0
 11
669.8977622845493
 21
502.3548346649743
 31
0.0
  0
LINE
  5
9DCE
330
A
100
AcDbEntity
  8
MODEL
100
AcDbLine
 10
606.8977622053665
 20
507.3548336672677
 30
0.0
 11
606.8977622845496
 21
502.3548336672677
 31
0.0
  0
ARC
  5
9DCF
330
A
100
AcDbEntity
  8
MODEL
100
AcDbCircle
 10
638.3977632095978
 20
443.9428149353639
 30
0.0
 40
76.3120192307573
100
AcDbArc
 50
90.00000090740807
 51
104.6530414313898
  0
LINE
  5
9DD0
330
A
100
AcDbEntity
  8
MODEL
100
AcDbLine
 10
618.8946198374128
 20
516.2548338572572
 30
0.0
 11
618.7275639627353
 21
517.2022547144386
 31
0.0
  0
ARC
  5
9DD1
330
A
100
AcDbEntity
  8
MODEL
100
AcDbCircle
 10
619.2199678378665
 20
517.2890788110699
 30
0.0
 40
0.4999999999999999
100
AcDbArc
 50
104.6530414313889
 51
190.0000009071379
  0
ARC
  5
9DD2
330
A
100
AcDbEntity
  8
MODEL
100
AcDbCircle
 10
657.5755562582169
 20
517.2890794184925
 30
0.0
 40
0.4999999999999972
100
AcDbArc
 50
350.0000009075776
 51
75.34696038335753
  0
LINE
  5
9DD3
330
A
100
AcDbEntity
  8
MODEL
100
AcDbLine
 10
640.062413334857
 20
520.2366758878411
 30
0.0
 11
636.7331106678664
 21
520.2366758351163
 31
0.0
  0
ARC
  5
9DD4
330
A
100
AcDbEntity
  8
MODEL
100
AcDbCircle
 10
638.397763209598
 20
443.9428149353639
 30
0.0
 40
76.3120192307573
100
AcDbArc
 50
75.34696038335221
 51
90.00000090733381
  0
LINE
  5
9DD5
330
A
100
AcDbEntity
  8
MODEL
100
AcDbLine
 10
657.9009042914286
 20
516.2548344749844
 30
0.0
 11
658.067960136098
 21
517.202255337457
 31
0.0
  0
LINE
  5
9DD6
330
A
100
AcDbEntity
  8
MODEL
100
AcDbLine
 10
633.4794292716751
 20
501.7548340762974
 30
0.0
 11
633.4794295408974
 21
484.7548340762974
 31
0.0
  0
LINE
  5
9DD7
330
A
100
AcDbEntity
  8
MODEL
100
AcDbLine
 10
643.3160956427837
 20
484.754834232077
 30
0.0
 11
643.3160953735614
 21
501.754834232077
 31
0.0
  0
LINE
  5
9DD8
330
A
100
AcDbEntity
  8
MODEL
100
AcDbLine
 10
637.4977628519616
 20
501.7548339188024
 30
0.0
 11
637.4977631211841
 21
484.7548339188024
 31
0.0
  0
LINE
  5
9DD9
330
A
100
AcDbEntity
  8
MODEL
100
AcDbLine
 10
639.2977628519616
 20
501.7548339473083
 30
0.0
 11
639.2977631211838
 21
484.7548339473083
 31
0.0
  0
ARC
  5
9DDA
330
A
100
AcDbEntity
  8
MODEL
100
AcDbCircle
 10
459.2578490684205
 20
595.9008081640625
 30
0.0
 40
9.999207294992527
100
AcDbArc
 50
39.99997958395693
 51
89.99997958383246
  0
LINE
  5
9DDB
330
A
100
AcDbEntity
  8
MODEL
100
AcDbLine
 10
459.2578526314112
 20
605.9000154590544
 30
0.0
 11
449.2578526314142
 21
605.9000153006884
 31
0.0
  0
LINE
  5
9DDC
330
A
100
AcDbEntity
  8
MODEL
100
AcDbLine
 10
449.2578526314144
 20
605.9000153006884
 30
0.0
 11
449.2578527105973
 21
600.9000153006884
 31
0.0
  0
LINE
  5
9DDD
330
A
100
AcDbEntity
  8
MODEL
100
AcDbLine
 10
459.2578527105943
 20
600.9000154590544
 30
0.0
 11
449.2578527105975
 21
600.9000153006884
 31
0.0
  0
ARC
  5
9DDE
330
A
100
AcDbEntity
  8
MODEL
100
AcDbCircle
 10
459.2578490684205
 20
595.9008081640625
 30
0.0
 40
4.999207294993206
100
AcDbArc
 50
39.99995825715293
 51
89.9999582570294
  0
LINE
  5
9DDF
330
A
100
AcDbEntity
  8
MODEL
100
AcDbLine
 10
467.279336335914
 20
594.1185579599778
 30
0.0
 11
463.0874663778909
 21
599.1142338814709
 31
0.0
  0
DIMENSION
  5
9DE0
102
{ACAD_REACTORS
330
9DE2
102
}
102
{ACAD_XDICTIONARY
360
9DE1
102
}
330
A
100
AcDbEntity
  8
DIM
390
1D
100
AcDbDimension
  2
*D9
 10
669.9027620734826
 20
548.7098915787437
 30
0.0
 11
638.3977620734826
 21
557.7117672821325
 31
0.0
 70
    32
 71
     5
 42
63.00999999999999
 73
     0
 74
     0
 75
     0
  3
tfrom線あり
100
AcDbAlignedDimension
 13
606.8927620734826
 23
515.6826208293505
 33
0.0
 14
669.9027620734826
 24
515.6826218272154
 34
0.0
100
AcDbRotatedDimension
1001
ACAD
1000
DSTYLE
1002
{
1070
     3
1000
%%c<>
1002
}
  0
DIMENSION
  5
9DE3
102
{ACAD_REACTORS
330
9DE5
102
}
102
{ACAD_XDICTIONARY
360
9DE4
102
}
330
A
100
AcDbEntity
  8
DIM
100
AcDbDimension
  2
*D10
 10
659.3527634493325
 20
386.782176941931
 30
0.0
 11
638.3977634493324
 21
386.782176941931
 31
0.0
 70
   160
  1
G1 1/4"
 71
     5
 42
41.91000000000031
 73
     0
 74
     0
 75
     0
  3
tfrom線あり
100
AcDbAlignedDimension
 13
617.4427634493322
 23
428.8048216485004
 33
0.0
 14
659.3527634493325
 24
428.8048223122127
 34
0.0
100
AcDbRotatedDimension
  0
DIMENSION
  5
9DE6
102
{ACAD_REACTORS
330
9DE8
102
}
102
{ACAD_XDICTIONARY
360
9DE7
102
}
330
A
100
AcDbEntity
  8
DIM
100
AcDbDimension
  2
*D11
 10
723.8145240190333
 20
516.2548346559913
 30
0.0
 11
723.8145240190333
 21
498.3048346207468
 31
0.0
 70
   160
  1
 
 71
     5
 42
35.90000007048911
 73
     0
 74
     0
 75
     0
  3
tfrom線あり
100
AcDbAlignedDimension
 13
664.8795105765603
 23
480.3548345855022
 33
0.0
 14
669.3305492265824
 24
516.2548346559913
 34
0.0
 50
90.0
100
AcDbRotatedDimension
  0
MTEXT
  5
9DE9
330
A
100
AcDbEntity
  8
DIM
390
1D
100
AcDbMText
 10
737.7303640190337
 20
481.272526893445
 30
0.0
 40
10.0
 41
0.0
 46
20.44
 71
     1
 72
     1
  1
{\pxsm1;Min 35\PMax 50}
  7
ＭＳ ゴシック
 11
6.123233995736766E-17
 21
1.0
 31
0.0
 73
     1
 44
0.7828267384257843
1001
ACAD
1000
ACAD_MTEXT_DEFINED_HEIGHT_BEGIN
1070
    46
1040
20.44
1000
ACAD_MTEXT_DEFINED_HEIGHT_END
  0
DIMENSION
  5
9DEA
330
A
100
AcDbEntity
  8
DIM
100
AcDbDimension
  2
*D12
 10
489.4745204338333
 20
230.9890068934449
 30
0.0
 11
563.9361464253858
 21
239.9908825968336
 31
0.0
 70
    32
  1
Max 180
 71
     5
 42
148.923251983105
 73
     0
 74
     0
 75
     0
  3
tfrom線あり
100
AcDbAlignedDimension
 13
638.3977724169383
 23
352.6056468934449
 33
0.0
 14
489.4745204338333
 24
276.8155668934449
 34
0.0
100
AcDbRotatedDimension
  0
DIMENSION
  5
9DF0
330
A
100
AcDbEntity
  8
DIM
100
AcDbDimension
  2
*D13
 10
690.1386085155975
 20
441.3048345146057
 30
0.0
 11
690.1386085155975
 21
458.9157667391899
 31
0.0
 70
   160
  1
10
 71
     5
 42
13.0500001425865
 73
     0
 74
     1
 75
     1
  3
tfrom線あり
100
AcDbAlignedDimension
 13
657.8737637034915
 23
428.2548343720192
 33
0.0
 14
660.4027632513744
 24
441.3048345146057
 34
0.0
 50
90.0
100
AcDbRotatedDimension
1001
ACAD
1000
DSTYLE
1002
{
1070
   172
1070
     1
1002
}
  0
DIMENSION
  5
9DF1
330
A
100
AcDbEntity
  8
DIM
100
AcDbDimension
  2
*D14
 10
723.8145240190333
 20
480.3548345855022
 30
0.0
 11
714.8126483156445
 21
454.3048344787607
 31
0.0
 70
    32
  1
45
 71
     5
 42
52.10000021348299
 73
     0
 74
     0
 75
     0
  3
tfrom線あり
100
AcDbAlignedDimension
 13
664.533528631081
 23
428.2548343720192
 33
0.0
 14
681.5799519291959
 24
480.3548345855022
 34
0.0
 50
90.0
100
AcDbRotatedDimension
  0
INSERT
  5
A3DE
330
A
100
AcDbEntity
  8
TEMPLATE
  6
Continuous
100
AcDbBlockReference
  2
名称未設定-1
 10
2683.378621634895
 20
1.516795892725419
 30
0.0
 41
0.3809999999999999
 42
0.3809999999999999
 43
0.3809999999999999
  0
VIEWPORT
  5
349
330
B
100
AcDbEntity
 67
     1
  8
0
100
AcDbViewport
 10
202.5
 20
128.5
 30
0.0
 40
486.0
 41
308.4
 68
     1
 69
     1
 12
202.5
 22
128.5
 13
0.0
 23
0.0
 14
0.5
 24
0.5
 15
0.0
 25
0.0
 16
0.0
 26
0.0
 36
1.0
 17
0.0
 27
0.0
 37
0.0
 42
50.0
 43
0.0
 44
0.0
 45
308.4
 50
0.0
 51
0.0
 72
   100
 90
   557152
  1

281
     0
 71
     1
 74
     0
110
0.0
120
0.0
130
0.0
111
1.0
121
0.0
131
0.0
112
0.0
122
1.0
132
0.0
 79
     0
146
0.0
170
     0
 61
     5
348
26C
292
     1
282
     1
141
0.0
142
0.0
 63
   256
  0
VIEWPORT
  5
34A
330
B
100
AcDbEntity
 67
     1
  8
0
100
AcDbViewport
 10
202.5
 20
128.5
 30
0.0
 40
324.0
 41
205.6
 68
     2
 69
     2
 12
986.6781359294573
 22
1427.077061889956
 13
0.0
 23
0.0
 14
0.5
 24
0.5
 15
0.0
 25
0.0
 16
0.0
 26
0.0
 36
1.0
 17
0.0
 27
0.0
 37
0.0
 42
50.0
 43
0.0
 44
0.0
 45
2890.021615685494
 50
0.0
 51
0.0
 72
   100
 90
   557152
  1

281
     0
 71
     1
 74
     0
110
0.0
120
0.0
130
0.0
111
1.0
121
0.0
131
0.0
112
0.0
122
1.0
132
0.0
 79
     0
146
0.0
170
     0
 61
     5
348
26C
292
     1
282
     1
141
0.0
142
0.0
 63
   256
  0
ENDSEC
  0
SECTION
  2
OBJECTS
  0
DICTIONARY
  5
19
330
0
100
AcDbDictionary
281
     1
  3
ACAD_COLOR
350
674
  3
ACAD_DETAILVIEWSTYLE
350
BBF
  3
ACAD_FIELDLIST
350
3BE4
  3
ACAD_GROUP
350
1A
  3
ACAD_IMAGE_VARS
350
27B
  3
ACAD_LAYOUT
350
1E
  3
ACAD_MATERIAL
350
263
  3
ACAD_MLEADERSTYLE
350
336
  3
ACAD_MLINESTYLE
350
1B
  3
ACAD_PLOTSETTINGS
350
22
  3
ACAD_PLOTSTYLENAME
350
1F
  3
ACAD_SCALELIST
350
241
  3
ACAD_SECTIONVIEWSTYLE
350
BC0
  3
ACAD_TABLESTYLE
350
278
  3
ACAD_VISUALSTYLE
350
267
  3
ACDB_RECOMPOSE_DATA
350
A92B
  3
AcDbVariableDictionary
350
330
  3
APPDATA
350
27A
  3
DimOffsetDictionary
350
E38
  0
SUN
  5
904
330
15
100
AcDbSun
 90
        1
290
     0
 63
     7
421
 16777215
 40
1.0
291
     1
 91
  2455826
 92
 54000000
292
     0
 70
     2
 71
   256
280
     1
  0
DICTIONARY
  5
2E1
330
2
100
AcDbDictionary
280
     1
281
     1
  3
ACAD_LAYERSTATES
360
2E2
  3
ACLYDICTIONARY
360
DDE
  0
DICTIONARY
  5
3E3E
330
A
100
AcDbDictionary
280
     1
281
     1
  3
ACAD_SORTENTS
360
3E3F
  0
DICTIONARY
  5
3DB8
330
3DB7
100
AcDbDictionary
280
     1
281
     1
  3
ACAD_FIELD
360
A8E2
  0
DICTIONARY
  5
9CF1
330
9CF0
100
AcDbDictionary
280
     1
281
     1
  3
ACAD_DIMASSOC
360
9CF2
  0
DICTIONARY
  5
9CF4
330
9CF3
100
AcDbDictionary
280
     1
281
     1
  3
ACAD_DIMASSOC
360
9CF5
  0
DICTIONARY
  5
9CFF
330
9CFE
100
AcDbDictionary
280
     1
281
     1
  3
ACAD_DIMASSOC
360
9D00
  0
DICTIONARY
  5
9DE1
330
9DE0
100
AcDbDictionary
280
     1
281
     1
  3
ACAD_DIMASSOC
360
9DE2
  0
DICTIONARY
  5
9DE4
330
9DE3
100
AcDbDictionary
280
     1
281
     1
  3
ACAD_DIMASSOC
360
9DE5
  0
DICTIONARY
  5
9DE7
330
9DE6
100
AcDbDictionary
280
     1
281
     1
  3
ACAD_DIMASSOC
360
9DE8
  0
DICTIONARY
  5
674
102
{ACAD_REACTORS
330
19
102
}
330
19
100
AcDbDictionary
281
     1
  0
DICTIONARY
  5
BBF
102
{ACAD_REACTORS
330
19
102
}
330
19
100
AcDbDictionary
281
     1
  0
FIELDLIST
  5
3BE4
102
{ACAD_REACTORS
330
19
102
}
330
19
100
AcDbIdSet
 90
        2
330
3DBB
330
3DBA
100
AcDbFieldList
  0
DICTIONARY
  5
1A
102
{ACAD_REACTORS
330
19
102
}
330
19
100
AcDbDictionary
281
     1
  3
*A1
350
3CF4
  0
RASTERVARIABLES
  5
27B
102
{ACAD_REACTORS
330
19
102
}
330
19
100
AcDbRasterVariables
 90
        0
 70
     1
 71
     1
 72
     1
  0
DICTIONARY
  5
1E
102
{ACAD_REACTORS
330
19
102
}
330
19
100
AcDbDictionary
281
     1
  3
Layout1
350
21
  3
Model
350
20
  0
DICTIONARY
  5
263
102
{ACAD_REACTORS
330
19
102
}
330
19
100
AcDbDictionary
281
     1
  3
ByBlock
350
265
  3
ByLayer
350
264
  3
Global
350
266
  0
DICTIONARY
  5
336
102
{ACAD_REACTORS
330
19
102
}
330
19
100
AcDbDictionary
281
     1
  3
Standard
350
D59
  0
DICTIONARY
  5
1B
102
{ACAD_REACTORS
330
19
102
}
330
19
100
AcDbDictionary
281
     1
  3
Standard
350
1C
  0
DICTIONARY
  5
22
102
{ACAD_REACTORS
330
19
102
}
330
19
100
AcDbDictionary
281
     1
  0
ACDBDICTIONARYWDFLT
  5
1F
102
{ACAD_REACTORS
330
19
102
}
330
19
100
AcDbDictionary
281
     1
  3
Normal
350
1D
100
AcDbDictionaryWithDefault
340
1D
  0
DICTIONARY
  5
241
102
{ACAD_REACTORS
330
19
102
}
330
19
100
AcDbDictionary
281
     1
  3
A0
350
242
  3
A1
350
243
  3
A2
350
244
  3
A3
350
245
  3
A4
350
246
  3
A5
350
247
  3
A6
350
248
  3
A7
350
249
  3
A8
350
24A
  3
A9
350
24B
  3
B0
350
24C
  3
B1
350
24D
  3
B2
350
24E
  3
B3
350
24F
  3
B4
350
250
  3
B5
350
251
  3
B6
350
252
  3
B7
350
253
  3
B8
350
254
  3
B9
350
255
  3
C0
350
256
  3
C1
350
257
  3
C2
350
258
  3
C3
350
259
  3
C4
350
25A
  3
C5
350
25B
  3
C6
350
25C
  3
C7
350
25D
  3
C8
350
25E
  3
C9
350
25F
  3
D0
350
260
  3
D1
350
261
  3
D2
350
262
  0
DICTIONARY
  5
BC0
102
{ACAD_REACTORS
330
19
102
}
330
19
100
AcDbDictionary
281
     1
  0
DICTIONARY
  5
278
102
{ACAD_REACTORS
330
19
102
}
330
19
100
AcDbDictionary
281
     1
  3
Standard
350
279
  0
DICTIONARY
  5
267
102
{ACAD_REACTORS
330
19
102
}
330
19
100
AcDbDictionary
281
     1
  3
2dWireframe
350
26C
  3
3D Hidden
350
26E
  3
3dWireframe
350
26D
  3
Basic
350
26F
  3
Brighten
350
273
  3
ColorChange
350
277
  3
Conceptual
350
271
  3
Dim
350
272
  3
EdgeColorOff
350
8FE
  3
Facepattern
350
276
  3
Flat
350
268
  3
FlatWithEdges
350
269
  3
Gouraud
350
26A
  3
GouraudWithEdges
350
26B
  3
Hidden
350
8FB
  3
JitterOff
350
8FC
  3
Linepattern
350
275
  3
OverhangOff
350
8FD
  3
Realistic
350
270
  3
Shaded
350
903
  3
Shaded with edges
350
902
  3
Shades of Gray
350
8FF
  3
Sketchy
350
900
  3
Thicken
350
274
  3
Wireframe
350
8FA
  3
X-Ray
350
901
  0
XRECORD
  5
A92B
102
{ACAD_REACTORS
330
19
102
}
330
19
100
AcDbXrecord
280
     1
 90
        1
330
279
  0
DICTIONARY
  5
330
102
{ACAD_REACTORS
330
19
102
}
330
19
100
AcDbDictionary
281
     1
  3
CANNOSCALE
350
331
  3
CMLEADERSTYLE
350
D5E
  3
CTABLESTYLE
350
335
  3
HPTRANSPARENCY
350
D52
  3
XCLIPFRAME
350
896
  0
DICTIONARY
  5
27A
102
{ACAD_REACTORS
330
19
102
}
330
19
100
AcDbDictionary
281
     1
  0
DICTIONARY
  5
E38
102
{ACAD_REACTORS
330
19
102
}
330
19
100
AcDbDictionary
281
     1
  3
DIMRAILANGLE
350
246C
  3
DIMRAILFIRSTOFFSET
350
246A
  3
DIMRAILOFFSET
350
246B
  3
DIMRAILSENABLED
350
246D
  0
DICTIONARY
  5
2E2
102
{ACAD_REACTORS
330
2E1
102
}
330
2E1
100
AcDbDictionary
281
     1
  0
DICTIONARY
  5
DDE
102
{ACAD_REACTORS
330
2E1
102
}
330
2E1
100
AcDbDictionary
281
     1
1001
ACAD
1000
<All
  0
SORTENTSTABLE
  5
3E3F
102
{ACAD_REACTORS
330
3E3E
102
}
330
3E3E
100
AcDbSortentsTable
330
A
331
0
  5
3C4A
331
3CE3
  5
3C4B
331
3CE4
  5
3CE2
331
3CEF
  5
3CE3
331
3CF0
  5
3CE4
331
3CF1
  5
3CEF
331
3CF2
  5
3CF0
331
3CF3
  5
3CF1
331
3D12
  5
3CF3
331
3DB7
  5
3D2F
  0
DICTIONARY
  5
A8E2
102
{ACAD_REACTORS
330
3DB8
102
}
330
3DB8
100
AcDbDictionary
280
     1
281
     1
  3
TEXT
360
3DBA
  0
DIMASSOC
  5
9CF2
102
{ACAD_REACTORS
330
9CF1
102
}
330
9CF1
100
AcDbDimAssoc
330
9CF0
 90
        7
 70
     0
 71
     1
  1
AcDbOsnapPointRef
 72
    13
331
9CE6
 73
     0
 91
        0
 40
0.0
 10
0.0
 20
0.0
 30
0.0
 75
     0
  1
AcDbOsnapPointRef
 72
     1
331
9CE6
 73
     0
 91
        0
 40
0.0
 10
0.0
 20
0.0
 30
0.0
 75
     0
  1
AcDbOsnapPointRef
 72
    13
331
9CE5
 73
     0
 91
        0
 40
0.0
 10
0.0
 20
0.0
 30
0.0
 75
     0
  0
DIMASSOC
  5
9CF5
102
{ACAD_REACTORS
330
9CF4
102
}
330
9CF4
100
AcDbDimAssoc
330
9CF3
 90
        1
 70
     0
 71
     1
  1
AcDbOsnapPointRef
 72
    13
331
9A98
 73
     0
 91
        0
 40
0.0
 10
0.0
 20
0.0
 30
0.0
 75
     0
  0
DIMASSOC
  5
9D00
102
{ACAD_REACTORS
330
9CFF
102
}
330
9CFF
100
AcDbDimAssoc
330
9CFE
 90
        2
 70
     0
 71
     1
  1
AcDbOsnapPointRef
 72
     8
331
9A98
 73
     0
 91
        0
 40
0.9446639735235965
 10
0.0
 20
0.0
 30
0.0
 75
     1
  1
AcDbOsnapPointRef
 72
     1
331
9B09
 73
     0
 91
        0
 40
0.0
 10
0.0
 20
0.0
 30
0.0
 75
     0
  0
DIMASSOC
  5
9DE2
102
{ACAD_REACTORS
330
9DE1
102
}
330
9DE1
100
AcDbDimAssoc
330
9DE0
 90
        3
 70
     0
 71
     1
  1
AcDbOsnapPointRef
 72
     1
331
9DA1
 73
     0
 91
        0
 40
0.0
 10
0.0
 20
0.0
 30
0.0
 75
     0
  1
AcDbOsnapPointRef
 72
    13
331
9DA0
 73
     0
 91
        0
 40
0.0
 10
0.0
 20
0.0
 30
0.0
 75
     0
  0
DIMASSOC
  5
9DE5
102
{ACAD_REACTORS
330
9DE4
102
}
330
9DE4
100
AcDbDimAssoc
330
9DE3
 90
        3
 70
     0
 71
     1
  1
AcDbOsnapPointRef
 72
    13
331
9DBF
 73
     0
 91
        0
 40
0.0
 10
0.0
 20
0.0
 30
0.0
 75
     0
  1
AcDbOsnapPointRef
 72
     1
331
9DB5
 73
     0
 91
        0
 40
0.0
 10
0.0
 20
0.0
 30
0.0
 75
     0
  0
DIMASSOC
  5
9DE8
102
{ACAD_REACTORS
330
9DE7
102
}
330
9DE7
100
AcDbDimAssoc
330
9DE6
 90
        3
 70
     0
 71
     1
  1
AcDbOsnapPointRef
 72
    13
331
9DC2
 73
     0
 91
        0
 40
0.0
 10
0.0
 20
0.0
 30
0.0
 75
     0
  1
AcDbOsnapPointRef
 72
     1
331
9D8C
 73
     0
 91
        0
 40
0.0
 10
0.0
 20
0.0
 30
0.0
 75
     0
  0
GROUP
  5
3CF4
102
{ACAD_REACTORS
330
1A
102
}
330
1A
100
AcDbGroup
300

 70
     1
 71
     1
340
3CE3
340
3CE4
340
3CEF
340
3CF0
340
3CF1
340
3CF2
340
3CF3
  0
LAYOUT
  5
21
102
{ACAD_REACTORS
330
1E
102
}
330
1E
100
AcDbPlotSettings
  1

  2
none_device
  4
ISO_A3_(420.00_x_297.00_MM)
  6

 40
7.5
 41
20.0
 42
7.5
 43
20.0
 44
420.0
 45
297.0
 46
0.0
 47
0.0
 48
0.0
 49
0.0
140
0.0
141
0.0
142
1.0
143
1.0
 70
     0
 72
     1
 73
     0
 74
     0
  7

 75
     0
 76
     0
 77
     2
 78
   300
147
1.0
148
0.0
149
0.0
100
AcDbLayout
  1
Layout1
 70
     0
 71
     0
 10
-7.5
 20
-20.0
 11
412.5
 21
277.0
 12
0.0
 22
0.0
 32
0.0
 14
0.0
 24
0.0
 34
0.0
 15
0.0
 25
0.0
 35
0.0
146
0.0
 13
0.0
 23
0.0
 33
0.0
 16
0.0
 26
0.0
 36
0.0
 17
0.0
 27
0.0
 37
0.0
 76
     0
330
B
331
349
  0
LAYOUT
  5
20
102
{ACAD_REACTORS
330
1E
102
}
330
1E
100
AcDbPlotSettings
  1

  2
none_device
  4
ISO_A3_(420.00_x_297.00_MM)
  6

 40
7.5
 41
20.0
 42
7.5
 43
20.0
 44
420.0
 45
297.0
 46
0.0
 47
0.0
 48
0.0
 49
0.0
140
0.0
141
0.0
142
1.0
143
1.0
 70
  1024
 72
     1
 73
     0
 74
     0
  7

 75
     0
 76
     0
 77
     2
 78
   300
147
1.0
148
0.0
149
0.0
100
AcDbLayout
  1
Model
 70
     0
 71
     1
 10
0.0
 20
0.0
 11
840.0
 21
1188.0
 12
0.0
 22
0.0
 32
0.0
 14
0.0
 24
0.0
 34
-0.0000000000000071
 15
840.0
 25
1188.0
 35
0.0000000000000071
146
0.0
 13
0.0
 23
0.0
 33
0.0
 16
0.0
 26
0.0
 36
0.0
 17
0.0
 27
0.0
 37
0.0
 76
     0
330
A
331
15
  0
MATERIAL
  5
265
102
{ACAD_REACTORS
330
263
102
}
330
263
100
AcDbMaterial
  1
ByBlock
 72
     1
 94
      127
  0
MATERIAL
  5
264
102
{ACAD_REACTORS
330
263
102
}
330
263
100
AcDbMaterial
  1
ByLayer
 72
     1
 94
      127
  0
MATERIAL
  5
266
102
{ACAD_REACTORS
330
263
102
}
330
263
100
AcDbMaterial
  1
Global
 72
     1
 94
      127
  0
MLEADERSTYLE
  5
D59
102
{ACAD_REACTORS
330
336
102
}
330
336
100
AcDbMLeaderStyle
170
     2
171
     1
172
     0
 90
        2
 40
0.0
 41
0.0
173
     1
 91
-1056964608
340
11
 92
       -2
290
     1
 42
2.0
291
     1
 43
8.0
  3
Standard
341
0
 44
4.0
300

342
17
174
     1
178
     6
175
     1
176
     0
 93
-1056964608
 45
4.0
292
     0
297
     0
 46
4.0
343
0
 94
-1056964608
 47
1.0
 49
1.0
140
1.0
293
     1
141
0.0
294
     1
177
     0
142
1.0
295
     0
296
     0
143
3.75
1001
ACAD_MLEADERVER
1070
     2
  0
MLINESTYLE
  5
1C
102
{ACAD_REACTORS
330
1B
102
}
330
1B
100
AcDbMlineStyle
  2
Standard
 70
     0
  3

 62
     0
 51
90.0
 52
90.0
 71
     2
 49
0.5
 62
   256
  6
BYLAYER
 49
-0.5
 62
   256
  6
BYLAYER
  0
ACDBPLACEHOLDER
  5
1D
102
{ACAD_REACTORS
330
1F
102
}
330
1F
  0
SCALE
  5
242
102
{ACAD_REACTORS
330
241
102
}
330
241
100
AcDbScale
 70
     0
300
1:1
140
1.0
141
1.0
290
     1
  0
SCALE
  5
243
102
{ACAD_REACTORS
330
241
102
}
330
241
100
AcDbScale
 70
     0
300
1:2
140
1.0
141
2.0
290
     0
  0
SCALE
  5
244
102
{ACAD_REACTORS
330
241
102
}
330
241
100
AcDbScale
 70
     0
300
1:4
140
1.0
141
4.0
290
     0
  0
SCALE
  5
245
102
{ACAD_REACTORS
330
241
102
}
330
241
100
AcDbScale
 70
     0
300
1:5
140
1.0
141
5.0
290
     0
  0
SCALE
  5
246
102
{ACAD_REACTORS
330
241
102
}
330
241
100
AcDbScale
 70
     0
300
1:8
140
1.0
141
8.0
290
     0
  0
SCALE
  5
247
102
{ACAD_REACTORS
330
241
102
}
330
241
100
AcDbScale
 70
     0
300
1:10
140
1.0
141
10.0
290
     0
  0
SCALE
  5
248
102
{ACAD_REACTORS
330
241
102
}
330
241
100
AcDbScale
 70
     0
300
1:16
140
1.0
141
16.0
290
     0
  0
SCALE
  5
249
102
{ACAD_REACTORS
330
241
102
}
330
241
100
AcDbScale
 70
     0
300
1:20
140
1.0
141
20.0
290
     0
  0
SCALE
  5
24A
102
{ACAD_REACTORS
330
241
102
}
330
241
100
AcDbScale
 70
     0
300
1:30
140
1.0
141
30.0
290
     0
  0
SCALE
  5
24B
102
{ACAD_REACTORS
330
241
102
}
330
241
100
AcDbScale
 70
     0
300
1:40
140
1.0
141
40.0
290
     0
  0
SCALE
  5
24C
102
{ACAD_REACTORS
330
241
102
}
330
241
100
AcDbScale
 70
     0
300
1:50
140
1.0
141
50.0
290
     0
  0
SCALE
  5
24D
102
{ACAD_REACTORS
330
241
102
}
330
241
100
AcDbScale
 70
     0
300
1:100
140
1.0
141
100.0
290
     0
  0
SCALE
  5
24E
102
{ACAD_REACTORS
330
241
102
}
330
241
100
AcDbScale
 70
     0
300
2:1
140
2.0
141
1.0
290
     0
  0
SCALE
  5
24F
102
{ACAD_REACTORS
330
241
102
}
330
241
100
AcDbScale
 70
     0
300
4:1
140
4.0
141
1.0
290
     0
  0
SCALE
  5
250
102
{ACAD_REACTORS
330
241
102
}
330
241
100
AcDbScale
 70
     0
300
8:1
140
8.0
141
1.0
290
     0
  0
SCALE
  5
251
102
{ACAD_REACTORS
330
241
102
}
330
241
100
AcDbScale
 70
     0
300
10:1
140
10.0
141
1.0
290
     0
  0
SCALE
  5
252
102
{ACAD_REACTORS
330
241
102
}
330
241
100
AcDbScale
 70
     0
300
100:1
140
100.0
141
1.0
290
     0
  0
SCALE
  5
253
102
{ACAD_REACTORS
330
241
102
}
330
241
100
AcDbScale
 70
     0
300
1/128" = 1'-0"
140
0.0078125
141
12.0
290
     0
  0
SCALE
  5
254
102
{ACAD_REACTORS
330
241
102
}
330
241
100
AcDbScale
 70
     0
300
1/64" = 1'-0"
140
0.015625
141
12.0
290
     0
  0
SCALE
  5
255
102
{ACAD_REACTORS
330
241
102
}
330
241
100
AcDbScale
 70
     0
300
1/32" = 1'-0"
140
0.03125
141
12.0
290
     0
  0
SCALE
  5
256
102
{ACAD_REACTORS
330
241
102
}
330
241
100
AcDbScale
 70
     0
300
1/16" = 1'-0"
140
0.0625
141
12.0
290
     0
  0
SCALE
  5
257
102
{ACAD_REACTORS
330
241
102
}
330
241
100
AcDbScale
 70
     0
300
3/32" = 1'-0"
140
0.09375
141
12.0
290
     0
  0
SCALE
  5
258
102
{ACAD_REACTORS
330
241
102
}
330
241
100
AcDbScale
 70
     0
300
1/8" = 1'-0"
140
0.125
141
12.0
290
     0
  0
SCALE
  5
259
102
{ACAD_REACTORS
330
241
102
}
330
241
100
AcDbScale
 70
     0
300
3/16" = 1'-0"
140
0.1875
141
12.0
290
     0
  0
SCALE
  5
25A
102
{ACAD_REACTORS
330
241
102
}
330
241
100
AcDbScale
 70
     0
300
1/4" = 1'-0"
140
0.25
141
12.0
290
     0
  0
SCALE
  5
25B
102
{ACAD_REACTORS
330
241
102
}
330
241
100
AcDbScale
 70
     0
300
3/8" = 1'-0"
140
0.375
141
12.0
290
     0
  0
SCALE
  5
25C
102
{ACAD_REACTORS
330
241
102
}
330
241
100
AcDbScale
 70
     0
300
1/2" = 1'-0"
140
0.5
141
12.0
290
     0
  0
SCALE
  5
25D
102
{ACAD_REACTORS
330
241
102
}
330
241
100
AcDbScale
 70
     0
300
3/4" = 1'-0"
140
0.75
141
12.0
290
     0
  0
SCALE
  5
25E
102
{ACAD_REACTORS
330
241
102
}
330
241
100
AcDbScale
 70
     0
300
1" = 1'-0"
140
1.0
141
12.0
290
     0
  0
SCALE
  5
25F
102
{ACAD_REACTORS
330
241
102
}
330
241
100
AcDbScale
 70
     0
300
1-1/2" = 1'-0"
140
1.5
141
12.0
290
     0
  0
SCALE
  5
260
102
{ACAD_REACTORS
330
241
102
}
330
241
100
AcDbScale
 70
     0
300
3" = 1'-0"
140
3.0
141
12.0
290
     0
  0
SCALE
  5
261
102
{ACAD_REACTORS
330
241
102
}
330
241
100
AcDbScale
 70
     0
300
6" = 1'-0"
140
6.0
141
12.0
290
     0
  0
SCALE
  5
262
102
{ACAD_REACTORS
330
241
102
}
330
241
100
AcDbScale
 70
     0
300
1'-0" = 1'-0"
140
12.0
141
12.0
290
     0
  0
TABLESTYLE
  5
279
102
{ACAD_REACTORS
330
278
102
}
102
{ACAD_XDICTIONARY
360
A929
102
}
330
278
100
AcDbTableStyle
  3
Standard
 70
     0
 71
     0
 40
0.06
 41
0.06
280
     0
281
     0
  7
Standard
140
4.5
170
     2
 62
     0
 63
   257
283
     0
 90
        4
 91
        0
  1

274
    -2
284
     1
 64
     0
275
    -2
285
     1
 65
     0
276
    -2
286
     1
 66
     0
277
    -2
287
     1
 67
     0
278
    -2
288
     1
 68
     0
279
    -2
289
     1
 69
     0
  7
Standard
140
6.0
170
     5
 62
     0
 63
   257
283
     0
 90
        4
 91
        0
  1

274
    -2
284
     1
 64
     0
275
    -2
285
     1
 65
     0
276
    -2
286
     1
 66
     0
277
    -2
287
     1
 67
     0
278
    -2
288
     1
 68
     0
279
    -2
289
     1
 69
     0
  7
Standard
140
4.5
170
     5
 62
     0
 63
   257
283
     0
 90
        4
 91
        0
  1

274
    -2
284
     1
 64
     0
275
    -2
285
     1
 65
     0
276
    -2
286
     1
 66
     0
277
    -2
287
     1
 67
     0
278
    -2
288
     1
 68
     0
279
    -2
289
     1
 69
     0
  0
VISUALSTYLE
  5
26C
102
{ACAD_REACTORS
330
267
102
}
330
267
100
AcDbVisualStyle
  2
2dWireframe
 70
     4
 71
     0
 72
     2
 73
     0
 90
        0
 40
-0.6
 41
-30.0
 62
     5
 63
     7
421
 16777215
 74
     1
 91
        4
 64
     7
 65
   257
 75
     1
175
     1
 42
1.0
 92
        0
 66
   257
 43
1.0
 76
     1
 77
     6
 78
     2
 67
     7
 79
     5
170
     0
171
     0
290
     0
174
     0
 93
        1
 44
0.0
173
     0
291
     0
 45
0.0
  0
VISUALSTYLE
  5
26E
102
{ACAD_REACTORS
330
267
102
}
330
267
100
AcDbVisualStyle
  2
3D Hidden
 70
     6
 71
     1
 72
     2
 73
     2
 90
        0
 40
-0.6
 41
-30.0
 62
     5
 63
     7
421
 16777215
 74
     2
 91
        2
 64
     7
 65
   257
 75
     2
175
     1
 42
40.0
 92
        0
 66
   257
 43
1.0
 76
     1
 77
     6
 78
     2
 67
     7
 79
     3
170
     0
171
     0
290
     0
174
     0
 93
        1
 44
0.0
173
     0
291
     0
 45
0.0
  0
VISUALSTYLE
  5
26D
102
{ACAD_REACTORS
330
267
102
}
330
267
100
AcDbVisualStyle
  2
3dWireframe
 70
     5
 71
     0
 72
     2
 73
     0
 90
        0
 40
-0.6
 41
-30.0
 62
     5
 63
     7
421
 16777215
 74
     1
 91
        4
 64
     7
 65
   257
 75
     1
175
     1
 42
1.0
 92
        0
 66
   257
 43
1.0
 76
     1
 77
     6
 78
     2
 67
     7
 79
     5
170
     0
171
     0
290
     0
174
     0
 93
        1
 44
0.0
173
     0
291
     0
 45
0.0
  0
VISUALSTYLE
  5
26F
102
{ACAD_REACTORS
330
267
102
}
330
267
100
AcDbVisualStyle
  2
Basic
 70
     7
 71
     1
 72
     0
 73
     1
 90
        0
 40
-0.6
 41
-30.0
 62
     5
 63
     7
421
 16777215
 74
     0
 91
        4
 64
     7
 65
   257
 75
     1
175
     1
 42
1.0
 92
        8
 66
     7
 43
1.0
 76
     1
 77
     6
 78
     2
 67
     7
 79
     5
170
     0
171
     0
290
     0
174
     0
 93
        1
 44
0.0
173
     0
291
     1
 45
0.0
  0
VISUALSTYLE
  5
273
102
{ACAD_REACTORS
330
267
102
}
330
267
100
AcDbVisualStyle
  2
Brighten
 70
    12
 71
     2
 72
     2
 73
     0
 90
        0
 40
-0.6
 41
-30.0
 62
     5
 63
     7
421
 16777215
 74
     1
 91
        4
 64
     7
 65
   257
 75
     1
175
     1
 42
1.0
 92
        8
 66
     7
 43
1.0
 76
     1
 77
     6
 78
     2
 67
     7
 79
     5
170
     0
171
     0
290
     0
174
     0
 93
        1
 44
50.0
173
     0
291
     1
 45
0.0
  0
VISUALSTYLE
  5
277
102
{ACAD_REACTORS
330
267
102
}
330
267
100
AcDbVisualStyle
  2
ColorChange
 70
    16
 71
     2
 72
     2
 73
     3
 90
        0
 40
-0.6
 41
-30.0
 62
     5
 63
     8
421
  8421504
 74
     1
 91
        4
 64
     7
 65
   257
 75
     1
175
     1
 42
1.0
 92
        8
 66
     8
424
  8421504
 43
1.0
 76
     1
 77
     6
 78
     2
 67
     7
 79
     5
170
     0
171
     0
290
     0
174
     0
 93
        1
 44
0.0
173
     0
291
     1
 45
0.0
  0
VISUALSTYLE
  5
271
102
{ACAD_REACTORS
330
267
102
}
330
267
100
AcDbVisualStyle
  2
Conceptual
 70
     9
 71
     3
 72
     2
 73
     0
 90
        0
 40
-0.6
 41
-30.0
 62
     5
 63
     7
421
 16777215
 74
     2
 91
        2
 64
     7
 65
   257
 75
     1
175
     1
 42
40.0
 92
        8
 66
     7
 43
1.0
 76
     1
 77
     6
 78
     2
 67
     7
 79
     3
170
     0
171
     0
290
     0
174
     0
 93
        1
 44
0.0
173
     0
291
     0
 45
0.0
  0
VISUALSTYLE
  5
272
102
{ACAD_REACTORS
330
267
102
}
330
267
100
AcDbVisualStyle
  2
Dim
 70
    11
 71
     2
 72
     2
 73
     0
 90
        0
 40
-0.6
 41
-30.0
 62
     5
 63
     7
421
 16777215
 74
     1
 91
        4
 64
     7
 65
   257
 75
     1
175
     1
 42
1.0
 92
        8
 66
     7
 43
1.0
 76
     1
 77
     6
 78
     2
 67
     7
 79
     5
170
     0
171
     0
290
     0
174
     0
 93
        1
 44
-50.0
173
     0
291
     1
 45
0.0
  0
VISUALSTYLE
  5
8FE
102
{ACAD_REACTORS
330
267
102
}
330
267
100
AcDbVisualStyle
  2
EdgeColorOff
 70
    22
 71
     2
 72
     2
 73
     0
 90
        0
 40
0.6
 41
30.0
 62
     5
 63
     7
421
 16777215
 74
     1
 91
        4
 64
     7
 65
   257
 75
     1
175
     1
 42
1.0
 92
        8
 66
     7
 43
1.0
 76
     1
 77
     6
 78
     2
 67
     7
 79
     5
170
     0
171
     0
290
     0
174
     0
 93
        1
 44
0.0
173
     0
291
     1
 45
0.0
  0
VISUALSTYLE
  5
276
102
{ACAD_REACTORS
330
267
102
}
330
267
100
AcDbVisualStyle
  2
Facepattern
 70
    15
 71
     2
 72
     2
 73
     0
 90
        0
 40
-0.6
 41
-30.0
 62
     5
 63
     7
421
 16777215
 74
     1
 91
        4
 64
     7
 65
   257
 75
     1
175
     1
 42
1.0
 92
        8
 66
     7
 43
1.0
 76
     1
 77
     6
 78
     2
 67
     7
 79
     5
170
     0
171
     0
290
     0
174
     0
 93
        1
 44
0.0
173
     0
291
     1
 45
0.0
  0
VISUALSTYLE
  5
268
102
{ACAD_REACTORS
330
267
102
}
330
267
100
AcDbVisualStyle
  2
Flat
 70
     0
 71
     2
 72
     1
 73
     1
 90
        2
 40
-0.6
 41
30.0
 62
     5
 63
     7
421
 16777215
 74
     0
 91
        4
 64
     7
 65
   257
 75
     1
175
     1
 42
1.0
 92
        8
 66
     7
 43
1.0
 76
     1
 77
     6
 78
     2
 67
     7
 79
     5
170
     0
171
     0
290
     0
174
     0
 93
       13
 44
0.0
173
     0
291
     1
 45
0.0
  0
VISUALSTYLE
  5
269
102
{ACAD_REACTORS
330
267
102
}
330
267
100
AcDbVisualStyle
  2
FlatWithEdges
 70
     1
 71
     2
 72
     1
 73
     1
 90
        2
 40
-0.6
 41
30.0
 62
     5
 63
     7
421
 16777215
 74
     1
 91
        4
 64
     7
 65
   257
 75
     1
175
     1
 42
1.0
 92
        0
 66
   257
 43
1.0
 76
     1
 77
     6
 78
     2
 67
     7
 79
     5
170
     0
171
     0
290
     0
174
     0
 93
       13
 44
0.0
173
     0
291
     1
 45
0.0
  0
VISUALSTYLE
  5
26A
102
{ACAD_REACTORS
330
267
102
}
330
267
100
AcDbVisualStyle
  2
Gouraud
 70
     2
 71
     2
 72
     2
 73
     1
 90
        2
 40
-0.6
 41
30.0
 62
     5
 63
     7
421
 16777215
 74
     0
 91
        4
 64
     7
 65
   257
 75
     1
175
     1
 42
1.0
 92
        0
 66
     7
 43
1.0
 76
     1
 77
     6
 78
     2
 67
     7
 79
     5
170
     0
171
     0
290
     0
174
     0
 93
       13
 44
0.0
173
     0
291
     1
 45
0.0
  0
VISUALSTYLE
  5
26B
102
{ACAD_REACTORS
330
267
102
}
330
267
100
AcDbVisualStyle
  2
GouraudWithEdges
 70
     3
 71
     2
 72
     2
 73
     1
 90
        2
 40
-0.6
 41
30.0
 62
     5
 63
     7
421
 16777215
 74
     1
 91
        4
 64
     7
 65
   257
 75
     1
175
     1
 42
1.0
 92
        0
 66
   257
 43
1.0
 76
     1
 77
     6
 78
     2
 67
     7
 79
     5
170
     0
171
     0
290
     0
174
     0
 93
       13
 44
0.0
173
     0
291
     1
 45
0.0
  0
VISUALSTYLE
  5
8FB
102
{ACAD_REACTORS
330
267
102
}
330
267
100
AcDbVisualStyle
  2
Hidden
 70
     6
 71
     1
 72
     2
 73
     2
 90
        0
 40
0.6
 41
30.0
 62
     5
 63
     7
421
 16777215
 74
     2
 91
        2
 64
     7
 65
   257
 75
     2
175
     1
 42
40.0
 92
        0
 66
   257
 43
1.0
 76
     1
 77
     6
 78
     2
 67
     7
 79
     3
170
     0
171
     0
290
     0
174
     0
 93
        1
 44
0.0
173
     0
291
     0
 45
0.0
  0
VISUALSTYLE
  5
8FC
102
{ACAD_REACTORS
330
267
102
}
330
267
100
AcDbVisualStyle
  2
JitterOff
 70
    20
 71
     2
 72
     2
 73
     0
 90
        0
 40
0.6
 41
30.0
 62
     5
 63
     7
421
 16777215
 74
     1
 91
        4
 64
     7
 65
   257
 75
     1
175
     1
 42
1.0
 92
       10
 66
     7
 43
1.0
 76
     1
 77
     6
 78
     2
 67
     7
 79
     5
170
     0
171
     0
290
     0
174
     0
 93
        1
 44
0.0
173
     0
291
     1
 45
0.0
  0
VISUALSTYLE
  5
275
102
{ACAD_REACTORS
330
267
102
}
330
267
100
AcDbVisualStyle
  2
Linepattern
 70
    14
 71
     2
 72
     2
 73
     0
 90
        0
 40
-0.6
 41
-30.0
 62
     5
 63
     7
421
 16777215
 74
     1
 91
        4
 64
     7
 65
   257
 75
     7
175
     7
 42
1.0
 92
        8
 66
     7
 43
1.0
 76
     1
 77
     6
 78
     2
 67
     7
 79
     5
170
     0
171
     0
290
     0
174
     0
 93
        1
 44
0.0
173
     0
291
     1
 45
0.0
  0
VISUALSTYLE
  5
8FD
102
{ACAD_REACTORS
330
267
102
}
330
267
100
AcDbVisualStyle
  2
OverhangOff
 70
    21
 71
     2
 72
     2
 73
     0
 90
        0
 40
0.6
 41
30.0
 62
     5
 63
     7
421
 16777215
 74
     1
 91
        4
 64
     7
 65
   257
 75
     1
175
     1
 42
1.0
 92
        9
 66
     7
 43
1.0
 76
     1
 77
     6
 78
     2
 67
     7
 79
     5
170
     0
171
     0
290
     0
174
     0
 93
        1
 44
0.0
173
     0
291
     1
 45
0.0
  0
VISUALSTYLE
  5
270
102
{ACAD_REACTORS
330
267
102
}
330
267
100
AcDbVisualStyle
  2
Realistic
 70
     8
 71
     2
 72
     2
 73
     0
 90
        0
 40
-0.6
 41
-30.0
 62
     5
 63
     7
421
 16777215
 74
     1
 91
        0
 64
     7
 65
   257
 75
     1
175
     1
 42
1.0
 92
        8
 66
     8
424
  7895160
 43
1.0
 76
     1
 77
     6
 78
     2
 67
     7
 79
     5
170
     0
171
     0
290
     0
174
     0
 93
       13
 44
0.0
173
     0
291
     0
 45
0.0
  0
VISUALSTYLE
  5
903
102
{ACAD_REACTORS
330
267
102
}
330
267
100
AcDbVisualStyle
  2
Shaded
 70
    27
 71
     2
 72
     2
 73
     1
 90
        2
 40
0.6
 41
30.0
 62
     5
 63
     7
421
 16777215
 74
     0
 91
        4
 64
     7
 65
   257
 75
     1
175
     1
 42
1.0
 92
        8
 66
   257
 43
1.0
 76
     1
 77
     6
 78
     2
 67
     8
425
  7895160
 79
     3
170
     0
171
     0
290
     0
174
     0
 93
        5
 44
0.0
173
     0
291
     0
 45
0.0
  0
VISUALSTYLE
  5
902
102
{ACAD_REACTORS
330
267
102
}
330
267
100
AcDbVisualStyle
  2
Shaded with edges
 70
    26
 71
     2
 72
     2
 73
     1
 90
        2
 40
0.6
 41
30.0
 62
     5
 63
     7
421
 16777215
 74
     1
 91
       10
 64
     7
 65
   257
 75
     2
175
     1
 42
1.0
 92
        8
 66
   257
 43
1.0
 76
     1
 77
     6
 78
     2
 67
     7
 79
     3
170
     0
171
     0
290
     0
174
     0
 93
        5
 44
0.0
173
     0
291
     0
 45
0.0
  0
VISUALSTYLE
  5
8FF
102
{ACAD_REACTORS
330
267
102
}
330
267
100
AcDbVisualStyle
  2
Shades of Gray
 70
    23
 71
     2
 72
     2
 73
     3
 90
        0
 40
0.6
 41
30.0
 62
     5
 63
     7
421
 16777215
 74
     2
 91
        2
 64
     7
 65
     7
 75
     1
175
     1
 42
40.0
 92
        8
 66
     7
 43
1.0
 76
     1
 77
     6
 78
     2
 67
     7
 79
     3
170
     0
171
     0
290
     0
174
     0
 93
        1
 44
0.0
173
     0
291
     0
 45
0.0
  0
VISUALSTYLE
  5
900
102
{ACAD_REACTORS
330
267
102
}
330
267
100
AcDbVisualStyle
  2
Sketchy
 70
    24
 71
     1
 72
     2
 73
     2
 90
        0
 40
0.6
 41
30.0
 62
     5
 63
     7
421
 16777215
 74
     2
 91
        2
 64
     7
 65
     7
 75
     1
175
     1
 42
40.0
 92
       11
 66
     7
 43
1.0
 76
     1
 77
     6
 78
     2
 67
     7
 79
     6
170
     0
171
     0
290
     0
174
     0
 93
        1
 44
0.0
173
     0
291
     0
 45
0.0
  0
VISUALSTYLE
  5
274
102
{ACAD_REACTORS
330
267
102
}
330
267
100
AcDbVisualStyle
  2
Thicken
 70
    13
 71
     2
 72
     2
 73
     0
 90
        0
 40
-0.6
 41
-30.0
 62
     5
 63
     7
421
 16777215
 74
     1
 91
        4
 64
     7
 65
   257
 75
     1
175
     1
 42
1.0
 92
       12
 66
     7
 43
1.0
 76
     1
 77
     6
 78
     2
 67
     7
 79
     5
170
     0
171
     0
290
     0
174
     0
 93
        1
 44
0.0
173
     0
291
     1
 45
0.0
  0
VISUALSTYLE
  5
8FA
102
{ACAD_REACTORS
330
267
102
}
330
267
100
AcDbVisualStyle
  2
Wireframe
 70
     5
 71
     0
 72
     2
 73
     0
 90
        0
 40
0.6
 41
30.0
 62
     5
 63
     7
421
 16777215
 74
     1
 91
        4
 64
     7
 65
   257
 75
     1
175
     1
 42
1.0
 92
        0
 66
   257
 43
1.0
 76
     1
 77
     6
 78
     2
 67
     7
 79
     3
170
     0
171
     0
290
     0
174
     0
 93
        1
 44
0.0
173
     0
291
     0
 45
0.0
  0
VISUALSTYLE
  5
901
102
{ACAD_REACTORS
330
267
102
}
330
267
100
AcDbVisualStyle
  2
X-Ray
 70
    25
 71
     2
 72
     2
 73
     1
 90
        1
 40
0.5
 41
30.0
 62
     5
 63
     7
421
 16777215
 74
     1
 91
        0
 64
     7
 65
   257
 75
     1
175
     1
 42
1.0
 92
        8
 66
     7
 43
1.0
 76
     1
 77
     6
 78
     2
 67
     7
 79
     3
170
     0
171
     0
290
     0
174
     0
 93
       13
 44
0.0
173
     0
291
     0
 45
0.0
  0
DICTIONARYVAR
  5
331
102
{ACAD_REACTORS
330
330
102
}
330
330
100
DictionaryVariables
280
     0
  1
1:1
  0
DICTIONARYVAR
  5
D5E
102
{ACAD_REACTORS
330
330
102
}
330
330
100
DictionaryVariables
280
     0
  1
Standard
  0
DICTIONARYVAR
  5
335
102
{ACAD_REACTORS
330
330
102
}
330
330
100
DictionaryVariables
280
     0
  1
Standard
  0
DICTIONARYVAR
  5
D52
102
{ACAD_REACTORS
330
330
102
}
330
330
100
DictionaryVariables
280
     0
  1
ByLayer
  0
DICTIONARYVAR
  5
896
102
{ACAD_REACTORS
330
330
102
}
330
330
100
DictionaryVariables
280
     0
  1
0
  0
DICTIONARYVAR
  5
246C
102
{ACAD_REACTORS
330
E38
102
}
330
E38
100
DictionaryVariables
280
     0
  1
0.261799
  0
DICTIONARYVAR
  5
246A
102
{ACAD_REACTORS
330
E38
102
}
330
E38
100
DictionaryVariables
280
     0
  1
0.400000
  0
DICTIONARYVAR
  5
246B
102
{ACAD_REACTORS
330
E38
102
}
330
E38
100
DictionaryVariables
280
     0
  1
0.250000
  0
DICTIONARYVAR
  5
246D
102
{ACAD_REACTORS
330
E38
102
}
330
E38
100
DictionaryVariables
280
     0
  1
1
  0
FIELD
  5
3DBA
102
{ACAD_REACTORS
330
A8E2
102
}
330
A8E2
100
AcDbField
  1
_text
  2
{%<\_FldIdx 0>%N}
 90
        1
360
3DBB
 97
        0
 91
       63
 92
        0
 94
       11
 95
        2
 96
        0
300

 93
        1
  6
ACFD_FIELDTEXT_CHECKSUM
 93
        2
 90
        2
140
4469.0
 94
        0
300

302

304
ACVALUE_END
  7
ACFD_FIELD_VALUE
 93
        6
 90
        4
  1
{20200702N}
 94
        0
300

302

304
ACVALUE_END
301
{20200702N}
 98
       11
  0
DICTIONARY
  5
A929
330
279
100
AcDbDictionary
280
     1
281
     1
  3
ACAD_ROUNDTRIP_2008_TABLESTYLE_CELLSTYLEMAP
360
A92A
  0
FIELD
  5
3DBB
330
3DBA
100
AcDbField
  1
AcVar
  2
\AcVar CreateDate \f "yyyyMMdd"
 90
        0
 97
        0
 91
       63
 92
        0
 94
       11
 95
        2
 96
        0
300

 93
        1
  6
Variable
 93
        2
 90
        4
  1
CreateDate
 94
        0
300

302

304
ACVALUE_END
  7
ACFD_FIELD_VALUE
 93
        6
 90
        8
 92
       16
310
E4070700000002000200330024000000
 94
        0
300
yyyyMMdd
302

304
ACVALUE_END
301
20200702
 98
        8
  0
CELLSTYLEMAP
  5
A92A
102
{ACAD_REACTORS
330
A929
102
}
330
A929
100
AcDbCellStyleMap
 90
        3
300
CELLSTYLE
  1
TABLEFORMAT_BEGIN
 90
        5
170
     1
 91
        0
 92
    32768
 62
   257
 93
        1
300
CONTENTFORMAT
  1
CONTENTFORMAT_BEGIN
 90
        0
 91
        0
 92
        4
 93
        0
300

 40
0.0
140
1.0
 94
        5
 62
     0
340
17
144
6.0
309
CONTENTFORMAT_END
171
     1
301
MARGIN
  1
CELLMARGIN_BEGIN
 40
0.06
 40
0.06
 40
0.06
 40
0.06
 40
0.18
 40
0.18
309
CELLMARGIN_END
 94
        6
 95
        1
302
GRIDFORMAT
  1
GRIDFORMAT_BEGIN
 90
        0
 91
        1
 62
     0
 92
       -2
340
0
 93
        0
 40
0.045
309
GRIDFORMAT_END
 95
        2
302
GRIDFORMAT
  1
GRIDFORMAT_BEGIN
 90
        0
 91
        1
 62
     0
 92
       -2
340
0
 93
        0
 40
0.045
309
GRIDFORMAT_END
 95
        4
302
GRIDFORMAT
  1
GRIDFORMAT_BEGIN
 90
        0
 91
        1
 62
     0
 92
       -2
340
0
 93
        0
 40
0.045
309
GRIDFORMAT_END
 95
        8
302
GRIDFORMAT
  1
GRIDFORMAT_BEGIN
 90
        0
 91
        1
 62
     0
 92
       -2
340
0
 93
        0
 40
0.045
309
GRIDFORMAT_END
 95
       16
302
GRIDFORMAT
  1
GRIDFORMAT_BEGIN
 90
        0
 91
        1
 62
     0
 92
       -2
340
0
 93
        0
 40
0.045
309
GRIDFORMAT_END
 95
       32
302
GRIDFORMAT
  1
GRIDFORMAT_BEGIN
 90
        0
 91
        1
 62
     0
 92
       -2
340
0
 93
        0
 40
0.045
309
GRIDFORMAT_END
309
TABLEFORMAT_END
  1
CELLSTYLE_BEGIN
 90
        1
 91
        1
300
_TITLE
309
CELLSTYLE_END
300
CELLSTYLE
  1
TABLEFORMAT_BEGIN
 90
        5
170
     1
 91
        0
 92
        0
 62
   257
 93
        1
300
CONTENTFORMAT
  1
CONTENTFORMAT_BEGIN
 90
        0
 91
        0
 92
        4
 93
        0
300

 40
0.0
140
1.0
 94
        5
 62
     0
340
17
144
4.5
309
CONTENTFORMAT_END
171
     1
301
MARGIN
  1
CELLMARGIN_BEGIN
 40
0.06
 40
0.06
 40
0.06
 40
0.06
 40
0.18
 40
0.18
309
CELLMARGIN_END
 94
        6
 95
        1
302
GRIDFORMAT
  1
GRIDFORMAT_BEGIN
 90
        0
 91
        1
 62
     0
 92
       -2
340
0
 93
        0
 40
0.045
309
GRIDFORMAT_END
 95
        2
302
GRIDFORMAT
  1
GRIDFORMAT_BEGIN
 90
        0
 91
        1
 62
     0
 92
       -2
340
0
 93
        0
 40
0.045
309
GRIDFORMAT_END
 95
        4
302
GRIDFORMAT
  1
GRIDFORMAT_BEGIN
 90
        0
 91
        1
 62
     0
 92
       -2
340
0
 93
        0
 40
0.045
309
GRIDFORMAT_END
 95
        8
302
GRIDFORMAT
  1
GRIDFORMAT_BEGIN
 90
        0
 91
        1
 62
     0
 92
       -2
340
0
 93
        0
 40
0.045
309
GRIDFORMAT_END
 95
       16
302
GRIDFORMAT
  1
GRIDFORMAT_BEGIN
 90
        0
 91
        1
 62
     0
 92
       -2
340
0
 93
        0
 40
0.045
309
GRIDFORMAT_END
 95
       32
302
GRIDFORMAT
  1
GRIDFORMAT_BEGIN
 90
        0
 91
        1
 62
     0
 92
       -2
340
0
 93
        0
 40
0.045
309
GRIDFORMAT_END
309
TABLEFORMAT_END
  1
CELLSTYLE_BEGIN
 90
        2
 91
        1
300
_HEADER
309
CELLSTYLE_END
300
CELLSTYLE
  1
TABLEFORMAT_BEGIN
 90
        5
170
     1
 91
        0
 92
        0
 62
   257
 93
        1
300
CONTENTFORMAT
  1
CONTENTFORMAT_BEGIN
 90
        0
 91
        0
 92
        4
 93
        0
300

 40
0.0
140
1.0
 94
        2
 62
     0
340
17
144
4.5
309
CONTENTFORMAT_END
171
     1
301
MARGIN
  1
CELLMARGIN_BEGIN
 40
0.06
 40
0.06
 40
0.06
 40
0.06
 40
0.18
 40
0.18
309
CELLMARGIN_END
 94
        6
 95
        1
302
GRIDFORMAT
  1
GRIDFORMAT_BEGIN
 90
        0
 91
        1
 62
     0
 92
       -2
340
0
 93
        0
 40
0.045
309
GRIDFORMAT_END
 95
        2
302
GRIDFORMAT
  1
GRIDFORMAT_BEGIN
 90
        0
 91
        1
 62
     0
 92
       -2
340
0
 93
        0
 40
0.045
309
GRIDFORMAT_END
 95
        4
302
GRIDFORMAT
  1
GRIDFORMAT_BEGIN
 90
        0
 91
        1
 62
     0
 92
       -2
340
0
 93
        0
 40
0.045
309
GRIDFORMAT_END
 95
        8
302
GRIDFORMAT
  1
GRIDFORMAT_BEGIN
 90
        0
 91
        1
 62
     0
 92
       -2
340
0
 93
        0
 40
0.045
309
GRIDFORMAT_END
 95
       16
302
GRIDFORMAT
  1
GRIDFORMAT_BEGIN
 90
        0
 91
        1
 62
     0
 92
       -2
340
0
 93
        0
 40
0.045
309
GRIDFORMAT_END
 95
       32
302
GRIDFORMAT
  1
GRIDFORMAT_BEGIN
 90
        0
 91
        1
 62
     0
 92
       -2
340
0
 93
        0
 40
0.045
309
GRIDFORMAT_END
309
TABLEFORMAT_END
  1
CELLSTYLE_BEGIN
 90
        3
 91
        2
300
_DATA
309
CELLSTYLE_END
  0
ENDSEC
  0
EOF
