  0
SECTION
  2
HEADER
  9
$ACADVER
  1
AC1021
  9
$ACADMAINTVER
 70
    25
  9
$DWGCODEPAGE
  3
ANSI_932
  9
$LASTSAVEDBY
  1
T-HOWE-PC
  9
$INSBASE
 10
0.0
 20
0.0
 30
0.0
  9
$EXTMIN
 10
0.0
 20
0.0
 30
-0.0000000000000071
  9
$EXTMAX
 10
1050.0
 20
1485.0
 30
0.0000000000000071
  9
$LIMMIN
 10
0.0
 20
0.0
  9
$LIMMAX
 10
1050.0
 20
1485.0
  9
$ORTHOMODE
 70
     0
  9
$REGENMODE
 70
     1
  9
$FILLMODE
 70
     1
  9
$QTEXTMODE
 70
     0
  9
$MIRRTEXT
 70
     1
  9
$LTSCALE
 40
2.5
  9
$ATTMODE
 70
     1
  9
$TEXTSIZE
 40
2.5
  9
$TRACEWID
 40
1.0
  9
$TEXTSTYLE
  7
ＭＳ ゴシック
  9
$CLAYER
  8
DIM
  9
$CELTYPE
  6
ByLayer
  9
$CECOLOR
 62
   256
  9
$CELTSCALE
 40
1.0
  9
$DISPSILH
 70
     0
  9
$DIMSCALE
 40
1.0
  9
$DIMASZ
 40
3.0
  9
$DIMEXO
 40
10.0
  9
$DIMDLI
 40
0.9999999999999999
  9
$DIMRND
 40
0.0
  9
$DIMDLE
 40
0.0
  9
$DIMEXE
 40
0.0
  9
$DIMTP
 40
0.0
  9
$DIMTM
 40
0.0
  9
$DIMTXT
 40
12.0
  9
$DIMCEN
 40
0.0
  9
$DIMTSZ
 40
0.0
  9
$DIMTOL
 70
     0
  9
$DIMLIM
 70
     0
  9
$DIMTIH
 70
     0
  9
$DIMTOH
 70
     0
  9
$DIMSE1
 70
     0
  9
$DIMSE2
 70
     0
  9
$DIMTAD
 70
     1
  9
$DIMZIN
 70
    11
  9
$DIMBLK
  1
DOT
  9
$DIMASO
 70
     1
  9
$DIMSHO
 70
     1
  9
$DIMPOST
  1
<>
  9
$DIMAPOST
  1
[]
  9
$DIMALT
 70
     0
  9
$DIMALTD
 70
     1
  9
$DIMALTF
 40
1.0
  9
$DIMLFAC
 40
1.0
  9
$DIMTOFL
 70
     0
  9
$DIMTVP
 40
0.0
  9
$DIMTIX
 70
     1
  9
$DIMSOXD
 70
     0
  9
$DIMSAH
 70
     0
  9
$DIMBLK1
  1

  9
$DIMBLK2
  1

  9
$DIMSTYLE
  2
tfrom線あり
  9
$DIMCLRD
 70
     0
  9
$DIMCLRE
 70
     0
  9
$DIMCLRT
 70
     0
  9
$DIMTFAC
 40
1.0
  9
$DIMGAP
 40
10.0
  9
$DIMJUST
 70
     0
  9
$DIMSD1
 70
     0
  9
$DIMSD2
 70
     0
  9
$DIMTOLJ
 70
     1
  9
$DIMTZIN
 70
    11
  9
$DIMALTZ
 70
    11
  9
$DIMALTTZ
 70
    11
  9
$DIMUPT
 70
     0
  9
$DIMDEC
 70
     0
  9
$DIMTDEC
 70
     1
  9
$DIMALTU
 70
     2
  9
$DIMALTTD
 70
     2
  9
$DIMTXSTY
  7
ＭＳ ゴシック
  9
$DIMAUNIT
 70
     0
  9
$DIMADEC
 70
     2
  9
$DIMALTRND
 40
0.0
  9
$DIMAZIN
 70
     0
  9
$DIMDSEP
 70
    46
  9
$DIMATFIT
 70
     0
  9
$DIMFRAC
 70
     2
  9
$DIMLDRBLK
  1
DOT
  9
$DIMLUNIT
 70
     2
  9
$DIMLWD
 70
    -2
  9
$DIMLWE
 70
    -2
  9
$DIMTMOVE
 70
     0
  9
$DIMFXL
 40
1.0
  9
$DIMFXLON
 70
     0
  9
$DIMJOGANG
 40
0.7853981633974483
  9
$DIMTFILL
 70
     0
  9
$DIMTFILLCLR
 70
     0
  9
$DIMARCSYM
 70
     0
  9
$DIMLTYPE
  6

  9
$DIMLTEX1
  6

  9
$DIMLTEX2
  6

  9
$LUNITS
 70
     2
  9
$LUPREC
 70
     0
  9
$SKETCHINC
 40
0.1
  9
$FILLETRAD
 40
0.0
  9
$AUNITS
 70
     0
  9
$AUPREC
 70
     0
  9
$MENU
  1
acad
  9
$ELEVATION
 40
0.0
  9
$PELEVATION
 40
0.0
  9
$THICKNESS
 40
0.0
  9
$LIMCHECK
 70
     0
  9
$CHAMFERA
 40
0.0
  9
$CHAMFERB
 40
0.0
  9
$CHAMFERC
 40
0.0
  9
$CHAMFERD
 40
0.0
  9
$SKPOLY
 70
     0
  9
$TDCREATE
 40
2447893.375
  9
$TDUCREATE
 40
0.0
  9
$TDUPDATE
 40
2459734.476755035
  9
$TDUUPDATE
 40
2459734.101755035
  9
$TDINDWG
 40
0.1414566204
  9
$TDUSRTIMER
 40
0.0024223148
  9
$USRTIMER
 70
     1
  9
$ANGBASE
 50
0.0
  9
$ANGDIR
 70
     0
  9
$PDMODE
 70
     1
  9
$PDSIZE
 40
-2.0
  9
$PLINEWID
 40
0.0
  9
$SPLFRAME
 70
     0
  9
$SPLINETYPE
 70
     6
  9
$SPLINESEGS
 70
     8
  9
$HANDSEED
  5
398A
  9
$SURFTAB1
 70
     6
  9
$SURFTAB2
 70
     6
  9
$SURFTYPE
 70
     6
  9
$SURFU
 70
     6
  9
$SURFV
 70
     6
  9
$UCSBASE
  2

  9
$UCSNAME
  2

  9
$UCSORG
 10
0.0
 20
0.0
 30
0.0
  9
$UCSXDIR
 10
1.0
 20
0.0
 30
0.0
  9
$UCSYDIR
 10
0.0
 20
1.0
 30
0.0
  9
$UCSORTHOREF
  2

  9
$UCSORTHOVIEW
 70
     0
  9
$UCSORGTOP
 10
0.0
 20
0.0
 30
0.0
  9
$UCSORGBOTTOM
 10
0.0
 20
0.0
 30
0.0
  9
$UCSORGLEFT
 10
0.0
 20
0.0
 30
0.0
  9
$UCSORGRIGHT
 10
0.0
 20
0.0
 30
0.0
  9
$UCSORGFRONT
 10
0.0
 20
0.0
 30
0.0
  9
$UCSORGBACK
 10
0.0
 20
0.0
 30
0.0
  9
$PUCSBASE
  2

  9
$PUCSNAME
  2

  9
$PUCSORG
 10
0.0
 20
0.0
 30
0.0
  9
$PUCSXDIR
 10
1.0
 20
0.0
 30
0.0
  9
$PUCSYDIR
 10
0.0
 20
1.0
 30
0.0
  9
$PUCSORTHOREF
  2

  9
$PUCSORTHOVIEW
 70
     0
  9
$PUCSORGTOP
 10
0.0
 20
0.0
 30
0.0
  9
$PUCSORGBOTTOM
 10
0.0
 20
0.0
 30
0.0
  9
$PUCSORGLEFT
 10
0.0
 20
0.0
 30
0.0
  9
$PUCSORGRIGHT
 10
0.0
 20
0.0
 30
0.0
  9
$PUCSORGFRONT
 10
0.0
 20
0.0
 30
0.0
  9
$PUCSORGBACK
 10
0.0
 20
0.0
 30
0.0
  9
$USERI1
 70
     0
  9
$USERI2
 70
     0
  9
$USERI3
 70
     0
  9
$USERI4
 70
     0
  9
$USERI5
 70
     0
  9
$USERR1
 40
0.0
  9
$USERR2
 40
0.0
  9
$USERR3
 40
0.0
  9
$USERR4
 40
0.0
  9
$USERR5
 40
0.0
  9
$WORLDVIEW
 70
     1
  9
$SHADEDGE
 70
     3
  9
$SHADEDIF
 70
    70
  9
$TILEMODE
 70
     1
  9
$MAXACTVP
 70
    64
  9
$PINSBASE
 10
0.0
 20
0.0
 30
0.0
  9
$PLIMCHECK
 70
     0
  9
$PEXTMIN
 10
0.0
 20
0.0
 30
0.0
  9
$PEXTMAX
 10
0.0
 20
0.0
 30
0.0
  9
$PLIMMIN
 10
-7.5
 20
-20.0
  9
$PLIMMAX
 10
412.5
 20
277.0
  9
$UNITMODE
 70
     0
  9
$VISRETAIN
 70
     0
  9
$PLINEGEN
 70
     1
  9
$PSLTSCALE
 70
     0
  9
$TREEDEPTH
 70
  3020
  9
$CMLSTYLE
  2
Standard
  9
$CMLJUST
 70
     0
  9
$CMLSCALE
 40
1.0
  9
$PROXYGRAPHICS
 70
     0
  9
$MEASUREMENT
 70
     1
  9
$CELWEIGHT
370
    -1
  9
$ENDCAPS
280
     0
  9
$JOINSTYLE
280
     0
  9
$LWDISPLAY
290
     1
  9
$INSUNITS
 70
     4
  9
$HYPERLINKBASE
  1

  9
$STYLESHEET
  1

  9
$XEDIT
290
     1
  9
$CEPSNTYPE
380
     0
  9
$PSTYLEMODE
290
     1
  9
$FINGERPRINTGUID
  2

  9
$VERSIONGUID
  2

  9
$EXTNAMES
290
     1
  9
$PSVPSCALE
 40
0.0
  9
$OLESTARTUP
290
     0
  9
$SORTENTS
280
   127
  9
$INDEXCTL
280
     0
  9
$HIDETEXT
280
     1
  9
$XCLIPFRAME
290
     0
  9
$HALOGAP
280
     0
  9
$OBSCOLOR
 70
   257
  9
$OBSLTYPE
280
     0
  9
$INTERSECTIONDISPLAY
280
     0
  9
$INTERSECTIONCOLOR
 70
   257
  9
$DIMASSOC
280
     2
  9
$PROJECTNAME
  1

  9
$CAMERADISPLAY
290
     0
  9
$LENSLENGTH
 40
50.0
  9
$CAMERAHEIGHT
 40
0.0
  9
$STEPSPERSEC
 40
2.0
  9
$STEPSIZE
 40
6.0
  9
$3DDWFPREC
 40
2.0
  9
$PSOLWIDTH
 40
0.25
  9
$PSOLHEIGHT
 40
4.0
  9
$LOFTANG1
 40
1.570796326794897
  9
$LOFTANG2
 40
1.570796326794897
  9
$LOFTMAG1
 40
0.0
  9
$LOFTMAG2
 40
0.0
  9
$LOFTPARAM
 70
     7
  9
$LOFTNORMALS
280
     1
  9
$LATITUDE
 40
37.795
  9
$LONGITUDE
 40
-122.394
  9
$NORTHDIRECTION
 40
0.0
  9
$TIMEZONE
 70
 -8000
  9
$LIGHTGLYPHDISPLAY
280
     1
  9
$TILEMODELIGHTSYNCH
280
     1
  9
$SOLIDHIST
280
     1
  9
$SHOWHIST
280
     1
  9
$DWFFRAME
280
     2
  9
$DGNFRAME
280
     2
  9
$REALWORLDSCALE
290
     1
  9
$INTERFERECOLOR
 62
   256
  9
$CSHADOW
280
     0
  9
$SHADOWPLANELOCATION
 40
0.0
  0
ENDSEC
  0
SECTION
  2
CLASSES
  0
CLASS
  1
LWPOLYLINE
  2
AcDbPolyline
  3
ObjectDBX Classes
 90
        0
 91
        1
280
     0
281
     1
  0
CLASS
  1
IMAGE
  2
AcDbRasterImage
  3
ISM
 90
      127
 91
        4
280
     0
281
     1
  0
CLASS
  1
OLE2FRAME
  2
AcDbOle2Frame
  3
ObjectDBX Classes
 90
        0
 91
        1
280
     0
281
     1
  0
CLASS
  1
HATCH
  2
AcDbHatch
  3
ObjectDBX Classes
 90
        0
 91
        1
280
     0
281
     1
  0
CLASS
  1
DICTIONARYVAR
  2
AcDbDictionaryVar
  3
ObjectDBX Classes
 90
        0
 91
        3
280
     0
281
     0
  0
CLASS
  1
RASTERVARIABLES
  2
AcDbRasterVariables
  3
ISM
 90
        0
 91
        3
280
     0
281
     0
  0
CLASS
  1
IMAGEDEF
  2
AcDbRasterImageDef
  3
ISM
 90
        0
 91
        3
280
     0
281
     0
  0
CLASS
  1
IMAGEDEF_REACTOR
  2
AcDbRasterImageDefReactor
  3
ISM
 90
        1
 91
        3
280
     0
281
     0
  0
CLASS
  1
IDBUFFER
  2
AcDbIdBuffer
  3
ObjectDBX Classes
 90
        0
 91
        3
280
     0
281
     0
  0
CLASS
  1
SPATIAL_FILTER
  2
AcDbSpatialFilter
  3
ObjectDBX Classes
 90
        0
 91
        3
280
     0
281
     0
  0
CLASS
  1
XRECORD
  2
AcDbXrecord
  3
ObjectDBX Classes
 90
        0
 91
        1
280
     0
281
     0
  0
CLASS
  1
SORTENTSTABLE
  2
AcDbSortentsTable
  3
ObjectDBX Classes
 90
        0
 91
        3
280
     0
281
     0
  0
CLASS
  1
LAYER_INDEX
  2
AcDbLayerIndex
  3
ObjectDBX Classes
 90
        0
 91
        3
280
     0
281
     0
  0
CLASS
  1
SPATIAL_INDEX
  2
AcDbSpatialIndex
  3
AutoCAD 2000
 90
        0
 91
        3
280
     0
281
     0
  0
CLASS
  1
OBJECT_PTR
  2
CAseDLPNTableRecord
  3
ASE-LPNTableRecord
 90
        1
 91
        3
280
     0
281
     0
  0
CLASS
  1
LAYOUT
  2
AcDbLayout
  3
ObjectDBX Classes
 90
        0
 91
        1
280
     0
281
     0
  0
CLASS
  1
PLOTSETTINGS
  2
AcDbPlotSettings
  3
ObjectDBX Classes
 90
        0
 91
        3
280
     0
281
     0
  0
CLASS
  1
ACDBDICTIONARYWDFLT
  2
AcDbDictionaryWithDefault
  3
ObjectDBX Classes
 90
        0
 91
        3
280
     0
281
     0
  0
CLASS
  1
ACDBPLACEHOLDER
  2
AcDbPlaceHolder
  3
ObjectDBX Classes
 90
        0
 91
        1
280
     0
281
     0
  0
CLASS
  1
SCALE
  2
AcDbScale
  3
ObjectDBX Classes
 90
     1153
 91
        3
280
     0
281
     0
  0
CLASS
  1
MATERIAL
  2
AcDbMaterial
  3
ObjectDBX Classes
 90
     1153
 91
        3
280
     0
281
     0
  0
CLASS
  1
VISUALSTYLE
  2
AcDbVisualStyle
  3
ObjectDBX Classes
 90
     4095
 91
        3
280
     0
281
     0
  0
CLASS
  1
TABLESTYLE
  2
AcDbTableStyle
  3
ObjectDBX Classes
 90
     4095
 91
        3
280
     0
281
     0
  0
CLASS
  1
DIMASSOC
  2
AcDbDimAssoc
  3
"AcDbDimAssoc|Product Desc:     AcDim ARX App For Dimension|Company:          Autodesk, Inc.|WEB Address:      www.autodesk.com"
 90
        0
 91
        3
280
     0
281
     0
  0
CLASS
  1
CELLSTYLEMAP
  2
AcDbCellStyleMap
  3
ObjectDBX Classes
 90
     1152
 91
        3
280
     0
281
     0
  0
CLASS
  1
SUN
  2
AcDbSun
  3
SCENEOE
 90
     1153
 91
        3
280
     0
281
     0
  0
CLASS
  1
MLEADERSTYLE
  2
AcDbMLeaderStyle
  3
ACDB_MLEADERSTYLE_CLASS
 90
     4095
 91
        3
280
     0
281
     0
  0
CLASS
  1
FIELD
  2
AcDbField
  3
ObjectDBX Classes
 90
     1152
 91
        3
280
     0
281
     0
  0
CLASS
  1
FIELDLIST
  2
AcDbFieldList
  3
ObjectDBX Classes
 90
     1152
 91
        3
280
     0
281
     0
  0
ENDSEC
  0
SECTION
  2
TABLES
  0
TABLE
  2
VPORT
  5
7
330
0
100
AcDbSymbolTable
 70
     1
  0
VPORT
  5
15
330
7
100
AcDbSymbolTableRecord
100
AcDbViewportTableRecord
  2
*ACTIVE
 70
     0
 10
0.0
 20
0.0
 11
1.0
 21
1.0
 12
616.0201356709008
 22
668.901285469834
 13
0.0
 23
0.0
 14
1.0
 24
1.0
 15
0.0
 25
0.0
 16
0.0
 26
0.0
 36
1.0
 17
-91.0201356709008
 27
73.59871453016603
 37
-46.86809886248109
 40
1514.7
 41
2.103480714957667
 42
50.0
 43
0.0
 44
0.0
 50
0.0
 51
0.0
 71
    16
 72
  2000
 73
     1
 74
     1
 75
     0
 76
     0
 77
     0
 78
     0
281
     0
 65
     1
110
0.0
120
0.0
130
0.0
111
1.0
121
0.0
131
0.0
112
0.0
122
1.0
132
0.0
 79
     0
146
0.0
348
26C
 60
     3
 61
     5
292
     1
282
     1
141
0.0
142
0.0
 63
   256
361
904
  0
ENDTAB
  0
TABLE
  2
LTYPE
  5
4
330
0
100
AcDbSymbolTable
 70
     2
  0
LTYPE
  5
11
330
4
100
AcDbSymbolTableRecord
100
AcDbLinetypeTableRecord
  2
ByBlock
 70
     0
  3

 72
    65
 73
     0
 40
0.0
  0
LTYPE
  5
12
330
4
100
AcDbSymbolTableRecord
100
AcDbLinetypeTableRecord
  2
ByLayer
 70
     0
  3

 72
    65
 73
     0
 40
0.0
  0
LTYPE
  5
13
330
4
100
AcDbSymbolTableRecord
100
AcDbLinetypeTableRecord
  2
Continuous
 70
     0
  3
Solid line
 72
    65
 73
     0
 40
0.0
  0
LTYPE
  5
D6C
330
4
100
AcDbSymbolTableRecord
100
AcDbLinetypeTableRecord
  2
BORDER
 70
     0
  3
Border __  __  . __  __  . __  __  . __  __  . 
 72
    65
 73
     6
 40
44.45
 49
12.7
 74
     0
 49
-6.35
 74
     0
 49
12.7
 74
     0
 49
-6.35
 74
     0
 49
0.0
 74
     0
 49
-6.35
 74
     0
  0
ENDTAB
  0
TABLE
  2
LAYER
  5
2
102
{ACAD_XDICTIONARY
360
2E1
102
}
330
0
100
AcDbSymbolTable
 70
     8
  0
LAYER
  5
14
330
2
100
AcDbSymbolTableRecord
100
AcDbLayerTableRecord
  2
0
 70
     0
 62
     7
  6
Continuous
370
    -3
390
1D
347
266
  0
LAYER
  5
4B
330
2
100
AcDbSymbolTableRecord
100
AcDbLayerTableRecord
  2
TEMPLATE
 70
     0
 62
     7
  6
Continuous
370
    20
390
1D
347
266
  0
LAYER
  5
4C
330
2
100
AcDbSymbolTableRecord
100
AcDbLayerTableRecord
  2
DIM
 70
     0
 62
     3
  6
Continuous
370
    13
390
1D
347
266
  0
LAYER
  5
4D
330
2
100
AcDbSymbolTableRecord
100
AcDbLayerTableRecord
  2
MODEL
 70
     0
 62
     7
  6
Continuous
370
    20
390
1D
347
266
  0
LAYER
  5
D6B
330
2
100
AcDbSymbolTableRecord
100
AcDbLayerTableRecord
  2
BORDER
 70
     0
 62
     4
  6
BORDER
290
     0
370
    20
390
1D
347
266
1001
AcAecLayerStandard
1000

1000

  0
LAYER
  5
D8C
330
2
100
AcDbSymbolTableRecord
100
AcDbLayerTableRecord
  2
Defpoints
 70
     0
 62
     7
  6
Continuous
290
     0
370
    -3
390
1D
347
266
  0
LAYER
  5
3304
330
2
100
AcDbSymbolTableRecord
100
AcDbLayerTableRecord
  2
_0-1_
 70
     0
 62
     7
  6
Continuous
370
    -3
390
1D
347
266
  0
LAYER
  5
37EE
330
2
100
AcDbSymbolTableRecord
100
AcDbLayerTableRecord
  2
レイヤー 1
 70
     0
 62
     7
  6
Continuous
370
    -3
390
1D
347
266
  0
ENDTAB
  0
TABLE
  2
STYLE
  5
3
330
0
100
AcDbSymbolTable
 70
     2
  0
STYLE
  5
17
330
3
100
AcDbSymbolTableRecord
100
AcDbTextStyleTableRecord
  2
Standard
 70
     0
 40
0.0
 41
1.0
 50
0.0
 71
     0
 42
2.5
  3
txt
  4
BIGFONT.SHX
  0
STYLE
  5
39
330
3
100
AcDbSymbolTableRecord
100
AcDbTextStyleTableRecord
  2
ＭＳ ゴシック
 70
     0
 40
0.0
 41
1.0
 50
0.0
 71
     0
 42
2.5
  3
msgothic.ttc
  4
ＭＳ ゴシック
1001
ACAD
1000
ＭＳ ゴシック
1071
        0
  0
ENDTAB
  0
TABLE
  2
VIEW
  5
5
330
0
100
AcDbSymbolTable
 70
     0
  0
ENDTAB
  0
TABLE
  2
UCS
  5
6
330
0
100
AcDbSymbolTable
 70
     0
  0
ENDTAB
  0
TABLE
  2
APPID
  5
8
330
0
100
AcDbSymbolTable
 70
     4
  0
APPID
  5
16
330
8
100
AcDbSymbolTableRecord
100
AcDbRegAppTableRecord
  2
ACAD
 70
     0
  0
APPID
  5
7AC
330
8
100
AcDbSymbolTableRecord
100
AcDbRegAppTableRecord
  2
AcAecLayerStandard
 70
     0
  0
APPID
  5
E29
330
8
100
AcDbSymbolTableRecord
100
AcDbRegAppTableRecord
  2
ACAD_MLEADERVER
 70
     0
  0
APPID
  5
3980
330
8
100
AcDbSymbolTableRecord
100
AcDbRegAppTableRecord
  2
PLOTTRANSPARENCY
 70
     0
  0
ENDTAB
  0
TABLE
  2
DIMSTYLE
  5
9
330
0
100
AcDbSymbolTable
 70
     2
100
AcDbDimStyleTable
  0
DIMSTYLE
105
57
102
{ACAD_REACTORS
102
}
330
9
100
AcDbSymbolTableRecord
100
AcDbDimStyleTableRecord
  2
tfrom線あり
 70
     0
  3
<>
  4
[]
 41
3.0
 42
10.0
 43
0.9999999999999999
 44
0.0
 73
     0
 74
     0
 77
     1
 78
    11
140
12.0
141
0.0
143
1.0
147
10.0
171
     1
174
     1
178
     0
179
     2
271
     0
272
     1
276
     2
284
    11
285
    11
286
    11
289
     0
340
39
341
4E
342
4E
  0
DIMSTYLE
105
37FC
102
{ACAD_REACTORS
330
3880
330
388D
330
389A
330
38A7
330
38AA
330
38CF
330
391F
330
3920
330
3921
102
}
330
9
100
AcDbSymbolTableRecord
100
AcDbDimStyleTableRecord
  2
JIS
 70
     0
  3
<>
  4
[]
 41
9.0
 42
0.0
 43
6.99999999999994
 44
19.9999999999962
 73
     0
 74
     0
 77
     1
 78
    11
140
24.4326171875
141
0.0
143
1.0
147
10.0
171
     1
174
     1
178
     0
179
     2
271
     1
272
     1
276
     2
284
    11
285
    11
286
    11
289
     0
340
39
341
4E
342
4E
  0
ENDTAB
  0
TABLE
  2
BLOCK_RECORD
  5
1
330
0
100
AcDbSymbolTable
 70
     6
  0
BLOCK_RECORD
  5
A
102
{ACAD_XDICTIONARY
360
24B4
102
}
330
1
100
AcDbSymbolTableRecord
100
AcDbBlockTableRecord
  2
*MODEL_SPACE
340
20
 70
     0
280
     1
281
     0
  0
BLOCK_RECORD
  5
B
330
1
100
AcDbSymbolTableRecord
100
AcDbBlockTableRecord
  2
*PAPER_SPACE
340
21
 70
     0
280
     1
281
     0
  0
BLOCK_RECORD
  5
4E
330
1
100
AcDbSymbolTableRecord
100
AcDbBlockTableRecord
  2
_DOT
340
0
102
{BLKREFS
331
251F
331
2520
331
252B
331
252C
331
30DC
331
30DD
331
310A
331
310B
331
3118
331
3119
331
312B
331
312C
331
3162
331
3163
331
3174
331
3175
331
318A
331
318B
331
319C
331
319D
331
31AB
331
31AC
331
31B8
331
31B9
331
31C7
331
31C8
331
31DE
331
31DF
331
31ED
331
31EE
331
31FA
331
31FB
331
3207
331
3208
331
321A
331
321B
331
3229
331
322A
331
3239
331
323A
331
3250
331
3251
331
3262
331
3263
331
327A
331
327B
331
328B
331
328C
331
329A
331
329B
331
337F
331
3380
331
338E
331
338F
331
339D
331
339E
331
33AC
331
33AD
331
33BD
331
33BE
331
33CA
331
33CB
331
33DA
331
33DB
331
33E8
331
33E9
331
36DE
331
36DF
331
36EA
331
36EB
331
36F6
331
36F7
331
3702
331
3703
331
370E
331
370F
331
371A
331
371B
331
3727
331
3728
331
3735
331
3736
331
3747
331
3748
331
3756
331
3757
331
376D
331
376E
331
3786
331
3787
331
379E
331
379F
331
37B9
331
37BA
331
37D2
331
37D3
331
3954
331
3955
331
3960
331
3961
331
396C
331
396D
102
}
 70
     0
280
     1
281
     0
  0
BLOCK_RECORD
  5
68D
330
1
100
AcDbSymbolTableRecord
100
AcDbBlockTableRecord
  2
block 2
340
0
102
{BLKREFS
331
68C
331
1343
331
353F
331
3827
102
}
 70
     0
280
     1
281
     0
  0
BLOCK_RECORD
  5
3825
330
1
100
AcDbSymbolTableRecord
100
AcDbBlockTableRecord
  2
名称未設定-1
340
0
102
{BLKREFS
331
3824
331
38EB
102
}
 70
     1
280
     1
281
     0
  0
BLOCK_RECORD
  5
394E
330
1
100
AcDbSymbolTableRecord
100
AcDbBlockTableRecord
  2
*D59
340
0
 70
     0
280
     1
281
     0
  0
BLOCK_RECORD
  5
395A
330
1
100
AcDbSymbolTableRecord
100
AcDbBlockTableRecord
  2
*D60
340
0
 70
     0
280
     1
281
     0
  0
BLOCK_RECORD
  5
3966
330
1
100
AcDbSymbolTableRecord
100
AcDbBlockTableRecord
  2
*D61
340
0
 70
     0
280
     1
281
     0
  0
ENDTAB
  0
ENDSEC
  0
SECTION
  2
BLOCKS
  0
BLOCK
  5
D
330
A
100
AcDbEntity
  8
0
390
1D
100
AcDbBlockBegin
  2
*MODEL_SPACE
 70
     0
 10
0.0
 20
0.0
 30
0.0
  3
*MODEL_SPACE
  1
*MODEL_SPACE
  0
ENDBLK
  5
E
330
A
100
AcDbEntity
  8
0
390
1D
100
AcDbBlockEnd
  0
BLOCK
  5
F
330
B
100
AcDbEntity
 67
     1
  8
0
390
1D
100
AcDbBlockBegin
  2
*PAPER_SPACE
 70
     0
 10
0.0
 20
0.0
 30
0.0
  3
*PAPER_SPACE
  1
*PAPER_SPACE
  0
ENDBLK
  5
10
330
B
100
AcDbEntity
 67
     1
  8
0
390
1D
100
AcDbBlockEnd
  0
BLOCK
  5
E30
330
4E
100
AcDbEntity
  8
0
390
1D
100
AcDbBlockBegin
  2
_DOT
 70
     0
 10
0.0
 20
0.0
 30
0.0
  3
_DOT
  1
_DOT
  0
POLYLINE
  5
E32
330
4E
100
AcDbEntity
  8
0
  6
ByBlock
 62
     0
370
    -2
390
1D
100
AcDb2dPolyline
 66
     1
 10
0.0
 20
0.0
 30
0.0
 70
     1
 40
0.5
 41
0.5
  0
VERTEX
  5
E33
330
E32
100
AcDbEntity
  8
0
  6
ByBlock
 62
     0
370
    -2
390
1D
100
AcDbVertex
100
AcDb2dVertex
 10
-0.25
 20
0.0
 30
0.0
 42
1.0
  0
VERTEX
  5
E34
330
E32
100
AcDbEntity
  8
0
  6
ByBlock
 62
     0
370
    -2
390
1D
100
AcDbVertex
100
AcDb2dVertex
 10
0.25
 20
0.0
 30
0.0
 42
1.0
  0
SEQEND
  5
E35
330
E32
100
AcDbEntity
  8
0
390
1D
  0
LINE
  5
E36
330
4E
100
AcDbEntity
  8
0
  6
ByBlock
 62
     0
370
    -2
390
1D
100
AcDbLine
 10
-0.5
 20
0.0
 30
0.0
 11
-1.0
 21
0.0
 31
0.0
  0
ENDBLK
  5
E37
330
4E
100
AcDbEntity
  8
0
390
1D
100
AcDbBlockEnd
  0
BLOCK
  5
68E
330
68D
100
AcDbEntity
  8
0
100
AcDbBlockBegin
  2
block 2
 70
     0
 10
0.0
 20
0.0
 30
0.0
  3
block 2
  1
block 2
  0
ENDBLK
  5
6B0
330
68D
100
AcDbEntity
  8
0
100
AcDbBlockEnd
  0
BLOCK
  5
3826
330
3825
100
AcDbEntity
  8
0
100
AcDbBlockBegin
  2
名称未設定-1
 70
     0
 10
0.0
 20
0.0
 30
0.0
  3
名称未設定-1
  1
名称未設定-1
  0
INSERT
  5
3827
330
3825
100
AcDbEntity
  8
レイヤー 1
100
AcDbBlockReference
  2
block 2
 10
0.0
 20
0.0
 30
0.0
  0
ENDBLK
  5
384C
330
3825
100
AcDbEntity
  8
0
100
AcDbBlockEnd
  0
BLOCK
  5
394F
330
394E
100
AcDbEntity
  8
0
100
AcDbBlockBegin
  2
*D59
 70
     1
 10
0.0
 20
0.0
 30
0.0
  3
*D59
  1

  0
LINE
  5
3951
330
394E
100
AcDbEntity
  8
DIM
  6
Continuous
 62
     0
370
    -2
100
AcDbLine
 10
673.808775454833
 20
1257.808211991758
 30
0.0
 11
949.4098128783028
 21
1257.808211991758
 31
0.0
  0
LINE
  5
3952
330
394E
100
AcDbEntity
  8
DIM
  6
Continuous
 62
     0
370
    -2
100
AcDbLine
 10
624.3455427962485
 20
457.8082119917581
 30
0.0
 11
949.4098128783028
 21
457.8082119917581
 31
0.0
  0
LINE
  5
3953
330
394E
100
AcDbEntity
  8
DIM
  6
Continuous
 62
     0
370
    -2
100
AcDbLine
 10
949.4098128783028
 20
1253.808211991758
 30
0.0
 11
949.4098128783028
 21
461.8082119917581
 31
0.0
  0
INSERT
  5
3954
330
394E
100
AcDbEntity
  8
DIM
 62
     0
370
    -2
100
AcDbBlockReference
  2
_DOT
 10
949.4098128783028
 20
1257.808211991758
 30
0.0
 41
4.0
 42
4.0
 43
4.0
 50
90.0
  0
INSERT
  5
3955
330
394E
100
AcDbEntity
  8
DIM
 62
     0
370
    -2
100
AcDbBlockReference
  2
_DOT
 10
949.4098128783028
 20
457.8082119917581
 30
0.0
 41
4.0
 42
4.0
 43
4.0
 50
270.0
  0
MTEXT
  5
3956
330
394E
100
AcDbEntity
  8
DIM
 62
     0
100
AcDbMText
 10
933.4098128783028
 20
857.8082119917581
 30
0.0
 40
12.0
 41
0.0
 46
0.0
 71
     5
 72
     1
  1
\A1;800
  7
ＭＳ ゴシック
 11
0.0
 21
1.0
 31
0.0
 73
     1
 44
1.0
  0
POINT
  5
3957
330
394E
100
AcDbEntity
  8
Defpoints
 62
     0
100
AcDbPoint
 10
648.808775454833
 20
1257.808211991758
 30
0.0
  0
POINT
  5
3958
330
394E
100
AcDbEntity
  8
Defpoints
 62
     0
100
AcDbPoint
 10
599.3455427962485
 20
457.8082119917581
 30
0.0
  0
POINT
  5
3959
330
394E
100
AcDbEntity
  8
Defpoints
 62
     0
100
AcDbPoint
 10
949.4098128783028
 20
457.8082119917581
 30
0.0
  0
ENDBLK
  5
3950
330
394E
100
AcDbEntity
  8
0
100
AcDbBlockEnd
  0
BLOCK
  5
395B
330
395A
100
AcDbEntity
  8
0
100
AcDbBlockBegin
  2
*D60
 70
     1
 10
0.0
 20
0.0
 30
0.0
  3
*D60
  1

  0
LINE
  5
395D
330
395A
100
AcDbEntity
  8
DIM
  6
Continuous
 62
     0
370
    -2
100
AcDbLine
 10
549.390195981598
 20
457.8082119917581
 30
0.0
 11
823.285369670796
 21
457.8082119917581
 31
0.0
  0
LINE
  5
395E
330
395A
100
AcDbEntity
  8
DIM
  6
Continuous
 62
     0
370
    -2
100
AcDbLine
 10
758.4010900270493
 20
1082.808211991758
 30
0.0
 11
823.285369670796
 21
1082.808211991758
 31
0.0
  0
LINE
  5
395F
330
395A
100
AcDbEntity
  8
DIM
  6
Continuous
 62
     0
370
    -2
100
AcDbLine
 10
823.285369670796
 20
461.8082119917581
 30
0.0
 11
823.285369670796
 21
1078.808211991758
 31
0.0
  0
INSERT
  5
3960
330
395A
100
AcDbEntity
  8
DIM
 62
     0
370
    -2
100
AcDbBlockReference
  2
_DOT
 10
823.285369670796
 20
457.8082119917581
 30
0.0
 41
4.0
 42
4.0
 43
4.0
 50
270.0
  0
INSERT
  5
3961
330
395A
100
AcDbEntity
  8
DIM
 62
     0
370
    -2
100
AcDbBlockReference
  2
_DOT
 10
823.285369670796
 20
1082.808211991758
 30
0.0
 41
4.0
 42
4.0
 43
4.0
 50
90.0
  0
MTEXT
  5
3962
330
395A
100
AcDbEntity
  8
DIM
 62
     0
100
AcDbMText
 10
807.2831188267294
 20
770.3082119917581
 30
0.0
 40
12.0
 41
0.0
 46
0.0
 71
     5
 72
     1
  1
\A1;625
  7
ＭＳ ゴシック
 11
0.0
 21
1.0
 31
0.0
 73
     1
 44
1.0
  0
POINT
  5
3963
330
395A
100
AcDbEntity
  8
Defpoints
 62
     0
100
AcDbPoint
 10
524.390195981598
 20
457.8082119917581
 30
0.0
  0
POINT
  5
3964
330
395A
100
AcDbEntity
  8
Defpoints
 62
     0
100
AcDbPoint
 10
733.4010900270493
 20
1082.808211991758
 30
0.0
  0
POINT
  5
3965
330
395A
100
AcDbEntity
  8
Defpoints
 62
     0
100
AcDbPoint
 10
823.285369670796
 20
1082.808211991758
 30
0.0
  0
ENDBLK
  5
395C
330
395A
100
AcDbEntity
  8
0
100
AcDbBlockEnd
  0
BLOCK
  5
3967
330
3966
100
AcDbEntity
  8
0
100
AcDbBlockBegin
  2
*D61
 70
     1
 10
0.0
 20
0.0
 30
0.0
  3
*D61
  1

  0
LINE
  5
3969
330
3966
100
AcDbEntity
  8
DIM
  6
Continuous
 62
     0
370
    -2
100
AcDbLine
 10
719.3024790742729
 20
1055.275434328477
 30
0.0
 11
719.3024790742729
 21
930.6291714796912
 31
0.0
  0
LINE
  5
396A
330
3966
100
AcDbEntity
  8
DIM
  6
Continuous
 62
     0
370
    -2
100
AcDbLine
 10
479.3024790742729
 20
1055.275434328477
 30
0.0
 11
479.3024790742729
 21
930.6291714796912
 31
0.0
  0
LINE
  5
396B
330
3966
100
AcDbEntity
  8
DIM
  6
Continuous
 62
     0
370
    -2
100
AcDbLine
 10
715.3024790742729
 20
930.6291714796912
 30
0.0
 11
483.3024790742729
 21
930.6291714796912
 31
0.0
  0
INSERT
  5
396C
330
3966
100
AcDbEntity
  8
DIM
 62
     0
370
    -2
100
AcDbBlockReference
  2
_DOT
 10
719.3024790742729
 20
930.6291714796912
 30
0.0
 41
4.0
 42
4.0
 43
4.0
  0
INSERT
  5
396D
330
3966
100
AcDbEntity
  8
DIM
 62
     0
370
    -2
100
AcDbBlockReference
  2
_DOT
 10
479.3024790742729
 20
930.6291714796912
 30
0.0
 41
4.0
 42
4.0
 43
4.0
 50
180.0
  0
MTEXT
  5
396E
330
3966
100
AcDbEntity
  8
DIM
 62
     0
100
AcDbMText
 10
599.3024790742729
 20
946.6314223237578
 30
0.0
 40
12.0
 41
0.0
 46
0.0
 71
     5
 72
     1
  1
\A1;240
  7
ＭＳ ゴシック
 73
     1
 44
1.0
  0
POINT
  5
396F
330
3966
100
AcDbEntity
  8
Defpoints
 62
     0
100
AcDbPoint
 10
719.3024790742729
 20
1080.275434328477
 30
0.0
  0
POINT
  5
3970
330
3966
100
AcDbEntity
  8
Defpoints
 62
     0
100
AcDbPoint
 10
479.3024790742729
 20
1080.275434328477
 30
0.0
  0
POINT
  5
3971
330
3966
100
AcDbEntity
  8
Defpoints
 62
     0
100
AcDbPoint
 10
479.3024790742729
 20
930.6291714796912
 30
0.0
  0
ENDBLK
  5
3968
330
3966
100
AcDbEntity
  8
0
100
AcDbBlockEnd
  0
ENDSEC
  0
SECTION
  2
ENTITIES
  0
MTEXT
  5
177
330
A
100
AcDbEntity
  8
TEMPLATE
390
1D
100
AcDbMText
 10
39.60107227386538
 20
171.8658758157141
 30
0.0
 40
8.144205729166663
 41
0.0
 46
0.0
 71
     1
 72
     1
  1
品名
  7
ＭＳ ゴシック
 73
     1
 44
0.7828267384257843
  0
MTEXT
  5
178
330
A
100
AcDbEntity
  8
TEMPLATE
390
1D
100
AcDbMText
 10
39.60107227386538
 20
129.365875815714
 30
0.0
 40
8.144205729166663
 41
0.0
 46
0.0
 71
     1
 72
     1
  1
仕様
  7
ＭＳ ゴシック
 73
     1
 44
0.7828267384257843
  0
LINE
  5
179
330
A
100
AcDbEntity
  8
TEMPLATE
390
1D
100
AcDbLine
 10
1011.101072273624
 20
133.5733367532142
 30
0.0
 11
36.10107227362437
 21
133.5733367532142
 31
0.0
  0
LWPOLYLINE
  5
17A
330
A
100
AcDbEntity
  8
TEMPLATE
390
1D
100
AcDbPolyline
 90
        5
 70
   128
 43
0.0
 10
1011.101072273624
 20
1448.573336753213
 10
36.10107227362437
 20
1448.573336753213
 10
36.10107227362437
 20
48.57333675321413
 10
1011.101072273624
 20
48.57333675321413
 10
1011.101072273624
 20
1448.573336753213
  0
LINE
  5
17B
330
A
100
AcDbEntity
  8
TEMPLATE
390
1D
100
AcDbLine
 10
1011.101072273624
 20
176.0733367532141
 30
0.0
 11
36.10107227362437
 21
176.0733367532141
 31
0.0
  0
LINE
  5
17C
330
A
100
AcDbEntity
  8
TEMPLATE
390
1D
100
AcDbLine
 10
1011.101072273866
 20
91.07333675321412
 30
0.0
 11
634.601072273865
 21
91.07333675321412
 31
0.0
  0
MTEXT
  5
17E
330
A
100
AcDbEntity
  8
TEMPLATE
390
1D
100
AcDbMText
 10
649.5367753999956
 20
76.11813951656006
 30
0.0
 40
12.21630859375
 41
0.0
 46
0.0
 71
     1
 72
     1
  1
大洋金物株式会社 ティーフォルム事業部
  7
ＭＳ ゴシック
 73
     1
 44
0.7828267384257843
  0
MTEXT
  5
180
330
A
100
AcDbEntity
  8
TEMPLATE
390
1D
100
AcDbMText
 10
915.601072273995
 20
115.0746453469641
 30
0.0
 40
12.21630859375
 41
0.0
 46
12.21630859375
 71
     1
 72
     1
  1
{1:5}
  7
ＭＳ ゴシック
 73
     1
 44
0.7828267384257843
1001
ACAD
1000
ACAD_MTEXT_DEFINED_HEIGHT_BEGIN
1070
    46
1040
12.21630859375
1000
ACAD_MTEXT_DEFINED_HEIGHT_END
  0
MTEXT
  5
181
330
A
100
AcDbEntity
  8
TEMPLATE
390
1D
100
AcDbMText
 10
889.101072273995
 20
129.365875815714
 30
0.0
 40
8.144205729166663
 41
0.0
 46
0.0
 71
     1
 72
     1
  1
縮尺
  7
ＭＳ ゴシック
 73
     1
 44
0.7828267384257843
  0
LINE
  5
182
330
A
100
AcDbEntity
  8
TEMPLATE
390
1D
100
AcDbLine
 10
885.601072273995
 20
91.07333675321412
 30
0.0
 11
885.601072273995
 21
133.5733367532142
 31
0.0
  0
MTEXT
  5
183
330
A
100
AcDbEntity
  8
TEMPLATE
390
1D
100
AcDbMText
 10
763.601072273995
 20
129.365875815714
 30
0.0
 40
8.144205729166663
 41
0.0
 46
0.0
 71
     1
 72
     1
  1
容量
  7
ＭＳ ゴシック
 73
     1
 44
0.7828267384257843
  0
LINE
  5
184
330
A
100
AcDbEntity
  8
TEMPLATE
390
1D
100
AcDbLine
 10
760.101072273995
 20
91.07333675321412
 30
0.0
 11
760.101072273995
 21
133.5733367532142
 31
0.0
  0
MTEXT
  5
185
330
A
100
AcDbEntity
  8
TEMPLATE
390
1D
100
AcDbMText
 10
638.101072273995
 20
171.8658758157141
 30
0.0
 40
8.144205729166663
 41
0.0
 46
0.0
 71
     1
 72
     1
  1
品番
  7
ＭＳ ゴシック
 73
     1
 44
0.7828267384257843
  0
MTEXT
  5
186
330
A
100
AcDbEntity
  8
TEMPLATE
390
1D
100
AcDbMText
 10
638.101072273995
 20
129.365875815714
 30
0.0
 40
8.144205729166663
 41
0.0
 46
0.0
 71
     1
 72
     1
  1
重量
  7
ＭＳ ゴシック
 73
     1
 44
0.7828267384257843
  0
LINE
  5
188
330
A
100
AcDbEntity
  8
TEMPLATE
390
1D
100
AcDbLine
 10
634.601072273995
 20
48.57333675321413
 30
0.0
 11
634.601072273995
 21
176.0733367532141
 31
0.0
  0
INSERT
  5
68C
330
A
100
AcDbEntity
  8
TEMPLATE
100
AcDbBlockReference
  2
block 2
 10
919.2743017702577
 20
8.373076514336368
 30
0.0
 41
0.3809999999999999
 42
0.3809999999999999
 43
0.3809999999999999
  0
LWPOLYLINE
  5
D69
330
A
100
AcDbEntity
  8
BORDER
100
AcDbPolyline
 90
        4
 70
     1
 43
0.0
 10
0.0
 20
0.0
 10
0.0
 20
1485.0
 10
1050.0
 20
1485.0
 10
1050.0
 20
0.0
  0
INSERT
  5
1343
330
A
100
AcDbEntity
  8
TEMPLATE
100
AcDbBlockReference
  2
block 2
 10
2096.743470866468
 20
24.43532141229569
 30
0.0
 41
0.3809999999999999
 42
0.3809999999999999
 43
0.3809999999999999
  0
MTEXT
  5
16ED
330
A
100
AcDbEntity
  8
TEMPLATE
390
1D
100
AcDbMText
 10
664.601072273995
 20
157.5746453469641
 30
0.0
 40
12.21630859375
 41
0.0
 46
12.21630859375
 71
     1
 72
     1
  1
{AGN73-1636}
  7
ＭＳ ゴシック
 73
     1
 44
0.7828267384257843
1001
ACAD
1000
ACAD_MTEXT_DEFINED_HEIGHT_BEGIN
1070
    46
1040
12.21630859375
1000
ACAD_MTEXT_DEFINED_HEIGHT_END
  0
MTEXT
  5
16EE
330
A
100
AcDbEntity
  8
TEMPLATE
390
1D
100
AcDbMText
 10
66.10107227386538
 20
157.5746453469641
 30
0.0
 40
12.21630859375
 41
0.0
 46
13.76836180511051
 71
     1
 72
     1
  1
{吐水口 -FANTINI,Cafe-}
  7
ＭＳ ゴシック
 73
     1
 44
0.7828267384257843
1001
ACAD
1000
ACAD_MTEXT_DEFINED_HEIGHT_BEGIN
1070
    46
1040
13.76836180511051
1000
ACAD_MTEXT_DEFINED_HEIGHT_END
  0
MTEXT
  5
16F0
102
{ACAD_XDICTIONARY
360
16F1
102
}
330
A
100
AcDbEntity
  8
TEMPLATE
100
AcDbMText
 10
37.3643282742853
 20
41.93086052571419
 30
0.0
 40
11.0
 41
0.0
 46
11.0
 71
     1
 72
     1
  1
{20220603N}
  7
ＭＳ ゴシック
 73
     1
 44
1.0
1001
ACAD
1000
ACAD_MTEXT_DEFINED_HEIGHT_BEGIN
1070
    46
1040
11.0
1000
ACAD_MTEXT_DEFINED_HEIGHT_END
  0
HATCH
  5
2492
102
{ACAD_REACTORS
330
24A3
102
}
330
A
100
AcDbEntity
  8
TEMPLATE
100
AcDbHatch
 10
0.0
 20
0.0
 30
0.0
210
0.0
220
0.0
230
1.0
  2
SOLID
 70
     1
 71
     1
 91
        6
 92
        1
 93
        8
 72
     1
 10
967.3017148351717
 20
76.58153313569332
 11
967.3017148351717
 21
73.6268293203631
 72
     1
 10
967.3017148351717
 20
73.6268293203631
 11
962.6214190600165
 21
73.6268293203631
 72
     1
 10
962.6214190600165
 20
73.6268293203631
 11
962.6214190600165
 21
61.58153313641628
 72
     1
 10
962.6214190600165
 20
61.58153313641628
 11
958.5051124833788
 21
61.58153313641628
 72
     1
 10
958.5051124833788
 20
61.58153313641628
 11
958.5051124833788
 21
73.6268293203631
 72
     1
 10
958.5051124833788
 20
73.6268293203631
 11
953.9077617661067
 21
73.6268293203631
 72
     1
 10
953.9077617661067
 20
73.6268293203631
 11
953.9077617661067
 21
76.58153313569332
 72
     1
 10
953.9077617661067
 20
76.58153313569332
 11
967.3017148351717
 21
76.58153313569332
 97
        1
330
2493
 92
        1
 93
        1
 72
     4
 94
        3
 73
     0
 74
     1
 95
       56
 96
       52
 40
0.0
 40
0.0
 40
0.0
 40
0.0
 40
1.0
 40
1.0
 40
1.0
 40
2.0
 40
2.0
 40
2.0
 40
3.0
 40
3.0
 40
3.0
 40
4.0
 40
4.0
 40
4.0
 40
5.0
 40
5.0
 40
5.0
 40
6.0
 40
6.0
 40
6.0
 40
7.0
 40
7.0
 40
7.0
 40
8.0
 40
8.0
 40
8.0
 40
9.0
 40
9.0
 40
9.0
 40
10.0
 40
10.0
 40
10.0
 40
11.0
 40
11.0
 40
11.0
 40
12.0
 40
12.0
 40
12.0
 40
13.0
 40
13.0
 40
13.0
 40
14.0
 40
14.0
 40
14.0
 40
15.0
 40
15.0
 40
15.0
 40
16.0
 40
16.0
 40
16.0
 40
17.0
 40
17.0
 40
17.0
 40
17.0
 10
973.5728075523182
 20
76.22434865548715
 10
974.1497406432779
 20
76.38674243249227
 10
974.8945351899454
 20
76.2509059520473
 10
974.8945351899454
 20
76.2509059520473
 10
974.8945351899454
 20
76.2509059520473
 10
974.5367183931537
 20
75.17712080583556
 10
974.5367183931537
 20
75.17712080583556
 10
974.5367183931537
 20
75.17712080583556
 10
973.8055372506058
 20
75.3463212849002
 10
973.2415852471802
 20
74.90161675034386
 10
972.8033526588458
 20
74.55384262872275
 10
972.5194425122852
 20
73.6297677327276
 10
972.4105352793329
 20
73.2784228821572
 10
972.4105352793329
 20
73.2784228821572
 10
971.9249905324193
 20
71.78808988695778
 10
971.9249905324193
 20
71.78808988695778
 10
971.9249905324193
 20
71.78808988695778
 10
973.5170521075795
 20
71.78808988695778
 10
973.5170521075795
 20
71.78808988695778
 10
973.5170521075795
 20
71.78808988695778
 10
973.2694443720036
 20
70.85010402609774
 10
973.2694443720036
 20
70.85010402609774
 10
973.2694443720036
 20
70.85010402609774
 10
971.6644017093092
 20
70.85010402609774
 10
971.6644017093092
 20
70.85010402609774
 10
971.6644017093092
 20
70.85010402609774
 10
968.7926801469564
 20
61.58153313641628
 10
968.7926801469564
 20
61.58153313641628
 10
968.7926801469564
 20
61.58153313641628
 10
967.8935631585125
 20
61.58153313641628
 10
967.8935631585125
 20
61.58153313641628
 10
967.8935631585125
 20
61.58153313641628
 10
970.7678883773913
 20
70.85010402609774
 10
970.7678883773913
 20
70.85010402609774
 10
970.7678883773913
 20
70.85010402609774
 10
969.5835222190324
 20
70.85010402609774
 10
969.5835222190324
 20
70.85010402609774
 10
969.5835222190324
 20
70.85010402609774
 10
969.8317994662855
 20
71.78808988695778
 10
969.8317994662855
 20
71.78808988695778
 10
969.8317994662855
 20
71.78808988695778
 10
971.0284772005014
 20
71.78808988695778
 10
971.0284772005014
 20
71.78808988695778
 10
971.0284772005014
 20
71.78808988695778
 10
971.4517573613628
 20
73.08783522449019
 10
971.4517573613628
 20
73.08783522449019
 10
971.7940266091862
 20
74.17753987060073
 10
972.0844458970603
 20
74.76258149188186
 10
972.3333926559915
 20
75.20367810239571
 10
972.579698563304
 20
75.64514666384179
 10
973.0671774550653
 20
76.07880425571142
 10
973.5728075523182
 20
76.22434865548715
 97
        1
330
249E
 92
        1
 93
        1
 72
     4
 94
        3
 73
     0
 74
     1
 95
       32
 96
       28
 40
0.0
 40
0.0
 40
0.0
 40
0.0
 40
1.0
 40
1.0
 40
1.0
 40
2.0
 40
2.0
 40
2.0
 40
3.0
 40
3.0
 40
3.0
 40
4.0
 40
4.0
 40
4.0
 40
5.0
 40
5.0
 40
5.0
 40
6.0
 40
6.0
 40
6.0
 40
7.0
 40
7.0
 40
7.0
 40
8.0
 40
8.0
 40
8.0
 40
9.0
 40
9.0
 40
9.0
 40
9.0
 10
975.760585740514
 20
71.22123666626197
 10
975.2193227439554
 20
70.52111342655351
 10
974.8025145293147
 20
69.89102854738113
 10
974.1277211480899
 20
67.91065019898832
 10
973.5073441882485
 20
66.09917476891434
 10
973.1125554687958
 20
64.78127822588988
 10
973.0529317343623
 20
63.17623556319532
 10
973.007553720631
 20
61.98182672966618
 10
973.7348665734851
 20
61.58153313641628
 10
974.801249896145
 20
61.58153313641628
 10
975.2608324679911
 20
61.58153313641628
 10
976.420575474637
 20
61.61076847968843
 10
977.2464553245279
 20
62.6316993984324
 10
977.8246158535619
 20
63.34896957611602
 10
978.3574727590537
 20
64.092499489614
 10
979.0718417194655
 20
66.53153053252123
 10
979.6662936993323
 20
68.57056554292433
 10
980.0778946009211
 20
69.88842489085562
 10
980.0474690146664
 20
70.63876150641318
 10
980.0474690146664
 20
70.63876150641318
 10
980.0474690146664
 20
70.63876150641318
 10
980.0474690146664
 20
70.63876150641318
 10
979.8536081887958
 20
71.89052517368981
 10
978.9447832810217
 20
72.155019481588
 10
978.4255397796494
 20
72.155019481588
 10
977.914107247853
 20
72.155019481588
 10
976.5436912332004
 20
72.24350660836194
 10
975.760585740514
 20
71.22123666626197
 97
        1
330
24A1
 92
        1
 93
        1
 72
     4
 94
        3
 73
     0
 74
     1
 95
       38
 96
       34
 40
0.0
 40
0.0
 40
0.0
 40
0.0
 40
1.0
 40
1.0
 40
1.0
 40
2.0
 40
2.0
 40
2.0
 40
3.0
 40
3.0
 40
3.0
 40
4.0
 40
4.0
 40
4.0
 40
5.0
 40
5.0
 40
5.0
 40
6.0
 40
6.0
 40
6.0
 40
7.0
 40
7.0
 40
7.0
 40
8.0
 40
8.0
 40
8.0
 40
9.0
 40
9.0
 40
9.0
 40
10.0
 40
10.0
 40
10.0
 40
11.0
 40
11.0
 40
11.0
 40
11.0
 10
983.3346969633965
 20
71.75212223181256
 10
983.3346969633965
 20
71.75212223181256
 10
984.2590694201378
 20
71.75212223181256
 10
984.2590694201378
 20
71.75212223181256
 10
984.2590694201378
 20
71.75212223181256
 10
983.8461294951928
 20
70.43002264325406
 10
983.8461294951928
 20
70.43002264325406
 10
984.1599073016093
 20
70.80115528341824
 10
984.6551227727603
 20
71.29544087723889
 10
985.080411468655
 20
71.54468519691622
 10
985.7157036608785
 20
71.9158178370804
 10
986.0787277707202
 20
71.96476657975995
 10
986.4779799013602
 20
71.9550214653359
 10
986.4779799013602
 20
71.9550214653359
 10
986.0878033734668
 20
70.70489438216094
 10
986.0878033734668
 20
70.70489438216094
 10
985.8336864965765
 20
70.81249978685082
 10
985.0505810038919
 20
70.60766640847999
 10
984.6013386679622
 20
70.28451543857147
 10
984.196209712594
 20
69.9931290782742
 10
983.9161306606354
 20
69.74518658685963
 10
983.584276038913
 20
69.12187121465354
 10
983.2549506835301
 20
68.49762596511695
 10
982.9950313720981
 20
67.50224807541616
 10
982.5477231810162
 20
66.05826016637073
 10
982.5477231810162
 20
66.05826016637073
 10
981.1507498698027
 20
61.58153313641628
 10
981.1507498698027
 20
61.58153313641628
 10
981.1507498698027
 20
61.58153313641628
 10
980.2536042212994
 20
61.58153313641628
 10
980.2536042212994
 20
61.58153313641628
 10
980.2536042212994
 20
61.58153313641628
 10
983.3346969633965
 20
71.75212223181256
 10
983.3346969633965
 20
71.75212223181256
 97
        1
330
249F
 92
        1
 93
        1
 72
     4
 94
        3
 73
     0
 74
     1
 95
      104
 96
      100
 40
0.0
 40
0.0
 40
0.0
 40
0.0
 40
1.0
 40
1.0
 40
1.0
 40
2.0
 40
2.0
 40
2.0
 40
3.0
 40
3.0
 40
3.0
 40
4.0
 40
4.0
 40
4.0
 40
5.0
 40
5.0
 40
5.0
 40
6.0
 40
6.0
 40
6.0
 40
7.0
 40
7.0
 40
7.0
 40
8.0
 40
8.0
 40
8.0
 40
9.0
 40
9.0
 40
9.0
 40
10.0
 40
10.0
 40
10.0
 40
11.0
 40
11.0
 40
11.0
 40
12.0
 40
12.0
 40
12.0
 40
13.0
 40
13.0
 40
13.0
 40
14.0
 40
14.0
 40
14.0
 40
15.0
 40
15.0
 40
15.0
 40
16.0
 40
16.0
 40
16.0
 40
17.0
 40
17.0
 40
17.0
 40
18.0
 40
18.0
 40
18.0
 40
19.0
 40
19.0
 40
19.0
 40
20.0
 40
20.0
 40
20.0
 40
21.0
 40
21.0
 40
21.0
 40
22.0
 40
22.0
 40
22.0
 40
23.0
 40
23.0
 40
23.0
 40
24.0
 40
24.0
 40
24.0
 40
25.0
 40
25.0
 40
25.0
 40
26.0
 40
26.0
 40
26.0
 40
27.0
 40
27.0
 40
27.0
 40
28.0
 40
28.0
 40
28.0
 40
29.0
 40
29.0
 40
29.0
 40
30.0
 40
30.0
 40
30.0
 40
31.0
 40
31.0
 40
31.0
 40
32.0
 40
32.0
 40
32.0
 40
33.0
 40
33.0
 40
33.0
 40
33.0
 10
988.4227625455403
 20
71.75762710560934
 10
988.4227625455403
 20
71.75762710560934
 10
989.2298216782599
 20
71.75762710560934
 10
989.2298216782599
 20
71.75762710560934
 10
989.2298216782599
 20
71.75762710560934
 10
988.8220890663658
 20
70.43426288388127
 10
988.8220890663658
 20
70.43426288388127
 10
989.1759631832754
 20
70.98913928455974
 10
989.4936092793876
 20
71.23644945938958
 10
989.9156248070792
 20
71.55602970034877
 10
990.3389049679397
 20
71.87107213993494
 10
990.841336287175
 20
71.93527087083527
 10
991.19007748122
 20
71.93527087083527
 10
991.6218381233355
 20
71.93527087083527
 10
992.0386463379762
 20
71.85001971717159
 10
992.2577254370497
 20
71.37678654611435
 10
992.4256240878528
 20
71.00569110104331
 10
992.4334350574288
 20
70.96191247632157
 10
992.3854533871734
 20
70.22939231041721
 10
992.8242810970003
 20
70.9803984376527
 10
993.1483991393322
 20
71.30388416340014
 10
993.6994072503155
 20
71.6146863623591
 10
994.2776421695378
 20
71.93527087083527
 10
994.6147041043112
 20
71.95926170596317
 10
995.0062940457472
 20
71.90153492128334
 10
995.5831899416123
 20
71.8163209627129
 10
995.9514213645059
 20
71.61048331682503
 10
996.1439431670203
 20
70.98493623902573
 10
996.3371344812128
 20
70.3613233060739
 10
996.2327650496334
 20
70.02682783273289
 10
995.9941957217104
 20
69.03405359955758
 10
995.8852884887581
 20
68.58191004635688
 10
995.7277300738713
 20
68.03443546922952
 10
995.5215948672374
 20
67.38300060654797
 10
995.5215948672374
 20
67.38300060654797
 10
993.6994072503155
 20
61.58153313641628
 10
993.6994072503155
 20
61.58153313641628
 10
993.6994072503155
 20
61.58153313641628
 10
992.7516762750327
 20
61.58153313641628
 10
992.7516762750327
 20
61.58153313641628
 10
992.7516762750327
 20
61.58153313641628
 10
994.3470482134887
 20
66.65338165791485
 10
994.3470482134887
 20
66.65338165791485
 10
994.6802418585673
 20
67.71455766752453
 10
994.9057929038624
 20
68.48951743479464
 10
995.0225111063917
 20
68.97539693754726
 10
995.1689853834976
 20
69.58149098159171
 10
995.2273072896694
 20
69.78148899784378
 10
995.157975635904
 20
70.22262280345092
 10
995.0944464166821
 20
70.63325663261634
 10
994.886972186692
 20
70.9006521577858
 10
994.5317590464272
 20
70.9006521577858
 10
994.1531873876181
 20
70.9006521577858
 10
993.8465510391004
 20
70.85851011716579
 10
993.4174684436964
 20
70.42745618182173
 10
992.9883114581078
 20
69.9931290782742
 10
992.6336934393337
 20
69.48329593548695
 10
992.3556229224093
 20
68.8969524859431
 10
992.0781475269766
 20
68.30703830744997
 10
991.7968038418492
 20
67.55930534841795
 10
991.5115918670269
 20
66.65338165791485
 10
991.5115918670269
 20
66.65338165791485
 10
989.9156248070792
 20
61.58153313641628
 10
989.9156248070792
 20
61.58153313641628
 10
989.9156248070792
 20
61.58153313641628
 10
989.0242815931185
 20
61.58153313641628
 10
989.0242815931185
 20
61.58153313641628
 10
989.0242815931185
 20
61.58153313641628
 10
990.8490728665654
 20
67.38039695002249
 10
990.8490728665654
 20
67.38039695002249
 10
991.0415946690798
 20
67.99753793675379
 10
991.1862091915252
 20
68.50056437748145
 10
991.281503020359
 20
68.89371651283278
 10
991.4435248464313
 20
69.57048123399818
 10
991.4889028601626
 20
70.0281296609956
 10
991.3663822230899
 20
70.43426288388127
 10
991.2457957308659
 20
70.83909427850418
 10
991.0338580896903
 20
70.94249663765996
 10
990.6799095825943
 20
70.94249663765996
 10
990.3830183485004
 20
70.94249663765996
 10
990.0932685723044
 20
70.81510344337633
 10
989.7626785837517
 20
70.56161888307173
 10
989.3464654906027
 20
70.24270815379049
 10
989.1799058631566
 20
69.98081750241784
 10
988.9757048013705
 20
69.66964335252672
 10
988.7001635507856
 20
69.25800525584427
 10
988.571170967494
 20
68.98090181134404
 10
988.3384784643001
 20
68.37283642735878
 10
988.1057115709198
 20
67.76120031442431
 10
987.8853678386756
 20
67.04943501053751
 10
987.7316777134836
 20
66.55712075665758
 10
987.7316777134836
 20
66.55712075665758
 10
986.1662106299771
 20
61.58153313641628
 10
986.1662106299771
 20
61.58153313641628
 10
986.1662106299771
 20
61.58153313641628
 10
985.2327625704909
 20
61.58153313641628
 10
985.2327625704909
 20
61.58153313641628
 10
985.2327625704909
 20
61.58153313641628
 10
988.4227625455403
 20
71.75762710560934
 10
988.4227625455403
 20
71.75762710560934
 97
        1
330
24A0
 92
       16
 93
        1
 72
     4
 94
        3
 73
     0
 74
     1
 95
       29
 96
       25
 40
0.0
 40
0.0
 40
0.0
 40
0.0
 40
1.0
 40
1.0
 40
1.0
 40
2.0
 40
2.0
 40
2.0
 40
3.0
 40
3.0
 40
3.0
 40
4.0
 40
4.0
 40
4.0
 40
5.0
 40
5.0
 40
5.0
 40
6.0
 40
6.0
 40
6.0
 40
7.0
 40
7.0
 40
7.0
 40
8.0
 40
8.0
 40
8.0
 40
8.0
 10
974.0214175716626
 20
63.47632557530645
 10
974.0174748917814
 20
64.18489210117616
 10
974.241166182416
 20
65.44379722635136
 10
974.8141937885864
 20
67.12821421798066
 10
975.594695624746
 20
69.4090545294168
 10
976.0627586778462
 20
70.24270815379049
 10
976.4723510444016
 20
70.64850662083717
 10
977.0707457041487
 20
71.23938787175408
 10
977.8752011803442
 20
71.2688463855855
 10
978.1125058750974
 20
71.23938787175408
 10
978.450237321548
 20
71.19884522014263
 10
978.9273015872075
 20
70.97779478112719
 10
978.9557930286153
 20
70.23363255104445
 10
978.978556425667
 20
69.59674096981257
 10
978.7950358357118
 20
68.4039687203852
 10
978.152676575776
 20
66.53153053252123
 10
977.4123454402959
 20
64.35569196924934
 10
976.967640905739
 20
63.50035360552755
 10
976.6111631323035
 20
63.12758438126156
 10
975.9395685290963
 20
62.42876296981586
 10
975.2193227439554
 20
62.49586291798744
 10
975.1130191675281
 20
62.49586291798744
 10
974.9749509814899
 20
62.49586291798744
 10
974.0233517165104
 20
62.64568475348372
 10
974.0214175716626
 20
63.47632557530645
 97
        1
330
24A2
 75
     0
 76
     1
 98
        1
 10
929.7307651966601
 20
36.16262959939627
1001
ACAD
1010
0.0
1020
0.0
1030
0.0
  0
POLYLINE
  5
2493
102
{ACAD_REACTORS
330
2492
330
24A3
102
}
330
A
100
AcDbEntity
  8
TEMPLATE
100
AcDb2dPolyline
 66
     1
 10
0.0
 20
0.0
 30
0.0
  0
VERTEX
  5
2494
330
2493
100
AcDbEntity
  8
TEMPLATE
100
AcDbVertex
100
AcDb2dVertex
 10
967.3017148351717
 20
76.58153313569332
 30
0.0
  0
VERTEX
  5
2495
330
2493
100
AcDbEntity
  8
TEMPLATE
100
AcDbVertex
100
AcDb2dVertex
 10
967.3017148351717
 20
73.6268293203631
 30
0.0
  0
VERTEX
  5
2496
330
2493
100
AcDbEntity
  8
TEMPLATE
100
AcDbVertex
100
AcDb2dVertex
 10
962.6214190600165
 20
73.6268293203631
 30
0.0
  0
VERTEX
  5
2497
330
2493
100
AcDbEntity
  8
TEMPLATE
100
AcDbVertex
100
AcDb2dVertex
 10
962.6214190600165
 20
61.58153313641628
 30
0.0
  0
VERTEX
  5
2498
330
2493
100
AcDbEntity
  8
TEMPLATE
100
AcDbVertex
100
AcDb2dVertex
 10
958.5051124833788
 20
61.58153313641628
 30
0.0
  0
VERTEX
  5
2499
330
2493
100
AcDbEntity
  8
TEMPLATE
100
AcDbVertex
100
AcDb2dVertex
 10
958.5051124833788
 20
73.6268293203631
 30
0.0
  0
VERTEX
  5
249A
330
2493
100
AcDbEntity
  8
TEMPLATE
100
AcDbVertex
100
AcDb2dVertex
 10
953.9077617661067
 20
73.6268293203631
 30
0.0
  0
VERTEX
  5
249B
330
2493
100
AcDbEntity
  8
TEMPLATE
100
AcDbVertex
100
AcDb2dVertex
 10
953.9077617661067
 20
76.58153313569332
 30
0.0
  0
VERTEX
  5
249C
330
2493
100
AcDbEntity
  8
TEMPLATE
100
AcDbVertex
100
AcDb2dVertex
 10
967.3017148351717
 20
76.58153313569332
 30
0.0
  0
SEQEND
  5
249D
330
2493
100
AcDbEntity
  8
TEMPLATE
  0
SPLINE
  5
249E
102
{ACAD_REACTORS
330
2492
330
24A3
102
}
330
A
100
AcDbEntity
  8
TEMPLATE
100
AcDbSpline
210
0.0
220
0.0
230
1.0
 70
    11
 71
     3
 72
    56
 73
    52
 74
     0
 42
0.000000001
 43
0.0000000001
 40
0.0
 40
0.0
 40
0.0
 40
0.0
 40
1.0
 40
1.0
 40
1.0
 40
2.0
 40
2.0
 40
2.0
 40
3.0
 40
3.0
 40
3.0
 40
4.0
 40
4.0
 40
4.0
 40
5.0
 40
5.0
 40
5.0
 40
6.0
 40
6.0
 40
6.0
 40
7.0
 40
7.0
 40
7.0
 40
8.0
 40
8.0
 40
8.0
 40
9.0
 40
9.0
 40
9.0
 40
10.0
 40
10.0
 40
10.0
 40
11.0
 40
11.0
 40
11.0
 40
12.0
 40
12.0
 40
12.0
 40
13.0
 40
13.0
 40
13.0
 40
14.0
 40
14.0
 40
14.0
 40
15.0
 40
15.0
 40
15.0
 40
16.0
 40
16.0
 40
16.0
 40
17.0
 40
17.0
 40
17.0
 40
17.0
 10
973.5728075523182
 20
76.22434865548715
 30
0.0
 10
974.1497406432779
 20
76.38674243249227
 30
0.0
 10
974.8945351899454
 20
76.2509059520473
 30
0.0
 10
974.8945351899454
 20
76.2509059520473
 30
0.0
 10
974.8945351899454
 20
76.2509059520473
 30
0.0
 10
974.5367183931537
 20
75.17712080583556
 30
0.0
 10
974.5367183931537
 20
75.17712080583556
 30
0.0
 10
974.5367183931537
 20
75.17712080583556
 30
0.0
 10
973.8055372506058
 20
75.3463212849002
 30
0.0
 10
973.2415852471802
 20
74.90161675034386
 30
0.0
 10
972.8033526588458
 20
74.55384262872275
 30
0.0
 10
972.5194425122852
 20
73.6297677327276
 30
0.0
 10
972.4105352793329
 20
73.2784228821572
 30
0.0
 10
972.4105352793329
 20
73.2784228821572
 30
0.0
 10
971.9249905324193
 20
71.78808988695778
 30
0.0
 10
971.9249905324193
 20
71.78808988695778
 30
0.0
 10
971.9249905324193
 20
71.78808988695778
 30
0.0
 10
973.5170521075795
 20
71.78808988695778
 30
0.0
 10
973.5170521075795
 20
71.78808988695778
 30
0.0
 10
973.5170521075795
 20
71.78808988695778
 30
0.0
 10
973.2694443720036
 20
70.85010402609774
 30
0.0
 10
973.2694443720036
 20
70.85010402609774
 30
0.0
 10
973.2694443720036
 20
70.85010402609774
 30
0.0
 10
971.6644017093092
 20
70.85010402609774
 30
0.0
 10
971.6644017093092
 20
70.85010402609774
 30
0.0
 10
971.6644017093092
 20
70.85010402609774
 30
0.0
 10
968.7926801469564
 20
61.58153313641628
 30
0.0
 10
968.7926801469564
 20
61.58153313641628
 30
0.0
 10
968.7926801469564
 20
61.58153313641628
 30
0.0
 10
967.8935631585125
 20
61.58153313641628
 30
0.0
 10
967.8935631585125
 20
61.58153313641628
 30
0.0
 10
967.8935631585125
 20
61.58153313641628
 30
0.0
 10
970.7678883773913
 20
70.85010402609774
 30
0.0
 10
970.7678883773913
 20
70.85010402609774
 30
0.0
 10
970.7678883773913
 20
70.85010402609774
 30
0.0
 10
969.5835222190324
 20
70.85010402609774
 30
0.0
 10
969.5835222190324
 20
70.85010402609774
 30
0.0
 10
969.5835222190324
 20
70.85010402609774
 30
0.0
 10
969.8317994662855
 20
71.78808988695778
 30
0.0
 10
969.8317994662855
 20
71.78808988695778
 30
0.0
 10
969.8317994662855
 20
71.78808988695778
 30
0.0
 10
971.0284772005014
 20
71.78808988695778
 30
0.0
 10
971.0284772005014
 20
71.78808988695778
 30
0.0
 10
971.0284772005014
 20
71.78808988695778
 30
0.0
 10
971.4517573613628
 20
73.08783522449019
 30
0.0
 10
971.4517573613628
 20
73.08783522449019
 30
0.0
 10
971.7940266091862
 20
74.17753987060073
 30
0.0
 10
972.0844458970603
 20
74.76258149188186
 30
0.0
 10
972.3333926559915
 20
75.20367810239571
 30
0.0
 10
972.579698563304
 20
75.64514666384179
 30
0.0
 10
973.0671774550653
 20
76.07880425571142
 30
0.0
 10
973.5728075523182
 20
76.22434865548715
 30
0.0
  0
SPLINE
  5
249F
102
{ACAD_REACTORS
330
2492
330
24A3
102
}
330
A
100
AcDbEntity
  8
TEMPLATE
100
AcDbSpline
210
0.0
220
0.0
230
1.0
 70
    11
 71
     3
 72
    38
 73
    34
 74
     0
 42
0.000000001
 43
0.0000000001
 40
0.0
 40
0.0
 40
0.0
 40
0.0
 40
1.0
 40
1.0
 40
1.0
 40
2.0
 40
2.0
 40
2.0
 40
3.0
 40
3.0
 40
3.0
 40
4.0
 40
4.0
 40
4.0
 40
5.0
 40
5.0
 40
5.0
 40
6.0
 40
6.0
 40
6.0
 40
7.0
 40
7.0
 40
7.0
 40
8.0
 40
8.0
 40
8.0
 40
9.0
 40
9.0
 40
9.0
 40
10.0
 40
10.0
 40
10.0
 40
11.0
 40
11.0
 40
11.0
 40
11.0
 10
983.3346969633965
 20
71.75212223181256
 30
0.0
 10
983.3346969633965
 20
71.75212223181256
 30
0.0
 10
984.2590694201378
 20
71.75212223181256
 30
0.0
 10
984.2590694201378
 20
71.75212223181256
 30
0.0
 10
984.2590694201378
 20
71.75212223181256
 30
0.0
 10
983.8461294951928
 20
70.43002264325406
 30
0.0
 10
983.8461294951928
 20
70.43002264325406
 30
0.0
 10
984.1599073016093
 20
70.80115528341824
 30
0.0
 10
984.6551227727603
 20
71.29544087723889
 30
0.0
 10
985.080411468655
 20
71.54468519691622
 30
0.0
 10
985.7157036608785
 20
71.9158178370804
 30
0.0
 10
986.0787277707202
 20
71.96476657975995
 30
0.0
 10
986.4779799013602
 20
71.9550214653359
 30
0.0
 10
986.4779799013602
 20
71.9550214653359
 30
0.0
 10
986.0878033734668
 20
70.70489438216094
 30
0.0
 10
986.0878033734668
 20
70.70489438216094
 30
0.0
 10
985.8336864965765
 20
70.81249978685082
 30
0.0
 10
985.0505810038919
 20
70.60766640847999
 30
0.0
 10
984.6013386679622
 20
70.28451543857147
 30
0.0
 10
984.196209712594
 20
69.9931290782742
 30
0.0
 10
983.9161306606354
 20
69.74518658685963
 30
0.0
 10
983.584276038913
 20
69.12187121465354
 30
0.0
 10
983.2549506835301
 20
68.49762596511695
 30
0.0
 10
982.9950313720981
 20
67.50224807541616
 30
0.0
 10
982.5477231810162
 20
66.05826016637073
 30
0.0
 10
982.5477231810162
 20
66.05826016637073
 30
0.0
 10
981.1507498698027
 20
61.58153313641628
 30
0.0
 10
981.1507498698027
 20
61.58153313641628
 30
0.0
 10
981.1507498698027
 20
61.58153313641628
 30
0.0
 10
980.2536042212994
 20
61.58153313641628
 30
0.0
 10
980.2536042212994
 20
61.58153313641628
 30
0.0
 10
980.2536042212994
 20
61.58153313641628
 30
0.0
 10
983.3346969633965
 20
71.75212223181256
 30
0.0
 10
983.3346969633965
 20
71.75212223181256
 30
0.0
  0
SPLINE
  5
24A0
102
{ACAD_REACTORS
330
2492
330
24A3
102
}
330
A
100
AcDbEntity
  8
TEMPLATE
100
AcDbSpline
210
0.0
220
0.0
230
1.0
 70
    11
 71
     3
 72
   104
 73
   100
 74
     0
 42
0.000000001
 43
0.0000000001
 40
0.0
 40
0.0
 40
0.0
 40
0.0
 40
1.0
 40
1.0
 40
1.0
 40
2.0
 40
2.0
 40
2.0
 40
3.0
 40
3.0
 40
3.0
 40
4.0
 40
4.0
 40
4.0
 40
5.0
 40
5.0
 40
5.0
 40
6.0
 40
6.0
 40
6.0
 40
7.0
 40
7.0
 40
7.0
 40
8.0
 40
8.0
 40
8.0
 40
9.0
 40
9.0
 40
9.0
 40
10.0
 40
10.0
 40
10.0
 40
11.0
 40
11.0
 40
11.0
 40
12.0
 40
12.0
 40
12.0
 40
13.0
 40
13.0
 40
13.0
 40
14.0
 40
14.0
 40
14.0
 40
15.0
 40
15.0
 40
15.0
 40
16.0
 40
16.0
 40
16.0
 40
17.0
 40
17.0
 40
17.0
 40
18.0
 40
18.0
 40
18.0
 40
19.0
 40
19.0
 40
19.0
 40
20.0
 40
20.0
 40
20.0
 40
21.0
 40
21.0
 40
21.0
 40
22.0
 40
22.0
 40
22.0
 40
23.0
 40
23.0
 40
23.0
 40
24.0
 40
24.0
 40
24.0
 40
25.0
 40
25.0
 40
25.0
 40
26.0
 40
26.0
 40
26.0
 40
27.0
 40
27.0
 40
27.0
 40
28.0
 40
28.0
 40
28.0
 40
29.0
 40
29.0
 40
29.0
 40
30.0
 40
30.0
 40
30.0
 40
31.0
 40
31.0
 40
31.0
 40
32.0
 40
32.0
 40
32.0
 40
33.0
 40
33.0
 40
33.0
 40
33.0
 10
988.4227625455403
 20
71.75762710560934
 30
0.0
 10
988.4227625455403
 20
71.75762710560934
 30
0.0
 10
989.2298216782599
 20
71.75762710560934
 30
0.0
 10
989.2298216782599
 20
71.75762710560934
 30
0.0
 10
989.2298216782599
 20
71.75762710560934
 30
0.0
 10
988.8220890663658
 20
70.43426288388127
 30
0.0
 10
988.8220890663658
 20
70.43426288388127
 30
0.0
 10
989.1759631832754
 20
70.98913928455974
 30
0.0
 10
989.4936092793876
 20
71.23644945938958
 30
0.0
 10
989.9156248070792
 20
71.55602970034877
 30
0.0
 10
990.3389049679397
 20
71.87107213993494
 30
0.0
 10
990.841336287175
 20
71.93527087083527
 30
0.0
 10
991.19007748122
 20
71.93527087083527
 30
0.0
 10
991.6218381233355
 20
71.93527087083527
 30
0.0
 10
992.0386463379762
 20
71.85001971717159
 30
0.0
 10
992.2577254370497
 20
71.37678654611435
 30
0.0
 10
992.4256240878528
 20
71.00569110104331
 30
0.0
 10
992.4334350574288
 20
70.96191247632157
 30
0.0
 10
992.3854533871734
 20
70.22939231041721
 30
0.0
 10
992.8242810970003
 20
70.9803984376527
 30
0.0
 10
993.1483991393322
 20
71.30388416340014
 30
0.0
 10
993.6994072503155
 20
71.6146863623591
 30
0.0
 10
994.2776421695378
 20
71.93527087083527
 30
0.0
 10
994.6147041043112
 20
71.95926170596317
 30
0.0
 10
995.0062940457472
 20
71.90153492128334
 30
0.0
 10
995.5831899416123
 20
71.8163209627129
 30
0.0
 10
995.9514213645059
 20
71.61048331682503
 30
0.0
 10
996.1439431670203
 20
70.98493623902573
 30
0.0
 10
996.3371344812128
 20
70.3613233060739
 30
0.0
 10
996.2327650496334
 20
70.02682783273289
 30
0.0
 10
995.9941957217104
 20
69.03405359955758
 30
0.0
 10
995.8852884887581
 20
68.58191004635688
 30
0.0
 10
995.7277300738713
 20
68.03443546922952
 30
0.0
 10
995.5215948672374
 20
67.38300060654797
 30
0.0
 10
995.5215948672374
 20
67.38300060654797
 30
0.0
 10
993.6994072503155
 20
61.58153313641628
 30
0.0
 10
993.6994072503155
 20
61.58153313641628
 30
0.0
 10
993.6994072503155
 20
61.58153313641628
 30
0.0
 10
992.7516762750327
 20
61.58153313641628
 30
0.0
 10
992.7516762750327
 20
61.58153313641628
 30
0.0
 10
992.7516762750327
 20
61.58153313641628
 30
0.0
 10
994.3470482134887
 20
66.65338165791485
 30
0.0
 10
994.3470482134887
 20
66.65338165791485
 30
0.0
 10
994.6802418585673
 20
67.71455766752453
 30
0.0
 10
994.9057929038624
 20
68.48951743479464
 30
0.0
 10
995.0225111063917
 20
68.97539693754726
 30
0.0
 10
995.1689853834976
 20
69.58149098159171
 30
0.0
 10
995.2273072896694
 20
69.78148899784378
 30
0.0
 10
995.157975635904
 20
70.22262280345092
 30
0.0
 10
995.0944464166821
 20
70.63325663261634
 30
0.0
 10
994.886972186692
 20
70.9006521577858
 30
0.0
 10
994.5317590464272
 20
70.9006521577858
 30
0.0
 10
994.1531873876181
 20
70.9006521577858
 30
0.0
 10
993.8465510391004
 20
70.85851011716579
 30
0.0
 10
993.4174684436964
 20
70.42745618182173
 30
0.0
 10
992.9883114581078
 20
69.9931290782742
 30
0.0
 10
992.6336934393337
 20
69.48329593548695
 30
0.0
 10
992.3556229224093
 20
68.8969524859431
 30
0.0
 10
992.0781475269766
 20
68.30703830744997
 30
0.0
 10
991.7968038418492
 20
67.55930534841795
 30
0.0
 10
991.5115918670269
 20
66.65338165791485
 30
0.0
 10
991.5115918670269
 20
66.65338165791485
 30
0.0
 10
989.9156248070792
 20
61.58153313641628
 30
0.0
 10
989.9156248070792
 20
61.58153313641628
 30
0.0
 10
989.9156248070792
 20
61.58153313641628
 30
0.0
 10
989.0242815931185
 20
61.58153313641628
 30
0.0
 10
989.0242815931185
 20
61.58153313641628
 30
0.0
 10
989.0242815931185
 20
61.58153313641628
 30
0.0
 10
990.8490728665654
 20
67.38039695002249
 30
0.0
 10
990.8490728665654
 20
67.38039695002249
 30
0.0
 10
991.0415946690798
 20
67.99753793675379
 30
0.0
 10
991.1862091915252
 20
68.50056437748145
 30
0.0
 10
991.281503020359
 20
68.89371651283278
 30
0.0
 10
991.4435248464313
 20
69.57048123399818
 30
0.0
 10
991.4889028601626
 20
70.0281296609956
 30
0.0
 10
991.3663822230899
 20
70.43426288388127
 30
0.0
 10
991.2457957308659
 20
70.83909427850418
 30
0.0
 10
991.0338580896903
 20
70.94249663765996
 30
0.0
 10
990.6799095825943
 20
70.94249663765996
 30
0.0
 10
990.3830183485004
 20
70.94249663765996
 30
0.0
 10
990.0932685723044
 20
70.81510344337633
 30
0.0
 10
989.7626785837517
 20
70.56161888307173
 30
0.0
 10
989.3464654906027
 20
70.24270815379049
 30
0.0
 10
989.1799058631566
 20
69.98081750241784
 30
0.0
 10
988.9757048013705
 20
69.66964335252672
 30
0.0
 10
988.7001635507856
 20
69.25800525584427
 30
0.0
 10
988.571170967494
 20
68.98090181134404
 30
0.0
 10
988.3384784643001
 20
68.37283642735878
 30
0.0
 10
988.1057115709198
 20
67.76120031442431
 30
0.0
 10
987.8853678386756
 20
67.04943501053751
 30
0.0
 10
987.7316777134836
 20
66.55712075665758
 30
0.0
 10
987.7316777134836
 20
66.55712075665758
 30
0.0
 10
986.1662106299771
 20
61.58153313641628
 30
0.0
 10
986.1662106299771
 20
61.58153313641628
 30
0.0
 10
986.1662106299771
 20
61.58153313641628
 30
0.0
 10
985.2327625704909
 20
61.58153313641628
 30
0.0
 10
985.2327625704909
 20
61.58153313641628
 30
0.0
 10
985.2327625704909
 20
61.58153313641628
 30
0.0
 10
988.4227625455403
 20
71.75762710560934
 30
0.0
 10
988.4227625455403
 20
71.75762710560934
 30
0.0
  0
SPLINE
  5
24A1
102
{ACAD_REACTORS
330
2492
330
24A3
102
}
330
A
100
AcDbEntity
  8
TEMPLATE
100
AcDbSpline
210
0.0
220
0.0
230
1.0
 70
    11
 71
     3
 72
    32
 73
    28
 74
     0
 42
0.000000001
 43
0.0000000001
 40
0.0
 40
0.0
 40
0.0
 40
0.0
 40
1.0
 40
1.0
 40
1.0
 40
2.0
 40
2.0
 40
2.0
 40
3.0
 40
3.0
 40
3.0
 40
4.0
 40
4.0
 40
4.0
 40
5.0
 40
5.0
 40
5.0
 40
6.0
 40
6.0
 40
6.0
 40
7.0
 40
7.0
 40
7.0
 40
8.0
 40
8.0
 40
8.0
 40
9.0
 40
9.0
 40
9.0
 40
9.0
 10
975.760585740514
 20
71.22123666626197
 30
0.0
 10
975.2193227439554
 20
70.52111342655351
 30
0.0
 10
974.8025145293147
 20
69.89102854738113
 30
0.0
 10
974.1277211480899
 20
67.91065019898832
 30
0.0
 10
973.5073441882485
 20
66.09917476891434
 30
0.0
 10
973.1125554687958
 20
64.78127822588988
 30
0.0
 10
973.0529317343623
 20
63.17623556319532
 30
0.0
 10
973.007553720631
 20
61.98182672966618
 30
0.0
 10
973.7348665734851
 20
61.58153313641628
 30
0.0
 10
974.801249896145
 20
61.58153313641628
 30
0.0
 10
975.2608324679911
 20
61.58153313641628
 30
0.0
 10
976.420575474637
 20
61.61076847968843
 30
0.0
 10
977.2464553245279
 20
62.6316993984324
 30
0.0
 10
977.8246158535619
 20
63.34896957611602
 30
0.0
 10
978.3574727590537
 20
64.092499489614
 30
0.0
 10
979.0718417194655
 20
66.53153053252123
 30
0.0
 10
979.6662936993323
 20
68.57056554292433
 30
0.0
 10
980.0778946009211
 20
69.88842489085562
 30
0.0
 10
980.0474690146664
 20
70.63876150641318
 30
0.0
 10
980.0474690146664
 20
70.63876150641318
 30
0.0
 10
980.0474690146664
 20
70.63876150641318
 30
0.0
 10
980.0474690146664
 20
70.63876150641318
 30
0.0
 10
979.8536081887958
 20
71.89052517368981
 30
0.0
 10
978.9447832810217
 20
72.155019481588
 30
0.0
 10
978.4255397796494
 20
72.155019481588
 30
0.0
 10
977.914107247853
 20
72.155019481588
 30
0.0
 10
976.5436912332004
 20
72.24350660836194
 30
0.0
 10
975.760585740514
 20
71.22123666626197
 30
0.0
  0
SPLINE
  5
24A2
102
{ACAD_REACTORS
330
2492
330
24A3
102
}
330
A
100
AcDbEntity
  8
TEMPLATE
100
AcDbSpline
210
0.0
220
0.0
230
1.0
 70
    11
 71
     3
 72
    29
 73
    25
 74
     0
 42
0.000000001
 43
0.0000000001
 40
0.0
 40
0.0
 40
0.0
 40
0.0
 40
1.0
 40
1.0
 40
1.0
 40
2.0
 40
2.0
 40
2.0
 40
3.0
 40
3.0
 40
3.0
 40
4.0
 40
4.0
 40
4.0
 40
5.0
 40
5.0
 40
5.0
 40
6.0
 40
6.0
 40
6.0
 40
7.0
 40
7.0
 40
7.0
 40
8.0
 40
8.0
 40
8.0
 40
8.0
 10
974.0214175716626
 20
63.47632557530645
 30
0.0
 10
974.0174748917814
 20
64.18489210117616
 30
0.0
 10
974.241166182416
 20
65.44379722635136
 30
0.0
 10
974.8141937885864
 20
67.12821421798066
 30
0.0
 10
975.594695624746
 20
69.4090545294168
 30
0.0
 10
976.0627586778462
 20
70.24270815379049
 30
0.0
 10
976.4723510444016
 20
70.64850662083717
 30
0.0
 10
977.0707457041487
 20
71.23938787175408
 30
0.0
 10
977.8752011803442
 20
71.2688463855855
 30
0.0
 10
978.1125058750974
 20
71.23938787175408
 30
0.0
 10
978.450237321548
 20
71.19884522014263
 30
0.0
 10
978.9273015872075
 20
70.97779478112719
 30
0.0
 10
978.9557930286153
 20
70.23363255104445
 30
0.0
 10
978.978556425667
 20
69.59674096981257
 30
0.0
 10
978.7950358357118
 20
68.4039687203852
 30
0.0
 10
978.152676575776
 20
66.53153053252123
 30
0.0
 10
977.4123454402959
 20
64.35569196924934
 30
0.0
 10
976.967640905739
 20
63.50035360552755
 30
0.0
 10
976.6111631323035
 20
63.12758438126156
 30
0.0
 10
975.9395685290963
 20
62.42876296981586
 30
0.0
 10
975.2193227439554
 20
62.49586291798744
 30
0.0
 10
975.1130191675281
 20
62.49586291798744
 30
0.0
 10
974.9749509814899
 20
62.49586291798744
 30
0.0
 10
974.0233517165104
 20
62.64568475348372
 30
0.0
 10
974.0214175716626
 20
63.47632557530645
 30
0.0
  0
INSERT
  5
353F
330
A
100
AcDbEntity
  8
TEMPLATE
100
AcDbBlockReference
  2
block 2
 10
3001.832022431623
 20
130.3662405293479
 30
0.0
 41
0.7619999999999998
 42
0.7619999999999998
 43
0.7619999999999998
  0
POINT
  5
363D
330
A
100
AcDbEntity
  8
_0-1_
 62
     7
100
AcDbPoint
 10
2030.555895545675
 20
1192.107828870368
 30
0.0
  0
POINT
  5
363E
330
A
100
AcDbEntity
  8
_0-1_
 62
     7
100
AcDbPoint
 10
2590.555895545675
 20
1192.107828870368
 30
0.0
  0
POINT
  5
3643
330
A
100
AcDbEntity
  8
_0-1_
 62
     7
100
AcDbPoint
 10
2797.514771453383
 20
1192.107828870368
 30
0.0
  0
POINT
  5
3644
330
A
100
AcDbEntity
  8
_0-1_
 62
     7
100
AcDbPoint
 10
2784.014770772557
 20
1192.107828870368
 30
0.0
  0
POINT
  5
3649
330
A
100
AcDbEntity
  8
_0-1_
 62
     7
100
AcDbPoint
 10
2847.514771453383
 20
1092.1078318506
 30
0.0
  0
POINT
  5
364A
330
A
100
AcDbEntity
  8
_0-1_
 62
     7
100
AcDbPoint
 10
2847.514771453383
 20
1142.107828870368
 30
0.0
  0
POINT
  5
364F
330
A
100
AcDbEntity
  8
_0-1_
 62
     7
100
AcDbPoint
 10
2673.214771009329
 20
1126.607837198775
 30
0.0
  0
POINT
  5
3650
330
A
100
AcDbEntity
  8
_0-1_
 62
     7
100
AcDbPoint
 10
2673.214771009329
 20
1107.607837198775
 30
0.0
  0
POINT
  5
3657
330
A
100
AcDbEntity
  8
_0-1_
 62
     7
100
AcDbPoint
 10
2665.555887217269
 20
852.0058944334177
 30
0.0
  0
POINT
  5
3658
330
A
100
AcDbEntity
  8
_0-1_
 62
     7
100
AcDbPoint
 10
2665.555887217269
 20
777.7058937525916
 30
0.0
  0
POINT
  5
365D
330
A
100
AcDbEntity
  8
_0-1_
 62
     7
100
AcDbPoint
 10
2449.53008641992
 20
792.2058937467535
 30
0.0
  0
POINT
  5
365E
330
A
100
AcDbEntity
  8
_0-1_
 62
     7
100
AcDbPoint
 10
2449.53008641992
 20
779.2058933039096
 30
0.0
  0
POINT
  5
36D3
330
A
100
AcDbEntity
  8
_0-1_
 62
     7
100
AcDbPoint
 10
2005.555895545675
 20
1232.107828870368
 30
0.0
  0
POINT
  5
36D4
330
A
100
AcDbEntity
  8
_0-1_
 62
     7
100
AcDbPoint
 10
2615.555895545675
 20
1232.107828870368
 30
0.0
  0
INSERT
  5
38EB
330
A
100
AcDbEntity
  8
TEMPLATE
  6
Continuous
100
AcDbBlockReference
  2
名称未設定-1
 10
2221.768910194071
 20
25.08582765251368
 30
0.0
 41
0.3809999999999999
 42
0.3809999999999999
 43
0.3809999999999999
  0
POLYLINE
  5
38EE
330
A
100
AcDbEntity
  8
MODEL
100
AcDb2dPolyline
 66
     1
 10
0.0
 20
0.0
 30
0.0
  0
VERTEX
  5
38EF
330
38EE
100
AcDbEntity
  8
MODEL
100
AcDbVertex
100
AcDb2dVertex
 10
175.5625099828399
 20
1080.275434328477
 30
0.0
  0
VERTEX
  5
38F0
330
38EE
100
AcDbEntity
  8
MODEL
100
AcDbVertex
100
AcDb2dVertex
 10
204.2377811712338
 20
1080.275434328477
 30
0.0
  0
VERTEX
  5
38F1
330
38EE
100
AcDbEntity
  8
MODEL
100
AcDbVertex
100
AcDb2dVertex
 10
204.3919492959028
 20
1080.275434328477
 30
0.0
  0
VERTEX
  5
38F2
330
38EE
100
AcDbEntity
  8
MODEL
100
AcDbVertex
100
AcDb2dVertex
 10
204.3919492959028
 20
1080.427018629829
 30
0.0
  0
SEQEND
  5
38F3
330
38EE
100
AcDbEntity
  8
MODEL
  0
POLYLINE
  5
38F4
330
A
100
AcDbEntity
  8
MODEL
100
AcDb2dPolyline
 66
     1
 10
0.0
 20
0.0
 30
0.0
  0
VERTEX
  5
38F5
330
38F4
100
AcDbEntity
  8
MODEL
100
AcDbVertex
100
AcDb2dVertex
 10
175.0285198303559
 20
537.8102721271443
 30
0.0
  0
VERTEX
  5
38F6
330
38F4
100
AcDbEntity
  8
MODEL
100
AcDbVertex
100
AcDb2dVertex
 10
175.0285198303559
 20
1242.671313717715
 30
0.0
  0
SEQEND
  5
38F7
330
38F4
100
AcDbEntity
  8
MODEL
  0
POLYLINE
  5
38F8
330
A
100
AcDbEntity
  8
MODEL
100
AcDb2dPolyline
 66
     1
 10
0.0
 20
0.0
 30
0.0
  0
VERTEX
  5
38F9
330
38F8
100
AcDbEntity
  8
MODEL
100
AcDbVertex
100
AcDb2dVertex
 10
174.9527276796803
 20
1102.694407988413
 30
0.0
  0
VERTEX
  5
38FA
330
38F8
100
AcDbEntity
  8
MODEL
100
AcDbVertex
100
AcDb2dVertex
 10
204.9982865013037
 20
1102.694407988413
 30
0.0
  0
SEQEND
  5
38FB
330
38F8
100
AcDbEntity
  8
MODEL
  0
POLYLINE
  5
38FC
330
A
100
AcDbEntity
  8
MODEL
100
AcDb2dPolyline
 66
     1
 10
0.0
 20
0.0
 30
0.0
  0
VERTEX
  5
38FD
330
38FC
100
AcDbEntity
  8
MODEL
100
AcDbVertex
100
AcDb2dVertex
 10
205.0894254985794
 20
537.8102721271443
 30
0.0
  0
VERTEX
  5
38FE
330
38FC
100
AcDbEntity
  8
MODEL
100
AcDbVertex
100
AcDb2dVertex
 10
205.2273855022083
 20
1242.671313717715
 30
0.0
  0
SEQEND
  5
38FF
330
38FC
100
AcDbEntity
  8
MODEL
  0
SPLINE
  5
3900
330
A
100
AcDbEntity
  8
MODEL
100
AcDbSpline
210
0.0
220
0.0
230
1.0
 70
     8
 71
     3
 72
    11
 73
     7
 74
     0
 42
0.000000001
 43
0.0000000001
 40
0.0
 40
0.0
 40
0.0
 40
0.0
 40
1.0
 40
1.0
 40
1.0
 40
2.0
 40
2.0
 40
2.0
 40
2.0
 10
174.9527276796803
 20
1242.671313717715
 30
0.0
 10
174.9527276796803
 20
1251.030843427409
 30
0.0
 10
181.7300962440308
 20
1257.808211991759
 30
0.0
 10
190.0904872281642
 20
1257.808211991759
 30
0.0
 10
198.4500169378582
 20
1257.808211991759
 30
0.0
 10
205.2273855022083
 20
1251.030843427409
 30
0.0
 10
205.2273855022083
 20
1242.671313717715
 30
0.0
  0
POLYLINE
  5
3901
330
A
100
AcDbEntity
  8
MODEL
100
AcDb2dPolyline
 66
     1
 10
0.0
 20
0.0
 30
0.0
  0
VERTEX
  5
3902
330
3901
100
AcDbEntity
  8
MODEL
100
AcDbVertex
100
AcDb2dVertex
 10
234.9387698413093
 20
457.8082119917581
 30
0.0
  0
VERTEX
  5
3903
330
3901
100
AcDbEntity
  8
MODEL
100
AcDbVertex
100
AcDb2dVertex
 10
144.9390360123184
 20
457.8082119917581
 30
0.0
  0
VERTEX
  5
3904
330
3901
100
AcDbEntity
  8
MODEL
100
AcDbVertex
100
AcDb2dVertex
 10
144.9390360123184
 20
475.8088477771079
 30
0.0
  0
VERTEX
  5
3905
330
3901
100
AcDbEntity
  8
MODEL
100
AcDbVertex
100
AcDb2dVertex
 10
234.9387698413093
 20
475.8088477771079
 30
0.0
  0
VERTEX
  5
3906
330
3901
100
AcDbEntity
  8
MODEL
100
AcDbVertex
100
AcDb2dVertex
 10
234.9387698413093
 20
457.8082119917581
 30
0.0
  0
SEQEND
  5
3907
330
3901
100
AcDbEntity
  8
MODEL
  0
POLYLINE
  5
3908
330
A
100
AcDbEntity
  8
MODEL
100
AcDb2dPolyline
 66
     1
 10
0.0
 20
0.0
 30
0.0
  0
VERTEX
  5
3909
330
3908
100
AcDbEntity
  8
MODEL
100
AcDbVertex
100
AcDb2dVertex
 10
167.4389694695658
 20
475.8088477771079
 30
0.0
  0
VERTEX
  5
390A
330
3908
100
AcDbEntity
  8
MODEL
100
AcDbVertex
100
AcDb2dVertex
 10
167.4389694695658
 20
537.8102721271443
 30
0.0
  0
VERTEX
  5
390B
330
3908
100
AcDbEntity
  8
MODEL
100
AcDbVertex
100
AcDb2dVertex
 10
212.4388363840619
 20
537.8102721271443
 30
0.0
  0
VERTEX
  5
390C
330
3908
100
AcDbEntity
  8
MODEL
100
AcDbVertex
100
AcDb2dVertex
 10
212.4388363840619
 20
475.8088477771079
 30
0.0
  0
SEQEND
  5
390D
330
3908
100
AcDbEntity
  8
MODEL
  0
LWPOLYLINE
  5
390E
330
A
100
AcDbEntity
  8
MODEL
100
AcDbPolyline
 90
        2
 70
     0
 43
0.0
 10
704.8141204531651
 20
1102.542823687063
 10
733.794282793139
 20
1102.542823687063
  0
LWPOLYLINE
  5
390F
330
A
100
AcDbEntity
  8
MODEL
100
AcDbPolyline
 90
        3
 70
     0
 43
0.0
 10
733.794282793139
 20
1102.542823687063
 10
733.794282793139
 20
1102.694407988413
 10
733.6392533940309
 20
1102.694407988413
  0
LWPOLYLINE
  5
3910
330
A
100
AcDbEntity
  8
MODEL
100
AcDbPolyline
 90
        2
 70
     0
 43
0.0
 10
704.8141204531651
 20
1080.427018629827
 10
733.794282793139
 20
1080.427018629827
  0
LWPOLYLINE
  5
3911
330
A
100
AcDbEntity
  8
MODEL
100
AcDbPolyline
 90
        2
 70
     0
 43
0.0
 10
733.794282793139
 20
1080.427018629827
 10
733.794282793139
 20
1102.542823687063
  0
LWPOLYLINE
  5
3912
330
A
100
AcDbEntity
  8
MODEL
100
AcDbPolyline
 90
        4
 70
     0
 43
0.0
 10
704.965704754515
 20
1080.275434328477
 10
733.6392533940309
 20
1080.275434328477
 10
733.794282793139
 20
1080.275434328477
 10
733.794282793139
 20
1080.427018629827
  0
LWPOLYLINE
  5
3913
330
A
100
AcDbEntity
  8
MODEL
100
AcDbPolyline
 90
        4
 70
     0
 43
0.0
 10
704.965704754515
 20
1102.694407988413
 10
704.8141204531651
 20
1102.694407988413
 10
704.8141204531651
 20
1080.275434328477
 10
704.965704754515
 20
1080.275434328477
  0
LWPOLYLINE
  5
3914
330
A
100
AcDbEntity
  8
MODEL
100
AcDbPolyline
 90
        2
 70
     0
 43
0.0
 10
711.525170885674
 20
1080.275434328477
 10
711.676755187025
 20
1080.427018629827
  0
LWPOLYLINE
  5
3915
330
A
100
AcDbEntity
  8
MODEL
100
AcDbPolyline
 90
        2
 70
     0
 43
0.0
 10
717.629884112783
 20
1102.542823687063
 10
717.629884112783
 20
1102.694407988413
  0
LWPOLYLINE
  5
3916
330
A
100
AcDbEntity
  8
MODEL
100
AcDbPolyline
 90
        2
 70
     0
 43
0.0
 10
464.290465593956
 20
537.8102721271443
 10
464.290465593956
 20
1122.753134789466
  0
LWPOLYLINE
  5
3917
330
A
100
AcDbEntity
  8
MODEL
100
AcDbPolyline
 90
        2
 70
     0
 43
0.0
 10
704.355922451357
 20
1102.694407988413
 10
734.4006199985411
 20
1102.694407988413
  0
LWPOLYLINE
  5
3918
330
A
100
AcDbEntity
  8
MODEL
100
AcDbPolyline
 90
        2
 70
     0
 43
0.0
 10
734.4006199985411
 20
1102.694407988413
 10
734.4006199985411
 20
1122.753134789466
  0
LWPOLYLINE
  5
3919
330
A
100
AcDbEntity
  8
MODEL
100
AcDbPolyline
 90
        2
 70
     0
 43
0.0
 10
704.355922451357
 20
1102.694407988413
 10
704.355922451357
 20
1122.753134789466
  0
LWPOLYLINE
  5
391A
330
A
100
AcDbEntity
  8
MODEL
100
AcDbPolyline
 90
        2
 70
     0
 43
0.0
 10
494.335163141139
 20
537.8102721271443
 10
494.335163141139
 20
1122.753134789466
  0
LWPOLYLINE
  5
391B
102
{ACAD_REACTORS
330
3924
102
}
330
A
100
AcDbEntity
  8
MODEL
100
AcDbPolyline
 90
        5
 70
     0
 43
0.0
 10
524.390195981598
 20
457.8082119917581
 10
434.390462152606
 20
457.8082119917581
 10
434.390462152606
 20
475.8088477771086
 10
524.390195981598
 20
475.8088477771086
 10
524.390195981598
 20
457.8082119917581
  0
LWPOLYLINE
  5
391C
330
A
100
AcDbEntity
  8
MODEL
100
AcDbPolyline
 90
        4
 70
     0
 43
0.0
 10
456.8903956098541
 20
475.8088477771086
 10
456.8903956098541
 20
537.8102721271443
 10
501.89026252435
 20
537.8102721271443
 10
501.89026252435
 20
475.8088477771086
  0
ARC
  5
391D
330
A
100
AcDbEntity
  8
MODEL
  6
Continuous
100
AcDbCircle
 10
599.3455427962485
 20
1122.753134789466
 30
0.0
 40
105.0103796551095
100
AcDbArc
 50
0.0
 51
180.0
  0
ARC
  5
391E
330
A
100
AcDbEntity
  8
MODEL
  6
Continuous
100
AcDbCircle
 10
599.3455427962485
 20
1122.753134789466
 30
0.0
 40
135.0550772022925
100
AcDbArc
 50
0.0
 51
180.0
  0
DIMENSION
  5
391F
330
A
100
AcDbEntity
  8
DIM
  6
Continuous
100
AcDbDimension
  2
*D59
 10
949.4098128783028
 20
457.8082119917581
 30
0.0
 11
949.4098128783028
 21
857.8082119917581
 31
0.0
 70
   160
 71
     5
 42
800.0
 73
     0
 74
     0
 75
     0
  3
JIS
100
AcDbAlignedDimension
 13
648.808775454833
 23
1257.808211991758
 33
0.0
 14
599.3455427962485
 24
457.8082119917581
 34
0.0
 50
90.0
100
AcDbRotatedDimension
1001
ACAD
1000
DSTYLE
1002
{
1070
    41
1040
4.0
1070
   140
1040
12.0
1070
   179
1070
     0
1070
   271
1070
     0
1070
    43
1040
25.0
1070
    44
1040
0.0
1070
    42
1040
25.0
1002
}
  0
DIMENSION
  5
3920
330
A
100
AcDbEntity
  8
DIM
  6
Continuous
100
AcDbDimension
  2
*D60
 10
823.285369670796
 20
1082.808211991758
 30
0.0
 11
823.285369670796
 21
770.3082119917581
 31
0.0
 70
   160
 71
     5
 42
625.0
 73
     0
 74
     0
 75
     0
  3
JIS
100
AcDbAlignedDimension
 13
524.390195981598
 23
457.8082119917581
 33
0.0
 14
733.4010900270493
 24
1082.808211991758
 34
0.0
 50
90.0
100
AcDbRotatedDimension
1001
ACAD
1000
DSTYLE
1002
{
1070
    41
1040
4.0
1070
   140
1040
12.0
1070
   179
1070
     0
1070
   271
1070
     0
1070
    43
1040
25.0
1070
    44
1040
0.0
1070
    42
1040
25.0
1002
}
  0
DIMENSION
  5
3921
330
A
100
AcDbEntity
  8
DIM
  6
Continuous
100
AcDbDimension
  2
*D61
 10
479.3024790742729
 20
930.6291714796912
 30
0.0
 11
599.3024790742729
 21
946.6314223237578
 31
0.0
 70
    32
 71
     5
 42
240.0
 73
     0
 74
     0
 75
     0
  3
JIS
100
AcDbAlignedDimension
 13
719.3024790742729
 23
1080.275434328477
 33
0.0
 14
479.3024790742729
 24
1080.275434328477
 34
0.0
100
AcDbRotatedDimension
1001
ACAD
1000
DSTYLE
1002
{
1070
    41
1040
4.0
1070
   140
1040
12.0
1070
   179
1070
     0
1070
   271
1070
     0
1070
    43
1040
25.0
1070
    44
1040
0.0
1070
    42
1040
25.0
1002
}
  0
LEADER
  5
3922
102
{ACAD_REACTORS
330
3924
102
}
102
{ACAD_XDICTIONARY
360
3923
102
}
330
A
100
AcDbEntity
  8
DIM
  6
Continuous
100
AcDbLeader
  3
JIS
 76
     3
 10
524.390195981598
 20
475.8088477771086
 30
0.0
 10
557.1815167910452
 20
516.9164425577369
 30
0.0
 10
588.2918184108146
 20
516.9164425577369
 30
0.0
1001
ACAD
1000
DSTYLE
1002
{
1070
    41
1040
4.0
1070
   179
1070
     0
1070
   271
1070
     0
1070
    43
1040
25.0
1070
    44
1040
0.0
1070
    42
1040
25.0
1002
}
  0
LEADER
  5
3925
102
{ACAD_XDICTIONARY
360
3926
102
}
330
A
100
AcDbEntity
  8
DIM
  6
Continuous
100
AcDbLeader
  3
JIS
 76
     3
 10
502.6744688396045
 20
536.9557636769321
 30
0.0
 10
535.4657896490517
 20
578.0633584575604
 30
0.0
 10
570.0048902912415
 20
578.0633584575604
 30
0.0
1001
ACAD
1000
DSTYLE
1002
{
1070
    41
1040
4.0
1070
   179
1070
     0
1070
   271
1070
     0
1070
    43
1040
25.0
1070
    44
1040
0.0
1070
    42
1040
25.0
1002
}
  0
MTEXT
  5
3927
330
A
100
AcDbEntity
  8
DIM
 62
     7
390
1D
100
AcDbMText
 10
536.7995315652054
 20
598.2935028602293
 30
0.0
 40
12.21630859375
 41
0.0
 46
14.43745561079546
 71
     1
 72
     1
  1
{\fMS UI Gothic|b0|i0|c0|p0;{\C256;φ\fＭＳ ゴシック|b0|i0|c0|p0;45}}
  7
ＭＳ ゴシック
 73
     1
 44
0.7828267384257843
1001
ACAD
1000
ACAD_MTEXT_DEFINED_HEIGHT_BEGIN
1070
    46
1040
14.43745561079546
1000
ACAD_MTEXT_DEFINED_HEIGHT_END
  0
MTEXT
  5
3928
330
A
100
AcDbEntity
  8
DIM
 62
     7
390
1D
100
AcDbMText
 10
558.7438453086932
 20
535.386470128897
 30
0.0
 40
12.21630859375
 41
0.0
 46
14.43745561079546
 71
     1
 72
     1
  1
{\fMS UI Gothic|b0|i0|c0|p0;{\C256;φ\fＭＳ ゴシック|b0|i0|c0|p0;90}}
  7
ＭＳ ゴシック
 73
     1
 44
0.7828267384257843
1001
ACAD
1000
ACAD_MTEXT_DEFINED_HEIGHT_BEGIN
1070
    46
1040
14.43745561079546
1000
ACAD_MTEXT_DEFINED_HEIGHT_END
  0
LWPOLYLINE
  5
3929
330
A
100
AcDbEntity
  8
MODEL
  6
Continuous
100
AcDbPolyline
 90
        4
 70
     1
 43
0.0
 10
469.9525348170259
 20
436.7782446542487
 10
469.9525348170259
 20
457.8082119917581
 10
489.6681291959408
 20
457.8082119917581
 10
489.6681291959408
 20
436.7782446542487
  0
LINE
  5
392A
330
A
100
AcDbEntity
  8
MODEL
  6
Continuous
100
AcDbLine
 10
540.1000481507017
 20
457.8082119917581
 30
0.0
 11
419.520615862265
 21
457.8082119917581
 31
0.0
  0
LINE
  5
392B
330
A
100
AcDbEntity
  8
MODEL
  6
Continuous
100
AcDbLine
 10
500.1840180676375
 20
457.8082119917581
 30
0.0
 11
500.1840180676375
 21
439.7953859831117
 31
0.0
  0
LINE
  5
392C
330
A
100
AcDbEntity
  8
MODEL
  6
Continuous
100
AcDbLine
 10
459.4366459453292
 20
457.8082119917581
 30
0.0
 11
459.4366459453292
 21
439.7953859831117
 31
0.0
  0
LINE
  5
392D
330
A
100
AcDbEntity
  8
MODEL
  6
Continuous
100
AcDbLine
 10
534.8917191052742
 20
457.8082119917581
 30
0.0
 11
540.1000481507017
 21
452.5998829463305
 31
0.0
  0
LINE
  5
392E
330
A
100
AcDbEntity
  8
MODEL
  6
Continuous
100
AcDbLine
 10
525.911462984205
 20
457.8082119917581
 30
0.0
 11
540.1000481507017
 21
443.6196268252614
 31
0.0
  0
LINE
  5
392F
330
A
100
AcDbEntity
  8
MODEL
  6
Continuous
100
AcDbLine
 10
516.9312068631359
 20
457.8082119917581
 30
0.0
 11
534.9440328717822
 21
439.7953859831117
 31
0.0
  0
LINE
  5
3930
330
A
100
AcDbEntity
  8
MODEL
  6
Continuous
100
AcDbLine
 10
507.9509507420667
 20
457.8082119917581
 30
0.0
 11
525.9637767507131
 21
439.7953859831117
 31
0.0
  0
LINE
  5
3931
330
A
100
AcDbEntity
  8
MODEL
  6
Continuous
100
AcDbLine
 10
500.1840180676375
 20
456.5948885451181
 30
0.0
 11
516.9835206296439
 21
439.7953859831117
 31
0.0
  0
LINE
  5
3932
330
A
100
AcDbEntity
  8
MODEL
  6
Continuous
100
AcDbLine
 10
500.1840180676375
 20
447.614632424049
 30
0.0
 11
508.0032645085748
 21
439.7953859831117
 31
0.0
  0
LINE
  5
3933
330
A
100
AcDbEntity
  8
MODEL
  6
Continuous
100
AcDbLine
 10
445.0891578945827
 20
457.8082119917581
 30
0.0
 11
459.4366459453292
 21
443.4607239410113
 31
0.0
  0
LINE
  5
3934
330
A
100
AcDbEntity
  8
MODEL
  6
Continuous
100
AcDbLine
 10
436.1089017735135
 20
457.8082119917581
 30
0.0
 11
454.12172778216
 21
439.7953859831117
 31
0.0
  0
LINE
  5
3935
330
A
100
AcDbEntity
  8
MODEL
  6
Continuous
100
AcDbLine
 10
427.1286456524442
 20
457.8082119917581
 30
0.0
 11
445.1414716610907
 21
439.7953859831117
 31
0.0
  0
LINE
  5
3936
330
A
100
AcDbEntity
  8
MODEL
  6
Continuous
100
AcDbLine
 10
419.520615862265
 20
456.4359856608683
 30
0.0
 11
436.1612155400214
 21
439.7953859831117
 31
0.0
  0
LINE
  5
3937
330
A
100
AcDbEntity
  8
MODEL
  6
Continuous
100
AcDbLine
 10
419.520615862265
 20
447.4557295397992
 30
0.0
 11
427.1809594189524
 21
439.7953859831117
 31
0.0
  0
LWPOLYLINE
  5
3938
330
A
100
AcDbEntity
  8
MODEL
  6
Continuous
100
AcDbPolyline
 90
        4
 70
     1
 43
0.0
 10
180.5011086767383
 20
436.7782446542482
 10
180.5011086767383
 20
457.8082119917576
 10
200.2167030556532
 20
457.8082119917576
 10
200.2167030556532
 20
436.7782446542482
  0
LINE
  5
3939
330
A
100
AcDbEntity
  8
MODEL
  6
Continuous
100
AcDbLine
 10
245.4402929649864
 20
457.8082119917576
 30
0.0
 11
250.6486220104141
 21
452.59988294633
 31
0.0
  0
LINE
  5
393A
330
A
100
AcDbEntity
  8
MODEL
  6
Continuous
100
AcDbLine
 10
236.4600368439171
 20
457.8082119917576
 30
0.0
 11
250.6486220104141
 21
443.6196268252609
 31
0.0
  0
LINE
  5
393B
330
A
100
AcDbEntity
  8
MODEL
  6
Continuous
100
AcDbLine
 10
227.4797807228481
 20
457.8082119917576
 30
0.0
 11
245.4926067314946
 21
439.795385983111
 31
0.0
  0
LINE
  5
393C
330
A
100
AcDbEntity
  8
MODEL
  6
Continuous
100
AcDbLine
 10
218.4995246017791
 20
457.8082119917576
 30
0.0
 11
236.5123506104255
 21
439.795385983111
 31
0.0
  0
LINE
  5
393D
330
A
100
AcDbEntity
  8
MODEL
  6
Continuous
100
AcDbLine
 10
146.6574756332257
 20
457.8082119917576
 30
0.0
 11
164.6703016418721
 21
439.795385983111
 31
0.0
  0
LINE
  5
393E
330
A
100
AcDbEntity
  8
MODEL
  6
Continuous
100
AcDbLine
 10
137.6772195121566
 20
457.8082119917576
 30
0.0
 11
155.6900455208031
 21
439.795385983111
 31
0.0
  0
LINE
  5
393F
330
A
100
AcDbEntity
  8
MODEL
  6
Continuous
100
AcDbLine
 10
130.0691897219774
 20
456.4359856608676
 30
0.0
 11
146.7097893997338
 21
439.795385983111
 31
0.0
  0
LINE
  5
3940
330
A
100
AcDbEntity
  8
MODEL
  6
Continuous
100
AcDbLine
 10
130.0691897219774
 20
447.4557295397985
 30
0.0
 11
137.7295332786646
 21
439.795385983111
 31
0.0
  0
LINE
  5
3941
330
A
100
AcDbEntity
  8
MODEL
  6
Continuous
100
AcDbLine
 10
210.7325919273496
 20
456.5948885451176
 30
0.0
 11
227.5320944893563
 21
439.795385983111
 31
0.0
  0
LINE
  5
3942
330
A
100
AcDbEntity
  8
MODEL
  6
Continuous
100
AcDbLine
 10
210.7325919273496
 20
447.6146324240485
 30
0.0
 11
218.5518383682872
 21
439.795385983111
 31
0.0
  0
LINE
  5
3943
330
A
100
AcDbEntity
  8
MODEL
  6
Continuous
100
AcDbLine
 10
155.6377317542949
 20
457.8082119917576
 30
0.0
 11
169.9852198050414
 21
443.4607239410108
 31
0.0
  0
LINE
  5
3944
330
A
100
AcDbEntity
  8
MODEL
  6
Continuous
100
AcDbLine
 10
169.9852198050414
 20
457.8082119917576
 30
0.0
 11
169.9852198050414
 21
439.795385983111
 31
0.0
  0
LINE
  5
3945
330
A
100
AcDbEntity
  8
MODEL
  6
Continuous
100
AcDbLine
 10
210.7325919273496
 20
457.8082119917576
 30
0.0
 11
210.7325919273496
 21
439.795385983111
 31
0.0
  0
MTEXT
  5
3946
330
A
100
AcDbEntity
  8
DIM
390
1D
100
AcDbMText
 10
473.5485249371116
 20
432.116764672259
 30
0.0
 40
12.21630859375
 41
0.0
 46
12.21630859375
 71
     1
 72
     1
  1
{▲}
  7
ＭＳ ゴシック
 73
     1
 44
0.7828267384257843
1001
ACAD
1000
ACAD_MTEXT_DEFINED_HEIGHT_BEGIN
1070
    46
1040
12.21630859375
1000
ACAD_MTEXT_DEFINED_HEIGHT_END
  0
MTEXT
  5
3947
330
A
100
AcDbEntity
  8
DIM
390
1D
100
AcDbMText
 10
466.2454573232787
 20
413.8848802063255
 30
0.0
 40
12.21630859375
 41
0.0
 46
12.21630859375
 71
     1
 72
     1
  1
{G1/2"}
  7
ＭＳ ゴシック
 73
     1
 44
0.7828267384257843
1001
ACAD
1000
ACAD_MTEXT_DEFINED_HEIGHT_BEGIN
1070
    46
1040
12.21630859375
1000
ACAD_MTEXT_DEFINED_HEIGHT_END
  0
MTEXT
  5
3948
330
A
100
AcDbEntity
  8
DIM
390
1D
100
AcDbMText
 10
184.6402576328567
 20
432.116764672259
 30
0.0
 40
12.21630859375
 41
0.0
 46
12.21630859375
 71
     1
 72
     1
  1
{▲}
  7
ＭＳ ゴシック
 73
     1
 44
0.7828267384257843
1001
ACAD
1000
ACAD_MTEXT_DEFINED_HEIGHT_BEGIN
1070
    46
1040
12.21630859375
1000
ACAD_MTEXT_DEFINED_HEIGHT_END
  0
MTEXT
  5
3949
330
A
100
AcDbEntity
  8
DIM
390
1D
100
AcDbMText
 10
177.3371900190239
 20
413.8848802063255
 30
0.0
 40
12.21630859375
 41
0.0
 46
12.21630859375
 71
     1
 72
     1
  1
{G1/2"}
  7
ＭＳ ゴシック
 73
     1
 44
0.7828267384257843
1001
ACAD
1000
ACAD_MTEXT_DEFINED_HEIGHT_BEGIN
1070
    46
1040
12.21630859375
1000
ACAD_MTEXT_DEFINED_HEIGHT_END
  0
LEADER
  5
394A
102
{ACAD_XDICTIONARY
360
394B
102
}
330
A
100
AcDbEntity
  8
DIM
100
AcDbLeader
  3
JIS
 76
     3
 10
205.7427131120389
 20
711.3072162504594
 30
0.0
 10
238.5340339214861
 20
752.4148110310878
 30
0.0
 10
273.0731345636757
 20
752.4148110310878
 30
0.0
1001
ACAD
1000
DSTYLE
1002
{
1070
    41
1040
4.0
1070
   179
1070
     0
1070
   271
1070
     0
1070
    43
1040
25.0
1070
    44
1040
0.0
1070
    42
1040
25.0
1002
}
  0
MTEXT
  5
394C
330
A
100
AcDbEntity
  8
DIM
390
1D
100
AcDbMText
 10
239.8677758376396
 20
772.6449554337566
 30
0.0
 40
12.21630859375
 41
0.0
 46
14.43745561079546
 71
     1
 72
     1
  1
{\fMS UI Gothic|b0|i0|c0|p0;φ\fＭＳ ゴシック|b0|i0|c0|p0;30}
  7
ＭＳ ゴシック
 73
     1
 44
0.7828267384257843
1001
ACAD
1000
ACAD_MTEXT_DEFINED_HEIGHT_BEGIN
1070
    46
1040
14.43745561079546
1000
ACAD_MTEXT_DEFINED_HEIGHT_END
  0
MTEXT
  5
3976
330
A
100
AcDbEntity
  8
TEMPLATE
390
1D
100
AcDbMText
 10
664.6010722739946
 20
239.8294983591629
 30
0.0
 40
12.21630859375
 41
0.0
 46
46.52754333605489
 71
     1
 72
     1
  1
{\pxsm1;AGN73-1636-N01 クローム\PAGN73-1636-N24 マットホワイト\PAGN73-1636-N25 マットブラック}
  7
ＭＳ ゴシック
 73
     1
 44
0.7828267384257843
1001
ACAD
1000
ACAD_MTEXT_DEFINED_HEIGHT_BEGIN
1070
    46
1040
46.52754333605489
1000
ACAD_MTEXT_DEFINED_HEIGHT_END
  0
VIEWPORT
  5
349
330
B
100
AcDbEntity
 67
     1
  8
0
100
AcDbViewport
 10
202.5
 20
128.5
 30
0.0
 40
486.0
 41
308.4
 68
     1
 69
     1
 12
202.5
 22
128.5
 13
0.0
 23
0.0
 14
0.5
 24
0.5
 15
0.0
 25
0.0
 16
0.0
 26
0.0
 36
1.0
 17
0.0
 27
0.0
 37
0.0
 42
50.0
 43
0.0
 44
0.0
 45
308.4
 50
0.0
 51
0.0
 72
   100
 90
   557152
  1

281
     0
 71
     1
 74
     0
110
0.0
120
0.0
130
0.0
111
1.0
121
0.0
131
0.0
112
0.0
122
1.0
132
0.0
 79
     0
146
0.0
170
     0
 61
     5
348
26C
292
     1
282
     1
141
0.0
142
0.0
 63
   256
  0
VIEWPORT
  5
34A
330
B
100
AcDbEntity
 67
     1
  8
0
100
AcDbViewport
 10
202.5
 20
128.5
 30
0.0
 40
324.0
 41
205.6
 68
     2
 69
     2
 12
986.6781359294573
 22
1427.077061889956
 13
0.0
 23
0.0
 14
0.5
 24
0.5
 15
0.0
 25
0.0
 16
0.0
 26
0.0
 36
1.0
 17
0.0
 27
0.0
 37
0.0
 42
50.0
 43
0.0
 44
0.0
 45
2890.021615685494
 50
0.0
 51
0.0
 72
   100
 90
   557152
  1

281
     0
 71
     1
 74
     0
110
0.0
120
0.0
130
0.0
111
1.0
121
0.0
131
0.0
112
0.0
122
1.0
132
0.0
 79
     0
146
0.0
170
     0
 61
     5
348
26C
292
     1
282
     1
141
0.0
142
0.0
 63
   256
  0
ENDSEC
  0
SECTION
  2
OBJECTS
  0
DICTIONARY
  5
19
330
0
100
AcDbDictionary
281
     1
  3
ACAD_COLOR
350
674
  3
ACAD_DETAILVIEWSTYLE
350
BBF
  3
ACAD_FIELDLIST
350
16CE
  3
ACAD_GROUP
350
1A
  3
ACAD_IMAGE_VARS
350
27B
  3
ACAD_LAYOUT
350
1E
  3
ACAD_MATERIAL
350
263
  3
ACAD_MLEADERSTYLE
350
336
  3
ACAD_MLINESTYLE
350
1B
  3
ACAD_PLOTSETTINGS
350
22
  3
ACAD_PLOTSTYLENAME
350
1F
  3
ACAD_SCALELIST
350
241
  3
ACAD_SECTIONVIEWSTYLE
350
BC0
  3
ACAD_TABLESTYLE
350
278
  3
ACAD_VISUALSTYLE
350
267
  3
ACDB_RECOMPOSE_DATA
350
3989
  3
AcDbVariableDictionary
350
330
  3
APPDATA
350
27A
  3
DimOffsetDictionary
350
E38
  0
SUN
  5
904
330
15
100
AcDbSun
 90
        1
290
     0
 63
     7
421
 16777215
 40
1.0
291
     1
 91
  2455826
 92
 54000000
292
     0
 70
     2
 71
   256
280
     1
  0
DICTIONARY
  5
2E1
330
2
100
AcDbDictionary
280
     1
281
     1
  3
ACAD_LAYERSTATES
360
2E2
  3
ACLYDICTIONARY
360
DDE
  0
DICTIONARY
  5
24B4
330
A
100
AcDbDictionary
280
     1
281
     1
  3
ACAD_SORTENTS
360
24B5
  0
DICTIONARY
  5
16F1
330
16F0
100
AcDbDictionary
280
     1
281
     1
  3
ACAD_FIELD
360
3975
  0
DICTIONARY
  5
3923
330
3922
100
AcDbDictionary
280
     1
281
     1
  3
ACAD_DIMASSOC
360
3924
  0
DICTIONARY
  5
3926
330
3925
100
AcDbDictionary
280
     1
281
     1
  0
DICTIONARY
  5
394B
330
394A
100
AcDbDictionary
280
     1
281
     1
  0
DICTIONARY
  5
674
102
{ACAD_REACTORS
330
19
102
}
330
19
100
AcDbDictionary
281
     1
  0
DICTIONARY
  5
BBF
102
{ACAD_REACTORS
330
19
102
}
330
19
100
AcDbDictionary
281
     1
  0
FIELDLIST
  5
16CE
102
{ACAD_REACTORS
330
19
102
}
330
19
100
AcDbIdSet
 90
        2
330
16F4
330
16F3
100
AcDbFieldList
  0
DICTIONARY
  5
1A
102
{ACAD_REACTORS
330
19
102
}
330
19
100
AcDbDictionary
281
     1
  3
*A2
350
24A3
  0
RASTERVARIABLES
  5
27B
102
{ACAD_REACTORS
330
19
102
}
330
19
100
AcDbRasterVariables
 90
        0
 70
     1
 71
     1
 72
     1
  0
DICTIONARY
  5
1E
102
{ACAD_REACTORS
330
19
102
}
330
19
100
AcDbDictionary
281
     1
  3
Layout1
350
21
  3
Model
350
20
  0
DICTIONARY
  5
263
102
{ACAD_REACTORS
330
19
102
}
330
19
100
AcDbDictionary
281
     1
  3
ByBlock
350
265
  3
ByLayer
350
264
  3
Global
350
266
  0
DICTIONARY
  5
336
102
{ACAD_REACTORS
330
19
102
}
330
19
100
AcDbDictionary
281
     1
  3
Standard
350
D59
  0
DICTIONARY
  5
1B
102
{ACAD_REACTORS
330
19
102
}
330
19
100
AcDbDictionary
281
     1
  3
Standard
350
1C
  0
DICTIONARY
  5
22
102
{ACAD_REACTORS
330
19
102
}
330
19
100
AcDbDictionary
281
     1
  0
ACDBDICTIONARYWDFLT
  5
1F
102
{ACAD_REACTORS
330
19
102
}
330
19
100
AcDbDictionary
281
     1
  3
Normal
350
1D
100
AcDbDictionaryWithDefault
340
1D
  0
DICTIONARY
  5
241
102
{ACAD_REACTORS
330
19
102
}
330
19
100
AcDbDictionary
281
     1
  3
A0
350
242
  3
A1
350
243
  3
A2
350
244
  3
A3
350
245
  3
A4
350
246
  3
A5
350
247
  3
A6
350
248
  3
A7
350
249
  3
A8
350
24A
  3
A9
350
24B
  3
B0
350
24C
  3
B1
350
24D
  3
B2
350
24E
  3
B3
350
24F
  3
B4
350
250
  3
B5
350
251
  3
B6
350
252
  3
B7
350
253
  3
B8
350
254
  3
B9
350
255
  3
C0
350
256
  3
C1
350
257
  3
C2
350
258
  3
C3
350
259
  3
C4
350
25A
  3
C5
350
25B
  3
C6
350
25C
  3
C7
350
25D
  3
C8
350
25E
  3
C9
350
25F
  3
D0
350
260
  3
D1
350
261
  3
D2
350
262
  0
DICTIONARY
  5
BC0
102
{ACAD_REACTORS
330
19
102
}
330
19
100
AcDbDictionary
281
     1
  0
DICTIONARY
  5
278
102
{ACAD_REACTORS
330
19
102
}
330
19
100
AcDbDictionary
281
     1
  3
Standard
350
279
  0
DICTIONARY
  5
267
102
{ACAD_REACTORS
330
19
102
}
330
19
100
AcDbDictionary
281
     1
  3
2dWireframe
350
26C
  3
3D Hidden
350
26E
  3
3dWireframe
350
26D
  3
Basic
350
26F
  3
Brighten
350
273
  3
ColorChange
350
277
  3
Conceptual
350
271
  3
Dim
350
272
  3
EdgeColorOff
350
8FE
  3
Facepattern
350
276
  3
Flat
350
268
  3
FlatWithEdges
350
269
  3
Gouraud
350
26A
  3
GouraudWithEdges
350
26B
  3
Hidden
350
8FB
  3
JitterOff
350
8FC
  3
Linepattern
350
275
  3
OverhangOff
350
8FD
  3
Realistic
350
270
  3
Shaded
350
903
  3
Shaded with edges
350
902
  3
Shades of Gray
350
8FF
  3
Sketchy
350
900
  3
Thicken
350
274
  3
Wireframe
350
8FA
  3
X-Ray
350
901
  0
XRECORD
  5
3989
102
{ACAD_REACTORS
330
19
102
}
330
19
100
AcDbXrecord
280
     1
 90
        1
330
279
  0
DICTIONARY
  5
330
102
{ACAD_REACTORS
330
19
102
}
330
19
100
AcDbDictionary
281
     1
  3
CANNOSCALE
350
331
  3
CMLEADERSTYLE
350
D5E
  3
CTABLESTYLE
350
335
  3
HPTRANSPARENCY
350
D52
  3
XCLIPFRAME
350
896
  0
DICTIONARY
  5
27A
102
{ACAD_REACTORS
330
19
102
}
330
19
100
AcDbDictionary
281
     1
  0
DICTIONARY
  5
E38
102
{ACAD_REACTORS
330
19
102
}
330
19
100
AcDbDictionary
281
     1
  3
DIMRAILANGLE
350
1614
  3
DIMRAILFIRSTOFFSET
350
1612
  3
DIMRAILOFFSET
350
1613
  3
DIMRAILSENABLED
350
1615
  0
DICTIONARY
  5
2E2
102
{ACAD_REACTORS
330
2E1
102
}
330
2E1
100
AcDbDictionary
281
     1
  0
DICTIONARY
  5
DDE
102
{ACAD_REACTORS
330
2E1
102
}
330
2E1
100
AcDbDictionary
281
     1
1001
ACAD
1000
<All
  0
SORTENTSTABLE
  5
24B5
102
{ACAD_REACTORS
330
24B4
102
}
330
24B4
100
AcDbSortentsTable
330
A
331
0
  5
1782
331
0
  5
24A2
331
0
  5
24A1
331
2492
  5
244D
331
2493
  5
2491
331
249E
  5
2492
331
249F
  5
2493
331
24A0
  5
249E
331
24A1
  5
249F
331
24A2
  5
24A0
  0
DICTIONARY
  5
3975
102
{ACAD_REACTORS
330
16F1
102
}
330
16F1
100
AcDbDictionary
280
     1
281
     1
  3
TEXT
360
16F3
  0
DIMASSOC
  5
3924
102
{ACAD_REACTORS
330
3923
102
}
330
3923
100
AcDbDimAssoc
330
3922
 90
        1
 70
     0
 71
     1
  1
AcDbOsnapPointRef
 72
    10
331
391B
 73
     2
 91
        4
 40
0.0
 10
0.0
 20
0.0
 30
0.0
 75
     0
  0
GROUP
  5
24A3
102
{ACAD_REACTORS
330
1A
102
}
330
1A
100
AcDbGroup
300

 70
     1
 71
     1
340
2492
340
2493
340
249E
340
249F
340
24A0
340
24A1
340
24A2
  0
LAYOUT
  5
21
102
{ACAD_REACTORS
330
1E
102
}
330
1E
100
AcDbPlotSettings
  1

  2
none_device
  4
ISO_A3_(420.00_x_297.00_MM)
  6

 40
7.5
 41
20.0
 42
7.5
 43
20.0
 44
420.0
 45
297.0
 46
0.0
 47
0.0
 48
0.0
 49
0.0
140
0.0
141
0.0
142
1.0
143
1.0
 70
     0
 72
     1
 73
     0
 74
     0
  7

 75
     0
 76
     0
 77
     2
 78
   300
147
1.0
148
0.0
149
0.0
100
AcDbLayout
  1
Layout1
 70
     0
 71
     0
 10
-7.5
 20
-20.0
 11
412.5
 21
277.0
 12
0.0
 22
0.0
 32
0.0
 14
0.0
 24
0.0
 34
0.0
 15
0.0
 25
0.0
 35
0.0
146
0.0
 13
0.0
 23
0.0
 33
0.0
 16
0.0
 26
0.0
 36
0.0
 17
0.0
 27
0.0
 37
0.0
 76
     0
330
B
331
349
  0
LAYOUT
  5
20
102
{ACAD_REACTORS
330
1E
102
}
330
1E
100
AcDbPlotSettings
  1

  2
none_device
  4
ISO_A3_(420.00_x_297.00_MM)
  6

 40
7.5
 41
20.0
 42
7.5
 43
20.0
 44
420.0
 45
297.0
 46
0.0
 47
0.0
 48
0.0
 49
0.0
140
0.0
141
0.0
142
1.0
143
1.0
 70
  1024
 72
     1
 73
     0
 74
     0
  7

 75
     0
 76
     0
 77
     2
 78
   300
147
1.0
148
0.0
149
0.0
100
AcDbLayout
  1
Model
 70
     0
 71
     1
 10
0.0
 20
0.0
 11
1050.0
 21
1485.0
 12
0.0
 22
0.0
 32
0.0
 14
0.0
 24
0.0
 34
-0.0000000000000071
 15
1050.0
 25
1485.0
 35
0.0000000000000071
146
0.0
 13
0.0
 23
0.0
 33
0.0
 16
0.0
 26
0.0
 36
0.0
 17
0.0
 27
0.0
 37
0.0
 76
     0
330
A
331
15
  0
MATERIAL
  5
265
102
{ACAD_REACTORS
330
263
102
}
330
263
100
AcDbMaterial
  1
ByBlock
 72
     1
 94
      127
  0
MATERIAL
  5
264
102
{ACAD_REACTORS
330
263
102
}
330
263
100
AcDbMaterial
  1
ByLayer
 72
     1
 94
      127
  0
MATERIAL
  5
266
102
{ACAD_REACTORS
330
263
102
}
330
263
100
AcDbMaterial
  1
Global
 72
     1
 94
      127
  0
MLEADERSTYLE
  5
D59
102
{ACAD_REACTORS
330
336
102
}
330
336
100
AcDbMLeaderStyle
170
     2
171
     1
172
     0
 90
        2
 40
0.0
 41
0.0
173
     1
 91
-1056964608
340
11
 92
       -2
290
     1
 42
2.0
291
     1
 43
8.0
  3
Standard
341
0
 44
4.0
300

342
17
174
     1
178
     6
175
     1
176
     0
 93
-1056964608
 45
4.0
292
     0
297
     0
 46
4.0
343
0
 94
-1056964608
 47
1.0
 49
1.0
140
1.0
293
     1
141
0.0
294
     1
177
     0
142
1.0
295
     0
296
     0
143
3.75
1001
ACAD_MLEADERVER
1070
     2
  0
MLINESTYLE
  5
1C
102
{ACAD_REACTORS
330
1B
102
}
330
1B
100
AcDbMlineStyle
  2
Standard
 70
     0
  3

 62
     0
 51
90.0
 52
90.0
 71
     2
 49
0.5
 62
   256
  6
BYLAYER
 49
-0.5
 62
   256
  6
BYLAYER
  0
ACDBPLACEHOLDER
  5
1D
102
{ACAD_REACTORS
330
1F
102
}
330
1F
  0
SCALE
  5
242
102
{ACAD_REACTORS
330
241
102
}
330
241
100
AcDbScale
 70
     0
300
1:1
140
1.0
141
1.0
290
     1
  0
SCALE
  5
243
102
{ACAD_REACTORS
330
241
102
}
330
241
100
AcDbScale
 70
     0
300
1:2
140
1.0
141
2.0
290
     0
  0
SCALE
  5
244
102
{ACAD_REACTORS
330
241
102
}
330
241
100
AcDbScale
 70
     0
300
1:4
140
1.0
141
4.0
290
     0
  0
SCALE
  5
245
102
{ACAD_REACTORS
330
241
102
}
330
241
100
AcDbScale
 70
     0
300
1:5
140
1.0
141
5.0
290
     0
  0
SCALE
  5
246
102
{ACAD_REACTORS
330
241
102
}
330
241
100
AcDbScale
 70
     0
300
1:8
140
1.0
141
8.0
290
     0
  0
SCALE
  5
247
102
{ACAD_REACTORS
330
241
102
}
330
241
100
AcDbScale
 70
     0
300
1:10
140
1.0
141
10.0
290
     0
  0
SCALE
  5
248
102
{ACAD_REACTORS
330
241
102
}
330
241
100
AcDbScale
 70
     0
300
1:16
140
1.0
141
16.0
290
     0
  0
SCALE
  5
249
102
{ACAD_REACTORS
330
241
102
}
330
241
100
AcDbScale
 70
     0
300
1:20
140
1.0
141
20.0
290
     0
  0
SCALE
  5
24A
102
{ACAD_REACTORS
330
241
102
}
330
241
100
AcDbScale
 70
     0
300
1:30
140
1.0
141
30.0
290
     0
  0
SCALE
  5
24B
102
{ACAD_REACTORS
330
241
102
}
330
241
100
AcDbScale
 70
     0
300
1:40
140
1.0
141
40.0
290
     0
  0
SCALE
  5
24C
102
{ACAD_REACTORS
330
241
102
}
330
241
100
AcDbScale
 70
     0
300
1:50
140
1.0
141
50.0
290
     0
  0
SCALE
  5
24D
102
{ACAD_REACTORS
330
241
102
}
330
241
100
AcDbScale
 70
     0
300
1:100
140
1.0
141
100.0
290
     0
  0
SCALE
  5
24E
102
{ACAD_REACTORS
330
241
102
}
330
241
100
AcDbScale
 70
     0
300
2:1
140
2.0
141
1.0
290
     0
  0
SCALE
  5
24F
102
{ACAD_REACTORS
330
241
102
}
330
241
100
AcDbScale
 70
     0
300
4:1
140
4.0
141
1.0
290
     0
  0
SCALE
  5
250
102
{ACAD_REACTORS
330
241
102
}
330
241
100
AcDbScale
 70
     0
300
8:1
140
8.0
141
1.0
290
     0
  0
SCALE
  5
251
102
{ACAD_REACTORS
330
241
102
}
330
241
100
AcDbScale
 70
     0
300
10:1
140
10.0
141
1.0
290
     0
  0
SCALE
  5
252
102
{ACAD_REACTORS
330
241
102
}
330
241
100
AcDbScale
 70
     0
300
100:1
140
100.0
141
1.0
290
     0
  0
SCALE
  5
253
102
{ACAD_REACTORS
330
241
102
}
330
241
100
AcDbScale
 70
     0
300
1/128" = 1'-0"
140
0.0078125
141
12.0
290
     0
  0
SCALE
  5
254
102
{ACAD_REACTORS
330
241
102
}
330
241
100
AcDbScale
 70
     0
300
1/64" = 1'-0"
140
0.015625
141
12.0
290
     0
  0
SCALE
  5
255
102
{ACAD_REACTORS
330
241
102
}
330
241
100
AcDbScale
 70
     0
300
1/32" = 1'-0"
140
0.03125
141
12.0
290
     0
  0
SCALE
  5
256
102
{ACAD_REACTORS
330
241
102
}
330
241
100
AcDbScale
 70
     0
300
1/16" = 1'-0"
140
0.0625
141
12.0
290
     0
  0
SCALE
  5
257
102
{ACAD_REACTORS
330
241
102
}
330
241
100
AcDbScale
 70
     0
300
3/32" = 1'-0"
140
0.09375
141
12.0
290
     0
  0
SCALE
  5
258
102
{ACAD_REACTORS
330
241
102
}
330
241
100
AcDbScale
 70
     0
300
1/8" = 1'-0"
140
0.125
141
12.0
290
     0
  0
SCALE
  5
259
102
{ACAD_REACTORS
330
241
102
}
330
241
100
AcDbScale
 70
     0
300
3/16" = 1'-0"
140
0.1875
141
12.0
290
     0
  0
SCALE
  5
25A
102
{ACAD_REACTORS
330
241
102
}
330
241
100
AcDbScale
 70
     0
300
1/4" = 1'-0"
140
0.25
141
12.0
290
     0
  0
SCALE
  5
25B
102
{ACAD_REACTORS
330
241
102
}
330
241
100
AcDbScale
 70
     0
300
3/8" = 1'-0"
140
0.375
141
12.0
290
     0
  0
SCALE
  5
25C
102
{ACAD_REACTORS
330
241
102
}
330
241
100
AcDbScale
 70
     0
300
1/2" = 1'-0"
140
0.5
141
12.0
290
     0
  0
SCALE
  5
25D
102
{ACAD_REACTORS
330
241
102
}
330
241
100
AcDbScale
 70
     0
300
3/4" = 1'-0"
140
0.75
141
12.0
290
     0
  0
SCALE
  5
25E
102
{ACAD_REACTORS
330
241
102
}
330
241
100
AcDbScale
 70
     0
300
1" = 1'-0"
140
1.0
141
12.0
290
     0
  0
SCALE
  5
25F
102
{ACAD_REACTORS
330
241
102
}
330
241
100
AcDbScale
 70
     0
300
1-1/2" = 1'-0"
140
1.5
141
12.0
290
     0
  0
SCALE
  5
260
102
{ACAD_REACTORS
330
241
102
}
330
241
100
AcDbScale
 70
     0
300
3" = 1'-0"
140
3.0
141
12.0
290
     0
  0
SCALE
  5
261
102
{ACAD_REACTORS
330
241
102
}
330
241
100
AcDbScale
 70
     0
300
6" = 1'-0"
140
6.0
141
12.0
290
     0
  0
SCALE
  5
262
102
{ACAD_REACTORS
330
241
102
}
330
241
100
AcDbScale
 70
     0
300
1'-0" = 1'-0"
140
12.0
141
12.0
290
     0
  0
TABLESTYLE
  5
279
102
{ACAD_REACTORS
330
278
102
}
102
{ACAD_XDICTIONARY
360
3987
102
}
330
278
100
AcDbTableStyle
  3
Standard
 70
     0
 71
     0
 40
0.06
 41
0.06
280
     0
281
     0
  7
Standard
140
4.5
170
     2
 62
     0
 63
   257
283
     0
 90
        4
 91
        0
  1

274
    -2
284
     1
 64
     0
275
    -2
285
     1
 65
     0
276
    -2
286
     1
 66
     0
277
    -2
287
     1
 67
     0
278
    -2
288
     1
 68
     0
279
    -2
289
     1
 69
     0
  7
Standard
140
6.0
170
     5
 62
     0
 63
   257
283
     0
 90
        4
 91
        0
  1

274
    -2
284
     1
 64
     0
275
    -2
285
     1
 65
     0
276
    -2
286
     1
 66
     0
277
    -2
287
     1
 67
     0
278
    -2
288
     1
 68
     0
279
    -2
289
     1
 69
     0
  7
Standard
140
4.5
170
     5
 62
     0
 63
   257
283
     0
 90
        4
 91
        0
  1

274
    -2
284
     1
 64
     0
275
    -2
285
     1
 65
     0
276
    -2
286
     1
 66
     0
277
    -2
287
     1
 67
     0
278
    -2
288
     1
 68
     0
279
    -2
289
     1
 69
     0
  0
VISUALSTYLE
  5
26C
102
{ACAD_REACTORS
330
267
102
}
330
267
100
AcDbVisualStyle
  2
2dWireframe
 70
     4
 71
     0
 72
     2
 73
     0
 90
        0
 40
-0.6
 41
-30.0
 62
     5
 63
     7
421
 16777215
 74
     1
 91
        4
 64
     7
 65
   257
 75
     1
175
     1
 42
1.0
 92
        0
 66
   257
 43
1.0
 76
     1
 77
     6
 78
     2
 67
     7
 79
     5
170
     0
171
     0
290
     0
174
     0
 93
        1
 44
0.0
173
     0
291
     0
 45
0.0
  0
VISUALSTYLE
  5
26E
102
{ACAD_REACTORS
330
267
102
}
330
267
100
AcDbVisualStyle
  2
3D Hidden
 70
     6
 71
     1
 72
     2
 73
     2
 90
        0
 40
-0.6
 41
-30.0
 62
     5
 63
     7
421
 16777215
 74
     2
 91
        2
 64
     7
 65
   257
 75
     2
175
     1
 42
40.0
 92
        0
 66
   257
 43
1.0
 76
     1
 77
     6
 78
     2
 67
     7
 79
     3
170
     0
171
     0
290
     0
174
     0
 93
        1
 44
0.0
173
     0
291
     0
 45
0.0
  0
VISUALSTYLE
  5
26D
102
{ACAD_REACTORS
330
267
102
}
330
267
100
AcDbVisualStyle
  2
3dWireframe
 70
     5
 71
     0
 72
     2
 73
     0
 90
        0
 40
-0.6
 41
-30.0
 62
     5
 63
     7
421
 16777215
 74
     1
 91
        4
 64
     7
 65
   257
 75
     1
175
     1
 42
1.0
 92
        0
 66
   257
 43
1.0
 76
     1
 77
     6
 78
     2
 67
     7
 79
     5
170
     0
171
     0
290
     0
174
     0
 93
        1
 44
0.0
173
     0
291
     0
 45
0.0
  0
VISUALSTYLE
  5
26F
102
{ACAD_REACTORS
330
267
102
}
330
267
100
AcDbVisualStyle
  2
Basic
 70
     7
 71
     1
 72
     0
 73
     1
 90
        0
 40
-0.6
 41
-30.0
 62
     5
 63
     7
421
 16777215
 74
     0
 91
        4
 64
     7
 65
   257
 75
     1
175
     1
 42
1.0
 92
        8
 66
     7
 43
1.0
 76
     1
 77
     6
 78
     2
 67
     7
 79
     5
170
     0
171
     0
290
     0
174
     0
 93
        1
 44
0.0
173
     0
291
     1
 45
0.0
  0
VISUALSTYLE
  5
273
102
{ACAD_REACTORS
330
267
102
}
330
267
100
AcDbVisualStyle
  2
Brighten
 70
    12
 71
     2
 72
     2
 73
     0
 90
        0
 40
-0.6
 41
-30.0
 62
     5
 63
     7
421
 16777215
 74
     1
 91
        4
 64
     7
 65
   257
 75
     1
175
     1
 42
1.0
 92
        8
 66
     7
 43
1.0
 76
     1
 77
     6
 78
     2
 67
     7
 79
     5
170
     0
171
     0
290
     0
174
     0
 93
        1
 44
50.0
173
     0
291
     1
 45
0.0
  0
VISUALSTYLE
  5
277
102
{ACAD_REACTORS
330
267
102
}
330
267
100
AcDbVisualStyle
  2
ColorChange
 70
    16
 71
     2
 72
     2
 73
     3
 90
        0
 40
-0.6
 41
-30.0
 62
     5
 63
     8
421
  8421504
 74
     1
 91
        4
 64
     7
 65
   257
 75
     1
175
     1
 42
1.0
 92
        8
 66
     8
424
  8421504
 43
1.0
 76
     1
 77
     6
 78
     2
 67
     7
 79
     5
170
     0
171
     0
290
     0
174
     0
 93
        1
 44
0.0
173
     0
291
     1
 45
0.0
  0
VISUALSTYLE
  5
271
102
{ACAD_REACTORS
330
267
102
}
330
267
100
AcDbVisualStyle
  2
Conceptual
 70
     9
 71
     3
 72
     2
 73
     0
 90
        0
 40
-0.6
 41
-30.0
 62
     5
 63
     7
421
 16777215
 74
     2
 91
        2
 64
     7
 65
   257
 75
     1
175
     1
 42
40.0
 92
        8
 66
     7
 43
1.0
 76
     1
 77
     6
 78
     2
 67
     7
 79
     3
170
     0
171
     0
290
     0
174
     0
 93
        1
 44
0.0
173
     0
291
     0
 45
0.0
  0
VISUALSTYLE
  5
272
102
{ACAD_REACTORS
330
267
102
}
330
267
100
AcDbVisualStyle
  2
Dim
 70
    11
 71
     2
 72
     2
 73
     0
 90
        0
 40
-0.6
 41
-30.0
 62
     5
 63
     7
421
 16777215
 74
     1
 91
        4
 64
     7
 65
   257
 75
     1
175
     1
 42
1.0
 92
        8
 66
     7
 43
1.0
 76
     1
 77
     6
 78
     2
 67
     7
 79
     5
170
     0
171
     0
290
     0
174
     0
 93
        1
 44
-50.0
173
     0
291
     1
 45
0.0
  0
VISUALSTYLE
  5
8FE
102
{ACAD_REACTORS
330
267
102
}
330
267
100
AcDbVisualStyle
  2
EdgeColorOff
 70
    22
 71
     2
 72
     2
 73
     0
 90
        0
 40
0.6
 41
30.0
 62
     5
 63
     7
421
 16777215
 74
     1
 91
        4
 64
     7
 65
   257
 75
     1
175
     1
 42
1.0
 92
        8
 66
     7
 43
1.0
 76
     1
 77
     6
 78
     2
 67
     7
 79
     5
170
     0
171
     0
290
     0
174
     0
 93
        1
 44
0.0
173
     0
291
     1
 45
0.0
  0
VISUALSTYLE
  5
276
102
{ACAD_REACTORS
330
267
102
}
330
267
100
AcDbVisualStyle
  2
Facepattern
 70
    15
 71
     2
 72
     2
 73
     0
 90
        0
 40
-0.6
 41
-30.0
 62
     5
 63
     7
421
 16777215
 74
     1
 91
        4
 64
     7
 65
   257
 75
     1
175
     1
 42
1.0
 92
        8
 66
     7
 43
1.0
 76
     1
 77
     6
 78
     2
 67
     7
 79
     5
170
     0
171
     0
290
     0
174
     0
 93
        1
 44
0.0
173
     0
291
     1
 45
0.0
  0
VISUALSTYLE
  5
268
102
{ACAD_REACTORS
330
267
102
}
330
267
100
AcDbVisualStyle
  2
Flat
 70
     0
 71
     2
 72
     1
 73
     1
 90
        2
 40
-0.6
 41
30.0
 62
     5
 63
     7
421
 16777215
 74
     0
 91
        4
 64
     7
 65
   257
 75
     1
175
     1
 42
1.0
 92
        8
 66
     7
 43
1.0
 76
     1
 77
     6
 78
     2
 67
     7
 79
     5
170
     0
171
     0
290
     0
174
     0
 93
       13
 44
0.0
173
     0
291
     1
 45
0.0
  0
VISUALSTYLE
  5
269
102
{ACAD_REACTORS
330
267
102
}
330
267
100
AcDbVisualStyle
  2
FlatWithEdges
 70
     1
 71
     2
 72
     1
 73
     1
 90
        2
 40
-0.6
 41
30.0
 62
     5
 63
     7
421
 16777215
 74
     1
 91
        4
 64
     7
 65
   257
 75
     1
175
     1
 42
1.0
 92
        0
 66
   257
 43
1.0
 76
     1
 77
     6
 78
     2
 67
     7
 79
     5
170
     0
171
     0
290
     0
174
     0
 93
       13
 44
0.0
173
     0
291
     1
 45
0.0
  0
VISUALSTYLE
  5
26A
102
{ACAD_REACTORS
330
267
102
}
330
267
100
AcDbVisualStyle
  2
Gouraud
 70
     2
 71
     2
 72
     2
 73
     1
 90
        2
 40
-0.6
 41
30.0
 62
     5
 63
     7
421
 16777215
 74
     0
 91
        4
 64
     7
 65
   257
 75
     1
175
     1
 42
1.0
 92
        0
 66
     7
 43
1.0
 76
     1
 77
     6
 78
     2
 67
     7
 79
     5
170
     0
171
     0
290
     0
174
     0
 93
       13
 44
0.0
173
     0
291
     1
 45
0.0
  0
VISUALSTYLE
  5
26B
102
{ACAD_REACTORS
330
267
102
}
330
267
100
AcDbVisualStyle
  2
GouraudWithEdges
 70
     3
 71
     2
 72
     2
 73
     1
 90
        2
 40
-0.6
 41
30.0
 62
     5
 63
     7
421
 16777215
 74
     1
 91
        4
 64
     7
 65
   257
 75
     1
175
     1
 42
1.0
 92
        0
 66
   257
 43
1.0
 76
     1
 77
     6
 78
     2
 67
     7
 79
     5
170
     0
171
     0
290
     0
174
     0
 93
       13
 44
0.0
173
     0
291
     1
 45
0.0
  0
VISUALSTYLE
  5
8FB
102
{ACAD_REACTORS
330
267
102
}
330
267
100
AcDbVisualStyle
  2
Hidden
 70
     6
 71
     1
 72
     2
 73
     2
 90
        0
 40
0.6
 41
30.0
 62
     5
 63
     7
421
 16777215
 74
     2
 91
        2
 64
     7
 65
   257
 75
     2
175
     1
 42
40.0
 92
        0
 66
   257
 43
1.0
 76
     1
 77
     6
 78
     2
 67
     7
 79
     3
170
     0
171
     0
290
     0
174
     0
 93
        1
 44
0.0
173
     0
291
     0
 45
0.0
  0
VISUALSTYLE
  5
8FC
102
{ACAD_REACTORS
330
267
102
}
330
267
100
AcDbVisualStyle
  2
JitterOff
 70
    20
 71
     2
 72
     2
 73
     0
 90
        0
 40
0.6
 41
30.0
 62
     5
 63
     7
421
 16777215
 74
     1
 91
        4
 64
     7
 65
   257
 75
     1
175
     1
 42
1.0
 92
       10
 66
     7
 43
1.0
 76
     1
 77
     6
 78
     2
 67
     7
 79
     5
170
     0
171
     0
290
     0
174
     0
 93
        1
 44
0.0
173
     0
291
     1
 45
0.0
  0
VISUALSTYLE
  5
275
102
{ACAD_REACTORS
330
267
102
}
330
267
100
AcDbVisualStyle
  2
Linepattern
 70
    14
 71
     2
 72
     2
 73
     0
 90
        0
 40
-0.6
 41
-30.0
 62
     5
 63
     7
421
 16777215
 74
     1
 91
        4
 64
     7
 65
   257
 75
     7
175
     7
 42
1.0
 92
        8
 66
     7
 43
1.0
 76
     1
 77
     6
 78
     2
 67
     7
 79
     5
170
     0
171
     0
290
     0
174
     0
 93
        1
 44
0.0
173
     0
291
     1
 45
0.0
  0
VISUALSTYLE
  5
8FD
102
{ACAD_REACTORS
330
267
102
}
330
267
100
AcDbVisualStyle
  2
OverhangOff
 70
    21
 71
     2
 72
     2
 73
     0
 90
        0
 40
0.6
 41
30.0
 62
     5
 63
     7
421
 16777215
 74
     1
 91
        4
 64
     7
 65
   257
 75
     1
175
     1
 42
1.0
 92
        9
 66
     7
 43
1.0
 76
     1
 77
     6
 78
     2
 67
     7
 79
     5
170
     0
171
     0
290
     0
174
     0
 93
        1
 44
0.0
173
     0
291
     1
 45
0.0
  0
VISUALSTYLE
  5
270
102
{ACAD_REACTORS
330
267
102
}
330
267
100
AcDbVisualStyle
  2
Realistic
 70
     8
 71
     2
 72
     2
 73
     0
 90
        0
 40
-0.6
 41
-30.0
 62
     5
 63
     7
421
 16777215
 74
     1
 91
        0
 64
     7
 65
   257
 75
     1
175
     1
 42
1.0
 92
        8
 66
     8
424
  7895160
 43
1.0
 76
     1
 77
     6
 78
     2
 67
     7
 79
     5
170
     0
171
     0
290
     0
174
     0
 93
       13
 44
0.0
173
     0
291
     0
 45
0.0
  0
VISUALSTYLE
  5
903
102
{ACAD_REACTORS
330
267
102
}
330
267
100
AcDbVisualStyle
  2
Shaded
 70
    27
 71
     2
 72
     2
 73
     1
 90
        2
 40
0.6
 41
30.0
 62
     5
 63
     7
421
 16777215
 74
     0
 91
        4
 64
     7
 65
   257
 75
     1
175
     1
 42
1.0
 92
        8
 66
   257
 43
1.0
 76
     1
 77
     6
 78
     2
 67
     8
425
  7895160
 79
     3
170
     0
171
     0
290
     0
174
     0
 93
        5
 44
0.0
173
     0
291
     0
 45
0.0
  0
VISUALSTYLE
  5
902
102
{ACAD_REACTORS
330
267
102
}
330
267
100
AcDbVisualStyle
  2
Shaded with edges
 70
    26
 71
     2
 72
     2
 73
     1
 90
        2
 40
0.6
 41
30.0
 62
     5
 63
     7
421
 16777215
 74
     1
 91
       10
 64
     7
 65
   257
 75
     2
175
     1
 42
1.0
 92
        8
 66
   257
 43
1.0
 76
     1
 77
     6
 78
     2
 67
     7
 79
     3
170
     0
171
     0
290
     0
174
     0
 93
        5
 44
0.0
173
     0
291
     0
 45
0.0
  0
VISUALSTYLE
  5
8FF
102
{ACAD_REACTORS
330
267
102
}
330
267
100
AcDbVisualStyle
  2
Shades of Gray
 70
    23
 71
     2
 72
     2
 73
     3
 90
        0
 40
0.6
 41
30.0
 62
     5
 63
     7
421
 16777215
 74
     2
 91
        2
 64
     7
 65
     7
 75
     1
175
     1
 42
40.0
 92
        8
 66
     7
 43
1.0
 76
     1
 77
     6
 78
     2
 67
     7
 79
     3
170
     0
171
     0
290
     0
174
     0
 93
        1
 44
0.0
173
     0
291
     0
 45
0.0
  0
VISUALSTYLE
  5
900
102
{ACAD_REACTORS
330
267
102
}
330
267
100
AcDbVisualStyle
  2
Sketchy
 70
    24
 71
     1
 72
     2
 73
     2
 90
        0
 40
0.6
 41
30.0
 62
     5
 63
     7
421
 16777215
 74
     2
 91
        2
 64
     7
 65
     7
 75
     1
175
     1
 42
40.0
 92
       11
 66
     7
 43
1.0
 76
     1
 77
     6
 78
     2
 67
     7
 79
     6
170
     0
171
     0
290
     0
174
     0
 93
        1
 44
0.0
173
     0
291
     0
 45
0.0
  0
VISUALSTYLE
  5
274
102
{ACAD_REACTORS
330
267
102
}
330
267
100
AcDbVisualStyle
  2
Thicken
 70
    13
 71
     2
 72
     2
 73
     0
 90
        0
 40
-0.6
 41
-30.0
 62
     5
 63
     7
421
 16777215
 74
     1
 91
        4
 64
     7
 65
   257
 75
     1
175
     1
 42
1.0
 92
       12
 66
     7
 43
1.0
 76
     1
 77
     6
 78
     2
 67
     7
 79
     5
170
     0
171
     0
290
     0
174
     0
 93
        1
 44
0.0
173
     0
291
     1
 45
0.0
  0
VISUALSTYLE
  5
8FA
102
{ACAD_REACTORS
330
267
102
}
330
267
100
AcDbVisualStyle
  2
Wireframe
 70
     5
 71
     0
 72
     2
 73
     0
 90
        0
 40
0.6
 41
30.0
 62
     5
 63
     7
421
 16777215
 74
     1
 91
        4
 64
     7
 65
   257
 75
     1
175
     1
 42
1.0
 92
        0
 66
   257
 43
1.0
 76
     1
 77
     6
 78
     2
 67
     7
 79
     3
170
     0
171
     0
290
     0
174
     0
 93
        1
 44
0.0
173
     0
291
     0
 45
0.0
  0
VISUALSTYLE
  5
901
102
{ACAD_REACTORS
330
267
102
}
330
267
100
AcDbVisualStyle
  2
X-Ray
 70
    25
 71
     2
 72
     2
 73
     1
 90
        1
 40
0.5
 41
30.0
 62
     5
 63
     7
421
 16777215
 74
     1
 91
        0
 64
     7
 65
   257
 75
     1
175
     1
 42
1.0
 92
        8
 66
     7
 43
1.0
 76
     1
 77
     6
 78
     2
 67
     7
 79
     3
170
     0
171
     0
290
     0
174
     0
 93
       13
 44
0.0
173
     0
291
     0
 45
0.0
  0
DICTIONARYVAR
  5
331
102
{ACAD_REACTORS
330
330
102
}
330
330
100
DictionaryVariables
280
     0
  1
1:1
  0
DICTIONARYVAR
  5
D5E
102
{ACAD_REACTORS
330
330
102
}
330
330
100
DictionaryVariables
280
     0
  1
Standard
  0
DICTIONARYVAR
  5
335
102
{ACAD_REACTORS
330
330
102
}
330
330
100
DictionaryVariables
280
     0
  1
Standard
  0
DICTIONARYVAR
  5
D52
102
{ACAD_REACTORS
330
330
102
}
330
330
100
DictionaryVariables
280
     0
  1
ByLayer
  0
DICTIONARYVAR
  5
896
102
{ACAD_REACTORS
330
330
102
}
330
330
100
DictionaryVariables
280
     0
  1
0
  0
DICTIONARYVAR
  5
1614
102
{ACAD_REACTORS
330
E38
102
}
330
E38
100
DictionaryVariables
280
     0
  1
0.261799
  0
DICTIONARYVAR
  5
1612
102
{ACAD_REACTORS
330
E38
102
}
330
E38
100
DictionaryVariables
280
     0
  1
0.400000
  0
DICTIONARYVAR
  5
1613
102
{ACAD_REACTORS
330
E38
102
}
330
E38
100
DictionaryVariables
280
     0
  1
0.250000
  0
DICTIONARYVAR
  5
1615
102
{ACAD_REACTORS
330
E38
102
}
330
E38
100
DictionaryVariables
280
     0
  1
1
  0
FIELD
  5
16F3
102
{ACAD_REACTORS
330
37E3
330
3975
102
}
330
3975
100
AcDbField
  1
_text
  2
{%<\_FldIdx 0>%N}
 90
        1
360
16F4
 97
        0
 91
       63
 92
        0
 94
       11
 95
        2
 96
        0
300

 93
        1
  6
ACFD_FIELDTEXT_CHECKSUM
 93
        2
 90
        2
140
4481.0
 94
        0
300

302

304
ACVALUE_END
  7
ACFD_FIELD_VALUE
 93
        6
 90
        4
  1
{20220603N}
 94
        0
300

302

304
ACVALUE_END
301
{20220603N}
 98
       11
  0
DICTIONARY
  5
3987
330
279
100
AcDbDictionary
280
     1
281
     1
  3
ACAD_ROUNDTRIP_2008_TABLESTYLE_CELLSTYLEMAP
360
3988
  0
FIELD
  5
16F4
330
16F3
100
AcDbField
  1
AcVar
  2
\AcVar Date \f "yyyyMMdd"
 90
        0
 97
        0
 91
       63
 92
        0
 94
        8
 95
       64
 96
        0
300
Variable not supported
 93
        1
  6
Variable
 93
        2
 90
        4
  1
Date
 94
        0
300

302

304
ACVALUE_END
  7
ACFD_FIELD_VALUE
 93
        6
 90
        8
 92
       16
310
E6070600000003000200170018000000
 94
        0
300
yyyyMMdd
302

304
ACVALUE_END
301
20220603
 98
        8
  0
CELLSTYLEMAP
  5
3988
102
{ACAD_REACTORS
330
3987
102
}
330
3987
100
AcDbCellStyleMap
 90
        3
300
CELLSTYLE
  1
TABLEFORMAT_BEGIN
 90
        5
170
     1
 91
        0
 92
    32768
 62
   257
 93
        1
300
CONTENTFORMAT
  1
CONTENTFORMAT_BEGIN
 90
        0
 91
        0
 92
        4
 93
        0
300

 40
0.0
140
1.0
 94
        5
 62
     0
340
17
144
6.0
309
CONTENTFORMAT_END
171
     1
301
MARGIN
  1
CELLMARGIN_BEGIN
 40
0.06
 40
0.06
 40
0.06
 40
0.06
 40
0.18
 40
0.18
309
CELLMARGIN_END
 94
        6
 95
        1
302
GRIDFORMAT
  1
GRIDFORMAT_BEGIN
 90
        0
 91
        1
 62
     0
 92
       -2
340
0
 93
        0
 40
0.045
309
GRIDFORMAT_END
 95
        2
302
GRIDFORMAT
  1
GRIDFORMAT_BEGIN
 90
        0
 91
        1
 62
     0
 92
       -2
340
0
 93
        0
 40
0.045
309
GRIDFORMAT_END
 95
        4
302
GRIDFORMAT
  1
GRIDFORMAT_BEGIN
 90
        0
 91
        1
 62
     0
 92
       -2
340
0
 93
        0
 40
0.045
309
GRIDFORMAT_END
 95
        8
302
GRIDFORMAT
  1
GRIDFORMAT_BEGIN
 90
        0
 91
        1
 62
     0
 92
       -2
340
0
 93
        0
 40
0.045
309
GRIDFORMAT_END
 95
       16
302
GRIDFORMAT
  1
GRIDFORMAT_BEGIN
 90
        0
 91
        1
 62
     0
 92
       -2
340
0
 93
        0
 40
0.045
309
GRIDFORMAT_END
 95
       32
302
GRIDFORMAT
  1
GRIDFORMAT_BEGIN
 90
        0
 91
        1
 62
     0
 92
       -2
340
0
 93
        0
 40
0.045
309
GRIDFORMAT_END
309
TABLEFORMAT_END
  1
CELLSTYLE_BEGIN
 90
        1
 91
        1
300
_TITLE
309
CELLSTYLE_END
300
CELLSTYLE
  1
TABLEFORMAT_BEGIN
 90
        5
170
     1
 91
        0
 92
        0
 62
   257
 93
        1
300
CONTENTFORMAT
  1
CONTENTFORMAT_BEGIN
 90
        0
 91
        0
 92
        4
 93
        0
300

 40
0.0
140
1.0
 94
        5
 62
     0
340
17
144
4.5
309
CONTENTFORMAT_END
171
     1
301
MARGIN
  1
CELLMARGIN_BEGIN
 40
0.06
 40
0.06
 40
0.06
 40
0.06
 40
0.18
 40
0.18
309
CELLMARGIN_END
 94
        6
 95
        1
302
GRIDFORMAT
  1
GRIDFORMAT_BEGIN
 90
        0
 91
        1
 62
     0
 92
       -2
340
0
 93
        0
 40
0.045
309
GRIDFORMAT_END
 95
        2
302
GRIDFORMAT
  1
GRIDFORMAT_BEGIN
 90
        0
 91
        1
 62
     0
 92
       -2
340
0
 93
        0
 40
0.045
309
GRIDFORMAT_END
 95
        4
302
GRIDFORMAT
  1
GRIDFORMAT_BEGIN
 90
        0
 91
        1
 62
     0
 92
       -2
340
0
 93
        0
 40
0.045
309
GRIDFORMAT_END
 95
        8
302
GRIDFORMAT
  1
GRIDFORMAT_BEGIN
 90
        0
 91
        1
 62
     0
 92
       -2
340
0
 93
        0
 40
0.045
309
GRIDFORMAT_END
 95
       16
302
GRIDFORMAT
  1
GRIDFORMAT_BEGIN
 90
        0
 91
        1
 62
     0
 92
       -2
340
0
 93
        0
 40
0.045
309
GRIDFORMAT_END
 95
       32
302
GRIDFORMAT
  1
GRIDFORMAT_BEGIN
 90
        0
 91
        1
 62
     0
 92
       -2
340
0
 93
        0
 40
0.045
309
GRIDFORMAT_END
309
TABLEFORMAT_END
  1
CELLSTYLE_BEGIN
 90
        2
 91
        1
300
_HEADER
309
CELLSTYLE_END
300
CELLSTYLE
  1
TABLEFORMAT_BEGIN
 90
        5
170
     1
 91
        0
 92
        0
 62
   257
 93
        1
300
CONTENTFORMAT
  1
CONTENTFORMAT_BEGIN
 90
        0
 91
        0
 92
        4
 93
        0
300

 40
0.0
140
1.0
 94
        2
 62
     0
340
17
144
4.5
309
CONTENTFORMAT_END
171
     1
301
MARGIN
  1
CELLMARGIN_BEGIN
 40
0.06
 40
0.06
 40
0.06
 40
0.06
 40
0.18
 40
0.18
309
CELLMARGIN_END
 94
        6
 95
        1
302
GRIDFORMAT
  1
GRIDFORMAT_BEGIN
 90
        0
 91
        1
 62
     0
 92
       -2
340
0
 93
        0
 40
0.045
309
GRIDFORMAT_END
 95
        2
302
GRIDFORMAT
  1
GRIDFORMAT_BEGIN
 90
        0
 91
        1
 62
     0
 92
       -2
340
0
 93
        0
 40
0.045
309
GRIDFORMAT_END
 95
        4
302
GRIDFORMAT
  1
GRIDFORMAT_BEGIN
 90
        0
 91
        1
 62
     0
 92
       -2
340
0
 93
        0
 40
0.045
309
GRIDFORMAT_END
 95
        8
302
GRIDFORMAT
  1
GRIDFORMAT_BEGIN
 90
        0
 91
        1
 62
     0
 92
       -2
340
0
 93
        0
 40
0.045
309
GRIDFORMAT_END
 95
       16
302
GRIDFORMAT
  1
GRIDFORMAT_BEGIN
 90
        0
 91
        1
 62
     0
 92
       -2
340
0
 93
        0
 40
0.045
309
GRIDFORMAT_END
 95
       32
302
GRIDFORMAT
  1
GRIDFORMAT_BEGIN
 90
        0
 91
        1
 62
     0
 92
       -2
340
0
 93
        0
 40
0.045
309
GRIDFORMAT_END
309
TABLEFORMAT_END
  1
CELLSTYLE_BEGIN
 90
        3
 91
        2
300
_DATA
309
CELLSTYLE_END
  0
ENDSEC
  0
EOF
