  0
SECTION
  2
HEADER
  9
$ACADVER
  1
AC1021
  9
$ACADMAINTVER
 70
    25
  9
$DWGCODEPAGE
  3
ANSI_932
  9
$LASTSAVEDBY
  1
T-HOWE-PC
  9
$INSBASE
 10
0.0
 20
0.0
 30
0.0
  9
$EXTMIN
 10
0.0
 20
0.0
 30
-0.0000000000000071
  9
$EXTMAX
 10
420.0
 20
594.0
 30
0.0000000000000071
  9
$LIMMIN
 10
0.0
 20
0.0
  9
$LIMMAX
 10
420.0
 20
594.0
  9
$ORTHOMODE
 70
     1
  9
$REGENMODE
 70
     1
  9
$FILLMODE
 70
     1
  9
$QTEXTMODE
 70
     0
  9
$MIRRTEXT
 70
     1
  9
$LTSCALE
 40
1.0
  9
$ATTMODE
 70
     1
  9
$TEXTSIZE
 40
2.5
  9
$TRACEWID
 40
1.0
  9
$TEXTSTYLE
  7
ＭＳ ゴシック
  9
$CLAYER
  8
DIM
  9
$CELTYPE
  6
ByLayer
  9
$CECOLOR
 62
   256
  9
$CELTSCALE
 40
1.0
  9
$DISPSILH
 70
     0
  9
$DIMSCALE
 40
1.0
  9
$DIMASZ
 40
2.0
  9
$DIMEXO
 40
5.0
  9
$DIMDLI
 40
0.9999999999999999
  9
$DIMRND
 40
0.0
  9
$DIMDLE
 40
0.0
  9
$DIMEXE
 40
0.0
  9
$DIMTP
 40
0.0
  9
$DIMTM
 40
0.0
  9
$DIMTXT
 40
5.0
  9
$DIMCEN
 40
0.0
  9
$DIMTSZ
 40
0.0
  9
$DIMTOL
 70
     0
  9
$DIMLIM
 70
     0
  9
$DIMTIH
 70
     0
  9
$DIMTOH
 70
     0
  9
$DIMSE1
 70
     0
  9
$DIMSE2
 70
     0
  9
$DIMTAD
 70
     1
  9
$DIMZIN
 70
    11
  9
$DIMBLK
  1
DOT
  9
$DIMASO
 70
     1
  9
$DIMSHO
 70
     1
  9
$DIMPOST
  1
<>
  9
$DIMAPOST
  1
[]
  9
$DIMALT
 70
     0
  9
$DIMALTD
 70
     1
  9
$DIMALTF
 40
1.0
  9
$DIMLFAC
 40
1.0
  9
$DIMTOFL
 70
     0
  9
$DIMTVP
 40
0.0
  9
$DIMTIX
 70
     1
  9
$DIMSOXD
 70
     0
  9
$DIMSAH
 70
     0
  9
$DIMBLK1
  1

  9
$DIMBLK2
  1

  9
$DIMSTYLE
  2
tfrom線あり
  9
$DIMCLRD
 70
     0
  9
$DIMCLRE
 70
     0
  9
$DIMCLRT
 70
     0
  9
$DIMTFAC
 40
1.0
  9
$DIMGAP
 40
3.0
  9
$DIMJUST
 70
     0
  9
$DIMSD1
 70
     0
  9
$DIMSD2
 70
     0
  9
$DIMTOLJ
 70
     1
  9
$DIMTZIN
 70
    11
  9
$DIMALTZ
 70
    11
  9
$DIMALTTZ
 70
    11
  9
$DIMUPT
 70
     0
  9
$DIMDEC
 70
     0
  9
$DIMTDEC
 70
     1
  9
$DIMALTU
 70
     2
  9
$DIMALTTD
 70
     2
  9
$DIMTXSTY
  7
ＭＳ ゴシック
  9
$DIMAUNIT
 70
     0
  9
$DIMADEC
 70
     2
  9
$DIMALTRND
 40
0.0
  9
$DIMAZIN
 70
     0
  9
$DIMDSEP
 70
    46
  9
$DIMATFIT
 70
     0
  9
$DIMFRAC
 70
     2
  9
$DIMLDRBLK
  1
DOT
  9
$DIMLUNIT
 70
     2
  9
$DIMLWD
 70
    -2
  9
$DIMLWE
 70
    -2
  9
$DIMTMOVE
 70
     0
  9
$DIMFXL
 40
1.0
  9
$DIMFXLON
 70
     0
  9
$DIMJOGANG
 40
0.7853981633974483
  9
$DIMTFILL
 70
     0
  9
$DIMTFILLCLR
 70
     0
  9
$DIMARCSYM
 70
     0
  9
$DIMLTYPE
  6

  9
$DIMLTEX1
  6

  9
$DIMLTEX2
  6

  9
$LUNITS
 70
     2
  9
$LUPREC
 70
     0
  9
$SKETCHINC
 40
0.1
  9
$FILLETRAD
 40
0.0
  9
$AUNITS
 70
     0
  9
$AUPREC
 70
     0
  9
$MENU
  1
acad
  9
$ELEVATION
 40
0.0
  9
$PELEVATION
 40
0.0
  9
$THICKNESS
 40
0.0
  9
$LIMCHECK
 70
     0
  9
$CHAMFERA
 40
0.0
  9
$CHAMFERB
 40
0.0
  9
$CHAMFERC
 40
0.0
  9
$CHAMFERD
 40
0.0
  9
$SKPOLY
 70
     0
  9
$TDCREATE
 40
2447893.375
  9
$TDUCREATE
 40
0.0
  9
$TDUPDATE
 40
2459509.625907014
  9
$TDUUPDATE
 40
2459509.250907014
  9
$TDINDWG
 40
0.1433451852
  9
$TDUSRTIMER
 40
0.0066926042
  9
$USRTIMER
 70
     1
  9
$ANGBASE
 50
0.0
  9
$ANGDIR
 70
     0
  9
$PDMODE
 70
     1
  9
$PDSIZE
 40
-2.0
  9
$PLINEWID
 40
0.0
  9
$SPLFRAME
 70
     0
  9
$SPLINETYPE
 70
     6
  9
$SPLINESEGS
 70
     8
  9
$HANDSEED
  5
415B
  9
$SURFTAB1
 70
     6
  9
$SURFTAB2
 70
     6
  9
$SURFTYPE
 70
     6
  9
$SURFU
 70
     6
  9
$SURFV
 70
     6
  9
$UCSBASE
  2

  9
$UCSNAME
  2

  9
$UCSORG
 10
0.0
 20
0.0
 30
0.0
  9
$UCSXDIR
 10
1.0
 20
0.0
 30
0.0
  9
$UCSYDIR
 10
0.0
 20
1.0
 30
0.0
  9
$UCSORTHOREF
  2

  9
$UCSORTHOVIEW
 70
     0
  9
$UCSORGTOP
 10
0.0
 20
0.0
 30
0.0
  9
$UCSORGBOTTOM
 10
0.0
 20
0.0
 30
0.0
  9
$UCSORGLEFT
 10
0.0
 20
0.0
 30
0.0
  9
$UCSORGRIGHT
 10
0.0
 20
0.0
 30
0.0
  9
$UCSORGFRONT
 10
0.0
 20
0.0
 30
0.0
  9
$UCSORGBACK
 10
0.0
 20
0.0
 30
0.0
  9
$PUCSBASE
  2

  9
$PUCSNAME
  2

  9
$PUCSORG
 10
0.0
 20
0.0
 30
0.0
  9
$PUCSXDIR
 10
1.0
 20
0.0
 30
0.0
  9
$PUCSYDIR
 10
0.0
 20
1.0
 30
0.0
  9
$PUCSORTHOREF
  2

  9
$PUCSORTHOVIEW
 70
     0
  9
$PUCSORGTOP
 10
0.0
 20
0.0
 30
0.0
  9
$PUCSORGBOTTOM
 10
0.0
 20
0.0
 30
0.0
  9
$PUCSORGLEFT
 10
0.0
 20
0.0
 30
0.0
  9
$PUCSORGRIGHT
 10
0.0
 20
0.0
 30
0.0
  9
$PUCSORGFRONT
 10
0.0
 20
0.0
 30
0.0
  9
$PUCSORGBACK
 10
0.0
 20
0.0
 30
0.0
  9
$USERI1
 70
     0
  9
$USERI2
 70
     0
  9
$USERI3
 70
     0
  9
$USERI4
 70
     0
  9
$USERI5
 70
     0
  9
$USERR1
 40
0.0
  9
$USERR2
 40
0.0
  9
$USERR3
 40
0.0
  9
$USERR4
 40
0.0
  9
$USERR5
 40
0.0
  9
$WORLDVIEW
 70
     1
  9
$SHADEDGE
 70
     3
  9
$SHADEDIF
 70
    70
  9
$TILEMODE
 70
     1
  9
$MAXACTVP
 70
    64
  9
$PINSBASE
 10
0.0
 20
0.0
 30
0.0
  9
$PLIMCHECK
 70
     0
  9
$PEXTMIN
 10
0.0
 20
0.0
 30
0.0
  9
$PEXTMAX
 10
0.0
 20
0.0
 30
0.0
  9
$PLIMMIN
 10
-7.5
 20
-20.0
  9
$PLIMMAX
 10
412.5
 20
277.0
  9
$UNITMODE
 70
     0
  9
$VISRETAIN
 70
     0
  9
$PLINEGEN
 70
     1
  9
$PSLTSCALE
 70
     0
  9
$TREEDEPTH
 70
  3020
  9
$CMLSTYLE
  2
Standard
  9
$CMLJUST
 70
     0
  9
$CMLSCALE
 40
1.0
  9
$PROXYGRAPHICS
 70
     0
  9
$MEASUREMENT
 70
     1
  9
$CELWEIGHT
370
    -1
  9
$ENDCAPS
280
     0
  9
$JOINSTYLE
280
     0
  9
$LWDISPLAY
290
     1
  9
$INSUNITS
 70
     4
  9
$HYPERLINKBASE
  1

  9
$STYLESHEET
  1

  9
$XEDIT
290
     1
  9
$CEPSNTYPE
380
     0
  9
$PSTYLEMODE
290
     1
  9
$FINGERPRINTGUID
  2

  9
$VERSIONGUID
  2

  9
$EXTNAMES
290
     1
  9
$PSVPSCALE
 40
0.0
  9
$OLESTARTUP
290
     0
  9
$SORTENTS
280
   127
  9
$INDEXCTL
280
     0
  9
$HIDETEXT
280
     1
  9
$XCLIPFRAME
290
     0
  9
$HALOGAP
280
     0
  9
$OBSCOLOR
 70
   257
  9
$OBSLTYPE
280
     0
  9
$INTERSECTIONDISPLAY
280
     0
  9
$INTERSECTIONCOLOR
 70
   257
  9
$DIMASSOC
280
     2
  9
$PROJECTNAME
  1

  9
$CAMERADISPLAY
290
     0
  9
$LENSLENGTH
 40
50.0
  9
$CAMERAHEIGHT
 40
0.0
  9
$STEPSPERSEC
 40
2.0
  9
$STEPSIZE
 40
6.0
  9
$3DDWFPREC
 40
2.0
  9
$PSOLWIDTH
 40
0.25
  9
$PSOLHEIGHT
 40
4.0
  9
$LOFTANG1
 40
1.570796326794897
  9
$LOFTANG2
 40
1.570796326794897
  9
$LOFTMAG1
 40
0.0
  9
$LOFTMAG2
 40
0.0
  9
$LOFTPARAM
 70
     7
  9
$LOFTNORMALS
280
     1
  9
$LATITUDE
 40
37.795
  9
$LONGITUDE
 40
-122.394
  9
$NORTHDIRECTION
 40
0.0
  9
$TIMEZONE
 70
 -8000
  9
$LIGHTGLYPHDISPLAY
280
     1
  9
$TILEMODELIGHTSYNCH
280
     1
  9
$SOLIDHIST
280
     1
  9
$SHOWHIST
280
     1
  9
$DWFFRAME
280
     2
  9
$DGNFRAME
280
     2
  9
$REALWORLDSCALE
290
     1
  9
$INTERFERECOLOR
 62
   256
  9
$CSHADOW
280
     0
  9
$SHADOWPLANELOCATION
 40
0.0
  0
ENDSEC
  0
SECTION
  2
CLASSES
  0
CLASS
  1
LWPOLYLINE
  2
AcDbPolyline
  3
ObjectDBX Classes
 90
        0
 91
        1
280
     0
281
     1
  0
CLASS
  1
IMAGE
  2
AcDbRasterImage
  3
ISM
 90
      127
 91
        4
280
     0
281
     1
  0
CLASS
  1
OLE2FRAME
  2
AcDbOle2Frame
  3
ObjectDBX Classes
 90
        0
 91
        1
280
     0
281
     1
  0
CLASS
  1
HATCH
  2
AcDbHatch
  3
ObjectDBX Classes
 90
        0
 91
        1
280
     0
281
     1
  0
CLASS
  1
DICTIONARYVAR
  2
AcDbDictionaryVar
  3
ObjectDBX Classes
 90
        0
 91
        3
280
     0
281
     0
  0
CLASS
  1
RASTERVARIABLES
  2
AcDbRasterVariables
  3
ISM
 90
        0
 91
        3
280
     0
281
     0
  0
CLASS
  1
IMAGEDEF
  2
AcDbRasterImageDef
  3
ISM
 90
        0
 91
        3
280
     0
281
     0
  0
CLASS
  1
IMAGEDEF_REACTOR
  2
AcDbRasterImageDefReactor
  3
ISM
 90
        1
 91
        3
280
     0
281
     0
  0
CLASS
  1
IDBUFFER
  2
AcDbIdBuffer
  3
ObjectDBX Classes
 90
        0
 91
        3
280
     0
281
     0
  0
CLASS
  1
SPATIAL_FILTER
  2
AcDbSpatialFilter
  3
ObjectDBX Classes
 90
        0
 91
        3
280
     0
281
     0
  0
CLASS
  1
XRECORD
  2
AcDbXrecord
  3
ObjectDBX Classes
 90
        0
 91
        1
280
     0
281
     0
  0
CLASS
  1
SORTENTSTABLE
  2
AcDbSortentsTable
  3
ObjectDBX Classes
 90
        0
 91
        3
280
     0
281
     0
  0
CLASS
  1
LAYER_INDEX
  2
AcDbLayerIndex
  3
ObjectDBX Classes
 90
        0
 91
        3
280
     0
281
     0
  0
CLASS
  1
SPATIAL_INDEX
  2
AcDbSpatialIndex
  3
AutoCAD 2000
 90
        0
 91
        3
280
     0
281
     0
  0
CLASS
  1
OBJECT_PTR
  2
CAseDLPNTableRecord
  3
ASE-LPNTableRecord
 90
        1
 91
        3
280
     0
281
     0
  0
CLASS
  1
LAYOUT
  2
AcDbLayout
  3
ObjectDBX Classes
 90
        0
 91
        1
280
     0
281
     0
  0
CLASS
  1
PLOTSETTINGS
  2
AcDbPlotSettings
  3
ObjectDBX Classes
 90
        0
 91
        3
280
     0
281
     0
  0
CLASS
  1
ACDBDICTIONARYWDFLT
  2
AcDbDictionaryWithDefault
  3
ObjectDBX Classes
 90
        0
 91
        3
280
     0
281
     0
  0
CLASS
  1
ACDBPLACEHOLDER
  2
AcDbPlaceHolder
  3
ObjectDBX Classes
 90
        0
 91
        1
280
     0
281
     0
  0
CLASS
  1
SCALE
  2
AcDbScale
  3
ObjectDBX Classes
 90
     1153
 91
        3
280
     0
281
     0
  0
CLASS
  1
MATERIAL
  2
AcDbMaterial
  3
ObjectDBX Classes
 90
     1153
 91
        3
280
     0
281
     0
  0
CLASS
  1
VISUALSTYLE
  2
AcDbVisualStyle
  3
ObjectDBX Classes
 90
     4095
 91
        3
280
     0
281
     0
  0
CLASS
  1
TABLESTYLE
  2
AcDbTableStyle
  3
ObjectDBX Classes
 90
     4095
 91
        3
280
     0
281
     0
  0
CLASS
  1
DIMASSOC
  2
AcDbDimAssoc
  3
"AcDbDimAssoc|Product Desc:     AcDim ARX App For Dimension|Company:          Autodesk, Inc.|WEB Address:      www.autodesk.com"
 90
        0
 91
        3
280
     0
281
     0
  0
CLASS
  1
CELLSTYLEMAP
  2
AcDbCellStyleMap
  3
ObjectDBX Classes
 90
     1152
 91
        3
280
     0
281
     0
  0
CLASS
  1
SUN
  2
AcDbSun
  3
SCENEOE
 90
     1153
 91
        3
280
     0
281
     0
  0
CLASS
  1
MLEADERSTYLE
  2
AcDbMLeaderStyle
  3
ACDB_MLEADERSTYLE_CLASS
 90
     4095
 91
        3
280
     0
281
     0
  0
CLASS
  1
FIELD
  2
AcDbField
  3
ObjectDBX Classes
 90
     1152
 91
        3
280
     0
281
     0
  0
CLASS
  1
FIELDLIST
  2
AcDbFieldList
  3
ObjectDBX Classes
 90
     1152
 91
        3
280
     0
281
     0
  0
ENDSEC
  0
SECTION
  2
TABLES
  0
TABLE
  2
VPORT
  5
7
330
0
100
AcDbSymbolTable
 70
     1
  0
VPORT
  5
15
330
7
100
AcDbSymbolTableRecord
100
AcDbViewportTableRecord
  2
*ACTIVE
 70
     0
 10
0.0
 20
0.0
 11
1.0
 21
1.0
 12
301.0201356708999
 22
223.401285469834
 13
0.0
 23
0.0
 14
1.0
 24
1.0
 15
0.0
 25
0.0
 16
0.0
 26
0.0
 36
1.0
 17
-91.02013567089995
 27
73.59871453016603
 37
-46.86809886248109
 40
605.88
 41
2.27027027027027
 42
50.0
 43
0.0
 44
0.0
 50
0.0
 51
0.0
 71
    16
 72
  2000
 73
     1
 74
     1
 75
     0
 76
     0
 77
     0
 78
     0
281
     0
 65
     1
110
0.0
120
0.0
130
0.0
111
1.0
121
0.0
131
0.0
112
0.0
122
1.0
132
0.0
 79
     0
146
0.0
348
26C
 60
     3
 61
     5
292
     1
282
     1
141
0.0
142
0.0
 63
   256
361
904
  0
ENDTAB
  0
TABLE
  2
LTYPE
  5
4
330
0
100
AcDbSymbolTable
 70
     3
  0
LTYPE
  5
11
330
4
100
AcDbSymbolTableRecord
100
AcDbLinetypeTableRecord
  2
ByBlock
 70
     0
  3

 72
    65
 73
     0
 40
0.0
  0
LTYPE
  5
12
330
4
100
AcDbSymbolTableRecord
100
AcDbLinetypeTableRecord
  2
ByLayer
 70
     0
  3

 72
    65
 73
     0
 40
0.0
  0
LTYPE
  5
13
330
4
100
AcDbSymbolTableRecord
100
AcDbLinetypeTableRecord
  2
Continuous
 70
     0
  3
Solid line
 72
    65
 73
     0
 40
0.0
  0
LTYPE
  5
D6C
330
4
100
AcDbSymbolTableRecord
100
AcDbLinetypeTableRecord
  2
BORDER
 70
     0
  3
Border __  __  . __  __  . __  __  . __  __  . 
 72
    65
 73
     6
 40
44.45
 49
12.7
 74
     0
 49
-6.35
 74
     0
 49
12.7
 74
     0
 49
-6.35
 74
     0
 49
0.0
 74
     0
 49
-6.35
 74
     0
  0
LTYPE
  5
D6D
330
4
100
AcDbSymbolTableRecord
100
AcDbLinetypeTableRecord
  2
HIDDEN
 70
     0
  3
Hidden _ _ _ _ _ _ _ _ _ _ _ _ _ _ _ _ _ _ _ _ 
 72
    65
 73
     2
 40
9.524999999999999
 49
6.35
 74
     0
 49
-3.175
 74
     0
  0
ENDTAB
  0
TABLE
  2
LAYER
  5
2
102
{ACAD_XDICTIONARY
360
2E1
102
}
330
0
100
AcDbSymbolTable
 70
     7
  0
LAYER
  5
14
330
2
100
AcDbSymbolTableRecord
100
AcDbLayerTableRecord
  2
0
 70
     0
 62
     7
  6
Continuous
370
    -3
390
1D
347
266
  0
LAYER
  5
4B
330
2
100
AcDbSymbolTableRecord
100
AcDbLayerTableRecord
  2
TEMPLATE
 70
     0
 62
     7
  6
Continuous
370
    20
390
1D
347
266
  0
LAYER
  5
4C
330
2
100
AcDbSymbolTableRecord
100
AcDbLayerTableRecord
  2
DIM
 70
     0
 62
     3
  6
Continuous
370
    13
390
1D
347
266
  0
LAYER
  5
4D
330
2
100
AcDbSymbolTableRecord
100
AcDbLayerTableRecord
  2
MODEL
 70
     0
 62
     7
  6
Continuous
370
    20
390
1D
347
266
  0
LAYER
  5
88C
330
2
100
AcDbSymbolTableRecord
100
AcDbLayerTableRecord
  2
HIDDEN
 70
     0
 62
     8
  6
HIDDEN
370
    20
390
1D
347
266
1001
AcAecLayerStandard
1000

1000

  0
LAYER
  5
D6B
330
2
100
AcDbSymbolTableRecord
100
AcDbLayerTableRecord
  2
BORDER
 70
     0
 62
     4
  6
BORDER
290
     0
370
    20
390
1D
347
266
1001
AcAecLayerStandard
1000

1000

  0
LAYER
  5
D8C
330
2
100
AcDbSymbolTableRecord
100
AcDbLayerTableRecord
  2
Defpoints
 70
     0
 62
     7
  6
Continuous
290
     0
370
    -3
390
1D
347
266
  0
ENDTAB
  0
TABLE
  2
STYLE
  5
3
330
0
100
AcDbSymbolTable
 70
     2
  0
STYLE
  5
17
330
3
100
AcDbSymbolTableRecord
100
AcDbTextStyleTableRecord
  2
Standard
 70
     0
 40
0.0
 41
1.0
 50
0.0
 71
     0
 42
2.5
  3
txt
  4
BIGFONT.SHX
  0
STYLE
  5
39
330
3
100
AcDbSymbolTableRecord
100
AcDbTextStyleTableRecord
  2
ＭＳ ゴシック
 70
     0
 40
0.0
 41
1.0
 50
0.0
 71
     0
 42
2.5
  3
msgothic.ttc
  4
ＭＳ ゴシック
1001
ACAD
1000
ＭＳ ゴシック
1071
        0
  0
ENDTAB
  0
TABLE
  2
VIEW
  5
5
330
0
100
AcDbSymbolTable
 70
     0
  0
ENDTAB
  0
TABLE
  2
UCS
  5
6
330
0
100
AcDbSymbolTable
 70
     0
  0
ENDTAB
  0
TABLE
  2
APPID
  5
8
330
0
100
AcDbSymbolTable
 70
     4
  0
APPID
  5
16
330
8
100
AcDbSymbolTableRecord
100
AcDbRegAppTableRecord
  2
ACAD
 70
     0
  0
APPID
  5
7AC
330
8
100
AcDbSymbolTableRecord
100
AcDbRegAppTableRecord
  2
AcAecLayerStandard
 70
     0
  0
APPID
  5
E29
330
8
100
AcDbSymbolTableRecord
100
AcDbRegAppTableRecord
  2
ACAD_MLEADERVER
 70
     0
  0
APPID
  5
414E
330
8
100
AcDbSymbolTableRecord
100
AcDbRegAppTableRecord
  2
PLOTTRANSPARENCY
 70
     0
  0
ENDTAB
  0
TABLE
  2
DIMSTYLE
  5
9
330
0
100
AcDbSymbolTable
 70
     1
100
AcDbDimStyleTable
  0
DIMSTYLE
105
57
102
{ACAD_REACTORS
330
4064
330
4082
102
}
330
9
100
AcDbSymbolTableRecord
100
AcDbDimStyleTableRecord
  2
tfrom線あり
 70
     0
  3
<>
  4
[]
 41
2.0
 42
5.0
 43
0.9999999999999999
 44
0.0
 73
     0
 74
     0
 77
     1
 78
    11
140
5.0
141
0.0
143
1.0
147
3.0
171
     1
174
     1
178
     0
179
     2
271
     0
272
     1
276
     2
284
    11
285
    11
286
    11
289
     0
340
39
341
4E
342
4E
  0
ENDTAB
  0
TABLE
  2
BLOCK_RECORD
  5
1
330
0
100
AcDbSymbolTable
 70
     7
  0
BLOCK_RECORD
  5
A
102
{ACAD_XDICTIONARY
360
3D3D
102
}
330
1
100
AcDbSymbolTableRecord
100
AcDbBlockTableRecord
  2
*MODEL_SPACE
340
20
 70
     0
280
     1
281
     0
  0
BLOCK_RECORD
  5
B
330
1
100
AcDbSymbolTableRecord
100
AcDbBlockTableRecord
  2
*PAPER_SPACE
340
21
 70
     0
280
     1
281
     0
  0
BLOCK_RECORD
  5
4E
330
1
100
AcDbSymbolTableRecord
100
AcDbBlockTableRecord
  2
_DOT
340
0
102
{BLKREFS
331
3B8C
331
3B8D
331
3B98
331
3B99
331
3BA4
331
3BA5
331
3BB0
331
3BB1
331
3BBC
331
3BBD
331
3BC8
331
3BC9
331
3BD4
331
3BD5
331
3CFD
331
3CFE
331
3D0C
331
3D0D
331
3D2A
331
3D2B
331
3D36
331
3D37
331
405D
331
406E
331
406D
331
407D
331
407C
331
408C
331
408B
102
}
 70
     0
280
     1
281
     0
  0
BLOCK_RECORD
  5
68D
330
1
100
AcDbSymbolTableRecord
100
AcDbBlockTableRecord
  2
block 2
340
0
102
{BLKREFS
331
68C
331
1343
102
}
 70
     0
280
     1
281
     0
  0
BLOCK_RECORD
  5
3D24
330
1
100
AcDbSymbolTableRecord
100
AcDbBlockTableRecord
  2
*D11
340
0
 70
     0
280
     1
281
     0
  0
BLOCK_RECORD
  5
3D30
330
1
100
AcDbSymbolTableRecord
100
AcDbBlockTableRecord
  2
*D12
340
0
 70
     0
280
     1
281
     0
  0
BLOCK_RECORD
  5
4055
330
1
100
AcDbSymbolTableRecord
100
AcDbBlockTableRecord
  2
*D21
340
0
 70
     0
280
     1
281
     0
  0
BLOCK_RECORD
  5
4067
330
1
100
AcDbSymbolTableRecord
100
AcDbBlockTableRecord
  2
*D22
340
0
 70
     0
280
     1
281
     0
  0
BLOCK_RECORD
  5
4085
330
1
100
AcDbSymbolTableRecord
100
AcDbBlockTableRecord
  2
*D24
340
0
 70
     0
280
     1
281
     0
  0
ENDTAB
  0
ENDSEC
  0
SECTION
  2
BLOCKS
  0
BLOCK
  5
D
330
A
100
AcDbEntity
  8
0
390
1D
100
AcDbBlockBegin
  2
*MODEL_SPACE
 70
     0
 10
0.0
 20
0.0
 30
0.0
  3
*MODEL_SPACE
  1
*MODEL_SPACE
  0
ENDBLK
  5
E
330
A
100
AcDbEntity
  8
0
390
1D
100
AcDbBlockEnd
  0
BLOCK
  5
F
330
B
100
AcDbEntity
 67
     1
  8
0
390
1D
100
AcDbBlockBegin
  2
*PAPER_SPACE
 70
     0
 10
0.0
 20
0.0
 30
0.0
  3
*PAPER_SPACE
  1
*PAPER_SPACE
  0
ENDBLK
  5
10
330
B
100
AcDbEntity
 67
     1
  8
0
390
1D
100
AcDbBlockEnd
  0
BLOCK
  5
2462
330
4E
100
AcDbEntity
  8
0
390
1D
100
AcDbBlockBegin
  2
_DOT
 70
     0
 10
0.0
 20
0.0
 30
0.0
  3
_DOT
  1
_DOT
  0
POLYLINE
  5
2464
330
4E
100
AcDbEntity
  8
0
  6
ByBlock
 62
     0
370
    -2
390
1D
100
AcDb2dPolyline
 66
     1
 10
0.0
 20
0.0
 30
0.0
 70
     1
 40
0.5
 41
0.5
  0
VERTEX
  5
2465
330
2464
100
AcDbEntity
  8
0
  6
ByBlock
 62
     0
370
    -2
390
1D
100
AcDbVertex
100
AcDb2dVertex
 10
-0.25
 20
0.0
 30
0.0
 42
1.0
  0
VERTEX
  5
2466
330
2464
100
AcDbEntity
  8
0
  6
ByBlock
 62
     0
370
    -2
390
1D
100
AcDbVertex
100
AcDb2dVertex
 10
0.25
 20
0.0
 30
0.0
 42
1.0
  0
SEQEND
  5
2467
330
2464
100
AcDbEntity
  8
0
390
1D
  0
LINE
  5
2468
330
4E
100
AcDbEntity
  8
0
  6
ByBlock
 62
     0
370
    -2
390
1D
100
AcDbLine
 10
-0.5
 20
0.0
 30
0.0
 11
-1.0
 21
0.0
 31
0.0
  0
ENDBLK
  5
2469
330
4E
100
AcDbEntity
  8
0
390
1D
100
AcDbBlockEnd
  0
BLOCK
  5
68E
330
68D
100
AcDbEntity
  8
0
100
AcDbBlockBegin
  2
block 2
 70
     0
 10
0.0
 20
0.0
 30
0.0
  3
block 2
  1
block 2
  0
ENDBLK
  5
6B0
330
68D
100
AcDbEntity
  8
0
100
AcDbBlockEnd
  0
BLOCK
  5
3D25
330
3D24
100
AcDbEntity
  8
0
100
AcDbBlockBegin
  2
*D11
 70
     1
 10
0.0
 20
0.0
 30
0.0
  3
*D11
  1

  0
LINE
  5
3D27
330
3D24
100
AcDbEntity
  8
DIM
 62
     0
370
    -2
100
AcDbLine
 10
-363.1669675709027
 20
338.6076747477205
 30
0.0
 11
-363.1669675709027
 21
403.7539197665653
 31
0.0
  0
LINE
  5
3D28
330
3D24
100
AcDbEntity
  8
DIM
 62
     0
370
    -2
100
AcDbLine
 10
-248.9889736499303
 20
338.6076747477205
 30
0.0
 11
-248.9889736499303
 21
403.7539197665653
 31
0.0
  0
LINE
  5
3D29
330
3D24
100
AcDbEntity
  8
DIM
 62
     0
370
    -2
100
AcDbLine
 10
-361.1669675709027
 20
403.7539197665653
 30
0.0
 11
-250.9889736499303
 21
403.7539197665653
 31
0.0
  0
INSERT
  5
3D2A
330
3D24
100
AcDbEntity
  8
DIM
 62
     0
370
    -2
100
AcDbBlockReference
  2
_DOT
 10
-363.1669675709027
 20
403.7539197665653
 30
0.0
 41
2.0
 42
2.0
 43
2.0
 50
180.0
  0
INSERT
  5
3D2B
330
3D24
100
AcDbEntity
  8
DIM
 62
     0
370
    -2
100
AcDbBlockReference
  2
_DOT
 10
-248.9889736499303
 20
403.7539197665653
 30
0.0
 41
2.0
 42
2.0
 43
2.0
  0
MTEXT
  5
3D2C
330
3D24
100
AcDbEntity
  8
DIM
 62
     0
100
AcDbMText
 10
-306.0779706104165
 20
409.2548576182597
 30
0.0
 40
5.0
 41
0.0
 46
0.0
 71
     5
 72
     1
  1
\A1;114
  7
ＭＳ ゴシック
 73
     1
 44
1.0
  0
POINT
  5
3D2D
330
3D24
100
AcDbEntity
  8
Defpoints
 62
     0
100
AcDbPoint
 10
-363.1669675709027
 20
333.6076747477205
 30
0.0
  0
POINT
  5
3D2E
330
3D24
100
AcDbEntity
  8
Defpoints
 62
     0
100
AcDbPoint
 10
-248.9889736499303
 20
333.6076747477205
 30
0.0
  0
POINT
  5
3D2F
330
3D24
100
AcDbEntity
  8
Defpoints
 62
     0
100
AcDbPoint
 10
-248.9889736499303
 20
403.7539197665653
 30
0.0
  0
ENDBLK
  5
3D26
330
3D24
100
AcDbEntity
  8
0
100
AcDbBlockEnd
  0
BLOCK
  5
3D31
330
3D30
100
AcDbEntity
  8
0
100
AcDbBlockBegin
  2
*D12
 70
     1
 10
0.0
 20
0.0
 30
0.0
  3
*D12
  1

  0
LINE
  5
3D33
330
3D30
100
AcDbEntity
  8
DIM
 62
     0
370
    -2
100
AcDbLine
 10
-343.9648819954009
 20
328.6076747477205
 30
0.0
 11
-343.9648819954009
 21
246.9090091185411
 31
0.0
  0
LINE
  5
3D34
330
3D30
100
AcDbEntity
  8
DIM
 62
     0
370
    -2
100
AcDbLine
 10
-268.1910592254321
 20
328.6076747477205
 30
0.0
 11
-268.1910592254321
 21
246.9090091185411
 31
0.0
  0
LINE
  5
3D35
330
3D30
100
AcDbEntity
  8
DIM
 62
     0
370
    -2
100
AcDbLine
 10
-341.9648819954009
 20
246.9090091185411
 30
0.0
 11
-270.1910592254321
 21
246.9090091185411
 31
0.0
  0
INSERT
  5
3D36
330
3D30
100
AcDbEntity
  8
DIM
 62
     0
370
    -2
100
AcDbBlockReference
  2
_DOT
 10
-343.9648819954009
 20
246.9090091185411
 30
0.0
 41
2.0
 42
2.0
 43
2.0
 50
180.0
  0
INSERT
  5
3D37
330
3D30
100
AcDbEntity
  8
DIM
 62
     0
370
    -2
100
AcDbBlockReference
  2
_DOT
 10
-268.1910592254321
 20
246.9090091185411
 30
0.0
 41
2.0
 42
2.0
 43
2.0
  0
MTEXT
  5
3D38
330
3D30
100
AcDbEntity
  8
DIM
 62
     0
100
AcDbMText
 10
-306.0779706104165
 20
252.4099469702355
 30
0.0
 40
5.0
 41
0.0
 46
0.0
 71
     5
 72
     1
  1
\A1;76
  7
ＭＳ ゴシック
 73
     1
 44
1.0
  0
POINT
  5
3D39
330
3D30
100
AcDbEntity
  8
Defpoints
 62
     0
100
AcDbPoint
 10
-343.9648819954009
 20
333.6076747477205
 30
0.0
  0
POINT
  5
3D3A
330
3D30
100
AcDbEntity
  8
Defpoints
 62
     0
100
AcDbPoint
 10
-268.1910592254321
 20
333.6076747477205
 30
0.0
  0
POINT
  5
3D3B
330
3D30
100
AcDbEntity
  8
Defpoints
 62
     0
100
AcDbPoint
 10
-268.1910592254321
 20
246.9090091185411
 30
0.0
  0
ENDBLK
  5
3D32
330
3D30
100
AcDbEntity
  8
0
100
AcDbBlockEnd
  0
BLOCK
  5
4056
330
4055
100
AcDbEntity
  8
0
100
AcDbBlockBegin
  2
*D21
 70
     1
 10
0.0
 20
0.0
 30
0.0
  3
*D21
  1

  0
LINE
  5
4058
330
4055
100
AcDbEntity
  8
MODEL
  6
Continuous
 62
     0
370
    -2
100
AcDbLine
 10
173.9428935941676
 20
131.5115686211387
 30
0.0
 11
173.9428935941676
 21
102.0543924126426
 31
0.0
  0
LINE
  5
4059
330
4055
100
AcDbEntity
  8
MODEL
  6
Continuous
 62
     0
370
    -2
100
AcDbLine
 10
152.9878935941676
 20
131.5115686211387
 30
0.0
 11
152.9878935941676
 21
102.0543924126426
 31
0.0
  0
LINE
  5
405A
330
4055
100
AcDbEntity
  8
MODEL
  6
Continuous
 62
     0
370
    -2
100
AcDbLine
 10
152.9878935941676
 20
102.0543924126426
 30
0.0
 11
94.62289359416765
 21
102.0543924126426
 31
0.0
  0
LINE
  5
405B
330
4055
100
AcDbEntity
  8
MODEL
  6
Continuous
 62
     0
370
    -2
100
AcDbLine
 10
175.9428935941676
 20
102.0543924126426
 30
0.0
 11
177.9428935941676
 21
102.0543924126426
 31
0.0
  0
LINE
  5
405C
330
4055
100
AcDbEntity
  8
MODEL
  6
Continuous
 62
     0
370
    -2
100
AcDbLine
 10
150.9878935941676
 20
102.0543924126426
 30
0.0
 11
148.9878935941676
 21
102.0543924126426
 31
0.0
  0
INSERT
  5
405D
330
4055
100
AcDbEntity
  8
MODEL
 62
     0
370
    -2
100
AcDbBlockReference
  2
_DOT
 10
173.9428935941676
 20
102.0543924126426
 30
0.0
 41
2.0
 42
2.0
 43
2.0
 50
180.0
  0
INSERT
  5
405E
330
4055
100
AcDbEntity
  8
MODEL
 62
     0
370
    -2
100
AcDbBlockReference
  2
_DOT
 10
152.9878935941676
 20
102.0543924126426
 30
0.0
 41
2.0
 42
2.0
 43
2.0
  0
MTEXT
  5
405F
330
4055
100
AcDbEntity
  8
MODEL
 62
     0
370
     0
100
AcDbMText
 10
106.0778935941676
 20
107.6393924126426
 30
0.0
 40
5.0
 41
0.0
 46
0.0
 71
     5
 72
     1
  1
\A1;\fArial|b0|i0|c0|p0;G1/2"
  7
ＭＳ ゴシック
 73
     1
 44
1.0
  0
POINT
  5
4060
330
4055
100
AcDbEntity
  8
Defpoints
 62
     0
100
AcDbPoint
 10
173.9428935941676
 20
136.5115686211387
 30
0.0
  0
POINT
  5
4061
330
4055
100
AcDbEntity
  8
Defpoints
 62
     0
100
AcDbPoint
 10
152.9878935941676
 20
136.5115686211387
 30
0.0
  0
POINT
  5
4062
330
4055
100
AcDbEntity
  8
Defpoints
 62
     0
100
AcDbPoint
 10
152.9878935941676
 20
102.0543924126426
 30
0.0
  0
ENDBLK
  5
4057
330
4055
100
AcDbEntity
  8
0
100
AcDbBlockEnd
  0
BLOCK
  5
4068
330
4067
100
AcDbEntity
  8
0
100
AcDbBlockBegin
  2
*D22
 70
     1
 10
0.0
 20
0.0
 30
0.0
  3
*D22
  1

  0
LINE
  5
406A
330
4067
100
AcDbEntity
  8
DIM
  6
Continuous
 62
     0
370
    -2
100
AcDbLine
 10
281.0162901100824
 20
301.392331959138
 30
0.0
 11
281.0162901100824
 21
458.9154317330757
 31
0.0
  0
LINE
  5
406B
330
4067
100
AcDbEntity
  8
DIM
  6
Continuous
 62
     0
370
    -2
100
AcDbLine
 10
336.3483237794525
 20
444.4266521716652
 30
0.0
 11
336.3483237794525
 21
458.9154317330757
 31
0.0
  0
LINE
  5
406C
330
4067
100
AcDbEntity
  8
DIM
  6
Continuous
 62
     0
370
    -2
100
AcDbLine
 10
283.0162901100824
 20
458.9154317330757
 30
0.0
 11
334.3483237794525
 21
458.9154317330757
 31
0.0
  0
INSERT
  5
406D
330
4067
100
AcDbEntity
  8
DIM
 62
     0
370
    -2
100
AcDbBlockReference
  2
_DOT
 10
281.0162901100824
 20
458.9154317330757
 30
0.0
 41
2.0
 42
2.0
 43
2.0
 50
180.0
  0
INSERT
  5
406E
330
4067
100
AcDbEntity
  8
DIM
 62
     0
370
    -2
100
AcDbBlockReference
  2
_DOT
 10
336.3483237794525
 20
458.9154317330757
 30
0.0
 41
2.0
 42
2.0
 43
2.0
  0
MTEXT
  5
406F
330
4067
100
AcDbEntity
  8
DIM
 62
     0
100
AcDbMText
 10
308.6823069447674
 20
464.4163695847701
 30
0.0
 40
5.0
 41
0.0
 46
0.0
 71
     5
 72
     1
  1
\A1;55
  7
ＭＳ ゴシック
 73
     1
 44
1.0
  0
POINT
  5
4070
330
4067
100
AcDbEntity
  8
Defpoints
 62
     0
100
AcDbPoint
 10
281.0162901100824
 20
296.392331959138
 30
0.0
  0
POINT
  5
4071
330
4067
100
AcDbEntity
  8
Defpoints
 62
     0
100
AcDbPoint
 10
336.3483237794525
 20
439.4266521716652
 30
0.0
  0
POINT
  5
4072
330
4067
100
AcDbEntity
  8
Defpoints
 62
     0
100
AcDbPoint
 10
336.3483237794525
 20
458.9154317330757
 30
0.0
  0
ENDBLK
  5
4069
330
4067
100
AcDbEntity
  8
0
100
AcDbBlockEnd
  0
BLOCK
  5
4086
330
4085
100
AcDbEntity
  8
0
100
AcDbBlockBegin
  2
*D24
 70
     1
 10
0.0
 20
0.0
 30
0.0
  3
*D24
  1

  0
LINE
  5
4088
330
4085
100
AcDbEntity
  8
DIM
  6
Continuous
 62
     0
370
    -2
100
AcDbLine
 10
151.9719506071425
 20
200.4049333673506
 30
0.0
 11
212.9065929660758
 21
200.4049333673506
 31
0.0
  0
LINE
  5
4089
330
4085
100
AcDbEntity
  8
DIM
  6
Continuous
 62
     0
370
    -2
100
AcDbLine
 10
151.9719506071423
 20
440.4049333673506
 30
0.0
 11
212.9065929660758
 21
440.4049333673506
 31
0.0
  0
LINE
  5
408A
330
4085
100
AcDbEntity
  8
DIM
  6
Continuous
 62
     0
370
    -2
100
AcDbLine
 10
212.9065929660758
 20
202.4049333673506
 30
0.0
 11
212.9065929660758
 21
438.4049333673506
 31
0.0
  0
INSERT
  5
408B
330
4085
100
AcDbEntity
  8
DIM
 62
     0
370
    -2
100
AcDbBlockReference
  2
_DOT
 10
212.9065929660758
 20
200.4049333673506
 30
0.0
 41
2.0
 42
2.0
 43
2.0
 50
270.0
  0
INSERT
  5
408C
330
4085
100
AcDbEntity
  8
DIM
 62
     0
370
    -2
100
AcDbBlockReference
  2
_DOT
 10
212.9065929660758
 20
440.4049333673506
 30
0.0
 41
2.0
 42
2.0
 43
2.0
 50
90.0
  0
MTEXT
  5
408D
330
4085
100
AcDbEntity
  8
DIM
 62
     0
100
AcDbMText
 10
207.4056551143814
 20
320.4049333673506
 30
0.0
 40
5.0
 41
0.0
 46
0.0
 71
     5
 72
     1
  1
\A1;240
  7
ＭＳ ゴシック
 11
1.184237892933500E-16
 21
1.0
 31
0.0
 73
     1
 44
1.0
  0
POINT
  5
408E
330
4085
100
AcDbEntity
  8
Defpoints
 62
     0
100
AcDbPoint
 10
146.9719506071425
 20
200.4049333673506
 30
0.0
  0
POINT
  5
408F
330
4085
100
AcDbEntity
  8
Defpoints
 62
     0
100
AcDbPoint
 10
146.9719506071423
 20
440.4049333673506
 30
0.0
  0
POINT
  5
4090
330
4085
100
AcDbEntity
  8
Defpoints
 62
     0
100
AcDbPoint
 10
212.9065929660758
 20
440.4049333673506
 30
0.0
  0
ENDBLK
  5
4087
330
4085
100
AcDbEntity
  8
0
100
AcDbBlockEnd
  0
ENDSEC
  0
SECTION
  2
ENTITIES
  0
MTEXT
  5
177
330
A
100
AcDbEntity
  8
TEMPLATE
390
1D
100
AcDbMText
 10
15.84042890954615
 20
68.74635032628565
 30
0.0
 40
3.257682291666665
 41
0.0
 46
0.0
 71
     1
 72
     1
  1
品名
  7
ＭＳ ゴシック
 73
     1
 44
0.7828267384257843
  0
MTEXT
  5
178
330
A
100
AcDbEntity
  8
TEMPLATE
390
1D
100
AcDbMText
 10
15.84042890954615
 20
51.7463503262856
 30
0.0
 40
3.257682291666665
 41
0.0
 46
0.0
 71
     1
 72
     1
  1
仕様
  7
ＭＳ ゴシック
 73
     1
 44
0.7828267384257843
  0
LINE
  5
179
330
A
100
AcDbEntity
  8
TEMPLATE
390
1D
100
AcDbLine
 10
404.4404289094496
 20
53.42933470128568
 30
0.0
 11
14.44042890944975
 21
53.42933470128568
 31
0.0
  0
LWPOLYLINE
  5
17A
330
A
100
AcDbEntity
  8
TEMPLATE
390
1D
100
AcDbPolyline
 90
        5
 70
   128
 43
0.0
 10
404.4404289094496
 20
579.4293347012853
 10
14.44042890944975
 20
579.4293347012853
 10
14.44042890944975
 20
19.42933470128565
 10
404.4404289094496
 20
19.42933470128565
 10
404.4404289094496
 20
579.4293347012853
  0
LINE
  5
17B
330
A
100
AcDbEntity
  8
TEMPLATE
390
1D
100
AcDbLine
 10
404.4404289094496
 20
70.42933470128564
 30
0.0
 11
14.44042890944975
 21
70.42933470128564
 31
0.0
  0
LINE
  5
17C
330
A
100
AcDbEntity
  8
TEMPLATE
390
1D
100
AcDbLine
 10
404.4404289095464
 20
36.42933470128565
 30
0.0
 11
253.840428909546
 21
36.42933470128565
 31
0.0
  0
MTEXT
  5
17E
330
A
100
AcDbEntity
  8
TEMPLATE
390
1D
100
AcDbMText
 10
259.8147101599982
 20
30.44725580662403
 30
0.0
 40
4.8865234375
 41
0.0
 46
0.0
 71
     1
 72
     1
  1
大洋金物株式会社 ティーフォルム事業部
  7
ＭＳ ゴシック
 73
     1
 44
0.7828267384257843
  0
MTEXT
  5
180
330
A
100
AcDbEntity
  8
TEMPLATE
390
1D
100
AcDbMText
 10
366.240428909598
 20
46.02985813878564
 30
0.0
 40
4.8865234375
 41
0.0
 46
4.8865234375
 71
     1
 72
     1
  1
{1:2}
  7
ＭＳ ゴシック
 73
     1
 44
0.7828267384257843
1001
ACAD
1000
ACAD_MTEXT_DEFINED_HEIGHT_BEGIN
1070
    46
1040
4.8865234375
1000
ACAD_MTEXT_DEFINED_HEIGHT_END
  0
MTEXT
  5
181
330
A
100
AcDbEntity
  8
TEMPLATE
390
1D
100
AcDbMText
 10
355.640428909598
 20
51.7463503262856
 30
0.0
 40
3.257682291666665
 41
0.0
 46
0.0
 71
     1
 72
     1
  1
縮尺
  7
ＭＳ ゴシック
 73
     1
 44
0.7828267384257843
  0
LINE
  5
182
330
A
100
AcDbEntity
  8
TEMPLATE
390
1D
100
AcDbLine
 10
354.240428909598
 20
36.42933470128565
 30
0.0
 11
354.240428909598
 21
53.42933470128568
 31
0.0
  0
MTEXT
  5
183
330
A
100
AcDbEntity
  8
TEMPLATE
390
1D
100
AcDbMText
 10
305.440428909598
 20
51.7463503262856
 30
0.0
 40
3.257682291666665
 41
0.0
 46
0.0
 71
     1
 72
     1
  1
容量
  7
ＭＳ ゴシック
 73
     1
 44
0.7828267384257843
  0
LINE
  5
184
330
A
100
AcDbEntity
  8
TEMPLATE
390
1D
100
AcDbLine
 10
304.040428909598
 20
36.42933470128565
 30
0.0
 11
304.040428909598
 21
53.42933470128568
 31
0.0
  0
MTEXT
  5
185
330
A
100
AcDbEntity
  8
TEMPLATE
390
1D
100
AcDbMText
 10
255.240428909598
 20
68.74635032628565
 30
0.0
 40
3.257682291666665
 41
0.0
 46
0.0
 71
     1
 72
     1
  1
品番
  7
ＭＳ ゴシック
 73
     1
 44
0.7828267384257843
  0
MTEXT
  5
186
330
A
100
AcDbEntity
  8
TEMPLATE
390
1D
100
AcDbMText
 10
255.240428909598
 20
51.7463503262856
 30
0.0
 40
3.257682291666665
 41
0.0
 46
0.0
 71
     1
 72
     1
  1
重量
  7
ＭＳ ゴシック
 73
     1
 44
0.7828267384257843
  0
MTEXT
  5
187
330
A
100
AcDbEntity
  8
TEMPLATE
390
1D
100
AcDbMText
 10
265.840428909598
 20
63.02985813878564
 30
0.0
 40
4.8865234375
 41
0.0
 46
4.8865234375
 71
     1
 72
     1
  1
{AGN73-1720-081}
  7
ＭＳ ゴシック
 73
     1
 44
0.7828267384257843
1001
ACAD
1000
ACAD_MTEXT_DEFINED_HEIGHT_BEGIN
1070
    46
1040
4.8865234375
1000
ACAD_MTEXT_DEFINED_HEIGHT_END
  0
LINE
  5
188
330
A
100
AcDbEntity
  8
TEMPLATE
390
1D
100
AcDbLine
 10
253.840428909598
 20
19.42933470128565
 30
0.0
 11
253.840428909598
 21
70.42933470128564
 31
0.0
  0
MTEXT
  5
189
330
A
100
AcDbEntity
  8
TEMPLATE
390
1D
100
AcDbMText
 10
26.44042890954615
 20
63.02985813878564
 30
0.0
 40
4.8865234375
 41
0.0
 46
5.109783847775924
 71
     1
 72
     1
  1
{ハンドシャワーヘッド　-FANTINI-}
  7
ＭＳ ゴシック
 73
     1
 44
0.7828267384257843
1001
ACAD
1000
ACAD_MTEXT_DEFINED_HEIGHT_BEGIN
1070
    46
1040
5.109783847775924
1000
ACAD_MTEXT_DEFINED_HEIGHT_END
  0
INSERT
  5
68C
330
A
100
AcDbEntity
  8
TEMPLATE
100
AcDbBlockReference
  2
block 2
 10
367.7097207081031
 20
3.349230605734547
 30
0.0
 41
0.1524
 42
0.1524
 43
0.1524
  0
LWPOLYLINE
  5
D69
330
A
100
AcDbEntity
  8
BORDER
100
AcDbPolyline
 90
        4
 70
     1
 43
0.0
 10
0.0
 20
0.0
 10
0.0
 20
594.0
 10
420.0
 20
594.0
 10
420.0
 20
0.0
  0
INSERT
  5
1343
330
A
100
AcDbEntity
  8
TEMPLATE
100
AcDbBlockReference
  2
block 2
 10
838.6973883465873
 20
9.774128564918277
 30
0.0
 41
0.1524
 42
0.1524
 43
0.1524
  0
HATCH
  5
3C64
102
{ACAD_REACTORS
330
3C75
102
}
330
A
100
AcDbEntity
  8
TEMPLATE
100
AcDbHatch
 10
0.0
 20
0.0
 30
0.0
210
0.0
220
0.0
230
1.0
  2
SOLID
 70
     1
 71
     1
 91
        6
 92
        1
 93
        8
 72
     1
 10
386.9584116981973
 20
30.78695932253559
 11
386.9584116981973
 21
29.60507779640349
 72
     1
 10
386.9584116981973
 20
29.60507779640349
 11
385.086293388135
 21
29.60507779640349
 72
     1
 10
385.086293388135
 20
29.60507779640349
 11
385.086293388135
 21
24.78695932282479
 72
     1
 10
385.086293388135
 20
24.78695932282479
 11
383.4397707574798
 21
24.78695932282479
 72
     1
 10
383.4397707574798
 20
24.78695932282479
 11
383.4397707574798
 21
29.60507779640349
 72
     1
 10
383.4397707574798
 20
29.60507779640349
 11
381.6008304705712
 21
29.60507779640349
 72
     1
 10
381.6008304705712
 20
29.60507779640349
 11
381.6008304705712
 21
30.78695932253559
 72
     1
 10
381.6008304705712
 20
30.78695932253559
 11
386.9584116981973
 21
30.78695932253559
 97
        1
330
3C65
 92
        1
 93
        1
 72
     4
 94
        3
 73
     0
 74
     1
 95
       56
 96
       52
 40
0.0
 40
0.0
 40
0.0
 40
0.0
 40
1.0
 40
1.0
 40
1.0
 40
2.0
 40
2.0
 40
2.0
 40
3.0
 40
3.0
 40
3.0
 40
4.0
 40
4.0
 40
4.0
 40
5.0
 40
5.0
 40
5.0
 40
6.0
 40
6.0
 40
6.0
 40
7.0
 40
7.0
 40
7.0
 40
8.0
 40
8.0
 40
8.0
 40
9.0
 40
9.0
 40
9.0
 40
10.0
 40
10.0
 40
10.0
 40
11.0
 40
11.0
 40
11.0
 40
12.0
 40
12.0
 40
12.0
 40
13.0
 40
13.0
 40
13.0
 40
14.0
 40
14.0
 40
14.0
 40
15.0
 40
15.0
 40
15.0
 40
16.0
 40
16.0
 40
16.0
 40
17.0
 40
17.0
 40
17.0
 40
17.0
 10
389.4668487850558
 20
30.64408553045313
 10
389.6976220214394
 20
30.70904304125516
 10
389.9955398401064
 20
30.65470844907718
 10
389.9955398401064
 20
30.65470844907718
 10
389.9955398401064
 20
30.65470844907718
 10
389.85241312139
 20
30.22519439059248
 10
389.85241312139
 20
30.22519439059248
 10
389.85241312139
 20
30.22519439059248
 10
389.5599406643706
 20
30.29287458221835
 10
389.3343598630008
 20
30.1149927683958
 10
389.1590668276665
 20
29.97588311974736
 10
389.0455027690426
 20
29.60625316134929
 10
389.0019398758616
 20
29.46571522112114
 10
389.0019398758616
 20
29.46571522112114
 10
388.8077219770962
 20
28.86958202304137
 10
388.8077219770962
 20
28.86958202304137
 10
388.8077219770962
 20
28.86958202304137
 10
389.4445466071603
 20
28.86958202304137
 10
389.4445466071603
 20
28.86958202304137
 10
389.4445466071603
 20
28.86958202304137
 10
389.34550351293
 20
28.49438767869736
 10
389.34550351293
 20
28.49438767869736
 10
389.34550351293
 20
28.49438767869736
 10
388.7034864478522
 20
28.49438767869736
 10
388.7034864478522
 20
28.49438767869736
 10
388.7034864478522
 20
28.49438767869736
 10
387.5547978229109
 20
24.78695932282479
 10
387.5547978229109
 20
24.78695932282479
 10
387.5547978229109
 20
24.78695932282479
 10
387.1951510275336
 20
24.78695932282479
 10
387.1951510275336
 20
24.78695932282479
 10
387.1951510275336
 20
24.78695932282479
 10
388.3448811150849
 20
28.49438767869736
 10
388.3448811150849
 20
28.49438767869736
 10
388.3448811150849
 20
28.49438767869736
 10
387.8711346517413
 20
28.49438767869736
 10
387.8711346517413
 20
28.49438767869736
 10
387.8711346517413
 20
28.49438767869736
 10
387.9704455506427
 20
28.86958202304137
 10
387.9704455506427
 20
28.86958202304137
 10
387.9704455506427
 20
28.86958202304137
 10
388.4491166443289
 20
28.86958202304137
 10
388.4491166443289
 20
28.86958202304137
 10
388.4491166443289
 20
28.86958202304137
 10
388.6184287086733
 20
29.38948015805433
 10
388.6184287086733
 20
29.38948015805433
 10
388.7553364078029
 20
29.82536201649855
 10
388.8715041229524
 20
30.059378665011
 10
388.971082826525
 20
30.23581730921654
 10
389.0696051894502
 20
30.41240473379499
 10
389.2645967461546
 20
30.58586777054282
 10
389.4668487850558
 20
30.64408553045313
 97
        1
330
3C70
 92
        1
 93
        1
 72
     4
 94
        3
 73
     0
 74
     1
 95
       32
 96
       28
 40
0.0
 40
0.0
 40
0.0
 40
0.0
 40
1.0
 40
1.0
 40
1.0
 40
2.0
 40
2.0
 40
2.0
 40
3.0
 40
3.0
 40
3.0
 40
4.0
 40
4.0
 40
4.0
 40
5.0
 40
5.0
 40
5.0
 40
6.0
 40
6.0
 40
6.0
 40
7.0
 40
7.0
 40
7.0
 40
8.0
 40
8.0
 40
8.0
 40
9.0
 40
9.0
 40
9.0
 40
9.0
 10
390.3419600603343
 20
28.64284073476305
 10
390.1254548617105
 20
28.36279143887966
 10
389.9587315758544
 20
28.11075748721071
 10
389.6888142233646
 20
27.31860614785359
 10
389.4406634394279
 20
26.59401597582401
 10
389.2827479516467
 20
26.06685735861421
 10
389.2588984578731
 20
25.42484029353638
 10
389.240747252381
 20
24.94707676012474
 10
389.5316723935223
 20
24.78695932282479
 10
389.9582257225866
 20
24.78695932282479
 10
390.1420587513246
 20
24.78695932282479
 10
390.6059559539832
 20
24.79865346013363
 10
390.9363078939394
 20
25.20702582763122
 10
391.1675721055534
 20
25.49393389870466
 10
391.38071486775
 20
25.79134586410385
 10
391.6664624519149
 20
26.76695828126675
 10
391.9042432438614
 20
27.58257228542799
 10
392.068883604497
 20
28.10971602460051
 10
392.056713369995
 20
28.40985067082352
 10
392.056713369995
 20
28.40985067082352
 10
392.056713369995
 20
28.40985067082352
 10
392.056713369995
 20
28.40985067082352
 10
391.9791690396468
 20
28.91055613773418
 10
391.615639076537
 20
29.01635386089345
 10
391.4079416759881
 20
29.01635386089345
 10
391.2033686632698
 20
29.01635386089345
 10
390.6552022574085
 20
29.05174871160303
 10
390.3419600603343
 20
28.64284073476305
 97
        1
330
3C73
 92
        1
 93
        1
 72
     4
 94
        3
 73
     0
 74
     1
 95
       38
 96
       34
 40
0.0
 40
0.0
 40
0.0
 40
0.0
 40
1.0
 40
1.0
 40
1.0
 40
2.0
 40
2.0
 40
2.0
 40
3.0
 40
3.0
 40
3.0
 40
4.0
 40
4.0
 40
4.0
 40
5.0
 40
5.0
 40
5.0
 40
6.0
 40
6.0
 40
6.0
 40
7.0
 40
7.0
 40
7.0
 40
8.0
 40
8.0
 40
8.0
 40
9.0
 40
9.0
 40
9.0
 40
10.0
 40
10.0
 40
10.0
 40
11.0
 40
11.0
 40
11.0
 40
11.0
 10
393.3716045494872
 20
28.85519496098328
 10
393.3716045494872
 20
28.85519496098328
 10
393.7413535321836
 20
28.85519496098328
 10
393.7413535321836
 20
28.85519496098328
 10
393.7413535321836
 20
28.85519496098328
 10
393.5761775622055
 20
28.32635512555987
 10
393.5761775622055
 20
28.32635512555987
 10
393.7016886847722
 20
28.47480818162555
 10
393.8997748732327
 20
28.67252241915381
 10
394.0698903515905
 20
28.77222014702475
 10
394.3240072284799
 20
28.92067320309043
 10
394.4692168724166
 20
28.94025270016223
 10
394.6289177246725
 20
28.93635465439262
 10
394.6289177246725
 20
28.93635465439262
 10
394.4728471135151
 20
28.43630382112264
 10
394.4728471135151
 20
28.43630382112264
 10
394.3712003627593
 20
28.47934598299858
 10
394.057958165685
 20
28.39741263165024
 10
393.8782612313133
 20
28.26815224368685
 10
393.7162096491659
 20
28.15159769956793
 10
393.6041780283826
 20
28.0524207030021
 10
393.4714361796937
 20
27.80309455411968
 10
393.3397060375404
 20
27.55339645430504
 10
393.2357383129677
 20
27.15524529842472
 10
393.0568150365349
 20
26.57765013480655
 10
393.0568150365349
 20
26.57765013480655
 10
392.4980257120495
 20
24.78695932282479
 10
392.4980257120495
 20
24.78695932282479
 10
392.4980257120495
 20
24.78695932282479
 10
392.1391674526484
 20
24.78695932282479
 10
392.1391674526484
 20
24.78695932282479
 10
392.1391674526484
 20
24.78695932282479
 10
393.3716045494872
 20
28.85519496098328
 10
393.3716045494872
 20
28.85519496098328
 97
        1
330
3C71
 92
        1
 93
        1
 72
     4
 94
        3
 73
     0
 74
     1
 95
      104
 96
      100
 40
0.0
 40
0.0
 40
0.0
 40
0.0
 40
1.0
 40
1.0
 40
1.0
 40
2.0
 40
2.0
 40
2.0
 40
3.0
 40
3.0
 40
3.0
 40
4.0
 40
4.0
 40
4.0
 40
5.0
 40
5.0
 40
5.0
 40
6.0
 40
6.0
 40
6.0
 40
7.0
 40
7.0
 40
7.0
 40
8.0
 40
8.0
 40
8.0
 40
9.0
 40
9.0
 40
9.0
 40
10.0
 40
10.0
 40
10.0
 40
11.0
 40
11.0
 40
11.0
 40
12.0
 40
12.0
 40
12.0
 40
13.0
 40
13.0
 40
13.0
 40
14.0
 40
14.0
 40
14.0
 40
15.0
 40
15.0
 40
15.0
 40
16.0
 40
16.0
 40
16.0
 40
17.0
 40
17.0
 40
17.0
 40
18.0
 40
18.0
 40
18.0
 40
19.0
 40
19.0
 40
19.0
 40
20.0
 40
20.0
 40
20.0
 40
21.0
 40
21.0
 40
21.0
 40
22.0
 40
22.0
 40
22.0
 40
23.0
 40
23.0
 40
23.0
 40
24.0
 40
24.0
 40
24.0
 40
25.0
 40
25.0
 40
25.0
 40
26.0
 40
26.0
 40
26.0
 40
27.0
 40
27.0
 40
27.0
 40
28.0
 40
28.0
 40
28.0
 40
29.0
 40
29.0
 40
29.0
 40
30.0
 40
30.0
 40
30.0
 40
31.0
 40
31.0
 40
31.0
 40
32.0
 40
32.0
 40
32.0
 40
33.0
 40
33.0
 40
33.0
 40
33.0
 10
395.4068307823444
 20
28.857396910502
 10
395.4068307823444
 20
28.857396910502
 10
395.7296544354325
 20
28.857396910502
 10
395.7296544354325
 20
28.857396910502
 10
395.7296544354325
 20
28.857396910502
 10
395.5665613906749
 20
28.32805122181077
 10
395.5665613906749
 20
28.32805122181077
 10
395.7081110374387
 20
28.55000178208216
 10
395.8351694758834
 20
28.64892585201409
 10
396.0039756869598
 20
28.77675794839777
 10
396.1732877513042
 20
28.90277492423224
 10
396.3742602789986
 20
28.92845441659237
 10
396.5137567566165
 20
28.92845441659237
 10
396.6864610134627
 20
28.92845441659237
 10
396.8531842993187
 20
28.8943539551269
 10
396.9408159389486
 20
28.70506068670399
 10
397.0079753992694
 20
28.55662250867558
 10
397.0110997871
 20
28.5391110587869
 10
396.9919071189977
 20
28.24610299242514
 10
397.1674382029287
 20
28.54650544331934
 10
397.2970854198616
 20
28.67589973361832
 10
397.5174886642549
 20
28.80022061320189
 10
397.7487826319435
 20
28.92845441659237
 10
397.8836074058529
 20
28.93805075064353
 10
398.0402433824273
 20
28.9149600367716
 10
398.2710017407735
 20
28.88087445334342
 10
398.4182943099307
 20
28.79853939498828
 10
398.4953030309365
 20
28.54832056386854
 10
398.5725795566135
 20
28.29887539068781
 10
398.5308317839817
 20
28.16507720135141
 10
398.4354040528126
 20
27.76796750808128
 10
398.3918411596316
 20
27.58711008680102
 10
398.3288177936771
 20
27.36812025595006
 10
398.2463637110236
 20
27.10754631087745
 10
398.2463637110236
 20
27.10754631087745
 10
397.5174886642549
 20
24.78695932282479
 10
397.5174886642549
 20
24.78695932282479
 10
397.5174886642549
 20
24.78695932282479
 10
397.1383962741413
 20
24.78695932282479
 10
397.1383962741413
 20
24.78695932282479
 10
397.1383962741413
 20
24.78695932282479
 10
397.7765450495241
 20
26.81569873142421
 10
397.7765450495241
 20
26.81569873142421
 10
397.9098225075554
 20
27.24016913526807
 10
398.0000429256735
 20
27.55015304217612
 10
398.0467302066851
 20
27.74450484327716
 10
398.1053199175276
 20
27.98694246089495
 10
398.1286486799962
 20
28.06694166739577
 10
398.1009160184902
 20
28.24339518963862
 10
398.0755043308013
 20
28.4076487213048
 10
397.9925146388055
 20
28.51460693137258
 10
397.8504293826993
 20
28.51460693137258
 10
397.6990007191758
 20
28.51460693137258
 10
397.5763461797686
 20
28.49775011512458
 10
397.4047131416073
 20
28.32532854098695
 10
397.2330503473714
 20
28.15159769956793
 10
397.0912031398618
 20
27.94766444245305
 10
396.9799749330922
 20
27.71312706263549
 10
396.8689847749192
 20
27.47716139123824
 10
396.7564473008682
 20
27.17806820762544
 10
396.6423625109393
 20
26.81569873142421
 10
396.6423625109393
 20
26.81569873142421
 10
396.0039756869598
 20
24.78695932282479
 10
396.0039756869598
 20
24.78695932282479
 10
396.0039756869598
 20
24.78695932282479
 10
395.6474384013758
 20
24.78695932282479
 10
395.6474384013758
 20
24.78695932282479
 10
395.6474384013758
 20
24.78695932282479
 10
396.3773549107547
 20
27.10650484826726
 10
396.3773549107547
 20
27.10650484826726
 10
396.4543636317604
 20
27.35336124295977
 10
396.5122094407385
 20
27.55457181925085
 10
396.5503269722719
 20
27.71183267339138
 10
396.6151357027011
 20
27.98253856185753
 10
396.6332869081932
 20
28.1655979326565
 10
396.5842786533645
 20
28.32805122181077
 10
396.5360440564749
 20
28.48998377965993
 10
396.4512690000045
 20
28.53134472332225
 10
396.3096895971661
 20
28.53134472332225
 10
396.1909331035284
 20
28.53134472332225
 10
396.0750331930502
 20
28.48038744560878
 10
395.9427971976291
 20
28.37899362148695
 10
395.7763119603696
 20
28.25142932977446
 10
395.7096881093912
 20
28.1466730692254
 10
395.6280076846768
 20
28.02220340926895
 10
395.5177911844429
 20
27.85754817059597
 10
395.4661941511259
 20
27.74670679279587
 10
395.3731171498484
 20
27.50348063920177
 10
395.2800103924964
 20
27.25882619402798
 10
395.1918728995987
 20
26.97412007247326
 10
395.1303968495222
 20
26.77719437092129
 10
395.1303968495222
 20
26.77719437092129
 10
394.5042100161195
 20
24.78695932282479
 10
394.5042100161195
 20
24.78695932282479
 10
394.5042100161195
 20
24.78695932282479
 10
394.1308307923247
 20
24.78695932282479
 10
394.1308307923247
 20
24.78695932282479
 10
394.1308307923247
 20
24.78695932282479
 10
395.4068307823444
 20
28.857396910502
 10
395.4068307823444
 20
28.857396910502
 97
        1
330
3C72
 92
       16
 93
        1
 72
     4
 94
        3
 73
     0
 74
     1
 95
       29
 96
       25
 40
0.0
 40
0.0
 40
0.0
 40
0.0
 40
1.0
 40
1.0
 40
1.0
 40
2.0
 40
2.0
 40
2.0
 40
3.0
 40
3.0
 40
3.0
 40
4.0
 40
4.0
 40
4.0
 40
5.0
 40
5.0
 40
5.0
 40
6.0
 40
6.0
 40
6.0
 40
7.0
 40
7.0
 40
7.0
 40
8.0
 40
8.0
 40
8.0
 40
8.0
 10
389.6462927927937
 20
25.54487629838084
 10
389.6447157208412
 20
25.82830290872873
 10
389.7341922370948
 20
26.33186495879882
 10
389.9634032795631
 20
27.00563175545052
 10
390.2756040140271
 20
27.91796788002499
 10
390.4628292352669
 20
28.25142932977446
 10
390.6266661818889
 20
28.41374871659313
 10
390.866024045788
 20
28.65010121695988
 10
391.1878062362659
 20
28.66188462249246
 10
391.2827281141673
 20
28.65010121695988
 10
391.4178206927478
 20
28.6338841563153
 10
391.6086463990114
 20
28.54546398070914
 10
391.6200429755745
 20
28.24779908867604
 10
391.629148334395
 20
27.99304245618328
 10
391.5557400984131
 20
27.51593355641234
 10
391.2987963944389
 20
26.76695828126675
 10
391.0026639402465
 20
25.896622855958
 10
390.824782126424
 20
25.55448751046927
 10
390.6821910170501
 20
25.40537982076289
 10
390.413553175767
 20
25.1258512561846
 10
390.1254548617105
 20
25.15269123545324
 10
390.0829334311396
 20
25.15269123545324
 10
390.0277061567243
 20
25.15269123545324
 10
389.6470664507327
 20
25.21261996965174
 10
389.6462927927937
 20
25.54487629838084
 97
        1
330
3C74
 75
     0
 76
     1
 98
        1
 10
371.9300318427923
 20
14.61939790801677
1001
ACAD
1010
0.0
1020
0.0
1030
0.0
  0
POLYLINE
  5
3C65
102
{ACAD_REACTORS
330
3C64
330
3C75
102
}
330
A
100
AcDbEntity
  8
TEMPLATE
100
AcDb2dPolyline
 66
     1
 10
0.0
 20
0.0
 30
0.0
  0
VERTEX
  5
3C66
330
3C65
100
AcDbEntity
  8
TEMPLATE
100
AcDbVertex
100
AcDb2dVertex
 10
386.9584116981973
 20
30.78695932253559
 30
0.0
  0
VERTEX
  5
3C67
330
3C65
100
AcDbEntity
  8
TEMPLATE
100
AcDbVertex
100
AcDb2dVertex
 10
386.9584116981973
 20
29.60507779640349
 30
0.0
  0
VERTEX
  5
3C68
330
3C65
100
AcDbEntity
  8
TEMPLATE
100
AcDbVertex
100
AcDb2dVertex
 10
385.086293388135
 20
29.60507779640349
 30
0.0
  0
VERTEX
  5
3C69
330
3C65
100
AcDbEntity
  8
TEMPLATE
100
AcDbVertex
100
AcDb2dVertex
 10
385.086293388135
 20
24.78695932282479
 30
0.0
  0
VERTEX
  5
3C6A
330
3C65
100
AcDbEntity
  8
TEMPLATE
100
AcDbVertex
100
AcDb2dVertex
 10
383.4397707574798
 20
24.78695932282479
 30
0.0
  0
VERTEX
  5
3C6B
330
3C65
100
AcDbEntity
  8
TEMPLATE
100
AcDbVertex
100
AcDb2dVertex
 10
383.4397707574798
 20
29.60507779640349
 30
0.0
  0
VERTEX
  5
3C6C
330
3C65
100
AcDbEntity
  8
TEMPLATE
100
AcDbVertex
100
AcDb2dVertex
 10
381.6008304705712
 20
29.60507779640349
 30
0.0
  0
VERTEX
  5
3C6D
330
3C65
100
AcDbEntity
  8
TEMPLATE
100
AcDbVertex
100
AcDb2dVertex
 10
381.6008304705712
 20
30.78695932253559
 30
0.0
  0
VERTEX
  5
3C6E
330
3C65
100
AcDbEntity
  8
TEMPLATE
100
AcDbVertex
100
AcDb2dVertex
 10
386.9584116981973
 20
30.78695932253559
 30
0.0
  0
SEQEND
  5
3C6F
330
3C65
100
AcDbEntity
  8
TEMPLATE
  0
SPLINE
  5
3C70
102
{ACAD_REACTORS
330
3C64
330
3C75
102
}
330
A
100
AcDbEntity
  8
TEMPLATE
100
AcDbSpline
210
0.0
220
0.0
230
1.0
 70
    11
 71
     3
 72
    56
 73
    52
 74
     0
 42
0.000000001
 43
0.0000000001
 40
0.0
 40
0.0
 40
0.0
 40
0.0
 40
1.0
 40
1.0
 40
1.0
 40
2.0
 40
2.0
 40
2.0
 40
3.0
 40
3.0
 40
3.0
 40
4.0
 40
4.0
 40
4.0
 40
5.0
 40
5.0
 40
5.0
 40
6.0
 40
6.0
 40
6.0
 40
7.0
 40
7.0
 40
7.0
 40
8.0
 40
8.0
 40
8.0
 40
9.0
 40
9.0
 40
9.0
 40
10.0
 40
10.0
 40
10.0
 40
11.0
 40
11.0
 40
11.0
 40
12.0
 40
12.0
 40
12.0
 40
13.0
 40
13.0
 40
13.0
 40
14.0
 40
14.0
 40
14.0
 40
15.0
 40
15.0
 40
15.0
 40
16.0
 40
16.0
 40
16.0
 40
17.0
 40
17.0
 40
17.0
 40
17.0
 10
389.4668487850558
 20
30.64408553045313
 30
0.0
 10
389.6976220214394
 20
30.70904304125516
 30
0.0
 10
389.9955398401064
 20
30.65470844907718
 30
0.0
 10
389.9955398401064
 20
30.65470844907718
 30
0.0
 10
389.9955398401064
 20
30.65470844907718
 30
0.0
 10
389.85241312139
 20
30.22519439059248
 30
0.0
 10
389.85241312139
 20
30.22519439059248
 30
0.0
 10
389.85241312139
 20
30.22519439059248
 30
0.0
 10
389.5599406643706
 20
30.29287458221835
 30
0.0
 10
389.3343598630008
 20
30.1149927683958
 30
0.0
 10
389.1590668276665
 20
29.97588311974736
 30
0.0
 10
389.0455027690426
 20
29.60625316134929
 30
0.0
 10
389.0019398758616
 20
29.46571522112114
 30
0.0
 10
389.0019398758616
 20
29.46571522112114
 30
0.0
 10
388.8077219770962
 20
28.86958202304137
 30
0.0
 10
388.8077219770962
 20
28.86958202304137
 30
0.0
 10
388.8077219770962
 20
28.86958202304137
 30
0.0
 10
389.4445466071603
 20
28.86958202304137
 30
0.0
 10
389.4445466071603
 20
28.86958202304137
 30
0.0
 10
389.4445466071603
 20
28.86958202304137
 30
0.0
 10
389.34550351293
 20
28.49438767869736
 30
0.0
 10
389.34550351293
 20
28.49438767869736
 30
0.0
 10
389.34550351293
 20
28.49438767869736
 30
0.0
 10
388.7034864478522
 20
28.49438767869736
 30
0.0
 10
388.7034864478522
 20
28.49438767869736
 30
0.0
 10
388.7034864478522
 20
28.49438767869736
 30
0.0
 10
387.5547978229109
 20
24.78695932282479
 30
0.0
 10
387.5547978229109
 20
24.78695932282479
 30
0.0
 10
387.5547978229109
 20
24.78695932282479
 30
0.0
 10
387.1951510275336
 20
24.78695932282479
 30
0.0
 10
387.1951510275336
 20
24.78695932282479
 30
0.0
 10
387.1951510275336
 20
24.78695932282479
 30
0.0
 10
388.3448811150849
 20
28.49438767869736
 30
0.0
 10
388.3448811150849
 20
28.49438767869736
 30
0.0
 10
388.3448811150849
 20
28.49438767869736
 30
0.0
 10
387.8711346517413
 20
28.49438767869736
 30
0.0
 10
387.8711346517413
 20
28.49438767869736
 30
0.0
 10
387.8711346517413
 20
28.49438767869736
 30
0.0
 10
387.9704455506427
 20
28.86958202304137
 30
0.0
 10
387.9704455506427
 20
28.86958202304137
 30
0.0
 10
387.9704455506427
 20
28.86958202304137
 30
0.0
 10
388.4491166443289
 20
28.86958202304137
 30
0.0
 10
388.4491166443289
 20
28.86958202304137
 30
0.0
 10
388.4491166443289
 20
28.86958202304137
 30
0.0
 10
388.6184287086733
 20
29.38948015805433
 30
0.0
 10
388.6184287086733
 20
29.38948015805433
 30
0.0
 10
388.7553364078029
 20
29.82536201649855
 30
0.0
 10
388.8715041229524
 20
30.059378665011
 30
0.0
 10
388.971082826525
 20
30.23581730921654
 30
0.0
 10
389.0696051894502
 20
30.41240473379499
 30
0.0
 10
389.2645967461546
 20
30.58586777054282
 30
0.0
 10
389.4668487850558
 20
30.64408553045313
 30
0.0
  0
SPLINE
  5
3C71
102
{ACAD_REACTORS
330
3C64
330
3C75
102
}
330
A
100
AcDbEntity
  8
TEMPLATE
100
AcDbSpline
210
0.0
220
0.0
230
1.0
 70
    11
 71
     3
 72
    38
 73
    34
 74
     0
 42
0.000000001
 43
0.0000000001
 40
0.0
 40
0.0
 40
0.0
 40
0.0
 40
1.0
 40
1.0
 40
1.0
 40
2.0
 40
2.0
 40
2.0
 40
3.0
 40
3.0
 40
3.0
 40
4.0
 40
4.0
 40
4.0
 40
5.0
 40
5.0
 40
5.0
 40
6.0
 40
6.0
 40
6.0
 40
7.0
 40
7.0
 40
7.0
 40
8.0
 40
8.0
 40
8.0
 40
9.0
 40
9.0
 40
9.0
 40
10.0
 40
10.0
 40
10.0
 40
11.0
 40
11.0
 40
11.0
 40
11.0
 10
393.3716045494872
 20
28.85519496098328
 30
0.0
 10
393.3716045494872
 20
28.85519496098328
 30
0.0
 10
393.7413535321836
 20
28.85519496098328
 30
0.0
 10
393.7413535321836
 20
28.85519496098328
 30
0.0
 10
393.7413535321836
 20
28.85519496098328
 30
0.0
 10
393.5761775622055
 20
28.32635512555987
 30
0.0
 10
393.5761775622055
 20
28.32635512555987
 30
0.0
 10
393.7016886847722
 20
28.47480818162555
 30
0.0
 10
393.8997748732327
 20
28.67252241915381
 30
0.0
 10
394.0698903515905
 20
28.77222014702475
 30
0.0
 10
394.3240072284799
 20
28.92067320309043
 30
0.0
 10
394.4692168724166
 20
28.94025270016223
 30
0.0
 10
394.6289177246725
 20
28.93635465439262
 30
0.0
 10
394.6289177246725
 20
28.93635465439262
 30
0.0
 10
394.4728471135151
 20
28.43630382112264
 30
0.0
 10
394.4728471135151
 20
28.43630382112264
 30
0.0
 10
394.3712003627593
 20
28.47934598299858
 30
0.0
 10
394.057958165685
 20
28.39741263165024
 30
0.0
 10
393.8782612313133
 20
28.26815224368685
 30
0.0
 10
393.7162096491659
 20
28.15159769956793
 30
0.0
 10
393.6041780283826
 20
28.0524207030021
 30
0.0
 10
393.4714361796937
 20
27.80309455411968
 30
0.0
 10
393.3397060375404
 20
27.55339645430504
 30
0.0
 10
393.2357383129677
 20
27.15524529842472
 30
0.0
 10
393.0568150365349
 20
26.57765013480655
 30
0.0
 10
393.0568150365349
 20
26.57765013480655
 30
0.0
 10
392.4980257120495
 20
24.78695932282479
 30
0.0
 10
392.4980257120495
 20
24.78695932282479
 30
0.0
 10
392.4980257120495
 20
24.78695932282479
 30
0.0
 10
392.1391674526484
 20
24.78695932282479
 30
0.0
 10
392.1391674526484
 20
24.78695932282479
 30
0.0
 10
392.1391674526484
 20
24.78695932282479
 30
0.0
 10
393.3716045494872
 20
28.85519496098328
 30
0.0
 10
393.3716045494872
 20
28.85519496098328
 30
0.0
  0
SPLINE
  5
3C72
102
{ACAD_REACTORS
330
3C64
330
3C75
102
}
330
A
100
AcDbEntity
  8
TEMPLATE
100
AcDbSpline
210
0.0
220
0.0
230
1.0
 70
    11
 71
     3
 72
   104
 73
   100
 74
     0
 42
0.000000001
 43
0.0000000001
 40
0.0
 40
0.0
 40
0.0
 40
0.0
 40
1.0
 40
1.0
 40
1.0
 40
2.0
 40
2.0
 40
2.0
 40
3.0
 40
3.0
 40
3.0
 40
4.0
 40
4.0
 40
4.0
 40
5.0
 40
5.0
 40
5.0
 40
6.0
 40
6.0
 40
6.0
 40
7.0
 40
7.0
 40
7.0
 40
8.0
 40
8.0
 40
8.0
 40
9.0
 40
9.0
 40
9.0
 40
10.0
 40
10.0
 40
10.0
 40
11.0
 40
11.0
 40
11.0
 40
12.0
 40
12.0
 40
12.0
 40
13.0
 40
13.0
 40
13.0
 40
14.0
 40
14.0
 40
14.0
 40
15.0
 40
15.0
 40
15.0
 40
16.0
 40
16.0
 40
16.0
 40
17.0
 40
17.0
 40
17.0
 40
18.0
 40
18.0
 40
18.0
 40
19.0
 40
19.0
 40
19.0
 40
20.0
 40
20.0
 40
20.0
 40
21.0
 40
21.0
 40
21.0
 40
22.0
 40
22.0
 40
22.0
 40
23.0
 40
23.0
 40
23.0
 40
24.0
 40
24.0
 40
24.0
 40
25.0
 40
25.0
 40
25.0
 40
26.0
 40
26.0
 40
26.0
 40
27.0
 40
27.0
 40
27.0
 40
28.0
 40
28.0
 40
28.0
 40
29.0
 40
29.0
 40
29.0
 40
30.0
 40
30.0
 40
30.0
 40
31.0
 40
31.0
 40
31.0
 40
32.0
 40
32.0
 40
32.0
 40
33.0
 40
33.0
 40
33.0
 40
33.0
 10
395.4068307823444
 20
28.857396910502
 30
0.0
 10
395.4068307823444
 20
28.857396910502
 30
0.0
 10
395.7296544354325
 20
28.857396910502
 30
0.0
 10
395.7296544354325
 20
28.857396910502
 30
0.0
 10
395.7296544354325
 20
28.857396910502
 30
0.0
 10
395.5665613906749
 20
28.32805122181077
 30
0.0
 10
395.5665613906749
 20
28.32805122181077
 30
0.0
 10
395.7081110374387
 20
28.55000178208216
 30
0.0
 10
395.8351694758834
 20
28.64892585201409
 30
0.0
 10
396.0039756869598
 20
28.77675794839777
 30
0.0
 10
396.1732877513042
 20
28.90277492423224
 30
0.0
 10
396.3742602789986
 20
28.92845441659237
 30
0.0
 10
396.5137567566165
 20
28.92845441659237
 30
0.0
 10
396.6864610134627
 20
28.92845441659237
 30
0.0
 10
396.8531842993187
 20
28.8943539551269
 30
0.0
 10
396.9408159389486
 20
28.70506068670399
 30
0.0
 10
397.0079753992694
 20
28.55662250867558
 30
0.0
 10
397.0110997871
 20
28.5391110587869
 30
0.0
 10
396.9919071189977
 20
28.24610299242514
 30
0.0
 10
397.1674382029287
 20
28.54650544331934
 30
0.0
 10
397.2970854198616
 20
28.67589973361832
 30
0.0
 10
397.5174886642549
 20
28.80022061320189
 30
0.0
 10
397.7487826319435
 20
28.92845441659237
 30
0.0
 10
397.8836074058529
 20
28.93805075064353
 30
0.0
 10
398.0402433824273
 20
28.9149600367716
 30
0.0
 10
398.2710017407735
 20
28.88087445334342
 30
0.0
 10
398.4182943099307
 20
28.79853939498828
 30
0.0
 10
398.4953030309365
 20
28.54832056386854
 30
0.0
 10
398.5725795566135
 20
28.29887539068781
 30
0.0
 10
398.5308317839817
 20
28.16507720135141
 30
0.0
 10
398.4354040528126
 20
27.76796750808128
 30
0.0
 10
398.3918411596316
 20
27.58711008680102
 30
0.0
 10
398.3288177936771
 20
27.36812025595006
 30
0.0
 10
398.2463637110236
 20
27.10754631087745
 30
0.0
 10
398.2463637110236
 20
27.10754631087745
 30
0.0
 10
397.5174886642549
 20
24.78695932282479
 30
0.0
 10
397.5174886642549
 20
24.78695932282479
 30
0.0
 10
397.5174886642549
 20
24.78695932282479
 30
0.0
 10
397.1383962741413
 20
24.78695932282479
 30
0.0
 10
397.1383962741413
 20
24.78695932282479
 30
0.0
 10
397.1383962741413
 20
24.78695932282479
 30
0.0
 10
397.7765450495241
 20
26.81569873142421
 30
0.0
 10
397.7765450495241
 20
26.81569873142421
 30
0.0
 10
397.9098225075554
 20
27.24016913526807
 30
0.0
 10
398.0000429256735
 20
27.55015304217612
 30
0.0
 10
398.0467302066851
 20
27.74450484327716
 30
0.0
 10
398.1053199175276
 20
27.98694246089495
 30
0.0
 10
398.1286486799962
 20
28.06694166739577
 30
0.0
 10
398.1009160184902
 20
28.24339518963862
 30
0.0
 10
398.0755043308013
 20
28.4076487213048
 30
0.0
 10
397.9925146388055
 20
28.51460693137258
 30
0.0
 10
397.8504293826993
 20
28.51460693137258
 30
0.0
 10
397.6990007191758
 20
28.51460693137258
 30
0.0
 10
397.5763461797686
 20
28.49775011512458
 30
0.0
 10
397.4047131416073
 20
28.32532854098695
 30
0.0
 10
397.2330503473714
 20
28.15159769956793
 30
0.0
 10
397.0912031398618
 20
27.94766444245305
 30
0.0
 10
396.9799749330922
 20
27.71312706263549
 30
0.0
 10
396.8689847749192
 20
27.47716139123824
 30
0.0
 10
396.7564473008682
 20
27.17806820762544
 30
0.0
 10
396.6423625109393
 20
26.81569873142421
 30
0.0
 10
396.6423625109393
 20
26.81569873142421
 30
0.0
 10
396.0039756869598
 20
24.78695932282479
 30
0.0
 10
396.0039756869598
 20
24.78695932282479
 30
0.0
 10
396.0039756869598
 20
24.78695932282479
 30
0.0
 10
395.6474384013758
 20
24.78695932282479
 30
0.0
 10
395.6474384013758
 20
24.78695932282479
 30
0.0
 10
395.6474384013758
 20
24.78695932282479
 30
0.0
 10
396.3773549107547
 20
27.10650484826726
 30
0.0
 10
396.3773549107547
 20
27.10650484826726
 30
0.0
 10
396.4543636317604
 20
27.35336124295977
 30
0.0
 10
396.5122094407385
 20
27.55457181925085
 30
0.0
 10
396.5503269722719
 20
27.71183267339138
 30
0.0
 10
396.6151357027011
 20
27.98253856185753
 30
0.0
 10
396.6332869081932
 20
28.1655979326565
 30
0.0
 10
396.5842786533645
 20
28.32805122181077
 30
0.0
 10
396.5360440564749
 20
28.48998377965993
 30
0.0
 10
396.4512690000045
 20
28.53134472332225
 30
0.0
 10
396.3096895971661
 20
28.53134472332225
 30
0.0
 10
396.1909331035284
 20
28.53134472332225
 30
0.0
 10
396.0750331930502
 20
28.48038744560878
 30
0.0
 10
395.9427971976291
 20
28.37899362148695
 30
0.0
 10
395.7763119603696
 20
28.25142932977446
 30
0.0
 10
395.7096881093912
 20
28.1466730692254
 30
0.0
 10
395.6280076846768
 20
28.02220340926895
 30
0.0
 10
395.5177911844429
 20
27.85754817059597
 30
0.0
 10
395.4661941511259
 20
27.74670679279587
 30
0.0
 10
395.3731171498484
 20
27.50348063920177
 30
0.0
 10
395.2800103924964
 20
27.25882619402798
 30
0.0
 10
395.1918728995987
 20
26.97412007247326
 30
0.0
 10
395.1303968495222
 20
26.77719437092129
 30
0.0
 10
395.1303968495222
 20
26.77719437092129
 30
0.0
 10
394.5042100161195
 20
24.78695932282479
 30
0.0
 10
394.5042100161195
 20
24.78695932282479
 30
0.0
 10
394.5042100161195
 20
24.78695932282479
 30
0.0
 10
394.1308307923247
 20
24.78695932282479
 30
0.0
 10
394.1308307923247
 20
24.78695932282479
 30
0.0
 10
394.1308307923247
 20
24.78695932282479
 30
0.0
 10
395.4068307823444
 20
28.857396910502
 30
0.0
 10
395.4068307823444
 20
28.857396910502
 30
0.0
  0
SPLINE
  5
3C73
102
{ACAD_REACTORS
330
3C64
330
3C75
102
}
330
A
100
AcDbEntity
  8
TEMPLATE
100
AcDbSpline
210
0.0
220
0.0
230
1.0
 70
    11
 71
     3
 72
    32
 73
    28
 74
     0
 42
0.000000001
 43
0.0000000001
 40
0.0
 40
0.0
 40
0.0
 40
0.0
 40
1.0
 40
1.0
 40
1.0
 40
2.0
 40
2.0
 40
2.0
 40
3.0
 40
3.0
 40
3.0
 40
4.0
 40
4.0
 40
4.0
 40
5.0
 40
5.0
 40
5.0
 40
6.0
 40
6.0
 40
6.0
 40
7.0
 40
7.0
 40
7.0
 40
8.0
 40
8.0
 40
8.0
 40
9.0
 40
9.0
 40
9.0
 40
9.0
 10
390.3419600603343
 20
28.64284073476305
 30
0.0
 10
390.1254548617105
 20
28.36279143887966
 30
0.0
 10
389.9587315758544
 20
28.11075748721071
 30
0.0
 10
389.6888142233646
 20
27.31860614785359
 30
0.0
 10
389.4406634394279
 20
26.59401597582401
 30
0.0
 10
389.2827479516467
 20
26.06685735861421
 30
0.0
 10
389.2588984578731
 20
25.42484029353638
 30
0.0
 10
389.240747252381
 20
24.94707676012474
 30
0.0
 10
389.5316723935223
 20
24.78695932282479
 30
0.0
 10
389.9582257225866
 20
24.78695932282479
 30
0.0
 10
390.1420587513246
 20
24.78695932282479
 30
0.0
 10
390.6059559539832
 20
24.79865346013363
 30
0.0
 10
390.9363078939394
 20
25.20702582763122
 30
0.0
 10
391.1675721055534
 20
25.49393389870466
 30
0.0
 10
391.38071486775
 20
25.79134586410385
 30
0.0
 10
391.6664624519149
 20
26.76695828126675
 30
0.0
 10
391.9042432438614
 20
27.58257228542799
 30
0.0
 10
392.068883604497
 20
28.10971602460051
 30
0.0
 10
392.056713369995
 20
28.40985067082352
 30
0.0
 10
392.056713369995
 20
28.40985067082352
 30
0.0
 10
392.056713369995
 20
28.40985067082352
 30
0.0
 10
392.056713369995
 20
28.40985067082352
 30
0.0
 10
391.9791690396468
 20
28.91055613773418
 30
0.0
 10
391.615639076537
 20
29.01635386089345
 30
0.0
 10
391.4079416759881
 20
29.01635386089345
 30
0.0
 10
391.2033686632698
 20
29.01635386089345
 30
0.0
 10
390.6552022574085
 20
29.05174871160303
 30
0.0
 10
390.3419600603343
 20
28.64284073476305
 30
0.0
  0
SPLINE
  5
3C74
102
{ACAD_REACTORS
330
3C64
330
3C75
102
}
330
A
100
AcDbEntity
  8
TEMPLATE
100
AcDbSpline
210
0.0
220
0.0
230
1.0
 70
    11
 71
     3
 72
    29
 73
    25
 74
     0
 42
0.000000001
 43
0.0000000001
 40
0.0
 40
0.0
 40
0.0
 40
0.0
 40
1.0
 40
1.0
 40
1.0
 40
2.0
 40
2.0
 40
2.0
 40
3.0
 40
3.0
 40
3.0
 40
4.0
 40
4.0
 40
4.0
 40
5.0
 40
5.0
 40
5.0
 40
6.0
 40
6.0
 40
6.0
 40
7.0
 40
7.0
 40
7.0
 40
8.0
 40
8.0
 40
8.0
 40
8.0
 10
389.6462927927937
 20
25.54487629838084
 30
0.0
 10
389.6447157208412
 20
25.82830290872873
 30
0.0
 10
389.7341922370948
 20
26.33186495879882
 30
0.0
 10
389.9634032795631
 20
27.00563175545052
 30
0.0
 10
390.2756040140271
 20
27.91796788002499
 30
0.0
 10
390.4628292352669
 20
28.25142932977446
 30
0.0
 10
390.6266661818889
 20
28.41374871659313
 30
0.0
 10
390.866024045788
 20
28.65010121695988
 30
0.0
 10
391.1878062362659
 20
28.66188462249246
 30
0.0
 10
391.2827281141673
 20
28.65010121695988
 30
0.0
 10
391.4178206927478
 20
28.6338841563153
 30
0.0
 10
391.6086463990114
 20
28.54546398070914
 30
0.0
 10
391.6200429755745
 20
28.24779908867604
 30
0.0
 10
391.629148334395
 20
27.99304245618328
 30
0.0
 10
391.5557400984131
 20
27.51593355641234
 30
0.0
 10
391.2987963944389
 20
26.76695828126675
 30
0.0
 10
391.0026639402465
 20
25.896622855958
 30
0.0
 10
390.824782126424
 20
25.55448751046927
 30
0.0
 10
390.6821910170501
 20
25.40537982076289
 30
0.0
 10
390.413553175767
 20
25.1258512561846
 30
0.0
 10
390.1254548617105
 20
25.15269123545324
 30
0.0
 10
390.0829334311396
 20
25.15269123545324
 30
0.0
 10
390.0277061567243
 20
25.15269123545324
 30
0.0
 10
389.6470664507327
 20
25.21261996965174
 30
0.0
 10
389.6462927927937
 20
25.54487629838084
 30
0.0
  0
MTEXT
  5
3C9A
330
A
100
AcDbEntity
  8
TEMPLATE
390
1D
100
AcDbMText
 10
26.44042890954615
 20
46.02985813878568
 30
0.0
 40
4.8865234375
 41
0.0
 46
5.159354838630893
 71
     1
 72
     1
  1
{マットガンメタル}
  7
ＭＳ ゴシック
 73
     1
 44
0.7828267384257843
1001
ACAD
1000
ACAD_MTEXT_DEFINED_HEIGHT_BEGIN
1070
    46
1040
5.159354838630893
1000
ACAD_MTEXT_DEFINED_HEIGHT_END
  0
MTEXT
  5
3CB5
102
{ACAD_XDICTIONARY
360
3CB7
102
}
330
A
100
AcDbEntity
  8
TEMPLATE
100
AcDbMText
 10
15.00779663219942
 20
17.57619761830519
 30
0.0
 40
4.0
 41
0.0
 46
4.0
 71
     1
 72
     1
  1
{20211021N}
  7
ＭＳ ゴシック
 73
     1
 44
1.0
1001
ACAD
1000
ACAD_MTEXT_DEFINED_HEIGHT_BEGIN
1070
    46
1040
4.0
1000
ACAD_MTEXT_DEFINED_HEIGHT_END
  0
ELLIPSE
  5
3F3C
330
A
100
AcDbEntity
  8
MODEL
  6
Continuous
100
AcDbEllipse
 10
126.9051379445406
 20
396.2341264255938
 30
0.0
 11
1.000000000000083
 21
3.401780891512203E-8
 31
0.0
210
0.0
220
0.0
230
1.0
 40
0.9612206336707263
 41
0.0
 42
6.283185307179586
  0
LINE
  5
3F3D
330
A
100
AcDbEntity
  8
MODEL
  6
Continuous
100
AcDbLine
 10
127.9051379163963
 20
397.0614681621436
 30
0.0
 11
127.9051379445406
 21
396.2341266119657
 31
0.0
  0
LINE
  5
3F3E
330
A
100
AcDbEntity
  8
MODEL
  6
Continuous
100
AcDbLine
 10
125.9051379163963
 20
397.0614677893998
 30
0.0
 11
125.9051379445406
 21
396.2341262392219
 31
0.0
  0
ELLIPSE
  5
3F3F
330
A
100
AcDbEntity
  8
MODEL
  6
Continuous
100
AcDbEllipse
 10
126.9051378300204
 20
405.3657224454657
 30
0.0
 11
1.000000000000058
 21
3.401780848583545E-8
 31
0.0
210
0.0
220
0.0
230
1.0
 40
0.9612206336707245
 41
0.0
 42
6.283185307179586
  0
LINE
  5
3F40
330
A
100
AcDbEntity
  8
MODEL
  6
Continuous
100
AcDbLine
 10
127.9051378018762
 20
406.1930641820156
 30
0.0
 11
127.9051378300206
 21
405.3657226318376
 31
0.0
  0
LINE
  5
3F41
330
A
100
AcDbEntity
  8
MODEL
  6
Continuous
100
AcDbLine
 10
125.9051378018762
 20
406.1930638092718
 30
0.0
 11
125.9051378300206
 21
405.3657222590938
 31
0.0
  0
ELLIPSE
  5
3F42
330
A
100
AcDbEntity
  8
MODEL
  6
Continuous
100
AcDbEllipse
 10
126.905137727555
 20
413.5360978316668
 30
0.0
 11
1.000000000000033
 21
3.401780934438036E-8
 31
0.0
210
0.0
220
0.0
230
1.0
 40
0.9612206336707262
 41
0.0
 42
6.283185307179586
  0
LINE
  5
3F43
330
A
100
AcDbEntity
  8
MODEL
  6
Continuous
100
AcDbLine
 10
127.9051376994108
 20
414.3634395682167
 30
0.0
 11
127.9051377275552
 21
413.5360980180388
 31
0.0
  0
LINE
  5
3F44
330
A
100
AcDbEntity
  8
MODEL
  6
Continuous
100
AcDbLine
 10
125.9051376994108
 20
414.3634391954729
 30
0.0
 11
125.9051377275552
 21
413.536097645295
 31
0.0
  0
ELLIPSE
  5
3F45
330
A
100
AcDbEntity
  8
MODEL
  6
Continuous
100
AcDbEllipse
 10
126.9051376190623
 20
422.1870835347034
 30
0.0
 11
1.000000000000014
 21
3.401780848582852E-8
 31
0.0
210
0.0
220
0.0
230
1.0
 40
0.9612206336707239
 41
0.0
 42
6.283185307179586
  0
LINE
  5
3F46
330
A
100
AcDbEntity
  8
MODEL
  6
Continuous
100
AcDbLine
 10
127.9051375909181
 20
423.0144252712532
 30
0.0
 11
127.9051376190625
 21
422.1870837210753
 31
0.0
  0
LINE
  5
3F47
330
A
100
AcDbEntity
  8
MODEL
  6
Continuous
100
AcDbLine
 10
125.9051375909181
 20
423.0144248985094
 30
0.0
 11
125.9051376190625
 21
422.1870833483315
 31
0.0
  0
ELLIPSE
  5
3F48
330
A
100
AcDbEntity
  8
MODEL
  6
Continuous
100
AcDbEllipse
 10
120.5411769456383
 20
393.7003112869164
 30
0.0
 11
1.000000000000083
 21
3.401779379174274E-8
 31
0.0
210
0.0
220
0.0
230
1.0
 40
0.961220633670726
 41
0.0
 42
6.283185307179586
  0
LINE
  5
3F49
330
A
100
AcDbEntity
  8
MODEL
  6
Continuous
100
AcDbLine
 10
121.541176917494
 20
394.5276530234661
 30
0.0
 11
121.5411769456384
 21
393.7003114732882
 31
0.0
  0
LINE
  5
3F4A
330
A
100
AcDbEntity
  8
MODEL
  6
Continuous
100
AcDbLine
 10
119.541176917494
 20
394.5276526507224
 30
0.0
 11
119.5411769456384
 21
393.7003111005444
 31
0.0
  0
LINE
  5
3F4B
330
A
100
AcDbEntity
  8
MODEL
  6
Continuous
100
AcDbLine
 10
118.9051380248889
 20
388.4104821593392
 30
0.0
 11
118.9051380530332
 21
387.5831406091613
 31
0.0
  0
ELLIPSE
  5
3F4C
330
A
100
AcDbEntity
  8
MODEL
  6
Continuous
100
AcDbEllipse
 10
117.9051380530333
 20
387.5831405949867
 30
0.0
 11
1.000000000000083
 21
3.401778726877066E-8
 31
0.0
210
0.0
220
0.0
230
1.0
 40
0.9612206336707249
 41
0.0
 42
6.283185307179586
  0
LINE
  5
3F4D
330
A
100
AcDbEntity
  8
MODEL
  6
Continuous
100
AcDbLine
 10
116.905138024889
 20
388.4104819587928
 30
0.0
 11
116.9051380530333
 21
387.5831404086148
 31
0.0
  0
ELLIPSE
  5
3F4E
330
A
100
AcDbEntity
  8
MODEL
  6
Continuous
100
AcDbEllipse
 10
120.5411770990703
 20
381.4659699777862
 30
0.0
 11
1.000000000000083
 21
3.401779348981094E-8
 31
0.0
210
0.0
220
0.0
230
1.0
 40
0.9612206336707236
 41
0.0
 42
6.283185307179586
  0
LINE
  5
3F4F
330
A
100
AcDbEntity
  8
MODEL
  6
Continuous
100
AcDbLine
 10
119.541177070926
 20
382.2933113415922
 30
0.0
 11
119.5411770990704
 21
381.4659697914143
 31
0.0
  0
ELLIPSE
  5
3F50
330
A
100
AcDbEntity
  8
MODEL
  6
Continuous
100
AcDbEllipse
 10
126.905138161526
 20
378.9321550195205
 30
0.0
 11
1.000000000000083
 21
3.401780862985597E-8
 31
0.0
210
0.0
220
0.0
230
1.0
 40
0.9612206336707231
 41
0.0
 42
6.283185307179586
  0
ELLIPSE
  5
3F51
330
A
100
AcDbEntity
  8
MODEL
  6
Continuous
100
AcDbEllipse
 10
133.2690991604284
 20
381.465970158198
 30
0.0
 11
1.000000000000083
 21
3.401782368292530E-8
 31
0.0
210
0.0
220
0.0
230
1.0
 40
0.9612206336707236
 41
0.0
 42
6.283185307179586
  0
LINE
  5
3F52
330
A
100
AcDbEntity
  8
MODEL
  6
Continuous
100
AcDbLine
 10
134.2690991322839
 20
382.2933118947479
 30
0.0
 11
134.2690991604283
 21
381.4659703445699
 31
0.0
  0
LINE
  5
3F53
330
A
100
AcDbEntity
  8
MODEL
  6
Continuous
100
AcDbLine
 10
134.9051380248891
 20
388.4104823861311
 30
0.0
 11
134.9051380530334
 21
387.5831408359531
 31
0.0
  0
ELLIPSE
  5
3F54
330
A
100
AcDbEntity
  8
MODEL
  6
Continuous
100
AcDbEllipse
 10
135.9051380530334
 20
387.5831408501276
 30
0.0
 11
1.000000000000083
 21
3.401782983376986E-8
 31
0.0
210
0.0
220
0.0
230
1.0
 40
0.9612206336707247
 41
0.0
 42
6.283185307179586
  0
LINE
  5
3F55
330
A
100
AcDbEntity
  8
MODEL
  6
Continuous
100
AcDbLine
 10
136.9051380248892
 20
388.4104825866775
 30
0.0
 11
136.9051380530336
 21
387.5831410364995
 31
0.0
  0
ELLIPSE
  5
3F56
330
A
100
AcDbEntity
  8
MODEL
  6
Continuous
100
AcDbEllipse
 10
133.2690990069965
 20
393.7003114673282
 30
0.0
 11
1.000000000000083
 21
3.401782408550079E-8
 31
0.0
210
0.0
220
0.0
230
1.0
 40
0.961220633670726
 41
0.0
 42
6.283185307179586
  0
LINE
  5
3F57
330
A
100
AcDbEntity
  8
MODEL
  6
Continuous
100
AcDbLine
 10
134.2690989788521
 20
394.5276532038781
 30
0.0
 11
134.2690990069964
 21
393.7003116537001
 31
0.0
  0
LINE
  5
3F58
330
A
100
AcDbEntity
  8
MODEL
  6
Continuous
100
AcDbLine
 10
132.2690989788521
 20
394.5276528311343
 30
0.0
 11
132.2690990069964
 21
393.7003112809563
 31
0.0
  0
ELLIPSE
  5
3F59
330
A
100
AcDbEntity
  8
MODEL
  6
Continuous
100
AcDbEllipse
 10
119.825494348242
 20
404.0121039112113
 30
0.0
 11
1.000000000000058
 21
3.401780954248283E-8
 31
0.0
210
0.0
220
0.0
230
1.0
 40
0.9612206336707245
 41
0.0
 42
6.283185307179586
  0
LINE
  5
3F5A
330
A
100
AcDbEntity
  8
MODEL
  6
Continuous
100
AcDbLine
 10
120.8254943200978
 20
404.8394456477611
 30
0.0
 11
120.8254943482422
 21
404.0121040975832
 31
0.0
  0
LINE
  5
3F5B
330
A
100
AcDbEntity
  8
MODEL
  6
Continuous
100
AcDbLine
 10
118.8254943200978
 20
404.8394452750173
 30
0.0
 11
118.8254943482422
 21
404.0121037248394
 31
0.0
  0
ELLIPSE
  5
3F5C
330
A
100
AcDbEntity
  8
MODEL
  6
Continuous
100
AcDbEllipse
 10
113.8236624433882
 20
400.1573246604065
 30
0.0
 11
1.000000000000058
 21
3.401781059924181E-8
 31
0.0
210
0.0
220
0.0
230
1.0
 40
0.9612206336707245
 41
0.0
 42
6.283185307179586
  0
LINE
  5
3F5D
330
A
100
AcDbEntity
  8
MODEL
  6
Continuous
100
AcDbLine
 10
114.8236624152438
 20
400.9846663969563
 30
0.0
 11
114.8236624433882
 21
400.1573248467784
 31
0.0
  0
LINE
  5
3F5E
330
A
100
AcDbEntity
  8
MODEL
  6
Continuous
100
AcDbLine
 10
112.8236624152438
 20
400.9846660242125
 30
0.0
 11
112.8236624433882
 21
400.1573244740346
 31
0.0
  0
ELLIPSE
  5
3F5F
330
A
100
AcDbEntity
  8
MODEL
  6
Continuous
100
AcDbEllipse
 10
109.8133666162311
 20
394.3882398903253
 30
0.0
 11
1.000000000000058
 21
3.401781100181670E-8
 31
0.0
210
0.0
220
0.0
230
1.0
 40
0.9612206336707246
 41
0.0
 42
6.283185307179586
  0
LINE
  5
3F60
330
A
100
AcDbEntity
  8
MODEL
  6
Continuous
100
AcDbLine
 10
110.8133665880868
 20
395.2155816268752
 30
0.0
 11
110.8133666162311
 21
394.3882400766972
 31
0.0
  0
LINE
  5
3F61
330
A
100
AcDbEntity
  8
MODEL
  6
Continuous
100
AcDbLine
 10
108.8133665880868
 20
395.2155812541314
 30
0.0
 11
108.8133666162311
 21
394.3882397039534
 31
0.0
  0
LINE
  5
3F62
330
A
100
AcDbEntity
  8
MODEL
  6
Continuous
100
AcDbLine
 10
109.4051380248889
 20
388.4104820246815
 30
0.0
 11
109.4051380530332
 21
387.5831404745035
 31
0.0
  0
ELLIPSE
  5
3F63
330
A
100
AcDbEntity
  8
MODEL
  6
Continuous
100
AcDbEllipse
 10
108.4051380530333
 20
387.583140460329
 30
0.0
 11
1.000000000000058
 21
3.401781144711452E-8
 31
0.0
210
0.0
220
0.0
230
1.0
 40
0.9612206336707247
 41
0.0
 42
6.283185307179586
  0
LINE
  5
3F64
330
A
100
AcDbEntity
  8
MODEL
  6
Continuous
100
AcDbLine
 10
107.405138024889
 20
388.410481824135
 30
0.0
 11
107.4051380530333
 21
387.5831402739571
 31
0.0
  0
ELLIPSE
  5
3F65
330
A
100
AcDbEntity
  8
MODEL
  6
Continuous
100
AcDbEllipse
 10
109.8133667869178
 20
380.7780410702546
 30
0.0
 11
1.000000000000058
 21
3.401781165600086E-8
 31
0.0
210
0.0
220
0.0
230
1.0
 40
0.9612206336707249
 41
0.0
 42
6.283185307179586
  0
LINE
  5
3F66
330
A
100
AcDbEntity
  8
MODEL
  6
Continuous
100
AcDbLine
 10
108.8133667587733
 20
381.6053824340607
 30
0.0
 11
108.8133667869177
 21
380.7780408838827
 31
0.0
  0
LINE
  5
3F67
330
A
100
AcDbEntity
  8
MODEL
  6
Continuous
100
AcDbLine
 10
110.8133667587733
 20
381.6053828068045
 30
0.0
 11
110.8133667869177
 21
380.7780412566265
 31
0.0
  0
ELLIPSE
  5
3F68
330
A
100
AcDbEntity
  8
MODEL
  6
Continuous
100
AcDbEllipse
 10
113.823662758776
 20
375.0089564138613
 30
0.0
 11
1.000000000000058
 21
3.401781080052934E-8
 31
0.0
210
0.0
220
0.0
230
1.0
 40
0.9612206336707249
 41
0.0
 42
6.283185307179586
  0
LINE
  5
3F69
330
A
100
AcDbEntity
  8
MODEL
  6
Continuous
100
AcDbLine
 10
112.8236627306318
 20
375.8362977776674
 30
0.0
 11
112.8236627587762
 21
375.0089562274894
 31
0.0
  0
LINE
  5
3F6A
330
A
100
AcDbEntity
  8
MODEL
  6
Continuous
100
AcDbLine
 10
114.8236627306318
 20
375.8362981504112
 30
0.0
 11
114.8236627587762
 21
375.0089566002332
 31
0.0
  0
ELLIPSE
  5
3F6B
330
A
100
AcDbEntity
  8
MODEL
  6
Continuous
100
AcDbEllipse
 10
119.8254947603161
 20
371.1541773332023
 30
0.0
 11
1.000000000000058
 21
3.401781004570148E-8
 31
0.0
210
0.0
220
0.0
230
1.0
 40
0.961220633670725
 41
0.0
 42
6.283185307179586
  0
LINE
  5
3F6C
330
A
100
AcDbEntity
  8
MODEL
  6
Continuous
100
AcDbLine
 10
118.8254947321717
 20
371.9815186970084
 30
0.0
 11
118.8254947603161
 21
371.1541771468305
 31
0.0
  0
ELLIPSE
  5
3F6D
330
A
100
AcDbEntity
  8
MODEL
  6
Continuous
100
AcDbEllipse
 10
126.9051382760462
 20
369.8005589996487
 30
0.0
 11
1.000000000000058
 21
3.401780905914095E-8
 31
0.0
210
0.0
220
0.0
230
1.0
 40
0.961220633670725
 41
0.0
 42
6.283185307179586
  0
ELLIPSE
  5
3F6E
330
A
100
AcDbEntity
  8
MODEL
  6
Continuous
100
AcDbEllipse
 10
133.9847817578245
 20
371.1541775339031
 30
0.0
 11
1.000000000000058
 21
3.401780793218350E-8
 31
0.0
210
0.0
220
0.0
230
1.0
 40
0.961220633670725
 41
0.0
 42
6.283185307179586
  0
LINE
  5
3F6F
330
A
100
AcDbEntity
  8
MODEL
  6
Continuous
100
AcDbLine
 10
134.9847817296802
 20
371.9815192704529
 30
0.0
 11
134.9847817578246
 21
371.154177720275
 31
0.0
  0
ELLIPSE
  5
3F70
330
A
100
AcDbEntity
  8
MODEL
  6
Continuous
100
AcDbEllipse
 10
139.9866136626786
 20
375.0089567847079
 30
0.0
 11
1.000000000000058
 21
3.401780697606820E-8
 31
0.0
210
0.0
220
0.0
230
1.0
 40
0.961220633670725
 41
0.0
 42
6.283185307179586
  0
LINE
  5
3F71
330
A
100
AcDbEntity
  8
MODEL
  6
Continuous
100
AcDbLine
 10
138.9866136345341
 20
375.836298148514
 30
0.0
 11
138.9866136626785
 21
375.0089565983361
 31
0.0
  0
LINE
  5
3F72
330
A
100
AcDbEntity
  8
MODEL
  6
Continuous
100
AcDbLine
 10
140.9866136345341
 20
375.8362985212578
 30
0.0
 11
140.9866136626785
 21
375.0089569710798
 31
0.0
  0
ELLIPSE
  5
3F73
330
A
100
AcDbEntity
  8
MODEL
  6
Continuous
100
AcDbEllipse
 10
143.9969094898356
 20
380.778041554789
 30
0.0
 11
1.000000000000058
 21
3.401780632188399E-8
 31
0.0
210
0.0
220
0.0
230
1.0
 40
0.9612206336707247
 41
0.0
 42
6.283185307179586
  0
LINE
  5
3F74
330
A
100
AcDbEntity
  8
MODEL
  6
Continuous
100
AcDbLine
 10
142.9969094616913
 20
381.6053829185951
 30
0.0
 11
142.9969094898357
 21
380.7780413684172
 31
0.0
  0
LINE
  5
3F75
330
A
100
AcDbEntity
  8
MODEL
  6
Continuous
100
AcDbLine
 10
144.9969094616913
 20
381.6053832913389
 30
0.0
 11
144.9969094898357
 21
380.778041741161
 31
0.0
  0
LINE
  5
3F76
330
A
100
AcDbEntity
  8
MODEL
  6
Continuous
100
AcDbLine
 10
144.4051380248891
 20
388.4104825207888
 30
0.0
 11
144.4051380530334
 21
387.5831409706108
 31
0.0
  0
ELLIPSE
  5
3F77
330
A
100
AcDbEntity
  8
MODEL
  6
Continuous
100
AcDbEllipse
 10
145.4051380530334
 20
387.5831409847853
 30
0.0
 11
1.000000000000058
 21
3.401780564024390E-8
 31
0.0
210
0.0
220
0.0
230
1.0
 40
0.9612206336707249
 41
0.0
 42
6.283185307179586
  0
LINE
  5
3F78
330
A
100
AcDbEntity
  8
MODEL
  6
Continuous
100
AcDbLine
 10
146.4051380248892
 20
388.4104827213352
 30
0.0
 11
146.4051380530336
 21
387.5831411711573
 31
0.0
  0
ELLIPSE
  5
3F79
330
A
100
AcDbEntity
  8
MODEL
  6
Continuous
100
AcDbEllipse
 10
143.996909319149
 20
394.3882403748597
 30
0.0
 11
1.000000000000058
 21
3.401780607027468E-8
 31
0.0
210
0.0
220
0.0
230
1.0
 40
0.9612206336707247
 41
0.0
 42
6.283185307179586
  0
LINE
  5
3F7A
330
A
100
AcDbEntity
  8
MODEL
  6
Continuous
100
AcDbLine
 10
144.9969092910046
 20
395.2155821114096
 30
0.0
 11
144.996909319149
 21
394.3882405612316
 31
0.0
  0
LINE
  5
3F7B
330
A
100
AcDbEntity
  8
MODEL
  6
Continuous
100
AcDbLine
 10
142.9969092910046
 20
395.2155817386658
 30
0.0
 11
142.996909319149
 21
394.3882401884878
 31
0.0
  0
ELLIPSE
  5
3F7C
330
A
100
AcDbEntity
  8
MODEL
  6
Continuous
100
AcDbEllipse
 10
139.9866133472907
 20
400.157325031253
 30
0.0
 11
1.000000000000058
 21
3.401780657349323E-8
 31
0.0
210
0.0
220
0.0
230
1.0
 40
0.9612206336707245
 41
0.0
 42
6.283185307179586
  0
LINE
  5
3F7D
330
A
100
AcDbEntity
  8
MODEL
  6
Continuous
100
AcDbLine
 10
140.9866133191464
 20
400.9846667678029
 30
0.0
 11
140.9866133472908
 21
400.157325217625
 31
0.0
  0
LINE
  5
3F7E
330
A
100
AcDbEntity
  8
MODEL
  6
Continuous
100
AcDbLine
 10
138.9866133191464
 20
400.9846663950592
 30
0.0
 11
138.9866133472908
 21
400.1573248448812
 31
0.0
  0
ELLIPSE
  5
3F7F
330
A
100
AcDbEntity
  8
MODEL
  6
Continuous
100
AcDbEllipse
 10
133.9847813457507
 20
404.012104111912
 30
0.0
 11
1.000000000000058
 21
3.401780732832112E-8
 31
0.0
210
0.0
220
0.0
230
1.0
 40
0.9612206336707245
 41
0.0
 42
6.283185307179586
  0
LINE
  5
3F80
330
A
100
AcDbEntity
  8
MODEL
  6
Continuous
100
AcDbLine
 10
134.9847813176062
 20
404.8394458484618
 30
0.0
 11
134.9847813457506
 21
404.0121042982839
 31
0.0
  0
LINE
  5
3F81
330
A
100
AcDbEntity
  8
MODEL
  6
Continuous
100
AcDbLine
 10
132.9847813176062
 20
404.839445475718
 30
0.0
 11
132.9847813457506
 21
404.0121039255401
 31
0.0
  0
ELLIPSE
  5
3F82
330
A
100
AcDbEntity
  8
MODEL
  6
Continuous
100
AcDbEllipse
 10
119.9170235208775
 20
412.6517721637657
 30
0.0
 11
1.000000000000033
 21
3.401780435933113E-8
 31
0.0
210
0.0
220
0.0
230
1.0
 40
0.9612206336707262
 41
0.0
 42
6.283185307179586
  0
LINE
  5
3F83
330
A
100
AcDbEntity
  8
MODEL
  6
Continuous
100
AcDbLine
 10
120.9170234927331
 20
413.4791139003156
 30
0.0
 11
120.9170235208774
 21
412.6517723501376
 31
0.0
  0
LINE
  5
3F84
330
A
100
AcDbEntity
  8
MODEL
  6
Continuous
100
AcDbLine
 10
118.9170234927331
 20
413.4791135275718
 30
0.0
 11
118.9170235208774
 21
412.6517719773938
 31
0.0
  0
ELLIPSE
  5
3F85
330
A
100
AcDbEntity
  8
MODEL
  6
Continuous
100
AcDbEllipse
 10
113.4051377711609
 20
410.0590606910185
 30
0.0
 11
1.000000000000033
 21
3.401779947811094E-8
 31
0.0
210
0.0
220
0.0
230
1.0
 40
0.9612206336707261
 41
0.0
 42
6.283185307179586
  0
LINE
  5
3F86
330
A
100
AcDbEntity
  8
MODEL
  6
Continuous
100
AcDbLine
 10
114.4051377430166
 20
410.8864024275683
 30
0.0
 11
114.4051377711609
 21
410.0590608773903
 31
0.0
  0
LINE
  5
3F87
330
A
100
AcDbEntity
  8
MODEL
  6
Continuous
100
AcDbLine
 10
112.4051377430166
 20
410.8864020548245
 30
0.0
 11
112.4051377711609
 21
410.0590605046465
 31
0.0
  0
ELLIPSE
  5
3F88
330
A
100
AcDbEntity
  8
MODEL
  6
Continuous
100
AcDbEllipse
 10
107.8132547308486
 20
405.9346524156345
 30
0.0
 11
1.000000000000033
 21
3.401779510010928E-8
 31
0.0
210
0.0
220
0.0
230
1.0
 40
0.9612206336707259
 41
0.0
 42
6.283185307179586
  0
LINE
  5
3F89
330
A
100
AcDbEntity
  8
MODEL
  6
Continuous
100
AcDbLine
 10
108.8132547027043
 20
406.7619941521843
 30
0.0
 11
108.8132547308487
 21
405.9346526020063
 31
0.0
  0
LINE
  5
3F8A
330
A
100
AcDbEntity
  8
MODEL
  6
Continuous
100
AcDbLine
 10
106.8132547027043
 20
406.7619937794405
 30
0.0
 11
106.8132547308487
 21
405.9346522292626
 31
0.0
  0
ELLIPSE
  5
3F8B
330
A
100
AcDbEntity
  8
MODEL
  6
Continuous
100
AcDbEllipse
 10
103.5224519881143
 20
400.5596189456743
 30
0.0
 11
1.000000000000033
 21
3.401779177886662E-8
 31
0.0
210
0.0
220
0.0
230
1.0
 40
0.9612206336707255
 41
0.0
 42
6.283185307179586
  0
LINE
  5
3F8C
330
A
100
AcDbEntity
  8
MODEL
  6
Continuous
100
AcDbLine
 10
104.5224519599699
 20
401.3869606822241
 30
0.0
 11
104.5224519881143
 21
400.5596191320462
 31
0.0
  0
LINE
  5
3F8D
330
A
100
AcDbEntity
  8
MODEL
  6
Continuous
100
AcDbLine
 10
102.5224519599699
 20
401.3869603094803
 30
0.0
 11
102.5224519881143
 21
400.5596187593024
 31
0.0
  0
ELLIPSE
  5
3F8E
330
A
100
AcDbEntity
  8
MODEL
  6
Continuous
100
AcDbEllipse
 10
100.8251406589884
 20
394.3002599294528
 30
0.0
 11
1.000000000000033
 21
3.401779001760151E-8
 31
0.0
210
0.0
220
0.0
230
1.0
 40
0.9612206336707252
 41
0.0
 42
6.283185307179586
  0
LINE
  5
3F8F
330
A
100
AcDbEntity
  8
MODEL
  6
Continuous
100
AcDbLine
 10
101.8251406308441
 20
395.1276016660027
 30
0.0
 11
101.8251406589885
 21
394.3002601158248
 31
0.0
  0
LINE
  5
3F90
330
A
100
AcDbEntity
  8
MODEL
  6
Continuous
100
AcDbLine
 10
99.82514063084409
 20
395.1276012932589
 30
0.0
 11
99.82514065898846
 21
394.3002597430809
 31
0.0
  0
LINE
  5
3F91
330
A
100
AcDbEntity
  8
MODEL
  6
Continuous
100
AcDbLine
 10
100.9051380248889
 20
388.4104819041983
 30
0.0
 11
100.9051380530332
 21
387.5831403540203
 31
0.0
  0
ELLIPSE
  5
3F92
330
A
100
AcDbEntity
  8
MODEL
  6
Continuous
100
AcDbEllipse
 10
99.90513805303328
 20
387.5831403398458
 30
0.0
 11
1.000000000000033
 21
3.401778910839859E-8
 31
0.0
210
0.0
220
0.0
230
1.0
 40
0.9612206336707249
 41
0.0
 42
6.283185307179586
  0
LINE
  5
3F93
330
A
100
AcDbEntity
  8
MODEL
  6
Continuous
100
AcDbLine
 10
98.90513802488886
 20
388.4104817036519
 30
0.0
 11
98.90513805303323
 21
387.5831401534739
 31
0.0
  0
ELLIPSE
  5
3F94
330
A
100
AcDbEntity
  8
MODEL
  6
Continuous
100
AcDbEllipse
 10
100.8251408274684
 20
380.86602077632
 30
0.0
 11
1.000000000000033
 21
3.401778936341713E-8
 31
0.0
210
0.0
220
0.0
230
1.0
 40
0.9612206336707244
 41
0.0
 42
6.283185307179586
  0
LINE
  5
3F95
330
A
100
AcDbEntity
  8
MODEL
  6
Continuous
100
AcDbLine
 10
99.825140799324
 20
381.693362140126
 30
0.0
 11
99.82514082746837
 21
380.8660205899481
 31
0.0
  0
LINE
  5
3F96
330
A
100
AcDbEntity
  8
MODEL
  6
Continuous
100
AcDbLine
 10
101.825140799324
 20
381.6933625128698
 30
0.0
 11
101.8251408274684
 21
380.8660209626918
 31
0.0
  0
ELLIPSE
  5
3F97
330
A
100
AcDbEntity
  8
MODEL
  6
Continuous
100
AcDbEllipse
 10
103.5224523135925
 20
374.6066618365646
 30
0.0
 11
1.000000000000033
 21
3.401779162790065E-8
 31
0.0
210
0.0
220
0.0
230
1.0
 40
0.9612206336707241
 41
0.0
 42
6.283185307179586
  0
LINE
  5
3F98
330
A
100
AcDbEntity
  8
MODEL
  6
Continuous
100
AcDbLine
 10
102.5224522854481
 20
375.4340032003706
 30
0.0
 11
102.5224523135925
 21
374.6066616501927
 31
0.0
  0
LINE
  5
3F99
330
A
100
AcDbEntity
  8
MODEL
  6
Continuous
100
AcDbLine
 10
104.5224522854481
 20
375.4340035731144
 30
0.0
 11
104.5224523135925
 21
374.6066620229365
 31
0.0
  0
ELLIPSE
  5
3F9A
330
A
100
AcDbEntity
  8
MODEL
  6
Continuous
100
AcDbEllipse
 10
107.8132551911443
 20
369.2316284882443
 30
0.0
 11
1.000000000000033
 21
3.401779439560271E-8
 31
0.0
210
0.0
220
0.0
230
1.0
 40
0.9612206336707236
 41
0.0
 42
6.283185307179586
  0
LINE
  5
3F9B
330
A
100
AcDbEntity
  8
MODEL
  6
Continuous
100
AcDbLine
 10
106.813255163
 20
370.0589698520504
 30
0.0
 11
106.8132551911444
 21
369.2316283018724
 31
0.0
  0
LINE
  5
3F9C
330
A
100
AcDbEntity
  8
MODEL
  6
Continuous
100
AcDbLine
 10
108.813255163
 20
370.0589702247942
 30
0.0
 11
108.8132551911444
 21
369.2316286746162
 31
0.0
  0
ELLIPSE
  5
3F9D
330
A
100
AcDbEntity
  8
MODEL
  6
Continuous
100
AcDbEllipse
 10
113.4051383349057
 20
365.1072203713846
 30
0.0
 11
1.000000000000033
 21
3.401779852199492E-8
 31
0.0
210
0.0
220
0.0
230
1.0
 40
0.9612206336707234
 41
0.0
 42
6.283185307179586
  0
LINE
  5
3F9E
330
A
100
AcDbEntity
  8
MODEL
  6
Continuous
100
AcDbLine
 10
112.4051383067614
 20
365.9345617351906
 30
0.0
 11
112.4051383349058
 21
365.1072201850126
 31
0.0
  0
LINE
  5
3F9F
330
A
100
AcDbEntity
  8
MODEL
  6
Continuous
100
AcDbLine
 10
114.4051383067614
 20
365.9345621079344
 30
0.0
 11
114.4051383349058
 21
365.1072205577564
 31
0.0
  0
ELLIPSE
  5
3FA0
330
A
100
AcDbEntity
  8
MODEL
  6
Continuous
100
AcDbEllipse
 10
119.9170241496531
 20
362.5145090832427
 30
0.0
 11
1.000000000000033
 21
3.401780320192765E-8
 31
0.0
210
0.0
220
0.0
230
1.0
 40
0.9612206336707233
 41
0.0
 42
6.283185307179586
  0
LINE
  5
3FA1
330
A
100
AcDbEntity
  8
MODEL
  6
Continuous
100
AcDbLine
 10
118.9170241215087
 20
363.3418504470487
 30
0.0
 11
118.9170241496531
 21
362.5145088968708
 31
0.0
  0
LINE
  5
3FA2
330
A
100
AcDbEntity
  8
MODEL
  6
Continuous
100
AcDbLine
 10
120.9170241215087
 20
363.3418508197925
 30
0.0
 11
120.9170241496531
 21
362.5145092696146
 31
0.0
  0
ELLIPSE
  5
3FA3
330
A
100
AcDbEntity
  8
MODEL
  6
Continuous
100
AcDbEllipse
 10
126.9051383785115
 20
361.6301836134475
 30
0.0
 11
1.000000000000033
 21
3.401780820059446E-8
 31
0.0
210
0.0
220
0.0
230
1.0
 40
0.9612206336707233
 41
0.0
 42
6.283185307179586
  0
LINE
  5
3FA4
330
A
100
AcDbEntity
  8
MODEL
  6
Continuous
100
AcDbLine
 10
125.9051383503673
 20
362.4575249772535
 30
0.0
 11
125.9051383785117
 21
361.6301834270756
 31
0.0
  0
LINE
  5
3FA5
330
A
100
AcDbEntity
  8
MODEL
  6
Continuous
100
AcDbLine
 10
127.9051383503673
 20
362.4575253499973
 30
0.0
 11
127.9051383785117
 21
361.6301837998193
 31
0.0
  0
ELLIPSE
  5
3FA6
330
A
100
AcDbEntity
  8
MODEL
  6
Continuous
100
AcDbEllipse
 10
133.8932525851893
 20
362.5145092813486
 30
0.0
 11
1.000000000000033
 21
3.401781326629902E-8
 31
0.0
210
0.0
220
0.0
230
1.0
 40
0.9612206336707232
 41
0.0
 42
6.283185307179586
  0
LINE
  5
3FA7
330
A
100
AcDbEntity
  8
MODEL
  6
Continuous
100
AcDbLine
 10
132.8932525570449
 20
363.3418506451547
 30
0.0
 11
132.8932525851893
 21
362.5145090949767
 31
0.0
  0
LINE
  5
3FA8
330
A
100
AcDbEntity
  8
MODEL
  6
Continuous
100
AcDbLine
 10
134.8932525570449
 20
363.3418510178985
 30
0.0
 11
134.8932525851893
 21
362.5145094677205
 31
0.0
  0
ELLIPSE
  5
3FA9
330
A
100
AcDbEntity
  8
MODEL
  6
Continuous
100
AcDbEllipse
 10
140.4051383349058
 20
365.1072207540959
 30
0.0
 11
1.000000000000033
 21
3.401781809719742E-8
 31
0.0
210
0.0
220
0.0
230
1.0
 40
0.9612206336707234
 41
0.0
 42
6.283185307179586
  0
LINE
  5
3FAA
330
A
100
AcDbEntity
  8
MODEL
  6
Continuous
100
AcDbLine
 10
139.4051383067615
 20
365.934562117902
 30
0.0
 11
139.4051383349059
 21
365.107220567724
 31
0.0
  0
LINE
  5
3FAB
330
A
100
AcDbEntity
  8
MODEL
  6
Continuous
100
AcDbLine
 10
141.4051383067615
 20
365.9345624906458
 30
0.0
 11
141.4051383349059
 21
365.1072209404678
 31
0.0
  0
ELLIPSE
  5
3FAC
330
A
100
AcDbEntity
  8
MODEL
  6
Continuous
100
AcDbEllipse
 10
145.9970213752181
 20
369.2316290294799
 30
0.0
 11
1.000000000000033
 21
3.401782217326791E-8
 31
0.0
210
0.0
220
0.0
230
1.0
 40
0.9612206336707236
 41
0.0
 42
6.283185307179586
  0
LINE
  5
3FAD
330
A
100
AcDbEntity
  8
MODEL
  6
Continuous
100
AcDbLine
 10
144.9970213470738
 20
370.058970393286
 30
0.0
 11
144.9970213752181
 21
369.231628843108
 31
0.0
  0
LINE
  5
3FAE
330
A
100
AcDbEntity
  8
MODEL
  6
Continuous
100
AcDbLine
 10
146.9970213470738
 20
370.0589707660297
 30
0.0
 11
146.9970213752181
 21
369.2316292158518
 31
0.0
  0
ELLIPSE
  5
3FAF
330
A
100
AcDbEntity
  8
MODEL
  6
Continuous
100
AcDbEllipse
 10
150.2878241179524
 20
374.6066624994401
 30
0.0
 11
1.000000000000033
 21
3.401782554483241E-8
 31
0.0
210
0.0
220
0.0
230
1.0
 40
0.9612206336707239
 41
0.0
 42
6.283185307179586
  0
LINE
  5
3FB0
330
A
100
AcDbEntity
  8
MODEL
  6
Continuous
100
AcDbLine
 10
149.2878240898081
 20
375.4340038632461
 30
0.0
 11
149.2878241179524
 21
374.6066623130682
 31
0.0
  0
LINE
  5
3FB1
330
A
100
AcDbEntity
  8
MODEL
  6
Continuous
100
AcDbLine
 10
151.2878240898081
 20
375.4340042359899
 30
0.0
 11
151.2878241179524
 21
374.606662685812
 31
0.0
  0
ELLIPSE
  5
3FB2
330
A
100
AcDbEntity
  8
MODEL
  6
Continuous
100
AcDbEllipse
 10
152.9851354470783
 20
380.8660215156615
 30
0.0
 11
1.000000000000033
 21
3.401782730609749E-8
 31
0.0
210
0.0
220
0.0
230
1.0
 40
0.9612206336707243
 41
0.0
 42
6.283185307179586
  0
LINE
  5
3FB3
330
A
100
AcDbEntity
  8
MODEL
  6
Continuous
100
AcDbLine
 10
151.985135418934
 20
381.6933628794675
 30
0.0
 11
151.9851354470783
 21
380.8660213292896
 31
0.0
  0
LINE
  5
3FB4
330
A
100
AcDbEntity
  8
MODEL
  6
Continuous
100
AcDbLine
 10
153.985135418934
 20
381.6933632522113
 30
0.0
 11
153.9851354470783
 21
380.8660217020334
 31
0.0
  0
LINE
  5
3FB5
330
A
100
AcDbEntity
  8
MODEL
  6
Continuous
100
AcDbLine
 10
152.9051380248891
 20
388.410482641272
 30
0.0
 11
152.9051380530334
 21
387.583141091094
 31
0.0
  0
ELLIPSE
  5
3FB6
330
A
100
AcDbEntity
  8
MODEL
  6
Continuous
100
AcDbEllipse
 10
153.9051380530334
 20
387.5831411052685
 30
0.0
 11
1.000000000000033
 21
3.401782813440928E-8
 31
0.0
210
0.0
220
0.0
230
1.0
 40
0.9612206336707247
 41
0.0
 42
6.283185307179586
  0
LINE
  5
3FB7
330
A
100
AcDbEntity
  8
MODEL
  6
Continuous
100
AcDbLine
 10
154.9051380248891
 20
388.4104828418184
 30
0.0
 11
154.9051380530335
 21
387.5831412916404
 31
0.0
  0
ELLIPSE
  5
3FB8
330
A
100
AcDbEntity
  8
MODEL
  6
Continuous
100
AcDbEllipse
 10
152.9851352785984
 20
394.3002606687944
 30
0.0
 11
1.000000000000033
 21
3.401782780931630E-8
 31
0.0
210
0.0
220
0.0
230
1.0
 40
0.9612206336707252
 41
0.0
 42
6.283185307179586
  0
LINE
  5
3FB9
330
A
100
AcDbEntity
  8
MODEL
  6
Continuous
100
AcDbLine
 10
153.9851352504539
 20
395.1276024053442
 30
0.0
 11
153.9851352785983
 21
394.3002608551663
 31
0.0
  0
LINE
  5
3FBA
330
A
100
AcDbEntity
  8
MODEL
  6
Continuous
100
AcDbLine
 10
151.9851352504539
 20
395.1276020326005
 30
0.0
 11
151.9851352785983
 21
394.3002604824225
 31
0.0
  0
ELLIPSE
  5
3FBB
330
A
100
AcDbEntity
  8
MODEL
  6
Continuous
100
AcDbEllipse
 10
150.2878237924742
 20
400.5596196085498
 30
0.0
 11
1.000000000000033
 21
3.401782619901695E-8
 31
0.0
210
0.0
220
0.0
230
1.0
 40
0.9612206336707254
 41
0.0
 42
6.283185307179586
  0
LINE
  5
3FBC
330
A
100
AcDbEntity
  8
MODEL
  6
Continuous
100
AcDbLine
 10
151.2878237643299
 20
401.3869613450996
 30
0.0
 11
151.2878237924743
 21
400.5596197949217
 31
0.0
  0
LINE
  5
3FBD
330
A
100
AcDbEntity
  8
MODEL
  6
Continuous
100
AcDbLine
 10
149.2878237643299
 20
401.3869609723558
 30
0.0
 11
149.2878237924743
 21
400.5596194221779
 31
0.0
  0
ELLIPSE
  5
3FBE
330
A
100
AcDbEntity
  8
MODEL
  6
Continuous
100
AcDbEllipse
 10
145.9970209149222
 20
405.93465295687
 30
0.0
 11
1.000000000000033
 21
3.401782328034934E-8
 31
0.0
210
0.0
220
0.0
230
1.0
 40
0.9612206336707259
 41
0.0
 42
6.283185307179586
  0
LINE
  5
3FBF
330
A
100
AcDbEntity
  8
MODEL
  6
Continuous
100
AcDbLine
 10
146.997020886778
 20
406.7619946934199
 30
0.0
 11
146.9970209149224
 21
405.9346531432419
 31
0.0
  0
LINE
  5
3FC0
330
A
100
AcDbEntity
  8
MODEL
  6
Continuous
100
AcDbLine
 10
144.997020886778
 20
406.7619943206761
 30
0.0
 11
144.9970209149224
 21
405.9346527704981
 31
0.0
  0
ELLIPSE
  5
3FC1
330
A
100
AcDbEntity
  8
MODEL
  6
Continuous
100
AcDbEllipse
 10
140.405137771161
 20
410.0590610737298
 30
0.0
 11
1.000000000000033
 21
3.401781900299154E-8
 31
0.0
210
0.0
220
0.0
230
1.0
 40
0.9612206336707261
 41
0.0
 42
6.283185307179586
  0
LINE
  5
3FC2
330
A
100
AcDbEntity
  8
MODEL
  6
Continuous
100
AcDbLine
 10
141.4051377430167
 20
410.8864028102796
 30
0.0
 11
141.405137771161
 21
410.0590612601017
 31
0.0
  0
LINE
  5
3FC3
330
A
100
AcDbEntity
  8
MODEL
  6
Continuous
100
AcDbLine
 10
139.4051377430167
 20
410.8864024375358
 30
0.0
 11
139.405137771161
 21
410.0590608873579
 31
0.0
  0
ELLIPSE
  5
3FC4
330
A
100
AcDbEntity
  8
MODEL
  6
Continuous
100
AcDbEllipse
 10
133.8932519564137
 20
412.6517723618717
 30
0.0
 11
1.000000000000033
 21
3.401781437338068E-8
 31
0.0
210
0.0
220
0.0
230
1.0
 40
0.9612206336707261
 41
0.0
 42
6.283185307179586
  0
LINE
  5
3FC5
330
A
100
AcDbEntity
  8
MODEL
  6
Continuous
100
AcDbLine
 10
134.8932519282693
 20
413.4791140984216
 30
0.0
 11
134.8932519564136
 21
412.6517725482436
 31
0.0
  0
LINE
  5
3FC6
330
A
100
AcDbEntity
  8
MODEL
  6
Continuous
100
AcDbLine
 10
132.8932519282693
 20
413.4791137256778
 30
0.0
 11
132.8932519564136
 21
412.6517721754998
 31
0.0
  0
ELLIPSE
  5
3FC7
330
A
100
AcDbEntity
  8
MODEL
  6
Continuous
100
AcDbEllipse
 10
120.6538032296459
 20
421.6613718001403
 30
0.0
 11
1.000000000000014
 21
3.401781077536658E-8
 31
0.0
210
0.0
220
0.0
230
1.0
 40
0.9612206336707239
 41
0.0
 42
6.283185307179586
  0
LINE
  5
3FC8
330
A
100
AcDbEntity
  8
MODEL
  6
Continuous
100
AcDbLine
 10
121.6538032015015
 20
422.4887135366902
 30
0.0
 11
121.6538032296459
 21
421.6613719865122
 31
0.0
  0
LINE
  5
3FC9
330
A
100
AcDbEntity
  8
MODEL
  6
Continuous
100
AcDbLine
 10
119.6538032015015
 20
422.4887131639464
 30
0.0
 11
119.6538032296459
 21
421.6613716137684
 31
0.0
  0
ELLIPSE
  5
3FCA
330
A
100
AcDbEntity
  8
MODEL
  6
Continuous
100
AcDbEllipse
 10
114.5924124855098
 20
420.1002102587019
 30
0.0
 11
1.000000000000013
 21
3.401781286372369E-8
 31
0.0
210
0.0
220
0.0
230
1.0
 40
0.9612206336707239
 41
0.0
 42
6.283185307179586
  0
LINE
  5
3FCB
330
A
100
AcDbEntity
  8
MODEL
  6
Continuous
100
AcDbLine
 10
115.5924124573656
 20
420.9275519952518
 30
0.0
 11
115.59241248551
 21
420.1002104450739
 31
0.0
  0
LINE
  5
3FCC
330
A
100
AcDbEntity
  8
MODEL
  6
Continuous
100
AcDbLine
 10
113.5924124573656
 20
420.927551622508
 30
0.0
 11
113.59241248551
 21
420.1002100723301
 31
0.0
  0
ELLIPSE
  5
3FCD
330
A
100
AcDbEntity
  8
MODEL
  6
Continuous
100
AcDbEllipse
 10
108.9051376772034
 20
417.5510340138389
 30
0.0
 11
1.000000000000013
 21
3.401781517852913E-8
 31
0.0
210
0.0
220
0.0
230
1.0
 40
0.9612206336707237
 41
0.0
 42
6.283185307179586
  0
LINE
  5
3FCE
330
A
100
AcDbEntity
  8
MODEL
  6
Continuous
100
AcDbLine
 10
109.905137649059
 20
418.3783757503887
 30
0.0
 11
109.9051376772034
 21
417.5510342002107
 31
0.0
  0
LINE
  5
3FCF
330
A
100
AcDbEntity
  8
MODEL
  6
Continuous
100
AcDbLine
 10
107.905137649059
 20
418.3783753776449
 30
0.0
 11
107.9051376772034
 21
417.551033827467
 31
0.0
  0
ELLIPSE
  5
3FD0
330
A
100
AcDbEntity
  8
MODEL
  6
Continuous
100
AcDbEllipse
 10
103.7647837718769
 20
414.0912984958059
 30
0.0
 11
1.000000000000013
 21
3.401781704043789E-8
 31
0.0
210
0.0
220
0.0
230
1.0
 40
0.961220633670724
 41
0.0
 42
6.283185307179586
  0
LINE
  5
3FD1
330
A
100
AcDbEntity
  8
MODEL
  6
Continuous
100
AcDbLine
 10
104.7647837437324
 20
414.9186402323557
 30
0.0
 11
104.7647837718768
 21
414.0912986821778
 31
0.0
  0
LINE
  5
3FD2
330
A
100
AcDbEntity
  8
MODEL
  6
Continuous
100
AcDbLine
 10
102.7647837437324
 20
414.918639859612
 30
0.0
 11
102.7647837718768
 21
414.091298309434
 31
0.0
  0
ELLIPSE
  5
3FD3
330
A
100
AcDbEntity
  8
MODEL
  6
Continuous
100
AcDbEllipse
 10
99.32753782179884
 20
409.8261260176079
 30
0.0
 11
1.000000000000013
 21
3.401781875138109E-8
 31
0.0
210
0.0
220
0.0
230
1.0
 40
0.9612206336707241
 41
0.0
 42
6.283185307179586
  0
LINE
  5
3FD4
330
A
100
AcDbEntity
  8
MODEL
  6
Continuous
100
AcDbLine
 10
100.3275377936545
 20
410.6534677541577
 30
0.0
 11
100.3275378217989
 21
409.8261262039798
 31
0.0
  0
LINE
  5
3FD5
330
A
100
AcDbEntity
  8
MODEL
  6
Continuous
100
AcDbLine
 10
98.32753779365453
 20
410.6534673814139
 30
0.0
 11
98.3275378217989
 21
409.826125831236
 31
0.0
  0
ELLIPSE
  5
3FD6
330
A
100
AcDbEntity
  8
MODEL
  6
Continuous
100
AcDbEllipse
 10
95.72822329980795
 20
404.8851116867133
 30
0.0
 11
1.000000000000013
 21
3.401781970749638E-8
 31
0.0
210
0.0
220
0.0
230
1.0
 40
0.9612206336707243
 41
0.0
 42
6.283185307179586
  0
LINE
  5
3FD7
330
A
100
AcDbEntity
  8
MODEL
  6
Continuous
100
AcDbLine
 10
96.72822327166364
 20
405.7124534232631
 30
0.0
 11
96.72822329980801
 21
404.8851118730852
 31
0.0
  0
LINE
  5
3FD8
330
A
100
AcDbEntity
  8
MODEL
  6
Continuous
100
AcDbLine
 10
94.72822327166364
 20
405.7124530505193
 30
0.0
 11
94.72822329980801
 21
404.8851115003414
 31
0.0
  0
ELLIPSE
  5
3FD9
330
A
100
AcDbEntity
  8
MODEL
  6
Continuous
100
AcDbEllipse
 10
93.07620355631377
 20
399.4183857232927
 30
0.0
 11
1.000000000000013
 21
3.401782101586469E-8
 31
0.0
210
0.0
220
0.0
230
1.0
 40
0.9612206336707243
 41
0.0
 42
6.283185307179586
  0
LINE
  5
3FDA
330
A
100
AcDbEntity
  8
MODEL
  6
Continuous
100
AcDbLine
 10
94.07620352816934
 20
400.2457274598424
 30
0.0
 11
94.07620355631371
 21
399.4183859096645
 31
0.0
  0
LINE
  5
3FDB
330
A
100
AcDbEntity
  8
MODEL
  6
Continuous
100
AcDbLine
 10
92.07620352816934
 20
400.2457270870987
 30
0.0
 11
92.07620355631371
 21
399.4183855369208
 31
0.0
  0
ELLIPSE
  5
3FDC
330
A
100
AcDbEntity
  8
MODEL
  6
Continuous
100
AcDbEllipse
 10
91.45205886923543
 20
393.5920518294475
 30
0.0
 11
1.000000000000013
 21
3.401782179585353E-8
 31
0.0
210
0.0
220
0.0
230
1.0
 40
0.9612206336707245
 41
0.0
 42
6.283185307179586
  0
LINE
  5
3FDD
330
A
100
AcDbEntity
  8
MODEL
  6
Continuous
100
AcDbLine
 10
92.45205884109112
 20
394.4193935659974
 30
0.0
 11
92.45205886923549
 21
393.5920520158194
 31
0.0
  0
LINE
  5
3FDE
330
A
100
AcDbEntity
  8
MODEL
  6
Continuous
100
AcDbLine
 10
90.45205884109112
 20
394.4193931932536
 30
0.0
 11
90.45205886923549
 21
393.5920516430756
 31
0.0
  0
LINE
  5
3FDF
330
A
100
AcDbEntity
  8
MODEL
  6
Continuous
100
AcDbLine
 10
91.90513802488886
 20
388.4104817766278
 30
0.0
 11
91.9051380530332
 21
387.5831402264499
 31
0.0
  0
ELLIPSE
  5
3FE0
330
A
100
AcDbEntity
  8
MODEL
  6
Continuous
100
AcDbEllipse
 10
90.90513805303328
 20
387.5831402122754
 30
0.0
 11
1.000000000000013
 21
3.401782187686134E-8
 31
0.0
210
0.0
220
0.0
230
1.0
 40
0.9612206336707249
 41
0.0
 42
6.283185307179586
  0
LINE
  5
3FE1
330
A
100
AcDbEntity
  8
MODEL
  6
Continuous
100
AcDbLine
 10
89.90513802488886
 20
388.4104815760815
 30
0.0
 11
89.90513805303321
 21
387.5831400259035
 31
0.0
  0
ELLIPSE
  5
3FE2
330
A
100
AcDbEntity
  8
MODEL
  6
Continuous
100
AcDbEllipse
 10
91.452059019952
 20
381.5742286106079
 30
0.0
 11
1.000000000000013
 21
3.401782187133640E-8
 31
0.0
210
0.0
220
0.0
230
1.0
 40
0.9612206336707249
 41
0.0
 42
6.283185307179586
  0
LINE
  5
3FE3
330
A
100
AcDbEntity
  8
MODEL
  6
Continuous
100
AcDbLine
 10
90.45205899180769
 20
382.4015699744139
 30
0.0
 11
90.45205901995206
 21
381.574228424236
 31
0.0
  0
LINE
  5
3FE4
330
A
100
AcDbEntity
  8
MODEL
  6
Continuous
100
AcDbLine
 10
92.45205899180769
 20
382.4015703471577
 30
0.0
 11
92.45205901995206
 21
381.5742287969798
 31
0.0
  0
ELLIPSE
  5
3FE5
330
A
100
AcDbEntity
  8
MODEL
  6
Continuous
100
AcDbEllipse
 10
93.07620385316739
 20
375.7478947628056
 30
0.0
 11
1.000000000000013
 21
3.401782131779605E-8
 31
0.0
210
0.0
220
0.0
230
1.0
 40
0.961220633670725
 41
0.0
 42
6.283185307179586
  0
LINE
  5
3FE6
330
A
100
AcDbEntity
  8
MODEL
  6
Continuous
100
AcDbLine
 10
92.07620382502296
 20
376.5752361266117
 30
0.0
 11
92.07620385316733
 21
375.7478945764338
 31
0.0
  0
LINE
  5
3FE7
330
A
100
AcDbEntity
  8
MODEL
  6
Continuous
100
AcDbLine
 10
94.07620382502296
 20
376.5752364993555
 30
0.0
 11
94.07620385316733
 21
375.7478949491775
 31
0.0
  0
ELLIPSE
  5
3FE8
330
A
100
AcDbEntity
  8
MODEL
  6
Continuous
100
AcDbEllipse
 10
95.7282237337788
 20
370.281168874567
 30
0.0
 11
1.000000000000013
 21
3.401782051264636E-8
 31
0.0
210
0.0
220
0.0
230
1.0
 40
0.9612206336707252
 41
0.0
 42
6.283185307179586
  0
LINE
  5
3FE9
330
A
100
AcDbEntity
  8
MODEL
  6
Continuous
100
AcDbLine
 10
94.7282237056346
 20
371.1085102383731
 30
0.0
 11
94.72822373377898
 21
370.2811686881951
 31
0.0
  0
LINE
  5
3FEA
330
A
100
AcDbEntity
  8
MODEL
  6
Continuous
100
AcDbLine
 10
96.7282237056346
 20
371.1085106111169
 30
0.0
 11
96.72822373377898
 21
370.2811690609389
 31
0.0
  0
ELLIPSE
  5
3FEB
330
A
100
AcDbEntity
  8
MODEL
  6
Continuous
100
AcDbEllipse
 10
99.3275383797012
 20
365.3401546457095
 30
0.0
 11
1.000000000000013
 21
3.401781905331252E-8
 31
0.0
210
0.0
220
0.0
230
1.0
 40
0.9612206336707254
 41
0.0
 42
6.283185307179586
  0
LINE
  5
3FEC
330
A
100
AcDbEntity
  8
MODEL
  6
Continuous
100
AcDbLine
 10
98.32753835155688
 20
366.1674960095156
 30
0.0
 11
98.32753837970125
 21
365.3401544593376
 31
0.0
  0
LINE
  5
3FED
330
A
100
AcDbEntity
  8
MODEL
  6
Continuous
100
AcDbLine
 10
100.3275383515569
 20
366.1674963822593
 30
0.0
 11
100.3275383797013
 21
365.3401548320814
 31
0.0
  0
ELLIPSE
  5
3FEE
330
A
100
AcDbEntity
  8
MODEL
  6
Continuous
100
AcDbEllipse
 10
103.7647844367589
 20
361.0749822933029
 30
0.0
 11
1.000000000000013
 21
3.401781734236943E-8
 31
0.0
210
0.0
220
0.0
230
1.0
 40
0.9612206336707254
 41
0.0
 42
6.283185307179586
  0
LINE
  5
3FEF
330
A
100
AcDbEntity
  8
MODEL
  6
Continuous
100
AcDbLine
 10
102.7647844086146
 20
361.9023236571089
 30
0.0
 11
102.7647844367589
 21
361.0749821069309
 31
0.0
  0
LINE
  5
3FF0
330
A
100
AcDbEntity
  8
MODEL
  6
Continuous
100
AcDbLine
 10
104.7647844086146
 20
361.9023240298527
 30
0.0
 11
104.7647844367589
 21
361.0749824796747
 31
0.0
  0
ELLIPSE
  5
3FF1
330
A
100
AcDbEntity
  8
MODEL
  6
Continuous
100
AcDbEllipse
 10
108.9051384288632
 20
357.6152469209937
 30
0.0
 11
1.000000000000013
 21
3.401781578239191E-8
 31
0.0
210
0.0
220
0.0
230
1.0
 40
0.9612206336707256
 41
0.0
 42
6.283185307179586
  0
LINE
  5
3FF2
330
A
100
AcDbEntity
  8
MODEL
  6
Continuous
100
AcDbLine
 10
107.9051384007188
 20
358.4425882847998
 30
0.0
 11
107.9051384288632
 21
357.6152467346218
 31
0.0
  0
LINE
  5
3FF3
330
A
100
AcDbEntity
  8
MODEL
  6
Continuous
100
AcDbLine
 10
109.9051384007188
 20
358.4425886575436
 30
0.0
 11
109.9051384288632
 21
357.6152471073656
 31
0.0
  0
ELLIPSE
  5
3FF4
330
A
100
AcDbEntity
  8
MODEL
  6
Continuous
100
AcDbEllipse
 10
114.5924133011085
 20
355.0660708373592
 30
0.0
 11
1.000000000000013
 21
3.401781361855208E-8
 31
0.0
210
0.0
220
0.0
230
1.0
 40
0.9612206336707257
 41
0.0
 42
6.283185307179586
  0
LINE
  5
3FF5
330
A
100
AcDbEntity
  8
MODEL
  6
Continuous
100
AcDbLine
 10
113.5924132729641
 20
355.8934122011652
 30
0.0
 11
113.5924133011085
 21
355.0660706509872
 31
0.0
  0
LINE
  5
3FF6
330
A
100
AcDbEntity
  8
MODEL
  6
Continuous
100
AcDbLine
 10
115.5924132729641
 20
355.893412573909
 30
0.0
 11
115.5924133011085
 21
355.066071023731
 31
0.0
  0
ELLIPSE
  5
3FF7
330
A
100
AcDbEntity
  8
MODEL
  6
Continuous
100
AcDbEllipse
 10
120.6538040844018
 20
353.504909467755
 30
0.0
 11
1.000000000000014
 21
3.401781135406852E-8
 31
0.0
210
0.0
220
0.0
230
1.0
 40
0.9612206336707257
 41
0.0
 42
6.283185307179586
  0
LINE
  5
3FF8
330
A
100
AcDbEntity
  8
MODEL
  6
Continuous
100
AcDbLine
 10
119.6538040562574
 20
354.3322508315611
 30
0.0
 11
119.6538040844018
 21
353.5049092813832
 31
0.0
  0
LINE
  5
3FF9
330
A
100
AcDbEntity
  8
MODEL
  6
Continuous
100
AcDbLine
 10
121.6538040562574
 20
354.3322512043049
 30
0.0
 11
121.6538040844018
 21
353.5049096541269
 31
0.0
  0
ELLIPSE
  5
3FFA
330
A
100
AcDbEntity
  8
MODEL
  6
Continuous
100
AcDbEllipse
 10
126.9051384870043
 20
352.979197910411
 30
0.0
 11
1.000000000000013
 21
3.401780905914466E-8
 31
0.0
210
0.0
220
0.0
230
1.0
 40
0.9612206336707257
 41
0.0
 42
6.283185307179586
  0
LINE
  5
3FFB
330
A
100
AcDbEntity
  8
MODEL
  6
Continuous
100
AcDbLine
 10
125.9051384588599
 20
353.806539274217
 30
0.0
 11
125.9051384870043
 21
352.979197724039
 31
0.0
  0
LINE
  5
3FFC
330
A
100
AcDbEntity
  8
MODEL
  6
Continuous
100
AcDbLine
 10
127.9051384588599
 20
353.8065396469608
 30
0.0
 11
127.9051384870043
 21
352.9791980967828
 31
0.0
  0
ELLIPSE
  5
3FFD
330
A
100
AcDbEntity
  8
MODEL
  6
Continuous
100
AcDbEllipse
 10
133.1564728764209
 20
353.504909644974
 30
0.0
 11
1.000000000000014
 21
3.401780672445764E-8
 31
0.0
210
0.0
220
0.0
230
1.0
 40
0.9612206336707257
 41
0.0
 42
6.283185307179586
  0
LINE
  5
3FFE
330
A
100
AcDbEntity
  8
MODEL
  6
Continuous
100
AcDbLine
 10
132.1564728482765
 20
354.33225100878
 30
0.0
 11
132.1564728764209
 21
353.5049094586021
 31
0.0
  0
LINE
  5
3FFF
330
A
100
AcDbEntity
  8
MODEL
  6
Continuous
100
AcDbLine
 10
134.1564728482765
 20
354.3322513815238
 30
0.0
 11
134.1564728764209
 21
353.5049098313459
 31
0.0
  0
ELLIPSE
  5
4000
330
A
100
AcDbEntity
  8
MODEL
  6
Continuous
100
AcDbEllipse
 10
139.2178636205568
 20
355.0660711864124
 30
0.0
 11
1.000000000000013
 21
3.401780445997404E-8
 31
0.0
210
0.0
220
0.0
230
1.0
 40
0.9612206336707256
 41
0.0
 42
6.283185307179586
  0
LINE
  5
4001
330
A
100
AcDbEntity
  8
MODEL
  6
Continuous
100
AcDbLine
 10
138.2178635924125
 20
355.8934125502184
 30
0.0
 11
138.2178636205569
 21
355.0660710000405
 31
0.0
  0
LINE
  5
4002
330
A
100
AcDbEntity
  8
MODEL
  6
Continuous
100
AcDbLine
 10
140.2178635924125
 20
355.8934129229622
 30
0.0
 11
140.2178636205569
 21
355.0660713727843
 31
0.0
  0
ELLIPSE
  5
4003
330
A
100
AcDbEntity
  8
MODEL
  6
Continuous
100
AcDbEllipse
 10
144.9051384288633
 20
357.6152474312755
 30
0.0
 11
1.000000000000013
 21
3.401780239677784E-8
 31
0.0
210
0.0
220
0.0
230
1.0
 40
0.9612206336707255
 41
0.0
 42
6.283185307179586
  0
LINE
  5
4004
330
A
100
AcDbEntity
  8
MODEL
  6
Continuous
100
AcDbLine
 10
143.905138400719
 20
358.4425887950816
 30
0.0
 11
143.9051384288634
 21
357.6152472449036
 31
0.0
  0
LINE
  5
4005
330
A
100
AcDbEntity
  8
MODEL
  6
Continuous
100
AcDbLine
 10
145.905138400719
 20
358.4425891678254
 30
0.0
 11
145.9051384288634
 21
357.6152476176474
 31
0.0
  0
ELLIPSE
  5
4006
330
A
100
AcDbEntity
  8
MODEL
  6
Continuous
100
AcDbEllipse
 10
150.0454923341899
 20
361.0749829493084
 30
0.0
 11
1.000000000000013
 21
3.401780053486910E-8
 31
0.0
210
0.0
220
0.0
230
1.0
 40
0.9612206336707254
 41
0.0
 42
6.283185307179586
  0
LINE
  5
4007
330
A
100
AcDbEntity
  8
MODEL
  6
Continuous
100
AcDbLine
 10
149.0454923060455
 20
361.9023243131145
 30
0.0
 11
149.0454923341899
 21
361.0749827629365
 31
0.0
  0
LINE
  5
4008
330
A
100
AcDbEntity
  8
MODEL
  6
Continuous
100
AcDbLine
 10
151.0454923060455
 20
361.9023246858583
 30
0.0
 11
151.0454923341899
 21
361.0749831356803
 31
0.0
  0
ELLIPSE
  5
4009
330
A
100
AcDbEntity
  8
MODEL
  6
Continuous
100
AcDbEllipse
 10
154.4827382842678
 20
365.3401554275065
 30
0.0
 11
1.000000000000013
 21
3.401779882392596E-8
 31
0.0
210
0.0
220
0.0
230
1.0
 40
0.9612206336707254
 41
0.0
 42
6.283185307179586
  0
LINE
  5
400A
330
A
100
AcDbEntity
  8
MODEL
  6
Continuous
100
AcDbLine
 10
153.4827382561234
 20
366.1674967913126
 30
0.0
 11
153.4827382842678
 21
365.3401552411346
 31
0.0
  0
LINE
  5
400B
330
A
100
AcDbEntity
  8
MODEL
  6
Continuous
100
AcDbLine
 10
155.4827382561234
 20
366.1674971640564
 30
0.0
 11
155.4827382842678
 21
365.3401556138785
 31
0.0
  0
ELLIPSE
  5
400C
330
A
100
AcDbEntity
  8
MODEL
  6
Continuous
100
AcDbEllipse
 10
158.0820528062587
 20
370.2811697584011
 30
0.0
 11
1.000000000000013
 21
3.401779741491388E-8
 31
0.0
210
0.0
220
0.0
230
1.0
 40
0.9612206336707253
 41
0.0
 42
6.283185307179586
  0
LINE
  5
400D
330
A
100
AcDbEntity
  8
MODEL
  6
Continuous
100
AcDbLine
 10
157.0820527781144
 20
371.1085111222071
 30
0.0
 11
157.0820528062588
 21
370.2811695720291
 31
0.0
  0
LINE
  5
400E
330
A
100
AcDbEntity
  8
MODEL
  6
Continuous
100
AcDbLine
 10
159.0820527781144
 20
371.1085114949509
 30
0.0
 11
159.0820528062588
 21
370.281169944773
 31
0.0
  0
ELLIPSE
  5
400F
330
A
100
AcDbEntity
  8
MODEL
  6
Continuous
100
AcDbEllipse
 10
160.734072549753
 20
375.7478957218217
 30
0.0
 11
1.000000000000013
 21
3.401779650912044E-8
 31
0.0
210
0.0
220
0.0
230
1.0
 40
0.9612206336707251
 41
0.0
 42
6.283185307179586
  0
LINE
  5
4010
330
A
100
AcDbEntity
  8
MODEL
  6
Continuous
100
AcDbLine
 10
159.7340725216086
 20
376.5752370856277
 30
0.0
 11
159.734072549753
 21
375.7478955354498
 31
0.0
  0
LINE
  5
4011
330
A
100
AcDbEntity
  8
MODEL
  6
Continuous
100
AcDbLine
 10
161.7340725216086
 20
376.5752374583716
 30
0.0
 11
161.734072549753
 21
375.7478959081936
 31
0.0
  0
ELLIPSE
  5
4012
330
A
100
AcDbEntity
  8
MODEL
  6
Continuous
100
AcDbEllipse
 10
162.3582172368313
 20
381.5742296156668
 30
0.0
 11
1.000000000000013
 21
3.401779575429249E-8
 31
0.0
210
0.0
220
0.0
230
1.0
 40
0.961220633670725
 41
0.0
 42
6.283185307179586
  0
LINE
  5
4013
330
A
100
AcDbEntity
  8
MODEL
  6
Continuous
100
AcDbLine
 10
161.3582172086869
 20
382.4015709794728
 30
0.0
 11
161.3582172368313
 21
381.5742294292949
 31
0.0
  0
LINE
  5
4014
330
A
100
AcDbEntity
  8
MODEL
  6
Continuous
100
AcDbLine
 10
163.3582172086869
 20
382.4015713522166
 30
0.0
 11
163.3582172368313
 21
381.5742298020387
 31
0.0
  0
LINE
  5
4015
330
A
100
AcDbEntity
  8
MODEL
  6
Continuous
100
AcDbLine
 10
161.9051380248891
 20
388.4104827688424
 30
0.0
 11
161.9051380530334
 21
387.5831412186645
 31
0.0
  0
ELLIPSE
  5
4016
330
A
100
AcDbEntity
  8
MODEL
  6
Continuous
100
AcDbEllipse
 10
162.9051380530335
 20
387.583141232839
 30
0.0
 11
1.000000000000013
 21
3.401779536099685E-8
 31
0.0
210
0.0
220
0.0
230
1.0
 40
0.9612206336707247
 41
0.0
 42
6.283185307179586
  0
LINE
  5
4017
330
A
100
AcDbEntity
  8
MODEL
  6
Continuous
100
AcDbLine
 10
163.9051380248891
 20
388.4104829693889
 30
0.0
 11
163.9051380530335
 21
387.5831414192109
 31
0.0
  0
ELLIPSE
  5
4018
330
A
100
AcDbEntity
  8
MODEL
  6
Continuous
100
AcDbEllipse
 10
162.3582170861147
 20
393.5920528345065
 30
0.0
 11
1.000000000000013
 21
3.401779572913150E-8
 31
0.0
210
0.0
220
0.0
230
1.0
 40
0.9612206336707246
 41
0.0
 42
6.283185307179586
  0
LINE
  5
4019
330
A
100
AcDbEntity
  8
MODEL
  6
Continuous
100
AcDbLine
 10
163.3582170579704
 20
394.4193945710564
 30
0.0
 11
163.3582170861147
 21
393.5920530208784
 31
0.0
  0
LINE
  5
401A
330
A
100
AcDbEntity
  8
MODEL
  6
Continuous
100
AcDbLine
 10
161.3582170579704
 20
394.4193941983125
 30
0.0
 11
161.3582170861147
 21
393.5920526481346
 31
0.0
  0
ELLIPSE
  5
401B
330
A
100
AcDbEntity
  8
MODEL
  6
Continuous
100
AcDbEllipse
 10
160.7340722528994
 20
399.4183866823087
 30
0.0
 11
1.000000000000013
 21
3.401779615686723E-8
 31
0.0
210
0.0
220
0.0
230
1.0
 40
0.9612206336707244
 41
0.0
 42
6.283185307179586
  0
LINE
  5
401C
330
A
100
AcDbEntity
  8
MODEL
  6
Continuous
100
AcDbLine
 10
161.7340722247551
 20
400.2457284188585
 30
0.0
 11
161.7340722528995
 21
399.4183868686806
 31
0.0
  0
LINE
  5
401D
330
A
100
AcDbEntity
  8
MODEL
  6
Continuous
100
AcDbLine
 10
159.7340722247551
 20
400.2457280461147
 30
0.0
 11
159.7340722528995
 21
399.4183864959368
 31
0.0
  0
ELLIPSE
  5
401E
330
A
100
AcDbEntity
  8
MODEL
  6
Continuous
100
AcDbEllipse
 10
158.0820523722878
 20
404.8851125705473
 30
0.0
 11
1.000000000000013
 21
3.401779736459176E-8
 31
0.0
210
0.0
220
0.0
230
1.0
 40
0.9612206336707243
 41
0.0
 42
6.283185307179586
  0
LINE
  5
401F
330
A
100
AcDbEntity
  8
MODEL
  6
Continuous
100
AcDbLine
 10
159.0820523441434
 20
405.7124543070971
 30
0.0
 11
159.0820523722878
 21
404.8851127569192
 31
0.0
  0
LINE
  5
4020
330
A
100
AcDbEntity
  8
MODEL
  6
Continuous
100
AcDbLine
 10
157.0820523441434
 20
405.7124539343533
 30
0.0
 11
157.0820523722878
 21
404.8851123841754
 31
0.0
  0
ELLIPSE
  5
4021
330
A
100
AcDbEntity
  8
MODEL
  6
Continuous
100
AcDbEllipse
 10
154.4827377263655
 20
409.8261267994049
 30
0.0
 11
1.000000000000013
 21
3.401779832070702E-8
 31
0.0
210
0.0
220
0.0
230
1.0
 40
0.9612206336707242
 41
0.0
 42
6.283185307179586
  0
LINE
  5
4022
330
A
100
AcDbEntity
  8
MODEL
  6
Continuous
100
AcDbLine
 10
155.4827376982212
 20
410.6534685359547
 30
0.0
 11
155.4827377263655
 21
409.8261269857767
 31
0.0
  0
LINE
  5
4023
330
A
100
AcDbEntity
  8
MODEL
  6
Continuous
100
AcDbLine
 10
153.4827376982212
 20
410.6534681632109
 30
0.0
 11
153.4827377263655
 21
409.826126613033
 31
0.0
  0
ELLIPSE
  5
4024
330
A
100
AcDbEntity
  8
MODEL
  6
Continuous
100
AcDbEllipse
 10
150.0454916693078
 20
414.0912991518115
 30
0.0
 11
1.000000000000013
 21
3.401779993100639E-8
 31
0.0
210
0.0
220
0.0
230
1.0
 40
0.9612206336707239
 41
0.0
 42
6.283185307179586
  0
LINE
  5
4025
330
A
100
AcDbEntity
  8
MODEL
  6
Continuous
100
AcDbLine
 10
151.0454916411635
 20
414.9186408883613
 30
0.0
 11
151.0454916693079
 21
414.0912993381834
 31
0.0
  0
LINE
  5
4026
330
A
100
AcDbEntity
  8
MODEL
  6
Continuous
100
AcDbLine
 10
149.0454916411635
 20
414.9186405156175
 30
0.0
 11
149.0454916693079
 21
414.0912989654396
 31
0.0
  0
ELLIPSE
  5
4027
330
A
100
AcDbEntity
  8
MODEL
  6
Continuous
100
AcDbEllipse
 10
144.9051376772036
 20
417.5510345241206
 30
0.0
 11
1.000000000000013
 21
3.401780169227141E-8
 31
0.0
210
0.0
220
0.0
230
1.0
 40
0.9612206336707239
 41
0.0
 42
6.283185307179586
  0
LINE
  5
4028
330
A
100
AcDbEntity
  8
MODEL
  6
Continuous
100
AcDbLine
 10
145.9051376490592
 20
418.3783762606704
 30
0.0
 11
145.9051376772035
 21
417.5510347104925
 31
0.0
  0
LINE
  5
4029
330
A
100
AcDbEntity
  8
MODEL
  6
Continuous
100
AcDbLine
 10
143.9051376490592
 20
418.3783758879267
 30
0.0
 11
143.9051376772035
 21
417.5510343377487
 31
0.0
  0
ELLIPSE
  5
402A
330
A
100
AcDbEntity
  8
MODEL
  6
Continuous
100
AcDbEllipse
 10
139.2178628049583
 20
420.1002106077552
 30
0.0
 11
1.000000000000013
 21
3.401780395675493E-8
 31
0.0
210
0.0
220
0.0
230
1.0
 40
0.9612206336707237
 41
0.0
 42
6.283185307179586
  0
LINE
  5
402B
330
A
100
AcDbEntity
  8
MODEL
  6
Continuous
100
AcDbLine
 10
140.2178627768138
 20
420.9275523443051
 30
0.0
 11
140.2178628049582
 21
420.1002107941271
 31
0.0
  0
LINE
  5
402C
330
A
100
AcDbEntity
  8
MODEL
  6
Continuous
100
AcDbLine
 10
138.2178627768138
 20
420.9275519715612
 30
0.0
 11
138.2178628049582
 21
420.1002104213833
 31
0.0
  0
ELLIPSE
  5
402D
330
A
100
AcDbEntity
  8
MODEL
  6
Continuous
100
AcDbEllipse
 10
133.156472021665
 20
421.6613719773594
 30
0.0
 11
1.000000000000014
 21
3.401780612059476E-8
 31
0.0
210
0.0
220
0.0
230
1.0
 40
0.9612206336707237
 41
0.0
 42
6.283185307179586
  0
LINE
  5
402E
330
A
100
AcDbEntity
  8
MODEL
  6
Continuous
100
AcDbLine
 10
134.1564719935205
 20
422.4887137139091
 30
0.0
 11
134.1564720216649
 21
421.6613721637312
 31
0.0
  0
LINE
  5
402F
330
A
100
AcDbEntity
  8
MODEL
  6
Continuous
100
AcDbLine
 10
132.1564719935205
 20
422.4887133411654
 30
0.0
 11
132.1564720216649
 21
421.6613717909874
 31
0.0
  0
LINE
  5
4030
330
A
100
AcDbEntity
  8
MODEL
  6
Continuous
100
AcDbLine
 10
116.4276385413545
 20
201.4049333673506
 30
0.0
 11
126.9051380833685
 21
201.4049333673506
 31
0.0
  0
LINE
  5
4031
330
A
100
AcDbEntity
  8
MODEL
  6
Continuous
100
AcDbLine
 10
126.9051380833685
 20
201.4049333673506
 30
0.0
 11
137.3826385413545
 21
201.4049333673506
 31
0.0
  0
LINE
  5
4032
330
A
100
AcDbEntity
  8
MODEL
  6
Continuous
100
AcDbLine
 10
117.4276385413545
 20
200.4049333673506
 30
0.0
 11
126.9051381270798
 21
200.4049333673506
 31
0.0
  0
LINE
  5
4033
330
A
100
AcDbEntity
  8
MODEL
  6
Continuous
100
AcDbLine
 10
126.9051381270798
 20
200.4049333673506
 30
0.0
 11
136.3826385413545
 21
200.4049333673506
 31
0.0
  0
LINE
  5
4034
330
A
100
AcDbEntity
  8
MODEL
  6
Continuous
100
AcDbLine
 10
137.3826385413545
 20
201.4049333673506
 30
0.0
 11
136.3826385413545
 21
200.4049333673506
 31
0.0
  0
LINE
  5
4035
330
A
100
AcDbEntity
  8
MODEL
  6
Continuous
100
AcDbLine
 10
116.4276385413546
 20
201.4049333673506
 30
0.0
 11
117.4276385413546
 21
200.4049333673506
 31
0.0
  0
LINE
  5
4036
330
A
100
AcDbEntity
  8
MODEL
  6
Continuous
100
AcDbLine
 10
137.3826385413545
 20
201.4049333673506
 30
0.0
 11
137.3826385413545
 21
209.9049333673506
 31
0.0
  0
LINE
  5
4037
330
A
100
AcDbEntity
  8
MODEL
  6
Continuous
100
AcDbLine
 10
116.4276385413546
 20
201.4049333673506
 30
0.0
 11
116.4276385413546
 21
209.9049333673506
 31
0.0
  0
LINE
  5
4038
330
A
100
AcDbEntity
  8
MODEL
  6
Continuous
100
AcDbLine
 10
136.2206383317246
 20
200.4049333673506
 30
0.0
 11
136.2206383317246
 21
209.9049333673506
 31
0.0
  0
LINE
  5
4039
330
A
100
AcDbEntity
  8
MODEL
  6
Continuous
100
AcDbLine
 10
117.5896383317245
 20
200.4049333673506
 30
0.0
 11
117.5896383317245
 21
209.9049333673506
 31
0.0
  0
LINE
  5
403A
330
A
100
AcDbEntity
  8
MODEL
  6
Continuous
100
AcDbLine
 10
76.90513776258035
 20
391.5914364404686
 30
0.0
 11
76.90513668359768
 21
388.5353524948438
 31
0.0
  0
LINE
  5
403B
330
A
100
AcDbEntity
  8
MODEL
  6
Continuous
100
AcDbLine
 10
176.9051373539963
 20
388.5353524309062
 30
0.0
 11
176.9051378634134
 21
391.591437136135
 31
0.0
  0
LINE
  5
403C
330
A
100
AcDbEntity
  8
MODEL
  6
Continuous
100
AcDbLine
 10
114.9051382345009
 20
314.5749735812722
 30
0.0
 11
114.9048990594061
 21
314.4965337912104
 31
0.0
  0
LINE
  5
403D
330
A
100
AcDbEntity
  8
MODEL
  6
Continuous
100
AcDbLine
 10
138.9053774127489
 20
314.496532915068
 30
0.0
 11
138.905138234485
 21
314.5748864014218
 31
0.0
  0
ELLIPSE
  5
403E
330
A
100
AcDbEntity
  8
MODEL
  6
Continuous
100
AcDbEllipse
 10
126.905138029604
 20
388.2718758078391
 30
0.0
 11
40.99999999999999
 21
1.394730159671941E-6
 31
0.0
210
0.0
220
0.0
230
1.0
 40
0.9612206336707249
 41
0.0000001431980523
 42
1.570796306151028
  0
ELLIPSE
  5
403F
330
A
100
AcDbEntity
  8
MODEL
  6
Continuous
100
AcDbEllipse
 10
126.905138029604
 20
388.2718758078391
 30
0.0
 11
40.99999999999999
 21
1.394730159671941E-6
 31
0.0
210
0.0
220
0.0
230
1.0
 40
0.9612206336707249
 41
1.570796306151028
 42
3.141592812090976
  0
ELLIPSE
  5
4040
330
A
100
AcDbEntity
  8
MODEL
  6
Continuous
100
AcDbEllipse
 10
126.905138029604
 20
388.2718758078391
 30
0.0
 11
41.99999999999996
 21
1.428747968444429E-6
 31
0.0
210
0.0
220
0.0
230
1.0
 40
0.9612206336707249
 41
3.143619952841194
 42
6.281157927638694
  0
LWPOLYLINE
  5
4041
330
A
100
AcDbEntity
  8
MODEL
  6
Continuous
100
AcDbPolyline
 90
       27
 70
     0
 43
0.0
 10
85.90513791280955
 20
388.1809114557295
 10
85.97998227316111
 20
385.7980379205732
 10
86.20421017843455
 20
383.4225191217451
 10
86.57689084249705
 20
381.063357744792
 10
87.0967272682783
 20
378.7290681940107
 10
87.76182736593455
 20
376.4281953912763
 10
88.56973447042674
 20
374.1692537408857
 10
89.5174807472822
 20
371.9606050592451
 10
90.60183896261424
 20
369.8104585748701
 10
91.81853665548533
 20
367.7265657526045
 10
93.16297330099314
 20
365.7165865045576
 10
94.63051022726268
 20
363.7881197076826
 10
96.21594418722361
 20
361.9483980279951
 10
97.9133776589033
 20
360.204226885417
 10
99.71656979757518
 20
358.5621065240888
 10
101.6189745827314
 20
357.028201494792
 10
103.6136950417158
 20
355.6088289361982
 10
105.6934832497236
 20
354.3101533990888
 10
107.8507098122236
 20
353.1367525201826
 10
110.0775011940596
 20
352.092166338542
 10
112.3657244606611
 20
351.1796907526045
 10
114.7069872780439
 20
350.4021944147138
 10
117.0928057594892
 20
349.7622713190107
 10
119.514375583708
 20
349.2619051080732
 10
121.9628924294111
 20
348.902957354167
 10
124.4294909401533
 20
348.6869234186201
 10
126.9051379128096
 20
348.6147493463545
  0
LWPOLYLINE
  5
4042
330
A
100
AcDbEntity
  8
MODEL
  6
Continuous
100
AcDbPolyline
 90
       27
 70
     0
 43
0.0
 10
126.9051379128096
 20
347.655642901042
 10
124.3691271706221
 20
347.7297700983076
 10
121.8423327370283
 20
347.9515108209638
 10
119.3341082497236
 20
348.3197359186201
 10
116.8534716530439
 20
348.832888994792
 10
114.4094714089033
 20
349.4889558893232
 10
112.0110949440596
 20
350.2857393365888
 10
109.6670702858564
 20
351.2205537897138
 10
107.3859728737471
 20
352.2905000787763
 10
105.1761034889814
 20
353.4922212701826
 10
103.0455798073408
 20
354.8219637018232
 10
101.0021838112471
 20
356.2755464654951
 10
99.0533923073408
 20
357.8472017389326
 10
97.20625485616893
 20
359.5296968561201
 10
95.46742428976268
 20
361.3165926080732
 10
93.8433092995283
 20
363.2013887506513
 10
92.33995236593455
 20
365.1770662408857
 10
90.96273984152049
 20
367.236209307292
 10
89.71639432150096
 20
369.3710359674482
 10
88.60560025411814
 20
371.5737642389326
 10
87.63472928243846
 20
373.8363679986982
 10
86.80711545187205
 20
376.1504854303388
 10
86.12578763204783
 20
378.5075410944013
 10
85.5932864113447
 20
380.898806963542
 10
85.21150387960643
 20
383.315555010417
 10
84.98181332784861
 20
385.7490877252607
 10
84.90513791280955
 20
388.1900362115888
  0
LWPOLYLINE
  5
4043
330
A
100
AcDbEntity
  8
MODEL
  6
Continuous
100
AcDbPolyline
 90
       27
 70
     0
 43
0.0
 10
167.9051379128096
 20
388.1809114557295
 10
167.830293552458
 20
385.7980379205732
 10
167.6060656471846
 20
383.4225191217451
 10
167.2333849831221
 20
381.063357744792
 10
166.7135485573408
 20
378.7290681940107
 10
166.0484484596846
 20
376.4281953912763
 10
165.2405413551924
 20
374.1692537408857
 10
164.2927874489424
 20
371.9606050592451
 10
163.2084368630049
 20
369.8104585748701
 10
161.9917315407392
 20
367.7265657526045
 10
160.6473101540205
 20
365.7165865045576
 10
159.1797655983564
 20
363.7881197076826
 10
157.5943316383955
 20
361.9483980279951
 10
155.8968981667158
 20
360.204226885417
 10
154.0937060280439
 20
358.5621065240888
 10
152.1913012428877
 20
357.028201494792
 10
150.1965807839033
 20
355.6088289361982
 10
148.1167925758955
 20
354.3101533990888
 10
145.9595660133955
 20
353.1367525201826
 10
143.7327746315596
 20
352.092166338542
 10
141.444551364958
 20
351.1796907526045
 10
139.1032885475752
 20
350.4021944147138
 10
136.7174700661299
 20
349.7622713190107
 10
134.2959002419111
 20
349.2619051080732
 10
131.847383396208
 20
348.902957354167
 10
129.3807848854658
 20
348.6869234186201
 10
126.9051379128096
 20
348.6147493463545
  0
LWPOLYLINE
  5
4044
330
A
100
AcDbEntity
  8
MODEL
  6
Continuous
100
AcDbPolyline
 90
       27
 70
     0
 43
0.0
 10
126.9051379128096
 20
347.655642901042
 10
129.4411486549971
 20
347.7297700983076
 10
131.9679430885908
 20
347.9515108209638
 10
134.4761675758955
 20
348.3197359186201
 10
136.9568041725752
 20
348.832888994792
 10
139.4008044167158
 20
349.4889558893232
 10
141.7991808815596
 20
350.2857393365888
 10
144.1432055397627
 20
351.2205537897138
 10
146.4243029518721
 20
352.2905000787763
 10
148.6341723366377
 20
353.4922212701826
 10
150.7646960182783
 20
354.8219637018232
 10
152.8080920143721
 20
356.2755464654951
 10
154.7568835182783
 20
357.8472017389326
 10
156.6040209694502
 20
359.5296968561201
 10
158.3428515358564
 20
361.3165926080732
 10
159.9669665260908
 20
363.2013887506513
 10
161.4703234596846
 20
365.1770662408857
 10
162.8475359840986
 20
367.236209307292
 10
164.0938738747236
 20
369.3710359674482
 10
165.2046679421064
 20
371.5737642389326
 10
166.1755389137861
 20
373.8363679986982
 10
167.0031603737471
 20
376.1504854303388
 10
167.6844805641767
 20
378.5075410944013
 10
168.2169970436689
 20
380.898806963542
 10
168.5987719460127
 20
383.315555010417
 10
168.8284624977705
 20
385.7490877252607
 10
168.9051379128096
 20
388.1900362115888
  0
LWPOLYLINE
  5
4045
330
A
100
AcDbEntity
  8
MODEL
  6
Continuous
100
AcDbPolyline
 90
       27
 70
     0
 43
0.0
 10
85.90513791280955
 20
388.1809114557295
 10
85.97989834982127
 20
390.5627168756513
 10
86.2040270729658
 20
392.9352754694013
 10
86.57661618429393
 20
395.289676104167
 10
87.09639920431346
 20
397.6175264459638
 10
87.76143826681346
 20
399.9103426080732
 10
88.56929959493846
 20
402.1598238092451
 10
89.51706875997752
 20
404.3577303033857
 10
90.6015108986494
 20
406.4960359674482
 10
91.81826962667674
 20
408.5671724420576
 10
93.1627673073408
 20
410.5637239557295
 10
94.63040341573924
 20
412.4782747369795
 10
96.21614255148143
 20
414.3036531549482
 10
97.91380490499705
 20
416.0336641412763
 10
99.71701230245799
 20
417.6620821100263
 10
101.6194323464033
 20
419.1828340631513
 10
103.6143664284346
 20
420.5901216608076
 10
105.6942614479658
 20
421.8793062311201
 10
107.8513659401533
 20
423.0458711725263
 10
110.0779894753096
 20
424.085330401042
 10
112.3661211891767
 20
424.9937471490888
 10
114.7073382301924
 20
425.7680391412763
 10
117.0930651589033
 20
426.4054292779951
 10
119.5145281715986
 20
426.9035371881513
 10
121.9629839821455
 20
427.260623369792
 10
124.4296893044111
 20
427.4754366022138
 10
126.9051379128096
 20
427.5471223932295
  0
LWPOLYLINE
  5
4046
330
A
100
AcDbEntity
  8
MODEL
  6
Continuous
100
AcDbPolyline
 90
       27
 70
     0
 43
0.0
 10
126.9051379128096
 20
428.5144380670576
 10
124.3693102760908
 20
428.4410127740888
 10
121.8424395485517
 20
428.2209810358076
 10
119.3342760964033
 20
427.8552278619795
 10
116.8537463112471
 20
427.3450044733076
 10
114.4098223610517
 20
426.6921419244795
 10
112.0115069313642
 20
425.8990205865888
 10
109.6675585671064
 20
424.9685091119795
 10
107.3866290016767
 20
423.9037813287763
 10
105.1769122048017
 20
422.708865557292
 10
103.0462969704267
 20
421.3883394342451
 10
101.0027026100752
 20
419.9468416315107
 10
99.0538805885908
 20
418.3891328912763
 10
97.20669736105174
 20
416.721072588542
 10
95.46762265402049
 20
414.9490083795576
 10
93.84321774679393
 20
413.0791963678388
 10
92.33978451925486
 20
411.1181062799482
 10
90.96249570089549
 20
409.0729707819013
 10
89.71605099874705
 20
406.9514192682295
 10
88.60516537862986
 20
404.7610506158857
 10
87.63427914816111
 20
402.5096162897138
 10
86.8067110939619
 20
400.2053560358076
 10
86.12545193868846
 20
397.8566621881513
 10
85.59299649435252
 20
395.4721101861982
 10
85.21131314474314
 20
393.0603365045576
 10
84.98172177511424
 20
390.6299471002607
 10
84.90513791280955
 20
388.1900362115888
  0
LWPOLYLINE
  5
4047
330
A
100
AcDbEntity
  8
MODEL
  6
Continuous
100
AcDbPolyline
 90
       27
 70
     0
 43
0.0
 10
126.9051379128096
 20
427.5471223932295
 10
129.380586521208
 20
427.4754366022138
 10
131.8472918434736
 20
427.260623369792
 10
134.2957323952314
 20
426.9035371881513
 10
136.7172106667158
 20
426.4054292779951
 10
139.1029375954267
 20
425.7680391412763
 10
141.4441393776533
 20
424.9937471490888
 10
143.7322863503096
 20
424.085330401042
 10
145.9589098854658
 20
423.0458711725263
 10
148.1160143776533
 20
421.8793062311201
 10
150.1959093971846
 20
420.5901216608076
 10
152.1908434792158
 20
419.1828340631513
 10
154.0932635231611
 20
417.6620821100263
 10
155.8964709206221
 20
416.0336641412763
 10
157.5941332741377
 20
414.3036531549482
 10
159.1798724098799
 20
412.4782747369795
 10
160.6475085182783
 20
410.5637239557295
 10
161.9920061989424
 20
408.5671724420576
 10
163.2087725563642
 20
406.4960359674482
 10
164.2931994362471
 20
404.3577303033857
 10
165.2409686012861
 20
402.1598238092451
 10
166.0488451882002
 20
399.9103426080732
 10
166.7138842507002
 20
397.6175264459638
 10
167.2336596413252
 20
395.289676104167
 10
167.6062487526533
 20
392.9352754694013
 10
167.8303851051924
 20
390.5627168756513
 10
167.9051379128096
 20
388.1809114557295
  0
LWPOLYLINE
  5
4048
330
A
100
AcDbEntity
  8
MODEL
  6
Continuous
100
AcDbPolyline
 90
       27
 70
     0
 43
0.0
 10
168.9051379128096
 20
388.1900362115888
 10
168.8285540505049
 20
390.6299471002607
 10
168.5989550514814
 20
393.0603365045576
 10
168.2172869606611
 20
395.4721101861982
 10
167.6848315163252
 20
397.8566621881513
 10
167.0035571022627
 20
400.2053560358076
 10
166.175996677458
 20
402.5096162897138
 10
165.2051104469892
 20
404.7610506158857
 10
164.0942248268721
 20
406.9514192682295
 10
162.8477801247236
 20
409.0729707819013
 10
161.4704913063642
 20
411.1181062799482
 10
159.9670580788252
 20
413.0791963678388
 10
158.3426379128096
 20
414.9490083795576
 10
156.6035784645674
 20
416.721072588542
 10
154.7563952370283
 20
418.3891328912763
 10
152.8075732155439
 20
419.9468416315107
 10
150.7639788551924
 20
421.3883394342451
 10
148.6333636208174
 20
422.708865557292
 10
146.4236315651533
 20
423.9037813287763
 10
144.1427172585127
 20
424.9685091119795
 10
141.7987688942549
 20
425.8990205865888
 10
139.4004534645674
 20
426.6921419244795
 10
136.9565295143721
 20
427.3450044733076
 10
134.4759997292158
 20
427.8552278619795
 10
131.9678362770674
 20
428.2209810358076
 10
129.4409655495283
 20
428.4410127740888
 10
126.9051379128096
 20
428.5144380670576
  0
LWPOLYLINE
  5
4049
330
A
100
AcDbEntity
  8
MODEL
  6
Continuous
100
AcDbPolyline
 90
        6
 70
     0
 43
0.0
 10
113.555147068083
 20
209.9061769586592
 10
113.6132983132002
 20
209.906131182292
 10
113.7867602272627
 20
209.9060701471357
 10
114.0738848610517
 20
209.9060091119795
 10
114.4726580544111
 20
209.9059633356123
 10
114.9794329567549
 20
209.9059175592451
  0
LINE
  5
404A
330
A
100
AcDbEntity
  8
MODEL
  6
Continuous
100
AcDbLine
 10
114.9794304618997
 20
209.905912273311
 30
0.0
 11
126.9051379576988
 21
209.9055851977751
 31
0.0
  0
LINE
  5
404B
330
A
100
AcDbEntity
  8
MODEL
  6
Continuous
100
AcDbLine
 10
126.9051379576987
 20
209.9055851977751
 30
0.0
 11
138.8308460960549
 21
209.9059122733109
 31
0.0
  0
LINE
  5
404C
330
A
100
AcDbEntity
  8
MODEL
  6
Continuous
100
AcDbLine
 10
138.830846096055
 20
209.9059122733109
 30
0.0
 11
140.254776647703
 21
209.9061792739287
 31
0.0
  0
LINE
  5
404D
330
A
100
AcDbEntity
  8
MODEL
  6
Continuous
100
AcDbLine
 10
140.2551384942344
 20
209.9061805073947
 30
0.0
 11
140.2551384939789
 21
216.9394522744948
 31
0.0
  0
LINE
  5
404E
330
A
100
AcDbEntity
  8
MODEL
  6
Continuous
100
AcDbLine
 10
113.555138588257
 20
209.9061805073948
 30
0.0
 11
113.5551385880015
 21
216.9394522744949
 31
0.0
  0
LWPOLYLINE
  5
404F
330
A
100
AcDbEntity
  8
MODEL
  6
Continuous
100
AcDbPolyline
 90
       29
 70
     0
 43
0.0
 10
126.9051379128096
 20
440.1691621881513
 10
124.0864275856611
 20
440.092166338542
 10
121.2768725319502
 20
439.8615450006513
 10
118.4856280251142
 20
439.4777559381513
 10
115.7215899391767
 20
438.9423860651045
 10
112.9936388893721
 20
438.2575410944013
 10
110.3105944557783
 20
437.4252046686201
 10
107.6811846657392
 20
436.4479097467451
 10
105.1138171120283
 20
435.3289522272138
 10
102.6166857643721
 20
434.0720247369795
 10
100.1974963112471
 20
432.6816438776045
 10
97.8638171120283
 20
431.1623872858076
 10
95.6232165260908
 20
429.518924151042
 10
93.48268307882518
 20
427.7565034967451
 10
91.4486559792158
 20
425.8810152154951
 10
89.52752865987986
 20
423.8984712701826
 10
87.72511471945018
 20
421.8152193170576
 10
86.04676999288768
 20
419.6379732233076
 10
84.49777402120799
 20
417.3735078912763
 10
83.08259762960643
 20
415.0289644342451
 10
81.80516995626658
 20
412.6118196588545
 10
80.6693819923994
 20
410.1295503717451
 10
79.67871274191111
 20
407.5897554498701
 10
78.83590878683299
 20
405.0004610162763
 10
78.14342679220408
 20
402.3696016412763
 10
77.60284604269236
 20
399.7051424127607
 10
77.21555508810252
 20
397.015017901042
 10
76.98279751974314
 20
394.3073762994795
 10
76.90513791280955
 20
391.591433916667
  0
LWPOLYLINE
  5
4050
330
A
100
AcDbEntity
  8
MODEL
  6
Continuous
100
AcDbPolyline
 90
       29
 70
     0
 43
0.0
 10
126.9051379128096
 20
440.1691621881513
 10
129.723848239958
 20
440.092166338542
 10
132.5334032936689
 20
439.8615450006513
 10
135.3246478005049
 20
439.4777559381513
 10
138.0886706276533
 20
438.9423860651045
 10
140.8166369362471
 20
438.2575410944013
 10
143.4996813698408
 20
437.4252046686201
 10
146.1290911598799
 20
436.4479097467451
 10
148.6964587135908
 20
435.3289522272138
 10
151.1935900612471
 20
434.0720247369795
 10
153.6127795143721
 20
432.6816438776045
 10
155.9464587135908
 20
431.1623872858076
 10
158.1870592995283
 20
429.518924151042
 10
160.3275927467939
 20
427.7565034967451
 10
162.3616198464033
 20
425.8810152154951
 10
164.2827471657392
 20
423.8984712701826
 10
166.0851611061689
 20
421.8152193170576
 10
167.7635058327314
 20
419.6379732233076
 10
169.3125018044111
 20
417.3735078912763
 10
170.7276781960127
 20
415.0289644342451
 10
172.005098239958
 20
412.6118196588545
 10
173.1408862038252
 20
410.1295503717451
 10
174.131563083708
 20
407.5897554498701
 10
174.9743670387861
 20
405.0004610162763
 10
175.6668566628096
 20
402.3696016412763
 10
176.2074297829267
 20
399.7051424127607
 10
176.5947131081221
 20
397.015017901042
 10
176.8274706764814
 20
394.3073762994795
 10
176.9051379128096
 20
391.591433916667
  0
LWPOLYLINE
  5
4051
330
A
100
AcDbEntity
  8
MODEL
  6
Continuous
100
AcDbPolyline
 90
       41
 70
     0
 43
0.0
 10
76.90513791280955
 20
388.5353426080732
 10
76.95428647237986
 20
386.4171480279951
 10
77.10096158224314
 20
384.302371416667
 10
77.34408749777049
 20
382.1952547174482
 10
77.68251218038768
 20
380.0997652154951
 10
78.11485470968455
 20
378.0197786432295
 10
78.63961972433299
 20
375.9591402154951
 10
79.25524319845408
 20
373.9215425592451
 10
79.96012295919627
 20
371.9106477838545
 10
80.75255002218455
 20
369.9299348932295
 10
81.6307619972822
 20
367.9828828912763
 10
82.5930651589033
 20
366.0729707819013
 10
83.63782681661814
 20
364.2036470514326
 10
84.76302518087596
 20
362.3782075983076
 10
85.96629513937205
 20
360.599734697917
 10
87.2444552345869
 20
358.8707002740888
 10
88.59420193868846
 20
357.193240557292
 10
90.00840176779002
 20
355.5668367486982
 10
91.44944943624705
 20
353.9660066705732
 10
92.90451993185252
 20
352.381472979167
 10
94.36807431417674
 20
350.8088716608076
 10
95.83465756612986
 20
349.243777666667
 10
97.29884518820018
 20
347.6817964654951
 10
98.75508298116893
 20
346.1184114557295
 10
100.1978320046064
 20
344.5493196588545
 10
101.6212176247236
 20
342.9701570611982
 10
103.0192889137861
 20
341.376834307292
 10
104.3849047585127
 20
339.764773760417
 10
105.7061175270674
 20
338.1163057428388
 10
106.9754504128096
 20
336.4194368463545
 10
108.1853808327314
 20
334.6726717096357
 10
109.3276385231611
 20
332.8746065240888
 10
110.3929613991377
 20
331.0244173151045
 10
111.3716143532392
 20
329.121707354167
 10
112.2531298561689
 20
327.1673311334638
 10
113.0265520973799
 20
325.1631197076826
 10
113.6805437965986
 20
323.1123994928388
 10
114.2041949196455
 20
321.0204195123701
 10
114.5879229469892
 20
318.8941377740888
 10
114.8235644264814
 20
316.7420076471357
 10
114.9051379128096
 20
314.5749239069013
  0
LWPOLYLINE
  5
4052
330
A
100
AcDbEntity
  8
MODEL
  6
Continuous
100
AcDbPolyline
 90
       31
 70
     0
 43
0.0
 10
140.2551440163252
 20
216.9394563776045
 10
140.2083453102705
 20
220.2301973444013
 10
140.1616686745283
 20
223.5209688287763
 10
140.1151293678877
 20
226.8117708307295
 10
140.0687273903486
 20
230.1026033502607
 10
140.0224627419111
 20
233.393451128581
 10
139.9763201637861
 20
236.6843141656904
 10
139.9303149147627
 20
239.9751924615888
 10
139.8844622536299
 20
243.2660860162763
 10
139.8387316628096
 20
246.5569795709638
 10
139.7931384010908
 20
249.8478731256513
 10
139.7476977272627
 20
253.1387666803388
 10
139.7023791237471
 20
256.4296297174482
 10
139.657197849333
 20
259.7204622369795
 10
139.6121386452314
 20
263.0112032037763
 10
139.5672167702314
 20
266.3018526178388
 10
139.5224017067549
 20
269.5923494440107
 10
139.4777087135908
 20
272.8826021295576
 10
139.4331225319502
 20
276.1725496393232
 10
139.388643161833
 20
279.4621004205732
 10
139.3442706032392
 20
282.7511324029951
 10
139.3000048561689
 20
286.0395540338545
 10
139.2558154030439
 20
289.3272127252607
 10
139.2117327614424
 20
292.6140169244795
 10
139.1677416725752
 20
295.8999055963545
 10
139.1238268776533
 20
299.1849092584638
 10
139.0800036354658
 20
302.4692110162763
 10
139.0362719460127
 20
305.753543291667
 10
138.992647068083
 20
309.0400117975263
 10
138.9494189186689
 20
312.3283418756513
 10
138.913789646208
 20
315.2591280084638
  0
LWPOLYLINE
  5
4053
330
A
100
AcDbEntity
  8
MODEL
  6
Continuous
100
AcDbPolyline
 90
       41
 70
     0
 43
0.0
 10
176.9051379128096
 20
388.5353426080732
 10
176.8559893532392
 20
386.4171480279951
 10
176.7093218727705
 20
384.3023408990888
 10
176.4661578102705
 20
382.1952852350263
 10
176.1276720924971
 20
380.0998567682295
 10
175.6953143044111
 20
378.019900713542
 10
175.1706103249189
 20
375.9592012506513
 10
174.5550249977705
 20
373.9215425592451
 10
173.8501604958174
 20
371.9106172662763
 10
173.0577410622236
 20
369.9299348932295
 10
172.1795214577314
 20
367.9828828912763
 10
171.2172106667158
 20
366.0729707819013
 10
170.1724566383955
 20
364.2036470514326
 10
169.0472582741377
 20
362.3782075983076
 10
167.8439806862471
 20
360.599734697917
 10
166.5658282204267
 20
358.8707002740888
 10
165.2160815163252
 20
357.193240557292
 10
163.8018664284346
 20
355.5668367486982
 10
162.3608263893721
 20
353.9660371881513
 10
160.9057635231611
 20
352.381472979167
 10
159.4422015114424
 20
350.8088716608076
 10
157.9756182594892
 20
349.243777666667
 10
156.511445896208
 20
347.6817964654951
 10
155.0551928444502
 20
346.1184419733076
 10
153.6124590798017
 20
344.5493196588545
 10
152.1890734596846
 20
342.9701875787763
 10
150.790986911833
 20
341.376834307292
 10
149.4253863258955
 20
339.764773760417
 10
148.1041582985517
 20
338.1163057428388
 10
146.8348254128096
 20
336.4194368463545
 10
145.6248644753096
 20
334.6726411920576
 10
144.4826830788252
 20
332.874637041667
 10
143.4173449440596
 20
331.0244173151045
 10
142.4386462135908
 20
329.1217683893232
 10
141.5570696755049
 20
327.1673006158857
 10
140.7837084694502
 20
325.1631197076826
 10
140.1298083229658
 20
323.112430010417
 10
139.6060198708174
 20
321.0204195123701
 10
139.2222460671064
 20
318.8941377740888
 10
138.9867113991377
 20
316.7421602350263
 10
138.9051379128096
 20
314.5749239069013
  0
LWPOLYLINE
  5
4054
102
{ACAD_REACTORS
102
}
330
A
100
AcDbEntity
  8
MODEL
  6
Continuous
100
AcDbPolyline
 90
       30
 70
     0
 43
0.0
 10
113.5551318092939
 20
216.9394563776045
 10
113.6035479469892
 20
220.3433717828779
 10
113.6518114967939
 20
223.7473177057295
 10
113.6999377174971
 20
227.1512941461592
 10
113.7479266090986
 20
230.555301104167
 10
113.7957629128096
 20
233.9593233209638
 10
113.8434618874189
 20
237.3633760553388
 10
113.8910082741377
 20
240.7674287897138
 10
113.9384173317549
 20
244.171512041667
 10
113.9856738014814
 20
247.575564776042
 10
114.0327776833174
 20
250.9796480279951
 10
114.0797442360517
 20
254.3837007623701
 10
114.1265582008955
 20
257.787722979167
 10
114.1732348366377
 20
261.1916841608076
 10
114.2197894020674
 20
264.5955537897138
 10
114.2662066383955
 20
267.9993013483076
 10
114.3124865456221
 20
271.4028658014326
 10
114.3586596413252
 20
274.8060945611982
 10
114.4047106667158
 20
278.2089571100263
 10
114.4506396217939
 20
281.6113008600263
 10
114.4964617653486
 20
285.0130342584638
 10
114.5421923561689
 20
288.4140047174482
 10
114.5878161354658
 20
291.814090166667
 10
114.6333483620283
 20
295.2131990533857
 10
114.6787890358564
 20
298.6113313776045
 10
114.7241381569502
 20
302.008670244792
 10
114.7693804665205
 20
305.405887041667
 10
114.8145159645674
 20
308.8050264459638
 10
114.8592852516767
 20
312.206912432292
 10
114.8964251442549
 20
315.2532075983076
  0
DIMENSION
  5
4064
102
{ACAD_XDICTIONARY
360
4065
102
}
330
A
100
AcDbEntity
  8
DIM
  6
Continuous
100
AcDbDimension
  2
*D22
 10
336.3483237794525
 20
458.9154317330757
 30
0.0
 11
308.6823069447674
 21
464.4163695847701
 31
0.0
 70
    32
 71
     5
 42
55.33203366937016
 73
     0
 74
     0
 75
     0
  3
tfrom線あり
100
AcDbAlignedDimension
 13
281.0162901100824
 23
296.392331959138
 33
0.0
 14
336.3483237794525
 24
439.4266521716652
 34
0.0
100
AcDbRotatedDimension
  0
DIMENSION
  5
4082
102
{ACAD_XDICTIONARY
360
4083
102
}
330
A
100
AcDbEntity
  8
DIM
  6
Continuous
100
AcDbDimension
  2
*D24
 10
212.9065929660758
 20
440.4049333673506
 30
0.0
 11
207.4056551143814
 21
320.4049333673506
 31
0.0
 70
    32
 71
     5
 42
240.0
 73
     0
 74
     0
 75
     0
  3
tfrom線あり
100
AcDbAlignedDimension
 13
146.9719506071425
 23
200.4049333673506
 33
0.0
 14
146.9719506071423
 24
440.4049333673506
 34
0.0
 50
90.0
100
AcDbRotatedDimension
  0
LINE
  5
4092
330
A
100
AcDbEntity
  8
MODEL
100
AcDbLine
 10
327.6999555574456
 20
397.1953470592647
 30
0.0
 11
327.1703586492276
 21
395.3494607662415
 31
0.0
  0
LINE
  5
4093
330
A
100
AcDbEntity
  8
MODEL
100
AcDbLine
 10
326.2046156216945
 20
397.6243699138694
 30
0.0
 11
327.6999555574455
 21
397.1953470592646
 31
0.0
  0
LINE
  5
4094
330
A
100
AcDbEntity
  8
MODEL
100
AcDbLine
 10
335.1460295090472
 20
423.1483041683742
 30
0.0
 11
334.9951993829618
 21
422.6225925224117
 31
0.0
  0
LINE
  5
4095
330
A
100
AcDbEntity
  8
MODEL
100
AcDbLine
 10
333.2956806013198
 20
423.6791814300781
 30
0.0
 11
335.1460295090471
 21
423.1483041683741
 31
0.0
  0
LINE
  5
4096
330
A
100
AcDbEntity
  8
MODEL
100
AcDbLine
 10
322.713942131129
 20
379.8168206788214
 30
0.0
 11
322.1843452229259
 21
377.9709343858498
 31
0.0
  0
LINE
  5
4097
330
A
100
AcDbEntity
  8
MODEL
100
AcDbLine
 10
320.7648835485422
 20
378.3781872686135
 30
0.0
 11
322.1843452229259
 21
377.9709343858499
 31
0.0
  0
LINE
  5
4098
330
A
100
AcDbEntity
  8
MODEL
100
AcDbLine
 10
329.6304195242948
 20
403.9238913946118
 30
0.0
 11
329.3799477582941
 21
403.0508832775406
 31
0.0
  0
LINE
  5
4099
330
A
100
AcDbEntity
  8
MODEL
100
AcDbLine
 10
327.2847425735155
 20
403.652011414271
 30
0.0
 11
329.3799477582942
 21
403.0508832775407
 31
0.0
  0
LINE
  5
409A
330
A
100
AcDbEntity
  8
MODEL
100
AcDbLine
 10
327.1703594936454
 20
395.3494605239962
 30
0.0
 11
327.1451175012266
 21
395.2614806904822
 31
0.0
  0
LINE
  5
409B
330
A
100
AcDbEntity
  8
MODEL
100
AcDbLine
 10
325.0674086410759
 20
395.9528109437184
 30
0.0
 11
327.1703594936454
 21
395.3494605239961
 31
0.0
  0
LINE
  5
409C
330
A
100
AcDbEntity
  8
MODEL
100
AcDbLine
 10
322.7391849679533
 20
379.904800270047
 30
0.0
 11
322.7139429755491
 21
379.8168204365838
 31
0.0
  0
LINE
  5
409D
330
A
100
AcDbEntity
  8
MODEL
100
AcDbLine
 10
320.6815493623239
 20
380.3999275206521
 30
0.0
 11
322.7139429755491
 21
379.816820436584
 31
0.0
  0
LINE
  5
409E
330
A
100
AcDbEntity
  8
MODEL
100
AcDbLine
 10
320.5043537216107
 20
372.1153979668732
 30
0.0
 11
320.2538819556099
 21
371.242389849802
 31
0.0
  0
LINE
  5
409F
330
A
100
AcDbEntity
  8
MODEL
100
AcDbLine
 10
318.5681107042806
 20
372.6709188130988
 30
0.0
 11
320.5043537216107
 21
372.1153979668731
 31
0.0
  0
LINE
  5
40A0
330
A
100
AcDbEntity
  8
MODEL
100
AcDbLine
 10
332.271734983601
 20
413.130078091062
 30
0.0
 11
331.8587253530147
 21
411.690551530095
 31
0.0
  0
LINE
  5
40A1
330
A
100
AcDbEntity
  8
MODEL
100
AcDbLine
 10
329.7995469289929
 20
412.2813433524045
 30
0.0
 11
331.8587253530148
 21
411.6905515300951
 31
0.0
  0
LINE
  5
40A2
330
A
100
AcDbEntity
  8
MODEL
100
AcDbLine
 10
331.6664207744179
 20
411.0202813246893
 30
0.0
 11
331.5995903430685
 21
410.7873468508084
 31
0.0
  0
LINE
  5
40A3
330
A
100
AcDbEntity
  8
MODEL
100
AcDbLine
 10
329.6034623437725
 20
411.6121576557402
 30
0.0
 11
331.6664207744179
 21
411.0202813246892
 31
0.0
  0
LINE
  5
40A4
330
A
100
AcDbEntity
  8
MODEL
100
AcDbLine
 10
330.4831012345319
 20
406.8958730493053
 30
0.0
 11
330.1819811512044
 21
405.8463324916789
 31
0.0
  0
LINE
  5
40A5
330
A
100
AcDbEntity
  8
MODEL
100
AcDbLine
 10
328.4004900781368
 20
407.4933878765272
 30
0.0
 11
330.4831012345319
 21
406.8958730493052
 31
0.0
  0
LINE
  5
40A6
330
A
100
AcDbEntity
  8
MODEL
100
AcDbLine
 10
328.9409690379239
 20
401.5208395793451
 30
0.0
 11
328.6135417689746
 21
400.3796065050258
 31
0.0
  0
LINE
  5
40A7
330
A
100
AcDbEntity
  8
MODEL
100
AcDbLine
 10
326.8423410822658
 20
402.1229497315344
 30
0.0
 11
328.9409690379239
 21
401.520839579345
 31
0.0
  0
LINE
  5
40A8
330
A
100
AcDbEntity
  8
MODEL
100
AcDbLine
 10
327.1451179452989
 20
395.2614805631237
 30
0.0
 11
326.9419284253377
 21
394.5532725959653
 31
0.0
  0
LINE
  5
40A9
330
A
100
AcDbEntity
  8
MODEL
100
AcDbLine
 10
325.0422175473031
 20
395.8648165070971
 30
0.0
 11
327.1451179452989
 21
395.2614805631235
 31
0.0
  0
LINE
  5
40AA
330
A
100
AcDbEntity
  8
MODEL
100
AcDbLine
 10
322.9423749319672
 20
380.6130081097783
 30
0.0
 11
322.7391854120144
 21
379.9048001426493
 31
0.0
  0
LINE
  5
40AB
330
A
100
AcDbEntity
  8
MODEL
100
AcDbLine
 10
320.7059361193206
 20
380.4881527267803
 30
0.0
 11
322.7391854120144
 21
379.9048001426493
 31
0.0
  0
LINE
  5
40AC
330
A
100
AcDbEntity
  8
MODEL
100
AcDbLine
 10
321.2707613218197
 20
374.7866742772132
 30
0.0
 11
320.9433340528704
 21
373.6454412028939
 31
0.0
  0
LINE
  5
40AD
330
A
100
AcDbEntity
  8
MODEL
100
AcDbLine
 10
318.9846970754808
 20
374.2073870234287
 30
0.0
 11
320.9433340528704
 21
373.6454412028939
 31
0.0
  0
LINE
  5
40AE
330
A
100
AcDbEntity
  8
MODEL
100
AcDbLine
 10
319.7023215156194
 20
369.3199484121999
 30
0.0
 11
319.4012014322919
 21
368.2704078545736
 31
0.0
  0
LINE
  5
40AF
330
A
100
AcDbEntity
  8
MODEL
100
AcDbLine
 10
317.5282165875481
 20
368.807779515366
 30
0.0
 11
319.4012014322919
 21
368.2704078545737
 31
0.0
  0
LINE
  5
40B0
330
A
100
AcDbEntity
  8
MODEL
100
AcDbLine
 10
318.2847117712141
 20
364.3789342115526
 30
0.0
 11
318.2178813398768
 21
364.1459997377139
 31
0.0
  0
LINE
  5
40B1
330
A
100
AcDbEntity
  8
MODEL
100
AcDbLine
 10
316.4232226278107
 20
364.6608991162992
 30
0.0
 11
318.2178813398768
 21
364.1459997377139
 31
0.0
  0
LINE
  5
40B2
330
A
100
AcDbEntity
  8
MODEL
100
AcDbLine
 10
318.0255761178462
 20
363.4757297169135
 30
0.0
 11
317.6125664872599
 21
362.0362031559465
 31
0.0
  0
LINE
  5
40B3
330
A
100
AcDbEntity
  8
MODEL
100
AcDbLine
 10
316.2446038320133
 20
363.9867023698682
 30
0.0
 11
318.0255761178462
 21
363.4757297169134
 31
0.0
  0
LINE
  5
40B4
330
A
100
AcDbEntity
  8
MODEL
100
AcDbLine
 10
334.9951996918089
 20
422.6225924338111
 30
0.0
 11
334.5472922105976
 21
421.0614309782194
 31
0.0
  0
LINE
  5
40B5
330
A
100
AcDbEntity
  8
MODEL
100
AcDbLine
 10
333.0198404742609
 20
423.1893359749422
 30
0.0
 11
334.9951996918089
 21
422.6225924338111
 31
0.0
  0
LINE
  5
40B6
330
A
100
AcDbEntity
  8
MODEL
100
AcDbLine
 10
334.5472925100781
 20
421.0614308923727
 30
0.0
 11
333.9957314766261
 21
419.1389896250312
 31
0.0
  0
LINE
  5
40B7
330
A
100
AcDbEntity
  8
MODEL
100
AcDbLine
 10
332.5574756930266
 20
421.6323224138134
 30
0.0
 11
334.5472925100781
 21
421.0614308923726
 31
0.0
  0
LINE
  5
40B8
330
A
100
AcDbEntity
  8
MODEL
100
AcDbLine
 10
331.9892375534174
 20
419.7146659178268
 30
0.0
 11
333.9957314766262
 21
419.1389896250313
 31
0.0
  0
LINE
  5
40B9
330
A
100
AcDbEntity
  8
MODEL
100
AcDbLine
 10
333.81591739692
 20
418.5122546475097
 30
0.0
 11
333.264356363468
 21
416.5898133801682
 31
0.0
  0
LINE
  5
40BA
330
A
100
AcDbEntity
  8
MODEL
100
AcDbLine
 10
331.8042550272039
 20
419.0894138015739
 30
0.0
 11
333.8159173969199
 21
418.5122546475096
 31
0.0
  0
LINE
  5
40BB
330
A
100
AcDbEntity
  8
MODEL
100
AcDbLine
 10
331.2376670987395
 20
417.1712838491649
 30
0.0
 11
333.264356363468
 21
416.5898133801682
 31
0.0
  0
LINE
  5
40BC
330
A
100
AcDbEntity
  8
MODEL
100
AcDbLine
 10
332.8232968150541
 20
415.0525191294767
 30
0.0
 11
332.271735781602
 21
413.1300778621352
 31
0.0
  0
LINE
  5
40BD
330
A
100
AcDbEntity
  8
MODEL
100
AcDbLine
 10
330.7855035258157
 20
415.6371754160784
 30
0.0
 11
332.823296815054
 21
415.0525191294767
 31
0.0
  0
LINE
  5
40BE
330
A
100
AcDbEntity
  8
MODEL
100
AcDbLine
 10
330.2212212715942
 20
413.7183839505767
 30
0.0
 11
332.271735781602
 21
413.1300778621352
 31
0.0
  0
LINE
  5
40BF
330
A
100
AcDbEntity
  8
MODEL
100
AcDbLine
 10
331.59959103857
 20
410.7873466512787
 30
0.0
 11
331.048030005118
 21
408.8649053839372
 31
0.0
  0
LINE
  5
40C0
330
A
100
AcDbEntity
  8
MODEL
100
AcDbLine
 10
329.5353564750001
 20
411.3795891132522
 30
0.0
 11
331.59959103857
 21
410.7873466512787
 31
0.0
  0
LINE
  5
40C1
330
A
100
AcDbEntity
  8
MODEL
100
AcDbLine
 10
328.9740224120278
 20
409.4599517923064
 30
0.0
 11
331.048030005118
 21
408.8649053839372
 31
0.0
  0
LINE
  5
40C2
330
A
100
AcDbEntity
  8
MODEL
100
AcDbLine
 10
330.1819817482614
 20
405.8463323203841
 30
0.0
 11
329.6304207148094
 21
403.9238910530426
 31
0.0
  0
LINE
  5
40C3
330
A
100
AcDbEntity
  8
MODEL
100
AcDbLine
 10
328.0953736244463
 20
406.444993903826
 30
0.0
 11
330.1819817482614
 21
405.8463323203841
 31
0.0
  0
LINE
  5
40C4
330
A
100
AcDbEntity
  8
MODEL
100
AcDbLine
 10
327.5375759865393
 20
404.5243419592882
 30
0.0
 11
329.6304207148094
 21
403.9238910530426
 31
0.0
  0
LINE
  5
40C5
330
A
100
AcDbEntity
  8
MODEL
100
AcDbLine
 10
328.6135422850693
 20
400.3796063569634
 30
0.0
 11
328.0619812516173
 21
398.457165089622
 31
0.0
  0
LINE
  5
40C6
330
A
100
AcDbEntity
  8
MODEL
100
AcDbLine
 10
326.5129600553462
 20
400.982277203225
 30
0.0
 11
328.6135422850692
 21
400.3796063569633
 31
0.0
  0
LINE
  5
40C7
330
A
100
AcDbEntity
  8
MODEL
100
AcDbLine
 10
325.9592799204515
 20
399.0604439200138
 30
0.0
 11
328.0619812516173
 21
398.457165089622
 31
0.0
  0
LINE
  5
40C8
330
A
100
AcDbEntity
  8
MODEL
100
AcDbLine
 10
326.9419288884141
 20
394.5532724631183
 30
0.0
 11
326.3903678549621
 21
392.6308311957769
 31
0.0
  0
LINE
  5
40C9
330
A
100
AcDbEntity
  8
MODEL
100
AcDbLine
 10
324.839555687998
 20
395.1564571506416
 30
0.0
 11
326.9419288884141
 21
394.5532724631183
 31
0.0
  0
LINE
  5
40CA
330
A
100
AcDbEntity
  8
MODEL
100
AcDbLine
 10
324.2904912849801
 20
393.2332995836214
 30
0.0
 11
326.3903678549622
 21
392.6308311957769
 31
0.0
  0
LINE
  5
40CB
330
A
100
AcDbEntity
  8
MODEL
100
AcDbLine
 10
325.2179326854761
 20
388.5443608459462
 30
0.0
 11
324.6663716520241
 21
386.6219195786047
 31
0.0
  0
LINE
  5
40CC
330
A
100
AcDbEntity
  8
MODEL
100
AcDbLine
 10
323.1286328900773
 20
389.1437946876545
 30
0.0
 11
325.2179326854761
 21
388.5443608459461
 31
0.0
  0
LINE
  5
40CD
330
A
100
AcDbEntity
  8
MODEL
100
AcDbLine
 10
322.5847439292639
 20
387.2191522522539
 30
0.0
 11
324.6663716520241
 21
386.6219195786048
 31
0.0
  0
LINE
  5
40CE
330
A
100
AcDbEntity
  8
MODEL
100
AcDbLine
 10
323.4939364284973
 20
382.5354492442787
 30
0.0
 11
322.9423753950453
 21
380.6130079769372
 31
0.0
  0
LINE
  5
40CF
330
A
100
AcDbEntity
  8
MODEL
100
AcDbLine
 10
321.437727670204
 20
383.1253890499745
 30
0.0
 11
323.4939364284972
 21
382.5354492442786
 31
0.0
  0
LINE
  5
40D0
330
A
100
AcDbEntity
  8
MODEL
100
AcDbLine
 10
320.9024464580546
 20
381.1982769949141
 30
0.0
 11
322.9423753950454
 21
380.6130079769372
 31
0.0
  0
LINE
  5
40D1
330
A
100
AcDbEntity
  8
MODEL
100
AcDbLine
 10
321.8223228713618
 20
376.7091153964764
 30
0.0
 11
321.2707618379098
 21
374.786674129135
 31
0.0
  0
LINE
  5
40D2
330
A
100
AcDbEntity
  8
MODEL
100
AcDbLine
 10
319.8237085716261
 20
377.2825309735143
 30
0.0
 11
321.8223228713618
 21
376.7091153964764
 31
0.0
  0
LINE
  5
40D3
330
A
100
AcDbEntity
  8
MODEL
100
AcDbLine
 10
319.2964692946264
 20
375.3531116344096
 30
0.0
 11
321.2707618379098
 21
374.786674129135
 31
0.0
  0
LINE
  5
40D4
330
A
100
AcDbEntity
  8
MODEL
100
AcDbLine
 10
320.2538831461259
 20
371.2423895082378
 30
0.0
 11
319.7023221126739
 21
369.3199482408963
 31
0.0
  0
LINE
  5
40D5
330
A
100
AcDbEntity
  8
MODEL
100
AcDbLine
 10
318.331132392441
 20
371.7940393353556
 30
0.0
 11
320.2538831461259
 21
371.2423895082378
 31
0.0
  0
LINE
  5
40D6
330
A
100
AcDbEntity
  8
MODEL
100
AcDbLine
 10
317.8110989055242
 20
369.8625526077213
 30
0.0
 11
319.702322112674
 21
369.3199482408963
 31
0.0
  0
LINE
  5
40D7
330
A
100
AcDbEntity
  8
MODEL
100
AcDbLine
 10
318.8362735001721
 20
366.3013752793803
 30
0.0
 11
318.2847124667201
 21
364.3789340120388
 31
0.0
  0
LINE
  5
40D8
330
A
100
AcDbEntity
  8
MODEL
100
AcDbLine
 10
316.9993879160929
 20
366.8283898250515
 30
0.0
 11
318.8362735001721
 21
366.3013752793802
 31
0.0
  0
LINE
  5
40D9
330
A
100
AcDbEntity
  8
MODEL
100
AcDbLine
 10
316.4853571846862
 20
364.8951808674127
 30
0.0
 11
318.2847124667202
 21
364.3789340120388
 31
0.0
  0
LINE
  5
40DA
330
A
100
AcDbEntity
  8
MODEL
100
AcDbLine
 10
317.6125672852477
 20
362.0362029269737
 30
0.0
 11
317.0610062517957
 21
360.1137616596322
 31
0.0
  0
LINE
  5
40DB
330
A
100
AcDbEntity
  8
MODEL
100
AcDbLine
 10
315.8617904180533
 20
362.5385123158835
 30
0.0
 11
317.6125672852477
 21
362.0362029269735
 31
0.0
  0
LINE
  5
40DC
330
A
100
AcDbEntity
  8
MODEL
100
AcDbLine
 10
315.3519533423301
 20
360.6041001708693
 30
0.0
 11
317.0610062517958
 21
360.1137616596321
 31
0.0
  0
LINE
  5
40DD
330
A
100
AcDbEntity
  8
MODEL
100
AcDbLine
 10
316.6199461954679
 20
358.5764675546645
 30
0.0
 11
316.0683851620159
 21
356.654026287323
 31
0.0
  0
LINE
  5
40DE
330
A
100
AcDbEntity
  8
MODEL
100
AcDbLine
 10
314.9451018463827
 20
359.0569914051175
 30
0.0
 11
316.6199461954678
 21
358.5764675546645
 31
0.0
  0
LINE
  5
40DF
330
A
100
AcDbEntity
  8
MODEL
100
AcDbLine
 10
314.4369690007799
 20
357.1220903052819
 30
0.0
 11
316.0683851620159
 21
356.6540262873231
 31
0.0
  0
LINE
  5
40E0
330
A
100
AcDbEntity
  8
MODEL
100
AcDbLine
 10
315.8885705203551
 20
356.02729147103
 30
0.0
 11
315.3370094869031
 21
354.1048502036885
 31
0.0
  0
LINE
  5
40E1
330
A
100
AcDbEntity
  8
MODEL
100
AcDbLine
 10
314.2709160229372
 20
356.4914071772007
 30
0.0
 11
315.8885705203551
 21
356.0272914710299
 31
0.0
  0
LINE
  5
40E2
330
A
100
AcDbEntity
  8
MODEL
100
AcDbLine
 10
313.7549024098167
 20
354.5587671213565
 30
0.0
 11
315.3370094869031
 21
354.1048502036885
 31
0.0
  0
LINE
  5
40E3
330
A
100
AcDbEntity
  8
MODEL
100
AcDbLine
 10
315.3370091874428
 20
354.1048502896063
 30
0.0
 11
314.8891017062516
 21
352.5436888340843
 31
0.0
  0
LINE
  5
40E4
330
A
100
AcDbEntity
  8
MODEL
100
AcDbLine
 10
313.3251690657047
 20
352.9923913864709
 30
0.0
 11
314.8891017062516
 21
352.5436888340844
 31
0.0
  0
LINE
  5
40E5
330
A
100
AcDbEntity
  8
MODEL
100
AcDbLine
 10
314.8891013974024
 20
352.5436889226775
 30
0.0
 11
314.7382712713243
 21
352.0179772767403
 31
0.0
  0
LINE
  5
40E6
330
A
100
AcDbEntity
  8
MODEL
100
AcDbLine
 10
313.2275495332781
 20
352.4514132715093
 30
0.0
 11
314.7382712713243
 21
352.0179772767403
 31
0.0
  0
LINE
  5
40E7
330
A
100
AcDbEntity
  8
MODEL
100
AcDbLine
 10
283.888682226487
 20
209.9049333673506
 30
0.0
 11
299.9952650737158
 21
209.9049333673506
 31
0.0
  0
LINE
  5
40E8
330
A
100
AcDbEntity
  8
MODEL
100
AcDbLine
 10
283.888682226487
 20
201.4049333673506
 30
0.0
 11
304.843682226487
 21
201.4049333673506
 31
0.0
  0
LINE
  5
40E9
330
A
100
AcDbEntity
  8
MODEL
100
AcDbLine
 10
284.888682226487
 20
200.4049333673506
 30
0.0
 11
303.843682226487
 21
200.4049333673506
 31
0.0
  0
LINE
  5
40EA
330
A
100
AcDbEntity
  8
MODEL
100
AcDbLine
 10
304.843682226487
 20
201.4049333673506
 30
0.0
 11
304.843682226487
 21
209.9049333673506
 31
0.0
  0
LINE
  5
40EB
330
A
100
AcDbEntity
  8
MODEL
100
AcDbLine
 10
304.843682226487
 20
201.4049333673506
 30
0.0
 11
303.843682226487
 21
200.4049333673506
 31
0.0
  0
LINE
  5
40EC
330
A
100
AcDbEntity
  8
MODEL
100
AcDbLine
 10
283.888682226487
 20
201.4049333673506
 30
0.0
 11
284.888682226487
 21
200.4049333673506
 31
0.0
  0
LINE
  5
40ED
330
A
100
AcDbEntity
  8
MODEL
100
AcDbLine
 10
283.888682226487
 20
201.4049333673506
 30
0.0
 11
283.888682226487
 21
209.9049333673506
 31
0.0
  0
LINE
  5
40EE
330
A
100
AcDbEntity
  8
MODEL
100
AcDbLine
 10
303.681682226487
 20
200.4049333673506
 30
0.0
 11
303.681682226487
 21
209.9049333673506
 31
0.0
  0
LINE
  5
40EF
330
A
100
AcDbEntity
  8
MODEL
100
AcDbLine
 10
285.050682226487
 20
200.4049333673506
 30
0.0
 11
285.050682226487
 21
209.9049333673506
 31
0.0
  0
LWPOLYLINE
  5
40F0
330
A
100
AcDbEntity
  8
MODEL
100
AcDbPolyline
 90
       13
 70
     0
 43
0.0
 10
281.0245207732399
 20
216.9559053522139
 10
281.0887297576149
 20
225.2285493951827
 10
281.2652129119118
 20
233.5323824029952
 10
281.5612029021462
 20
241.8685945611983
 10
281.9842070525368
 20
250.2347749811202
 10
282.5416106169899
 20
258.6250337701827
 10
283.2397917693337
 20
267.030642901042
 10
284.0837553923806
 20
275.4410127740889
 10
285.0767973845681
 20
283.8450349908858
 10
286.2204436248024
 20
292.2324251276045
 10
287.5146941130837
 20
300.5940584283858
 10
288.9582976287087
 20
308.9224275690108
 10
290.5489653533181
 20
317.2117342096358
  0
LWPOLYLINE
  5
40F1
330
A
100
AcDbEntity
  8
MODEL
100
AcDbPolyline
 90
        9
 70
     0
 43
0.0
 10
309.0795134490212
 20
392.1342500787764
 10
306.4947050994118
 20
382.888308916667
 10
303.9675749724587
 20
373.6151460748702
 10
301.5072173064431
 20
364.3110384088545
 10
299.1230925505837
 20
354.9723543268233
 10
296.8249968474587
 20
345.5957368951827
 10
294.6230315154274
 20
336.178103838542
 10
292.5275420134743
 20
326.7172273736983
 10
290.5489653533181
 20
317.2117342096358
  0
LINE
  5
40F2
330
A
100
AcDbEntity
  8
MODEL
100
AcDbLine
 10
309.0811192978438
 20
392.1337729564716
 30
0.0
 11
309.0795136288399
 21
392.1342354550691
 31
0.0
  0
ARC
  5
40F4
330
A
100
AcDbEntity
  8
MODEL
100
AcDbCircle
 10
3435.703162657744
 20
10638.51704821754
 30
0.0
 40
10662.205532567
100
AcDbArc
 50
253.0381444976569
 51
253.0976889551151
  0
LWPOLYLINE
  5
40F5
330
A
100
AcDbEntity
  8
MODEL
100
AcDbPolyline
 90
        6
 70
     0
 43
0.0
 10
309.0795134490212
 20
392.1342500787764
 10
311.8407744353493
 20
401.6857942682295
 10
314.7092436736306
 20
411.1962007623702
 10
317.6819304412087
 20
420.6663240533858
 10
320.7559966033181
 20
430.0968355279952
 10
323.9289702361306
 20
439.4882234674483
  0
ARC
  5
40F6
330
A
100
AcDbEntity
  8
MODEL
100
AcDbCircle
 10
386.7099567274692
 20
294.4953833476724
 30
0.0
 40
85.79901101582199
100
AcDbArc
 50
166.7645940445004
 51
169.8953326462762
  0
LWPOLYLINE
  5
40F7
330
A
100
AcDbEntity
  8
MODEL
100
AcDbPolyline
 90
       15
 70
     0
 43
0.0
 10
307.7245024626931
 20
216.9229921442061
 10
307.6571196501931
 20
221.2902101617842
 10
307.4566191619118
 20
225.6565584283858
 10
307.1416777556618
 20
230.0198244195967
 10
306.7310027068337
 20
234.379260454753
 10
306.2430266326149
 20
238.7353090387373
 10
305.6958464568337
 20
243.0892671686202
 10
305.1071013396462
 20
247.4430574518233
 10
304.4941863005837
 20
251.7990144830733
 10
303.8741301482399
 20
256.1596712213545
 10
303.2638701384743
 20
260.5274995904952
 10
302.6802824919899
 20
264.904666338542
 10
302.1403044646462
 20
269.2929720026045
 10
301.6611174529274
 20
273.693484697917
 10
301.2601775115212
 20
278.1065401178389
  0
ARC
  5
40F8
330
A
100
AcDbEntity
  8
MODEL
100
AcDbCircle
 10
335.468913002491
 20
435.9370488408911
 30
0.0
 40
1.006516138043058
100
AcDbArc
 50
345.3288595540503
 51
72.88403005027676
  0
ARC
  5
40F9
330
A
100
AcDbEntity
  8
MODEL
100
AcDbCircle
 10
324.8766732160314
 20
439.1682163066625
 30
0.0
 40
1.000279928849106
100
AcDbArc
 50
73.25813720005749
 51
161.3412340405687
  0
ARC
  5
40FA
330
A
100
AcDbEntity
  8
MODEL
100
AcDbCircle
 10
-1633.999296305105
 20
945.9518311135149
 30
0.0
 40
2035.440553484334
100
AcDbArc
 50
345.1322097791403
 51
345.2448306968087
  0
LINE
  5
40FB
330
A
100
AcDbEntity
  8
MODEL
100
AcDbLine
 10
332.0525033819843
 20
419.0181897171551
 30
0.0
 11
332.2211910524802
 21
419.6481169345994
 31
0.0
  0
LINE
  5
40FC
330
A
100
AcDbEntity
  8
MODEL
100
AcDbLine
 10
331.1178378679119
 20
415.5418265093044
 30
0.0
 11
331.5338668851892
 21
417.0863021838741
 31
0.0
  0
LINE
  5
40FD
330
A
100
AcDbEntity
  8
MODEL
100
AcDbLine
 10
330.021222030916
 20
411.4922996560761
 30
0.0
 11
330.204045752776
 21
412.1652899815858
 31
0.0
  0
LINE
  5
40FE
330
A
100
AcDbEntity
  8
MODEL
100
AcDbLine
 10
328.8916272393606
 20
407.3524773973291
 30
0.0
 11
329.4318909769719
 21
409.3285862920146
 31
0.0
  0
LINE
  5
40FF
330
A
100
AcDbEntity
  8
MODEL
100
AcDbLine
 10
327.7475540260679
 20
403.1905922292427
 30
0.0
 11
327.8315511694037
 21
403.4951284346075
 31
0.0
  0
LINE
  5
4100
330
A
100
AcDbEntity
  8
MODEL
100
AcDbLine
 10
334.2865494115482
 20
427.5562701618044
 30
0.0
 11
334.318461674729
 21
427.5471143237776
 31
0.0
  0
ARC
  5
4101
330
A
100
AcDbEntity
  8
MODEL
100
AcDbCircle
 10
-1572.355904650972
 20
929.7513904027921
 30
0.0
 40
1971.703885965115
100
AcDbArc
 50
345.2729173203505
 51
345.4881726768603
  0
LWPOLYLINE
  5
4102
330
A
100
AcDbEntity
  8
MODEL
100
AcDbPolyline
 90
        9
 70
     0
 43
0.0
 10
303.1899870818337
 20
314.139285479167
 10
304.1667937224587
 20
318.3656953912764
 10
305.1269072478493
 20
322.593142901042
 10
306.0986174529274
 20
326.8150056940108
 10
307.1105803435524
 20
331.0243257623702
 10
308.1906584685524
 20
335.2134126764327
 10
309.3662871306618
 20
339.3730196100264
 10
310.5898589080056
 20
343.5156282526045
 10
311.8125761931618
 20
347.655642901042
  0
LINE
  5
4103
330
A
100
AcDbEntity
  8
MODEL
100
AcDbLine
 10
322.0693830323846
 20
382.9441629754679
 30
0.0
 11
323.2306098124147
 21
387.0338490858926
 31
0.0
  0
LINE
  5
4104
330
A
100
AcDbEntity
  8
MODEL
100
AcDbLine
 10
320.4029483768296
 20
377.1163432667677
 30
0.0
 11
320.7648835485422
 21
378.3781872686135
 31
0.0
  0
LINE
  5
4105
330
A
100
AcDbEntity
  8
MODEL
100
AcDbLine
 10
319.0810619990449
 20
372.5237497156304
 30
0.0
 11
319.5220361868272
 21
374.0532209011117
 31
0.0
  0
LINE
  5
4106
330
A
100
AcDbEntity
  8
MODEL
100
AcDbLine
 10
317.3998525881649
 20
366.7134938788703
 30
0.0
 11
317.9701895234327
 21
368.6809745755139
 31
0.0
  0
LINE
  5
4107
330
A
100
AcDbEntity
  8
MODEL
100
AcDbLine
 10
316.579527156731
 20
363.890610666966
 30
0.0
 11
316.7743300462001
 21
364.5601640905643
 31
0.0
  0
LINE
  5
4108
330
A
100
AcDbEntity
  8
MODEL
100
AcDbLine
 10
315.5354872061322
 20
360.3115583046792
 30
0.0
 11
315.6001885277762
 21
360.5328798648191
 31
0.0
  0
LWPOLYLINE
  5
4109
330
A
100
AcDbEntity
  8
MODEL
100
AcDbPolyline
 90
       27
 70
     0
 43
0.0
 10
322.8562163298806
 20
388.1809114557295
 10
322.1850127165993
 20
385.7980379205733
 10
321.5205229705056
 20
383.4225191217452
 10
320.8650969451149
 20
381.063357744792
 10
320.2208403533181
 20
378.7290681940108
 10
319.5899199431618
 20
376.4281953912764
 10
318.9743498748024
 20
374.1692537408858
 10
318.3761137908181
 20
371.9606050592452
 10
317.7971037810524
 20
369.8104585748702
 10
317.2390288298806
 20
367.7265657526045
 10
316.7034758513649
 20
365.7165865045577
 10
316.1920317595681
 20
363.7881197076827
 10
315.7061003630837
 20
361.9483980279952
 10
315.2467192595681
 20
360.204226885417
 10
314.8151091521462
 20
358.5621065240889
 10
314.4122771208962
 20
357.028201494792
 10
314.0370634978493
 20
355.6088289361983
 10
313.6873625701149
 20
354.3101533990889
 10
313.3651579802712
 20
353.1367525201827
 10
313.0742949431618
 20
352.092166338542
 10
312.8177031462868
 20
351.1796907526045
 10
312.5978850310524
 20
350.4021944147139
 10
312.4169157927712
 20
349.7622713190108
 10
312.2758025115212
 20
349.2619051080733
 10
312.1752776091774
 20
348.902957354167
 10
312.1154936736306
 20
348.6869234186202
 10
312.0957793181618
 20
348.6147493463545
  0
LWPOLYLINE
  5
410A
330
A
100
AcDbEntity
  8
MODEL
100
AcDbPolyline
 90
       27
 70
     0
 43
0.0
 10
311.8125761931618
 20
347.655642901042
 10
311.8321989958962
 20
347.7297700983077
 10
311.8919524138649
 20
347.9515108209639
 10
311.9929350798806
 20
348.3197359186202
 10
312.1354826873024
 20
348.832888994792
 10
312.3191374724587
 20
349.4889558893233
 10
312.5431670134743
 20
350.2857393365889
 10
312.8056487029274
 20
351.2205537897139
 10
313.1040495818337
 20
352.2905000787764
 10
313.4352263396462
 20
353.4922212701827
 10
313.7954863494118
 20
354.8219637018233
 10
314.1813506072243
 20
356.2755464654952
 10
314.5928801482399
 20
357.8472017389327
 10
315.0339507048806
 20
359.5296968561202
 10
315.5037383025368
 20
361.3165926080733
 10
316.0008086150368
 20
363.2013887506514
 10
316.5240630095681
 20
365.1770662408858
 10
317.0721587126931
 20
367.236209307292
 10
317.6434172576149
 20
369.3710359674483
 10
318.2361601775368
 20
371.5737642389327
 10
318.8486784880837
 20
373.8363679986983
 10
319.4789885466774
 20
376.1504854303389
 10
320.1250761931618
 20
378.5075410944014
 10
320.7848357146462
 20
380.898806963542
 10
321.4561308806618
 20
383.315555010417
 10
322.1367644255837
 20
385.7490877252608
 10
322.8242949431618
 20
388.1900362115889
  0
LWPOLYLINE
  5
410B
330
A
100
AcDbEntity
  8
MODEL
100
AcDbPolyline
 90
       27
 70
     0
 43
0.0
 10
322.8562163298806
 20
388.1809114557295
 10
323.5308684294899
 20
390.5627168756514
 10
324.2055510466774
 20
392.9352754694014
 10
324.8776396697243
 20
395.289676104167
 10
325.5446318572243
 20
397.6175264459639
 10
326.2039336150368
 20
399.9103426080733
 10
326.8530119841774
 20
402.1598238092452
 10
327.4892729705056
 20
404.3577303033858
 10
328.1102141326149
 20
406.4960359674483
 10
328.7134550994118
 20
408.5671724420577
 10
329.2966154998024
 20
410.5637239557295
 10
329.8572844451149
 20
412.4782747369795
 10
330.3932036345681
 20
414.3036531549483
 10
330.9022673552712
 20
416.0336641412764
 10
331.3825224822243
 20
417.6620821100264
 10
331.8318938201149
 20
419.1828340631514
 10
332.2484892790993
 20
420.5901216608077
 10
332.6307524626931
 20
421.8793062311202
 10
332.9771880095681
 20
423.0458711725264
 10
333.2863005583962
 20
424.085330401042
 10
333.5567473357399
 20
424.9937471490889
 10
333.7874907439431
 20
425.7680391412764
 10
333.9775847380837
 20
426.4054292779952
 10
334.1262663787087
 20
426.9035371881514
 10
334.2328947966774
 20
427.260623369792
 10
334.2970427458962
 20
427.4754366022139
 10
334.3184660857399
 20
427.5471223932295
  0
LWPOLYLINE
  5
410C
330
A
100
AcDbEntity
  8
MODEL
100
AcDbPolyline
 90
       27
 70
     0
 43
0.0
 10
334.5729826873024
 20
428.5144380670577
 10
334.5510100310524
 20
428.4410127740889
 10
334.4852141326149
 20
428.2209810358077
 10
334.3758696501931
 20
427.8552278619795
 10
334.2234343474587
 20
427.3450044733077
 10
334.0285185759743
 20
426.6921419244795
 10
333.7919157927712
 20
425.8990205865889
 10
333.5146025603493
 20
424.9685091119795
 10
333.1976469939431
 20
423.9037813287764
 10
332.8424223845681
 20
422.708865557292
 10
332.4504851287087
 20
421.3883394342452
 10
332.0233305876931
 20
419.9468416315108
 10
331.5626067107399
 20
418.3891328912764
 10
331.0702666228493
 20
416.721072588542
 10
330.5483550017556
 20
414.9490083795577
 10
329.9989470427712
 20
413.0791963678389
 10
329.4242094939431
 20
411.1181062799483
 10
328.8264311736306
 20
409.0729707819014
 10
328.2081145232399
 20
406.9514192682295
 10
327.5716704314431
 20
404.7610506158858
 10
326.9195403044899
 20
402.5096162897139
 10
326.2543791716774
 20
400.2053560358077
 10
325.5787505095681
 20
397.8566621881514
 10
324.8952788298806
 20
395.4721101861983
 10
324.2066496794899
 20
393.0603365045577
 10
323.5154265349587
 20
390.6299471002608
 10
322.8242949431618
 20
388.1900362115889
  0
LINE
  5
410D
330
A
100
AcDbEntity
  8
MODEL
100
AcDbLine
 10
281.0186787090217
 20
209.9067733492539
 30
0.0
 11
281.0245358504619
 21
216.9559103846296
 31
0.0
  0
LINE
  5
410E
330
A
100
AcDbEntity
  8
MODEL
100
AcDbLine
 10
307.7245064388642
 20
216.9229941522436
 30
0.0
 11
307.7186723356038
 21
209.9055851977752
 31
0.0
  0
LINE
  5
410F
330
A
100
AcDbEntity
  8
MODEL
100
AcDbLine
 10
281.0186787090217
 20
209.9067733492539
 30
0.0
 11
288.3686699612708
 21
209.906446274158
 31
0.0
  0
LINE
  5
4110
330
A
100
AcDbEntity
  8
MODEL
100
AcDbLine
 10
288.3686699612707
 20
209.906446274158
 30
0.0
 11
300.3686711964647
 21
209.905912273311
 31
0.0
  0
LINE
  5
4111
330
A
100
AcDbEntity
  8
MODEL
100
AcDbLine
 10
300.3686711964647
 20
209.905912273311
 30
0.0
 11
307.7186723356038
 21
209.9055851977751
 31
0.0
  0
LINE
  5
4112
330
A
100
AcDbEntity
  8
MODEL
100
AcDbLine
 10
312.0762626948564
 20
348.6203495263031
 30
0.0
 11
312.0957923960805
 21
348.6147463266772
 31
0.0
  0
ARC
  5
4113
330
A
100
AcDbEntity
  8
MODEL
100
AcDbCircle
 10
-2194.346739962843
 20
1099.776634853094
 30
0.0
 40
2616.524004909751
100
AcDbArc
 50
344.2366274627595
 51
344.3297229977264
  0
LINE
  5
4114
330
A
100
AcDbEntity
  8
MODEL
100
AcDbLine
 10
326.5564577241788
 20
398.8891096836062
 30
0.0
 11
326.2046156216945
 21
397.6243699138694
 31
0.0
  0
LINE
  5
4115
330
A
100
AcDbEntity
  8
MODEL
100
AcDbLine
 10
327.7475540251231
 20
403.1905922295034
 30
0.0
 11
327.4078760417388
 21
401.960694035093
 31
0.0
  0
LWPOLYLINE
  5
4116
330
A
100
AcDbEntity
  8
MODEL
100
AcDbPolyline
 90
       28
 70
     0
 43
0.0
 10
301.2601775115212
 20
278.1065401178389
 10
301.1730498259743
 20
279.2295259576827
 10
301.0917815154274
 20
280.3720735651045
 10
301.0174712126931
 20
281.5356172662764
 10
300.9512175505837
 20
282.717654619792
 10
300.8939665740212
 20
283.9171480279952
 10
300.8464201873024
 20
285.1323885065108
 10
300.8091887419899
 20
286.3615755182295
 10
300.7826994841774
 20
287.6032137018233
 10
300.7673186248024
 20
288.8557466608077
 10
300.7632292693337
 20
290.117801104167
 10
300.7706450408181
 20
291.3879427057295
 10
300.7896574919899
 20
292.6650423151045
 10
300.8203276580056
 20
293.9479707819014
 10
300.8627776091774
 20
295.2355379205733
 10
300.9170683806618
 20
296.526736651042
 10
300.9833220427712
 20
297.8201326471358
 10
301.0616911833962
 20
299.114138994792
 10
301.1522673552712
 20
300.4062532526045
 10
301.2551726287087
 20
301.692508135417
 10
301.3703459685524
 20
302.9661592584639
 10
301.4972075408181
 20
304.2155794244795
 10
301.6339568083962
 20
305.4207185846358
 10
301.7768095915993
 20
306.5508150201827
 10
301.9193571990212
 20
307.567996416667
 10
302.0540923064431
 20
308.4430879694014
 10
302.1752776091774
 20
309.1696199518233
 10
302.2908171599587
 20
309.8207429986983
  0
LINE
  5
4117
330
A
100
AcDbEntity
  8
MODEL
100
AcDbLine
 10
315.1510790621031
 20
358.9978951882913
 30
0.0
 11
315.5354872061322
 21
360.3115583046792
 31
0.0
  0
LINE
  5
4118
330
A
100
AcDbEntity
  8
MODEL
100
AcDbLine
 10
314.4047388598011
 20
356.4530125258509
 30
0.0
 11
314.5884025824193
 21
357.078643015522
 31
0.0
  0
LINE
  5
4119
330
A
100
AcDbEntity
  8
MODEL
100
AcDbLine
 10
312.0957923968136
 20
348.6147463289582
 30
0.0
 11
313.2275495332781
 21
352.4514132715093
 31
0.0
  0
LWPOLYLINE
  5
411A
330
A
100
AcDbEntity
  8
MODEL
100
AcDbPolyline
 90
        2
 70
     0
 43
0.0
 10
311.8126067107399
 20
347.655642901042
 10
311.8125761931618
 20
347.655642901042
  0
MTEXT
  5
4141
330
A
100
AcDbEntity
  8
DIM
390
1D
100
AcDbMText
 10
120.4395584356462
 20
189.8425285708799
 30
0.0
 40
4.8865234375
 41
0.0
 46
5.580670070612417
 71
     1
 72
     1
  1
{G1/2"}
  7
ＭＳ ゴシック
 73
     1
 44
0.7828267384257843
1001
ACAD
1000
ACAD_MTEXT_DEFINED_HEIGHT_BEGIN
1070
    46
1040
5.580670070612417
1000
ACAD_MTEXT_DEFINED_HEIGHT_END
  0
MTEXT
  5
4142
330
A
100
AcDbEntity
  8
DIM
390
1D
100
AcDbMText
 10
124.5327280628583
 20
197.5473184573968
 30
0.0
 40
4.8865234375
 41
0.0
 46
4.8865234375
 71
     1
 72
     1
  1
{▲}
  7
ＭＳ ゴシック
 73
     1
 44
0.7828267384257843
1001
ACAD
1000
ACAD_MTEXT_DEFINED_HEIGHT_BEGIN
1070
    46
1040
4.8865234375
1000
ACAD_MTEXT_DEFINED_HEIGHT_END
  0
VIEWPORT
  5
349
330
B
100
AcDbEntity
 67
     1
  8
0
100
AcDbViewport
 10
202.5
 20
128.5
 30
0.0
 40
486.0
 41
308.4
 68
     1
 69
     1
 12
202.5
 22
128.5
 13
0.0
 23
0.0
 14
0.5
 24
0.5
 15
0.0
 25
0.0
 16
0.0
 26
0.0
 36
1.0
 17
0.0
 27
0.0
 37
0.0
 42
50.0
 43
0.0
 44
0.0
 45
308.4
 50
0.0
 51
0.0
 72
   100
 90
   557152
  1

281
     0
 71
     1
 74
     0
110
0.0
120
0.0
130
0.0
111
1.0
121
0.0
131
0.0
112
0.0
122
1.0
132
0.0
 79
     0
146
0.0
170
     0
 61
     5
348
26C
292
     1
282
     1
141
0.0
142
0.0
 63
   256
  0
VIEWPORT
  5
34A
330
B
100
AcDbEntity
 67
     1
  8
0
100
AcDbViewport
 10
202.5
 20
128.5
 30
0.0
 40
324.0
 41
205.6
 68
     2
 69
     2
 12
986.6781359294573
 22
1427.077061889956
 13
0.0
 23
0.0
 14
0.5
 24
0.5
 15
0.0
 25
0.0
 16
0.0
 26
0.0
 36
1.0
 17
0.0
 27
0.0
 37
0.0
 42
50.0
 43
0.0
 44
0.0
 45
2890.021615685494
 50
0.0
 51
0.0
 72
   100
 90
   557152
  1

281
     0
 71
     1
 74
     0
110
0.0
120
0.0
130
0.0
111
1.0
121
0.0
131
0.0
112
0.0
122
1.0
132
0.0
 79
     0
146
0.0
170
     0
 61
     5
348
26C
292
     1
282
     1
141
0.0
142
0.0
 63
   256
  0
ENDSEC
  0
SECTION
  2
OBJECTS
  0
DICTIONARY
  5
19
330
0
100
AcDbDictionary
281
     1
  3
ACAD_COLOR
350
674
  3
ACAD_DETAILVIEWSTYLE
350
BBF
  3
ACAD_FIELDLIST
350
3BE4
  3
ACAD_GROUP
350
1A
  3
ACAD_IMAGE_VARS
350
27B
  3
ACAD_LAYOUT
350
1E
  3
ACAD_MATERIAL
350
263
  3
ACAD_MLEADERSTYLE
350
336
  3
ACAD_MLINESTYLE
350
1B
  3
ACAD_PLOTSETTINGS
350
22
  3
ACAD_PLOTSTYLENAME
350
1F
  3
ACAD_SCALELIST
350
241
  3
ACAD_SECTIONVIEWSTYLE
350
BC0
  3
ACAD_TABLESTYLE
350
278
  3
ACAD_VISUALSTYLE
350
267
  3
ACDB_RECOMPOSE_DATA
350
415A
  3
AcDbVariableDictionary
350
330
  3
APPDATA
350
27A
  3
DimOffsetDictionary
350
E38
  0
SUN
  5
904
330
15
100
AcDbSun
 90
        1
290
     0
 63
     7
421
 16777215
 40
1.0
291
     1
 91
  2455826
 92
 54000000
292
     0
 70
     2
 71
   256
280
     1
  0
DICTIONARY
  5
2E1
330
2
100
AcDbDictionary
280
     1
281
     1
  3
ACAD_LAYERSTATES
360
2E2
  3
ACLYDICTIONARY
360
DDE
  0
DICTIONARY
  5
3D3D
330
A
100
AcDbDictionary
280
     1
281
     1
  3
ACAD_SORTENTS
360
3D3E
  0
DICTIONARY
  5
3CB7
330
3CB5
100
AcDbDictionary
280
     1
281
     1
  3
ACAD_FIELD
360
4147
  0
DICTIONARY
  5
4065
330
4064
100
AcDbDictionary
280
     1
281
     1
  0
DICTIONARY
  5
4083
330
4082
100
AcDbDictionary
280
     1
281
     1
  0
DICTIONARY
  5
674
102
{ACAD_REACTORS
330
19
102
}
330
19
100
AcDbDictionary
281
     1
  0
DICTIONARY
  5
BBF
102
{ACAD_REACTORS
330
19
102
}
330
19
100
AcDbDictionary
281
     1
  0
FIELDLIST
  5
3BE4
102
{ACAD_REACTORS
330
19
102
}
330
19
100
AcDbIdSet
 90
        2
330
3CB9
330
3CB6
100
AcDbFieldList
  0
DICTIONARY
  5
1A
102
{ACAD_REACTORS
330
19
102
}
330
19
100
AcDbDictionary
281
     1
  3
*A1
350
3C75
  3
*A2
350
3D3C
  0
RASTERVARIABLES
  5
27B
102
{ACAD_REACTORS
330
19
102
}
330
19
100
AcDbRasterVariables
 90
        0
 70
     1
 71
     1
 72
     1
  0
DICTIONARY
  5
1E
102
{ACAD_REACTORS
330
19
102
}
330
19
100
AcDbDictionary
281
     1
  3
Layout1
350
21
  3
Model
350
20
  0
DICTIONARY
  5
263
102
{ACAD_REACTORS
330
19
102
}
330
19
100
AcDbDictionary
281
     1
  3
ByBlock
350
265
  3
ByLayer
350
264
  3
Global
350
266
  0
DICTIONARY
  5
336
102
{ACAD_REACTORS
330
19
102
}
330
19
100
AcDbDictionary
281
     1
  3
Standard
350
D59
  0
DICTIONARY
  5
1B
102
{ACAD_REACTORS
330
19
102
}
330
19
100
AcDbDictionary
281
     1
  3
Standard
350
1C
  0
DICTIONARY
  5
22
102
{ACAD_REACTORS
330
19
102
}
330
19
100
AcDbDictionary
281
     1
  0
ACDBDICTIONARYWDFLT
  5
1F
102
{ACAD_REACTORS
330
19
102
}
330
19
100
AcDbDictionary
281
     1
  3
Normal
350
1D
100
AcDbDictionaryWithDefault
340
1D
  0
DICTIONARY
  5
241
102
{ACAD_REACTORS
330
19
102
}
330
19
100
AcDbDictionary
281
     1
  3
A0
350
242
  3
A1
350
243
  3
A2
350
244
  3
A3
350
245
  3
A4
350
246
  3
A5
350
247
  3
A6
350
248
  3
A7
350
249
  3
A8
350
24A
  3
A9
350
24B
  3
B0
350
24C
  3
B1
350
24D
  3
B2
350
24E
  3
B3
350
24F
  3
B4
350
250
  3
B5
350
251
  3
B6
350
252
  3
B7
350
253
  3
B8
350
254
  3
B9
350
255
  3
C0
350
256
  3
C1
350
257
  3
C2
350
258
  3
C3
350
259
  3
C4
350
25A
  3
C5
350
25B
  3
C6
350
25C
  3
C7
350
25D
  3
C8
350
25E
  3
C9
350
25F
  3
D0
350
260
  3
D1
350
261
  3
D2
350
262
  0
DICTIONARY
  5
BC0
102
{ACAD_REACTORS
330
19
102
}
330
19
100
AcDbDictionary
281
     1
  0
DICTIONARY
  5
278
102
{ACAD_REACTORS
330
19
102
}
330
19
100
AcDbDictionary
281
     1
  3
Standard
350
279
  0
DICTIONARY
  5
267
102
{ACAD_REACTORS
330
19
102
}
330
19
100
AcDbDictionary
281
     1
  3
2dWireframe
350
26C
  3
3D Hidden
350
26E
  3
3dWireframe
350
26D
  3
Basic
350
26F
  3
Brighten
350
273
  3
ColorChange
350
277
  3
Conceptual
350
271
  3
Dim
350
272
  3
EdgeColorOff
350
8FE
  3
Facepattern
350
276
  3
Flat
350
268
  3
FlatWithEdges
350
269
  3
Gouraud
350
26A
  3
GouraudWithEdges
350
26B
  3
Hidden
350
8FB
  3
JitterOff
350
8FC
  3
Linepattern
350
275
  3
OverhangOff
350
8FD
  3
Realistic
350
270
  3
Shaded
350
903
  3
Shaded with edges
350
902
  3
Shades of Gray
350
8FF
  3
Sketchy
350
900
  3
Thicken
350
274
  3
Wireframe
350
8FA
  3
X-Ray
350
901
  0
XRECORD
  5
415A
102
{ACAD_REACTORS
330
19
102
}
330
19
100
AcDbXrecord
280
     1
 90
        1
330
279
  0
DICTIONARY
  5
330
102
{ACAD_REACTORS
330
19
102
}
330
19
100
AcDbDictionary
281
     1
  3
CANNOSCALE
350
331
  3
CMLEADERSTYLE
350
D5E
  3
CTABLESTYLE
350
335
  3
HPTRANSPARENCY
350
D52
  3
XCLIPFRAME
350
896
  0
DICTIONARY
  5
27A
102
{ACAD_REACTORS
330
19
102
}
330
19
100
AcDbDictionary
281
     1
  0
DICTIONARY
  5
E38
102
{ACAD_REACTORS
330
19
102
}
330
19
100
AcDbDictionary
281
     1
  3
DIMRAILANGLE
350
246C
  3
DIMRAILFIRSTOFFSET
350
246A
  3
DIMRAILOFFSET
350
246B
  3
DIMRAILSENABLED
350
246D
  0
DICTIONARY
  5
2E2
102
{ACAD_REACTORS
330
2E1
102
}
330
2E1
100
AcDbDictionary
281
     1
  0
DICTIONARY
  5
DDE
102
{ACAD_REACTORS
330
2E1
102
}
330
2E1
100
AcDbDictionary
281
     1
1001
ACAD
1000
<All
  0
SORTENTSTABLE
  5
3D3E
102
{ACAD_REACTORS
330
3D3D
102
}
330
3D3D
100
AcDbSortentsTable
330
A
331
0
  5
3C1E
331
0
  5
3D23
331
0
  5
3D22
331
3C64
  5
3C1F
331
3C65
  5
3C63
331
3C70
  5
3C64
331
3C71
  5
3C65
331
3C72
  5
3C70
331
3C73
  5
3C71
331
3C74
  5
3C72
331
0
  5
3C73
331
3C9A
  5
3C74
331
3CB5
  5
3C92
331
0
  5
3CB5
331
0
  5
3D18
331
0
  5
3D19
331
0
  5
3D1A
331
0
  5
3D1B
331
0
  5
3D1E
331
0
  5
3D21
  0
DICTIONARY
  5
4147
102
{ACAD_REACTORS
330
3CB7
102
}
330
3CB7
100
AcDbDictionary
280
     1
281
     1
  3
TEXT
360
3CB6
  0
GROUP
  5
3C75
102
{ACAD_REACTORS
330
1A
102
}
330
1A
100
AcDbGroup
300

 70
     1
 71
     1
340
3C64
340
3C65
340
3C70
340
3C71
340
3C72
340
3C73
340
3C74
  0
GROUP
  5
3D3C
102
{ACAD_REACTORS
330
1A
102
}
330
1A
100
AcDbGroup
300

 70
     1
 71
     1
  0
LAYOUT
  5
21
102
{ACAD_REACTORS
330
1E
102
}
330
1E
100
AcDbPlotSettings
  1

  2
none_device
  4
ISO_A3_(420.00_x_297.00_MM)
  6

 40
7.5
 41
20.0
 42
7.5
 43
20.0
 44
420.0
 45
297.0
 46
0.0
 47
0.0
 48
0.0
 49
0.0
140
0.0
141
0.0
142
1.0
143
1.0
 70
     0
 72
     1
 73
     0
 74
     0
  7

 75
     0
 76
     0
 77
     2
 78
   300
147
1.0
148
0.0
149
0.0
100
AcDbLayout
  1
Layout1
 70
     0
 71
     0
 10
-7.5
 20
-20.0
 11
412.5
 21
277.0
 12
0.0
 22
0.0
 32
0.0
 14
0.0
 24
0.0
 34
0.0
 15
0.0
 25
0.0
 35
0.0
146
0.0
 13
0.0
 23
0.0
 33
0.0
 16
0.0
 26
0.0
 36
0.0
 17
0.0
 27
0.0
 37
0.0
 76
     0
330
B
331
349
  0
LAYOUT
  5
20
102
{ACAD_REACTORS
330
1E
102
}
330
1E
100
AcDbPlotSettings
  1

  2
none_device
  4
ISO_A3_(420.00_x_297.00_MM)
  6

 40
7.5
 41
20.0
 42
7.5
 43
20.0
 44
420.0
 45
297.0
 46
0.0
 47
0.0
 48
0.0
 49
0.0
140
0.0
141
0.0
142
1.0
143
1.0
 70
  1024
 72
     1
 73
     0
 74
     0
  7

 75
     0
 76
     0
 77
     2
 78
   300
147
1.0
148
0.0
149
0.0
100
AcDbLayout
  1
Model
 70
     0
 71
     1
 10
0.0
 20
0.0
 11
420.0
 21
594.0
 12
0.0
 22
0.0
 32
0.0
 14
0.0
 24
0.0
 34
-0.0000000000000071
 15
420.0
 25
594.0
 35
0.0000000000000071
146
0.0
 13
0.0
 23
0.0
 33
0.0
 16
0.0
 26
0.0
 36
0.0
 17
0.0
 27
0.0
 37
0.0
 76
     0
330
A
331
15
  0
MATERIAL
  5
265
102
{ACAD_REACTORS
330
263
102
}
330
263
100
AcDbMaterial
  1
ByBlock
 72
     1
 94
      127
  0
MATERIAL
  5
264
102
{ACAD_REACTORS
330
263
102
}
330
263
100
AcDbMaterial
  1
ByLayer
 72
     1
 94
      127
  0
MATERIAL
  5
266
102
{ACAD_REACTORS
330
263
102
}
330
263
100
AcDbMaterial
  1
Global
 72
     1
 94
      127
  0
MLEADERSTYLE
  5
D59
102
{ACAD_REACTORS
330
336
102
}
330
336
100
AcDbMLeaderStyle
170
     2
171
     1
172
     0
 90
        2
 40
0.0
 41
0.0
173
     1
 91
-1056964608
340
11
 92
       -2
290
     1
 42
2.0
291
     1
 43
8.0
  3
Standard
341
0
 44
4.0
300

342
17
174
     1
178
     6
175
     1
176
     0
 93
-1056964608
 45
4.0
292
     0
297
     0
 46
4.0
343
0
 94
-1056964608
 47
1.0
 49
1.0
140
1.0
293
     1
141
0.0
294
     1
177
     0
142
1.0
295
     0
296
     0
143
3.75
1001
ACAD_MLEADERVER
1070
     2
  0
MLINESTYLE
  5
1C
102
{ACAD_REACTORS
330
1B
102
}
330
1B
100
AcDbMlineStyle
  2
Standard
 70
     0
  3

 62
     0
 51
90.0
 52
90.0
 71
     2
 49
0.5
 62
   256
  6
BYLAYER
 49
-0.5
 62
   256
  6
BYLAYER
  0
ACDBPLACEHOLDER
  5
1D
102
{ACAD_REACTORS
330
1F
102
}
330
1F
  0
SCALE
  5
242
102
{ACAD_REACTORS
330
241
102
}
330
241
100
AcDbScale
 70
     0
300
1:1
140
1.0
141
1.0
290
     1
  0
SCALE
  5
243
102
{ACAD_REACTORS
330
241
102
}
330
241
100
AcDbScale
 70
     0
300
1:2
140
1.0
141
2.0
290
     0
  0
SCALE
  5
244
102
{ACAD_REACTORS
330
241
102
}
330
241
100
AcDbScale
 70
     0
300
1:4
140
1.0
141
4.0
290
     0
  0
SCALE
  5
245
102
{ACAD_REACTORS
330
241
102
}
330
241
100
AcDbScale
 70
     0
300
1:5
140
1.0
141
5.0
290
     0
  0
SCALE
  5
246
102
{ACAD_REACTORS
330
241
102
}
330
241
100
AcDbScale
 70
     0
300
1:8
140
1.0
141
8.0
290
     0
  0
SCALE
  5
247
102
{ACAD_REACTORS
330
241
102
}
330
241
100
AcDbScale
 70
     0
300
1:10
140
1.0
141
10.0
290
     0
  0
SCALE
  5
248
102
{ACAD_REACTORS
330
241
102
}
330
241
100
AcDbScale
 70
     0
300
1:16
140
1.0
141
16.0
290
     0
  0
SCALE
  5
249
102
{ACAD_REACTORS
330
241
102
}
330
241
100
AcDbScale
 70
     0
300
1:20
140
1.0
141
20.0
290
     0
  0
SCALE
  5
24A
102
{ACAD_REACTORS
330
241
102
}
330
241
100
AcDbScale
 70
     0
300
1:30
140
1.0
141
30.0
290
     0
  0
SCALE
  5
24B
102
{ACAD_REACTORS
330
241
102
}
330
241
100
AcDbScale
 70
     0
300
1:40
140
1.0
141
40.0
290
     0
  0
SCALE
  5
24C
102
{ACAD_REACTORS
330
241
102
}
330
241
100
AcDbScale
 70
     0
300
1:50
140
1.0
141
50.0
290
     0
  0
SCALE
  5
24D
102
{ACAD_REACTORS
330
241
102
}
330
241
100
AcDbScale
 70
     0
300
1:100
140
1.0
141
100.0
290
     0
  0
SCALE
  5
24E
102
{ACAD_REACTORS
330
241
102
}
330
241
100
AcDbScale
 70
     0
300
2:1
140
2.0
141
1.0
290
     0
  0
SCALE
  5
24F
102
{ACAD_REACTORS
330
241
102
}
330
241
100
AcDbScale
 70
     0
300
4:1
140
4.0
141
1.0
290
     0
  0
SCALE
  5
250
102
{ACAD_REACTORS
330
241
102
}
330
241
100
AcDbScale
 70
     0
300
8:1
140
8.0
141
1.0
290
     0
  0
SCALE
  5
251
102
{ACAD_REACTORS
330
241
102
}
330
241
100
AcDbScale
 70
     0
300
10:1
140
10.0
141
1.0
290
     0
  0
SCALE
  5
252
102
{ACAD_REACTORS
330
241
102
}
330
241
100
AcDbScale
 70
     0
300
100:1
140
100.0
141
1.0
290
     0
  0
SCALE
  5
253
102
{ACAD_REACTORS
330
241
102
}
330
241
100
AcDbScale
 70
     0
300
1/128" = 1'-0"
140
0.0078125
141
12.0
290
     0
  0
SCALE
  5
254
102
{ACAD_REACTORS
330
241
102
}
330
241
100
AcDbScale
 70
     0
300
1/64" = 1'-0"
140
0.015625
141
12.0
290
     0
  0
SCALE
  5
255
102
{ACAD_REACTORS
330
241
102
}
330
241
100
AcDbScale
 70
     0
300
1/32" = 1'-0"
140
0.03125
141
12.0
290
     0
  0
SCALE
  5
256
102
{ACAD_REACTORS
330
241
102
}
330
241
100
AcDbScale
 70
     0
300
1/16" = 1'-0"
140
0.0625
141
12.0
290
     0
  0
SCALE
  5
257
102
{ACAD_REACTORS
330
241
102
}
330
241
100
AcDbScale
 70
     0
300
3/32" = 1'-0"
140
0.09375
141
12.0
290
     0
  0
SCALE
  5
258
102
{ACAD_REACTORS
330
241
102
}
330
241
100
AcDbScale
 70
     0
300
1/8" = 1'-0"
140
0.125
141
12.0
290
     0
  0
SCALE
  5
259
102
{ACAD_REACTORS
330
241
102
}
330
241
100
AcDbScale
 70
     0
300
3/16" = 1'-0"
140
0.1875
141
12.0
290
     0
  0
SCALE
  5
25A
102
{ACAD_REACTORS
330
241
102
}
330
241
100
AcDbScale
 70
     0
300
1/4" = 1'-0"
140
0.25
141
12.0
290
     0
  0
SCALE
  5
25B
102
{ACAD_REACTORS
330
241
102
}
330
241
100
AcDbScale
 70
     0
300
3/8" = 1'-0"
140
0.375
141
12.0
290
     0
  0
SCALE
  5
25C
102
{ACAD_REACTORS
330
241
102
}
330
241
100
AcDbScale
 70
     0
300
1/2" = 1'-0"
140
0.5
141
12.0
290
     0
  0
SCALE
  5
25D
102
{ACAD_REACTORS
330
241
102
}
330
241
100
AcDbScale
 70
     0
300
3/4" = 1'-0"
140
0.75
141
12.0
290
     0
  0
SCALE
  5
25E
102
{ACAD_REACTORS
330
241
102
}
330
241
100
AcDbScale
 70
     0
300
1" = 1'-0"
140
1.0
141
12.0
290
     0
  0
SCALE
  5
25F
102
{ACAD_REACTORS
330
241
102
}
330
241
100
AcDbScale
 70
     0
300
1-1/2" = 1'-0"
140
1.5
141
12.0
290
     0
  0
SCALE
  5
260
102
{ACAD_REACTORS
330
241
102
}
330
241
100
AcDbScale
 70
     0
300
3" = 1'-0"
140
3.0
141
12.0
290
     0
  0
SCALE
  5
261
102
{ACAD_REACTORS
330
241
102
}
330
241
100
AcDbScale
 70
     0
300
6" = 1'-0"
140
6.0
141
12.0
290
     0
  0
SCALE
  5
262
102
{ACAD_REACTORS
330
241
102
}
330
241
100
AcDbScale
 70
     0
300
1'-0" = 1'-0"
140
12.0
141
12.0
290
     0
  0
TABLESTYLE
  5
279
102
{ACAD_REACTORS
330
278
102
}
102
{ACAD_XDICTIONARY
360
4158
102
}
330
278
100
AcDbTableStyle
  3
Standard
 70
     0
 71
     0
 40
0.06
 41
0.06
280
     0
281
     0
  7
Standard
140
4.5
170
     2
 62
     0
 63
   257
283
     0
 90
        4
 91
        0
  1

274
    -2
284
     1
 64
     0
275
    -2
285
     1
 65
     0
276
    -2
286
     1
 66
     0
277
    -2
287
     1
 67
     0
278
    -2
288
     1
 68
     0
279
    -2
289
     1
 69
     0
  7
Standard
140
6.0
170
     5
 62
     0
 63
   257
283
     0
 90
        4
 91
        0
  1

274
    -2
284
     1
 64
     0
275
    -2
285
     1
 65
     0
276
    -2
286
     1
 66
     0
277
    -2
287
     1
 67
     0
278
    -2
288
     1
 68
     0
279
    -2
289
     1
 69
     0
  7
Standard
140
4.5
170
     5
 62
     0
 63
   257
283
     0
 90
        4
 91
        0
  1

274
    -2
284
     1
 64
     0
275
    -2
285
     1
 65
     0
276
    -2
286
     1
 66
     0
277
    -2
287
     1
 67
     0
278
    -2
288
     1
 68
     0
279
    -2
289
     1
 69
     0
  0
VISUALSTYLE
  5
26C
102
{ACAD_REACTORS
330
267
102
}
330
267
100
AcDbVisualStyle
  2
2dWireframe
 70
     4
 71
     0
 72
     2
 73
     0
 90
        0
 40
-0.6
 41
-30.0
 62
     5
 63
     7
421
 16777215
 74
     1
 91
        4
 64
     7
 65
   257
 75
     1
175
     1
 42
1.0
 92
        0
 66
   257
 43
1.0
 76
     1
 77
     6
 78
     2
 67
     7
 79
     5
170
     0
171
     0
290
     0
174
     0
 93
        1
 44
0.0
173
     0
291
     0
 45
0.0
  0
VISUALSTYLE
  5
26E
102
{ACAD_REACTORS
330
267
102
}
330
267
100
AcDbVisualStyle
  2
3D Hidden
 70
     6
 71
     1
 72
     2
 73
     2
 90
        0
 40
-0.6
 41
-30.0
 62
     5
 63
     7
421
 16777215
 74
     2
 91
        2
 64
     7
 65
   257
 75
     2
175
     1
 42
40.0
 92
        0
 66
   257
 43
1.0
 76
     1
 77
     6
 78
     2
 67
     7
 79
     3
170
     0
171
     0
290
     0
174
     0
 93
        1
 44
0.0
173
     0
291
     0
 45
0.0
  0
VISUALSTYLE
  5
26D
102
{ACAD_REACTORS
330
267
102
}
330
267
100
AcDbVisualStyle
  2
3dWireframe
 70
     5
 71
     0
 72
     2
 73
     0
 90
        0
 40
-0.6
 41
-30.0
 62
     5
 63
     7
421
 16777215
 74
     1
 91
        4
 64
     7
 65
   257
 75
     1
175
     1
 42
1.0
 92
        0
 66
   257
 43
1.0
 76
     1
 77
     6
 78
     2
 67
     7
 79
     5
170
     0
171
     0
290
     0
174
     0
 93
        1
 44
0.0
173
     0
291
     0
 45
0.0
  0
VISUALSTYLE
  5
26F
102
{ACAD_REACTORS
330
267
102
}
330
267
100
AcDbVisualStyle
  2
Basic
 70
     7
 71
     1
 72
     0
 73
     1
 90
        0
 40
-0.6
 41
-30.0
 62
     5
 63
     7
421
 16777215
 74
     0
 91
        4
 64
     7
 65
   257
 75
     1
175
     1
 42
1.0
 92
        8
 66
     7
 43
1.0
 76
     1
 77
     6
 78
     2
 67
     7
 79
     5
170
     0
171
     0
290
     0
174
     0
 93
        1
 44
0.0
173
     0
291
     1
 45
0.0
  0
VISUALSTYLE
  5
273
102
{ACAD_REACTORS
330
267
102
}
330
267
100
AcDbVisualStyle
  2
Brighten
 70
    12
 71
     2
 72
     2
 73
     0
 90
        0
 40
-0.6
 41
-30.0
 62
     5
 63
     7
421
 16777215
 74
     1
 91
        4
 64
     7
 65
   257
 75
     1
175
     1
 42
1.0
 92
        8
 66
     7
 43
1.0
 76
     1
 77
     6
 78
     2
 67
     7
 79
     5
170
     0
171
     0
290
     0
174
     0
 93
        1
 44
50.0
173
     0
291
     1
 45
0.0
  0
VISUALSTYLE
  5
277
102
{ACAD_REACTORS
330
267
102
}
330
267
100
AcDbVisualStyle
  2
ColorChange
 70
    16
 71
     2
 72
     2
 73
     3
 90
        0
 40
-0.6
 41
-30.0
 62
     5
 63
     8
421
  8421504
 74
     1
 91
        4
 64
     7
 65
   257
 75
     1
175
     1
 42
1.0
 92
        8
 66
     8
424
  8421504
 43
1.0
 76
     1
 77
     6
 78
     2
 67
     7
 79
     5
170
     0
171
     0
290
     0
174
     0
 93
        1
 44
0.0
173
     0
291
     1
 45
0.0
  0
VISUALSTYLE
  5
271
102
{ACAD_REACTORS
330
267
102
}
330
267
100
AcDbVisualStyle
  2
Conceptual
 70
     9
 71
     3
 72
     2
 73
     0
 90
        0
 40
-0.6
 41
-30.0
 62
     5
 63
     7
421
 16777215
 74
     2
 91
        2
 64
     7
 65
   257
 75
     1
175
     1
 42
40.0
 92
        8
 66
     7
 43
1.0
 76
     1
 77
     6
 78
     2
 67
     7
 79
     3
170
     0
171
     0
290
     0
174
     0
 93
        1
 44
0.0
173
     0
291
     0
 45
0.0
  0
VISUALSTYLE
  5
272
102
{ACAD_REACTORS
330
267
102
}
330
267
100
AcDbVisualStyle
  2
Dim
 70
    11
 71
     2
 72
     2
 73
     0
 90
        0
 40
-0.6
 41
-30.0
 62
     5
 63
     7
421
 16777215
 74
     1
 91
        4
 64
     7
 65
   257
 75
     1
175
     1
 42
1.0
 92
        8
 66
     7
 43
1.0
 76
     1
 77
     6
 78
     2
 67
     7
 79
     5
170
     0
171
     0
290
     0
174
     0
 93
        1
 44
-50.0
173
     0
291
     1
 45
0.0
  0
VISUALSTYLE
  5
8FE
102
{ACAD_REACTORS
330
267
102
}
330
267
100
AcDbVisualStyle
  2
EdgeColorOff
 70
    22
 71
     2
 72
     2
 73
     0
 90
        0
 40
0.6
 41
30.0
 62
     5
 63
     7
421
 16777215
 74
     1
 91
        4
 64
     7
 65
   257
 75
     1
175
     1
 42
1.0
 92
        8
 66
     7
 43
1.0
 76
     1
 77
     6
 78
     2
 67
     7
 79
     5
170
     0
171
     0
290
     0
174
     0
 93
        1
 44
0.0
173
     0
291
     1
 45
0.0
  0
VISUALSTYLE
  5
276
102
{ACAD_REACTORS
330
267
102
}
330
267
100
AcDbVisualStyle
  2
Facepattern
 70
    15
 71
     2
 72
     2
 73
     0
 90
        0
 40
-0.6
 41
-30.0
 62
     5
 63
     7
421
 16777215
 74
     1
 91
        4
 64
     7
 65
   257
 75
     1
175
     1
 42
1.0
 92
        8
 66
     7
 43
1.0
 76
     1
 77
     6
 78
     2
 67
     7
 79
     5
170
     0
171
     0
290
     0
174
     0
 93
        1
 44
0.0
173
     0
291
     1
 45
0.0
  0
VISUALSTYLE
  5
268
102
{ACAD_REACTORS
330
267
102
}
330
267
100
AcDbVisualStyle
  2
Flat
 70
     0
 71
     2
 72
     1
 73
     1
 90
        2
 40
-0.6
 41
30.0
 62
     5
 63
     7
421
 16777215
 74
     0
 91
        4
 64
     7
 65
   257
 75
     1
175
     1
 42
1.0
 92
        8
 66
     7
 43
1.0
 76
     1
 77
     6
 78
     2
 67
     7
 79
     5
170
     0
171
     0
290
     0
174
     0
 93
       13
 44
0.0
173
     0
291
     1
 45
0.0
  0
VISUALSTYLE
  5
269
102
{ACAD_REACTORS
330
267
102
}
330
267
100
AcDbVisualStyle
  2
FlatWithEdges
 70
     1
 71
     2
 72
     1
 73
     1
 90
        2
 40
-0.6
 41
30.0
 62
     5
 63
     7
421
 16777215
 74
     1
 91
        4
 64
     7
 65
   257
 75
     1
175
     1
 42
1.0
 92
        0
 66
   257
 43
1.0
 76
     1
 77
     6
 78
     2
 67
     7
 79
     5
170
     0
171
     0
290
     0
174
     0
 93
       13
 44
0.0
173
     0
291
     1
 45
0.0
  0
VISUALSTYLE
  5
26A
102
{ACAD_REACTORS
330
267
102
}
330
267
100
AcDbVisualStyle
  2
Gouraud
 70
     2
 71
     2
 72
     2
 73
     1
 90
        2
 40
-0.6
 41
30.0
 62
     5
 63
     7
421
 16777215
 74
     0
 91
        4
 64
     7
 65
   257
 75
     1
175
     1
 42
1.0
 92
        0
 66
     7
 43
1.0
 76
     1
 77
     6
 78
     2
 67
     7
 79
     5
170
     0
171
     0
290
     0
174
     0
 93
       13
 44
0.0
173
     0
291
     1
 45
0.0
  0
VISUALSTYLE
  5
26B
102
{ACAD_REACTORS
330
267
102
}
330
267
100
AcDbVisualStyle
  2
GouraudWithEdges
 70
     3
 71
     2
 72
     2
 73
     1
 90
        2
 40
-0.6
 41
30.0
 62
     5
 63
     7
421
 16777215
 74
     1
 91
        4
 64
     7
 65
   257
 75
     1
175
     1
 42
1.0
 92
        0
 66
   257
 43
1.0
 76
     1
 77
     6
 78
     2
 67
     7
 79
     5
170
     0
171
     0
290
     0
174
     0
 93
       13
 44
0.0
173
     0
291
     1
 45
0.0
  0
VISUALSTYLE
  5
8FB
102
{ACAD_REACTORS
330
267
102
}
330
267
100
AcDbVisualStyle
  2
Hidden
 70
     6
 71
     1
 72
     2
 73
     2
 90
        0
 40
0.6
 41
30.0
 62
     5
 63
     7
421
 16777215
 74
     2
 91
        2
 64
     7
 65
   257
 75
     2
175
     1
 42
40.0
 92
        0
 66
   257
 43
1.0
 76
     1
 77
     6
 78
     2
 67
     7
 79
     3
170
     0
171
     0
290
     0
174
     0
 93
        1
 44
0.0
173
     0
291
     0
 45
0.0
  0
VISUALSTYLE
  5
8FC
102
{ACAD_REACTORS
330
267
102
}
330
267
100
AcDbVisualStyle
  2
JitterOff
 70
    20
 71
     2
 72
     2
 73
     0
 90
        0
 40
0.6
 41
30.0
 62
     5
 63
     7
421
 16777215
 74
     1
 91
        4
 64
     7
 65
   257
 75
     1
175
     1
 42
1.0
 92
       10
 66
     7
 43
1.0
 76
     1
 77
     6
 78
     2
 67
     7
 79
     5
170
     0
171
     0
290
     0
174
     0
 93
        1
 44
0.0
173
     0
291
     1
 45
0.0
  0
VISUALSTYLE
  5
275
102
{ACAD_REACTORS
330
267
102
}
330
267
100
AcDbVisualStyle
  2
Linepattern
 70
    14
 71
     2
 72
     2
 73
     0
 90
        0
 40
-0.6
 41
-30.0
 62
     5
 63
     7
421
 16777215
 74
     1
 91
        4
 64
     7
 65
   257
 75
     7
175
     7
 42
1.0
 92
        8
 66
     7
 43
1.0
 76
     1
 77
     6
 78
     2
 67
     7
 79
     5
170
     0
171
     0
290
     0
174
     0
 93
        1
 44
0.0
173
     0
291
     1
 45
0.0
  0
VISUALSTYLE
  5
8FD
102
{ACAD_REACTORS
330
267
102
}
330
267
100
AcDbVisualStyle
  2
OverhangOff
 70
    21
 71
     2
 72
     2
 73
     0
 90
        0
 40
0.6
 41
30.0
 62
     5
 63
     7
421
 16777215
 74
     1
 91
        4
 64
     7
 65
   257
 75
     1
175
     1
 42
1.0
 92
        9
 66
     7
 43
1.0
 76
     1
 77
     6
 78
     2
 67
     7
 79
     5
170
     0
171
     0
290
     0
174
     0
 93
        1
 44
0.0
173
     0
291
     1
 45
0.0
  0
VISUALSTYLE
  5
270
102
{ACAD_REACTORS
330
267
102
}
330
267
100
AcDbVisualStyle
  2
Realistic
 70
     8
 71
     2
 72
     2
 73
     0
 90
        0
 40
-0.6
 41
-30.0
 62
     5
 63
     7
421
 16777215
 74
     1
 91
        0
 64
     7
 65
   257
 75
     1
175
     1
 42
1.0
 92
        8
 66
     8
424
  7895160
 43
1.0
 76
     1
 77
     6
 78
     2
 67
     7
 79
     5
170
     0
171
     0
290
     0
174
     0
 93
       13
 44
0.0
173
     0
291
     0
 45
0.0
  0
VISUALSTYLE
  5
903
102
{ACAD_REACTORS
330
267
102
}
330
267
100
AcDbVisualStyle
  2
Shaded
 70
    27
 71
     2
 72
     2
 73
     1
 90
        2
 40
0.6
 41
30.0
 62
     5
 63
     7
421
 16777215
 74
     0
 91
        4
 64
     7
 65
   257
 75
     1
175
     1
 42
1.0
 92
        8
 66
   257
 43
1.0
 76
     1
 77
     6
 78
     2
 67
     8
425
  7895160
 79
     3
170
     0
171
     0
290
     0
174
     0
 93
        5
 44
0.0
173
     0
291
     0
 45
0.0
  0
VISUALSTYLE
  5
902
102
{ACAD_REACTORS
330
267
102
}
330
267
100
AcDbVisualStyle
  2
Shaded with edges
 70
    26
 71
     2
 72
     2
 73
     1
 90
        2
 40
0.6
 41
30.0
 62
     5
 63
     7
421
 16777215
 74
     1
 91
       10
 64
     7
 65
   257
 75
     2
175
     1
 42
1.0
 92
        8
 66
   257
 43
1.0
 76
     1
 77
     6
 78
     2
 67
     7
 79
     3
170
     0
171
     0
290
     0
174
     0
 93
        5
 44
0.0
173
     0
291
     0
 45
0.0
  0
VISUALSTYLE
  5
8FF
102
{ACAD_REACTORS
330
267
102
}
330
267
100
AcDbVisualStyle
  2
Shades of Gray
 70
    23
 71
     2
 72
     2
 73
     3
 90
        0
 40
0.6
 41
30.0
 62
     5
 63
     7
421
 16777215
 74
     2
 91
        2
 64
     7
 65
     7
 75
     1
175
     1
 42
40.0
 92
        8
 66
     7
 43
1.0
 76
     1
 77
     6
 78
     2
 67
     7
 79
     3
170
     0
171
     0
290
     0
174
     0
 93
        1
 44
0.0
173
     0
291
     0
 45
0.0
  0
VISUALSTYLE
  5
900
102
{ACAD_REACTORS
330
267
102
}
330
267
100
AcDbVisualStyle
  2
Sketchy
 70
    24
 71
     1
 72
     2
 73
     2
 90
        0
 40
0.6
 41
30.0
 62
     5
 63
     7
421
 16777215
 74
     2
 91
        2
 64
     7
 65
     7
 75
     1
175
     1
 42
40.0
 92
       11
 66
     7
 43
1.0
 76
     1
 77
     6
 78
     2
 67
     7
 79
     6
170
     0
171
     0
290
     0
174
     0
 93
        1
 44
0.0
173
     0
291
     0
 45
0.0
  0
VISUALSTYLE
  5
274
102
{ACAD_REACTORS
330
267
102
}
330
267
100
AcDbVisualStyle
  2
Thicken
 70
    13
 71
     2
 72
     2
 73
     0
 90
        0
 40
-0.6
 41
-30.0
 62
     5
 63
     7
421
 16777215
 74
     1
 91
        4
 64
     7
 65
   257
 75
     1
175
     1
 42
1.0
 92
       12
 66
     7
 43
1.0
 76
     1
 77
     6
 78
     2
 67
     7
 79
     5
170
     0
171
     0
290
     0
174
     0
 93
        1
 44
0.0
173
     0
291
     1
 45
0.0
  0
VISUALSTYLE
  5
8FA
102
{ACAD_REACTORS
330
267
102
}
330
267
100
AcDbVisualStyle
  2
Wireframe
 70
     5
 71
     0
 72
     2
 73
     0
 90
        0
 40
0.6
 41
30.0
 62
     5
 63
     7
421
 16777215
 74
     1
 91
        4
 64
     7
 65
   257
 75
     1
175
     1
 42
1.0
 92
        0
 66
   257
 43
1.0
 76
     1
 77
     6
 78
     2
 67
     7
 79
     3
170
     0
171
     0
290
     0
174
     0
 93
        1
 44
0.0
173
     0
291
     0
 45
0.0
  0
VISUALSTYLE
  5
901
102
{ACAD_REACTORS
330
267
102
}
330
267
100
AcDbVisualStyle
  2
X-Ray
 70
    25
 71
     2
 72
     2
 73
     1
 90
        1
 40
0.5
 41
30.0
 62
     5
 63
     7
421
 16777215
 74
     1
 91
        0
 64
     7
 65
   257
 75
     1
175
     1
 42
1.0
 92
        8
 66
     7
 43
1.0
 76
     1
 77
     6
 78
     2
 67
     7
 79
     3
170
     0
171
     0
290
     0
174
     0
 93
       13
 44
0.0
173
     0
291
     0
 45
0.0
  0
DICTIONARYVAR
  5
331
102
{ACAD_REACTORS
330
330
102
}
330
330
100
DictionaryVariables
280
     0
  1
1:1
  0
DICTIONARYVAR
  5
D5E
102
{ACAD_REACTORS
330
330
102
}
330
330
100
DictionaryVariables
280
     0
  1
Standard
  0
DICTIONARYVAR
  5
335
102
{ACAD_REACTORS
330
330
102
}
330
330
100
DictionaryVariables
280
     0
  1
Standard
  0
DICTIONARYVAR
  5
D52
102
{ACAD_REACTORS
330
330
102
}
330
330
100
DictionaryVariables
280
     0
  1
ByLayer
  0
DICTIONARYVAR
  5
896
102
{ACAD_REACTORS
330
330
102
}
330
330
100
DictionaryVariables
280
     0
  1
0
  0
DICTIONARYVAR
  5
246C
102
{ACAD_REACTORS
330
E38
102
}
330
E38
100
DictionaryVariables
280
     0
  1
0.261799
  0
DICTIONARYVAR
  5
246A
102
{ACAD_REACTORS
330
E38
102
}
330
E38
100
DictionaryVariables
280
     0
  1
0.400000
  0
DICTIONARYVAR
  5
246B
102
{ACAD_REACTORS
330
E38
102
}
330
E38
100
DictionaryVariables
280
     0
  1
0.250000
  0
DICTIONARYVAR
  5
246D
102
{ACAD_REACTORS
330
E38
102
}
330
E38
100
DictionaryVariables
280
     0
  1
1
  0
FIELD
  5
3CB6
102
{ACAD_REACTORS
330
3CBA
330
4146
330
4147
102
}
330
4147
100
AcDbField
  1
_text
  2
{%<\_FldIdx 0>%N}
 90
        1
360
3CB9
 97
        0
 91
       63
 92
        0
 94
       11
 95
        2
 96
        0
300

 93
        1
  6
ACFD_FIELDTEXT_CHECKSUM
 93
        2
 90
        2
140
4438.0
 94
        0
300

302

304
ACVALUE_END
  7
ACFD_FIELD_VALUE
 93
        6
 90
        4
  1
{20211021N}
 94
        0
300

302

304
ACVALUE_END
301
{20211021N}
 98
       11
  0
DICTIONARY
  5
4158
330
279
100
AcDbDictionary
280
     1
281
     1
  3
ACAD_ROUNDTRIP_2008_TABLESTYLE_CELLSTYLEMAP
360
4159
  0
FIELD
  5
3CB9
330
3CB6
100
AcDbField
  1
AcVar
  2
\AcVar CreateDate \f "yyyyMMdd"
 90
        0
 97
        0
 91
       63
 92
        0
 94
       11
 95
        2
 96
        0
300

 93
        1
  6
Variable
 93
        2
 90
        4
  1
CreateDate
 94
        0
300

302

304
ACVALUE_END
  7
ACFD_FIELD_VALUE
 93
        6
 90
        8
 92
       16
310
E5070A0000001500060001000A000000
 94
        0
300
yyyyMMdd
302

304
ACVALUE_END
301
20211021
 98
        8
  0
CELLSTYLEMAP
  5
4159
102
{ACAD_REACTORS
330
4158
102
}
330
4158
100
AcDbCellStyleMap
 90
        3
300
CELLSTYLE
  1
TABLEFORMAT_BEGIN
 90
        5
170
     1
 91
        0
 92
    32768
 62
   257
 93
        1
300
CONTENTFORMAT
  1
CONTENTFORMAT_BEGIN
 90
        0
 91
        0
 92
        4
 93
        0
300

 40
0.0
140
1.0
 94
        5
 62
     0
340
17
144
6.0
309
CONTENTFORMAT_END
171
     1
301
MARGIN
  1
CELLMARGIN_BEGIN
 40
0.06
 40
0.06
 40
0.06
 40
0.06
 40
0.18
 40
0.18
309
CELLMARGIN_END
 94
        6
 95
        1
302
GRIDFORMAT
  1
GRIDFORMAT_BEGIN
 90
        0
 91
        1
 62
     0
 92
       -2
340
0
 93
        0
 40
0.045
309
GRIDFORMAT_END
 95
        2
302
GRIDFORMAT
  1
GRIDFORMAT_BEGIN
 90
        0
 91
        1
 62
     0
 92
       -2
340
0
 93
        0
 40
0.045
309
GRIDFORMAT_END
 95
        4
302
GRIDFORMAT
  1
GRIDFORMAT_BEGIN
 90
        0
 91
        1
 62
     0
 92
       -2
340
0
 93
        0
 40
0.045
309
GRIDFORMAT_END
 95
        8
302
GRIDFORMAT
  1
GRIDFORMAT_BEGIN
 90
        0
 91
        1
 62
     0
 92
       -2
340
0
 93
        0
 40
0.045
309
GRIDFORMAT_END
 95
       16
302
GRIDFORMAT
  1
GRIDFORMAT_BEGIN
 90
        0
 91
        1
 62
     0
 92
       -2
340
0
 93
        0
 40
0.045
309
GRIDFORMAT_END
 95
       32
302
GRIDFORMAT
  1
GRIDFORMAT_BEGIN
 90
        0
 91
        1
 62
     0
 92
       -2
340
0
 93
        0
 40
0.045
309
GRIDFORMAT_END
309
TABLEFORMAT_END
  1
CELLSTYLE_BEGIN
 90
        1
 91
        1
300
_TITLE
309
CELLSTYLE_END
300
CELLSTYLE
  1
TABLEFORMAT_BEGIN
 90
        5
170
     1
 91
        0
 92
        0
 62
   257
 93
        1
300
CONTENTFORMAT
  1
CONTENTFORMAT_BEGIN
 90
        0
 91
        0
 92
        4
 93
        0
300

 40
0.0
140
1.0
 94
        5
 62
     0
340
17
144
4.5
309
CONTENTFORMAT_END
171
     1
301
MARGIN
  1
CELLMARGIN_BEGIN
 40
0.06
 40
0.06
 40
0.06
 40
0.06
 40
0.18
 40
0.18
309
CELLMARGIN_END
 94
        6
 95
        1
302
GRIDFORMAT
  1
GRIDFORMAT_BEGIN
 90
        0
 91
        1
 62
     0
 92
       -2
340
0
 93
        0
 40
0.045
309
GRIDFORMAT_END
 95
        2
302
GRIDFORMAT
  1
GRIDFORMAT_BEGIN
 90
        0
 91
        1
 62
     0
 92
       -2
340
0
 93
        0
 40
0.045
309
GRIDFORMAT_END
 95
        4
302
GRIDFORMAT
  1
GRIDFORMAT_BEGIN
 90
        0
 91
        1
 62
     0
 92
       -2
340
0
 93
        0
 40
0.045
309
GRIDFORMAT_END
 95
        8
302
GRIDFORMAT
  1
GRIDFORMAT_BEGIN
 90
        0
 91
        1
 62
     0
 92
       -2
340
0
 93
        0
 40
0.045
309
GRIDFORMAT_END
 95
       16
302
GRIDFORMAT
  1
GRIDFORMAT_BEGIN
 90
        0
 91
        1
 62
     0
 92
       -2
340
0
 93
        0
 40
0.045
309
GRIDFORMAT_END
 95
       32
302
GRIDFORMAT
  1
GRIDFORMAT_BEGIN
 90
        0
 91
        1
 62
     0
 92
       -2
340
0
 93
        0
 40
0.045
309
GRIDFORMAT_END
309
TABLEFORMAT_END
  1
CELLSTYLE_BEGIN
 90
        2
 91
        1
300
_HEADER
309
CELLSTYLE_END
300
CELLSTYLE
  1
TABLEFORMAT_BEGIN
 90
        5
170
     1
 91
        0
 92
        0
 62
   257
 93
        1
300
CONTENTFORMAT
  1
CONTENTFORMAT_BEGIN
 90
        0
 91
        0
 92
        4
 93
        0
300

 40
0.0
140
1.0
 94
        2
 62
     0
340
17
144
4.5
309
CONTENTFORMAT_END
171
     1
301
MARGIN
  1
CELLMARGIN_BEGIN
 40
0.06
 40
0.06
 40
0.06
 40
0.06
 40
0.18
 40
0.18
309
CELLMARGIN_END
 94
        6
 95
        1
302
GRIDFORMAT
  1
GRIDFORMAT_BEGIN
 90
        0
 91
        1
 62
     0
 92
       -2
340
0
 93
        0
 40
0.045
309
GRIDFORMAT_END
 95
        2
302
GRIDFORMAT
  1
GRIDFORMAT_BEGIN
 90
        0
 91
        1
 62
     0
 92
       -2
340
0
 93
        0
 40
0.045
309
GRIDFORMAT_END
 95
        4
302
GRIDFORMAT
  1
GRIDFORMAT_BEGIN
 90
        0
 91
        1
 62
     0
 92
       -2
340
0
 93
        0
 40
0.045
309
GRIDFORMAT_END
 95
        8
302
GRIDFORMAT
  1
GRIDFORMAT_BEGIN
 90
        0
 91
        1
 62
     0
 92
       -2
340
0
 93
        0
 40
0.045
309
GRIDFORMAT_END
 95
       16
302
GRIDFORMAT
  1
GRIDFORMAT_BEGIN
 90
        0
 91
        1
 62
     0
 92
       -2
340
0
 93
        0
 40
0.045
309
GRIDFORMAT_END
 95
       32
302
GRIDFORMAT
  1
GRIDFORMAT_BEGIN
 90
        0
 91
        1
 62
     0
 92
       -2
340
0
 93
        0
 40
0.045
309
GRIDFORMAT_END
309
TABLEFORMAT_END
  1
CELLSTYLE_BEGIN
 90
        3
 91
        2
300
_DATA
309
CELLSTYLE_END
  0
ENDSEC
  0
EOF
