  0
SECTION
  2
HEADER
  9
$ACADVER
  1
AC1021
  9
$ACADMAINTVER
 70
    25
  9
$DWGCODEPAGE
  3
ANSI_932
  9
$LASTSAVEDBY
  1
howeNelson
  9
$INSBASE
 10
0.0
 20
0.0
 30
0.0
  9
$EXTMIN
 10
0.0
 20
0.0
 30
0.0
  9
$EXTMAX
 10
1050.0
 20
1485.0
 30
0.0000000000000071
  9
$LIMMIN
 10
0.0
 20
0.0
  9
$LIMMAX
 10
1050.0
 20
1485.0
  9
$ORTHOMODE
 70
     0
  9
$REGENMODE
 70
     1
  9
$FILLMODE
 70
     1
  9
$QTEXTMODE
 70
     0
  9
$MIRRTEXT
 70
     1
  9
$LTSCALE
 40
50.0
  9
$ATTMODE
 70
     1
  9
$TEXTSIZE
 40
2.5
  9
$TRACEWID
 40
1.0
  9
$TEXTSTYLE
  7
ＭＳ ゴシック
  9
$CLAYER
  8
DIM
  9
$CELTYPE
  6
ByLayer
  9
$CECOLOR
 62
   256
  9
$CELTSCALE
 40
0.05
  9
$DISPSILH
 70
     0
  9
$DIMSCALE
 40
1.0
  9
$DIMASZ
 40
3.0
  9
$DIMEXO
 40
10.0
  9
$DIMDLI
 40
0.9999999999999999
  9
$DIMRND
 40
0.0
  9
$DIMDLE
 40
0.0
  9
$DIMEXE
 40
0.0
  9
$DIMTP
 40
0.0
  9
$DIMTM
 40
0.0
  9
$DIMTXT
 40
12.0
  9
$DIMCEN
 40
0.0
  9
$DIMTSZ
 40
0.0
  9
$DIMTOL
 70
     0
  9
$DIMLIM
 70
     0
  9
$DIMTIH
 70
     0
  9
$DIMTOH
 70
     0
  9
$DIMSE1
 70
     0
  9
$DIMSE2
 70
     0
  9
$DIMTAD
 70
     1
  9
$DIMZIN
 70
    11
  9
$DIMBLK
  1
DOT
  9
$DIMASO
 70
     1
  9
$DIMSHO
 70
     1
  9
$DIMPOST
  1
<>
  9
$DIMAPOST
  1
[]
  9
$DIMALT
 70
     0
  9
$DIMALTD
 70
     1
  9
$DIMALTF
 40
1.0
  9
$DIMLFAC
 40
1.0
  9
$DIMTOFL
 70
     0
  9
$DIMTVP
 40
0.0
  9
$DIMTIX
 70
     1
  9
$DIMSOXD
 70
     0
  9
$DIMSAH
 70
     0
  9
$DIMBLK1
  1

  9
$DIMBLK2
  1

  9
$DIMSTYLE
  2
tfrom線あり
  9
$DIMCLRD
 70
     0
  9
$DIMCLRE
 70
     0
  9
$DIMCLRT
 70
     0
  9
$DIMTFAC
 40
1.0
  9
$DIMGAP
 40
10.0
  9
$DIMJUST
 70
     0
  9
$DIMSD1
 70
     0
  9
$DIMSD2
 70
     0
  9
$DIMTOLJ
 70
     1
  9
$DIMTZIN
 70
    11
  9
$DIMALTZ
 70
    11
  9
$DIMALTTZ
 70
    11
  9
$DIMUPT
 70
     0
  9
$DIMDEC
 70
     0
  9
$DIMTDEC
 70
     1
  9
$DIMALTU
 70
     2
  9
$DIMALTTD
 70
     2
  9
$DIMTXSTY
  7
ＭＳ ゴシック
  9
$DIMAUNIT
 70
     0
  9
$DIMADEC
 70
     2
  9
$DIMALTRND
 40
0.0
  9
$DIMAZIN
 70
     0
  9
$DIMDSEP
 70
    46
  9
$DIMATFIT
 70
     0
  9
$DIMFRAC
 70
     2
  9
$DIMLDRBLK
  1
DOT
  9
$DIMLUNIT
 70
     2
  9
$DIMLWD
 70
    -2
  9
$DIMLWE
 70
    -2
  9
$DIMTMOVE
 70
     0
  9
$DIMFXL
 40
1.0
  9
$DIMFXLON
 70
     0
  9
$DIMJOGANG
 40
0.7853981633974483
  9
$DIMTFILL
 70
     0
  9
$DIMTFILLCLR
 70
     0
  9
$DIMARCSYM
 70
     0
  9
$DIMLTYPE
  6

  9
$DIMLTEX1
  6

  9
$DIMLTEX2
  6

  9
$LUNITS
 70
     2
  9
$LUPREC
 70
     0
  9
$SKETCHINC
 40
0.1
  9
$FILLETRAD
 40
0.0
  9
$AUNITS
 70
     0
  9
$AUPREC
 70
     0
  9
$MENU
  1
acad
  9
$ELEVATION
 40
0.0
  9
$PELEVATION
 40
0.0
  9
$THICKNESS
 40
0.0
  9
$LIMCHECK
 70
     0
  9
$CHAMFERA
 40
0.0
  9
$CHAMFERB
 40
0.0
  9
$CHAMFERC
 40
0.0
  9
$CHAMFERD
 40
0.0
  9
$SKPOLY
 70
     0
  9
$TDCREATE
 40
2447893.375
  9
$TDUCREATE
 40
0.0
  9
$TDUPDATE
 40
2457596.667154873
  9
$TDUUPDATE
 40
2457596.292154873
  9
$TDINDWG
 40
0.2834416898
  9
$TDUSRTIMER
 40
2457596.29099309
  9
$USRTIMER
 70
     1
  9
$ANGBASE
 50
0.0
  9
$ANGDIR
 70
     0
  9
$PDMODE
 70
     1
  9
$PDSIZE
 40
-2.0
  9
$PLINEWID
 40
0.0
  9
$SPLFRAME
 70
     0
  9
$SPLINETYPE
 70
     6
  9
$SPLINESEGS
 70
     8
  9
$HANDSEED
  5
78B8
  9
$SURFTAB1
 70
     6
  9
$SURFTAB2
 70
     6
  9
$SURFTYPE
 70
     6
  9
$SURFU
 70
     6
  9
$SURFV
 70
     6
  9
$UCSBASE
  2

  9
$UCSNAME
  2

  9
$UCSORG
 10
0.0
 20
0.0
 30
0.0
  9
$UCSXDIR
 10
1.0
 20
0.0
 30
0.0
  9
$UCSYDIR
 10
0.0
 20
1.0
 30
0.0
  9
$UCSORTHOREF
  2

  9
$UCSORTHOVIEW
 70
     0
  9
$UCSORGTOP
 10
0.0
 20
0.0
 30
0.0
  9
$UCSORGBOTTOM
 10
0.0
 20
0.0
 30
0.0
  9
$UCSORGLEFT
 10
0.0
 20
0.0
 30
0.0
  9
$UCSORGRIGHT
 10
0.0
 20
0.0
 30
0.0
  9
$UCSORGFRONT
 10
0.0
 20
0.0
 30
0.0
  9
$UCSORGBACK
 10
0.0
 20
0.0
 30
0.0
  9
$PUCSBASE
  2

  9
$PUCSNAME
  2

  9
$PUCSORG
 10
0.0
 20
0.0
 30
0.0
  9
$PUCSXDIR
 10
1.0
 20
0.0
 30
0.0
  9
$PUCSYDIR
 10
0.0
 20
1.0
 30
0.0
  9
$PUCSORTHOREF
  2

  9
$PUCSORTHOVIEW
 70
     0
  9
$PUCSORGTOP
 10
0.0
 20
0.0
 30
0.0
  9
$PUCSORGBOTTOM
 10
0.0
 20
0.0
 30
0.0
  9
$PUCSORGLEFT
 10
0.0
 20
0.0
 30
0.0
  9
$PUCSORGRIGHT
 10
0.0
 20
0.0
 30
0.0
  9
$PUCSORGFRONT
 10
0.0
 20
0.0
 30
0.0
  9
$PUCSORGBACK
 10
0.0
 20
0.0
 30
0.0
  9
$USERI1
 70
     0
  9
$USERI2
 70
     0
  9
$USERI3
 70
     0
  9
$USERI4
 70
     0
  9
$USERI5
 70
     0
  9
$USERR1
 40
0.0
  9
$USERR2
 40
0.0
  9
$USERR3
 40
0.0
  9
$USERR4
 40
0.0
  9
$USERR5
 40
0.0
  9
$WORLDVIEW
 70
     1
  9
$SHADEDGE
 70
     3
  9
$SHADEDIF
 70
    70
  9
$TILEMODE
 70
     1
  9
$MAXACTVP
 70
    64
  9
$PINSBASE
 10
0.0
 20
0.0
 30
0.0
  9
$PLIMCHECK
 70
     0
  9
$PEXTMIN
 10
0.0
 20
0.0
 30
0.0
  9
$PEXTMAX
 10
0.0
 20
0.0
 30
0.0
  9
$PLIMMIN
 10
-95.87226993865028
 20
-25.69999999999999
  9
$PLIMMAX
 10
201.1277300613497
 20
184.3
  9
$UNITMODE
 70
     0
  9
$VISRETAIN
 70
     0
  9
$PLINEGEN
 70
     1
  9
$PSLTSCALE
 70
     0
  9
$TREEDEPTH
 70
  3020
  9
$CMLSTYLE
  2
Standard
  9
$CMLJUST
 70
     0
  9
$CMLSCALE
 40
1.0
  9
$PROXYGRAPHICS
 70
     0
  9
$MEASUREMENT
 70
     1
  9
$CELWEIGHT
370
    -1
  9
$ENDCAPS
280
     0
  9
$JOINSTYLE
280
     0
  9
$LWDISPLAY
290
     1
  9
$INSUNITS
 70
     4
  9
$HYPERLINKBASE
  1

  9
$STYLESHEET
  1

  9
$XEDIT
290
     1
  9
$CEPSNTYPE
380
     0
  9
$PSTYLEMODE
290
     1
  9
$FINGERPRINTGUID
  2

  9
$VERSIONGUID
  2

  9
$EXTNAMES
290
     1
  9
$PSVPSCALE
 40
0.0
  9
$OLESTARTUP
290
     0
  9
$SORTENTS
280
   127
  9
$INDEXCTL
280
     0
  9
$HIDETEXT
280
     1
  9
$XCLIPFRAME
290
     0
  9
$HALOGAP
280
     0
  9
$OBSCOLOR
 70
   257
  9
$OBSLTYPE
280
     0
  9
$INTERSECTIONDISPLAY
280
     0
  9
$INTERSECTIONCOLOR
 70
   257
  9
$DIMASSOC
280
     2
  9
$PROJECTNAME
  1

  9
$CAMERADISPLAY
290
     0
  9
$LENSLENGTH
 40
50.0
  9
$CAMERAHEIGHT
 40
0.0
  9
$STEPSPERSEC
 40
2.0
  9
$STEPSIZE
 40
6.0
  9
$3DDWFPREC
 40
2.0
  9
$PSOLWIDTH
 40
0.25
  9
$PSOLHEIGHT
 40
4.0
  9
$LOFTANG1
 40
1.570796326794897
  9
$LOFTANG2
 40
1.570796326794897
  9
$LOFTMAG1
 40
0.0
  9
$LOFTMAG2
 40
0.0
  9
$LOFTPARAM
 70
     7
  9
$LOFTNORMALS
280
     1
  9
$LATITUDE
 40
37.795
  9
$LONGITUDE
 40
-122.394
  9
$NORTHDIRECTION
 40
0.0
  9
$TIMEZONE
 70
 -8000
  9
$LIGHTGLYPHDISPLAY
280
     1
  9
$TILEMODELIGHTSYNCH
280
     1
  9
$SOLIDHIST
280
     1
  9
$SHOWHIST
280
     1
  9
$DWFFRAME
280
     2
  9
$DGNFRAME
280
     2
  9
$REALWORLDSCALE
290
     1
  9
$INTERFERECOLOR
 62
   256
  9
$CSHADOW
280
     0
  9
$SHADOWPLANELOCATION
 40
0.0
  0
ENDSEC
  0
SECTION
  2
CLASSES
  0
CLASS
  1
LWPOLYLINE
  2
AcDbPolyline
  3
ObjectDBX Classes
 90
        0
 91
        1
280
     0
281
     1
  0
CLASS
  1
IMAGE
  2
AcDbRasterImage
  3
ISM
 90
      127
 91
        7
280
     0
281
     1
  0
CLASS
  1
OLE2FRAME
  2
AcDbOle2Frame
  3
ObjectDBX Classes
 90
        0
 91
        1
280
     0
281
     1
  0
CLASS
  1
HATCH
  2
AcDbHatch
  3
ObjectDBX Classes
 90
        0
 91
        1
280
     0
281
     1
  0
CLASS
  1
DICTIONARYVAR
  2
AcDbDictionaryVar
  3
ObjectDBX Classes
 90
        0
 91
        8
280
     0
281
     0
  0
CLASS
  1
RASTERVARIABLES
  2
AcDbRasterVariables
  3
ISM
 90
        0
 91
        8
280
     0
281
     0
  0
CLASS
  1
IMAGEDEF
  2
AcDbRasterImageDef
  3
ISM
 90
        0
 91
        6
280
     0
281
     0
  0
CLASS
  1
IMAGEDEF_REACTOR
  2
AcDbRasterImageDefReactor
  3
ISM
 90
        1
 91
        6
280
     0
281
     0
  0
CLASS
  1
IDBUFFER
  2
AcDbIdBuffer
  3
ObjectDBX Classes
 90
        0
 91
        6
280
     0
281
     0
  0
CLASS
  1
SPATIAL_FILTER
  2
AcDbSpatialFilter
  3
ObjectDBX Classes
 90
        0
 91
        6
280
     0
281
     0
  0
CLASS
  1
XRECORD
  2
AcDbXrecord
  3
ObjectDBX Classes
 90
        0
 91
        1
280
     0
281
     0
  0
CLASS
  1
SORTENTSTABLE
  2
AcDbSortentsTable
  3
ObjectDBX Classes
 90
        0
 91
        6
280
     0
281
     0
  0
CLASS
  1
LAYER_INDEX
  2
AcDbLayerIndex
  3
ObjectDBX Classes
 90
        0
 91
        6
280
     0
281
     0
  0
CLASS
  1
SPATIAL_INDEX
  2
AcDbSpatialIndex
  3
AutoCAD 2000
 90
        0
 91
        6
280
     0
281
     0
  0
CLASS
  1
OBJECT_PTR
  2
CAseDLPNTableRecord
  3
ASE-LPNTableRecord
 90
        1
 91
        6
280
     0
281
     0
  0
CLASS
  1
LAYOUT
  2
AcDbLayout
  3
ObjectDBX Classes
 90
        0
 91
        1
280
     0
281
     0
  0
CLASS
  1
PLOTSETTINGS
  2
AcDbPlotSettings
  3
ObjectDBX Classes
 90
        0
 91
        6
280
     0
281
     0
  0
CLASS
  1
ACDBDICTIONARYWDFLT
  2
AcDbDictionaryWithDefault
  3
ObjectDBX Classes
 90
        0
 91
        8
280
     0
281
     0
  0
CLASS
  1
ACDBPLACEHOLDER
  2
AcDbPlaceHolder
  3
ObjectDBX Classes
 90
        0
 91
        1
280
     0
281
     0
  0
CLASS
  1
SCALE
  2
AcDbScale
  3
ObjectDBX Classes
 90
     1153
 91
        8
280
     0
281
     0
  0
CLASS
  1
MATERIAL
  2
AcDbMaterial
  3
ObjectDBX Classes
 90
     1153
 91
        8
280
     0
281
     0
  0
CLASS
  1
VISUALSTYLE
  2
AcDbVisualStyle
  3
ObjectDBX Classes
 90
     4095
 91
        8
280
     0
281
     0
  0
CLASS
  1
TABLESTYLE
  2
AcDbTableStyle
  3
ObjectDBX Classes
 90
     4095
 91
        8
280
     0
281
     0
  0
CLASS
  1
DIMASSOC
  2
AcDbDimAssoc
  3
"AcDbDimAssoc|Product Desc:     AcDim ARX App For Dimension|Company:          Autodesk, Inc.|WEB Address:      www.autodesk.com"
 90
        0
 91
        6
280
     0
281
     0
  0
CLASS
  1
CELLSTYLEMAP
  2
AcDbCellStyleMap
  3
ObjectDBX Classes
 90
     1152
 91
        7
280
     0
281
     0
  0
CLASS
  1
SUN
  2
AcDbSun
  3
SCENEOE
 90
     1153
 91
        8
280
     0
281
     0
  0
CLASS
  1
MLEADERSTYLE
  2
AcDbMLeaderStyle
  3
ACDB_MLEADERSTYLE_CLASS
 90
     4095
 91
        8
280
     0
281
     0
  0
CLASS
  1
FIELD
  2
AcDbField
  3
ObjectDBX Classes
 90
     1152
 91
        6
280
     0
281
     0
  0
CLASS
  1
FIELDLIST
  2
AcDbFieldList
  3
ObjectDBX Classes
 90
     1152
 91
        6
280
     0
281
     0
  0
ENDSEC
  0
SECTION
  2
TABLES
  0
TABLE
  2
VPORT
  5
7
330
0
100
AcDbSymbolTable
 70
     1
  0
VPORT
  5
15
330
7
100
AcDbSymbolTableRecord
100
AcDbViewportTableRecord
  2
*ACTIVE
 70
     0
 10
0.0
 20
0.0
 11
1.0
 21
1.0
 12
616.0201356709076
 22
668.901285469834
 13
0.0
 23
0.0
 14
1.0
 24
1.0
 15
0.0
 25
0.0
 16
0.0
 26
0.0
 36
1.0
 17
-91.02013567090762
 27
73.59871453016603
 37
-46.86809886248109
 40
1514.7
 41
2.479940564635958
 42
50.0
 43
0.0
 44
0.0
 50
0.0
 51
0.0
 71
    16
 72
  2000
 73
     1
 74
     1
 75
     0
 76
     0
 77
     0
 78
     0
281
     0
 65
     1
110
0.0
120
0.0
130
0.0
111
1.0
121
0.0
131
0.0
112
0.0
122
1.0
132
0.0
 79
     0
146
0.0
348
26C
 60
     3
 61
     5
292
     1
282
     1
141
0.0
142
0.0
 63
   256
361
904
  0
ENDTAB
  0
TABLE
  2
LTYPE
  5
4
330
0
100
AcDbSymbolTable
 70
     3
  0
LTYPE
  5
11
330
4
100
AcDbSymbolTableRecord
100
AcDbLinetypeTableRecord
  2
ByBlock
 70
     0
  3

 72
    65
 73
     0
 40
0.0
  0
LTYPE
  5
12
330
4
100
AcDbSymbolTableRecord
100
AcDbLinetypeTableRecord
  2
ByLayer
 70
     0
  3

 72
    65
 73
     0
 40
0.0
  0
LTYPE
  5
13
330
4
100
AcDbSymbolTableRecord
100
AcDbLinetypeTableRecord
  2
Continuous
 70
     0
  3
Solid line
 72
    65
 73
     0
 40
0.0
  0
LTYPE
  5
D6C
330
4
100
AcDbSymbolTableRecord
100
AcDbLinetypeTableRecord
  2
BORDER
 70
     0
  3
Border __  __  . __  __  . __  __  . __  __  . 
 72
    65
 73
     6
 40
44.45
 49
12.7
 74
     0
 49
-6.35
 74
     0
 49
12.7
 74
     0
 49
-6.35
 74
     0
 49
0.0
 74
     0
 49
-6.35
 74
     0
  0
LTYPE
  5
31A0
330
4
100
AcDbSymbolTableRecord
100
AcDbLinetypeTableRecord
  2
CENTER
 70
     0
  3
 Center _____  _  _____  _  _____  _  _____  _ 
 72
    65
 73
     4
 40
50.8
 49
31.75
 74
     0
 49
-6.35
 74
     0
 49
6.35
 74
     0
 49
-6.35
 74
     0
  0
ENDTAB
  0
TABLE
  2
LAYER
  5
2
102
{ACAD_XDICTIONARY
360
2E1
102
}
330
0
100
AcDbSymbolTable
 70
    11
  0
LAYER
  5
14
330
2
100
AcDbSymbolTableRecord
100
AcDbLayerTableRecord
  2
0
 70
     0
 62
     7
  6
Continuous
370
    -3
390
1D
347
266
  0
LAYER
  5
4B
330
2
100
AcDbSymbolTableRecord
100
AcDbLayerTableRecord
  2
TEMPLATE
 70
     0
 62
     7
  6
Continuous
370
    20
390
1D
347
266
  0
LAYER
  5
4C
330
2
100
AcDbSymbolTableRecord
100
AcDbLayerTableRecord
  2
DIM
 70
     0
 62
     3
  6
Continuous
370
    13
390
1D
347
266
  0
LAYER
  5
4D
330
2
100
AcDbSymbolTableRecord
100
AcDbLayerTableRecord
  2
MODEL
 70
     0
 62
     7
  6
Continuous
370
    20
390
1D
347
266
  0
LAYER
  5
667
330
2
100
AcDbSymbolTableRecord
100
AcDbLayerTableRecord
  2
LOGO
 70
     0
 62
     7
  6
Continuous
370
    -3
390
1D
347
266
  0
LAYER
  5
D6B
330
2
100
AcDbSymbolTableRecord
100
AcDbLayerTableRecord
  2
BORDER
 70
     0
 62
     4
  6
BORDER
290
     0
370
    20
390
1D
347
266
1001
AcAecLayerStandard
1000

1000

  0
LAYER
  5
D8C
330
2
100
AcDbSymbolTableRecord
100
AcDbLayerTableRecord
  2
Defpoints
 70
     0
 62
     7
  6
Continuous
290
     0
370
    -3
390
1D
347
266
  0
LAYER
  5
1635
330
2
100
AcDbSymbolTableRecord
100
AcDbLayerTableRecord
  2
Standard
 70
     0
 62
     7
  6
Continuous
370
    -3
390
1D
347
266
  0
LAYER
  5
3472
330
2
100
AcDbSymbolTableRecord
100
AcDbLayerTableRecord
  2
Layer11
 70
     0
 62
     7
  6
Continuous
370
    -3
390
1D
347
266
  0
LAYER
  5
5E69
330
2
100
AcDbSymbolTableRecord
100
AcDbLayerTableRecord
  2
1_10
 70
     0
 62
     7
  6
Continuous
370
    -3
390
1D
347
266
  0
LAYER
  5
6C65
330
2
100
AcDbSymbolTableRecord
100
AcDbLayerTableRecord
  2
レイヤー 1
 70
     0
 62
     7
  6
Continuous
370
    -3
390
1D
347
266
  0
ENDTAB
  0
TABLE
  2
STYLE
  5
3
330
0
100
AcDbSymbolTable
 70
     2
  0
STYLE
  5
17
330
3
100
AcDbSymbolTableRecord
100
AcDbTextStyleTableRecord
  2
Standard
 70
     0
 40
0.0
 41
1.0
 50
0.0
 71
     0
 42
2.5
  3
txt
  4
BIGFONT.SHX
  0
STYLE
  5
39
330
3
100
AcDbSymbolTableRecord
100
AcDbTextStyleTableRecord
  2
ＭＳ ゴシック
 70
     0
 40
0.0
 41
1.0
 50
0.0
 71
     0
 42
2.5
  3
msgothic.ttc
  4
ＭＳ ゴシック
1001
ACAD
1000
ＭＳ ゴシック
1071
        0
  0
ENDTAB
  0
TABLE
  2
VIEW
  5
5
330
0
100
AcDbSymbolTable
 70
     0
  0
ENDTAB
  0
TABLE
  2
UCS
  5
6
330
0
100
AcDbSymbolTable
 70
     0
  0
ENDTAB
  0
TABLE
  2
APPID
  5
8
330
0
100
AcDbSymbolTable
 70
     3
  0
APPID
  5
16
330
8
100
AcDbSymbolTableRecord
100
AcDbRegAppTableRecord
  2
ACAD
 70
     0
  0
APPID
  5
7AC
330
8
100
AcDbSymbolTableRecord
100
AcDbRegAppTableRecord
  2
AcAecLayerStandard
 70
     0
  0
APPID
  5
E29
330
8
100
AcDbSymbolTableRecord
100
AcDbRegAppTableRecord
  2
ACAD_MLEADERVER
 70
     0
  0
ENDTAB
  0
TABLE
  2
DIMSTYLE
  5
9
330
0
100
AcDbSymbolTable
 70
     2
100
AcDbDimStyleTable
  0
DIMSTYLE
105
18
330
9
100
AcDbSymbolTableRecord
100
AcDbDimStyleTableRecord
  2
Standard
 70
     0
178
     0
340
17
  0
DIMSTYLE
105
57
102
{ACAD_REACTORS
330
6BDB
330
6BFF
330
6C0D
330
6C1E
330
7814
102
}
330
9
100
AcDbSymbolTableRecord
100
AcDbDimStyleTableRecord
  2
tfrom線あり
 70
     0
  3
<>
  4
[]
 41
3.0
 42
10.0
 43
0.9999999999999999
 44
0.0
 73
     0
 74
     0
 77
     1
 78
    11
140
12.0
141
0.0
143
1.0
147
10.0
171
     1
174
     1
178
     0
179
     2
271
     0
272
     1
276
     2
284
    11
285
    11
286
    11
289
     0
340
39
341
4E
342
4E
  0
ENDTAB
  0
TABLE
  2
BLOCK_RECORD
  5
1
330
0
100
AcDbSymbolTable
 70
    28
  0
BLOCK_RECORD
  5
A
330
1
100
AcDbSymbolTableRecord
100
AcDbBlockTableRecord
  2
*MODEL_SPACE
340
20
 70
     0
280
     1
281
     0
  0
BLOCK_RECORD
  5
B
330
1
100
AcDbSymbolTableRecord
100
AcDbBlockTableRecord
  2
*PAPER_SPACE
340
21
 70
     0
280
     1
281
     0
  0
BLOCK_RECORD
  5
4E
330
1
100
AcDbSymbolTableRecord
100
AcDbBlockTableRecord
  2
_DOT
340
0
102
{BLKREFS
331
5AB1
331
5AB2
331
5ABD
331
5ABE
331
5AD5
331
5AD6
331
5AE4
331
5AE5
331
5AF0
331
5AF1
331
5AFD
331
5AFE
331
5B0A
331
5B0B
331
5B16
331
5B17
331
5B22
331
5B23
331
5D10
331
5D11
331
6BE4
331
6BE5
331
6C06
331
6C07
331
6C16
331
6C17
331
6C27
331
6C28
331
7765
331
7766
331
7775
331
7776
331
7789
331
778A
331
77A5
331
77A6
331
77DA
331
77DB
331
77FF
331
7800
331
781D
331
781E
102
}
 70
     0
280
     1
281
     0
  0
BLOCK_RECORD
  5
68A
330
1
100
AcDbSymbolTableRecord
100
AcDbBlockTableRecord
  2
名称未設定-1
340
0
102
{BLKREFS
331
6B5
102
}
 70
     1
280
     1
281
     0
  0
BLOCK_RECORD
  5
68D
330
1
100
AcDbSymbolTableRecord
100
AcDbBlockTableRecord
  2
block 2
340
0
102
{BLKREFS
331
68C
331
1343
102
}
 70
     0
280
     1
281
     0
  0
BLOCK_RECORD
  5
690
330
1
100
AcDbSymbolTableRecord
100
AcDbBlockTableRecord
  2
block 3
340
0
102
{BLKREFS
331
68F
102
}
 70
     0
280
     1
281
     0
  0
BLOCK_RECORD
  5
693
330
1
100
AcDbSymbolTableRecord
100
AcDbBlockTableRecord
  2
block 4
340
0
102
{BLKREFS
331
692
102
}
 70
     0
280
     1
281
     0
  0
BLOCK_RECORD
  5
6A2
330
1
100
AcDbSymbolTableRecord
100
AcDbBlockTableRecord
  2
block 5
340
0
102
{BLKREFS
331
6A1
102
}
 70
     0
280
     1
281
     0
  0
BLOCK_RECORD
  5
5AAB
330
1
100
AcDbSymbolTableRecord
100
AcDbBlockTableRecord
  2
*D6
340
0
 70
     0
280
     1
281
     0
  0
BLOCK_RECORD
  5
5AB7
330
1
100
AcDbSymbolTableRecord
100
AcDbBlockTableRecord
  2
*D7
340
0
 70
     0
280
     1
281
     0
  0
BLOCK_RECORD
  5
5ACF
330
1
100
AcDbSymbolTableRecord
100
AcDbBlockTableRecord
  2
*D8
340
0
 70
     0
280
     1
281
     0
  0
BLOCK_RECORD
  5
5ADD
330
1
100
AcDbSymbolTableRecord
100
AcDbBlockTableRecord
  2
*D9
340
0
 70
     0
280
     1
281
     0
  0
BLOCK_RECORD
  5
5AEA
330
1
100
AcDbSymbolTableRecord
100
AcDbBlockTableRecord
  2
*D10
340
0
 70
     0
280
     1
281
     0
  0
BLOCK_RECORD
  5
5AF7
330
1
100
AcDbSymbolTableRecord
100
AcDbBlockTableRecord
  2
*D11
340
0
 70
     0
280
     1
281
     0
  0
BLOCK_RECORD
  5
5B04
330
1
100
AcDbSymbolTableRecord
100
AcDbBlockTableRecord
  2
*D12
340
0
 70
     0
280
     1
281
     0
  0
BLOCK_RECORD
  5
5B10
330
1
100
AcDbSymbolTableRecord
100
AcDbBlockTableRecord
  2
*D13
340
0
 70
     0
280
     1
281
     0
  0
BLOCK_RECORD
  5
5B1C
330
1
100
AcDbSymbolTableRecord
100
AcDbBlockTableRecord
  2
*D14
340
0
 70
     0
280
     1
281
     0
  0
BLOCK_RECORD
  5
5D0A
330
1
100
AcDbSymbolTableRecord
100
AcDbBlockTableRecord
  2
*D15
340
0
 70
     0
280
     1
281
     0
  0
BLOCK_RECORD
  5
6507
330
1
100
AcDbSymbolTableRecord
100
AcDbBlockTableRecord
  2
block 32
340
0
102
{BLKREFS
331
0
102
}
 70
     0
280
     1
281
     0
  0
BLOCK_RECORD
  5
6BDE
330
1
100
AcDbSymbolTableRecord
100
AcDbBlockTableRecord
  2
*D17
340
0
 70
     0
280
     1
281
     0
  0
BLOCK_RECORD
  5
6C00
330
1
100
AcDbSymbolTableRecord
100
AcDbBlockTableRecord
  2
*D18
340
0
 70
     0
280
     1
281
     0
  0
BLOCK_RECORD
  5
6C10
330
1
100
AcDbSymbolTableRecord
100
AcDbBlockTableRecord
  2
*D19
340
0
 70
     0
280
     1
281
     0
  0
BLOCK_RECORD
  5
6C21
330
1
100
AcDbSymbolTableRecord
100
AcDbBlockTableRecord
  2
*D20
340
0
 70
     0
280
     1
281
     0
  0
BLOCK_RECORD
  5
775F
330
1
100
AcDbSymbolTableRecord
100
AcDbBlockTableRecord
  2
*D21
340
0
 70
     0
280
     1
281
     0
  0
BLOCK_RECORD
  5
776E
330
1
100
AcDbSymbolTableRecord
100
AcDbBlockTableRecord
  2
*D22
340
0
 70
     0
280
     1
281
     0
  0
BLOCK_RECORD
  5
7783
330
1
100
AcDbSymbolTableRecord
100
AcDbBlockTableRecord
  2
*D23
340
0
 70
     0
280
     1
281
     0
  0
BLOCK_RECORD
  5
779E
330
1
100
AcDbSymbolTableRecord
100
AcDbBlockTableRecord
  2
*D24
340
0
 70
     0
280
     1
281
     0
  0
BLOCK_RECORD
  5
77D3
330
1
100
AcDbSymbolTableRecord
100
AcDbBlockTableRecord
  2
*D25
340
0
 70
     0
280
     1
281
     0
  0
BLOCK_RECORD
  5
77F8
330
1
100
AcDbSymbolTableRecord
100
AcDbBlockTableRecord
  2
*D26
340
0
 70
     0
280
     1
281
     0
  0
BLOCK_RECORD
  5
7817
330
1
100
AcDbSymbolTableRecord
100
AcDbBlockTableRecord
  2
*D27
340
0
 70
     0
280
     1
281
     0
  0
ENDTAB
  0
ENDSEC
  0
SECTION
  2
BLOCKS
  0
BLOCK
  5
D
330
A
100
AcDbEntity
  8
0
390
1D
100
AcDbBlockBegin
  2
*MODEL_SPACE
 70
     0
 10
0.0
 20
0.0
 30
0.0
  3
*MODEL_SPACE
  1
*MODEL_SPACE
  0
ENDBLK
  5
E
330
A
100
AcDbEntity
  8
0
390
1D
100
AcDbBlockEnd
  0
BLOCK
  5
F
330
B
100
AcDbEntity
 67
     1
  8
0
390
1D
100
AcDbBlockBegin
  2
*PAPER_SPACE
 70
     0
 10
0.0
 20
0.0
 30
0.0
  3
*PAPER_SPACE
  1
*PAPER_SPACE
  0
ENDBLK
  5
10
330
B
100
AcDbEntity
 67
     1
  8
0
390
1D
100
AcDbBlockEnd
  0
BLOCK
  5
E30
330
4E
100
AcDbEntity
  8
0
390
1D
100
AcDbBlockBegin
  2
_DOT
 70
     0
 10
0.0
 20
0.0
 30
0.0
  3
_DOT
  1
_DOT
  0
POLYLINE
  5
E32
330
4E
100
AcDbEntity
  8
0
  6
ByBlock
 62
     0
370
    -2
390
1D
100
AcDb2dPolyline
 66
     1
 10
0.0
 20
0.0
 30
0.0
 70
     1
 40
0.5
 41
0.5
  0
VERTEX
  5
E33
330
E32
100
AcDbEntity
  8
0
  6
ByBlock
 62
     0
370
    -2
390
1D
100
AcDbVertex
100
AcDb2dVertex
 10
-0.25
 20
0.0
 30
0.0
 42
1.0
  0
VERTEX
  5
E34
330
E32
100
AcDbEntity
  8
0
  6
ByBlock
 62
     0
370
    -2
390
1D
100
AcDbVertex
100
AcDb2dVertex
 10
0.25
 20
0.0
 30
0.0
 42
1.0
  0
SEQEND
  5
E35
330
E32
100
AcDbEntity
  8
0
390
1D
  0
LINE
  5
E36
330
4E
100
AcDbEntity
  8
0
  6
ByBlock
 62
     0
370
    -2
390
1D
100
AcDbLine
 10
-0.5
 20
0.0
 30
0.0
 11
-1.0
 21
0.0
 31
0.0
  0
ENDBLK
  5
E37
330
4E
100
AcDbEntity
  8
0
390
1D
100
AcDbBlockEnd
  0
BLOCK
  5
68B
330
68A
100
AcDbEntity
  8
0
100
AcDbBlockBegin
  2
名称未設定-1
 70
     0
 10
0.0
 20
0.0
 30
0.0
  3
名称未設定-1
  1
名称未設定-1
  0
INSERT
  5
68F
330
68A
100
AcDbEntity
  8
LOGO
100
AcDbBlockReference
  2
block 3
 10
0.0
 20
0.0
 30
0.0
  0
ENDBLK
  5
6B1
330
68A
100
AcDbEntity
  8
0
100
AcDbBlockEnd
  0
BLOCK
  5
68E
330
68D
100
AcDbEntity
  8
0
100
AcDbBlockBegin
  2
block 2
 70
     0
 10
0.0
 20
0.0
 30
0.0
  3
block 2
  1
block 2
  0
ENDBLK
  5
6B0
330
68D
100
AcDbEntity
  8
0
100
AcDbBlockEnd
  0
BLOCK
  5
691
330
690
100
AcDbEntity
  8
0
100
AcDbBlockBegin
  2
block 3
 70
     0
 10
0.0
 20
0.0
 30
0.0
  3
block 3
  1
block 3
  0
INSERT
  5
692
330
690
100
AcDbEntity
  8
LOGO
100
AcDbBlockReference
  2
block 4
 10
0.0
 20
0.0
 30
0.0
  0
INSERT
  5
6A1
330
690
100
AcDbEntity
  8
LOGO
100
AcDbBlockReference
  2
block 5
 10
0.0
 20
0.0
 30
0.0
  0
ENDBLK
  5
6AF
330
690
100
AcDbEntity
  8
0
100
AcDbBlockEnd
  0
BLOCK
  5
694
330
693
100
AcDbEntity
  8
0
100
AcDbBlockBegin
  2
block 4
 70
     0
 10
0.0
 20
0.0
 30
0.0
  3
block 4
  1
block 4
  0
POLYLINE
  5
695
330
693
100
AcDbEntity
  8
LOGO
370
     0
100
AcDb2dPolyline
 66
     1
 10
0.0
 20
0.0
 30
0.0
  0
VERTEX
  5
696
330
695
100
AcDbEntity
  8
LOGO
370
     0
100
AcDbVertex
100
AcDb2dVertex
 10
83.79545727667795
 20
167.6444858234922
 30
0.0
  0
VERTEX
  5
697
330
695
100
AcDbEntity
  8
LOGO
370
     0
100
AcDbVertex
100
AcDb2dVertex
 10
83.79545727667795
 20
159.7968976406313
 30
0.0
  0
VERTEX
  5
698
330
695
100
AcDbEntity
  8
LOGO
370
     0
100
AcDbVertex
100
AcDb2dVertex
 10
71.3631329975216
 20
159.7968976406313
 30
0.0
  0
VERTEX
  5
699
330
695
100
AcDbEntity
  8
LOGO
370
     0
100
AcDbVertex
100
AcDb2dVertex
 10
71.3631329975216
 20
127.8027915271048
 30
0.0
  0
VERTEX
  5
69A
330
695
100
AcDbEntity
  8
LOGO
370
     0
100
AcDbVertex
100
AcDb2dVertex
 10
60.43011526263018
 20
127.8027915271048
 30
0.0
  0
VERTEX
  5
69B
330
695
100
AcDbEntity
  8
LOGO
370
     0
100
AcDbVertex
100
AcDb2dVertex
 10
60.43011526263018
 20
159.7968976406313
 30
0.0
  0
VERTEX
  5
69C
330
695
100
AcDbEntity
  8
LOGO
370
     0
100
AcDbVertex
100
AcDb2dVertex
 10
48.21793273020759
 20
159.7968976406313
 30
0.0
  0
VERTEX
  5
69D
330
695
100
AcDbEntity
  8
LOGO
370
     0
100
AcDbVertex
100
AcDb2dVertex
 10
48.21793273020759
 20
167.6444858234922
 30
0.0
  0
VERTEX
  5
69E
330
695
100
AcDbEntity
  8
LOGO
370
     0
100
AcDbVertex
100
AcDb2dVertex
 10
83.79545727667795
 20
167.6444858234922
 30
0.0
  0
SEQEND
  5
69F
330
695
100
AcDbEntity
  8
LOGO
370
     0
  0
HATCH
  5
6A0
330
693
100
AcDbEntity
  8
LOGO
 62
   250
420
  2234388
100
AcDbHatch
 10
0.0
 20
0.0
 30
0.0
210
0.0
220
0.0
230
1.0
  2
SOLID
 70
     1
 71
     0
 91
        1
 92
        1
 93
        8
 72
     1
 10
83.79545727667795
 20
167.6444858234922
 11
83.79545727667795
 21
159.7968976406313
 72
     1
 10
83.79545727667795
 20
159.7968976406313
 11
71.3631329975216
 21
159.7968976406313
 72
     1
 10
71.3631329975216
 20
159.7968976406313
 11
71.3631329975216
 21
127.8027915271048
 72
     1
 10
71.3631329975216
 20
127.8027915271048
 11
60.43011526263018
 21
127.8027915271048
 72
     1
 10
60.43011526263018
 20
127.8027915271048
 11
60.43011526263018
 21
159.7968976406313
 72
     1
 10
60.43011526263018
 20
159.7968976406313
 11
48.21793273020759
 21
159.7968976406313
 72
     1
 10
48.21793273020759
 20
159.7968976406313
 11
48.21793273020759
 21
167.6444858234922
 72
     1
 10
48.21793273020759
 20
167.6444858234922
 11
83.79545727667795
 21
167.6444858234922
 97
        0
 75
     2
 76
     1
 98
        0
  0
ENDBLK
  5
6AE
330
693
100
AcDbEntity
  8
0
100
AcDbBlockEnd
  0
BLOCK
  5
6A3
330
6A2
100
AcDbEntity
  8
0
100
AcDbBlockBegin
  2
block 5
 70
     0
 10
0.0
 20
0.0
 30
0.0
  3
block 5
  1
block 5
  0
SPLINE
  5
6A4
330
6A2
100
AcDbEntity
  8
LOGO
370
     0
100
AcDbSpline
210
0.0
220
0.0
230
1.0
 70
    11
 71
     3
 72
    56
 73
    52
 74
     0
 42
0.000000001
 43
0.0000000001
 40
0.0
 40
0.0
 40
0.0
 40
0.0
 40
1.0
 40
1.0
 40
1.0
 40
2.0
 40
2.0
 40
2.0
 40
3.0
 40
3.0
 40
3.0
 40
4.0
 40
4.0
 40
4.0
 40
5.0
 40
5.0
 40
5.0
 40
6.0
 40
6.0
 40
6.0
 40
7.0
 40
7.0
 40
7.0
 40
8.0
 40
8.0
 40
8.0
 40
9.0
 40
9.0
 40
9.0
 40
10.0
 40
10.0
 40
10.0
 40
11.0
 40
11.0
 40
11.0
 40
12.0
 40
12.0
 40
12.0
 40
13.0
 40
13.0
 40
13.0
 40
14.0
 40
14.0
 40
14.0
 40
15.0
 40
15.0
 40
15.0
 40
16.0
 40
16.0
 40
16.0
 40
17.0
 40
17.0
 40
17.0
 40
17.0
 10
100.4504378777679
 20
166.69157178364
 30
0.0
 10
101.9848844191641
 20
167.1313385124438
 30
0.0
 10
103.9637485713373
 20
166.7649523658846
 30
0.0
 10
103.9637485713373
 20
166.7649523658846
 30
0.0
 10
103.9637485713373
 20
166.7649523658846
 30
0.0
 10
103.0132460999156
 20
163.911205638077
 30
0.0
 10
103.0132460999156
 20
163.911205638077
 30
0.0
 10
103.0132460999156
 20
163.911205638077
 30
0.0
 10
101.0674548862189
 20
164.3601018759394
 30
0.0
 10
99.57090442016032
 20
163.1805004036133
 30
0.0
 10
98.40508333886608
 20
162.258247733807
 30
0.0
 10
97.65301849830304
 20
159.804132345923
 30
0.0
 10
97.3598406791005
 20
158.8699940888517
 30
0.0
 10
97.3598406791005
 20
158.8699940888517
 30
0.0
 10
96.07137411762282
 20
154.9119212747295
 30
0.0
 10
96.07137411762282
 20
154.9119212747295
 30
0.0
 10
96.07137411762282
 20
154.9119212747295
 30
0.0
 10
100.3012651448482
 20
154.9119212747295
 30
0.0
 10
100.3012651448482
 20
154.9119212747295
 30
0.0
 10
100.3012651448482
 20
154.9119212747295
 30
0.0
 10
99.64152892419852
 20
152.4199098115079
 30
0.0
 10
99.64152892419852
 20
152.4199098115079
 30
0.0
 10
99.64152892419852
 20
152.4199098115079
 30
0.0
 10
95.38097652692731
 20
152.4199098115079
 30
0.0
 10
95.38097652692731
 20
152.4199098115079
 30
0.0
 10
95.38097652692731
 20
152.4199098115079
 30
0.0
 10
87.75353009080013
 20
127.8027915271048
 30
0.0
 10
87.75353009080013
 20
127.8027915271048
 30
0.0
 10
87.75353009080013
 20
127.8027915271048
 30
0.0
 10
85.36538832498108
 20
127.8027915271048
 30
0.0
 10
85.36538832498108
 20
127.8027915271048
 30
0.0
 10
85.36538832498108
 20
127.8027915271048
 30
0.0
 10
93.00006946639998
 20
152.4199098115079
 30
0.0
 10
93.00006946639998
 20
152.4199098115079
 30
0.0
 10
93.00006946639998
 20
152.4199098115079
 30
0.0
 10
89.85297266450198
 20
152.4199098115079
 30
0.0
 10
89.85297266450198
 20
152.4199098115079
 30
0.0
 10
89.85297266450198
 20
152.4199098115079
 30
0.0
 10
90.51270888515164
 20
154.9119212747295
 30
0.0
 10
90.51270888515164
 20
154.9119212747295
 30
0.0
 10
90.51270888515164
 20
154.9119212747295
 30
0.0
 10
93.6904670570955
 20
154.9119212747295
 30
0.0
 10
93.6904670570955
 20
154.9119212747295
 30
0.0
 10
93.6904670570955
 20
154.9119212747295
 30
0.0
 10
94.81598049462158
 20
158.3616699146644
 30
0.0
 10
94.81598049462158
 20
158.3616699146644
 30
0.0
 10
95.7237637538445
 20
161.2605474231013
 30
0.0
 10
96.4968436907311
 20
162.8139420021662
 30
0.0
 10
97.15657991138076
 20
163.9844139654337
 30
0.0
 10
97.81183750494507
 20
165.1523021053827
 30
0.0
 10
99.1047826935081
 20
166.3084769129547
 30
0.0
 10
100.4504378777679
 20
166.69157178364
 30
0.0
  0
HATCH
  5
6A5
330
6A2
100
AcDbEntity
  8
LOGO
 62
   250
420
  2234388
100
AcDbHatch
 10
0.0
 20
0.0
 30
0.0
210
0.0
220
0.0
230
1.0
  2
SOLID
 70
     1
 71
     0
 91
        1
 92
        1
 93
        1
 72
     4
 94
        3
 73
     0
 74
     1
 95
       56
 96
       52
 40
0.0
 40
0.0
 40
0.0
 40
0.0
 40
1.0
 40
1.0
 40
1.0
 40
2.0
 40
2.0
 40
2.0
 40
3.0
 40
3.0
 40
3.0
 40
4.0
 40
4.0
 40
4.0
 40
5.0
 40
5.0
 40
5.0
 40
6.0
 40
6.0
 40
6.0
 40
7.0
 40
7.0
 40
7.0
 40
8.0
 40
8.0
 40
8.0
 40
9.0
 40
9.0
 40
9.0
 40
10.0
 40
10.0
 40
10.0
 40
11.0
 40
11.0
 40
11.0
 40
12.0
 40
12.0
 40
12.0
 40
13.0
 40
13.0
 40
13.0
 40
14.0
 40
14.0
 40
14.0
 40
15.0
 40
15.0
 40
15.0
 40
16.0
 40
16.0
 40
16.0
 40
17.0
 40
17.0
 40
17.0
 40
17.0
 10
100.4504378777679
 20
166.69157178364
 10
101.9848844191641
 20
167.1313385124438
 10
103.9637485713373
 20
166.7649523658846
 10
103.9637485713373
 20
166.7649523658846
 10
103.9637485713373
 20
166.7649523658846
 10
103.0132460999156
 20
163.911205638077
 10
103.0132460999156
 20
163.911205638077
 10
103.0132460999156
 20
163.911205638077
 10
101.0674548862189
 20
164.3601018759394
 10
99.57090442016032
 20
163.1805004036133
 10
98.40508333886608
 20
162.258247733807
 10
97.65301849830304
 20
159.804132345923
 10
97.3598406791005
 20
158.8699940888517
 10
97.3598406791005
 20
158.8699940888517
 10
96.07137411762282
 20
154.9119212747295
 10
96.07137411762282
 20
154.9119212747295
 10
96.07137411762282
 20
154.9119212747295
 10
100.3012651448482
 20
154.9119212747295
 10
100.3012651448482
 20
154.9119212747295
 10
100.3012651448482
 20
154.9119212747295
 10
99.64152892419852
 20
152.4199098115079
 10
99.64152892419852
 20
152.4199098115079
 10
99.64152892419852
 20
152.4199098115079
 10
95.38097652692731
 20
152.4199098115079
 10
95.38097652692731
 20
152.4199098115079
 10
95.38097652692731
 20
152.4199098115079
 10
87.75353009080013
 20
127.8027915271048
 10
87.75353009080013
 20
127.8027915271048
 10
87.75353009080013
 20
127.8027915271048
 10
85.36538832498108
 20
127.8027915271048
 10
85.36538832498108
 20
127.8027915271048
 10
85.36538832498108
 20
127.8027915271048
 10
93.00006946639998
 20
152.4199098115079
 10
93.00006946639998
 20
152.4199098115079
 10
93.00006946639998
 20
152.4199098115079
 10
89.85297266450198
 20
152.4199098115079
 10
89.85297266450198
 20
152.4199098115079
 10
89.85297266450198
 20
152.4199098115079
 10
90.51270888515164
 20
154.9119212747295
 10
90.51270888515164
 20
154.9119212747295
 10
90.51270888515164
 20
154.9119212747295
 10
93.6904670570955
 20
154.9119212747295
 10
93.6904670570955
 20
154.9119212747295
 10
93.6904670570955
 20
154.9119212747295
 10
94.81598049462158
 20
158.3616699146644
 10
94.81598049462158
 20
158.3616699146644
 10
95.7237637538445
 20
161.2605474231013
 10
96.4968436907311
 20
162.8139420021662
 10
97.15657991138076
 20
163.9844139654337
 10
97.81183750494507
 20
165.1523021053827
 10
99.1047826935081
 20
166.3084769129547
 10
100.4504378777679
 20
166.69157178364
 97
        0
 75
     2
 76
     1
 98
        0
  0
SPLINE
  5
6A6
330
6A2
100
AcDbEntity
  8
LOGO
370
     0
100
AcDbSpline
210
0.0
220
0.0
230
1.0
 70
    11
 71
     3
 72
    38
 73
    34
 74
     0
 42
0.000000001
 43
0.0000000001
 40
0.0
 40
0.0
 40
0.0
 40
0.0
 40
1.0
 40
1.0
 40
1.0
 40
2.0
 40
2.0
 40
2.0
 40
3.0
 40
3.0
 40
3.0
 40
4.0
 40
4.0
 40
4.0
 40
5.0
 40
5.0
 40
5.0
 40
6.0
 40
6.0
 40
6.0
 40
7.0
 40
7.0
 40
7.0
 40
8.0
 40
8.0
 40
8.0
 40
9.0
 40
9.0
 40
9.0
 40
10.0
 40
10.0
 40
10.0
 40
11.0
 40
11.0
 40
11.0
 40
11.0
 10
126.377554584636
 20
154.8151140277308
 30
0.0
 10
126.377554584636
 20
154.8151140277308
 30
0.0
 10
128.8311532078563
 20
154.8151140277308
 30
0.0
 10
128.8311532078563
 20
154.8151140277308
 30
0.0
 10
128.8311532078563
 20
154.8151140277308
 30
0.0
 10
127.7345785914971
 20
151.3062819612468
 30
0.0
 10
127.7345785914971
 20
151.3062819612468
 30
0.0
 10
128.571392836906
 20
152.2922689395754
 30
0.0
 10
129.8860421413442
 20
153.604506675583
 30
0.0
 10
131.0163787157314
 20
154.2664822097754
 30
0.0
 10
132.7044766171327
 20
155.2500576196734
 30
0.0
 10
133.6642808525008
 20
155.3847609420097
 30
0.0
 10
134.7284715499351
 20
155.3565111403944
 30
0.0
 10
134.7284715499351
 20
155.3565111403944
 30
0.0
 10
133.6877075172549
 20
152.0345756272799
 30
0.0
 10
133.6877075172549
 20
152.0345756272799
 30
0.0
 10
133.011434827367
 20
152.3184516825359
 30
0.0
 10
130.930940291334
 20
151.7768823149844
 30
0.0
 10
129.739280976855
 20
150.9162968950455
 30
0.0
 10
128.66613302525
 20
150.1454562717016
 30
0.0
 10
127.9192358313239
 20
149.4857200510519
 30
0.0
 10
127.0393578639405
 20
147.8282835196966
 30
0.0
 10
126.164647543194
 20
146.1699857139017
 30
0.0
 10
125.4742499524985
 20
143.5262176944419
 30
0.0
 10
124.2822461282437
 20
139.6959580071401
 30
0.0
 10
124.2822461282437
 20
139.6959580071401
 30
0.0
 10
120.5753209406769
 20
127.8027915271048
 30
0.0
 10
120.5753209406769
 20
127.8027915271048
 30
0.0
 10
120.5753209406769
 20
127.8027915271048
 30
0.0
 10
118.1964809388044
 20
127.8027915271048
 30
0.0
 10
118.1964809388044
 20
127.8027915271048
 30
0.0
 10
118.1964809388044
 20
127.8027915271048
 30
0.0
 10
126.377554584636
 20
154.8151140277308
 30
0.0
 10
126.377554584636
 20
154.8151140277308
 30
0.0
  0
HATCH
  5
6A7
330
6A2
100
AcDbEntity
  8
LOGO
 62
   250
420
  2234388
100
AcDbHatch
 10
0.0
 20
0.0
 30
0.0
210
0.0
220
0.0
230
1.0
  2
SOLID
 70
     1
 71
     0
 91
        1
 92
        1
 93
        1
 72
     4
 94
        3
 73
     0
 74
     1
 95
       38
 96
       34
 40
0.0
 40
0.0
 40
0.0
 40
0.0
 40
1.0
 40
1.0
 40
1.0
 40
2.0
 40
2.0
 40
2.0
 40
3.0
 40
3.0
 40
3.0
 40
4.0
 40
4.0
 40
4.0
 40
5.0
 40
5.0
 40
5.0
 40
6.0
 40
6.0
 40
6.0
 40
7.0
 40
7.0
 40
7.0
 40
8.0
 40
8.0
 40
8.0
 40
9.0
 40
9.0
 40
9.0
 40
10.0
 40
10.0
 40
10.0
 40
11.0
 40
11.0
 40
11.0
 40
11.0
 10
126.377554584636
 20
154.8151140277308
 10
126.377554584636
 20
154.8151140277308
 10
128.8311532078563
 20
154.8151140277308
 10
128.8311532078563
 20
154.8151140277308
 10
128.8311532078563
 20
154.8151140277308
 10
127.7345785914971
 20
151.3062819612468
 10
127.7345785914971
 20
151.3062819612468
 10
128.571392836906
 20
152.2922689395754
 10
129.8860421413442
 20
153.604506675583
 10
131.0163787157314
 20
154.2664822097754
 10
132.7044766171327
 20
155.2500576196734
 10
133.6642808525008
 20
155.3847609420097
 10
134.7284715499351
 20
155.3565111403944
 10
134.7284715499351
 20
155.3565111403944
 10
133.6877075172549
 20
152.0345756272799
 10
133.6877075172549
 20
152.0345756272799
 10
133.011434827367
 20
152.3184516825359
 10
130.930940291334
 20
151.7768823149844
 10
129.739280976855
 20
150.9162968950455
 10
128.66613302525
 20
150.1454562717016
 10
127.9192358313239
 20
149.4857200510519
 10
127.0393578639405
 20
147.8282835196966
 10
126.164647543194
 20
146.1699857139017
 10
125.4742499524985
 20
143.5262176944419
 10
124.2822461282437
 20
139.6959580071401
 10
124.2822461282437
 20
139.6959580071401
 10
120.5753209406769
 20
127.8027915271048
 10
120.5753209406769
 20
127.8027915271048
 10
120.5753209406769
 20
127.8027915271048
 10
118.1964809388044
 20
127.8027915271048
 10
118.1964809388044
 20
127.8027915271048
 10
118.1964809388044
 20
127.8027915271048
 10
126.377554584636
 20
154.8151140277308
 10
126.377554584636
 20
154.8151140277308
 97
        0
 75
     2
 76
     1
 98
        0
  0
SPLINE
  5
6A8
330
6A2
100
AcDbEntity
  8
LOGO
370
     0
100
AcDbSpline
210
0.0
220
0.0
230
1.0
 70
    11
 71
     3
 72
   104
 73
   100
 74
     0
 42
0.000000001
 43
0.0000000001
 40
0.0
 40
0.0
 40
0.0
 40
0.0
 40
1.0
 40
1.0
 40
1.0
 40
2.0
 40
2.0
 40
2.0
 40
3.0
 40
3.0
 40
3.0
 40
4.0
 40
4.0
 40
4.0
 40
5.0
 40
5.0
 40
5.0
 40
6.0
 40
6.0
 40
6.0
 40
7.0
 40
7.0
 40
7.0
 40
8.0
 40
8.0
 40
8.0
 40
9.0
 40
9.0
 40
9.0
 40
10.0
 40
10.0
 40
10.0
 40
11.0
 40
11.0
 40
11.0
 40
12.0
 40
12.0
 40
12.0
 40
13.0
 40
13.0
 40
13.0
 40
14.0
 40
14.0
 40
14.0
 40
15.0
 40
15.0
 40
15.0
 40
16.0
 40
16.0
 40
16.0
 40
17.0
 40
17.0
 40
17.0
 40
18.0
 40
18.0
 40
18.0
 40
19.0
 40
19.0
 40
19.0
 40
20.0
 40
20.0
 40
20.0
 40
21.0
 40
21.0
 40
21.0
 40
22.0
 40
22.0
 40
22.0
 40
23.0
 40
23.0
 40
23.0
 40
24.0
 40
24.0
 40
24.0
 40
25.0
 40
25.0
 40
25.0
 40
26.0
 40
26.0
 40
26.0
 40
27.0
 40
27.0
 40
27.0
 40
28.0
 40
28.0
 40
28.0
 40
29.0
 40
29.0
 40
29.0
 40
30.0
 40
30.0
 40
30.0
 40
31.0
 40
31.0
 40
31.0
 40
32.0
 40
32.0
 40
32.0
 40
33.0
 40
33.0
 40
33.0
 40
33.0
 10
139.8926730891197
 20
154.8294111834263
 30
0.0
 10
139.8926730891197
 20
154.8294111834263
 30
0.0
 10
142.0344903652445
 20
154.8294111834263
 30
0.0
 10
142.0344903652445
 20
154.8294111834263
 30
0.0
 10
142.0344903652445
 20
154.8294111834263
 30
0.0
 10
140.9516961399171
 20
151.3157559800812
 30
0.0
 10
140.9516961399171
 20
151.3157559800812
 30
0.0
 10
141.8928968473923
 20
152.7887075264977
 30
0.0
 10
142.7341897198865
 20
153.4484437471474
 30
0.0
 10
143.8552245303272
 20
154.2926649527359
 30
0.0
 10
144.9803934580775
 20
155.1296514530327
 30
0.0
 10
146.3139908001845
 20
155.3044901642492
 30
0.0
 10
147.241066606852
 20
155.3044901642492
 30
0.0
 10
148.3855280820469
 20
155.3044901642492
 30
0.0
 10
149.4969166187653
 20
155.0752189084569
 30
0.0
 10
150.0784491203092
 20
153.8172414621372
 30
0.0
 10
150.5228667310863
 20
152.833838307127
 30
0.0
 10
150.5414702589793
 20
152.7201500811143
 30
0.0
 10
150.4140016419347
 20
150.7765981809602
 30
0.0
 10
151.5818897818837
 20
152.7699317437168
 30
0.0
 10
152.4424752018226
 20
153.6256940267945
 30
0.0
 10
153.9038856707499
 20
154.4507949398263
 30
0.0
 10
155.4455669174378
 20
155.3044901642492
 30
0.0
 10
156.339225275853
 20
155.3659851592288
 30
0.0
 10
157.3748216618963
 20
155.2147453676543
 30
0.0
 10
158.911679771723
 20
154.9877134254046
 30
0.0
 10
159.8859534176746
 20
154.4390816074493
 30
0.0
 10
160.3965169054045
 20
152.7816450760939
 30
0.0
 10
160.9070803931344
 20
151.1219692311958
 30
0.0
 10
160.6328506116007
 20
150.2303779314354
 30
0.0
 10
159.9992971339115
 20
147.597634224801
 30
0.0
 10
159.7105979417943
 20
146.4014962832367
 30
0.0
 10
159.2947746424084
 20
144.9400858143094
 30
0.0
 10
158.7463150793409
 20
143.2092687007094
 30
0.0
 10
158.7463150793409
 20
143.2092687007094
 30
0.0
 10
153.9038856707499
 20
127.8027915271048
 30
0.0
 10
153.9038856707499
 20
127.8027915271048
 30
0.0
 10
153.9038856707499
 20
127.8027915271048
 30
0.0
 10
151.3882752878863
 20
127.8027915271048
 30
0.0
 10
151.3882752878863
 20
127.8027915271048
 30
0.0
 10
151.3882752878863
 20
127.8027915271048
 30
0.0
 10
155.6250565106276
 20
141.2751908193897
 30
0.0
 10
155.6250565106276
 20
141.2751908193897
 30
0.0
 10
156.5094131050963
 20
144.0936252951782
 30
0.0
 10
157.109893644309
 20
146.1506931664571
 30
0.0
 10
157.4220195011804
 20
147.4415712963654
 30
0.0
 10
157.8095929989511
 20
149.0530157726519
 30
0.0
 10
157.9656559273867
 20
149.5826995529385
 30
0.0
 10
157.7816877071116
 20
150.7529992613181
 30
0.0
 10
157.6111553680925
 20
151.8430281919372
 30
0.0
 10
157.0582171779396
 20
152.5547853887321
 30
0.0
 10
156.1170164704645
 20
152.5547853887321
 30
0.0
 10
155.1096698860365
 20
152.5547853887321
 30
0.0
 10
154.2962823053817
 20
152.4412694176073
 30
0.0
 10
153.156643967048
 20
151.2945686288697
 30
0.0
 10
152.0170056287143
 20
150.1476955852443
 30
0.0
 10
151.076149431015
 20
148.7930831468137
 30
0.0
 10
150.3337308641742
 20
147.2290087646991
 30
0.0
 10
149.5957909244188
 20
145.6683794803425
 30
0.0
 10
148.8530278478023
 20
143.6822806228776
 30
0.0
 10
148.0964843801539
 20
141.2751908193897
 30
0.0
 10
148.0964843801539
 20
141.2751908193897
 30
0.0
 10
143.8552245303272
 20
127.8027915271048
 30
0.0
 10
143.8552245303272
 20
127.8027915271048
 30
0.0
 10
143.8552245303272
 20
127.8027915271048
 30
0.0
 10
141.486030802177
 20
127.8027915271048
 30
0.0
 10
141.486030802177
 20
127.8027915271048
 30
0.0
 10
141.486030802177
 20
127.8027915271048
 30
0.0
 10
146.3329388378533
 20
143.2092687007094
 30
0.0
 10
146.3329388378533
 20
143.2092687007094
 30
0.0
 10
146.8483254624444
 20
144.8408669988801
 30
0.0
 10
147.2314203331297
 20
146.1837661049335
 30
0.0
 10
147.4867020769946
 20
147.224185627838
 30
0.0
 10
147.9169947869641
 20
149.0197705792876
 30
0.0
 10
148.0306830129768
 20
150.2400242051577
 30
0.0
 10
147.709255392159
 20
151.3157559800812
 30
0.0
 10
147.3874832615654
 20
152.3916600098926
 30
0.0
 10
146.8245542879144
 20
152.6683013598569
 30
0.0
 10
145.8840425999909
 20
152.6683013598569
 30
0.0
 10
145.0989048209514
 20
152.6683013598569
 30
0.0
 10
144.3282364524954
 20
152.3275811915945
 30
0.0
 10
143.4531816219731
 20
151.6538923250251
 30
0.0
 10
142.34627171234
 20
150.8074318058939
 30
0.0
 10
141.901854101563
 20
150.1097995099067
 30
0.0
 10
141.3578731655808
 20
149.289521733736
 30
0.0
 10
140.6299240093235
 20
148.192602607601
 30
0.0
 10
140.2850697237515
 20
147.455696197173
 30
0.0
 10
139.6652966370942
 20
145.8385673095858
 30
0.0
 10
139.0506911970739
 20
144.2214384219986
 30
0.0
 10
138.463991048893
 20
142.3252566160164
 30
0.0
 10
138.0571250036777
 20
141.0154304484394
 30
0.0
 10
138.0571250036777
 20
141.0154304484394
 30
0.0
 10
133.9009590684727
 20
127.8027915271048
 30
0.0
 10
133.9009590684727
 20
127.8027915271048
 30
0.0
 10
133.9009590684727
 20
127.8027915271048
 30
0.0
 10
131.4180771143097
 20
127.8027915271048
 30
0.0
 10
131.4180771143097
 20
127.8027915271048
 30
0.0
 10
131.4180771143097
 20
127.8027915271048
 30
0.0
 10
139.8926730891197
 20
154.8294111834263
 30
0.0
 10
139.8926730891197
 20
154.8294111834263
 30
0.0
  0
HATCH
  5
6A9
330
6A2
100
AcDbEntity
  8
LOGO
 62
   250
420
  2234388
100
AcDbHatch
 10
0.0
 20
0.0
 30
0.0
210
0.0
220
0.0
230
1.0
  2
SOLID
 70
     1
 71
     0
 91
        1
 92
        1
 93
        1
 72
     4
 94
        3
 73
     0
 74
     1
 95
      104
 96
      100
 40
0.0
 40
0.0
 40
0.0
 40
0.0
 40
1.0
 40
1.0
 40
1.0
 40
2.0
 40
2.0
 40
2.0
 40
3.0
 40
3.0
 40
3.0
 40
4.0
 40
4.0
 40
4.0
 40
5.0
 40
5.0
 40
5.0
 40
6.0
 40
6.0
 40
6.0
 40
7.0
 40
7.0
 40
7.0
 40
8.0
 40
8.0
 40
8.0
 40
9.0
 40
9.0
 40
9.0
 40
10.0
 40
10.0
 40
10.0
 40
11.0
 40
11.0
 40
11.0
 40
12.0
 40
12.0
 40
12.0
 40
13.0
 40
13.0
 40
13.0
 40
14.0
 40
14.0
 40
14.0
 40
15.0
 40
15.0
 40
15.0
 40
16.0
 40
16.0
 40
16.0
 40
17.0
 40
17.0
 40
17.0
 40
18.0
 40
18.0
 40
18.0
 40
19.0
 40
19.0
 40
19.0
 40
20.0
 40
20.0
 40
20.0
 40
21.0
 40
21.0
 40
21.0
 40
22.0
 40
22.0
 40
22.0
 40
23.0
 40
23.0
 40
23.0
 40
24.0
 40
24.0
 40
24.0
 40
25.0
 40
25.0
 40
25.0
 40
26.0
 40
26.0
 40
26.0
 40
27.0
 40
27.0
 40
27.0
 40
28.0
 40
28.0
 40
28.0
 40
29.0
 40
29.0
 40
29.0
 40
30.0
 40
30.0
 40
30.0
 40
31.0
 40
31.0
 40
31.0
 40
32.0
 40
32.0
 40
32.0
 40
33.0
 40
33.0
 40
33.0
 40
33.0
 10
139.8926730891197
 20
154.8294111834263
 10
139.8926730891197
 20
154.8294111834263
 10
142.0344903652445
 20
154.8294111834263
 10
142.0344903652445
 20
154.8294111834263
 10
142.0344903652445
 20
154.8294111834263
 10
140.9516961399171
 20
151.3157559800812
 10
140.9516961399171
 20
151.3157559800812
 10
141.8928968473923
 20
152.7887075264977
 10
142.7341897198865
 20
153.4484437471474
 10
143.8552245303272
 20
154.2926649527359
 10
144.9803934580775
 20
155.1296514530327
 10
146.3139908001845
 20
155.3044901642492
 10
147.241066606852
 20
155.3044901642492
 10
148.3855280820469
 20
155.3044901642492
 10
149.4969166187653
 20
155.0752189084569
 10
150.0784491203092
 20
153.8172414621372
 10
150.5228667310863
 20
152.833838307127
 10
150.5414702589793
 20
152.7201500811143
 10
150.4140016419347
 20
150.7765981809602
 10
151.5818897818837
 20
152.7699317437168
 10
152.4424752018226
 20
153.6256940267945
 10
153.9038856707499
 20
154.4507949398263
 10
155.4455669174378
 20
155.3044901642492
 10
156.339225275853
 20
155.3659851592288
 10
157.3748216618963
 20
155.2147453676543
 10
158.911679771723
 20
154.9877134254046
 10
159.8859534176746
 20
154.4390816074493
 10
160.3965169054045
 20
152.7816450760939
 10
160.9070803931344
 20
151.1219692311958
 10
160.6328506116007
 20
150.2303779314354
 10
159.9992971339115
 20
147.597634224801
 10
159.7105979417943
 20
146.4014962832367
 10
159.2947746424084
 20
144.9400858143094
 10
158.7463150793409
 20
143.2092687007094
 10
158.7463150793409
 20
143.2092687007094
 10
153.9038856707499
 20
127.8027915271048
 10
153.9038856707499
 20
127.8027915271048
 10
153.9038856707499
 20
127.8027915271048
 10
151.3882752878863
 20
127.8027915271048
 10
151.3882752878863
 20
127.8027915271048
 10
151.3882752878863
 20
127.8027915271048
 10
155.6250565106276
 20
141.2751908193897
 10
155.6250565106276
 20
141.2751908193897
 10
156.5094131050963
 20
144.0936252951782
 10
157.109893644309
 20
146.1506931664571
 10
157.4220195011804
 20
147.4415712963654
 10
157.8095929989511
 20
149.0530157726519
 10
157.9656559273867
 20
149.5826995529385
 10
157.7816877071116
 20
150.7529992613181
 10
157.6111553680925
 20
151.8430281919372
 10
157.0582171779396
 20
152.5547853887321
 10
156.1170164704645
 20
152.5547853887321
 10
155.1096698860365
 20
152.5547853887321
 10
154.2962823053817
 20
152.4412694176073
 10
153.156643967048
 20
151.2945686288697
 10
152.0170056287143
 20
150.1476955852443
 10
151.076149431015
 20
148.7930831468137
 10
150.3337308641742
 20
147.2290087646991
 10
149.5957909244188
 20
145.6683794803425
 10
148.8530278478023
 20
143.6822806228776
 10
148.0964843801539
 20
141.2751908193897
 10
148.0964843801539
 20
141.2751908193897
 10
143.8552245303272
 20
127.8027915271048
 10
143.8552245303272
 20
127.8027915271048
 10
143.8552245303272
 20
127.8027915271048
 10
141.486030802177
 20
127.8027915271048
 10
141.486030802177
 20
127.8027915271048
 10
141.486030802177
 20
127.8027915271048
 10
146.3329388378533
 20
143.2092687007094
 10
146.3329388378533
 20
143.2092687007094
 10
146.8483254624444
 20
144.8408669988801
 10
147.2314203331297
 20
146.1837661049335
 10
147.4867020769946
 20
147.224185627838
 10
147.9169947869641
 20
149.0197705792876
 10
148.0306830129768
 20
150.2400242051577
 10
147.709255392159
 20
151.3157559800812
 10
147.3874832615654
 20
152.3916600098926
 10
146.8245542879144
 20
152.6683013598569
 10
145.8840425999909
 20
152.6683013598569
 10
145.0989048209514
 20
152.6683013598569
 10
144.3282364524954
 20
152.3275811915945
 10
143.4531816219731
 20
151.6538923250251
 10
142.34627171234
 20
150.8074318058939
 10
141.901854101563
 20
150.1097995099067
 10
141.3578731655808
 20
149.289521733736
 10
140.6299240093235
 20
148.192602607601
 10
140.2850697237515
 20
147.455696197173
 10
139.6652966370942
 20
145.8385673095858
 10
139.0506911970739
 20
144.2214384219986
 10
138.463991048893
 20
142.3252566160164
 10
138.0571250036777
 20
141.0154304484394
 10
138.0571250036777
 20
141.0154304484394
 10
133.9009590684727
 20
127.8027915271048
 10
133.9009590684727
 20
127.8027915271048
 10
133.9009590684727
 20
127.8027915271048
 10
131.4180771143097
 20
127.8027915271048
 10
131.4180771143097
 20
127.8027915271048
 10
131.4180771143097
 20
127.8027915271048
 10
139.8926730891197
 20
154.8294111834263
 10
139.8926730891197
 20
154.8294111834263
 97
        0
 75
     2
 76
     1
 98
        0
  0
SPLINE
  5
6AA
330
6A2
100
AcDbEntity
  8
LOGO
370
     0
100
AcDbSpline
210
0.0
220
0.0
230
1.0
 70
    11
 71
     3
 72
    29
 73
    25
 74
     0
 42
0.000000001
 43
0.0000000001
 40
0.0
 40
0.0
 40
0.0
 40
0.0
 40
1.0
 40
1.0
 40
1.0
 40
2.0
 40
2.0
 40
2.0
 40
3.0
 40
3.0
 40
3.0
 40
4.0
 40
4.0
 40
4.0
 40
5.0
 40
5.0
 40
5.0
 40
6.0
 40
6.0
 40
6.0
 40
7.0
 40
7.0
 40
7.0
 40
8.0
 40
8.0
 40
8.0
 40
8.0
 10
101.6420971922469
 20
132.8388354296931
 30
0.0
 10
101.630039350094
 20
134.7164137077823
 30
0.0
 10
102.2236296937908
 20
138.0598810818841
 30
0.0
 10
103.7487744712405
 20
142.5378191476827
 30
0.0
 10
105.819967243327
 20
148.5896501242061
 30
0.0
 10
107.0602024361932
 20
150.8074318058939
 30
0.0
 10
108.1522984254671
 20
151.8833358357054
 30
0.0
 10
109.741177511439
 20
153.4532668840085
 30
0.0
 10
111.8740375333931
 20
153.5290590346837
 30
0.0
 10
112.5075910110823
 20
153.4532668840085
 30
0.0
 10
113.4012493694975
 20
153.3490526768302
 30
0.0
 10
114.6683563248758
 20
152.7580461564518
 30
0.0
 10
114.7493161221879
 20
150.7838328862519
 30
0.0
 10
114.8106388622796
 20
149.0909118479895
 30
0.0
 10
114.3186789024427
 20
145.9191825971221
 30
0.0
 10
112.6164561002338
 20
140.9489400617108
 30
0.0
 10
110.6444821435766
 20
135.1746117095912
 30
0.0
 10
109.4669477299053
 20
132.8960240524753
 30
0.0
 10
108.5212683953448
 20
131.9072809959403
 30
0.0
 10
106.7346406980658
 20
130.0538184021569
 30
0.0
 10
104.8222669326213
 20
130.2336525051225
 30
0.0
 10
104.5408024457958
 20
130.2336525051225
 30
0.0
 10
104.1721769856939
 20
130.2336525051225
 30
0.0
 10
101.6465758193322
 20
130.6305277668397
 30
0.0
 10
101.6420971922469
 20
132.8388354296931
 30
0.0
  0
SPLINE
  5
6AB
330
6A2
100
AcDbEntity
  8
LOGO
370
     0
100
AcDbSpline
210
0.0
220
0.0
230
1.0
 70
    11
 71
     3
 72
    32
 73
    28
 74
     0
 42
0.000000001
 43
0.0000000001
 40
0.0
 40
0.0
 40
0.0
 40
0.0
 40
1.0
 40
1.0
 40
1.0
 40
2.0
 40
2.0
 40
2.0
 40
3.0
 40
3.0
 40
3.0
 40
4.0
 40
4.0
 40
4.0
 40
5.0
 40
5.0
 40
5.0
 40
6.0
 40
6.0
 40
6.0
 40
7.0
 40
7.0
 40
7.0
 40
8.0
 40
8.0
 40
8.0
 40
9.0
 40
9.0
 40
9.0
 40
9.0
 10
106.2595617172429
 20
153.4105476718098
 30
0.0
 10
104.8222669326213
 20
151.5474388043041
 30
0.0
 10
103.7177685914188
 20
149.8758773721411
 30
0.0
 10
101.9232171692965
 20
144.6141795664062
 30
0.0
 10
100.2754269116635
 20
139.7999999594306
 30
0.0
 10
99.22777268346732
 20
136.3052927937542
 30
0.0
 10
99.06964269637689
 20
132.039572749846
 30
0.0
 10
98.94665270641765
 20
128.8673267343149
 30
0.0
 10
100.8807305877373
 20
127.8027915271048
 30
0.0
 10
103.7129454545577
 20
127.8027915271048
 30
0.0
 10
104.9352661390825
 20
127.8027915271048
 30
0.0
 10
108.0151835347002
 20
127.8827177950895
 30
0.0
 10
110.2045431598849
 20
130.5926316915021
 30
0.0
 10
111.7417457794874
 20
132.4984597712065
 30
0.0
 10
113.155269389579
 20
134.475256864725
 30
0.0
 10
115.0562743324223
 20
140.9489400617108
 30
0.0
 10
116.6361961642235
 20
146.3680788349845
 30
0.0
 10
117.7282921534974
 20
149.8639917848761
 30
0.0
 10
117.6480213757369
 20
151.8595646611754
 30
0.0
 10
117.6480213757369
 20
151.8595646611754
 30
0.0
 10
117.6480213757369
 20
151.8595646611754
 30
0.0
 10
117.6480213757369
 20
151.8595646611754
 30
0.0
 10
117.13229024137
 20
155.18150017429
 30
0.0
 10
114.7162431837115
 20
155.886194920681
 30
0.0
 10
113.3351034925446
 20
155.886194920681
 30
0.0
 10
111.9829026225447
 20
155.886194920681
 30
0.0
 10
108.3414342923792
 20
156.1251124501957
 30
0.0
 10
106.2595617172429
 20
153.4105476718098
 30
0.0
  0
HATCH
  5
6AC
330
6A2
100
AcDbEntity
  8
LOGO
 62
   250
420
  2234388
100
AcDbHatch
 10
0.0
 20
0.0
 30
0.0
210
0.0
220
0.0
230
1.0
  2
SOLID
 70
     1
 71
     0
 91
        2
 92
        1
 93
        1
 72
     4
 94
        3
 73
     0
 74
     1
 95
       29
 96
       25
 40
0.0
 40
0.0
 40
0.0
 40
0.0
 40
1.0
 40
1.0
 40
1.0
 40
2.0
 40
2.0
 40
2.0
 40
3.0
 40
3.0
 40
3.0
 40
4.0
 40
4.0
 40
4.0
 40
5.0
 40
5.0
 40
5.0
 40
6.0
 40
6.0
 40
6.0
 40
7.0
 40
7.0
 40
7.0
 40
8.0
 40
8.0
 40
8.0
 40
8.0
 10
101.6420971922469
 20
132.8388354296931
 10
101.630039350094
 20
134.7164137077823
 10
102.2236296937908
 20
138.0598810818841
 10
103.7487744712405
 20
142.5378191476827
 10
105.819967243327
 20
148.5896501242061
 10
107.0602024361932
 20
150.8074318058939
 10
108.1522984254671
 20
151.8833358357054
 10
109.741177511439
 20
153.4532668840085
 10
111.8740375333931
 20
153.5290590346837
 10
112.5075910110823
 20
153.4532668840085
 10
113.4012493694975
 20
153.3490526768302
 10
114.6683563248758
 20
152.7580461564518
 10
114.7493161221879
 20
150.7838328862519
 10
114.8106388622796
 20
149.0909118479895
 10
114.3186789024427
 20
145.9191825971221
 10
112.6164561002338
 20
140.9489400617108
 10
110.6444821435766
 20
135.1746117095912
 10
109.4669477299053
 20
132.8960240524753
 10
108.5212683953448
 20
131.9072809959403
 10
106.7346406980658
 20
130.0538184021569
 10
104.8222669326213
 20
130.2336525051225
 10
104.5408024457958
 20
130.2336525051225
 10
104.1721769856939
 20
130.2336525051225
 10
101.6465758193322
 20
130.6305277668397
 10
101.6420971922469
 20
132.8388354296931
 97
        0
 92
        1
 93
        1
 72
     4
 94
        3
 73
     0
 74
     1
 95
       32
 96
       28
 40
0.0
 40
0.0
 40
0.0
 40
0.0
 40
1.0
 40
1.0
 40
1.0
 40
2.0
 40
2.0
 40
2.0
 40
3.0
 40
3.0
 40
3.0
 40
4.0
 40
4.0
 40
4.0
 40
5.0
 40
5.0
 40
5.0
 40
6.0
 40
6.0
 40
6.0
 40
7.0
 40
7.0
 40
7.0
 40
8.0
 40
8.0
 40
8.0
 40
9.0
 40
9.0
 40
9.0
 40
9.0
 10
106.2595617172429
 20
153.4105476718098
 10
104.8222669326213
 20
151.5474388043041
 10
103.7177685914188
 20
149.8758773721411
 10
101.9232171692965
 20
144.6141795664062
 10
100.2754269116635
 20
139.7999999594306
 10
99.22777268346732
 20
136.3052927937542
 10
99.06964269637689
 20
132.039572749846
 10
98.94665270641765
 20
128.8673267343149
 10
100.8807305877373
 20
127.8027915271048
 10
103.7129454545577
 20
127.8027915271048
 10
104.9352661390825
 20
127.8027915271048
 10
108.0151835347002
 20
127.8827177950895
 10
110.2045431598849
 20
130.5926316915021
 10
111.7417457794874
 20
132.4984597712065
 10
113.155269389579
 20
134.475256864725
 10
115.0562743324223
 20
140.9489400617108
 10
116.6361961642235
 20
146.3680788349845
 10
117.7282921534974
 20
149.8639917848761
 10
117.6480213757369
 20
151.8595646611754
 10
117.6480213757369
 20
151.8595646611754
 10
117.6480213757369
 20
151.8595646611754
 10
117.6480213757369
 20
151.8595646611754
 10
117.13229024137
 20
155.18150017429
 10
114.7162431837115
 20
155.886194920681
 10
113.3351034925446
 20
155.886194920681
 10
111.9829026225447
 20
155.886194920681
 10
108.3414342923792
 20
156.1251124501957
 10
106.2595617172429
 20
153.4105476718098
 97
        0
 75
     2
 76
     1
 98
        0
  0
ENDBLK
  5
6AD
330
6A2
100
AcDbEntity
  8
0
100
AcDbBlockEnd
  0
BLOCK
  5
5AAC
330
5AAB
100
AcDbEntity
  8
0
100
AcDbBlockBegin
  2
*D6
 70
     1
 10
0.0
 20
0.0
 30
0.0
  3
*D6
  1
*D175
  0
LINE
  5
5AAE
330
5AAB
100
AcDbEntity
  8
DIM
 62
     0
 48
0.05
370
    -2
100
AcDbLine
 10
-296.8227778264047
 20
782.5179697811282
 30
0.0
 11
-296.8227778264047
 21
881.4321780409709
 31
0.0
  0
LINE
  5
5AAF
330
5AAB
100
AcDbEntity
  8
DIM
 62
     0
 48
0.05
370
    -2
100
AcDbLine
 10
-475.1193629154052
 20
675.4318654979522
 30
0.0
 11
-475.1193629154052
 21
881.4321780409709
 31
0.0
  0
LINE
  5
5AB0
330
5AAB
100
AcDbEntity
  8
DIM
 62
     0
 48
0.05
370
    -2
100
AcDbLine
 10
-299.8227778264047
 20
881.4321780409709
 30
0.0
 11
-472.1193629154052
 21
881.4321780409709
 31
0.0
  0
INSERT
  5
5AB1
330
5AAB
100
AcDbEntity
  8
DIM
 62
     0
370
    -2
100
AcDbBlockReference
  2
_DOT
 10
-296.8227778264047
 20
881.4321780409709
 30
0.0
 41
3.0
 42
3.0
 43
3.0
  0
INSERT
  5
5AB2
330
5AAB
100
AcDbEntity
  8
DIM
 62
     0
370
    -2
100
AcDbBlockReference
  2
_DOT
 10
-475.1193629154052
 20
881.4321780409709
 30
0.0
 41
3.0
 42
3.0
 43
3.0
 50
180.0
  0
MTEXT
  5
5AB3
330
5AAB
100
AcDbEntity
  8
DIM
 62
     0
 48
0.05
100
AcDbMText
 10
-385.971070370905
 20
897.4321780409709
 30
0.0
 40
12.0
 41
0.0
 46
0.0
 71
     5
 72
     1
  1
\A1;178
  7
ＭＳ ゴシック
 73
     1
 44
1.0
  0
POINT
  5
5AB4
330
5AAB
100
AcDbEntity
  8
Defpoints
 62
     0
100
AcDbPoint
 10
-296.8227778264047
 20
772.5179697811282
 30
0.0
  0
POINT
  5
5AB5
330
5AAB
100
AcDbEntity
  8
Defpoints
 62
     0
100
AcDbPoint
 10
-475.1193629154052
 20
665.4318654979522
 30
0.0
  0
POINT
  5
5AB6
330
5AAB
100
AcDbEntity
  8
Defpoints
 62
     0
100
AcDbPoint
 10
-475.1193629154052
 20
881.4321780409709
 30
0.0
  0
ENDBLK
  5
5AAD
330
5AAB
100
AcDbEntity
  8
0
100
AcDbBlockEnd
  0
BLOCK
  5
5AB8
330
5AB7
100
AcDbEntity
  8
0
100
AcDbBlockBegin
  2
*D7
 70
     1
 10
0.0
 20
0.0
 30
0.0
  3
*D7
  1
*D176
  0
LINE
  5
5ABA
330
5AB7
100
AcDbEntity
  8
DIM
 62
     0
 48
0.05
370
    -2
100
AcDbLine
 10
-552.1376319289054
 20
776.0738037377992
 30
0.0
 11
-552.1376319289054
 21
881.4321780409709
 31
0.0
  0
LINE
  5
5ABB
330
5AB7
100
AcDbEntity
  8
DIM
 62
     0
 48
0.05
370
    -2
100
AcDbLine
 10
-784.5325036534048
 20
824.7955889903233
 30
0.0
 11
-784.5325036534048
 21
881.4321780409709
 31
0.0
  0
LINE
  5
5ABC
330
5AB7
100
AcDbEntity
  8
DIM
 62
     0
 48
0.05
370
    -2
100
AcDbLine
 10
-555.1376319289054
 20
881.4321780409709
 30
0.0
 11
-781.5325036534048
 21
881.4321780409709
 31
0.0
  0
INSERT
  5
5ABD
330
5AB7
100
AcDbEntity
  8
DIM
 62
     0
370
    -2
100
AcDbBlockReference
  2
_DOT
 10
-552.1376319289054
 20
881.4321780409709
 30
0.0
 41
3.0
 42
3.0
 43
3.0
  0
INSERT
  5
5ABE
330
5AB7
100
AcDbEntity
  8
DIM
 62
     0
370
    -2
100
AcDbBlockReference
  2
_DOT
 10
-784.5325036534048
 20
881.4321780409709
 30
0.0
 41
3.0
 42
3.0
 43
3.0
 50
180.0
  0
MTEXT
  5
5ABF
330
5AB7
100
AcDbEntity
  8
DIM
 62
     0
 48
0.05
100
AcDbMText
 10
-668.3350677911551
 20
897.4321780409709
 30
0.0
 40
12.0
 41
0.0
 46
0.0
 71
     5
 72
     1
  1
\A1;232
  7
ＭＳ ゴシック
 73
     1
 44
1.0
  0
POINT
  5
5AC0
330
5AB7
100
AcDbEntity
  8
Defpoints
 62
     0
100
AcDbPoint
 10
-552.1376319289054
 20
766.0738037377992
 30
0.0
  0
POINT
  5
5AC1
330
5AB7
100
AcDbEntity
  8
Defpoints
 62
     0
100
AcDbPoint
 10
-784.5325036534048
 20
814.7955889903233
 30
0.0
  0
POINT
  5
5AC2
330
5AB7
100
AcDbEntity
  8
Defpoints
 62
     0
100
AcDbPoint
 10
-784.5325036534048
 20
881.4321780409709
 30
0.0
  0
ENDBLK
  5
5AB9
330
5AB7
100
AcDbEntity
  8
0
100
AcDbBlockEnd
  0
BLOCK
  5
5AD0
330
5ACF
100
AcDbEntity
  8
0
100
AcDbBlockBegin
  2
*D8
 70
     1
 10
0.0
 20
0.0
 30
0.0
  3
*D8
  1
*D178
  0
LINE
  5
5AD2
330
5ACF
100
AcDbEntity
  8
DIM
 62
     0
 48
0.05
370
    -2
100
AcDbLine
 10
-552.1376308859116
 20
762.4481480384525
 30
0.0
 11
-552.137613178045
 21
728.4923056170693
 31
0.0
  0
LINE
  5
5AD3
330
5ACF
100
AcDbEntity
  8
DIM
 62
     0
 48
0.05
370
    -2
100
AcDbLine
 10
-549.7075116100739
 20
762.716097447786
 30
0.0
 11
-532.9211902590173
 21
733.6413359890361
 31
0.0
  0
ARC
  5
5AD4
330
5ACF
100
AcDbEntity
  8
DIM
 62
     0
 48
0.05
370
    -2
100
AcDbCircle
 10
-552.137633220676
 20
766.9251915468667
 30
0.0
 40
38.43288592980262
100
AcDbArc
 50
274.4735686928602
 51
295.5264611811297
  0
INSERT
  5
5AD5
330
5ACF
100
AcDbEntity
  8
DIM
 62
     0
370
    -2
100
AcDbBlockReference
  2
_DOT
 10
-552.137613178045
 20
728.4923056170693
 30
0.0
 41
3.0
 42
3.0
 43
3.0
 50
182.2367992862168
  0
INSERT
  5
5AD6
330
5ACF
100
AcDbEntity
  8
DIM
 62
     0
370
    -2
100
AcDbBlockReference
  2
_DOT
 10
-532.9211902590173
 20
733.6413359890361
 30
0.0
 41
3.0
 42
3.0
 43
3.0
 50
27.76323058777503
  0
MTEXT
  5
5AD7
330
5ACF
100
AcDbEntity
  8
DIM
 62
     0
 48
0.05
100
AcDbMText
 10
-535.3010936514469
 20
714.9408100648176
 30
0.0
 40
12.0
 41
0.0
 46
0.0
 71
     5
 72
     1
  1
\A1;30%%d
  7
ＭＳ ゴシック
 11
0.9513476566525267
 21
0.3081195160676228
 31
0.0
 73
     1
 44
1.0
  0
POINT
  5
5AD8
330
5ACF
100
AcDbEntity
  8
Defpoints
 62
     0
100
AcDbPoint
 10
-545.4638194589553
 20
729.0761898325932
 30
0.0
  0
POINT
  5
5AD9
330
5ACF
100
AcDbEntity
  8
Defpoints
 62
     0
100
AcDbPoint
 10
-552.1376319289054
 20
764.4481480384522
 30
0.0
  0
POINT
  5
5ADA
330
5ACF
100
AcDbEntity
  8
Defpoints
 62
     0
100
AcDbPoint
 10
-550.7075116099052
 20
764.4481482554522
 30
0.0
  0
POINT
  5
5ADB
330
5ACF
100
AcDbEntity
  8
Defpoints
 62
     0
100
AcDbPoint
 10
-552.137631928904
 20
766.9251893094522
 30
0.0
  0
POINT
  5
5ADC
330
5ACF
100
AcDbEntity
  8
Defpoints
 62
     0
100
AcDbPoint
 10
-552.1376332206744
 20
766.9251885634553
 30
0.0
  0
ENDBLK
  5
5AD1
330
5ACF
100
AcDbEntity
  8
0
100
AcDbBlockEnd
  0
BLOCK
  5
5ADE
330
5ADD
100
AcDbEntity
  8
0
100
AcDbBlockBegin
  2
*D9
 70
     1
 10
0.0
 20
0.0
 30
0.0
  3
*D9
  1
*D179
  0
LINE
  5
5AE0
330
5ADD
100
AcDbEntity
  8
DIM
 62
     0
 48
0.05
370
    -2
100
AcDbLine
 10
-304.4093533890575
 20
665.4375309069521
 30
0.0
 11
-269.1574361430264
 21
665.4375309069521
 31
0.0
  0
LINE
  5
5AE1
330
5ADD
100
AcDbEntity
  8
DIM
 62
     0
 48
0.05
370
    -2
100
AcDbLine
 10
-304.4093533890575
 20
625.4375309069521
 30
0.0
 11
-269.1574361430264
 21
625.4375309069521
 31
0.0
  0
LINE
  5
5AE2
330
5ADD
100
AcDbEntity
  8
DIM
 62
     0
 48
0.05
370
    -2
100
AcDbLine
 10
-269.1574361430264
 20
625.4375309069521
 30
0.0
 11
-269.1574361430264
 21
545.6895309069521
 31
0.0
  0
LINE
  5
5AE3
330
5ADD
100
AcDbEntity
  8
DIM
 62
     0
 48
0.05
370
    -2
100
AcDbLine
 10
-269.1574361430264
 20
662.4375309069521
 30
0.0
 11
-269.1574361430264
 21
628.4375309069521
 31
0.0
  0
INSERT
  5
5AE4
330
5ADD
100
AcDbEntity
  8
DIM
 62
     0
370
    -2
100
AcDbBlockReference
  2
_DOT
 10
-269.1574361430264
 20
665.4375309069521
 30
0.0
 41
3.0
 42
3.0
 43
3.0
 50
90.0
  0
INSERT
  5
5AE5
330
5ADD
100
AcDbEntity
  8
DIM
 62
     0
370
    -2
100
AcDbBlockReference
  2
_DOT
 10
-269.1574361430264
 20
625.4375309069521
 30
0.0
 41
3.0
 42
3.0
 43
3.0
 50
270.0
  0
MTEXT
  5
5AE6
330
5ADD
100
AcDbEntity
  8
DIM
 62
     0
 48
0.05
100
AcDbMText
 10
-285.1574361430264
 20
582.5635309069521
 30
0.0
 40
12.0
 41
0.0
 46
0.0
 71
     5
 72
     1
  1
\A1;max. 50
  7
ＭＳ ゴシック
 11
0.0
 21
1.0
 31
0.0
 73
     1
 44
1.0
  0
POINT
  5
5AE7
330
5ADD
100
AcDbEntity
  8
Defpoints
 62
     0
100
AcDbPoint
 10
-314.4093533890575
 20
665.4375309069521
 30
0.0
  0
POINT
  5
5AE8
330
5ADD
100
AcDbEntity
  8
Defpoints
 62
     0
100
AcDbPoint
 10
-314.4093533890575
 20
625.4375309069521
 30
0.0
  0
POINT
  5
5AE9
330
5ADD
100
AcDbEntity
  8
Defpoints
 62
     0
100
AcDbPoint
 10
-269.1574361430264
 20
625.4375309069521
 30
0.0
  0
ENDBLK
  5
5ADF
330
5ADD
100
AcDbEntity
  8
0
100
AcDbBlockEnd
  0
BLOCK
  5
5AEB
330
5AEA
100
AcDbEntity
  8
0
100
AcDbBlockBegin
  2
*D10
 70
     1
 10
0.0
 20
0.0
 30
0.0
  3
*D10
  1
*D180
  0
LINE
  5
5AED
330
5AEA
100
AcDbEntity
  8
DIM
 62
     0
 48
0.05
370
    -2
100
AcDbLine
 10
-753.3069399639055
 20
1240.895771716658
 30
0.0
 11
-717.9545671088965
 21
1240.895771716658
 31
0.0
  0
LINE
  5
5AEE
330
5AEA
100
AcDbEntity
  8
DIM
 62
     0
 48
0.05
370
    -2
100
AcDbLine
 10
-757.8069399639055
 20
1222.888662060269
 30
0.0
 11
-717.9545671088965
 21
1222.888662060269
 31
0.0
  0
LINE
  5
5AEF
330
5AEA
100
AcDbEntity
  8
DIM
 62
     0
 48
0.05
370
    -2
100
AcDbLine
 10
-717.9545671088965
 20
1237.895771716658
 30
0.0
 11
-717.9545671088965
 21
1225.888662060269
 31
0.0
  0
INSERT
  5
5AF0
330
5AEA
100
AcDbEntity
  8
DIM
 62
     0
370
    -2
100
AcDbBlockReference
  2
_DOT
 10
-717.9545671088965
 20
1240.895771716658
 30
0.0
 41
3.0
 42
3.0
 43
3.0
 50
90.0
  0
INSERT
  5
5AF1
330
5AEA
100
AcDbEntity
  8
DIM
 62
     0
370
    -2
100
AcDbBlockReference
  2
_DOT
 10
-717.9545671088965
 20
1222.888662060269
 30
0.0
 41
3.0
 42
3.0
 43
3.0
 50
270.0
  0
MTEXT
  5
5AF2
330
5AEA
100
AcDbEntity
  8
DIM
 62
     0
 48
0.05
100
AcDbMText
 10
-733.9545671088965
 20
1231.892216888463
 30
0.0
 40
12.0
 41
0.0
 46
0.0
 71
     5
 72
     1
  1
\A1;18
  7
ＭＳ ゴシック
 11
0.0
 21
1.0
 31
0.0
 73
     1
 44
1.0
  0
POINT
  5
5AF3
330
5AEA
100
AcDbEntity
  8
Defpoints
 62
     0
100
AcDbPoint
 10
-763.3069399639055
 20
1240.895771716658
 30
0.0
  0
POINT
  5
5AF4
330
5AEA
100
AcDbEntity
  8
Defpoints
 62
     0
100
AcDbPoint
 10
-767.8069399639055
 20
1222.888662060269
 30
0.0
  0
POINT
  5
5AF5
330
5AEA
100
AcDbEntity
  8
Defpoints
 62
     0
100
AcDbPoint
 10
-717.9545671088965
 20
1222.888662060269
 30
0.0
  0
ENDBLK
  5
5AEC
330
5AEA
100
AcDbEntity
  8
0
100
AcDbBlockEnd
  0
BLOCK
  5
5AF8
330
5AF7
100
AcDbEntity
  8
0
100
AcDbBlockBegin
  2
*D11
 70
     1
 10
0.0
 20
0.0
 30
0.0
  3
*D11
  1
*D181
  0
LINE
  5
5AFA
330
5AF7
100
AcDbEntity
  8
DIM
 62
     0
 48
0.05
370
    -2
100
AcDbLine
 10
-763.3069399639055
 20
1253.388662060269
 30
0.0
 11
-763.3069399639055
 21
1264.626841635918
 31
0.0
  0
LINE
  5
5AFB
330
5AF7
100
AcDbEntity
  8
DIM
 62
     0
 48
0.05
370
    -2
100
AcDbLine
 10
-784.3069399639055
 20
1249.388662060269
 30
0.0
 11
-784.3069399639055
 21
1264.626841635918
 31
0.0
  0
LINE
  5
5AFC
330
5AF7
100
AcDbEntity
  8
DIM
 62
     0
 48
0.05
370
    -2
100
AcDbLine
 10
-766.3069399639055
 20
1264.626841635918
 30
0.0
 11
-781.3069399639055
 21
1264.626841635918
 31
0.0
  0
INSERT
  5
5AFD
330
5AF7
100
AcDbEntity
  8
DIM
 62
     0
370
    -2
100
AcDbBlockReference
  2
_DOT
 10
-763.3069399639055
 20
1264.626841635918
 30
0.0
 41
3.0
 42
3.0
 43
3.0
  0
INSERT
  5
5AFE
330
5AF7
100
AcDbEntity
  8
DIM
 62
     0
370
    -2
100
AcDbBlockReference
  2
_DOT
 10
-784.3069399639055
 20
1264.626841635918
 30
0.0
 41
3.0
 42
3.0
 43
3.0
 50
180.0
  0
MTEXT
  5
5AFF
330
5AF7
100
AcDbEntity
  8
DIM
 62
     0
 48
0.05
100
AcDbMText
 10
-773.8069399639055
 20
1280.626841635918
 30
0.0
 40
12.0
 41
0.0
 46
0.0
 71
     5
 72
     1
  1
\A1;21
  7
ＭＳ ゴシック
 73
     1
 44
1.0
  0
POINT
  5
5B00
330
5AF7
100
AcDbEntity
  8
Defpoints
 62
     0
100
AcDbPoint
 10
-763.3069399639055
 20
1243.388662060269
 30
0.0
  0
POINT
  5
5B01
330
5AF7
100
AcDbEntity
  8
Defpoints
 62
     0
100
AcDbPoint
 10
-784.3069399639055
 20
1239.388662060269
 30
0.0
  0
POINT
  5
5B02
330
5AF7
100
AcDbEntity
  8
Defpoints
 62
     0
100
AcDbPoint
 10
-784.3069399639055
 20
1264.626841635918
 30
0.0
  0
ENDBLK
  5
5AF9
330
5AF7
100
AcDbEntity
  8
0
100
AcDbBlockEnd
  0
BLOCK
  5
5B05
330
5B04
100
AcDbEntity
  8
0
100
AcDbBlockBegin
  2
*D12
 70
     1
 10
0.0
 20
0.0
 30
0.0
  3
*D12
  1
*D182
  0
LINE
  5
5B07
330
5B04
100
AcDbEntity
  8
DIM
 62
     0
 48
0.05
370
    -2
100
AcDbLine
 10
-784.306939963905
 20
1249.482809392483
 30
0.0
 11
-784.306939963905
 21
1301.888997393392
 31
0.0
  0
LINE
  5
5B08
330
5B04
100
AcDbEntity
  8
DIM
 62
     0
 48
0.05
370
    -2
100
AcDbLine
 10
-620.4356731919054
 20
1247.132525084951
 30
0.0
 11
-620.4356731919054
 21
1301.888997393392
 31
0.0
  0
LINE
  5
5B09
330
5B04
100
AcDbEntity
  8
DIM
 62
     0
 48
0.05
370
    -2
100
AcDbLine
 10
-781.306939963905
 20
1301.888997393392
 30
0.0
 11
-623.4356731919054
 21
1301.888997393392
 31
0.0
  0
INSERT
  5
5B0A
330
5B04
100
AcDbEntity
  8
DIM
 62
     0
370
    -2
100
AcDbBlockReference
  2
_DOT
 10
-784.306939963905
 20
1301.888997393392
 30
0.0
 41
3.0
 42
3.0
 43
3.0
 50
180.0
  0
INSERT
  5
5B0B
330
5B04
100
AcDbEntity
  8
DIM
 62
     0
370
    -2
100
AcDbBlockReference
  2
_DOT
 10
-620.4356731919054
 20
1301.888997393392
 30
0.0
 41
3.0
 42
3.0
 43
3.0
  0
MTEXT
  5
5B0C
330
5B04
100
AcDbEntity
  8
DIM
 62
     0
 48
0.05
100
AcDbMText
 10
-702.3713065779052
 20
1318.464997393392
 30
0.0
 40
12.0
 41
0.0
 46
0.0
 71
     5
 72
     1
  1
\A1;150~104
  7
ＭＳ ゴシック
 73
     1
 44
1.0
  0
POINT
  5
5B0D
330
5B04
100
AcDbEntity
  8
Defpoints
 62
     0
100
AcDbPoint
 10
-784.306939963905
 20
1239.482809392483
 30
0.0
  0
POINT
  5
5B0E
330
5B04
100
AcDbEntity
  8
Defpoints
 62
     0
100
AcDbPoint
 10
-620.4356731919054
 20
1237.132525084951
 30
0.0
  0
POINT
  5
5B0F
330
5B04
100
AcDbEntity
  8
Defpoints
 62
     0
100
AcDbPoint
 10
-620.4356731919054
 20
1301.888997393392
 30
0.0
  0
ENDBLK
  5
5B06
330
5B04
100
AcDbEntity
  8
0
100
AcDbBlockEnd
  0
BLOCK
  5
5B11
330
5B10
100
AcDbEntity
  8
0
100
AcDbBlockBegin
  2
*D13
 70
     1
 10
0.0
 20
0.0
 30
0.0
  3
*D13
  1
*D183
  0
LINE
  5
5B13
330
5B10
100
AcDbEntity
  8
DIM
 62
     0
 48
0.05
370
    -2
100
AcDbLine
 10
-620.4356731919054
 20
1289.630406570987
 30
0.0
 11
-620.4356731919054
 21
1301.888997393392
 31
0.0
  0
LINE
  5
5B14
330
5B10
100
AcDbEntity
  8
DIM
 62
     0
 48
0.05
370
    -2
100
AcDbLine
 10
-475.1193629154052
 20
1243.019527546769
 30
0.0
 11
-475.1193629154052
 21
1301.888997393392
 31
0.0
  0
LINE
  5
5B15
330
5B10
100
AcDbEntity
  8
DIM
 62
     0
 48
0.05
370
    -2
100
AcDbLine
 10
-617.4356731919054
 20
1301.888997393392
 30
0.0
 11
-478.1193629154052
 21
1301.888997393392
 31
0.0
  0
INSERT
  5
5B16
330
5B10
100
AcDbEntity
  8
DIM
 62
     0
370
    -2
100
AcDbBlockReference
  2
_DOT
 10
-620.4356731919054
 20
1301.888997393392
 30
0.0
 41
3.0
 42
3.0
 43
3.0
 50
180.0
  0
INSERT
  5
5B17
330
5B10
100
AcDbEntity
  8
DIM
 62
     0
370
    -2
100
AcDbBlockReference
  2
_DOT
 10
-475.1193629154052
 20
1301.888997393392
 30
0.0
 41
3.0
 42
3.0
 43
3.0
  0
MTEXT
  5
5B18
330
5B10
100
AcDbEntity
  8
DIM
 62
     0
 48
0.05
100
AcDbMText
 10
-547.7775180536553
 20
1318.464997393392
 30
0.0
 40
12.0
 41
0.0
 46
0.0
 71
     5
 72
     1
  1
\A1;150~106
  7
ＭＳ ゴシック
 73
     1
 44
1.0
  0
POINT
  5
5B19
330
5B10
100
AcDbEntity
  8
Defpoints
 62
     0
100
AcDbPoint
 10
-620.4356731919054
 20
1279.630406570987
 30
0.0
  0
POINT
  5
5B1A
330
5B10
100
AcDbEntity
  8
Defpoints
 62
     0
100
AcDbPoint
 10
-475.1193629154052
 20
1233.019527546769
 30
0.0
  0
POINT
  5
5B1B
330
5B10
100
AcDbEntity
  8
Defpoints
 62
     0
100
AcDbPoint
 10
-475.1193629154052
 20
1301.888997393392
 30
0.0
  0
ENDBLK
  5
5B12
330
5B10
100
AcDbEntity
  8
0
100
AcDbBlockEnd
  0
BLOCK
  5
5B1D
330
5B1C
100
AcDbEntity
  8
0
100
AcDbBlockBegin
  2
*D14
 70
     1
 10
0.0
 20
0.0
 30
0.0
  3
*D14
  1
*D184
  0
LINE
  5
5B1F
330
5B1C
100
AcDbEntity
  8
DIM
 62
     0
 48
0.05
370
    -2
100
AcDbLine
 10
-784.306939963905
 20
1293.336893530843
 30
0.0
 11
-784.306939963905
 21
1301.888997393392
 31
0.0
  0
LINE
  5
5B20
330
5B1C
100
AcDbEntity
  8
DIM
 62
     0
 48
0.05
370
    -2
100
AcDbLine
 10
-947.6781704849047
 20
1247.13252508495
 30
0.0
 11
-947.6781704849047
 21
1301.888997393392
 31
0.0
  0
LINE
  5
5B21
330
5B1C
100
AcDbEntity
  8
DIM
 62
     0
 48
0.05
370
    -2
100
AcDbLine
 10
-787.306939963905
 20
1301.888997393392
 30
0.0
 11
-944.6781704849047
 21
1301.888997393392
 31
0.0
  0
INSERT
  5
5B22
330
5B1C
100
AcDbEntity
  8
DIM
 62
     0
370
    -2
100
AcDbBlockReference
  2
_DOT
 10
-784.306939963905
 20
1301.888997393392
 30
0.0
 41
3.0
 42
3.0
 43
3.0
  0
INSERT
  5
5B23
330
5B1C
100
AcDbEntity
  8
DIM
 62
     0
370
    -2
100
AcDbBlockReference
  2
_DOT
 10
-947.6781704849047
 20
1301.888997393392
 30
0.0
 41
3.0
 42
3.0
 43
3.0
 50
180.0
  0
MTEXT
  5
5B24
330
5B1C
100
AcDbEntity
  8
DIM
 62
     0
 48
0.05
100
AcDbMText
 10
-865.9925552244049
 20
1318.464997393392
 30
0.0
 40
12.0
 41
0.0
 46
0.0
 71
     5
 72
     1
  1
\A1;150~106
  7
ＭＳ ゴシック
 73
     1
 44
1.0
  0
POINT
  5
5B25
330
5B1C
100
AcDbEntity
  8
Defpoints
 62
     0
100
AcDbPoint
 10
-784.306939963905
 20
1303.336893530843
 30
0.0
  0
POINT
  5
5B26
330
5B1C
100
AcDbEntity
  8
Defpoints
 62
     0
100
AcDbPoint
 10
-947.6781704849047
 20
1237.13252508495
 30
0.0
  0
POINT
  5
5B27
330
5B1C
100
AcDbEntity
  8
Defpoints
 62
     0
100
AcDbPoint
 10
-947.6781704849047
 20
1301.888997393392
 30
0.0
  0
ENDBLK
  5
5B1E
330
5B1C
100
AcDbEntity
  8
0
100
AcDbBlockEnd
  0
BLOCK
  5
5D0B
330
5D0A
100
AcDbEntity
  8
0
100
AcDbBlockBegin
  2
*D15
 70
     1
 10
0.0
 20
0.0
 30
0.0
  3
*D15
  1
*D186
  0
LINE
  5
5D0D
330
5D0A
100
AcDbEntity
  8
DIM
 62
     0
 48
0.05
370
    -2
100
AcDbLine
 10
-674.1066738297493
 20
842.7410385069522
 30
0.0
 11
-1057.714433092838
 21
842.741038506952
 31
0.0
  0
LINE
  5
5D0E
330
5D0A
100
AcDbEntity
  8
DIM
 62
     0
 48
0.05
370
    -2
100
AcDbLine
 10
-1011.665489208365
 20
665.4375309069521
 30
0.0
 11
-1057.714433092838
 21
665.4375309069521
 31
0.0
  0
LINE
  5
5D0F
330
5D0A
100
AcDbEntity
  8
DIM
 62
     0
 48
0.05
370
    -2
100
AcDbLine
 10
-1057.714433092838
 20
839.741038506952
 30
0.0
 11
-1057.714433092838
 21
668.4375309069521
 31
0.0
  0
INSERT
  5
5D10
330
5D0A
100
AcDbEntity
  8
DIM
 62
     0
370
    -2
100
AcDbBlockReference
  2
_DOT
 10
-1057.714433092838
 20
842.741038506952
 30
0.0
 41
3.0
 42
3.0
 43
3.0
 50
90.0
  0
INSERT
  5
5D11
330
5D0A
100
AcDbEntity
  8
DIM
 62
     0
370
    -2
100
AcDbBlockReference
  2
_DOT
 10
-1057.714433092838
 20
665.4375309069521
 30
0.0
 41
3.0
 42
3.0
 43
3.0
 50
270.0
  0
MTEXT
  5
5D12
330
5D0A
100
AcDbEntity
  8
DIM
 62
     0
 48
0.05
100
AcDbMText
 10
-1073.714433092838
 20
751.0892847069522
 30
0.0
 40
12.0
 41
0.0
 46
0.0
 71
     5
 72
     1
  1
\A1;177
  7
ＭＳ ゴシック
 11
0.0
 21
1.0
 31
0.0
 73
     1
 44
1.0
  0
POINT
  5
5D13
330
5D0A
100
AcDbEntity
  8
Defpoints
 62
     0
100
AcDbPoint
 10
-664.1066738297493
 20
842.7410385069522
 30
0.0
  0
POINT
  5
5D14
330
5D0A
100
AcDbEntity
  8
Defpoints
 62
     0
100
AcDbPoint
 10
-1001.665489208365
 20
665.4375309069521
 30
0.0
  0
POINT
  5
5D15
330
5D0A
100
AcDbEntity
  8
Defpoints
 62
     0
100
AcDbPoint
 10
-1057.714433092838
 20
665.4375309069521
 30
0.0
  0
ENDBLK
  5
5D0C
330
5D0A
100
AcDbEntity
  8
0
100
AcDbBlockEnd
  0
BLOCK
  5
6508
330
6507
100
AcDbEntity
  8
0
100
AcDbBlockBegin
  2
block 32
 70
     0
 10
0.0
 20
0.0
 30
0.0
  3
block 32
  1
block 32
  0
POLYLINE
  5
6509
330
6507
100
AcDbEntity
  8
1_10
 62
     7
420
 16777215
370
     9
100
AcDb2dPolyline
 66
     1
 10
0.0
 20
0.0
 30
0.0
  0
VERTEX
  5
650A
330
6509
100
AcDbEntity
  8
1_10
 62
     7
420
 16777215
370
     9
100
AcDbVertex
100
AcDb2dVertex
 10
195.9244320441602
 20
188.9658513377413
 30
0.0
  0
VERTEX
  5
650B
330
6509
100
AcDbEntity
  8
1_10
 62
     7
420
 16777215
370
     9
100
AcDbVertex
100
AcDb2dVertex
 10
219.9059297922194
 20
188.9658513377413
 30
0.0
  0
SEQEND
  5
650C
330
6509
100
AcDbEntity
  8
1_10
370
     9
  0
POLYLINE
  5
650D
330
6507
100
AcDbEntity
  8
1_10
 62
     7
420
 16777215
370
     9
100
AcDb2dPolyline
 66
     1
 10
0.0
 20
0.0
 30
0.0
  0
VERTEX
  5
650E
330
650D
100
AcDbEntity
  8
1_10
 62
     7
420
 16777215
370
     9
100
AcDbVertex
100
AcDb2dVertex
 10
210.8232740631292
 20
188.9658513377413
 30
0.0
  0
VERTEX
  5
650F
330
650D
100
AcDbEntity
  8
1_10
 62
     7
420
 16777215
370
     9
100
AcDbVertex
100
AcDb2dVertex
 10
210.8232740631292
 20
191.7022924868903
 30
0.0
  0
SEQEND
  5
6510
330
650D
100
AcDbEntity
  8
1_10
370
     9
  0
POLYLINE
  5
6511
330
6507
100
AcDbEntity
  8
1_10
 62
     7
420
 16777215
370
     9
100
AcDb2dPolyline
 66
     1
 10
0.0
 20
0.0
 30
0.0
  0
VERTEX
  5
6512
330
6511
100
AcDbEntity
  8
1_10
 62
     7
420
 16777215
370
     9
100
AcDbVertex
100
AcDb2dVertex
 10
205.0063987536988
 20
188.9658513377413
 30
0.0
  0
VERTEX
  5
6513
330
6511
100
AcDbEntity
  8
1_10
 62
     7
420
 16777215
370
     9
100
AcDbVertex
100
AcDb2dVertex
 10
205.0063987536988
 20
191.7022924868903
 30
0.0
  0
SEQEND
  5
6514
330
6511
100
AcDbEntity
  8
1_10
370
     9
  0
POLYLINE
  5
6515
330
6507
100
AcDbEntity
  8
1_10
 62
     7
420
 16777215
370
     5
100
AcDb2dPolyline
 66
     1
 10
0.0
 20
0.0
 30
0.0
  0
VERTEX
  5
6516
330
6515
100
AcDbEntity
  8
1_10
 62
     7
420
 16777215
370
     5
100
AcDbVertex
100
AcDb2dVertex
 10
195.9016943989577
 20
189.7633914687094
 30
0.0
  0
VERTEX
  5
6517
330
6515
100
AcDbEntity
  8
1_10
 62
     7
420
 16777215
370
     5
100
AcDbVertex
100
AcDb2dVertex
 10
196.69889002015
 20
188.9658513377413
 30
0.0
  0
SEQEND
  5
6518
330
6515
100
AcDbEntity
  8
1_10
370
     5
  0
POLYLINE
  5
6519
330
6507
100
AcDbEntity
  8
1_10
 62
     7
420
 16777215
370
     5
100
AcDb2dPolyline
 66
     1
 10
0.0
 20
0.0
 30
0.0
  0
VERTEX
  5
651A
330
6519
100
AcDbEntity
  8
1_10
 62
     7
420
 16777215
370
     5
100
AcDbVertex
100
AcDb2dVertex
 10
195.9016943989577
 20
191.2199788007756
 30
0.0
  0
VERTEX
  5
651B
330
6519
100
AcDbEntity
  8
1_10
 62
     7
420
 16777215
370
     5
100
AcDbVertex
100
AcDb2dVertex
 10
198.1561663717678
 20
188.9658513377413
 30
0.0
  0
SEQEND
  5
651C
330
6519
100
AcDbEntity
  8
1_10
370
     5
  0
POLYLINE
  5
651D
330
6507
100
AcDbEntity
  8
1_10
 62
     7
420
 16777215
370
     5
100
AcDb2dPolyline
 66
     1
 10
0.0
 20
0.0
 30
0.0
  0
VERTEX
  5
651E
330
651D
100
AcDbEntity
  8
1_10
 62
     7
420
 16777215
370
     5
100
AcDbVertex
100
AcDb2dVertex
 10
196.8766570644608
 20
191.7022924868903
 30
0.0
  0
VERTEX
  5
651F
330
651D
100
AcDbEntity
  8
1_10
 62
     7
420
 16777215
370
     5
100
AcDbVertex
100
AcDb2dVertex
 10
199.612753703834
 20
188.9658513377413
 30
0.0
  0
SEQEND
  5
6520
330
651D
100
AcDbEntity
  8
1_10
370
     5
  0
POLYLINE
  5
6521
330
6507
100
AcDbEntity
  8
1_10
 62
     7
420
 16777215
370
     5
100
AcDb2dPolyline
 66
     1
 10
0.0
 20
0.0
 30
0.0
  0
VERTEX
  5
6522
330
6521
100
AcDbEntity
  8
1_10
 62
     7
420
 16777215
370
     5
100
AcDbVertex
100
AcDb2dVertex
 10
198.333244396527
 20
191.7022924868903
 30
0.0
  0
VERTEX
  5
6523
330
6521
100
AcDbEntity
  8
1_10
 62
     7
420
 16777215
370
     5
100
AcDbVertex
100
AcDb2dVertex
 10
201.0693410359002
 20
188.9658513377413
 30
0.0
  0
SEQEND
  5
6524
330
6521
100
AcDbEntity
  8
1_10
370
     5
  0
POLYLINE
  5
6525
330
6507
100
AcDbEntity
  8
1_10
 62
     7
420
 16777215
370
     5
100
AcDb2dPolyline
 66
     1
 10
0.0
 20
0.0
 30
0.0
  0
VERTEX
  5
6526
330
6525
100
AcDbEntity
  8
1_10
 62
     7
420
 16777215
370
     5
100
AcDbVertex
100
AcDb2dVertex
 10
199.7705391811486
 20
191.7022924868903
 30
0.0
  0
VERTEX
  5
6527
330
6525
100
AcDbEntity
  8
1_10
 62
     7
420
 16777215
370
     5
100
AcDbVertex
100
AcDb2dVertex
 10
202.5259283679664
 20
188.9658513377413
 30
0.0
  0
SEQEND
  5
6528
330
6525
100
AcDbEntity
  8
1_10
370
     5
  0
POLYLINE
  5
6529
330
6507
100
AcDbEntity
  8
1_10
 62
     7
420
 16777215
370
     5
100
AcDb2dPolyline
 66
     1
 10
0.0
 20
0.0
 30
0.0
  0
VERTEX
  5
652A
330
6529
100
AcDbEntity
  8
1_10
 62
     7
420
 16777215
370
     5
100
AcDbVertex
100
AcDb2dVertex
 10
201.2264374936632
 20
191.7022924868903
 30
0.0
  0
VERTEX
  5
652B
330
6529
100
AcDbEntity
  8
1_10
 62
     7
420
 16777215
370
     5
100
AcDbVertex
100
AcDb2dVertex
 10
203.963223152588
 20
188.9658513377413
 30
0.0
  0
SEQEND
  5
652C
330
6529
100
AcDbEntity
  8
1_10
370
     5
  0
POLYLINE
  5
652D
330
6507
100
AcDbEntity
  8
1_10
 62
     7
420
 16777215
370
     5
100
AcDb2dPolyline
 66
     1
 10
0.0
 20
0.0
 30
0.0
  0
VERTEX
  5
652E
330
652D
100
AcDbEntity
  8
1_10
 62
     7
420
 16777215
370
     5
100
AcDbVertex
100
AcDb2dVertex
 10
202.683713845281
 20
191.7022924868903
 30
0.0
  0
VERTEX
  5
652F
330
652D
100
AcDbEntity
  8
1_10
 62
     7
420
 16777215
370
     5
100
AcDbVertex
100
AcDb2dVertex
 10
205.0063987536988
 20
189.3796075784725
 30
0.0
  0
SEQEND
  5
6530
330
652D
100
AcDbEntity
  8
1_10
370
     5
  0
POLYLINE
  5
6531
330
6507
100
AcDbEntity
  8
1_10
 62
     7
420
 16777215
370
     5
100
AcDb2dPolyline
 66
     1
 10
0.0
 20
0.0
 30
0.0
  0
VERTEX
  5
6532
330
6531
100
AcDbEntity
  8
1_10
 62
     7
420
 16777215
370
     5
100
AcDbVertex
100
AcDb2dVertex
 10
204.1403011773472
 20
191.7022924868903
 30
0.0
  0
VERTEX
  5
6533
330
6531
100
AcDbEntity
  8
1_10
 62
     7
420
 16777215
370
     5
100
AcDbVertex
100
AcDb2dVertex
 10
205.0063987536988
 20
190.8361949105387
 30
0.0
  0
SEQEND
  5
6534
330
6531
100
AcDbEntity
  8
1_10
370
     5
  0
POLYLINE
  5
6535
330
6507
100
AcDbEntity
  8
1_10
 62
     7
420
 16777215
370
     5
100
AcDb2dPolyline
 66
     1
 10
0.0
 20
0.0
 30
0.0
  0
VERTEX
  5
6536
330
6535
100
AcDbEntity
  8
1_10
 62
     7
420
 16777215
370
     5
100
AcDbVertex
100
AcDb2dVertex
 10
210.8232740631292
 20
189.0843627006152
 30
0.0
  0
VERTEX
  5
6537
330
6535
100
AcDbEntity
  8
1_10
 62
     7
420
 16777215
370
     5
100
AcDbVertex
100
AcDb2dVertex
 10
210.9610779734477
 20
188.9658513377413
 30
0.0
  0
SEQEND
  5
6538
330
6535
100
AcDbEntity
  8
1_10
370
     5
  0
POLYLINE
  5
6539
330
6507
100
AcDbEntity
  8
1_10
 62
     7
420
 16777215
370
     5
100
AcDb2dPolyline
 66
     1
 10
0.0
 20
0.0
 30
0.0
  0
VERTEX
  5
653A
330
6539
100
AcDbEntity
  8
1_10
 62
     7
420
 16777215
370
     5
100
AcDbVertex
100
AcDb2dVertex
 10
210.8232740631292
 20
190.5409500326814
 30
0.0
  0
VERTEX
  5
653B
330
6539
100
AcDbEntity
  8
1_10
 62
     7
420
 16777215
370
     5
100
AcDbVertex
100
AcDb2dVertex
 10
212.4183543250655
 20
188.9658513377413
 30
0.0
  0
SEQEND
  5
653C
330
6539
100
AcDbEntity
  8
1_10
370
     5
  0
POLYLINE
  5
653D
330
6507
100
AcDbEntity
  8
1_10
 62
     7
420
 16777215
370
     5
100
AcDb2dPolyline
 66
     1
 10
0.0
 20
0.0
 30
0.0
  0
VERTEX
  5
653E
330
653D
100
AcDbEntity
  8
1_10
 62
     7
420
 16777215
370
     5
100
AcDbVertex
100
AcDb2dVertex
 10
211.1188634507623
 20
191.7022924868903
 30
0.0
  0
VERTEX
  5
653F
330
653D
100
AcDbEntity
  8
1_10
 62
     7
420
 16777215
370
     5
100
AcDbVertex
100
AcDb2dVertex
 10
213.8549600901355
 20
188.9658513377413
 30
0.0
  0
SEQEND
  5
6540
330
653D
100
AcDbEntity
  8
1_10
370
     5
  0
POLYLINE
  5
6541
330
6507
100
AcDbEntity
  8
1_10
 62
     7
420
 16777215
370
     5
100
AcDb2dPolyline
 66
     1
 10
0.0
 20
0.0
 30
0.0
  0
VERTEX
  5
6542
330
6541
100
AcDbEntity
  8
1_10
 62
     7
420
 16777215
370
     5
100
AcDbVertex
100
AcDb2dVertex
 10
212.5754507828285
 20
191.7022924868903
 30
0.0
  0
VERTEX
  5
6543
330
6541
100
AcDbEntity
  8
1_10
 62
     7
420
 16777215
370
     5
100
AcDbVertex
100
AcDb2dVertex
 10
215.3122364417533
 20
188.9658513377413
 30
0.0
  0
SEQEND
  5
6544
330
6541
100
AcDbEntity
  8
1_10
370
     5
  0
POLYLINE
  5
6545
330
6507
100
AcDbEntity
  8
1_10
 62
     7
420
 16777215
370
     5
100
AcDb2dPolyline
 66
     1
 10
0.0
 20
0.0
 30
0.0
  0
VERTEX
  5
6546
330
6545
100
AcDbEntity
  8
1_10
 62
     7
420
 16777215
370
     5
100
AcDbVertex
100
AcDb2dVertex
 10
214.0320381148947
 20
191.7022924868903
 30
0.0
  0
VERTEX
  5
6547
330
6545
100
AcDbEntity
  8
1_10
 62
     7
420
 16777215
370
     5
100
AcDbVertex
100
AcDb2dVertex
 10
216.7688237738195
 20
188.9658513377413
 30
0.0
  0
SEQEND
  5
6548
330
6545
100
AcDbEntity
  8
1_10
370
     5
  0
POLYLINE
  5
6549
330
6507
100
AcDbEntity
  8
1_10
 62
     7
420
 16777215
370
     5
100
AcDb2dPolyline
 66
     1
 10
0.0
 20
0.0
 30
0.0
  0
VERTEX
  5
654A
330
6549
100
AcDbEntity
  8
1_10
 62
     7
420
 16777215
370
     5
100
AcDbVertex
100
AcDb2dVertex
 10
215.4893144665125
 20
191.7022924868903
 30
0.0
  0
VERTEX
  5
654B
330
6549
100
AcDbEntity
  8
1_10
 62
     7
420
 16777215
370
     5
100
AcDbVertex
100
AcDb2dVertex
 10
218.2254111058857
 20
188.9658513377413
 30
0.0
  0
SEQEND
  5
654C
330
6549
100
AcDbEntity
  8
1_10
370
     5
  0
POLYLINE
  5
654D
330
6507
100
AcDbEntity
  8
1_10
 62
     7
420
 16777215
370
     5
100
AcDb2dPolyline
 66
     1
 10
0.0
 20
0.0
 30
0.0
  0
VERTEX
  5
654E
330
654D
100
AcDbEntity
  8
1_10
 62
     7
420
 16777215
370
     5
100
AcDbVertex
100
AcDb2dVertex
 10
216.9259202315826
 20
191.7022924868903
 30
0.0
  0
VERTEX
  5
654F
330
654D
100
AcDbEntity
  8
1_10
 62
     7
420
 16777215
370
     5
100
AcDbVertex
100
AcDb2dVertex
 10
219.6819984379519
 20
188.9658513377413
 30
0.0
  0
SEQEND
  5
6550
330
654D
100
AcDbEntity
  8
1_10
370
     5
  0
POLYLINE
  5
6551
330
6507
100
AcDbEntity
  8
1_10
 62
     7
420
 16777215
370
     5
100
AcDb2dPolyline
 66
     1
 10
0.0
 20
0.0
 30
0.0
  0
VERTEX
  5
6552
330
6551
100
AcDbEntity
  8
1_10
 62
     7
420
 16777215
370
     5
100
AcDbVertex
100
AcDb2dVertex
 10
218.3831965832003
 20
191.7022924868903
 30
0.0
  0
VERTEX
  5
6553
330
6551
100
AcDbEntity
  8
1_10
 62
     7
420
 16777215
370
     5
100
AcDbVertex
100
AcDb2dVertex
 10
219.8831921470169
 20
190.2022969230737
 30
0.0
  0
SEQEND
  5
6554
330
6551
100
AcDbEntity
  8
1_10
370
     5
  0
ENDBLK
  5
6555
330
6507
100
AcDbEntity
  8
0
100
AcDbBlockEnd
  0
BLOCK
  5
6BDF
330
6BDE
100
AcDbEntity
  8
0
100
AcDbBlockBegin
  2
*D17
 70
     1
 10
0.0
 20
0.0
 30
0.0
  3
*D17
  1
*D76
  0
LINE
  5
6BE1
330
6BDE
100
AcDbEntity
  8
DIM
 62
     0
 48
0.05
370
    -2
100
AcDbLine
 10
343.3203000000346
 20
686.5964969607476
 30
0.0
 11
343.3203000000346
 21
618.9450716152711
 31
0.0
  0
LINE
  5
6BE2
330
6BDE
100
AcDbEntity
  8
DIM
 62
     0
 48
0.05
370
    -2
100
AcDbLine
 10
703.3144309378108
 20
684.5408485580948
 30
0.0
 11
703.3144309378108
 21
618.9450716152711
 31
0.0
  0
LINE
  5
6BE3
330
6BDE
100
AcDbEntity
  8
DIM
 62
     0
 48
0.05
370
    -2
100
AcDbLine
 10
346.3203000000346
 20
618.9450716152711
 30
0.0
 11
700.3144309378108
 21
618.9450716152711
 31
0.0
  0
INSERT
  5
6BE4
330
6BDE
100
AcDbEntity
  8
DIM
 62
     0
370
    -2
100
AcDbBlockReference
  2
_DOT
 10
343.3203000000346
 20
618.9450716152711
 30
0.0
 41
3.0
 42
3.0
 43
3.0
 50
180.0
  0
INSERT
  5
6BE5
330
6BDE
100
AcDbEntity
  8
DIM
 62
     0
370
    -2
100
AcDbBlockReference
  2
_DOT
 10
703.3144309378108
 20
618.9450716152711
 30
0.0
 41
3.0
 42
3.0
 43
3.0
  0
MTEXT
  5
6BE6
330
6BDE
100
AcDbEntity
  8
DIM
 62
     0
 48
0.05
100
AcDbMText
 10
523.3173654689227
 20
635.9170716152711
 30
0.0
 40
12.0
 41
0.0
 46
0.0
 71
     5
 72
     1
  1
\A1;φ360
  7
ＭＳ ゴシック
 73
     1
 44
1.0
  0
POINT
  5
6BE7
330
6BDE
100
AcDbEntity
  8
Defpoints
 62
     0
100
AcDbPoint
 10
343.3203000000346
 20
696.5964969607476
 30
0.0
  0
POINT
  5
6BE8
330
6BDE
100
AcDbEntity
  8
Defpoints
 62
     0
100
AcDbPoint
 10
703.3144309378108
 20
694.5408485580948
 30
0.0
  0
POINT
  5
6BE9
330
6BDE
100
AcDbEntity
  8
Defpoints
 62
     0
100
AcDbPoint
 10
703.3144309378108
 20
618.9450716152711
 30
0.0
  0
ENDBLK
  5
6BE0
330
6BDE
100
AcDbEntity
  8
0
100
AcDbBlockEnd
  0
BLOCK
  5
6C01
330
6C00
100
AcDbEntity
  8
0
100
AcDbBlockBegin
  2
*D18
 70
     1
 10
0.0
 20
0.0
 30
0.0
  3
*D18
  1
*D78
  0
LINE
  5
6C03
330
6C00
100
AcDbEntity
  8
DIM
 62
     0
 48
0.05
370
    -2
100
AcDbLine
 10
679.0179453610112
 20
693.1207172813639
 30
0.0
 11
777.5928097774414
 21
693.1207172813639
 31
0.0
  0
LINE
  5
6C04
330
6C00
100
AcDbEntity
  8
DIM
 62
     0
 48
0.05
370
    -2
100
AcDbLine
 10
593.591598364865
 20
1005.089185382289
 30
0.0
 11
777.5928097774414
 21
1005.089185382289
 31
0.0
  0
LINE
  5
6C05
330
6C00
100
AcDbEntity
  8
DIM
 62
     0
 48
0.05
370
    -2
100
AcDbLine
 10
777.5928097774414
 20
696.1207172813639
 30
0.0
 11
777.5928097774414
 21
1002.089185382289
 31
0.0
  0
INSERT
  5
6C06
330
6C00
100
AcDbEntity
  8
DIM
 62
     0
370
    -2
100
AcDbBlockReference
  2
_DOT
 10
777.5928097774414
 20
693.1207172813639
 30
0.0
 41
3.0
 42
3.0
 43
3.0
 50
270.0
  0
INSERT
  5
6C07
330
6C00
100
AcDbEntity
  8
DIM
 62
     0
370
    -2
100
AcDbBlockReference
  2
_DOT
 10
777.5928097774414
 20
1005.089185382289
 30
0.0
 41
3.0
 42
3.0
 43
3.0
 50
90.0
  0
MTEXT
  5
6C08
330
6C00
100
AcDbEntity
  8
DIM
 62
     0
 48
0.05
100
AcDbMText
 10
761.5928097774414
 20
849.1049513318264
 30
0.0
 40
12.0
 41
0.0
 46
0.0
 71
     5
 72
     1
  1
\A1;312
  7
ＭＳ ゴシック
 11
0.0
 21
1.0
 31
0.0
 73
     1
 44
1.0
  0
POINT
  5
6C09
330
6C00
100
AcDbEntity
  8
Defpoints
 62
     0
100
AcDbPoint
 10
669.0179453610112
 20
693.1207172813639
 30
0.0
  0
POINT
  5
6C0A
330
6C00
100
AcDbEntity
  8
Defpoints
 62
     0
100
AcDbPoint
 10
583.591598364865
 20
1005.089185382289
 30
0.0
  0
POINT
  5
6C0B
330
6C00
100
AcDbEntity
  8
Defpoints
 62
     0
100
AcDbPoint
 10
777.5928097774414
 20
1005.089185382289
 30
0.0
  0
ENDBLK
  5
6C02
330
6C00
100
AcDbEntity
  8
0
100
AcDbBlockEnd
  0
BLOCK
  5
6C11
330
6C10
100
AcDbEntity
  8
0
100
AcDbBlockBegin
  2
*D19
 70
     1
 10
0.0
 20
0.0
 30
0.0
  3
*D19
  1
*D79
  0
LINE
  5
6C13
330
6C10
100
AcDbEntity
  8
DIM
 62
     0
 48
0.05
370
    -2
100
AcDbLine
 10
523.6148525076014
 20
775.5913026599404
 30
0.0
 11
523.6148525076014
 21
783.9864751330746
 31
0.0
  0
LINE
  5
6C14
330
6C10
100
AcDbEntity
  8
DIM
 62
     0
 48
0.05
370
    -2
100
AcDbLine
 10
479.4927247217884
 20
763.8267845651327
 30
0.0
 11
475.324146822428
 21
771.0468894822386
 31
0.0
  0
ARC
  5
6C15
330
6C10
100
AcDbEntity
  8
DIM
 62
     0
 48
0.05
370
    -2
100
AcDbCircle
 10
523.6148525076014
 20
687.4059044783302
 30
0.0
 40
96.58057065474439
100
AcDbArc
 50
91.77980155225569
 51
118.2204864009882
  0
INSERT
  5
6C16
330
6C10
100
AcDbEntity
  8
DIM
 62
     0
370
    -2
100
AcDbBlockReference
  2
_DOT
 10
523.6148525076014
 20
783.9864751330746
 30
0.0
 41
3.0
 42
3.0
 43
3.0
 50
0.8899007761278455
  0
INSERT
  5
6C17
330
6C10
100
AcDbEntity
  8
DIM
 62
     0
370
    -2
100
AcDbBlockReference
  2
_DOT
 10
475.324146822428
 20
771.0468894822386
 30
0.0
 41
3.0
 42
3.0
 43
3.0
 50
209.1103871771161
  0
MTEXT
  5
6C18
330
6C10
100
AcDbEntity
  8
DIM
 62
     0
 48
0.05
100
AcDbMText
 10
494.4222309442243
 20
796.3531562788246
 30
0.0
 40
12.0
 41
0.0
 46
0.0
 71
     5
 72
     1
  1
\A1;30%%d
  7
ＭＳ ゴシック
 11
0.9659251759084144
 21
0.2588214723439662
 31
0.0
 73
     1
 44
1.0
  0
POINT
  5
6C19
330
6C10
100
AcDbEntity
  8
Defpoints
 62
     0
100
AcDbPoint
 10
506.8436530774138
 20
782.5191711537469
 30
0.0
  0
POINT
  5
6C1A
330
6C10
100
AcDbEntity
  8
Defpoints
 62
     0
100
AcDbPoint
 10
523.6148525076014
 20
765.5913026599404
 30
0.0
  0
POINT
  5
6C1B
330
6C10
100
AcDbEntity
  8
Defpoints
 62
     0
100
AcDbPoint
 10
484.4927682458429
 20
755.1665556560587
 30
0.0
  0
POINT
  5
6C1C
330
6C10
100
AcDbEntity
  8
Defpoints
 62
     0
100
AcDbPoint
 10
504.2398435354168
 20
720.9640149242216
 30
0.0
  0
POINT
  5
6C1D
330
6C10
100
AcDbEntity
  8
Defpoints
 62
     0
100
AcDbPoint
 10
523.6148525076014
 20
720.9640149242216
 30
0.0
  0
ENDBLK
  5
6C12
330
6C10
100
AcDbEntity
  8
0
100
AcDbBlockEnd
  0
BLOCK
  5
6C22
330
6C21
100
AcDbEntity
  8
0
100
AcDbBlockBegin
  2
*D20
 70
     1
 10
0.0
 20
0.0
 30
0.0
  3
*D20
  1
*D80
  0
LINE
  5
6C24
330
6C21
100
AcDbEntity
  8
DIM
 62
     0
 48
0.05
370
    -2
100
AcDbLine
 10
567.7369802934144
 20
763.8267845651327
 30
0.0
 11
571.9055581927748
 21
771.0468894822386
 31
0.0
  0
LINE
  5
6C25
330
6C21
100
AcDbEntity
  8
DIM
 62
     0
 48
0.05
370
    -2
100
AcDbLine
 10
523.6148525076014
 20
775.5913026599404
 30
0.0
 11
523.6148525076014
 21
783.9864751330746
 31
0.0
  0
ARC
  5
6C26
330
6C21
100
AcDbEntity
  8
DIM
 62
     0
 48
0.05
370
    -2
100
AcDbCircle
 10
523.6148525076014
 20
687.4059044783302
 30
0.0
 40
96.58057065474439
100
AcDbArc
 50
61.77951359901181
 51
88.22019844774432
  0
INSERT
  5
6C27
330
6C21
100
AcDbEntity
  8
DIM
 62
     0
370
    -2
100
AcDbBlockReference
  2
_DOT
 10
571.9055581927748
 20
771.0468894822386
 30
0.0
 41
3.0
 42
3.0
 43
3.0
 50
330.8896128228839
  0
INSERT
  5
6C28
330
6C21
100
AcDbEntity
  8
DIM
 62
     0
370
    -2
100
AcDbBlockReference
  2
_DOT
 10
523.6148525076014
 20
783.9864751330746
 30
0.0
 41
3.0
 42
3.0
 43
3.0
 50
179.1100992238722
  0
MTEXT
  5
6C29
330
6C21
100
AcDbEntity
  8
DIM
 62
     0
 48
0.05
100
AcDbMText
 10
552.8074740709785
 20
796.3531562788246
 30
0.0
 40
12.0
 41
0.0
 46
0.0
 71
     5
 72
     1
  1
\A1;30%%d
  7
ＭＳ ゴシック
 11
0.9659251759084144
 21
-0.2588214723439662
 31
0.0
 73
     1
 44
1.0
  0
POINT
  5
6C2A
330
6C21
100
AcDbEntity
  8
Defpoints
 62
     0
100
AcDbPoint
 10
556.6476572022935
 20
778.1618433583748
 30
0.0
  0
POINT
  5
6C2B
330
6C21
100
AcDbEntity
  8
Defpoints
 62
     0
100
AcDbPoint
 10
523.6148525076014
 20
765.5913026599404
 30
0.0
  0
POINT
  5
6C2C
330
6C21
100
AcDbEntity
  8
Defpoints
 62
     0
100
AcDbPoint
 10
562.73693676936
 20
755.1665556560587
 30
0.0
  0
POINT
  5
6C2D
330
6C21
100
AcDbEntity
  8
Defpoints
 62
     0
100
AcDbPoint
 10
542.9898614797861
 20
720.9640149242216
 30
0.0
  0
POINT
  5
6C2E
330
6C21
100
AcDbEntity
  8
Defpoints
 62
     0
100
AcDbPoint
 10
523.6148525076014
 20
720.9640149242216
 30
0.0
  0
ENDBLK
  5
6C23
330
6C21
100
AcDbEntity
  8
0
100
AcDbBlockEnd
  0
BLOCK
  5
7760
330
775F
100
AcDbEntity
  8
0
100
AcDbBlockBegin
  2
*D21
 70
     1
 10
0.0
 20
0.0
 30
0.0
  3
*D21
  1
*D82
  0
LINE
  5
7762
330
775F
100
AcDbEntity
  8
DIM
 62
     0
 48
0.05
370
    -2
100
AcDbLine
 10
1230.584621099554
 20
559.7053796546164
 30
0.0
 11
1230.584621099554
 21
604.0375655185497
 31
0.0
  0
LINE
  5
7763
330
775F
100
AcDbEntity
  8
DIM
 62
     0
 48
0.05
370
    -2
100
AcDbLine
 10
1590.584621097586
 20
559.7053796546163
 30
0.0
 11
1590.584621097586
 21
604.0375655185497
 31
0.0
  0
LINE
  5
7764
330
775F
100
AcDbEntity
  8
DIM
 62
     0
 48
0.05
370
    -2
100
AcDbLine
 10
1233.584621099554
 20
604.0375655185497
 30
0.0
 11
1587.584621097586
 21
604.0375655185497
 31
0.0
  0
INSERT
  5
7765
330
775F
100
AcDbEntity
  8
DIM
 62
     0
370
    -2
100
AcDbBlockReference
  2
_DOT
 10
1230.584621099554
 20
604.0375655185497
 30
0.0
 41
3.0
 42
3.0
 43
3.0
 50
180.0
  0
INSERT
  5
7766
330
775F
100
AcDbEntity
  8
DIM
 62
     0
370
    -2
100
AcDbBlockReference
  2
_DOT
 10
1590.584621097586
 20
604.0375655185497
 30
0.0
 41
3.0
 42
3.0
 43
3.0
  0
MTEXT
  5
7767
330
775F
100
AcDbEntity
  8
DIM
 62
     0
 48
0.05
100
AcDbMText
 10
1410.58462109857
 20
620.0375655185497
 30
0.0
 40
12.0
 41
0.0
 46
0.0
 71
     5
 72
     1
  1
\A1;360
  7
ＭＳ ゴシック
 73
     1
 44
1.0
  0
POINT
  5
7768
330
775F
100
AcDbEntity
  8
Defpoints
 62
     0
100
AcDbPoint
 10
1230.584621099554
 20
549.7053796546164
 30
0.0
  0
POINT
  5
7769
330
775F
100
AcDbEntity
  8
Defpoints
 62
     0
100
AcDbPoint
 10
1590.584621097586
 20
549.7053796546163
 30
0.0
  0
POINT
  5
776A
330
775F
100
AcDbEntity
  8
Defpoints
 62
     0
100
AcDbPoint
 10
1590.584621097586
 20
604.0375655185497
 30
0.0
  0
ENDBLK
  5
7761
330
775F
100
AcDbEntity
  8
0
100
AcDbBlockEnd
  0
BLOCK
  5
776F
330
776E
100
AcDbEntity
  8
0
100
AcDbBlockBegin
  2
*D22
 70
     1
 10
0.0
 20
0.0
 30
0.0
  3
*D22
  1
*D83
  0
LINE
  5
7771
330
776E
100
AcDbEntity
  8
DIM
 62
     0
 48
0.05
370
    -2
100
AcDbLine
 10
1600.584621097586
 20
549.7053796546163
 30
0.0
 11
1617.707303129011
 21
549.7053796546163
 31
0.0
  0
LINE
  5
7772
330
776E
100
AcDbEntity
  8
DIM
 62
     0
 48
0.05
370
    -2
100
AcDbLine
 10
1600.584621097586
 20
524.6976652589858
 30
0.0
 11
1617.707303129011
 21
524.6976652589858
 31
0.0
  0
LINE
  5
7773
330
776E
100
AcDbEntity
  8
DIM
 62
     0
 48
0.05
370
    -2
100
AcDbLine
 10
1617.707303129011
 20
552.7053796546163
 30
0.0
 11
1617.707303129011
 21
555.7053796546163
 31
0.0
  0
LINE
  5
7774
330
776E
100
AcDbEntity
  8
DIM
 62
     0
 48
0.05
370
    -2
100
AcDbLine
 10
1617.707303129011
 20
521.6976652589858
 30
0.0
 11
1617.707303129011
 21
518.6976652589858
 31
0.0
  0
INSERT
  5
7775
330
776E
100
AcDbEntity
  8
DIM
 62
     0
370
    -2
100
AcDbBlockReference
  2
_DOT
 10
1617.707303129011
 20
549.7053796546163
 30
0.0
 41
3.0
 42
3.0
 43
3.0
 50
270.0
  0
INSERT
  5
7776
330
776E
100
AcDbEntity
  8
DIM
 62
     0
370
    -2
100
AcDbBlockReference
  2
_DOT
 10
1617.707303129011
 20
524.6976652589858
 30
0.0
 41
3.0
 42
3.0
 43
3.0
 50
90.0
  0
MTEXT
  5
7777
330
776E
100
AcDbEntity
  8
DIM
 62
     0
 48
0.05
100
AcDbMText
 10
1601.707303129011
 20
537.2015224568011
 30
0.0
 40
12.0
 41
0.0
 46
0.0
 71
     5
 72
     1
  1
\A1;25
  7
ＭＳ ゴシック
 11
0.0
 21
1.0
 31
0.0
 73
     1
 44
1.0
  0
POINT
  5
7778
330
776E
100
AcDbEntity
  8
Defpoints
 62
     0
100
AcDbPoint
 10
1590.584621097586
 20
549.7053796546163
 30
0.0
  0
POINT
  5
7779
330
776E
100
AcDbEntity
  8
Defpoints
 62
     0
100
AcDbPoint
 10
1590.584621097586
 20
524.6976652589858
 30
0.0
  0
POINT
  5
777A
330
776E
100
AcDbEntity
  8
Defpoints
 62
     0
100
AcDbPoint
 10
1617.707303129011
 20
524.6976652589858
 30
0.0
  0
ENDBLK
  5
7770
330
776E
100
AcDbEntity
  8
0
100
AcDbBlockEnd
  0
BLOCK
  5
7784
330
7783
100
AcDbEntity
  8
0
100
AcDbBlockBegin
  2
*D23
 70
     1
 10
0.0
 20
0.0
 30
0.0
  3
*D23
  1
*D84
  0
LINE
  5
7786
330
7783
100
AcDbEntity
  8
DIM
 62
     0
 48
0.05
370
    -2
100
AcDbLine
 10
333.6003391679208
 20
719.6404390076202
 30
0.0
 11
307.4050085323019
 21
719.6404390076202
 31
0.0
  0
LINE
  5
7787
330
7783
100
AcDbEntity
  8
DIM
 62
     0
 48
0.05
370
    -2
100
AcDbLine
 10
333.6003391679208
 20
694.6327246119896
 30
0.0
 11
307.4050085323019
 21
694.6327246119896
 31
0.0
  0
LINE
  5
7788
330
7783
100
AcDbEntity
  8
DIM
 62
     0
 48
0.05
370
    -2
100
AcDbLine
 10
307.4050085323019
 20
716.6404390076202
 30
0.0
 11
307.4050085323019
 21
697.6327246119896
 31
0.0
  0
INSERT
  5
7789
330
7783
100
AcDbEntity
  8
DIM
 62
     0
370
    -2
100
AcDbBlockReference
  2
_DOT
 10
307.4050085323019
 20
719.6404390076202
 30
0.0
 41
3.0
 42
3.0
 43
3.0
 50
90.0
  0
INSERT
  5
778A
330
7783
100
AcDbEntity
  8
DIM
 62
     0
370
    -2
100
AcDbBlockReference
  2
_DOT
 10
307.4050085323019
 20
694.6327246119896
 30
0.0
 41
3.0
 42
3.0
 43
3.0
 50
270.0
  0
MTEXT
  5
778B
330
7783
100
AcDbEntity
  8
DIM
 62
     0
 48
0.05
100
AcDbMText
 10
291.4050085323019
 20
707.136581809805
 30
0.0
 40
12.0
 41
0.0
 46
0.0
 71
     5
 72
     1
  1
\A1;25
  7
ＭＳ ゴシック
 11
0.0
 21
1.0
 31
0.0
 73
     1
 44
1.0
  0
POINT
  5
778C
330
7783
100
AcDbEntity
  8
Defpoints
 62
     0
100
AcDbPoint
 10
343.6003391679208
 20
719.6404390076202
 30
0.0
  0
POINT
  5
778D
330
7783
100
AcDbEntity
  8
Defpoints
 62
     0
100
AcDbPoint
 10
343.6003391679208
 20
694.6327246119896
 30
0.0
  0
POINT
  5
778E
330
7783
100
AcDbEntity
  8
Defpoints
 62
     0
100
AcDbPoint
 10
307.4050085323019
 20
694.6327246119896
 30
0.0
  0
ENDBLK
  5
7785
330
7783
100
AcDbEntity
  8
0
100
AcDbBlockEnd
  0
BLOCK
  5
779F
330
779E
100
AcDbEntity
  8
0
100
AcDbBlockBegin
  2
*D24
 70
     1
 10
0.0
 20
0.0
 30
0.0
  3
*D24
  1
*D85
  0
LINE
  5
77A1
330
779E
100
AcDbEntity
  8
DIM
 62
     0
 48
0.05
370
    -2
100
AcDbLine
 10
713.6003391659524
 20
705.0891853822893
 30
0.0
 11
736.2347914640329
 21
705.0891853822893
 31
0.0
  0
LINE
  5
77A2
330
779E
100
AcDbEntity
  8
DIM
 62
     0
 48
0.05
370
    -2
100
AcDbLine
 10
713.6003391659524
 20
719.6404390076201
 30
0.0
 11
736.2347914640329
 21
719.6404390076201
 31
0.0
  0
LINE
  5
77A3
330
779E
100
AcDbEntity
  8
DIM
 62
     0
 48
0.05
370
    -2
100
AcDbLine
 10
736.2347914640329
 20
702.0891853822893
 30
0.0
 11
736.2347914640329
 21
699.0891853822893
 31
0.0
  0
LINE
  5
77A4
330
779E
100
AcDbEntity
  8
DIM
 62
     0
 48
0.05
370
    -2
100
AcDbLine
 10
736.2347914640329
 20
722.6404390076201
 30
0.0
 11
736.2347914640329
 21
725.6404390076201
 31
0.0
  0
INSERT
  5
77A5
330
779E
100
AcDbEntity
  8
DIM
 62
     0
370
    -2
100
AcDbBlockReference
  2
_DOT
 10
736.2347914640329
 20
705.0891853822893
 30
0.0
 41
3.0
 42
3.0
 43
3.0
 50
90.0
  0
INSERT
  5
77A6
330
779E
100
AcDbEntity
  8
DIM
 62
     0
370
    -2
100
AcDbBlockReference
  2
_DOT
 10
736.2347914640329
 20
719.6404390076201
 30
0.0
 41
3.0
 42
3.0
 43
3.0
 50
270.0
  0
MTEXT
  5
77A7
330
779E
100
AcDbEntity
  8
DIM
 62
     0
 48
0.05
100
AcDbMText
 10
720.2347914640329
 20
712.3648121949548
 30
0.0
 40
12.0
 41
0.0
 46
0.0
 71
     5
 72
     1
  1
\A1;15
  7
ＭＳ ゴシック
 11
0.0
 21
1.0
 31
0.0
 73
     1
 44
1.0
  0
POINT
  5
77A8
330
779E
100
AcDbEntity
  8
Defpoints
 62
     0
100
AcDbPoint
 10
703.6003391659524
 20
705.0891853822893
 30
0.0
  0
POINT
  5
77A9
330
779E
100
AcDbEntity
  8
Defpoints
 62
     0
100
AcDbPoint
 10
703.6003391659524
 20
719.6404390076201
 30
0.0
  0
POINT
  5
77AA
330
779E
100
AcDbEntity
  8
Defpoints
 62
     0
100
AcDbPoint
 10
736.2347914640329
 20
719.6404390076201
 30
0.0
  0
ENDBLK
  5
77A0
330
779E
100
AcDbEntity
  8
0
100
AcDbBlockEnd
  0
BLOCK
  5
77D4
330
77D3
100
AcDbEntity
  8
0
100
AcDbBlockBegin
  2
*D25
 70
     1
 10
0.0
 20
0.0
 30
0.0
  3
*D25
  1
*D86
  0
LINE
  5
77D6
330
77D3
100
AcDbEntity
  8
DIM
 62
     0
 48
0.05
370
    -2
100
AcDbLine
 10
713.6003391659524
 20
719.6404390076201
 30
0.0
 11
740.4320123723703
 21
719.6404390076201
 31
0.0
  0
LINE
  5
77D7
330
77D3
100
AcDbEntity
  8
DIM
 62
     0
 48
0.05
370
    -2
100
AcDbLine
 10
713.6003391659524
 20
694.6327246119896
 30
0.0
 11
740.4320123723703
 21
694.6327246119896
 31
0.0
  0
LINE
  5
77D8
330
77D3
100
AcDbEntity
  8
DIM
 62
     0
 48
0.05
370
    -2
100
AcDbLine
 10
740.4320123723703
 20
722.6404390076201
 30
0.0
 11
740.4320123723703
 21
725.6404390076201
 31
0.0
  0
LINE
  5
77D9
330
77D3
100
AcDbEntity
  8
DIM
 62
     0
 48
0.05
370
    -2
100
AcDbLine
 10
740.4320123723703
 20
691.6327246119896
 30
0.0
 11
740.4320123723703
 21
688.6327246119896
 31
0.0
  0
INSERT
  5
77DA
330
77D3
100
AcDbEntity
  8
DIM
 62
     0
370
    -2
100
AcDbBlockReference
  2
_DOT
 10
740.4320123723703
 20
719.6404390076201
 30
0.0
 41
3.0
 42
3.0
 43
3.0
 50
270.0
  0
INSERT
  5
77DB
330
77D3
100
AcDbEntity
  8
DIM
 62
     0
370
    -2
100
AcDbBlockReference
  2
_DOT
 10
740.4320123723703
 20
694.6327246119896
 30
0.0
 41
3.0
 42
3.0
 43
3.0
 50
90.0
  0
MTEXT
  5
77DC
330
77D3
100
AcDbEntity
  8
DIM
 62
     0
 48
0.05
100
AcDbMText
 10
724.4320123723703
 20
707.1365818098049
 30
0.0
 40
12.0
 41
0.0
 46
0.0
 71
     5
 72
     1
  1
\A1;25
  7
ＭＳ ゴシック
 11
0.0
 21
1.0
 31
0.0
 73
     1
 44
1.0
  0
POINT
  5
77DD
330
77D3
100
AcDbEntity
  8
Defpoints
 62
     0
100
AcDbPoint
 10
703.6003391659524
 20
719.6404390076201
 30
0.0
  0
POINT
  5
77DE
330
77D3
100
AcDbEntity
  8
Defpoints
 62
     0
100
AcDbPoint
 10
703.6003391659524
 20
694.6327246119896
 30
0.0
  0
POINT
  5
77DF
330
77D3
100
AcDbEntity
  8
Defpoints
 62
     0
100
AcDbPoint
 10
740.4320123723703
 20
694.6327246119896
 30
0.0
  0
ENDBLK
  5
77D5
330
77D3
100
AcDbEntity
  8
0
100
AcDbBlockEnd
  0
BLOCK
  5
77F9
330
77F8
100
AcDbEntity
  8
0
100
AcDbBlockBegin
  2
*D26
 70
     1
 10
0.0
 20
0.0
 30
0.0
  3
*D26
  1
*D87
  0
LINE
  5
77FB
330
77F8
100
AcDbEntity
  8
DIM
 62
     0
 48
0.05
370
    -2
100
AcDbLine
 10
713.6003391659524
 20
719.6404390076201
 30
0.0
 11
732.1577173585416
 21
719.6404390076201
 31
0.0
  0
LINE
  5
77FC
330
77F8
100
AcDbEntity
  8
DIM
 62
     0
 48
0.05
370
    -2
100
AcDbLine
 10
681.8840694449334
 20
693.3096220792401
 30
0.0
 11
732.1577173585416
 21
693.3096220792401
 31
0.0
  0
LINE
  5
77FD
330
77F8
100
AcDbEntity
  8
DIM
 62
     0
 48
0.05
370
    -2
100
AcDbLine
 10
732.1577173585416
 20
722.6404390076201
 30
0.0
 11
732.1577173585416
 21
725.6404390076201
 31
0.0
  0
LINE
  5
77FE
330
77F8
100
AcDbEntity
  8
DIM
 62
     0
 48
0.05
370
    -2
100
AcDbLine
 10
732.1577173585416
 20
690.3096220792401
 30
0.0
 11
732.1577173585416
 21
687.3096220792401
 31
0.0
  0
INSERT
  5
77FF
330
77F8
100
AcDbEntity
  8
DIM
 62
     0
370
    -2
100
AcDbBlockReference
  2
_DOT
 10
732.1577173585416
 20
719.6404390076201
 30
0.0
 41
3.0
 42
3.0
 43
3.0
 50
270.0
  0
INSERT
  5
7800
330
77F8
100
AcDbEntity
  8
DIM
 62
     0
370
    -2
100
AcDbBlockReference
  2
_DOT
 10
732.1577173585416
 20
693.3096220792401
 30
0.0
 41
3.0
 42
3.0
 43
3.0
 50
90.0
  0
MTEXT
  5
7801
330
77F8
100
AcDbEntity
  8
DIM
 62
     0
 48
0.05
100
AcDbMText
 10
716.1577173585416
 20
706.4750305434301
 30
0.0
 40
12.0
 41
0.0
 46
0.0
 71
     5
 72
     1
  1
\A1;26
  7
ＭＳ ゴシック
 11
0.0
 21
1.0
 31
0.0
 73
     1
 44
1.0
  0
POINT
  5
7802
330
77F8
100
AcDbEntity
  8
Defpoints
 62
     0
100
AcDbPoint
 10
703.6003391659524
 20
719.6404390076201
 30
0.0
  0
POINT
  5
7803
330
77F8
100
AcDbEntity
  8
Defpoints
 62
     0
100
AcDbPoint
 10
671.8840694449334
 20
693.3096220792401
 30
0.0
  0
POINT
  5
7804
330
77F8
100
AcDbEntity
  8
Defpoints
 62
     0
100
AcDbPoint
 10
732.1577173585416
 20
693.3096220792401
 30
0.0
  0
ENDBLK
  5
77FA
330
77F8
100
AcDbEntity
  8
0
100
AcDbBlockEnd
  0
BLOCK
  5
7818
330
7817
100
AcDbEntity
  8
0
100
AcDbBlockBegin
  2
*D27
 70
     1
 10
0.0
 20
0.0
 30
0.0
  3
*D27
  1
*D88
  0
LINE
  5
781A
330
7817
100
AcDbEntity
  8
DIM
 62
     0
 48
0.05
370
    -2
100
AcDbLine
 10
333.6003391679208
 20
719.6404390076202
 30
0.0
 11
306.8772237197592
 21
719.6404390076202
 31
0.0
  0
LINE
  5
781B
330
7817
100
AcDbEntity
  8
DIM
 62
     0
 48
0.05
370
    -2
100
AcDbLine
 10
333.6003391679208
 20
694.6327246119896
 30
0.0
 11
306.8772237197592
 21
694.6327246119896
 31
0.0
  0
LINE
  5
781C
330
7817
100
AcDbEntity
  8
DIM
 62
     0
 48
0.05
370
    -2
100
AcDbLine
 10
306.8772237197592
 20
716.6404390076202
 30
0.0
 11
306.8772237197592
 21
697.6327246119896
 31
0.0
  0
INSERT
  5
781D
330
7817
100
AcDbEntity
  8
DIM
 62
     0
370
    -2
100
AcDbBlockReference
  2
_DOT
 10
306.8772237197592
 20
719.6404390076202
 30
0.0
 41
3.0
 42
3.0
 43
3.0
 50
90.0
  0
INSERT
  5
781E
330
7817
100
AcDbEntity
  8
DIM
 62
     0
370
    -2
100
AcDbBlockReference
  2
_DOT
 10
306.8772237197592
 20
694.6327246119896
 30
0.0
 41
3.0
 42
3.0
 43
3.0
 50
270.0
  0
MTEXT
  5
781F
330
7817
100
AcDbEntity
  8
DIM
 62
     0
 48
0.05
100
AcDbMText
 10
290.8772237197592
 20
707.136581809805
 30
0.0
 40
12.0
 41
0.0
 46
0.0
 71
     5
 72
     1
  1
\A1;25
  7
ＭＳ ゴシック
 11
0.0
 21
1.0
 31
0.0
 73
     1
 44
1.0
  0
POINT
  5
7820
330
7817
100
AcDbEntity
  8
Defpoints
 62
     0
100
AcDbPoint
 10
343.6003391679208
 20
719.6404390076202
 30
0.0
  0
POINT
  5
7821
330
7817
100
AcDbEntity
  8
Defpoints
 62
     0
100
AcDbPoint
 10
343.6003391679208
 20
694.6327246119896
 30
0.0
  0
POINT
  5
7822
330
7817
100
AcDbEntity
  8
Defpoints
 62
     0
100
AcDbPoint
 10
306.8772237197592
 20
694.6327246119896
 30
0.0
  0
ENDBLK
  5
7819
330
7817
100
AcDbEntity
  8
0
100
AcDbBlockEnd
  0
ENDSEC
  0
SECTION
  2
ENTITIES
  0
MTEXT
  5
177
330
A
100
AcDbEntity
  8
TEMPLATE
390
1D
100
AcDbMText
 10
39.60107227386538
 20
171.8658758157141
 30
0.0
 40
8.144205729166663
 41
0.0
 46
0.0
 71
     1
 72
     1
  1
品名
  7
ＭＳ ゴシック
 73
     1
 44
0.7828267384257843
  0
MTEXT
  5
178
330
A
100
AcDbEntity
  8
TEMPLATE
390
1D
100
AcDbMText
 10
39.60107227386538
 20
129.365875815714
 30
0.0
 40
8.144205729166663
 41
0.0
 46
0.0
 71
     1
 72
     1
  1
仕様
  7
ＭＳ ゴシック
 73
     1
 44
0.7828267384257843
  0
LINE
  5
179
330
A
100
AcDbEntity
  8
TEMPLATE
390
1D
100
AcDbLine
 10
1011.101072273624
 20
133.5733367532142
 30
0.0
 11
36.10107227362437
 21
133.5733367532142
 31
0.0
  0
LWPOLYLINE
  5
17A
330
A
100
AcDbEntity
  8
TEMPLATE
390
1D
100
AcDbPolyline
 90
        5
 70
   128
 43
0.0
 10
1011.101072273624
 20
1448.573336753213
 10
36.10107227362437
 20
1448.573336753213
 10
36.10107227362437
 20
48.57333675321413
 10
1011.101072273624
 20
48.57333675321413
 10
1011.101072273624
 20
1448.573336753213
  0
LINE
  5
17B
330
A
100
AcDbEntity
  8
TEMPLATE
390
1D
100
AcDbLine
 10
1011.101072273624
 20
176.0733367532141
 30
0.0
 11
36.10107227362437
 21
176.0733367532141
 31
0.0
  0
LINE
  5
17C
330
A
100
AcDbEntity
  8
TEMPLATE
390
1D
100
AcDbLine
 10
1011.101072273866
 20
91.07333675321412
 30
0.0
 11
634.601072273865
 21
91.07333675321412
 31
0.0
  0
MTEXT
  5
17E
330
A
100
AcDbEntity
  8
TEMPLATE
390
1D
100
AcDbMText
 10
649.5367753999956
 20
76.11813951656006
 30
0.0
 40
12.21630859375
 41
0.0
 46
0.0
 71
     1
 72
     1
  1
大洋金物株式会社 ティーフォルム事業部
  7
ＭＳ ゴシック
 73
     1
 44
0.7828267384257843
  0
MTEXT
  5
180
330
A
100
AcDbEntity
  8
TEMPLATE
390
1D
100
AcDbMText
 10
915.601072273995
 20
115.0746453469641
 30
0.0
 40
12.21630859375
 41
0.0
 46
12.21630859375
 71
     1
 72
     1
  1
{1:5}
  7
ＭＳ ゴシック
 73
     1
 44
0.7828267384257843
1001
ACAD
1000
ACAD_MTEXT_DEFINED_HEIGHT_BEGIN
1070
    46
1040
12.21630859375
1000
ACAD_MTEXT_DEFINED_HEIGHT_END
  0
MTEXT
  5
181
330
A
100
AcDbEntity
  8
TEMPLATE
390
1D
100
AcDbMText
 10
889.101072273995
 20
129.365875815714
 30
0.0
 40
8.144205729166663
 41
0.0
 46
0.0
 71
     1
 72
     1
  1
縮尺
  7
ＭＳ ゴシック
 73
     1
 44
0.7828267384257843
  0
LINE
  5
182
330
A
100
AcDbEntity
  8
TEMPLATE
390
1D
100
AcDbLine
 10
885.601072273995
 20
91.07333675321412
 30
0.0
 11
885.601072273995
 21
133.5733367532142
 31
0.0
  0
MTEXT
  5
183
330
A
100
AcDbEntity
  8
TEMPLATE
390
1D
100
AcDbMText
 10
763.601072273995
 20
129.365875815714
 30
0.0
 40
8.144205729166663
 41
0.0
 46
0.0
 71
     1
 72
     1
  1
容量
  7
ＭＳ ゴシック
 73
     1
 44
0.7828267384257843
  0
LINE
  5
184
330
A
100
AcDbEntity
  8
TEMPLATE
390
1D
100
AcDbLine
 10
760.101072273995
 20
91.07333675321412
 30
0.0
 11
760.101072273995
 21
133.5733367532142
 31
0.0
  0
MTEXT
  5
185
330
A
100
AcDbEntity
  8
TEMPLATE
390
1D
100
AcDbMText
 10
638.101072273995
 20
171.8658758157141
 30
0.0
 40
8.144205729166663
 41
0.0
 46
0.0
 71
     1
 72
     1
  1
品番
  7
ＭＳ ゴシック
 73
     1
 44
0.7828267384257843
  0
MTEXT
  5
186
330
A
100
AcDbEntity
  8
TEMPLATE
390
1D
100
AcDbMText
 10
638.101072273995
 20
129.365875815714
 30
0.0
 40
8.144205729166663
 41
0.0
 46
0.0
 71
     1
 72
     1
  1
重量
  7
ＭＳ ゴシック
 73
     1
 44
0.7828267384257843
  0
MTEXT
  5
187
330
A
100
AcDbEntity
  8
TEMPLATE
390
1D
100
AcDbMText
 10
664.601072273995
 20
157.5746453469641
 30
0.0
 40
12.21630859375
 41
0.0
 46
12.21630859375
 71
     1
 72
     1
  1
{AGN73-1757}
  7
ＭＳ ゴシック
 73
     1
 44
0.7828267384257843
1001
ACAD
1000
ACAD_MTEXT_DEFINED_HEIGHT_BEGIN
1070
    46
1040
12.21630859375
1000
ACAD_MTEXT_DEFINED_HEIGHT_END
  0
LINE
  5
188
330
A
100
AcDbEntity
  8
TEMPLATE
390
1D
100
AcDbLine
 10
634.601072273995
 20
48.57333675321413
 30
0.0
 11
634.601072273995
 21
176.0733367532141
 31
0.0
  0
MTEXT
  5
189
330
A
100
AcDbEntity
  8
TEMPLATE
390
1D
100
AcDbMText
 10
66.10107227386537
 20
157.5746453469641
 30
0.0
 40
12.21630859375
 41
0.0
 46
13.76777978515625
 71
     1
 72
     1
  1
{レインシャワー　-FANTINI,Cafe-}
  7
ＭＳ ゴシック
 73
     1
 44
0.7828267384257843
1001
ACAD
1000
ACAD_MTEXT_DEFINED_HEIGHT_BEGIN
1070
    46
1040
13.76777978515625
1000
ACAD_MTEXT_DEFINED_HEIGHT_END
  0
INSERT
  5
6B5
330
A
100
AcDbEntity
  8
TEMPLATE
100
AcDbBlockReference
  2
名称未設定-1
 10
935.3753740442249
 20
12.97338287832691
 30
0.0
 41
0.3809999999999999
 42
0.3809999999999999
 43
0.3809999999999999
  0
MTEXT
  5
7D9
330
A
100
AcDbEntity
  8
TEMPLATE
390
1D
100
AcDbMText
 10
62.62717263801819
 20
113.4059880146976
 30
0.0
 40
12.21630859375
 41
0.0
 46
12.39955322265625
 71
     1
 72
     1
  1
{クローム}
  7
ＭＳ ゴシック
 73
     1
 44
0.7828267384257843
1001
ACAD
1000
ACAD_MTEXT_DEFINED_HEIGHT_BEGIN
1070
    46
1040
12.39955322265625
1000
ACAD_MTEXT_DEFINED_HEIGHT_END
  0
INSERT
  5
68C
330
A
100
AcDbEntity
  8
TEMPLATE
100
AcDbBlockReference
  2
block 2
 10
919.2743017702577
 20
8.373076514336368
 30
0.0
 41
0.3809999999999999
 42
0.3809999999999999
 43
0.3809999999999999
  0
LWPOLYLINE
  5
D69
330
A
100
AcDbEntity
  8
BORDER
 48
0.05
100
AcDbPolyline
 90
        4
 70
     1
 43
0.0
 10
0.0
 20
0.0
 10
0.0
 20
1485.0
 10
1050.0
 20
1485.0
 10
1050.0
 20
0.0
  0
INSERT
  5
1343
330
A
100
AcDbEntity
  8
TEMPLATE
100
AcDbBlockReference
  2
block 2
 10
2096.743470866468
 20
24.43532141229569
 30
0.0
 41
0.3809999999999999
 42
0.3809999999999999
 43
0.3809999999999999
  0
MTEXT
  5
3442
102
{ACAD_XDICTIONARY
360
3444
102
}
330
A
100
AcDbEntity
  8
MODEL
 48
0.05
100
AcDbMText
 10
37.76655744772248
 20
42.75270635604875
 30
0.0
 40
11.0
 41
0.0
 46
11.0
 71
     1
 72
     1
  1
{20160726N}
  7
ＭＳ ゴシック
 73
     1
 44
1.0
1001
ACAD
1000
ACAD_MTEXT_DEFINED_HEIGHT_BEGIN
1070
    46
1040
11.0
1000
ACAD_MTEXT_DEFINED_HEIGHT_END
  0
POINT
  5
402D
330
A
100
AcDbEntity
  8
Layer11
  6
Continuous
 62
     7
100
AcDbPoint
 10
1539.016146944628
 20
314.4083234884564
 30
0.0
  0
POINT
  5
4034
330
A
100
AcDbEntity
  8
Layer11
  6
Continuous
 62
     7
100
AcDbPoint
 10
1552.154956544628
 20
314.4083234884564
 30
0.0
  0
POINT
  5
484B
330
A
100
AcDbEntity
  8
Layer11
  6
Continuous
 62
     7
100
AcDbPoint
 10
1388.991287690328
 20
314.4083237140565
 30
0.0
  0
POINT
  5
4852
330
A
100
AcDbEntity
  8
Layer11
  6
Continuous
 62
     7
100
AcDbPoint
 10
1402.130097290328
 20
314.4083237140565
 30
0.0
  0
POLYLINE
  5
6559
330
A
100
AcDbEntity
  8
MODEL
100
AcDb2dPolyline
 66
     1
 10
0.0
 20
0.0
 30
0.0
  0
VERTEX
  5
655A
330
6559
100
AcDbEntity
  8
MODEL
100
AcDbVertex
100
AcDb2dVertex
 10
515.4362836420313
 20
720.1682064120286
 30
0.0
  0
VERTEX
  5
655B
330
6559
100
AcDbEntity
  8
MODEL
100
AcDbVertex
100
AcDb2dVertex
 10
515.4362836420313
 20
739.1711490668246
 30
0.0
  0
SEQEND
  5
655C
330
6559
100
AcDbEntity
  8
MODEL
  0
POLYLINE
  5
655D
330
A
100
AcDbEntity
  8
MODEL
100
AcDb2dPolyline
 66
     1
 10
0.0
 20
0.0
 30
0.0
  0
VERTEX
  5
655E
330
655D
100
AcDbEntity
  8
MODEL
100
AcDbVertex
100
AcDb2dVertex
 10
531.1974262536506
 20
720.1682064120286
 30
0.0
  0
VERTEX
  5
655F
330
655D
100
AcDbEntity
  8
MODEL
100
AcDbVertex
100
AcDb2dVertex
 10
531.1974262536506
 20
739.1711490668246
 30
0.0
  0
SEQEND
  5
6560
330
655D
100
AcDbEntity
  8
MODEL
  0
POLYLINE
  5
657E
330
A
100
AcDbEntity
  8
MODEL
100
AcDb2dPolyline
 66
     1
 10
0.0
 20
0.0
 30
0.0
  0
VERTEX
  5
657F
330
657E
100
AcDbEntity
  8
MODEL
100
AcDbVertex
100
AcDb2dVertex
 10
527.7265298205999
 20
745.4308203510453
 30
0.0
  0
VERTEX
  5
6580
330
657E
100
AcDbEntity
  8
MODEL
100
AcDbVertex
100
AcDb2dVertex
 10
535.3504442685806
 20
745.4308203510453
 30
0.0
  0
SEQEND
  5
6581
330
657E
100
AcDbEntity
  8
MODEL
  0
POLYLINE
  5
6582
330
A
100
AcDbEntity
  8
MODEL
100
AcDb2dPolyline
 66
     1
 10
0.0
 20
0.0
 30
0.0
  0
VERTEX
  5
6583
330
6582
100
AcDbEntity
  8
MODEL
100
AcDbVertex
100
AcDb2dVertex
 10
514.8092829960609
 20
742.4715151044048
 30
0.0
  0
VERTEX
  5
6584
330
6582
100
AcDbEntity
  8
MODEL
100
AcDbVertex
100
AcDb2dVertex
 10
532.3911390219401
 20
742.4715151044048
 30
0.0
  0
SEQEND
  5
6585
330
6582
100
AcDbEntity
  8
MODEL
  0
POLYLINE
  5
6586
330
A
100
AcDbEntity
  8
MODEL
100
AcDb2dPolyline
 66
     1
 10
0.0
 20
0.0
 30
0.0
  0
VERTEX
  5
6587
330
6586
100
AcDbEntity
  8
MODEL
100
AcDbVertex
100
AcDb2dVertex
 10
511.8499777494204
 20
757.9501629194876
 30
0.0
  0
VERTEX
  5
6588
330
6586
100
AcDbEntity
  8
MODEL
100
AcDbVertex
100
AcDb2dVertex
 10
535.3504442685806
 20
757.9501629194876
 30
0.0
  0
SEQEND
  5
6589
330
6586
100
AcDbEntity
  8
MODEL
  0
POLYLINE
  5
658A
330
A
100
AcDbEntity
  8
MODEL
100
AcDb2dPolyline
 66
     1
 10
0.0
 20
0.0
 30
0.0
  0
VERTEX
  5
658B
330
658A
100
AcDbEntity
  8
MODEL
100
AcDbVertex
100
AcDb2dVertex
 10
511.8499777494204
 20
745.4308203510453
 30
0.0
  0
VERTEX
  5
658C
330
658A
100
AcDbEntity
  8
MODEL
100
AcDbVertex
100
AcDb2dVertex
 10
519.4756147266484
 20
745.4308203510453
 30
0.0
  0
VERTEX
  5
658D
330
658A
100
AcDbEntity
  8
MODEL
100
AcDbVertex
100
AcDb2dVertex
 10
519.4756147266484
 20
750.9498040589825
 30
0.0
  0
SEQEND
  5
658E
330
658A
100
AcDbEntity
  8
MODEL
  0
POLYLINE
  5
658F
330
A
100
AcDbEntity
  8
MODEL
100
AcDb2dPolyline
 66
     1
 10
0.0
 20
0.0
 30
0.0
  0
VERTEX
  5
6590
330
658F
100
AcDbEntity
  8
MODEL
100
AcDbVertex
100
AcDb2dVertex
 10
527.7265298205999
 20
745.4308203510453
 30
0.0
  0
VERTEX
  5
6591
330
658F
100
AcDbEntity
  8
MODEL
100
AcDbVertex
100
AcDb2dVertex
 10
527.7265298205999
 20
750.9498040589825
 30
0.0
  0
VERTEX
  5
6592
330
658F
100
AcDbEntity
  8
MODEL
100
AcDbVertex
100
AcDb2dVertex
 10
519.4756147266484
 20
750.9498040589825
 30
0.0
  0
SEQEND
  5
6593
330
658F
100
AcDbEntity
  8
MODEL
  0
POLYLINE
  5
6594
330
A
100
AcDbEntity
  8
MODEL
100
AcDb2dPolyline
 66
     1
 10
0.0
 20
0.0
 30
0.0
  0
VERTEX
  5
6595
330
6594
100
AcDbEntity
  8
MODEL
100
AcDbVertex
100
AcDb2dVertex
 10
519.4756147266484
 20
745.4308203510453
 30
0.0
  0
VERTEX
  5
6596
330
6594
100
AcDbEntity
  8
MODEL
100
AcDbVertex
100
AcDb2dVertex
 10
519.7029885872752
 20
745.3756994151361
 30
0.0
  0
VERTEX
  5
6597
330
6594
100
AcDbEntity
  8
MODEL
100
AcDbVertex
100
AcDb2dVertex
 10
519.9872059130586
 20
745.2620124848225
 30
0.0
  0
VERTEX
  5
6598
330
6594
100
AcDbEntity
  8
MODEL
100
AcDbVertex
100
AcDb2dVertex
 10
520.2163023029324
 20
745.2034464904186
 30
0.0
  0
VERTEX
  5
6599
330
6594
100
AcDbEntity
  8
MODEL
100
AcDbVertex
100
AcDb2dVertex
 10
520.5005196287153
 20
745.1483255545096
 30
0.0
  0
VERTEX
  5
659A
330
6594
100
AcDbEntity
  8
MODEL
100
AcDbVertex
100
AcDb2dVertex
 10
520.7278934893419
 20
745.0346386241958
 30
0.0
  0
VERTEX
  5
659B
330
6594
100
AcDbEntity
  8
MODEL
100
AcDbVertex
100
AcDb2dVertex
 10
521.0121108151255
 20
744.9760726297919
 30
0.0
  0
VERTEX
  5
659C
330
6594
100
AcDbEntity
  8
MODEL
100
AcDbVertex
100
AcDb2dVertex
 10
521.2394846757521
 20
744.9209516938829
 30
0.0
  0
VERTEX
  5
659D
330
6594
100
AcDbEntity
  8
MODEL
100
AcDbVertex
100
AcDb2dVertex
 10
521.4100150712219
 20
744.9209516938829
 30
0.0
  0
VERTEX
  5
659E
330
6594
100
AcDbEntity
  8
MODEL
100
AcDbVertex
100
AcDb2dVertex
 10
521.5237020015355
 20
744.8623856994789
 30
0.0
  0
VERTEX
  5
659F
330
6594
100
AcDbEntity
  8
MODEL
100
AcDbVertex
100
AcDb2dVertex
 10
521.7510758621621
 20
744.8623856994789
 30
0.0
  0
VERTEX
  5
65A0
330
6594
100
AcDbEntity
  8
MODEL
100
AcDbVertex
100
AcDb2dVertex
 10
521.9216062576321
 20
744.8072647635693
 30
0.0
  0
VERTEX
  5
65A1
330
6594
100
AcDbEntity
  8
MODEL
100
AcDbVertex
100
AcDb2dVertex
 10
522.1507026475059
 20
744.8072647635693
 30
0.0
  0
VERTEX
  5
65A2
330
6594
100
AcDbEntity
  8
MODEL
100
AcDbVertex
100
AcDb2dVertex
 10
522.3212330429757
 20
744.7486987691653
 30
0.0
  0
VERTEX
  5
65A3
330
6594
100
AcDbEntity
  8
MODEL
100
AcDbVertex
100
AcDb2dVertex
 10
522.6622938339157
 20
744.7486987691653
 30
0.0
  0
VERTEX
  5
65A4
330
6594
100
AcDbEntity
  8
MODEL
100
AcDbVertex
100
AcDb2dVertex
 10
522.8328242293854
 20
744.6935778332562
 30
0.0
  0
VERTEX
  5
65A5
330
6594
100
AcDbEntity
  8
MODEL
100
AcDbVertex
100
AcDb2dVertex
 10
524.4261637830192
 20
744.6935778332562
 30
0.0
  0
VERTEX
  5
65A6
330
6594
100
AcDbEntity
  8
MODEL
100
AcDbVertex
100
AcDb2dVertex
 10
524.5398507133328
 20
744.7486987691653
 30
0.0
  0
VERTEX
  5
65A7
330
6594
100
AcDbEntity
  8
MODEL
100
AcDbVertex
100
AcDb2dVertex
 10
524.9377549694294
 20
744.7486987691653
 30
0.0
  0
VERTEX
  5
65A8
330
6594
100
AcDbEntity
  8
MODEL
100
AcDbVertex
100
AcDb2dVertex
 10
525.0514418997426
 20
744.8072647635693
 30
0.0
  0
VERTEX
  5
65A9
330
6594
100
AcDbEntity
  8
MODEL
100
AcDbVertex
100
AcDb2dVertex
 10
525.3356592255258
 20
744.8072647635693
 30
0.0
  0
VERTEX
  5
65AA
330
6594
100
AcDbEntity
  8
MODEL
100
AcDbVertex
100
AcDb2dVertex
 10
525.449346155839
 20
744.8623856994789
 30
0.0
  0
VERTEX
  5
65AB
330
6594
100
AcDbEntity
  8
MODEL
100
AcDbVertex
100
AcDb2dVertex
 10
525.7352860108696
 20
744.8623856994789
 30
0.0
  0
VERTEX
  5
65AC
330
6594
100
AcDbEntity
  8
MODEL
100
AcDbVertex
100
AcDb2dVertex
 10
525.8489729411828
 20
744.9209516938829
 30
0.0
  0
VERTEX
  5
65AD
330
6594
100
AcDbEntity
  8
MODEL
100
AcDbVertex
100
AcDb2dVertex
 10
525.9626598714962
 20
744.9209516938829
 30
0.0
  0
VERTEX
  5
65AE
330
6594
100
AcDbEntity
  8
MODEL
100
AcDbVertex
100
AcDb2dVertex
 10
526.2468771972798
 20
744.9760726297919
 30
0.0
  0
VERTEX
  5
65AF
330
6594
100
AcDbEntity
  8
MODEL
100
AcDbVertex
100
AcDb2dVertex
 10
526.4742510579059
 20
745.0346386241958
 30
0.0
  0
VERTEX
  5
65B0
330
6594
100
AcDbEntity
  8
MODEL
100
AcDbVertex
100
AcDb2dVertex
 10
526.7584683836893
 20
745.1483255545096
 30
0.0
  0
VERTEX
  5
65B1
330
6594
100
AcDbEntity
  8
MODEL
100
AcDbVertex
100
AcDb2dVertex
 10
526.9858422443161
 20
745.2034464904186
 30
0.0
  0
VERTEX
  5
65B2
330
6594
100
AcDbEntity
  8
MODEL
100
AcDbVertex
100
AcDb2dVertex
 10
527.2132161049427
 20
745.2620124848225
 30
0.0
  0
VERTEX
  5
65B3
330
6594
100
AcDbEntity
  8
MODEL
100
AcDbVertex
100
AcDb2dVertex
 10
527.4974334307261
 20
745.3756994151361
 30
0.0
  0
VERTEX
  5
65B4
330
6594
100
AcDbEntity
  8
MODEL
100
AcDbVertex
100
AcDb2dVertex
 10
527.7265298205999
 20
745.4308203510453
 30
0.0
  0
SEQEND
  5
65B5
330
6594
100
AcDbEntity
  8
MODEL
  0
POLYLINE
  5
65B6
330
A
100
AcDbEntity
  8
MODEL
100
AcDb2dPolyline
 66
     1
 10
0.0
 20
0.0
 30
0.0
  0
VERTEX
  5
65B7
330
65B6
100
AcDbEntity
  8
MODEL
100
AcDbVertex
100
AcDb2dVertex
 10
514.8092829960609
 20
742.4715151044048
 30
0.0
  0
VERTEX
  5
65B8
330
65B6
100
AcDbEntity
  8
MODEL
100
AcDbVertex
100
AcDb2dVertex
 10
511.8499777494204
 20
745.4308203510453
 30
0.0
  0
SEQEND
  5
65B9
330
65B6
100
AcDbEntity
  8
MODEL
  0
POLYLINE
  5
65BA
330
A
100
AcDbEntity
  8
MODEL
100
AcDb2dPolyline
 66
     1
 10
0.0
 20
0.0
 30
0.0
  0
VERTEX
  5
65BB
330
65BA
100
AcDbEntity
  8
MODEL
100
AcDbVertex
100
AcDb2dVertex
 10
532.3911390219401
 20
742.4715151044048
 30
0.0
  0
VERTEX
  5
65BC
330
65BA
100
AcDbEntity
  8
MODEL
100
AcDbVertex
100
AcDb2dVertex
 10
535.3504442685806
 20
745.4308203510453
 30
0.0
  0
SEQEND
  5
65BD
330
65BA
100
AcDbEntity
  8
MODEL
  0
POLYLINE
  5
65BE
330
A
100
AcDbEntity
  8
MODEL
100
AcDb2dPolyline
 66
     1
 10
0.0
 20
0.0
 30
0.0
  0
VERTEX
  5
65BF
330
65BE
100
AcDbEntity
  8
MODEL
100
AcDbVertex
100
AcDb2dVertex
 10
534.5546357563877
 20
739.5707758521683
 30
0.0
  0
VERTEX
  5
65C0
330
65BE
100
AcDbEntity
  8
MODEL
100
AcDbVertex
100
AcDb2dVertex
 10
533.5865743194771
 20
741.1072719406449
 30
0.0
  0
VERTEX
  5
65C1
330
65BE
100
AcDbEntity
  8
MODEL
100
AcDbVertex
100
AcDb2dVertex
 10
532.3911390219401
 20
742.4715151044048
 30
0.0
  0
SEQEND
  5
65C2
330
65BE
100
AcDbEntity
  8
MODEL
  0
POLYLINE
  5
65C3
330
A
100
AcDbEntity
  8
MODEL
100
AcDb2dPolyline
 66
     1
 10
0.0
 20
0.0
 30
0.0
  0
VERTEX
  5
65C4
330
65C3
100
AcDbEntity
  8
MODEL
100
AcDbVertex
100
AcDb2dVertex
 10
512.7043522560176
 20
739.5707758521683
 30
0.0
  0
VERTEX
  5
65C5
330
65C3
100
AcDbEntity
  8
MODEL
100
AcDbVertex
100
AcDb2dVertex
 10
513.6706911636805
 20
741.1072719406449
 30
0.0
  0
VERTEX
  5
65C6
330
65C3
100
AcDbEntity
  8
MODEL
100
AcDbVertex
100
AcDb2dVertex
 10
514.8092829960609
 20
742.4715151044048
 30
0.0
  0
SEQEND
  5
65C7
330
65C3
100
AcDbEntity
  8
MODEL
  0
POLYLINE
  5
65C8
330
A
100
AcDbEntity
  8
MODEL
100
AcDb2dPolyline
 66
     1
 10
0.0
 20
0.0
 30
0.0
  0
VERTEX
  5
65C9
330
65C8
100
AcDbEntity
  8
MODEL
100
AcDbVertex
100
AcDb2dVertex
 10
511.8499777494204
 20
745.4308203510453
 30
0.0
  0
VERTEX
  5
65CA
330
65C8
100
AcDbEntity
  8
MODEL
100
AcDbVertex
100
AcDb2dVertex
 10
511.8499777494204
 20
757.9501629194876
 30
0.0
  0
SEQEND
  5
65CB
330
65C8
100
AcDbEntity
  8
MODEL
  0
POLYLINE
  5
65CC
330
A
100
AcDbEntity
  8
MODEL
100
AcDb2dPolyline
 66
     1
 10
0.0
 20
0.0
 30
0.0
  0
VERTEX
  5
65CD
330
65CC
100
AcDbEntity
  8
MODEL
100
AcDbVertex
100
AcDb2dVertex
 10
535.3504442685806
 20
745.4308203510453
 30
0.0
  0
VERTEX
  5
65CE
330
65CC
100
AcDbEntity
  8
MODEL
100
AcDbVertex
100
AcDb2dVertex
 10
535.3504442685806
 20
757.9501629194876
 30
0.0
  0
SEQEND
  5
65CF
330
65CC
100
AcDbEntity
  8
MODEL
  0
POLYLINE
  5
65D0
330
A
100
AcDbEntity
  8
MODEL
100
AcDb2dPolyline
 66
     1
 10
0.0
 20
0.0
 30
0.0
  0
VERTEX
  5
65D1
330
65D0
100
AcDbEntity
  8
MODEL
100
AcDbVertex
100
AcDb2dVertex
 10
507.5832728041768
 20
739.116028130915
 30
0.0
  0
VERTEX
  5
65D2
330
65D0
100
AcDbEntity
  8
MODEL
100
AcDbVertex
100
AcDb2dVertex
 10
539.6171492138243
 20
739.116028130915
 30
0.0
  0
VERTEX
  5
65D3
330
65D0
100
AcDbEntity
  8
MODEL
100
AcDbVertex
100
AcDb2dVertex
 10
539.6171492138243
 20
739.5707758521683
 30
0.0
  0
SEQEND
  5
65D4
330
65D0
100
AcDbEntity
  8
MODEL
  0
POLYLINE
  5
65D5
330
A
100
AcDbEntity
  8
MODEL
100
AcDb2dPolyline
 66
     1
 10
0.0
 20
0.0
 30
0.0
  0
VERTEX
  5
65D6
330
65D5
100
AcDbEntity
  8
MODEL
100
AcDbVertex
100
AcDb2dVertex
 10
507.5832728041768
 20
739.116028130915
 30
0.0
  0
VERTEX
  5
65D7
330
65D5
100
AcDbEntity
  8
MODEL
100
AcDbVertex
100
AcDb2dVertex
 10
508.0948639905865
 20
739.5707758521683
 30
0.0
  0
VERTEX
  5
65D8
330
65D5
100
AcDbEntity
  8
MODEL
100
AcDbVertex
100
AcDb2dVertex
 10
539.6171492138243
 20
739.5707758521683
 30
0.0
  0
SEQEND
  5
65D9
330
65D5
100
AcDbEntity
  8
MODEL
  0
POLYLINE
  5
65DA
330
A
100
AcDbEntity
  8
MODEL
100
AcDb2dPolyline
 66
     1
 10
0.0
 20
0.0
 30
0.0
  0
VERTEX
  5
65DB
330
65DA
100
AcDbEntity
  8
MODEL
100
AcDbVertex
100
AcDb2dVertex
 10
507.5832728041768
 20
739.116028130915
 30
0.0
  0
VERTEX
  5
65DC
330
65DA
100
AcDbEntity
  8
MODEL
100
AcDbVertex
100
AcDb2dVertex
 10
507.5832728041768
 20
720.113085476119
 30
0.0
  0
VERTEX
  5
65DD
330
65DA
100
AcDbEntity
  8
MODEL
100
AcDbVertex
100
AcDb2dVertex
 10
539.6171492138243
 20
720.113085476119
 30
0.0
  0
VERTEX
  5
65DE
330
65DA
100
AcDbEntity
  8
MODEL
100
AcDbVertex
100
AcDb2dVertex
 10
539.6171492138243
 20
739.116028130915
 30
0.0
  0
SEQEND
  5
65DF
330
65DA
100
AcDbEntity
  8
MODEL
  0
POLYLINE
  5
6B2D
330
A
100
AcDbEntity
  8
MODEL
100
AcDb2dPolyline
 66
     1
 10
0.0
 20
0.0
 30
0.0
  0
VERTEX
  5
6B2E
330
6B2D
100
AcDbEntity
  8
MODEL
100
AcDbVertex
100
AcDb2dVertex
 10
548.6966008756652
 20
1005.089185382289
 30
0.0
  0
VERTEX
  5
6B2F
330
6B2D
100
AcDbEntity
  8
MODEL
100
AcDbVertex
100
AcDb2dVertex
 10
498.5313816102905
 20
1005.089185382289
 30
0.0
  0
SEQEND
  5
6B30
330
6B2D
100
AcDbEntity
  8
MODEL
  0
POLYLINE
  5
6B31
330
A
100
AcDbEntity
  8
MODEL
100
AcDb2dPolyline
 66
     1
 10
0.0
 20
0.0
 30
0.0
  0
VERTEX
  5
6B32
330
6B31
100
AcDbEntity
  8
MODEL
100
AcDbVertex
100
AcDb2dVertex
 10
534.1395062078192
 20
987.0164085209665
 30
0.0
  0
VERTEX
  5
6B33
330
6B31
100
AcDbEntity
  8
MODEL
100
AcDbVertex
100
AcDb2dVertex
 10
534.1395062078192
 20
757.9811684459368
 30
0.0
  0
SEQEND
  5
6B34
330
6B31
100
AcDbEntity
  8
MODEL
  0
POLYLINE
  5
6B35
330
A
100
AcDbEntity
  8
MODEL
100
AcDb2dPolyline
 66
     1
 10
0.0
 20
0.0
 30
0.0
  0
VERTEX
  5
6B36
330
6B35
100
AcDbEntity
  8
MODEL
100
AcDbVertex
100
AcDb2dVertex
 10
513.0850312196422
 20
987.0164085209665
 30
0.0
  0
VERTEX
  5
6B37
330
6B35
100
AcDbEntity
  8
MODEL
100
AcDbVertex
100
AcDb2dVertex
 10
513.0850312196422
 20
757.9811684459368
 30
0.0
  0
SEQEND
  5
6B38
330
6B35
100
AcDbEntity
  8
MODEL
  0
POLYLINE
  5
6B39
330
A
100
AcDbEntity
  8
MODEL
100
AcDb2dPolyline
 66
     1
 10
0.0
 20
0.0
 30
0.0
  0
VERTEX
  5
6B3A
330
6B39
100
AcDbEntity
  8
MODEL
100
AcDbVertex
100
AcDb2dVertex
 10
534.1395062078192
 20
1029.128803555814
 30
0.0
  0
VERTEX
  5
6B3B
330
6B39
100
AcDbEntity
  8
MODEL
100
AcDbVertex
100
AcDb2dVertex
 10
534.1395062078192
 20
1005.089185382289
 30
0.0
  0
SEQEND
  5
6B3C
330
6B39
100
AcDbEntity
  8
MODEL
  0
POLYLINE
  5
6B3D
330
A
100
AcDbEntity
  8
MODEL
100
AcDb2dPolyline
 66
     1
 10
0.0
 20
0.0
 30
0.0
  0
VERTEX
  5
6B3E
330
6B3D
100
AcDbEntity
  8
MODEL
100
AcDbVertex
100
AcDb2dVertex
 10
513.0850312196422
 20
1029.128803555814
 30
0.0
  0
VERTEX
  5
6B3F
330
6B3D
100
AcDbEntity
  8
MODEL
100
AcDbVertex
100
AcDb2dVertex
 10
513.0850312196422
 20
1005.089185382289
 30
0.0
  0
SEQEND
  5
6B40
330
6B3D
100
AcDbEntity
  8
MODEL
  0
POLYLINE
  5
6B41
330
A
100
AcDbEntity
  8
MODEL
100
AcDb2dPolyline
 66
     1
 10
0.0
 20
0.0
 30
0.0
  0
VERTEX
  5
6B42
330
6B41
100
AcDbEntity
  8
MODEL
100
AcDbVertex
100
AcDb2dVertex
 10
499.5459513368744
 20
987.0164085209665
 30
0.0
  0
VERTEX
  5
6B43
330
6B41
100
AcDbEntity
  8
MODEL
100
AcDbVertex
100
AcDb2dVertex
 10
547.6837536783286
 20
987.0164085209665
 30
0.0
  0
VERTEX
  5
6B44
330
6B41
100
AcDbEntity
  8
MODEL
100
AcDbVertex
100
AcDb2dVertex
 10
548.1591717505477
 20
987.135263039021
 30
0.0
  0
VERTEX
  5
6B45
330
6B41
100
AcDbEntity
  8
MODEL
100
AcDbVertex
100
AcDb2dVertex
 10
548.5174578339594
 20
987.4935491224328
 30
0.0
  0
VERTEX
  5
6B46
330
6B41
100
AcDbEntity
  8
MODEL
100
AcDbVertex
100
AcDb2dVertex
 10
548.6966008756652
 20
988.0292557183029
 30
0.0
  0
SEQEND
  5
6B47
330
6B41
100
AcDbEntity
  8
MODEL
  0
POLYLINE
  5
6B48
330
A
100
AcDbEntity
  8
MODEL
100
AcDb2dPolyline
 66
     1
 10
0.0
 20
0.0
 30
0.0
  0
VERTEX
  5
6B49
330
6B48
100
AcDbEntity
  8
MODEL
100
AcDbVertex
100
AcDb2dVertex
 10
533.1266590104825
 20
1030.143373282399
 30
0.0
  0
VERTEX
  5
6B4A
330
6B48
100
AcDbEntity
  8
MODEL
100
AcDbVertex
100
AcDb2dVertex
 10
514.0375898933281
 20
1030.143373282399
 30
0.0
  0
SEQEND
  5
6B4B
330
6B48
100
AcDbEntity
  8
MODEL
  0
POLYLINE
  5
6B4C
330
A
100
AcDbEntity
  8
MODEL
100
AcDb2dPolyline
 66
     1
 10
0.0
 20
0.0
 30
0.0
  0
VERTEX
  5
6B4D
330
6B4C
100
AcDbEntity
  8
MODEL
100
AcDbVertex
100
AcDb2dVertex
 10
533.1266590104825
 20
1030.143373282399
 30
0.0
  0
VERTEX
  5
6B4E
330
6B4C
100
AcDbEntity
  8
MODEL
100
AcDbVertex
100
AcDb2dVertex
 10
533.1266590104825
 20
1005.089185382289
 30
0.0
  0
SEQEND
  5
6B4F
330
6B4C
100
AcDbEntity
  8
MODEL
  0
POLYLINE
  5
6B50
330
A
100
AcDbEntity
  8
MODEL
100
AcDb2dPolyline
 66
     1
 10
0.0
 20
0.0
 30
0.0
  0
VERTEX
  5
6B51
330
6B50
100
AcDbEntity
  8
MODEL
100
AcDbVertex
100
AcDb2dVertex
 10
534.1395062078192
 20
1029.128803555814
 30
0.0
  0
VERTEX
  5
6B52
330
6B50
100
AcDbEntity
  8
MODEL
100
AcDbVertex
100
AcDb2dVertex
 10
513.0850312196422
 20
1029.128803555814
 30
0.0
  0
SEQEND
  5
6B53
330
6B50
100
AcDbEntity
  8
MODEL
  0
POLYLINE
  5
6B54
330
A
100
AcDbEntity
  8
MODEL
100
AcDb2dPolyline
 66
     1
 10
0.0
 20
0.0
 30
0.0
  0
VERTEX
  5
6B55
330
6B54
100
AcDbEntity
  8
MODEL
100
AcDbVertex
100
AcDb2dVertex
 10
514.0375898933281
 20
1030.143373282399
 30
0.0
  0
VERTEX
  5
6B56
330
6B54
100
AcDbEntity
  8
MODEL
100
AcDbVertex
100
AcDb2dVertex
 10
514.0375898933281
 20
1005.089185382289
 30
0.0
  0
SEQEND
  5
6B57
330
6B54
100
AcDbEntity
  8
MODEL
  0
POLYLINE
  5
6B58
330
A
100
AcDbEntity
  8
MODEL
100
AcDb2dPolyline
 66
     1
 10
0.0
 20
0.0
 30
0.0
  0
VERTEX
  5
6B59
330
6B58
100
AcDbEntity
  8
MODEL
100
AcDbVertex
100
AcDb2dVertex
 10
534.1395062078192
 20
1029.128803555814
 30
0.0
  0
VERTEX
  5
6B5A
330
6B58
100
AcDbEntity
  8
MODEL
100
AcDbVertex
100
AcDb2dVertex
 10
533.1266590104825
 20
1030.143373282399
 30
0.0
  0
SEQEND
  5
6B5B
330
6B58
100
AcDbEntity
  8
MODEL
  0
POLYLINE
  5
6B5C
330
A
100
AcDbEntity
  8
MODEL
100
AcDb2dPolyline
 66
     1
 10
0.0
 20
0.0
 30
0.0
  0
VERTEX
  5
6B5D
330
6B5C
100
AcDbEntity
  8
MODEL
100
AcDbVertex
100
AcDb2dVertex
 10
514.0375898933281
 20
1030.143373282399
 30
0.0
  0
VERTEX
  5
6B5E
330
6B5C
100
AcDbEntity
  8
MODEL
100
AcDbVertex
100
AcDb2dVertex
 10
513.0850312196422
 20
1029.128803555814
 30
0.0
  0
SEQEND
  5
6B5F
330
6B5C
100
AcDbEntity
  8
MODEL
  0
POLYLINE
  5
6B60
330
A
100
AcDbEntity
  8
MODEL
100
AcDb2dPolyline
 66
     1
 10
0.0
 20
0.0
 30
0.0
  0
VERTEX
  5
6B61
330
6B60
100
AcDbEntity
  8
MODEL
100
AcDbVertex
100
AcDb2dVertex
 10
548.6966008756652
 20
1005.089185382289
 30
0.0
  0
VERTEX
  5
6B62
330
6B60
100
AcDbEntity
  8
MODEL
100
AcDbVertex
100
AcDb2dVertex
 10
548.6966008756652
 20
988.0292557183029
 30
0.0
  0
SEQEND
  5
6B63
330
6B60
100
AcDbEntity
  8
MODEL
  0
POLYLINE
  5
6B64
330
A
100
AcDbEntity
  8
MODEL
100
AcDb2dPolyline
 66
     1
 10
0.0
 20
0.0
 30
0.0
  0
VERTEX
  5
6B65
330
6B64
100
AcDbEntity
  8
MODEL
100
AcDbVertex
100
AcDb2dVertex
 10
498.5313816102905
 20
1005.089185382289
 30
0.0
  0
VERTEX
  5
6B66
330
6B64
100
AcDbEntity
  8
MODEL
100
AcDbVertex
100
AcDb2dVertex
 10
498.5313816102905
 20
988.0292557183029
 30
0.0
  0
SEQEND
  5
6B67
330
6B64
100
AcDbEntity
  8
MODEL
  0
POLYLINE
  5
6B68
330
A
100
AcDbEntity
  8
MODEL
100
AcDb2dPolyline
 66
     1
 10
0.0
 20
0.0
 30
0.0
  0
VERTEX
  5
6B69
330
6B68
100
AcDbEntity
  8
MODEL
100
AcDbVertex
100
AcDb2dVertex
 10
498.5313816102905
 20
988.0292557183029
 30
0.0
  0
VERTEX
  5
6B6A
330
6B68
100
AcDbEntity
  8
MODEL
100
AcDbVertex
100
AcDb2dVertex
 10
498.6502361283452
 20
987.4935491224328
 30
0.0
  0
VERTEX
  5
6B6B
330
6B68
100
AcDbEntity
  8
MODEL
100
AcDbVertex
100
AcDb2dVertex
 10
499.0085222117569
 20
987.135263039021
 30
0.0
  0
VERTEX
  5
6B6C
330
6B68
100
AcDbEntity
  8
MODEL
100
AcDbVertex
100
AcDb2dVertex
 10
499.5459513368744
 20
987.0164085209665
 30
0.0
  0
SEQEND
  5
6B6D
330
6B68
100
AcDbEntity
  8
MODEL
  0
POLYLINE
  5
6B6E
330
A
100
AcDbEntity
  8
MODEL
100
AcDb2dPolyline
 66
     1
 10
0.0
 20
0.0
 30
0.0
  0
VERTEX
  5
6B6F
330
6B6E
100
AcDbEntity
  8
MODEL
100
AcDbVertex
100
AcDb2dVertex
 10
513.0850312196422
 20
759.004350818757
 30
0.0
  0
VERTEX
  5
6B70
330
6B6E
100
AcDbEntity
  8
MODEL
100
AcDbVertex
100
AcDb2dVertex
 10
534.1395062078192
 20
759.004350818757
 30
0.0
  0
SEQEND
  5
6B71
330
6B6E
100
AcDbEntity
  8
MODEL
  0
POLYLINE
  5
6B72
330
A
100
AcDbEntity
  8
MODEL
100
AcDb2dPolyline
 66
     1
 10
0.0
 20
0.0
 30
0.0
  0
VERTEX
  5
6B73
330
6B72
100
AcDbEntity
  8
MODEL
100
AcDbVertex
100
AcDb2dVertex
 10
513.0850312196422
 20
757.9880585629255
 30
0.0
  0
VERTEX
  5
6B74
330
6B72
100
AcDbEntity
  8
MODEL
100
AcDbVertex
100
AcDb2dVertex
 10
534.1395062078192
 20
757.9880585629255
 30
0.0
  0
SEQEND
  5
6B75
330
6B72
100
AcDbEntity
  8
MODEL
  0
POLYLINE
  5
6BB8
102
{ACAD_REACTORS
330
6C0F
102
}
330
A
100
AcDbEntity
  8
DIM
  6
CENTER
 48
0.01
100
AcDb2dPolyline
 66
     1
 10
0.0
 20
0.0
 30
0.0
  0
VERTEX
  5
6BB9
330
6BB8
100
AcDbEntity
  8
DIM
  6
CENTER
 48
0.01
100
AcDbVertex
100
AcDb2dVertex
 10
523.6148525076014
 20
765.5913026599404
 30
0.0
  0
VERTEX
  5
6BBA
330
6BB8
100
AcDbEntity
  8
DIM
  6
CENTER
 48
0.01
100
AcDbVertex
100
AcDb2dVertex
 10
523.6148525076014
 20
720.9640149242216
 30
0.0
  0
SEQEND
  5
6BBB
330
6BB8
100
AcDbEntity
  8
DIM
  6
CENTER
 48
0.01
  0
POLYLINE
  5
6BBC
330
A
100
AcDbEntity
  8
DIM
  6
CENTER
 48
0.01
100
AcDb2dPolyline
 66
     1
 10
0.0
 20
0.0
 30
0.0
  0
VERTEX
  5
6BBD
330
6BBC
100
AcDbEntity
  8
DIM
  6
CENTER
 48
0.01
100
AcDbVertex
100
AcDb2dVertex
 10
562.6594229532374
 20
754.1295930492615
 30
0.0
  0
VERTEX
  5
6BBE
330
6BBC
100
AcDbEntity
  8
DIM
  6
CENTER
 48
0.01
100
AcDbVertex
100
AcDb2dVertex
 10
543.5100653124322
 20
720.9640149242216
 30
0.0
  0
SEQEND
  5
6BBF
330
6BBC
100
AcDbEntity
  8
DIM
  6
CENTER
 48
0.01
  0
POLYLINE
  5
6BC0
330
A
100
AcDbEntity
  8
DIM
  6
CENTER
 48
0.01
100
AcDb2dPolyline
 66
     1
 10
0.0
 20
0.0
 30
0.0
  0
VERTEX
  5
6BC1
330
6BC0
100
AcDbEntity
  8
DIM
  6
CENTER
 48
0.01
100
AcDbVertex
100
AcDb2dVertex
 10
484.7597602791544
 20
755.1665556560587
 30
0.0
  0
VERTEX
  5
6BC2
330
6BC0
100
AcDbEntity
  8
DIM
  6
CENTER
 48
0.01
100
AcDbVertex
100
AcDb2dVertex
 10
504.5068355687283
 20
720.9640149242216
 30
0.0
  0
SEQEND
  5
6BC3
330
6BC0
100
AcDbEntity
  8
DIM
  6
CENTER
 48
0.01
  0
MTEXT
  5
6BC6
330
A
100
AcDbEntity
  8
DIM
100
AcDbMText
 10
440.8573921865591
 20
967.5543760949888
 30
0.0
 40
10.79488408851395
 41
0.0
 46
0.0
 71
     7
 72
     1
  1
\fMS Gothic|b0|i0|c0|p34;\W1;φ50
 73
     1
 44
1.0
  0
MTEXT
  5
6BC7
330
A
100
AcDbEntity
  8
DIM
100
AcDbMText
 10
509.2252914626307
 20
1054.24930883194
 30
0.0
 40
10.79488408851395
 41
0.0
 46
0.0
 71
     7
 72
     1
  1
\fMS Gothic|b0|i0|c0|p34;\W1;G1/2”
 73
     1
 44
1.0
  0
MTEXT
  5
6BC8
330
A
100
AcDbEntity
  8
DIM
100
AcDbMText
 10
528.7280482079293
 20
1048.987843246454
 30
0.0
 40
10.13543671086221
 41
0.0
 46
0.0
 71
     7
 72
     1
  1
\fKozuka Gothic Pro R|b0|i0|c0|p34;\W1;▲
 11
-0.9999999999999887
 21
1.509957990978371E-7
 31
0.0
 73
     1
 44
1.0
  0
POLYLINE
  5
6BC9
330
A
100
AcDbEntity
  8
DIM
100
AcDb2dPolyline
 66
     1
 10
0.0
 20
0.0
 30
0.0
  0
VERTEX
  5
6BCA
330
6BC9
100
AcDbEntity
  8
DIM
100
AcDbVertex
100
AcDb2dVertex
 10
501.705737842891
 20
986.265350042389
 30
0.0
  0
VERTEX
  5
6BCB
330
6BC9
100
AcDbEntity
  8
DIM
100
AcDbVertex
100
AcDb2dVertex
 10
476.9357672685654
 20
961.4953794680631
 30
0.0
  0
VERTEX
  5
6BCC
330
6BC9
100
AcDbEntity
  8
DIM
100
AcDbVertex
100
AcDb2dVertex
 10
441.398266370171
 20
961.4953794680631
 30
0.0
  0
SEQEND
  5
6BCD
330
6BC9
100
AcDbEntity
  8
DIM
  0
MTEXT
  5
6BCE
330
A
100
AcDbEntity
  8
DIM
100
AcDbMText
 10
444.0510836315026
 20
883.6181454115059
 30
0.0
 40
10.79488408851395
 41
0.0
 46
0.0
 71
     7
 72
     1
  1
\fMS Gothic|b0|i0|c0|p34;\W1;φ21
 73
     1
 44
1.0
  0
POLYLINE
  5
6BCF
330
A
100
AcDbEntity
  8
DIM
100
AcDb2dPolyline
 66
     1
 10
0.0
 20
0.0
 30
0.0
  0
VERTEX
  5
6BD0
330
6BCF
100
AcDbEntity
  8
DIM
100
AcDbVertex
100
AcDb2dVertex
 10
513.1194818045861
 20
917.3323491017694
 30
0.0
  0
VERTEX
  5
6BD1
330
6BCF
100
AcDbEntity
  8
DIM
100
AcDbVertex
100
AcDb2dVertex
 10
475.2927395367004
 20
879.5056068338839
 30
0.0
  0
VERTEX
  5
6BD2
330
6BCF
100
AcDbEntity
  8
DIM
100
AcDbVertex
100
AcDb2dVertex
 10
439.7552386383055
 20
879.5056068338839
 30
0.0
  0
SEQEND
  5
6BD3
330
6BCF
100
AcDbEntity
  8
DIM
  0
DIMENSION
  5
6BDB
330
A
100
AcDbEntity
  8
DIM
 48
0.05
100
AcDbDimension
  2
*D17
 10
703.3144309378108
 20
618.9450716152711
 30
0.0
 11
523.3173654689227
 21
635.9170716152711
 31
0.0
 70
    32
 71
     5
 42
359.9941309377762
 73
     0
 74
     0
 75
     0
  3
tfrom線あり
100
AcDbAlignedDimension
 13
343.3203000000346
 23
696.5964969607476
 33
0.0
 14
703.3144309378108
 24
694.5408485580948
 34
0.0
100
AcDbRotatedDimension
1001
ACAD
1000
DSTYLE
1002
{
1070
     3
1000
φ<>
1002
}
  0
DIMENSION
  5
6BFF
330
A
100
AcDbEntity
  8
DIM
 48
0.05
100
AcDbDimension
  2
*D18
 10
777.5928097774414
 20
1005.089185382289
 30
0.0
 11
761.5928097774414
 21
849.1049513318264
 31
0.0
 70
    32
 71
     5
 42
311.9684681009251
 73
     0
 74
     0
 75
     0
  3
tfrom線あり
100
AcDbAlignedDimension
 13
669.0179453610112
 23
693.1207172813639
 33
0.0
 14
583.591598364865
 24
1005.089185382289
 34
0.0
 50
90.0
100
AcDbRotatedDimension
  0
DIMENSION
  5
6C0D
102
{ACAD_REACTORS
330
6C0F
102
}
102
{ACAD_XDICTIONARY
360
6C0E
102
}
330
A
100
AcDbEntity
  8
DIM
 48
0.05
100
AcDbDimension
  2
*D19
 10
523.6148525076014
 20
720.9640149242216
 30
0.0
 11
498.61772701092
 21
780.6955091773492
 31
0.0
 70
   162
  1
<>
 71
     5
 42
0.5236038013304966
 73
     0
 74
     0
 75
     0
  3
tfrom線あり
100
AcDb2LineAngularDimension
 13
484.4927682458429
 23
755.1665556560587
 33
0.0
 14
504.2398435354168
 24
720.9640149242216
 34
0.0
 15
523.6148525076014
 25
765.5913026599404
 35
0.0
 16
506.8436530774138
 26
782.5191711537469
 36
0.0
1001
ACAD
1000
DSTYLE
1002
{
1070
   179
1070
     0
1002
}
  0
DIMENSION
  5
6C1E
102
{ACAD_REACTORS
330
6C20
102
}
102
{ACAD_XDICTIONARY
360
6C1F
102
}
330
A
100
AcDbEntity
  8
DIM
 48
0.05
100
AcDbDimension
  2
*D20
 10
523.6148525076014
 20
720.9640149242216
 30
0.0
 11
548.6119780042828
 21
780.6955091773492
 31
0.0
 70
   162
  1
<>
 71
     5
 42
0.5236038013304966
 73
     0
 74
     0
 75
     0
  3
tfrom線あり
100
AcDb2LineAngularDimension
 13
562.73693676936
 23
755.1665556560587
 33
0.0
 14
542.9898614797861
 24
720.9640149242216
 34
0.0
 15
523.6148525076014
 25
765.5913026599404
 35
0.0
 16
556.6476572022935
 26
778.1618433583748
 36
0.0
1001
ACAD
1000
DSTYLE
1002
{
1070
   179
1070
     0
1002
}
  0
POLYLINE
  5
71F3
330
A
100
AcDbEntity
  8
MODEL
100
AcDb2dPolyline
 66
     1
 10
0.0
 20
0.0
 30
0.0
  0
VERTEX
  5
71F4
330
71F3
100
AcDbEntity
  8
MODEL
100
AcDbVertex
100
AcDb2dVertex
 10
501.7103228838785
 20
693.0579198926533
 30
0.0
  0
VERTEX
  5
71F5
330
71F3
100
AcDbEntity
  8
MODEL
100
AcDbVertex
100
AcDb2dVertex
 10
499.3798989730378
 20
693.0579198926533
 30
0.0
  0
SEQEND
  5
71F6
330
71F3
100
AcDbEntity
  8
MODEL
  0
POLYLINE
  5
71F7
102
{ACAD_REACTORS
330
7816
102
}
330
A
100
AcDbEntity
  8
MODEL
100
AcDb2dPolyline
 66
     1
 10
0.0
 20
0.0
 30
0.0
  0
VERTEX
  5
71F8
330
71F7
100
AcDbEntity
  8
MODEL
100
AcDbVertex
100
AcDb2dVertex
 10
703.6003391659524
 20
694.6327246119896
 30
0.0
  0
VERTEX
  5
71F9
330
71F7
100
AcDbEntity
  8
MODEL
100
AcDbVertex
100
AcDb2dVertex
 10
343.6003391679208
 20
694.6327246119896
 30
0.0
  0
SEQEND
  5
71FA
330
71F7
100
AcDbEntity
  8
MODEL
  0
POLYLINE
  5
71FB
102
{ACAD_REACTORS
330
7816
102
}
330
A
100
AcDbEntity
  8
MODEL
100
AcDb2dPolyline
 66
     1
 10
0.0
 20
0.0
 30
0.0
  0
VERTEX
  5
71FC
330
71FB
100
AcDbEntity
  8
MODEL
100
AcDbVertex
100
AcDb2dVertex
 10
703.6003391659524
 20
719.6404390076201
 30
0.0
  0
VERTEX
  5
71FD
330
71FB
100
AcDbEntity
  8
MODEL
100
AcDbVertex
100
AcDb2dVertex
 10
343.6003391679208
 20
719.6404390076202
 30
0.0
  0
VERTEX
  5
71FE
330
71FB
100
AcDbEntity
  8
MODEL
100
AcDbVertex
100
AcDb2dVertex
 10
343.6003391679208
 20
694.6327246119896
 30
0.0
  0
SEQEND
  5
71FF
330
71FB
100
AcDbEntity
  8
MODEL
  0
POLYLINE
  5
7200
330
A
100
AcDbEntity
  8
MODEL
100
AcDb2dPolyline
 66
     1
 10
0.0
 20
0.0
 30
0.0
  0
VERTEX
  5
7201
330
7200
100
AcDbEntity
  8
MODEL
100
AcDbVertex
100
AcDb2dVertex
 10
402.4663550292794
 20
693.1207172813639
 30
0.0
  0
VERTEX
  5
7202
330
7200
100
AcDbEntity
  8
MODEL
100
AcDbVertex
100
AcDb2dVertex
 10
402.2459233791119
 20
693.1207172813639
 30
0.0
  0
SEQEND
  5
7203
330
7200
100
AcDbEntity
  8
MODEL
  0
POLYLINE
  5
7204
330
A
100
AcDbEntity
  8
MODEL
100
AcDb2dPolyline
 66
     1
 10
0.0
 20
0.0
 30
0.0
  0
VERTEX
  5
7205
330
7204
100
AcDbEntity
  8
MODEL
100
AcDbVertex
100
AcDb2dVertex
 10
385.8365812352476
 20
693.3098783951123
 30
0.0
  0
VERTEX
  5
7206
330
7204
100
AcDbEntity
  8
MODEL
100
AcDbVertex
100
AcDb2dVertex
 10
385.8991223080859
 20
693.1837709859466
 30
0.0
  0
VERTEX
  5
7207
330
7204
100
AcDbEntity
  8
MODEL
100
AcDbVertex
100
AcDb2dVertex
 10
386.0252297172515
 20
693.1207172813639
 30
0.0
  0
SEQEND
  5
7208
330
7204
100
AcDbEntity
  8
MODEL
  0
POLYLINE
  5
7209
330
A
100
AcDbEntity
  8
MODEL
100
AcDb2dPolyline
 66
     1
 10
0.0
 20
0.0
 30
0.0
  0
VERTEX
  5
720A
330
7209
100
AcDbEntity
  8
MODEL
100
AcDbVertex
100
AcDb2dVertex
 10
385.7417443625011
 20
694.6327246119896
 30
0.0
  0
VERTEX
  5
720B
330
7209
100
AcDbEntity
  8
MODEL
100
AcDbVertex
100
AcDb2dVertex
 10
385.8365812352476
 20
693.3098783951123
 30
0.0
  0
SEQEND
  5
720C
330
7209
100
AcDbEntity
  8
MODEL
  0
POLYLINE
  5
720D
330
A
100
AcDbEntity
  8
MODEL
100
AcDb2dPolyline
 66
     1
 10
0.0
 20
0.0
 30
0.0
  0
VERTEX
  5
720E
330
720D
100
AcDbEntity
  8
MODEL
100
AcDbVertex
100
AcDb2dVertex
 10
383.8834542884147
 20
694.6327246119896
 30
0.0
  0
VERTEX
  5
720F
330
720D
100
AcDbEntity
  8
MODEL
100
AcDbVertex
100
AcDb2dVertex
 10
383.8204005838318
 20
693.3098783951123
 30
0.0
  0
SEQEND
  5
7210
330
720D
100
AcDbEntity
  8
MODEL
  0
POLYLINE
  5
7211
330
A
100
AcDbEntity
  8
MODEL
100
AcDb2dPolyline
 66
     1
 10
0.0
 20
0.0
 30
0.0
  0
VERTEX
  5
7212
330
7211
100
AcDbEntity
  8
MODEL
100
AcDbVertex
100
AcDb2dVertex
 10
380.7025743133231
 20
694.6327246119896
 30
0.0
  0
VERTEX
  5
7213
330
7211
100
AcDbEntity
  8
MODEL
100
AcDbVertex
100
AcDb2dVertex
 10
380.765628017906
 20
693.3098783951123
 30
0.0
  0
SEQEND
  5
7214
330
7211
100
AcDbEntity
  8
MODEL
  0
POLYLINE
  5
7215
330
A
100
AcDbEntity
  8
MODEL
100
AcDb2dPolyline
 66
     1
 10
0.0
 20
0.0
 30
0.0
  0
VERTEX
  5
7216
330
7215
100
AcDbEntity
  8
MODEL
100
AcDbVertex
100
AcDb2dVertex
 10
383.8204005838318
 20
693.3098783951123
 30
0.0
  0
VERTEX
  5
7217
330
7215
100
AcDbEntity
  8
MODEL
100
AcDbVertex
100
AcDb2dVertex
 10
383.7578595109935
 20
693.1837709859466
 30
0.0
  0
VERTEX
  5
7218
330
7215
100
AcDbEntity
  8
MODEL
100
AcDbVertex
100
AcDb2dVertex
 10
383.5999689336643
 20
693.1207172813639
 30
0.0
  0
SEQEND
  5
7219
330
7215
100
AcDbEntity
  8
MODEL
  0
POLYLINE
  5
721A
330
A
100
AcDbEntity
  8
MODEL
100
AcDb2dPolyline
 66
     1
 10
0.0
 20
0.0
 30
0.0
  0
VERTEX
  5
721B
330
721A
100
AcDbEntity
  8
MODEL
100
AcDbVertex
100
AcDb2dVertex
 10
380.765628017906
 20
693.3098783951123
 30
0.0
  0
VERTEX
  5
721C
330
721A
100
AcDbEntity
  8
MODEL
100
AcDbVertex
100
AcDb2dVertex
 10
380.8286817224887
 20
693.1837709859466
 30
0.0
  0
VERTEX
  5
721D
330
721A
100
AcDbEntity
  8
MODEL
100
AcDbVertex
100
AcDb2dVertex
 10
380.9542764999098
 20
693.1207172813639
 30
0.0
  0
SEQEND
  5
721E
330
721A
100
AcDbEntity
  8
MODEL
  0
POLYLINE
  5
721F
330
A
100
AcDbEntity
  8
MODEL
100
AcDb2dPolyline
 66
     1
 10
0.0
 20
0.0
 30
0.0
  0
VERTEX
  5
7220
330
721F
100
AcDbEntity
  8
MODEL
100
AcDbVertex
100
AcDb2dVertex
 10
383.5999689336643
 20
693.1207172813639
 30
0.0
  0
VERTEX
  5
7221
330
721F
100
AcDbEntity
  8
MODEL
100
AcDbVertex
100
AcDb2dVertex
 10
380.9542764999098
 20
693.1207172813639
 30
0.0
  0
SEQEND
  5
7222
330
721F
100
AcDbEntity
  8
MODEL
  0
POLYLINE
  5
7223
330
A
100
AcDbEntity
  8
MODEL
100
AcDb2dPolyline
 66
     1
 10
0.0
 20
0.0
 30
0.0
  0
VERTEX
  5
7224
330
7223
100
AcDbEntity
  8
MODEL
100
AcDbVertex
100
AcDb2dVertex
 10
395.7893265561825
 20
693.1207172813639
 30
0.0
  0
VERTEX
  5
7225
330
7223
100
AcDbEntity
  8
MODEL
100
AcDbVertex
100
AcDb2dVertex
 10
393.3010120680126
 20
693.1207172813639
 30
0.0
  0
SEQEND
  5
7226
330
7223
100
AcDbEntity
  8
MODEL
  0
POLYLINE
  5
7227
330
A
100
AcDbEntity
  8
MODEL
100
AcDb2dPolyline
 66
     1
 10
0.0
 20
0.0
 30
0.0
  0
VERTEX
  5
7228
330
7227
100
AcDbEntity
  8
MODEL
100
AcDbVertex
100
AcDb2dVertex
 10
392.8914193040966
 20
694.6327246119896
 30
0.0
  0
VERTEX
  5
7229
330
7227
100
AcDbEntity
  8
MODEL
100
AcDbVertex
100
AcDb2dVertex
 10
392.9544730086795
 20
693.3098783951123
 30
0.0
  0
SEQEND
  5
722A
330
7227
100
AcDbEntity
  8
MODEL
  0
POLYLINE
  5
722B
330
A
100
AcDbEntity
  8
MODEL
100
AcDb2dPolyline
 66
     1
 10
0.0
 20
0.0
 30
0.0
  0
VERTEX
  5
722C
330
722B
100
AcDbEntity
  8
MODEL
100
AcDbVertex
100
AcDb2dVertex
 10
388.9544075057563
 20
694.6327246119896
 30
0.0
  0
VERTEX
  5
722D
330
722B
100
AcDbEntity
  8
MODEL
100
AcDbVertex
100
AcDb2dVertex
 10
388.8600832647544
 20
693.3098783951123
 30
0.0
  0
VERTEX
  5
722E
330
722B
100
AcDbEntity
  8
MODEL
100
AcDbVertex
100
AcDb2dVertex
 10
388.7970295601715
 20
693.1837709859466
 30
0.0
  0
VERTEX
  5
722F
330
722B
100
AcDbEntity
  8
MODEL
100
AcDbVertex
100
AcDb2dVertex
 10
388.6709221510059
 20
693.1209735972361
 30
0.0
  0
SEQEND
  5
7230
330
722B
100
AcDbEntity
  8
MODEL
  0
POLYLINE
  5
7231
330
A
100
AcDbEntity
  8
MODEL
100
AcDb2dPolyline
 66
     1
 10
0.0
 20
0.0
 30
0.0
  0
VERTEX
  5
7232
330
7231
100
AcDbEntity
  8
MODEL
100
AcDbVertex
100
AcDb2dVertex
 10
392.9544730086795
 20
693.3098783951123
 30
0.0
  0
VERTEX
  5
7233
330
7231
100
AcDbEntity
  8
MODEL
100
AcDbVertex
100
AcDb2dVertex
 10
393.0175267132624
 20
693.1837709859466
 30
0.0
  0
VERTEX
  5
7234
330
7231
100
AcDbEntity
  8
MODEL
100
AcDbVertex
100
AcDb2dVertex
 10
393.143634122428
 20
693.1209735972361
 30
0.0
  0
VERTEX
  5
7235
330
7231
100
AcDbEntity
  8
MODEL
100
AcDbVertex
100
AcDb2dVertex
 10
393.3010120680126
 20
693.1209735972361
 30
0.0
  0
SEQEND
  5
7236
330
7231
100
AcDbEntity
  8
MODEL
  0
POLYLINE
  5
7237
330
A
100
AcDbEntity
  8
MODEL
100
AcDb2dPolyline
 66
     1
 10
0.0
 20
0.0
 30
0.0
  0
VERTEX
  5
7238
330
7237
100
AcDbEntity
  8
MODEL
100
AcDbVertex
100
AcDb2dVertex
 10
388.6709221510059
 20
693.1209735972361
 30
0.0
  0
VERTEX
  5
7239
330
7237
100
AcDbEntity
  8
MODEL
100
AcDbVertex
100
AcDb2dVertex
 10
386.0252297172515
 20
693.1209735972361
 30
0.0
  0
SEQEND
  5
723A
330
7237
100
AcDbEntity
  8
MODEL
  0
POLYLINE
  5
723B
330
A
100
AcDbEntity
  8
MODEL
100
AcDb2dPolyline
 66
     1
 10
0.0
 20
0.0
 30
0.0
  0
VERTEX
  5
723C
330
723B
100
AcDbEntity
  8
MODEL
100
AcDbVertex
100
AcDb2dVertex
 10
401.9624380243617
 20
694.6327246119896
 30
0.0
  0
VERTEX
  5
723D
330
723B
100
AcDbEntity
  8
MODEL
100
AcDbVertex
100
AcDb2dVertex
 10
402.0254917289444
 20
693.3098783951123
 30
0.0
  0
SEQEND
  5
723E
330
723B
100
AcDbEntity
  8
MODEL
  0
POLYLINE
  5
723F
330
A
100
AcDbEntity
  8
MODEL
100
AcDb2dPolyline
 66
     1
 10
0.0
 20
0.0
 30
0.0
  0
VERTEX
  5
7240
330
723F
100
AcDbEntity
  8
MODEL
100
AcDbVertex
100
AcDb2dVertex
 10
396.0728119109328
 20
694.6327246119896
 30
0.0
  0
VERTEX
  5
7241
330
723F
100
AcDbEntity
  8
MODEL
100
AcDbVertex
100
AcDb2dVertex
 10
396.0097582063499
 20
693.3098783951123
 30
0.0
  0
SEQEND
  5
7242
330
723F
100
AcDbEntity
  8
MODEL
  0
POLYLINE
  5
7243
330
A
100
AcDbEntity
  8
MODEL
100
AcDb2dPolyline
 66
     1
 10
0.0
 20
0.0
 30
0.0
  0
VERTEX
  5
7244
330
7243
100
AcDbEntity
  8
MODEL
100
AcDbVertex
100
AcDb2dVertex
 10
401.1432524965298
 20
694.6327246119896
 30
0.0
  0
VERTEX
  5
7245
330
7243
100
AcDbEntity
  8
MODEL
100
AcDbVertex
100
AcDb2dVertex
 10
401.0801987919472
 20
693.3098783951123
 30
0.0
  0
SEQEND
  5
7246
330
7243
100
AcDbEntity
  8
MODEL
  0
POLYLINE
  5
7247
330
A
100
AcDbEntity
  8
MODEL
100
AcDb2dPolyline
 66
     1
 10
0.0
 20
0.0
 30
0.0
  0
VERTEX
  5
7248
330
7247
100
AcDbEntity
  8
MODEL
100
AcDbVertex
100
AcDb2dVertex
 10
397.9623725214385
 20
694.6327246119896
 30
0.0
  0
VERTEX
  5
7249
330
7247
100
AcDbEntity
  8
MODEL
100
AcDbVertex
100
AcDb2dVertex
 10
398.0254262260212
 20
693.3098783951123
 30
0.0
  0
SEQEND
  5
724A
330
7247
100
AcDbEntity
  8
MODEL
  0
POLYLINE
  5
724B
330
A
100
AcDbEntity
  8
MODEL
100
AcDb2dPolyline
 66
     1
 10
0.0
 20
0.0
 30
0.0
  0
VERTEX
  5
724C
330
724B
100
AcDbEntity
  8
MODEL
100
AcDbVertex
100
AcDb2dVertex
 10
401.0807114236916
 20
693.3098783951123
 30
0.0
  0
VERTEX
  5
724D
330
724B
100
AcDbEntity
  8
MODEL
100
AcDbVertex
100
AcDb2dVertex
 10
401.0176577191089
 20
693.1837709859466
 30
0.0
  0
VERTEX
  5
724E
330
724B
100
AcDbEntity
  8
MODEL
100
AcDbVertex
100
AcDb2dVertex
 10
400.8597671417797
 20
693.1209735972361
 30
0.0
  0
SEQEND
  5
724F
330
724B
100
AcDbEntity
  8
MODEL
  0
POLYLINE
  5
7250
330
A
100
AcDbEntity
  8
MODEL
100
AcDb2dPolyline
 66
     1
 10
0.0
 20
0.0
 30
0.0
  0
VERTEX
  5
7251
330
7250
100
AcDbEntity
  8
MODEL
100
AcDbVertex
100
AcDb2dVertex
 10
398.0254262260212
 20
693.3098783951123
 30
0.0
  0
VERTEX
  5
7252
330
7250
100
AcDbEntity
  8
MODEL
100
AcDbVertex
100
AcDb2dVertex
 10
398.0884799306041
 20
693.1837709859466
 30
0.0
  0
VERTEX
  5
7253
330
7250
100
AcDbEntity
  8
MODEL
100
AcDbVertex
100
AcDb2dVertex
 10
398.214074708025
 20
693.1209735972361
 30
0.0
  0
SEQEND
  5
7254
330
7250
100
AcDbEntity
  8
MODEL
  0
POLYLINE
  5
7255
330
A
100
AcDbEntity
  8
MODEL
100
AcDb2dPolyline
 66
     1
 10
0.0
 20
0.0
 30
0.0
  0
VERTEX
  5
7256
330
7255
100
AcDbEntity
  8
MODEL
100
AcDbVertex
100
AcDb2dVertex
 10
396.0097582063499
 20
693.3098783951123
 30
0.0
  0
VERTEX
  5
7257
330
7255
100
AcDbEntity
  8
MODEL
100
AcDbVertex
100
AcDb2dVertex
 10
395.9467045017673
 20
693.1837709859466
 30
0.0
  0
VERTEX
  5
7258
330
7255
100
AcDbEntity
  8
MODEL
100
AcDbVertex
100
AcDb2dVertex
 10
395.7893265561825
 20
693.1209735972361
 30
0.0
  0
SEQEND
  5
7259
330
7255
100
AcDbEntity
  8
MODEL
  0
POLYLINE
  5
725A
330
A
100
AcDbEntity
  8
MODEL
100
AcDb2dPolyline
 66
     1
 10
0.0
 20
0.0
 30
0.0
  0
VERTEX
  5
725B
330
725A
100
AcDbEntity
  8
MODEL
100
AcDbVertex
100
AcDb2dVertex
 10
402.0254917289444
 20
693.3098783951123
 30
0.0
  0
VERTEX
  5
725C
330
725A
100
AcDbEntity
  8
MODEL
100
AcDbVertex
100
AcDb2dVertex
 10
402.0885454335273
 20
693.1837709859466
 30
0.0
  0
VERTEX
  5
725D
330
725A
100
AcDbEntity
  8
MODEL
100
AcDbVertex
100
AcDb2dVertex
 10
402.2459233791119
 20
693.1209735972361
 30
0.0
  0
SEQEND
  5
725E
330
725A
100
AcDbEntity
  8
MODEL
  0
POLYLINE
  5
725F
330
A
100
AcDbEntity
  8
MODEL
100
AcDb2dPolyline
 66
     1
 10
0.0
 20
0.0
 30
0.0
  0
VERTEX
  5
7260
330
725F
100
AcDbEntity
  8
MODEL
100
AcDbVertex
100
AcDb2dVertex
 10
400.8597671417797
 20
693.1209735972361
 30
0.0
  0
VERTEX
  5
7261
330
725F
100
AcDbEntity
  8
MODEL
100
AcDbVertex
100
AcDb2dVertex
 10
398.214074708025
 20
693.1209735972361
 30
0.0
  0
SEQEND
  5
7262
330
725F
100
AcDbEntity
  8
MODEL
  0
POLYLINE
  5
7263
330
A
100
AcDbEntity
  8
MODEL
100
AcDb2dPolyline
 66
     1
 10
0.0
 20
0.0
 30
0.0
  0
VERTEX
  5
7264
330
7263
100
AcDbEntity
  8
MODEL
100
AcDbVertex
100
AcDb2dVertex
 10
420.3561776514782
 20
693.1209735972361
 30
0.0
  0
VERTEX
  5
7265
330
7263
100
AcDbEntity
  8
MODEL
100
AcDbVertex
100
AcDb2dVertex
 10
418.0570242770566
 20
693.1209735972361
 30
0.0
  0
SEQEND
  5
7266
330
7263
100
AcDbEntity
  8
MODEL
  0
POLYLINE
  5
7267
330
A
100
AcDbEntity
  8
MODEL
100
AcDb2dPolyline
 66
     1
 10
0.0
 20
0.0
 30
0.0
  0
VERTEX
  5
7268
330
7267
100
AcDbEntity
  8
MODEL
100
AcDbVertex
100
AcDb2dVertex
 10
410.8125124627145
 20
693.1209735972361
 30
0.0
  0
VERTEX
  5
7269
330
7267
100
AcDbEntity
  8
MODEL
100
AcDbVertex
100
AcDb2dVertex
 10
408.4820885518739
 20
693.1209735972361
 30
0.0
  0
SEQEND
  5
726A
330
7267
100
AcDbEntity
  8
MODEL
  0
POLYLINE
  5
726B
330
A
100
AcDbEntity
  8
MODEL
100
AcDb2dPolyline
 66
     1
 10
0.0
 20
0.0
 30
0.0
  0
VERTEX
  5
726C
330
726B
100
AcDbEntity
  8
MODEL
100
AcDbVertex
100
AcDb2dVertex
 10
407.9463883787923
 20
693.3098783951123
 30
0.0
  0
VERTEX
  5
726D
330
726B
100
AcDbEntity
  8
MODEL
100
AcDbVertex
100
AcDb2dVertex
 10
408.0094420833752
 20
693.1837709859466
 30
0.0
  0
VERTEX
  5
726E
330
726B
100
AcDbEntity
  8
MODEL
100
AcDbVertex
100
AcDb2dVertex
 10
408.1355494925408
 20
693.1209735972361
 30
0.0
  0
VERTEX
  5
726F
330
726B
100
AcDbEntity
  8
MODEL
100
AcDbVertex
100
AcDb2dVertex
 10
408.4820885518739
 20
693.1209735972361
 30
0.0
  0
SEQEND
  5
7270
330
726B
100
AcDbEntity
  8
MODEL
  0
POLYLINE
  5
7271
330
A
100
AcDbEntity
  8
MODEL
100
AcDb2dPolyline
 66
     1
 10
0.0
 20
0.0
 30
0.0
  0
VERTEX
  5
7272
330
7271
100
AcDbEntity
  8
MODEL
100
AcDbVertex
100
AcDb2dVertex
 10
407.8838473059543
 20
694.6327246119896
 30
0.0
  0
VERTEX
  5
7273
330
7271
100
AcDbEntity
  8
MODEL
100
AcDbVertex
100
AcDb2dVertex
 10
407.9463883787923
 20
693.3098783951123
 30
0.0
  0
SEQEND
  5
7274
330
7271
100
AcDbEntity
  8
MODEL
  0
POLYLINE
  5
7275
330
A
100
AcDbEntity
  8
MODEL
100
AcDb2dPolyline
 66
     1
 10
0.0
 20
0.0
 30
0.0
  0
VERTEX
  5
7276
330
7275
100
AcDbEntity
  8
MODEL
100
AcDbVertex
100
AcDb2dVertex
 10
405.1433179994531
 20
694.6327246119896
 30
0.0
  0
VERTEX
  5
7277
330
7275
100
AcDbEntity
  8
MODEL
100
AcDbVertex
100
AcDb2dVertex
 10
405.0802642948704
 20
693.3098783951123
 30
0.0
  0
VERTEX
  5
7278
330
7275
100
AcDbEntity
  8
MODEL
100
AcDbVertex
100
AcDb2dVertex
 10
405.0177232220321
 20
693.1837709859466
 30
0.0
  0
VERTEX
  5
7279
330
7275
100
AcDbEntity
  8
MODEL
100
AcDbVertex
100
AcDb2dVertex
 10
404.8916158128666
 20
693.1209735972361
 30
0.0
  0
VERTEX
  5
727A
330
7275
100
AcDbEntity
  8
MODEL
100
AcDbVertex
100
AcDb2dVertex
 10
402.4663550292794
 20
693.1209735972361
 30
0.0
  0
SEQEND
  5
727B
330
7275
100
AcDbEntity
  8
MODEL
  0
POLYLINE
  5
727C
330
A
100
AcDbEntity
  8
MODEL
100
AcDb2dPolyline
 66
     1
 10
0.0
 20
0.0
 30
0.0
  0
VERTEX
  5
727D
330
727C
100
AcDbEntity
  8
MODEL
100
AcDbVertex
100
AcDb2dVertex
 10
417.5213241039751
 20
693.3098783951123
 30
0.0
  0
VERTEX
  5
727E
330
727C
100
AcDbEntity
  8
MODEL
100
AcDbVertex
100
AcDb2dVertex
 10
417.584377808558
 20
693.1837709859466
 30
0.0
  0
VERTEX
  5
727F
330
727C
100
AcDbEntity
  8
MODEL
100
AcDbVertex
100
AcDb2dVertex
 10
417.7104852177235
 20
693.1209735972361
 30
0.0
  0
VERTEX
  5
7280
330
727C
100
AcDbEntity
  8
MODEL
100
AcDbVertex
100
AcDb2dVertex
 10
418.0570242770566
 20
693.1209735972361
 30
0.0
  0
SEQEND
  5
7281
330
727C
100
AcDbEntity
  8
MODEL
  0
POLYLINE
  5
7282
330
A
100
AcDbEntity
  8
MODEL
100
AcDb2dPolyline
 66
     1
 10
0.0
 20
0.0
 30
0.0
  0
VERTEX
  5
7283
330
7282
100
AcDbEntity
  8
MODEL
100
AcDbVertex
100
AcDb2dVertex
 10
417.4582703993924
 20
694.6011977596982
 30
0.0
  0
VERTEX
  5
7284
330
7282
100
AcDbEntity
  8
MODEL
100
AcDbVertex
100
AcDb2dVertex
 10
417.5213241039751
 20
693.3098783951123
 30
0.0
  0
SEQEND
  5
7285
330
7282
100
AcDbEntity
  8
MODEL
  0
POLYLINE
  5
7286
330
A
100
AcDbEntity
  8
MODEL
100
AcDb2dPolyline
 66
     1
 10
0.0
 20
0.0
 30
0.0
  0
VERTEX
  5
7287
330
7286
100
AcDbEntity
  8
MODEL
100
AcDbVertex
100
AcDb2dVertex
 10
411.001673576463
 20
693.3098783951123
 30
0.0
  0
VERTEX
  5
7288
330
7286
100
AcDbEntity
  8
MODEL
100
AcDbVertex
100
AcDb2dVertex
 10
410.9386198718801
 20
693.1837709859466
 30
0.0
  0
VERTEX
  5
7289
330
7286
100
AcDbEntity
  8
MODEL
100
AcDbVertex
100
AcDb2dVertex
 10
410.8125124627145
 20
693.1209735972361
 30
0.0
  0
SEQEND
  5
728A
330
7286
100
AcDbEntity
  8
MODEL
  0
POLYLINE
  5
728B
330
A
100
AcDbEntity
  8
MODEL
100
AcDb2dPolyline
 66
     1
 10
0.0
 20
0.0
 30
0.0
  0
VERTEX
  5
728C
330
728B
100
AcDbEntity
  8
MODEL
100
AcDbVertex
100
AcDb2dVertex
 10
411.0647272810456
 20
694.6327246119896
 30
0.0
  0
VERTEX
  5
728D
330
728B
100
AcDbEntity
  8
MODEL
100
AcDbVertex
100
AcDb2dVertex
 10
411.001673576463
 20
693.3098783951123
 30
0.0
  0
SEQEND
  5
728E
330
728B
100
AcDbEntity
  8
MODEL
  0
POLYLINE
  5
728F
330
A
100
AcDbEntity
  8
MODEL
100
AcDb2dPolyline
 66
     1
 10
0.0
 20
0.0
 30
0.0
  0
VERTEX
  5
7290
330
728F
100
AcDbEntity
  8
MODEL
100
AcDbVertex
100
AcDb2dVertex
 10
416.0726267938046
 20
694.6327246119896
 30
0.0
  0
VERTEX
  5
7291
330
728F
100
AcDbEntity
  8
MODEL
100
AcDbVertex
100
AcDb2dVertex
 10
415.9783025528027
 20
693.3098783951123
 30
0.0
  0
SEQEND
  5
7292
330
728F
100
AcDbEntity
  8
MODEL
  0
POLYLINE
  5
7293
330
A
100
AcDbEntity
  8
MODEL
100
AcDb2dPolyline
 66
     1
 10
0.0
 20
0.0
 30
0.0
  0
VERTEX
  5
7294
330
7293
100
AcDbEntity
  8
MODEL
100
AcDbVertex
100
AcDb2dVertex
 10
412.8599636505494
 20
694.6327246119896
 30
0.0
  0
VERTEX
  5
7295
330
7293
100
AcDbEntity
  8
MODEL
100
AcDbVertex
100
AcDb2dVertex
 10
412.9542878915513
 20
693.3098783951123
 30
0.0
  0
SEQEND
  5
7296
330
7293
100
AcDbEntity
  8
MODEL
  0
POLYLINE
  5
7297
330
A
100
AcDbEntity
  8
MODEL
100
AcDb2dPolyline
 66
     1
 10
0.0
 20
0.0
 30
0.0
  0
VERTEX
  5
7298
330
7297
100
AcDbEntity
  8
MODEL
100
AcDbVertex
100
AcDb2dVertex
 10
415.9783025528027
 20
693.3098783951123
 30
0.0
  0
VERTEX
  5
7299
330
7297
100
AcDbEntity
  8
MODEL
100
AcDbVertex
100
AcDb2dVertex
 10
415.9152488482198
 20
693.1837709859466
 30
0.0
  0
VERTEX
  5
729A
330
7297
100
AcDbEntity
  8
MODEL
100
AcDbVertex
100
AcDb2dVertex
 10
415.7891414390542
 20
693.1209735972361
 30
0.0
  0
SEQEND
  5
729B
330
7297
100
AcDbEntity
  8
MODEL
  0
POLYLINE
  5
729C
330
A
100
AcDbEntity
  8
MODEL
100
AcDb2dPolyline
 66
     1
 10
0.0
 20
0.0
 30
0.0
  0
VERTEX
  5
729D
330
729C
100
AcDbEntity
  8
MODEL
100
AcDbVertex
100
AcDb2dVertex
 10
412.9542878915513
 20
693.3098783951123
 30
0.0
  0
VERTEX
  5
729E
330
729C
100
AcDbEntity
  8
MODEL
100
AcDbVertex
100
AcDb2dVertex
 10
413.0173415961342
 20
693.1837709859466
 30
0.0
  0
VERTEX
  5
729F
330
729C
100
AcDbEntity
  8
MODEL
100
AcDbVertex
100
AcDb2dVertex
 10
413.1434490052998
 20
693.1209735972361
 30
0.0
  0
SEQEND
  5
72A0
330
729C
100
AcDbEntity
  8
MODEL
  0
POLYLINE
  5
72A1
330
A
100
AcDbEntity
  8
MODEL
100
AcDb2dPolyline
 66
     1
 10
0.0
 20
0.0
 30
0.0
  0
VERTEX
  5
72A2
330
72A1
100
AcDbEntity
  8
MODEL
100
AcDbVertex
100
AcDb2dVertex
 10
415.7891414390542
 20
693.1209735972361
 30
0.0
  0
VERTEX
  5
72A3
330
72A1
100
AcDbEntity
  8
MODEL
100
AcDbVertex
100
AcDb2dVertex
 10
413.1434490052998
 20
693.1209735972361
 30
0.0
  0
SEQEND
  5
72A4
330
72A1
100
AcDbEntity
  8
MODEL
  0
POLYLINE
  5
72A5
330
A
100
AcDbEntity
  8
MODEL
100
AcDb2dPolyline
 66
     1
 10
0.0
 20
0.0
 30
0.0
  0
VERTEX
  5
72A6
330
72A5
100
AcDbEntity
  8
MODEL
100
AcDbVertex
100
AcDb2dVertex
 10
429.3641426671602
 20
693.0894467449447
 30
0.0
  0
VERTEX
  5
72A7
330
72A5
100
AcDbEntity
  8
MODEL
100
AcDbVertex
100
AcDb2dVertex
 10
427.0332061245751
 20
693.0894467449447
 30
0.0
  0
SEQEND
  5
72A8
330
72A5
100
AcDbEntity
  8
MODEL
  0
POLYLINE
  5
72A9
330
A
100
AcDbEntity
  8
MODEL
100
AcDb2dPolyline
 66
     1
 10
0.0
 20
0.0
 30
0.0
  0
VERTEX
  5
72AA
330
72A9
100
AcDbEntity
  8
MODEL
100
AcDbVertex
100
AcDb2dVertex
 10
426.5292891196573
 20
693.2783515428208
 30
0.0
  0
VERTEX
  5
72AB
330
72A9
100
AcDbEntity
  8
MODEL
100
AcDbVertex
100
AcDb2dVertex
 10
426.5923428242402
 20
693.1525004495276
 30
0.0
  0
VERTEX
  5
72AC
330
72A9
100
AcDbEntity
  8
MODEL
100
AcDbVertex
100
AcDb2dVertex
 10
426.7184502334057
 20
693.0894467449447
 30
0.0
  0
VERTEX
  5
72AD
330
72A9
100
AcDbEntity
  8
MODEL
100
AcDbVertex
100
AcDb2dVertex
 10
427.0332061245751
 20
693.0894467449447
 30
0.0
  0
SEQEND
  5
72AE
330
72A9
100
AcDbEntity
  8
MODEL
  0
POLYLINE
  5
72AF
330
A
100
AcDbEntity
  8
MODEL
100
AcDb2dPolyline
 66
     1
 10
0.0
 20
0.0
 30
0.0
  0
VERTEX
  5
72B0
330
72AF
100
AcDbEntity
  8
MODEL
100
AcDbVertex
100
AcDb2dVertex
 10
426.4349648786554
 20
694.6011977596982
 30
0.0
  0
VERTEX
  5
72B1
330
72AF
100
AcDbEntity
  8
MODEL
100
AcDbVertex
100
AcDb2dVertex
 10
426.5292891196573
 20
693.2783515428208
 30
0.0
  0
SEQEND
  5
72B2
330
72AF
100
AcDbEntity
  8
MODEL
  0
POLYLINE
  5
72B3
330
A
100
AcDbEntity
  8
MODEL
100
AcDb2dPolyline
 66
     1
 10
0.0
 20
0.0
 30
0.0
  0
VERTEX
  5
72B4
330
72B3
100
AcDbEntity
  8
MODEL
100
AcDbVertex
100
AcDb2dVertex
 10
425.0805918094868
 20
693.3098783951123
 30
0.0
  0
VERTEX
  5
72B5
330
72B3
100
AcDbEntity
  8
MODEL
100
AcDbVertex
100
AcDb2dVertex
 10
425.0175381049039
 20
693.1837709859466
 30
0.0
  0
VERTEX
  5
72B6
330
72B3
100
AcDbEntity
  8
MODEL
100
AcDbVertex
100
AcDb2dVertex
 10
424.8914306957383
 20
693.1209735972361
 30
0.0
  0
SEQEND
  5
72B7
330
72B3
100
AcDbEntity
  8
MODEL
  0
POLYLINE
  5
72B8
330
A
100
AcDbEntity
  8
MODEL
100
AcDb2dPolyline
 66
     1
 10
0.0
 20
0.0
 30
0.0
  0
VERTEX
  5
72B9
330
72B8
100
AcDbEntity
  8
MODEL
100
AcDbVertex
100
AcDb2dVertex
 10
422.0253066118162
 20
693.3098783951123
 30
0.0
  0
VERTEX
  5
72BA
330
72B8
100
AcDbEntity
  8
MODEL
100
AcDbVertex
100
AcDb2dVertex
 10
422.0883603163991
 20
693.1837709859466
 30
0.0
  0
VERTEX
  5
72BB
330
72B8
100
AcDbEntity
  8
MODEL
100
AcDbVertex
100
AcDb2dVertex
 10
422.2457382619837
 20
693.1209735972361
 30
0.0
  0
SEQEND
  5
72BC
330
72B8
100
AcDbEntity
  8
MODEL
  0
POLYLINE
  5
72BD
330
A
100
AcDbEntity
  8
MODEL
100
AcDb2dPolyline
 66
     1
 10
0.0
 20
0.0
 30
0.0
  0
VERTEX
  5
72BE
330
72BD
100
AcDbEntity
  8
MODEL
100
AcDbVertex
100
AcDb2dVertex
 10
424.8914306957383
 20
693.1209735972361
 30
0.0
  0
VERTEX
  5
72BF
330
72BD
100
AcDbEntity
  8
MODEL
100
AcDbVertex
100
AcDb2dVertex
 10
422.2457382619837
 20
693.1209735972361
 30
0.0
  0
SEQEND
  5
72C0
330
72BD
100
AcDbEntity
  8
MODEL
  0
POLYLINE
  5
72C1
330
A
100
AcDbEntity
  8
MODEL
100
AcDb2dPolyline
 66
     1
 10
0.0
 20
0.0
 30
0.0
  0
VERTEX
  5
72C2
330
72C1
100
AcDbEntity
  8
MODEL
100
AcDbVertex
100
AcDb2dVertex
 10
425.1436455140695
 20
694.6327246119896
 30
0.0
  0
VERTEX
  5
72C3
330
72C1
100
AcDbEntity
  8
MODEL
100
AcDbVertex
100
AcDb2dVertex
 10
425.0805918094868
 20
693.3098783951123
 30
0.0
  0
SEQEND
  5
72C4
330
72C1
100
AcDbEntity
  8
MODEL
  0
POLYLINE
  5
72C5
330
A
100
AcDbEntity
  8
MODEL
100
AcDb2dPolyline
 66
     1
 10
0.0
 20
0.0
 30
0.0
  0
VERTEX
  5
72C6
330
72C5
100
AcDbEntity
  8
MODEL
100
AcDbVertex
100
AcDb2dVertex
 10
421.9622529072335
 20
694.6327246119896
 30
0.0
  0
VERTEX
  5
72C7
330
72C5
100
AcDbEntity
  8
MODEL
100
AcDbVertex
100
AcDb2dVertex
 10
422.0253066118162
 20
693.3098783951123
 30
0.0
  0
SEQEND
  5
72C8
330
72C5
100
AcDbEntity
  8
MODEL
  0
POLYLINE
  5
72C9
330
A
100
AcDbEntity
  8
MODEL
100
AcDb2dPolyline
 66
     1
 10
0.0
 20
0.0
 30
0.0
  0
VERTEX
  5
72CA
330
72C9
100
AcDbEntity
  8
MODEL
100
AcDbVertex
100
AcDb2dVertex
 10
420.5766093016457
 20
693.3098783951123
 30
0.0
  0
VERTEX
  5
72CB
330
72C9
100
AcDbEntity
  8
MODEL
100
AcDbVertex
100
AcDb2dVertex
 10
420.5135555970628
 20
693.1837709859466
 30
0.0
  0
VERTEX
  5
72CC
330
72C9
100
AcDbEntity
  8
MODEL
100
AcDbVertex
100
AcDb2dVertex
 10
420.3561776514782
 20
693.1209735972361
 30
0.0
  0
SEQEND
  5
72CD
330
72C9
100
AcDbEntity
  8
MODEL
  0
POLYLINE
  5
72CE
330
A
100
AcDbEntity
  8
MODEL
100
AcDb2dPolyline
 66
     1
 10
0.0
 20
0.0
 30
0.0
  0
VERTEX
  5
72CF
330
72CE
100
AcDbEntity
  8
MODEL
100
AcDbVertex
100
AcDb2dVertex
 10
420.6396630062284
 20
694.6011977596982
 30
0.0
  0
VERTEX
  5
72D0
330
72CE
100
AcDbEntity
  8
MODEL
100
AcDbVertex
100
AcDb2dVertex
 10
420.5766093016457
 20
693.3098783951123
 30
0.0
  0
SEQEND
  5
72D1
330
72CE
100
AcDbEntity
  8
MODEL
  0
POLYLINE
  5
72D2
330
A
100
AcDbEntity
  8
MODEL
100
AcDb2dPolyline
 66
     1
 10
0.0
 20
0.0
 30
0.0
  0
VERTEX
  5
72D3
330
72D2
100
AcDbEntity
  8
MODEL
100
AcDbVertex
100
AcDb2dVertex
 10
435.2850393170083
 20
694.5696709074067
 30
0.0
  0
VERTEX
  5
72D4
330
72D2
100
AcDbEntity
  8
MODEL
100
AcDbVertex
100
AcDb2dVertex
 10
435.2219856124254
 20
693.2783515428208
 30
0.0
  0
VERTEX
  5
72D5
330
72D2
100
AcDbEntity
  8
MODEL
100
AcDbVertex
100
AcDb2dVertex
 10
435.1594445395872
 20
693.1209735972361
 30
0.0
  0
VERTEX
  5
72D6
330
72D2
100
AcDbEntity
  8
MODEL
100
AcDbVertex
100
AcDb2dVertex
 10
435.001553962258
 20
693.0894467449447
 30
0.0
  0
SEQEND
  5
72D7
330
72D2
100
AcDbEntity
  8
MODEL
  0
POLYLINE
  5
72D8
330
A
100
AcDbEntity
  8
MODEL
100
AcDb2dPolyline
 66
     1
 10
0.0
 20
0.0
 30
0.0
  0
VERTEX
  5
72D9
330
72D8
100
AcDbEntity
  8
MODEL
100
AcDbVertex
100
AcDb2dVertex
 10
432.1041593419168
 20
694.5696709074067
 30
0.0
  0
VERTEX
  5
72DA
330
72D8
100
AcDbEntity
  8
MODEL
100
AcDbVertex
100
AcDb2dVertex
 10
432.1672130464995
 20
693.2783515428208
 30
0.0
  0
SEQEND
  5
72DB
330
72D8
100
AcDbEntity
  8
MODEL
  0
POLYLINE
  5
72DC
330
A
100
AcDbEntity
  8
MODEL
100
AcDb2dPolyline
 66
     1
 10
0.0
 20
0.0
 30
0.0
  0
VERTEX
  5
72DD
330
72DC
100
AcDbEntity
  8
MODEL
100
AcDbVertex
100
AcDb2dVertex
 10
432.7024005878366
 20
693.0894467449447
 30
0.0
  0
VERTEX
  5
72DE
330
72DC
100
AcDbEntity
  8
MODEL
100
AcDbVertex
100
AcDb2dVertex
 10
432.3558615285033
 20
693.0894467449447
 30
0.0
  0
SEQEND
  5
72DF
330
72DC
100
AcDbEntity
  8
MODEL
  0
POLYLINE
  5
72E0
330
A
100
AcDbEntity
  8
MODEL
100
AcDb2dPolyline
 66
     1
 10
0.0
 20
0.0
 30
0.0
  0
VERTEX
  5
72E1
330
72E0
100
AcDbEntity
  8
MODEL
100
AcDbVertex
100
AcDb2dVertex
 10
432.1672130464995
 20
693.2783515428208
 30
0.0
  0
VERTEX
  5
72E2
330
72E0
100
AcDbEntity
  8
MODEL
100
AcDbVertex
100
AcDb2dVertex
 10
432.2302667510824
 20
693.1209735972361
 30
0.0
  0
VERTEX
  5
72E3
330
72E0
100
AcDbEntity
  8
MODEL
100
AcDbVertex
100
AcDb2dVertex
 10
432.3558615285033
 20
693.0894467449447
 30
0.0
  0
SEQEND
  5
72E4
330
72E0
100
AcDbEntity
  8
MODEL
  0
POLYLINE
  5
72E5
330
A
100
AcDbEntity
  8
MODEL
100
AcDb2dPolyline
 66
     1
 10
0.0
 20
0.0
 30
0.0
  0
VERTEX
  5
72E6
330
72E5
100
AcDbEntity
  8
MODEL
100
AcDbVertex
100
AcDb2dVertex
 10
435.001553962258
 20
693.0894467449447
 30
0.0
  0
VERTEX
  5
72E7
330
72E5
100
AcDbEntity
  8
MODEL
100
AcDbVertex
100
AcDb2dVertex
 10
432.7024005878366
 20
693.0894467449447
 30
0.0
  0
SEQEND
  5
72E8
330
72E5
100
AcDbEntity
  8
MODEL
  0
POLYLINE
  5
72E9
330
A
100
AcDbEntity
  8
MODEL
100
AcDb2dPolyline
 66
     1
 10
0.0
 20
0.0
 30
0.0
  0
VERTEX
  5
72EA
330
72E9
100
AcDbEntity
  8
MODEL
100
AcDbVertex
100
AcDb2dVertex
 10
429.552791149164
 20
693.2783515428208
 30
0.0
  0
VERTEX
  5
72EB
330
72E9
100
AcDbEntity
  8
MODEL
100
AcDbVertex
100
AcDb2dVertex
 10
429.4897374445814
 20
693.1525004495276
 30
0.0
  0
VERTEX
  5
72EC
330
72E9
100
AcDbEntity
  8
MODEL
100
AcDbVertex
100
AcDb2dVertex
 10
429.3641426671602
 20
693.0894467449447
 30
0.0
  0
SEQEND
  5
72ED
330
72E9
100
AcDbEntity
  8
MODEL
  0
POLYLINE
  5
72EE
330
A
100
AcDbEntity
  8
MODEL
100
AcDb2dPolyline
 66
     1
 10
0.0
 20
0.0
 30
0.0
  0
VERTEX
  5
72EF
330
72EE
100
AcDbEntity
  8
MODEL
100
AcDbVertex
100
AcDb2dVertex
 10
429.6476280219106
 20
694.6011977596982
 30
0.0
  0
VERTEX
  5
72F0
330
72EE
100
AcDbEntity
  8
MODEL
100
AcDbVertex
100
AcDb2dVertex
 10
429.552791149164
 20
693.2783515428208
 30
0.0
  0
SEQEND
  5
72F1
330
72EE
100
AcDbEntity
  8
MODEL
  0
POLYLINE
  5
72F2
330
A
100
AcDbEntity
  8
MODEL
100
AcDb2dPolyline
 66
     1
 10
0.0
 20
0.0
 30
0.0
  0
VERTEX
  5
72F3
330
72F2
100
AcDbEntity
  8
MODEL
100
AcDbVertex
100
AcDb2dVertex
 10
468.8598554279861
 20
693.0894467449447
 30
0.0
  0
VERTEX
  5
72F4
330
72F2
100
AcDbEntity
  8
MODEL
100
AcDbVertex
100
AcDb2dVertex
 10
466.5294315171454
 20
693.0894467449447
 30
0.0
  0
SEQEND
  5
72F5
330
72F2
100
AcDbEntity
  8
MODEL
  0
POLYLINE
  5
72F6
330
A
100
AcDbEntity
  8
MODEL
100
AcDb2dPolyline
 66
     1
 10
0.0
 20
0.0
 30
0.0
  0
VERTEX
  5
72F7
330
72F6
100
AcDbEntity
  8
MODEL
100
AcDbVertex
100
AcDb2dVertex
 10
453.5844547031229
 20
693.026393040362
 30
0.0
  0
VERTEX
  5
72F8
330
72F6
100
AcDbEntity
  8
MODEL
100
AcDbVertex
100
AcDb2dVertex
 10
451.2535181605376
 20
693.026393040362
 30
0.0
  0
SEQEND
  5
72F9
330
72F6
100
AcDbEntity
  8
MODEL
  0
POLYLINE
  5
72FA
330
A
100
AcDbEntity
  8
MODEL
100
AcDb2dPolyline
 66
     1
 10
0.0
 20
0.0
 30
0.0
  0
VERTEX
  5
72FB
330
72FA
100
AcDbEntity
  8
MODEL
100
AcDbVertex
100
AcDb2dVertex
 10
444.5764896874407
 20
693.0579198926533
 30
0.0
  0
VERTEX
  5
72FC
330
72FA
100
AcDbEntity
  8
MODEL
100
AcDbVertex
100
AcDb2dVertex
 10
442.2460657766001
 20
693.0579198926533
 30
0.0
  0
SEQEND
  5
72FD
330
72FA
100
AcDbEntity
  8
MODEL
  0
POLYLINE
  5
72FE
330
A
100
AcDbEntity
  8
MODEL
100
AcDb2dPolyline
 66
     1
 10
0.0
 20
0.0
 30
0.0
  0
VERTEX
  5
72FF
330
72FE
100
AcDbEntity
  8
MODEL
100
AcDbVertex
100
AcDb2dVertex
 10
437.3637610412623
 20
693.0894467449447
 30
0.0
  0
VERTEX
  5
7300
330
72FE
100
AcDbEntity
  8
MODEL
100
AcDbVertex
100
AcDb2dVertex
 10
440.0094534750167
 20
693.0894467449447
 30
0.0
  0
SEQEND
  5
7301
330
72FE
100
AcDbEntity
  8
MODEL
  0
POLYLINE
  5
7302
330
A
100
AcDbEntity
  8
MODEL
100
AcDb2dPolyline
 66
     1
 10
0.0
 20
0.0
 30
0.0
  0
VERTEX
  5
7303
330
7302
100
AcDbEntity
  8
MODEL
100
AcDbVertex
100
AcDb2dVertex
 10
437.1433293910948
 20
693.2783515428208
 30
0.0
  0
VERTEX
  5
7304
330
7302
100
AcDbEntity
  8
MODEL
100
AcDbVertex
100
AcDb2dVertex
 10
437.2063830956774
 20
693.1522441336554
 30
0.0
  0
VERTEX
  5
7305
330
7302
100
AcDbEntity
  8
MODEL
100
AcDbVertex
100
AcDb2dVertex
 10
437.3637610412623
 20
693.0894467449447
 30
0.0
  0
SEQEND
  5
7306
330
7302
100
AcDbEntity
  8
MODEL
  0
POLYLINE
  5
7307
330
A
100
AcDbEntity
  8
MODEL
100
AcDb2dPolyline
 66
     1
 10
0.0
 20
0.0
 30
0.0
  0
VERTEX
  5
7308
330
7307
100
AcDbEntity
  8
MODEL
100
AcDbVertex
100
AcDb2dVertex
 10
440.1986145887652
 20
693.2783515428208
 30
0.0
  0
VERTEX
  5
7309
330
7307
100
AcDbEntity
  8
MODEL
100
AcDbVertex
100
AcDb2dVertex
 10
440.1355608841825
 20
693.1522441336554
 30
0.0
  0
VERTEX
  5
730A
330
7307
100
AcDbEntity
  8
MODEL
100
AcDbVertex
100
AcDb2dVertex
 10
440.0094534750167
 20
693.0894467449447
 30
0.0
  0
SEQEND
  5
730B
330
7307
100
AcDbEntity
  8
MODEL
  0
POLYLINE
  5
730C
330
A
100
AcDbEntity
  8
MODEL
100
AcDb2dPolyline
 66
     1
 10
0.0
 20
0.0
 30
0.0
  0
VERTEX
  5
730D
330
730C
100
AcDbEntity
  8
MODEL
100
AcDbVertex
100
AcDb2dVertex
 10
437.0802756865119
 20
694.6011977596982
 30
0.0
  0
VERTEX
  5
730E
330
730C
100
AcDbEntity
  8
MODEL
100
AcDbVertex
100
AcDb2dVertex
 10
437.1433293910948
 20
693.2783515428208
 30
0.0
  0
SEQEND
  5
730F
330
730C
100
AcDbEntity
  8
MODEL
  0
POLYLINE
  5
7310
330
A
100
AcDbEntity
  8
MODEL
100
AcDb2dPolyline
 66
     1
 10
0.0
 20
0.0
 30
0.0
  0
VERTEX
  5
7311
330
7310
100
AcDbEntity
  8
MODEL
100
AcDbVertex
100
AcDb2dVertex
 10
440.2616682933481
 20
694.6011977596982
 30
0.0
  0
VERTEX
  5
7312
330
7310
100
AcDbEntity
  8
MODEL
100
AcDbVertex
100
AcDb2dVertex
 10
440.1986145887652
 20
693.2783515428208
 30
0.0
  0
SEQEND
  5
7313
330
7310
100
AcDbEntity
  8
MODEL
  0
POLYLINE
  5
7314
330
A
100
AcDbEntity
  8
MODEL
100
AcDb2dPolyline
 66
     1
 10
0.0
 20
0.0
 30
0.0
  0
VERTEX
  5
7315
330
7314
100
AcDbEntity
  8
MODEL
100
AcDbVertex
100
AcDb2dVertex
 10
441.6473118989359
 20
694.5696709074067
 30
0.0
  0
VERTEX
  5
7316
330
7314
100
AcDbEntity
  8
MODEL
100
AcDbVertex
100
AcDb2dVertex
 10
441.7421487716822
 20
693.2468246905295
 30
0.0
  0
SEQEND
  5
7317
330
7314
100
AcDbEntity
  8
MODEL
  0
POLYLINE
  5
7318
330
A
100
AcDbEntity
  8
MODEL
100
AcDb2dPolyline
 66
     1
 10
0.0
 20
0.0
 30
0.0
  0
VERTEX
  5
7319
330
7318
100
AcDbEntity
  8
MODEL
100
AcDbVertex
100
AcDb2dVertex
 10
442.2460657766001
 20
693.0579198926533
 30
0.0
  0
VERTEX
  5
731A
330
7318
100
AcDbEntity
  8
MODEL
100
AcDbVertex
100
AcDb2dVertex
 10
441.930797253686
 20
693.0579198926533
 30
0.0
  0
SEQEND
  5
731B
330
7318
100
AcDbEntity
  8
MODEL
  0
POLYLINE
  5
731C
330
A
100
AcDbEntity
  8
MODEL
100
AcDb2dPolyline
 66
     1
 10
0.0
 20
0.0
 30
0.0
  0
VERTEX
  5
731D
330
731C
100
AcDbEntity
  8
MODEL
100
AcDbVertex
100
AcDb2dVertex
 10
441.7421487716822
 20
693.2468246905295
 30
0.0
  0
VERTEX
  5
731E
330
731C
100
AcDbEntity
  8
MODEL
100
AcDbVertex
100
AcDb2dVertex
 10
441.8052024762651
 20
693.1207172813639
 30
0.0
  0
VERTEX
  5
731F
330
731C
100
AcDbEntity
  8
MODEL
100
AcDbVertex
100
AcDb2dVertex
 10
441.930797253686
 20
693.0579198926533
 30
0.0
  0
SEQEND
  5
7320
330
731C
100
AcDbEntity
  8
MODEL
  0
POLYLINE
  5
7321
330
A
100
AcDbEntity
  8
MODEL
100
AcDb2dPolyline
 66
     1
 10
0.0
 20
0.0
 30
0.0
  0
VERTEX
  5
7322
330
7321
100
AcDbEntity
  8
MODEL
100
AcDbVertex
100
AcDb2dVertex
 10
444.8599750421911
 20
694.5696709074067
 30
0.0
  0
VERTEX
  5
7323
330
7321
100
AcDbEntity
  8
MODEL
100
AcDbVertex
100
AcDb2dVertex
 10
444.7656508011892
 20
693.2468246905295
 30
0.0
  0
VERTEX
  5
7324
330
7321
100
AcDbEntity
  8
MODEL
100
AcDbVertex
100
AcDb2dVertex
 10
444.7025970966063
 20
693.1207172813639
 30
0.0
  0
VERTEX
  5
7325
330
7321
100
AcDbEntity
  8
MODEL
100
AcDbVertex
100
AcDb2dVertex
 10
444.5764896874407
 20
693.0579198926533
 30
0.0
  0
SEQEND
  5
7326
330
7321
100
AcDbEntity
  8
MODEL
  0
POLYLINE
  5
7327
330
A
100
AcDbEntity
  8
MODEL
100
AcDb2dPolyline
 66
     1
 10
0.0
 20
0.0
 30
0.0
  0
VERTEX
  5
7328
330
7327
100
AcDbEntity
  8
MODEL
100
AcDbVertex
100
AcDb2dVertex
 10
446.1830775749406
 20
694.6011977596982
 30
0.0
  0
VERTEX
  5
7329
330
7327
100
AcDbEntity
  8
MODEL
100
AcDbVertex
100
AcDb2dVertex
 10
446.2461312795233
 20
693.2783515428208
 30
0.0
  0
SEQEND
  5
732A
330
7327
100
AcDbEntity
  8
MODEL
  0
POLYLINE
  5
732B
330
A
100
AcDbEntity
  8
MODEL
100
AcDb2dPolyline
 66
     1
 10
0.0
 20
0.0
 30
0.0
  0
VERTEX
  5
732C
330
732B
100
AcDbEntity
  8
MODEL
100
AcDbVertex
100
AcDb2dVertex
 10
449.363957550032
 20
694.6011977596982
 30
0.0
  0
VERTEX
  5
732D
330
732B
100
AcDbEntity
  8
MODEL
100
AcDbVertex
100
AcDb2dVertex
 10
449.3009038454493
 20
693.2783515428208
 30
0.0
  0
SEQEND
  5
732E
330
732B
100
AcDbEntity
  8
MODEL
  0
POLYLINE
  5
732F
330
A
100
AcDbEntity
  8
MODEL
100
AcDb2dPolyline
 66
     1
 10
0.0
 20
0.0
 30
0.0
  0
VERTEX
  5
7330
330
732F
100
AcDbEntity
  8
MODEL
100
AcDbVertex
100
AcDb2dVertex
 10
446.4665629296908
 20
693.0894467449447
 30
0.0
  0
VERTEX
  5
7331
330
732F
100
AcDbEntity
  8
MODEL
100
AcDbVertex
100
AcDb2dVertex
 10
449.1122553634455
 20
693.0894467449447
 30
0.0
  0
SEQEND
  5
7332
330
732F
100
AcDbEntity
  8
MODEL
  0
POLYLINE
  5
7333
330
A
100
AcDbEntity
  8
MODEL
100
AcDb2dPolyline
 66
     1
 10
0.0
 20
0.0
 30
0.0
  0
VERTEX
  5
7334
330
7333
100
AcDbEntity
  8
MODEL
100
AcDbVertex
100
AcDb2dVertex
 10
446.2461312795233
 20
693.2783515428208
 30
0.0
  0
VERTEX
  5
7335
330
7333
100
AcDbEntity
  8
MODEL
100
AcDbVertex
100
AcDb2dVertex
 10
446.3086723523616
 20
693.1522441336554
 30
0.0
  0
VERTEX
  5
7336
330
7333
100
AcDbEntity
  8
MODEL
100
AcDbVertex
100
AcDb2dVertex
 10
446.4665629296908
 20
693.0894467449447
 30
0.0
  0
SEQEND
  5
7337
330
7333
100
AcDbEntity
  8
MODEL
  0
POLYLINE
  5
7338
330
A
100
AcDbEntity
  8
MODEL
100
AcDb2dPolyline
 66
     1
 10
0.0
 20
0.0
 30
0.0
  0
VERTEX
  5
7339
330
7338
100
AcDbEntity
  8
MODEL
100
AcDbVertex
100
AcDb2dVertex
 10
449.3009038454493
 20
693.2783515428208
 30
0.0
  0
VERTEX
  5
733A
330
7338
100
AcDbEntity
  8
MODEL
100
AcDbVertex
100
AcDb2dVertex
 10
449.2378501408664
 20
693.1522441336554
 30
0.0
  0
VERTEX
  5
733B
330
7338
100
AcDbEntity
  8
MODEL
100
AcDbVertex
100
AcDb2dVertex
 10
449.1122553634455
 20
693.0894467449447
 30
0.0
  0
SEQEND
  5
733C
330
7338
100
AcDbEntity
  8
MODEL
  0
POLYLINE
  5
733D
330
A
100
AcDbEntity
  8
MODEL
100
AcDb2dPolyline
 66
     1
 10
0.0
 20
0.0
 30
0.0
  0
VERTEX
  5
733E
330
733D
100
AcDbEntity
  8
MODEL
100
AcDbVertex
100
AcDb2dVertex
 10
450.6552769146178
 20
694.5381440551154
 30
0.0
  0
VERTEX
  5
733F
330
733D
100
AcDbEntity
  8
MODEL
100
AcDbVertex
100
AcDb2dVertex
 10
450.7183306192007
 20
693.215297838238
 30
0.0
  0
SEQEND
  5
7340
330
733D
100
AcDbEntity
  8
MODEL
  0
POLYLINE
  5
7341
330
A
100
AcDbEntity
  8
MODEL
100
AcDb2dPolyline
 66
     1
 10
0.0
 20
0.0
 30
0.0
  0
VERTEX
  5
7342
330
7341
100
AcDbEntity
  8
MODEL
100
AcDbVertex
100
AcDb2dVertex
 10
451.2540307922823
 20
693.026393040362
 30
0.0
  0
VERTEX
  5
7343
330
7341
100
AcDbEntity
  8
MODEL
100
AcDbVertex
100
AcDb2dVertex
 10
450.9387622693682
 20
693.026393040362
 30
0.0
  0
SEQEND
  5
7344
330
7341
100
AcDbEntity
  8
MODEL
  0
POLYLINE
  5
7345
330
A
100
AcDbEntity
  8
MODEL
100
AcDb2dPolyline
 66
     1
 10
0.0
 20
0.0
 30
0.0
  0
VERTEX
  5
7346
330
7345
100
AcDbEntity
  8
MODEL
100
AcDbVertex
100
AcDb2dVertex
 10
450.7183306192007
 20
693.215297838238
 30
0.0
  0
VERTEX
  5
7347
330
7345
100
AcDbEntity
  8
MODEL
100
AcDbVertex
100
AcDb2dVertex
 10
450.7813843237834
 20
693.0894467449447
 30
0.0
  0
VERTEX
  5
7348
330
7345
100
AcDbEntity
  8
MODEL
100
AcDbVertex
100
AcDb2dVertex
 10
450.9387622693682
 20
693.026393040362
 30
0.0
  0
SEQEND
  5
7349
330
7345
100
AcDbEntity
  8
MODEL
  0
POLYLINE
  5
734A
330
A
100
AcDbEntity
  8
MODEL
100
AcDb2dPolyline
 66
     1
 10
0.0
 20
0.0
 30
0.0
  0
VERTEX
  5
734B
330
734A
100
AcDbEntity
  8
MODEL
100
AcDbVertex
100
AcDb2dVertex
 10
459.5689176892981
 20
694.6011977596982
 30
0.0
  0
VERTEX
  5
734C
330
734A
100
AcDbEntity
  8
MODEL
100
AcDbVertex
100
AcDb2dVertex
 10
459.5058639847155
 20
693.3098783951123
 30
0.0
  0
VERTEX
  5
734D
330
734A
100
AcDbEntity
  8
MODEL
100
AcDbVertex
100
AcDb2dVertex
 10
459.4428102801326
 20
693.1522441336554
 30
0.0
  0
VERTEX
  5
734E
330
734A
100
AcDbEntity
  8
MODEL
100
AcDbVertex
100
AcDb2dVertex
 10
459.285432334548
 20
693.1207172813639
 30
0.0
  0
SEQEND
  5
734F
330
734A
100
AcDbEntity
  8
MODEL
  0
POLYLINE
  5
7350
330
A
100
AcDbEntity
  8
MODEL
100
AcDb2dPolyline
 66
     1
 10
0.0
 20
0.0
 30
0.0
  0
VERTEX
  5
7351
330
7350
100
AcDbEntity
  8
MODEL
100
AcDbVertex
100
AcDb2dVertex
 10
456.3875250824622
 20
694.6011977596982
 30
0.0
  0
VERTEX
  5
7352
330
7350
100
AcDbEntity
  8
MODEL
100
AcDbVertex
100
AcDb2dVertex
 10
456.4505787870448
 20
693.3098783951123
 30
0.0
  0
SEQEND
  5
7353
330
7350
100
AcDbEntity
  8
MODEL
  0
POLYLINE
  5
7354
330
A
100
AcDbEntity
  8
MODEL
100
AcDb2dPolyline
 66
     1
 10
0.0
 20
0.0
 30
0.0
  0
VERTEX
  5
7355
330
7354
100
AcDbEntity
  8
MODEL
100
AcDbVertex
100
AcDb2dVertex
 10
456.9544957919627
 20
693.1207172813639
 30
0.0
  0
VERTEX
  5
7356
330
7354
100
AcDbEntity
  8
MODEL
100
AcDbVertex
100
AcDb2dVertex
 10
456.6397399007933
 20
693.1207172813639
 30
0.0
  0
SEQEND
  5
7357
330
7354
100
AcDbEntity
  8
MODEL
  0
POLYLINE
  5
7358
330
A
100
AcDbEntity
  8
MODEL
100
AcDb2dPolyline
 66
     1
 10
0.0
 20
0.0
 30
0.0
  0
VERTEX
  5
7359
330
7358
100
AcDbEntity
  8
MODEL
100
AcDbVertex
100
AcDb2dVertex
 10
456.4505787870448
 20
693.3098783951123
 30
0.0
  0
VERTEX
  5
735A
330
7358
100
AcDbEntity
  8
MODEL
100
AcDbVertex
100
AcDb2dVertex
 10
456.5136324916277
 20
693.1522441336554
 30
0.0
  0
VERTEX
  5
735B
330
7358
100
AcDbEntity
  8
MODEL
100
AcDbVertex
100
AcDb2dVertex
 10
456.6397399007933
 20
693.1207172813639
 30
0.0
  0
SEQEND
  5
735C
330
7358
100
AcDbEntity
  8
MODEL
  0
POLYLINE
  5
735D
330
A
100
AcDbEntity
  8
MODEL
100
AcDb2dPolyline
 66
     1
 10
0.0
 20
0.0
 30
0.0
  0
VERTEX
  5
735E
330
735D
100
AcDbEntity
  8
MODEL
100
AcDbVertex
100
AcDb2dVertex
 10
459.285432334548
 20
693.1207172813639
 30
0.0
  0
VERTEX
  5
735F
330
735D
100
AcDbEntity
  8
MODEL
100
AcDbVertex
100
AcDb2dVertex
 10
456.9544957919627
 20
693.1207172813639
 30
0.0
  0
SEQEND
  5
7360
330
735D
100
AcDbEntity
  8
MODEL
  0
POLYLINE
  5
7361
330
A
100
AcDbEntity
  8
MODEL
100
AcDb2dPolyline
 66
     1
 10
0.0
 20
0.0
 30
0.0
  0
VERTEX
  5
7362
330
7361
100
AcDbEntity
  8
MODEL
100
AcDbVertex
100
AcDb2dVertex
 10
453.836669521454
 20
694.5381440551154
 30
0.0
  0
VERTEX
  5
7363
330
7361
100
AcDbEntity
  8
MODEL
100
AcDbVertex
100
AcDb2dVertex
 10
453.7736158168711
 20
693.215297838238
 30
0.0
  0
VERTEX
  5
7364
330
7361
100
AcDbEntity
  8
MODEL
100
AcDbVertex
100
AcDb2dVertex
 10
453.7105621122885
 20
693.0894467449447
 30
0.0
  0
VERTEX
  5
7365
330
7361
100
AcDbEntity
  8
MODEL
100
AcDbVertex
100
AcDb2dVertex
 10
453.5844547031229
 20
693.026393040362
 30
0.0
  0
SEQEND
  5
7366
330
7361
100
AcDbEntity
  8
MODEL
  0
POLYLINE
  5
7367
330
A
100
AcDbEntity
  8
MODEL
100
AcDb2dPolyline
 66
     1
 10
0.0
 20
0.0
 30
0.0
  0
VERTEX
  5
7368
330
7367
100
AcDbEntity
  8
MODEL
100
AcDbVertex
100
AcDb2dVertex
 10
461.647639413552
 20
693.1207172813639
 30
0.0
  0
VERTEX
  5
7369
330
7367
100
AcDbEntity
  8
MODEL
100
AcDbVertex
100
AcDb2dVertex
 10
464.2933318473067
 20
693.1207172813639
 30
0.0
  0
SEQEND
  5
736A
330
7367
100
AcDbEntity
  8
MODEL
  0
POLYLINE
  5
736B
330
A
100
AcDbEntity
  8
MODEL
100
AcDb2dPolyline
 66
     1
 10
0.0
 20
0.0
 30
0.0
  0
VERTEX
  5
736C
330
736B
100
AcDbEntity
  8
MODEL
100
AcDbVertex
100
AcDb2dVertex
 10
461.4272077633846
 20
693.3098783951123
 30
0.0
  0
VERTEX
  5
736D
330
736B
100
AcDbEntity
  8
MODEL
100
AcDbVertex
100
AcDb2dVertex
 10
461.4902614679675
 20
693.1837709859466
 30
0.0
  0
VERTEX
  5
736E
330
736B
100
AcDbEntity
  8
MODEL
100
AcDbVertex
100
AcDb2dVertex
 10
461.647639413552
 20
693.1207172813639
 30
0.0
  0
SEQEND
  5
736F
330
736B
100
AcDbEntity
  8
MODEL
  0
POLYLINE
  5
7370
330
A
100
AcDbEntity
  8
MODEL
100
AcDb2dPolyline
 66
     1
 10
0.0
 20
0.0
 30
0.0
  0
VERTEX
  5
7371
330
7370
100
AcDbEntity
  8
MODEL
100
AcDbVertex
100
AcDb2dVertex
 10
464.4819803293105
 20
693.3098783951123
 30
0.0
  0
VERTEX
  5
7372
330
7370
100
AcDbEntity
  8
MODEL
100
AcDbVertex
100
AcDb2dVertex
 10
464.4189266247276
 20
693.1837709859466
 30
0.0
  0
VERTEX
  5
7373
330
7370
100
AcDbEntity
  8
MODEL
100
AcDbVertex
100
AcDb2dVertex
 10
464.2933318473067
 20
693.1207172813639
 30
0.0
  0
SEQEND
  5
7374
330
7370
100
AcDbEntity
  8
MODEL
  0
POLYLINE
  5
7375
330
A
100
AcDbEntity
  8
MODEL
100
AcDb2dPolyline
 66
     1
 10
0.0
 20
0.0
 30
0.0
  0
VERTEX
  5
7376
330
7375
100
AcDbEntity
  8
MODEL
100
AcDbVertex
100
AcDb2dVertex
 10
461.3641540588019
 20
694.6327246119896
 30
0.0
  0
VERTEX
  5
7377
330
7375
100
AcDbEntity
  8
MODEL
100
AcDbVertex
100
AcDb2dVertex
 10
461.4272077633846
 20
693.3098783951123
 30
0.0
  0
SEQEND
  5
7378
330
7375
100
AcDbEntity
  8
MODEL
  0
POLYLINE
  5
7379
330
A
100
AcDbEntity
  8
MODEL
100
AcDb2dPolyline
 66
     1
 10
0.0
 20
0.0
 30
0.0
  0
VERTEX
  5
737A
330
7379
100
AcDbEntity
  8
MODEL
100
AcDbVertex
100
AcDb2dVertex
 10
464.5450340338932
 20
694.6327246119896
 30
0.0
  0
VERTEX
  5
737B
330
7379
100
AcDbEntity
  8
MODEL
100
AcDbVertex
100
AcDb2dVertex
 10
464.4819803293105
 20
693.3098783951123
 30
0.0
  0
SEQEND
  5
737C
330
7379
100
AcDbEntity
  8
MODEL
  0
POLYLINE
  5
737D
330
A
100
AcDbEntity
  8
MODEL
100
AcDb2dPolyline
 66
     1
 10
0.0
 20
0.0
 30
0.0
  0
VERTEX
  5
737E
330
737D
100
AcDbEntity
  8
MODEL
100
AcDbVertex
100
AcDb2dVertex
 10
465.9311902712257
 20
694.6011977596982
 30
0.0
  0
VERTEX
  5
737F
330
737D
100
AcDbEntity
  8
MODEL
100
AcDbVertex
100
AcDb2dVertex
 10
465.9937313440639
 20
693.2783515428208
 30
0.0
  0
SEQEND
  5
7380
330
737D
100
AcDbEntity
  8
MODEL
  0
POLYLINE
  5
7381
330
A
100
AcDbEntity
  8
MODEL
100
AcDb2dPolyline
 66
     1
 10
0.0
 20
0.0
 30
0.0
  0
VERTEX
  5
7382
330
7381
100
AcDbEntity
  8
MODEL
100
AcDbVertex
100
AcDb2dVertex
 10
466.5294315171454
 20
693.0891904290726
 30
0.0
  0
VERTEX
  5
7383
330
7381
100
AcDbEntity
  8
MODEL
100
AcDbVertex
100
AcDb2dVertex
 10
466.214675625976
 20
693.0891904290726
 30
0.0
  0
SEQEND
  5
7384
330
7381
100
AcDbEntity
  8
MODEL
  0
POLYLINE
  5
7385
330
A
100
AcDbEntity
  8
MODEL
100
AcDb2dPolyline
 66
     1
 10
0.0
 20
0.0
 30
0.0
  0
VERTEX
  5
7386
330
7385
100
AcDbEntity
  8
MODEL
100
AcDbVertex
100
AcDb2dVertex
 10
465.9937313440639
 20
693.2783515428208
 30
0.0
  0
VERTEX
  5
7387
330
7385
100
AcDbEntity
  8
MODEL
100
AcDbVertex
100
AcDb2dVertex
 10
466.0567850486468
 20
693.1522441336554
 30
0.0
  0
VERTEX
  5
7388
330
7385
100
AcDbEntity
  8
MODEL
100
AcDbVertex
100
AcDb2dVertex
 10
466.214675625976
 20
693.0891904290726
 30
0.0
  0
SEQEND
  5
7389
330
7385
100
AcDbEntity
  8
MODEL
  0
POLYLINE
  5
738A
330
A
100
AcDbEntity
  8
MODEL
100
AcDb2dPolyline
 66
     1
 10
0.0
 20
0.0
 30
0.0
  0
VERTEX
  5
738B
330
738A
100
AcDbEntity
  8
MODEL
100
AcDbVertex
100
AcDb2dVertex
 10
477.8678204436681
 20
693.057663576781
 30
0.0
  0
VERTEX
  5
738C
330
738A
100
AcDbEntity
  8
MODEL
100
AcDbVertex
100
AcDb2dVertex
 10
475.5373965328274
 20
693.057663576781
 30
0.0
  0
SEQEND
  5
738D
330
738A
100
AcDbEntity
  8
MODEL
  0
POLYLINE
  5
738E
330
A
100
AcDbEntity
  8
MODEL
100
AcDb2dPolyline
 66
     1
 10
0.0
 20
0.0
 30
0.0
  0
VERTEX
  5
738F
330
738E
100
AcDbEntity
  8
MODEL
100
AcDbVertex
100
AcDb2dVertex
 10
469.1120702463172
 20
694.6011977596982
 30
0.0
  0
VERTEX
  5
7390
330
738E
100
AcDbEntity
  8
MODEL
100
AcDbVertex
100
AcDb2dVertex
 10
469.0490165417343
 20
693.2783515428208
 30
0.0
  0
VERTEX
  5
7391
330
738E
100
AcDbEntity
  8
MODEL
100
AcDbVertex
100
AcDb2dVertex
 10
468.9859628371516
 20
693.1522441336554
 30
0.0
  0
VERTEX
  5
7392
330
738E
100
AcDbEntity
  8
MODEL
100
AcDbVertex
100
AcDb2dVertex
 10
468.8598554279861
 20
693.0891904290726
 30
0.0
  0
SEQEND
  5
7393
330
738E
100
AcDbEntity
  8
MODEL
  0
POLYLINE
  5
7394
330
A
100
AcDbEntity
  8
MODEL
100
AcDb2dPolyline
 66
     1
 10
0.0
 20
0.0
 30
0.0
  0
VERTEX
  5
7395
330
7394
100
AcDbEntity
  8
MODEL
100
AcDbVertex
100
AcDb2dVertex
 10
470.466443315486
 20
694.6324682961173
 30
0.0
  0
VERTEX
  5
7396
330
7394
100
AcDbEntity
  8
MODEL
100
AcDbVertex
100
AcDb2dVertex
 10
470.5294970200687
 20
693.3098783951123
 30
0.0
  0
SEQEND
  5
7397
330
7394
100
AcDbEntity
  8
MODEL
  0
POLYLINE
  5
7398
330
A
100
AcDbEntity
  8
MODEL
100
AcDb2dPolyline
 66
     1
 10
0.0
 20
0.0
 30
0.0
  0
VERTEX
  5
7399
330
7398
100
AcDbEntity
  8
MODEL
100
AcDbVertex
100
AcDb2dVertex
 10
473.6473232905773
 20
694.6324682961173
 30
0.0
  0
VERTEX
  5
739A
330
7398
100
AcDbEntity
  8
MODEL
100
AcDbVertex
100
AcDb2dVertex
 10
473.5842695859947
 20
693.3098783951123
 30
0.0
  0
SEQEND
  5
739B
330
7398
100
AcDbEntity
  8
MODEL
  0
POLYLINE
  5
739C
330
A
100
AcDbEntity
  8
MODEL
100
AcDb2dPolyline
 66
     1
 10
0.0
 20
0.0
 30
0.0
  0
VERTEX
  5
739D
330
739C
100
AcDbEntity
  8
MODEL
100
AcDbVertex
100
AcDb2dVertex
 10
470.7181455020725
 20
693.1207172813639
 30
0.0
  0
VERTEX
  5
739E
330
739C
100
AcDbEntity
  8
MODEL
100
AcDbVertex
100
AcDb2dVertex
 10
473.3956211039908
 20
693.1207172813639
 30
0.0
  0
SEQEND
  5
739F
330
739C
100
AcDbEntity
  8
MODEL
  0
POLYLINE
  5
73A0
330
A
100
AcDbEntity
  8
MODEL
100
AcDb2dPolyline
 66
     1
 10
0.0
 20
0.0
 30
0.0
  0
VERTEX
  5
73A1
330
73A0
100
AcDbEntity
  8
MODEL
100
AcDbVertex
100
AcDb2dVertex
 10
470.5294970200687
 20
693.3098783951123
 30
0.0
  0
VERTEX
  5
73A2
330
73A0
100
AcDbEntity
  8
MODEL
100
AcDbVertex
100
AcDb2dVertex
 10
470.5925507246516
 20
693.1837709859466
 30
0.0
  0
VERTEX
  5
73A3
330
73A0
100
AcDbEntity
  8
MODEL
100
AcDbVertex
100
AcDb2dVertex
 10
470.7181455020725
 20
693.1207172813639
 30
0.0
  0
SEQEND
  5
73A4
330
73A0
100
AcDbEntity
  8
MODEL
  0
POLYLINE
  5
73A5
330
A
100
AcDbEntity
  8
MODEL
100
AcDb2dPolyline
 66
     1
 10
0.0
 20
0.0
 30
0.0
  0
VERTEX
  5
73A6
330
73A5
100
AcDbEntity
  8
MODEL
100
AcDbVertex
100
AcDb2dVertex
 10
473.5847822177391
 20
693.3098783951123
 30
0.0
  0
VERTEX
  5
73A7
330
73A5
100
AcDbEntity
  8
MODEL
100
AcDbVertex
100
AcDb2dVertex
 10
473.5217285131564
 20
693.1837709859466
 30
0.0
  0
VERTEX
  5
73A8
330
73A5
100
AcDbEntity
  8
MODEL
100
AcDbVertex
100
AcDb2dVertex
 10
473.3956211039908
 20
693.1207172813639
 30
0.0
  0
SEQEND
  5
73A9
330
73A5
100
AcDbEntity
  8
MODEL
  0
POLYLINE
  5
73AA
330
A
100
AcDbEntity
  8
MODEL
100
AcDb2dPolyline
 66
     1
 10
0.0
 20
0.0
 30
0.0
  0
VERTEX
  5
73AB
330
73AA
100
AcDbEntity
  8
MODEL
100
AcDbVertex
100
AcDb2dVertex
 10
474.9386426551632
 20
694.5696709074067
 30
0.0
  0
VERTEX
  5
73AC
330
73AA
100
AcDbEntity
  8
MODEL
100
AcDbVertex
100
AcDb2dVertex
 10
475.0016963597461
 20
693.2468246905295
 30
0.0
  0
SEQEND
  5
73AD
330
73AA
100
AcDbEntity
  8
MODEL
  0
POLYLINE
  5
73AE
330
A
100
AcDbEntity
  8
MODEL
100
AcDb2dPolyline
 66
     1
 10
0.0
 20
0.0
 30
0.0
  0
VERTEX
  5
73AF
330
73AE
100
AcDbEntity
  8
MODEL
100
AcDbVertex
100
AcDb2dVertex
 10
475.5373965328274
 20
693.057663576781
 30
0.0
  0
VERTEX
  5
73B0
330
73AE
100
AcDbEntity
  8
MODEL
100
AcDbVertex
100
AcDb2dVertex
 10
475.2221280099136
 20
693.057663576781
 30
0.0
  0
SEQEND
  5
73B1
330
73AE
100
AcDbEntity
  8
MODEL
  0
POLYLINE
  5
73B2
330
A
100
AcDbEntity
  8
MODEL
100
AcDb2dPolyline
 66
     1
 10
0.0
 20
0.0
 30
0.0
  0
VERTEX
  5
73B3
330
73B2
100
AcDbEntity
  8
MODEL
100
AcDbVertex
100
AcDb2dVertex
 10
475.0016963597461
 20
693.2468246905295
 30
0.0
  0
VERTEX
  5
73B4
330
73B2
100
AcDbEntity
  8
MODEL
100
AcDbVertex
100
AcDb2dVertex
 10
475.0647500643288
 20
693.1207172813639
 30
0.0
  0
VERTEX
  5
73B5
330
73B2
100
AcDbEntity
  8
MODEL
100
AcDbVertex
100
AcDb2dVertex
 10
475.2221280099136
 20
693.057663576781
 30
0.0
  0
SEQEND
  5
73B6
330
73B2
100
AcDbEntity
  8
MODEL
  0
POLYLINE
  5
73B7
330
A
100
AcDbEntity
  8
MODEL
100
AcDb2dPolyline
 66
     1
 10
0.0
 20
0.0
 30
0.0
  0
VERTEX
  5
73B8
330
73B7
100
AcDbEntity
  8
MODEL
100
AcDbVertex
100
AcDb2dVertex
 10
483.4114201295085
 20
694.6011977596982
 30
0.0
  0
VERTEX
  5
73B9
330
73B7
100
AcDbEntity
  8
MODEL
100
AcDbVertex
100
AcDb2dVertex
 10
483.316583256762
 20
693.2783515428208
 30
0.0
  0
VERTEX
  5
73BA
330
73B7
100
AcDbEntity
  8
MODEL
100
AcDbVertex
100
AcDb2dVertex
 10
483.285312720343
 20
693.1522441336554
 30
0.0
  0
VERTEX
  5
73BB
330
73B7
100
AcDbEntity
  8
MODEL
100
AcDbVertex
100
AcDb2dVertex
 10
483.1279347747582
 20
693.0891904290726
 30
0.0
  0
SEQEND
  5
73BC
330
73B7
100
AcDbEntity
  8
MODEL
  0
POLYLINE
  5
73BD
330
A
100
AcDbEntity
  8
MODEL
100
AcDb2dPolyline
 66
     1
 10
0.0
 20
0.0
 30
0.0
  0
VERTEX
  5
73BE
330
73BD
100
AcDbEntity
  8
MODEL
100
AcDbVertex
100
AcDb2dVertex
 10
480.2300275226723
 20
694.6011977596982
 30
0.0
  0
VERTEX
  5
73BF
330
73BD
100
AcDbEntity
  8
MODEL
100
AcDbVertex
100
AcDb2dVertex
 10
480.2930812272552
 20
693.2783515428208
 30
0.0
  0
SEQEND
  5
73C0
330
73BD
100
AcDbEntity
  8
MODEL
  0
POLYLINE
  5
73C1
330
A
100
AcDbEntity
  8
MODEL
100
AcDb2dPolyline
 66
     1
 10
0.0
 20
0.0
 30
0.0
  0
VERTEX
  5
73C2
330
73C1
100
AcDbEntity
  8
MODEL
100
AcDbVertex
100
AcDb2dVertex
 10
480.7969982321731
 20
693.0891904290726
 30
0.0
  0
VERTEX
  5
73C3
330
73C1
100
AcDbEntity
  8
MODEL
100
AcDbVertex
100
AcDb2dVertex
 10
480.4822423410035
 20
693.0891904290726
 30
0.0
  0
SEQEND
  5
73C4
330
73C1
100
AcDbEntity
  8
MODEL
  0
POLYLINE
  5
73C5
330
A
100
AcDbEntity
  8
MODEL
100
AcDb2dPolyline
 66
     1
 10
0.0
 20
0.0
 30
0.0
  0
VERTEX
  5
73C6
330
73C5
100
AcDbEntity
  8
MODEL
100
AcDbVertex
100
AcDb2dVertex
 10
480.2930812272552
 20
693.2780952269485
 30
0.0
  0
VERTEX
  5
73C7
330
73C5
100
AcDbEntity
  8
MODEL
100
AcDbVertex
100
AcDb2dVertex
 10
480.3561349318381
 20
693.1522441336554
 30
0.0
  0
VERTEX
  5
73C8
330
73C5
100
AcDbEntity
  8
MODEL
100
AcDbVertex
100
AcDb2dVertex
 10
480.4822423410035
 20
693.0891904290726
 30
0.0
  0
SEQEND
  5
73C9
330
73C5
100
AcDbEntity
  8
MODEL
  0
POLYLINE
  5
73CA
330
A
100
AcDbEntity
  8
MODEL
100
AcDb2dPolyline
 66
     1
 10
0.0
 20
0.0
 30
0.0
  0
VERTEX
  5
73CB
330
73CA
100
AcDbEntity
  8
MODEL
100
AcDbVertex
100
AcDb2dVertex
 10
483.1279347747582
 20
693.0891904290726
 30
0.0
  0
VERTEX
  5
73CC
330
73CA
100
AcDbEntity
  8
MODEL
100
AcDbVertex
100
AcDb2dVertex
 10
480.7969982321731
 20
693.0891904290726
 30
0.0
  0
SEQEND
  5
73CD
330
73CA
100
AcDbEntity
  8
MODEL
  0
POLYLINE
  5
73CE
330
A
100
AcDbEntity
  8
MODEL
100
AcDb2dPolyline
 66
     1
 10
0.0
 20
0.0
 30
0.0
  0
VERTEX
  5
73CF
330
73CE
100
AcDbEntity
  8
MODEL
100
AcDbVertex
100
AcDb2dVertex
 10
478.1200352619994
 20
694.5696709074067
 30
0.0
  0
VERTEX
  5
73D0
330
73CE
100
AcDbEntity
  8
MODEL
100
AcDbVertex
100
AcDb2dVertex
 10
478.0569815574165
 20
693.2468246905295
 30
0.0
  0
VERTEX
  5
73D1
330
73CE
100
AcDbEntity
  8
MODEL
100
AcDbVertex
100
AcDb2dVertex
 10
477.9939278528338
 20
693.1207172813639
 30
0.0
  0
VERTEX
  5
73D2
330
73CE
100
AcDbEntity
  8
MODEL
100
AcDbVertex
100
AcDb2dVertex
 10
477.8678204436681
 20
693.057663576781
 30
0.0
  0
SEQEND
  5
73D3
330
73CE
100
AcDbEntity
  8
MODEL
  0
POLYLINE
  5
73D4
330
A
100
AcDbEntity
  8
MODEL
100
AcDb2dPolyline
 66
     1
 10
0.0
 20
0.0
 30
0.0
  0
VERTEX
  5
73D5
330
73D4
100
AcDbEntity
  8
MODEL
100
AcDbVertex
100
AcDb2dVertex
 10
492.9545726865274
 20
694.6011977596982
 30
0.0
  0
VERTEX
  5
73D6
330
73D4
100
AcDbEntity
  8
MODEL
100
AcDbVertex
100
AcDb2dVertex
 10
492.8915189819447
 20
693.2783515428208
 30
0.0
  0
VERTEX
  5
73D7
330
73D4
100
AcDbEntity
  8
MODEL
100
AcDbVertex
100
AcDb2dVertex
 10
492.8284652773621
 20
693.1522441336554
 30
0.0
  0
VERTEX
  5
73D8
330
73D4
100
AcDbEntity
  8
MODEL
100
AcDbVertex
100
AcDb2dVertex
 10
492.7028704999409
 20
693.0891904290726
 30
0.0
  0
SEQEND
  5
73D9
330
73D4
100
AcDbEntity
  8
MODEL
  0
POLYLINE
  5
73DA
330
A
100
AcDbEntity
  8
MODEL
100
AcDb2dPolyline
 66
     1
 10
0.0
 20
0.0
 30
0.0
  0
VERTEX
  5
73DB
330
73DA
100
AcDbEntity
  8
MODEL
100
AcDbVertex
100
AcDb2dVertex
 10
485.4901418537625
 20
693.1207172813639
 30
0.0
  0
VERTEX
  5
73DC
330
73DA
100
AcDbEntity
  8
MODEL
100
AcDbVertex
100
AcDb2dVertex
 10
488.1358342875171
 20
693.1207172813639
 30
0.0
  0
SEQEND
  5
73DD
330
73DA
100
AcDbEntity
  8
MODEL
  0
POLYLINE
  5
73DE
330
A
100
AcDbEntity
  8
MODEL
100
AcDb2dPolyline
 66
     1
 10
0.0
 20
0.0
 30
0.0
  0
VERTEX
  5
73DF
330
73DE
100
AcDbEntity
  8
MODEL
100
AcDbVertex
100
AcDb2dVertex
 10
485.269710203595
 20
693.3096220792401
 30
0.0
  0
VERTEX
  5
73E0
330
73DE
100
AcDbEntity
  8
MODEL
100
AcDbVertex
100
AcDb2dVertex
 10
485.3327639081779
 20
693.1522441336554
 30
0.0
  0
VERTEX
  5
73E1
330
73DE
100
AcDbEntity
  8
MODEL
100
AcDbVertex
100
AcDb2dVertex
 10
485.4901418537625
 20
693.1207172813639
 30
0.0
  0
SEQEND
  5
73E2
330
73DE
100
AcDbEntity
  8
MODEL
  0
POLYLINE
  5
73E3
330
A
100
AcDbEntity
  8
MODEL
100
AcDb2dPolyline
 66
     1
 10
0.0
 20
0.0
 30
0.0
  0
VERTEX
  5
73E4
330
73E3
100
AcDbEntity
  8
MODEL
100
AcDbVertex
100
AcDb2dVertex
 10
488.324482769521
 20
693.3096220792401
 30
0.0
  0
VERTEX
  5
73E5
330
73E3
100
AcDbEntity
  8
MODEL
100
AcDbVertex
100
AcDb2dVertex
 10
488.2619416966827
 20
693.1522441336554
 30
0.0
  0
VERTEX
  5
73E6
330
73E3
100
AcDbEntity
  8
MODEL
100
AcDbVertex
100
AcDb2dVertex
 10
488.1358342875171
 20
693.1207172813639
 30
0.0
  0
SEQEND
  5
73E7
330
73E3
100
AcDbEntity
  8
MODEL
  0
POLYLINE
  5
73E8
330
A
100
AcDbEntity
  8
MODEL
100
AcDb2dPolyline
 66
     1
 10
0.0
 20
0.0
 30
0.0
  0
VERTEX
  5
73E9
330
73E8
100
AcDbEntity
  8
MODEL
100
AcDbVertex
100
AcDb2dVertex
 10
485.2066564990121
 20
694.6009414438258
 30
0.0
  0
VERTEX
  5
73EA
330
73E8
100
AcDbEntity
  8
MODEL
100
AcDbVertex
100
AcDb2dVertex
 10
485.269710203595
 20
693.3096220792401
 30
0.0
  0
SEQEND
  5
73EB
330
73E8
100
AcDbEntity
  8
MODEL
  0
POLYLINE
  5
73EC
330
A
100
AcDbEntity
  8
MODEL
100
AcDb2dPolyline
 66
     1
 10
0.0
 20
0.0
 30
0.0
  0
VERTEX
  5
73ED
330
73EC
100
AcDbEntity
  8
MODEL
100
AcDbVertex
100
AcDb2dVertex
 10
488.3875364741036
 20
694.6009414438258
 30
0.0
  0
VERTEX
  5
73EE
330
73EC
100
AcDbEntity
  8
MODEL
100
AcDbVertex
100
AcDb2dVertex
 10
488.324482769521
 20
693.3096220792401
 30
0.0
  0
SEQEND
  5
73EF
330
73EC
100
AcDbEntity
  8
MODEL
  0
POLYLINE
  5
73F0
330
A
100
AcDbEntity
  8
MODEL
100
AcDb2dPolyline
 66
     1
 10
0.0
 20
0.0
 30
0.0
  0
VERTEX
  5
73F1
330
73F0
100
AcDbEntity
  8
MODEL
100
AcDbVertex
100
AcDb2dVertex
 10
489.7736927114361
 20
694.6009414438258
 30
0.0
  0
VERTEX
  5
73F2
330
73F0
100
AcDbEntity
  8
MODEL
100
AcDbVertex
100
AcDb2dVertex
 10
489.836746416019
 20
693.2780952269485
 30
0.0
  0
SEQEND
  5
73F3
330
73F0
100
AcDbEntity
  8
MODEL
  0
POLYLINE
  5
73F4
330
A
100
AcDbEntity
  8
MODEL
100
AcDb2dPolyline
 66
     1
 10
0.0
 20
0.0
 30
0.0
  0
VERTEX
  5
73F5
330
73F4
100
AcDbEntity
  8
MODEL
100
AcDbVertex
100
AcDb2dVertex
 10
490.3719339573556
 20
693.0891904290726
 30
0.0
  0
VERTEX
  5
73F6
330
73F4
100
AcDbEntity
  8
MODEL
100
AcDbVertex
100
AcDb2dVertex
 10
490.0571780661865
 20
693.0891904290726
 30
0.0
  0
SEQEND
  5
73F7
330
73F4
100
AcDbEntity
  8
MODEL
  0
POLYLINE
  5
73F8
330
A
100
AcDbEntity
  8
MODEL
100
AcDb2dPolyline
 66
     1
 10
0.0
 20
0.0
 30
0.0
  0
VERTEX
  5
73F9
330
73F8
100
AcDbEntity
  8
MODEL
100
AcDbVertex
100
AcDb2dVertex
 10
489.836746416019
 20
693.2780952269485
 30
0.0
  0
VERTEX
  5
73FA
330
73F8
100
AcDbEntity
  8
MODEL
100
AcDbVertex
100
AcDb2dVertex
 10
489.899287488857
 20
693.1522441336554
 30
0.0
  0
VERTEX
  5
73FB
330
73F8
100
AcDbEntity
  8
MODEL
100
AcDbVertex
100
AcDb2dVertex
 10
490.0571780661865
 20
693.0891904290726
 30
0.0
  0
SEQEND
  5
73FC
330
73F8
100
AcDbEntity
  8
MODEL
  0
POLYLINE
  5
73FD
330
A
100
AcDbEntity
  8
MODEL
100
AcDb2dPolyline
 66
     1
 10
0.0
 20
0.0
 30
0.0
  0
VERTEX
  5
73FE
330
73FD
100
AcDbEntity
  8
MODEL
100
AcDbVertex
100
AcDb2dVertex
 10
492.7028704999409
 20
693.0891904290726
 30
0.0
  0
VERTEX
  5
73FF
330
73FD
100
AcDbEntity
  8
MODEL
100
AcDbVertex
100
AcDb2dVertex
 10
490.3719339573556
 20
693.0891904290726
 30
0.0
  0
SEQEND
  5
7400
330
73FD
100
AcDbEntity
  8
MODEL
  0
POLYLINE
  5
7401
330
A
100
AcDbEntity
  8
MODEL
100
AcDb2dPolyline
 66
     1
 10
0.0
 20
0.0
 30
0.0
  0
VERTEX
  5
7402
330
7401
100
AcDbEntity
  8
MODEL
100
AcDbVertex
100
AcDb2dVertex
 10
494.3089457556962
 20
694.6009414438258
 30
0.0
  0
VERTEX
  5
7403
330
7401
100
AcDbEntity
  8
MODEL
100
AcDbVertex
100
AcDb2dVertex
 10
494.3719994602791
 20
693.3096220792401
 30
0.0
  0
SEQEND
  5
7404
330
7401
100
AcDbEntity
  8
MODEL
  0
POLYLINE
  5
7405
330
A
100
AcDbEntity
  8
MODEL
100
AcDb2dPolyline
 66
     1
 10
0.0
 20
0.0
 30
0.0
  0
VERTEX
  5
7406
330
7405
100
AcDbEntity
  8
MODEL
100
AcDbVertex
100
AcDb2dVertex
 10
497.4903383625324
 20
694.6009414438258
 30
0.0
  0
VERTEX
  5
7407
330
7405
100
AcDbEntity
  8
MODEL
100
AcDbVertex
100
AcDb2dVertex
 10
497.4272846579495
 20
693.3096220792401
 30
0.0
  0
SEQEND
  5
7408
330
7405
100
AcDbEntity
  8
MODEL
  0
POLYLINE
  5
7409
330
A
100
AcDbEntity
  8
MODEL
100
AcDb2dPolyline
 66
     1
 10
0.0
 20
0.0
 30
0.0
  0
VERTEX
  5
740A
330
7409
100
AcDbEntity
  8
MODEL
100
AcDbVertex
100
AcDb2dVertex
 10
494.5611605740273
 20
693.1207172813639
 30
0.0
  0
VERTEX
  5
740B
330
7409
100
AcDbEntity
  8
MODEL
100
AcDbVertex
100
AcDb2dVertex
 10
497.206853007782
 20
693.1207172813639
 30
0.0
  0
SEQEND
  5
740C
330
7409
100
AcDbEntity
  8
MODEL
  0
POLYLINE
  5
740D
330
A
100
AcDbEntity
  8
MODEL
100
AcDb2dPolyline
 66
     1
 10
0.0
 20
0.0
 30
0.0
  0
VERTEX
  5
740E
330
740D
100
AcDbEntity
  8
MODEL
100
AcDbVertex
100
AcDb2dVertex
 10
494.3719994602791
 20
693.3096220792401
 30
0.0
  0
VERTEX
  5
740F
330
740D
100
AcDbEntity
  8
MODEL
100
AcDbVertex
100
AcDb2dVertex
 10
494.4350531648618
 20
693.1522441336554
 30
0.0
  0
VERTEX
  5
7410
330
740D
100
AcDbEntity
  8
MODEL
100
AcDbVertex
100
AcDb2dVertex
 10
494.5611605740273
 20
693.1207172813639
 30
0.0
  0
SEQEND
  5
7411
330
740D
100
AcDbEntity
  8
MODEL
  0
POLYLINE
  5
7412
330
A
100
AcDbEntity
  8
MODEL
100
AcDb2dPolyline
 66
     1
 10
0.0
 20
0.0
 30
0.0
  0
VERTEX
  5
7413
330
7412
100
AcDbEntity
  8
MODEL
100
AcDbVertex
100
AcDb2dVertex
 10
497.4272846579495
 20
693.3096220792401
 30
0.0
  0
VERTEX
  5
7414
330
7412
100
AcDbEntity
  8
MODEL
100
AcDbVertex
100
AcDb2dVertex
 10
497.3642309533668
 20
693.1522441336554
 30
0.0
  0
VERTEX
  5
7415
330
7412
100
AcDbEntity
  8
MODEL
100
AcDbVertex
100
AcDb2dVertex
 10
497.206853007782
 20
693.1207172813639
 30
0.0
  0
SEQEND
  5
7416
330
7412
100
AcDbEntity
  8
MODEL
  0
POLYLINE
  5
7417
330
A
100
AcDbEntity
  8
MODEL
100
AcDb2dPolyline
 66
     1
 10
0.0
 20
0.0
 30
0.0
  0
VERTEX
  5
7418
330
7417
100
AcDbEntity
  8
MODEL
100
AcDbVertex
100
AcDb2dVertex
 10
498.781657727118
 20
694.5694145915344
 30
0.0
  0
VERTEX
  5
7419
330
7417
100
AcDbEntity
  8
MODEL
100
AcDbVertex
100
AcDb2dVertex
 10
498.8441987999565
 20
693.2468246905295
 30
0.0
  0
SEQEND
  5
741A
330
7417
100
AcDbEntity
  8
MODEL
  0
POLYLINE
  5
741B
330
A
100
AcDbEntity
  8
MODEL
100
AcDb2dPolyline
 66
     1
 10
0.0
 20
0.0
 30
0.0
  0
VERTEX
  5
741C
330
741B
100
AcDbEntity
  8
MODEL
100
AcDbVertex
100
AcDb2dVertex
 10
499.3798989730378
 20
693.057663576781
 30
0.0
  0
VERTEX
  5
741D
330
741B
100
AcDbEntity
  8
MODEL
100
AcDbVertex
100
AcDb2dVertex
 10
499.0651430818684
 20
693.057663576781
 30
0.0
  0
SEQEND
  5
741E
330
741B
100
AcDbEntity
  8
MODEL
  0
POLYLINE
  5
741F
330
A
100
AcDbEntity
  8
MODEL
100
AcDb2dPolyline
 66
     1
 10
0.0
 20
0.0
 30
0.0
  0
VERTEX
  5
7420
330
741F
100
AcDbEntity
  8
MODEL
100
AcDbVertex
100
AcDb2dVertex
 10
498.8441987999565
 20
693.2468246905295
 30
0.0
  0
VERTEX
  5
7421
330
741F
100
AcDbEntity
  8
MODEL
100
AcDbVertex
100
AcDb2dVertex
 10
498.9072525045392
 20
693.1207172813639
 30
0.0
  0
VERTEX
  5
7422
330
741F
100
AcDbEntity
  8
MODEL
100
AcDbVertex
100
AcDb2dVertex
 10
499.0651430818684
 20
693.057663576781
 30
0.0
  0
SEQEND
  5
7423
330
741F
100
AcDbEntity
  8
MODEL
  0
POLYLINE
  5
7424
330
A
100
AcDbEntity
  8
MODEL
100
AcDb2dPolyline
 66
     1
 10
0.0
 20
0.0
 30
0.0
  0
VERTEX
  5
7425
330
7424
100
AcDbEntity
  8
MODEL
100
AcDbVertex
100
AcDb2dVertex
 10
634.0887561808647
 20
693.057663576781
 30
0.0
  0
VERTEX
  5
7426
330
7424
100
AcDbEntity
  8
MODEL
100
AcDbVertex
100
AcDb2dVertex
 10
631.758075954152
 20
693.057663576781
 30
0.0
  0
SEQEND
  5
7427
330
7424
100
AcDbEntity
  8
MODEL
  0
POLYLINE
  5
7428
330
A
100
AcDbEntity
  8
MODEL
100
AcDb2dPolyline
 66
     1
 10
0.0
 20
0.0
 30
0.0
  0
VERTEX
  5
7429
330
7428
100
AcDbEntity
  8
MODEL
100
AcDbVertex
100
AcDb2dVertex
 10
567.978228505164
 20
693.0894467449447
 30
0.0
  0
VERTEX
  5
742A
330
7428
100
AcDbEntity
  8
MODEL
100
AcDbVertex
100
AcDb2dVertex
 10
565.647548278451
 20
693.0894467449447
 30
0.0
  0
SEQEND
  5
742B
330
7428
100
AcDbEntity
  8
MODEL
  0
POLYLINE
  5
742C
330
A
100
AcDbEntity
  8
MODEL
100
AcDb2dPolyline
 66
     1
 10
0.0
 20
0.0
 30
0.0
  0
VERTEX
  5
742D
330
742C
100
AcDbEntity
  8
MODEL
100
AcDbVertex
100
AcDb2dVertex
 10
535.3169221630199
 20
693.0894467449447
 30
0.0
  0
VERTEX
  5
742E
330
742C
100
AcDbEntity
  8
MODEL
100
AcDbVertex
100
AcDb2dVertex
 10
532.9859856204348
 20
693.0894467449447
 30
0.0
  0
SEQEND
  5
742F
330
742C
100
AcDbEntity
  8
MODEL
  0
POLYLINE
  5
7430
330
A
100
AcDbEntity
  8
MODEL
100
AcDb2dPolyline
 66
     1
 10
0.0
 20
0.0
 30
0.0
  0
VERTEX
  5
7431
330
7430
100
AcDbEntity
  8
MODEL
100
AcDbVertex
100
AcDb2dVertex
 10
511.7576487616877
 20
693.0894467449447
 30
0.0
  0
VERTEX
  5
7432
330
7430
100
AcDbEntity
  8
MODEL
100
AcDbVertex
100
AcDb2dVertex
 10
509.1119563279331
 20
693.0894467449447
 30
0.0
  0
SEQEND
  5
7433
330
7430
100
AcDbEntity
  8
MODEL
  0
POLYLINE
  5
7434
330
A
100
AcDbEntity
  8
MODEL
100
AcDb2dPolyline
 66
     1
 10
0.0
 20
0.0
 30
0.0
  0
VERTEX
  5
7435
330
7434
100
AcDbEntity
  8
MODEL
100
AcDbVertex
100
AcDb2dVertex
 10
508.9230515300569
 20
693.2783515428208
 30
0.0
  0
VERTEX
  5
7436
330
7434
100
AcDbEntity
  8
MODEL
100
AcDbVertex
100
AcDb2dVertex
 10
508.9861052346398
 20
693.1522441336554
 30
0.0
  0
VERTEX
  5
7437
330
7434
100
AcDbEntity
  8
MODEL
100
AcDbVertex
100
AcDb2dVertex
 10
509.1119563279331
 20
693.0894467449447
 30
0.0
  0
SEQEND
  5
7438
330
7434
100
AcDbEntity
  8
MODEL
  0
POLYLINE
  5
7439
330
A
100
AcDbEntity
  8
MODEL
100
AcDb2dPolyline
 66
     1
 10
0.0
 20
0.0
 30
0.0
  0
VERTEX
  5
743A
330
7439
100
AcDbEntity
  8
MODEL
100
AcDbVertex
100
AcDb2dVertex
 10
508.859997825474
 20
694.6011977596982
 30
0.0
  0
VERTEX
  5
743B
330
7439
100
AcDbEntity
  8
MODEL
100
AcDbVertex
100
AcDb2dVertex
 10
508.9230515300569
 20
693.2783515428208
 30
0.0
  0
SEQEND
  5
743C
330
7439
100
AcDbEntity
  8
MODEL
  0
POLYLINE
  5
743D
330
A
100
AcDbEntity
  8
MODEL
100
AcDb2dPolyline
 66
     1
 10
0.0
 20
0.0
 30
0.0
  0
VERTEX
  5
743E
330
743D
100
AcDbEntity
  8
MODEL
100
AcDbVertex
100
AcDb2dVertex
 10
507.0334909195512
 20
694.6011977596982
 30
0.0
  0
VERTEX
  5
743F
330
743D
100
AcDbEntity
  8
MODEL
100
AcDbVertex
100
AcDb2dVertex
 10
506.9704372149686
 20
693.2783515428208
 30
0.0
  0
VERTEX
  5
7440
330
743D
100
AcDbEntity
  8
MODEL
100
AcDbVertex
100
AcDb2dVertex
 10
506.9073835103857
 20
693.1522441336554
 30
0.0
  0
VERTEX
  5
7441
330
743D
100
AcDbEntity
  8
MODEL
100
AcDbVertex
100
AcDb2dVertex
 10
506.7812761012201
 20
693.0894467449447
 30
0.0
  0
SEQEND
  5
7442
330
743D
100
AcDbEntity
  8
MODEL
  0
POLYLINE
  5
7443
330
A
100
AcDbEntity
  8
MODEL
100
AcDb2dPolyline
 66
     1
 10
0.0
 20
0.0
 30
0.0
  0
VERTEX
  5
7444
330
7443
100
AcDbEntity
  8
MODEL
100
AcDbVertex
100
AcDb2dVertex
 10
503.8520983127153
 20
694.6011977596982
 30
0.0
  0
VERTEX
  5
7445
330
7443
100
AcDbEntity
  8
MODEL
100
AcDbVertex
100
AcDb2dVertex
 10
503.9469351854616
 20
693.2783515428208
 30
0.0
  0
SEQEND
  5
7446
330
7443
100
AcDbEntity
  8
MODEL
  0
POLYLINE
  5
7447
330
A
100
AcDbEntity
  8
MODEL
100
AcDb2dPolyline
 66
     1
 10
0.0
 20
0.0
 30
0.0
  0
VERTEX
  5
7448
330
7447
100
AcDbEntity
  8
MODEL
100
AcDbVertex
100
AcDb2dVertex
 10
504.4508521903795
 20
693.0894467449447
 30
0.0
  0
VERTEX
  5
7449
330
7447
100
AcDbEntity
  8
MODEL
100
AcDbVertex
100
AcDb2dVertex
 10
504.1355836674654
 20
693.0894467449447
 30
0.0
  0
SEQEND
  5
744A
330
7447
100
AcDbEntity
  8
MODEL
  0
POLYLINE
  5
744B
330
A
100
AcDbEntity
  8
MODEL
100
AcDb2dPolyline
 66
     1
 10
0.0
 20
0.0
 30
0.0
  0
VERTEX
  5
744C
330
744B
100
AcDbEntity
  8
MODEL
100
AcDbVertex
100
AcDb2dVertex
 10
503.9469351854616
 20
693.2783515428208
 30
0.0
  0
VERTEX
  5
744D
330
744B
100
AcDbEntity
  8
MODEL
100
AcDbVertex
100
AcDb2dVertex
 10
504.0094762582999
 20
693.1522441336554
 30
0.0
  0
VERTEX
  5
744E
330
744B
100
AcDbEntity
  8
MODEL
100
AcDbVertex
100
AcDb2dVertex
 10
504.1355836674654
 20
693.0894467449447
 30
0.0
  0
SEQEND
  5
744F
330
744B
100
AcDbEntity
  8
MODEL
  0
POLYLINE
  5
7450
330
A
100
AcDbEntity
  8
MODEL
100
AcDb2dPolyline
 66
     1
 10
0.0
 20
0.0
 30
0.0
  0
VERTEX
  5
7451
330
7450
100
AcDbEntity
  8
MODEL
100
AcDbVertex
100
AcDb2dVertex
 10
506.7812761012201
 20
693.0894467449447
 30
0.0
  0
VERTEX
  5
7452
330
7450
100
AcDbEntity
  8
MODEL
100
AcDbVertex
100
AcDb2dVertex
 10
504.4508521903795
 20
693.0894467449447
 30
0.0
  0
SEQEND
  5
7453
330
7450
100
AcDbEntity
  8
MODEL
  0
POLYLINE
  5
7454
330
A
100
AcDbEntity
  8
MODEL
100
AcDb2dPolyline
 66
     1
 10
0.0
 20
0.0
 30
0.0
  0
VERTEX
  5
7455
330
7454
100
AcDbEntity
  8
MODEL
100
AcDbVertex
100
AcDb2dVertex
 10
501.9625377022096
 20
694.5696709074067
 30
0.0
  0
VERTEX
  5
7456
330
7454
100
AcDbEntity
  8
MODEL
100
AcDbVertex
100
AcDb2dVertex
 10
501.8994839976269
 20
693.2468246905295
 30
0.0
  0
VERTEX
  5
7457
330
7454
100
AcDbEntity
  8
MODEL
100
AcDbVertex
100
AcDb2dVertex
 10
501.836430293044
 20
693.1207172813639
 30
0.0
  0
VERTEX
  5
7458
330
7454
100
AcDbEntity
  8
MODEL
100
AcDbVertex
100
AcDb2dVertex
 10
501.7103228838785
 20
693.0579198926533
 30
0.0
  0
SEQEND
  5
7459
330
7454
100
AcDbEntity
  8
MODEL
  0
POLYLINE
  5
745A
330
A
100
AcDbEntity
  8
MODEL
100
AcDb2dPolyline
 66
     1
 10
0.0
 20
0.0
 30
0.0
  0
VERTEX
  5
745B
330
745A
100
AcDbEntity
  8
MODEL
100
AcDbVertex
100
AcDb2dVertex
 10
516.6081703288617
 20
694.5696709074067
 30
0.0
  0
VERTEX
  5
745C
330
745A
100
AcDbEntity
  8
MODEL
100
AcDbVertex
100
AcDb2dVertex
 10
516.545116624279
 20
693.2783515428208
 30
0.0
  0
VERTEX
  5
745D
330
745A
100
AcDbEntity
  8
MODEL
100
AcDbVertex
100
AcDb2dVertex
 10
516.4820629196961
 20
693.1207172813639
 30
0.0
  0
VERTEX
  5
745E
330
745A
100
AcDbEntity
  8
MODEL
100
AcDbVertex
100
AcDb2dVertex
 10
516.3562118264028
 20
693.0894467449447
 30
0.0
  0
SEQEND
  5
745F
330
745A
100
AcDbEntity
  8
MODEL
  0
POLYLINE
  5
7460
330
A
100
AcDbEntity
  8
MODEL
100
AcDb2dPolyline
 66
     1
 10
0.0
 20
0.0
 30
0.0
  0
VERTEX
  5
7461
330
7460
100
AcDbEntity
  8
MODEL
100
AcDbVertex
100
AcDb2dVertex
 10
511.9783367277275
 20
693.2783515428208
 30
0.0
  0
VERTEX
  5
7462
330
7460
100
AcDbEntity
  8
MODEL
100
AcDbVertex
100
AcDb2dVertex
 10
511.9152830231446
 20
693.1522441336554
 30
0.0
  0
VERTEX
  5
7463
330
7460
100
AcDbEntity
  8
MODEL
100
AcDbVertex
100
AcDb2dVertex
 10
511.7576487616877
 20
693.0894467449447
 30
0.0
  0
SEQEND
  5
7464
330
7460
100
AcDbEntity
  8
MODEL
  0
POLYLINE
  5
7465
330
A
100
AcDbEntity
  8
MODEL
100
AcDb2dPolyline
 66
     1
 10
0.0
 20
0.0
 30
0.0
  0
VERTEX
  5
7466
330
7465
100
AcDbEntity
  8
MODEL
100
AcDbVertex
100
AcDb2dVertex
 10
512.0411341164379
 20
694.6011977596982
 30
0.0
  0
VERTEX
  5
7467
330
7465
100
AcDbEntity
  8
MODEL
100
AcDbVertex
100
AcDb2dVertex
 10
511.9780804118552
 20
693.2783515428208
 30
0.0
  0
SEQEND
  5
7468
330
7465
100
AcDbEntity
  8
MODEL
  0
POLYLINE
  5
7469
330
A
100
AcDbEntity
  8
MODEL
100
AcDb2dPolyline
 66
     1
 10
0.0
 20
0.0
 30
0.0
  0
VERTEX
  5
746A
330
7469
100
AcDbEntity
  8
MODEL
100
AcDbVertex
100
AcDb2dVertex
 10
513.427034037898
 20
694.5696709074067
 30
0.0
  0
VERTEX
  5
746B
330
7469
100
AcDbEntity
  8
MODEL
100
AcDbVertex
100
AcDb2dVertex
 10
513.4900877424809
 20
693.2783515428208
 30
0.0
  0
SEQEND
  5
746C
330
7469
100
AcDbEntity
  8
MODEL
  0
POLYLINE
  5
746D
330
A
100
AcDbEntity
  8
MODEL
100
AcDb2dPolyline
 66
     1
 10
0.0
 20
0.0
 30
0.0
  0
VERTEX
  5
746E
330
746D
100
AcDbEntity
  8
MODEL
100
AcDbVertex
100
AcDb2dVertex
 10
514.0255315996901
 20
693.0894467449447
 30
0.0
  0
VERTEX
  5
746F
330
746D
100
AcDbEntity
  8
MODEL
100
AcDbVertex
100
AcDb2dVertex
 10
513.7105193926484
 20
693.0894467449447
 30
0.0
  0
SEQEND
  5
7470
330
746D
100
AcDbEntity
  8
MODEL
  0
POLYLINE
  5
7471
330
A
100
AcDbEntity
  8
MODEL
100
AcDb2dPolyline
 66
     1
 10
0.0
 20
0.0
 30
0.0
  0
VERTEX
  5
7472
330
7471
100
AcDbEntity
  8
MODEL
100
AcDbVertex
100
AcDb2dVertex
 10
513.4900877424809
 20
693.2783515428208
 30
0.0
  0
VERTEX
  5
7473
330
7471
100
AcDbEntity
  8
MODEL
100
AcDbVertex
100
AcDb2dVertex
 10
513.5531414470636
 20
693.1207172813639
 30
0.0
  0
VERTEX
  5
7474
330
7471
100
AcDbEntity
  8
MODEL
100
AcDbVertex
100
AcDb2dVertex
 10
513.7105193926484
 20
693.0894467449447
 30
0.0
  0
SEQEND
  5
7475
330
7471
100
AcDbEntity
  8
MODEL
  0
POLYLINE
  5
7476
330
A
100
AcDbEntity
  8
MODEL
100
AcDb2dPolyline
 66
     1
 10
0.0
 20
0.0
 30
0.0
  0
VERTEX
  5
7477
330
7476
100
AcDbEntity
  8
MODEL
100
AcDbVertex
100
AcDb2dVertex
 10
516.3562118264028
 20
693.0894467449447
 30
0.0
  0
VERTEX
  5
7478
330
7476
100
AcDbEntity
  8
MODEL
100
AcDbVertex
100
AcDb2dVertex
 10
514.0255315996901
 20
693.0894467449447
 30
0.0
  0
SEQEND
  5
7479
330
7476
100
AcDbEntity
  8
MODEL
  0
POLYLINE
  5
747A
330
A
100
AcDbEntity
  8
MODEL
100
AcDb2dPolyline
 66
     1
 10
0.0
 20
0.0
 30
0.0
  0
VERTEX
  5
747B
330
747A
100
AcDbEntity
  8
MODEL
100
AcDbVertex
100
AcDb2dVertex
 10
525.6161353445439
 20
694.5696709074067
 30
0.0
  0
VERTEX
  5
747C
330
747A
100
AcDbEntity
  8
MODEL
100
AcDbVertex
100
AcDb2dVertex
 10
525.5530816399612
 20
693.2468246905295
 30
0.0
  0
VERTEX
  5
747D
330
747A
100
AcDbEntity
  8
MODEL
100
AcDbVertex
100
AcDb2dVertex
 10
525.4900279353783
 20
693.1207172813639
 30
0.0
  0
VERTEX
  5
747E
330
747A
100
AcDbEntity
  8
MODEL
100
AcDbVertex
100
AcDb2dVertex
 10
525.364176842085
 20
693.0579198926533
 30
0.0
  0
SEQEND
  5
747F
330
747A
100
AcDbEntity
  8
MODEL
  0
POLYLINE
  5
7480
330
A
100
AcDbEntity
  8
MODEL
100
AcDb2dPolyline
 66
     1
 10
0.0
 20
0.0
 30
0.0
  0
VERTEX
  5
7481
330
7480
100
AcDbEntity
  8
MODEL
100
AcDbVertex
100
AcDb2dVertex
 10
517.9625433980304
 20
694.6011977596982
 30
0.0
  0
VERTEX
  5
7482
330
7480
100
AcDbEntity
  8
MODEL
100
AcDbVertex
100
AcDb2dVertex
 10
518.0255971026133
 20
693.2783515428208
 30
0.0
  0
SEQEND
  5
7483
330
7480
100
AcDbEntity
  8
MODEL
  0
POLYLINE
  5
7484
330
A
100
AcDbEntity
  8
MODEL
100
AcDb2dPolyline
 66
     1
 10
0.0
 20
0.0
 30
0.0
  0
VERTEX
  5
7485
330
7484
100
AcDbEntity
  8
MODEL
100
AcDbVertex
100
AcDb2dVertex
 10
521.1436796889941
 20
694.6011977596982
 30
0.0
  0
VERTEX
  5
7486
330
7484
100
AcDbEntity
  8
MODEL
100
AcDbVertex
100
AcDb2dVertex
 10
521.0806259844114
 20
693.2783515428208
 30
0.0
  0
SEQEND
  5
7487
330
7484
100
AcDbEntity
  8
MODEL
  0
POLYLINE
  5
7488
330
A
100
AcDbEntity
  8
MODEL
100
AcDb2dPolyline
 66
     1
 10
0.0
 20
0.0
 30
0.0
  0
VERTEX
  5
7489
330
7488
100
AcDbEntity
  8
MODEL
100
AcDbVertex
100
AcDb2dVertex
 10
518.2145019004893
 20
693.0894467449447
 30
0.0
  0
VERTEX
  5
748A
330
7488
100
AcDbEntity
  8
MODEL
100
AcDbVertex
100
AcDb2dVertex
 10
520.8601943342439
 20
693.0894467449447
 30
0.0
  0
SEQEND
  5
748B
330
7488
100
AcDbEntity
  8
MODEL
  0
POLYLINE
  5
748C
330
A
100
AcDbEntity
  8
MODEL
100
AcDb2dPolyline
 66
     1
 10
0.0
 20
0.0
 30
0.0
  0
VERTEX
  5
748D
330
748C
100
AcDbEntity
  8
MODEL
100
AcDbVertex
100
AcDb2dVertex
 10
518.0255971026133
 20
693.2783515428208
 30
0.0
  0
VERTEX
  5
748E
330
748C
100
AcDbEntity
  8
MODEL
100
AcDbVertex
100
AcDb2dVertex
 10
518.0883944913237
 20
693.1522441336554
 30
0.0
  0
VERTEX
  5
748F
330
748C
100
AcDbEntity
  8
MODEL
100
AcDbVertex
100
AcDb2dVertex
 10
518.2145019004893
 20
693.0894467449447
 30
0.0
  0
SEQEND
  5
7490
330
748C
100
AcDbEntity
  8
MODEL
  0
POLYLINE
  5
7491
330
A
100
AcDbEntity
  8
MODEL
100
AcDb2dPolyline
 66
     1
 10
0.0
 20
0.0
 30
0.0
  0
VERTEX
  5
7492
330
7491
100
AcDbEntity
  8
MODEL
100
AcDbVertex
100
AcDb2dVertex
 10
521.0806259844114
 20
693.2783515428208
 30
0.0
  0
VERTEX
  5
7493
330
7491
100
AcDbEntity
  8
MODEL
100
AcDbVertex
100
AcDb2dVertex
 10
521.0175722798288
 20
693.1522441336554
 30
0.0
  0
VERTEX
  5
7494
330
7491
100
AcDbEntity
  8
MODEL
100
AcDbVertex
100
AcDb2dVertex
 10
520.8601943342439
 20
693.0894467449447
 30
0.0
  0
SEQEND
  5
7495
330
7491
100
AcDbEntity
  8
MODEL
  0
POLYLINE
  5
7496
330
A
100
AcDbEntity
  8
MODEL
100
AcDb2dPolyline
 66
     1
 10
0.0
 20
0.0
 30
0.0
  0
VERTEX
  5
7497
330
7496
100
AcDbEntity
  8
MODEL
100
AcDbVertex
100
AcDb2dVertex
 10
522.4349990535802
 20
694.5696709074067
 30
0.0
  0
VERTEX
  5
7498
330
7496
100
AcDbEntity
  8
MODEL
100
AcDbVertex
100
AcDb2dVertex
 10
522.4980527581629
 20
693.2468246905295
 30
0.0
  0
SEQEND
  5
7499
330
7496
100
AcDbEntity
  8
MODEL
  0
POLYLINE
  5
749A
330
A
100
AcDbEntity
  8
MODEL
100
AcDb2dPolyline
 66
     1
 10
0.0
 20
0.0
 30
0.0
  0
VERTEX
  5
749B
330
749A
100
AcDbEntity
  8
MODEL
100
AcDbVertex
100
AcDb2dVertex
 10
523.0334966153721
 20
693.0579198926533
 30
0.0
  0
VERTEX
  5
749C
330
749A
100
AcDbEntity
  8
MODEL
100
AcDbVertex
100
AcDb2dVertex
 10
522.686957556039
 20
693.0579198926533
 30
0.0
  0
SEQEND
  5
749D
330
749A
100
AcDbEntity
  8
MODEL
  0
POLYLINE
  5
749E
330
A
100
AcDbEntity
  8
MODEL
100
AcDb2dPolyline
 66
     1
 10
0.0
 20
0.0
 30
0.0
  0
VERTEX
  5
749F
330
749E
100
AcDbEntity
  8
MODEL
100
AcDbVertex
100
AcDb2dVertex
 10
522.4980527581629
 20
693.2468246905295
 30
0.0
  0
VERTEX
  5
74A0
330
749E
100
AcDbEntity
  8
MODEL
100
AcDbVertex
100
AcDb2dVertex
 10
522.5608501468735
 20
693.1207172813639
 30
0.0
  0
VERTEX
  5
74A1
330
749E
100
AcDbEntity
  8
MODEL
100
AcDbVertex
100
AcDb2dVertex
 10
522.686957556039
 20
693.0579198926533
 30
0.0
  0
SEQEND
  5
74A2
330
749E
100
AcDbEntity
  8
MODEL
  0
POLYLINE
  5
74A3
330
A
100
AcDbEntity
  8
MODEL
100
AcDb2dPolyline
 66
     1
 10
0.0
 20
0.0
 30
0.0
  0
VERTEX
  5
74A4
330
74A3
100
AcDbEntity
  8
MODEL
100
AcDbVertex
100
AcDb2dVertex
 10
525.364176842085
 20
693.0579198926533
 30
0.0
  0
VERTEX
  5
74A5
330
74A3
100
AcDbEntity
  8
MODEL
100
AcDbVertex
100
AcDb2dVertex
 10
523.0334966153721
 20
693.0579198926533
 30
0.0
  0
SEQEND
  5
74A6
330
74A3
100
AcDbEntity
  8
MODEL
  0
POLYLINE
  5
74A7
330
A
100
AcDbEntity
  8
MODEL
100
AcDb2dPolyline
 66
     1
 10
0.0
 20
0.0
 30
0.0
  0
VERTEX
  5
74A8
330
74A7
100
AcDbEntity
  8
MODEL
100
AcDbVertex
100
AcDb2dVertex
 10
532.9862419363071
 20
693.0894467449447
 30
0.0
  0
VERTEX
  5
74A9
330
74A7
100
AcDbEntity
  8
MODEL
100
AcDbVertex
100
AcDb2dVertex
 10
532.6712297292654
 20
693.0894467449447
 30
0.0
  0
SEQEND
  5
74AA
330
74A7
100
AcDbEntity
  8
MODEL
  0
POLYLINE
  5
74AB
330
A
100
AcDbEntity
  8
MODEL
100
AcDb2dPolyline
 66
     1
 10
0.0
 20
0.0
 30
0.0
  0
VERTEX
  5
74AC
330
74AB
100
AcDbEntity
  8
MODEL
100
AcDbVertex
100
AcDb2dVertex
 10
532.4507980790979
 20
693.2783515428208
 30
0.0
  0
VERTEX
  5
74AD
330
74AB
100
AcDbEntity
  8
MODEL
100
AcDbVertex
100
AcDb2dVertex
 10
532.5135954678083
 20
693.1522441336554
 30
0.0
  0
VERTEX
  5
74AE
330
74AB
100
AcDbEntity
  8
MODEL
100
AcDbVertex
100
AcDb2dVertex
 10
532.6712297292654
 20
693.0894467449447
 30
0.0
  0
SEQEND
  5
74AF
330
74AB
100
AcDbEntity
  8
MODEL
  0
POLYLINE
  5
74B0
330
A
100
AcDbEntity
  8
MODEL
100
AcDb2dPolyline
 66
     1
 10
0.0
 20
0.0
 30
0.0
  0
VERTEX
  5
74B1
330
74B0
100
AcDbEntity
  8
MODEL
100
AcDbVertex
100
AcDb2dVertex
 10
532.387744374515
 20
694.5696709074067
 30
0.0
  0
VERTEX
  5
74B2
330
74B0
100
AcDbEntity
  8
MODEL
100
AcDbVertex
100
AcDb2dVertex
 10
532.4507980790979
 20
693.2783515428208
 30
0.0
  0
SEQEND
  5
74B3
330
74B0
100
AcDbEntity
  8
MODEL
  0
POLYLINE
  5
74B4
330
A
100
AcDbEntity
  8
MODEL
100
AcDb2dPolyline
 66
     1
 10
0.0
 20
0.0
 30
0.0
  0
VERTEX
  5
74B5
330
74B4
100
AcDbEntity
  8
MODEL
100
AcDbVertex
100
AcDb2dVertex
 10
530.5925080050115
 20
694.5696709074067
 30
0.0
  0
VERTEX
  5
74B6
330
74B4
100
AcDbEntity
  8
MODEL
100
AcDbVertex
100
AcDb2dVertex
 10
530.5294543004286
 20
693.2468246905295
 30
0.0
  0
VERTEX
  5
74B7
330
74B4
100
AcDbEntity
  8
MODEL
100
AcDbVertex
100
AcDb2dVertex
 10
530.4664005958457
 20
693.1207172813639
 30
0.0
  0
VERTEX
  5
74B8
330
74B4
100
AcDbEntity
  8
MODEL
100
AcDbVertex
100
AcDb2dVertex
 10
530.3090226502611
 20
693.0579198926533
 30
0.0
  0
SEQEND
  5
74B9
330
74B4
100
AcDbEntity
  8
MODEL
  0
POLYLINE
  5
74BA
330
A
100
AcDbEntity
  8
MODEL
100
AcDb2dPolyline
 66
     1
 10
0.0
 20
0.0
 30
0.0
  0
VERTEX
  5
74BB
330
74BA
100
AcDbEntity
  8
MODEL
100
AcDbVertex
100
AcDb2dVertex
 10
527.4113717140476
 20
694.5696709074067
 30
0.0
  0
VERTEX
  5
74BC
330
74BA
100
AcDbEntity
  8
MODEL
100
AcDbVertex
100
AcDb2dVertex
 10
527.4744254186305
 20
693.2468246905295
 30
0.0
  0
SEQEND
  5
74BD
330
74BA
100
AcDbEntity
  8
MODEL
  0
POLYLINE
  5
74BE
330
A
100
AcDbEntity
  8
MODEL
100
AcDb2dPolyline
 66
     1
 10
0.0
 20
0.0
 30
0.0
  0
VERTEX
  5
74BF
330
74BE
100
AcDbEntity
  8
MODEL
100
AcDbVertex
100
AcDb2dVertex
 10
528.0098692758395
 20
693.0579198926533
 30
0.0
  0
VERTEX
  5
74C0
330
74BE
100
AcDbEntity
  8
MODEL
100
AcDbVertex
100
AcDb2dVertex
 10
527.6633302165064
 20
693.0579198926533
 30
0.0
  0
SEQEND
  5
74C1
330
74BE
100
AcDbEntity
  8
MODEL
  0
POLYLINE
  5
74C2
330
A
100
AcDbEntity
  8
MODEL
100
AcDb2dPolyline
 66
     1
 10
0.0
 20
0.0
 30
0.0
  0
VERTEX
  5
74C3
330
74C2
100
AcDbEntity
  8
MODEL
100
AcDbVertex
100
AcDb2dVertex
 10
527.4744254186305
 20
693.2468246905295
 30
0.0
  0
VERTEX
  5
74C4
330
74C2
100
AcDbEntity
  8
MODEL
100
AcDbVertex
100
AcDb2dVertex
 10
527.5372228073409
 20
693.1207172813639
 30
0.0
  0
VERTEX
  5
74C5
330
74C2
100
AcDbEntity
  8
MODEL
100
AcDbVertex
100
AcDb2dVertex
 10
527.6633302165064
 20
693.0579198926533
 30
0.0
  0
SEQEND
  5
74C6
330
74C2
100
AcDbEntity
  8
MODEL
  0
POLYLINE
  5
74C7
330
A
100
AcDbEntity
  8
MODEL
100
AcDb2dPolyline
 66
     1
 10
0.0
 20
0.0
 30
0.0
  0
VERTEX
  5
74C8
330
74C7
100
AcDbEntity
  8
MODEL
100
AcDbVertex
100
AcDb2dVertex
 10
530.3090226502611
 20
693.0579198926533
 30
0.0
  0
VERTEX
  5
74C9
330
74C7
100
AcDbEntity
  8
MODEL
100
AcDbVertex
100
AcDb2dVertex
 10
528.0098692758395
 20
693.0579198926533
 30
0.0
  0
SEQEND
  5
74CA
330
74C7
100
AcDbEntity
  8
MODEL
  0
POLYLINE
  5
74CB
330
A
100
AcDbEntity
  8
MODEL
100
AcDb2dPolyline
 66
     1
 10
0.0
 20
0.0
 30
0.0
  0
VERTEX
  5
74CC
330
74CB
100
AcDbEntity
  8
MODEL
100
AcDbVertex
100
AcDb2dVertex
 10
544.419211419704
 20
693.0891904290726
 30
0.0
  0
VERTEX
  5
74CD
330
74CB
100
AcDbEntity
  8
MODEL
100
AcDbVertex
100
AcDb2dVertex
 10
542.088531192991
 20
693.0891904290726
 30
0.0
  0
SEQEND
  5
74CE
330
74CB
100
AcDbEntity
  8
MODEL
  0
POLYLINE
  5
74CF
330
A
100
AcDbEntity
  8
MODEL
100
AcDb2dPolyline
 66
     1
 10
0.0
 20
0.0
 30
0.0
  0
VERTEX
  5
74D0
330
74CF
100
AcDbEntity
  8
MODEL
100
AcDbVertex
100
AcDb2dVertex
 10
540.1671874143219
 20
694.5696709074067
 30
0.0
  0
VERTEX
  5
74D1
330
74CF
100
AcDbEntity
  8
MODEL
100
AcDbVertex
100
AcDb2dVertex
 10
540.07286317332
 20
693.2468246905295
 30
0.0
  0
VERTEX
  5
74D2
330
74CF
100
AcDbEntity
  8
MODEL
100
AcDbVertex
100
AcDb2dVertex
 10
540.0413363210284
 20
693.1207172813639
 30
0.0
  0
VERTEX
  5
74D3
330
74CF
100
AcDbEntity
  8
MODEL
100
AcDbVertex
100
AcDb2dVertex
 10
539.8837020595715
 20
693.0579198926533
 30
0.0
  0
SEQEND
  5
74D4
330
74CF
100
AcDbEntity
  8
MODEL
  0
POLYLINE
  5
74D5
330
A
100
AcDbEntity
  8
MODEL
100
AcDb2dPolyline
 66
     1
 10
0.0
 20
0.0
 30
0.0
  0
VERTEX
  5
74D6
330
74D5
100
AcDbEntity
  8
MODEL
100
AcDbVertex
100
AcDb2dVertex
 10
541.4900336311991
 20
694.5696709074067
 30
0.0
  0
VERTEX
  5
74D7
330
74D5
100
AcDbEntity
  8
MODEL
100
AcDbVertex
100
AcDb2dVertex
 10
541.5530873357818
 20
693.2783515428208
 30
0.0
  0
SEQEND
  5
74D8
330
74D5
100
AcDbEntity
  8
MODEL
  0
POLYLINE
  5
74D9
330
A
100
AcDbEntity
  8
MODEL
100
AcDb2dPolyline
 66
     1
 10
0.0
 20
0.0
 30
0.0
  0
VERTEX
  5
74DA
330
74D9
100
AcDbEntity
  8
MODEL
100
AcDbVertex
100
AcDb2dVertex
 10
542.088531192991
 20
693.0891904290726
 30
0.0
  0
VERTEX
  5
74DB
330
74D9
100
AcDbEntity
  8
MODEL
100
AcDbVertex
100
AcDb2dVertex
 10
541.7735189859495
 20
693.0891904290726
 30
0.0
  0
SEQEND
  5
74DC
330
74D9
100
AcDbEntity
  8
MODEL
  0
POLYLINE
  5
74DD
330
A
100
AcDbEntity
  8
MODEL
100
AcDb2dPolyline
 66
     1
 10
0.0
 20
0.0
 30
0.0
  0
VERTEX
  5
74DE
330
74DD
100
AcDbEntity
  8
MODEL
100
AcDbVertex
100
AcDb2dVertex
 10
541.5530873357818
 20
693.2783515428208
 30
0.0
  0
VERTEX
  5
74DF
330
74DD
100
AcDbEntity
  8
MODEL
100
AcDbVertex
100
AcDb2dVertex
 10
541.6161410403647
 20
693.1522441336554
 30
0.0
  0
VERTEX
  5
74E0
330
74DD
100
AcDbEntity
  8
MODEL
100
AcDbVertex
100
AcDb2dVertex
 10
541.7735189859495
 20
693.0891904290726
 30
0.0
  0
SEQEND
  5
74E1
330
74DD
100
AcDbEntity
  8
MODEL
  0
POLYLINE
  5
74E2
330
A
100
AcDbEntity
  8
MODEL
100
AcDb2dPolyline
 66
     1
 10
0.0
 20
0.0
 30
0.0
  0
VERTEX
  5
74E3
330
74E2
100
AcDbEntity
  8
MODEL
100
AcDbVertex
100
AcDb2dVertex
 10
535.505826960896
 20
693.2783515428208
 30
0.0
  0
VERTEX
  5
74E4
330
74E2
100
AcDbEntity
  8
MODEL
100
AcDbVertex
100
AcDb2dVertex
 10
535.4427732563133
 20
693.1522441336554
 30
0.0
  0
VERTEX
  5
74E5
330
74E2
100
AcDbEntity
  8
MODEL
100
AcDbVertex
100
AcDb2dVertex
 10
535.3169221630199
 20
693.0891904290726
 30
0.0
  0
SEQEND
  5
74E6
330
74E2
100
AcDbEntity
  8
MODEL
  0
POLYLINE
  5
74E7
330
A
100
AcDbEntity
  8
MODEL
100
AcDb2dPolyline
 66
     1
 10
0.0
 20
0.0
 30
0.0
  0
VERTEX
  5
74E8
330
74E7
100
AcDbEntity
  8
MODEL
100
AcDbVertex
100
AcDb2dVertex
 10
535.5688806654789
 20
694.5696709074067
 30
0.0
  0
VERTEX
  5
74E9
330
74E7
100
AcDbEntity
  8
MODEL
100
AcDbVertex
100
AcDb2dVertex
 10
535.505826960896
 20
693.2783515428208
 30
0.0
  0
SEQEND
  5
74EA
330
74E7
100
AcDbEntity
  8
MODEL
  0
POLYLINE
  5
74EB
330
A
100
AcDbEntity
  8
MODEL
100
AcDb2dPolyline
 66
     1
 10
0.0
 20
0.0
 30
0.0
  0
VERTEX
  5
74EC
330
74EB
100
AcDbEntity
  8
MODEL
100
AcDbVertex
100
AcDb2dVertex
 10
536.986051123358
 20
694.5696709074067
 30
0.0
  0
VERTEX
  5
74ED
330
74EB
100
AcDbEntity
  8
MODEL
100
AcDbVertex
100
AcDb2dVertex
 10
537.0491048279407
 20
693.2468246905295
 30
0.0
  0
SEQEND
  5
74EE
330
74EB
100
AcDbEntity
  8
MODEL
  0
POLYLINE
  5
74EF
330
A
100
AcDbEntity
  8
MODEL
100
AcDb2dPolyline
 66
     1
 10
0.0
 20
0.0
 30
0.0
  0
VERTEX
  5
74F0
330
74EF
100
AcDbEntity
  8
MODEL
100
AcDbVertex
100
AcDb2dVertex
 10
537.5530218328586
 20
693.057663576781
 30
0.0
  0
VERTEX
  5
74F1
330
74EF
100
AcDbEntity
  8
MODEL
100
AcDbVertex
100
AcDb2dVertex
 10
537.2382659416892
 20
693.057663576781
 30
0.0
  0
SEQEND
  5
74F2
330
74EF
100
AcDbEntity
  8
MODEL
  0
POLYLINE
  5
74F3
330
A
100
AcDbEntity
  8
MODEL
100
AcDb2dPolyline
 66
     1
 10
0.0
 20
0.0
 30
0.0
  0
VERTEX
  5
74F4
330
74F3
100
AcDbEntity
  8
MODEL
100
AcDbVertex
100
AcDb2dVertex
 10
537.0491048279407
 20
693.2468246905295
 30
0.0
  0
VERTEX
  5
74F5
330
74F3
100
AcDbEntity
  8
MODEL
100
AcDbVertex
100
AcDb2dVertex
 10
537.1121585325236
 20
693.1207172813639
 30
0.0
  0
VERTEX
  5
74F6
330
74F3
100
AcDbEntity
  8
MODEL
100
AcDbVertex
100
AcDb2dVertex
 10
537.2382659416892
 20
693.057663576781
 30
0.0
  0
SEQEND
  5
74F7
330
74F3
100
AcDbEntity
  8
MODEL
  0
POLYLINE
  5
74F8
330
A
100
AcDbEntity
  8
MODEL
100
AcDb2dPolyline
 66
     1
 10
0.0
 20
0.0
 30
0.0
  0
VERTEX
  5
74F9
330
74F8
100
AcDbEntity
  8
MODEL
100
AcDbVertex
100
AcDb2dVertex
 10
539.8837020595715
 20
693.057663576781
 30
0.0
  0
VERTEX
  5
74FA
330
74F8
100
AcDbEntity
  8
MODEL
100
AcDbVertex
100
AcDb2dVertex
 10
537.5530218328586
 20
693.057663576781
 30
0.0
  0
SEQEND
  5
74FB
330
74F8
100
AcDbEntity
  8
MODEL
  0
POLYLINE
  5
74FC
330
A
100
AcDbEntity
  8
MODEL
100
AcDb2dPolyline
 66
     1
 10
0.0
 20
0.0
 30
0.0
  0
VERTEX
  5
74FD
330
74FC
100
AcDbEntity
  8
MODEL
100
AcDbVertex
100
AcDb2dVertex
 10
549.1436255777126
 20
694.5381440551154
 30
0.0
  0
VERTEX
  5
74FE
330
74FC
100
AcDbEntity
  8
MODEL
100
AcDbVertex
100
AcDb2dVertex
 10
549.0805718731297
 20
693.215297838238
 30
0.0
  0
VERTEX
  5
74FF
330
74FC
100
AcDbEntity
  8
MODEL
100
AcDbVertex
100
AcDb2dVertex
 10
549.0177744844193
 20
693.0891904290726
 30
0.0
  0
VERTEX
  5
7500
330
74FC
100
AcDbEntity
  8
MODEL
100
AcDbVertex
100
AcDb2dVertex
 10
548.8916670752535
 20
693.026393040362
 30
0.0
  0
SEQEND
  5
7501
330
74FC
100
AcDbEntity
  8
MODEL
  0
POLYLINE
  5
7502
330
A
100
AcDbEntity
  8
MODEL
100
AcDb2dPolyline
 66
     1
 10
0.0
 20
0.0
 30
0.0
  0
VERTEX
  5
7503
330
7502
100
AcDbEntity
  8
MODEL
100
AcDbVertex
100
AcDb2dVertex
 10
544.6711699221628
 20
694.5696709074067
 30
0.0
  0
VERTEX
  5
7504
330
7502
100
AcDbEntity
  8
MODEL
100
AcDbVertex
100
AcDb2dVertex
 10
544.6081162175801
 20
693.2783515428208
 30
0.0
  0
VERTEX
  5
7505
330
7502
100
AcDbEntity
  8
MODEL
100
AcDbVertex
100
AcDb2dVertex
 10
544.5453188288695
 20
693.1522441336554
 30
0.0
  0
VERTEX
  5
7506
330
7502
100
AcDbEntity
  8
MODEL
100
AcDbVertex
100
AcDb2dVertex
 10
544.419211419704
 20
693.0891904290726
 30
0.0
  0
SEQEND
  5
7507
330
7502
100
AcDbEntity
  8
MODEL
  0
POLYLINE
  5
7508
330
A
100
AcDbEntity
  8
MODEL
100
AcDb2dPolyline
 66
     1
 10
0.0
 20
0.0
 30
0.0
  0
VERTEX
  5
7509
330
7508
100
AcDbEntity
  8
MODEL
100
AcDbVertex
100
AcDb2dVertex
 10
545.9624892867487
 20
694.5381440551154
 30
0.0
  0
VERTEX
  5
750A
330
7508
100
AcDbEntity
  8
MODEL
100
AcDbVertex
100
AcDb2dVertex
 10
546.0570698436229
 20
693.215297838238
 30
0.0
  0
SEQEND
  5
750B
330
7508
100
AcDbEntity
  8
MODEL
  0
POLYLINE
  5
750C
330
A
100
AcDbEntity
  8
MODEL
100
AcDb2dPolyline
 66
     1
 10
0.0
 20
0.0
 30
0.0
  0
VERTEX
  5
750D
330
750C
100
AcDbEntity
  8
MODEL
100
AcDbVertex
100
AcDb2dVertex
 10
546.5609868485408
 20
693.026393040362
 30
0.0
  0
VERTEX
  5
750E
330
750C
100
AcDbEntity
  8
MODEL
100
AcDbVertex
100
AcDb2dVertex
 10
546.2459746414991
 20
693.026393040362
 30
0.0
  0
SEQEND
  5
750F
330
750C
100
AcDbEntity
  8
MODEL
  0
POLYLINE
  5
7510
330
A
100
AcDbEntity
  8
MODEL
100
AcDb2dPolyline
 66
     1
 10
0.0
 20
0.0
 30
0.0
  0
VERTEX
  5
7511
330
7510
100
AcDbEntity
  8
MODEL
100
AcDbVertex
100
AcDb2dVertex
 10
546.0570698436229
 20
693.215297838238
 30
0.0
  0
VERTEX
  5
7512
330
7510
100
AcDbEntity
  8
MODEL
100
AcDbVertex
100
AcDb2dVertex
 10
546.0885966959142
 20
693.0891904290726
 30
0.0
  0
VERTEX
  5
7513
330
7510
100
AcDbEntity
  8
MODEL
100
AcDbVertex
100
AcDb2dVertex
 10
546.2459746414991
 20
693.026393040362
 30
0.0
  0
SEQEND
  5
7514
330
7510
100
AcDbEntity
  8
MODEL
  0
POLYLINE
  5
7515
330
A
100
AcDbEntity
  8
MODEL
100
AcDb2dPolyline
 66
     1
 10
0.0
 20
0.0
 30
0.0
  0
VERTEX
  5
7516
330
7515
100
AcDbEntity
  8
MODEL
100
AcDbVertex
100
AcDb2dVertex
 10
548.8916670752535
 20
693.026393040362
 30
0.0
  0
VERTEX
  5
7517
330
7515
100
AcDbEntity
  8
MODEL
100
AcDbVertex
100
AcDb2dVertex
 10
546.5609868485408
 20
693.026393040362
 30
0.0
  0
SEQEND
  5
7518
330
7515
100
AcDbEntity
  8
MODEL
  0
POLYLINE
  5
7519
330
A
100
AcDbEntity
  8
MODEL
100
AcDb2dPolyline
 66
     1
 10
0.0
 20
0.0
 30
0.0
  0
VERTEX
  5
751A
330
7519
100
AcDbEntity
  8
MODEL
100
AcDbVertex
100
AcDb2dVertex
 10
559.1278977509389
 20
694.6011977596982
 30
0.0
  0
VERTEX
  5
751B
330
7519
100
AcDbEntity
  8
MODEL
100
AcDbVertex
100
AcDb2dVertex
 10
559.064844046356
 20
693.2783515428208
 30
0.0
  0
SEQEND
  5
751C
330
7519
100
AcDbEntity
  8
MODEL
  0
POLYLINE
  5
751D
330
A
100
AcDbEntity
  8
MODEL
100
AcDb2dPolyline
 66
     1
 10
0.0
 20
0.0
 30
0.0
  0
VERTEX
  5
751E
330
751D
100
AcDbEntity
  8
MODEL
100
AcDbVertex
100
AcDb2dVertex
 10
556.2302468147254
 20
693.0891904290726
 30
0.0
  0
VERTEX
  5
751F
330
751D
100
AcDbEntity
  8
MODEL
100
AcDbVertex
100
AcDb2dVertex
 10
558.8759392484801
 20
693.0891904290726
 30
0.0
  0
SEQEND
  5
7520
330
751D
100
AcDbEntity
  8
MODEL
  0
POLYLINE
  5
7521
330
A
100
AcDbEntity
  8
MODEL
100
AcDb2dPolyline
 66
     1
 10
0.0
 20
0.0
 30
0.0
  0
VERTEX
  5
7522
330
7521
100
AcDbEntity
  8
MODEL
100
AcDbVertex
100
AcDb2dVertex
 10
556.009815164558
 20
693.2783515428208
 30
0.0
  0
VERTEX
  5
7523
330
7521
100
AcDbEntity
  8
MODEL
100
AcDbVertex
100
AcDb2dVertex
 10
556.0728688691408
 20
693.1522441336554
 30
0.0
  0
VERTEX
  5
7524
330
7521
100
AcDbEntity
  8
MODEL
100
AcDbVertex
100
AcDb2dVertex
 10
556.2302468147254
 20
693.0891904290726
 30
0.0
  0
SEQEND
  5
7525
330
7521
100
AcDbEntity
  8
MODEL
  0
POLYLINE
  5
7526
330
A
100
AcDbEntity
  8
MODEL
100
AcDb2dPolyline
 66
     1
 10
0.0
 20
0.0
 30
0.0
  0
VERTEX
  5
7527
330
7526
100
AcDbEntity
  8
MODEL
100
AcDbVertex
100
AcDb2dVertex
 10
559.064844046356
 20
693.2783515428208
 30
0.0
  0
VERTEX
  5
7528
330
7526
100
AcDbEntity
  8
MODEL
100
AcDbVertex
100
AcDb2dVertex
 10
559.0020466576455
 20
693.1522441336554
 30
0.0
  0
VERTEX
  5
7529
330
7526
100
AcDbEntity
  8
MODEL
100
AcDbVertex
100
AcDb2dVertex
 10
558.8759392484801
 20
693.0891904290726
 30
0.0
  0
SEQEND
  5
752A
330
7526
100
AcDbEntity
  8
MODEL
  0
POLYLINE
  5
752B
330
A
100
AcDbEntity
  8
MODEL
100
AcDb2dPolyline
 66
     1
 10
0.0
 20
0.0
 30
0.0
  0
VERTEX
  5
752C
330
752B
100
AcDbEntity
  8
MODEL
100
AcDbVertex
100
AcDb2dVertex
 10
555.946761459975
 20
694.6011977596982
 30
0.0
  0
VERTEX
  5
752D
330
752B
100
AcDbEntity
  8
MODEL
100
AcDbVertex
100
AcDb2dVertex
 10
556.009815164558
 20
693.2783515428208
 30
0.0
  0
SEQEND
  5
752E
330
752B
100
AcDbEntity
  8
MODEL
  0
POLYLINE
  5
752F
330
A
100
AcDbEntity
  8
MODEL
100
AcDb2dPolyline
 66
     1
 10
0.0
 20
0.0
 30
0.0
  0
VERTEX
  5
7530
330
752F
100
AcDbEntity
  8
MODEL
100
AcDbVertex
100
AcDb2dVertex
 10
554.1515250904715
 20
694.6011977596982
 30
0.0
  0
VERTEX
  5
7531
330
752F
100
AcDbEntity
  8
MODEL
100
AcDbVertex
100
AcDb2dVertex
 10
554.0884713858886
 20
693.2783515428208
 30
0.0
  0
VERTEX
  5
7532
330
752F
100
AcDbEntity
  8
MODEL
100
AcDbVertex
100
AcDb2dVertex
 10
554.0254176813057
 20
693.1522441336554
 30
0.0
  0
VERTEX
  5
7533
330
752F
100
AcDbEntity
  8
MODEL
100
AcDbVertex
100
AcDb2dVertex
 10
553.8680397357211
 20
693.0891904290726
 30
0.0
  0
SEQEND
  5
7534
330
752F
100
AcDbEntity
  8
MODEL
  0
POLYLINE
  5
7535
330
A
100
AcDbEntity
  8
MODEL
100
AcDb2dPolyline
 66
     1
 10
0.0
 20
0.0
 30
0.0
  0
VERTEX
  5
7536
330
7535
100
AcDbEntity
  8
MODEL
100
AcDbVertex
100
AcDb2dVertex
 10
550.9703887995076
 20
694.6011977596982
 30
0.0
  0
VERTEX
  5
7537
330
7535
100
AcDbEntity
  8
MODEL
100
AcDbVertex
100
AcDb2dVertex
 10
551.0334425040903
 20
693.2783515428208
 30
0.0
  0
SEQEND
  5
7538
330
7535
100
AcDbEntity
  8
MODEL
  0
POLYLINE
  5
7539
330
A
100
AcDbEntity
  8
MODEL
100
AcDb2dPolyline
 66
     1
 10
0.0
 20
0.0
 30
0.0
  0
VERTEX
  5
753A
330
7539
100
AcDbEntity
  8
MODEL
100
AcDbVertex
100
AcDb2dVertex
 10
551.5688863612997
 20
693.0891904290726
 30
0.0
  0
VERTEX
  5
753B
330
7539
100
AcDbEntity
  8
MODEL
100
AcDbVertex
100
AcDb2dVertex
 10
551.2223473019665
 20
693.0891904290726
 30
0.0
  0
SEQEND
  5
753C
330
7539
100
AcDbEntity
  8
MODEL
  0
POLYLINE
  5
753D
330
A
100
AcDbEntity
  8
MODEL
100
AcDb2dPolyline
 66
     1
 10
0.0
 20
0.0
 30
0.0
  0
VERTEX
  5
753E
330
753D
100
AcDbEntity
  8
MODEL
100
AcDbVertex
100
AcDb2dVertex
 10
551.0334425040903
 20
693.2783515428208
 30
0.0
  0
VERTEX
  5
753F
330
753D
100
AcDbEntity
  8
MODEL
100
AcDbVertex
100
AcDb2dVertex
 10
551.0964962086732
 20
693.1522441336554
 30
0.0
  0
VERTEX
  5
7540
330
753D
100
AcDbEntity
  8
MODEL
100
AcDbVertex
100
AcDb2dVertex
 10
551.2223473019665
 20
693.0891904290726
 30
0.0
  0
SEQEND
  5
7541
330
753D
100
AcDbEntity
  8
MODEL
  0
POLYLINE
  5
7542
330
A
100
AcDbEntity
  8
MODEL
100
AcDb2dPolyline
 66
     1
 10
0.0
 20
0.0
 30
0.0
  0
VERTEX
  5
7543
330
7542
100
AcDbEntity
  8
MODEL
100
AcDbVertex
100
AcDb2dVertex
 10
553.8680397357211
 20
693.0891904290726
 30
0.0
  0
VERTEX
  5
7544
330
7542
100
AcDbEntity
  8
MODEL
100
AcDbVertex
100
AcDb2dVertex
 10
551.5688863612997
 20
693.0891904290726
 30
0.0
  0
SEQEND
  5
7545
330
7542
100
AcDbEntity
  8
MODEL
  0
POLYLINE
  5
7546
330
A
100
AcDbEntity
  8
MODEL
100
AcDb2dPolyline
 66
     1
 10
0.0
 20
0.0
 30
0.0
  0
VERTEX
  5
7547
330
7546
100
AcDbEntity
  8
MODEL
100
AcDbVertex
100
AcDb2dVertex
 10
563.726460815654
 20
694.5696709074067
 30
0.0
  0
VERTEX
  5
7548
330
7546
100
AcDbEntity
  8
MODEL
100
AcDbVertex
100
AcDb2dVertex
 10
563.63188025878
 20
693.2783515428208
 30
0.0
  0
VERTEX
  5
7549
330
7546
100
AcDbEntity
  8
MODEL
100
AcDbVertex
100
AcDb2dVertex
 10
563.6003534064887
 20
693.1207172813639
 30
0.0
  0
VERTEX
  5
754A
330
7546
100
AcDbEntity
  8
MODEL
100
AcDbVertex
100
AcDb2dVertex
 10
563.4429754609039
 20
693.0891904290726
 30
0.0
  0
SEQEND
  5
754B
330
7546
100
AcDbEntity
  8
MODEL
  0
POLYLINE
  5
754C
330
A
100
AcDbEntity
  8
MODEL
100
AcDb2dPolyline
 66
     1
 10
0.0
 20
0.0
 30
0.0
  0
VERTEX
  5
754D
330
754C
100
AcDbEntity
  8
MODEL
100
AcDbVertex
100
AcDb2dVertex
 10
565.0493070325315
 20
694.6011977596982
 30
0.0
  0
VERTEX
  5
754E
330
754C
100
AcDbEntity
  8
MODEL
100
AcDbVertex
100
AcDb2dVertex
 10
565.1121044212418
 20
693.2783515428208
 30
0.0
  0
SEQEND
  5
754F
330
754C
100
AcDbEntity
  8
MODEL
  0
POLYLINE
  5
7550
330
A
100
AcDbEntity
  8
MODEL
100
AcDb2dPolyline
 66
     1
 10
0.0
 20
0.0
 30
0.0
  0
VERTEX
  5
7551
330
7550
100
AcDbEntity
  8
MODEL
100
AcDbVertex
100
AcDb2dVertex
 10
565.647548278451
 20
693.0891904290726
 30
0.0
  0
VERTEX
  5
7552
330
7550
100
AcDbEntity
  8
MODEL
100
AcDbVertex
100
AcDb2dVertex
 10
565.3325360714095
 20
693.0891904290726
 30
0.0
  0
SEQEND
  5
7553
330
7550
100
AcDbEntity
  8
MODEL
  0
POLYLINE
  5
7554
330
A
100
AcDbEntity
  8
MODEL
100
AcDb2dPolyline
 66
     1
 10
0.0
 20
0.0
 30
0.0
  0
VERTEX
  5
7555
330
7554
100
AcDbEntity
  8
MODEL
100
AcDbVertex
100
AcDb2dVertex
 10
565.1121044212418
 20
693.2783515428208
 30
0.0
  0
VERTEX
  5
7556
330
7554
100
AcDbEntity
  8
MODEL
100
AcDbVertex
100
AcDb2dVertex
 10
565.1751581258247
 20
693.1522441336554
 30
0.0
  0
VERTEX
  5
7557
330
7554
100
AcDbEntity
  8
MODEL
100
AcDbVertex
100
AcDb2dVertex
 10
565.3325360714095
 20
693.0891904290726
 30
0.0
  0
SEQEND
  5
7558
330
7554
100
AcDbEntity
  8
MODEL
  0
POLYLINE
  5
7559
330
A
100
AcDbEntity
  8
MODEL
100
AcDb2dPolyline
 66
     1
 10
0.0
 20
0.0
 30
0.0
  0
VERTEX
  5
755A
330
7559
100
AcDbEntity
  8
MODEL
100
AcDbVertex
100
AcDb2dVertex
 10
560.5453245246904
 20
694.5696709074067
 30
0.0
  0
VERTEX
  5
755B
330
7559
100
AcDbEntity
  8
MODEL
100
AcDbVertex
100
AcDb2dVertex
 10
560.608121913401
 20
693.2783515428208
 30
0.0
  0
SEQEND
  5
755C
330
7559
100
AcDbEntity
  8
MODEL
  0
POLYLINE
  5
755D
330
A
100
AcDbEntity
  8
MODEL
100
AcDb2dPolyline
 66
     1
 10
0.0
 20
0.0
 30
0.0
  0
VERTEX
  5
755E
330
755D
100
AcDbEntity
  8
MODEL
100
AcDbVertex
100
AcDb2dVertex
 10
561.1122952341909
 20
693.0891904290726
 30
0.0
  0
VERTEX
  5
755F
330
755D
100
AcDbEntity
  8
MODEL
100
AcDbVertex
100
AcDb2dVertex
 10
560.7972830271492
 20
693.0891904290726
 30
0.0
  0
SEQEND
  5
7560
330
755D
100
AcDbEntity
  8
MODEL
  0
POLYLINE
  5
7561
330
A
100
AcDbEntity
  8
MODEL
100
AcDb2dPolyline
 66
     1
 10
0.0
 20
0.0
 30
0.0
  0
VERTEX
  5
7562
330
7561
100
AcDbEntity
  8
MODEL
100
AcDbVertex
100
AcDb2dVertex
 10
560.608121913401
 20
693.2780952269485
 30
0.0
  0
VERTEX
  5
7563
330
7561
100
AcDbEntity
  8
MODEL
100
AcDbVertex
100
AcDb2dVertex
 10
560.6711756179836
 20
693.1207172813639
 30
0.0
  0
VERTEX
  5
7564
330
7561
100
AcDbEntity
  8
MODEL
100
AcDbVertex
100
AcDb2dVertex
 10
560.7972830271492
 20
693.0891904290726
 30
0.0
  0
SEQEND
  5
7565
330
7561
100
AcDbEntity
  8
MODEL
  0
POLYLINE
  5
7566
330
A
100
AcDbEntity
  8
MODEL
100
AcDb2dPolyline
 66
     1
 10
0.0
 20
0.0
 30
0.0
  0
VERTEX
  5
7567
330
7566
100
AcDbEntity
  8
MODEL
100
AcDbVertex
100
AcDb2dVertex
 10
563.4429754609039
 20
693.0891904290726
 30
0.0
  0
VERTEX
  5
7568
330
7566
100
AcDbEntity
  8
MODEL
100
AcDbVertex
100
AcDb2dVertex
 10
561.1122952341909
 20
693.0891904290726
 30
0.0
  0
SEQEND
  5
7569
330
7566
100
AcDbEntity
  8
MODEL
  0
POLYLINE
  5
756A
330
A
100
AcDbEntity
  8
MODEL
100
AcDb2dPolyline
 66
     1
 10
0.0
 20
0.0
 30
0.0
  0
VERTEX
  5
756B
330
756A
100
AcDbEntity
  8
MODEL
100
AcDbVertex
100
AcDb2dVertex
 10
523.6002110090005
 20
720.113085476119
 30
0.0
  0
VERTEX
  5
756C
330
756A
100
AcDbEntity
  8
MODEL
100
AcDbVertex
100
AcDb2dVertex
 10
539.6002167048212
 20
720.113085476119
 30
0.0
  0
SEQEND
  5
756D
330
756A
100
AcDbEntity
  8
MODEL
  0
POLYLINE
  5
7572
330
A
100
AcDbEntity
  8
MODEL
100
AcDb2dPolyline
 66
     1
 10
0.0
 20
0.0
 30
0.0
  0
VERTEX
  5
7573
330
7572
100
AcDbEntity
  8
MODEL
100
AcDbVertex
100
AcDb2dVertex
 10
539.6002167048212
 20
719.6404390076201
 30
0.0
  0
VERTEX
  5
7574
330
7572
100
AcDbEntity
  8
MODEL
100
AcDbVertex
100
AcDb2dVertex
 10
539.6002167048212
 20
720.113085476119
 30
0.0
  0
SEQEND
  5
7575
330
7572
100
AcDbEntity
  8
MODEL
  0
POLYLINE
  5
7576
330
A
100
AcDbEntity
  8
MODEL
100
AcDb2dPolyline
 66
     1
 10
0.0
 20
0.0
 30
0.0
  0
VERTEX
  5
7577
330
7576
100
AcDbEntity
  8
MODEL
100
AcDbVertex
100
AcDb2dVertex
 10
600.9232765179306
 20
693.026393040362
 30
0.0
  0
VERTEX
  5
7578
330
7576
100
AcDbEntity
  8
MODEL
100
AcDbVertex
100
AcDb2dVertex
 10
598.6238668276369
 20
693.026393040362
 30
0.0
  0
SEQEND
  5
7579
330
7576
100
AcDbEntity
  8
MODEL
  0
POLYLINE
  5
757A
330
A
100
AcDbEntity
  8
MODEL
100
AcDb2dPolyline
 66
     1
 10
0.0
 20
0.0
 30
0.0
  0
VERTEX
  5
757B
330
757A
100
AcDbEntity
  8
MODEL
100
AcDbVertex
100
AcDb2dVertex
 10
577.5844347667658
 20
693.0894467449447
 30
0.0
  0
VERTEX
  5
757C
330
757A
100
AcDbEntity
  8
MODEL
100
AcDbVertex
100
AcDb2dVertex
 10
575.253754540053
 20
693.0894467449447
 30
0.0
  0
SEQEND
  5
757D
330
757A
100
AcDbEntity
  8
MODEL
  0
POLYLINE
  5
757E
330
A
100
AcDbEntity
  8
MODEL
100
AcDb2dPolyline
 66
     1
 10
0.0
 20
0.0
 30
0.0
  0
VERTEX
  5
757F
330
757E
100
AcDbEntity
  8
MODEL
100
AcDbVertex
100
AcDb2dVertex
 10
574.6870401464248
 20
694.6011977596982
 30
0.0
  0
VERTEX
  5
7580
330
757E
100
AcDbEntity
  8
MODEL
100
AcDbVertex
100
AcDb2dVertex
 10
574.7498375351352
 20
693.3098783951123
 30
0.0
  0
SEQEND
  5
7581
330
757E
100
AcDbEntity
  8
MODEL
  0
POLYLINE
  5
7582
330
A
100
AcDbEntity
  8
MODEL
100
AcDb2dPolyline
 66
     1
 10
0.0
 20
0.0
 30
0.0
  0
VERTEX
  5
7583
330
7582
100
AcDbEntity
  8
MODEL
100
AcDbVertex
100
AcDb2dVertex
 10
575.253754540053
 20
693.0894467449447
 30
0.0
  0
VERTEX
  5
7584
330
7582
100
AcDbEntity
  8
MODEL
100
AcDbVertex
100
AcDb2dVertex
 10
574.9387423330113
 20
693.0894467449447
 30
0.0
  0
SEQEND
  5
7585
330
7582
100
AcDbEntity
  8
MODEL
  0
POLYLINE
  5
7586
330
A
100
AcDbEntity
  8
MODEL
100
AcDb2dPolyline
 66
     1
 10
0.0
 20
0.0
 30
0.0
  0
VERTEX
  5
7587
330
7586
100
AcDbEntity
  8
MODEL
100
AcDbVertex
100
AcDb2dVertex
 10
574.7498375351352
 20
693.3098783951123
 30
0.0
  0
VERTEX
  5
7588
330
7586
100
AcDbEntity
  8
MODEL
100
AcDbVertex
100
AcDb2dVertex
 10
574.812891239718
 20
693.1522441336554
 30
0.0
  0
VERTEX
  5
7589
330
7586
100
AcDbEntity
  8
MODEL
100
AcDbVertex
100
AcDb2dVertex
 10
574.9387423330113
 20
693.0894467449447
 30
0.0
  0
SEQEND
  5
758A
330
7586
100
AcDbEntity
  8
MODEL
  0
POLYLINE
  5
758B
330
A
100
AcDbEntity
  8
MODEL
100
AcDb2dPolyline
 66
     1
 10
0.0
 20
0.0
 30
0.0
  0
VERTEX
  5
758C
330
758B
100
AcDbEntity
  8
MODEL
100
AcDbVertex
100
AcDb2dVertex
 10
572.7026426631726
 20
694.5381440551154
 30
0.0
  0
VERTEX
  5
758D
330
758B
100
AcDbEntity
  8
MODEL
100
AcDbVertex
100
AcDb2dVertex
 10
572.6395889585899
 20
693.2468246905295
 30
0.0
  0
VERTEX
  5
758E
330
758B
100
AcDbEntity
  8
MODEL
100
AcDbVertex
100
AcDb2dVertex
 10
572.576535254007
 20
693.1207172813639
 30
0.0
  0
VERTEX
  5
758F
330
758B
100
AcDbEntity
  8
MODEL
100
AcDbVertex
100
AcDb2dVertex
 10
572.4506841607138
 20
693.0579198926533
 30
0.0
  0
SEQEND
  5
7590
330
758B
100
AcDbEntity
  8
MODEL
  0
POLYLINE
  5
7591
330
A
100
AcDbEntity
  8
MODEL
100
AcDb2dPolyline
 66
     1
 10
0.0
 20
0.0
 30
0.0
  0
VERTEX
  5
7592
330
7591
100
AcDbEntity
  8
MODEL
100
AcDbVertex
100
AcDb2dVertex
 10
568.2301870076228
 20
694.6011977596982
 30
0.0
  0
VERTEX
  5
7593
330
7591
100
AcDbEntity
  8
MODEL
100
AcDbVertex
100
AcDb2dVertex
 10
568.1671333030401
 20
693.2783515428208
 30
0.0
  0
VERTEX
  5
7594
330
7591
100
AcDbEntity
  8
MODEL
100
AcDbVertex
100
AcDb2dVertex
 10
568.1040795984572
 20
693.1522441336554
 30
0.0
  0
VERTEX
  5
7595
330
7591
100
AcDbEntity
  8
MODEL
100
AcDbVertex
100
AcDb2dVertex
 10
567.978228505164
 20
693.0894467449447
 30
0.0
  0
SEQEND
  5
7596
330
7591
100
AcDbEntity
  8
MODEL
  0
POLYLINE
  5
7597
330
A
100
AcDbEntity
  8
MODEL
100
AcDb2dPolyline
 66
     1
 10
0.0
 20
0.0
 30
0.0
  0
VERTEX
  5
7598
330
7597
100
AcDbEntity
  8
MODEL
100
AcDbVertex
100
AcDb2dVertex
 10
569.5215063722087
 20
694.5381440551154
 30
0.0
  0
VERTEX
  5
7599
330
7597
100
AcDbEntity
  8
MODEL
100
AcDbVertex
100
AcDb2dVertex
 10
569.6160869290829
 20
693.2468246905295
 30
0.0
  0
SEQEND
  5
759A
330
7597
100
AcDbEntity
  8
MODEL
  0
POLYLINE
  5
759B
330
A
100
AcDbEntity
  8
MODEL
100
AcDb2dPolyline
 66
     1
 10
0.0
 20
0.0
 30
0.0
  0
VERTEX
  5
759C
330
759B
100
AcDbEntity
  8
MODEL
100
AcDbVertex
100
AcDb2dVertex
 10
570.1200039340008
 20
693.0579198926533
 30
0.0
  0
VERTEX
  5
759D
330
759B
100
AcDbEntity
  8
MODEL
100
AcDbVertex
100
AcDb2dVertex
 10
569.8049917269591
 20
693.0579198926533
 30
0.0
  0
SEQEND
  5
759E
330
759B
100
AcDbEntity
  8
MODEL
  0
POLYLINE
  5
759F
330
A
100
AcDbEntity
  8
MODEL
100
AcDb2dPolyline
 66
     1
 10
0.0
 20
0.0
 30
0.0
  0
VERTEX
  5
75A0
330
759F
100
AcDbEntity
  8
MODEL
100
AcDbVertex
100
AcDb2dVertex
 10
569.6160869290829
 20
693.2468246905295
 30
0.0
  0
VERTEX
  5
75A1
330
759F
100
AcDbEntity
  8
MODEL
100
AcDbVertex
100
AcDb2dVertex
 10
569.6476137813745
 20
693.1207172813639
 30
0.0
  0
VERTEX
  5
75A2
330
759F
100
AcDbEntity
  8
MODEL
100
AcDbVertex
100
AcDb2dVertex
 10
569.8049917269591
 20
693.0579198926533
 30
0.0
  0
SEQEND
  5
75A3
330
759F
100
AcDbEntity
  8
MODEL
  0
POLYLINE
  5
75A4
330
A
100
AcDbEntity
  8
MODEL
100
AcDb2dPolyline
 66
     1
 10
0.0
 20
0.0
 30
0.0
  0
VERTEX
  5
75A5
330
75A4
100
AcDbEntity
  8
MODEL
100
AcDbVertex
100
AcDb2dVertex
 10
572.4506841607138
 20
693.0579198926533
 30
0.0
  0
VERTEX
  5
75A6
330
75A4
100
AcDbEntity
  8
MODEL
100
AcDbVertex
100
AcDb2dVertex
 10
570.1200039340008
 20
693.0579198926533
 30
0.0
  0
SEQEND
  5
75A7
330
75A4
100
AcDbEntity
  8
MODEL
  0
POLYLINE
  5
75A8
330
A
100
AcDbEntity
  8
MODEL
100
AcDb2dPolyline
 66
     1
 10
0.0
 20
0.0
 30
0.0
  0
VERTEX
  5
75A9
330
75A8
100
AcDbEntity
  8
MODEL
100
AcDbVertex
100
AcDb2dVertex
 10
579.94664184577
 20
693.1207172813639
 30
0.0
  0
VERTEX
  5
75AA
330
75A8
100
AcDbEntity
  8
MODEL
100
AcDbVertex
100
AcDb2dVertex
 10
582.5923342795247
 20
693.1207172813639
 30
0.0
  0
SEQEND
  5
75AB
330
75A8
100
AcDbEntity
  8
MODEL
  0
POLYLINE
  5
75AC
330
A
100
AcDbEntity
  8
MODEL
100
AcDb2dPolyline
 66
     1
 10
0.0
 20
0.0
 30
0.0
  0
VERTEX
  5
75AD
330
75AC
100
AcDbEntity
  8
MODEL
100
AcDbVertex
100
AcDb2dVertex
 10
579.7262101956028
 20
693.3098783951123
 30
0.0
  0
VERTEX
  5
75AE
330
75AC
100
AcDbEntity
  8
MODEL
100
AcDbVertex
100
AcDb2dVertex
 10
579.7892639001855
 20
693.1837709859466
 30
0.0
  0
VERTEX
  5
75AF
330
75AC
100
AcDbEntity
  8
MODEL
100
AcDbVertex
100
AcDb2dVertex
 10
579.94664184577
 20
693.1207172813639
 30
0.0
  0
SEQEND
  5
75B0
330
75AC
100
AcDbEntity
  8
MODEL
  0
POLYLINE
  5
75B1
330
A
100
AcDbEntity
  8
MODEL
100
AcDb2dPolyline
 66
     1
 10
0.0
 20
0.0
 30
0.0
  0
VERTEX
  5
75B2
330
75B1
100
AcDbEntity
  8
MODEL
100
AcDbVertex
100
AcDb2dVertex
 10
582.7814953932732
 20
693.3098783951123
 30
0.0
  0
VERTEX
  5
75B3
330
75B1
100
AcDbEntity
  8
MODEL
100
AcDbVertex
100
AcDb2dVertex
 10
582.7184416886903
 20
693.1837709859466
 30
0.0
  0
VERTEX
  5
75B4
330
75B1
100
AcDbEntity
  8
MODEL
100
AcDbVertex
100
AcDb2dVertex
 10
582.5923342795247
 20
693.1207172813639
 30
0.0
  0
SEQEND
  5
75B5
330
75B1
100
AcDbEntity
  8
MODEL
  0
POLYLINE
  5
75B6
330
A
100
AcDbEntity
  8
MODEL
100
AcDb2dPolyline
 66
     1
 10
0.0
 20
0.0
 30
0.0
  0
VERTEX
  5
75B7
330
75B6
100
AcDbEntity
  8
MODEL
100
AcDbVertex
100
AcDb2dVertex
 10
579.6634128068922
 20
694.6011977596982
 30
0.0
  0
VERTEX
  5
75B8
330
75B6
100
AcDbEntity
  8
MODEL
100
AcDbVertex
100
AcDb2dVertex
 10
579.7262101956028
 20
693.3098783951123
 30
0.0
  0
SEQEND
  5
75B9
330
75B6
100
AcDbEntity
  8
MODEL
  0
POLYLINE
  5
75BA
330
A
100
AcDbEntity
  8
MODEL
100
AcDb2dPolyline
 66
     1
 10
0.0
 20
0.0
 30
0.0
  0
VERTEX
  5
75BB
330
75BA
100
AcDbEntity
  8
MODEL
100
AcDbVertex
100
AcDb2dVertex
 10
582.8445490978559
 20
694.6011977596982
 30
0.0
  0
VERTEX
  5
75BC
330
75BA
100
AcDbEntity
  8
MODEL
100
AcDbVertex
100
AcDb2dVertex
 10
582.7814953932732
 20
693.3098783951123
 30
0.0
  0
SEQEND
  5
75BD
330
75BA
100
AcDbEntity
  8
MODEL
  0
POLYLINE
  5
75BE
330
A
100
AcDbEntity
  8
MODEL
100
AcDb2dPolyline
 66
     1
 10
0.0
 20
0.0
 30
0.0
  0
VERTEX
  5
75BF
330
75BE
100
AcDbEntity
  8
MODEL
100
AcDbVertex
100
AcDb2dVertex
 10
577.8679201215161
 20
694.6011977596982
 30
0.0
  0
VERTEX
  5
75C0
330
75BE
100
AcDbEntity
  8
MODEL
100
AcDbVertex
100
AcDb2dVertex
 10
577.8051227328056
 20
693.3098783951123
 30
0.0
  0
VERTEX
  5
75C1
330
75BE
100
AcDbEntity
  8
MODEL
100
AcDbVertex
100
AcDb2dVertex
 10
577.7420690282229
 20
693.1522441336554
 30
0.0
  0
VERTEX
  5
75C2
330
75BE
100
AcDbEntity
  8
MODEL
100
AcDbVertex
100
AcDb2dVertex
 10
577.5844347667658
 20
693.0894467449447
 30
0.0
  0
SEQEND
  5
75C3
330
75BE
100
AcDbEntity
  8
MODEL
  0
POLYLINE
  5
75C4
330
A
100
AcDbEntity
  8
MODEL
100
AcDb2dPolyline
 66
     1
 10
0.0
 20
0.0
 30
0.0
  0
VERTEX
  5
75C5
330
75C4
100
AcDbEntity
  8
MODEL
100
AcDbVertex
100
AcDb2dVertex
 10
587.4113289944075
 20
694.6011977596982
 30
0.0
  0
VERTEX
  5
75C6
330
75C4
100
AcDbEntity
  8
MODEL
100
AcDbVertex
100
AcDb2dVertex
 10
587.3482752898246
 20
693.2783515428208
 30
0.0
  0
VERTEX
  5
75C7
330
75C4
100
AcDbEntity
  8
MODEL
100
AcDbVertex
100
AcDb2dVertex
 10
587.2854779011143
 20
693.1522441336554
 30
0.0
  0
VERTEX
  5
75C8
330
75C4
100
AcDbEntity
  8
MODEL
100
AcDbVertex
100
AcDb2dVertex
 10
587.1593704919487
 20
693.0894467449447
 30
0.0
  0
SEQEND
  5
75C9
330
75C4
100
AcDbEntity
  8
MODEL
  0
POLYLINE
  5
75CA
330
A
100
AcDbEntity
  8
MODEL
100
AcDb2dPolyline
 66
     1
 10
0.0
 20
0.0
 30
0.0
  0
VERTEX
  5
75CB
330
75CA
100
AcDbEntity
  8
MODEL
100
AcDbVertex
100
AcDb2dVertex
 10
588.7657020635761
 20
694.6011977596982
 30
0.0
  0
VERTEX
  5
75CC
330
75CA
100
AcDbEntity
  8
MODEL
100
AcDbVertex
100
AcDb2dVertex
 10
588.828755768159
 20
693.3098783951123
 30
0.0
  0
SEQEND
  5
75CD
330
75CA
100
AcDbEntity
  8
MODEL
  0
POLYLINE
  5
75CE
330
A
100
AcDbEntity
  8
MODEL
100
AcDb2dPolyline
 66
     1
 10
0.0
 20
0.0
 30
0.0
  0
VERTEX
  5
75CF
330
75CE
100
AcDbEntity
  8
MODEL
100
AcDbVertex
100
AcDb2dVertex
 10
591.94683835454
 20
694.6011977596982
 30
0.0
  0
VERTEX
  5
75D0
330
75CE
100
AcDbEntity
  8
MODEL
100
AcDbVertex
100
AcDb2dVertex
 10
591.8837846499571
 20
693.3098783951123
 30
0.0
  0
SEQEND
  5
75D1
330
75CE
100
AcDbEntity
  8
MODEL
  0
POLYLINE
  5
75D2
330
A
100
AcDbEntity
  8
MODEL
100
AcDb2dPolyline
 66
     1
 10
0.0
 20
0.0
 30
0.0
  0
VERTEX
  5
75D3
330
75D2
100
AcDbEntity
  8
MODEL
100
AcDbVertex
100
AcDb2dVertex
 10
589.0176605660351
 20
693.1207172813639
 30
0.0
  0
VERTEX
  5
75D4
330
75D2
100
AcDbEntity
  8
MODEL
100
AcDbVertex
100
AcDb2dVertex
 10
591.6948798520809
 20
693.1207172813639
 30
0.0
  0
SEQEND
  5
75D5
330
75D2
100
AcDbEntity
  8
MODEL
  0
POLYLINE
  5
75D6
330
A
100
AcDbEntity
  8
MODEL
100
AcDb2dPolyline
 66
     1
 10
0.0
 20
0.0
 30
0.0
  0
VERTEX
  5
75D7
330
75D6
100
AcDbEntity
  8
MODEL
100
AcDbVertex
100
AcDb2dVertex
 10
588.828755768159
 20
693.3098783951123
 30
0.0
  0
VERTEX
  5
75D8
330
75D6
100
AcDbEntity
  8
MODEL
100
AcDbVertex
100
AcDb2dVertex
 10
588.8915531568693
 20
693.1837709859466
 30
0.0
  0
VERTEX
  5
75D9
330
75D6
100
AcDbEntity
  8
MODEL
100
AcDbVertex
100
AcDb2dVertex
 10
589.0176605660351
 20
693.1207172813639
 30
0.0
  0
SEQEND
  5
75DA
330
75D6
100
AcDbEntity
  8
MODEL
  0
POLYLINE
  5
75DB
330
A
100
AcDbEntity
  8
MODEL
100
AcDb2dPolyline
 66
     1
 10
0.0
 20
0.0
 30
0.0
  0
VERTEX
  5
75DC
330
75DB
100
AcDbEntity
  8
MODEL
100
AcDbVertex
100
AcDb2dVertex
 10
591.8837846499571
 20
693.3098783951123
 30
0.0
  0
VERTEX
  5
75DD
330
75DB
100
AcDbEntity
  8
MODEL
100
AcDbVertex
100
AcDb2dVertex
 10
591.8207309453744
 20
693.1837709859466
 30
0.0
  0
VERTEX
  5
75DE
330
75DB
100
AcDbEntity
  8
MODEL
100
AcDbVertex
100
AcDb2dVertex
 10
591.6948798520809
 20
693.1207172813639
 30
0.0
  0
SEQEND
  5
75DF
330
75DB
100
AcDbEntity
  8
MODEL
  0
POLYLINE
  5
75E0
330
A
100
AcDbEntity
  8
MODEL
100
AcDb2dPolyline
 66
     1
 10
0.0
 20
0.0
 30
0.0
  0
VERTEX
  5
75E1
330
75E0
100
AcDbEntity
  8
MODEL
100
AcDbVertex
100
AcDb2dVertex
 10
584.2301927034437
 20
694.6011977596982
 30
0.0
  0
VERTEX
  5
75E2
330
75E0
100
AcDbEntity
  8
MODEL
100
AcDbVertex
100
AcDb2dVertex
 10
584.2932464080266
 20
693.2783515428208
 30
0.0
  0
SEQEND
  5
75E3
330
75E0
100
AcDbEntity
  8
MODEL
  0
POLYLINE
  5
75E4
330
A
100
AcDbEntity
  8
MODEL
100
AcDb2dPolyline
 66
     1
 10
0.0
 20
0.0
 30
0.0
  0
VERTEX
  5
75E5
330
75E4
100
AcDbEntity
  8
MODEL
100
AcDbVertex
100
AcDb2dVertex
 10
584.8286902652358
 20
693.0891904290726
 30
0.0
  0
VERTEX
  5
75E6
330
75E4
100
AcDbEntity
  8
MODEL
100
AcDbVertex
100
AcDb2dVertex
 10
584.513678058194
 20
693.0891904290726
 30
0.0
  0
SEQEND
  5
75E7
330
75E4
100
AcDbEntity
  8
MODEL
  0
POLYLINE
  5
75E8
330
A
100
AcDbEntity
  8
MODEL
100
AcDb2dPolyline
 66
     1
 10
0.0
 20
0.0
 30
0.0
  0
VERTEX
  5
75E9
330
75E8
100
AcDbEntity
  8
MODEL
100
AcDbVertex
100
AcDb2dVertex
 10
584.2932464080266
 20
693.2783515428208
 30
0.0
  0
VERTEX
  5
75EA
330
75E8
100
AcDbEntity
  8
MODEL
100
AcDbVertex
100
AcDb2dVertex
 10
584.3563001126092
 20
693.1522441336554
 30
0.0
  0
VERTEX
  5
75EB
330
75E8
100
AcDbEntity
  8
MODEL
100
AcDbVertex
100
AcDb2dVertex
 10
584.513678058194
 20
693.0891904290726
 30
0.0
  0
SEQEND
  5
75EC
330
75E8
100
AcDbEntity
  8
MODEL
  0
POLYLINE
  5
75ED
330
A
100
AcDbEntity
  8
MODEL
100
AcDb2dPolyline
 66
     1
 10
0.0
 20
0.0
 30
0.0
  0
VERTEX
  5
75EE
330
75ED
100
AcDbEntity
  8
MODEL
100
AcDbVertex
100
AcDb2dVertex
 10
587.1593704919487
 20
693.0891904290726
 30
0.0
  0
VERTEX
  5
75EF
330
75ED
100
AcDbEntity
  8
MODEL
100
AcDbVertex
100
AcDb2dVertex
 10
584.8286902652358
 20
693.0891904290726
 30
0.0
  0
SEQEND
  5
75F0
330
75ED
100
AcDbEntity
  8
MODEL
  0
POLYLINE
  5
75F1
330
A
100
AcDbEntity
  8
MODEL
100
AcDb2dPolyline
 66
     1
 10
0.0
 20
0.0
 30
0.0
  0
VERTEX
  5
75F2
330
75F1
100
AcDbEntity
  8
MODEL
100
AcDbVertex
100
AcDb2dVertex
 10
598.0256255817173
 20
694.5381440551154
 30
0.0
  0
VERTEX
  5
75F3
330
75F1
100
AcDbEntity
  8
MODEL
100
AcDbVertex
100
AcDb2dVertex
 10
598.0886792863
 20
693.215297838238
 30
0.0
  0
SEQEND
  5
75F4
330
75F1
100
AcDbEntity
  8
MODEL
  0
POLYLINE
  5
75F5
330
A
100
AcDbEntity
  8
MODEL
100
AcDb2dPolyline
 66
     1
 10
0.0
 20
0.0
 30
0.0
  0
VERTEX
  5
75F6
330
75F5
100
AcDbEntity
  8
MODEL
100
AcDbVertex
100
AcDb2dVertex
 10
598.6238668276369
 20
693.026393040362
 30
0.0
  0
VERTEX
  5
75F7
330
75F5
100
AcDbEntity
  8
MODEL
100
AcDbVertex
100
AcDb2dVertex
 10
598.2775840841762
 20
693.026393040362
 30
0.0
  0
SEQEND
  5
75F8
330
75F5
100
AcDbEntity
  8
MODEL
  0
POLYLINE
  5
75F9
330
A
100
AcDbEntity
  8
MODEL
100
AcDb2dPolyline
 66
     1
 10
0.0
 20
0.0
 30
0.0
  0
VERTEX
  5
75FA
330
75F9
100
AcDbEntity
  8
MODEL
100
AcDbVertex
100
AcDb2dVertex
 10
598.0886792863
 20
693.215297838238
 30
0.0
  0
VERTEX
  5
75FB
330
75F9
100
AcDbEntity
  8
MODEL
100
AcDbVertex
100
AcDb2dVertex
 10
598.1514766750106
 20
693.0891904290726
 30
0.0
  0
VERTEX
  5
75FC
330
75F9
100
AcDbEntity
  8
MODEL
100
AcDbVertex
100
AcDb2dVertex
 10
598.2775840841762
 20
693.026393040362
 30
0.0
  0
SEQEND
  5
75FD
330
75F9
100
AcDbEntity
  8
MODEL
  0
POLYLINE
  5
75FE
330
A
100
AcDbEntity
  8
MODEL
100
AcDb2dPolyline
 66
     1
 10
0.0
 20
0.0
 30
0.0
  0
VERTEX
  5
75FF
330
75FE
100
AcDbEntity
  8
MODEL
100
AcDbVertex
100
AcDb2dVertex
 10
596.4192940100895
 20
694.5696709074067
 30
0.0
  0
VERTEX
  5
7600
330
75FE
100
AcDbEntity
  8
MODEL
100
AcDbVertex
100
AcDb2dVertex
 10
596.3562403055068
 20
693.2468246905295
 30
0.0
  0
VERTEX
  5
7601
330
75FE
100
AcDbEntity
  8
MODEL
100
AcDbVertex
100
AcDb2dVertex
 10
596.293186600924
 20
693.1207172813639
 30
0.0
  0
VERTEX
  5
7602
330
75FE
100
AcDbEntity
  8
MODEL
100
AcDbVertex
100
AcDb2dVertex
 10
596.1673355076307
 20
693.0579198926533
 30
0.0
  0
SEQEND
  5
7603
330
75FE
100
AcDbEntity
  8
MODEL
  0
POLYLINE
  5
7604
330
A
100
AcDbEntity
  8
MODEL
100
AcDb2dPolyline
 66
     1
 10
0.0
 20
0.0
 30
0.0
  0
VERTEX
  5
7605
330
7604
100
AcDbEntity
  8
MODEL
100
AcDbVertex
100
AcDb2dVertex
 10
593.2381577191259
 20
694.5696709074067
 30
0.0
  0
VERTEX
  5
7606
330
7604
100
AcDbEntity
  8
MODEL
100
AcDbVertex
100
AcDb2dVertex
 10
593.3012114237085
 20
693.2468246905295
 30
0.0
  0
SEQEND
  5
7607
330
7604
100
AcDbEntity
  8
MODEL
  0
POLYLINE
  5
7608
330
A
100
AcDbEntity
  8
MODEL
100
AcDb2dPolyline
 66
     1
 10
0.0
 20
0.0
 30
0.0
  0
VERTEX
  5
7609
330
7608
100
AcDbEntity
  8
MODEL
100
AcDbVertex
100
AcDb2dVertex
 10
593.8366552809177
 20
693.057663576781
 30
0.0
  0
VERTEX
  5
760A
330
7608
100
AcDbEntity
  8
MODEL
100
AcDbVertex
100
AcDb2dVertex
 10
593.5216430738762
 20
693.057663576781
 30
0.0
  0
SEQEND
  5
760B
330
7608
100
AcDbEntity
  8
MODEL
  0
POLYLINE
  5
760C
330
A
100
AcDbEntity
  8
MODEL
100
AcDb2dPolyline
 66
     1
 10
0.0
 20
0.0
 30
0.0
  0
VERTEX
  5
760D
330
760C
100
AcDbEntity
  8
MODEL
100
AcDbVertex
100
AcDb2dVertex
 10
593.3012114237085
 20
693.2468246905295
 30
0.0
  0
VERTEX
  5
760E
330
760C
100
AcDbEntity
  8
MODEL
100
AcDbVertex
100
AcDb2dVertex
 10
593.3642651282914
 20
693.1207172813639
 30
0.0
  0
VERTEX
  5
760F
330
760C
100
AcDbEntity
  8
MODEL
100
AcDbVertex
100
AcDb2dVertex
 10
593.5216430738762
 20
693.057663576781
 30
0.0
  0
SEQEND
  5
7610
330
760C
100
AcDbEntity
  8
MODEL
  0
POLYLINE
  5
7611
330
A
100
AcDbEntity
  8
MODEL
100
AcDb2dPolyline
 66
     1
 10
0.0
 20
0.0
 30
0.0
  0
VERTEX
  5
7612
330
7611
100
AcDbEntity
  8
MODEL
100
AcDbVertex
100
AcDb2dVertex
 10
596.1673355076307
 20
693.057663576781
 30
0.0
  0
VERTEX
  5
7613
330
7611
100
AcDbEntity
  8
MODEL
100
AcDbVertex
100
AcDb2dVertex
 10
593.8366552809177
 20
693.057663576781
 30
0.0
  0
SEQEND
  5
7614
330
7611
100
AcDbEntity
  8
MODEL
  0
POLYLINE
  5
7615
330
A
100
AcDbEntity
  8
MODEL
100
AcDb2dPolyline
 66
     1
 10
0.0
 20
0.0
 30
0.0
  0
VERTEX
  5
7616
330
7615
100
AcDbEntity
  8
MODEL
100
AcDbVertex
100
AcDb2dVertex
 10
616.6397968590011
 20
693.1837709859466
 30
0.0
  0
VERTEX
  5
7617
330
7615
100
AcDbEntity
  8
MODEL
100
AcDbVertex
100
AcDb2dVertex
 10
616.702850563584
 20
693.057663576781
 30
0.0
  0
VERTEX
  5
7618
330
7615
100
AcDbEntity
  8
MODEL
100
AcDbVertex
100
AcDb2dVertex
 10
616.8602285091688
 20
692.9948661880707
 30
0.0
  0
SEQEND
  5
7619
330
7615
100
AcDbEntity
  8
MODEL
  0
POLYLINE
  5
761A
330
A
100
AcDbEntity
  8
MODEL
100
AcDb2dPolyline
 66
     1
 10
0.0
 20
0.0
 30
0.0
  0
VERTEX
  5
761B
330
761A
100
AcDbEntity
  8
MODEL
100
AcDbVertex
100
AcDb2dVertex
 10
610.4979559272413
 20
693.026393040362
 30
0.0
  0
VERTEX
  5
761C
330
761A
100
AcDbEntity
  8
MODEL
100
AcDbVertex
100
AcDb2dVertex
 10
608.1672757005283
 20
693.026393040362
 30
0.0
  0
SEQEND
  5
761D
330
761A
100
AcDbEntity
  8
MODEL
  0
POLYLINE
  5
761E
330
A
100
AcDbEntity
  8
MODEL
100
AcDb2dPolyline
 66
     1
 10
0.0
 20
0.0
 30
0.0
  0
VERTEX
  5
761F
330
761E
100
AcDbEntity
  8
MODEL
100
AcDbVertex
100
AcDb2dVertex
 10
603.2854835969349
 20
693.026393040362
 30
0.0
  0
VERTEX
  5
7620
330
761E
100
AcDbEntity
  8
MODEL
100
AcDbVertex
100
AcDb2dVertex
 10
605.9311760306896
 20
693.026393040362
 30
0.0
  0
SEQEND
  5
7621
330
761E
100
AcDbEntity
  8
MODEL
  0
POLYLINE
  5
7622
330
A
100
AcDbEntity
  8
MODEL
100
AcDb2dPolyline
 66
     1
 10
0.0
 20
0.0
 30
0.0
  0
VERTEX
  5
7623
330
7622
100
AcDbEntity
  8
MODEL
100
AcDbVertex
100
AcDb2dVertex
 10
603.0650519467674
 20
693.215297838238
 30
0.0
  0
VERTEX
  5
7624
330
7622
100
AcDbEntity
  8
MODEL
100
AcDbVertex
100
AcDb2dVertex
 10
603.127849335478
 20
693.0891904290726
 30
0.0
  0
VERTEX
  5
7625
330
7622
100
AcDbEntity
  8
MODEL
100
AcDbVertex
100
AcDb2dVertex
 10
603.2854835969349
 20
693.026393040362
 30
0.0
  0
SEQEND
  5
7626
330
7622
100
AcDbEntity
  8
MODEL
  0
POLYLINE
  5
7627
330
A
100
AcDbEntity
  8
MODEL
100
AcDb2dPolyline
 66
     1
 10
0.0
 20
0.0
 30
0.0
  0
VERTEX
  5
7628
330
7627
100
AcDbEntity
  8
MODEL
100
AcDbVertex
100
AcDb2dVertex
 10
606.1200808285657
 20
693.215297838238
 30
0.0
  0
VERTEX
  5
7629
330
7627
100
AcDbEntity
  8
MODEL
100
AcDbVertex
100
AcDb2dVertex
 10
606.0570271239828
 20
693.0891904290726
 30
0.0
  0
VERTEX
  5
762A
330
7627
100
AcDbEntity
  8
MODEL
100
AcDbVertex
100
AcDb2dVertex
 10
605.9311760306896
 20
693.026393040362
 30
0.0
  0
SEQEND
  5
762B
330
7627
100
AcDbEntity
  8
MODEL
  0
POLYLINE
  5
762C
330
A
100
AcDbEntity
  8
MODEL
100
AcDb2dPolyline
 66
     1
 10
0.0
 20
0.0
 30
0.0
  0
VERTEX
  5
762D
330
762C
100
AcDbEntity
  8
MODEL
100
AcDbVertex
100
AcDb2dVertex
 10
603.0019982421848
 20
694.5381440551154
 30
0.0
  0
VERTEX
  5
762E
330
762C
100
AcDbEntity
  8
MODEL
100
AcDbVertex
100
AcDb2dVertex
 10
603.0650519467674
 20
693.215297838238
 30
0.0
  0
SEQEND
  5
762F
330
762C
100
AcDbEntity
  8
MODEL
  0
POLYLINE
  5
7630
330
A
100
AcDbEntity
  8
MODEL
100
AcDb2dPolyline
 66
     1
 10
0.0
 20
0.0
 30
0.0
  0
VERTEX
  5
7631
330
7630
100
AcDbEntity
  8
MODEL
100
AcDbVertex
100
AcDb2dVertex
 10
606.1831345331484
 20
694.5381440551154
 30
0.0
  0
VERTEX
  5
7632
330
7630
100
AcDbEntity
  8
MODEL
100
AcDbVertex
100
AcDb2dVertex
 10
606.1200808285657
 20
693.215297838238
 30
0.0
  0
SEQEND
  5
7633
330
7630
100
AcDbEntity
  8
MODEL
  0
POLYLINE
  5
7634
330
A
100
AcDbEntity
  8
MODEL
100
AcDb2dPolyline
 66
     1
 10
0.0
 20
0.0
 30
0.0
  0
VERTEX
  5
7635
330
7634
100
AcDbEntity
  8
MODEL
100
AcDbVertex
100
AcDb2dVertex
 10
601.206761872681
 20
694.5381440551154
 30
0.0
  0
VERTEX
  5
7636
330
7634
100
AcDbEntity
  8
MODEL
100
AcDbVertex
100
AcDb2dVertex
 10
601.1437081680981
 20
693.215297838238
 30
0.0
  0
VERTEX
  5
7637
330
7634
100
AcDbEntity
  8
MODEL
100
AcDbVertex
100
AcDb2dVertex
 10
601.0806544635154
 20
693.0891904290726
 30
0.0
  0
VERTEX
  5
7638
330
7634
100
AcDbEntity
  8
MODEL
100
AcDbVertex
100
AcDb2dVertex
 10
600.9232765179306
 20
693.026393040362
 30
0.0
  0
SEQEND
  5
7639
330
7634
100
AcDbEntity
  8
MODEL
  0
POLYLINE
  5
763A
330
A
100
AcDbEntity
  8
MODEL
100
AcDb2dPolyline
 66
     1
 10
0.0
 20
0.0
 30
0.0
  0
VERTEX
  5
763B
330
763A
100
AcDbEntity
  8
MODEL
100
AcDbVertex
100
AcDb2dVertex
 10
607.5687781387362
 20
694.5066172028239
 30
0.0
  0
VERTEX
  5
763C
330
763A
100
AcDbEntity
  8
MODEL
100
AcDbVertex
100
AcDb2dVertex
 10
607.6633586956104
 20
693.215297838238
 30
0.0
  0
SEQEND
  5
763D
330
763A
100
AcDbEntity
  8
MODEL
  0
POLYLINE
  5
763E
330
A
100
AcDbEntity
  8
MODEL
100
AcDb2dPolyline
 66
     1
 10
0.0
 20
0.0
 30
0.0
  0
VERTEX
  5
763F
330
763E
100
AcDbEntity
  8
MODEL
100
AcDbVertex
100
AcDb2dVertex
 10
608.1672757005283
 20
693.026393040362
 30
0.0
  0
VERTEX
  5
7640
330
763E
100
AcDbEntity
  8
MODEL
100
AcDbVertex
100
AcDb2dVertex
 10
607.8522634934866
 20
693.026393040362
 30
0.0
  0
SEQEND
  5
7641
330
763E
100
AcDbEntity
  8
MODEL
  0
POLYLINE
  5
7642
330
A
100
AcDbEntity
  8
MODEL
100
AcDb2dPolyline
 66
     1
 10
0.0
 20
0.0
 30
0.0
  0
VERTEX
  5
7643
330
7642
100
AcDbEntity
  8
MODEL
100
AcDbVertex
100
AcDb2dVertex
 10
607.6633586956104
 20
693.215297838238
 30
0.0
  0
VERTEX
  5
7644
330
7642
100
AcDbEntity
  8
MODEL
100
AcDbVertex
100
AcDb2dVertex
 10
607.7264124001933
 20
693.0891904290726
 30
0.0
  0
VERTEX
  5
7645
330
7642
100
AcDbEntity
  8
MODEL
100
AcDbVertex
100
AcDb2dVertex
 10
607.8522634934866
 20
693.026393040362
 30
0.0
  0
SEQEND
  5
7646
330
7642
100
AcDbEntity
  8
MODEL
  0
POLYLINE
  5
7647
330
A
100
AcDbEntity
  8
MODEL
100
AcDb2dPolyline
 66
     1
 10
0.0
 20
0.0
 30
0.0
  0
VERTEX
  5
7648
330
7647
100
AcDbEntity
  8
MODEL
100
AcDbVertex
100
AcDb2dVertex
 10
610.7814412819914
 20
694.5066172028239
 30
0.0
  0
VERTEX
  5
7649
330
7647
100
AcDbEntity
  8
MODEL
100
AcDbVertex
100
AcDb2dVertex
 10
610.6871170409895
 20
693.215297838238
 30
0.0
  0
VERTEX
  5
764A
330
7647
100
AcDbEntity
  8
MODEL
100
AcDbVertex
100
AcDb2dVertex
 10
610.6240633364066
 20
693.0891904290726
 30
0.0
  0
VERTEX
  5
764B
330
7647
100
AcDbEntity
  8
MODEL
100
AcDbVertex
100
AcDb2dVertex
 10
610.4979559272413
 20
693.026393040362
 30
0.0
  0
SEQEND
  5
764C
330
7647
100
AcDbEntity
  8
MODEL
  0
POLYLINE
  5
764D
330
A
100
AcDbEntity
  8
MODEL
100
AcDb2dPolyline
 66
     1
 10
0.0
 20
0.0
 30
0.0
  0
VERTEX
  5
764E
330
764D
100
AcDbEntity
  8
MODEL
100
AcDbVertex
100
AcDb2dVertex
 10
612.1042874988686
 20
694.5381440551154
 30
0.0
  0
VERTEX
  5
764F
330
764D
100
AcDbEntity
  8
MODEL
100
AcDbVertex
100
AcDb2dVertex
 10
612.1673412034515
 20
693.215297838238
 30
0.0
  0
SEQEND
  5
7650
330
764D
100
AcDbEntity
  8
MODEL
  0
POLYLINE
  5
7651
330
A
100
AcDbEntity
  8
MODEL
100
AcDb2dPolyline
 66
     1
 10
0.0
 20
0.0
 30
0.0
  0
VERTEX
  5
7652
330
7651
100
AcDbEntity
  8
MODEL
100
AcDbVertex
100
AcDb2dVertex
 10
615.2854237898325
 20
694.5381440551154
 30
0.0
  0
VERTEX
  5
7653
330
7651
100
AcDbEntity
  8
MODEL
100
AcDbVertex
100
AcDb2dVertex
 10
615.2223700852498
 20
693.215297838238
 30
0.0
  0
SEQEND
  5
7654
330
7651
100
AcDbEntity
  8
MODEL
  0
POLYLINE
  5
7655
330
A
100
AcDbEntity
  8
MODEL
100
AcDb2dPolyline
 66
     1
 10
0.0
 20
0.0
 30
0.0
  0
VERTEX
  5
7656
330
7655
100
AcDbEntity
  8
MODEL
100
AcDbVertex
100
AcDb2dVertex
 10
612.387772853619
 20
693.026393040362
 30
0.0
  0
VERTEX
  5
7657
330
7655
100
AcDbEntity
  8
MODEL
100
AcDbVertex
100
AcDb2dVertex
 10
615.0334652873737
 20
693.026393040362
 30
0.0
  0
SEQEND
  5
7658
330
7655
100
AcDbEntity
  8
MODEL
  0
POLYLINE
  5
7659
330
A
100
AcDbEntity
  8
MODEL
100
AcDb2dPolyline
 66
     1
 10
0.0
 20
0.0
 30
0.0
  0
VERTEX
  5
765A
330
7659
100
AcDbEntity
  8
MODEL
100
AcDbVertex
100
AcDb2dVertex
 10
612.1673412034515
 20
693.215297838238
 30
0.0
  0
VERTEX
  5
765B
330
7659
100
AcDbEntity
  8
MODEL
100
AcDbVertex
100
AcDb2dVertex
 10
612.2303949080344
 20
693.0891904290726
 30
0.0
  0
VERTEX
  5
765C
330
7659
100
AcDbEntity
  8
MODEL
100
AcDbVertex
100
AcDb2dVertex
 10
612.387772853619
 20
693.026393040362
 30
0.0
  0
SEQEND
  5
765D
330
7659
100
AcDbEntity
  8
MODEL
  0
POLYLINE
  5
765E
330
A
100
AcDbEntity
  8
MODEL
100
AcDb2dPolyline
 66
     1
 10
0.0
 20
0.0
 30
0.0
  0
VERTEX
  5
765F
330
765E
100
AcDbEntity
  8
MODEL
100
AcDbVertex
100
AcDb2dVertex
 10
615.2223700852498
 20
693.215297838238
 30
0.0
  0
VERTEX
  5
7660
330
765E
100
AcDbEntity
  8
MODEL
100
AcDbVertex
100
AcDb2dVertex
 10
615.159316380667
 20
693.0891904290726
 30
0.0
  0
VERTEX
  5
7661
330
765E
100
AcDbEntity
  8
MODEL
100
AcDbVertex
100
AcDb2dVertex
 10
615.0334652873737
 20
693.026393040362
 30
0.0
  0
SEQEND
  5
7662
330
765E
100
AcDbEntity
  8
MODEL
  0
POLYLINE
  5
7663
330
A
100
AcDbEntity
  8
MODEL
100
AcDb2dPolyline
 66
     1
 10
0.0
 20
0.0
 30
0.0
  0
VERTEX
  5
7664
330
7663
100
AcDbEntity
  8
MODEL
100
AcDbVertex
100
AcDb2dVertex
 10
616.5767431544184
 20
694.5066172028239
 30
0.0
  0
VERTEX
  5
7665
330
7663
100
AcDbEntity
  8
MODEL
100
AcDbVertex
100
AcDb2dVertex
 10
616.6397968590011
 20
693.1837709859466
 30
0.0
  0
SEQEND
  5
7666
330
7663
100
AcDbEntity
  8
MODEL
  0
POLYLINE
  5
7667
330
A
100
AcDbEntity
  8
MODEL
100
AcDb2dPolyline
 66
     1
 10
0.0
 20
0.0
 30
0.0
  0
VERTEX
  5
7668
330
7667
100
AcDbEntity
  8
MODEL
100
AcDbVertex
100
AcDb2dVertex
 10
624.765778958141
 20
694.5696709074067
 30
0.0
  0
VERTEX
  5
7669
330
7667
100
AcDbEntity
  8
MODEL
100
AcDbVertex
100
AcDb2dVertex
 10
624.7027252535584
 20
693.2780952269485
 30
0.0
  0
VERTEX
  5
766A
330
7667
100
AcDbEntity
  8
MODEL
100
AcDbVertex
100
AcDb2dVertex
 10
624.6396715489755
 20
693.1522441336554
 30
0.0
  0
VERTEX
  5
766B
330
7667
100
AcDbEntity
  8
MODEL
100
AcDbVertex
100
AcDb2dVertex
 10
624.5138204556822
 20
693.0891904290726
 30
0.0
  0
SEQEND
  5
766C
330
7667
100
AcDbEntity
  8
MODEL
  0
POLYLINE
  5
766D
330
A
100
AcDbEntity
  8
MODEL
100
AcDb2dPolyline
 66
     1
 10
0.0
 20
0.0
 30
0.0
  0
VERTEX
  5
766E
330
766D
100
AcDbEntity
  8
MODEL
100
AcDbVertex
100
AcDb2dVertex
 10
621.5846426671771
 20
694.5696709074067
 30
0.0
  0
VERTEX
  5
766F
330
766D
100
AcDbEntity
  8
MODEL
100
AcDbVertex
100
AcDb2dVertex
 10
621.64769637176
 20
693.2780952269485
 30
0.0
  0
SEQEND
  5
7670
330
766D
100
AcDbEntity
  8
MODEL
  0
POLYLINE
  5
7671
330
A
100
AcDbEntity
  8
MODEL
100
AcDb2dPolyline
 66
     1
 10
0.0
 20
0.0
 30
0.0
  0
VERTEX
  5
7672
330
7671
100
AcDbEntity
  8
MODEL
100
AcDbVertex
100
AcDb2dVertex
 10
622.1831402289693
 20
693.0891904290726
 30
0.0
  0
VERTEX
  5
7673
330
7671
100
AcDbEntity
  8
MODEL
100
AcDbVertex
100
AcDb2dVertex
 10
621.8681280219275
 20
693.0891904290726
 30
0.0
  0
SEQEND
  5
7674
330
7671
100
AcDbEntity
  8
MODEL
  0
POLYLINE
  5
7675
330
A
100
AcDbEntity
  8
MODEL
100
AcDb2dPolyline
 66
     1
 10
0.0
 20
0.0
 30
0.0
  0
VERTEX
  5
7676
330
7675
100
AcDbEntity
  8
MODEL
100
AcDbVertex
100
AcDb2dVertex
 10
621.64769637176
 20
693.2780952269485
 30
0.0
  0
VERTEX
  5
7677
330
7675
100
AcDbEntity
  8
MODEL
100
AcDbVertex
100
AcDb2dVertex
 10
621.710750076343
 20
693.1522441336554
 30
0.0
  0
VERTEX
  5
7678
330
7675
100
AcDbEntity
  8
MODEL
100
AcDbVertex
100
AcDb2dVertex
 10
621.8681280219275
 20
693.0891904290726
 30
0.0
  0
SEQEND
  5
7679
330
7675
100
AcDbEntity
  8
MODEL
  0
POLYLINE
  5
767A
330
A
100
AcDbEntity
  8
MODEL
100
AcDb2dPolyline
 66
     1
 10
0.0
 20
0.0
 30
0.0
  0
VERTEX
  5
767B
330
767A
100
AcDbEntity
  8
MODEL
100
AcDbVertex
100
AcDb2dVertex
 10
624.5138204556822
 20
693.0891904290726
 30
0.0
  0
VERTEX
  5
767C
330
767A
100
AcDbEntity
  8
MODEL
100
AcDbVertex
100
AcDb2dVertex
 10
622.1831402289693
 20
693.0891904290726
 30
0.0
  0
SEQEND
  5
767D
330
767A
100
AcDbEntity
  8
MODEL
  0
POLYLINE
  5
767E
330
A
100
AcDbEntity
  8
MODEL
100
AcDb2dPolyline
 66
     1
 10
0.0
 20
0.0
 30
0.0
  0
VERTEX
  5
767F
330
767E
100
AcDbEntity
  8
MODEL
100
AcDbVertex
100
AcDb2dVertex
 10
619.7578794453821
 20
694.5066172028239
 30
0.0
  0
VERTEX
  5
7680
330
767E
100
AcDbEntity
  8
MODEL
100
AcDbVertex
100
AcDb2dVertex
 10
619.6948257407994
 20
693.1837709859466
 30
0.0
  0
VERTEX
  5
7681
330
767E
100
AcDbEntity
  8
MODEL
100
AcDbVertex
100
AcDb2dVertex
 10
619.6320283520888
 20
693.057663576781
 30
0.0
  0
VERTEX
  5
7682
330
767E
100
AcDbEntity
  8
MODEL
100
AcDbVertex
100
AcDb2dVertex
 10
619.5059209429235
 20
692.9948661880707
 30
0.0
  0
SEQEND
  5
7683
330
767E
100
AcDbEntity
  8
MODEL
  0
POLYLINE
  5
7684
330
A
100
AcDbEntity
  8
MODEL
100
AcDb2dPolyline
 66
     1
 10
0.0
 20
0.0
 30
0.0
  0
VERTEX
  5
7685
330
7684
100
AcDbEntity
  8
MODEL
100
AcDbVertex
100
AcDb2dVertex
 10
616.8602285091688
 20
692.9948661880707
 30
0.0
  0
VERTEX
  5
7686
330
7684
100
AcDbEntity
  8
MODEL
100
AcDbVertex
100
AcDb2dVertex
 10
619.5059209429235
 20
692.9948661880707
 30
0.0
  0
SEQEND
  5
7687
330
7684
100
AcDbEntity
  8
MODEL
  0
POLYLINE
  5
7688
330
A
100
AcDbEntity
  8
MODEL
100
AcDb2dPolyline
 66
     1
 10
0.0
 20
0.0
 30
0.0
  0
VERTEX
  5
7689
330
7688
100
AcDbEntity
  8
MODEL
100
AcDbVertex
100
AcDb2dVertex
 10
626.8445006823952
 20
693.0891904290726
 30
0.0
  0
VERTEX
  5
768A
330
7688
100
AcDbEntity
  8
MODEL
100
AcDbVertex
100
AcDb2dVertex
 10
629.4901931161496
 20
693.0891904290726
 30
0.0
  0
SEQEND
  5
768B
330
7688
100
AcDbEntity
  8
MODEL
  0
POLYLINE
  5
768C
330
A
100
AcDbEntity
  8
MODEL
100
AcDb2dPolyline
 66
     1
 10
0.0
 20
0.0
 30
0.0
  0
VERTEX
  5
768D
330
768C
100
AcDbEntity
  8
MODEL
100
AcDbVertex
100
AcDb2dVertex
 10
626.655595884519
 20
693.2780952269485
 30
0.0
  0
VERTEX
  5
768E
330
768C
100
AcDbEntity
  8
MODEL
100
AcDbVertex
100
AcDb2dVertex
 10
626.7186495891017
 20
693.1522441336554
 30
0.0
  0
VERTEX
  5
768F
330
768C
100
AcDbEntity
  8
MODEL
100
AcDbVertex
100
AcDb2dVertex
 10
626.8445006823952
 20
693.0891904290726
 30
0.0
  0
SEQEND
  5
7690
330
768C
100
AcDbEntity
  8
MODEL
  0
POLYLINE
  5
7691
330
A
100
AcDbEntity
  8
MODEL
100
AcDb2dPolyline
 66
     1
 10
0.0
 20
0.0
 30
0.0
  0
VERTEX
  5
7692
330
7691
100
AcDbEntity
  8
MODEL
100
AcDbVertex
100
AcDb2dVertex
 10
629.7106247663171
 20
693.2780952269485
 30
0.0
  0
VERTEX
  5
7693
330
7691
100
AcDbEntity
  8
MODEL
100
AcDbVertex
100
AcDb2dVertex
 10
629.6475710617344
 20
693.1522441336554
 30
0.0
  0
VERTEX
  5
7694
330
7691
100
AcDbEntity
  8
MODEL
100
AcDbVertex
100
AcDb2dVertex
 10
629.4901931161496
 20
693.0891904290726
 30
0.0
  0
SEQEND
  5
7695
330
7691
100
AcDbEntity
  8
MODEL
  0
POLYLINE
  5
7696
330
A
100
AcDbEntity
  8
MODEL
100
AcDb2dPolyline
 66
     1
 10
0.0
 20
0.0
 30
0.0
  0
VERTEX
  5
7697
330
7696
100
AcDbEntity
  8
MODEL
100
AcDbVertex
100
AcDb2dVertex
 10
626.5925421799361
 20
694.6009414438258
 30
0.0
  0
VERTEX
  5
7698
330
7696
100
AcDbEntity
  8
MODEL
100
AcDbVertex
100
AcDb2dVertex
 10
626.655595884519
 20
693.2780952269485
 30
0.0
  0
SEQEND
  5
7699
330
7696
100
AcDbEntity
  8
MODEL
  0
POLYLINE
  5
769A
330
A
100
AcDbEntity
  8
MODEL
100
AcDb2dPolyline
 66
     1
 10
0.0
 20
0.0
 30
0.0
  0
VERTEX
  5
769B
330
769A
100
AcDbEntity
  8
MODEL
100
AcDbVertex
100
AcDb2dVertex
 10
629.7736784709
 20
694.6009414438258
 30
0.0
  0
VERTEX
  5
769C
330
769A
100
AcDbEntity
  8
MODEL
100
AcDbVertex
100
AcDb2dVertex
 10
629.7106247663171
 20
693.2780952269485
 30
0.0
  0
SEQEND
  5
769D
330
769A
100
AcDbEntity
  8
MODEL
  0
POLYLINE
  5
769E
330
A
100
AcDbEntity
  8
MODEL
100
AcDb2dPolyline
 66
     1
 10
0.0
 20
0.0
 30
0.0
  0
VERTEX
  5
769F
330
769E
100
AcDbEntity
  8
MODEL
100
AcDbVertex
100
AcDb2dVertex
 10
631.1595783923599
 20
694.5694145915344
 30
0.0
  0
VERTEX
  5
76A0
330
769E
100
AcDbEntity
  8
MODEL
100
AcDbVertex
100
AcDb2dVertex
 10
631.2226320969428
 20
693.2780952269485
 30
0.0
  0
SEQEND
  5
76A1
330
769E
100
AcDbEntity
  8
MODEL
  0
POLYLINE
  5
76A2
330
A
100
AcDbEntity
  8
MODEL
100
AcDb2dPolyline
 66
     1
 10
0.0
 20
0.0
 30
0.0
  0
VERTEX
  5
76A3
330
76A2
100
AcDbEntity
  8
MODEL
100
AcDbVertex
100
AcDb2dVertex
 10
631.7578196382797
 20
693.057663576781
 30
0.0
  0
VERTEX
  5
76A4
330
76A2
100
AcDbEntity
  8
MODEL
100
AcDbVertex
100
AcDb2dVertex
 10
631.4115368948189
 20
693.057663576781
 30
0.0
  0
SEQEND
  5
76A5
330
76A2
100
AcDbEntity
  8
MODEL
  0
POLYLINE
  5
76A6
330
A
100
AcDbEntity
  8
MODEL
100
AcDb2dPolyline
 66
     1
 10
0.0
 20
0.0
 30
0.0
  0
VERTEX
  5
76A7
330
76A6
100
AcDbEntity
  8
MODEL
100
AcDbVertex
100
AcDb2dVertex
 10
631.2226320969428
 20
693.2780952269485
 30
0.0
  0
VERTEX
  5
76A8
330
76A6
100
AcDbEntity
  8
MODEL
100
AcDbVertex
100
AcDb2dVertex
 10
631.2854294856531
 20
693.1207172813639
 30
0.0
  0
VERTEX
  5
76A9
330
76A6
100
AcDbEntity
  8
MODEL
100
AcDbVertex
100
AcDb2dVertex
 10
631.4115368948189
 20
693.057663576781
 30
0.0
  0
SEQEND
  5
76AA
330
76A6
100
AcDbEntity
  8
MODEL
  0
POLYLINE
  5
76AB
330
A
100
AcDbEntity
  8
MODEL
100
AcDb2dPolyline
 66
     1
 10
0.0
 20
0.0
 30
0.0
  0
VERTEX
  5
76AC
330
76AB
100
AcDbEntity
  8
MODEL
100
AcDbVertex
100
AcDb2dVertex
 10
666.6242114297156
 20
693.1207172813639
 30
0.0
  0
VERTEX
  5
76AD
330
76AB
100
AcDbEntity
  8
MODEL
100
AcDbVertex
100
AcDb2dVertex
 10
664.0100458482525
 20
693.1207172813639
 30
0.0
  0
SEQEND
  5
76AE
330
76AB
100
AcDbEntity
  8
MODEL
  0
POLYLINE
  5
76AF
330
A
100
AcDbEntity
  8
MODEL
100
AcDb2dPolyline
 66
     1
 10
0.0
 20
0.0
 30
0.0
  0
VERTEX
  5
76B0
330
76AF
100
AcDbEntity
  8
MODEL
100
AcDbVertex
100
AcDb2dVertex
 10
650.2146129699788
 20
693.1207172813639
 30
0.0
  0
VERTEX
  5
76B1
330
76AF
100
AcDbEntity
  8
MODEL
100
AcDbVertex
100
AcDb2dVertex
 10
647.6950279453899
 20
693.1207172813639
 30
0.0
  0
SEQEND
  5
76B2
330
76AF
100
AcDbEntity
  8
MODEL
  0
POLYLINE
  5
76B3
330
A
100
AcDbEntity
  8
MODEL
100
AcDb2dPolyline
 66
     1
 10
0.0
 20
0.0
 30
0.0
  0
VERTEX
  5
76B4
330
76B3
100
AcDbEntity
  8
MODEL
100
AcDbVertex
100
AcDb2dVertex
 10
643.0649380283833
 20
693.057663576781
 30
0.0
  0
VERTEX
  5
76B5
330
76B3
100
AcDbEntity
  8
MODEL
100
AcDbVertex
100
AcDb2dVertex
 10
640.7657846539619
 20
693.057663576781
 30
0.0
  0
SEQEND
  5
76B6
330
76B3
100
AcDbEntity
  8
MODEL
  0
POLYLINE
  5
76B7
330
A
100
AcDbEntity
  8
MODEL
100
AcDb2dPolyline
 66
     1
 10
0.0
 20
0.0
 30
0.0
  0
VERTEX
  5
76B8
330
76B7
100
AcDbEntity
  8
MODEL
100
AcDbVertex
100
AcDb2dVertex
 10
634.3407146833238
 20
694.5696709074067
 30
0.0
  0
VERTEX
  5
76B9
330
76B7
100
AcDbEntity
  8
MODEL
100
AcDbVertex
100
AcDb2dVertex
 10
634.2776609787409
 20
693.2780952269485
 30
0.0
  0
VERTEX
  5
76BA
330
76B7
100
AcDbEntity
  8
MODEL
100
AcDbVertex
100
AcDb2dVertex
 10
634.2146072741582
 20
693.1207172813639
 30
0.0
  0
VERTEX
  5
76BB
330
76B7
100
AcDbEntity
  8
MODEL
100
AcDbVertex
100
AcDb2dVertex
 10
634.0887561808647
 20
693.057663576781
 30
0.0
  0
SEQEND
  5
76BC
330
76B7
100
AcDbEntity
  8
MODEL
  0
POLYLINE
  5
76BD
330
A
100
AcDbEntity
  8
MODEL
100
AcDb2dPolyline
 66
     1
 10
0.0
 20
0.0
 30
0.0
  0
VERTEX
  5
76BE
330
76BD
100
AcDbEntity
  8
MODEL
100
AcDbVertex
100
AcDb2dVertex
 10
635.663560900201
 20
694.6009414438258
 30
0.0
  0
VERTEX
  5
76BF
330
76BD
100
AcDbEntity
  8
MODEL
100
AcDbVertex
100
AcDb2dVertex
 10
635.7578851412029
 20
693.2780952269485
 30
0.0
  0
SEQEND
  5
76C0
330
76BD
100
AcDbEntity
  8
MODEL
  0
POLYLINE
  5
76C1
330
A
100
AcDbEntity
  8
MODEL
100
AcDb2dPolyline
 66
     1
 10
0.0
 20
0.0
 30
0.0
  0
VERTEX
  5
76C2
330
76C1
100
AcDbEntity
  8
MODEL
100
AcDbVertex
100
AcDb2dVertex
 10
638.8759677275839
 20
694.6009414438258
 30
0.0
  0
VERTEX
  5
76C3
330
76C1
100
AcDbEntity
  8
MODEL
100
AcDbVertex
100
AcDb2dVertex
 10
638.781643486582
 20
693.2780952269485
 30
0.0
  0
SEQEND
  5
76C4
330
76C1
100
AcDbEntity
  8
MODEL
  0
POLYLINE
  5
76C5
330
A
100
AcDbEntity
  8
MODEL
100
AcDb2dPolyline
 66
     1
 10
0.0
 20
0.0
 30
0.0
  0
VERTEX
  5
76C6
330
76C5
100
AcDbEntity
  8
MODEL
100
AcDbVertex
100
AcDb2dVertex
 10
635.9470462549514
 20
693.0891904290726
 30
0.0
  0
VERTEX
  5
76C7
330
76C5
100
AcDbEntity
  8
MODEL
100
AcDbVertex
100
AcDb2dVertex
 10
638.5924823728335
 20
693.0891904290726
 30
0.0
  0
SEQEND
  5
76C8
330
76C5
100
AcDbEntity
  8
MODEL
  0
POLYLINE
  5
76C9
330
A
100
AcDbEntity
  8
MODEL
100
AcDb2dPolyline
 66
     1
 10
0.0
 20
0.0
 30
0.0
  0
VERTEX
  5
76CA
330
76C9
100
AcDbEntity
  8
MODEL
100
AcDbVertex
100
AcDb2dVertex
 10
635.7578851412029
 20
693.2780952269485
 30
0.0
  0
VERTEX
  5
76CB
330
76C9
100
AcDbEntity
  8
MODEL
100
AcDbVertex
100
AcDb2dVertex
 10
635.8209388457856
 20
693.1522441336554
 30
0.0
  0
VERTEX
  5
76CC
330
76C9
100
AcDbEntity
  8
MODEL
100
AcDbVertex
100
AcDb2dVertex
 10
635.9470462549514
 20
693.0891904290726
 30
0.0
  0
SEQEND
  5
76CD
330
76C9
100
AcDbEntity
  8
MODEL
  0
POLYLINE
  5
76CE
330
A
100
AcDbEntity
  8
MODEL
100
AcDb2dPolyline
 66
     1
 10
0.0
 20
0.0
 30
0.0
  0
VERTEX
  5
76CF
330
76CE
100
AcDbEntity
  8
MODEL
100
AcDbVertex
100
AcDb2dVertex
 10
638.781643486582
 20
693.2780952269485
 30
0.0
  0
VERTEX
  5
76D0
330
76CE
100
AcDbEntity
  8
MODEL
100
AcDbVertex
100
AcDb2dVertex
 10
638.7185897819993
 20
693.1522441336554
 30
0.0
  0
VERTEX
  5
76D1
330
76CE
100
AcDbEntity
  8
MODEL
100
AcDbVertex
100
AcDb2dVertex
 10
638.5924823728335
 20
693.0891904290726
 30
0.0
  0
SEQEND
  5
76D2
330
76CE
100
AcDbEntity
  8
MODEL
  0
POLYLINE
  5
76D3
330
A
100
AcDbEntity
  8
MODEL
100
AcDb2dPolyline
 66
     1
 10
0.0
 20
0.0
 30
0.0
  0
VERTEX
  5
76D4
330
76D3
100
AcDbEntity
  8
MODEL
100
AcDbVertex
100
AcDb2dVertex
 10
640.1675434080421
 20
694.5381440551154
 30
0.0
  0
VERTEX
  5
76D5
330
76D3
100
AcDbEntity
  8
MODEL
100
AcDbVertex
100
AcDb2dVertex
 10
640.2303407967527
 20
693.2468246905295
 30
0.0
  0
SEQEND
  5
76D6
330
76D3
100
AcDbEntity
  8
MODEL
  0
POLYLINE
  5
76D7
330
A
100
AcDbEntity
  8
MODEL
100
AcDb2dPolyline
 66
     1
 10
0.0
 20
0.0
 30
0.0
  0
VERTEX
  5
76D8
330
76D7
100
AcDbEntity
  8
MODEL
100
AcDbVertex
100
AcDb2dVertex
 10
640.7657846539619
 20
693.057663576781
 30
0.0
  0
VERTEX
  5
76D9
330
76D7
100
AcDbEntity
  8
MODEL
100
AcDbVertex
100
AcDb2dVertex
 10
640.4192455946288
 20
693.057663576781
 30
0.0
  0
SEQEND
  5
76DA
330
76D7
100
AcDbEntity
  8
MODEL
  0
POLYLINE
  5
76DB
330
A
100
AcDbEntity
  8
MODEL
100
AcDb2dPolyline
 66
     1
 10
0.0
 20
0.0
 30
0.0
  0
VERTEX
  5
76DC
330
76DB
100
AcDbEntity
  8
MODEL
100
AcDbVertex
100
AcDb2dVertex
 10
640.2303407967527
 20
693.2468246905295
 30
0.0
  0
VERTEX
  5
76DD
330
76DB
100
AcDbEntity
  8
MODEL
100
AcDbVertex
100
AcDb2dVertex
 10
640.2933945013353
 20
693.0891904290726
 30
0.0
  0
VERTEX
  5
76DE
330
76DB
100
AcDbEntity
  8
MODEL
100
AcDbVertex
100
AcDb2dVertex
 10
640.4192455946288
 20
693.057663576781
 30
0.0
  0
SEQEND
  5
76DF
330
76DB
100
AcDbEntity
  8
MODEL
  0
POLYLINE
  5
76E0
330
A
100
AcDbEntity
  8
MODEL
100
AcDb2dPolyline
 66
     1
 10
0.0
 20
0.0
 30
0.0
  0
VERTEX
  5
76E1
330
76E0
100
AcDbEntity
  8
MODEL
100
AcDbVertex
100
AcDb2dVertex
 10
647.285435181474
 20
694.6324682961173
 30
0.0
  0
VERTEX
  5
76E2
330
76E0
100
AcDbEntity
  8
MODEL
100
AcDbVertex
100
AcDb2dVertex
 10
647.3484888860569
 20
693.3096220792401
 30
0.0
  0
VERTEX
  5
76E3
330
76E0
100
AcDbEntity
  8
MODEL
100
AcDbVertex
100
AcDb2dVertex
 10
647.4115425906396
 20
693.1837709859466
 30
0.0
  0
VERTEX
  5
76E4
330
76E0
100
AcDbEntity
  8
MODEL
100
AcDbVertex
100
AcDb2dVertex
 10
647.5689205362244
 20
693.1207172813639
 30
0.0
  0
VERTEX
  5
76E5
330
76E0
100
AcDbEntity
  8
MODEL
100
AcDbVertex
100
AcDb2dVertex
 10
647.6950279453899
 20
693.1207172813639
 30
0.0
  0
SEQEND
  5
76E6
330
76E0
100
AcDbEntity
  8
MODEL
  0
POLYLINE
  5
76E7
330
A
100
AcDbEntity
  8
MODEL
100
AcDb2dPolyline
 66
     1
 10
0.0
 20
0.0
 30
0.0
  0
VERTEX
  5
76E8
330
76E7
100
AcDbEntity
  8
MODEL
100
AcDbVertex
100
AcDb2dVertex
 10
643.3484233831336
 20
694.5381440551154
 30
0.0
  0
VERTEX
  5
76E9
330
76E7
100
AcDbEntity
  8
MODEL
100
AcDbVertex
100
AcDb2dVertex
 10
643.2853696785508
 20
693.2468246905295
 30
0.0
  0
VERTEX
  5
76EA
330
76E7
100
AcDbEntity
  8
MODEL
100
AcDbVertex
100
AcDb2dVertex
 10
643.2225722898404
 20
693.0891904290726
 30
0.0
  0
VERTEX
  5
76EB
330
76E7
100
AcDbEntity
  8
MODEL
100
AcDbVertex
100
AcDb2dVertex
 10
643.0649380283833
 20
693.057663576781
 30
0.0
  0
SEQEND
  5
76EC
330
76E7
100
AcDbEntity
  8
MODEL
  0
POLYLINE
  5
76ED
330
A
100
AcDbEntity
  8
MODEL
100
AcDb2dPolyline
 66
     1
 10
0.0
 20
0.0
 30
0.0
  0
VERTEX
  5
76EE
330
76ED
100
AcDbEntity
  8
MODEL
100
AcDbVertex
100
AcDb2dVertex
 10
659.2856316902437
 20
693.1207172813639
 30
0.0
  0
VERTEX
  5
76EF
330
76ED
100
AcDbEntity
  8
MODEL
100
AcDbVertex
100
AcDb2dVertex
 10
656.6399392564892
 20
693.1207172813639
 30
0.0
  0
SEQEND
  5
76F0
330
76ED
100
AcDbEntity
  8
MODEL
  0
POLYLINE
  5
76F1
330
A
100
AcDbEntity
  8
MODEL
100
AcDb2dPolyline
 66
     1
 10
0.0
 20
0.0
 30
0.0
  0
VERTEX
  5
76F2
330
76F1
100
AcDbEntity
  8
MODEL
100
AcDbVertex
100
AcDb2dVertex
 10
656.3879807540304
 20
694.6324682961173
 30
0.0
  0
VERTEX
  5
76F3
330
76F1
100
AcDbEntity
  8
MODEL
100
AcDbVertex
100
AcDb2dVertex
 10
656.450778142741
 20
693.3096220792401
 30
0.0
  0
SEQEND
  5
76F4
330
76F1
100
AcDbEntity
  8
MODEL
  0
POLYLINE
  5
76F5
330
A
100
AcDbEntity
  8
MODEL
100
AcDb2dPolyline
 66
     1
 10
0.0
 20
0.0
 30
0.0
  0
VERTEX
  5
76F6
330
76F5
100
AcDbEntity
  8
MODEL
100
AcDbVertex
100
AcDb2dVertex
 10
655.5375246897795
 20
694.6324682961173
 30
0.0
  0
VERTEX
  5
76F7
330
76F5
100
AcDbEntity
  8
MODEL
100
AcDbVertex
100
AcDb2dVertex
 10
655.4744709851968
 20
693.3096220792401
 30
0.0
  0
SEQEND
  5
76F8
330
76F5
100
AcDbEntity
  8
MODEL
  0
POLYLINE
  5
76F9
330
A
100
AcDbEntity
  8
MODEL
100
AcDb2dPolyline
 66
     1
 10
0.0
 20
0.0
 30
0.0
  0
VERTEX
  5
76FA
330
76F9
100
AcDbEntity
  8
MODEL
100
AcDbVertex
100
AcDb2dVertex
 10
652.3563883988156
 20
694.6324682961173
 30
0.0
  0
VERTEX
  5
76FB
330
76F9
100
AcDbEntity
  8
MODEL
100
AcDbVertex
100
AcDb2dVertex
 10
652.4194421033985
 20
693.3096220792401
 30
0.0
  0
SEQEND
  5
76FC
330
76F9
100
AcDbEntity
  8
MODEL
  0
POLYLINE
  5
76FD
330
A
100
AcDbEntity
  8
MODEL
100
AcDb2dPolyline
 66
     1
 10
0.0
 20
0.0
 30
0.0
  0
VERTEX
  5
76FE
330
76FD
100
AcDbEntity
  8
MODEL
100
AcDbVertex
100
AcDb2dVertex
 10
655.4744709851968
 20
693.3096220792401
 30
0.0
  0
VERTEX
  5
76FF
330
76FD
100
AcDbEntity
  8
MODEL
100
AcDbVertex
100
AcDb2dVertex
 10
655.4114172806139
 20
693.1837709859466
 30
0.0
  0
VERTEX
  5
7700
330
76FD
100
AcDbEntity
  8
MODEL
100
AcDbVertex
100
AcDb2dVertex
 10
655.2855661873205
 20
693.1207172813639
 30
0.0
  0
SEQEND
  5
7701
330
76FD
100
AcDbEntity
  8
MODEL
  0
POLYLINE
  5
7702
330
A
100
AcDbEntity
  8
MODEL
100
AcDb2dPolyline
 66
     1
 10
0.0
 20
0.0
 30
0.0
  0
VERTEX
  5
7703
330
7702
100
AcDbEntity
  8
MODEL
100
AcDbVertex
100
AcDb2dVertex
 10
652.4194421033985
 20
693.3096220792401
 30
0.0
  0
VERTEX
  5
7704
330
7702
100
AcDbEntity
  8
MODEL
100
AcDbVertex
100
AcDb2dVertex
 10
652.4824958079814
 20
693.1837709859466
 30
0.0
  0
VERTEX
  5
7705
330
7702
100
AcDbEntity
  8
MODEL
100
AcDbVertex
100
AcDb2dVertex
 10
652.639873753566
 20
693.1207172813639
 30
0.0
  0
SEQEND
  5
7706
330
7702
100
AcDbEntity
  8
MODEL
  0
POLYLINE
  5
7707
330
A
100
AcDbEntity
  8
MODEL
100
AcDb2dPolyline
 66
     1
 10
0.0
 20
0.0
 30
0.0
  0
VERTEX
  5
7708
330
7707
100
AcDbEntity
  8
MODEL
100
AcDbVertex
100
AcDb2dVertex
 10
656.450778142741
 20
693.3096220792401
 30
0.0
  0
VERTEX
  5
7709
330
7707
100
AcDbEntity
  8
MODEL
100
AcDbVertex
100
AcDb2dVertex
 10
656.5138318473237
 20
693.1837709859466
 30
0.0
  0
VERTEX
  5
770A
330
7707
100
AcDbEntity
  8
MODEL
100
AcDbVertex
100
AcDb2dVertex
 10
656.6399392564892
 20
693.1207172813639
 30
0.0
  0
SEQEND
  5
770B
330
7707
100
AcDbEntity
  8
MODEL
  0
POLYLINE
  5
770C
330
A
100
AcDbEntity
  8
MODEL
100
AcDb2dPolyline
 66
     1
 10
0.0
 20
0.0
 30
0.0
  0
VERTEX
  5
770D
330
770C
100
AcDbEntity
  8
MODEL
100
AcDbVertex
100
AcDb2dVertex
 10
655.2855661873205
 20
693.1207172813639
 30
0.0
  0
VERTEX
  5
770E
330
770C
100
AcDbEntity
  8
MODEL
100
AcDbVertex
100
AcDb2dVertex
 10
652.639873753566
 20
693.1207172813639
 30
0.0
  0
SEQEND
  5
770F
330
770C
100
AcDbEntity
  8
MODEL
  0
POLYLINE
  5
7710
330
A
100
AcDbEntity
  8
MODEL
100
AcDb2dPolyline
 66
     1
 10
0.0
 20
0.0
 30
0.0
  0
VERTEX
  5
7711
330
7710
100
AcDbEntity
  8
MODEL
100
AcDbVertex
100
AcDb2dVertex
 10
650.4665714724379
 20
694.6324682961173
 30
0.0
  0
VERTEX
  5
7712
330
7710
100
AcDbEntity
  8
MODEL
100
AcDbVertex
100
AcDb2dVertex
 10
650.403517767855
 20
693.3096220792401
 30
0.0
  0
VERTEX
  5
7713
330
7710
100
AcDbEntity
  8
MODEL
100
AcDbVertex
100
AcDb2dVertex
 10
650.3407203791446
 20
693.1837709859466
 30
0.0
  0
VERTEX
  5
7714
330
7710
100
AcDbEntity
  8
MODEL
100
AcDbVertex
100
AcDb2dVertex
 10
650.2146129699788
 20
693.1207172813639
 30
0.0
  0
SEQEND
  5
7715
330
7710
100
AcDbEntity
  8
MODEL
  0
POLYLINE
  5
7716
330
A
100
AcDbEntity
  8
MODEL
100
AcDb2dPolyline
 66
     1
 10
0.0
 20
0.0
 30
0.0
  0
VERTEX
  5
7717
330
7716
100
AcDbEntity
  8
MODEL
100
AcDbVertex
100
AcDb2dVertex
 10
659.5691170449943
 20
694.6324682961173
 30
0.0
  0
VERTEX
  5
7718
330
7716
100
AcDbEntity
  8
MODEL
100
AcDbVertex
100
AcDb2dVertex
 10
659.5060633404114
 20
693.3096220792401
 30
0.0
  0
VERTEX
  5
7719
330
7716
100
AcDbEntity
  8
MODEL
100
AcDbVertex
100
AcDb2dVertex
 10
659.4430096358285
 20
693.1837709859466
 30
0.0
  0
VERTEX
  5
771A
330
7716
100
AcDbEntity
  8
MODEL
100
AcDbVertex
100
AcDb2dVertex
 10
659.2856316902437
 20
693.1207172813639
 30
0.0
  0
SEQEND
  5
771B
330
7716
100
AcDbEntity
  8
MODEL
  0
POLYLINE
  5
771C
330
A
100
AcDbEntity
  8
MODEL
100
AcDb2dPolyline
 66
     1
 10
0.0
 20
0.0
 30
0.0
  0
VERTEX
  5
771D
330
771C
100
AcDbEntity
  8
MODEL
100
AcDbVertex
100
AcDb2dVertex
 10
664.0100458482525
 20
693.1207172813639
 30
0.0
  0
VERTEX
  5
771E
330
771C
100
AcDbEntity
  8
MODEL
100
AcDbVertex
100
AcDb2dVertex
 10
663.9785189959609
 20
693.1207172813639
 30
0.0
  0
SEQEND
  5
771F
330
771C
100
AcDbEntity
  8
MODEL
  0
POLYLINE
  5
7720
330
A
100
AcDbEntity
  8
MODEL
100
AcDb2dPolyline
 66
     1
 10
0.0
 20
0.0
 30
0.0
  0
VERTEX
  5
7721
330
7720
100
AcDbEntity
  8
MODEL
100
AcDbVertex
100
AcDb2dVertex
 10
663.7580873457935
 20
693.3096220792401
 30
0.0
  0
VERTEX
  5
7722
330
7720
100
AcDbEntity
  8
MODEL
100
AcDbVertex
100
AcDb2dVertex
 10
663.820884734504
 20
693.1837709859466
 30
0.0
  0
VERTEX
  5
7723
330
7720
100
AcDbEntity
  8
MODEL
100
AcDbVertex
100
AcDb2dVertex
 10
663.9785189959609
 20
693.1207172813639
 30
0.0
  0
SEQEND
  5
7724
330
7720
100
AcDbEntity
  8
MODEL
  0
POLYLINE
  5
7725
330
A
100
AcDbEntity
  8
MODEL
100
AcDb2dPolyline
 66
     1
 10
0.0
 20
0.0
 30
0.0
  0
VERTEX
  5
7726
330
7725
100
AcDbEntity
  8
MODEL
100
AcDbVertex
100
AcDb2dVertex
 10
663.6950336412108
 20
694.6324682961173
 30
0.0
  0
VERTEX
  5
7727
330
7725
100
AcDbEntity
  8
MODEL
100
AcDbVertex
100
AcDb2dVertex
 10
663.7580873457935
 20
693.3096220792401
 30
0.0
  0
SEQEND
  5
7728
330
7725
100
AcDbEntity
  8
MODEL
  0
POLYLINE
  5
7729
330
A
100
AcDbEntity
  8
MODEL
100
AcDb2dPolyline
 66
     1
 10
0.0
 20
0.0
 30
0.0
  0
VERTEX
  5
772A
330
7729
100
AcDbEntity
  8
MODEL
100
AcDbVertex
100
AcDb2dVertex
 10
669.0179453610112
 20
693.1207172813639
 30
0.0
  0
VERTEX
  5
772B
330
7729
100
AcDbEntity
  8
MODEL
100
AcDbVertex
100
AcDb2dVertex
 10
671.6636377947659
 20
693.1207172813639
 30
0.0
  0
SEQEND
  5
772C
330
7729
100
AcDbEntity
  8
MODEL
  0
POLYLINE
  5
772D
330
A
100
AcDbEntity
  8
MODEL
100
AcDb2dPolyline
 66
     1
 10
0.0
 20
0.0
 30
0.0
  0
VERTEX
  5
772E
330
772D
100
AcDbEntity
  8
MODEL
100
AcDbVertex
100
AcDb2dVertex
 10
671.8840694449334
 20
693.3096220792401
 30
0.0
  0
VERTEX
  5
772F
330
772D
100
AcDbEntity
  8
MODEL
100
AcDbVertex
100
AcDb2dVertex
 10
671.8210157403505
 20
693.1837709859466
 30
0.0
  0
VERTEX
  5
7730
330
772D
100
AcDbEntity
  8
MODEL
100
AcDbVertex
100
AcDb2dVertex
 10
671.6636377947659
 20
693.1207172813639
 30
0.0
  0
SEQEND
  5
7731
330
772D
100
AcDbEntity
  8
MODEL
  0
POLYLINE
  5
7732
330
A
100
AcDbEntity
  8
MODEL
100
AcDb2dPolyline
 66
     1
 10
0.0
 20
0.0
 30
0.0
  0
VERTEX
  5
7733
330
7732
100
AcDbEntity
  8
MODEL
100
AcDbVertex
100
AcDb2dVertex
 10
671.9471231495163
 20
694.6324682961173
 30
0.0
  0
VERTEX
  5
7734
330
7732
100
AcDbEntity
  8
MODEL
100
AcDbVertex
100
AcDb2dVertex
 10
671.8840694449334
 20
693.3096220792401
 30
0.0
  0
SEQEND
  5
7735
330
7732
100
AcDbEntity
  8
MODEL
  0
POLYLINE
  5
7736
330
A
100
AcDbEntity
  8
MODEL
100
AcDb2dPolyline
 66
     1
 10
0.0
 20
0.0
 30
0.0
  0
VERTEX
  5
7737
330
7736
100
AcDbEntity
  8
MODEL
100
AcDbVertex
100
AcDb2dVertex
 10
666.8131162275918
 20
693.3096220792401
 30
0.0
  0
VERTEX
  5
7738
330
7736
100
AcDbEntity
  8
MODEL
100
AcDbVertex
100
AcDb2dVertex
 10
666.7500625230089
 20
693.1837709859466
 30
0.0
  0
VERTEX
  5
7739
330
7736
100
AcDbEntity
  8
MODEL
100
AcDbVertex
100
AcDb2dVertex
 10
666.6242114297156
 20
693.1207172813639
 30
0.0
  0
SEQEND
  5
773A
330
7736
100
AcDbEntity
  8
MODEL
  0
POLYLINE
  5
773B
330
A
100
AcDbEntity
  8
MODEL
100
AcDb2dPolyline
 66
     1
 10
0.0
 20
0.0
 30
0.0
  0
VERTEX
  5
773C
330
773B
100
AcDbEntity
  8
MODEL
100
AcDbVertex
100
AcDb2dVertex
 10
666.8761699321747
 20
694.6324682961173
 30
0.0
  0
VERTEX
  5
773D
330
773B
100
AcDbEntity
  8
MODEL
100
AcDbVertex
100
AcDb2dVertex
 10
666.8131162275918
 20
693.3096220792401
 30
0.0
  0
SEQEND
  5
773E
330
773B
100
AcDbEntity
  8
MODEL
  0
POLYLINE
  5
773F
330
A
100
AcDbEntity
  8
MODEL
100
AcDb2dPolyline
 66
     1
 10
0.0
 20
0.0
 30
0.0
  0
VERTEX
  5
7740
330
773F
100
AcDbEntity
  8
MODEL
100
AcDbVertex
100
AcDb2dVertex
 10
668.7659868585524
 20
694.6324682961173
 30
0.0
  0
VERTEX
  5
7741
330
773F
100
AcDbEntity
  8
MODEL
100
AcDbVertex
100
AcDb2dVertex
 10
668.828784247263
 20
693.3096220792401
 30
0.0
  0
VERTEX
  5
7742
330
773F
100
AcDbEntity
  8
MODEL
100
AcDbVertex
100
AcDb2dVertex
 10
668.8918379518457
 20
693.1837709859466
 30
0.0
  0
VERTEX
  5
7743
330
773F
100
AcDbEntity
  8
MODEL
100
AcDbVertex
100
AcDb2dVertex
 10
669.0179453610112
 20
693.1207172813639
 30
0.0
  0
SEQEND
  5
7744
330
773F
100
AcDbEntity
  8
MODEL
  0
POLYLINE
  5
7745
330
A
100
AcDbEntity
  8
MODEL
100
AcDb2dPolyline
 66
     1
 10
0.0
 20
0.0
 30
0.0
  0
VERTEX
  5
7746
330
7745
100
AcDbEntity
  8
MODEL
100
AcDbVertex
100
AcDb2dVertex
 10
703.6003391659524
 20
694.6327246119896
 30
0.0
  0
VERTEX
  5
7747
330
7745
100
AcDbEntity
  8
MODEL
100
AcDbVertex
100
AcDb2dVertex
 10
703.6003391659524
 20
719.6404390076201
 30
0.0
  0
SEQEND
  5
7748
330
7745
100
AcDbEntity
  8
MODEL
  0
POLYLINE
  5
7750
330
A
100
AcDbEntity
  8
MODEL
100
AcDb2dPolyline
 66
     1
 10
0.0
 20
0.0
 30
0.0
  0
VERTEX
  5
7751
330
7750
100
AcDbEntity
  8
MODEL
100
AcDbVertex
100
AcDb2dVertex
 10
509.1119563279331
 20
720.113085476119
 30
0.0
  0
VERTEX
  5
7752
330
7750
100
AcDbEntity
  8
MODEL
100
AcDbVertex
100
AcDb2dVertex
 10
509.1119563279331
 20
720.113085476119
 30
0.0
  0
SEQEND
  5
7753
330
7750
100
AcDbEntity
  8
MODEL
  0
POLYLINE
  5
7754
330
A
100
AcDbEntity
  8
MODEL
100
AcDb2dPolyline
 66
     1
 10
0.0
 20
0.0
 30
0.0
  0
VERTEX
  5
7755
330
7754
100
AcDbEntity
  8
MODEL
100
AcDbVertex
100
AcDb2dVertex
 10
507.6002053131797
 20
719.6404390076201
 30
0.0
  0
VERTEX
  5
7756
330
7754
100
AcDbEntity
  8
MODEL
100
AcDbVertex
100
AcDb2dVertex
 10
507.6002053131797
 20
720.113085476119
 30
0.0
  0
SEQEND
  5
7757
330
7754
100
AcDbEntity
  8
MODEL
  0
POLYLINE
  5
7758
330
A
100
AcDbEntity
  8
MODEL
100
AcDb2dPolyline
 66
     1
 10
0.0
 20
0.0
 30
0.0
  0
VERTEX
  5
7759
330
7758
100
AcDbEntity
  8
MODEL
100
AcDbVertex
100
AcDb2dVertex
 10
523.6002110090005
 20
720.113085476119
 30
0.0
  0
VERTEX
  5
775A
330
7758
100
AcDbEntity
  8
MODEL
100
AcDbVertex
100
AcDb2dVertex
 10
507.6002053131797
 20
720.113085476119
 30
0.0
  0
SEQEND
  5
775B
330
7758
100
AcDbEntity
  8
MODEL
  0
DIMENSION
  5
7814
102
{ACAD_REACTORS
330
7816
102
}
102
{ACAD_XDICTIONARY
360
7815
102
}
330
A
100
AcDbEntity
  8
DIM
 48
0.05
100
AcDbDimension
  2
*D27
 10
306.8772237197592
 20
694.6327246119896
 30
0.0
 11
306.8772237197592
 21
707.136581809805
 31
0.0
 70
   160
 71
     5
 42
25.00771439563061
 73
     0
 74
     0
 75
     0
  3
tfrom線あり
100
AcDbAlignedDimension
 13
343.6003391679208
 23
719.6404390076202
 33
0.0
 14
343.6003391679208
 24
694.6327246119896
 34
0.0
 50
90.0
100
AcDbRotatedDimension
  0
POLYLINE
  5
7866
330
A
100
AcDbEntity
  8
MODEL
100
AcDb2dPolyline
 66
     1
 10
0.0
 20
0.0
 30
0.0
  0
VERTEX
  5
7867
330
7866
100
AcDbEntity
  8
MODEL
100
AcDbVertex
100
AcDb2dVertex
 10
463.6854762046353
 20
1005.089185382289
 30
0.0
  0
VERTEX
  5
7868
330
7866
100
AcDbEntity
  8
MODEL
100
AcDbVertex
100
AcDb2dVertex
 10
583.591598364865
 20
1005.089185382289
 30
0.0
  0
SEQEND
  5
7869
330
7866
100
AcDbEntity
  8
MODEL
  0
POLYLINE
  5
786A
330
A
100
AcDbEntity
  8
MODEL
100
AcDb2dPolyline
 66
     1
 10
0.0
 20
0.0
 30
0.0
  0
VERTEX
  5
786B
330
786A
100
AcDbEntity
  8
MODEL
100
AcDbVertex
100
AcDb2dVertex
 10
538.1788372924362
 20
1005.089185382289
 30
0.0
  0
VERTEX
  5
786C
330
786A
100
AcDbEntity
  8
MODEL
100
AcDbVertex
100
AcDb2dVertex
 10
538.1788372924362
 20
1018.771235192572
 30
0.0
  0
SEQEND
  5
786D
330
786A
100
AcDbEntity
  8
MODEL
  0
POLYLINE
  5
786E
330
A
100
AcDbEntity
  8
MODEL
100
AcDb2dPolyline
 66
     1
 10
0.0
 20
0.0
 30
0.0
  0
VERTEX
  5
786F
330
786E
100
AcDbEntity
  8
MODEL
100
AcDbVertex
100
AcDb2dVertex
 10
509.0947922185695
 20
1005.089185382289
 30
0.0
  0
VERTEX
  5
7870
330
786E
100
AcDbEntity
  8
MODEL
100
AcDbVertex
100
AcDb2dVertex
 10
509.0947922185695
 20
1018.771235192572
 30
0.0
  0
SEQEND
  5
7871
330
786E
100
AcDbEntity
  8
MODEL
  0
POLYLINE
  5
7872
330
A
100
AcDbEntity
  8
MODEL
100
AcDb2dPolyline
 66
     1
 10
0.0
 20
0.0
 30
0.0
  0
VERTEX
  5
7873
330
7872
100
AcDbEntity
  8
MODEL
100
AcDbVertex
100
AcDb2dVertex
 10
463.5717892743222
 20
1009.076840589491
 30
0.0
  0
VERTEX
  5
7874
330
7872
100
AcDbEntity
  8
MODEL
100
AcDbVertex
100
AcDb2dVertex
 10
467.5577219522769
 20
1005.089185382289
 30
0.0
  0
SEQEND
  5
7875
330
7872
100
AcDbEntity
  8
MODEL
  0
POLYLINE
  5
7876
330
A
100
AcDbEntity
  8
MODEL
100
AcDb2dPolyline
 66
     1
 10
0.0
 20
0.0
 30
0.0
  0
VERTEX
  5
7877
330
7876
100
AcDbEntity
  8
MODEL
100
AcDbVertex
100
AcDb2dVertex
 10
463.5717892743222
 20
1016.359694246532
 30
0.0
  0
VERTEX
  5
7878
330
7876
100
AcDbEntity
  8
MODEL
100
AcDbVertex
100
AcDb2dVertex
 10
474.8440206678122
 20
1005.089185382289
 30
0.0
  0
SEQEND
  5
7879
330
7876
100
AcDbEntity
  8
MODEL
  0
POLYLINE
  5
787A
330
A
100
AcDbEntity
  8
MODEL
100
AcDb2dPolyline
 66
     1
 10
0.0
 20
0.0
 30
0.0
  0
VERTEX
  5
787B
330
787A
100
AcDbEntity
  8
MODEL
100
AcDbVertex
100
AcDb2dVertex
 10
468.4465470438172
 20
1018.771235192572
 30
0.0
  0
VERTEX
  5
787C
330
787A
100
AcDbEntity
  8
MODEL
100
AcDbVertex
100
AcDb2dVertex
 10
482.1268743248531
 20
1005.089185382289
 30
0.0
  0
SEQEND
  5
787D
330
787A
100
AcDbEntity
  8
MODEL
  0
POLYLINE
  5
787E
330
A
100
AcDbEntity
  8
MODEL
100
AcDb2dPolyline
 66
     1
 10
0.0
 20
0.0
 30
0.0
  0
VERTEX
  5
787F
330
787E
100
AcDbEntity
  8
MODEL
100
AcDbVertex
100
AcDb2dVertex
 10
475.7294007008582
 20
1018.771235192572
 30
0.0
  0
VERTEX
  5
7880
330
787E
100
AcDbEntity
  8
MODEL
100
AcDbVertex
100
AcDb2dVertex
 10
489.4097279818942
 20
1005.089185382289
 30
0.0
  0
SEQEND
  5
7881
330
787E
100
AcDbEntity
  8
MODEL
  0
POLYLINE
  5
7882
330
A
100
AcDbEntity
  8
MODEL
100
AcDb2dPolyline
 66
     1
 10
0.0
 20
0.0
 30
0.0
  0
VERTEX
  5
7883
330
7882
100
AcDbEntity
  8
MODEL
100
AcDbVertex
100
AcDb2dVertex
 10
482.9157927200574
 20
1018.771235192572
 30
0.0
  0
VERTEX
  5
7884
330
7882
100
AcDbEntity
  8
MODEL
100
AcDbVertex
100
AcDb2dVertex
 10
496.6925816389351
 20
1005.089185382289
 30
0.0
  0
SEQEND
  5
7885
330
7882
100
AcDbEntity
  8
MODEL
  0
POLYLINE
  5
7886
330
A
100
AcDbEntity
  8
MODEL
100
AcDb2dPolyline
 66
     1
 10
0.0
 20
0.0
 30
0.0
  0
VERTEX
  5
7887
330
7886
100
AcDbEntity
  8
MODEL
100
AcDbVertex
100
AcDb2dVertex
 10
490.1952013186041
 20
1018.771235192572
 30
0.0
  0
VERTEX
  5
7888
330
7886
100
AcDbEntity
  8
MODEL
100
AcDbVertex
100
AcDb2dVertex
 10
503.8789736581344
 20
1005.089185382289
 30
0.0
  0
SEQEND
  5
7889
330
7886
100
AcDbEntity
  8
MODEL
  0
POLYLINE
  5
788A
330
A
100
AcDbEntity
  8
MODEL
100
AcDb2dPolyline
 66
     1
 10
0.0
 20
0.0
 30
0.0
  0
VERTEX
  5
788B
330
788A
100
AcDbEntity
  8
MODEL
100
AcDbVertex
100
AcDb2dVertex
 10
497.4815000341395
 20
1018.771235192572
 30
0.0
  0
VERTEX
  5
788C
330
788A
100
AcDbEntity
  8
MODEL
100
AcDbVertex
100
AcDb2dVertex
 10
509.0947922185695
 20
1007.157943008142
 30
0.0
  0
SEQEND
  5
788D
330
788A
100
AcDbEntity
  8
MODEL
  0
POLYLINE
  5
788E
330
A
100
AcDbEntity
  8
MODEL
100
AcDb2dPolyline
 66
     1
 10
0.0
 20
0.0
 30
0.0
  0
VERTEX
  5
788F
330
788E
100
AcDbEntity
  8
MODEL
100
AcDbVertex
100
AcDb2dVertex
 10
504.7643536911803
 20
1018.771235192572
 30
0.0
  0
VERTEX
  5
7890
330
788E
100
AcDbEntity
  8
MODEL
100
AcDbVertex
100
AcDb2dVertex
 10
509.0947922185695
 20
1014.440796665183
 30
0.0
  0
SEQEND
  5
7891
330
788E
100
AcDbEntity
  8
MODEL
  0
POLYLINE
  5
7892
330
A
100
AcDbEntity
  8
MODEL
100
AcDb2dPolyline
 66
     1
 10
0.0
 20
0.0
 30
0.0
  0
VERTEX
  5
7893
330
7892
100
AcDbEntity
  8
MODEL
100
AcDbVertex
100
AcDb2dVertex
 10
538.1788372924362
 20
1005.681735443317
 30
0.0
  0
VERTEX
  5
7894
330
7892
100
AcDbEntity
  8
MODEL
100
AcDbVertex
100
AcDb2dVertex
 10
538.8678489913049
 20
1005.089185382289
 30
0.0
  0
SEQEND
  5
7895
330
7892
100
AcDbEntity
  8
MODEL
  0
POLYLINE
  5
7896
330
A
100
AcDbEntity
  8
MODEL
100
AcDb2dPolyline
 66
     1
 10
0.0
 20
0.0
 30
0.0
  0
VERTEX
  5
7897
330
7896
100
AcDbEntity
  8
MODEL
100
AcDbVertex
100
AcDb2dVertex
 10
538.1788372924362
 20
1012.964589100357
 30
0.0
  0
VERTEX
  5
7898
330
7896
100
AcDbEntity
  8
MODEL
100
AcDbVertex
100
AcDb2dVertex
 10
546.1541477068403
 20
1005.089185382289
 30
0.0
  0
SEQEND
  5
7899
330
7896
100
AcDbEntity
  8
MODEL
  0
POLYLINE
  5
789A
330
A
100
AcDbEntity
  8
MODEL
100
AcDb2dPolyline
 66
     1
 10
0.0
 20
0.0
 30
0.0
  0
VERTEX
  5
789B
330
789A
100
AcDbEntity
  8
MODEL
100
AcDbVertex
100
AcDb2dVertex
 10
539.6567673865092
 20
1018.771235192572
 30
0.0
  0
VERTEX
  5
789C
330
789A
100
AcDbEntity
  8
MODEL
100
AcDbVertex
100
AcDb2dVertex
 10
553.3370946675453
 20
1005.089185382289
 30
0.0
  0
SEQEND
  5
789D
330
789A
100
AcDbEntity
  8
MODEL
  0
POLYLINE
  5
789E
330
A
100
AcDbEntity
  8
MODEL
100
AcDb2dPolyline
 66
     1
 10
0.0
 20
0.0
 30
0.0
  0
VERTEX
  5
789F
330
789E
100
AcDbEntity
  8
MODEL
100
AcDbVertex
100
AcDb2dVertex
 10
546.9396210435503
 20
1018.771235192572
 30
0.0
  0
VERTEX
  5
78A0
330
789E
100
AcDbEntity
  8
MODEL
100
AcDbVertex
100
AcDb2dVertex
 10
560.6233933830805
 20
1005.089185382289
 30
0.0
  0
SEQEND
  5
78A1
330
789E
100
AcDbEntity
  8
MODEL
  0
POLYLINE
  5
78A2
330
A
100
AcDbEntity
  8
MODEL
100
AcDb2dPolyline
 66
     1
 10
0.0
 20
0.0
 30
0.0
  0
VERTEX
  5
78A3
330
78A2
100
AcDbEntity
  8
MODEL
100
AcDbVertex
100
AcDb2dVertex
 10
554.2224747005913
 20
1018.771235192572
 30
0.0
  0
VERTEX
  5
78A4
330
78A2
100
AcDbEntity
  8
MODEL
100
AcDbVertex
100
AcDb2dVertex
 10
567.9062470401215
 20
1005.089185382289
 30
0.0
  0
SEQEND
  5
78A5
330
78A2
100
AcDbEntity
  8
MODEL
  0
POLYLINE
  5
78A6
330
A
100
AcDbEntity
  8
MODEL
100
AcDb2dPolyline
 66
     1
 10
0.0
 20
0.0
 30
0.0
  0
VERTEX
  5
78A7
330
78A6
100
AcDbEntity
  8
MODEL
100
AcDbVertex
100
AcDb2dVertex
 10
561.5087734161265
 20
1018.771235192572
 30
0.0
  0
VERTEX
  5
78A8
330
78A6
100
AcDbEntity
  8
MODEL
100
AcDbVertex
100
AcDb2dVertex
 10
575.1891006971626
 20
1005.089185382289
 30
0.0
  0
SEQEND
  5
78A9
330
78A6
100
AcDbEntity
  8
MODEL
  0
POLYLINE
  5
78AA
330
A
100
AcDbEntity
  8
MODEL
100
AcDb2dPolyline
 66
     1
 10
0.0
 20
0.0
 30
0.0
  0
VERTEX
  5
78AB
330
78AA
100
AcDbEntity
  8
MODEL
100
AcDbVertex
100
AcDb2dVertex
 10
568.691720376832
 20
1018.771235192572
 30
0.0
  0
VERTEX
  5
78AC
330
78AA
100
AcDbEntity
  8
MODEL
100
AcDbVertex
100
AcDb2dVertex
 10
582.4719543542036
 20
1005.089185382289
 30
0.0
  0
SEQEND
  5
78AD
330
78AA
100
AcDbEntity
  8
MODEL
  0
POLYLINE
  5
78AE
330
A
100
AcDbEntity
  8
MODEL
100
AcDb2dPolyline
 66
     1
 10
0.0
 20
0.0
 30
0.0
  0
VERTEX
  5
78AF
330
78AE
100
AcDbEntity
  8
MODEL
100
AcDbVertex
100
AcDb2dVertex
 10
575.9780190923667
 20
1018.771235192572
 30
0.0
  0
VERTEX
  5
78B0
330
78AE
100
AcDbEntity
  8
MODEL
100
AcDbVertex
100
AcDb2dVertex
 10
583.4779114345519
 20
1011.271342850388
 30
0.0
  0
SEQEND
  5
78B1
330
78AE
100
AcDbEntity
  8
MODEL
  0
VIEWPORT
  5
349
330
B
100
AcDbEntity
 67
     1
  8
0
100
AcDbViewport
 10
202.5
 20
128.5
 30
0.0
 40
486.0
 41
308.4
 68
     1
 69
     1
 12
202.5
 22
128.5
 13
0.0
 23
0.0
 14
0.5
 24
0.5
 15
0.0
 25
0.0
 16
0.0
 26
0.0
 36
1.0
 17
0.0
 27
0.0
 37
0.0
 42
50.0
 43
0.0
 44
0.0
 45
308.4
 50
0.0
 51
0.0
 72
   100
 90
   557152
  1

281
     0
 71
     1
 74
     0
110
0.0
120
0.0
130
0.0
111
1.0
121
0.0
131
0.0
112
0.0
122
1.0
132
0.0
 79
     0
146
0.0
170
     0
 61
     5
348
26C
292
     1
282
     1
141
0.0
142
0.0
 63
   256
  0
VIEWPORT
  5
34A
330
B
100
AcDbEntity
 67
     1
  8
0
100
AcDbViewport
 10
202.5
 20
128.5
 30
0.0
 40
324.0
 41
205.6
 68
     2
 69
     2
 12
986.6781359294573
 22
1427.077061889956
 13
0.0
 23
0.0
 14
0.5
 24
0.5
 15
0.0
 25
0.0
 16
0.0
 26
0.0
 36
1.0
 17
0.0
 27
0.0
 37
0.0
 42
50.0
 43
0.0
 44
0.0
 45
2890.021615685494
 50
0.0
 51
0.0
 72
   100
 90
   557152
  1

281
     0
 71
     1
 74
     0
110
0.0
120
0.0
130
0.0
111
1.0
121
0.0
131
0.0
112
0.0
122
1.0
132
0.0
 79
     0
146
0.0
170
     0
 61
     5
348
26C
292
     1
282
     1
141
0.0
142
0.0
 63
   256
  0
ENDSEC
  0
SECTION
  2
OBJECTS
  0
DICTIONARY
  5
19
330
0
100
AcDbDictionary
281
     1
  3
ACAD_COLOR
350
674
  3
ACAD_DETAILVIEWSTYLE
350
BBF
  3
ACAD_FIELDLIST
350
3446
  3
ACAD_GROUP
350
1A
  3
ACAD_IMAGE_VARS
350
27B
  3
ACAD_LAYOUT
350
1E
  3
ACAD_MATERIAL
350
263
  3
ACAD_MLEADERSTYLE
350
336
  3
ACAD_MLINESTYLE
350
1B
  3
ACAD_PLOTSETTINGS
350
22
  3
ACAD_PLOTSTYLENAME
350
1F
  3
ACAD_SCALELIST
350
241
  3
ACAD_SECTIONVIEWSTYLE
350
BC0
  3
ACAD_TABLESTYLE
350
278
  3
ACAD_VISUALSTYLE
350
267
  3
ACDB_RECOMPOSE_DATA
350
78B7
  3
AcDbVariableDictionary
350
330
  3
APPDATA
350
27A
  3
DimOffsetDictionary
350
E38
  0
SUN
  5
904
330
15
100
AcDbSun
 90
        1
290
     0
 63
     7
421
 16777215
 40
1.0
291
     1
 91
  2455826
 92
 54000000
292
     0
 70
     2
 71
   256
280
     1
  0
DICTIONARY
  5
2E1
330
2
100
AcDbDictionary
280
     1
281
     1
  3
ACAD_LAYERSTATES
360
2E2
  3
ACLYDICTIONARY
360
DDE
  0
DICTIONARY
  5
3444
330
3442
100
AcDbDictionary
280
     1
281
     1
  3
ACAD_FIELD
360
3448
  0
DICTIONARY
  5
6C0E
330
6C0D
100
AcDbDictionary
280
     1
281
     1
  3
ACAD_DIMASSOC
360
6C0F
  0
DICTIONARY
  5
6C1F
330
6C1E
100
AcDbDictionary
280
     1
281
     1
  3
ACAD_DIMASSOC
360
6C20
  0
DICTIONARY
  5
7815
330
7814
100
AcDbDictionary
280
     1
281
     1
  3
ACAD_DIMASSOC
360
7816
  0
DICTIONARY
  5
674
102
{ACAD_REACTORS
330
19
102
}
330
19
100
AcDbDictionary
281
     1
  0
DICTIONARY
  5
BBF
102
{ACAD_REACTORS
330
19
102
}
330
19
100
AcDbDictionary
281
     1
  0
FIELDLIST
  5
3446
102
{ACAD_REACTORS
330
19
102
}
330
19
100
AcDbIdSet
 90
        2
330
3447
330
3443
100
AcDbFieldList
  0
DICTIONARY
  5
1A
102
{ACAD_REACTORS
330
19
102
}
330
19
100
AcDbDictionary
281
     1
  0
RASTERVARIABLES
  5
27B
102
{ACAD_REACTORS
330
19
102
}
330
19
100
AcDbRasterVariables
 90
        0
 70
     1
 71
     1
 72
     1
  0
DICTIONARY
  5
1E
102
{ACAD_REACTORS
330
19
102
}
330
19
100
AcDbDictionary
281
     1
  3
Layout1
350
21
  3
Model
350
20
  0
DICTIONARY
  5
263
102
{ACAD_REACTORS
330
19
102
}
330
19
100
AcDbDictionary
281
     1
  3
ByBlock
350
6C3F
  3
ByLayer
350
264
  3
Global
350
266
  0
DICTIONARY
  5
336
102
{ACAD_REACTORS
330
19
102
}
330
19
100
AcDbDictionary
281
     1
  3
Standard
350
D59
  0
DICTIONARY
  5
1B
102
{ACAD_REACTORS
330
19
102
}
330
19
100
AcDbDictionary
281
     1
  3
Standard
350
1C
  0
DICTIONARY
  5
22
102
{ACAD_REACTORS
330
19
102
}
330
19
100
AcDbDictionary
281
     1
  0
ACDBDICTIONARYWDFLT
  5
1F
102
{ACAD_REACTORS
330
19
102
}
330
19
100
AcDbDictionary
281
     1
  3
Normal
350
1D
100
AcDbDictionaryWithDefault
340
1D
  0
DICTIONARY
  5
241
102
{ACAD_REACTORS
330
19
102
}
330
19
100
AcDbDictionary
281
     1
  3
A0
350
242
  3
A1
350
243
  3
A2
350
244
  3
A3
350
245
  3
A4
350
246
  3
A5
350
247
  3
A6
350
248
  3
A7
350
249
  3
A8
350
24A
  3
A9
350
24B
  3
B0
350
24C
  3
B1
350
24D
  3
B2
350
24E
  3
B3
350
24F
  3
B4
350
250
  3
B5
350
251
  3
B6
350
252
  3
B7
350
253
  3
B8
350
254
  3
B9
350
255
  3
C0
350
256
  3
C1
350
257
  3
C2
350
258
  3
C3
350
259
  3
C4
350
25A
  3
C5
350
25B
  3
C6
350
25C
  3
C7
350
25D
  3
C8
350
25E
  3
C9
350
25F
  3
D0
350
260
  3
D1
350
261
  3
D2
350
262
  0
DICTIONARY
  5
BC0
102
{ACAD_REACTORS
330
19
102
}
330
19
100
AcDbDictionary
281
     1
  0
DICTIONARY
  5
278
102
{ACAD_REACTORS
330
19
102
}
330
19
100
AcDbDictionary
281
     1
  3
Standard
350
279
  0
DICTIONARY
  5
267
102
{ACAD_REACTORS
330
19
102
}
330
19
100
AcDbDictionary
281
     1
  3
2dWireframe
350
26C
  3
3D Hidden
350
26E
  3
3dWireframe
350
26D
  3
Basic
350
26F
  3
Brighten
350
273
  3
ColorChange
350
277
  3
Conceptual
350
271
  3
Dim
350
272
  3
EdgeColorOff
350
8FE
  3
Facepattern
350
276
  3
Flat
350
268
  3
FlatWithEdges
350
269
  3
Gouraud
350
26A
  3
GouraudWithEdges
350
26B
  3
Hidden
350
8FB
  3
JitterOff
350
8FC
  3
Linepattern
350
275
  3
OverhangOff
350
8FD
  3
Realistic
350
270
  3
Shaded
350
903
  3
Shaded with edges
350
902
  3
Shades of Gray
350
8FF
  3
Sketchy
350
900
  3
Thicken
350
274
  3
Wireframe
350
8FA
  3
X-Ray
350
901
  0
XRECORD
  5
78B7
102
{ACAD_REACTORS
330
19
102
}
330
19
100
AcDbXrecord
280
     1
 90
        1
330
279
  0
DICTIONARY
  5
330
102
{ACAD_REACTORS
330
19
102
}
330
19
100
AcDbDictionary
281
     1
  3
CANNOSCALE
350
331
  3
CMLEADERSTYLE
350
D5E
  3
CTABLESTYLE
350
335
  3
HPTRANSPARENCY
350
D52
  3
XCLIPFRAME
350
896
  0
DICTIONARY
  5
27A
102
{ACAD_REACTORS
330
19
102
}
330
19
100
AcDbDictionary
281
     1
  0
DICTIONARY
  5
E38
102
{ACAD_REACTORS
330
19
102
}
330
19
100
AcDbDictionary
281
     1
  3
DIMRAILANGLE
350
1614
  3
DIMRAILFIRSTOFFSET
350
1612
  3
DIMRAILOFFSET
350
1613
  3
DIMRAILSENABLED
350
1615
  0
DICTIONARY
  5
2E2
102
{ACAD_REACTORS
330
2E1
102
}
330
2E1
100
AcDbDictionary
281
     1
  3
ARGON_LAYERP_9
350
7AA
  0
DICTIONARY
  5
DDE
102
{ACAD_REACTORS
330
2E1
102
}
330
2E1
100
AcDbDictionary
281
     1
1001
ACAD
1000
<All
  0
DICTIONARY
  5
3448
102
{ACAD_REACTORS
330
3444
102
}
330
3444
100
AcDbDictionary
280
     1
281
     1
  3
TEXT
360
3443
  0
DIMASSOC
  5
6C0F
102
{ACAD_REACTORS
330
6C0E
102
}
330
6C0E
100
AcDbDimAssoc
330
6C0D
 90
       12
 70
     0
 71
     1
  1
AcDbOsnapPointRef
 72
    13
331
6BB8
 73
     2
 91
        1
 40
0.0
 10
0.0
 20
0.0
 30
0.0
 75
     0
  1
AcDbOsnapPointRef
 72
     1
331
6BB8
 73
     2
 91
        1
 40
1.0
 10
0.0
 20
0.0
 30
0.0
 75
     0
  0
DIMASSOC
  5
6C20
102
{ACAD_REACTORS
330
6C1F
102
}
330
6C1F
100
AcDbDimAssoc
330
6C1E
 90
       12
 70
     0
 71
     1
  1
AcDbOsnapPointRef
 72
    13
331
6BB8
 73
     2
 91
        1
 40
0.0
 10
0.0
 20
0.0
 30
0.0
 75
     0
  1
AcDbOsnapPointRef
 72
     1
331
6BB8
 73
     2
 91
        1
 40
1.0
 10
0.0
 20
0.0
 30
0.0
 75
     0
  0
DIMASSOC
  5
7816
102
{ACAD_REACTORS
330
7815
102
}
330
7815
100
AcDbDimAssoc
330
7814
 90
        3
 70
     0
 71
     1
  1
AcDbOsnapPointRef
 72
     1
331
71FB
 73
     2
 91
        1
 40
1.0
 10
0.0
 20
0.0
 30
0.0
 75
     0
  1
AcDbOsnapPointRef
 72
     1
331
71F7
 73
     2
 91
        1
 40
1.0
 10
0.0
 20
0.0
 30
0.0
 75
     0
  0
LAYOUT
  5
21
102
{ACAD_REACTORS
330
1E
102
}
330
1E
100
AcDbPlotSettings
  1

  2
none_device
  4
ISO_A3_(420.00_x_297.00_MM)
  6

 40
7.5
 41
20.0
 42
7.5
 43
20.0
 44
420.0
 45
297.0
 46
0.0
 47
0.0
 48
0.0
 49
0.0
140
0.0
141
0.0
142
1.0
143
1.0
 70
     0
 72
     1
 73
     0
 74
     0
  7

 75
     0
 76
     0
 77
     2
 78
   300
147
1.0
148
0.0
149
0.0
100
AcDbLayout
  1
Layout1
 70
     0
 71
     0
 10
-7.5
 20
-20.0
 11
412.5
 21
277.0
 12
0.0
 22
0.0
 32
0.0
 14
0.0
 24
0.0
 34
0.0
 15
0.0
 25
0.0
 35
0.0
146
0.0
 13
0.0
 23
0.0
 33
0.0
 16
0.0
 26
0.0
 36
0.0
 17
0.0
 27
0.0
 37
0.0
 76
     0
330
B
331
349
  0
LAYOUT
  5
20
102
{ACAD_REACTORS
330
1E
102
}
330
1E
100
AcDbPlotSettings
  1

  2
none_device
  4
ISO_A3_(420.00_x_297.00_MM)
  6

 40
7.5
 41
20.0
 42
7.5
 43
20.0
 44
420.0
 45
297.0
 46
0.0
 47
0.0
 48
0.0
 49
0.0
140
0.0
141
0.0
142
1.0
143
1.0
 70
  1024
 72
     1
 73
     0
 74
     0
  7

 75
     0
 76
     0
 77
     2
 78
   300
147
1.0
148
0.0
149
0.0
100
AcDbLayout
  1
Model
 70
     0
 71
     1
 10
0.0
 20
0.0
 11
1050.0
 21
1485.0
 12
0.0
 22
0.0
 32
0.0
 14
0.0
 24
0.0
 34
0.0
 15
1050.0
 25
1485.0
 35
0.0000000000000071
146
0.0
 13
0.0
 23
0.0
 33
0.0
 16
0.0
 26
0.0
 36
0.0
 17
0.0
 27
0.0
 37
0.0
 76
     0
330
A
331
15
  0
MATERIAL
  5
6C3F
102
{ACAD_REACTORS
330
263
102
}
330
263
100
AcDbMaterial
  1
ByBlock
 72
     1
 94
      127
  0
MATERIAL
  5
264
102
{ACAD_REACTORS
330
263
102
}
330
263
100
AcDbMaterial
  1
ByLayer
 72
     1
 94
      127
  0
MATERIAL
  5
266
102
{ACAD_REACTORS
330
263
102
}
330
263
100
AcDbMaterial
  1
Global
 72
     1
 94
      127
  0
MLEADERSTYLE
  5
D59
102
{ACAD_REACTORS
330
336
102
}
330
336
100
AcDbMLeaderStyle
170
     2
171
     1
172
     0
 90
        2
 40
0.0
 41
0.0
173
     1
 91
-1056964608
340
11
 92
       -2
290
     1
 42
2.0
291
     1
 43
8.0
  3
Standard
341
0
 44
4.0
300

342
17
174
     1
178
     6
175
     1
176
     0
 93
-1056964608
 45
4.0
292
     0
297
     0
 46
4.0
343
0
 94
-1056964608
 47
1.0
 49
1.0
140
1.0
293
     1
141
0.0
294
     1
177
     0
142
1.0
295
     0
296
     0
143
3.75
1001
ACAD_MLEADERVER
1070
     2
  0
MLINESTYLE
  5
1C
102
{ACAD_REACTORS
330
1B
102
}
330
1B
100
AcDbMlineStyle
  2
Standard
 70
     0
  3

 62
     0
 51
90.0
 52
90.0
 71
     2
 49
0.5
 62
   256
  6
BYLAYER
 49
-0.5
 62
   256
  6
BYLAYER
  0
ACDBPLACEHOLDER
  5
1D
102
{ACAD_REACTORS
330
1F
102
}
330
1F
  0
SCALE
  5
242
102
{ACAD_REACTORS
330
241
102
}
330
241
100
AcDbScale
 70
     0
300
1:1
140
1.0
141
1.0
290
     1
  0
SCALE
  5
243
102
{ACAD_REACTORS
330
241
102
}
330
241
100
AcDbScale
 70
     0
300
1:2
140
1.0
141
2.0
290
     0
  0
SCALE
  5
244
102
{ACAD_REACTORS
330
241
102
}
330
241
100
AcDbScale
 70
     0
300
1:4
140
1.0
141
4.0
290
     0
  0
SCALE
  5
245
102
{ACAD_REACTORS
330
241
102
}
330
241
100
AcDbScale
 70
     0
300
1:5
140
1.0
141
5.0
290
     0
  0
SCALE
  5
246
102
{ACAD_REACTORS
330
241
102
}
330
241
100
AcDbScale
 70
     0
300
1:8
140
1.0
141
8.0
290
     0
  0
SCALE
  5
247
102
{ACAD_REACTORS
330
241
102
}
330
241
100
AcDbScale
 70
     0
300
1:10
140
1.0
141
10.0
290
     0
  0
SCALE
  5
248
102
{ACAD_REACTORS
330
241
102
}
330
241
100
AcDbScale
 70
     0
300
1:16
140
1.0
141
16.0
290
     0
  0
SCALE
  5
249
102
{ACAD_REACTORS
330
241
102
}
330
241
100
AcDbScale
 70
     0
300
1:20
140
1.0
141
20.0
290
     0
  0
SCALE
  5
24A
102
{ACAD_REACTORS
330
241
102
}
330
241
100
AcDbScale
 70
     0
300
1:30
140
1.0
141
30.0
290
     0
  0
SCALE
  5
24B
102
{ACAD_REACTORS
330
241
102
}
330
241
100
AcDbScale
 70
     0
300
1:40
140
1.0
141
40.0
290
     0
  0
SCALE
  5
24C
102
{ACAD_REACTORS
330
241
102
}
330
241
100
AcDbScale
 70
     0
300
1:50
140
1.0
141
50.0
290
     0
  0
SCALE
  5
24D
102
{ACAD_REACTORS
330
241
102
}
330
241
100
AcDbScale
 70
     0
300
1:100
140
1.0
141
100.0
290
     0
  0
SCALE
  5
24E
102
{ACAD_REACTORS
330
241
102
}
330
241
100
AcDbScale
 70
     0
300
2:1
140
2.0
141
1.0
290
     0
  0
SCALE
  5
24F
102
{ACAD_REACTORS
330
241
102
}
330
241
100
AcDbScale
 70
     0
300
4:1
140
4.0
141
1.0
290
     0
  0
SCALE
  5
250
102
{ACAD_REACTORS
330
241
102
}
330
241
100
AcDbScale
 70
     0
300
8:1
140
8.0
141
1.0
290
     0
  0
SCALE
  5
251
102
{ACAD_REACTORS
330
241
102
}
330
241
100
AcDbScale
 70
     0
300
10:1
140
10.0
141
1.0
290
     0
  0
SCALE
  5
252
102
{ACAD_REACTORS
330
241
102
}
330
241
100
AcDbScale
 70
     0
300
100:1
140
100.0
141
1.0
290
     0
  0
SCALE
  5
253
102
{ACAD_REACTORS
330
241
102
}
330
241
100
AcDbScale
 70
     0
300
1/128" = 1'-0"
140
0.0078125
141
12.0
290
     0
  0
SCALE
  5
254
102
{ACAD_REACTORS
330
241
102
}
330
241
100
AcDbScale
 70
     0
300
1/64" = 1'-0"
140
0.015625
141
12.0
290
     0
  0
SCALE
  5
255
102
{ACAD_REACTORS
330
241
102
}
330
241
100
AcDbScale
 70
     0
300
1/32" = 1'-0"
140
0.03125
141
12.0
290
     0
  0
SCALE
  5
256
102
{ACAD_REACTORS
330
241
102
}
330
241
100
AcDbScale
 70
     0
300
1/16" = 1'-0"
140
0.0625
141
12.0
290
     0
  0
SCALE
  5
257
102
{ACAD_REACTORS
330
241
102
}
330
241
100
AcDbScale
 70
     0
300
3/32" = 1'-0"
140
0.09375
141
12.0
290
     0
  0
SCALE
  5
258
102
{ACAD_REACTORS
330
241
102
}
330
241
100
AcDbScale
 70
     0
300
1/8" = 1'-0"
140
0.125
141
12.0
290
     0
  0
SCALE
  5
259
102
{ACAD_REACTORS
330
241
102
}
330
241
100
AcDbScale
 70
     0
300
3/16" = 1'-0"
140
0.1875
141
12.0
290
     0
  0
SCALE
  5
25A
102
{ACAD_REACTORS
330
241
102
}
330
241
100
AcDbScale
 70
     0
300
1/4" = 1'-0"
140
0.25
141
12.0
290
     0
  0
SCALE
  5
25B
102
{ACAD_REACTORS
330
241
102
}
330
241
100
AcDbScale
 70
     0
300
3/8" = 1'-0"
140
0.375
141
12.0
290
     0
  0
SCALE
  5
25C
102
{ACAD_REACTORS
330
241
102
}
330
241
100
AcDbScale
 70
     0
300
1/2" = 1'-0"
140
0.5
141
12.0
290
     0
  0
SCALE
  5
25D
102
{ACAD_REACTORS
330
241
102
}
330
241
100
AcDbScale
 70
     0
300
3/4" = 1'-0"
140
0.75
141
12.0
290
     0
  0
SCALE
  5
25E
102
{ACAD_REACTORS
330
241
102
}
330
241
100
AcDbScale
 70
     0
300
1" = 1'-0"
140
1.0
141
12.0
290
     0
  0
SCALE
  5
25F
102
{ACAD_REACTORS
330
241
102
}
330
241
100
AcDbScale
 70
     0
300
1-1/2" = 1'-0"
140
1.5
141
12.0
290
     0
  0
SCALE
  5
260
102
{ACAD_REACTORS
330
241
102
}
330
241
100
AcDbScale
 70
     0
300
3" = 1'-0"
140
3.0
141
12.0
290
     0
  0
SCALE
  5
261
102
{ACAD_REACTORS
330
241
102
}
330
241
100
AcDbScale
 70
     0
300
6" = 1'-0"
140
6.0
141
12.0
290
     0
  0
SCALE
  5
262
102
{ACAD_REACTORS
330
241
102
}
330
241
100
AcDbScale
 70
     0
300
1'-0" = 1'-0"
140
12.0
141
12.0
290
     0
  0
TABLESTYLE
  5
279
102
{ACAD_REACTORS
330
278
102
}
102
{ACAD_XDICTIONARY
360
78B5
102
}
330
278
100
AcDbTableStyle
  3
Standard
 70
     0
 71
     0
 40
0.06
 41
0.06
280
     0
281
     0
  7
Standard
140
4.5
170
     2
 62
     0
 63
   257
283
     0
 90
        4
 91
        0
  1

274
    -2
284
     1
 64
     0
275
    -2
285
     1
 65
     0
276
    -2
286
     1
 66
     0
277
    -2
287
     1
 67
     0
278
    -2
288
     1
 68
     0
279
    -2
289
     1
 69
     0
  7
Standard
140
6.0
170
     5
 62
     0
 63
   257
283
     0
 90
        4
 91
        0
  1

274
    -2
284
     1
 64
     0
275
    -2
285
     1
 65
     0
276
    -2
286
     1
 66
     0
277
    -2
287
     1
 67
     0
278
    -2
288
     1
 68
     0
279
    -2
289
     1
 69
     0
  7
Standard
140
4.5
170
     5
 62
     0
 63
   257
283
     0
 90
        4
 91
        0
  1

274
    -2
284
     1
 64
     0
275
    -2
285
     1
 65
     0
276
    -2
286
     1
 66
     0
277
    -2
287
     1
 67
     0
278
    -2
288
     1
 68
     0
279
    -2
289
     1
 69
     0
  0
VISUALSTYLE
  5
26C
102
{ACAD_REACTORS
330
267
102
}
330
267
100
AcDbVisualStyle
  2
2dWireframe
 70
     4
 71
     0
 72
     2
 73
     0
 90
        0
 40
-0.6
 41
-30.0
 62
     5
 63
     7
421
 16777215
 74
     1
 91
        4
 64
     7
 65
   257
 75
     1
175
     1
 42
1.0
 92
        0
 66
   257
 43
1.0
 76
     1
 77
     6
 78
     2
 67
     7
 79
     5
170
     0
171
     0
290
     0
174
     0
 93
        1
 44
0.0
173
     0
291
     0
 45
0.0
  0
VISUALSTYLE
  5
26E
102
{ACAD_REACTORS
330
267
102
}
330
267
100
AcDbVisualStyle
  2
3D Hidden
 70
     6
 71
     1
 72
     2
 73
     2
 90
        0
 40
-0.6
 41
-30.0
 62
     5
 63
     7
421
 16777215
 74
     2
 91
        2
 64
     7
 65
   257
 75
     2
175
     1
 42
40.0
 92
        0
 66
   257
 43
1.0
 76
     1
 77
     6
 78
     2
 67
     7
 79
     3
170
     0
171
     0
290
     0
174
     0
 93
        1
 44
0.0
173
     0
291
     0
 45
0.0
  0
VISUALSTYLE
  5
26D
102
{ACAD_REACTORS
330
267
102
}
330
267
100
AcDbVisualStyle
  2
3dWireframe
 70
     5
 71
     0
 72
     2
 73
     0
 90
        0
 40
-0.6
 41
-30.0
 62
     5
 63
     7
421
 16777215
 74
     1
 91
        4
 64
     7
 65
   257
 75
     1
175
     1
 42
1.0
 92
        0
 66
   257
 43
1.0
 76
     1
 77
     6
 78
     2
 67
     7
 79
     5
170
     0
171
     0
290
     0
174
     0
 93
        1
 44
0.0
173
     0
291
     0
 45
0.0
  0
VISUALSTYLE
  5
26F
102
{ACAD_REACTORS
330
267
102
}
330
267
100
AcDbVisualStyle
  2
Basic
 70
     7
 71
     1
 72
     0
 73
     1
 90
        0
 40
-0.6
 41
-30.0
 62
     5
 63
     7
421
 16777215
 74
     0
 91
        4
 64
     7
 65
   257
 75
     1
175
     1
 42
1.0
 92
        8
 66
     7
 43
1.0
 76
     1
 77
     6
 78
     2
 67
     7
 79
     5
170
     0
171
     0
290
     0
174
     0
 93
        1
 44
0.0
173
     0
291
     1
 45
0.0
  0
VISUALSTYLE
  5
273
102
{ACAD_REACTORS
330
267
102
}
330
267
100
AcDbVisualStyle
  2
Brighten
 70
    12
 71
     2
 72
     2
 73
     0
 90
        0
 40
-0.6
 41
-30.0
 62
     5
 63
     7
421
 16777215
 74
     1
 91
        4
 64
     7
 65
   257
 75
     1
175
     1
 42
1.0
 92
        8
 66
     7
 43
1.0
 76
     1
 77
     6
 78
     2
 67
     7
 79
     5
170
     0
171
     0
290
     0
174
     0
 93
        1
 44
50.0
173
     0
291
     1
 45
0.0
  0
VISUALSTYLE
  5
277
102
{ACAD_REACTORS
330
267
102
}
330
267
100
AcDbVisualStyle
  2
ColorChange
 70
    16
 71
     2
 72
     2
 73
     3
 90
        0
 40
-0.6
 41
-30.0
 62
     5
 63
     8
421
  8421504
 74
     1
 91
        4
 64
     7
 65
   257
 75
     1
175
     1
 42
1.0
 92
        8
 66
     8
424
  8421504
 43
1.0
 76
     1
 77
     6
 78
     2
 67
     7
 79
     5
170
     0
171
     0
290
     0
174
     0
 93
        1
 44
0.0
173
     0
291
     1
 45
0.0
  0
VISUALSTYLE
  5
271
102
{ACAD_REACTORS
330
267
102
}
330
267
100
AcDbVisualStyle
  2
Conceptual
 70
     9
 71
     3
 72
     2
 73
     0
 90
        0
 40
-0.6
 41
-30.0
 62
     5
 63
     7
421
 16777215
 74
     2
 91
        2
 64
     7
 65
   257
 75
     1
175
     1
 42
40.0
 92
        8
 66
     7
 43
1.0
 76
     1
 77
     6
 78
     2
 67
     7
 79
     3
170
     0
171
     0
290
     0
174
     0
 93
        1
 44
0.0
173
     0
291
     0
 45
0.0
  0
VISUALSTYLE
  5
272
102
{ACAD_REACTORS
330
267
102
}
330
267
100
AcDbVisualStyle
  2
Dim
 70
    11
 71
     2
 72
     2
 73
     0
 90
        0
 40
-0.6
 41
-30.0
 62
     5
 63
     7
421
 16777215
 74
     1
 91
        4
 64
     7
 65
   257
 75
     1
175
     1
 42
1.0
 92
        8
 66
     7
 43
1.0
 76
     1
 77
     6
 78
     2
 67
     7
 79
     5
170
     0
171
     0
290
     0
174
     0
 93
        1
 44
-50.0
173
     0
291
     1
 45
0.0
  0
VISUALSTYLE
  5
8FE
102
{ACAD_REACTORS
330
267
102
}
330
267
100
AcDbVisualStyle
  2
EdgeColorOff
 70
    22
 71
     2
 72
     2
 73
     0
 90
        0
 40
0.6
 41
30.0
 62
     5
 63
     7
421
 16777215
 74
     1
 91
        4
 64
     7
 65
   257
 75
     1
175
     1
 42
1.0
 92
        8
 66
     7
 43
1.0
 76
     1
 77
     6
 78
     2
 67
     7
 79
     5
170
     0
171
     0
290
     0
174
     0
 93
        1
 44
0.0
173
     0
291
     1
 45
0.0
  0
VISUALSTYLE
  5
276
102
{ACAD_REACTORS
330
267
102
}
330
267
100
AcDbVisualStyle
  2
Facepattern
 70
    15
 71
     2
 72
     2
 73
     0
 90
        0
 40
-0.6
 41
-30.0
 62
     5
 63
     7
421
 16777215
 74
     1
 91
        4
 64
     7
 65
   257
 75
     1
175
     1
 42
1.0
 92
        8
 66
     7
 43
1.0
 76
     1
 77
     6
 78
     2
 67
     7
 79
     5
170
     0
171
     0
290
     0
174
     0
 93
        1
 44
0.0
173
     0
291
     1
 45
0.0
  0
VISUALSTYLE
  5
268
102
{ACAD_REACTORS
330
267
102
}
330
267
100
AcDbVisualStyle
  2
Flat
 70
     0
 71
     2
 72
     1
 73
     1
 90
        2
 40
-0.6
 41
30.0
 62
     5
 63
     7
421
 16777215
 74
     0
 91
        4
 64
     7
 65
   257
 75
     1
175
     1
 42
1.0
 92
        8
 66
     7
 43
1.0
 76
     1
 77
     6
 78
     2
 67
     7
 79
     5
170
     0
171
     0
290
     0
174
     0
 93
       13
 44
0.0
173
     0
291
     1
 45
0.0
  0
VISUALSTYLE
  5
269
102
{ACAD_REACTORS
330
267
102
}
330
267
100
AcDbVisualStyle
  2
FlatWithEdges
 70
     1
 71
     2
 72
     1
 73
     1
 90
        2
 40
-0.6
 41
30.0
 62
     5
 63
     7
421
 16777215
 74
     1
 91
        4
 64
     7
 65
   257
 75
     1
175
     1
 42
1.0
 92
        0
 66
   257
 43
1.0
 76
     1
 77
     6
 78
     2
 67
     7
 79
     5
170
     0
171
     0
290
     0
174
     0
 93
       13
 44
0.0
173
     0
291
     1
 45
0.0
  0
VISUALSTYLE
  5
26A
102
{ACAD_REACTORS
330
267
102
}
330
267
100
AcDbVisualStyle
  2
Gouraud
 70
     2
 71
     2
 72
     2
 73
     1
 90
        2
 40
-0.6
 41
30.0
 62
     5
 63
     7
421
 16777215
 74
     0
 91
        4
 64
     7
 65
   257
 75
     1
175
     1
 42
1.0
 92
        0
 66
     7
 43
1.0
 76
     1
 77
     6
 78
     2
 67
     7
 79
     5
170
     0
171
     0
290
     0
174
     0
 93
       13
 44
0.0
173
     0
291
     1
 45
0.0
  0
VISUALSTYLE
  5
26B
102
{ACAD_REACTORS
330
267
102
}
330
267
100
AcDbVisualStyle
  2
GouraudWithEdges
 70
     3
 71
     2
 72
     2
 73
     1
 90
        2
 40
-0.6
 41
30.0
 62
     5
 63
     7
421
 16777215
 74
     1
 91
        4
 64
     7
 65
   257
 75
     1
175
     1
 42
1.0
 92
        0
 66
   257
 43
1.0
 76
     1
 77
     6
 78
     2
 67
     7
 79
     5
170
     0
171
     0
290
     0
174
     0
 93
       13
 44
0.0
173
     0
291
     1
 45
0.0
  0
VISUALSTYLE
  5
8FB
102
{ACAD_REACTORS
330
267
102
}
330
267
100
AcDbVisualStyle
  2
Hidden
 70
     6
 71
     1
 72
     2
 73
     2
 90
        0
 40
0.6
 41
30.0
 62
     5
 63
     7
421
 16777215
 74
     2
 91
        2
 64
     7
 65
   257
 75
     2
175
     1
 42
40.0
 92
        0
 66
   257
 43
1.0
 76
     1
 77
     6
 78
     2
 67
     7
 79
     3
170
     0
171
     0
290
     0
174
     0
 93
        1
 44
0.0
173
     0
291
     0
 45
0.0
  0
VISUALSTYLE
  5
8FC
102
{ACAD_REACTORS
330
267
102
}
330
267
100
AcDbVisualStyle
  2
JitterOff
 70
    20
 71
     2
 72
     2
 73
     0
 90
        0
 40
0.6
 41
30.0
 62
     5
 63
     7
421
 16777215
 74
     1
 91
        4
 64
     7
 65
   257
 75
     1
175
     1
 42
1.0
 92
       10
 66
     7
 43
1.0
 76
     1
 77
     6
 78
     2
 67
     7
 79
     5
170
     0
171
     0
290
     0
174
     0
 93
        1
 44
0.0
173
     0
291
     1
 45
0.0
  0
VISUALSTYLE
  5
275
102
{ACAD_REACTORS
330
267
102
}
330
267
100
AcDbVisualStyle
  2
Linepattern
 70
    14
 71
     2
 72
     2
 73
     0
 90
        0
 40
-0.6
 41
-30.0
 62
     5
 63
     7
421
 16777215
 74
     1
 91
        4
 64
     7
 65
   257
 75
     7
175
     7
 42
1.0
 92
        8
 66
     7
 43
1.0
 76
     1
 77
     6
 78
     2
 67
     7
 79
     5
170
     0
171
     0
290
     0
174
     0
 93
        1
 44
0.0
173
     0
291
     1
 45
0.0
  0
VISUALSTYLE
  5
8FD
102
{ACAD_REACTORS
330
267
102
}
330
267
100
AcDbVisualStyle
  2
OverhangOff
 70
    21
 71
     2
 72
     2
 73
     0
 90
        0
 40
0.6
 41
30.0
 62
     5
 63
     7
421
 16777215
 74
     1
 91
        4
 64
     7
 65
   257
 75
     1
175
     1
 42
1.0
 92
        9
 66
     7
 43
1.0
 76
     1
 77
     6
 78
     2
 67
     7
 79
     5
170
     0
171
     0
290
     0
174
     0
 93
        1
 44
0.0
173
     0
291
     1
 45
0.0
  0
VISUALSTYLE
  5
270
102
{ACAD_REACTORS
330
267
102
}
330
267
100
AcDbVisualStyle
  2
Realistic
 70
     8
 71
     2
 72
     2
 73
     0
 90
        0
 40
-0.6
 41
-30.0
 62
     5
 63
     7
421
 16777215
 74
     1
 91
        0
 64
     7
 65
   257
 75
     1
175
     1
 42
1.0
 92
        8
 66
     8
424
  7895160
 43
1.0
 76
     1
 77
     6
 78
     2
 67
     7
 79
     5
170
     0
171
     0
290
     0
174
     0
 93
       13
 44
0.0
173
     0
291
     0
 45
0.0
  0
VISUALSTYLE
  5
903
102
{ACAD_REACTORS
330
267
102
}
330
267
100
AcDbVisualStyle
  2
Shaded
 70
    27
 71
     2
 72
     2
 73
     1
 90
        2
 40
0.6
 41
30.0
 62
     5
 63
     7
421
 16777215
 74
     0
 91
        4
 64
     7
 65
   257
 75
     1
175
     1
 42
1.0
 92
        8
 66
   257
 43
1.0
 76
     1
 77
     6
 78
     2
 67
     8
425
  7895160
 79
     3
170
     0
171
     0
290
     0
174
     0
 93
        5
 44
0.0
173
     0
291
     0
 45
0.0
  0
VISUALSTYLE
  5
902
102
{ACAD_REACTORS
330
267
102
}
330
267
100
AcDbVisualStyle
  2
Shaded with edges
 70
    26
 71
     2
 72
     2
 73
     1
 90
        2
 40
0.6
 41
30.0
 62
     5
 63
     7
421
 16777215
 74
     1
 91
       10
 64
     7
 65
   257
 75
     2
175
     1
 42
1.0
 92
        8
 66
   257
 43
1.0
 76
     1
 77
     6
 78
     2
 67
     7
 79
     3
170
     0
171
     0
290
     0
174
     0
 93
        5
 44
0.0
173
     0
291
     0
 45
0.0
  0
VISUALSTYLE
  5
8FF
102
{ACAD_REACTORS
330
267
102
}
330
267
100
AcDbVisualStyle
  2
Shades of Gray
 70
    23
 71
     2
 72
     2
 73
     3
 90
        0
 40
0.6
 41
30.0
 62
     5
 63
     7
421
 16777215
 74
     2
 91
        2
 64
     7
 65
     7
 75
     1
175
     1
 42
40.0
 92
        8
 66
     7
 43
1.0
 76
     1
 77
     6
 78
     2
 67
     7
 79
     3
170
     0
171
     0
290
     0
174
     0
 93
        1
 44
0.0
173
     0
291
     0
 45
0.0
  0
VISUALSTYLE
  5
900
102
{ACAD_REACTORS
330
267
102
}
330
267
100
AcDbVisualStyle
  2
Sketchy
 70
    24
 71
     1
 72
     2
 73
     2
 90
        0
 40
0.6
 41
30.0
 62
     5
 63
     7
421
 16777215
 74
     2
 91
        2
 64
     7
 65
     7
 75
     1
175
     1
 42
40.0
 92
       11
 66
     7
 43
1.0
 76
     1
 77
     6
 78
     2
 67
     7
 79
     6
170
     0
171
     0
290
     0
174
     0
 93
        1
 44
0.0
173
     0
291
     0
 45
0.0
  0
VISUALSTYLE
  5
274
102
{ACAD_REACTORS
330
267
102
}
330
267
100
AcDbVisualStyle
  2
Thicken
 70
    13
 71
     2
 72
     2
 73
     0
 90
        0
 40
-0.6
 41
-30.0
 62
     5
 63
     7
421
 16777215
 74
     1
 91
        4
 64
     7
 65
   257
 75
     1
175
     1
 42
1.0
 92
       12
 66
     7
 43
1.0
 76
     1
 77
     6
 78
     2
 67
     7
 79
     5
170
     0
171
     0
290
     0
174
     0
 93
        1
 44
0.0
173
     0
291
     1
 45
0.0
  0
VISUALSTYLE
  5
8FA
102
{ACAD_REACTORS
330
267
102
}
330
267
100
AcDbVisualStyle
  2
Wireframe
 70
     5
 71
     0
 72
     2
 73
     0
 90
        0
 40
0.6
 41
30.0
 62
     5
 63
     7
421
 16777215
 74
     1
 91
        4
 64
     7
 65
   257
 75
     1
175
     1
 42
1.0
 92
        0
 66
   257
 43
1.0
 76
     1
 77
     6
 78
     2
 67
     7
 79
     3
170
     0
171
     0
290
     0
174
     0
 93
        1
 44
0.0
173
     0
291
     0
 45
0.0
  0
VISUALSTYLE
  5
901
102
{ACAD_REACTORS
330
267
102
}
330
267
100
AcDbVisualStyle
  2
X-Ray
 70
    25
 71
     2
 72
     2
 73
     1
 90
        1
 40
0.5
 41
30.0
 62
     5
 63
     7
421
 16777215
 74
     1
 91
        0
 64
     7
 65
   257
 75
     1
175
     1
 42
1.0
 92
        8
 66
     7
 43
1.0
 76
     1
 77
     6
 78
     2
 67
     7
 79
     3
170
     0
171
     0
290
     0
174
     0
 93
       13
 44
0.0
173
     0
291
     0
 45
0.0
  0
DICTIONARYVAR
  5
331
102
{ACAD_REACTORS
330
330
102
}
330
330
100
DictionaryVariables
280
     0
  1
1:1
  0
DICTIONARYVAR
  5
D5E
102
{ACAD_REACTORS
330
330
102
}
330
330
100
DictionaryVariables
280
     0
  1
Standard
  0
DICTIONARYVAR
  5
335
102
{ACAD_REACTORS
330
330
102
}
330
330
100
DictionaryVariables
280
     0
  1
Standard
  0
DICTIONARYVAR
  5
D52
102
{ACAD_REACTORS
330
330
102
}
330
330
100
DictionaryVariables
280
     0
  1
ByLayer
  0
DICTIONARYVAR
  5
896
102
{ACAD_REACTORS
330
330
102
}
330
330
100
DictionaryVariables
280
     0
  1
0
  0
DICTIONARYVAR
  5
1614
102
{ACAD_REACTORS
330
E38
102
}
330
E38
100
DictionaryVariables
280
     0
  1
0.261799
  0
DICTIONARYVAR
  5
1612
102
{ACAD_REACTORS
330
E38
102
}
330
E38
100
DictionaryVariables
280
     0
  1
0.400000
  0
DICTIONARYVAR
  5
1613
102
{ACAD_REACTORS
330
E38
102
}
330
E38
100
DictionaryVariables
280
     0
  1
0.250000
  0
DICTIONARYVAR
  5
1615
102
{ACAD_REACTORS
330
E38
102
}
330
E38
100
DictionaryVariables
280
     0
  1
1
  0
XRECORD
  5
7AA
102
{ACAD_REACTORS
330
2E2
102
}
330
2E2
100
AcDbXrecord
280
     1
 91
    34815
301

290
     0
302
HIDDEN
330
14
 90
        8
 62
     7
370
    -3
331
13
  1
Color_7
440
 33554687
330
4B
 90
        8
 62
     7
370
    20
331
13
  1
Color_7
440
 33554687
330
4C
 90
        8
 62
     3
370
    13
331
13
  1
Color_3
440
 33554687
330
4D
 90
        8
 62
     7
370
    20
331
13
  1
Color_7
440
 33554687
330
667
 90
        8
 62
     7
370
    -3
331
13
  1
Color_7
440
 33554687
330
0
 90
        8
 62
     8
370
    20
331
0
  1
Color_8
440
 33554687
330
D6B
 90
        0
 62
     4
370
    20
331
D6C
  1
Color_4
440
 33554687
330
D8C
 90
        0
 62
     7
370
    -3
331
13
  1
Color_7
440
 33554687
  0
FIELD
  5
3443
102
{ACAD_REACTORS
330
3448
102
}
330
3448
100
AcDbField
  1
_text
  2
{%<\_FldIdx 0>%N}
 90
        1
360
3447
 97
        0
 91
       63
 92
        0
 94
        8
 95
        2
 96
        0
300

 93
        1
  6
ACFD_FIELDTEXT_CHECKSUM
 93
        2
 90
        2
140
4547.0
 94
        0
300

302

304
ACVALUE_END
  7
ACFD_FIELD_VALUE
 93
        6
 90
        4
  1
{20160726N}
 94
        0
300

302

304
ACVALUE_END
301
{20160726N}
 98
       11
  0
DICTIONARY
  5
78B5
330
279
100
AcDbDictionary
280
     1
281
     1
  3
ACAD_ROUNDTRIP_2008_TABLESTYLE_CELLSTYLEMAP
360
78B6
  0
FIELD
  5
3447
330
3443
100
AcDbField
  1
AcVar
  2
\AcVar CreateDate \f "yyyyMMdd"
 90
        0
 97
        0
 91
       63
 92
        0
 94
        8
 95
        2
 96
        0
300

 93
        1
  6
Variable
 93
        2
 90
        4
  1
CreateDate
 94
        0
300

302

304
ACVALUE_END
  7
ACFD_FIELD_VALUE
 93
        6
 90
        8
 92
       16
310
E007070000001A00070000001B000000
 94
        0
300
yyyyMMdd
302

304
ACVALUE_END
301
20160726
 98
        8
  0
CELLSTYLEMAP
  5
78B6
102
{ACAD_REACTORS
330
78B5
102
}
330
78B5
100
AcDbCellStyleMap
 90
        3
300
CELLSTYLE
  1
TABLEFORMAT_BEGIN
 90
        5
170
     1
 91
        0
 92
    32768
 62
   257
 93
        1
300
CONTENTFORMAT
  1
CONTENTFORMAT_BEGIN
 90
        0
 91
        0
 92
        4
 93
        0
300

 40
0.0
140
1.0
 94
        5
 62
     0
340
17
144
6.0
309
CONTENTFORMAT_END
171
     1
301
MARGIN
  1
CELLMARGIN_BEGIN
 40
0.06
 40
0.06
 40
0.06
 40
0.06
 40
0.18
 40
0.18
309
CELLMARGIN_END
 94
        6
 95
        1
302
GRIDFORMAT
  1
GRIDFORMAT_BEGIN
 90
        0
 91
        1
 62
     0
 92
       -2
340
0
 93
        0
 40
0.045
309
GRIDFORMAT_END
 95
        2
302
GRIDFORMAT
  1
GRIDFORMAT_BEGIN
 90
        0
 91
        1
 62
     0
 92
       -2
340
0
 93
        0
 40
0.045
309
GRIDFORMAT_END
 95
        4
302
GRIDFORMAT
  1
GRIDFORMAT_BEGIN
 90
        0
 91
        1
 62
     0
 92
       -2
340
0
 93
        0
 40
0.045
309
GRIDFORMAT_END
 95
        8
302
GRIDFORMAT
  1
GRIDFORMAT_BEGIN
 90
        0
 91
        1
 62
     0
 92
       -2
340
0
 93
        0
 40
0.045
309
GRIDFORMAT_END
 95
       16
302
GRIDFORMAT
  1
GRIDFORMAT_BEGIN
 90
        0
 91
        1
 62
     0
 92
       -2
340
0
 93
        0
 40
0.045
309
GRIDFORMAT_END
 95
       32
302
GRIDFORMAT
  1
GRIDFORMAT_BEGIN
 90
        0
 91
        1
 62
     0
 92
       -2
340
0
 93
        0
 40
0.045
309
GRIDFORMAT_END
309
TABLEFORMAT_END
  1
CELLSTYLE_BEGIN
 90
        1
 91
        1
300
_TITLE
309
CELLSTYLE_END
300
CELLSTYLE
  1
TABLEFORMAT_BEGIN
 90
        5
170
     1
 91
        0
 92
        0
 62
   257
 93
        1
300
CONTENTFORMAT
  1
CONTENTFORMAT_BEGIN
 90
        0
 91
        0
 92
        4
 93
        0
300

 40
0.0
140
1.0
 94
        5
 62
     0
340
17
144
4.5
309
CONTENTFORMAT_END
171
     1
301
MARGIN
  1
CELLMARGIN_BEGIN
 40
0.06
 40
0.06
 40
0.06
 40
0.06
 40
0.18
 40
0.18
309
CELLMARGIN_END
 94
        6
 95
        1
302
GRIDFORMAT
  1
GRIDFORMAT_BEGIN
 90
        0
 91
        1
 62
     0
 92
       -2
340
0
 93
        0
 40
0.045
309
GRIDFORMAT_END
 95
        2
302
GRIDFORMAT
  1
GRIDFORMAT_BEGIN
 90
        0
 91
        1
 62
     0
 92
       -2
340
0
 93
        0
 40
0.045
309
GRIDFORMAT_END
 95
        4
302
GRIDFORMAT
  1
GRIDFORMAT_BEGIN
 90
        0
 91
        1
 62
     0
 92
       -2
340
0
 93
        0
 40
0.045
309
GRIDFORMAT_END
 95
        8
302
GRIDFORMAT
  1
GRIDFORMAT_BEGIN
 90
        0
 91
        1
 62
     0
 92
       -2
340
0
 93
        0
 40
0.045
309
GRIDFORMAT_END
 95
       16
302
GRIDFORMAT
  1
GRIDFORMAT_BEGIN
 90
        0
 91
        1
 62
     0
 92
       -2
340
0
 93
        0
 40
0.045
309
GRIDFORMAT_END
 95
       32
302
GRIDFORMAT
  1
GRIDFORMAT_BEGIN
 90
        0
 91
        1
 62
     0
 92
       -2
340
0
 93
        0
 40
0.045
309
GRIDFORMAT_END
309
TABLEFORMAT_END
  1
CELLSTYLE_BEGIN
 90
        2
 91
        1
300
_HEADER
309
CELLSTYLE_END
300
CELLSTYLE
  1
TABLEFORMAT_BEGIN
 90
        5
170
     1
 91
        0
 92
        0
 62
   257
 93
        1
300
CONTENTFORMAT
  1
CONTENTFORMAT_BEGIN
 90
        0
 91
        0
 92
        4
 93
        0
300

 40
0.0
140
1.0
 94
        2
 62
     0
340
17
144
4.5
309
CONTENTFORMAT_END
171
     1
301
MARGIN
  1
CELLMARGIN_BEGIN
 40
0.06
 40
0.06
 40
0.06
 40
0.06
 40
0.18
 40
0.18
309
CELLMARGIN_END
 94
        6
 95
        1
302
GRIDFORMAT
  1
GRIDFORMAT_BEGIN
 90
        0
 91
        1
 62
     0
 92
       -2
340
0
 93
        0
 40
0.045
309
GRIDFORMAT_END
 95
        2
302
GRIDFORMAT
  1
GRIDFORMAT_BEGIN
 90
        0
 91
        1
 62
     0
 92
       -2
340
0
 93
        0
 40
0.045
309
GRIDFORMAT_END
 95
        4
302
GRIDFORMAT
  1
GRIDFORMAT_BEGIN
 90
        0
 91
        1
 62
     0
 92
       -2
340
0
 93
        0
 40
0.045
309
GRIDFORMAT_END
 95
        8
302
GRIDFORMAT
  1
GRIDFORMAT_BEGIN
 90
        0
 91
        1
 62
     0
 92
       -2
340
0
 93
        0
 40
0.045
309
GRIDFORMAT_END
 95
       16
302
GRIDFORMAT
  1
GRIDFORMAT_BEGIN
 90
        0
 91
        1
 62
     0
 92
       -2
340
0
 93
        0
 40
0.045
309
GRIDFORMAT_END
 95
       32
302
GRIDFORMAT
  1
GRIDFORMAT_BEGIN
 90
        0
 91
        1
 62
     0
 92
       -2
340
0
 93
        0
 40
0.045
309
GRIDFORMAT_END
309
TABLEFORMAT_END
  1
CELLSTYLE_BEGIN
 90
        3
 91
        2
300
_DATA
309
CELLSTYLE_END
  0
ENDSEC
  0
EOF
