  0
SECTION
  2
HEADER
  9
$ACADVER
  1
AC1021
  9
$ACADMAINTVER
 70
    25
  9
$DWGCODEPAGE
  3
ANSI_932
  9
$LASTSAVEDBY
  1
T-HOWE-PC
  9
$INSBASE
 10
0.0
 20
0.0
 30
0.0
  9
$EXTMIN
 10
0.0
 20
0.0
 30
0.0
  9
$EXTMAX
 10
1050.0
 20
1485.0
 30
0.0
  9
$LIMMIN
 10
0.0
 20
0.0
  9
$LIMMAX
 10
1050.0
 20
1485.0
  9
$ORTHOMODE
 70
     0
  9
$REGENMODE
 70
     1
  9
$FILLMODE
 70
     1
  9
$QTEXTMODE
 70
     0
  9
$MIRRTEXT
 70
     1
  9
$LTSCALE
 40
1.0
  9
$ATTMODE
 70
     1
  9
$TEXTSIZE
 40
0.2
  9
$TRACEWID
 40
0.05
  9
$TEXTSTYLE
  7
Standard
  9
$CLAYER
  8
0
  9
$CELTYPE
  6
ByLayer
  9
$CECOLOR
 62
   256
  9
$CELTSCALE
 40
1.0
  9
$DISPSILH
 70
     0
  9
$DIMSCALE
 40
1.0
  9
$DIMASZ
 40
0.18
  9
$DIMEXO
 40
0.0625
  9
$DIMDLI
 40
0.38
  9
$DIMRND
 40
0.0
  9
$DIMDLE
 40
0.0
  9
$DIMEXE
 40
0.18
  9
$DIMTP
 40
0.0
  9
$DIMTM
 40
0.0
  9
$DIMTXT
 40
0.18
  9
$DIMCEN
 40
0.09
  9
$DIMTSZ
 40
0.0
  9
$DIMTOL
 70
     0
  9
$DIMLIM
 70
     0
  9
$DIMTIH
 70
     1
  9
$DIMTOH
 70
     1
  9
$DIMSE1
 70
     0
  9
$DIMSE2
 70
     0
  9
$DIMTAD
 70
     0
  9
$DIMZIN
 70
     0
  9
$DIMBLK
  1

  9
$DIMASO
 70
     1
  9
$DIMSHO
 70
     1
  9
$DIMPOST
  1

  9
$DIMAPOST
  1

  9
$DIMALT
 70
     0
  9
$DIMALTD
 70
     2
  9
$DIMALTF
 40
25.4
  9
$DIMLFAC
 40
1.0
  9
$DIMTOFL
 70
     0
  9
$DIMTVP
 40
0.0
  9
$DIMTIX
 70
     0
  9
$DIMSOXD
 70
     0
  9
$DIMSAH
 70
     0
  9
$DIMBLK1
  1

  9
$DIMBLK2
  1

  9
$DIMSTYLE
  2
Standard
  9
$DIMCLRD
 70
     0
  9
$DIMCLRE
 70
     0
  9
$DIMCLRT
 70
     0
  9
$DIMTFAC
 40
1.0
  9
$DIMGAP
 40
0.09
  9
$DIMJUST
 70
     0
  9
$DIMSD1
 70
     0
  9
$DIMSD2
 70
     0
  9
$DIMTOLJ
 70
     1
  9
$DIMTZIN
 70
     0
  9
$DIMALTZ
 70
     0
  9
$DIMALTTZ
 70
     0
  9
$DIMUPT
 70
     0
  9
$DIMDEC
 70
     4
  9
$DIMTDEC
 70
     4
  9
$DIMALTU
 70
     2
  9
$DIMALTTD
 70
     2
  9
$DIMTXSTY
  7
Standard
  9
$DIMAUNIT
 70
     0
  9
$DIMADEC
 70
     0
  9
$DIMALTRND
 40
0.0
  9
$DIMAZIN
 70
     0
  9
$DIMDSEP
 70
    46
  9
$DIMATFIT
 70
     3
  9
$DIMFRAC
 70
     0
  9
$DIMLDRBLK
  1

  9
$DIMLUNIT
 70
     2
  9
$DIMLWD
 70
    -2
  9
$DIMLWE
 70
    -2
  9
$DIMTMOVE
 70
     0
  9
$DIMFXL
 40
1.0
  9
$DIMFXLON
 70
     0
  9
$DIMJOGANG
 40
0.7853981633974483
  9
$DIMTFILL
 70
     0
  9
$DIMTFILLCLR
 70
     0
  9
$DIMARCSYM
 70
     0
  9
$DIMLTYPE
  6

  9
$DIMLTEX1
  6

  9
$DIMLTEX2
  6

  9
$LUNITS
 70
     2
  9
$LUPREC
 70
     4
  9
$SKETCHINC
 40
0.1
  9
$FILLETRAD
 40
0.5
  9
$AUNITS
 70
     0
  9
$AUPREC
 70
     0
  9
$MENU
  1
.
  9
$ELEVATION
 40
0.0
  9
$PELEVATION
 40
0.0
  9
$THICKNESS
 40
0.0
  9
$LIMCHECK
 70
     0
  9
$CHAMFERA
 40
0.5
  9
$CHAMFERB
 40
0.5
  9
$CHAMFERC
 40
1.0
  9
$CHAMFERD
 40
0.0
  9
$SKPOLY
 70
     0
  9
$TDCREATE
 40
2458310.680200139
  9
$TDUCREATE
 40
2458310.305200139
  9
$TDUPDATE
 40
2459460.421634826
  9
$TDUUPDATE
 40
2459460.046634826
  9
$TDINDWG
 40
0.0040076157
  9
$TDUSRTIMER
 40
0.0004222338
  9
$USRTIMER
 70
     1
  9
$ANGBASE
 50
0.0
  9
$ANGDIR
 70
     0
  9
$PDMODE
 70
     0
  9
$PDSIZE
 40
0.0
  9
$PLINEWID
 40
0.0
  9
$SPLFRAME
 70
     0
  9
$SPLINETYPE
 70
     6
  9
$SPLINESEGS
 70
     8
  9
$HANDSEED
  5
B43
  9
$SURFTAB1
 70
     6
  9
$SURFTAB2
 70
     6
  9
$SURFTYPE
 70
     6
  9
$SURFU
 70
     6
  9
$SURFV
 70
     6
  9
$UCSBASE
  2

  9
$UCSNAME
  2

  9
$UCSORG
 10
0.0
 20
0.0
 30
0.0
  9
$UCSXDIR
 10
1.0
 20
0.0
 30
0.0
  9
$UCSYDIR
 10
0.0
 20
1.0
 30
0.0
  9
$UCSORTHOREF
  2

  9
$UCSORTHOVIEW
 70
     0
  9
$UCSORGTOP
 10
0.0
 20
0.0
 30
0.0
  9
$UCSORGBOTTOM
 10
0.0
 20
0.0
 30
0.0
  9
$UCSORGLEFT
 10
0.0
 20
0.0
 30
0.0
  9
$UCSORGRIGHT
 10
0.0
 20
0.0
 30
0.0
  9
$UCSORGFRONT
 10
0.0
 20
0.0
 30
0.0
  9
$UCSORGBACK
 10
0.0
 20
0.0
 30
0.0
  9
$PUCSBASE
  2

  9
$PUCSNAME
  2

  9
$PUCSORG
 10
0.0
 20
0.0
 30
0.0
  9
$PUCSXDIR
 10
1.0
 20
0.0
 30
0.0
  9
$PUCSYDIR
 10
0.0
 20
1.0
 30
0.0
  9
$PUCSORTHOREF
  2

  9
$PUCSORTHOVIEW
 70
     0
  9
$PUCSORGTOP
 10
0.0
 20
0.0
 30
0.0
  9
$PUCSORGBOTTOM
 10
0.0
 20
0.0
 30
0.0
  9
$PUCSORGLEFT
 10
0.0
 20
0.0
 30
0.0
  9
$PUCSORGRIGHT
 10
0.0
 20
0.0
 30
0.0
  9
$PUCSORGFRONT
 10
0.0
 20
0.0
 30
0.0
  9
$PUCSORGBACK
 10
0.0
 20
0.0
 30
0.0
  9
$USERI1
 70
     0
  9
$USERI2
 70
     0
  9
$USERI3
 70
     0
  9
$USERI4
 70
     0
  9
$USERI5
 70
     0
  9
$USERR1
 40
0.0
  9
$USERR2
 40
0.0
  9
$USERR3
 40
0.0
  9
$USERR4
 40
0.0
  9
$USERR5
 40
0.0
  9
$WORLDVIEW
 70
     1
  9
$SHADEDGE
 70
     3
  9
$SHADEDIF
 70
    70
  9
$TILEMODE
 70
     1
  9
$MAXACTVP
 70
    64
  9
$PINSBASE
 10
0.0
 20
0.0
 30
0.0
  9
$PLIMCHECK
 70
     0
  9
$PEXTMIN
 10
1.000000000000000E+20
 20
1.000000000000000E+20
 30
1.000000000000000E+20
  9
$PEXTMAX
 10
-1.000000000000000E+20
 20
-1.000000000000000E+20
 30
-1.000000000000000E+20
  9
$PLIMMIN
 10
0.0
 20
0.0
  9
$PLIMMAX
 10
0.0
 20
0.0
  9
$UNITMODE
 70
     0
  9
$VISRETAIN
 70
     1
  9
$PLINEGEN
 70
     0
  9
$PSLTSCALE
 70
     1
  9
$TREEDEPTH
 70
  3020
  9
$CMLSTYLE
  2
Standard
  9
$CMLJUST
 70
     0
  9
$CMLSCALE
 40
1.0
  9
$PROXYGRAPHICS
 70
     1
  9
$MEASUREMENT
 70
     0
  9
$CELWEIGHT
370
    -1
  9
$ENDCAPS
280
     0
  9
$JOINSTYLE
280
     0
  9
$LWDISPLAY
290
     1
  9
$INSUNITS
 70
     1
  9
$HYPERLINKBASE
  1

  9
$STYLESHEET
  1

  9
$XEDIT
290
     1
  9
$CEPSNTYPE
380
     0
  9
$PSTYLEMODE
290
     1
  9
$FINGERPRINTGUID
  2
{48ABD398-BEBF-4678-A3EC-117C1E1861D6}
  9
$VERSIONGUID
  2
{FAEB1C32-E019-11D5-929B-00C0DF256EC4}
  9
$EXTNAMES
290
     1
  9
$PSVPSCALE
 40
0.0
  9
$OLESTARTUP
290
     0
  9
$SORTENTS
280
   127
  9
$INDEXCTL
280
     0
  9
$HIDETEXT
280
     1
  9
$XCLIPFRAME
290
     0
  9
$HALOGAP
280
     0
  9
$OBSCOLOR
 70
   257
  9
$OBSLTYPE
280
     0
  9
$INTERSECTIONDISPLAY
280
     0
  9
$INTERSECTIONCOLOR
 70
   257
  9
$DIMASSOC
280
     2
  9
$PROJECTNAME
  1

  9
$CAMERADISPLAY
290
     0
  9
$LENSLENGTH
 40
50.0
  9
$CAMERAHEIGHT
 40
0.0
  9
$STEPSPERSEC
 40
2.0
  9
$STEPSIZE
 40
6.0
  9
$3DDWFPREC
 40
2.0
  9
$PSOLWIDTH
 40
0.25
  9
$PSOLHEIGHT
 40
4.0
  9
$LOFTANG1
 40
1.570796326794897
  9
$LOFTANG2
 40
1.570796326794897
  9
$LOFTMAG1
 40
0.0
  9
$LOFTMAG2
 40
0.0
  9
$LOFTPARAM
 70
     7
  9
$LOFTNORMALS
280
     1
  9
$LATITUDE
 40
37.795
  9
$LONGITUDE
 40
-122.394
  9
$NORTHDIRECTION
 40
0.0
  9
$TIMEZONE
 70
 -8000
  9
$LIGHTGLYPHDISPLAY
280
     1
  9
$TILEMODELIGHTSYNCH
280
     1
  9
$SOLIDHIST
280
     0
  9
$SHOWHIST
280
     1
  9
$DWFFRAME
280
     2
  9
$DGNFRAME
280
     2
  9
$REALWORLDSCALE
290
     1
  9
$INTERFERECOLOR
 62
   256
  9
$CSHADOW
280
     0
  9
$SHADOWPLANELOCATION
 40
0.0
  0
ENDSEC
  0
SECTION
  2
CLASSES
  0
CLASS
  1
ACDBDICTIONARYWDFLT
  2
AcDbDictionaryWithDefault
  3
ObjectDBX Classes
 90
        0
 91
        3
280
     0
281
     0
  0
CLASS
  1
VISUALSTYLE
  2
AcDbVisualStyle
  3
ObjectDBX Classes
 90
     4095
 91
        3
280
     0
281
     0
  0
CLASS
  1
SCALE
  2
AcDbScale
  3
ObjectDBX Classes
 90
     1153
 91
        3
280
     0
281
     0
  0
CLASS
  1
MATERIAL
  2
AcDbMaterial
  3
ObjectDBX Classes
 90
     1153
 91
        3
280
     0
281
     0
  0
CLASS
  1
TABLESTYLE
  2
AcDbTableStyle
  3
ObjectDBX Classes
 90
     4095
 91
        3
280
     0
281
     0
  0
CLASS
  1
MLEADERSTYLE
  2
AcDbMLeaderStyle
  3
ACDB_MLEADERSTYLE_CLASS
 90
     4095
 91
        3
280
     0
281
     0
  0
CLASS
  1
DICTIONARYVAR
  2
AcDbDictionaryVar
  3
ObjectDBX Classes
 90
        0
 91
        3
280
     0
281
     0
  0
CLASS
  1
CELLSTYLEMAP
  2
AcDbCellStyleMap
  3
ObjectDBX Classes
 90
     1152
 91
        3
280
     0
281
     0
  0
CLASS
  1
SUN
  2
AcDbSun
  3
SCENEOE
 90
     1153
 91
        3
280
     0
281
     0
  0
CLASS
  1
FIELD
  2
AcDbField
  3
ObjectDBX Classes
 90
     1152
 91
        3
280
     0
281
     0
  0
CLASS
  1
DIMASSOC
  2
AcDbDimAssoc
  3
"AcDbDimAssoc|Product Desc:     AcDim ARX App For Dimension|Company:          Autodesk, Inc.|WEB Address:      www.autodesk.com"
 90
        0
 91
        3
280
     0
281
     0
  0
CLASS
  1
FIELDLIST
  2
AcDbFieldList
  3
ObjectDBX Classes
 90
     1152
 91
        3
280
     0
281
     0
  0
ENDSEC
  0
SECTION
  2
TABLES
  0
TABLE
  2
VPORT
  5
8
330
0
100
AcDbSymbolTable
 70
     1
  0
VPORT
  5
29
330
8
100
AcDbSymbolTableRecord
100
AcDbViewportTableRecord
  2
*Active
 70
     0
 10
0.0
 20
0.0
 11
1.0
 21
1.0
 12
227.3898925781252
 22
321.5
 13
0.0
 23
0.0
 14
0.5
 24
0.5
 15
0.5
 25
0.5
 16
0.0
 26
0.0
 36
1.0
 17
297.6101074218748
 27
421.0
 37
0.0
 40
1514.7
 41
2.226173541963016
 42
50.0
 43
0.0
 44
0.0
 50
0.0
 51
0.0
 71
    16
 72
   100
 73
     1
 74
     3
 75
     0
 76
     0
 77
     0
 78
     0
281
     0
 65
     1
110
0.0
120
0.0
130
0.0
111
1.0
121
0.0
131
0.0
112
0.0
122
1.0
132
0.0
 79
     0
146
0.0
348
2F
 60
     3
 61
     5
292
     1
282
     1
141
0.0
142
0.0
 63
   250
361
781
  0
ENDTAB
  0
TABLE
  2
LTYPE
  5
5
330
0
100
AcDbSymbolTable
 70
     8
  0
LTYPE
  5
14
330
5
100
AcDbSymbolTableRecord
100
AcDbLinetypeTableRecord
  2
ByBlock
 70
     0
  3

 72
    65
 73
     0
 40
0.0
  0
LTYPE
  5
15
330
5
100
AcDbSymbolTableRecord
100
AcDbLinetypeTableRecord
  2
ByLayer
 70
     0
  3

 72
    65
 73
     0
 40
0.0
  0
LTYPE
  5
16
330
5
100
AcDbSymbolTableRecord
100
AcDbLinetypeTableRecord
  2
Continuous
 70
     0
  3
Solid line
 72
    65
 73
     0
 40
0.0
  0
LTYPE
  5
59B
330
5
100
AcDbSymbolTableRecord
100
AcDbLinetypeTableRecord
  2
AI-Linetype-1
 70
     0
  3
Adobe Illustrator Linetype No. 1
 72
    65
 73
     2
 40
4.0
 49
2.0
 74
     0
 49
-2.0
 74
     0
  0
LTYPE
  5
5A0
330
5
100
AcDbSymbolTableRecord
100
AcDbLinetypeTableRecord
  2
AI-Linetype-2
 70
     0
  3
Adobe Illustrator Linetype No. 2
 72
    65
 73
     2
 40
4.0
 49
2.0
 74
     0
 49
-2.0
 74
     0
  0
LTYPE
  5
5A7
330
5
100
AcDbSymbolTableRecord
100
AcDbLinetypeTableRecord
  2
AI-Linetype-3
 70
     0
  3
Adobe Illustrator Linetype No. 3
 72
    65
 73
     2
 40
4.0
 49
2.0
 74
     0
 49
-2.0
 74
     0
  0
LTYPE
  5
5AE
330
5
100
AcDbSymbolTableRecord
100
AcDbLinetypeTableRecord
  2
AI-Linetype-4
 70
     0
  3
Adobe Illustrator Linetype No. 4
 72
    65
 73
     2
 40
4.0
 49
2.0
 74
     0
 49
-2.0
 74
     0
  0
LTYPE
  5
5B3
330
5
100
AcDbSymbolTableRecord
100
AcDbLinetypeTableRecord
  2
AI-Linetype-5
 70
     0
  3
Adobe Illustrator Linetype No. 5
 72
    65
 73
     2
 40
4.0
 49
2.0
 74
     0
 49
-2.0
 74
     0
  0
LTYPE
  5
791
330
5
100
AcDbSymbolTableRecord
100
AcDbLinetypeTableRecord
  2
BORDER
 70
     0
  3
Border __  __  . __  __  . __  __  . __  __  . 
 72
    65
 73
     6
 40
44.45
 49
12.7
 74
     0
 49
-6.35
 74
     0
 49
12.7
 74
     0
 49
-6.35
 74
     0
 49
0.0
 74
     0
 49
-6.35
 74
     0
  0
LTYPE
  5
7BA
330
5
100
AcDbSymbolTableRecord
100
AcDbLinetypeTableRecord
  2
HIDDEN
 70
     0
  3
Hidden _ _ _ _ _ _ _ _ _ _ _ _ _ _ _ _ _ _ _ _ 
 72
    65
 73
     2
 40
9.524999999999999
 49
6.35
 74
     0
 49
-3.175
 74
     0
  0
ENDTAB
  0
TABLE
  2
LAYER
  5
2
102
{ACAD_XDICTIONARY
360
7AB
102
}
330
0
100
AcDbSymbolTable
 70
     9
  0
LAYER
  5
10
330
2
100
AcDbSymbolTableRecord
100
AcDbLayerTableRecord
  2
0
 70
     0
 62
     7
  6
Continuous
370
    -3
390
F
347
764
  0
LAYER
  5
3B
330
2
100
AcDbSymbolTableRecord
100
AcDbLayerTableRecord
  2
レイヤー 1
 70
     0
 62
     7
  6
Continuous
370
    -3
390
F
347
764
  0
LAYER
  5
78D
330
2
100
AcDbSymbolTableRecord
100
AcDbLayerTableRecord
  2
TEMPLATE
 70
     0
 62
     7
  6
Continuous
370
    20
390
F
347
764
  0
LAYER
  5
78F
330
2
100
AcDbSymbolTableRecord
100
AcDbLayerTableRecord
  2
DIM
 70
     0
 62
     3
  6
Continuous
370
    13
390
F
347
764
  0
LAYER
  5
790
330
2
100
AcDbSymbolTableRecord
100
AcDbLayerTableRecord
  2
BORDER
 70
     0
 62
     4
  6
BORDER
290
     0
370
    20
390
F
347
764
1001
AcAecLayerStandard
1000

1000

  0
LAYER
  5
7B3
330
2
100
AcDbSymbolTableRecord
100
AcDbLayerTableRecord
  2
Defpoints
 70
     0
 62
     7
  6
Continuous
290
     0
370
    -3
390
F
347
764
  0
LAYER
  5
7B7
330
2
100
AcDbSymbolTableRecord
100
AcDbLayerTableRecord
  2
MODEL
 70
     0
 62
     7
  6
Continuous
370
    20
390
F
347
764
  0
LAYER
  5
7B8
330
2
100
AcDbSymbolTableRecord
100
AcDbLayerTableRecord
  2
LOGO
 70
     0
 62
     7
  6
Continuous
370
    -3
390
F
347
764
  0
LAYER
  5
7B9
330
2
100
AcDbSymbolTableRecord
100
AcDbLayerTableRecord
  2
HIDDEN
 70
     0
 62
     8
  6
HIDDEN
370
    20
390
F
347
764
1001
AcAecLayerStandard
1000

1000

  0
ENDTAB
  0
TABLE
  2
STYLE
  5
3
330
0
100
AcDbSymbolTable
 70
     3
  0
STYLE
  5
11
330
3
100
AcDbSymbolTableRecord
100
AcDbTextStyleTableRecord
  2
Standard
 70
     0
 40
0.0
 41
1.0
 50
0.0
 71
     0
 42
0.2
  3
txt
  4

  0
STYLE
  5
794
330
3
100
AcDbSymbolTableRecord
100
AcDbTextStyleTableRecord
  2
ＭＳ ゴシック
 70
     0
 40
0.0
 41
1.0
 50
0.0
 71
     0
 42
0.2
  3
msgothic.ttc
  4
ＭＳ ゴシック
1001
ACAD
1000
ＭＳ ゴシック
1071
        0
  0
STYLE
  5
7A0
330
3
100
AcDbSymbolTableRecord
100
AcDbTextStyleTableRecord
  2
ARIAL
 70
     0
 40
0.0
 41
1.0
 50
0.0
 71
     0
 42
0.2
  3
ARIAL.TTF
  4

1001
ACAD
1000
Arial
1071
       34
  0
ENDTAB
  0
TABLE
  2
VIEW
  5
6
330
0
100
AcDbSymbolTable
 70
     0
  0
ENDTAB
  0
TABLE
  2
UCS
  5
7
330
0
100
AcDbSymbolTable
 70
     0
  0
ENDTAB
  0
TABLE
  2
APPID
  5
9
330
0
100
AcDbSymbolTable
 70
     4
  0
APPID
  5
12
330
9
100
AcDbSymbolTableRecord
100
AcDbRegAppTableRecord
  2
ACAD
 70
     0
  0
APPID
  5
779
330
9
100
AcDbSymbolTableRecord
100
AcDbRegAppTableRecord
  2
ACAD_MLEADERVER
 70
     0
  0
APPID
  5
78B
330
9
100
AcDbSymbolTableRecord
100
AcDbRegAppTableRecord
  2
PLOTTRANSPARENCY
 70
     0
  0
APPID
  5
792
330
9
100
AcDbSymbolTableRecord
100
AcDbRegAppTableRecord
  2
AcAecLayerStandard
 70
     0
  0
ENDTAB
  0
TABLE
  2
DIMSTYLE
  5
A
330
0
100
AcDbSymbolTable
 70
     6
100
AcDbDimStyleTable
  0
DIMSTYLE
105
27
330
A
100
AcDbSymbolTableRecord
100
AcDbDimStyleTableRecord
  2
Standard
 70
     0
178
     0
340
11
  0
DIMSTYLE
105
793
330
A
100
AcDbSymbolTableRecord
100
AcDbDimStyleTableRecord
  2
tform線あり
 70
     0
  3
<>
  4
[]
 41
9.999389648437498
 42
25.0
 43
0.9999999999999999
 44
0.0
 73
     0
 74
     0
 77
     1
 78
    11
140
24.4326171875
141
0.0
143
1.0
146
0.8
147
0.4999999999999999
171
     1
172
     1
174
     1
178
     0
179
     2
271
     1
272
     1
276
     2
284
    11
285
    11
286
    11
289
     0
340
794
341
795
342
795
  0
DIMSTYLE
105
79D
102
{ACAD_REACTORS
330
8E2
330
8F1
330
8FE
330
90B
330
91D
330
92A
330
937
330
948
330
955
330
964
330
973
330
982
330
A80
330
A83
330
A84
330
A85
330
A88
330
A89
330
A8A
330
A8D
330
A8E
330
A91
330
A94
330
A97
102
}
330
A
100
AcDbSymbolTableRecord
100
AcDbDimStyleTableRecord
  2
tfrom線あり
 70
     0
  3
<>
  4
[]
 41
3.0
 42
10.0
 43
0.9999999999999999
 44
0.0
 73
     0
 74
     0
 77
     1
 78
    11
140
12.0
141
0.0
143
1.0
147
10.0
171
     1
174
     1
178
     0
179
     2
271
     0
272
     1
276
     2
284
    11
285
    11
286
    11
289
     0
340
794
341
795
342
795
  0
DIMSTYLE
105
79E
330
A
100
AcDbSymbolTableRecord
100
AcDbDimStyleTableRecord
  2
JIS
 70
     0
  3
<>
  4
[]
 41
9.0
 42
0.0
 43
6.99999999999994
 44
19.9999999999962
 73
     0
 74
     0
 77
     1
 78
    11
140
24.4326171875
141
0.0
143
1.0
147
10.0
171
     1
174
     1
178
     0
179
     2
271
     1
272
     1
276
     2
284
    11
285
    11
286
    11
289
     0
340
794
341
795
342
795
  0
DIMSTYLE
105
79F
102
{ACAD_REACTORS
102
}
330
A
100
AcDbSymbolTableRecord
100
AcDbDimStyleTableRecord
  2
ARIAL
 70
     0
 41
10.0
 42
3.0
 43
0.5
 44
3.0
 73
     0
 74
     0
 77
     1
 78
     8
140
12.0
141
0.0
146
0.5
147
4.0
171
     1
172
     1
178
     0
271
     1
289
     0
340
7A0
  0
DIMSTYLE
105
7A1
330
A
100
AcDbSymbolTableRecord
100
AcDbDimStyleTableRecord
  2
ISO-25
 70
     0
 41
2.5
 42
0.625
 43
3.75
 44
1.25
 73
     0
 74
     0
 77
     1
 78
     8
140
2.5
141
2.5
143
0.0393700787
147
0.625
171
     3
172
     1
178
     0
271
     2
272
     2
274
     3
278
    44
283
     0
284
     8
340
11
  0
ENDTAB
  0
TABLE
  2
BLOCK_RECORD
  5
1
330
0
100
AcDbSymbolTable
 70
    31
  0
BLOCK_RECORD
  5
1F
330
1
100
AcDbSymbolTableRecord
100
AcDbBlockTableRecord
  2
*Model_Space
340
22
 70
     0
280
     1
281
     0
  0
BLOCK_RECORD
  5
1B
330
1
100
AcDbSymbolTableRecord
100
AcDbBlockTableRecord
  2
*Paper_Space
340
1E
 70
     0
280
     1
281
     0
  0
BLOCK_RECORD
  5
23
330
1
100
AcDbSymbolTableRecord
100
AcDbBlockTableRecord
  2
*Paper_Space0
340
26
 70
     0
280
     1
281
     0
  0
BLOCK_RECORD
  5
4D1
330
1
100
AcDbSymbolTableRecord
100
AcDbBlockTableRecord
  2
block 2
340
0
102
{BLKREFS
331
0
331
807
331
80C
331
0
331
0
102
}
 70
     0
280
     1
281
     0
  0
BLOCK_RECORD
  5
795
330
1
100
AcDbSymbolTableRecord
100
AcDbBlockTableRecord
  2
_DOT
340
0
102
{BLKREFS
331
8E8
331
8E9
331
8F7
331
8F8
331
904
331
905
331
916
331
917
331
923
331
924
331
930
331
931
331
941
331
942
331
94E
331
94F
331
95D
331
95E
331
96C
331
96D
331
97B
331
97C
331
98A
331
98B
331
AA3
331
AA4
331
AAF
331
AB0
331
ABB
331
ABC
331
ACA
331
ACB
331
AD6
331
AD7
331
AE2
331
AE3
331
AF0
331
AF1
331
AFC
331
AFD
331
B08
331
B09
331
B14
331
B15
331
B20
331
B21
331
B2C
331
B2D
102
}
 70
     0
280
     1
281
     0
  0
BLOCK_RECORD
  5
7E3
330
1
100
AcDbSymbolTableRecord
100
AcDbBlockTableRecord
  2
名称未設定-1
340
0
102
{BLKREFS
331
7E2
331
9A7
102
}
 70
     1
280
     1
281
     0
  0
BLOCK_RECORD
  5
7E6
330
1
100
AcDbSymbolTableRecord
100
AcDbBlockTableRecord
  2
block 3
340
0
102
{BLKREFS
331
7E5
102
}
 70
     0
280
     1
281
     0
  0
BLOCK_RECORD
  5
7E9
330
1
100
AcDbSymbolTableRecord
100
AcDbBlockTableRecord
  2
block 4
340
0
102
{BLKREFS
331
7E8
102
}
 70
     0
280
     1
281
     0
  0
BLOCK_RECORD
  5
7F9
330
1
100
AcDbSymbolTableRecord
100
AcDbBlockTableRecord
  2
block 5
340
0
102
{BLKREFS
331
7F8
102
}
 70
     0
280
     1
281
     0
  0
BLOCK_RECORD
  5
8E3
330
1
100
AcDbSymbolTableRecord
100
AcDbBlockTableRecord
  2
*D9
340
0
 70
     0
280
     1
281
     0
  0
BLOCK_RECORD
  5
8F2
330
1
100
AcDbSymbolTableRecord
100
AcDbBlockTableRecord
  2
*D10
340
0
 70
     0
280
     1
281
     0
  0
BLOCK_RECORD
  5
8FF
330
1
100
AcDbSymbolTableRecord
100
AcDbBlockTableRecord
  2
*D11
340
0
 70
     0
280
     1
281
     0
  0
BLOCK_RECORD
  5
90E
330
1
100
AcDbSymbolTableRecord
100
AcDbBlockTableRecord
  2
*D12
340
0
 70
     0
280
     1
281
     0
  0
BLOCK_RECORD
  5
91E
330
1
100
AcDbSymbolTableRecord
100
AcDbBlockTableRecord
  2
*D13
340
0
 70
     0
280
     1
281
     0
  0
BLOCK_RECORD
  5
92B
330
1
100
AcDbSymbolTableRecord
100
AcDbBlockTableRecord
  2
*D14
340
0
 70
     0
280
     1
281
     0
  0
BLOCK_RECORD
  5
93A
330
1
100
AcDbSymbolTableRecord
100
AcDbBlockTableRecord
  2
*D15
340
0
 70
     0
280
     1
281
     0
  0
BLOCK_RECORD
  5
949
330
1
100
AcDbSymbolTableRecord
100
AcDbBlockTableRecord
  2
*D16
340
0
 70
     0
280
     1
281
     0
  0
BLOCK_RECORD
  5
958
330
1
100
AcDbSymbolTableRecord
100
AcDbBlockTableRecord
  2
*D17
340
0
 70
     0
280
     1
281
     0
  0
BLOCK_RECORD
  5
967
330
1
100
AcDbSymbolTableRecord
100
AcDbBlockTableRecord
  2
*D18
340
0
 70
     0
280
     1
281
     0
  0
BLOCK_RECORD
  5
976
330
1
100
AcDbSymbolTableRecord
100
AcDbBlockTableRecord
  2
*D19
340
0
 70
     0
280
     1
281
     0
  0
BLOCK_RECORD
  5
985
330
1
100
AcDbSymbolTableRecord
100
AcDbBlockTableRecord
  2
*D20
340
0
 70
     0
280
     1
281
     0
  0
BLOCK_RECORD
  5
A9D
330
1
100
AcDbSymbolTableRecord
100
AcDbBlockTableRecord
  2
*D21
340
0
 70
     0
280
     1
281
     0
  0
BLOCK_RECORD
  5
AA9
330
1
100
AcDbSymbolTableRecord
100
AcDbBlockTableRecord
  2
*D22
340
0
 70
     0
280
     1
281
     0
  0
BLOCK_RECORD
  5
AB5
330
1
100
AcDbSymbolTableRecord
100
AcDbBlockTableRecord
  2
*D23
340
0
 70
     0
280
     1
281
     0
  0
BLOCK_RECORD
  5
AC1
330
1
100
AcDbSymbolTableRecord
100
AcDbBlockTableRecord
  2
*D24
340
0
 70
     0
280
     1
281
     0
  0
BLOCK_RECORD
  5
AD0
330
1
100
AcDbSymbolTableRecord
100
AcDbBlockTableRecord
  2
*D25
340
0
 70
     0
280
     1
281
     0
  0
BLOCK_RECORD
  5
ADC
330
1
100
AcDbSymbolTableRecord
100
AcDbBlockTableRecord
  2
*D26
340
0
 70
     0
280
     1
281
     0
  0
BLOCK_RECORD
  5
AE8
330
1
100
AcDbSymbolTableRecord
100
AcDbBlockTableRecord
  2
*D27
340
0
 70
     0
280
     1
281
     0
  0
BLOCK_RECORD
  5
AF6
330
1
100
AcDbSymbolTableRecord
100
AcDbBlockTableRecord
  2
*D28
340
0
 70
     0
280
     1
281
     0
  0
BLOCK_RECORD
  5
B02
330
1
100
AcDbSymbolTableRecord
100
AcDbBlockTableRecord
  2
*D29
340
0
 70
     0
280
     1
281
     0
  0
BLOCK_RECORD
  5
B0E
330
1
100
AcDbSymbolTableRecord
100
AcDbBlockTableRecord
  2
*D30
340
0
 70
     0
280
     1
281
     0
  0
BLOCK_RECORD
  5
B1A
330
1
100
AcDbSymbolTableRecord
100
AcDbBlockTableRecord
  2
*D31
340
0
 70
     0
280
     1
281
     0
  0
BLOCK_RECORD
  5
B26
330
1
100
AcDbSymbolTableRecord
100
AcDbBlockTableRecord
  2
*D32
340
0
 70
     0
280
     1
281
     0
  0
ENDTAB
  0
ENDSEC
  0
SECTION
  2
BLOCKS
  0
BLOCK
  5
20
330
1F
100
AcDbEntity
  8
0
100
AcDbBlockBegin
  2
*Model_Space
 70
     0
 10
0.0
 20
0.0
 30
0.0
  3
*Model_Space
  1

  0
ENDBLK
  5
21
330
1F
100
AcDbEntity
  8
0
100
AcDbBlockEnd
  0
BLOCK
  5
1C
330
1B
100
AcDbEntity
 67
     1
  8
0
100
AcDbBlockBegin
  2
*Paper_Space
 70
     0
 10
0.0
 20
0.0
 30
0.0
  3
*Paper_Space
  1

  0
ENDBLK
  5
1D
330
1B
100
AcDbEntity
 67
     1
  8
0
100
AcDbBlockEnd
  0
BLOCK
  5
24
330
23
100
AcDbEntity
  8
0
100
AcDbBlockBegin
  2
*Paper_Space0
 70
     0
 10
0.0
 20
0.0
 30
0.0
  3
*Paper_Space0
  1

  0
ENDBLK
  5
25
330
23
100
AcDbEntity
  8
0
100
AcDbBlockEnd
  0
BLOCK
  5
4D3
330
4D1
100
AcDbEntity
  8
0
100
AcDbBlockBegin
  2
block 2
 70
     0
 10
0.0
 20
0.0
 30
0.0
  3
block 2
  1

  0
MTEXT
  5
4D5
330
4D1
100
AcDbEntity
  8
レイヤー 1
 62
     7
420
 16777215
100
AcDbMText
 10
432.86865234375
 20
522.5654296875
 30
0.0
 40
6.12
 41
0.0
 46
0.0
 71
     7
 72
     1
  1
\fMS Gothic|b0|i0|c0|p34;\W1;5
 73
     1
 44
1.0
  0
MTEXT
  5
4D6
330
4D1
100
AcDbEntity
  8
レイヤー 1
 62
     7
420
 16777215
100
AcDbMText
 10
428.36865234375
 20
522.5654296875
 30
0.0
 40
6.12
 41
0.0
 46
0.0
 71
     7
 72
     1
  1
\fMS Gothic|b0|i0|c0|p34;\W1;4
 73
     1
 44
1.0
  0
MTEXT
  5
4D7
330
4D1
100
AcDbEntity
  8
レイヤー 1
 62
     7
420
 16777215
100
AcDbMText
 10
423.86865234375
 20
522.5654296875
 30
0.0
 40
6.12
 41
0.0
 46
0.0
 71
     7
 72
     1
  1
\fMS Gothic|b0|i0|c0|p34;\W1;1
 73
     1
 44
1.0
  0
MTEXT
  5
4D8
330
4D1
100
AcDbEntity
  8
レイヤー 1
 62
     7
420
 16777215
100
AcDbMText
 10
212.4462890625
 20
522.5654296875
 30
0.0
 40
6.12
 41
0.0
 46
0.0
 71
     7
 72
     1
  1
\fMS Gothic|b0|i0|c0|p34;\W1;0
 73
     1
 44
1.0
  0
MTEXT
  5
4D9
330
4D1
100
AcDbEntity
  8
レイヤー 1
 62
     7
420
 16777215
100
AcDbMText
 10
207.9462890625
 20
522.5654296875
 30
0.0
 40
6.12
 41
0.0
 46
0.0
 71
     7
 72
     1
  1
\fMS Gothic|b0|i0|c0|p34;\W1;5
 73
     1
 44
1.0
  0
MTEXT
  5
4DA
330
4D1
100
AcDbEntity
  8
レイヤー 1
 62
     7
420
 16777215
100
AcDbMText
 10
203.4462890625
 20
522.5654296875
 30
0.0
 40
6.12
 41
0.0
 46
0.0
 71
     7
 72
     1
  1
\fMS Gothic|b0|i0|c0|p34;\W1;2
 73
     1
 44
1.0
  0
ENDBLK
  5
4D4
330
4D1
100
AcDbEntity
  8
0
100
AcDbBlockEnd
  0
BLOCK
  5
796
330
795
100
AcDbEntity
  8
0
390
F
100
AcDbBlockBegin
  2
_DOT
 70
     0
 10
0.0
 20
0.0
 30
0.0
  3
_DOT
  1
_DOT
  0
POLYLINE
  5
797
330
795
100
AcDbEntity
  8
0
  6
ByBlock
 62
     0
370
    -2
390
F
100
AcDb2dPolyline
 66
     1
 10
0.0
 20
0.0
 30
0.0
 70
     1
 40
0.5
 41
0.5
  0
VERTEX
  5
798
330
797
100
AcDbEntity
  8
0
  6
ByBlock
 62
     0
370
    -2
390
F
100
AcDbVertex
100
AcDb2dVertex
 10
-0.25
 20
0.0
 30
0.0
 42
1.0
  0
VERTEX
  5
799
330
797
100
AcDbEntity
  8
0
  6
ByBlock
 62
     0
370
    -2
390
F
100
AcDbVertex
100
AcDb2dVertex
 10
0.25
 20
0.0
 30
0.0
 42
1.0
  0
SEQEND
  5
79A
330
797
100
AcDbEntity
  8
0
390
F
  0
LINE
  5
79B
330
795
100
AcDbEntity
  8
0
  6
ByBlock
 62
     0
370
    -2
390
F
100
AcDbLine
 10
-0.5
 20
0.0
 30
0.0
 11
-1.0
 21
0.0
 31
0.0
  0
ENDBLK
  5
79C
330
795
100
AcDbEntity
  8
0
390
F
100
AcDbBlockEnd
  0
BLOCK
  5
7E4
330
7E3
100
AcDbEntity
  8
0
100
AcDbBlockBegin
  2
名称未設定-1
 70
     0
 10
0.0
 20
0.0
 30
0.0
  3
名称未設定-1
  1
名称未設定-1
  0
INSERT
  5
7E5
330
7E3
100
AcDbEntity
  8
LOGO
100
AcDbBlockReference
  2
block 3
 10
0.0
 20
0.0
 30
0.0
  0
ENDBLK
  5
806
330
7E3
100
AcDbEntity
  8
0
100
AcDbBlockEnd
  0
BLOCK
  5
7E7
330
7E6
100
AcDbEntity
  8
0
100
AcDbBlockBegin
  2
block 3
 70
     0
 10
0.0
 20
0.0
 30
0.0
  3
block 3
  1
block 3
  0
INSERT
  5
7E8
330
7E6
100
AcDbEntity
  8
LOGO
100
AcDbBlockReference
  2
block 4
 10
0.0
 20
0.0
 30
0.0
  0
INSERT
  5
7F8
330
7E6
100
AcDbEntity
  8
LOGO
100
AcDbBlockReference
  2
block 5
 10
0.0
 20
0.0
 30
0.0
  0
ENDBLK
  5
805
330
7E6
100
AcDbEntity
  8
0
100
AcDbBlockEnd
  0
BLOCK
  5
7EA
330
7E9
100
AcDbEntity
  8
0
100
AcDbBlockBegin
  2
block 4
 70
     0
 10
0.0
 20
0.0
 30
0.0
  3
block 4
  1
block 4
  0
POLYLINE
  5
7EB
330
7E9
100
AcDbEntity
  8
LOGO
370
     0
100
AcDb2dPolyline
 66
     1
 10
0.0
 20
0.0
 30
0.0
  0
VERTEX
  5
7EC
330
7EB
100
AcDbEntity
  8
LOGO
370
     0
100
AcDbVertex
100
AcDb2dVertex
 10
83.79545727667795
 20
167.6444858234922
 30
0.0
  0
VERTEX
  5
7ED
330
7EB
100
AcDbEntity
  8
LOGO
370
     0
100
AcDbVertex
100
AcDb2dVertex
 10
83.79545727667795
 20
159.7968976406313
 30
0.0
  0
VERTEX
  5
7EE
330
7EB
100
AcDbEntity
  8
LOGO
370
     0
100
AcDbVertex
100
AcDb2dVertex
 10
71.3631329975216
 20
159.7968976406313
 30
0.0
  0
VERTEX
  5
7EF
330
7EB
100
AcDbEntity
  8
LOGO
370
     0
100
AcDbVertex
100
AcDb2dVertex
 10
71.3631329975216
 20
127.8027915271048
 30
0.0
  0
VERTEX
  5
7F0
330
7EB
100
AcDbEntity
  8
LOGO
370
     0
100
AcDbVertex
100
AcDb2dVertex
 10
60.43011526263018
 20
127.8027915271048
 30
0.0
  0
VERTEX
  5
7F1
330
7EB
100
AcDbEntity
  8
LOGO
370
     0
100
AcDbVertex
100
AcDb2dVertex
 10
60.43011526263018
 20
159.7968976406313
 30
0.0
  0
VERTEX
  5
7F2
330
7EB
100
AcDbEntity
  8
LOGO
370
     0
100
AcDbVertex
100
AcDb2dVertex
 10
48.21793273020759
 20
159.7968976406313
 30
0.0
  0
VERTEX
  5
7F3
330
7EB
100
AcDbEntity
  8
LOGO
370
     0
100
AcDbVertex
100
AcDb2dVertex
 10
48.21793273020759
 20
167.6444858234922
 30
0.0
  0
VERTEX
  5
7F4
330
7EB
100
AcDbEntity
  8
LOGO
370
     0
100
AcDbVertex
100
AcDb2dVertex
 10
83.79545727667795
 20
167.6444858234922
 30
0.0
  0
SEQEND
  5
7F5
330
7EB
100
AcDbEntity
  8
LOGO
370
     0
  0
HATCH
  5
7F6
330
7E9
100
AcDbEntity
  8
LOGO
 62
   250
420
  2234388
100
AcDbHatch
 10
0.0
 20
0.0
 30
0.0
210
0.0
220
0.0
230
1.0
  2
SOLID
 70
     1
 71
     0
 91
        1
 92
        1
 93
        8
 72
     1
 10
83.79545727667795
 20
167.6444858234922
 11
83.79545727667795
 21
159.7968976406313
 72
     1
 10
83.79545727667795
 20
159.7968976406313
 11
71.3631329975216
 21
159.7968976406313
 72
     1
 10
71.3631329975216
 20
159.7968976406313
 11
71.3631329975216
 21
127.8027915271048
 72
     1
 10
71.3631329975216
 20
127.8027915271048
 11
60.43011526263018
 21
127.8027915271048
 72
     1
 10
60.43011526263018
 20
127.8027915271048
 11
60.43011526263018
 21
159.7968976406313
 72
     1
 10
60.43011526263018
 20
159.7968976406313
 11
48.21793273020759
 21
159.7968976406313
 72
     1
 10
48.21793273020759
 20
159.7968976406313
 11
48.21793273020759
 21
167.6444858234922
 72
     1
 10
48.21793273020759
 20
167.6444858234922
 11
83.79545727667795
 21
167.6444858234922
 97
        0
 75
     2
 76
     1
 98
        0
  0
ENDBLK
  5
7F7
330
7E9
100
AcDbEntity
  8
0
100
AcDbBlockEnd
  0
BLOCK
  5
7FA
330
7F9
100
AcDbEntity
  8
0
100
AcDbBlockBegin
  2
block 5
 70
     0
 10
0.0
 20
0.0
 30
0.0
  3
block 5
  1
block 5
  0
SPLINE
  5
7FB
330
7F9
100
AcDbEntity
  8
LOGO
370
     0
100
AcDbSpline
210
0.0
220
0.0
230
1.0
 70
    11
 71
     3
 72
    56
 73
    52
 74
     0
 42
0.000000001
 43
0.0000000001
 40
0.0
 40
0.0
 40
0.0
 40
0.0
 40
1.0
 40
1.0
 40
1.0
 40
2.0
 40
2.0
 40
2.0
 40
3.0
 40
3.0
 40
3.0
 40
4.0
 40
4.0
 40
4.0
 40
5.0
 40
5.0
 40
5.0
 40
6.0
 40
6.0
 40
6.0
 40
7.0
 40
7.0
 40
7.0
 40
8.0
 40
8.0
 40
8.0
 40
9.0
 40
9.0
 40
9.0
 40
10.0
 40
10.0
 40
10.0
 40
11.0
 40
11.0
 40
11.0
 40
12.0
 40
12.0
 40
12.0
 40
13.0
 40
13.0
 40
13.0
 40
14.0
 40
14.0
 40
14.0
 40
15.0
 40
15.0
 40
15.0
 40
16.0
 40
16.0
 40
16.0
 40
17.0
 40
17.0
 40
17.0
 40
17.0
 10
100.4504378777679
 20
166.69157178364
 30
0.0
 10
101.9848844191641
 20
167.1313385124438
 30
0.0
 10
103.9637485713373
 20
166.7649523658846
 30
0.0
 10
103.9637485713373
 20
166.7649523658846
 30
0.0
 10
103.9637485713373
 20
166.7649523658846
 30
0.0
 10
103.0132460999156
 20
163.911205638077
 30
0.0
 10
103.0132460999156
 20
163.911205638077
 30
0.0
 10
103.0132460999156
 20
163.911205638077
 30
0.0
 10
101.0674548862189
 20
164.3601018759394
 30
0.0
 10
99.57090442016032
 20
163.1805004036133
 30
0.0
 10
98.40508333886608
 20
162.258247733807
 30
0.0
 10
97.65301849830304
 20
159.804132345923
 30
0.0
 10
97.3598406791005
 20
158.8699940888517
 30
0.0
 10
97.3598406791005
 20
158.8699940888517
 30
0.0
 10
96.07137411762282
 20
154.9119212747295
 30
0.0
 10
96.07137411762282
 20
154.9119212747295
 30
0.0
 10
96.07137411762282
 20
154.9119212747295
 30
0.0
 10
100.3012651448482
 20
154.9119212747295
 30
0.0
 10
100.3012651448482
 20
154.9119212747295
 30
0.0
 10
100.3012651448482
 20
154.9119212747295
 30
0.0
 10
99.64152892419852
 20
152.4199098115079
 30
0.0
 10
99.64152892419852
 20
152.4199098115079
 30
0.0
 10
99.64152892419852
 20
152.4199098115079
 30
0.0
 10
95.38097652692731
 20
152.4199098115079
 30
0.0
 10
95.38097652692731
 20
152.4199098115079
 30
0.0
 10
95.38097652692731
 20
152.4199098115079
 30
0.0
 10
87.75353009080013
 20
127.8027915271048
 30
0.0
 10
87.75353009080013
 20
127.8027915271048
 30
0.0
 10
87.75353009080013
 20
127.8027915271048
 30
0.0
 10
85.36538832498108
 20
127.8027915271048
 30
0.0
 10
85.36538832498108
 20
127.8027915271048
 30
0.0
 10
85.36538832498108
 20
127.8027915271048
 30
0.0
 10
93.00006946639998
 20
152.4199098115079
 30
0.0
 10
93.00006946639998
 20
152.4199098115079
 30
0.0
 10
93.00006946639998
 20
152.4199098115079
 30
0.0
 10
89.85297266450198
 20
152.4199098115079
 30
0.0
 10
89.85297266450198
 20
152.4199098115079
 30
0.0
 10
89.85297266450198
 20
152.4199098115079
 30
0.0
 10
90.51270888515164
 20
154.9119212747295
 30
0.0
 10
90.51270888515164
 20
154.9119212747295
 30
0.0
 10
90.51270888515164
 20
154.9119212747295
 30
0.0
 10
93.6904670570955
 20
154.9119212747295
 30
0.0
 10
93.6904670570955
 20
154.9119212747295
 30
0.0
 10
93.6904670570955
 20
154.9119212747295
 30
0.0
 10
94.81598049462158
 20
158.3616699146644
 30
0.0
 10
94.81598049462158
 20
158.3616699146644
 30
0.0
 10
95.7237637538445
 20
161.2605474231013
 30
0.0
 10
96.4968436907311
 20
162.8139420021662
 30
0.0
 10
97.15657991138076
 20
163.9844139654337
 30
0.0
 10
97.81183750494507
 20
165.1523021053827
 30
0.0
 10
99.1047826935081
 20
166.3084769129547
 30
0.0
 10
100.4504378777679
 20
166.69157178364
 30
0.0
  0
HATCH
  5
7FC
330
7F9
100
AcDbEntity
  8
LOGO
 62
   250
420
  2234388
100
AcDbHatch
 10
0.0
 20
0.0
 30
0.0
210
0.0
220
0.0
230
1.0
  2
SOLID
 70
     1
 71
     0
 91
        1
 92
        1
 93
        1
 72
     4
 94
        3
 73
     0
 74
     1
 95
       56
 96
       52
 40
0.0
 40
0.0
 40
0.0
 40
0.0
 40
1.0
 40
1.0
 40
1.0
 40
2.0
 40
2.0
 40
2.0
 40
3.0
 40
3.0
 40
3.0
 40
4.0
 40
4.0
 40
4.0
 40
5.0
 40
5.0
 40
5.0
 40
6.0
 40
6.0
 40
6.0
 40
7.0
 40
7.0
 40
7.0
 40
8.0
 40
8.0
 40
8.0
 40
9.0
 40
9.0
 40
9.0
 40
10.0
 40
10.0
 40
10.0
 40
11.0
 40
11.0
 40
11.0
 40
12.0
 40
12.0
 40
12.0
 40
13.0
 40
13.0
 40
13.0
 40
14.0
 40
14.0
 40
14.0
 40
15.0
 40
15.0
 40
15.0
 40
16.0
 40
16.0
 40
16.0
 40
17.0
 40
17.0
 40
17.0
 40
17.0
 10
100.4504378777679
 20
166.69157178364
 10
101.9848844191641
 20
167.1313385124438
 10
103.9637485713373
 20
166.7649523658846
 10
103.9637485713373
 20
166.7649523658846
 10
103.9637485713373
 20
166.7649523658846
 10
103.0132460999156
 20
163.911205638077
 10
103.0132460999156
 20
163.911205638077
 10
103.0132460999156
 20
163.911205638077
 10
101.0674548862189
 20
164.3601018759394
 10
99.57090442016032
 20
163.1805004036133
 10
98.40508333886608
 20
162.258247733807
 10
97.65301849830304
 20
159.804132345923
 10
97.3598406791005
 20
158.8699940888517
 10
97.3598406791005
 20
158.8699940888517
 10
96.07137411762282
 20
154.9119212747295
 10
96.07137411762282
 20
154.9119212747295
 10
96.07137411762282
 20
154.9119212747295
 10
100.3012651448482
 20
154.9119212747295
 10
100.3012651448482
 20
154.9119212747295
 10
100.3012651448482
 20
154.9119212747295
 10
99.64152892419852
 20
152.4199098115079
 10
99.64152892419852
 20
152.4199098115079
 10
99.64152892419852
 20
152.4199098115079
 10
95.38097652692731
 20
152.4199098115079
 10
95.38097652692731
 20
152.4199098115079
 10
95.38097652692731
 20
152.4199098115079
 10
87.75353009080013
 20
127.8027915271048
 10
87.75353009080013
 20
127.8027915271048
 10
87.75353009080013
 20
127.8027915271048
 10
85.36538832498108
 20
127.8027915271048
 10
85.36538832498108
 20
127.8027915271048
 10
85.36538832498108
 20
127.8027915271048
 10
93.00006946639998
 20
152.4199098115079
 10
93.00006946639998
 20
152.4199098115079
 10
93.00006946639998
 20
152.4199098115079
 10
89.85297266450198
 20
152.4199098115079
 10
89.85297266450198
 20
152.4199098115079
 10
89.85297266450198
 20
152.4199098115079
 10
90.51270888515164
 20
154.9119212747295
 10
90.51270888515164
 20
154.9119212747295
 10
90.51270888515164
 20
154.9119212747295
 10
93.6904670570955
 20
154.9119212747295
 10
93.6904670570955
 20
154.9119212747295
 10
93.6904670570955
 20
154.9119212747295
 10
94.81598049462158
 20
158.3616699146644
 10
94.81598049462158
 20
158.3616699146644
 10
95.7237637538445
 20
161.2605474231013
 10
96.4968436907311
 20
162.8139420021662
 10
97.15657991138076
 20
163.9844139654337
 10
97.81183750494507
 20
165.1523021053827
 10
99.1047826935081
 20
166.3084769129547
 10
100.4504378777679
 20
166.69157178364
 97
        0
 75
     2
 76
     1
 98
        0
  0
SPLINE
  5
7FD
330
7F9
100
AcDbEntity
  8
LOGO
370
     0
100
AcDbSpline
210
0.0
220
0.0
230
1.0
 70
    11
 71
     3
 72
    38
 73
    34
 74
     0
 42
0.000000001
 43
0.0000000001
 40
0.0
 40
0.0
 40
0.0
 40
0.0
 40
1.0
 40
1.0
 40
1.0
 40
2.0
 40
2.0
 40
2.0
 40
3.0
 40
3.0
 40
3.0
 40
4.0
 40
4.0
 40
4.0
 40
5.0
 40
5.0
 40
5.0
 40
6.0
 40
6.0
 40
6.0
 40
7.0
 40
7.0
 40
7.0
 40
8.0
 40
8.0
 40
8.0
 40
9.0
 40
9.0
 40
9.0
 40
10.0
 40
10.0
 40
10.0
 40
11.0
 40
11.0
 40
11.0
 40
11.0
 10
126.377554584636
 20
154.8151140277308
 30
0.0
 10
126.377554584636
 20
154.8151140277308
 30
0.0
 10
128.8311532078563
 20
154.8151140277308
 30
0.0
 10
128.8311532078563
 20
154.8151140277308
 30
0.0
 10
128.8311532078563
 20
154.8151140277308
 30
0.0
 10
127.7345785914971
 20
151.3062819612468
 30
0.0
 10
127.7345785914971
 20
151.3062819612468
 30
0.0
 10
128.571392836906
 20
152.2922689395754
 30
0.0
 10
129.8860421413442
 20
153.604506675583
 30
0.0
 10
131.0163787157314
 20
154.2664822097754
 30
0.0
 10
132.7044766171327
 20
155.2500576196734
 30
0.0
 10
133.6642808525008
 20
155.3847609420097
 30
0.0
 10
134.7284715499351
 20
155.3565111403944
 30
0.0
 10
134.7284715499351
 20
155.3565111403944
 30
0.0
 10
133.6877075172549
 20
152.0345756272799
 30
0.0
 10
133.6877075172549
 20
152.0345756272799
 30
0.0
 10
133.011434827367
 20
152.3184516825359
 30
0.0
 10
130.930940291334
 20
151.7768823149844
 30
0.0
 10
129.739280976855
 20
150.9162968950455
 30
0.0
 10
128.66613302525
 20
150.1454562717016
 30
0.0
 10
127.9192358313239
 20
149.4857200510519
 30
0.0
 10
127.0393578639405
 20
147.8282835196966
 30
0.0
 10
126.164647543194
 20
146.1699857139017
 30
0.0
 10
125.4742499524985
 20
143.5262176944419
 30
0.0
 10
124.2822461282437
 20
139.6959580071401
 30
0.0
 10
124.2822461282437
 20
139.6959580071401
 30
0.0
 10
120.5753209406769
 20
127.8027915271048
 30
0.0
 10
120.5753209406769
 20
127.8027915271048
 30
0.0
 10
120.5753209406769
 20
127.8027915271048
 30
0.0
 10
118.1964809388044
 20
127.8027915271048
 30
0.0
 10
118.1964809388044
 20
127.8027915271048
 30
0.0
 10
118.1964809388044
 20
127.8027915271048
 30
0.0
 10
126.377554584636
 20
154.8151140277308
 30
0.0
 10
126.377554584636
 20
154.8151140277308
 30
0.0
  0
HATCH
  5
7FE
330
7F9
100
AcDbEntity
  8
LOGO
 62
   250
420
  2234388
100
AcDbHatch
 10
0.0
 20
0.0
 30
0.0
210
0.0
220
0.0
230
1.0
  2
SOLID
 70
     1
 71
     0
 91
        1
 92
        1
 93
        1
 72
     4
 94
        3
 73
     0
 74
     1
 95
       38
 96
       34
 40
0.0
 40
0.0
 40
0.0
 40
0.0
 40
1.0
 40
1.0
 40
1.0
 40
2.0
 40
2.0
 40
2.0
 40
3.0
 40
3.0
 40
3.0
 40
4.0
 40
4.0
 40
4.0
 40
5.0
 40
5.0
 40
5.0
 40
6.0
 40
6.0
 40
6.0
 40
7.0
 40
7.0
 40
7.0
 40
8.0
 40
8.0
 40
8.0
 40
9.0
 40
9.0
 40
9.0
 40
10.0
 40
10.0
 40
10.0
 40
11.0
 40
11.0
 40
11.0
 40
11.0
 10
126.377554584636
 20
154.8151140277308
 10
126.377554584636
 20
154.8151140277308
 10
128.8311532078563
 20
154.8151140277308
 10
128.8311532078563
 20
154.8151140277308
 10
128.8311532078563
 20
154.8151140277308
 10
127.7345785914971
 20
151.3062819612468
 10
127.7345785914971
 20
151.3062819612468
 10
128.571392836906
 20
152.2922689395754
 10
129.8860421413442
 20
153.604506675583
 10
131.0163787157314
 20
154.2664822097754
 10
132.7044766171327
 20
155.2500576196734
 10
133.6642808525008
 20
155.3847609420097
 10
134.7284715499351
 20
155.3565111403944
 10
134.7284715499351
 20
155.3565111403944
 10
133.6877075172549
 20
152.0345756272799
 10
133.6877075172549
 20
152.0345756272799
 10
133.011434827367
 20
152.3184516825359
 10
130.930940291334
 20
151.7768823149844
 10
129.739280976855
 20
150.9162968950455
 10
128.66613302525
 20
150.1454562717016
 10
127.9192358313239
 20
149.4857200510519
 10
127.0393578639405
 20
147.8282835196966
 10
126.164647543194
 20
146.1699857139017
 10
125.4742499524985
 20
143.5262176944419
 10
124.2822461282437
 20
139.6959580071401
 10
124.2822461282437
 20
139.6959580071401
 10
120.5753209406769
 20
127.8027915271048
 10
120.5753209406769
 20
127.8027915271048
 10
120.5753209406769
 20
127.8027915271048
 10
118.1964809388044
 20
127.8027915271048
 10
118.1964809388044
 20
127.8027915271048
 10
118.1964809388044
 20
127.8027915271048
 10
126.377554584636
 20
154.8151140277308
 10
126.377554584636
 20
154.8151140277308
 97
        0
 75
     2
 76
     1
 98
        0
  0
SPLINE
  5
7FF
330
7F9
100
AcDbEntity
  8
LOGO
370
     0
100
AcDbSpline
210
0.0
220
0.0
230
1.0
 70
    11
 71
     3
 72
   104
 73
   100
 74
     0
 42
0.000000001
 43
0.0000000001
 40
0.0
 40
0.0
 40
0.0
 40
0.0
 40
1.0
 40
1.0
 40
1.0
 40
2.0
 40
2.0
 40
2.0
 40
3.0
 40
3.0
 40
3.0
 40
4.0
 40
4.0
 40
4.0
 40
5.0
 40
5.0
 40
5.0
 40
6.0
 40
6.0
 40
6.0
 40
7.0
 40
7.0
 40
7.0
 40
8.0
 40
8.0
 40
8.0
 40
9.0
 40
9.0
 40
9.0
 40
10.0
 40
10.0
 40
10.0
 40
11.0
 40
11.0
 40
11.0
 40
12.0
 40
12.0
 40
12.0
 40
13.0
 40
13.0
 40
13.0
 40
14.0
 40
14.0
 40
14.0
 40
15.0
 40
15.0
 40
15.0
 40
16.0
 40
16.0
 40
16.0
 40
17.0
 40
17.0
 40
17.0
 40
18.0
 40
18.0
 40
18.0
 40
19.0
 40
19.0
 40
19.0
 40
20.0
 40
20.0
 40
20.0
 40
21.0
 40
21.0
 40
21.0
 40
22.0
 40
22.0
 40
22.0
 40
23.0
 40
23.0
 40
23.0
 40
24.0
 40
24.0
 40
24.0
 40
25.0
 40
25.0
 40
25.0
 40
26.0
 40
26.0
 40
26.0
 40
27.0
 40
27.0
 40
27.0
 40
28.0
 40
28.0
 40
28.0
 40
29.0
 40
29.0
 40
29.0
 40
30.0
 40
30.0
 40
30.0
 40
31.0
 40
31.0
 40
31.0
 40
32.0
 40
32.0
 40
32.0
 40
33.0
 40
33.0
 40
33.0
 40
33.0
 10
139.8926730891197
 20
154.8294111834263
 30
0.0
 10
139.8926730891197
 20
154.8294111834263
 30
0.0
 10
142.0344903652445
 20
154.8294111834263
 30
0.0
 10
142.0344903652445
 20
154.8294111834263
 30
0.0
 10
142.0344903652445
 20
154.8294111834263
 30
0.0
 10
140.9516961399171
 20
151.3157559800812
 30
0.0
 10
140.9516961399171
 20
151.3157559800812
 30
0.0
 10
141.8928968473923
 20
152.7887075264977
 30
0.0
 10
142.7341897198865
 20
153.4484437471474
 30
0.0
 10
143.8552245303272
 20
154.2926649527359
 30
0.0
 10
144.9803934580775
 20
155.1296514530327
 30
0.0
 10
146.3139908001845
 20
155.3044901642492
 30
0.0
 10
147.241066606852
 20
155.3044901642492
 30
0.0
 10
148.3855280820469
 20
155.3044901642492
 30
0.0
 10
149.4969166187653
 20
155.0752189084569
 30
0.0
 10
150.0784491203092
 20
153.8172414621372
 30
0.0
 10
150.5228667310863
 20
152.833838307127
 30
0.0
 10
150.5414702589793
 20
152.7201500811143
 30
0.0
 10
150.4140016419347
 20
150.7765981809602
 30
0.0
 10
151.5818897818837
 20
152.7699317437168
 30
0.0
 10
152.4424752018226
 20
153.6256940267945
 30
0.0
 10
153.9038856707499
 20
154.4507949398263
 30
0.0
 10
155.4455669174378
 20
155.3044901642492
 30
0.0
 10
156.339225275853
 20
155.3659851592288
 30
0.0
 10
157.3748216618963
 20
155.2147453676543
 30
0.0
 10
158.911679771723
 20
154.9877134254046
 30
0.0
 10
159.8859534176746
 20
154.4390816074493
 30
0.0
 10
160.3965169054045
 20
152.7816450760939
 30
0.0
 10
160.9070803931344
 20
151.1219692311958
 30
0.0
 10
160.6328506116007
 20
150.2303779314354
 30
0.0
 10
159.9992971339115
 20
147.597634224801
 30
0.0
 10
159.7105979417943
 20
146.4014962832367
 30
0.0
 10
159.2947746424084
 20
144.9400858143094
 30
0.0
 10
158.7463150793409
 20
143.2092687007094
 30
0.0
 10
158.7463150793409
 20
143.2092687007094
 30
0.0
 10
153.9038856707499
 20
127.8027915271048
 30
0.0
 10
153.9038856707499
 20
127.8027915271048
 30
0.0
 10
153.9038856707499
 20
127.8027915271048
 30
0.0
 10
151.3882752878863
 20
127.8027915271048
 30
0.0
 10
151.3882752878863
 20
127.8027915271048
 30
0.0
 10
151.3882752878863
 20
127.8027915271048
 30
0.0
 10
155.6250565106276
 20
141.2751908193897
 30
0.0
 10
155.6250565106276
 20
141.2751908193897
 30
0.0
 10
156.5094131050963
 20
144.0936252951782
 30
0.0
 10
157.109893644309
 20
146.1506931664571
 30
0.0
 10
157.4220195011804
 20
147.4415712963654
 30
0.0
 10
157.8095929989511
 20
149.0530157726519
 30
0.0
 10
157.9656559273867
 20
149.5826995529385
 30
0.0
 10
157.7816877071116
 20
150.7529992613181
 30
0.0
 10
157.6111553680925
 20
151.8430281919372
 30
0.0
 10
157.0582171779396
 20
152.5547853887321
 30
0.0
 10
156.1170164704645
 20
152.5547853887321
 30
0.0
 10
155.1096698860365
 20
152.5547853887321
 30
0.0
 10
154.2962823053817
 20
152.4412694176073
 30
0.0
 10
153.156643967048
 20
151.2945686288697
 30
0.0
 10
152.0170056287143
 20
150.1476955852443
 30
0.0
 10
151.076149431015
 20
148.7930831468137
 30
0.0
 10
150.3337308641742
 20
147.2290087646991
 30
0.0
 10
149.5957909244188
 20
145.6683794803425
 30
0.0
 10
148.8530278478023
 20
143.6822806228776
 30
0.0
 10
148.0964843801539
 20
141.2751908193897
 30
0.0
 10
148.0964843801539
 20
141.2751908193897
 30
0.0
 10
143.8552245303272
 20
127.8027915271048
 30
0.0
 10
143.8552245303272
 20
127.8027915271048
 30
0.0
 10
143.8552245303272
 20
127.8027915271048
 30
0.0
 10
141.486030802177
 20
127.8027915271048
 30
0.0
 10
141.486030802177
 20
127.8027915271048
 30
0.0
 10
141.486030802177
 20
127.8027915271048
 30
0.0
 10
146.3329388378533
 20
143.2092687007094
 30
0.0
 10
146.3329388378533
 20
143.2092687007094
 30
0.0
 10
146.8483254624444
 20
144.8408669988801
 30
0.0
 10
147.2314203331297
 20
146.1837661049335
 30
0.0
 10
147.4867020769946
 20
147.224185627838
 30
0.0
 10
147.9169947869641
 20
149.0197705792876
 30
0.0
 10
148.0306830129768
 20
150.2400242051577
 30
0.0
 10
147.709255392159
 20
151.3157559800812
 30
0.0
 10
147.3874832615654
 20
152.3916600098926
 30
0.0
 10
146.8245542879144
 20
152.6683013598569
 30
0.0
 10
145.8840425999909
 20
152.6683013598569
 30
0.0
 10
145.0989048209514
 20
152.6683013598569
 30
0.0
 10
144.3282364524954
 20
152.3275811915945
 30
0.0
 10
143.4531816219731
 20
151.6538923250251
 30
0.0
 10
142.34627171234
 20
150.8074318058939
 30
0.0
 10
141.901854101563
 20
150.1097995099067
 30
0.0
 10
141.3578731655808
 20
149.289521733736
 30
0.0
 10
140.6299240093235
 20
148.192602607601
 30
0.0
 10
140.2850697237515
 20
147.455696197173
 30
0.0
 10
139.6652966370942
 20
145.8385673095858
 30
0.0
 10
139.0506911970739
 20
144.2214384219986
 30
0.0
 10
138.463991048893
 20
142.3252566160164
 30
0.0
 10
138.0571250036777
 20
141.0154304484394
 30
0.0
 10
138.0571250036777
 20
141.0154304484394
 30
0.0
 10
133.9009590684727
 20
127.8027915271048
 30
0.0
 10
133.9009590684727
 20
127.8027915271048
 30
0.0
 10
133.9009590684727
 20
127.8027915271048
 30
0.0
 10
131.4180771143097
 20
127.8027915271048
 30
0.0
 10
131.4180771143097
 20
127.8027915271048
 30
0.0
 10
131.4180771143097
 20
127.8027915271048
 30
0.0
 10
139.8926730891197
 20
154.8294111834263
 30
0.0
 10
139.8926730891197
 20
154.8294111834263
 30
0.0
  0
HATCH
  5
800
330
7F9
100
AcDbEntity
  8
LOGO
 62
   250
420
  2234388
100
AcDbHatch
 10
0.0
 20
0.0
 30
0.0
210
0.0
220
0.0
230
1.0
  2
SOLID
 70
     1
 71
     0
 91
        1
 92
        1
 93
        1
 72
     4
 94
        3
 73
     0
 74
     1
 95
      104
 96
      100
 40
0.0
 40
0.0
 40
0.0
 40
0.0
 40
1.0
 40
1.0
 40
1.0
 40
2.0
 40
2.0
 40
2.0
 40
3.0
 40
3.0
 40
3.0
 40
4.0
 40
4.0
 40
4.0
 40
5.0
 40
5.0
 40
5.0
 40
6.0
 40
6.0
 40
6.0
 40
7.0
 40
7.0
 40
7.0
 40
8.0
 40
8.0
 40
8.0
 40
9.0
 40
9.0
 40
9.0
 40
10.0
 40
10.0
 40
10.0
 40
11.0
 40
11.0
 40
11.0
 40
12.0
 40
12.0
 40
12.0
 40
13.0
 40
13.0
 40
13.0
 40
14.0
 40
14.0
 40
14.0
 40
15.0
 40
15.0
 40
15.0
 40
16.0
 40
16.0
 40
16.0
 40
17.0
 40
17.0
 40
17.0
 40
18.0
 40
18.0
 40
18.0
 40
19.0
 40
19.0
 40
19.0
 40
20.0
 40
20.0
 40
20.0
 40
21.0
 40
21.0
 40
21.0
 40
22.0
 40
22.0
 40
22.0
 40
23.0
 40
23.0
 40
23.0
 40
24.0
 40
24.0
 40
24.0
 40
25.0
 40
25.0
 40
25.0
 40
26.0
 40
26.0
 40
26.0
 40
27.0
 40
27.0
 40
27.0
 40
28.0
 40
28.0
 40
28.0
 40
29.0
 40
29.0
 40
29.0
 40
30.0
 40
30.0
 40
30.0
 40
31.0
 40
31.0
 40
31.0
 40
32.0
 40
32.0
 40
32.0
 40
33.0
 40
33.0
 40
33.0
 40
33.0
 10
139.8926730891197
 20
154.8294111834263
 10
139.8926730891197
 20
154.8294111834263
 10
142.0344903652445
 20
154.8294111834263
 10
142.0344903652445
 20
154.8294111834263
 10
142.0344903652445
 20
154.8294111834263
 10
140.9516961399171
 20
151.3157559800812
 10
140.9516961399171
 20
151.3157559800812
 10
141.8928968473923
 20
152.7887075264977
 10
142.7341897198865
 20
153.4484437471474
 10
143.8552245303272
 20
154.2926649527359
 10
144.9803934580775
 20
155.1296514530327
 10
146.3139908001845
 20
155.3044901642492
 10
147.241066606852
 20
155.3044901642492
 10
148.3855280820469
 20
155.3044901642492
 10
149.4969166187653
 20
155.0752189084569
 10
150.0784491203092
 20
153.8172414621372
 10
150.5228667310863
 20
152.833838307127
 10
150.5414702589793
 20
152.7201500811143
 10
150.4140016419347
 20
150.7765981809602
 10
151.5818897818837
 20
152.7699317437168
 10
152.4424752018226
 20
153.6256940267945
 10
153.9038856707499
 20
154.4507949398263
 10
155.4455669174378
 20
155.3044901642492
 10
156.339225275853
 20
155.3659851592288
 10
157.3748216618963
 20
155.2147453676543
 10
158.911679771723
 20
154.9877134254046
 10
159.8859534176746
 20
154.4390816074493
 10
160.3965169054045
 20
152.7816450760939
 10
160.9070803931344
 20
151.1219692311958
 10
160.6328506116007
 20
150.2303779314354
 10
159.9992971339115
 20
147.597634224801
 10
159.7105979417943
 20
146.4014962832367
 10
159.2947746424084
 20
144.9400858143094
 10
158.7463150793409
 20
143.2092687007094
 10
158.7463150793409
 20
143.2092687007094
 10
153.9038856707499
 20
127.8027915271048
 10
153.9038856707499
 20
127.8027915271048
 10
153.9038856707499
 20
127.8027915271048
 10
151.3882752878863
 20
127.8027915271048
 10
151.3882752878863
 20
127.8027915271048
 10
151.3882752878863
 20
127.8027915271048
 10
155.6250565106276
 20
141.2751908193897
 10
155.6250565106276
 20
141.2751908193897
 10
156.5094131050963
 20
144.0936252951782
 10
157.109893644309
 20
146.1506931664571
 10
157.4220195011804
 20
147.4415712963654
 10
157.8095929989511
 20
149.0530157726519
 10
157.9656559273867
 20
149.5826995529385
 10
157.7816877071116
 20
150.7529992613181
 10
157.6111553680925
 20
151.8430281919372
 10
157.0582171779396
 20
152.5547853887321
 10
156.1170164704645
 20
152.5547853887321
 10
155.1096698860365
 20
152.5547853887321
 10
154.2962823053817
 20
152.4412694176073
 10
153.156643967048
 20
151.2945686288697
 10
152.0170056287143
 20
150.1476955852443
 10
151.076149431015
 20
148.7930831468137
 10
150.3337308641742
 20
147.2290087646991
 10
149.5957909244188
 20
145.6683794803425
 10
148.8530278478023
 20
143.6822806228776
 10
148.0964843801539
 20
141.2751908193897
 10
148.0964843801539
 20
141.2751908193897
 10
143.8552245303272
 20
127.8027915271048
 10
143.8552245303272
 20
127.8027915271048
 10
143.8552245303272
 20
127.8027915271048
 10
141.486030802177
 20
127.8027915271048
 10
141.486030802177
 20
127.8027915271048
 10
141.486030802177
 20
127.8027915271048
 10
146.3329388378533
 20
143.2092687007094
 10
146.3329388378533
 20
143.2092687007094
 10
146.8483254624444
 20
144.8408669988801
 10
147.2314203331297
 20
146.1837661049335
 10
147.4867020769946
 20
147.224185627838
 10
147.9169947869641
 20
149.0197705792876
 10
148.0306830129768
 20
150.2400242051577
 10
147.709255392159
 20
151.3157559800812
 10
147.3874832615654
 20
152.3916600098926
 10
146.8245542879144
 20
152.6683013598569
 10
145.8840425999909
 20
152.6683013598569
 10
145.0989048209514
 20
152.6683013598569
 10
144.3282364524954
 20
152.3275811915945
 10
143.4531816219731
 20
151.6538923250251
 10
142.34627171234
 20
150.8074318058939
 10
141.901854101563
 20
150.1097995099067
 10
141.3578731655808
 20
149.289521733736
 10
140.6299240093235
 20
148.192602607601
 10
140.2850697237515
 20
147.455696197173
 10
139.6652966370942
 20
145.8385673095858
 10
139.0506911970739
 20
144.2214384219986
 10
138.463991048893
 20
142.3252566160164
 10
138.0571250036777
 20
141.0154304484394
 10
138.0571250036777
 20
141.0154304484394
 10
133.9009590684727
 20
127.8027915271048
 10
133.9009590684727
 20
127.8027915271048
 10
133.9009590684727
 20
127.8027915271048
 10
131.4180771143097
 20
127.8027915271048
 10
131.4180771143097
 20
127.8027915271048
 10
131.4180771143097
 20
127.8027915271048
 10
139.8926730891197
 20
154.8294111834263
 10
139.8926730891197
 20
154.8294111834263
 97
        0
 75
     2
 76
     1
 98
        0
  0
SPLINE
  5
801
330
7F9
100
AcDbEntity
  8
LOGO
370
     0
100
AcDbSpline
210
0.0
220
0.0
230
1.0
 70
    11
 71
     3
 72
    29
 73
    25
 74
     0
 42
0.000000001
 43
0.0000000001
 40
0.0
 40
0.0
 40
0.0
 40
0.0
 40
1.0
 40
1.0
 40
1.0
 40
2.0
 40
2.0
 40
2.0
 40
3.0
 40
3.0
 40
3.0
 40
4.0
 40
4.0
 40
4.0
 40
5.0
 40
5.0
 40
5.0
 40
6.0
 40
6.0
 40
6.0
 40
7.0
 40
7.0
 40
7.0
 40
8.0
 40
8.0
 40
8.0
 40
8.0
 10
101.6420971922469
 20
132.8388354296931
 30
0.0
 10
101.630039350094
 20
134.7164137077823
 30
0.0
 10
102.2236296937908
 20
138.0598810818841
 30
0.0
 10
103.7487744712405
 20
142.5378191476827
 30
0.0
 10
105.819967243327
 20
148.5896501242061
 30
0.0
 10
107.0602024361932
 20
150.8074318058939
 30
0.0
 10
108.1522984254671
 20
151.8833358357054
 30
0.0
 10
109.741177511439
 20
153.4532668840085
 30
0.0
 10
111.8740375333931
 20
153.5290590346837
 30
0.0
 10
112.5075910110823
 20
153.4532668840085
 30
0.0
 10
113.4012493694975
 20
153.3490526768302
 30
0.0
 10
114.6683563248758
 20
152.7580461564518
 30
0.0
 10
114.7493161221879
 20
150.7838328862519
 30
0.0
 10
114.8106388622796
 20
149.0909118479895
 30
0.0
 10
114.3186789024427
 20
145.9191825971221
 30
0.0
 10
112.6164561002338
 20
140.9489400617108
 30
0.0
 10
110.6444821435766
 20
135.1746117095912
 30
0.0
 10
109.4669477299053
 20
132.8960240524753
 30
0.0
 10
108.5212683953448
 20
131.9072809959403
 30
0.0
 10
106.7346406980658
 20
130.0538184021569
 30
0.0
 10
104.8222669326213
 20
130.2336525051225
 30
0.0
 10
104.5408024457958
 20
130.2336525051225
 30
0.0
 10
104.1721769856939
 20
130.2336525051225
 30
0.0
 10
101.6465758193322
 20
130.6305277668397
 30
0.0
 10
101.6420971922469
 20
132.8388354296931
 30
0.0
  0
SPLINE
  5
802
330
7F9
100
AcDbEntity
  8
LOGO
370
     0
100
AcDbSpline
210
0.0
220
0.0
230
1.0
 70
    11
 71
     3
 72
    32
 73
    28
 74
     0
 42
0.000000001
 43
0.0000000001
 40
0.0
 40
0.0
 40
0.0
 40
0.0
 40
1.0
 40
1.0
 40
1.0
 40
2.0
 40
2.0
 40
2.0
 40
3.0
 40
3.0
 40
3.0
 40
4.0
 40
4.0
 40
4.0
 40
5.0
 40
5.0
 40
5.0
 40
6.0
 40
6.0
 40
6.0
 40
7.0
 40
7.0
 40
7.0
 40
8.0
 40
8.0
 40
8.0
 40
9.0
 40
9.0
 40
9.0
 40
9.0
 10
106.2595617172429
 20
153.4105476718098
 30
0.0
 10
104.8222669326213
 20
151.5474388043041
 30
0.0
 10
103.7177685914188
 20
149.8758773721411
 30
0.0
 10
101.9232171692965
 20
144.6141795664062
 30
0.0
 10
100.2754269116635
 20
139.7999999594306
 30
0.0
 10
99.22777268346732
 20
136.3052927937542
 30
0.0
 10
99.06964269637689
 20
132.039572749846
 30
0.0
 10
98.94665270641765
 20
128.8673267343149
 30
0.0
 10
100.8807305877373
 20
127.8027915271048
 30
0.0
 10
103.7129454545577
 20
127.8027915271048
 30
0.0
 10
104.9352661390825
 20
127.8027915271048
 30
0.0
 10
108.0151835347002
 20
127.8827177950895
 30
0.0
 10
110.2045431598849
 20
130.5926316915021
 30
0.0
 10
111.7417457794874
 20
132.4984597712065
 30
0.0
 10
113.155269389579
 20
134.475256864725
 30
0.0
 10
115.0562743324223
 20
140.9489400617108
 30
0.0
 10
116.6361961642235
 20
146.3680788349845
 30
0.0
 10
117.7282921534974
 20
149.8639917848761
 30
0.0
 10
117.6480213757369
 20
151.8595646611754
 30
0.0
 10
117.6480213757369
 20
151.8595646611754
 30
0.0
 10
117.6480213757369
 20
151.8595646611754
 30
0.0
 10
117.6480213757369
 20
151.8595646611754
 30
0.0
 10
117.13229024137
 20
155.18150017429
 30
0.0
 10
114.7162431837115
 20
155.886194920681
 30
0.0
 10
113.3351034925446
 20
155.886194920681
 30
0.0
 10
111.9829026225447
 20
155.886194920681
 30
0.0
 10
108.3414342923792
 20
156.1251124501957
 30
0.0
 10
106.2595617172429
 20
153.4105476718098
 30
0.0
  0
HATCH
  5
803
330
7F9
100
AcDbEntity
  8
LOGO
 62
   250
420
  2234388
100
AcDbHatch
 10
0.0
 20
0.0
 30
0.0
210
0.0
220
0.0
230
1.0
  2
SOLID
 70
     1
 71
     0
 91
        2
 92
        1
 93
        1
 72
     4
 94
        3
 73
     0
 74
     1
 95
       29
 96
       25
 40
0.0
 40
0.0
 40
0.0
 40
0.0
 40
1.0
 40
1.0
 40
1.0
 40
2.0
 40
2.0
 40
2.0
 40
3.0
 40
3.0
 40
3.0
 40
4.0
 40
4.0
 40
4.0
 40
5.0
 40
5.0
 40
5.0
 40
6.0
 40
6.0
 40
6.0
 40
7.0
 40
7.0
 40
7.0
 40
8.0
 40
8.0
 40
8.0
 40
8.0
 10
101.6420971922469
 20
132.8388354296931
 10
101.630039350094
 20
134.7164137077823
 10
102.2236296937908
 20
138.0598810818841
 10
103.7487744712405
 20
142.5378191476827
 10
105.819967243327
 20
148.5896501242061
 10
107.0602024361932
 20
150.8074318058939
 10
108.1522984254671
 20
151.8833358357054
 10
109.741177511439
 20
153.4532668840085
 10
111.8740375333931
 20
153.5290590346837
 10
112.5075910110823
 20
153.4532668840085
 10
113.4012493694975
 20
153.3490526768302
 10
114.6683563248758
 20
152.7580461564518
 10
114.7493161221879
 20
150.7838328862519
 10
114.8106388622796
 20
149.0909118479895
 10
114.3186789024427
 20
145.9191825971221
 10
112.6164561002338
 20
140.9489400617108
 10
110.6444821435766
 20
135.1746117095912
 10
109.4669477299053
 20
132.8960240524753
 10
108.5212683953448
 20
131.9072809959403
 10
106.7346406980658
 20
130.0538184021569
 10
104.8222669326213
 20
130.2336525051225
 10
104.5408024457958
 20
130.2336525051225
 10
104.1721769856939
 20
130.2336525051225
 10
101.6465758193322
 20
130.6305277668397
 10
101.6420971922469
 20
132.8388354296931
 97
        0
 92
        1
 93
        1
 72
     4
 94
        3
 73
     0
 74
     1
 95
       32
 96
       28
 40
0.0
 40
0.0
 40
0.0
 40
0.0
 40
1.0
 40
1.0
 40
1.0
 40
2.0
 40
2.0
 40
2.0
 40
3.0
 40
3.0
 40
3.0
 40
4.0
 40
4.0
 40
4.0
 40
5.0
 40
5.0
 40
5.0
 40
6.0
 40
6.0
 40
6.0
 40
7.0
 40
7.0
 40
7.0
 40
8.0
 40
8.0
 40
8.0
 40
9.0
 40
9.0
 40
9.0
 40
9.0
 10
106.2595617172429
 20
153.4105476718098
 10
104.8222669326213
 20
151.5474388043041
 10
103.7177685914188
 20
149.8758773721411
 10
101.9232171692965
 20
144.6141795664062
 10
100.2754269116635
 20
139.7999999594306
 10
99.22777268346732
 20
136.3052927937542
 10
99.06964269637689
 20
132.039572749846
 10
98.94665270641765
 20
128.8673267343149
 10
100.8807305877373
 20
127.8027915271048
 10
103.7129454545577
 20
127.8027915271048
 10
104.9352661390825
 20
127.8027915271048
 10
108.0151835347002
 20
127.8827177950895
 10
110.2045431598849
 20
130.5926316915021
 10
111.7417457794874
 20
132.4984597712065
 10
113.155269389579
 20
134.475256864725
 10
115.0562743324223
 20
140.9489400617108
 10
116.6361961642235
 20
146.3680788349845
 10
117.7282921534974
 20
149.8639917848761
 10
117.6480213757369
 20
151.8595646611754
 10
117.6480213757369
 20
151.8595646611754
 10
117.6480213757369
 20
151.8595646611754
 10
117.6480213757369
 20
151.8595646611754
 10
117.13229024137
 20
155.18150017429
 10
114.7162431837115
 20
155.886194920681
 10
113.3351034925446
 20
155.886194920681
 10
111.9829026225447
 20
155.886194920681
 10
108.3414342923792
 20
156.1251124501957
 10
106.2595617172429
 20
153.4105476718098
 97
        0
 75
     2
 76
     1
 98
        0
  0
ENDBLK
  5
804
330
7F9
100
AcDbEntity
  8
0
100
AcDbBlockEnd
  0
BLOCK
  5
8E4
330
8E3
100
AcDbEntity
  8
0
100
AcDbBlockBegin
  2
*D9
 70
     1
 10
0.0
 20
0.0
 30
0.0
  3
*D9
  1

  0
LINE
  5
8E5
330
8E3
100
AcDbEntity
  8
DIM
 62
     0
370
    -2
100
AcDbLine
 10
413.3874520807208
 20
477.8121125529792
 30
0.0
 11
413.3874520807208
 21
440.6612311180685
 31
0.0
  0
LINE
  5
8E6
330
8E3
100
AcDbEntity
  8
DIM
 62
     0
370
    -2
100
AcDbLine
 10
313.3874520807208
 20
477.8121125529792
 30
0.0
 11
313.3874520807208
 21
440.6612311180685
 31
0.0
  0
LINE
  5
8E7
330
8E3
100
AcDbEntity
  8
DIM
 62
     0
370
    -2
100
AcDbLine
 10
410.3874520807208
 20
440.6612311180685
 30
0.0
 11
316.3874520807208
 21
440.6612311180685
 31
0.0
  0
INSERT
  5
8E8
330
8E3
100
AcDbEntity
  8
DIM
 62
     0
370
    -2
100
AcDbBlockReference
  2
_DOT
 10
413.3874520807208
 20
440.6612311180685
 30
0.0
 41
3.0
 42
3.0
 43
3.0
  0
INSERT
  5
8E9
330
8E3
100
AcDbEntity
  8
DIM
 62
     0
370
    -2
100
AcDbBlockReference
  2
_DOT
 10
313.3874520807208
 20
440.6612311180685
 30
0.0
 41
3.0
 42
3.0
 43
3.0
 50
180.0
  0
MTEXT
  5
8EA
330
8E3
100
AcDbEntity
  8
DIM
 62
     0
100
AcDbMText
 10
363.3874520807208
 20
456.6612311180685
 30
0.0
 40
12.0
 41
0.0
 46
0.0
 71
     5
 72
     1
  1
\A1;100
  7
ＭＳ ゴシック
 73
     1
 44
1.0
  0
POINT
  5
8EB
330
8E3
100
AcDbEntity
  8
Defpoints
 62
     0
100
AcDbPoint
 10
413.3874520807208
 20
487.8121125529792
 30
0.0
  0
POINT
  5
8EC
330
8E3
100
AcDbEntity
  8
Defpoints
 62
     0
100
AcDbPoint
 10
313.3874520807208
 20
487.8121125529792
 30
0.0
  0
POINT
  5
8ED
330
8E3
100
AcDbEntity
  8
Defpoints
 62
     0
100
AcDbPoint
 10
313.3874520807208
 20
440.6612311180685
 30
0.0
  0
ENDBLK
  5
8EE
330
8E3
100
AcDbEntity
  8
0
100
AcDbBlockEnd
  0
BLOCK
  5
8F3
330
8F2
100
AcDbEntity
  8
0
100
AcDbBlockBegin
  2
*D10
 70
     1
 10
0.0
 20
0.0
 30
0.0
  3
*D10
  1

  0
LINE
  5
8F4
330
8F2
100
AcDbEntity
  8
DIM
 62
     0
370
    -2
100
AcDbLine
 10
728.1968524312397
 20
461.6797491984449
 30
0.0
 11
728.1968524312397
 21
421.5927786309518
 31
0.0
  0
LINE
  5
8F5
330
8F2
100
AcDbEntity
  8
DIM
 62
     0
370
    -2
100
AcDbLine
 10
664.1968524312397
 20
505.4877569731697
 30
0.0
 11
664.1968524312397
 21
421.5927786309518
 31
0.0
  0
LINE
  5
8F6
330
8F2
100
AcDbEntity
  8
DIM
 62
     0
370
    -2
100
AcDbLine
 10
725.1968524312397
 20
421.5927786309518
 30
0.0
 11
667.1968524312397
 21
421.5927786309518
 31
0.0
  0
INSERT
  5
8F7
330
8F2
100
AcDbEntity
  8
DIM
 62
     0
370
    -2
100
AcDbBlockReference
  2
_DOT
 10
728.1968524312397
 20
421.5927786309518
 30
0.0
 41
3.0
 42
3.0
 43
3.0
  0
INSERT
  5
8F8
330
8F2
100
AcDbEntity
  8
DIM
 62
     0
370
    -2
100
AcDbBlockReference
  2
_DOT
 10
664.1968524312397
 20
421.5927786309518
 30
0.0
 41
3.0
 42
3.0
 43
3.0
 50
180.0
  0
MTEXT
  5
8F9
330
8F2
100
AcDbEntity
  8
DIM
 62
     0
100
AcDbMText
 10
696.1968524312397
 20
437.5927786309518
 30
0.0
 40
12.0
 41
0.0
 46
0.0
 71
     5
 72
     1
  1
\A1;64
  7
ＭＳ ゴシック
 73
     1
 44
1.0
  0
POINT
  5
8FA
330
8F2
100
AcDbEntity
  8
Defpoints
 62
     0
100
AcDbPoint
 10
728.1968524312397
 20
471.6797491984449
 30
0.0
  0
POINT
  5
8FB
330
8F2
100
AcDbEntity
  8
Defpoints
 62
     0
100
AcDbPoint
 10
664.1968524312397
 20
515.4877569731697
 30
0.0
  0
POINT
  5
8FC
330
8F2
100
AcDbEntity
  8
Defpoints
 62
     0
100
AcDbPoint
 10
664.1968524312397
 20
421.5927786309518
 30
0.0
  0
ENDBLK
  5
8FD
330
8F2
100
AcDbEntity
  8
0
100
AcDbBlockEnd
  0
BLOCK
  5
900
330
8FF
100
AcDbEntity
  8
0
100
AcDbBlockBegin
  2
*D11
 70
     1
 10
0.0
 20
0.0
 30
0.0
  3
*D11
  1

  0
LINE
  5
901
330
8FF
100
AcDbEntity
  8
DIM
 62
     0
370
    -2
100
AcDbLine
 10
728.1968524312397
 20
621.0473198314804
 30
0.0
 11
728.1968524312397
 21
643.7076598480519
 31
0.0
  0
LINE
  5
902
330
8FF
100
AcDbEntity
  8
DIM
 62
     0
370
    -2
100
AcDbLine
 10
680.1968524312397
 20
578.9802965612744
 30
0.0
 11
680.1968524312397
 21
643.7076598480519
 31
0.0
  0
LINE
  5
903
330
8FF
100
AcDbEntity
  8
DIM
 62
     0
370
    -2
100
AcDbLine
 10
725.1968524312397
 20
643.7076598480519
 30
0.0
 11
683.1968524312397
 21
643.7076598480519
 31
0.0
  0
INSERT
  5
904
330
8FF
100
AcDbEntity
  8
DIM
 62
     0
370
    -2
100
AcDbBlockReference
  2
_DOT
 10
728.1968524312397
 20
643.7076598480519
 30
0.0
 41
3.0
 42
3.0
 43
3.0
  0
INSERT
  5
905
330
8FF
100
AcDbEntity
  8
DIM
 62
     0
370
    -2
100
AcDbBlockReference
  2
_DOT
 10
680.1968524312397
 20
643.7076598480519
 30
0.0
 41
3.0
 42
3.0
 43
3.0
 50
180.0
  0
MTEXT
  5
906
330
8FF
100
AcDbEntity
  8
DIM
 62
     0
100
AcDbMText
 10
704.1968524312397
 20
659.7076598480519
 30
0.0
 40
12.0
 41
0.0
 46
0.0
 71
     5
 72
     1
  1
\A1;49-64
  7
ＭＳ ゴシック
 73
     1
 44
1.0
  0
POINT
  5
907
330
8FF
100
AcDbEntity
  8
Defpoints
 62
     0
100
AcDbPoint
 10
728.1968524312397
 20
611.0473198314804
 30
0.0
  0
POINT
  5
908
330
8FF
100
AcDbEntity
  8
Defpoints
 62
     0
100
AcDbPoint
 10
680.1968524312397
 20
568.9802965612744
 30
0.0
  0
POINT
  5
909
330
8FF
100
AcDbEntity
  8
Defpoints
 62
     0
100
AcDbPoint
 10
680.1968524312397
 20
643.7076598480519
 30
0.0
  0
ENDBLK
  5
90A
330
8FF
100
AcDbEntity
  8
0
100
AcDbBlockEnd
  0
BLOCK
  5
90F
330
90E
100
AcDbEntity
  8
0
100
AcDbBlockBegin
  2
*D12
 70
     1
 10
0.0
 20
0.0
 30
0.0
  3
*D12
  1

  0
LINE
  5
910
330
90E
100
AcDbEntity
  8
DIM
 62
     0
370
    -2
100
AcDbLine
 10
680.1968524312397
 20
578.9802965612744
 30
0.0
 11
680.1968524312397
 21
643.7076598480519
 31
0.0
  0
LINE
  5
911
330
90E
100
AcDbEntity
  8
DIM
 62
     0
370
    -2
100
AcDbLine
 10
652.6968524312397
 20
621.0473198314804
 30
0.0
 11
652.6968524312397
 21
643.7076598480519
 31
0.0
  0
LINE
  5
912
330
90E
100
AcDbEntity
  8
DIM
 62
     0
370
    -2
100
AcDbLine
 10
652.6968524312397
 20
643.7076598480519
 30
0.0
 11
597.141769275056
 21
643.7076598480519
 31
0.0
  0
LINE
  5
913
330
90E
100
AcDbEntity
  8
DIM
 62
     0
370
    -2
100
AcDbLine
 10
680.1968524312397
 20
643.7076598480519
 30
0.0
 11
652.6968524312397
 21
643.7076598480519
 31
0.0
  0
LINE
  5
914
330
90E
100
AcDbEntity
  8
DIM
 62
     0
370
    -2
100
AcDbLine
 10
683.1968524312397
 20
643.7076598480519
 30
0.0
 11
686.1968524312397
 21
643.7076598480519
 31
0.0
  0
LINE
  5
915
330
90E
100
AcDbEntity
  8
DIM
 62
     0
370
    -2
100
AcDbLine
 10
649.6968524312397
 20
643.7076598480519
 30
0.0
 11
646.6968524312397
 21
643.7076598480519
 31
0.0
  0
INSERT
  5
916
330
90E
100
AcDbEntity
  8
DIM
 62
     0
370
    -2
100
AcDbBlockReference
  2
_DOT
 10
680.1968524312397
 20
643.7076598480519
 30
0.0
 41
3.0
 42
3.0
 43
3.0
 50
180.0
  0
INSERT
  5
917
330
90E
100
AcDbEntity
  8
DIM
 62
     0
370
    -2
100
AcDbBlockReference
  2
_DOT
 10
652.6968524312397
 20
643.7076598480519
 30
0.0
 41
3.0
 42
3.0
 43
3.0
  0
MTEXT
  5
918
330
90E
100
AcDbEntity
  8
DIM
 62
     0
100
AcDbMText
 10
621.9193108531479
 20
659.7099106921185
 30
0.0
 40
12.0
 41
0.0
 46
0.0
 71
     5
 72
     1
  1
\A1;27.5
  7
ＭＳ ゴシック
 73
     1
 44
1.0
  0
POINT
  5
919
330
90E
100
AcDbEntity
  8
Defpoints
 62
     0
100
AcDbPoint
 10
680.1968524312397
 20
568.9802965612744
 30
0.0
  0
POINT
  5
91A
330
90E
100
AcDbEntity
  8
Defpoints
 62
     0
100
AcDbPoint
 10
652.6968524312397
 20
611.0473198314804
 30
0.0
  0
POINT
  5
91B
330
90E
100
AcDbEntity
  8
Defpoints
 62
     0
100
AcDbPoint
 10
652.6968524312397
 20
643.7076598480519
 30
0.0
  0
ENDBLK
  5
91C
330
90E
100
AcDbEntity
  8
0
100
AcDbBlockEnd
  0
BLOCK
  5
91F
330
91E
100
AcDbEntity
  8
0
100
AcDbBlockBegin
  2
*D13
 70
     1
 10
0.0
 20
0.0
 30
0.0
  3
*D13
  1

  0
LINE
  5
920
330
91E
100
AcDbEntity
  8
DIM
 62
     0
370
    -2
100
AcDbLine
 10
728.1968524312397
 20
950.2661697203649
 30
0.0
 11
728.1968524312397
 21
900.8346631516255
 31
0.0
  0
LINE
  5
921
330
91E
100
AcDbEntity
  8
DIM
 62
     0
370
    -2
100
AcDbLine
 10
873.1968524312397
 20
1010.043021235005
 30
0.0
 11
873.1968524312397
 21
900.8346631516255
 31
0.0
  0
LINE
  5
922
330
91E
100
AcDbEntity
  8
DIM
 62
     0
370
    -2
100
AcDbLine
 10
731.1968524312397
 20
900.8346631516255
 30
0.0
 11
870.1968524312397
 21
900.8346631516255
 31
0.0
  0
INSERT
  5
923
330
91E
100
AcDbEntity
  8
DIM
 62
     0
370
    -2
100
AcDbBlockReference
  2
_DOT
 10
728.1968524312397
 20
900.8346631516255
 30
0.0
 41
3.0
 42
3.0
 43
3.0
 50
180.0
  0
INSERT
  5
924
330
91E
100
AcDbEntity
  8
DIM
 62
     0
370
    -2
100
AcDbBlockReference
  2
_DOT
 10
873.1968524312397
 20
900.8346631516255
 30
0.0
 41
3.0
 42
3.0
 43
3.0
  0
MTEXT
  5
925
330
91E
100
AcDbEntity
  8
DIM
 62
     0
100
AcDbMText
 10
800.6968524312397
 20
916.8346631516255
 30
0.0
 40
12.0
 41
0.0
 46
0.0
 71
     5
 72
     1
  1
\A1;145
  7
ＭＳ ゴシック
 73
     1
 44
1.0
  0
POINT
  5
926
330
91E
100
AcDbEntity
  8
Defpoints
 62
     0
100
AcDbPoint
 10
728.1968524312397
 20
960.2661697203649
 30
0.0
  0
POINT
  5
927
330
91E
100
AcDbEntity
  8
Defpoints
 62
     0
100
AcDbPoint
 10
873.1968524312397
 20
1020.043021235005
 30
0.0
  0
POINT
  5
928
330
91E
100
AcDbEntity
  8
Defpoints
 62
     0
100
AcDbPoint
 10
873.1968524312397
 20
900.8346631516255
 30
0.0
  0
ENDBLK
  5
929
330
91E
100
AcDbEntity
  8
0
100
AcDbBlockEnd
  0
BLOCK
  5
92C
330
92B
100
AcDbEntity
  8
0
100
AcDbBlockBegin
  2
*D14
 70
     1
 10
0.0
 20
0.0
 30
0.0
  3
*D14
  1

  0
LINE
  5
92D
330
92B
100
AcDbEntity
  8
DIM
 62
     0
370
    -2
100
AcDbLine
 10
728.1968524312397
 20
1109.6337403534
 30
0.0
 11
728.1968524312397
 21
1146.977846971938
 31
0.0
  0
LINE
  5
92E
330
92B
100
AcDbEntity
  8
DIM
 62
     0
370
    -2
100
AcDbLine
 10
888.1968524312396
 20
1047.746168462359
 30
0.0
 11
888.1968524312396
 21
1146.977846971938
 31
0.0
  0
LINE
  5
92F
330
92B
100
AcDbEntity
  8
DIM
 62
     0
370
    -2
100
AcDbLine
 10
731.1968524312397
 20
1146.977846971938
 30
0.0
 11
885.1968524312396
 21
1146.977846971938
 31
0.0
  0
INSERT
  5
930
330
92B
100
AcDbEntity
  8
DIM
 62
     0
370
    -2
100
AcDbBlockReference
  2
_DOT
 10
728.1968524312397
 20
1146.977846971938
 30
0.0
 41
3.0
 42
3.0
 43
3.0
 50
180.0
  0
INSERT
  5
931
330
92B
100
AcDbEntity
  8
DIM
 62
     0
370
    -2
100
AcDbBlockReference
  2
_DOT
 10
888.1968524312396
 20
1146.977846971938
 30
0.0
 41
3.0
 42
3.0
 43
3.0
  0
MTEXT
  5
932
330
92B
100
AcDbEntity
  8
DIM
 62
     0
100
AcDbMText
 10
808.1968524312397
 20
1162.977846971938
 30
0.0
 40
12.0
 41
0.0
 46
0.0
 71
     5
 72
     1
  1
\A1;160
  7
ＭＳ ゴシック
 73
     1
 44
1.0
  0
POINT
  5
933
330
92B
100
AcDbEntity
  8
Defpoints
 62
     0
100
AcDbPoint
 10
728.1968524312397
 20
1099.6337403534
 30
0.0
  0
POINT
  5
934
330
92B
100
AcDbEntity
  8
Defpoints
 62
     0
100
AcDbPoint
 10
888.1968524312396
 20
1037.746168462359
 30
0.0
  0
POINT
  5
935
330
92B
100
AcDbEntity
  8
Defpoints
 62
     0
100
AcDbPoint
 10
888.1968524312396
 20
1146.977846971938
 30
0.0
  0
ENDBLK
  5
936
330
92B
100
AcDbEntity
  8
0
100
AcDbBlockEnd
  0
BLOCK
  5
93B
330
93A
100
AcDbEntity
  8
0
100
AcDbBlockBegin
  2
*D15
 70
     1
 10
0.0
 20
0.0
 30
0.0
  3
*D15
  1

  0
LINE
  5
93C
330
93A
100
AcDbEntity
  8
DIM
 62
     0
370
    -2
100
AcDbLine
 10
728.1968524312397
 20
1069.949955036882
 30
0.0
 11
728.1968524312397
 21
1118.279538544457
 31
0.0
  0
LINE
  5
93D
330
93A
100
AcDbEntity
  8
DIM
 62
     0
370
    -2
100
AcDbLine
 10
738.1968524312397
 20
1069.949955036882
 30
0.0
 11
738.1968524312397
 21
1118.279538544457
 31
0.0
  0
LINE
  5
93E
330
93A
100
AcDbEntity
  8
DIM
 62
     0
370
    -2
100
AcDbLine
 10
738.1968524312397
 20
1118.279538544457
 30
0.0
 11
777.6608524312396
 21
1118.279538544457
 31
0.0
  0
LINE
  5
93F
330
93A
100
AcDbEntity
  8
DIM
 62
     0
370
    -2
100
AcDbLine
 10
731.1968524312397
 20
1118.279538544457
 30
0.0
 11
735.1968524312397
 21
1118.279538544457
 31
0.0
  0
LINE
  5
940
330
93A
100
AcDbEntity
  8
DIM
 62
     0
370
    -2
100
AcDbLine
 10
735.1968524312397
 20
1118.279538544457
 30
0.0
 11
732.1968524312397
 21
1118.279538544457
 31
0.0
  0
INSERT
  5
941
330
93A
100
AcDbEntity
  8
DIM
 62
     0
370
    -2
100
AcDbBlockReference
  2
_DOT
 10
728.1968524312397
 20
1118.279538544457
 30
0.0
 41
3.0
 42
3.0
 43
3.0
 50
180.0
  0
INSERT
  5
942
330
93A
100
AcDbEntity
  8
DIM
 62
     0
370
    -2
100
AcDbBlockReference
  2
_DOT
 10
738.1968524312397
 20
1118.279538544457
 30
0.0
 41
3.0
 42
3.0
 43
3.0
  0
MTEXT
  5
943
330
93A
100
AcDbEntity
  8
DIM
 62
     0
100
AcDbMText
 10
760.9288524312396
 20
1134.279538544457
 30
0.0
 40
12.0
 41
0.0
 46
0.0
 71
     5
 72
     1
  1
\A1;10
  7
ＭＳ ゴシック
 73
     1
 44
1.0
  0
POINT
  5
944
330
93A
100
AcDbEntity
  8
Defpoints
 62
     0
100
AcDbPoint
 10
728.1968524312397
 20
1059.949955036882
 30
0.0
  0
POINT
  5
945
330
93A
100
AcDbEntity
  8
Defpoints
 62
     0
100
AcDbPoint
 10
738.1968524312397
 20
1059.949955036882
 30
0.0
  0
POINT
  5
946
330
93A
100
AcDbEntity
  8
Defpoints
 62
     0
100
AcDbPoint
 10
738.1968524312397
 20
1118.279538544457
 30
0.0
  0
ENDBLK
  5
947
330
93A
100
AcDbEntity
  8
0
100
AcDbBlockEnd
  0
BLOCK
  5
94A
330
949
100
AcDbEntity
  8
0
100
AcDbBlockBegin
  2
*D16
 70
     1
 10
0.0
 20
0.0
 30
0.0
  3
*D16
  1

  0
LINE
  5
94B
330
949
100
AcDbEntity
  8
DIM
 62
     0
370
    -2
100
AcDbLine
 10
403.3874520807208
 20
1013.949955160448
 30
0.0
 11
403.3874520807208
 21
918.5008337123521
 31
0.0
  0
LINE
  5
94C
330
949
100
AcDbEntity
  8
DIM
 62
     0
370
    -2
100
AcDbLine
 10
153.3874520807208
 20
1013.949955160448
 30
0.0
 11
153.3874520807208
 21
918.5008337123521
 31
0.0
  0
LINE
  5
94D
330
949
100
AcDbEntity
  8
DIM
 62
     0
370
    -2
100
AcDbLine
 10
400.3874520807208
 20
918.5008337123521
 30
0.0
 11
156.3874520807208
 21
918.5008337123521
 31
0.0
  0
INSERT
  5
94E
330
949
100
AcDbEntity
  8
DIM
 62
     0
370
    -2
100
AcDbBlockReference
  2
_DOT
 10
403.3874520807208
 20
918.5008337123521
 30
0.0
 41
3.0
 42
3.0
 43
3.0
  0
INSERT
  5
94F
330
949
100
AcDbEntity
  8
DIM
 62
     0
370
    -2
100
AcDbBlockReference
  2
_DOT
 10
153.3874520807208
 20
918.5008337123521
 30
0.0
 41
3.0
 42
3.0
 43
3.0
 50
180.0
  0
MTEXT
  5
950
330
949
100
AcDbEntity
  8
DIM
 62
     0
100
AcDbMText
 10
278.3874520807208
 20
934.5008337123521
 30
0.0
 40
12.0
 41
0.0
 46
0.0
 71
     5
 72
     1
  1
\A1;250
  7
ＭＳ ゴシック
 73
     1
 44
1.0
  0
POINT
  5
951
330
949
100
AcDbEntity
  8
Defpoints
 62
     0
100
AcDbPoint
 10
403.3874520807208
 20
1023.949955160448
 30
0.0
  0
POINT
  5
952
330
949
100
AcDbEntity
  8
Defpoints
 62
     0
100
AcDbPoint
 10
153.3874520807208
 20
1023.949955160448
 30
0.0
  0
POINT
  5
953
330
949
100
AcDbEntity
  8
Defpoints
 62
     0
100
AcDbPoint
 10
153.3874520807208
 20
918.5008337123521
 30
0.0
  0
ENDBLK
  5
954
330
949
100
AcDbEntity
  8
0
100
AcDbBlockEnd
  0
BLOCK
  5
959
330
958
100
AcDbEntity
  8
0
100
AcDbBlockBegin
  2
*D17
 70
     1
 10
0.0
 20
0.0
 30
0.0
  3
*D17
  1

  0
LINE
  5
95A
330
958
100
AcDbEntity
  8
DIM
 62
     0
370
    -2
100
AcDbLine
 10
143.3874520807203
 20
1023.949955160448
 30
0.0
 11
119.6957828298283
 21
1023.949955160448
 31
0.0
  0
LINE
  5
95B
330
958
100
AcDbEntity
  8
DIM
 62
     0
370
    -2
100
AcDbLine
 10
143.3874520807203
 20
1035.949955160447
 30
0.0
 11
119.6957828298283
 21
1035.949955160447
 31
0.0
  0
LINE
  5
95C
330
958
100
AcDbEntity
  8
DIM
 62
     0
370
    -2
100
AcDbLine
 10
119.6957828298283
 20
1026.949955160448
 30
0.0
 11
119.6957828298283
 21
1032.949955160447
 31
0.0
  0
INSERT
  5
95D
330
958
100
AcDbEntity
  8
DIM
 62
     0
370
    -2
100
AcDbBlockReference
  2
_DOT
 10
119.6957828298283
 20
1023.949955160448
 30
0.0
 41
3.0
 42
3.0
 43
3.0
 50
270.0
  0
INSERT
  5
95E
330
958
100
AcDbEntity
  8
DIM
 62
     0
370
    -2
100
AcDbBlockReference
  2
_DOT
 10
119.6957828298283
 20
1035.949955160447
 30
0.0
 41
3.0
 42
3.0
 43
3.0
 50
90.0
  0
MTEXT
  5
95F
330
958
100
AcDbEntity
  8
DIM
 62
     0
100
AcDbMText
 10
103.6957828298283
 20
1029.949955160447
 30
0.0
 40
12.0
 41
0.0
 46
0.0
 71
     5
 72
     1
  1
\A1;10
  7
ＭＳ ゴシック
 11
0.0
 21
1.0
 31
0.0
 73
     1
 44
1.0
  0
POINT
  5
960
330
958
100
AcDbEntity
  8
Defpoints
 62
     0
100
AcDbPoint
 10
153.3874520807203
 20
1023.949955160448
 30
0.0
  0
POINT
  5
961
330
958
100
AcDbEntity
  8
Defpoints
 62
     0
100
AcDbPoint
 10
153.3874520807203
 20
1035.949955160447
 30
0.0
  0
POINT
  5
962
330
958
100
AcDbEntity
  8
Defpoints
 62
     0
100
AcDbPoint
 10
119.6957828298283
 20
1035.949955160447
 30
0.0
  0
ENDBLK
  5
963
330
958
100
AcDbEntity
  8
0
100
AcDbBlockEnd
  0
BLOCK
  5
968
330
967
100
AcDbEntity
  8
0
100
AcDbBlockBegin
  2
*D18
 70
     1
 10
0.0
 20
0.0
 30
0.0
  3
*D18
  1

  0
LINE
  5
969
330
967
100
AcDbEntity
  8
DIM
 62
     0
370
    -2
100
AcDbLine
 10
463.3874520807208
 20
1069.949955160447
 30
0.0
 11
463.3874520807208
 21
1136.649553515719
 31
0.0
  0
LINE
  5
96A
330
967
100
AcDbEntity
  8
DIM
 62
     0
370
    -2
100
AcDbLine
 10
153.3874520807203
 20
1045.949955160447
 30
0.0
 11
153.3874520807203
 21
1136.649553515719
 31
0.0
  0
LINE
  5
96B
330
967
100
AcDbEntity
  8
DIM
 62
     0
370
    -2
100
AcDbLine
 10
460.3874520807208
 20
1136.649553515719
 30
0.0
 11
156.3874520807203
 21
1136.649553515719
 31
0.0
  0
INSERT
  5
96C
330
967
100
AcDbEntity
  8
DIM
 62
     0
370
    -2
100
AcDbBlockReference
  2
_DOT
 10
463.3874520807208
 20
1136.649553515719
 30
0.0
 41
3.0
 42
3.0
 43
3.0
  0
INSERT
  5
96D
330
967
100
AcDbEntity
  8
DIM
 62
     0
370
    -2
100
AcDbBlockReference
  2
_DOT
 10
153.3874520807203
 20
1136.649553515719
 30
0.0
 41
3.0
 42
3.0
 43
3.0
 50
180.0
  0
MTEXT
  5
96E
330
967
100
AcDbEntity
  8
DIM
 62
     0
100
AcDbMText
 10
308.3874520807205
 20
1152.649553515719
 30
0.0
 40
12.0
 41
0.0
 46
0.0
 71
     5
 72
     1
  1
\A1;310
  7
ＭＳ ゴシック
 73
     1
 44
1.0
  0
POINT
  5
96F
330
967
100
AcDbEntity
  8
Defpoints
 62
     0
100
AcDbPoint
 10
463.3874520807208
 20
1059.949955160447
 30
0.0
  0
POINT
  5
970
330
967
100
AcDbEntity
  8
Defpoints
 62
     0
100
AcDbPoint
 10
153.3874520807203
 20
1035.949955160447
 30
0.0
  0
POINT
  5
971
330
967
100
AcDbEntity
  8
Defpoints
 62
     0
100
AcDbPoint
 10
153.3874520807203
 20
1136.649553515719
 30
0.0
  0
ENDBLK
  5
972
330
967
100
AcDbEntity
  8
0
100
AcDbBlockEnd
  0
BLOCK
  5
977
330
976
100
AcDbEntity
  8
0
100
AcDbBlockBegin
  2
*D19
 70
     1
 10
0.0
 20
0.0
 30
0.0
  3
*D19
  1

  0
LINE
  5
978
330
976
100
AcDbEntity
  8
DIM
 62
     0
370
    -2
100
AcDbLine
 10
463.3874520807208
 20
1069.949955160447
 30
0.0
 11
463.3874520807208
 21
1100.224777434687
 31
0.0
  0
LINE
  5
979
330
976
100
AcDbEntity
  8
DIM
 62
     0
370
    -2
100
AcDbLine
 10
283.3874520807208
 20
1069.949955160447
 30
0.0
 11
283.3874520807208
 21
1100.224777434687
 31
0.0
  0
LINE
  5
97A
330
976
100
AcDbEntity
  8
DIM
 62
     0
370
    -2
100
AcDbLine
 10
460.3874520807208
 20
1100.224777434687
 30
0.0
 11
286.3874520807208
 21
1100.224777434687
 31
0.0
  0
INSERT
  5
97B
330
976
100
AcDbEntity
  8
DIM
 62
     0
370
    -2
100
AcDbBlockReference
  2
_DOT
 10
463.3874520807208
 20
1100.224777434687
 30
0.0
 41
3.0
 42
3.0
 43
3.0
  0
INSERT
  5
97C
330
976
100
AcDbEntity
  8
DIM
 62
     0
370
    -2
100
AcDbBlockReference
  2
_DOT
 10
283.3874520807208
 20
1100.224777434687
 30
0.0
 41
3.0
 42
3.0
 43
3.0
 50
180.0
  0
MTEXT
  5
97D
330
976
100
AcDbEntity
  8
DIM
 62
     0
100
AcDbMText
 10
373.3874520807208
 20
1116.224777434687
 30
0.0
 40
12.0
 41
0.0
 46
0.0
 71
     5
 72
     1
  1
\A1;180
  7
ＭＳ ゴシック
 73
     1
 44
1.0
  0
POINT
  5
97E
330
976
100
AcDbEntity
  8
Defpoints
 62
     0
100
AcDbPoint
 10
463.3874520807208
 20
1059.949955160447
 30
0.0
  0
POINT
  5
97F
330
976
100
AcDbEntity
  8
Defpoints
 62
     0
100
AcDbPoint
 10
283.3874520807208
 20
1059.949955160447
 30
0.0
  0
POINT
  5
980
330
976
100
AcDbEntity
  8
Defpoints
 62
     0
100
AcDbPoint
 10
283.3874520807208
 20
1100.224777434687
 30
0.0
  0
ENDBLK
  5
981
330
976
100
AcDbEntity
  8
0
100
AcDbBlockEnd
  0
BLOCK
  5
986
330
985
100
AcDbEntity
  8
0
100
AcDbBlockBegin
  2
*D20
 70
     1
 10
0.0
 20
0.0
 30
0.0
  3
*D20
  1

  0
LINE
  5
987
330
985
100
AcDbEntity
  8
DIM
 62
     0
370
    -2
100
AcDbLine
 10
473.3874520807208
 20
999.9499551604475
 30
0.0
 11
504.0564932530898
 21
999.9499551604475
 31
0.0
  0
LINE
  5
988
330
985
100
AcDbEntity
  8
DIM
 62
     0
370
    -2
100
AcDbLine
 10
473.3874520807208
 20
1059.949955160447
 30
0.0
 11
504.0564932530898
 21
1059.949955160447
 31
0.0
  0
LINE
  5
989
330
985
100
AcDbEntity
  8
DIM
 62
     0
370
    -2
100
AcDbLine
 10
504.0564932530898
 20
1002.949955160448
 30
0.0
 11
504.0564932530898
 21
1056.949955160447
 31
0.0
  0
INSERT
  5
98A
330
985
100
AcDbEntity
  8
DIM
 62
     0
370
    -2
100
AcDbBlockReference
  2
_DOT
 10
504.0564932530898
 20
999.9499551604475
 30
0.0
 41
3.0
 42
3.0
 43
3.0
 50
270.0
  0
INSERT
  5
98B
330
985
100
AcDbEntity
  8
DIM
 62
     0
370
    -2
100
AcDbBlockReference
  2
_DOT
 10
504.0564932530898
 20
1059.949955160447
 30
0.0
 41
3.0
 42
3.0
 43
3.0
 50
90.0
  0
MTEXT
  5
98C
330
985
100
AcDbEntity
  8
DIM
 62
     0
100
AcDbMText
 10
488.0564932530898
 20
1029.949955160447
 30
0.0
 40
12.0
 41
0.0
 46
0.0
 71
     5
 72
     1
  1
\A1;60
  7
ＭＳ ゴシック
 11
0.0
 21
1.0
 31
0.0
 73
     1
 44
1.0
  0
POINT
  5
98D
330
985
100
AcDbEntity
  8
Defpoints
 62
     0
100
AcDbPoint
 10
463.3874520807208
 20
999.9499551604475
 30
0.0
  0
POINT
  5
98E
330
985
100
AcDbEntity
  8
Defpoints
 62
     0
100
AcDbPoint
 10
463.3874520807208
 20
1059.949955160447
 30
0.0
  0
POINT
  5
98F
330
985
100
AcDbEntity
  8
Defpoints
 62
     0
100
AcDbPoint
 10
504.0564932530898
 20
1059.949955160447
 30
0.0
  0
ENDBLK
  5
990
330
985
100
AcDbEntity
  8
0
100
AcDbBlockEnd
  0
BLOCK
  5
A9E
330
A9D
100
AcDbEntity
  8
0
100
AcDbBlockBegin
  2
*D21
 70
     1
 10
0.0
 20
0.0
 30
0.0
  3
*D21
  1

  0
LINE
  5
AA0
330
A9D
100
AcDbEntity
  8
DIM
 62
     0
370
    -2
100
AcDbLine
 10
263.7449371447317
 20
477.8121125529792
 30
0.0
 11
263.7449371447317
 21
440.6612311180685
 31
0.0
  0
LINE
  5
AA1
330
A9D
100
AcDbEntity
  8
DIM
 62
     0
370
    -2
100
AcDbLine
 10
363.7449371447317
 20
477.8121125529792
 30
0.0
 11
363.7449371447317
 21
440.6612311180685
 31
0.0
  0
LINE
  5
AA2
330
A9D
100
AcDbEntity
  8
DIM
 62
     0
370
    -2
100
AcDbLine
 10
266.7449371447317
 20
440.6612311180685
 30
0.0
 11
360.7449371447317
 21
440.6612311180685
 31
0.0
  0
INSERT
  5
AA3
330
A9D
100
AcDbEntity
  8
DIM
 62
     0
370
    -2
100
AcDbBlockReference
  2
_DOT
 10
263.7449371447317
 20
440.6612311180685
 30
0.0
 41
3.0
 42
3.0
 43
3.0
 50
180.0
  0
INSERT
  5
AA4
330
A9D
100
AcDbEntity
  8
DIM
 62
     0
370
    -2
100
AcDbBlockReference
  2
_DOT
 10
363.7449371447317
 20
440.6612311180685
 30
0.0
 41
3.0
 42
3.0
 43
3.0
  0
MTEXT
  5
AA5
330
A9D
100
AcDbEntity
  8
DIM
 62
     0
100
AcDbMText
 10
313.7449371447317
 20
456.663481962135
 30
0.0
 40
12.0
 41
0.0
 46
0.0
 71
     5
 72
     1
  1
\A1;100
  7
ＭＳ ゴシック
 73
     1
 44
1.0
  0
POINT
  5
AA6
330
A9D
100
AcDbEntity
  8
Defpoints
 62
     0
100
AcDbPoint
 10
263.7449371447317
 20
487.8121125529792
 30
0.0
  0
POINT
  5
AA7
330
A9D
100
AcDbEntity
  8
Defpoints
 62
     0
100
AcDbPoint
 10
363.7449371447317
 20
487.8121125529792
 30
0.0
  0
POINT
  5
AA8
330
A9D
100
AcDbEntity
  8
Defpoints
 62
     0
100
AcDbPoint
 10
363.7449371447317
 20
440.6612311180685
 30
0.0
  0
ENDBLK
  5
A9F
330
A9D
100
AcDbEntity
  8
0
100
AcDbBlockEnd
  0
BLOCK
  5
AAA
330
AA9
100
AcDbEntity
  8
0
100
AcDbBlockBegin
  2
*D22
 70
     1
 10
0.0
 20
0.0
 30
0.0
  3
*D22
  1

  0
LINE
  5
AAC
330
AA9
100
AcDbEntity
  8
DIM
 62
     0
370
    -2
100
AcDbLine
 10
728.1968524312397
 20
461.6797491984449
 30
0.0
 11
728.1968524312397
 21
421.5927786309518
 31
0.0
  0
LINE
  5
AAD
330
AA9
100
AcDbEntity
  8
DIM
 62
     0
370
    -2
100
AcDbLine
 10
664.1968524312397
 20
505.4877569731697
 30
0.0
 11
664.1968524312397
 21
421.5927786309518
 31
0.0
  0
LINE
  5
AAE
330
AA9
100
AcDbEntity
  8
DIM
 62
     0
370
    -2
100
AcDbLine
 10
725.1968524312397
 20
421.5927786309518
 30
0.0
 11
667.1968524312397
 21
421.5927786309518
 31
0.0
  0
INSERT
  5
AAF
330
AA9
100
AcDbEntity
  8
DIM
 62
     0
370
    -2
100
AcDbBlockReference
  2
_DOT
 10
728.1968524312397
 20
421.5927786309518
 30
0.0
 41
3.0
 42
3.0
 43
3.0
  0
INSERT
  5
AB0
330
AA9
100
AcDbEntity
  8
DIM
 62
     0
370
    -2
100
AcDbBlockReference
  2
_DOT
 10
664.1968524312397
 20
421.5927786309518
 30
0.0
 41
3.0
 42
3.0
 43
3.0
 50
180.0
  0
MTEXT
  5
AB1
330
AA9
100
AcDbEntity
  8
DIM
 62
     0
100
AcDbMText
 10
696.1968524312397
 20
437.5927786309518
 30
0.0
 40
12.0
 41
0.0
 46
0.0
 71
     5
 72
     1
  1
\A1;64
  7
ＭＳ ゴシック
 73
     1
 44
1.0
  0
POINT
  5
AB2
330
AA9
100
AcDbEntity
  8
Defpoints
 62
     0
100
AcDbPoint
 10
728.1968524312397
 20
471.6797491984449
 30
0.0
  0
POINT
  5
AB3
330
AA9
100
AcDbEntity
  8
Defpoints
 62
     0
100
AcDbPoint
 10
664.1968524312397
 20
515.4877569731697
 30
0.0
  0
POINT
  5
AB4
330
AA9
100
AcDbEntity
  8
Defpoints
 62
     0
100
AcDbPoint
 10
664.1968524312397
 20
421.5927786309518
 30
0.0
  0
ENDBLK
  5
AAB
330
AA9
100
AcDbEntity
  8
0
100
AcDbBlockEnd
  0
BLOCK
  5
AB6
330
AB5
100
AcDbEntity
  8
0
100
AcDbBlockBegin
  2
*D23
 70
     1
 10
0.0
 20
0.0
 30
0.0
  3
*D23
  1

  0
LINE
  5
AB8
330
AB5
100
AcDbEntity
  8
DIM
 62
     0
370
    -2
100
AcDbLine
 10
728.1968524312397
 20
621.0473198314804
 30
0.0
 11
728.1968524312397
 21
643.7076598480519
 31
0.0
  0
LINE
  5
AB9
330
AB5
100
AcDbEntity
  8
DIM
 62
     0
370
    -2
100
AcDbLine
 10
680.1968524312397
 20
578.9802965612744
 30
0.0
 11
680.1968524312397
 21
643.7076598480519
 31
0.0
  0
LINE
  5
ABA
330
AB5
100
AcDbEntity
  8
DIM
 62
     0
370
    -2
100
AcDbLine
 10
725.1968524312397
 20
643.7076598480519
 30
0.0
 11
683.1968524312397
 21
643.7076598480519
 31
0.0
  0
INSERT
  5
ABB
330
AB5
100
AcDbEntity
  8
DIM
 62
     0
370
    -2
100
AcDbBlockReference
  2
_DOT
 10
728.1968524312397
 20
643.7076598480519
 30
0.0
 41
3.0
 42
3.0
 43
3.0
  0
INSERT
  5
ABC
330
AB5
100
AcDbEntity
  8
DIM
 62
     0
370
    -2
100
AcDbBlockReference
  2
_DOT
 10
680.1968524312397
 20
643.7076598480519
 30
0.0
 41
3.0
 42
3.0
 43
3.0
 50
180.0
  0
MTEXT
  5
ABD
330
AB5
100
AcDbEntity
  8
DIM
 62
     0
100
AcDbMText
 10
704.1968524312397
 20
659.7076598480519
 30
0.0
 40
12.0
 41
0.0
 46
0.0
 71
     5
 72
     1
  1
\A1;49-64
  7
ＭＳ ゴシック
 73
     1
 44
1.0
  0
POINT
  5
ABE
330
AB5
100
AcDbEntity
  8
Defpoints
 62
     0
100
AcDbPoint
 10
728.1968524312397
 20
611.0473198314804
 30
0.0
  0
POINT
  5
ABF
330
AB5
100
AcDbEntity
  8
Defpoints
 62
     0
100
AcDbPoint
 10
680.1968524312397
 20
568.9802965612744
 30
0.0
  0
POINT
  5
AC0
330
AB5
100
AcDbEntity
  8
Defpoints
 62
     0
100
AcDbPoint
 10
680.1968524312397
 20
643.7076598480519
 30
0.0
  0
ENDBLK
  5
AB7
330
AB5
100
AcDbEntity
  8
0
100
AcDbBlockEnd
  0
BLOCK
  5
AC2
330
AC1
100
AcDbEntity
  8
0
100
AcDbBlockBegin
  2
*D24
 70
     1
 10
0.0
 20
0.0
 30
0.0
  3
*D24
  1

  0
LINE
  5
AC4
330
AC1
100
AcDbEntity
  8
DIM
 62
     0
370
    -2
100
AcDbLine
 10
680.1968524312397
 20
578.9802965612744
 30
0.0
 11
680.1968524312397
 21
643.7076598480519
 31
0.0
  0
LINE
  5
AC5
330
AC1
100
AcDbEntity
  8
DIM
 62
     0
370
    -2
100
AcDbLine
 10
652.6968524312397
 20
621.0473198314804
 30
0.0
 11
652.6968524312397
 21
643.7076598480519
 31
0.0
  0
LINE
  5
AC6
330
AC1
100
AcDbEntity
  8
DIM
 62
     0
370
    -2
100
AcDbLine
 10
652.6968524312397
 20
643.7076598480519
 30
0.0
 11
597.141769275056
 21
643.7076598480519
 31
0.0
  0
LINE
  5
AC7
330
AC1
100
AcDbEntity
  8
DIM
 62
     0
370
    -2
100
AcDbLine
 10
680.1968524312397
 20
643.7076598480519
 30
0.0
 11
652.6968524312397
 21
643.7076598480519
 31
0.0
  0
LINE
  5
AC8
330
AC1
100
AcDbEntity
  8
DIM
 62
     0
370
    -2
100
AcDbLine
 10
683.1968524312397
 20
643.7076598480519
 30
0.0
 11
686.1968524312397
 21
643.7076598480519
 31
0.0
  0
LINE
  5
AC9
330
AC1
100
AcDbEntity
  8
DIM
 62
     0
370
    -2
100
AcDbLine
 10
649.6968524312397
 20
643.7076598480519
 30
0.0
 11
646.6968524312397
 21
643.7076598480519
 31
0.0
  0
INSERT
  5
ACA
330
AC1
100
AcDbEntity
  8
DIM
 62
     0
370
    -2
100
AcDbBlockReference
  2
_DOT
 10
680.1968524312397
 20
643.7076598480519
 30
0.0
 41
3.0
 42
3.0
 43
3.0
 50
180.0
  0
INSERT
  5
ACB
330
AC1
100
AcDbEntity
  8
DIM
 62
     0
370
    -2
100
AcDbBlockReference
  2
_DOT
 10
652.6968524312397
 20
643.7076598480519
 30
0.0
 41
3.0
 42
3.0
 43
3.0
  0
MTEXT
  5
ACC
330
AC1
100
AcDbEntity
  8
DIM
 62
     0
100
AcDbMText
 10
621.9193108531479
 20
659.7099106921185
 30
0.0
 40
12.0
 41
0.0
 46
0.0
 71
     5
 72
     1
  1
\A1;27.5
  7
ＭＳ ゴシック
 73
     1
 44
1.0
  0
POINT
  5
ACD
330
AC1
100
AcDbEntity
  8
Defpoints
 62
     0
100
AcDbPoint
 10
680.1968524312397
 20
568.9802965612744
 30
0.0
  0
POINT
  5
ACE
330
AC1
100
AcDbEntity
  8
Defpoints
 62
     0
100
AcDbPoint
 10
652.6968524312397
 20
611.0473198314804
 30
0.0
  0
POINT
  5
ACF
330
AC1
100
AcDbEntity
  8
Defpoints
 62
     0
100
AcDbPoint
 10
652.6968524312397
 20
643.7076598480519
 30
0.0
  0
ENDBLK
  5
AC3
330
AC1
100
AcDbEntity
  8
0
100
AcDbBlockEnd
  0
BLOCK
  5
AD1
330
AD0
100
AcDbEntity
  8
0
100
AcDbBlockBegin
  2
*D25
 70
     1
 10
0.0
 20
0.0
 30
0.0
  3
*D25
  1

  0
LINE
  5
AD3
330
AD0
100
AcDbEntity
  8
DIM
 62
     0
370
    -2
100
AcDbLine
 10
728.1968524312397
 20
950.2661697203649
 30
0.0
 11
728.1968524312397
 21
900.8346631516255
 31
0.0
  0
LINE
  5
AD4
330
AD0
100
AcDbEntity
  8
DIM
 62
     0
370
    -2
100
AcDbLine
 10
873.1968524312397
 20
1010.043021235005
 30
0.0
 11
873.1968524312397
 21
900.8346631516255
 31
0.0
  0
LINE
  5
AD5
330
AD0
100
AcDbEntity
  8
DIM
 62
     0
370
    -2
100
AcDbLine
 10
731.1968524312397
 20
900.8346631516255
 30
0.0
 11
870.1968524312397
 21
900.8346631516255
 31
0.0
  0
INSERT
  5
AD6
330
AD0
100
AcDbEntity
  8
DIM
 62
     0
370
    -2
100
AcDbBlockReference
  2
_DOT
 10
728.1968524312397
 20
900.8346631516255
 30
0.0
 41
3.0
 42
3.0
 43
3.0
 50
180.0
  0
INSERT
  5
AD7
330
AD0
100
AcDbEntity
  8
DIM
 62
     0
370
    -2
100
AcDbBlockReference
  2
_DOT
 10
873.1968524312397
 20
900.8346631516255
 30
0.0
 41
3.0
 42
3.0
 43
3.0
  0
MTEXT
  5
AD8
330
AD0
100
AcDbEntity
  8
DIM
 62
     0
100
AcDbMText
 10
800.6968524312397
 20
916.836913995692
 30
0.0
 40
12.0
 41
0.0
 46
0.0
 71
     5
 72
     1
  1
\A1;145
  7
ＭＳ ゴシック
 73
     1
 44
1.0
  0
POINT
  5
AD9
330
AD0
100
AcDbEntity
  8
Defpoints
 62
     0
100
AcDbPoint
 10
728.1968524312397
 20
960.2661697203649
 30
0.0
  0
POINT
  5
ADA
330
AD0
100
AcDbEntity
  8
Defpoints
 62
     0
100
AcDbPoint
 10
873.1968524312397
 20
1020.043021235005
 30
0.0
  0
POINT
  5
ADB
330
AD0
100
AcDbEntity
  8
Defpoints
 62
     0
100
AcDbPoint
 10
873.1968524312397
 20
900.8346631516255
 30
0.0
  0
ENDBLK
  5
AD2
330
AD0
100
AcDbEntity
  8
0
100
AcDbBlockEnd
  0
BLOCK
  5
ADD
330
ADC
100
AcDbEntity
  8
0
100
AcDbBlockBegin
  2
*D26
 70
     1
 10
0.0
 20
0.0
 30
0.0
  3
*D26
  1

  0
LINE
  5
ADF
330
ADC
100
AcDbEntity
  8
DIM
 62
     0
370
    -2
100
AcDbLine
 10
728.1968524312397
 20
1109.6337403534
 30
0.0
 11
728.1968524312397
 21
1146.977846971938
 31
0.0
  0
LINE
  5
AE0
330
ADC
100
AcDbEntity
  8
DIM
 62
     0
370
    -2
100
AcDbLine
 10
888.1968524312397
 20
1047.746168462359
 30
0.0
 11
888.1968524312397
 21
1146.977846971938
 31
0.0
  0
LINE
  5
AE1
330
ADC
100
AcDbEntity
  8
DIM
 62
     0
370
    -2
100
AcDbLine
 10
731.1968524312397
 20
1146.977846971938
 30
0.0
 11
885.1968524312397
 21
1146.977846971938
 31
0.0
  0
INSERT
  5
AE2
330
ADC
100
AcDbEntity
  8
DIM
 62
     0
370
    -2
100
AcDbBlockReference
  2
_DOT
 10
728.1968524312397
 20
1146.977846971938
 30
0.0
 41
3.0
 42
3.0
 43
3.0
 50
180.0
  0
INSERT
  5
AE3
330
ADC
100
AcDbEntity
  8
DIM
 62
     0
370
    -2
100
AcDbBlockReference
  2
_DOT
 10
888.1968524312397
 20
1146.977846971938
 30
0.0
 41
3.0
 42
3.0
 43
3.0
  0
MTEXT
  5
AE4
330
ADC
100
AcDbEntity
  8
DIM
 62
     0
100
AcDbMText
 10
808.1968524312397
 20
1162.980097816005
 30
0.0
 40
12.0
 41
0.0
 46
0.0
 71
     5
 72
     1
  1
\A1;160
  7
ＭＳ ゴシック
 73
     1
 44
1.0
  0
POINT
  5
AE5
330
ADC
100
AcDbEntity
  8
Defpoints
 62
     0
100
AcDbPoint
 10
728.1968524312397
 20
1099.6337403534
 30
0.0
  0
POINT
  5
AE6
330
ADC
100
AcDbEntity
  8
Defpoints
 62
     0
100
AcDbPoint
 10
888.1968524312397
 20
1037.746168462359
 30
0.0
  0
POINT
  5
AE7
330
ADC
100
AcDbEntity
  8
Defpoints
 62
     0
100
AcDbPoint
 10
888.1968524312397
 20
1146.977846971938
 30
0.0
  0
ENDBLK
  5
ADE
330
ADC
100
AcDbEntity
  8
0
100
AcDbBlockEnd
  0
BLOCK
  5
AE9
330
AE8
100
AcDbEntity
  8
0
100
AcDbBlockBegin
  2
*D27
 70
     1
 10
0.0
 20
0.0
 30
0.0
  3
*D27
  1

  0
LINE
  5
AEB
330
AE8
100
AcDbEntity
  8
DIM
 62
     0
370
    -2
100
AcDbLine
 10
728.1968524312397
 20
1069.949955036882
 30
0.0
 11
728.1968524312397
 21
1118.279538544457
 31
0.0
  0
LINE
  5
AEC
330
AE8
100
AcDbEntity
  8
DIM
 62
     0
370
    -2
100
AcDbLine
 10
738.1968524312397
 20
1069.949955036882
 30
0.0
 11
738.1968524312397
 21
1118.279538544457
 31
0.0
  0
LINE
  5
AED
330
AE8
100
AcDbEntity
  8
DIM
 62
     0
370
    -2
100
AcDbLine
 10
738.1968524312397
 20
1118.279538544457
 30
0.0
 11
777.6630897702419
 21
1118.279538544457
 31
0.0
  0
LINE
  5
AEE
330
AE8
100
AcDbEntity
  8
DIM
 62
     0
370
    -2
100
AcDbLine
 10
731.1968524312397
 20
1118.279538544457
 30
0.0
 11
735.1968524312397
 21
1118.279538544457
 31
0.0
  0
LINE
  5
AEF
330
AE8
100
AcDbEntity
  8
DIM
 62
     0
370
    -2
100
AcDbLine
 10
735.1968524312397
 20
1118.279538544457
 30
0.0
 11
732.1968524312397
 21
1118.279538544457
 31
0.0
  0
INSERT
  5
AF0
330
AE8
100
AcDbEntity
  8
DIM
 62
     0
370
    -2
100
AcDbBlockReference
  2
_DOT
 10
728.1968524312397
 20
1118.279538544457
 30
0.0
 41
3.0
 42
3.0
 43
3.0
 50
180.0
  0
INSERT
  5
AF1
330
AE8
100
AcDbEntity
  8
DIM
 62
     0
370
    -2
100
AcDbBlockReference
  2
_DOT
 10
738.1968524312397
 20
1118.279538544457
 30
0.0
 41
3.0
 42
3.0
 43
3.0
  0
MTEXT
  5
AF2
330
AE8
100
AcDbEntity
  8
DIM
 62
     0
100
AcDbMText
 10
760.9299711007408
 20
1134.281789388524
 30
0.0
 40
12.0
 41
0.0
 46
0.0
 71
     5
 72
     1
  1
\A1;10
  7
ＭＳ ゴシック
 73
     1
 44
1.0
  0
POINT
  5
AF3
330
AE8
100
AcDbEntity
  8
Defpoints
 62
     0
100
AcDbPoint
 10
728.1968524312397
 20
1059.949955036882
 30
0.0
  0
POINT
  5
AF4
330
AE8
100
AcDbEntity
  8
Defpoints
 62
     0
100
AcDbPoint
 10
738.1968524312397
 20
1059.949955036882
 30
0.0
  0
POINT
  5
AF5
330
AE8
100
AcDbEntity
  8
Defpoints
 62
     0
100
AcDbPoint
 10
738.1968524312397
 20
1118.279538544457
 30
0.0
  0
ENDBLK
  5
AEA
330
AE8
100
AcDbEntity
  8
0
100
AcDbBlockEnd
  0
BLOCK
  5
AF7
330
AF6
100
AcDbEntity
  8
0
100
AcDbBlockBegin
  2
*D28
 70
     1
 10
0.0
 20
0.0
 30
0.0
  3
*D28
  1

  0
LINE
  5
AF9
330
AF6
100
AcDbEntity
  8
DIM
 62
     0
370
    -2
100
AcDbLine
 10
273.7449371447317
 20
1013.949955160448
 30
0.0
 11
273.7449371447317
 21
918.5008337123521
 31
0.0
  0
LINE
  5
AFA
330
AF6
100
AcDbEntity
  8
DIM
 62
     0
370
    -2
100
AcDbLine
 10
523.7449371447317
 20
1013.949955160448
 30
0.0
 11
523.7449371447317
 21
918.5008337123521
 31
0.0
  0
LINE
  5
AFB
330
AF6
100
AcDbEntity
  8
DIM
 62
     0
370
    -2
100
AcDbLine
 10
276.7449371447317
 20
918.5008337123521
 30
0.0
 11
520.7449371447317
 21
918.5008337123521
 31
0.0
  0
INSERT
  5
AFC
330
AF6
100
AcDbEntity
  8
DIM
 62
     0
370
    -2
100
AcDbBlockReference
  2
_DOT
 10
273.7449371447317
 20
918.5008337123521
 30
0.0
 41
3.0
 42
3.0
 43
3.0
 50
180.0
  0
INSERT
  5
AFD
330
AF6
100
AcDbEntity
  8
DIM
 62
     0
370
    -2
100
AcDbBlockReference
  2
_DOT
 10
523.7449371447317
 20
918.5008337123521
 30
0.0
 41
3.0
 42
3.0
 43
3.0
  0
MTEXT
  5
AFE
330
AF6
100
AcDbEntity
  8
DIM
 62
     0
100
AcDbMText
 10
398.7449371447317
 20
934.5030845564187
 30
0.0
 40
12.0
 41
0.0
 46
0.0
 71
     5
 72
     1
  1
\A1;250
  7
ＭＳ ゴシック
 73
     1
 44
1.0
  0
POINT
  5
AFF
330
AF6
100
AcDbEntity
  8
Defpoints
 62
     0
100
AcDbPoint
 10
273.7449371447317
 20
1023.949955160448
 30
0.0
  0
POINT
  5
B00
330
AF6
100
AcDbEntity
  8
Defpoints
 62
     0
100
AcDbPoint
 10
523.7449371447317
 20
1023.949955160448
 30
0.0
  0
POINT
  5
B01
330
AF6
100
AcDbEntity
  8
Defpoints
 62
     0
100
AcDbPoint
 10
523.7449371447317
 20
918.5008337123521
 30
0.0
  0
ENDBLK
  5
AF8
330
AF6
100
AcDbEntity
  8
0
100
AcDbBlockEnd
  0
BLOCK
  5
B03
330
B02
100
AcDbEntity
  8
0
100
AcDbBlockBegin
  2
*D29
 70
     1
 10
0.0
 20
0.0
 30
0.0
  3
*D29
  1

  0
LINE
  5
B05
330
B02
100
AcDbEntity
  8
DIM
 62
     0
370
    -2
100
AcDbLine
 10
533.7449371447321
 20
1023.949955160448
 30
0.0
 11
557.4366063956243
 21
1023.949955160448
 31
0.0
  0
LINE
  5
B06
330
B02
100
AcDbEntity
  8
DIM
 62
     0
370
    -2
100
AcDbLine
 10
533.7449371447321
 20
1035.949955160447
 30
0.0
 11
557.4366063956243
 21
1035.949955160447
 31
0.0
  0
LINE
  5
B07
330
B02
100
AcDbEntity
  8
DIM
 62
     0
370
    -2
100
AcDbLine
 10
557.4366063956243
 20
1026.949955160448
 30
0.0
 11
557.4366063956243
 21
1032.949955160447
 31
0.0
  0
INSERT
  5
B08
330
B02
100
AcDbEntity
  8
DIM
 62
     0
370
    -2
100
AcDbBlockReference
  2
_DOT
 10
557.4366063956243
 20
1023.949955160448
 30
0.0
 41
3.0
 42
3.0
 43
3.0
 50
270.0
  0
INSERT
  5
B09
330
B02
100
AcDbEntity
  8
DIM
 62
     0
370
    -2
100
AcDbBlockReference
  2
_DOT
 10
557.4366063956243
 20
1035.949955160447
 30
0.0
 41
3.0
 42
3.0
 43
3.0
 50
90.0
  0
MTEXT
  5
B0A
330
B02
100
AcDbEntity
  8
DIM
 62
     0
100
AcDbMText
 10
541.4343555515577
 20
1029.949955160447
 30
0.0
 40
12.0
 41
0.0
 46
0.0
 71
     5
 72
     1
  1
\A1;10
  7
ＭＳ ゴシック
 11
0.0
 21
1.0
 31
0.0
 73
     1
 44
1.0
  0
POINT
  5
B0B
330
B02
100
AcDbEntity
  8
Defpoints
 62
     0
100
AcDbPoint
 10
523.7449371447321
 20
1023.949955160448
 30
0.0
  0
POINT
  5
B0C
330
B02
100
AcDbEntity
  8
Defpoints
 62
     0
100
AcDbPoint
 10
523.7449371447321
 20
1035.949955160447
 30
0.0
  0
POINT
  5
B0D
330
B02
100
AcDbEntity
  8
Defpoints
 62
     0
100
AcDbPoint
 10
557.4366063956243
 20
1035.949955160447
 30
0.0
  0
ENDBLK
  5
B04
330
B02
100
AcDbEntity
  8
0
100
AcDbBlockEnd
  0
BLOCK
  5
B0F
330
B0E
100
AcDbEntity
  8
0
100
AcDbBlockBegin
  2
*D30
 70
     1
 10
0.0
 20
0.0
 30
0.0
  3
*D30
  1

  0
LINE
  5
B11
330
B0E
100
AcDbEntity
  8
DIM
 62
     0
370
    -2
100
AcDbLine
 10
213.7449371447317
 20
1069.949955160447
 30
0.0
 11
213.7449371447317
 21
1136.649553515719
 31
0.0
  0
LINE
  5
B12
330
B0E
100
AcDbEntity
  8
DIM
 62
     0
370
    -2
100
AcDbLine
 10
523.7449371447321
 20
1045.949955160447
 30
0.0
 11
523.7449371447321
 21
1136.649553515719
 31
0.0
  0
LINE
  5
B13
330
B0E
100
AcDbEntity
  8
DIM
 62
     0
370
    -2
100
AcDbLine
 10
216.7449371447317
 20
1136.649553515719
 30
0.0
 11
520.7449371447321
 21
1136.649553515719
 31
0.0
  0
INSERT
  5
B14
330
B0E
100
AcDbEntity
  8
DIM
 62
     0
370
    -2
100
AcDbBlockReference
  2
_DOT
 10
213.7449371447317
 20
1136.649553515719
 30
0.0
 41
3.0
 42
3.0
 43
3.0
 50
180.0
  0
INSERT
  5
B15
330
B0E
100
AcDbEntity
  8
DIM
 62
     0
370
    -2
100
AcDbBlockReference
  2
_DOT
 10
523.7449371447321
 20
1136.649553515719
 30
0.0
 41
3.0
 42
3.0
 43
3.0
  0
MTEXT
  5
B16
330
B0E
100
AcDbEntity
  8
DIM
 62
     0
100
AcDbMText
 10
368.7449371447319
 20
1152.651804359785
 30
0.0
 40
12.0
 41
0.0
 46
0.0
 71
     5
 72
     1
  1
\A1;310
  7
ＭＳ ゴシック
 73
     1
 44
1.0
  0
POINT
  5
B17
330
B0E
100
AcDbEntity
  8
Defpoints
 62
     0
100
AcDbPoint
 10
213.7449371447317
 20
1059.949955160447
 30
0.0
  0
POINT
  5
B18
330
B0E
100
AcDbEntity
  8
Defpoints
 62
     0
100
AcDbPoint
 10
523.7449371447321
 20
1035.949955160447
 30
0.0
  0
POINT
  5
B19
330
B0E
100
AcDbEntity
  8
Defpoints
 62
     0
100
AcDbPoint
 10
523.7449371447321
 20
1136.649553515719
 30
0.0
  0
ENDBLK
  5
B10
330
B0E
100
AcDbEntity
  8
0
100
AcDbBlockEnd
  0
BLOCK
  5
B1B
330
B1A
100
AcDbEntity
  8
0
100
AcDbBlockBegin
  2
*D31
 70
     1
 10
0.0
 20
0.0
 30
0.0
  3
*D31
  1

  0
LINE
  5
B1D
330
B1A
100
AcDbEntity
  8
DIM
 62
     0
370
    -2
100
AcDbLine
 10
213.7449371447317
 20
1069.949955160447
 30
0.0
 11
213.7449371447317
 21
1100.224777434687
 31
0.0
  0
LINE
  5
B1E
330
B1A
100
AcDbEntity
  8
DIM
 62
     0
370
    -2
100
AcDbLine
 10
393.7449371447317
 20
1069.949955160447
 30
0.0
 11
393.7449371447317
 21
1100.224777434687
 31
0.0
  0
LINE
  5
B1F
330
B1A
100
AcDbEntity
  8
DIM
 62
     0
370
    -2
100
AcDbLine
 10
216.7449371447317
 20
1100.224777434687
 30
0.0
 11
390.7449371447317
 21
1100.224777434687
 31
0.0
  0
INSERT
  5
B20
330
B1A
100
AcDbEntity
  8
DIM
 62
     0
370
    -2
100
AcDbBlockReference
  2
_DOT
 10
213.7449371447317
 20
1100.224777434687
 30
0.0
 41
3.0
 42
3.0
 43
3.0
 50
180.0
  0
INSERT
  5
B21
330
B1A
100
AcDbEntity
  8
DIM
 62
     0
370
    -2
100
AcDbBlockReference
  2
_DOT
 10
393.7449371447317
 20
1100.224777434687
 30
0.0
 41
3.0
 42
3.0
 43
3.0
  0
MTEXT
  5
B22
330
B1A
100
AcDbEntity
  8
DIM
 62
     0
100
AcDbMText
 10
303.7449371447317
 20
1116.227028278754
 30
0.0
 40
12.0
 41
0.0
 46
0.0
 71
     5
 72
     1
  1
\A1;180
  7
ＭＳ ゴシック
 73
     1
 44
1.0
  0
POINT
  5
B23
330
B1A
100
AcDbEntity
  8
Defpoints
 62
     0
100
AcDbPoint
 10
213.7449371447317
 20
1059.949955160447
 30
0.0
  0
POINT
  5
B24
330
B1A
100
AcDbEntity
  8
Defpoints
 62
     0
100
AcDbPoint
 10
393.7449371447317
 20
1059.949955160447
 30
0.0
  0
POINT
  5
B25
330
B1A
100
AcDbEntity
  8
Defpoints
 62
     0
100
AcDbPoint
 10
393.7449371447317
 20
1100.224777434687
 30
0.0
  0
ENDBLK
  5
B1C
330
B1A
100
AcDbEntity
  8
0
100
AcDbBlockEnd
  0
BLOCK
  5
B27
330
B26
100
AcDbEntity
  8
0
100
AcDbBlockBegin
  2
*D32
 70
     1
 10
0.0
 20
0.0
 30
0.0
  3
*D32
  1

  0
LINE
  5
B29
330
B26
100
AcDbEntity
  8
DIM
 62
     0
370
    -2
100
AcDbLine
 10
203.7449371447317
 20
999.9499551604475
 30
0.0
 11
173.0758959723628
 21
999.9499551604475
 31
0.0
  0
LINE
  5
B2A
330
B26
100
AcDbEntity
  8
DIM
 62
     0
370
    -2
100
AcDbLine
 10
203.7449371447317
 20
1059.949955160447
 30
0.0
 11
173.0758959723628
 21
1059.949955160447
 31
0.0
  0
LINE
  5
B2B
330
B26
100
AcDbEntity
  8
DIM
 62
     0
370
    -2
100
AcDbLine
 10
173.0758959723628
 20
1002.949955160448
 30
0.0
 11
173.0758959723628
 21
1056.949955160447
 31
0.0
  0
INSERT
  5
B2C
330
B26
100
AcDbEntity
  8
DIM
 62
     0
370
    -2
100
AcDbBlockReference
  2
_DOT
 10
173.0758959723628
 20
999.9499551604475
 30
0.0
 41
3.0
 42
3.0
 43
3.0
 50
270.0
  0
INSERT
  5
B2D
330
B26
100
AcDbEntity
  8
DIM
 62
     0
370
    -2
100
AcDbBlockReference
  2
_DOT
 10
173.0758959723628
 20
1059.949955160447
 30
0.0
 41
3.0
 42
3.0
 43
3.0
 50
90.0
  0
MTEXT
  5
B2E
330
B26
100
AcDbEntity
  8
DIM
 62
     0
100
AcDbMText
 10
157.0758959723628
 20
1029.949955160447
 30
0.0
 40
12.0
 41
0.0
 46
0.0
 71
     5
 72
     1
  1
\A1;60
  7
ＭＳ ゴシック
 11
0.0
 21
1.0
 31
0.0
 73
     1
 44
1.0
  0
POINT
  5
B2F
330
B26
100
AcDbEntity
  8
Defpoints
 62
     0
100
AcDbPoint
 10
213.7449371447317
 20
999.9499551604475
 30
0.0
  0
POINT
  5
B30
330
B26
100
AcDbEntity
  8
Defpoints
 62
     0
100
AcDbPoint
 10
213.7449371447317
 20
1059.949955160447
 30
0.0
  0
POINT
  5
B31
330
B26
100
AcDbEntity
  8
Defpoints
 62
     0
100
AcDbPoint
 10
173.0758959723628
 20
1059.949955160447
 30
0.0
  0
ENDBLK
  5
B28
330
B26
100
AcDbEntity
  8
0
100
AcDbBlockEnd
  0
ENDSEC
  0
SECTION
  2
ENTITIES
  0
MTEXT
  5
998
330
1F
100
AcDbEntity
  8
TEMPLATE
390
F
100
AcDbMText
 10
39.60107227386538
 20
171.8658758157141
 30
0.0
 40
8.144205729166663
 41
0.0
 46
0.0
 71
     1
 72
     1
  1
品名
  7
ＭＳ ゴシック
 73
     1
 44
0.7828267384257843
  0
MTEXT
  5
999
330
1F
100
AcDbEntity
  8
TEMPLATE
390
F
100
AcDbMText
 10
39.60107227386538
 20
129.365875815714
 30
0.0
 40
8.144205729166663
 41
0.0
 46
0.0
 71
     1
 72
     1
  1
仕様
  7
ＭＳ ゴシック
 73
     1
 44
0.7828267384257843
  0
LINE
  5
99A
330
1F
100
AcDbEntity
  8
TEMPLATE
390
F
100
AcDbLine
 10
1011.101072273624
 20
133.5733367532142
 30
0.0
 11
36.10107227362437
 21
133.5733367532142
 31
0.0
  0
LWPOLYLINE
  5
99B
330
1F
100
AcDbEntity
  8
TEMPLATE
390
F
100
AcDbPolyline
 90
        5
 70
   128
 43
0.0
 10
1011.101072273624
 20
1448.573336753213
 10
36.10107227362437
 20
1448.573336753213
 10
36.10107227362437
 20
48.57333675321413
 10
1011.101072273624
 20
48.57333675321413
 10
1011.101072273624
 20
1448.573336753213
  0
LINE
  5
99C
330
1F
100
AcDbEntity
  8
TEMPLATE
390
F
100
AcDbLine
 10
1011.101072273624
 20
176.0733367532141
 30
0.0
 11
36.10107227362437
 21
176.0733367532141
 31
0.0
  0
LINE
  5
99D
330
1F
100
AcDbEntity
  8
TEMPLATE
390
F
100
AcDbLine
 10
1011.101072273866
 20
91.07333675321412
 30
0.0
 11
634.6010722738652
 21
91.07333675321412
 31
0.0
  0
MTEXT
  5
99E
330
1F
100
AcDbEntity
  8
TEMPLATE
390
F
100
AcDbMText
 10
649.5367753999958
 20
76.11813951656006
 30
0.0
 40
12.21630859375
 41
0.0
 46
0.0
 71
     1
 72
     1
  1
大洋金物株式会社 ティーフォルム事業部
  7
ＭＳ ゴシック
 73
     1
 44
0.7828267384257843
  0
MTEXT
  5
99F
330
1F
100
AcDbEntity
  8
TEMPLATE
390
F
100
AcDbMText
 10
915.6010722739952
 20
115.0746453469641
 30
0.0
 40
12.21630859375
 41
0.0
 46
12.21630859375
 71
     1
 72
     1
  1
{1:5}
  7
ＭＳ ゴシック
 73
     1
 44
0.7828267384257843
1001
ACAD
1000
ACAD_MTEXT_DEFINED_HEIGHT_BEGIN
1070
    46
1040
12.21630859375
1000
ACAD_MTEXT_DEFINED_HEIGHT_END
  0
MTEXT
  5
9A0
330
1F
100
AcDbEntity
  8
TEMPLATE
390
F
100
AcDbMText
 10
889.1010722739952
 20
129.365875815714
 30
0.0
 40
8.144205729166663
 41
0.0
 46
0.0
 71
     1
 72
     1
  1
縮尺
  7
ＭＳ ゴシック
 73
     1
 44
0.7828267384257843
  0
LINE
  5
9A1
330
1F
100
AcDbEntity
  8
TEMPLATE
390
F
100
AcDbLine
 10
885.6010722739952
 20
91.07333675321412
 30
0.0
 11
885.6010722739952
 21
133.5733367532142
 31
0.0
  0
MTEXT
  5
9A2
330
1F
100
AcDbEntity
  8
TEMPLATE
390
F
100
AcDbMText
 10
763.6010722739952
 20
129.365875815714
 30
0.0
 40
8.144205729166663
 41
0.0
 46
0.0
 71
     1
 72
     1
  1
容量
  7
ＭＳ ゴシック
 73
     1
 44
0.7828267384257843
  0
LINE
  5
9A3
330
1F
100
AcDbEntity
  8
TEMPLATE
390
F
100
AcDbLine
 10
760.1010722739952
 20
91.07333675321412
 30
0.0
 11
760.1010722739952
 21
133.5733367532142
 31
0.0
  0
MTEXT
  5
9A4
330
1F
100
AcDbEntity
  8
TEMPLATE
390
F
100
AcDbMText
 10
638.1010722739952
 20
171.8658758157141
 30
0.0
 40
8.144205729166663
 41
0.0
 46
0.0
 71
     1
 72
     1
  1
品番
  7
ＭＳ ゴシック
 73
     1
 44
0.7828267384257843
  0
MTEXT
  5
9A5
330
1F
100
AcDbEntity
  8
TEMPLATE
390
F
100
AcDbMText
 10
638.1010722739952
 20
129.365875815714
 30
0.0
 40
8.144205729166663
 41
0.0
 46
0.0
 71
     1
 72
     1
  1
重量
  7
ＭＳ ゴシック
 73
     1
 44
0.7828267384257843
  0
LINE
  5
9A6
330
1F
100
AcDbEntity
  8
TEMPLATE
390
F
100
AcDbLine
 10
634.6010722739952
 20
48.57333675321413
 30
0.0
 11
634.6010722739952
 21
176.0733367532141
 31
0.0
  0
INSERT
  5
9A7
330
1F
100
AcDbEntity
  8
TEMPLATE
100
AcDbBlockReference
  2
名称未設定-1
 10
935.3753740442248
 20
12.97338287832691
 30
0.0
 41
0.3809999999999999
 42
0.3809999999999999
 43
0.3809999999999999
  0
LWPOLYLINE
  5
9A9
330
1F
100
AcDbEntity
  8
BORDER
100
AcDbPolyline
 90
        4
 70
     1
 43
0.0
 10
0.0
 20
0.0
 10
0.0
 20
1485.0
 10
1050.0
 20
1485.0
 10
1050.0
 20
0.0
  0
MTEXT
  5
9AB
330
1F
100
AcDbEntity
  8
TEMPLATE
390
F
100
AcDbMText
 10
664.6010722739952
 20
157.5746453469641
 30
0.0
 40
12.21630859375
 41
0.0
 46
12.21630859375
 71
     1
 72
     1
  1
{{\C7;AGN73-2908}}
  7
ＭＳ ゴシック
 73
     1
 44
0.7828267384257843
1001
ACAD
1000
ACAD_MTEXT_DEFINED_HEIGHT_BEGIN
1070
    46
1040
12.21630859375
1000
ACAD_MTEXT_DEFINED_HEIGHT_END
  0
MTEXT
  5
9AC
330
1F
100
AcDbEntity
  8
TEMPLATE
390
F
100
AcDbMText
 10
66.10107227386538
 20
157.5746453469641
 30
0.0
 40
12.21630859375
 41
0.0
 46
13.76777978515625
 71
     1
 72
     1
  1
{{\C7;吐水口 -FANTINI,Milano-}}
  7
ＭＳ ゴシック
 73
     1
 44
0.7828267384257843
1001
ACAD
1000
ACAD_MTEXT_DEFINED_HEIGHT_BEGIN
1070
    46
1040
13.76777978515625
1000
ACAD_MTEXT_DEFINED_HEIGHT_END
  0
MTEXT
  5
9AD
102
{ACAD_XDICTIONARY
360
9AE
102
}
330
1F
100
AcDbEntity
  8
TEMPLATE
100
AcDbMText
 10
37.3643282742853
 20
41.93086052571419
 30
0.0
 40
11.0
 41
0.0
 46
11.0
 71
     1
 72
     1
  1
{20210902N}
  7
ＭＳ ゴシック
 73
     1
 44
1.0
1001
ACAD
1000
ACAD_MTEXT_DEFINED_HEIGHT_BEGIN
1070
    46
1040
11.0
1000
ACAD_MTEXT_DEFINED_HEIGHT_END
  0
LINE
  5
9B2
330
1F
100
AcDbEntity
  8
MODEL
100
AcDbLine
 10
265.7743743962544
 20
974.949955160448
 30
0.0
 11
250.7449371447317
 21
974.949955160448
 31
0.0
  0
LINE
  5
9B3
330
1F
100
AcDbEntity
  8
MODEL
100
AcDbLine
 10
265.7743743962549
 20
1084.949955160447
 30
0.0
 11
250.7449371447317
 21
1084.949955160447
 31
0.0
  0
ARC
  5
9B4
330
1F
100
AcDbEntity
  8
MODEL
100
AcDbCircle
 10
-330.96066589727
 20
1087.449955160447
 30
0.0
 40
19.99999999999999
210
0.0
220
0.0
230
-1.0
100
AcDbArc
 50
225.0000000001127
 51
270.0
  0
ARC
  5
9B5
330
1F
100
AcDbEntity
  8
MODEL
100
AcDbCircle
 10
296.5292083921938
 20
1087.449955160447
 30
0.0
 40
20.0
100
AcDbArc
 50
225.0000000001128
 51
270.0
  0
LINE
  5
9B6
330
1F
100
AcDbEntity
  8
MODEL
100
AcDbLine
 10
388.7449371447317
 20
1072.949955160447
 30
0.0
 11
388.7449371447317
 21
1061.348878134913
 31
0.0
  0
ARC
  5
9B7
330
1F
100
AcDbEntity
  8
MODEL
100
AcDbCircle
 10
-376.7449371447317
 20
986.949955160448
 30
0.0
 40
12.0
210
0.0
220
0.0
230
-1.0
100
AcDbArc
 50
180.0000000006709
 51
270.0000000004473
  0
ARC
  5
9B8
330
1F
100
AcDbEntity
  8
MODEL
100
AcDbCircle
 10
-361.715499893209
 20
986.949955160448
 30
0.0
 40
12.0
210
0.0
220
0.0
230
-1.0
100
AcDbArc
 50
270.0000000004473
 51
315.000000000331
  0
ARC
  5
9B9
330
1F
100
AcDbEntity
  8
MODEL
100
AcDbCircle
 10
-265.7743743962544
 20
986.949955160448
 30
0.0
 40
12.0
210
0.0
220
0.0
230
-1.0
100
AcDbArc
 50
225.0000000005625
 51
270.0000000004451
  0
LINE
  5
9BA
330
1F
100
AcDbEntity
  8
MODEL
100
AcDbLine
 10
376.7449371447317
 20
974.949955160448
 30
0.0
 11
361.715499893209
 21
974.949955160448
 31
0.0
  0
LINE
  5
9BB
330
1F
100
AcDbEntity
  8
MODEL
100
AcDbLine
 10
296.5292083921938
 20
1067.449955160447
 30
0.0
 11
330.96066589727
 21
1067.449955160447
 31
0.0
  0
LINE
  5
9BC
330
1F
100
AcDbEntity
  8
MODEL
100
AcDbLine
 10
296.5292083921938
 20
992.449955160448
 30
0.0
 11
330.9606658972696
 21
992.449955160448
 31
0.0
  0
LINE
  5
9BD
330
1F
100
AcDbEntity
  8
MODEL
100
AcDbLine
 10
388.7449371447317
 20
1072.949955160447
 30
0.0
 11
388.7449371447317
 21
1059.949955160447
 31
0.0
  0
ARC
  5
9BE
330
1F
100
AcDbEntity
  8
MODEL
100
AcDbCircle
 10
330.9606658972696
 20
972.449955160448
 30
0.0
 40
19.99999999999999
100
AcDbArc
 50
45.00000000011008
 51
90.0
  0
LINE
  5
9BF
330
1F
100
AcDbEntity
  8
MODEL
100
AcDbLine
 10
345.1028015210006
 20
986.592090784179
 30
0.0
 11
353.2302185189703
 21
978.4646737862093
 31
0.0
  0
ARC
  5
9C0
330
1F
100
AcDbEntity
  8
MODEL
100
AcDbCircle
 10
-296.5292083921938
 20
972.449955160448
 30
0.0
 40
19.99999999999999
210
0.0
220
0.0
230
-1.0
100
AcDbArc
 50
45.00000000011158
 51
90.0
  0
LINE
  5
9C1
330
1F
100
AcDbEntity
  8
MODEL
100
AcDbLine
 10
274.2596557704931
 20
978.4646737862093
 30
0.0
 11
282.3870727684628
 21
986.592090784179
 31
0.0
  0
ARC
  5
9C2
330
1F
100
AcDbEntity
  8
MODEL
100
AcDbCircle
 10
-361.715499893209
 20
1072.949955160447
 30
0.0
 40
12.0
210
0.0
220
0.0
230
-1.0
100
AcDbArc
 50
45.00000000011266
 51
90.0
  0
LINE
  5
9C3
330
1F
100
AcDbEntity
  8
MODEL
100
AcDbLine
 10
376.7449371447317
 20
1084.949955160447
 30
0.0
 11
361.715499893209
 21
1084.949955160447
 31
0.0
  0
ARC
  5
9C4
330
1F
100
AcDbEntity
  8
MODEL
100
AcDbCircle
 10
-376.7449371447317
 20
1072.949955160447
 30
0.0
 40
12.0
210
0.0
220
0.0
230
-1.0
100
AcDbArc
 50
90.0
 51
179.9999999997785
  0
LINE
  5
9C5
330
1F
100
AcDbEntity
  8
MODEL
100
AcDbLine
 10
353.2302185189703
 20
1081.435236534686
 30
0.0
 11
345.1028015210011
 21
1073.307819536716
 31
0.0
  0
LINE
  5
9C6
330
1F
100
AcDbEntity
  8
MODEL
100
AcDbLine
 10
282.3870727684628
 20
1073.307819536716
 30
0.0
 11
274.2596557704935
 21
1081.435236534686
 31
0.0
  0
ARC
  5
9C7
330
1F
100
AcDbEntity
  8
MODEL
100
AcDbCircle
 10
-265.7743743962549
 20
1072.949955160447
 30
0.0
 40
11.99999999999999
210
0.0
220
0.0
230
-1.0
100
AcDbArc
 50
90.0
 51
134.9999999998873
  0
LINE
  5
9C8
330
1F
100
AcDbEntity
  8
MODEL
100
AcDbLine
 10
238.7449371447317
 20
1072.949955160447
 30
0.0
 11
238.7449371447317
 21
1061.348878134913
 31
0.0
  0
ARC
  5
9C9
330
1F
100
AcDbEntity
  8
MODEL
100
AcDbCircle
 10
-250.7449371447317
 20
986.949955160448
 30
0.0
 40
12.0
210
0.0
220
0.0
230
-1.0
100
AcDbArc
 50
270.0000000004473
 51
0.0000000002214684
  0
LINE
  5
9CA
330
1F
100
AcDbEntity
  8
MODEL
100
AcDbLine
 10
238.7449371447317
 20
986.949955160448
 30
0.0
 11
238.7449371447317
 21
999.9499551604475
 31
0.0
  0
LINE
  5
9CB
330
1F
100
AcDbEntity
  8
MODEL
100
AcDbLine
 10
238.7449371447317
 20
1061.348878134913
 30
0.0
 11
238.7449371447317
 21
1059.949955160447
 31
0.0
  0
ARC
  5
9CC
330
1F
100
AcDbEntity
  8
MODEL
100
AcDbCircle
 10
-250.7449371447317
 20
1072.949955160447
 30
0.0
 40
12.0
210
0.0
220
0.0
230
-1.0
100
AcDbArc
 50
0.0000000002214684
 51
90.0
  0
LINE
  5
9CD
102
{ACAD_REACTORS
330
A96
102
}
330
1F
100
AcDbEntity
  8
MODEL
100
AcDbLine
 10
393.7449371447317
 20
1059.949955160447
 30
0.0
 11
233.7449371447317
 21
1059.949955160447
 31
0.0
  0
LINE
  5
9CE
330
1F
100
AcDbEntity
  8
MODEL
100
AcDbLine
 10
233.7449371447317
 20
999.9499551604475
 30
0.0
 11
238.7449371447317
 21
999.9499551604475
 31
0.0
  0
LINE
  5
9CF
330
1F
100
AcDbEntity
  8
MODEL
100
AcDbLine
 10
388.7449371447317
 20
999.9499551604475
 30
0.0
 11
388.7449371447317
 21
986.949955160448
 31
0.0
  0
LINE
  5
9D0
330
1F
100
AcDbEntity
  8
MODEL
100
AcDbLine
 10
327.5336062307763
 20
999.9499551604475
 30
0.0
 11
393.7449371447317
 21
999.9499551604475
 31
0.0
  0
LINE
  5
9D1
102
{ACAD_REACTORS
330
A99
102
}
330
1F
100
AcDbEntity
  8
MODEL
100
AcDbLine
 10
393.7449371447317
 20
999.9499551604475
 30
0.0
 11
213.7449371447317
 21
999.9499551604475
 31
0.0
  0
LINE
  5
9D2
102
{ACAD_REACTORS
330
A93
330
A96
330
A99
102
}
330
1F
100
AcDbEntity
  8
MODEL
100
AcDbLine
 10
213.7449371447317
 20
1059.949955160447
 30
0.0
 11
393.7449371447317
 21
1059.949955160447
 31
0.0
  0
LINE
  5
9D3
330
1F
100
AcDbEntity
  8
MODEL
100
AcDbLine
 10
523.7449371447321
 20
1035.949955160447
 30
0.0
 11
273.7449371447317
 21
1035.949955160447
 31
0.0
  0
LINE
  5
9D4
330
1F
100
AcDbEntity
  8
MODEL
100
AcDbLine
 10
273.7449371447317
 20
1035.949955160447
 30
0.0
 11
273.7449371447317
 21
1023.949955160448
 31
0.0
  0
LINE
  5
9D5
330
1F
100
AcDbEntity
  8
MODEL
100
AcDbLine
 10
273.7449371447317
 20
1023.949955160448
 30
0.0
 11
523.7449371447321
 21
1023.949955160448
 31
0.0
  0
LINE
  5
9D6
102
{ACAD_REACTORS
330
A90
330
A93
102
}
330
1F
100
AcDbEntity
  8
MODEL
100
AcDbLine
 10
523.7449371447321
 20
1023.949955160448
 30
0.0
 11
523.7449371447321
 21
1035.949955160447
 31
0.0
  0
LINE
  5
9D7
330
1F
100
AcDbEntity
  8
MODEL
100
AcDbLine
 10
393.7449371447317
 20
999.9499551604475
 30
0.0
 11
393.7449371447317
 21
1023.949955160448
 31
0.0
  0
LINE
  5
9D8
330
1F
100
AcDbEntity
  8
MODEL
100
AcDbLine
 10
213.7449371447317
 20
999.9499551604475
 30
0.0
 11
213.7449371447317
 21
1059.949955160447
 31
0.0
  0
LINE
  5
9D9
330
1F
100
AcDbEntity
  8
MODEL
100
AcDbLine
 10
888.1968524312397
 20
1024.449955036882
 30
0.0
 11
738.1968524312397
 21
1024.449955036882
 31
0.0
  0
LINE
  5
9DA
330
1F
100
AcDbEntity
  8
MODEL
100
AcDbLine
 10
738.1968524312392
 20
1035.449955036882
 30
0.0
 11
888.1968524312397
 21
1035.449955036882
 31
0.0
  0
LINE
  5
9DB
330
1F
100
AcDbEntity
  8
MODEL
100
AcDbLine
 10
664.6968524312397
 20
1051.449955036882
 30
0.0
 11
728.1968524312397
 21
1051.449955036882
 31
0.0
  0
LINE
  5
9DC
330
1F
100
AcDbEntity
  8
MODEL
100
AcDbLine
 10
728.1968524312397
 20
1008.449955036882
 30
0.0
 11
664.6968524312397
 21
1008.449955036882
 31
0.0
  0
LINE
  5
9DD
330
1F
100
AcDbEntity
  8
MODEL
100
AcDbLine
 10
664.6968524312397
 20
1008.449955036882
 30
0.0
 11
664.6968524312397
 21
1051.449955036882
 31
0.0
  0
LINE
  5
9DE
330
1F
100
AcDbEntity
  8
MODEL
100
AcDbLine
 10
664.6968505550444
 20
1010.252939823842
 30
0.0
 11
664.6968543074349
 21
1049.646970249923
 31
0.0
  0
LINE
  5
9DF
330
1F
100
AcDbEntity
  8
MODEL
100
AcDbLine
 10
662.6968505550444
 20
1010.252940014347
 30
0.0
 11
662.6968543074349
 21
1049.646970440429
 31
0.0
  0
LINE
  5
9E0
330
1F
100
AcDbEntity
  8
MODEL
100
AcDbLine
 10
664.6968524312397
 20
1008.449955036882
 30
0.0
 11
664.6968524312397
 21
1051.449955036882
 31
0.0
  0
LINE
  5
9E1
330
1F
100
AcDbEntity
  8
MODEL
100
AcDbLine
 10
655.196849440405
 20
998.551032967319
 30
0.0
 11
655.1968483353699
 21
986.949955941784
 31
0.0
  0
LINE
  5
9E2
330
1F
100
AcDbEntity
  8
MODEL
100
AcDbLine
 10
653.1968483353699
 20
986.9499561322897
 30
0.0
 11
653.196849440405
 21
998.5510331578245
 31
0.0
  0
LINE
  5
9E3
330
1F
100
AcDbEntity
  8
MODEL
100
AcDbLine
 10
653.1968466678
 20
974.9499561322897
 30
0.0
 11
653.1968478108333
 21
986.9499561322897
 31
0.0
  0
LINE
  5
9E4
330
1F
100
AcDbEntity
  8
MODEL
100
AcDbLine
 10
655.1968466678
 20
974.9499559417842
 30
0.0
 11
655.1968478108333
 21
986.9499559417842
 31
0.0
  0
LINE
  5
9E5
330
1F
100
AcDbEntity
  8
MODEL
100
AcDbLine
 10
655.1968466678
 20
974.9499559417842
 30
0.0
 11
653.1968466678
 21
974.9499561322897
 31
0.0
  0
LINE
  5
9E6
330
1F
100
AcDbEntity
  8
MODEL
100
AcDbLine
 10
655.1968483353699
 20
986.949955941784
 30
0.0
 11
653.1968483353699
 21
986.9499561322897
 31
0.0
  0
ARC
  5
9E7
330
1F
100
AcDbEntity
  8
MODEL
100
AcDbCircle
 10
658.196849440405
 20
998.5510326815607
 30
0.0
 40
3.0
100
AcDbArc
 50
129.9999945423256
 51
179.9999945421896
  0
LINE
  5
9E8
330
1F
100
AcDbEntity
  8
MODEL
100
AcDbLine
 10
654.9829117568115
 20
1002.381255203292
 30
0.0
 11
661.6252131652004
 21
1007.954806787067
 31
0.0
  0
ARC
  5
9E9
330
1F
100
AcDbEntity
  8
MODEL
100
AcDbCircle
 10
-658.196849440405
 20
998.5510326815607
 30
0.0
 40
4.999999999999999
210
0.0
220
0.0
230
-1.0
100
AcDbArc
 50
0.0000054575802388
 51
50.00000545745218
  0
LINE
  5
9EA
330
1F
100
AcDbEntity
  8
MODEL
100
AcDbLine
 10
662.9107882386375
 20
1006.422717778374
 30
0.0
 11
656.268486830249
 21
1000.849166194599
 31
0.0
  0
ARC
  5
9EB
330
1F
100
AcDbEntity
  8
MODEL
100
AcDbCircle
 10
659.6968505550444
 20
1010.252940300105
 30
0.0
 40
5.000000000000003
100
AcDbArc
 50
309.9999945424136
 51
359.9999945422973
  0
ARC
  5
9EC
330
1F
100
AcDbEntity
  8
MODEL
100
AcDbCircle
 10
659.6968505550444
 20
1010.252940300105
 30
0.0
 40
3.000000000000002
100
AcDbArc
 50
309.9999945418738
 51
359.9999945417467
  0
LINE
  5
9ED
330
1F
100
AcDbEntity
  8
MODEL
100
AcDbLine
 10
653.196856002573
 20
1072.949956132289
 30
0.0
 11
653.1968571456064
 21
1084.949956132289
 31
0.0
  0
LINE
  5
9EE
330
1F
100
AcDbEntity
  8
MODEL
100
AcDbLine
 10
655.196856002573
 20
1072.949955941784
 30
0.0
 11
655.1968571456064
 21
1084.949955941784
 31
0.0
  0
LINE
  5
9EF
330
1F
100
AcDbEntity
  8
MODEL
100
AcDbLine
 10
656.2684923741112
 20
1059.050745484815
 30
0.0
 11
662.9107927207074
 21
1053.477192635645
 31
0.0
  0
ARC
  5
9F0
330
1F
100
AcDbEntity
  8
MODEL
100
AcDbCircle
 10
-658.1968554220743
 20
1061.34887863049
 30
0.0
 40
4.999999999999996
210
0.0
220
0.0
230
-1.0
100
AcDbArc
 50
310.0000054575755
 51
0.0000054574603853
  0
LINE
  5
9F1
330
1F
100
AcDbEntity
  8
MODEL
100
AcDbLine
 10
661.6252173553985
 20
1051.945103871862
 30
0.0
 11
654.9829170088028
 21
1057.518656721032
 31
0.0
  0
ARC
  5
9F2
330
1F
100
AcDbEntity
  8
MODEL
100
AcDbCircle
 10
659.6968543074349
 20
1049.646970726187
 30
0.0
 40
2.999999999999999
100
AcDbArc
 50
359.9999945417423
 51
49.99999454161622
  0
ARC
  5
9F3
330
1F
100
AcDbEntity
  8
MODEL
100
AcDbCircle
 10
-659.6968543074349
 20
1049.646970726187
 30
0.0
 40
5.000000000000002
210
0.0
220
0.0
230
-1.0
100
AcDbArc
 50
130.0000054575885
 51
180.0000054574604
  0
ARC
  5
9F4
330
1F
100
AcDbEntity
  8
MODEL
100
AcDbCircle
 10
658.1968554220743
 20
1061.34887863049
 30
0.0
 40
3.0
100
AcDbArc
 50
179.9999945421852
 51
229.9999945420694
  0
LINE
  5
9F5
330
1F
100
AcDbEntity
  8
MODEL
100
AcDbLine
 10
655.1968565271095
 20
1072.949955941784
 30
0.0
 11
653.1968565271095
 21
1072.949956132289
 31
0.0
  0
LINE
  5
9F6
330
1F
100
AcDbEntity
  8
MODEL
100
AcDbLine
 10
655.1968565271095
 20
1072.949955941784
 30
0.0
 11
655.1968554220743
 21
1061.348878916249
 31
0.0
  0
LINE
  5
9F7
330
1F
100
AcDbEntity
  8
MODEL
100
AcDbLine
 10
653.1968554220743
 20
1061.348879106754
 30
0.0
 11
653.1968565271095
 21
1072.949956132289
 31
0.0
  0
LINE
  5
9F8
330
1F
100
AcDbEntity
  8
MODEL
100
AcDbLine
 10
655.1968571456064
 20
1084.949955941784
 30
0.0
 11
653.1968571456064
 21
1084.949956132289
 31
0.0
  0
LINE
  5
9F9
330
1F
100
AcDbEntity
  8
MODEL
100
AcDbLine
 10
728.1968524312397
 20
1051.449955036882
 30
0.0
 11
728.1968524312397
 21
1008.449955036882
 31
0.0
  0
LINE
  5
9FA
330
1F
100
AcDbEntity
  8
MODEL
100
AcDbLine
 10
738.1968524312397
 20
1035.449955036882
 30
0.0
 11
738.1968524312397
 21
1059.949955036882
 31
0.0
  0
LINE
  5
9FB
330
1F
100
AcDbEntity
  8
MODEL
100
AcDbLine
 10
728.1968524312397
 20
1051.449955036882
 30
0.0
 11
728.1968524312397
 21
1008.449955036882
 31
0.0
  0
LINE
  5
9FC
330
1F
100
AcDbEntity
  8
MODEL
100
AcDbLine
 10
728.1968524312397
 20
1059.949955036882
 30
0.0
 11
728.1968524312397
 21
999.9499550368824
 31
0.0
  0
LINE
  5
9FD
330
1F
100
AcDbEntity
  8
MODEL
100
AcDbLine
 10
728.1968524312397
 20
999.9499550368824
 30
0.0
 11
738.1968524312397
 21
999.9499550368824
 31
0.0
  0
LINE
  5
9FE
330
1F
100
AcDbEntity
  8
MODEL
100
AcDbLine
 10
728.1968524312397
 20
1008.449955036882
 30
0.0
 11
728.1968524312397
 21
960.2661697203649
 31
0.0
  0
HATCH
  5
9FF
330
1F
100
AcDbEntity
  8
MODEL
100
AcDbHatch
 10
0.0
 20
0.0
 30
0.0
210
0.0
220
0.0
230
1.0
  2
ANSI31
 70
     0
 71
     0
 91
        1
 92
        7
 72
     0
 73
     1
 93
        4
 10
718.1968524312397
 20
1008.449955036882
 10
728.1968524312397
 20
1008.449955036882
 10
728.1968524312397
 20
960.2661697203649
 10
718.1968524312397
 20
960.2661697203649
 97
        0
 75
     0
 76
     1
 52
90.00000000000001
 41
20.0
 77
     0
 78
     1
 53
135.0
 43
517.0181457359834
 44
352.2739640283132
 45
-1.767766952966369
 46
-1.767766952966369
 79
     0
 47
0.2694253859278311
 98
        1
 10
723.0876796793814
 20
983.9756037059075
  0
LINE
  5
A00
330
1F
100
AcDbEntity
  8
MODEL
100
AcDbLine
 10
728.1968524312397
 20
1024.449955036882
 30
0.0
 11
728.1968524312397
 21
1035.449955036882
 31
0.0
  0
LINE
  5
A01
330
1F
100
AcDbEntity
  8
MODEL
100
AcDbLine
 10
738.1968524312397
 20
1007.949955036882
 30
0.0
 11
738.1968524312397
 21
1024.449955036882
 31
0.0
  0
LINE
  5
A02
330
1F
100
AcDbEntity
  8
MODEL
100
AcDbLine
 10
738.1968524312397
 20
999.9499550368824
 30
0.0
 11
738.1968524312397
 21
1035.449955036882
 31
0.0
  0
LINE
  5
A03
102
{ACAD_REACTORS
330
A8C
102
}
330
1F
100
AcDbEntity
  8
MODEL
100
AcDbLine
 10
738.1968524312397
 20
1059.949955036882
 30
0.0
 11
728.1968524312397
 21
1059.949955036882
 31
0.0
  0
HATCH
  5
A04
330
1F
100
AcDbEntity
  8
MODEL
100
AcDbHatch
 10
0.0
 20
0.0
 30
0.0
210
0.0
220
0.0
230
1.0
  2
ANSI31
 70
     0
 71
     0
 91
        1
 92
        7
 72
     0
 73
     1
 93
        4
 10
718.1968524312397
 20
1051.449955036882
 10
728.1968524312397
 20
1051.449955036882
 10
728.1968524312397
 20
1099.6337403534
 10
718.1968524312397
 20
1099.6337403534
 97
        0
 75
     0
 76
     1
 52
90.00000000000001
 41
20.0
 77
     0
 78
     1
 53
135.0
 43
517.0181457359834
 44
352.2739640283132
 45
-1.767766952966369
 46
-1.767766952966369
 79
     0
 47
0.2694253859278311
 98
        1
 10
723.0876796793814
 20
1075.924306367857
  0
LINE
  5
A05
330
1F
100
AcDbEntity
  8
MODEL
100
AcDbLine
 10
728.1968524312397
 20
1051.449955036882
 30
0.0
 11
728.1968524312397
 21
1099.6337403534
 31
0.0
  0
LINE
  5
A06
330
1F
100
AcDbEntity
  8
MODEL
100
AcDbLine
 10
888.1968524312397
 20
1035.449955036882
 30
0.0
 11
888.1968524312397
 21
1024.449955036882
 31
0.0
  0
CIRCLE
  5
A07
330
1F
100
AcDbEntity
  8
MODEL
100
AcDbCircle
 10
679.6968524312401
 20
1029.949955047273
 30
0.0
 40
9.5
  0
ARC
  5
A08
330
1F
100
AcDbEntity
  8
MODEL
100
AcDbCircle
 10
679.6968524312397
 20
1029.949955212315
 30
0.0
 40
10.5
100
AcDbArc
 50
270.0
 51
179.9999999459667
  0
LINE
  5
A09
330
1F
100
AcDbEntity
  8
MODEL
100
AcDbLine
 10
265.7743743962544
 20
486.363534638528
 30
0.0
 11
250.7449371447317
 21
486.363534638528
 31
0.0
  0
LINE
  5
A0A
330
1F
100
AcDbEntity
  8
MODEL
100
AcDbLine
 10
265.7743743962549
 20
596.3635346385275
 30
0.0
 11
250.7449371447317
 21
596.3635346385275
 31
0.0
  0
ARC
  5
A0B
330
1F
100
AcDbEntity
  8
MODEL
100
AcDbCircle
 10
-330.96066589727
 20
598.8635346385275
 30
0.0
 40
19.99999999999999
210
0.0
220
0.0
230
-1.0
100
AcDbArc
 50
225.0000000001128
 51
270.0
  0
ARC
  5
A0C
330
1F
100
AcDbEntity
  8
MODEL
100
AcDbCircle
 10
296.5292083921938
 20
598.8635346385275
 30
0.0
 40
20.0
100
AcDbArc
 50
225.0000000001128
 51
270.0
  0
LINE
  5
A0D
330
1F
100
AcDbEntity
  8
MODEL
100
AcDbLine
 10
388.7449371447317
 20
584.3635346385275
 30
0.0
 11
388.7449371447317
 21
572.7624576129928
 31
0.0
  0
ARC
  5
A0E
330
1F
100
AcDbEntity
  8
MODEL
100
AcDbCircle
 10
-376.7449371447317
 20
498.363534638528
 30
0.0
 40
12.0
210
0.0
220
0.0
230
-1.0
100
AcDbArc
 50
180.0000000006709
 51
270.0000000004473
  0
ARC
  5
A0F
330
1F
100
AcDbEntity
  8
MODEL
100
AcDbCircle
 10
-361.715499893209
 20
498.363534638528
 30
0.0
 40
12.0
210
0.0
220
0.0
230
-1.0
100
AcDbArc
 50
270.0000000004473
 51
315.0000000003307
  0
ARC
  5
A10
330
1F
100
AcDbEntity
  8
MODEL
100
AcDbCircle
 10
-265.7743743962544
 20
498.363534638528
 30
0.0
 40
12.0
210
0.0
220
0.0
230
-1.0
100
AcDbArc
 50
225.0000000005629
 51
270.0000000004451
  0
LINE
  5
A11
330
1F
100
AcDbEntity
  8
MODEL
100
AcDbLine
 10
376.7449371447317
 20
486.363534638528
 30
0.0
 11
361.715499893209
 21
486.363534638528
 31
0.0
  0
LINE
  5
A12
330
1F
100
AcDbEntity
  8
MODEL
100
AcDbLine
 10
296.5292083921938
 20
578.8635346385275
 30
0.0
 11
330.96066589727
 21
578.8635346385275
 31
0.0
  0
LINE
  5
A13
330
1F
100
AcDbEntity
  8
MODEL
100
AcDbLine
 10
296.5292083921938
 20
503.863534638528
 30
0.0
 11
330.9606658972696
 21
503.863534638528
 31
0.0
  0
LINE
  5
A14
330
1F
100
AcDbEntity
  8
MODEL
100
AcDbLine
 10
388.7449371447317
 20
584.3635346385275
 30
0.0
 11
388.7449371447317
 21
571.3635346385275
 31
0.0
  0
ARC
  5
A15
330
1F
100
AcDbEntity
  8
MODEL
100
AcDbCircle
 10
330.9606658972696
 20
483.863534638528
 30
0.0
 40
19.99999999999999
100
AcDbArc
 50
45.00000000011008
 51
90.0
  0
LINE
  5
A16
330
1F
100
AcDbEntity
  8
MODEL
100
AcDbLine
 10
345.1028015210006
 20
498.0056702622591
 30
0.0
 11
353.2302185189703
 21
489.8782532642894
 31
0.0
  0
ARC
  5
A17
330
1F
100
AcDbEntity
  8
MODEL
100
AcDbCircle
 10
-296.5292083921938
 20
483.863534638528
 30
0.0
 40
19.99999999999999
210
0.0
220
0.0
230
-1.0
100
AcDbArc
 50
45.00000000011169
 51
90.0
  0
LINE
  5
A18
330
1F
100
AcDbEntity
  8
MODEL
100
AcDbLine
 10
274.2596557704931
 20
489.8782532642894
 30
0.0
 11
282.3870727684628
 21
498.0056702622591
 31
0.0
  0
ARC
  5
A19
330
1F
100
AcDbEntity
  8
MODEL
100
AcDbCircle
 10
-361.715499893209
 20
584.3635346385275
 30
0.0
 40
12.0
210
0.0
220
0.0
230
-1.0
100
AcDbArc
 50
45.00000000011323
 51
90.0
  0
LINE
  5
A1A
330
1F
100
AcDbEntity
  8
MODEL
100
AcDbLine
 10
376.7449371447317
 20
596.3635346385275
 30
0.0
 11
361.715499893209
 21
596.3635346385275
 31
0.0
  0
ARC
  5
A1B
330
1F
100
AcDbEntity
  8
MODEL
100
AcDbCircle
 10
-376.7449371447317
 20
584.3635346385275
 30
0.0
 40
12.0
210
0.0
220
0.0
230
-1.0
100
AcDbArc
 50
90.0
 51
179.9999999997785
  0
LINE
  5
A1C
330
1F
100
AcDbEntity
  8
MODEL
100
AcDbLine
 10
353.2302185189703
 20
592.8488160127662
 30
0.0
 11
345.1028015210011
 21
584.7213990147965
 31
0.0
  0
LINE
  5
A1D
330
1F
100
AcDbEntity
  8
MODEL
100
AcDbLine
 10
282.3870727684628
 20
584.7213990147965
 30
0.0
 11
274.2596557704935
 21
592.8488160127662
 31
0.0
  0
ARC
  5
A1E
330
1F
100
AcDbEntity
  8
MODEL
100
AcDbCircle
 10
-265.7743743962549
 20
584.3635346385275
 30
0.0
 40
11.99999999999999
210
0.0
220
0.0
230
-1.0
100
AcDbArc
 50
90.0
 51
134.9999999998873
  0
LINE
  5
A1F
330
1F
100
AcDbEntity
  8
MODEL
100
AcDbLine
 10
238.7449371447317
 20
584.3635346385275
 30
0.0
 11
238.7449371447317
 21
572.7624576129928
 31
0.0
  0
ARC
  5
A20
330
1F
100
AcDbEntity
  8
MODEL
100
AcDbCircle
 10
-250.7449371447317
 20
498.363534638528
 30
0.0
 40
12.0
210
0.0
220
0.0
230
-1.0
100
AcDbArc
 50
270.0000000004473
 51
0.0000000002214684
  0
LINE
  5
A21
330
1F
100
AcDbEntity
  8
MODEL
100
AcDbLine
 10
238.7449371447317
 20
498.363534638528
 30
0.0
 11
238.7449371447317
 21
509.9646116640632
 31
0.0
  0
LINE
  5
A22
330
1F
100
AcDbEntity
  8
MODEL
100
AcDbLine
 10
238.7449371447317
 20
572.7624576129928
 30
0.0
 11
238.7449371447317
 21
571.3635346385275
 31
0.0
  0
LINE
  5
A23
330
1F
100
AcDbEntity
  8
MODEL
100
AcDbLine
 10
238.7449371447317
 20
509.9646116640632
 30
0.0
 11
238.7449371447317
 21
512.2627448913435
 31
0.0
  0
ARC
  5
A24
330
1F
100
AcDbEntity
  8
MODEL
100
AcDbCircle
 10
-250.7449371447317
 20
584.3635346385275
 30
0.0
 40
12.0
210
0.0
220
0.0
230
-1.0
100
AcDbArc
 50
0.0000000002214684
 51
90.0
  0
LINE
  5
A25
330
1F
100
AcDbEntity
  8
HIDDEN
100
AcDbLine
 10
393.7449371447317
 20
571.3635346385275
 30
0.0
 11
233.7449371447317
 21
571.3635346385275
 31
0.0
  0
LINE
  5
A26
330
1F
100
AcDbEntity
  8
MODEL
100
AcDbLine
 10
388.7449371447317
 20
511.3635346385275
 30
0.0
 11
388.7449371447317
 21
498.363534638528
 31
0.0
  0
LINE
  5
A27
330
1F
100
AcDbEntity
  8
MODEL
100
AcDbLine
 10
363.7449371447317
 20
562.8635346385275
 30
0.0
 11
263.7449371447317
 21
562.8635346385275
 31
0.0
  0
LINE
  5
A28
330
1F
100
AcDbEntity
  8
MODEL
100
AcDbLine
 10
263.7449371447317
 20
519.8635346385275
 30
0.0
 11
363.7449371447317
 21
519.8635346385275
 31
0.0
  0
LINE
  5
A29
330
1F
100
AcDbEntity
  8
HIDDEN
100
AcDbLine
 10
393.7449371447317
 20
511.3635346385275
 30
0.0
 11
213.7449371447317
 21
511.3635346385275
 31
0.0
  0
LINE
  5
A2A
330
1F
100
AcDbEntity
  8
HIDDEN
100
AcDbLine
 10
213.7449371447317
 20
571.3635346385275
 30
0.0
 11
393.7449371447317
 21
571.3635346385275
 31
0.0
  0
LINE
  5
A2B
330
1F
100
AcDbEntity
  8
MODEL
100
AcDbLine
 10
263.7449371447317
 20
550.8635346385275
 30
0.0
 11
278.7449371447317
 21
550.8635346385271
 31
0.0
  0
LINE
  5
A2C
330
1F
100
AcDbEntity
  8
MODEL
100
AcDbLine
 10
263.7449371447317
 20
531.8635346385275
 30
0.0
 11
278.7449371447317
 21
531.8635346385275
 31
0.0
  0
LINE
  5
A2D
330
1F
100
AcDbEntity
  8
MODEL
100
AcDbLine
 10
263.7449371447317
 20
551.8635346385275
 30
0.0
 11
278.7449371447317
 21
551.8635346385275
 31
0.0
  0
LINE
  5
A2E
330
1F
100
AcDbEntity
  8
MODEL
100
AcDbLine
 10
263.7449371447317
 20
530.8635346385275
 30
0.0
 11
278.7449371447317
 21
530.8635346385275
 31
0.0
  0
LINE
  5
A2F
330
1F
100
AcDbEntity
  8
MODEL
100
AcDbLine
 10
278.7449371447317
 20
551.8635346385275
 30
0.0
 11
278.7449371447317
 21
530.8635346385275
 31
0.0
  0
LINE
  5
A30
330
1F
100
AcDbEntity
  8
MODEL
100
AcDbLine
 10
263.7449371447317
 20
562.8635346385275
 30
0.0
 11
263.7449371447317
 21
519.8635346385275
 31
0.0
  0
LINE
  5
A31
330
1F
100
AcDbEntity
  8
MODEL
100
AcDbLine
 10
363.7449371447317
 20
519.8635346385275
 30
0.0
 11
363.7449371447317
 21
562.8635346385275
 31
0.0
  0
LINE
  5
A32
330
1F
100
AcDbEntity
  8
HIDDEN
100
AcDbLine
 10
523.7449371447321
 20
547.3635346385275
 30
0.0
 11
273.7449371447317
 21
547.3635346385275
 31
0.0
  0
LINE
  5
A33
330
1F
100
AcDbEntity
  8
HIDDEN
100
AcDbLine
 10
273.7449371447317
 20
547.3635346385275
 30
0.0
 11
273.7449371447317
 21
535.3635346385275
 31
0.0
  0
LINE
  5
A34
330
1F
100
AcDbEntity
  8
HIDDEN
100
AcDbLine
 10
273.7449371447317
 20
535.3635346385275
 30
0.0
 11
523.7449371447321
 21
535.3635346385275
 31
0.0
  0
LINE
  5
A35
330
1F
100
AcDbEntity
  8
HIDDEN
100
AcDbLine
 10
523.7449371447321
 20
535.3635346385275
 30
0.0
 11
523.7449371447321
 21
547.3635346385275
 31
0.0
  0
LINE
  5
A36
330
1F
100
AcDbEntity
  8
HIDDEN
100
AcDbLine
 10
393.7449371447317
 20
511.3635346385275
 30
0.0
 11
393.7449371447317
 21
571.3635346385275
 31
0.0
  0
LINE
  5
A37
330
1F
100
AcDbEntity
  8
HIDDEN
100
AcDbLine
 10
213.7449371447317
 20
511.3635346385275
 30
0.0
 11
213.7449371447317
 21
571.3635346385275
 31
0.0
  0
LINE
  5
A38
330
1F
100
AcDbEntity
  8
MODEL
100
AcDbLine
 10
888.1968524312397
 20
535.8635345149625
 30
0.0
 11
738.1968524312397
 21
535.8635345149625
 31
0.0
  0
LINE
  5
A39
330
1F
100
AcDbEntity
  8
MODEL
100
AcDbLine
 10
738.1968524312392
 20
546.8635345149625
 30
0.0
 11
888.1968524312397
 21
546.8635345149625
 31
0.0
  0
LINE
  5
A3A
330
1F
100
AcDbEntity
  8
MODEL
100
AcDbLine
 10
664.6968524312397
 20
562.8635345149625
 30
0.0
 11
728.1968524312397
 21
562.8635345149625
 31
0.0
  0
LINE
  5
A3B
330
1F
100
AcDbEntity
  8
MODEL
100
AcDbLine
 10
728.1968524312397
 20
519.8635345149625
 30
0.0
 11
664.6968524312397
 21
519.8635345149625
 31
0.0
  0
LINE
  5
A3C
330
1F
100
AcDbEntity
  8
MODEL
100
AcDbLine
 10
664.6968524312397
 20
519.8635345149625
 30
0.0
 11
664.6968524312397
 21
562.8635345149625
 31
0.0
  0
LINE
  5
A3D
330
1F
100
AcDbEntity
  8
MODEL
100
AcDbLine
 10
664.6968505550444
 20
521.6665193019218
 30
0.0
 11
664.6968543074349
 21
561.0605497280031
 31
0.0
  0
LINE
  5
A3E
330
1F
100
AcDbEntity
  8
MODEL
100
AcDbLine
 10
662.6968505550444
 20
521.6665194924273
 30
0.0
 11
662.6968543074349
 21
561.0605499185086
 31
0.0
  0
LINE
  5
A3F
330
1F
100
AcDbEntity
  8
MODEL
100
AcDbLine
 10
664.6968524312397
 20
519.8635345149625
 30
0.0
 11
664.6968524312397
 21
562.8635345149625
 31
0.0
  0
LINE
  5
A40
330
1F
100
AcDbEntity
  8
MODEL
100
AcDbLine
 10
655.196849440405
 20
509.964612445399
 30
0.0
 11
655.1968483353699
 21
498.363535419864
 31
0.0
  0
LINE
  5
A41
330
1F
100
AcDbEntity
  8
MODEL
100
AcDbLine
 10
653.1968483353699
 20
498.3635356103697
 30
0.0
 11
653.196849440405
 21
509.9646126359045
 31
0.0
  0
LINE
  5
A42
330
1F
100
AcDbEntity
  8
MODEL
100
AcDbLine
 10
653.1968466678
 20
486.3635356103697
 30
0.0
 11
653.1968478108333
 21
498.3635356103697
 31
0.0
  0
LINE
  5
A43
330
1F
100
AcDbEntity
  8
MODEL
100
AcDbLine
 10
655.1968466678
 20
486.3635354198642
 30
0.0
 11
655.1968478108333
 21
498.3635354198642
 31
0.0
  0
LINE
  5
A44
330
1F
100
AcDbEntity
  8
MODEL
100
AcDbLine
 10
655.1968466678
 20
486.3635354198642
 30
0.0
 11
653.1968466678
 21
486.3635356103697
 31
0.0
  0
LINE
  5
A45
330
1F
100
AcDbEntity
  8
MODEL
100
AcDbLine
 10
655.1968483353699
 20
498.363535419864
 30
0.0
 11
653.1968483353699
 21
498.3635356103697
 31
0.0
  0
ARC
  5
A46
330
1F
100
AcDbEntity
  8
MODEL
100
AcDbCircle
 10
658.196849440405
 20
509.9646121596408
 30
0.0
 40
3.0
100
AcDbArc
 50
129.9999945423263
 51
179.9999945421896
  0
LINE
  5
A47
330
1F
100
AcDbEntity
  8
MODEL
100
AcDbLine
 10
654.9829117568115
 20
513.794834681372
 30
0.0
 11
661.6252131652004
 21
519.3683862651466
 31
0.0
  0
ARC
  5
A48
330
1F
100
AcDbEntity
  8
MODEL
100
AcDbCircle
 10
-658.196849440405
 20
509.9646121596408
 30
0.0
 40
4.999999999999999
210
0.0
220
0.0
230
-1.0
100
AcDbArc
 50
0.0000054575802388
 51
50.0000054574526
  0
LINE
  5
A49
330
1F
100
AcDbEntity
  8
MODEL
100
AcDbLine
 10
662.9107882386375
 20
517.8362972564543
 30
0.0
 11
656.268486830249
 21
512.2627456726794
 31
0.0
  0
ARC
  5
A4A
330
1F
100
AcDbEntity
  8
MODEL
100
AcDbCircle
 10
659.6968505550444
 20
521.6665197781855
 30
0.0
 40
5.000000000000003
100
AcDbArc
 50
309.9999945424136
 51
359.9999945422973
  0
ARC
  5
A4B
330
1F
100
AcDbEntity
  8
MODEL
100
AcDbCircle
 10
659.6968505550444
 20
521.6665197781855
 30
0.0
 40
3.000000000000002
100
AcDbArc
 50
309.9999945418725
 51
359.9999945417467
  0
LINE
  5
A4C
330
1F
100
AcDbEntity
  8
MODEL
100
AcDbLine
 10
653.196856002573
 20
584.3635356103692
 30
0.0
 11
653.1968571456064
 21
596.3635356103692
 31
0.0
  0
LINE
  5
A4D
330
1F
100
AcDbEntity
  8
MODEL
100
AcDbLine
 10
655.196856002573
 20
584.3635354198638
 30
0.0
 11
655.1968571456064
 21
596.3635354198638
 31
0.0
  0
LINE
  5
A4E
330
1F
100
AcDbEntity
  8
MODEL
100
AcDbLine
 10
656.2684923741112
 20
570.4643249628954
 30
0.0
 11
662.9107927207074
 21
564.8907721137253
 31
0.0
  0
ARC
  5
A4F
330
1F
100
AcDbEntity
  8
MODEL
100
AcDbCircle
 10
-658.1968554220743
 20
572.7624581085703
 30
0.0
 40
4.999999999999996
210
0.0
220
0.0
230
-1.0
100
AcDbArc
 50
310.0000054575763
 51
0.0000054574577798
  0
LINE
  5
A50
330
1F
100
AcDbEntity
  8
MODEL
100
AcDbLine
 10
661.6252173553985
 20
563.358683349942
 30
0.0
 11
654.9829170088028
 21
568.932236199112
 31
0.0
  0
ARC
  5
A51
330
1F
100
AcDbEntity
  8
MODEL
100
AcDbCircle
 10
659.6968543074349
 20
561.0605502042671
 30
0.0
 40
2.999999999999999
100
AcDbArc
 50
359.9999945417467
 51
49.99999454161762
  0
ARC
  5
A52
330
1F
100
AcDbEntity
  8
MODEL
100
AcDbCircle
 10
-659.6968543074349
 20
561.0605502042671
 30
0.0
 40
5.000000000000002
210
0.0
220
0.0
230
-1.0
100
AcDbArc
 50
130.0000054575885
 51
180.0000054574578
  0
ARC
  5
A53
330
1F
100
AcDbEntity
  8
MODEL
100
AcDbCircle
 10
658.1968554220743
 20
572.7624581085703
 30
0.0
 40
3.0
100
AcDbArc
 50
179.9999945421896
 51
229.9999945420774
  0
LINE
  5
A54
330
1F
100
AcDbEntity
  8
MODEL
100
AcDbLine
 10
655.1968565271095
 20
584.3635354198638
 30
0.0
 11
653.1968565271095
 21
584.3635356103692
 31
0.0
  0
LINE
  5
A55
330
1F
100
AcDbEntity
  8
MODEL
100
AcDbLine
 10
655.1968565271095
 20
584.3635354198638
 30
0.0
 11
655.1968554220743
 21
572.7624583943287
 31
0.0
  0
LINE
  5
A56
330
1F
100
AcDbEntity
  8
MODEL
100
AcDbLine
 10
653.1968554220743
 20
572.7624585848342
 30
0.0
 11
653.1968565271095
 21
584.3635356103692
 31
0.0
  0
LINE
  5
A57
330
1F
100
AcDbEntity
  8
MODEL
100
AcDbLine
 10
655.1968571456064
 20
596.3635354198638
 30
0.0
 11
653.1968571456064
 21
596.3635356103692
 31
0.0
  0
LINE
  5
A58
330
1F
100
AcDbEntity
  8
MODEL
100
AcDbLine
 10
728.1968524312397
 20
562.8635345149625
 30
0.0
 11
728.1968524312397
 21
519.8635345149625
 31
0.0
  0
LINE
  5
A59
330
1F
100
AcDbEntity
  8
MODEL
100
AcDbLine
 10
738.1968524312397
 20
546.8635345149625
 30
0.0
 11
738.1968524312397
 21
571.3635345149625
 31
0.0
  0
LINE
  5
A5A
330
1F
100
AcDbEntity
  8
MODEL
100
AcDbLine
 10
728.1968524312397
 20
562.8635345149625
 30
0.0
 11
728.1968524312397
 21
519.8635345149625
 31
0.0
  0
LINE
  5
A5B
330
1F
100
AcDbEntity
  8
MODEL
100
AcDbLine
 10
728.1968524312397
 20
571.3635345149625
 30
0.0
 11
728.1968524312397
 21
511.3635345149625
 31
0.0
  0
LINE
  5
A5C
330
1F
100
AcDbEntity
  8
MODEL
100
AcDbLine
 10
728.1968524312397
 20
511.3635345149625
 30
0.0
 11
738.1968524312397
 21
511.3635345149625
 31
0.0
  0
LINE
  5
A5D
330
1F
100
AcDbEntity
  8
MODEL
100
AcDbLine
 10
728.1968524312397
 20
519.8635345149625
 30
0.0
 11
728.1968524312397
 21
471.6797491984449
 31
0.0
  0
HATCH
  5
A5E
330
1F
100
AcDbEntity
  8
MODEL
100
AcDbHatch
 10
0.0
 20
0.0
 30
0.0
210
0.0
220
0.0
230
1.0
  2
ANSI31
 70
     0
 71
     0
 91
        1
 92
        7
 72
     0
 73
     1
 93
        4
 10
718.1968524312397
 20
519.8635345149625
 10
728.1968524312397
 20
519.8635345149625
 10
728.1968524312397
 20
471.6797491984449
 10
718.1968524312397
 20
471.6797491984449
 97
        0
 75
     0
 76
     1
 52
90.00000000000001
 41
20.0
 77
     0
 78
     1
 53
135.0
 43
517.0181457359834
 44
-136.3124564936068
 45
-1.767766952966369
 46
-1.767766952966369
 79
     0
 47
0.2694253859278311
 98
        1
 10
723.0876796793814
 20
495.3891831839875
  0
LINE
  5
A5F
330
1F
100
AcDbEntity
  8
MODEL
100
AcDbLine
 10
728.1968524312397
 20
535.8635345149625
 30
0.0
 11
728.1968524312397
 21
546.8635345149625
 31
0.0
  0
LINE
  5
A60
330
1F
100
AcDbEntity
  8
MODEL
100
AcDbLine
 10
738.1968524312397
 20
519.3635345149625
 30
0.0
 11
738.1968524312397
 21
535.8635345149625
 31
0.0
  0
LINE
  5
A61
330
1F
100
AcDbEntity
  8
MODEL
100
AcDbLine
 10
738.1968524312397
 20
511.3635345149625
 30
0.0
 11
738.1968524312397
 21
546.8635345149625
 31
0.0
  0
LINE
  5
A62
330
1F
100
AcDbEntity
  8
MODEL
100
AcDbLine
 10
738.1968524312397
 20
571.3635345149625
 30
0.0
 11
728.1968524312397
 21
571.3635345149625
 31
0.0
  0
HATCH
  5
A63
330
1F
100
AcDbEntity
  8
MODEL
100
AcDbHatch
 10
0.0
 20
0.0
 30
0.0
210
0.0
220
0.0
230
1.0
  2
ANSI31
 70
     0
 71
     0
 91
        1
 92
        7
 72
     0
 73
     1
 93
        4
 10
718.1968524312397
 20
562.8635345149625
 10
728.1968524312397
 20
562.8635345149625
 10
728.1968524312397
 20
611.0473198314804
 10
718.1968524312397
 20
611.0473198314804
 97
        0
 75
     0
 76
     1
 52
90.00000000000001
 41
20.0
 77
     0
 78
     1
 53
135.0
 43
517.0181457359834
 44
-136.3124564936068
 45
-1.767766952966369
 46
-1.767766952966369
 79
     0
 47
0.2694253859278311
 98
        1
 10
723.0876796793814
 20
587.3378858459374
  0
LINE
  5
A64
330
1F
100
AcDbEntity
  8
MODEL
100
AcDbLine
 10
728.1968524312397
 20
562.8635345149625
 30
0.0
 11
728.1968524312397
 21
611.0473198314804
 31
0.0
  0
LINE
  5
A65
330
1F
100
AcDbEntity
  8
MODEL
100
AcDbLine
 10
888.1968524312397
 20
546.8635345149625
 30
0.0
 11
888.1968524312397
 21
535.8635345149625
 31
0.0
  0
CIRCLE
  5
A66
330
1F
100
AcDbEntity
  8
MODEL
100
AcDbCircle
 10
679.6968524312401
 20
541.3635345253532
 30
0.0
 40
9.5
  0
ARC
  5
A67
330
1F
100
AcDbEntity
  8
MODEL
100
AcDbCircle
 10
679.6968524312397
 20
541.3635346903951
 30
0.0
 40
10.5
100
AcDbArc
 50
270.0
 51
179.9999999459655
  0
CIRCLE
  5
A68
330
1F
100
AcDbEntity
  8
MODEL
100
AcDbCircle
 10
376.7449371447317
 20
1077.562654201368
 30
0.0
 40
3.252231110351183
  0
CIRCLE
  5
A69
330
1F
100
AcDbEntity
  8
MODEL
100
AcDbCircle
 10
361.7449371447235
 20
1077.062654201368
 30
0.0
 40
3.252231110351183
  0
CIRCLE
  5
A6A
330
1F
100
AcDbEntity
  8
MODEL
100
AcDbCircle
 10
250.7449371447321
 20
1077.562654201369
 30
0.0
 40
3.252231110351183
  0
CIRCLE
  5
A6B
330
1F
100
AcDbEntity
  8
MODEL
100
AcDbCircle
 10
265.7449371447403
 20
1077.062654201369
 30
0.0
 40
3.252231110351183
  0
CIRCLE
  5
A6C
330
1F
100
AcDbEntity
  8
MODEL
100
AcDbCircle
 10
250.7449371447321
 20
982.3372561195259
 30
0.0
 40
3.252231110351183
  0
CIRCLE
  5
A6D
330
1F
100
AcDbEntity
  8
MODEL
100
AcDbCircle
 10
265.7449371447403
 20
982.8372561195262
 30
0.0
 40
3.252231110351183
  0
CIRCLE
  5
A6E
330
1F
100
AcDbEntity
  8
MODEL
100
AcDbCircle
 10
376.7449371447317
 20
982.3372561195268
 30
0.0
 40
3.252231110351183
  0
CIRCLE
  5
A6F
330
1F
100
AcDbEntity
  8
MODEL
100
AcDbCircle
 10
361.7449371447235
 20
982.8372561195268
 30
0.0
 40
3.252231110351183
  0
LINE
  5
A70
330
1F
100
AcDbEntity
  8
MODEL
100
AcDbLine
 10
393.7449371447317
 20
1035.949955160447
 30
0.0
 11
393.7449371447317
 21
1059.949955160447
 31
0.0
  0
CIRCLE
  5
A71
330
1F
100
AcDbEntity
  8
MODEL
100
AcDbCircle
 10
250.7449371447321
 20
493.7508355976059
 30
0.0
 40
3.252231110351183
  0
CIRCLE
  5
A72
330
1F
100
AcDbEntity
  8
MODEL
100
AcDbCircle
 10
263.7449371447317
 20
494.2508355976062
 30
0.0
 40
3.252231110351183
  0
CIRCLE
  5
A73
330
1F
100
AcDbEntity
  8
MODEL
100
AcDbCircle
 10
376.7449371447317
 20
493.7508355976069
 30
0.0
 40
3.252231110351183
  0
CIRCLE
  5
A74
330
1F
100
AcDbEntity
  8
MODEL
100
AcDbCircle
 10
363.7449371447317
 20
494.2508355976062
 30
0.0
 40
3.252231110351183
  0
CIRCLE
  5
A75
330
1F
100
AcDbEntity
  8
MODEL
100
AcDbCircle
 10
376.7449371447317
 20
588.9762336794482
 30
0.0
 40
3.252231110351183
  0
CIRCLE
  5
A76
330
1F
100
AcDbEntity
  8
MODEL
100
AcDbCircle
 10
250.7449371447321
 20
588.9762336794491
 30
0.0
 40
3.252231110351183
  0
LINE
  5
A77
330
1F
100
AcDbEntity
  8
MODEL
100
AcDbLine
 10
363.7449371447317
 20
550.8635346385275
 30
0.0
 11
348.7449371447317
 21
550.8635346385271
 31
0.0
  0
LINE
  5
A78
330
1F
100
AcDbEntity
  8
MODEL
100
AcDbLine
 10
363.7449371447317
 20
531.8635346385275
 30
0.0
 11
348.7449371447317
 21
531.8635346385275
 31
0.0
  0
LINE
  5
A79
330
1F
100
AcDbEntity
  8
MODEL
100
AcDbLine
 10
363.7449371447317
 20
551.8635346385275
 30
0.0
 11
348.7449371447317
 21
551.8635346385275
 31
0.0
  0
LINE
  5
A7A
330
1F
100
AcDbEntity
  8
MODEL
100
AcDbLine
 10
363.7449371447317
 20
530.8635346385275
 30
0.0
 11
348.7449371447317
 21
530.8635346385275
 31
0.0
  0
LINE
  5
A7B
330
1F
100
AcDbEntity
  8
MODEL
100
AcDbLine
 10
348.7449371447317
 20
551.8635346385275
 30
0.0
 11
348.7449371447317
 21
530.8635346385275
 31
0.0
  0
MTEXT
  5
A7C
330
1F
100
AcDbEntity
  8
DIM
390
F
100
AcDbMText
 10
209.9767125747451
 20
546.6912495955065
 30
0.0
 40
12.0
 41
0.0
 46
13.704
 71
     1
 72
     1
  1
{\fＭＳ ゴシック|b0|i0|c1|p0;G1/2"}
  7
ＭＳ ゴシック
 73
     1
 44
0.7828267384257843
1001
ACAD
1000
ACAD_MTEXT_DEFINED_HEIGHT_BEGIN
1070
    46
1040
13.704
1000
ACAD_MTEXT_DEFINED_HEIGHT_END
  0
MTEXT
  5
A7D
330
1F
100
AcDbEntity
  8
DIM
390
F
100
AcDbMText
 10
374.6140356675967
 20
550.6141206845658
 30
0.0
 40
18.0
 41
0.0
 46
12.0
 71
     1
 72
     1
  1
{\fＭＳ ゴシック|b0|i0|c1|p0;▶}
  7
ＭＳ ゴシック
210
0.0
220
0.0
230
-1.0
 11
-1.0
 21
0.0
 31
0.0
 73
     1
 44
0.7828267384257843
1001
ACAD
1000
ACAD_MTEXT_DEFINED_HEIGHT_BEGIN
1070
    46
1040
12.0
1000
ACAD_MTEXT_DEFINED_HEIGHT_END
  0
MTEXT
  5
A7E
330
1F
100
AcDbEntity
  8
DIM
390
F
100
AcDbMText
 10
379.9884351153878
 20
546.6912495955065
 30
0.0
 40
12.0
 41
0.0
 46
13.704
 71
     1
 72
     1
  1
{\fＭＳ ゴシック|b0|i0|c1|p0;G1/2"}
  7
ＭＳ ゴシック
 73
     1
 44
0.7828267384257843
1001
ACAD
1000
ACAD_MTEXT_DEFINED_HEIGHT_BEGIN
1070
    46
1040
13.704
1000
ACAD_MTEXT_DEFINED_HEIGHT_END
  0
MTEXT
  5
A7F
330
1F
100
AcDbEntity
  8
DIM
390
F
100
AcDbMText
 10
253.1192617277427
 20
550.6141206845657
 30
0.0
 40
18.0
 41
0.0
 46
12.0
 71
     1
 72
     1
  1
{\fＭＳ ゴシック|b0|i0|c1|p0;▶}
  7
ＭＳ ゴシック
 73
     1
 44
0.7828267384257843
1001
ACAD
1000
ACAD_MTEXT_DEFINED_HEIGHT_BEGIN
1070
    46
1040
12.0
1000
ACAD_MTEXT_DEFINED_HEIGHT_END
  0
DIMENSION
  5
A80
330
1F
100
AcDbEntity
  8
DIM
100
AcDbDimension
  2
*D21
 10
363.7449371447317
 20
440.6612311180685
 30
0.0
 11
313.7449371447317
 21
456.663481962135
 31
0.0
 70
    32
 71
     5
 42
100.0
 73
     0
 74
     0
 75
     0
 52
-89.99999999999999
  3
tfrom線あり
100
AcDbAlignedDimension
 13
263.7449371447317
 23
487.8121125529792
 33
0.0
 14
363.7449371447317
 24
487.8121125529792
 34
0.0
 50
180.0
100
AcDbRotatedDimension
1001
ACAD
1000
DSTYLE
1002
{
1070
   144
1040
1.0
1002
}
  0
CIRCLE
  5
A81
330
1F
100
AcDbEntity
  8
MODEL
100
AcDbCircle
 10
363.7449371447317
 20
588.4762336794489
 30
0.0
 40
3.252231110351183
  0
CIRCLE
  5
A82
330
1F
100
AcDbEntity
  8
MODEL
100
AcDbCircle
 10
263.7449371447317
 20
588.4762336794489
 30
0.0
 40
3.252231110351183
  0
DIMENSION
  5
A83
330
1F
100
AcDbEntity
  8
DIM
100
AcDbDimension
  2
*D22
 10
664.1968524312397
 20
421.5927786309518
 30
0.0
 11
696.1968524312397
 21
437.5927786309518
 31
0.0
 70
    32
 71
     5
 42
64.0
 73
     0
 74
     0
 75
     0
  3
tfrom線あり
100
AcDbAlignedDimension
 13
728.1968524312397
 23
471.6797491984449
 33
0.0
 14
664.1968524312397
 24
515.4877569731697
 34
0.0
100
AcDbRotatedDimension
1001
ACAD
1000
DSTYLE
1002
{
1070
   144
1040
1.0
1002
}
  0
DIMENSION
  5
A84
330
1F
100
AcDbEntity
  8
DIM
100
AcDbDimension
  2
*D23
 10
680.1968524312397
 20
643.7076598480519
 30
0.0
 11
704.1968524312397
 21
659.7076598480519
 31
0.0
 70
    32
  1
49-64
 71
     5
 42
48.0
 73
     0
 74
     1
 75
     1
  3
tfrom線あり
100
AcDbAlignedDimension
 13
728.1968524312397
 23
611.0473198314804
 33
0.0
 14
680.1968524312397
 24
568.9802965612744
 34
0.0
100
AcDbRotatedDimension
1001
ACAD
1000
DSTYLE
1002
{
1070
   172
1070
     1
1070
   144
1040
1.0
1002
}
  0
DIMENSION
  5
A85
102
{ACAD_REACTORS
330
A87
102
}
102
{ACAD_XDICTIONARY
360
A86
102
}
330
1F
100
AcDbEntity
  8
DIM
100
AcDbDimension
  2
*D24
 10
652.6968524312397
 20
643.7076598480519
 30
0.0
 11
621.9193108531479
 21
643.7076598480519
 31
0.0
 70
   160
 71
     5
 42
27.5
 73
     0
 74
     0
 75
     0
  3
tfrom線あり
100
AcDbAlignedDimension
 13
680.1968524312397
 23
568.9802965612744
 33
0.0
 14
652.6968524312397
 24
611.0473198314804
 34
0.0
100
AcDbRotatedDimension
1001
ACAD
1000
DSTYLE
1002
{
1070
   172
1070
     1
1070
   271
1070
     1
1070
   144
1040
1.0
1002
}
  0
DIMENSION
  5
A88
330
1F
100
AcDbEntity
  8
DIM
100
AcDbDimension
  2
*D25
 10
873.1968524312397
 20
900.8346631516255
 30
0.0
 11
800.6968524312397
 21
916.836913995692
 31
0.0
 70
    32
 71
     5
 42
145.0
 73
     0
 74
     0
 75
     0
  3
tfrom線あり
100
AcDbAlignedDimension
 13
728.1968524312397
 23
960.2661697203649
 33
0.0
 14
873.1968524312397
 24
1020.043021235005
 34
0.0
100
AcDbRotatedDimension
1001
ACAD
1000
DSTYLE
1002
{
1070
   144
1040
1.0
1002
}
  0
DIMENSION
  5
A89
330
1F
100
AcDbEntity
  8
DIM
100
AcDbDimension
  2
*D26
 10
888.1968524312397
 20
1146.977846971938
 30
0.0
 11
808.1968524312397
 21
1162.980097816005
 31
0.0
 70
    32
 71
     5
 42
160.0
 73
     0
 74
     0
 75
     0
  3
tfrom線あり
100
AcDbAlignedDimension
 13
728.1968524312397
 23
1099.6337403534
 33
0.0
 14
888.1968524312397
 24
1037.746168462359
 34
0.0
100
AcDbRotatedDimension
1001
ACAD
1000
DSTYLE
1002
{
1070
   144
1040
1.0
1002
}
  0
DIMENSION
  5
A8A
102
{ACAD_REACTORS
330
A8C
102
}
102
{ACAD_XDICTIONARY
360
A8B
102
}
330
1F
100
AcDbEntity
  8
DIM
100
AcDbDimension
  2
*D27
 10
738.1968524312397
 20
1118.279538544457
 30
0.0
 11
760.9299711007408
 21
1118.279538544457
 31
0.0
 70
   160
 71
     5
 42
10.0
 73
     0
 74
     1
 75
     1
  3
tfrom線あり
100
AcDbAlignedDimension
 13
728.1968524312397
 23
1059.949955036882
 33
0.0
 14
738.1968524312397
 24
1059.949955036882
 34
0.0
100
AcDbRotatedDimension
1001
ACAD
1000
DSTYLE
1002
{
1070
   172
1070
     1
1070
   144
1040
1.0
1002
}
  0
DIMENSION
  5
A8D
330
1F
100
AcDbEntity
  8
DIM
100
AcDbDimension
  2
*D28
 10
523.7449371447317
 20
918.5008337123521
 30
0.0
 11
398.7449371447317
 21
934.5030845564187
 31
0.0
 70
    32
 71
     5
 42
250.0
 73
     0
 74
     0
 75
     0
 52
-89.99999999999999
  3
tfrom線あり
100
AcDbAlignedDimension
 13
273.7449371447317
 23
1023.949955160448
 33
0.0
 14
523.7449371447317
 24
1023.949955160448
 34
0.0
 50
180.0
100
AcDbRotatedDimension
1001
ACAD
1000
DSTYLE
1002
{
1070
   144
1040
1.0
1002
}
  0
DIMENSION
  5
A8E
102
{ACAD_REACTORS
330
A90
102
}
102
{ACAD_XDICTIONARY
360
A8F
102
}
330
1F
100
AcDbEntity
  8
DIM
100
AcDbDimension
  2
*D29
 10
557.4366063956243
 20
1035.949955160447
 30
0.0
 11
557.4366063956243
 21
1029.949955160447
 31
0.0
 70
   160
  1
10
 71
     5
 42
11.99999999999898
 73
     0
 74
     0
 75
     0
 52
-90.0
  3
tfrom線あり
100
AcDbAlignedDimension
 13
523.7449371447321
 23
1023.949955160448
 33
0.0
 14
523.7449371447321
 24
1035.949955160447
 34
0.0
 50
90.00000000000001
100
AcDbRotatedDimension
1001
ACAD
1000
DSTYLE
1002
{
1070
   144
1040
1.0
1002
}
  0
DIMENSION
  5
A91
102
{ACAD_REACTORS
330
A93
102
}
102
{ACAD_XDICTIONARY
360
A92
102
}
330
1F
100
AcDbEntity
  8
DIM
100
AcDbDimension
  2
*D30
 10
523.7449371447321
 20
1136.649553515719
 30
0.0
 11
368.7449371447319
 21
1152.651804359785
 31
0.0
 70
    32
 71
     5
 42
310.0000000000005
 73
     0
 74
     0
 75
     0
 52
-89.99999999999999
  3
tfrom線あり
100
AcDbAlignedDimension
 13
213.7449371447317
 23
1059.949955160447
 33
0.0
 14
523.7449371447321
 24
1035.949955160447
 34
0.0
 50
180.0
100
AcDbRotatedDimension
1001
ACAD
1000
DSTYLE
1002
{
1070
   144
1040
1.0
1002
}
  0
DIMENSION
  5
A94
102
{ACAD_REACTORS
330
A96
102
}
102
{ACAD_XDICTIONARY
360
A95
102
}
330
1F
100
AcDbEntity
  8
DIM
100
AcDbDimension
  2
*D31
 10
393.7449371447317
 20
1100.224777434687
 30
0.0
 11
303.7449371447317
 21
1116.227028278754
 31
0.0
 70
    32
 71
     5
 42
180.0
 73
     0
 74
     0
 75
     0
 52
-89.99999999999999
  3
tfrom線あり
100
AcDbAlignedDimension
 13
213.7449371447317
 23
1059.949955160447
 33
0.0
 14
393.7449371447317
 24
1059.949955160447
 34
0.0
 50
180.0
100
AcDbRotatedDimension
1001
ACAD
1000
DSTYLE
1002
{
1070
   144
1040
1.0
1002
}
  0
DIMENSION
  5
A97
102
{ACAD_REACTORS
330
A99
102
}
102
{ACAD_XDICTIONARY
360
A98
102
}
330
1F
100
AcDbEntity
  8
DIM
100
AcDbDimension
  2
*D32
 10
173.0758959723628
 20
1059.949955160447
 30
0.0
 11
157.0758959723628
 21
1029.949955160447
 31
0.0
 70
    32
 71
     5
 42
59.99999999999943
 73
     0
 74
     0
 75
     0
 52
-90.0
  3
tfrom線あり
100
AcDbAlignedDimension
 13
213.7449371447317
 23
999.9499551604475
 33
0.0
 14
213.7449371447317
 24
1059.949955160447
 34
0.0
 50
90.00000000000001
100
AcDbRotatedDimension
1001
ACAD
1000
DSTYLE
1002
{
1070
   144
1040
1.0
1002
}
  0
MTEXT
  5
A9A
330
1F
100
AcDbEntity
  8
DIM
390
F
100
AcDbMText
 10
127.3368520689296
 20
659.5126243730109
 30
0.0
 40
12.0
 41
92.07072935246771
 46
13.464
 71
     1
 72
     1
  1
{\fＭＳ ゴシック|b0|i0|c1|p0;給水接続}
  7
ＭＳ ゴシック
 73
     1
 44
0.7828267384257843
1001
ACAD
1000
ACAD_MTEXT_DEFINED_HEIGHT_BEGIN
1070
    46
1040
13.464
1000
ACAD_MTEXT_DEFINED_HEIGHT_END
  0
MTEXT
  5
A9B
330
1F
100
AcDbEntity
  8
TEMPLATE
390
F
100
AcDbMText
 10
664.6010722739952
 20
200.2541809570632
 30
0.0
 40
12.21630859375
 41
0.0
 46
12.39962196517053
 71
     1
 72
     1
  1
{\fＭＳ ゴシック|b0|i0|c0|p34;{\c16777215;AGN73-2908-022 ステンレス}}
  7
ＭＳ ゴシック
 73
     1
 44
0.7828267384257843
1001
ACAD
1000
ACAD_MTEXT_DEFINED_HEIGHT_BEGIN
1070
    46
1040
12.39962196517053
1000
ACAD_MTEXT_DEFINED_HEIGHT_END
  0
MTEXT
  5
A9C
330
1F
100
AcDbEntity
  8
TEMPLATE
390
F
100
AcDbMText
 10
664.6010722739952
 20
218.6562813730015
 30
0.0
 40
12.21630859375
 41
0.0
 46
12.39962196517053
 71
     1
 72
     1
  1
{\fＭＳ ゴシック|b0|i0|c0|p34;{\c16777215;AGN73-2908-001 クローム}}
  7
ＭＳ ゴシック
 73
     1
 44
0.7828267384257843
1001
ACAD
1000
ACAD_MTEXT_DEFINED_HEIGHT_BEGIN
1070
    46
1040
12.39962196517053
1000
ACAD_MTEXT_DEFINED_HEIGHT_END
  0
ENDSEC
  0
SECTION
  2
OBJECTS
  0
DICTIONARY
  5
C
330
0
100
AcDbDictionary
281
     1
  3
ACAD_COLOR
350
7A4
  3
ACAD_DETAILVIEWSTYLE
350
77F
  3
ACAD_FIELDLIST
350
996
  3
ACAD_GROUP
350
D
  3
ACAD_LAYOUT
350
1A
  3
ACAD_MATERIAL
350
761
  3
ACAD_MLEADERSTYLE
350
770
  3
ACAD_MLINESTYLE
350
17
  3
ACAD_PLOTSETTINGS
350
19
  3
ACAD_PLOTSTYLENAME
350
E
  3
ACAD_SCALELIST
350
73F
  3
ACAD_SECTIONVIEWSTYLE
350
780
  3
ACAD_TABLESTYLE
350
73E
  3
ACAD_VISUALSTYLE
350
2A
  3
ACDB_RECOMPOSE_DATA
350
B42
  3
AcDbVariableDictionary
350
775
  3
APPDATA
350
772
  0
SUN
  5
781
330
29
100
AcDbSun
 90
        1
290
     0
 63
     7
421
 16777215
 40
1.0
291
     1
 91
  2455826
 92
 54000000
292
     0
 70
     2
 71
   256
280
     1
  0
DICTIONARY
  5
7AB
330
2
100
AcDbDictionary
280
     1
281
     1
  3
ACAD_LAYERSTATES
360
7AC
  0
DICTIONARY
  5
9AE
330
9AD
100
AcDbDictionary
280
     1
281
     1
  3
ACAD_FIELD
360
B33
  0
DICTIONARY
  5
A86
330
A85
100
AcDbDictionary
280
     1
281
     1
  3
ACAD_DIMASSOC
360
A87
  0
DICTIONARY
  5
A8B
330
A8A
100
AcDbDictionary
280
     1
281
     1
  3
ACAD_DIMASSOC
360
A8C
  0
DICTIONARY
  5
A8F
330
A8E
100
AcDbDictionary
280
     1
281
     1
  3
ACAD_DIMASSOC
360
A90
  0
DICTIONARY
  5
A92
330
A91
100
AcDbDictionary
280
     1
281
     1
  3
ACAD_DIMASSOC
360
A93
  0
DICTIONARY
  5
A95
330
A94
100
AcDbDictionary
280
     1
281
     1
  3
ACAD_DIMASSOC
360
A96
  0
DICTIONARY
  5
A98
330
A97
100
AcDbDictionary
280
     1
281
     1
  3
ACAD_DIMASSOC
360
A99
  0
DICTIONARY
  5
7A4
102
{ACAD_REACTORS
330
C
102
}
330
C
100
AcDbDictionary
281
     1
  0
DICTIONARY
  5
77F
102
{ACAD_REACTORS
330
C
102
}
330
C
100
AcDbDictionary
281
     1
  0
FIELDLIST
  5
996
102
{ACAD_REACTORS
330
C
102
}
330
C
100
AcDbIdSet
 90
        4
330
812
330
813
330
9B1
330
9B0
100
AcDbFieldList
  0
DICTIONARY
  5
D
102
{ACAD_REACTORS
330
C
102
}
330
C
100
AcDbDictionary
281
     1
  0
DICTIONARY
  5
1A
102
{ACAD_REACTORS
330
C
102
}
330
C
100
AcDbDictionary
281
     1
  3
Layout1
350
1E
  3
Layout2
350
26
  3
Model
350
22
  0
DICTIONARY
  5
761
102
{ACAD_REACTORS
330
C
102
}
330
C
100
AcDbDictionary
281
     1
  3
ByBlock
350
763
  3
ByLayer
350
762
  3
Global
350
764
  0
DICTIONARY
  5
770
102
{ACAD_REACTORS
330
C
102
}
330
C
100
AcDbDictionary
281
     1
  3
Standard
350
771
  0
DICTIONARY
  5
17
102
{ACAD_REACTORS
330
C
102
}
330
C
100
AcDbDictionary
281
     1
  3
Standard
350
18
  0
DICTIONARY
  5
19
102
{ACAD_REACTORS
330
C
102
}
330
C
100
AcDbDictionary
281
     1
  0
ACDBDICTIONARYWDFLT
  5
E
102
{ACAD_REACTORS
330
C
102
}
330
C
100
AcDbDictionary
281
     1
  3
Normal
350
F
100
AcDbDictionaryWithDefault
340
F
  0
DICTIONARY
  5
73F
102
{ACAD_REACTORS
330
C
102
}
330
C
100
AcDbDictionary
281
     1
  3
A0
350
740
  3
A1
350
741
  3
A2
350
742
  3
A3
350
743
  3
A4
350
744
  3
A5
350
745
  3
A6
350
746
  3
A7
350
747
  3
A8
350
748
  3
A9
350
749
  3
B0
350
74A
  3
B1
350
74B
  3
B2
350
74C
  3
B3
350
74D
  3
B4
350
74E
  3
B5
350
74F
  3
B6
350
750
  3
B7
350
751
  3
B8
350
752
  3
B9
350
753
  3
C0
350
754
  3
C1
350
755
  3
C2
350
756
  3
C3
350
757
  3
C4
350
758
  3
C5
350
759
  3
C6
350
75A
  3
C7
350
75B
  3
C8
350
75C
  3
C9
350
75D
  3
D0
350
75E
  3
D1
350
75F
  3
D2
350
760
  0
DICTIONARY
  5
780
102
{ACAD_REACTORS
330
C
102
}
330
C
100
AcDbDictionary
281
     1
  0
DICTIONARY
  5
73E
102
{ACAD_REACTORS
330
C
102
}
330
C
100
AcDbDictionary
281
     1
  3
Standard
350
76F
  0
DICTIONARY
  5
2A
102
{ACAD_REACTORS
330
C
102
}
330
C
100
AcDbDictionary
281
     1
  3
2dWireframe
350
2F
  3
3D Hidden
350
31
  3
3dWireframe
350
30
  3
Basic
350
32
  3
Brighten
350
36
  3
ColorChange
350
3A
  3
Conceptual
350
34
  3
Dim
350
35
  3
EdgeColorOff
350
769
  3
Facepattern
350
39
  3
Flat
350
2B
  3
FlatWithEdges
350
2C
  3
Gouraud
350
2D
  3
GouraudWithEdges
350
2E
  3
Hidden
350
766
  3
JitterOff
350
767
  3
Linepattern
350
38
  3
OverhangOff
350
768
  3
Realistic
350
33
  3
Shaded
350
76E
  3
Shaded with edges
350
76D
  3
Shades of Gray
350
76A
  3
Sketchy
350
76B
  3
Thicken
350
37
  3
Wireframe
350
765
  3
X-Ray
350
76C
  0
XRECORD
  5
B42
102
{ACAD_REACTORS
330
C
102
}
330
C
100
AcDbXrecord
280
     1
 90
        1
330
76F
  0
DICTIONARY
  5
775
102
{ACAD_REACTORS
330
C
102
}
330
C
100
AcDbDictionary
281
     1
  3
CANNOSCALE
350
776
  3
CMLEADERSTYLE
350
77C
  3
CTABLESTYLE
350
77B
  3
MSLTSCALE
350
77D
  3
XCLIPFRAME
350
77E
  0
DICTIONARY
  5
772
102
{ACAD_REACTORS
330
C
102
}
330
C
100
AcDbDictionary
281
     1
  0
DICTIONARY
  5
7AC
102
{ACAD_REACTORS
330
7AB
102
}
330
7AB
100
AcDbDictionary
281
     1
  0
DICTIONARY
  5
B33
102
{ACAD_REACTORS
330
9AE
102
}
330
9AE
100
AcDbDictionary
280
     1
281
     1
  3
TEXT
360
9B0
  0
DIMASSOC
  5
A87
102
{ACAD_REACTORS
330
A86
102
}
330
A86
100
AcDbDimAssoc
330
A85
 90
        0
 70
     0
 71
     1
  0
DIMASSOC
  5
A8C
102
{ACAD_REACTORS
330
A8B
102
}
330
A8B
100
AcDbDimAssoc
330
A8A
 90
        3
 70
     0
 71
     1
  1
AcDbOsnapPointRef
 72
     1
331
A03
 73
     0
 91
        0
 40
0.0
 10
0.0
 20
0.0
 30
0.0
 75
     0
  1
AcDbOsnapPointRef
 72
    13
331
A03
 73
     0
 91
        0
 40
0.0
 10
0.0
 20
0.0
 30
0.0
 75
     0
  0
DIMASSOC
  5
A90
102
{ACAD_REACTORS
330
A8F
102
}
330
A8F
100
AcDbDimAssoc
330
A8E
 90
        3
 70
     0
 71
     1
  1
AcDbOsnapPointRef
 72
    13
331
9D6
 73
     0
 91
        0
 40
0.0
 10
0.0
 20
0.0
 30
0.0
 75
     0
  1
AcDbOsnapPointRef
 72
     1
331
9D6
 73
     0
 91
        0
 40
0.0
 10
0.0
 20
0.0
 30
0.0
 75
     0
  0
DIMASSOC
  5
A93
102
{ACAD_REACTORS
330
A92
102
}
330
A92
100
AcDbDimAssoc
330
A91
 90
        3
 70
     0
 71
     1
  1
AcDbOsnapPointRef
 72
    13
331
9D2
 73
     0
 91
        0
 40
0.0
 10
0.0
 20
0.0
 30
0.0
 75
     0
  1
AcDbOsnapPointRef
 72
     1
331
9D6
 73
     0
 91
        0
 40
0.0
 10
0.0
 20
0.0
 30
0.0
 75
     0
  0
DIMASSOC
  5
A96
102
{ACAD_REACTORS
330
A95
102
}
330
A95
100
AcDbDimAssoc
330
A94
 90
        3
 70
     0
 71
     1
  1
AcDbOsnapPointRef
 72
    13
331
9D2
 73
     0
 91
        0
 40
0.0
 10
0.0
 20
0.0
 30
0.0
 75
     0
  1
AcDbOsnapPointRef
 72
    13
331
9CD
 73
     0
 91
        0
 40
0.0
 10
0.0
 20
0.0
 30
0.0
 75
     0
  0
DIMASSOC
  5
A99
102
{ACAD_REACTORS
330
A98
102
}
330
A98
100
AcDbDimAssoc
330
A97
 90
        3
 70
     0
 71
     1
  1
AcDbOsnapPointRef
 72
     1
331
9D1
 73
     0
 91
        0
 40
0.0
 10
0.0
 20
0.0
 30
0.0
 75
     0
  1
AcDbOsnapPointRef
 72
    13
331
9D2
 73
     0
 91
        0
 40
0.0
 10
0.0
 20
0.0
 30
0.0
 75
     0
  0
LAYOUT
  5
1E
102
{ACAD_REACTORS
330
1A
102
}
330
1A
100
AcDbPlotSettings
  1

  2
none_device
  4

  6

 40
0.0
 41
0.0
 42
0.0
 43
0.0
 44
0.0
 45
0.0
 46
0.0
 47
0.0
 48
0.0
 49
0.0
140
0.0
141
0.0
142
1.0
143
1.0
 70
   688
 72
     0
 73
     0
 74
     5
  7

 75
    16
 76
     0
 77
     2
 78
   300
147
1.0
148
0.0
149
0.0
100
AcDbLayout
  1
Layout1
 70
     1
 71
     1
 10
0.0
 20
0.0
 11
12.0
 21
9.0
 12
0.0
 22
0.0
 32
0.0
 14
1.000000000000000E+20
 24
1.000000000000000E+20
 34
1.000000000000000E+20
 15
-1.000000000000000E+20
 25
-1.000000000000000E+20
 35
-1.000000000000000E+20
146
0.0
 13
0.0
 23
0.0
 33
0.0
 16
1.0
 26
0.0
 36
0.0
 17
0.0
 27
1.0
 37
0.0
 76
     0
330
1B
  0
LAYOUT
  5
26
102
{ACAD_REACTORS
330
1A
102
}
330
1A
100
AcDbPlotSettings
  1

  2
none_device
  4

  6

 40
0.0
 41
0.0
 42
0.0
 43
0.0
 44
0.0
 45
0.0
 46
0.0
 47
0.0
 48
0.0
 49
0.0
140
0.0
141
0.0
142
1.0
143
1.0
 70
   688
 72
     0
 73
     0
 74
     5
  7

 75
    16
 76
     0
 77
     2
 78
   300
147
1.0
148
0.0
149
0.0
100
AcDbLayout
  1
Layout2
 70
     1
 71
     2
 10
0.0
 20
0.0
 11
0.0
 21
0.0
 12
0.0
 22
0.0
 32
0.0
 14
0.0
 24
0.0
 34
0.0
 15
0.0
 25
0.0
 35
0.0
146
0.0
 13
0.0
 23
0.0
 33
0.0
 16
1.0
 26
0.0
 36
0.0
 17
0.0
 27
1.0
 37
0.0
 76
     0
330
23
  0
LAYOUT
  5
22
102
{ACAD_REACTORS
330
1A
102
}
330
1A
100
AcDbPlotSettings
  1

  2
none_device
  4

  6

 40
0.0
 41
0.0
 42
0.0
 43
0.0
 44
0.0
 45
0.0
 46
0.0
 47
0.0
 48
0.0
 49
0.0
140
0.0
141
0.0
142
1.0
143
1.0
 70
  1712
 72
     0
 73
     0
 74
     0
  7

 75
     0
 76
     0
 77
     2
 78
   300
147
1.0
148
0.0
149
0.0
100
AcDbLayout
  1
Model
 70
     1
 71
     0
 10
0.0
 20
0.0
 11
1050.0
 21
1485.0
 12
0.0
 22
0.0
 32
0.0
 14
0.0
 24
0.0
 34
0.0
 15
1050.0
 25
1485.0
 35
0.0
146
0.0
 13
0.0
 23
0.0
 33
0.0
 16
1.0
 26
0.0
 36
0.0
 17
0.0
 27
1.0
 37
0.0
 76
     0
330
1F
331
29
  0
MATERIAL
  5
763
102
{ACAD_REACTORS
330
761
102
}
330
761
100
AcDbMaterial
  1
ByBlock
 72
     1
 94
      127
  0
MATERIAL
  5
762
102
{ACAD_REACTORS
330
761
102
}
330
761
100
AcDbMaterial
  1
ByLayer
 72
     1
 94
      127
  0
MATERIAL
  5
764
102
{ACAD_REACTORS
330
761
102
}
330
761
100
AcDbMaterial
  1
Global
 72
     1
 94
      127
  0
MLEADERSTYLE
  5
771
102
{ACAD_REACTORS
330
770
102
}
330
770
100
AcDbMLeaderStyle
170
     2
171
     1
172
     0
 90
        2
 40
0.0
 41
0.0
173
     1
 91
-1056964608
340
14
 92
       -2
290
     1
 42
0.09
291
     1
 43
0.36
  3
Standard
341
0
 44
0.18
300

342
11
174
     1
178
     1
175
     1
176
     0
 93
-1056964608
 45
0.18
292
     0
297
     0
 46
0.18
343
0
 94
-1056964608
 47
1.0
 49
1.0
140
1.0
293
     1
141
0.0
294
     1
177
     0
142
1.0
295
     0
296
     0
143
0.125
1001
ACAD_MLEADERVER
1070
     2
  0
MLINESTYLE
  5
18
102
{ACAD_REACTORS
330
17
102
}
330
17
100
AcDbMlineStyle
  2
Standard
 70
     0
  3

 62
   256
 51
90.0
 52
90.0
 71
     2
 49
0.5
 62
   256
  6
BYLAYER
 49
-0.5
 62
   256
  6
BYLAYER
  0
ACDBPLACEHOLDER
  5
F
102
{ACAD_REACTORS
330
E
102
}
330
E
  0
SCALE
  5
740
102
{ACAD_REACTORS
330
73F
102
}
330
73F
100
AcDbScale
 70
     0
300
1:1
140
1.0
141
1.0
290
     1
  0
SCALE
  5
741
102
{ACAD_REACTORS
330
73F
102
}
330
73F
100
AcDbScale
 70
     0
300
1:2
140
1.0
141
2.0
290
     0
  0
SCALE
  5
742
102
{ACAD_REACTORS
330
73F
102
}
330
73F
100
AcDbScale
 70
     0
300
1:4
140
1.0
141
4.0
290
     0
  0
SCALE
  5
743
102
{ACAD_REACTORS
330
73F
102
}
330
73F
100
AcDbScale
 70
     0
300
1:5
140
1.0
141
5.0
290
     0
  0
SCALE
  5
744
102
{ACAD_REACTORS
330
73F
102
}
330
73F
100
AcDbScale
 70
     0
300
1:8
140
1.0
141
8.0
290
     0
  0
SCALE
  5
745
102
{ACAD_REACTORS
330
73F
102
}
330
73F
100
AcDbScale
 70
     0
300
1:10
140
1.0
141
10.0
290
     0
  0
SCALE
  5
746
102
{ACAD_REACTORS
330
73F
102
}
330
73F
100
AcDbScale
 70
     0
300
1:16
140
1.0
141
16.0
290
     0
  0
SCALE
  5
747
102
{ACAD_REACTORS
330
73F
102
}
330
73F
100
AcDbScale
 70
     0
300
1:20
140
1.0
141
20.0
290
     0
  0
SCALE
  5
748
102
{ACAD_REACTORS
330
73F
102
}
330
73F
100
AcDbScale
 70
     0
300
1:30
140
1.0
141
30.0
290
     0
  0
SCALE
  5
749
102
{ACAD_REACTORS
330
73F
102
}
330
73F
100
AcDbScale
 70
     0
300
1:40
140
1.0
141
40.0
290
     0
  0
SCALE
  5
74A
102
{ACAD_REACTORS
330
73F
102
}
330
73F
100
AcDbScale
 70
     0
300
1:50
140
1.0
141
50.0
290
     0
  0
SCALE
  5
74B
102
{ACAD_REACTORS
330
73F
102
}
330
73F
100
AcDbScale
 70
     0
300
1:100
140
1.0
141
100.0
290
     0
  0
SCALE
  5
74C
102
{ACAD_REACTORS
330
73F
102
}
330
73F
100
AcDbScale
 70
     0
300
2:1
140
2.0
141
1.0
290
     0
  0
SCALE
  5
74D
102
{ACAD_REACTORS
330
73F
102
}
330
73F
100
AcDbScale
 70
     0
300
4:1
140
4.0
141
1.0
290
     0
  0
SCALE
  5
74E
102
{ACAD_REACTORS
330
73F
102
}
330
73F
100
AcDbScale
 70
     0
300
8:1
140
8.0
141
1.0
290
     0
  0
SCALE
  5
74F
102
{ACAD_REACTORS
330
73F
102
}
330
73F
100
AcDbScale
 70
     0
300
10:1
140
10.0
141
1.0
290
     0
  0
SCALE
  5
750
102
{ACAD_REACTORS
330
73F
102
}
330
73F
100
AcDbScale
 70
     0
300
100:1
140
100.0
141
1.0
290
     0
  0
SCALE
  5
751
102
{ACAD_REACTORS
330
73F
102
}
330
73F
100
AcDbScale
 70
     0
300
1/128" = 1'-0"
140
0.0078125
141
12.0
290
     0
  0
SCALE
  5
752
102
{ACAD_REACTORS
330
73F
102
}
330
73F
100
AcDbScale
 70
     0
300
1/64" = 1'-0"
140
0.015625
141
12.0
290
     0
  0
SCALE
  5
753
102
{ACAD_REACTORS
330
73F
102
}
330
73F
100
AcDbScale
 70
     0
300
1/32" = 1'-0"
140
0.03125
141
12.0
290
     0
  0
SCALE
  5
754
102
{ACAD_REACTORS
330
73F
102
}
330
73F
100
AcDbScale
 70
     0
300
1/16" = 1'-0"
140
0.0625
141
12.0
290
     0
  0
SCALE
  5
755
102
{ACAD_REACTORS
330
73F
102
}
330
73F
100
AcDbScale
 70
     0
300
3/32" = 1'-0"
140
0.09375
141
12.0
290
     0
  0
SCALE
  5
756
102
{ACAD_REACTORS
330
73F
102
}
330
73F
100
AcDbScale
 70
     0
300
1/8" = 1'-0"
140
0.125
141
12.0
290
     0
  0
SCALE
  5
757
102
{ACAD_REACTORS
330
73F
102
}
330
73F
100
AcDbScale
 70
     0
300
3/16" = 1'-0"
140
0.1875
141
12.0
290
     0
  0
SCALE
  5
758
102
{ACAD_REACTORS
330
73F
102
}
330
73F
100
AcDbScale
 70
     0
300
1/4" = 1'-0"
140
0.25
141
12.0
290
     0
  0
SCALE
  5
759
102
{ACAD_REACTORS
330
73F
102
}
330
73F
100
AcDbScale
 70
     0
300
3/8" = 1'-0"
140
0.375
141
12.0
290
     0
  0
SCALE
  5
75A
102
{ACAD_REACTORS
330
73F
102
}
330
73F
100
AcDbScale
 70
     0
300
1/2" = 1'-0"
140
0.5
141
12.0
290
     0
  0
SCALE
  5
75B
102
{ACAD_REACTORS
330
73F
102
}
330
73F
100
AcDbScale
 70
     0
300
3/4" = 1'-0"
140
0.75
141
12.0
290
     0
  0
SCALE
  5
75C
102
{ACAD_REACTORS
330
73F
102
}
330
73F
100
AcDbScale
 70
     0
300
1" = 1'-0"
140
1.0
141
12.0
290
     0
  0
SCALE
  5
75D
102
{ACAD_REACTORS
330
73F
102
}
330
73F
100
AcDbScale
 70
     0
300
1-1/2" = 1'-0"
140
1.5
141
12.0
290
     0
  0
SCALE
  5
75E
102
{ACAD_REACTORS
330
73F
102
}
330
73F
100
AcDbScale
 70
     0
300
3" = 1'-0"
140
3.0
141
12.0
290
     0
  0
SCALE
  5
75F
102
{ACAD_REACTORS
330
73F
102
}
330
73F
100
AcDbScale
 70
     0
300
6" = 1'-0"
140
6.0
141
12.0
290
     0
  0
SCALE
  5
760
102
{ACAD_REACTORS
330
73F
102
}
330
73F
100
AcDbScale
 70
     0
300
1'-0" = 1'-0"
140
12.0
141
12.0
290
     0
  0
TABLESTYLE
  5
76F
102
{ACAD_REACTORS
330
73E
102
}
102
{ACAD_XDICTIONARY
360
B40
102
}
330
73E
100
AcDbTableStyle
  3
Standard
 70
     0
 71
     0
 40
0.06
 41
0.06
280
     0
281
     0
  7
Standard
140
0.18
170
     2
 62
     0
 63
   257
283
     0
 90
        4
 91
        0
  1

274
    -2
284
     1
 64
     0
275
    -2
285
     1
 65
     0
276
    -2
286
     1
 66
     0
277
    -2
287
     1
 67
     0
278
    -2
288
     1
 68
     0
279
    -2
289
     1
 69
     0
  7
Standard
140
0.25
170
     5
 62
     0
 63
   257
283
     0
 90
        4
 91
        0
  1

274
    -2
284
     1
 64
     0
275
    -2
285
     1
 65
     0
276
    -2
286
     1
 66
     0
277
    -2
287
     1
 67
     0
278
    -2
288
     1
 68
     0
279
    -2
289
     1
 69
     0
  7
Standard
140
0.18
170
     5
 62
     0
 63
   257
283
     0
 90
        4
 91
        0
  1

274
    -2
284
     1
 64
     0
275
    -2
285
     1
 65
     0
276
    -2
286
     1
 66
     0
277
    -2
287
     1
 67
     0
278
    -2
288
     1
 68
     0
279
    -2
289
     1
 69
     0
  0
VISUALSTYLE
  5
2F
102
{ACAD_REACTORS
330
2A
102
}
330
2A
100
AcDbVisualStyle
  2
2dWireframe
 70
     4
 71
     0
 72
     2
 73
     0
 90
        0
 40
-0.6
 41
-30.0
 62
     5
 63
     7
421
 16777215
 74
     1
 91
        4
 64
     7
 65
   257
 75
     1
175
     1
 42
1.0
 92
        0
 66
   257
 43
1.0
 76
     1
 77
     6
 78
     2
 67
     7
 79
     5
170
     0
171
     0
290
     0
174
     0
 93
        1
 44
0.0
173
     0
291
     0
 45
0.0
  0
VISUALSTYLE
  5
31
102
{ACAD_REACTORS
330
2A
102
}
330
2A
100
AcDbVisualStyle
  2
3D Hidden
 70
     6
 71
     1
 72
     2
 73
     2
 90
        0
 40
-0.6
 41
-30.0
 62
     5
 63
     7
421
 16777215
 74
     2
 91
        2
 64
     7
 65
   257
 75
     2
175
     1
 42
40.0
 92
        0
 66
   257
 43
1.0
 76
     1
 77
     6
 78
     2
 67
     7
 79
     3
170
     0
171
     0
290
     0
174
     0
 93
        1
 44
0.0
173
     0
291
     0
 45
0.0
  0
VISUALSTYLE
  5
30
102
{ACAD_REACTORS
330
2A
102
}
330
2A
100
AcDbVisualStyle
  2
3dWireframe
 70
     5
 71
     0
 72
     2
 73
     0
 90
        0
 40
-0.6
 41
-30.0
 62
     5
 63
     7
421
 16777215
 74
     1
 91
        4
 64
     7
 65
   257
 75
     1
175
     1
 42
1.0
 92
        0
 66
   257
 43
1.0
 76
     1
 77
     6
 78
     2
 67
     7
 79
     5
170
     0
171
     0
290
     0
174
     0
 93
        1
 44
0.0
173
     0
291
     0
 45
0.0
  0
VISUALSTYLE
  5
32
102
{ACAD_REACTORS
330
2A
102
}
330
2A
100
AcDbVisualStyle
  2
Basic
 70
     7
 71
     1
 72
     0
 73
     1
 90
        0
 40
-0.6
 41
-30.0
 62
     5
 63
     7
421
 16777215
 74
     0
 91
        4
 64
     7
 65
   257
 75
     1
175
     1
 42
1.0
 92
        8
 66
     7
 43
1.0
 76
     1
 77
     6
 78
     2
 67
     7
 79
     5
170
     0
171
     0
290
     0
174
     0
 93
        1
 44
0.0
173
     0
291
     1
 45
0.0
  0
VISUALSTYLE
  5
36
102
{ACAD_REACTORS
330
2A
102
}
330
2A
100
AcDbVisualStyle
  2
Brighten
 70
    12
 71
     2
 72
     2
 73
     0
 90
        0
 40
-0.6
 41
-30.0
 62
     5
 63
     7
421
 16777215
 74
     1
 91
        4
 64
     7
 65
   257
 75
     1
175
     1
 42
1.0
 92
        8
 66
     7
 43
1.0
 76
     1
 77
     6
 78
     2
 67
     7
 79
     5
170
     0
171
     0
290
     0
174
     0
 93
        1
 44
50.0
173
     0
291
     1
 45
0.0
  0
VISUALSTYLE
  5
3A
102
{ACAD_REACTORS
330
2A
102
}
330
2A
100
AcDbVisualStyle
  2
ColorChange
 70
    16
 71
     2
 72
     2
 73
     3
 90
        0
 40
-0.6
 41
-30.0
 62
     5
 63
     8
421
  8421504
 74
     1
 91
        4
 64
     7
 65
   257
 75
     1
175
     1
 42
1.0
 92
        8
 66
     8
424
  8421504
 43
1.0
 76
     1
 77
     6
 78
     2
 67
     7
 79
     5
170
     0
171
     0
290
     0
174
     0
 93
        1
 44
0.0
173
     0
291
     1
 45
0.0
  0
VISUALSTYLE
  5
34
102
{ACAD_REACTORS
330
2A
102
}
330
2A
100
AcDbVisualStyle
  2
Conceptual
 70
     9
 71
     3
 72
     2
 73
     0
 90
        0
 40
-0.6
 41
-30.0
 62
     5
 63
     7
421
 16777215
 74
     2
 91
        2
 64
     7
 65
   257
 75
     1
175
     1
 42
40.0
 92
        8
 66
     7
 43
1.0
 76
     1
 77
     6
 78
     2
 67
     7
 79
     3
170
     0
171
     0
290
     0
174
     0
 93
        1
 44
0.0
173
     0
291
     0
 45
0.0
  0
VISUALSTYLE
  5
35
102
{ACAD_REACTORS
330
2A
102
}
330
2A
100
AcDbVisualStyle
  2
Dim
 70
    11
 71
     2
 72
     2
 73
     0
 90
        0
 40
-0.6
 41
-30.0
 62
     5
 63
     7
421
 16777215
 74
     1
 91
        4
 64
     7
 65
   257
 75
     1
175
     1
 42
1.0
 92
        8
 66
     7
 43
1.0
 76
     1
 77
     6
 78
     2
 67
     7
 79
     5
170
     0
171
     0
290
     0
174
     0
 93
        1
 44
-50.0
173
     0
291
     1
 45
0.0
  0
VISUALSTYLE
  5
769
102
{ACAD_REACTORS
330
2A
102
}
330
2A
100
AcDbVisualStyle
  2
EdgeColorOff
 70
    22
 71
     2
 72
     2
 73
     0
 90
        0
 40
0.6
 41
30.0
 62
     5
 63
     7
421
 16777215
 74
     1
 91
        4
 64
     7
 65
   257
 75
     1
175
     1
 42
1.0
 92
        8
 66
     7
 43
1.0
 76
     1
 77
     6
 78
     2
 67
     7
 79
     5
170
     0
171
     0
290
     0
174
     0
 93
        1
 44
0.0
173
     0
291
     1
 45
0.0
  0
VISUALSTYLE
  5
39
102
{ACAD_REACTORS
330
2A
102
}
330
2A
100
AcDbVisualStyle
  2
Facepattern
 70
    15
 71
     2
 72
     2
 73
     0
 90
        0
 40
-0.6
 41
-30.0
 62
     5
 63
     7
421
 16777215
 74
     1
 91
        4
 64
     7
 65
   257
 75
     1
175
     1
 42
1.0
 92
        8
 66
     7
 43
1.0
 76
     1
 77
     6
 78
     2
 67
     7
 79
     5
170
     0
171
     0
290
     0
174
     0
 93
        1
 44
0.0
173
     0
291
     1
 45
0.0
  0
VISUALSTYLE
  5
2B
102
{ACAD_REACTORS
330
2A
102
}
330
2A
100
AcDbVisualStyle
  2
Flat
 70
     0
 71
     2
 72
     1
 73
     1
 90
        2
 40
-0.6
 41
30.0
 62
     5
 63
     7
421
 16777215
 74
     0
 91
        4
 64
     7
 65
   257
 75
     1
175
     1
 42
1.0
 92
        8
 66
     7
 43
1.0
 76
     1
 77
     6
 78
     2
 67
     7
 79
     5
170
     0
171
     0
290
     0
174
     0
 93
       13
 44
0.0
173
     0
291
     1
 45
0.0
  0
VISUALSTYLE
  5
2C
102
{ACAD_REACTORS
330
2A
102
}
330
2A
100
AcDbVisualStyle
  2
FlatWithEdges
 70
     1
 71
     2
 72
     1
 73
     1
 90
        2
 40
-0.6
 41
30.0
 62
     5
 63
     7
421
 16777215
 74
     1
 91
        4
 64
     7
 65
   257
 75
     1
175
     1
 42
1.0
 92
        0
 66
   257
 43
1.0
 76
     1
 77
     6
 78
     2
 67
     7
 79
     5
170
     0
171
     0
290
     0
174
     0
 93
       13
 44
0.0
173
     0
291
     1
 45
0.0
  0
VISUALSTYLE
  5
2D
102
{ACAD_REACTORS
330
2A
102
}
330
2A
100
AcDbVisualStyle
  2
Gouraud
 70
     2
 71
     2
 72
     2
 73
     1
 90
        2
 40
-0.6
 41
30.0
 62
     5
 63
     7
421
 16777215
 74
     0
 91
        4
 64
     7
 65
   257
 75
     1
175
     1
 42
1.0
 92
        0
 66
     7
 43
1.0
 76
     1
 77
     6
 78
     2
 67
     7
 79
     5
170
     0
171
     0
290
     0
174
     0
 93
       13
 44
0.0
173
     0
291
     1
 45
0.0
  0
VISUALSTYLE
  5
2E
102
{ACAD_REACTORS
330
2A
102
}
330
2A
100
AcDbVisualStyle
  2
GouraudWithEdges
 70
     3
 71
     2
 72
     2
 73
     1
 90
        2
 40
-0.6
 41
30.0
 62
     5
 63
     7
421
 16777215
 74
     1
 91
        4
 64
     7
 65
   257
 75
     1
175
     1
 42
1.0
 92
        0
 66
   257
 43
1.0
 76
     1
 77
     6
 78
     2
 67
     7
 79
     5
170
     0
171
     0
290
     0
174
     0
 93
       13
 44
0.0
173
     0
291
     1
 45
0.0
  0
VISUALSTYLE
  5
766
102
{ACAD_REACTORS
330
2A
102
}
330
2A
100
AcDbVisualStyle
  2
Hidden
 70
     6
 71
     1
 72
     2
 73
     2
 90
        0
 40
0.6
 41
30.0
 62
     5
 63
     7
421
 16777215
 74
     2
 91
        2
 64
     7
 65
   257
 75
     2
175
     1
 42
40.0
 92
        0
 66
   257
 43
1.0
 76
     1
 77
     6
 78
     2
 67
     7
 79
     3
170
     0
171
     0
290
     0
174
     0
 93
        1
 44
0.0
173
     0
291
     0
 45
0.0
  0
VISUALSTYLE
  5
767
102
{ACAD_REACTORS
330
2A
102
}
330
2A
100
AcDbVisualStyle
  2
JitterOff
 70
    20
 71
     2
 72
     2
 73
     0
 90
        0
 40
0.6
 41
30.0
 62
     5
 63
     7
421
 16777215
 74
     1
 91
        4
 64
     7
 65
   257
 75
     1
175
     1
 42
1.0
 92
       10
 66
     7
 43
1.0
 76
     1
 77
     6
 78
     2
 67
     7
 79
     5
170
     0
171
     0
290
     0
174
     0
 93
        1
 44
0.0
173
     0
291
     1
 45
0.0
  0
VISUALSTYLE
  5
38
102
{ACAD_REACTORS
330
2A
102
}
330
2A
100
AcDbVisualStyle
  2
Linepattern
 70
    14
 71
     2
 72
     2
 73
     0
 90
        0
 40
-0.6
 41
-30.0
 62
     5
 63
     7
421
 16777215
 74
     1
 91
        4
 64
     7
 65
   257
 75
     7
175
     7
 42
1.0
 92
        8
 66
     7
 43
1.0
 76
     1
 77
     6
 78
     2
 67
     7
 79
     5
170
     0
171
     0
290
     0
174
     0
 93
        1
 44
0.0
173
     0
291
     1
 45
0.0
  0
VISUALSTYLE
  5
768
102
{ACAD_REACTORS
330
2A
102
}
330
2A
100
AcDbVisualStyle
  2
OverhangOff
 70
    21
 71
     2
 72
     2
 73
     0
 90
        0
 40
0.6
 41
30.0
 62
     5
 63
     7
421
 16777215
 74
     1
 91
        4
 64
     7
 65
   257
 75
     1
175
     1
 42
1.0
 92
        9
 66
     7
 43
1.0
 76
     1
 77
     6
 78
     2
 67
     7
 79
     5
170
     0
171
     0
290
     0
174
     0
 93
        1
 44
0.0
173
     0
291
     1
 45
0.0
  0
VISUALSTYLE
  5
33
102
{ACAD_REACTORS
330
2A
102
}
330
2A
100
AcDbVisualStyle
  2
Realistic
 70
     8
 71
     2
 72
     2
 73
     0
 90
        0
 40
-0.6
 41
-30.0
 62
     5
 63
     7
421
 16777215
 74
     1
 91
        0
 64
     7
 65
   257
 75
     1
175
     1
 42
1.0
 92
        8
 66
     8
424
  7895160
 43
1.0
 76
     1
 77
     6
 78
     2
 67
     7
 79
     5
170
     0
171
     0
290
     0
174
     0
 93
       13
 44
0.0
173
     0
291
     0
 45
0.0
  0
VISUALSTYLE
  5
76E
102
{ACAD_REACTORS
330
2A
102
}
330
2A
100
AcDbVisualStyle
  2
Shaded
 70
    27
 71
     2
 72
     2
 73
     1
 90
        2
 40
0.6
 41
30.0
 62
     5
 63
     7
421
 16777215
 74
     0
 91
        4
 64
     7
 65
   257
 75
     1
175
     1
 42
1.0
 92
        8
 66
   257
 43
1.0
 76
     1
 77
     6
 78
     2
 67
     8
425
  7895160
 79
     3
170
     0
171
     0
290
     0
174
     0
 93
        5
 44
0.0
173
     0
291
     0
 45
0.0
  0
VISUALSTYLE
  5
76D
102
{ACAD_REACTORS
330
2A
102
}
330
2A
100
AcDbVisualStyle
  2
Shaded with edges
 70
    26
 71
     2
 72
     2
 73
     1
 90
        2
 40
0.6
 41
30.0
 62
     5
 63
     7
421
 16777215
 74
     1
 91
       10
 64
     7
 65
   257
 75
     2
175
     1
 42
1.0
 92
        8
 66
   257
 43
1.0
 76
     1
 77
     6
 78
     2
 67
     7
 79
     3
170
     0
171
     0
290
     0
174
     0
 93
        5
 44
0.0
173
     0
291
     0
 45
0.0
  0
VISUALSTYLE
  5
76A
102
{ACAD_REACTORS
330
2A
102
}
330
2A
100
AcDbVisualStyle
  2
Shades of Gray
 70
    23
 71
     2
 72
     2
 73
     3
 90
        0
 40
0.6
 41
30.0
 62
     5
 63
     7
421
 16777215
 74
     2
 91
        2
 64
     7
 65
     7
 75
     1
175
     1
 42
40.0
 92
        8
 66
     7
 43
1.0
 76
     1
 77
     6
 78
     2
 67
     7
 79
     3
170
     0
171
     0
290
     0
174
     0
 93
        1
 44
0.0
173
     0
291
     0
 45
0.0
  0
VISUALSTYLE
  5
76B
102
{ACAD_REACTORS
330
2A
102
}
330
2A
100
AcDbVisualStyle
  2
Sketchy
 70
    24
 71
     1
 72
     2
 73
     2
 90
        0
 40
0.6
 41
30.0
 62
     5
 63
     7
421
 16777215
 74
     2
 91
        2
 64
     7
 65
     7
 75
     1
175
     1
 42
40.0
 92
       11
 66
     7
 43
1.0
 76
     1
 77
     6
 78
     2
 67
     7
 79
     6
170
     0
171
     0
290
     0
174
     0
 93
        1
 44
0.0
173
     0
291
     0
 45
0.0
  0
VISUALSTYLE
  5
37
102
{ACAD_REACTORS
330
2A
102
}
330
2A
100
AcDbVisualStyle
  2
Thicken
 70
    13
 71
     2
 72
     2
 73
     0
 90
        0
 40
-0.6
 41
-30.0
 62
     5
 63
     7
421
 16777215
 74
     1
 91
        4
 64
     7
 65
   257
 75
     1
175
     1
 42
1.0
 92
       12
 66
     7
 43
1.0
 76
     1
 77
     6
 78
     2
 67
     7
 79
     5
170
     0
171
     0
290
     0
174
     0
 93
        1
 44
0.0
173
     0
291
     1
 45
0.0
  0
VISUALSTYLE
  5
765
102
{ACAD_REACTORS
330
2A
102
}
330
2A
100
AcDbVisualStyle
  2
Wireframe
 70
     5
 71
     0
 72
     2
 73
     0
 90
        0
 40
0.6
 41
30.0
 62
     5
 63
     7
421
 16777215
 74
     1
 91
        4
 64
     7
 65
   257
 75
     1
175
     1
 42
1.0
 92
        0
 66
   257
 43
1.0
 76
     1
 77
     6
 78
     2
 67
     7
 79
     3
170
     0
171
     0
290
     0
174
     0
 93
        1
 44
0.0
173
     0
291
     0
 45
0.0
  0
VISUALSTYLE
  5
76C
102
{ACAD_REACTORS
330
2A
102
}
330
2A
100
AcDbVisualStyle
  2
X-Ray
 70
    25
 71
     2
 72
     2
 73
     1
 90
        1
 40
0.5
 41
30.0
 62
     5
 63
     7
421
 16777215
 74
     1
 91
        0
 64
     7
 65
   257
 75
     1
175
     1
 42
1.0
 92
        8
 66
     7
 43
1.0
 76
     1
 77
     6
 78
     2
 67
     7
 79
     3
170
     0
171
     0
290
     0
174
     0
 93
       13
 44
0.0
173
     0
291
     0
 45
0.0
  0
DICTIONARYVAR
  5
776
102
{ACAD_REACTORS
330
775
102
}
330
775
100
DictionaryVariables
280
     0
  1
1:1
  0
DICTIONARYVAR
  5
77C
102
{ACAD_REACTORS
330
775
102
}
330
775
100
DictionaryVariables
280
     0
  1
Standard
  0
DICTIONARYVAR
  5
77B
102
{ACAD_REACTORS
330
775
102
}
330
775
100
DictionaryVariables
280
     0
  1
Standard
  0
DICTIONARYVAR
  5
77D
102
{ACAD_REACTORS
330
775
102
}
330
775
100
DictionaryVariables
280
     0
  1
0
  0
DICTIONARYVAR
  5
77E
102
{ACAD_REACTORS
330
775
102
}
330
775
100
DictionaryVariables
280
     0
  1
0
  0
FIELD
  5
9B0
102
{ACAD_REACTORS
330
9AF
330
B32
330
B33
102
}
330
B33
100
AcDbField
  1
_text
  2
{%<\_FldIdx 0>%N}
 90
        1
360
9B1
 97
        0
 91
       63
 92
        0
 94
       11
 95
        2
 96
        0
300

 93
        1
  6
ACFD_FIELDTEXT_CHECKSUM
 93
        2
 90
        2
140
4488.0
 94
        0
300

302

304
ACVALUE_END
  7
ACFD_FIELD_VALUE
 93
        6
 90
        4
  1
{20210902N}
 94
        0
300

302

304
ACVALUE_END
301
{20210902N}
 98
       11
  0
DICTIONARY
  5
B40
330
76F
100
AcDbDictionary
280
     1
281
     1
  3
ACAD_ROUNDTRIP_2008_TABLESTYLE_CELLSTYLEMAP
360
B41
  0
FIELD
  5
9B1
330
9B0
100
AcDbField
  1
AcVar
  2
\AcVar Date \f "yyyyMMdd"
 90
        0
 97
        0
 91
       63
 92
        0
 94
        8
 95
       64
 96
        0
300
Variable not supported
 93
        1
  6
Variable
 93
        2
 90
        4
  1
Date
 94
        0
300

302

304
ACVALUE_END
  7
ACFD_FIELD_VALUE
 93
        6
 90
        8
 92
       16
310
E5070900000002000100030014000000
 94
        0
300
yyyyMMdd
302

304
ACVALUE_END
301
20210902
 98
        8
  0
CELLSTYLEMAP
  5
B41
102
{ACAD_REACTORS
330
B40
102
}
330
B40
100
AcDbCellStyleMap
 90
        3
300
CELLSTYLE
  1
TABLEFORMAT_BEGIN
 90
        5
170
     1
 91
        0
 92
    32768
 62
   257
 93
        1
300
CONTENTFORMAT
  1
CONTENTFORMAT_BEGIN
 90
        0
 91
        0
 92
        4
 93
        0
300

 40
0.0
140
1.0
 94
        5
 62
     0
340
11
144
0.25
309
CONTENTFORMAT_END
171
     1
301
MARGIN
  1
CELLMARGIN_BEGIN
 40
0.06
 40
0.06
 40
0.06
 40
0.06
 40
0.06
 40
0.06
309
CELLMARGIN_END
 94
        6
 95
        1
302
GRIDFORMAT
  1
GRIDFORMAT_BEGIN
 90
        0
 91
        1
 62
     0
 92
       -2
340
14
 93
        0
 40
0.045
309
GRIDFORMAT_END
 95
        2
302
GRIDFORMAT
  1
GRIDFORMAT_BEGIN
 90
        0
 91
        1
 62
     0
 92
       -2
340
14
 93
        0
 40
0.045
309
GRIDFORMAT_END
 95
        4
302
GRIDFORMAT
  1
GRIDFORMAT_BEGIN
 90
        0
 91
        1
 62
     0
 92
       -2
340
14
 93
        0
 40
0.045
309
GRIDFORMAT_END
 95
        8
302
GRIDFORMAT
  1
GRIDFORMAT_BEGIN
 90
        0
 91
        1
 62
     0
 92
       -2
340
14
 93
        0
 40
0.045
309
GRIDFORMAT_END
 95
       16
302
GRIDFORMAT
  1
GRIDFORMAT_BEGIN
 90
        0
 91
        1
 62
     0
 92
       -2
340
14
 93
        0
 40
0.045
309
GRIDFORMAT_END
 95
       32
302
GRIDFORMAT
  1
GRIDFORMAT_BEGIN
 90
        0
 91
        1
 62
     0
 92
       -2
340
14
 93
        0
 40
0.045
309
GRIDFORMAT_END
309
TABLEFORMAT_END
  1
CELLSTYLE_BEGIN
 90
        1
 91
        1
300
_TITLE
309
CELLSTYLE_END
300
CELLSTYLE
  1
TABLEFORMAT_BEGIN
 90
        5
170
     1
 91
        0
 92
        0
 62
   257
 93
        1
300
CONTENTFORMAT
  1
CONTENTFORMAT_BEGIN
 90
        0
 91
        0
 92
        4
 93
        0
300

 40
0.0
140
1.0
 94
        5
 62
     0
340
11
144
0.18
309
CONTENTFORMAT_END
171
     1
301
MARGIN
  1
CELLMARGIN_BEGIN
 40
0.06
 40
0.06
 40
0.06
 40
0.06
 40
0.06
 40
0.06
309
CELLMARGIN_END
 94
        6
 95
        1
302
GRIDFORMAT
  1
GRIDFORMAT_BEGIN
 90
        0
 91
        1
 62
     0
 92
       -2
340
14
 93
        0
 40
0.045
309
GRIDFORMAT_END
 95
        2
302
GRIDFORMAT
  1
GRIDFORMAT_BEGIN
 90
        0
 91
        1
 62
     0
 92
       -2
340
14
 93
        0
 40
0.045
309
GRIDFORMAT_END
 95
        4
302
GRIDFORMAT
  1
GRIDFORMAT_BEGIN
 90
        0
 91
        1
 62
     0
 92
       -2
340
14
 93
        0
 40
0.045
309
GRIDFORMAT_END
 95
        8
302
GRIDFORMAT
  1
GRIDFORMAT_BEGIN
 90
        0
 91
        1
 62
     0
 92
       -2
340
14
 93
        0
 40
0.045
309
GRIDFORMAT_END
 95
       16
302
GRIDFORMAT
  1
GRIDFORMAT_BEGIN
 90
        0
 91
        1
 62
     0
 92
       -2
340
14
 93
        0
 40
0.045
309
GRIDFORMAT_END
 95
       32
302
GRIDFORMAT
  1
GRIDFORMAT_BEGIN
 90
        0
 91
        1
 62
     0
 92
       -2
340
14
 93
        0
 40
0.045
309
GRIDFORMAT_END
309
TABLEFORMAT_END
  1
CELLSTYLE_BEGIN
 90
        2
 91
        1
300
_HEADER
309
CELLSTYLE_END
300
CELLSTYLE
  1
TABLEFORMAT_BEGIN
 90
        5
170
     1
 91
        0
 92
        0
 62
   257
 93
        1
300
CONTENTFORMAT
  1
CONTENTFORMAT_BEGIN
 90
        0
 91
        0
 92
        4
 93
        0
300

 40
0.0
140
1.0
 94
        2
 62
     0
340
11
144
0.18
309
CONTENTFORMAT_END
171
     1
301
MARGIN
  1
CELLMARGIN_BEGIN
 40
0.06
 40
0.06
 40
0.06
 40
0.06
 40
0.06
 40
0.06
309
CELLMARGIN_END
 94
        6
 95
        1
302
GRIDFORMAT
  1
GRIDFORMAT_BEGIN
 90
        0
 91
        1
 62
     0
 92
       -2
340
14
 93
        0
 40
0.045
309
GRIDFORMAT_END
 95
        2
302
GRIDFORMAT
  1
GRIDFORMAT_BEGIN
 90
        0
 91
        1
 62
     0
 92
       -2
340
14
 93
        0
 40
0.045
309
GRIDFORMAT_END
 95
        4
302
GRIDFORMAT
  1
GRIDFORMAT_BEGIN
 90
        0
 91
        1
 62
     0
 92
       -2
340
14
 93
        0
 40
0.045
309
GRIDFORMAT_END
 95
        8
302
GRIDFORMAT
  1
GRIDFORMAT_BEGIN
 90
        0
 91
        1
 62
     0
 92
       -2
340
14
 93
        0
 40
0.045
309
GRIDFORMAT_END
 95
       16
302
GRIDFORMAT
  1
GRIDFORMAT_BEGIN
 90
        0
 91
        1
 62
     0
 92
       -2
340
14
 93
        0
 40
0.045
309
GRIDFORMAT_END
 95
       32
302
GRIDFORMAT
  1
GRIDFORMAT_BEGIN
 90
        0
 91
        1
 62
     0
 92
       -2
340
14
 93
        0
 40
0.045
309
GRIDFORMAT_END
309
TABLEFORMAT_END
  1
CELLSTYLE_BEGIN
 90
        3
 91
        2
300
_DATA
309
CELLSTYLE_END
  0
ENDSEC
  0
EOF
