  0
SECTION
  2
HEADER
  9
$ACADVER
  1
AC1021
  9
$ACADMAINTVER
 70
    25
  9
$DWGCODEPAGE
  3
ANSI_932
  9
$LASTSAVEDBY
  1
howeNelson
  9
$INSBASE
 10
0.0
 20
0.0
 30
0.0
  9
$EXTMIN
 10
0.0
 20
0.0
 30
-0.0000000000000071
  9
$EXTMAX
 10
630.0
 20
891.0
 30
0.0000000000000071
  9
$LIMMIN
 10
0.0
 20
0.0
  9
$LIMMAX
 10
630.0
 20
891.0
  9
$ORTHOMODE
 70
     0
  9
$REGENMODE
 70
     1
  9
$FILLMODE
 70
     1
  9
$QTEXTMODE
 70
     0
  9
$MIRRTEXT
 70
     1
  9
$LTSCALE
 40
1.5
  9
$ATTMODE
 70
     1
  9
$TEXTSIZE
 40
2.5
  9
$TRACEWID
 40
1.0
  9
$TEXTSTYLE
  7
ＭＳ ゴシック
  9
$CLAYER
  8
DIM
  9
$CELTYPE
  6
ByLayer
  9
$CECOLOR
 62
   256
  9
$CELTSCALE
 40
1.0
  9
$DISPSILH
 70
     0
  9
$DIMSCALE
 40
1.0
  9
$DIMASZ
 40
3.0
  9
$DIMEXO
 40
5.0
  9
$DIMDLI
 40
0.9999999999999999
  9
$DIMRND
 40
0.0
  9
$DIMDLE
 40
0.0
  9
$DIMEXE
 40
0.0
  9
$DIMTP
 40
0.0
  9
$DIMTM
 40
0.0
  9
$DIMTXT
 40
8.0
  9
$DIMCEN
 40
0.0
  9
$DIMTSZ
 40
0.0
  9
$DIMTOL
 70
     0
  9
$DIMLIM
 70
     0
  9
$DIMTIH
 70
     0
  9
$DIMTOH
 70
     0
  9
$DIMSE1
 70
     0
  9
$DIMSE2
 70
     0
  9
$DIMTAD
 70
     1
  9
$DIMZIN
 70
    11
  9
$DIMBLK
  1
DOT
  9
$DIMASO
 70
     1
  9
$DIMSHO
 70
     1
  9
$DIMPOST
  1
<>
  9
$DIMAPOST
  1
[]
  9
$DIMALT
 70
     0
  9
$DIMALTD
 70
     1
  9
$DIMALTF
 40
1.0
  9
$DIMLFAC
 40
1.0
  9
$DIMTOFL
 70
     0
  9
$DIMTVP
 40
0.0
  9
$DIMTIX
 70
     1
  9
$DIMSOXD
 70
     0
  9
$DIMSAH
 70
     0
  9
$DIMBLK1
  1

  9
$DIMBLK2
  1

  9
$DIMSTYLE
  2
tfrom線あり
  9
$DIMCLRD
 70
     0
  9
$DIMCLRE
 70
     0
  9
$DIMCLRT
 70
     0
  9
$DIMTFAC
 40
1.0
  9
$DIMGAP
 40
3.0
  9
$DIMJUST
 70
     0
  9
$DIMSD1
 70
     0
  9
$DIMSD2
 70
     0
  9
$DIMTOLJ
 70
     1
  9
$DIMTZIN
 70
    11
  9
$DIMALTZ
 70
    11
  9
$DIMALTTZ
 70
    11
  9
$DIMUPT
 70
     0
  9
$DIMDEC
 70
     0
  9
$DIMTDEC
 70
     1
  9
$DIMALTU
 70
     2
  9
$DIMALTTD
 70
     2
  9
$DIMTXSTY
  7
ＭＳ ゴシック
  9
$DIMAUNIT
 70
     0
  9
$DIMADEC
 70
     2
  9
$DIMALTRND
 40
0.0
  9
$DIMAZIN
 70
     0
  9
$DIMDSEP
 70
    46
  9
$DIMATFIT
 70
     0
  9
$DIMFRAC
 70
     2
  9
$DIMLDRBLK
  1
DOT
  9
$DIMLUNIT
 70
     2
  9
$DIMLWD
 70
    -2
  9
$DIMLWE
 70
    -2
  9
$DIMTMOVE
 70
     0
  9
$DIMFXL
 40
1.0
  9
$DIMFXLON
 70
     0
  9
$DIMJOGANG
 40
0.7853981633974483
  9
$DIMTFILL
 70
     0
  9
$DIMTFILLCLR
 70
     0
  9
$DIMARCSYM
 70
     0
  9
$DIMLTYPE
  6

  9
$DIMLTEX1
  6

  9
$DIMLTEX2
  6

  9
$LUNITS
 70
     2
  9
$LUPREC
 70
     0
  9
$SKETCHINC
 40
0.1
  9
$FILLETRAD
 40
0.0
  9
$AUNITS
 70
     0
  9
$AUPREC
 70
     0
  9
$MENU
  1
acad
  9
$ELEVATION
 40
0.0
  9
$PELEVATION
 40
0.0
  9
$THICKNESS
 40
0.0
  9
$LIMCHECK
 70
     0
  9
$CHAMFERA
 40
0.0
  9
$CHAMFERB
 40
0.0
  9
$CHAMFERC
 40
0.0
  9
$CHAMFERD
 40
0.0
  9
$SKPOLY
 70
     0
  9
$TDCREATE
 40
2447893.375
  9
$TDUCREATE
 40
0.0
  9
$TDUPDATE
 40
2458922.698597824
  9
$TDUUPDATE
 40
2458922.323597824
  9
$TDINDWG
 40
0.0013823495
  9
$TDUSRTIMER
 40
0.0013823495
  9
$USRTIMER
 70
     1
  9
$ANGBASE
 50
0.0
  9
$ANGDIR
 70
     0
  9
$PDMODE
 70
     1
  9
$PDSIZE
 40
-2.0
  9
$PLINEWID
 40
0.0
  9
$SPLFRAME
 70
     0
  9
$SPLINETYPE
 70
     6
  9
$SPLINESEGS
 70
     8
  9
$HANDSEED
  5
181BE
  9
$SURFTAB1
 70
     6
  9
$SURFTAB2
 70
     6
  9
$SURFTYPE
 70
     6
  9
$SURFU
 70
     6
  9
$SURFV
 70
     6
  9
$UCSBASE
  2

  9
$UCSNAME
  2

  9
$UCSORG
 10
0.0
 20
0.0
 30
0.0
  9
$UCSXDIR
 10
1.0
 20
0.0
 30
0.0
  9
$UCSYDIR
 10
0.0
 20
1.0
 30
0.0
  9
$UCSORTHOREF
  2

  9
$UCSORTHOVIEW
 70
     0
  9
$UCSORGTOP
 10
0.0
 20
0.0
 30
0.0
  9
$UCSORGBOTTOM
 10
0.0
 20
0.0
 30
0.0
  9
$UCSORGLEFT
 10
0.0
 20
0.0
 30
0.0
  9
$UCSORGRIGHT
 10
0.0
 20
0.0
 30
0.0
  9
$UCSORGFRONT
 10
0.0
 20
0.0
 30
0.0
  9
$UCSORGBACK
 10
0.0
 20
0.0
 30
0.0
  9
$PUCSBASE
  2

  9
$PUCSNAME
  2

  9
$PUCSORG
 10
0.0
 20
0.0
 30
0.0
  9
$PUCSXDIR
 10
1.0
 20
0.0
 30
0.0
  9
$PUCSYDIR
 10
0.0
 20
1.0
 30
0.0
  9
$PUCSORTHOREF
  2

  9
$PUCSORTHOVIEW
 70
     0
  9
$PUCSORGTOP
 10
0.0
 20
0.0
 30
0.0
  9
$PUCSORGBOTTOM
 10
0.0
 20
0.0
 30
0.0
  9
$PUCSORGLEFT
 10
0.0
 20
0.0
 30
0.0
  9
$PUCSORGRIGHT
 10
0.0
 20
0.0
 30
0.0
  9
$PUCSORGFRONT
 10
0.0
 20
0.0
 30
0.0
  9
$PUCSORGBACK
 10
0.0
 20
0.0
 30
0.0
  9
$USERI1
 70
     0
  9
$USERI2
 70
     0
  9
$USERI3
 70
     0
  9
$USERI4
 70
     0
  9
$USERI5
 70
     0
  9
$USERR1
 40
0.0
  9
$USERR2
 40
0.0
  9
$USERR3
 40
0.0
  9
$USERR4
 40
0.0
  9
$USERR5
 40
0.0
  9
$WORLDVIEW
 70
     1
  9
$SHADEDGE
 70
     3
  9
$SHADEDIF
 70
    70
  9
$TILEMODE
 70
     1
  9
$MAXACTVP
 70
    64
  9
$PINSBASE
 10
0.0
 20
0.0
 30
0.0
  9
$PLIMCHECK
 70
     0
  9
$PEXTMIN
 10
0.0
 20
0.0
 30
0.0
  9
$PEXTMAX
 10
0.0
 20
0.0
 30
0.0
  9
$PLIMMIN
 10
-7.5
 20
-20.0
  9
$PLIMMAX
 10
412.5
 20
277.0
  9
$UNITMODE
 70
     0
  9
$VISRETAIN
 70
     0
  9
$PLINEGEN
 70
     1
  9
$PSLTSCALE
 70
     0
  9
$TREEDEPTH
 70
  3020
  9
$CMLSTYLE
  2
Standard
  9
$CMLJUST
 70
     0
  9
$CMLSCALE
 40
1.0
  9
$PROXYGRAPHICS
 70
     0
  9
$MEASUREMENT
 70
     1
  9
$CELWEIGHT
370
    -1
  9
$ENDCAPS
280
     0
  9
$JOINSTYLE
280
     0
  9
$LWDISPLAY
290
     1
  9
$INSUNITS
 70
     4
  9
$HYPERLINKBASE
  1

  9
$STYLESHEET
  1

  9
$XEDIT
290
     1
  9
$CEPSNTYPE
380
     0
  9
$PSTYLEMODE
290
     1
  9
$FINGERPRINTGUID
  2

  9
$VERSIONGUID
  2

  9
$EXTNAMES
290
     1
  9
$PSVPSCALE
 40
0.0
  9
$OLESTARTUP
290
     0
  9
$SORTENTS
280
   127
  9
$INDEXCTL
280
     0
  9
$HIDETEXT
280
     1
  9
$XCLIPFRAME
290
     0
  9
$HALOGAP
280
     0
  9
$OBSCOLOR
 70
   257
  9
$OBSLTYPE
280
     0
  9
$INTERSECTIONDISPLAY
280
     0
  9
$INTERSECTIONCOLOR
 70
   257
  9
$DIMASSOC
280
     2
  9
$PROJECTNAME
  1

  9
$CAMERADISPLAY
290
     0
  9
$LENSLENGTH
 40
50.0
  9
$CAMERAHEIGHT
 40
0.0
  9
$STEPSPERSEC
 40
2.0
  9
$STEPSIZE
 40
6.0
  9
$3DDWFPREC
 40
2.0
  9
$PSOLWIDTH
 40
0.25
  9
$PSOLHEIGHT
 40
4.0
  9
$LOFTANG1
 40
1.570796326794897
  9
$LOFTANG2
 40
1.570796326794897
  9
$LOFTMAG1
 40
0.0
  9
$LOFTMAG2
 40
0.0
  9
$LOFTPARAM
 70
     7
  9
$LOFTNORMALS
280
     1
  9
$LATITUDE
 40
37.795
  9
$LONGITUDE
 40
-122.394
  9
$NORTHDIRECTION
 40
0.0
  9
$TIMEZONE
 70
 -8000
  9
$LIGHTGLYPHDISPLAY
280
     1
  9
$TILEMODELIGHTSYNCH
280
     1
  9
$SOLIDHIST
280
     1
  9
$SHOWHIST
280
     1
  9
$DWFFRAME
280
     2
  9
$DGNFRAME
280
     2
  9
$REALWORLDSCALE
290
     1
  9
$INTERFERECOLOR
 62
   256
  9
$CSHADOW
280
     0
  9
$SHADOWPLANELOCATION
 40
0.0
  0
ENDSEC
  0
SECTION
  2
CLASSES
  0
CLASS
  1
LWPOLYLINE
  2
AcDbPolyline
  3
ObjectDBX Classes
 90
        0
 91
        1
280
     0
281
     1
  0
CLASS
  1
IMAGE
  2
AcDbRasterImage
  3
ISM
 90
      127
 91
        5
280
     0
281
     1
  0
CLASS
  1
OLE2FRAME
  2
AcDbOle2Frame
  3
ObjectDBX Classes
 90
        0
 91
        1
280
     0
281
     1
  0
CLASS
  1
HATCH
  2
AcDbHatch
  3
ObjectDBX Classes
 90
        0
 91
        1
280
     0
281
     1
  0
CLASS
  1
DICTIONARYVAR
  2
AcDbDictionaryVar
  3
ObjectDBX Classes
 90
        0
 91
        4
280
     0
281
     0
  0
CLASS
  1
RASTERVARIABLES
  2
AcDbRasterVariables
  3
ISM
 90
        0
 91
        4
280
     0
281
     0
  0
CLASS
  1
IMAGEDEF
  2
AcDbRasterImageDef
  3
ISM
 90
        0
 91
        4
280
     0
281
     0
  0
CLASS
  1
IMAGEDEF_REACTOR
  2
AcDbRasterImageDefReactor
  3
ISM
 90
        1
 91
        4
280
     0
281
     0
  0
CLASS
  1
IDBUFFER
  2
AcDbIdBuffer
  3
ObjectDBX Classes
 90
        0
 91
        4
280
     0
281
     0
  0
CLASS
  1
SPATIAL_FILTER
  2
AcDbSpatialFilter
  3
ObjectDBX Classes
 90
        0
 91
        4
280
     0
281
     0
  0
CLASS
  1
XRECORD
  2
AcDbXrecord
  3
ObjectDBX Classes
 90
        0
 91
        1
280
     0
281
     0
  0
CLASS
  1
SORTENTSTABLE
  2
AcDbSortentsTable
  3
ObjectDBX Classes
 90
        0
 91
        4
280
     0
281
     0
  0
CLASS
  1
LAYER_INDEX
  2
AcDbLayerIndex
  3
ObjectDBX Classes
 90
        0
 91
        4
280
     0
281
     0
  0
CLASS
  1
SPATIAL_INDEX
  2
AcDbSpatialIndex
  3
AutoCAD 2000
 90
        0
 91
        4
280
     0
281
     0
  0
CLASS
  1
OBJECT_PTR
  2
CAseDLPNTableRecord
  3
ASE-LPNTableRecord
 90
        1
 91
        4
280
     0
281
     0
  0
CLASS
  1
LAYOUT
  2
AcDbLayout
  3
ObjectDBX Classes
 90
        0
 91
        1
280
     0
281
     0
  0
CLASS
  1
PLOTSETTINGS
  2
AcDbPlotSettings
  3
ObjectDBX Classes
 90
        0
 91
        4
280
     0
281
     0
  0
CLASS
  1
ACDBDICTIONARYWDFLT
  2
AcDbDictionaryWithDefault
  3
ObjectDBX Classes
 90
        0
 91
        4
280
     0
281
     0
  0
CLASS
  1
ACDBPLACEHOLDER
  2
AcDbPlaceHolder
  3
ObjectDBX Classes
 90
        0
 91
        1
280
     0
281
     0
  0
CLASS
  1
SCALE
  2
AcDbScale
  3
ObjectDBX Classes
 90
     1153
 91
        4
280
     0
281
     0
  0
CLASS
  1
MATERIAL
  2
AcDbMaterial
  3
ObjectDBX Classes
 90
     1153
 91
        4
280
     0
281
     0
  0
CLASS
  1
VISUALSTYLE
  2
AcDbVisualStyle
  3
ObjectDBX Classes
 90
     4095
 91
        4
280
     0
281
     0
  0
CLASS
  1
TABLESTYLE
  2
AcDbTableStyle
  3
ObjectDBX Classes
 90
     4095
 91
        4
280
     0
281
     0
  0
CLASS
  1
DIMASSOC
  2
AcDbDimAssoc
  3
"AcDbDimAssoc|Product Desc:     AcDim ARX App For Dimension|Company:          Autodesk, Inc.|WEB Address:      www.autodesk.com"
 90
        0
 91
        4
280
     0
281
     0
  0
CLASS
  1
CELLSTYLEMAP
  2
AcDbCellStyleMap
  3
ObjectDBX Classes
 90
     1152
 91
        4
280
     0
281
     0
  0
CLASS
  1
SUN
  2
AcDbSun
  3
SCENEOE
 90
     1153
 91
        4
280
     0
281
     0
  0
CLASS
  1
MLEADERSTYLE
  2
AcDbMLeaderStyle
  3
ACDB_MLEADERSTYLE_CLASS
 90
     4095
 91
        4
280
     0
281
     0
  0
CLASS
  1
FIELD
  2
AcDbField
  3
ObjectDBX Classes
 90
     1152
 91
        4
280
     0
281
     0
  0
CLASS
  1
FIELDLIST
  2
AcDbFieldList
  3
ObjectDBX Classes
 90
     1152
 91
        4
280
     0
281
     0
  0
ENDSEC
  0
SECTION
  2
TABLES
  0
TABLE
  2
VPORT
  5
7
330
0
100
AcDbSymbolTable
 70
     1
  0
VPORT
  5
15
330
7
100
AcDbSymbolTableRecord
100
AcDbViewportTableRecord
  2
*ACTIVE
 70
     0
 10
0.0
 20
0.0
 11
1.0
 21
1.0
 12
406.0201356708997
 22
371.9012854698341
 13
0.0
 23
0.0
 14
1.0
 24
1.0
 15
0.0
 25
0.0
 16
0.0
 26
0.0
 36
1.0
 17
-91.02013567089966
 27
73.59871453016592
 37
-46.86809886248109
 40
908.82
 41
2.357037037037037
 42
50.0
 43
0.0
 44
0.0
 50
0.0
 51
0.0
 71
    16
 72
  2000
 73
     1
 74
     1
 75
     0
 76
     0
 77
     0
 78
     0
281
     0
 65
     1
110
0.0
120
0.0
130
0.0
111
1.0
121
0.0
131
0.0
112
0.0
122
1.0
132
0.0
 79
     0
146
0.0
348
3666
 60
     3
 61
     5
292
     1
282
     1
141
0.0
142
0.0
 63
   256
361
904
  0
ENDTAB
  0
TABLE
  2
LTYPE
  5
4
330
0
100
AcDbSymbolTable
 70
     5
  0
LTYPE
  5
11
330
4
100
AcDbSymbolTableRecord
100
AcDbLinetypeTableRecord
  2
ByBlock
 70
     0
  3

 72
    65
 73
     0
 40
0.0
  0
LTYPE
  5
12
330
4
100
AcDbSymbolTableRecord
100
AcDbLinetypeTableRecord
  2
ByLayer
 70
     0
  3

 72
    65
 73
     0
 40
0.0
  0
LTYPE
  5
13
330
4
100
AcDbSymbolTableRecord
100
AcDbLinetypeTableRecord
  2
Continuous
 70
     0
  3
Solid line
 72
    65
 73
     0
 40
0.0
  0
LTYPE
  5
D6C
330
4
100
AcDbSymbolTableRecord
100
AcDbLinetypeTableRecord
  2
BORDER
 70
     0
  3
Border __  __  . __  __  . __  __  . __  __  . 
 72
    65
 73
     6
 40
44.45
 49
12.7
 74
     0
 49
-6.35
 74
     0
 49
12.7
 74
     0
 49
-6.35
 74
     0
 49
0.0
 74
     0
 49
-6.35
 74
     0
  0
LTYPE
  5
D6D
330
4
100
AcDbSymbolTableRecord
100
AcDbLinetypeTableRecord
  2
HIDDEN
 70
     0
  3
Hidden _ _ _ _ _ _ _ _ _ _ _ _ _ _ _ _ _ _ _ _ 
 72
    65
 73
     2
 40
9.524999999999999
 49
6.35
 74
     0
 49
-3.175
 74
     0
  0
LTYPE
  5
17404
330
4
100
AcDbSymbolTableRecord
100
AcDbLinetypeTableRecord
  2
CENTER2
 70
     0
  3
Center (.5x) ___ _ ___ _ ___ _ ___ _ ___ _ ___
 72
    65
 73
     4
 40
28.575
 49
19.05
 74
     0
 49
-3.175
 74
     0
 49
3.175
 74
     0
 49
-3.175
 74
     0
  0
LTYPE
  5
17C5A
330
4
100
AcDbSymbolTableRecord
100
AcDbLinetypeTableRecord
  2
LINEA-LINEETTA2
 70
     0
  3
linea-lineetta (.5x) ___ _ ___ _ ___ _ ___ _ __
 72
    65
 73
     4
 40
1.125
 49
0.75
 74
     0
 49
-0.125
 74
     0
 49
0.125
 74
     0
 49
-0.125
 74
     0
  0
ENDTAB
  0
TABLE
  2
LAYER
  5
2
102
{ACAD_XDICTIONARY
360
2E1
102
}
330
0
100
AcDbSymbolTable
 70
    11
  0
LAYER
  5
14
330
2
100
AcDbSymbolTableRecord
100
AcDbLayerTableRecord
  2
0
 70
     0
 62
     7
  6
Continuous
370
    -3
390
1D
347
266
  0
LAYER
  5
4B
330
2
100
AcDbSymbolTableRecord
100
AcDbLayerTableRecord
  2
TEMPLATE
 70
     0
 62
     7
  6
Continuous
370
    20
390
1D
347
266
  0
LAYER
  5
4C
330
2
100
AcDbSymbolTableRecord
100
AcDbLayerTableRecord
  2
DIM
 70
     0
 62
     3
  6
Continuous
370
    13
390
1D
347
266
  0
LAYER
  5
4D
330
2
100
AcDbSymbolTableRecord
100
AcDbLayerTableRecord
  2
MODEL
 70
     0
 62
     7
  6
Continuous
370
    20
390
1D
347
266
  0
LAYER
  5
88C
330
2
100
AcDbSymbolTableRecord
100
AcDbLayerTableRecord
  2
HIDDEN
 70
     0
 62
     8
  6
HIDDEN
370
    20
390
1D
347
266
1001
AcAecLayerStandard
1000

1000

  0
LAYER
  5
D6B
330
2
100
AcDbSymbolTableRecord
100
AcDbLayerTableRecord
  2
BORDER
 70
     0
 62
     4
  6
BORDER
290
     0
370
    20
390
1D
347
266
1001
AcAecLayerStandard
1000

1000

  0
LAYER
  5
A5DF
330
2
100
AcDbSymbolTableRecord
100
AcDbLayerTableRecord
  2
Defpoints
 70
     0
 62
     7
  6
Continuous
290
     0
370
    -3
390
1D
347
266
  0
LAYER
  5
17C56
102
{ACAD_XDICTIONARY
360
17C57
102
}
330
2
100
AcDbSymbolTableRecord
100
AcDbLayerTableRecord
  2
ASSI
 70
     0
 62
     7
  6
LINEA-LINEETTA2
370
    -3
390
1D
347
266
  0
LAYER
  5
17C5B
102
{ACAD_XDICTIONARY
360
17C5C
102
}
330
2
100
AcDbSymbolTableRecord
100
AcDbLayerTableRecord
  2
QUOTE
 70
     0
 62
     3
  6
Continuous
370
    -3
390
1D
347
266
  0
LAYER
  5
17C5E
102
{ACAD_XDICTIONARY
360
17C5F
102
}
330
2
100
AcDbSymbolTableRecord
100
AcDbLayerTableRecord
  2
SPESSA
 70
     0
 62
     4
  6
Continuous
370
    -3
390
1D
347
266
  0
LAYER
  5
17C61
102
{ACAD_XDICTIONARY
360
17C62
102
}
330
2
100
AcDbSymbolTableRecord
100
AcDbLayerTableRecord
  2
FINE
 70
     0
 62
     1
  6
Continuous
370
    -3
390
1D
347
266
  0
ENDTAB
  0
TABLE
  2
STYLE
  5
3
330
0
100
AcDbSymbolTable
 70
     4
  0
STYLE
  5
17
330
3
100
AcDbSymbolTableRecord
100
AcDbTextStyleTableRecord
  2
Standard
 70
     0
 40
0.0
 41
1.0
 50
0.0
 71
     0
 42
2.5
  3
txt
  4
BIGFONT.SHX
  0
STYLE
  5
39
330
3
100
AcDbSymbolTableRecord
100
AcDbTextStyleTableRecord
  2
ＭＳ ゴシック
 70
     0
 40
0.0
 41
1.0
 50
0.0
 71
     0
 42
2.5
  3
msgothic.ttc
  4
ＭＳ ゴシック
1001
ACAD
1000
ＭＳ ゴシック
1071
        0
  0
STYLE
  5
17C65
330
3
100
AcDbSymbolTableRecord
100
AcDbTextStyleTableRecord
  2
ARIAL
 70
     0
 40
0.0
 41
1.0
 50
0.0
 71
     0
 42
2.5
  3
ARIAL.TTF
  4

1001
ACAD
1000
Arial
1071
       34
  0
STYLE
  5
17C68
330
3
100
AcDbSymbolTableRecord
100
AcDbTextStyleTableRecord
  2
ROMANS
 70
     0
 40
0.0
 41
1.0
 50
0.0
 71
     0
 42
2.5
  3
romans.shx
  4

  0
ENDTAB
  0
TABLE
  2
VIEW
  5
5
330
0
100
AcDbSymbolTable
 70
     0
  0
ENDTAB
  0
TABLE
  2
UCS
  5
6
330
0
100
AcDbSymbolTable
 70
     0
  0
ENDTAB
  0
TABLE
  2
APPID
  5
8
330
0
100
AcDbSymbolTable
 70
     3
  0
APPID
  5
16
330
8
100
AcDbSymbolTableRecord
100
AcDbRegAppTableRecord
  2
ACAD
 70
     0
  0
APPID
  5
7AC
330
8
100
AcDbSymbolTableRecord
100
AcDbRegAppTableRecord
  2
AcAecLayerStandard
 70
     0
  0
APPID
  5
E29
330
8
100
AcDbSymbolTableRecord
100
AcDbRegAppTableRecord
  2
ACAD_MLEADERVER
 70
     0
  0
ENDTAB
  0
TABLE
  2
DIMSTYLE
  5
9
330
0
100
AcDbSymbolTable
 70
     4
100
AcDbDimStyleTable
  0
DIMSTYLE
105
18
330
9
100
AcDbSymbolTableRecord
100
AcDbDimStyleTableRecord
  2
Standard
 70
     0
178
     0
340
17
  0
DIMSTYLE
105
57
102
{ACAD_REACTORS
330
17E79
330
17E7A
330
17EC0
330
17F50
330
17F56
330
17FEA
330
180EA
330
180F4
330
18104
102
}
330
9
100
AcDbSymbolTableRecord
100
AcDbDimStyleTableRecord
  2
tfrom線あり
 70
     0
  3
<>
  4
[]
 41
3.0
 42
5.0
 43
0.9999999999999999
 44
0.0
 73
     0
 74
     0
 77
     1
 78
    11
140
8.0
141
0.0
143
1.0
147
3.0
171
     1
174
     1
178
     0
179
     2
271
     0
272
     1
276
     2
284
    11
285
    11
286
    11
289
     0
340
39
341
4E
342
4E
  0
DIMSTYLE
105
17C64
102
{ACAD_REACTORS
102
}
330
9
100
AcDbSymbolTableRecord
100
AcDbDimStyleTableRecord
  2
ARIAL
 70
     0
 41
10.0
 42
3.0
 43
0.5
 44
3.0
 73
     0
 74
     0
 77
     1
 78
     8
140
12.0
141
0.0
146
0.5
147
4.0
171
     1
172
     1
178
     0
271
     1
289
     0
340
17C65
  0
DIMSTYLE
105
17C66
102
{ACAD_REACTORS
102
}
330
9
100
AcDbSymbolTableRecord
100
AcDbDimStyleTableRecord
  2
ARIAL-EUR
 70
     0
 41
10.0
 42
3.0
 43
0.5
 44
3.0
 73
     0
 74
     0
 77
     1
 78
     8
140
12.0
141
0.0
146
0.5
147
4.0
171
     1
172
     1
176
   256
177
   256
271
     0
178
   256
271
     0
272
     0
274
     1
289
     0
340
17C65
371
    -1
372
    -1
  0
ENDTAB
  0
TABLE
  2
BLOCK_RECORD
  5
1
330
0
100
AcDbSymbolTable
 70
    49
  0
BLOCK_RECORD
  5
A
102
{ACAD_XDICTIONARY
360
1733E
102
}
330
1
100
AcDbSymbolTableRecord
100
AcDbBlockTableRecord
  2
*MODEL_SPACE
340
20
 70
     0
280
     1
281
     0
  0
BLOCK_RECORD
  5
B
330
1
100
AcDbSymbolTableRecord
100
AcDbBlockTableRecord
  2
*PAPER_SPACE
340
21
 70
     0
280
     1
281
     0
  0
BLOCK_RECORD
  5
4E
330
1
100
AcDbSymbolTableRecord
100
AcDbBlockTableRecord
  2
_DOT
340
0
102
{BLKREFS
331
17326
331
17327
331
17335
331
17336
331
173AB
331
173AC
331
173BA
331
173BB
331
173D8
331
173D9
331
173E4
331
173E5
331
17436
331
17437
331
17443
331
17444
331
175CA
331
175CB
331
175D8
331
175D9
331
175E9
331
175EA
331
17608
331
17609
331
17617
331
17618
331
17629
331
1762A
331
17B76
331
17B77
331
17B82
331
17B83
331
17B8E
331
17B8F
331
17B9A
331
17B9B
331
17BA7
331
17BA8
331
17BB5
331
17BB6
331
17BC1
331
17BC2
331
17BCD
331
17BCE
331
17C1D
331
17C1E
331
17C30
331
17C31
331
17F8D
331
17F8E
331
17F99
331
17F9A
331
17FA8
331
17FA9
331
17FB4
331
17FB5
331
17FC0
331
17FC1
331
17FCC
331
17FCD
331
17FD8
331
17FD9
331
17FE4
331
17FE5
331
17FF3
331
17FF4
331
1810B
331
1810C
331
18117
331
18118
331
18123
331
18124
331
1812F
331
18130
331
1813B
331
1813C
331
18147
331
18148
102
}
 70
     0
280
     1
281
     0
  0
BLOCK_RECORD
  5
68D
330
1
100
AcDbSymbolTableRecord
100
AcDbBlockTableRecord
  2
block 2
340
0
102
{BLKREFS
331
68C
331
1343
102
}
 70
     0
280
     1
281
     0
  0
BLOCK_RECORD
  5
17320
330
1
100
AcDbSymbolTableRecord
100
AcDbBlockTableRecord
  2
*D2
340
0
 70
     0
280
     1
281
     0
  0
BLOCK_RECORD
  5
1732F
330
1
100
AcDbSymbolTableRecord
100
AcDbBlockTableRecord
  2
*D3
340
0
 70
     0
280
     1
281
     0
  0
BLOCK_RECORD
  5
173A6
330
1
100
AcDbSymbolTableRecord
100
AcDbBlockTableRecord
  2
*D4
340
0
 70
     0
280
     1
281
     0
  0
BLOCK_RECORD
  5
173B5
330
1
100
AcDbSymbolTableRecord
100
AcDbBlockTableRecord
  2
*D5
340
0
 70
     0
280
     1
281
     0
  0
BLOCK_RECORD
  5
173D2
330
1
100
AcDbSymbolTableRecord
100
AcDbBlockTableRecord
  2
*D6
340
0
 70
     0
280
     1
281
     0
  0
BLOCK_RECORD
  5
173DE
330
1
100
AcDbSymbolTableRecord
100
AcDbBlockTableRecord
  2
*D7
340
0
 70
     0
280
     1
281
     0
  0
BLOCK_RECORD
  5
17431
330
1
100
AcDbSymbolTableRecord
100
AcDbBlockTableRecord
  2
*D8
340
0
 70
     0
280
     1
281
     0
  0
BLOCK_RECORD
  5
1743E
330
1
100
AcDbSymbolTableRecord
100
AcDbBlockTableRecord
  2
*D9
340
0
 70
     0
280
     1
281
     0
  0
BLOCK_RECORD
  5
175C5
330
1
100
AcDbSymbolTableRecord
100
AcDbBlockTableRecord
  2
*D10
340
0
 70
     0
280
     1
281
     0
  0
BLOCK_RECORD
  5
175D4
330
1
100
AcDbSymbolTableRecord
100
AcDbBlockTableRecord
  2
*D11
340
0
 70
     0
280
     1
281
     0
  0
BLOCK_RECORD
  5
175E5
330
1
100
AcDbSymbolTableRecord
100
AcDbBlockTableRecord
  2
*D12
340
0
 70
     0
280
     1
281
     0
  0
BLOCK_RECORD
  5
17603
330
1
100
AcDbSymbolTableRecord
100
AcDbBlockTableRecord
  2
*D13
340
0
 70
     0
280
     1
281
     0
  0
BLOCK_RECORD
  5
17612
330
1
100
AcDbSymbolTableRecord
100
AcDbBlockTableRecord
  2
*D14
340
0
 70
     0
280
     1
281
     0
  0
BLOCK_RECORD
  5
17624
330
1
100
AcDbSymbolTableRecord
100
AcDbBlockTableRecord
  2
*D15
340
0
 70
     0
280
     1
281
     0
  0
BLOCK_RECORD
  5
17B70
330
1
100
AcDbSymbolTableRecord
100
AcDbBlockTableRecord
  2
*D16
340
0
 70
     0
280
     1
281
     0
  0
BLOCK_RECORD
  5
17B7C
330
1
100
AcDbSymbolTableRecord
100
AcDbBlockTableRecord
  2
*D17
340
0
 70
     0
280
     1
281
     0
  0
BLOCK_RECORD
  5
17B88
330
1
100
AcDbSymbolTableRecord
100
AcDbBlockTableRecord
  2
*D18
340
0
 70
     0
280
     1
281
     0
  0
BLOCK_RECORD
  5
17B95
330
1
100
AcDbSymbolTableRecord
100
AcDbBlockTableRecord
  2
*D19
340
0
 70
     0
280
     1
281
     0
  0
BLOCK_RECORD
  5
17BA2
330
1
100
AcDbSymbolTableRecord
100
AcDbBlockTableRecord
  2
*D20
340
0
 70
     0
280
     1
281
     0
  0
BLOCK_RECORD
  5
17BAF
330
1
100
AcDbSymbolTableRecord
100
AcDbBlockTableRecord
  2
*D21
340
0
 70
     0
280
     1
281
     0
  0
BLOCK_RECORD
  5
17BBB
330
1
100
AcDbSymbolTableRecord
100
AcDbBlockTableRecord
  2
*D22
340
0
 70
     0
280
     1
281
     0
  0
BLOCK_RECORD
  5
17BC7
330
1
100
AcDbSymbolTableRecord
100
AcDbBlockTableRecord
  2
*D23
340
0
 70
     0
280
     1
281
     0
  0
BLOCK_RECORD
  5
17C17
330
1
100
AcDbSymbolTableRecord
100
AcDbBlockTableRecord
  2
*D24
340
0
 70
     0
280
     1
281
     0
  0
BLOCK_RECORD
  5
17C2A
330
1
100
AcDbSymbolTableRecord
100
AcDbBlockTableRecord
  2
*D25
340
0
 70
     0
280
     1
281
     0
  0
BLOCK_RECORD
  5
17CC8
330
1
100
AcDbSymbolTableRecord
100
AcDbBlockTableRecord
  2
*D26
340
0
 70
     0
280
     1
281
     0
  0
BLOCK_RECORD
  5
17CD5
330
1
100
AcDbSymbolTableRecord
100
AcDbBlockTableRecord
  2
*D27
340
0
 70
     0
280
     1
281
     0
  0
BLOCK_RECORD
  5
17D29
330
1
100
AcDbSymbolTableRecord
100
AcDbBlockTableRecord
  2
*D28
340
0
 70
     0
280
     1
281
     0
  0
BLOCK_RECORD
  5
17DC5
330
1
100
AcDbSymbolTableRecord
100
AcDbBlockTableRecord
  2
*D29
340
0
 70
     0
280
     1
281
     0
  0
BLOCK_RECORD
  5
17DD6
330
1
100
AcDbSymbolTableRecord
100
AcDbBlockTableRecord
  2
*D30
340
0
 70
     0
280
     1
281
     0
  0
BLOCK_RECORD
  5
17DE3
330
1
100
AcDbSymbolTableRecord
100
AcDbBlockTableRecord
  2
*D31
340
0
 70
     0
280
     1
281
     0
  0
BLOCK_RECORD
  5
17E19
330
1
100
AcDbSymbolTableRecord
100
AcDbBlockTableRecord
  2
*D32
340
0
 70
     0
280
     1
281
     0
  0
BLOCK_RECORD
  5
17E2B
330
1
100
AcDbSymbolTableRecord
100
AcDbBlockTableRecord
  2
*D33
340
0
 70
     0
280
     1
281
     0
  0
BLOCK_RECORD
  5
17F87
330
1
100
AcDbSymbolTableRecord
100
AcDbBlockTableRecord
  2
*D34
340
0
 70
     0
280
     1
281
     0
  0
BLOCK_RECORD
  5
17F93
330
1
100
AcDbSymbolTableRecord
100
AcDbBlockTableRecord
  2
*D35
340
0
 70
     0
280
     1
281
     0
  0
BLOCK_RECORD
  5
17FA2
330
1
100
AcDbSymbolTableRecord
100
AcDbBlockTableRecord
  2
*D36
340
0
 70
     0
280
     1
281
     0
  0
BLOCK_RECORD
  5
17FAE
330
1
100
AcDbSymbolTableRecord
100
AcDbBlockTableRecord
  2
*D37
340
0
 70
     0
280
     1
281
     0
  0
BLOCK_RECORD
  5
17FBA
330
1
100
AcDbSymbolTableRecord
100
AcDbBlockTableRecord
  2
*D38
340
0
 70
     0
280
     1
281
     0
  0
BLOCK_RECORD
  5
17FC6
330
1
100
AcDbSymbolTableRecord
100
AcDbBlockTableRecord
  2
*D39
340
0
 70
     0
280
     1
281
     0
  0
BLOCK_RECORD
  5
17FD2
330
1
100
AcDbSymbolTableRecord
100
AcDbBlockTableRecord
  2
*D40
340
0
 70
     0
280
     1
281
     0
  0
BLOCK_RECORD
  5
17FDE
330
1
100
AcDbSymbolTableRecord
100
AcDbBlockTableRecord
  2
*D41
340
0
 70
     0
280
     1
281
     0
  0
BLOCK_RECORD
  5
17FED
330
1
100
AcDbSymbolTableRecord
100
AcDbBlockTableRecord
  2
*D42
340
0
 70
     0
280
     1
281
     0
  0
BLOCK_RECORD
  5
18105
330
1
100
AcDbSymbolTableRecord
100
AcDbBlockTableRecord
  2
*D43
340
0
 70
     0
280
     1
281
     0
  0
BLOCK_RECORD
  5
18111
330
1
100
AcDbSymbolTableRecord
100
AcDbBlockTableRecord
  2
*D44
340
0
 70
     0
280
     1
281
     0
  0
BLOCK_RECORD
  5
1811D
330
1
100
AcDbSymbolTableRecord
100
AcDbBlockTableRecord
  2
*D45
340
0
 70
     0
280
     1
281
     0
  0
BLOCK_RECORD
  5
18129
330
1
100
AcDbSymbolTableRecord
100
AcDbBlockTableRecord
  2
*D46
340
0
 70
     0
280
     1
281
     0
  0
BLOCK_RECORD
  5
18135
330
1
100
AcDbSymbolTableRecord
100
AcDbBlockTableRecord
  2
*D47
340
0
 70
     0
280
     1
281
     0
  0
BLOCK_RECORD
  5
18141
330
1
100
AcDbSymbolTableRecord
100
AcDbBlockTableRecord
  2
*D48
340
0
 70
     0
280
     1
281
     0
  0
ENDTAB
  0
ENDSEC
  0
SECTION
  2
BLOCKS
  0
BLOCK
  5
D
330
A
100
AcDbEntity
  8
0
390
1D
100
AcDbBlockBegin
  2
*MODEL_SPACE
 70
     0
 10
0.0
 20
0.0
 30
0.0
  3
*MODEL_SPACE
  1
*MODEL_SPACE
  0
ENDBLK
  5
E
330
A
100
AcDbEntity
  8
0
390
1D
100
AcDbBlockEnd
  0
BLOCK
  5
F
330
B
100
AcDbEntity
 67
     1
  8
0
390
1D
100
AcDbBlockBegin
  2
*PAPER_SPACE
 70
     0
 10
0.0
 20
0.0
 30
0.0
  3
*PAPER_SPACE
  1
*PAPER_SPACE
  0
ENDBLK
  5
10
330
B
100
AcDbEntity
 67
     1
  8
0
390
1D
100
AcDbBlockEnd
  0
BLOCK
  5
17BE2
330
4E
100
AcDbEntity
  8
0
390
1D
100
AcDbBlockBegin
  2
_DOT
 70
     0
 10
0.0
 20
0.0
 30
0.0
  3
_DOT
  1
_DOT
  0
POLYLINE
  5
17BE4
330
4E
100
AcDbEntity
  8
0
  6
ByBlock
 62
     0
370
    -2
390
1D
100
AcDb2dPolyline
 66
     1
 10
0.0
 20
0.0
 30
0.0
 70
     1
 40
0.5
 41
0.5
  0
VERTEX
  5
17BE5
330
17BE4
100
AcDbEntity
  8
0
  6
ByBlock
 62
     0
370
    -2
390
1D
100
AcDbVertex
100
AcDb2dVertex
 10
-0.25
 20
0.0
 30
0.0
 42
1.0
  0
VERTEX
  5
17BE6
330
17BE4
100
AcDbEntity
  8
0
  6
ByBlock
 62
     0
370
    -2
390
1D
100
AcDbVertex
100
AcDb2dVertex
 10
0.25
 20
0.0
 30
0.0
 42
1.0
  0
SEQEND
  5
17BE7
330
17BE4
100
AcDbEntity
  8
0
390
1D
  0
LINE
  5
17BE8
330
4E
100
AcDbEntity
  8
0
  6
ByBlock
 62
     0
370
    -2
390
1D
100
AcDbLine
 10
-0.5
 20
0.0
 30
0.0
 11
-1.0
 21
0.0
 31
0.0
  0
ENDBLK
  5
17BE9
330
4E
100
AcDbEntity
  8
0
390
1D
100
AcDbBlockEnd
  0
BLOCK
  5
68E
330
68D
100
AcDbEntity
  8
0
100
AcDbBlockBegin
  2
block 2
 70
     0
 10
0.0
 20
0.0
 30
0.0
  3
block 2
  1
block 2
  0
ENDBLK
  5
6B0
330
68D
100
AcDbEntity
  8
0
100
AcDbBlockEnd
  0
BLOCK
  5
17321
330
17320
100
AcDbEntity
  8
0
100
AcDbBlockBegin
  2
*D2
 70
     1
 10
0.0
 20
0.0
 30
0.0
  3
*D2
  1

  0
LINE
  5
17323
330
17320
100
AcDbEntity
  8
DIM
 62
     0
370
    -2
100
AcDbLine
 10
405.9245501690548
 20
309.7529598971253
 30
0.0
 11
405.9245501690548
 21
297.8784471131835
 31
0.0
  0
LINE
  5
17324
330
17320
100
AcDbEntity
  8
DIM
 62
     0
370
    -2
100
AcDbLine
 10
370.465565794055
 20
307.7217551386165
 30
0.0
 11
370.465565794055
 21
297.8784471131835
 31
0.0
  0
LINE
  5
17325
330
17320
100
AcDbEntity
  8
DIM
 62
     0
370
    -2
100
AcDbLine
 10
402.9245501690548
 20
297.8784471131835
 30
0.0
 11
373.465565794055
 21
297.8784471131835
 31
0.0
  0
INSERT
  5
17326
330
17320
100
AcDbEntity
  8
DIM
 62
     0
370
    -2
100
AcDbBlockReference
  2
_DOT
 10
405.9245501690548
 20
297.8784471131835
 30
0.0
 41
3.0
 42
3.0
 43
3.0
  0
INSERT
  5
17327
330
17320
100
AcDbEntity
  8
DIM
 62
     0
370
    -2
100
AcDbBlockReference
  2
_DOT
 10
370.465565794055
 20
297.8784471131835
 30
0.0
 41
3.0
 42
3.0
 43
3.0
 50
180.0
  0
MTEXT
  5
17328
330
17320
100
AcDbEntity
  8
DIM
 62
     0
100
AcDbMText
 10
388.1950579815549
 20
307.8784471131835
 30
0.0
 40
8.0
 41
0.0
 46
0.0
 71
     5
 72
     1
  1
\A1;35
  7
ＭＳ ゴシック
 73
     1
 44
1.0
  0
POINT
  5
17329
330
17320
100
AcDbEntity
  8
Defpoints
 62
     0
100
AcDbPoint
 10
405.9245501690548
 20
319.7529598971253
 30
0.0
  0
POINT
  5
1732A
330
17320
100
AcDbEntity
  8
Defpoints
 62
     0
100
AcDbPoint
 10
370.465565794055
 20
317.7217551386165
 30
0.0
  0
POINT
  5
1732B
330
17320
100
AcDbEntity
  8
Defpoints
 62
     0
100
AcDbPoint
 10
370.465565794055
 20
297.8784471131835
 30
0.0
  0
ENDBLK
  5
17322
330
17320
100
AcDbEntity
  8
0
100
AcDbBlockEnd
  0
BLOCK
  5
17330
330
1732F
100
AcDbEntity
  8
0
100
AcDbBlockBegin
  2
*D3
 70
     1
 10
0.0
 20
0.0
 30
0.0
  3
*D3
  1

  0
LINE
  5
17332
330
1732F
100
AcDbEntity
  8
DIM
 62
     0
370
    -2
100
AcDbLine
 10
336.4182475173941
 20
457.0429158371509
 30
0.0
 11
315.1384266419193
 21
457.0429158371509
 31
0.0
  0
LINE
  5
17333
330
1732F
100
AcDbEntity
  8
DIM
 62
     0
370
    -2
100
AcDbLine
 10
331.4592515249408
 20
386.1825642746509
 30
0.0
 11
315.1384266419193
 21
386.1825642746509
 31
0.0
  0
LINE
  5
17334
330
1732F
100
AcDbEntity
  8
DIM
 62
     0
370
    -2
100
AcDbLine
 10
315.1384266419193
 20
454.0429158371509
 30
0.0
 11
315.1384266419193
 21
389.1825642746509
 31
0.0
  0
INSERT
  5
17335
330
1732F
100
AcDbEntity
  8
DIM
 62
     0
370
    -2
100
AcDbBlockReference
  2
_DOT
 10
315.1384266419193
 20
457.0429158371509
 30
0.0
 41
3.0
 42
3.0
 43
3.0
 50
90.0
  0
INSERT
  5
17336
330
1732F
100
AcDbEntity
  8
DIM
 62
     0
370
    -2
100
AcDbBlockReference
  2
_DOT
 10
315.1384266419193
 20
386.1825642746509
 30
0.0
 41
3.0
 42
3.0
 43
3.0
 50
270.0
  0
MTEXT
  5
17337
330
1732F
100
AcDbEntity
  8
DIM
 62
     0
100
AcDbMText
 10
305.1384266419193
 20
421.6127400559009
 30
0.0
 40
8.0
 41
0.0
 46
0.0
 71
     5
 72
     1
  1
\A1;71
  7
ＭＳ ゴシック
 11
0.0
 21
1.0
 31
0.0
 73
     1
 44
1.0
  0
POINT
  5
17338
330
1732F
100
AcDbEntity
  8
Defpoints
 62
     0
100
AcDbPoint
 10
346.4182475173941
 20
457.0429158371509
 30
0.0
  0
POINT
  5
17339
330
1732F
100
AcDbEntity
  8
Defpoints
 62
     0
100
AcDbPoint
 10
341.4592515249408
 20
386.1825642746509
 30
0.0
  0
POINT
  5
1733A
330
1732F
100
AcDbEntity
  8
Defpoints
 62
     0
100
AcDbPoint
 10
315.1384266419193
 20
386.1825642746509
 30
0.0
  0
ENDBLK
  5
17331
330
1732F
100
AcDbEntity
  8
0
100
AcDbBlockEnd
  0
BLOCK
  5
173A7
330
173A6
100
AcDbEntity
  8
0
100
AcDbBlockBegin
  2
*D4
 70
     1
 10
0.0
 20
0.0
 30
0.0
  3
*D4
  1

  0
LINE
  5
173A8
330
173A6
100
AcDbEntity
  8
DIM
 62
     0
370
    -2
100
AcDbLine
 10
1.0
 20
135.0035410091185
 30
0.0
 11
1.0
 21
195.1497860279634
 31
0.0
  0
LINE
  5
173A9
330
173A6
100
AcDbEntity
  8
DIM
 62
     0
370
    -2
100
AcDbLine
 10
115.1779939209723
 20
135.0035410091185
 30
0.0
 11
115.1779939209723
 21
195.1497860279634
 31
0.0
  0
LINE
  5
173AA
330
173A6
100
AcDbEntity
  8
DIM
 62
     0
370
    -2
100
AcDbLine
 10
4.0
 20
195.1497860279634
 30
0.0
 11
112.1779939209723
 21
195.1497860279634
 31
0.0
  0
INSERT
  5
173AB
330
173A6
100
AcDbEntity
  8
DIM
 62
     0
370
    -2
100
AcDbBlockReference
  2
_DOT
 10
1.0
 20
195.1497860279634
 30
0.0
 41
3.0
 42
3.0
 43
3.0
 50
180.0
  0
INSERT
  5
173AC
330
173A6
100
AcDbEntity
  8
DIM
 62
     0
370
    -2
100
AcDbBlockReference
  2
_DOT
 10
115.1779939209723
 20
195.1497860279634
 30
0.0
 41
3.0
 42
3.0
 43
3.0
  0
MTEXT
  5
173AD
330
173A6
100
AcDbEntity
  8
DIM
 62
     0
100
AcDbMText
 10
58.08899696048616
 20
205.1497860279634
 30
0.0
 40
8.0
 41
0.0
 46
0.0
 71
     5
 72
     1
  1
\A1;114
  7
ＭＳ ゴシック
 73
     1
 44
1.0
  0
POINT
  5
173AE
330
173A6
100
AcDbEntity
  8
Defpoints
 62
     0
100
AcDbPoint
 10
1.0
 20
125.0035410091185
 30
0.0
  0
POINT
  5
173AF
330
173A6
100
AcDbEntity
  8
Defpoints
 62
     0
100
AcDbPoint
 10
115.1779939209723
 20
125.0035410091185
 30
0.0
  0
POINT
  5
173B0
330
173A6
100
AcDbEntity
  8
Defpoints
 62
     0
100
AcDbPoint
 10
115.1779939209723
 20
195.1497860279634
 30
0.0
  0
ENDBLK
  5
173B1
330
173A6
100
AcDbEntity
  8
0
100
AcDbBlockEnd
  0
BLOCK
  5
173B6
330
173B5
100
AcDbEntity
  8
0
100
AcDbBlockBegin
  2
*D5
 70
     1
 10
0.0
 20
0.0
 30
0.0
  3
*D5
  1

  0
LINE
  5
173B7
330
173B5
100
AcDbEntity
  8
DIM
 62
     0
370
    -2
100
AcDbLine
 10
20.20208557550177
 20
115.0035410091185
 30
0.0
 11
20.20208557550177
 21
38.30487537993926
 31
0.0
  0
LINE
  5
173B8
330
173B5
100
AcDbEntity
  8
DIM
 62
     0
370
    -2
100
AcDbLine
 10
95.97590834547054
 20
115.0035410091185
 30
0.0
 11
95.97590834547054
 21
38.30487537993926
 31
0.0
  0
LINE
  5
173B9
330
173B5
100
AcDbEntity
  8
DIM
 62
     0
370
    -2
100
AcDbLine
 10
23.20208557550177
 20
38.30487537993926
 30
0.0
 11
92.97590834547054
 21
38.30487537993926
 31
0.0
  0
INSERT
  5
173BA
330
173B5
100
AcDbEntity
  8
DIM
 62
     0
370
    -2
100
AcDbBlockReference
  2
_DOT
 10
20.20208557550177
 20
38.30487537993926
 30
0.0
 41
3.0
 42
3.0
 43
3.0
 50
180.0
  0
INSERT
  5
173BB
330
173B5
100
AcDbEntity
  8
DIM
 62
     0
370
    -2
100
AcDbBlockReference
  2
_DOT
 10
95.97590834547054
 20
38.30487537993926
 30
0.0
 41
3.0
 42
3.0
 43
3.0
  0
MTEXT
  5
173BC
330
173B5
100
AcDbEntity
  8
DIM
 62
     0
100
AcDbMText
 10
58.08899696048616
 20
48.30487537993926
 30
0.0
 40
8.0
 41
0.0
 46
0.0
 71
     5
 72
     1
  1
\A1;76
  7
ＭＳ ゴシック
 73
     1
 44
1.0
  0
POINT
  5
173BD
330
173B5
100
AcDbEntity
  8
Defpoints
 62
     0
100
AcDbPoint
 10
20.20208557550177
 20
125.0035410091185
 30
0.0
  0
POINT
  5
173BE
330
173B5
100
AcDbEntity
  8
Defpoints
 62
     0
100
AcDbPoint
 10
95.97590834547054
 20
125.0035410091185
 30
0.0
  0
POINT
  5
173BF
330
173B5
100
AcDbEntity
  8
Defpoints
 62
     0
100
AcDbPoint
 10
95.97590834547054
 20
38.30487537993926
 30
0.0
  0
ENDBLK
  5
173C0
330
173B5
100
AcDbEntity
  8
0
100
AcDbBlockEnd
  0
BLOCK
  5
173D3
330
173D2
100
AcDbEntity
  8
0
100
AcDbBlockBegin
  2
*D6
 70
     1
 10
0.0
 20
0.0
 30
0.0
  3
*D6
  1

  0
LINE
  5
173D5
330
173D2
100
AcDbEntity
  8
DIM
 62
     0
370
    -2
100
AcDbLine
 10
228.7947264437692
 20
485.5501747355622
 30
0.0
 11
228.7947264437692
 21
580.7695422638294
 31
0.0
  0
LINE
  5
173D6
330
173D2
100
AcDbEntity
  8
DIM
 62
     0
370
    -2
100
AcDbLine
 10
400.0617173252274
 20
485.5501747355622
 30
0.0
 11
400.0617173252274
 21
580.7695422638294
 31
0.0
  0
LINE
  5
173D7
330
173D2
100
AcDbEntity
  8
DIM
 62
     0
370
    -2
100
AcDbLine
 10
231.7947264437692
 20
580.7695422638294
 30
0.0
 11
397.0617173252274
 21
580.7695422638294
 31
0.0
  0
INSERT
  5
173D8
330
173D2
100
AcDbEntity
  8
DIM
 62
     0
370
    -2
100
AcDbBlockReference
  2
_DOT
 10
228.7947264437692
 20
580.7695422638294
 30
0.0
 41
3.0
 42
3.0
 43
3.0
 50
180.0
  0
INSERT
  5
173D9
330
173D2
100
AcDbEntity
  8
DIM
 62
     0
370
    -2
100
AcDbBlockReference
  2
_DOT
 10
400.0617173252274
 20
580.7695422638294
 30
0.0
 41
3.0
 42
3.0
 43
3.0
  0
MTEXT
  5
173DA
330
173D2
100
AcDbEntity
  8
DIM
 62
     0
100
AcDbMText
 10
314.4282218844983
 20
590.7695422638294
 30
0.0
 40
8.0
 41
0.0
 46
0.0
 71
     5
 72
     1
  1
\A1;171
  7
ＭＳ ゴシック
 73
     1
 44
1.0
  0
POINT
  5
173DB
330
173D2
100
AcDbEntity
  8
Defpoints
 62
     0
100
AcDbPoint
 10
228.7947264437692
 20
475.5501747355622
 30
0.0
  0
POINT
  5
173DC
330
173D2
100
AcDbEntity
  8
Defpoints
 62
     0
100
AcDbPoint
 10
400.0617173252274
 20
475.5501747355622
 30
0.0
  0
POINT
  5
173DD
330
173D2
100
AcDbEntity
  8
Defpoints
 62
     0
100
AcDbPoint
 10
400.0617173252274
 20
580.7695422638294
 30
0.0
  0
ENDBLK
  5
173D4
330
173D2
100
AcDbEntity
  8
0
100
AcDbBlockEnd
  0
BLOCK
  5
173DF
330
173DE
100
AcDbEntity
  8
0
100
AcDbBlockBegin
  2
*D7
 70
     1
 10
0.0
 20
0.0
 30
0.0
  3
*D7
  1

  0
LINE
  5
173E1
330
173DE
100
AcDbEntity
  8
DIM
 62
     0
370
    -2
100
AcDbLine
 10
257.5978548070218
 20
465.5501747355622
 30
0.0
 11
257.5978548070218
 21
345.5021762917933
 31
0.0
  0
LINE
  5
173E2
330
173DE
100
AcDbEntity
  8
DIM
 62
     0
370
    -2
100
AcDbLine
 10
371.2585889619747
 20
465.5501747355622
 30
0.0
 11
371.2585889619747
 21
345.5021762917933
 31
0.0
  0
LINE
  5
173E3
330
173DE
100
AcDbEntity
  8
DIM
 62
     0
370
    -2
100
AcDbLine
 10
260.5978548070218
 20
345.5021762917933
 30
0.0
 11
368.2585889619747
 21
345.5021762917933
 31
0.0
  0
INSERT
  5
173E4
330
173DE
100
AcDbEntity
  8
DIM
 62
     0
370
    -2
100
AcDbBlockReference
  2
_DOT
 10
257.5978548070218
 20
345.5021762917933
 30
0.0
 41
3.0
 42
3.0
 43
3.0
 50
180.0
  0
INSERT
  5
173E5
330
173DE
100
AcDbEntity
  8
DIM
 62
     0
370
    -2
100
AcDbBlockReference
  2
_DOT
 10
371.2585889619747
 20
345.5021762917933
 30
0.0
 41
3.0
 42
3.0
 43
3.0
  0
MTEXT
  5
173E6
330
173DE
100
AcDbEntity
  8
DIM
 62
     0
100
AcDbMText
 10
314.4282218844983
 20
355.5021762917933
 30
0.0
 40
8.0
 41
0.0
 46
0.0
 71
     5
 72
     1
  1
\A1;114
  7
ＭＳ ゴシック
 73
     1
 44
1.0
  0
POINT
  5
173E7
330
173DE
100
AcDbEntity
  8
Defpoints
 62
     0
100
AcDbPoint
 10
257.5978548070218
 20
475.5501747355622
 30
0.0
  0
POINT
  5
173E8
330
173DE
100
AcDbEntity
  8
Defpoints
 62
     0
100
AcDbPoint
 10
371.2585889619747
 20
475.5501747355622
 30
0.0
  0
POINT
  5
173E9
330
173DE
100
AcDbEntity
  8
Defpoints
 62
     0
100
AcDbPoint
 10
371.2585889619747
 20
345.5021762917933
 30
0.0
  0
ENDBLK
  5
173E0
330
173DE
100
AcDbEntity
  8
0
100
AcDbBlockEnd
  0
BLOCK
  5
17432
330
17431
100
AcDbEntity
  8
0
100
AcDbBlockBegin
  2
*D8
 70
     1
 10
0.0
 20
0.0
 30
0.0
  3
*D8
  1

  0
LINE
  5
17433
330
17431
100
AcDbEntity
  8
DIM
 62
     0
370
    -2
100
AcDbLine
 10
35.24704519048862
 20
15.9310058657598
 30
0.0
 11
35.24704519048862
 21
1.0
 31
0.0
  0
LINE
  5
17434
330
17431
100
AcDbEntity
  8
DIM
 62
     0
370
    -2
100
AcDbLine
 10
240.2470299316996
 20
15.9310058657635
 30
0.0
 11
240.2470299316996
 21
1.0
 31
0.0
  0
LINE
  5
17435
330
17431
100
AcDbEntity
  8
DIM
 62
     0
370
    -2
100
AcDbLine
 10
38.24704519048862
 20
1.0
 30
0.0
 11
237.2470299316996
 21
1.0
 31
0.0
  0
INSERT
  5
17436
330
17431
100
AcDbEntity
  8
DIM
 62
     0
370
    -2
100
AcDbBlockReference
  2
_DOT
 10
35.24704519048862
 20
1.0
 30
0.0
 41
3.0
 42
3.0
 43
3.0
 50
180.0
  0
INSERT
  5
17437
330
17431
100
AcDbEntity
  8
DIM
 62
     0
370
    -2
100
AcDbBlockReference
  2
_DOT
 10
240.2470299316996
 20
1.0
 30
0.0
 41
3.0
 42
3.0
 43
3.0
  0
MTEXT
  5
17438
330
17431
100
AcDbEntity
  8
DIM
 62
     0
100
AcDbMText
 10
137.7470375610941
 20
8.0
 30
0.0
 40
8.0
 41
0.0
 46
0.0
 71
     5
 72
     1
  1
\A1;%%c205
  7
ＭＳ ゴシック
 73
     1
 44
1.0
  0
POINT
  5
17439
330
17431
100
AcDbEntity
  8
Defpoints
 62
     0
100
AcDbPoint
 10
35.24704519048862
 20
20.9310058657598
 30
0.0
  0
POINT
  5
1743A
330
17431
100
AcDbEntity
  8
Defpoints
 62
     0
100
AcDbPoint
 10
240.2470299316996
 20
20.9310058657635
 30
0.0
  0
POINT
  5
1743B
330
17431
100
AcDbEntity
  8
Defpoints
 62
     0
100
AcDbPoint
 10
240.2470299316996
 20
1.0
 30
0.0
  0
ENDBLK
  5
1743C
330
17431
100
AcDbEntity
  8
0
100
AcDbBlockEnd
  0
BLOCK
  5
1743F
330
1743E
100
AcDbEntity
  8
0
100
AcDbBlockBegin
  2
*D9
 70
     1
 10
0.0
 20
0.0
 30
0.0
  3
*D9
  1

  0
LINE
  5
17440
330
1743E
100
AcDbEntity
  8
DIM
 62
     0
370
    -2
100
AcDbLine
 10
113.980587530454
 20
78.6947638755766
 30
0.0
 11
8.000000000000002
 21
78.6947638755766
 31
0.0
  0
LINE
  5
17441
330
1743E
100
AcDbEntity
  8
DIM
 62
     0
370
    -2
100
AcDbLine
 10
104.686113984593
 20
23.6947638755766
 30
0.0
 11
7.999999999999998
 21
23.6947638755766
 31
0.0
  0
LINE
  5
17442
330
1743E
100
AcDbEntity
  8
DIM
 62
     0
370
    -2
100
AcDbLine
 10
8.000000000000002
 20
75.6947638755766
 30
0.0
 11
7.999999999999998
 21
26.6947638755766
 31
0.0
  0
INSERT
  5
17443
330
1743E
100
AcDbEntity
  8
DIM
 62
     0
370
    -2
100
AcDbBlockReference
  2
_DOT
 10
8.000000000000002
 20
78.6947638755766
 30
0.0
 41
3.0
 42
3.0
 43
3.0
 50
90.0
  0
INSERT
  5
17444
330
1743E
100
AcDbEntity
  8
DIM
 62
     0
370
    -2
100
AcDbBlockReference
  2
_DOT
 10
7.999999999999998
 20
23.6947638755766
 30
0.0
 41
3.0
 42
3.0
 43
3.0
 50
270.0
  0
MTEXT
  5
17445
330
1743E
100
AcDbEntity
  8
DIM
 62
     0
100
AcDbMText
 10
1.0
 20
51.19476387557671
 30
0.0
 40
8.0
 41
0.0
 46
0.0
 71
     5
 72
     1
  1
\A1;55
  7
ＭＳ ゴシック
 11
6.459479416000912E-17
 21
1.0
 31
0.0
 73
     1
 44
1.0
  0
POINT
  5
17446
330
1743E
100
AcDbEntity
  8
Defpoints
 62
     0
100
AcDbPoint
 10
118.980587530454
 20
78.6947638755766
 30
0.0
  0
POINT
  5
17447
330
1743E
100
AcDbEntity
  8
Defpoints
 62
     0
100
AcDbPoint
 10
109.686113984593
 20
23.6947638755766
 30
0.0
  0
POINT
  5
17448
330
1743E
100
AcDbEntity
  8
Defpoints
 62
     0
100
AcDbPoint
 10
7.999999999999998
 20
23.69476387557661
 30
0.0
  0
ENDBLK
  5
17449
330
1743E
100
AcDbEntity
  8
0
100
AcDbBlockEnd
  0
BLOCK
  5
175C6
330
175C5
100
AcDbEntity
  8
0
100
AcDbBlockBegin
  2
*D10
 70
     1
 10
0.0
 20
0.0
 30
0.0
  3
*D10
  1

  0
LINE
  5
175C7
330
175C5
100
AcDbEntity
  8
DIM
 62
     0
370
    -2
100
AcDbLine
 10
33.83170280431682
 20
23.6947638755766
 30
0.0
 11
21.60986234567019
 21
23.6947638755766
 31
0.0
  0
LINE
  5
175C8
330
175C5
100
AcDbEntity
  8
DIM
 62
     0
370
    -2
100
AcDbLine
 10
33.74705186620906
 20
39.7950551096603
 30
0.0
 11
21.60986234567019
 21
39.7950551096603
 31
0.0
  0
LINE
  5
175C9
330
175C5
100
AcDbEntity
  8
DIM
 62
     0
370
    -2
100
AcDbLine
 10
21.60986234567019
 20
26.6947638755766
 30
0.0
 11
21.60986234567019
 21
36.7950551096603
 31
0.0
  0
INSERT
  5
175CA
330
175C5
100
AcDbEntity
  8
DIM
 62
     0
370
    -2
100
AcDbBlockReference
  2
_DOT
 10
21.60986234567019
 20
23.6947638755766
 30
0.0
 41
3.0
 42
3.0
 43
3.0
 50
270.0
  0
INSERT
  5
175CB
330
175C5
100
AcDbEntity
  8
DIM
 62
     0
370
    -2
100
AcDbBlockReference
  2
_DOT
 10
21.60986234567019
 20
39.7950551096603
 30
0.0
 41
3.0
 42
3.0
 43
3.0
 50
90.0
  0
MTEXT
  5
175CC
330
175C5
100
AcDbEntity
  8
DIM
 62
     0
100
AcDbMText
 10
14.60986234567019
 20
31.74490949261845
 30
0.0
 40
8.0
 41
0.0
 46
0.0
 71
     5
 72
     1
  1
\A1;15
  7
ＭＳ ゴシック
 11
0.0
 21
1.0
 31
0.0
 73
     1
 44
1.0
  0
POINT
  5
175CD
330
175C5
100
AcDbEntity
  8
Defpoints
 62
     0
100
AcDbPoint
 10
38.83170280431682
 20
23.6947638755766
 30
0.0
  0
POINT
  5
175CE
330
175C5
100
AcDbEntity
  8
Defpoints
 62
     0
100
AcDbPoint
 10
38.74705186620906
 20
39.7950551096603
 30
0.0
  0
POINT
  5
175CF
330
175C5
100
AcDbEntity
  8
Defpoints
 62
     0
100
AcDbPoint
 10
21.60986234567019
 20
39.7950551096603
 30
0.0
  0
ENDBLK
  5
175D0
330
175C5
100
AcDbEntity
  8
0
100
AcDbBlockEnd
  0
BLOCK
  5
175D5
330
175D4
100
AcDbEntity
  8
0
100
AcDbBlockBegin
  2
*D11
 70
     1
 10
0.0
 20
0.0
 30
0.0
  3
*D11
  1

  0
LINE
  5
175D6
330
175D4
100
AcDbEntity
  8
DIM
 62
     0
370
    -2
100
AcDbLine
 10
174.7592120599109
 20
118.6020118965164
 30
0.0
 11
181.722544273156
 21
130.6628570798385
 31
0.0
  0
ARC
  5
175D7
330
175D4
100
AcDbEntity
  8
DIM
 62
     0
370
    -2
100
AcDbCircle
 10
137.747060449277
 20
54.49508480945343
 30
0.0
 40
87.95096764776093
100
AcDbArc
 50
61.95444890584183
 51
88.0455510941603
  0
INSERT
  5
175D8
330
175D4
100
AcDbEntity
  8
DIM
 62
     0
370
    -2
100
AcDbBlockReference
  2
_DOT
 10
181.722544273156
 20
130.6628570798385
 30
0.0
 41
3.0
 42
3.0
 43
3.0
 50
330.9772244529216
  0
INSERT
  5
175D9
330
175D4
100
AcDbEntity
  8
DIM
 62
     0
370
    -2
100
AcDbBlockReference
  2
_DOT
 10
137.7470604492754
 20
142.4460524572144
 30
0.0
 41
3.0
 42
3.0
 43
3.0
 50
179.0227755470807
  0
MTEXT
  5
175DA
330
175D4
100
AcDbEntity
  8
DIM
 62
     0
100
AcDbMText
 10
161.3694872308998
 20
146.6051987011124
 30
0.0
 40
8.0
 41
0.0
 46
0.0
 71
     5
 72
     1
  1
\A1;30%%d
  7
ＭＳ ゴシック
 11
0.9686526088666615
 21
-0.2484192491249624
 31
0.0
 73
     1
 44
1.0
  0
POINT
  5
175DB
330
175D4
100
AcDbEntity
  8
Defpoints
 62
     0
100
AcDbPoint
 10
167.8280630097939
 20
137.1419600990351
 30
0.0
  0
POINT
  5
175DC
330
175D4
100
AcDbEntity
  8
Defpoints
 62
     0
100
AcDbPoint
 10
137.7470521117607
 20
54.49507036845162
 30
0.0
  0
POINT
  5
175DD
330
175D4
100
AcDbEntity
  8
Defpoints
 62
     0
100
AcDbPoint
 10
137.7470604492767
 20
71.89508125838961
 30
0.0
  0
POINT
  5
175DE
330
175D4
100
AcDbEntity
  8
Defpoints
 62
     0
100
AcDbPoint
 10
137.7470604492751
 20
158.6963507896396
 30
0.0
  0
POINT
  5
175DF
330
175D4
100
AcDbEntity
  8
Defpoints
 62
     0
100
AcDbPoint
 10
172.259212059911
 20
114.2718848775941
 30
0.0
  0
ENDBLK
  5
175E0
330
175D4
100
AcDbEntity
  8
0
100
AcDbBlockEnd
  0
BLOCK
  5
175E6
330
175E5
100
AcDbEntity
  8
0
100
AcDbBlockBegin
  2
*D12
 70
     1
 10
0.0
 20
0.0
 30
0.0
  3
*D12
  1

  0
LINE
  5
175E7
330
175E5
100
AcDbEntity
  8
DIM
 62
     0
370
    -2
100
AcDbLine
 10
100.7349088386415
 20
118.6020118965161
 30
0.0
 11
93.77157662539634
 21
130.6628570798382
 31
0.0
  0
ARC
  5
175E8
330
175E5
100
AcDbEntity
  8
DIM
 62
     0
370
    -2
100
AcDbCircle
 10
137.7470604492756
 20
54.49508480945347
 30
0.0
 40
87.95096764776076
100
AcDbArc
 50
91.95444890584
 51
118.0455510941584
  0
INSERT
  5
175E9
330
175E5
100
AcDbEntity
  8
DIM
 62
     0
370
    -2
100
AcDbBlockReference
  2
_DOT
 10
137.7470604492768
 20
142.4460524572142
 30
0.0
 41
3.0
 42
3.0
 43
3.0
 50
0.9772244529196285
  0
INSERT
  5
175EA
330
175E5
100
AcDbEntity
  8
DIM
 62
     0
370
    -2
100
AcDbBlockReference
  2
_DOT
 10
93.77157662539634
 20
130.6628570798382
 30
0.0
 41
3.0
 42
3.0
 43
3.0
 50
209.0227755470788
  0
MTEXT
  5
175EB
330
175E5
100
AcDbEntity
  8
DIM
 62
     0
100
AcDbMText
 10
114.1246336676524
 20
146.6051987011121
 30
0.0
 40
8.0
 41
0.0
 46
0.0
 71
     5
 72
     1
  1
\A1;30%%d
  7
ＭＳ ゴシック
 11
0.9686526088666607
 21
0.2484192491249665
 31
0.0
 73
     1
 44
1.0
  0
POINT
  5
175EC
330
175E5
100
AcDbEntity
  8
Defpoints
 62
     0
100
AcDbPoint
 10
107.6660578887584
 20
137.1419600990349
 30
0.0
  0
POINT
  5
175ED
330
175E5
100
AcDbEntity
  8
Defpoints
 62
     0
100
AcDbPoint
 10
137.7470687867919
 20
54.49507036845162
 30
0.0
  0
POINT
  5
175EE
330
175E5
100
AcDbEntity
  8
Defpoints
 62
     0
100
AcDbPoint
 10
137.7470604492759
 20
71.89508125838961
 30
0.0
  0
POINT
  5
175EF
330
175E5
100
AcDbEntity
  8
Defpoints
 62
     0
100
AcDbPoint
 10
137.747060449277
 20
158.6963507896396
 30
0.0
  0
POINT
  5
175F0
330
175E5
100
AcDbEntity
  8
Defpoints
 62
     0
100
AcDbPoint
 10
103.2349088386414
 20
114.2718848775939
 30
0.0
  0
ENDBLK
  5
175F1
330
175E5
100
AcDbEntity
  8
0
100
AcDbBlockEnd
  0
BLOCK
  5
17604
330
17603
100
AcDbEntity
  8
0
100
AcDbBlockBegin
  2
*D13
 70
     1
 10
0.0
 20
0.0
 30
0.0
  3
*D13
  1

  0
LINE
  5
17605
330
17603
100
AcDbEntity
  8
DIM
 62
     0
370
    -2
100
AcDbLine
 10
177.6786682375739
 20
318.8576712530514
 30
0.0
 11
209.6576795517238
 21
318.8576712530514
 31
0.0
  0
LINE
  5
17606
330
17603
100
AcDbEntity
  8
DIM
 62
     0
370
    -2
100
AcDbLine
 10
157.8818331059437
 20
68.85765790161108
 30
0.0
 11
209.6576795517237
 21
68.85765790161108
 31
0.0
  0
LINE
  5
17607
330
17603
100
AcDbEntity
  8
DIM
 62
     0
370
    -2
100
AcDbLine
 10
209.6576795517238
 20
315.8576712530514
 30
0.0
 11
209.6576795517237
 21
71.85765790161108
 31
0.0
  0
INSERT
  5
17608
330
17603
100
AcDbEntity
  8
DIM
 62
     0
370
    -2
100
AcDbBlockReference
  2
_DOT
 10
209.6576795517238
 20
318.8576712530514
 30
0.0
 41
3.0
 42
3.0
 43
3.0
 50
90.0
  0
INSERT
  5
17609
330
17603
100
AcDbEntity
  8
DIM
 62
     0
370
    -2
100
AcDbBlockReference
  2
_DOT
 10
209.6576795517237
 20
68.85765790161108
 30
0.0
 41
3.0
 42
3.0
 43
3.0
 50
270.0
  0
MTEXT
  5
1760A
330
17603
100
AcDbEntity
  8
DIM
 62
     0
100
AcDbMText
 10
202.6576795517237
 20
193.8576645773313
 30
0.0
 40
8.0
 41
0.0
 46
0.0
 71
     5
 72
     1
  1
\A1;250
  7
ＭＳ ゴシック
 11
1.136868316500842E-16
 21
1.0
 31
0.0
 73
     1
 44
1.0
  0
POINT
  5
1760B
330
17603
100
AcDbEntity
  8
Defpoints
 62
     0
100
AcDbPoint
 10
172.6786682375739
 20
318.8576712530514
 30
0.0
  0
POINT
  5
1760C
330
17603
100
AcDbEntity
  8
Defpoints
 62
     0
100
AcDbPoint
 10
152.8818331059437
 20
68.85765790161108
 30
0.0
  0
POINT
  5
1760D
330
17603
100
AcDbEntity
  8
Defpoints
 62
     0
100
AcDbPoint
 10
209.6576795517237
 20
68.85765790161108
 30
0.0
  0
ENDBLK
  5
1760E
330
17603
100
AcDbEntity
  8
0
100
AcDbBlockEnd
  0
BLOCK
  5
17613
330
17612
100
AcDbEntity
  8
0
100
AcDbBlockBegin
  2
*D14
 70
     1
 10
0.0
 20
0.0
 30
0.0
  3
*D14
  1

  0
LINE
  5
17614
330
17612
100
AcDbEntity
  8
DIM
 62
     0
370
    -2
100
AcDbLine
 10
107.7332317479497
 20
323.8576591162065
 30
0.0
 11
107.7332317479497
 21
368.9671544461791
 31
0.0
  0
LINE
  5
17615
330
17612
100
AcDbEntity
  8
DIM
 62
     0
370
    -2
100
AcDbLine
 10
167.7332317478897
 20
323.8576591162065
 30
0.0
 11
167.7332317478897
 21
368.9671544461791
 31
0.0
  0
LINE
  5
17616
330
17612
100
AcDbEntity
  8
DIM
 62
     0
370
    -2
100
AcDbLine
 10
110.7332317479497
 20
368.9671544461791
 30
0.0
 11
164.7332317478897
 21
368.9671544461791
 31
0.0
  0
INSERT
  5
17617
330
17612
100
AcDbEntity
  8
DIM
 62
     0
370
    -2
100
AcDbBlockReference
  2
_DOT
 10
107.7332317479497
 20
368.9671544461791
 30
0.0
 41
3.0
 42
3.0
 43
3.0
 50
180.0
  0
INSERT
  5
17618
330
17612
100
AcDbEntity
  8
DIM
 62
     0
370
    -2
100
AcDbBlockReference
  2
_DOT
 10
167.7332317478897
 20
368.9671544461791
 30
0.0
 41
3.0
 42
3.0
 43
3.0
  0
MTEXT
  5
17619
330
17612
100
AcDbEntity
  8
DIM
 62
     0
100
AcDbMText
 10
137.7332317479197
 20
375.9671544461791
 30
0.0
 40
8.0
 41
0.0
 46
0.0
 71
     5
 72
     1
  1
\A1;%%c60
  7
ＭＳ ゴシック
 73
     1
 44
1.0
  0
POINT
  5
1761A
330
17612
100
AcDbEntity
  8
Defpoints
 62
     0
100
AcDbPoint
 10
107.7332317479497
 20
318.8576591162065
 30
0.0
  0
POINT
  5
1761B
330
17612
100
AcDbEntity
  8
Defpoints
 62
     0
100
AcDbPoint
 10
167.7332317478897
 20
318.8576591162065
 30
0.0
  0
POINT
  5
1761C
330
17612
100
AcDbEntity
  8
Defpoints
 62
     0
100
AcDbPoint
 10
167.7332317478897
 20
368.9671544461791
 30
0.0
  0
ENDBLK
  5
1761D
330
17612
100
AcDbEntity
  8
0
100
AcDbBlockEnd
  0
BLOCK
  5
17625
330
17624
100
AcDbEntity
  8
0
100
AcDbBlockBegin
  2
*D15
 70
     1
 10
0.0
 20
0.0
 30
0.0
  3
*D15
  1

  0
LINE
  5
17626
330
17624
100
AcDbEntity
  8
DIM
 62
     0
370
    -2
100
AcDbLine
 10
107.7332317479496
 20
539.3433338472639
 30
0.0
 11
107.7332317479496
 21
566.7911631783136
 31
0.0
  0
LINE
  5
17627
330
17624
100
AcDbEntity
  8
DIM
 62
     0
370
    -2
100
AcDbLine
 10
167.7332317478896
 20
539.3433338472639
 30
0.0
 11
167.7332317478896
 21
566.7911631783136
 31
0.0
  0
LINE
  5
17628
330
17624
100
AcDbEntity
  8
DIM
 62
     0
370
    -2
100
AcDbLine
 10
110.7332317479496
 20
566.7911631783136
 30
0.0
 11
164.7332317478896
 21
566.7911631783136
 31
0.0
  0
INSERT
  5
17629
330
17624
100
AcDbEntity
  8
DIM
 62
     0
370
    -2
100
AcDbBlockReference
  2
_DOT
 10
107.7332317479496
 20
566.7911631783136
 30
0.0
 41
3.0
 42
3.0
 43
3.0
 50
180.0
  0
INSERT
  5
1762A
330
17624
100
AcDbEntity
  8
DIM
 62
     0
370
    -2
100
AcDbBlockReference
  2
_DOT
 10
167.7332317478896
 20
566.7911631783136
 30
0.0
 41
3.0
 42
3.0
 43
3.0
  0
MTEXT
  5
1762B
330
17624
100
AcDbEntity
  8
DIM
 62
     0
100
AcDbMText
 10
137.7332317479196
 20
573.7911631783136
 30
0.0
 40
8.0
 41
0.0
 46
0.0
 71
     5
 72
     1
  1
\A1;%%c60
  7
ＭＳ ゴシック
 73
     1
 44
1.0
  0
POINT
  5
1762C
330
17624
100
AcDbEntity
  8
Defpoints
 62
     0
100
AcDbPoint
 10
107.7332317479496
 20
534.3433338472639
 30
0.0
  0
POINT
  5
1762D
330
17624
100
AcDbEntity
  8
Defpoints
 62
     0
100
AcDbPoint
 10
167.7332317478896
 20
534.3433338472639
 30
0.0
  0
POINT
  5
1762E
330
17624
100
AcDbEntity
  8
Defpoints
 62
     0
100
AcDbPoint
 10
167.7332317478896
 20
566.7911631783136
 30
0.0
  0
ENDBLK
  5
1762F
330
17624
100
AcDbEntity
  8
0
100
AcDbBlockEnd
  0
BLOCK
  5
17B71
330
17B70
100
AcDbEntity
  8
0
100
AcDbBlockBegin
  2
*D16
 70
     1
 10
0.0
 20
0.0
 30
0.0
  3
*D16
  1

  0
LINE
  5
17B73
330
17B70
100
AcDbEntity
  8
DIM
 62
     0
370
    -2
100
AcDbLine
 10
-482.4455828901544
 20
190.3753115966458
 30
0.0
 11
-482.4455828901544
 21
175.444305730886
 31
0.0
  0
LINE
  5
17B74
330
17B70
100
AcDbEntity
  8
DIM
 62
     0
370
    -2
100
AcDbLine
 10
-277.4455981489435
 20
190.3753115966496
 30
0.0
 11
-277.4455981489435
 21
175.444305730886
 31
0.0
  0
LINE
  5
17B75
330
17B70
100
AcDbEntity
  8
DIM
 62
     0
370
    -2
100
AcDbLine
 10
-479.4455828901544
 20
175.444305730886
 30
0.0
 11
-280.4455981489435
 21
175.444305730886
 31
0.0
  0
INSERT
  5
17B76
330
17B70
100
AcDbEntity
  8
DIM
 62
     0
370
    -2
100
AcDbBlockReference
  2
_DOT
 10
-482.4455828901544
 20
175.444305730886
 30
0.0
 41
3.0
 42
3.0
 43
3.0
 50
180.0
  0
INSERT
  5
17B77
330
17B70
100
AcDbEntity
  8
DIM
 62
     0
370
    -2
100
AcDbBlockReference
  2
_DOT
 10
-277.4455981489435
 20
175.444305730886
 30
0.0
 41
3.0
 42
3.0
 43
3.0
  0
MTEXT
  5
17B78
330
17B70
100
AcDbEntity
  8
DIM
 62
     0
100
AcDbMText
 10
-379.945590519549
 20
182.444305730886
 30
0.0
 40
8.0
 41
0.0
 46
0.0
 71
     5
 72
     1
  1
\A1;205
  7
ＭＳ ゴシック
 73
     1
 44
1.0
  0
POINT
  5
17B79
330
17B70
100
AcDbEntity
  8
Defpoints
 62
     0
100
AcDbPoint
 10
-482.4455828901544
 20
195.3753115966458
 30
0.0
  0
POINT
  5
17B7A
330
17B70
100
AcDbEntity
  8
Defpoints
 62
     0
100
AcDbPoint
 10
-277.4455981489435
 20
195.3753115966496
 30
0.0
  0
POINT
  5
17B7B
330
17B70
100
AcDbEntity
  8
Defpoints
 62
     0
100
AcDbPoint
 10
-277.4455981489435
 20
175.444305730886
 30
0.0
  0
ENDBLK
  5
17B72
330
17B70
100
AcDbEntity
  8
0
100
AcDbBlockEnd
  0
BLOCK
  5
17B7D
330
17B7C
100
AcDbEntity
  8
0
100
AcDbBlockBegin
  2
*D17
 70
     1
 10
0.0
 20
0.0
 30
0.0
  3
*D17
  1

  0
LINE
  5
17B7F
330
17B7C
100
AcDbEntity
  8
DIM
 62
     0
370
    -2
100
AcDbLine
 10
-403.712040550189
 20
253.1390696064627
 30
0.0
 11
-509.692628080643
 21
253.1390696064627
 31
0.0
  0
LINE
  5
17B80
330
17B7C
100
AcDbEntity
  8
DIM
 62
     0
370
    -2
100
AcDbLine
 10
-413.00651409605
 20
198.1390696064627
 30
0.0
 11
-509.692628080643
 21
198.1390696064627
 31
0.0
  0
LINE
  5
17B81
330
17B7C
100
AcDbEntity
  8
DIM
 62
     0
370
    -2
100
AcDbLine
 10
-509.692628080643
 20
250.1390696064627
 30
0.0
 11
-509.692628080643
 21
201.1390696064627
 31
0.0
  0
INSERT
  5
17B82
330
17B7C
100
AcDbEntity
  8
DIM
 62
     0
370
    -2
100
AcDbBlockReference
  2
_DOT
 10
-509.692628080643
 20
253.1390696064627
 30
0.0
 41
3.0
 42
3.0
 43
3.0
 50
90.0
  0
INSERT
  5
17B83
330
17B7C
100
AcDbEntity
  8
DIM
 62
     0
370
    -2
100
AcDbBlockReference
  2
_DOT
 10
-509.692628080643
 20
198.1390696064627
 30
0.0
 41
3.0
 42
3.0
 43
3.0
 50
270.0
  0
MTEXT
  5
17B84
330
17B7C
100
AcDbEntity
  8
DIM
 62
     0
100
AcDbMText
 10
-516.692628080643
 20
225.6390696064629
 30
0.0
 40
8.0
 41
0.0
 46
0.0
 71
     5
 72
     1
  1
\A1;55
  7
ＭＳ ゴシック
 11
0.0
 21
1.0
 31
0.0
 73
     1
 44
1.0
  0
POINT
  5
17B85
330
17B7C
100
AcDbEntity
  8
Defpoints
 62
     0
100
AcDbPoint
 10
-398.712040550189
 20
253.1390696064627
 30
0.0
  0
POINT
  5
17B86
330
17B7C
100
AcDbEntity
  8
Defpoints
 62
     0
100
AcDbPoint
 10
-408.00651409605
 20
198.1390696064627
 30
0.0
  0
POINT
  5
17B87
330
17B7C
100
AcDbEntity
  8
Defpoints
 62
     0
100
AcDbPoint
 10
-509.692628080643
 20
198.1390696064627
 30
0.0
  0
ENDBLK
  5
17B7E
330
17B7C
100
AcDbEntity
  8
0
100
AcDbBlockEnd
  0
BLOCK
  5
17B89
330
17B88
100
AcDbEntity
  8
0
100
AcDbBlockBegin
  2
*D18
 70
     1
 10
0.0
 20
0.0
 30
0.0
  3
*D18
  1

  0
LINE
  5
17B8B
330
17B88
100
AcDbEntity
  8
DIM
 62
     0
370
    -2
100
AcDbLine
 10
-483.8609252763262
 20
198.1390696064627
 30
0.0
 11
-492.1855391009686
 21
198.1390696064627
 31
0.0
  0
LINE
  5
17B8C
330
17B88
100
AcDbEntity
  8
DIM
 62
     0
370
    -2
100
AcDbLine
 10
-483.945576214434
 20
214.2393608405464
 30
0.0
 11
-492.1855391009686
 21
214.2393608405464
 31
0.0
  0
LINE
  5
17B8D
330
17B88
100
AcDbEntity
  8
DIM
 62
     0
370
    -2
100
AcDbLine
 10
-492.1855391009686
 20
201.1390696064627
 30
0.0
 11
-492.1855391009686
 21
211.2393608405464
 31
0.0
  0
INSERT
  5
17B8E
330
17B88
100
AcDbEntity
  8
DIM
 62
     0
370
    -2
100
AcDbBlockReference
  2
_DOT
 10
-492.1855391009686
 20
198.1390696064627
 30
0.0
 41
3.0
 42
3.0
 43
3.0
 50
270.0
  0
INSERT
  5
17B8F
330
17B88
100
AcDbEntity
  8
DIM
 62
     0
370
    -2
100
AcDbBlockReference
  2
_DOT
 10
-492.1855391009686
 20
214.2393608405464
 30
0.0
 41
3.0
 42
3.0
 43
3.0
 50
90.0
  0
MTEXT
  5
17B90
330
17B88
100
AcDbEntity
  8
DIM
 62
     0
100
AcDbMText
 10
-499.1855391009686
 20
206.1892152235046
 30
0.0
 40
8.0
 41
0.0
 46
0.0
 71
     5
 72
     1
  1
\A1;15
  7
ＭＳ ゴシック
 11
0.0
 21
1.0
 31
0.0
 73
     1
 44
1.0
  0
POINT
  5
17B91
330
17B88
100
AcDbEntity
  8
Defpoints
 62
     0
100
AcDbPoint
 10
-478.8609252763262
 20
198.1390696064627
 30
0.0
  0
POINT
  5
17B92
330
17B88
100
AcDbEntity
  8
Defpoints
 62
     0
100
AcDbPoint
 10
-478.945576214434
 20
214.2393608405464
 30
0.0
  0
POINT
  5
17B93
330
17B88
100
AcDbEntity
  8
Defpoints
 62
     0
100
AcDbPoint
 10
-492.1855391009686
 20
214.2393608405464
 30
0.0
  0
ENDBLK
  5
17B8A
330
17B88
100
AcDbEntity
  8
0
100
AcDbBlockEnd
  0
BLOCK
  5
17B96
330
17B95
100
AcDbEntity
  8
0
100
AcDbBlockBegin
  2
*D19
 70
     1
 10
0.0
 20
0.0
 30
0.0
  3
*D19
  1

  0
LINE
  5
17B98
330
17B95
100
AcDbEntity
  8
DIM
 62
     0
370
    -2
100
AcDbLine
 10
-342.9334160207321
 20
293.0463176274023
 30
0.0
 11
-335.9701990587566
 21
305.1069631896698
 31
0.0
  0
ARC
  5
17B99
330
17B95
100
AcDbEntity
  8
DIM
 62
     0
370
    -2
100
AcDbCircle
 10
-379.9486901227357
 20
228.9339822266412
 30
0.0
 40
87.95698212796076
100
AcDbArc
 50
61.9543152480714
 51
88.03540601509175
  0
INSERT
  5
17B9A
330
17B95
100
AcDbEntity
  8
DIM
 62
     0
370
    -2
100
AcDbBlockReference
  2
_DOT
 10
-335.9701990587566
 20
305.1069631896698
 30
0.0
 41
3.0
 42
3.0
 43
3.0
 50
330.9771576240362
  0
INSERT
  5
17B9B
330
17B95
100
AcDbEntity
  8
DIM
 62
     0
370
    -2
100
AcDbBlockReference
  2
_DOT
 10
-379.9329108336646
 20
316.8909629392171
 30
0.0
 41
3.0
 42
3.0
 43
3.0
 50
179.0125636391269
  0
MTEXT
  5
17B9C
330
17B95
100
AcDbEntity
  8
DIM
 62
     0
100
AcDbMText
 10
-356.3230086643982
 20
321.0494705305896
 30
0.0
 40
8.0
 41
0.0
 46
0.0
 71
     5
 72
     1
  1
\A1;29.99%%d
  7
ＭＳ ゴシック
 11
0.9686478607701712
 21
-0.2484377624785954
 31
0.0
 73
     1
 44
1.0
  0
POINT
  5
17B9D
330
17B95
100
AcDbEntity
  8
Defpoints
 62
     0
100
AcDbPoint
 10
-349.860687982102
 20
311.5847101861918
 30
0.0
  0
POINT
  5
17B9E
330
17B95
100
AcDbEntity
  8
Defpoints
 62
     0
100
AcDbPoint
 10
-379.9455759688824
 20
228.9393760993377
 30
0.0
  0
POINT
  5
17B9F
330
17B95
100
AcDbEntity
  8
Defpoints
 62
     0
100
AcDbPoint
 10
-379.9455676313664
 20
246.3393869892758
 30
0.0
  0
POINT
  5
17BA0
330
17B95
100
AcDbEntity
  8
Defpoints
 62
     0
100
AcDbPoint
 10
-379.9327764133732
 20
317.640249103329
 30
0.0
  0
POINT
  5
17BA1
330
17B95
100
AcDbEntity
  8
Defpoints
 62
     0
100
AcDbPoint
 10
-345.4334160207321
 20
288.7161906084801
 30
0.0
  0
ENDBLK
  5
17B97
330
17B95
100
AcDbEntity
  8
0
100
AcDbBlockEnd
  0
BLOCK
  5
17BA3
330
17BA2
100
AcDbEntity
  8
0
100
AcDbBlockBegin
  2
*D20
 70
     1
 10
0.0
 20
0.0
 30
0.0
  3
*D20
  1

  0
LINE
  5
17BA5
330
17BA2
100
AcDbEntity
  8
DIM
 62
     0
370
    -2
100
AcDbLine
 10
-416.9577192420015
 20
293.0463176274023
 30
0.0
 11
-423.9211666509664
 21
305.1073623355638
 31
0.0
  0
ARC
  5
17BA6
330
17BA2
100
AcDbEntity
  8
DIM
 62
     0
370
    -2
100
AcDbCircle
 10
-379.9486881828607
 20
228.9447954940737
 30
0.0
 40
87.94495693621357
100
AcDbArc
 50
91.94430376128825
 51
118.045417501871
  0
INSERT
  5
17BA7
330
17BA2
100
AcDbEntity
  8
DIM
 62
     0
370
    -2
100
AcDbBlockReference
  2
_DOT
 10
-379.9329110510793
 20
316.889751015096
 30
0.0
 41
3.0
 42
3.0
 43
3.0
 50
0.9670125122242272
  0
INSERT
  5
17BA8
330
17BA2
100
AcDbEntity
  8
DIM
 62
     0
370
    -2
100
AcDbBlockReference
  2
_DOT
 10
-423.9211666509664
 20
305.1073623355638
 30
0.0
 41
3.0
 42
3.0
 43
3.0
 50
209.0227087509351
  0
MTEXT
  5
17BA9
330
17BA2
100
AcDbEntity
  8
DIM
 62
     0
100
AcDbMText
 10
-403.5678622910564
 20
321.0495383144536
 30
0.0
 40
8.0
 41
0.0
 46
0.0
 71
     5
 72
     1
  1
\A1;30.01%%d
  7
ＭＳ ゴシック
 11
0.9686573543086013
 21
0.2484007446523883
 31
0.0
 73
     1
 44
1.0
  0
POINT
  5
17BAA
330
17BA2
100
AcDbEntity
  8
Defpoints
 62
     0
100
AcDbPoint
 10
-410.0226930203788
 20
311.5878211135741
 30
0.0
  0
POINT
  5
17BAB
330
17BA2
100
AcDbEntity
  8
Defpoints
 62
     0
100
AcDbPoint
 10
-379.9455592938511
 20
228.9393760993377
 30
0.0
  0
POINT
  5
17BAC
330
17BA2
100
AcDbEntity
  8
Defpoints
 62
     0
100
AcDbPoint
 10
-379.9455676313672
 20
246.3393869892758
 30
0.0
  0
POINT
  5
17BAD
330
17BA2
100
AcDbEntity
  8
Defpoints
 62
     0
100
AcDbPoint
 10
-379.9327764133713
 20
317.640249103329
 30
0.0
  0
POINT
  5
17BAE
330
17BA2
100
AcDbEntity
  8
Defpoints
 62
     0
100
AcDbPoint
 10
-414.4577192420016
 20
288.7161906084801
 30
0.0
  0
ENDBLK
  5
17BA4
330
17BA2
100
AcDbEntity
  8
0
100
AcDbBlockEnd
  0
BLOCK
  5
17BB0
330
17BAF
100
AcDbEntity
  8
0
100
AcDbBlockBegin
  2
*D21
 70
     1
 10
0.0
 20
0.0
 30
0.0
  3
*D21
  1

  0
LINE
  5
17BB2
330
17BAF
100
AcDbEntity
  8
DIM
 62
     0
370
    -2
100
AcDbLine
 10
-340.0139598430691
 20
493.3019769839375
 30
0.0
 11
-233.3742509955427
 21
493.3019769839375
 31
0.0
  0
LINE
  5
17BB3
330
17BAF
100
AcDbEntity
  8
DIM
 62
     0
370
    -2
100
AcDbLine
 10
-359.8107949746994
 20
243.3019636324971
 30
0.0
 11
-233.3742509955427
 21
243.3019636324971
 31
0.0
  0
LINE
  5
17BB4
330
17BAF
100
AcDbEntity
  8
DIM
 62
     0
370
    -2
100
AcDbLine
 10
-233.3742509955427
 20
490.3019769839375
 30
0.0
 11
-233.3742509955427
 21
246.3019636324971
 31
0.0
  0
INSERT
  5
17BB5
330
17BAF
100
AcDbEntity
  8
DIM
 62
     0
370
    -2
100
AcDbBlockReference
  2
_DOT
 10
-233.3742509955427
 20
493.3019769839375
 30
0.0
 41
3.0
 42
3.0
 43
3.0
 50
90.0
  0
INSERT
  5
17BB6
330
17BAF
100
AcDbEntity
  8
DIM
 62
     0
370
    -2
100
AcDbBlockReference
  2
_DOT
 10
-233.3742509955427
 20
243.3019636324971
 30
0.0
 41
3.0
 42
3.0
 43
3.0
 50
270.0
  0
MTEXT
  5
17BB7
330
17BAF
100
AcDbEntity
  8
DIM
 62
     0
100
AcDbMText
 10
-240.3742509955427
 20
368.3019703082173
 30
0.0
 40
8.0
 41
0.0
 46
0.0
 71
     5
 72
     1
  1
\A1;250
  7
ＭＳ ゴシック
 11
1.136868316500842E-16
 21
1.0
 31
0.0
 73
     1
 44
1.0
  0
POINT
  5
17BB8
330
17BAF
100
AcDbEntity
  8
Defpoints
 62
     0
100
AcDbPoint
 10
-345.0139598430691
 20
493.3019769839375
 30
0.0
  0
POINT
  5
17BB9
330
17BAF
100
AcDbEntity
  8
Defpoints
 62
     0
100
AcDbPoint
 10
-364.8107949746994
 20
243.3019636324971
 30
0.0
  0
POINT
  5
17BBA
330
17BAF
100
AcDbEntity
  8
Defpoints
 62
     0
100
AcDbPoint
 10
-233.3742509955427
 20
243.3019636324971
 30
0.0
  0
ENDBLK
  5
17BB1
330
17BAF
100
AcDbEntity
  8
0
100
AcDbBlockEnd
  0
BLOCK
  5
17BBC
330
17BBB
100
AcDbEntity
  8
0
100
AcDbBlockBegin
  2
*D22
 70
     1
 10
0.0
 20
0.0
 30
0.0
  3
*D22
  1

  0
LINE
  5
17BBE
330
17BBB
100
AcDbEntity
  8
DIM
 62
     0
370
    -2
100
AcDbLine
 10
-409.9593963326933
 20
498.3019648470927
 30
0.0
 11
-409.9593963326933
 21
552.8678955616499
 31
0.0
  0
LINE
  5
17BBF
330
17BBB
100
AcDbEntity
  8
DIM
 62
     0
370
    -2
100
AcDbLine
 10
-349.9593963327533
 20
498.3019648470927
 30
0.0
 11
-349.9593963327533
 21
552.8678955616499
 31
0.0
  0
LINE
  5
17BC0
330
17BBB
100
AcDbEntity
  8
DIM
 62
     0
370
    -2
100
AcDbLine
 10
-406.9593963326933
 20
552.8678955616499
 30
0.0
 11
-352.9593963327533
 21
552.8678955616499
 31
0.0
  0
INSERT
  5
17BC1
330
17BBB
100
AcDbEntity
  8
DIM
 62
     0
370
    -2
100
AcDbBlockReference
  2
_DOT
 10
-409.9593963326933
 20
552.8678955616499
 30
0.0
 41
3.0
 42
3.0
 43
3.0
 50
180.0
  0
INSERT
  5
17BC2
330
17BBB
100
AcDbEntity
  8
DIM
 62
     0
370
    -2
100
AcDbBlockReference
  2
_DOT
 10
-349.9593963327533
 20
552.8678955616499
 30
0.0
 41
3.0
 42
3.0
 43
3.0
  0
MTEXT
  5
17BC3
330
17BBB
100
AcDbEntity
  8
DIM
 62
     0
100
AcDbMText
 10
-379.9593963327233
 20
559.8678955616499
 30
0.0
 40
8.0
 41
0.0
 46
0.0
 71
     5
 72
     1
  1
\A1;60
  7
ＭＳ ゴシック
 73
     1
 44
1.0
  0
POINT
  5
17BC4
330
17BBB
100
AcDbEntity
  8
Defpoints
 62
     0
100
AcDbPoint
 10
-409.9593963326933
 20
493.3019648470927
 30
0.0
  0
POINT
  5
17BC5
330
17BBB
100
AcDbEntity
  8
Defpoints
 62
     0
100
AcDbPoint
 10
-349.9593963327533
 20
493.3019648470927
 30
0.0
  0
POINT
  5
17BC6
330
17BBB
100
AcDbEntity
  8
Defpoints
 62
     0
100
AcDbPoint
 10
-349.9593963327533
 20
552.8678955616499
 30
0.0
  0
ENDBLK
  5
17BBD
330
17BBB
100
AcDbEntity
  8
0
100
AcDbBlockEnd
  0
BLOCK
  5
17BC8
330
17BC7
100
AcDbEntity
  8
0
100
AcDbBlockBegin
  2
*D23
 70
     1
 10
0.0
 20
0.0
 30
0.0
  3
*D23
  1

  0
LINE
  5
17BCA
330
17BC7
100
AcDbEntity
  8
DIM
 62
     0
370
    -2
100
AcDbLine
 10
284.1468146628491
 20
718.78763957815
 30
0.0
 11
284.1468146628491
 21
814.2407433413629
 31
0.0
  0
LINE
  5
17BCB
330
17BC7
100
AcDbEntity
  8
DIM
 62
     0
370
    -2
100
AcDbLine
 10
344.146814662789
 20
718.78763957815
 30
0.0
 11
344.146814662789
 21
814.2407433413629
 31
0.0
  0
LINE
  5
17BCC
330
17BC7
100
AcDbEntity
  8
DIM
 62
     0
370
    -2
100
AcDbLine
 10
287.1468146628491
 20
814.2407433413629
 30
0.0
 11
341.146814662789
 21
814.2407433413629
 31
0.0
  0
INSERT
  5
17BCD
330
17BC7
100
AcDbEntity
  8
DIM
 62
     0
370
    -2
100
AcDbBlockReference
  2
_DOT
 10
284.1468146628491
 20
814.2407433413629
 30
0.0
 41
3.0
 42
3.0
 43
3.0
 50
180.0
  0
INSERT
  5
17BCE
330
17BC7
100
AcDbEntity
  8
DIM
 62
     0
370
    -2
100
AcDbBlockReference
  2
_DOT
 10
344.146814662789
 20
814.2407433413629
 30
0.0
 41
3.0
 42
3.0
 43
3.0
  0
MTEXT
  5
17BCF
330
17BC7
100
AcDbEntity
  8
DIM
 62
     0
100
AcDbMText
 10
314.1468146628191
 20
824.2407433413629
 30
0.0
 40
8.0
 41
0.0
 46
0.0
 71
     5
 72
     1
  1
\A1;%%c60
  7
ＭＳ ゴシック
 73
     1
 44
1.0
  0
POINT
  5
17BD0
330
17BC7
100
AcDbEntity
  8
Defpoints
 62
     0
100
AcDbPoint
 10
284.1468146628491
 20
708.78763957815
 30
0.0
  0
POINT
  5
17BD1
330
17BC7
100
AcDbEntity
  8
Defpoints
 62
     0
100
AcDbPoint
 10
344.146814662789
 20
708.78763957815
 30
0.0
  0
POINT
  5
17BD2
330
17BC7
100
AcDbEntity
  8
Defpoints
 62
     0
100
AcDbPoint
 10
344.146814662789
 20
814.2407433413629
 30
0.0
  0
ENDBLK
  5
17BC9
330
17BC7
100
AcDbEntity
  8
0
100
AcDbBlockEnd
  0
BLOCK
  5
17C18
330
17C17
100
AcDbEntity
  8
0
100
AcDbBlockBegin
  2
*D24
 70
     1
 10
0.0
 20
0.0
 30
0.0
  3
*D24
  1

  0
LINE
  5
17C1A
330
17C17
100
AcDbEntity
  8
DIM
 62
     0
370
    -2
100
AcDbLine
 10
-362.9650002341121
 20
802.82108101175
 30
0.0
 11
-233.3742509955427
 21
802.82108101175
 31
0.0
  0
LINE
  5
17C1B
330
17C17
100
AcDbEntity
  8
DIM
 62
     0
370
    -2
100
AcDbLine
 10
-362.9650002341121
 20
597.82108101175
 30
0.0
 11
-233.3742509955427
 21
597.82108101175
 31
0.0
  0
LINE
  5
17C1C
330
17C17
100
AcDbEntity
  8
DIM
 62
     0
370
    -2
100
AcDbLine
 10
-233.3742509955427
 20
799.82108101175
 30
0.0
 11
-233.3742509955427
 21
600.82108101175
 31
0.0
  0
INSERT
  5
17C1D
330
17C17
100
AcDbEntity
  8
DIM
 62
     0
370
    -2
100
AcDbBlockReference
  2
_DOT
 10
-233.3742509955427
 20
802.82108101175
 30
0.0
 41
3.0
 42
3.0
 43
3.0
 50
90.0
  0
INSERT
  5
17C1E
330
17C17
100
AcDbEntity
  8
DIM
 62
     0
370
    -2
100
AcDbBlockReference
  2
_DOT
 10
-233.3742509955427
 20
597.82108101175
 30
0.0
 41
3.0
 42
3.0
 43
3.0
 50
270.0
  0
MTEXT
  5
17C1F
330
17C17
100
AcDbEntity
  8
DIM
 62
     0
100
AcDbMText
 10
-240.3742509955427
 20
700.32108101175
 30
0.0
 40
8.0
 41
0.0
 46
0.0
 71
     5
 72
     1
  1
\A1;205
  7
ＭＳ ゴシック
 11
0.0
 21
1.0
 31
0.0
 73
     1
 44
1.0
  0
POINT
  5
17C20
330
17C17
100
AcDbEntity
  8
Defpoints
 62
     0
100
AcDbPoint
 10
-367.9650002341121
 20
802.82108101175
 30
0.0
  0
POINT
  5
17C21
330
17C17
100
AcDbEntity
  8
Defpoints
 62
     0
100
AcDbPoint
 10
-367.9650002341121
 20
597.82108101175
 30
0.0
  0
POINT
  5
17C22
330
17C17
100
AcDbEntity
  8
Defpoints
 62
     0
100
AcDbPoint
 10
-233.3742509955427
 20
597.82108101175
 30
0.0
  0
ENDBLK
  5
17C19
330
17C17
100
AcDbEntity
  8
0
100
AcDbBlockEnd
  0
BLOCK
  5
17C2B
330
17C2A
100
AcDbEntity
  8
0
100
AcDbBlockBegin
  2
*D25
 70
     1
 10
0.0
 20
0.0
 30
0.0
  3
*D25
  1

  0
LINE
  5
17C2D
330
17C2A
100
AcDbEntity
  8
DIM
 62
     0
370
    -2
100
AcDbLine
 10
279.1468146628492
 20
493.3019648470926
 30
0.0
 11
258.6590448767998
 21
493.3019648470926
 31
0.0
  0
LINE
  5
17C2E
330
17C2A
100
AcDbEntity
  8
DIM
 62
     0
370
    -2
100
AcDbLine
 10
281.9677657215998
 20
475.3019648471109
 30
0.0
 11
258.6590448767998
 21
475.3019648471109
 31
0.0
  0
LINE
  5
17C2F
330
17C2A
100
AcDbEntity
  8
DIM
 62
     0
370
    -2
100
AcDbLine
 10
258.6590448767998
 20
490.3019648470926
 30
0.0
 11
258.6590448767998
 21
478.3019648471109
 31
0.0
  0
INSERT
  5
17C30
330
17C2A
100
AcDbEntity
  8
DIM
 62
     0
370
    -2
100
AcDbBlockReference
  2
_DOT
 10
258.6590448767998
 20
493.3019648470926
 30
0.0
 41
3.0
 42
3.0
 43
3.0
 50
90.0
  0
INSERT
  5
17C31
330
17C2A
100
AcDbEntity
  8
DIM
 62
     0
370
    -2
100
AcDbBlockReference
  2
_DOT
 10
258.6590448767998
 20
475.3019648471109
 30
0.0
 41
3.0
 42
3.0
 43
3.0
 50
270.0
  0
MTEXT
  5
17C32
330
17C2A
100
AcDbEntity
  8
DIM
 62
     0
100
AcDbMText
 10
251.6590448767998
 20
484.3019648471018
 30
0.0
 40
8.0
 41
0.0
 46
0.0
 71
     5
 72
     1
  1
\A1;18
  7
ＭＳ ゴシック
 11
0.0
 21
1.0
 31
0.0
 73
     1
 44
1.0
  0
POINT
  5
17C33
330
17C2A
100
AcDbEntity
  8
Defpoints
 62
     0
100
AcDbPoint
 10
284.1468146628492
 20
493.3019648470926
 30
0.0
  0
POINT
  5
17C34
330
17C2A
100
AcDbEntity
  8
Defpoints
 62
     0
100
AcDbPoint
 10
286.9677657215998
 20
475.3019648471109
 30
0.0
  0
POINT
  5
17C35
330
17C2A
100
AcDbEntity
  8
Defpoints
 62
     0
100
AcDbPoint
 10
258.6590448767998
 20
475.3019648471109
 30
0.0
  0
ENDBLK
  5
17C2C
330
17C2A
100
AcDbEntity
  8
0
100
AcDbBlockEnd
  0
BLOCK
  5
17CC9
330
17CC8
100
AcDbEntity
  8
0
100
AcDbBlockBegin
  2
*D26
 70
     1
 10
0.0
 20
0.0
 30
0.0
  3
*D26
  1

  0
LINE
  5
17CCA
330
17CC8
100
AcDbEntity
  8
QUOTE
100
AcDbLine
 10
150.1471685484803
 20
183.2724814777362
 30
0.0
 11
150.1471685484803
 21
222.9014501751519
 31
0.0
  0
LINE
  5
17CCB
330
17CC8
100
AcDbEntity
  8
QUOTE
100
AcDbLine
 10
66.1471685484803
 20
201.7076563182309
 30
0.0
 11
66.1471685484803
 21
222.9014501751519
 31
0.0
  0
LINE
  5
17CCC
330
17CC8
100
AcDbEntity
  8
QUOTE
100
AcDbLine
 10
140.1471685484803
 20
219.9014501751519
 30
0.0
 11
76.1471685484803
 21
219.9014501751519
 31
0.0
  0
SOLID
  5
17CCD
330
17CC8
100
AcDbEntity
  8
QUOTE
100
AcDbTrace
 10
140.1471685484803
 20
218.2347835084853
 30
0.0
 11
140.1471685484803
 21
221.5681168418186
 31
0.0
 12
150.1471685484803
 22
219.9014501751519
 32
0.0
 13
150.1471685484803
 23
219.9014501751519
 33
0.0
  0
SOLID
  5
17CCE
330
17CC8
100
AcDbEntity
  8
QUOTE
100
AcDbTrace
 10
76.1471685484803
 20
221.5681168418186
 30
0.0
 11
76.1471685484803
 21
218.2347835084853
 31
0.0
 12
66.1471685484803
 22
219.9014501751519
 32
0.0
 13
66.1471685484803
 23
219.9014501751519
 33
0.0
  0
MTEXT
  5
17CCF
330
17CC8
100
AcDbEntity
  8
QUOTE
100
AcDbMText
 10
108.1471685484803
 20
230.0274501751519
 30
0.0
 40
12.0
 41
0.0
 46
0.0
 71
     5
 72
     1
  1
\A1;84-97
  7
ARIAL
 73
     1
 44
1.0
  0
POINT
  5
17CD0
330
17CC8
100
AcDbEntity
  8
Defpoints
 62
     0
100
AcDbPoint
 10
150.1471685484803
 20
180.2724814777362
 30
0.0
  0
POINT
  5
17CD1
330
17CC8
100
AcDbEntity
  8
Defpoints
 62
     0
100
AcDbPoint
 10
66.1471685484803
 20
198.7076563182309
 30
0.0
  0
POINT
  5
17CD2
330
17CC8
100
AcDbEntity
  8
Defpoints
 62
     0
100
AcDbPoint
 10
66.1471685484803
 20
219.9014501751519
 30
0.0
  0
ENDBLK
  5
17CD3
330
17CC8
100
AcDbEntity
  8
0
100
AcDbBlockEnd
  0
BLOCK
  5
17CD6
330
17CD5
100
AcDbEntity
  8
0
100
AcDbBlockBegin
  2
*D27
 70
     1
 10
0.0
 20
0.0
 30
0.0
  3
*D27
  1

  0
LINE
  5
17CD7
330
17CD5
100
AcDbEntity
  8
QUOTE
100
AcDbLine
 10
108.1471685484803
 20
80.47613946864726
 30
0.0
 11
108.1471685484803
 21
32.01139329412946
 31
0.0
  0
LINE
  5
17CD8
330
17CD5
100
AcDbEntity
  8
QUOTE
100
AcDbLine
 10
66.1471685484803
 20
58.69501564182815
 30
0.0
 11
66.1471685484803
 21
32.01139329412946
 31
0.0
  0
LINE
  5
17CD9
330
17CD5
100
AcDbEntity
  8
QUOTE
100
AcDbLine
 10
108.1471685484803
 20
35.01139329412946
 30
0.0
 11
178.1130757790395
 21
35.01139329412944
 31
0.0
  0
LINE
  5
17CDA
330
17CD5
100
AcDbEntity
  8
QUOTE
100
AcDbLine
 10
108.1471685484803
 20
35.01139329412946
 30
0.0
 11
66.1471685484803
 21
35.01139329412946
 31
0.0
  0
LINE
  5
17CDB
330
17CD5
100
AcDbEntity
  8
QUOTE
100
AcDbLine
 10
118.1471685484803
 20
35.01139329412946
 30
0.0
 11
128.1471685484803
 21
35.01139329412946
 31
0.0
  0
LINE
  5
17CDC
330
17CD5
100
AcDbEntity
  8
QUOTE
100
AcDbLine
 10
56.14716854848029
 20
35.01139329412946
 30
0.0
 11
46.14716854848029
 21
35.01139329412946
 31
0.0
  0
SOLID
  5
17CDD
330
17CD5
100
AcDbEntity
  8
QUOTE
100
AcDbTrace
 10
118.1471685484803
 20
36.67805996079612
 30
0.0
 11
118.1471685484803
 21
33.34472662746279
 31
0.0
 12
108.1471685484803
 22
35.01139329412946
 32
0.0
 13
108.1471685484803
 23
35.01139329412946
 33
0.0
  0
SOLID
  5
17CDE
330
17CD5
100
AcDbEntity
  8
QUOTE
100
AcDbTrace
 10
56.14716854848029
 20
33.3447266274628
 30
0.0
 11
56.14716854848029
 21
36.67805996079613
 31
0.0
 12
66.1471685484803
 22
35.01139329412946
 32
0.0
 13
66.1471685484803
 23
35.01139329412946
 33
0.0
  0
MTEXT
  5
17CDF
330
17CD5
100
AcDbEntity
  8
QUOTE
100
AcDbMText
 10
153.1430757790395
 20
45.13739329412945
 30
0.0
 40
12.0
 41
0.0
 46
0.0
 71
     5
 72
     1
  1
\A1;42-55
  7
ARIAL
 73
     1
 44
1.0
  0
POINT
  5
17CE0
330
17CD5
100
AcDbEntity
  8
Defpoints
 62
     0
100
AcDbPoint
 10
108.1471685484803
 20
83.47613946864726
 30
0.0
  0
POINT
  5
17CE1
330
17CD5
100
AcDbEntity
  8
Defpoints
 62
     0
100
AcDbPoint
 10
66.1471685484803
 20
61.69501564182815
 30
0.0
  0
POINT
  5
17E39
330
17CD5
100
AcDbEntity
  8
Defpoints
 62
     0
100
AcDbPoint
 10
66.1471685484803
 20
35.01139329412945
 30
0.0
  0
ENDBLK
  5
17CE2
330
17CD5
100
AcDbEntity
  8
0
100
AcDbBlockEnd
  0
BLOCK
  5
17D2A
330
17D29
100
AcDbEntity
  8
0
100
AcDbBlockBegin
  2
*D28
 70
     1
 10
0.0
 20
0.0
 30
0.0
  3
*D28
  1

  0
LINE
  5
17D2B
330
17D29
100
AcDbEntity
  8
QUOTE
100
AcDbLine
 10
3.447175412749857
 20
148.7580485705823
 30
0.0
 11
3.447175412749857
 21
222.9014501751519
 31
0.0
  0
LINE
  5
17D2C
330
17D29
100
AcDbEntity
  8
QUOTE
100
AcDbLine
 10
66.1471685484803
 20
201.6662463226216
 30
0.0
 11
66.1471685484803
 21
222.9014501751519
 31
0.0
  0
LINE
  5
17D2D
330
17D29
100
AcDbEntity
  8
QUOTE
100
AcDbLine
 10
13.44717541274986
 20
219.9014501751519
 30
0.0
 11
56.14716854848029
 21
219.9014501751519
 31
0.0
  0
SOLID
  5
17D2E
330
17D29
100
AcDbEntity
  8
QUOTE
100
AcDbTrace
 10
13.44717541274986
 20
221.5681168418186
 30
0.0
 11
13.44717541274986
 21
218.2347835084853
 31
0.0
 12
3.447175412749857
 22
219.9014501751519
 32
0.0
 13
3.447175412749857
 23
219.9014501751519
 33
0.0
  0
SOLID
  5
17D2F
330
17D29
100
AcDbEntity
  8
QUOTE
100
AcDbTrace
 10
56.14716854848029
 20
218.2347835084853
 30
0.0
 11
56.14716854848029
 21
221.5681168418186
 31
0.0
 12
66.1471685484803
 22
219.9014501751519
 32
0.0
 13
66.1471685484803
 23
219.9014501751519
 33
0.0
  0
MTEXT
  5
17D30
330
17D29
100
AcDbEntity
  8
QUOTE
100
AcDbMText
 10
34.79717198061508
 20
230.0274501751519
 30
0.0
 40
12.0
 41
0.0
 46
0.0
 71
     5
 72
     1
  1
\A1;63-50
  7
ARIAL
 73
     1
 44
1.0
  0
POINT
  5
17D31
330
17D29
100
AcDbEntity
  8
Defpoints
 62
     0
100
AcDbPoint
 10
3.447175412749857
 20
145.7580485705823
 30
0.0
  0
POINT
  5
17D32
330
17D29
100
AcDbEntity
  8
Defpoints
 62
     0
100
AcDbPoint
 10
66.1471685484803
 20
198.6662463226216
 30
0.0
  0
POINT
  5
17D33
330
17D29
100
AcDbEntity
  8
Defpoints
 62
     0
100
AcDbPoint
 10
66.1471685484803
 20
219.9014501751519
 30
0.0
  0
ENDBLK
  5
17D34
330
17D29
100
AcDbEntity
  8
0
100
AcDbBlockEnd
  0
BLOCK
  5
17DC6
330
17DC5
100
AcDbEntity
  8
0
100
AcDbBlockBegin
  2
*D29
 70
     1
 10
0.0
 20
0.0
 30
0.0
  3
*D29
  1

  0
LINE
  5
17DC7
330
17DC5
100
AcDbEntity
  8
QUOTE
 62
     0
370
    -2
100
AcDbLine
 10
490.6610418963492
 20
180.2581204345406
 30
0.0
 11
525.3576265468787
 21
180.2581204345406
 31
0.0
  0
LINE
  5
17DC8
330
17DC5
100
AcDbEntity
  8
QUOTE
 62
     0
370
    -2
100
AcDbLine
 10
490.6610418963492
 20
68.25812043454152
 30
0.0
 11
525.3576265468787
 21
68.25812043454152
 31
0.0
  0
LINE
  5
17DC9
330
17DC5
100
AcDbEntity
  8
QUOTE
 62
     0
370
    -2
100
AcDbLine
 10
522.3576265468787
 20
170.2581204345406
 30
0.0
 11
522.3576265468787
 21
78.25812043454152
 31
0.0
  0
SOLID
  5
17DCA
330
17DC5
100
AcDbEntity
  8
QUOTE
 62
     0
100
AcDbTrace
 10
524.0242932135453
 20
170.2581204345406
 30
0.0
 11
520.6909598802121
 21
170.2581204345406
 31
0.0
 12
522.3576265468787
 22
180.2581204345406
 32
0.0
 13
522.3576265468787
 23
180.2581204345406
 33
0.0
  0
SOLID
  5
17DCB
330
17DC5
100
AcDbEntity
  8
QUOTE
 62
     0
100
AcDbTrace
 10
520.6909598802121
 20
78.25812043454152
 30
0.0
 11
524.0242932135453
 21
78.25812043454152
 31
0.0
 12
522.3576265468787
 22
68.25812043454152
 32
0.0
 13
522.3576265468787
 23
68.25812043454152
 33
0.0
  0
MTEXT
  5
17DCC
330
17DC5
100
AcDbEntity
  8
QUOTE
 62
     0
100
AcDbMText
 10
512.3336265468787
 20
124.2581204345415
 30
0.0
 40
12.0
 41
0.0
 46
0.0
 71
     5
 72
     1
  1
\A1;112
  7
ARIAL
 11
0.0
 21
1.0
 31
0.0
 73
     1
 44
1.0
  0
POINT
  5
17DCD
330
17DC5
100
AcDbEntity
  8
Defpoints
 62
     0
100
AcDbPoint
 10
487.6610418963492
 20
180.2581204345406
 30
0.0
  0
POINT
  5
17DCE
330
17DC5
100
AcDbEntity
  8
Defpoints
 62
     0
100
AcDbPoint
 10
487.6610418963492
 20
68.25812043454152
 30
0.0
  0
POINT
  5
17DCF
330
17DC5
100
AcDbEntity
  8
Defpoints
 62
     0
100
AcDbPoint
 10
522.3576265468791
 20
68.25812043454152
 30
0.0
  0
ENDBLK
  5
17DD0
330
17DC5
100
AcDbEntity
  8
0
100
AcDbBlockEnd
  0
BLOCK
  5
17DD7
330
17DD6
100
AcDbEntity
  8
0
100
AcDbBlockBegin
  2
*D30
 70
     1
 10
0.0
 20
0.0
 30
0.0
  3
*D30
  1

  0
LINE
  5
17DD8
330
17DD6
100
AcDbEntity
  8
QUOTE
 62
     0
370
    -2
100
AcDbLine
 10
278.1610420312695
 20
156.1950356269647
 30
0.0
 11
278.1610420312695
 21
210.1248385755353
 31
0.0
  0
LINE
  5
17DD9
330
17DD6
100
AcDbEntity
  8
QUOTE
 62
     0
370
    -2
100
AcDbLine
 10
408.13604189635
 20
149.558118018369
 30
0.0
 11
408.13604189635
 21
210.1248385755353
 31
0.0
  0
LINE
  5
17DDA
330
17DD6
100
AcDbEntity
  8
QUOTE
 62
     0
370
    -2
100
AcDbLine
 10
288.1610420312695
 20
207.1248385755353
 30
0.0
 11
398.13604189635
 21
207.1248385755353
 31
0.0
  0
SOLID
  5
17DDB
330
17DD6
100
AcDbEntity
  8
QUOTE
 62
     0
100
AcDbTrace
 10
288.1610420312695
 20
208.7915052422019
 30
0.0
 11
288.1610420312695
 21
205.4581719088686
 31
0.0
 12
278.1610420312695
 22
207.1248385755353
 32
0.0
 13
278.1610420312695
 23
207.1248385755353
 33
0.0
  0
SOLID
  5
17DDC
330
17DD6
100
AcDbEntity
  8
QUOTE
 62
     0
100
AcDbTrace
 10
398.13604189635
 20
205.4581719088686
 30
0.0
 11
398.13604189635
 21
208.7915052422019
 31
0.0
 12
408.13604189635
 22
207.1248385755353
 32
0.0
 13
408.13604189635
 23
207.1248385755353
 33
0.0
  0
MTEXT
  5
17DDD
330
17DD6
100
AcDbEntity
  8
QUOTE
 62
     0
100
AcDbMText
 10
343.1485419638097
 20
217.2508385755353
 30
0.0
 40
12.0
 41
0.0
 46
0.0
 71
     5
 72
     1
  1
\A1;130
  7
ARIAL
 73
     1
 44
1.0
  0
POINT
  5
17DDE
330
17DD6
100
AcDbEntity
  8
Defpoints
 62
     0
100
AcDbPoint
 10
278.1610420312695
 20
153.1950356269647
 30
0.0
  0
POINT
  5
17DDF
330
17DD6
100
AcDbEntity
  8
Defpoints
 62
     0
100
AcDbPoint
 10
408.13604189635
 20
146.558118018369
 30
0.0
  0
POINT
  5
17DE0
330
17DD6
100
AcDbEntity
  8
Defpoints
 62
     0
100
AcDbPoint
 10
408.13604189635
 20
207.1248385755353
 30
0.0
  0
ENDBLK
  5
17DE1
330
17DD6
100
AcDbEntity
  8
0
100
AcDbBlockEnd
  0
BLOCK
  5
17DE4
330
17DE3
100
AcDbEntity
  8
0
100
AcDbBlockBegin
  2
*D31
 70
     1
 10
0.0
 20
0.0
 30
0.0
  3
*D31
  1

  0
LINE
  5
17DE5
330
17DE3
100
AcDbEntity
  8
QUOTE
 62
     0
370
    -2
100
AcDbLine
 10
368.1609835147392
 20
86.2581718887559
 30
0.0
 11
368.1609835147392
 21
0.0
 31
0.0
  0
LINE
  5
17DE6
330
17DE3
100
AcDbEntity
  8
QUOTE
 62
     0
370
    -2
100
AcDbLine
 10
448.1609835097975
 20
86.25815160749062
 30
0.0
 11
448.1609835097975
 21
0.0
 31
0.0
  0
LINE
  5
17DE7
330
17DE3
100
AcDbEntity
  8
QUOTE
 62
     0
370
    -2
100
AcDbLine
 10
378.1609835147392
 20
3.0
 30
0.0
 11
438.1609835097975
 21
3.0
 31
0.0
  0
SOLID
  5
17DE8
330
17DE3
100
AcDbEntity
  8
QUOTE
 62
     0
100
AcDbTrace
 10
378.1609835147392
 20
4.666666666666667
 30
0.0
 11
378.1609835147392
 21
1.333333333333333
 31
0.0
 12
368.1609835147392
 22
3.0
 32
0.0
 13
368.1609835147392
 23
3.0
 33
0.0
  0
SOLID
  5
17DE9
330
17DE3
100
AcDbEntity
  8
QUOTE
 62
     0
100
AcDbTrace
 10
438.1609835097975
 20
1.333333333333333
 30
0.0
 11
438.1609835097975
 21
4.666666666666667
 31
0.0
 12
448.1609835097975
 22
3.0
 32
0.0
 13
448.1609835097975
 23
3.0
 33
0.0
  0
MTEXT
  5
17DEA
330
17DE3
100
AcDbEntity
  8
QUOTE
 62
     0
100
AcDbMText
 10
408.1609835122683
 20
13.126
 30
0.0
 40
12.0
 41
0.0
 46
0.0
 71
     5
 72
     1
  1
\A1;80
  7
ARIAL
 73
     1
 44
1.0
  0
POINT
  5
17DEB
330
17DE3
100
AcDbEntity
  8
Defpoints
 62
     0
100
AcDbPoint
 10
368.1609835147392
 20
89.2581718887559
 30
0.0
  0
POINT
  5
17DEC
330
17DE3
100
AcDbEntity
  8
Defpoints
 62
     0
100
AcDbPoint
 10
448.1609835097975
 20
89.25815160749062
 30
0.0
  0
POINT
  5
17DED
330
17DE3
100
AcDbEntity
  8
Defpoints
 62
     0
100
AcDbPoint
 10
448.1609835097975
 20
3.0
 30
0.0
  0
ENDBLK
  5
17DEE
330
17DE3
100
AcDbEntity
  8
0
100
AcDbBlockEnd
  0
BLOCK
  5
17E1A
330
17E19
100
AcDbEntity
  8
0
100
AcDbBlockBegin
  2
*D32
 70
     1
 10
0.0
 20
0.0
 30
0.0
  3
*D32
  1

  0
LINE
  5
17E1B
330
17E19
100
AcDbEntity
  8
QUOTE
 62
     0
370
    -2
100
AcDbLine
 10
213.1360418963495
 20
127.2724814777366
 30
0.0
 11
213.1360418963495
 21
261.5091371806543
 31
0.0
  0
LINE
  5
17E1C
330
17E19
100
AcDbEntity
  8
QUOTE
 62
     0
370
    -2
100
AcDbLine
 10
473.13604189635
 20
127.2724814777364
 30
0.0
 11
473.13604189635
 21
261.5091371806543
 31
0.0
  0
LINE
  5
17E1D
330
17E19
100
AcDbEntity
  8
QUOTE
 62
     0
370
    -2
100
AcDbLine
 10
223.1360418963495
 20
258.5091371806543
 30
0.0
 11
463.13604189635
 21
258.5091371806543
 31
0.0
  0
SOLID
  5
17E1E
330
17E19
100
AcDbEntity
  8
QUOTE
 62
     0
100
AcDbTrace
 10
223.1360418963495
 20
260.175803847321
 30
0.0
 11
223.1360418963495
 21
256.8424705139876
 31
0.0
 12
213.1360418963495
 22
258.5091371806543
 32
0.0
 13
213.1360418963495
 23
258.5091371806543
 33
0.0
  0
SOLID
  5
17E1F
330
17E19
100
AcDbEntity
  8
QUOTE
 62
     0
100
AcDbTrace
 10
463.13604189635
 20
256.8424705139876
 30
0.0
 11
463.13604189635
 21
260.175803847321
 31
0.0
 12
473.13604189635
 22
258.5091371806543
 32
0.0
 13
473.13604189635
 23
258.5091371806543
 33
0.0
  0
MTEXT
  5
17E20
330
17E19
100
AcDbEntity
  8
QUOTE
 62
     0
100
AcDbMText
 10
343.1360418963498
 20
268.6351371806543
 30
0.0
 40
12.0
 41
0.0
 46
0.0
 71
     5
 72
     1
  1
\A1;260
  7
ARIAL
 73
     1
 44
1.0
  0
POINT
  5
17E21
330
17E19
100
AcDbEntity
  8
Defpoints
 62
     0
100
AcDbPoint
 10
213.1360418963495
 20
124.2724814777366
 30
0.0
  0
POINT
  5
17E22
330
17E19
100
AcDbEntity
  8
Defpoints
 62
     0
100
AcDbPoint
 10
473.13604189635
 20
124.2724814777364
 30
0.0
  0
POINT
  5
17E23
330
17E19
100
AcDbEntity
  8
Defpoints
 62
     0
100
AcDbPoint
 10
473.13604189635
 20
258.5091371806543
 30
0.0
  0
ENDBLK
  5
17E24
330
17E19
100
AcDbEntity
  8
0
100
AcDbBlockEnd
  0
BLOCK
  5
17E2C
330
17E2B
100
AcDbEntity
  8
0
100
AcDbBlockBegin
  2
*D33
 70
     1
 10
0.0
 20
0.0
 30
0.0
  3
*D33
  1

  0
LINE
  5
17E2D
330
17E2B
100
AcDbEntity
  8
QUOTE
 62
     0
370
    -2
100
AcDbLine
 10
247.6360418963495
 20
161.7724814777366
 30
0.0
 11
190.4680401280439
 21
161.7724814777366
 31
0.0
  0
LINE
  5
17E2E
330
17E2B
100
AcDbEntity
  8
QUOTE
 62
     0
370
    -2
100
AcDbLine
 10
247.6360418963495
 20
86.77248147773662
 30
0.0
 11
190.4680401280439
 21
86.77248147773662
 31
0.0
  0
LINE
  5
17E2F
330
17E2B
100
AcDbEntity
  8
QUOTE
 62
     0
370
    -2
100
AcDbLine
 10
193.4680401280439
 20
151.7724814777366
 30
0.0
 11
193.4680401280439
 21
96.77248147773662
 31
0.0
  0
SOLID
  5
17E30
330
17E2B
100
AcDbEntity
  8
QUOTE
 62
     0
100
AcDbTrace
 10
195.1347067947105
 20
151.7724814777366
 30
0.0
 11
191.8013734613772
 21
151.7724814777366
 31
0.0
 12
193.4680401280439
 22
161.7724814777366
 32
0.0
 13
193.4680401280439
 23
161.7724814777366
 33
0.0
  0
SOLID
  5
17E31
330
17E2B
100
AcDbEntity
  8
QUOTE
 62
     0
100
AcDbTrace
 10
191.8013734613772
 20
96.77248147773662
 30
0.0
 11
195.1347067947105
 21
96.77248147773662
 31
0.0
 12
193.4680401280439
 22
86.77248147773662
 32
0.0
 13
193.4680401280439
 23
86.77248147773662
 33
0.0
  0
MTEXT
  5
17E32
330
17E2B
100
AcDbEntity
  8
QUOTE
 62
     0
100
AcDbMText
 10
183.3660401280439
 20
124.2724814777366
 30
0.0
 40
12.0
 41
0.0
 46
0.0
 71
     5
 72
     1
  1
\A1;75
  7
ARIAL
 11
0.0
 21
1.0
 31
0.0
 73
     1
 44
1.0
  0
POINT
  5
17E33
330
17E2B
100
AcDbEntity
  8
Defpoints
 62
     0
100
AcDbPoint
 10
250.6360418963495
 20
161.7724814777366
 30
0.0
  0
POINT
  5
17E34
330
17E2B
100
AcDbEntity
  8
Defpoints
 62
     0
100
AcDbPoint
 10
250.6360418963495
 20
86.77248147773662
 30
0.0
  0
POINT
  5
17E35
330
17E2B
100
AcDbEntity
  8
Defpoints
 62
     0
100
AcDbPoint
 10
193.4680401280439
 20
86.77248147773662
 30
0.0
  0
ENDBLK
  5
17E36
330
17E2B
100
AcDbEntity
  8
0
100
AcDbBlockEnd
  0
BLOCK
  5
17F88
330
17F87
100
AcDbEntity
  8
0
100
AcDbBlockBegin
  2
*D34
 70
     1
 10
0.0
 20
0.0
 30
0.0
  3
*D34
  1

  0
LINE
  5
17F8A
330
17F87
100
AcDbEntity
  8
DIM
 62
     0
370
    -2
100
AcDbLine
 10
569.5331804355527
 20
419.4346954450464
 30
0.0
 11
569.5331804355527
 21
454.0636641424621
 31
0.0
  0
LINE
  5
17F8B
330
17F87
100
AcDbEntity
  8
DIM
 62
     0
370
    -2
100
AcDbLine
 10
485.5331804355527
 20
437.869870285541
 30
0.0
 11
485.5331804355527
 21
454.0636641424621
 31
0.0
  0
LINE
  5
17F8C
330
17F87
100
AcDbEntity
  8
DIM
 62
     0
370
    -2
100
AcDbLine
 10
566.5331804355527
 20
454.0636641424621
 30
0.0
 11
488.5331804355527
 21
454.0636641424621
 31
0.0
  0
INSERT
  5
17F8D
330
17F87
100
AcDbEntity
  8
DIM
 62
     0
370
    -2
100
AcDbBlockReference
  2
_DOT
 10
569.5331804355527
 20
454.0636641424621
 30
0.0
 41
3.0
 42
3.0
 43
3.0
  0
INSERT
  5
17F8E
330
17F87
100
AcDbEntity
  8
DIM
 62
     0
370
    -2
100
AcDbBlockReference
  2
_DOT
 10
485.5331804355527
 20
454.0636641424621
 30
0.0
 41
3.0
 42
3.0
 43
3.0
 50
180.0
  0
MTEXT
  5
17F8F
330
17F87
100
AcDbEntity
  8
DIM
 62
     0
100
AcDbMText
 10
527.5331804355527
 20
461.0636641424621
 30
0.0
 40
8.0
 41
0.0
 46
0.0
 71
     5
 72
     1
  1
\A1;84-97
  7
ＭＳ ゴシック
 73
     1
 44
1.0
  0
POINT
  5
17F90
330
17F87
100
AcDbEntity
  8
Defpoints
 62
     0
100
AcDbPoint
 10
569.5331804355527
 20
414.4346954450464
 30
0.0
  0
POINT
  5
17F91
330
17F87
100
AcDbEntity
  8
Defpoints
 62
     0
100
AcDbPoint
 10
485.5331804355527
 20
432.869870285541
 30
0.0
  0
POINT
  5
17F92
330
17F87
100
AcDbEntity
  8
Defpoints
 62
     0
100
AcDbPoint
 10
485.5331804355527
 20
454.0636641424621
 30
0.0
  0
ENDBLK
  5
17F89
330
17F87
100
AcDbEntity
  8
0
100
AcDbBlockEnd
  0
BLOCK
  5
17F94
330
17F93
100
AcDbEntity
  8
0
100
AcDbBlockBegin
  2
*D35
 70
     1
 10
0.0
 20
0.0
 30
0.0
  3
*D35
  1

  0
LINE
  5
17F96
330
17F93
100
AcDbEntity
  8
DIM
 62
     0
370
    -2
100
AcDbLine
 10
527.5331804355527
 20
312.6383534359575
 30
0.0
 11
527.5331804355527
 21
269.1736072614396
 31
0.0
  0
LINE
  5
17F97
330
17F93
100
AcDbEntity
  8
DIM
 62
     0
370
    -2
100
AcDbLine
 10
485.5331804355527
 20
290.8572296091384
 30
0.0
 11
485.5331804355527
 21
269.1736072614396
 31
0.0
  0
LINE
  5
17F98
330
17F93
100
AcDbEntity
  8
DIM
 62
     0
370
    -2
100
AcDbLine
 10
524.5331804355527
 20
269.1736072614396
 30
0.0
 11
488.5331804355527
 21
269.1736072614396
 31
0.0
  0
INSERT
  5
17F99
330
17F93
100
AcDbEntity
  8
DIM
 62
     0
370
    -2
100
AcDbBlockReference
  2
_DOT
 10
527.5331804355527
 20
269.1736072614396
 30
0.0
 41
3.0
 42
3.0
 43
3.0
  0
INSERT
  5
17F9A
330
17F93
100
AcDbEntity
  8
DIM
 62
     0
370
    -2
100
AcDbBlockReference
  2
_DOT
 10
485.5331804355527
 20
269.1736072614396
 30
0.0
 41
3.0
 42
3.0
 43
3.0
 50
180.0
  0
MTEXT
  5
17F9B
330
17F93
100
AcDbEntity
  8
DIM
 62
     0
100
AcDbMText
 10
506.5331804355527
 20
276.1736072614396
 30
0.0
 40
8.0
 41
0.0
 46
0.0
 71
     5
 72
     1
  1
\A1;42-55
  7
ＭＳ ゴシック
 73
     1
 44
1.0
  0
POINT
  5
17F9C
330
17F93
100
AcDbEntity
  8
Defpoints
 62
     0
100
AcDbPoint
 10
527.5331804355527
 20
317.6383534359575
 30
0.0
  0
POINT
  5
17F9D
330
17F93
100
AcDbEntity
  8
Defpoints
 62
     0
100
AcDbPoint
 10
485.5331804355527
 20
295.8572296091384
 30
0.0
  0
POINT
  5
17F9E
330
17F93
100
AcDbEntity
  8
Defpoints
 62
     0
100
AcDbPoint
 10
485.5331804355527
 20
269.1736072614396
 30
0.0
  0
ENDBLK
  5
17F95
330
17F93
100
AcDbEntity
  8
0
100
AcDbBlockEnd
  0
BLOCK
  5
17FA3
330
17FA2
100
AcDbEntity
  8
0
100
AcDbBlockBegin
  2
*D36
 70
     1
 10
0.0
 20
0.0
 30
0.0
  3
*D36
  1

  0
LINE
  5
17FA5
330
17FA2
100
AcDbEntity
  8
DIM
 62
     0
370
    -2
100
AcDbLine
 10
422.8331872998222
 20
384.9202625378925
 30
0.0
 11
422.8331872998222
 21
454.0636641424621
 31
0.0
  0
LINE
  5
17FA6
330
17FA2
100
AcDbEntity
  8
DIM
 62
     0
370
    -2
100
AcDbLine
 10
485.5331804355527
 20
437.8284602899318
 30
0.0
 11
485.5331804355527
 21
454.0636641424621
 31
0.0
  0
LINE
  5
17FA7
330
17FA2
100
AcDbEntity
  8
DIM
 62
     0
370
    -2
100
AcDbLine
 10
425.8331872998222
 20
454.0636641424621
 30
0.0
 11
482.5331804355527
 21
454.0636641424621
 31
0.0
  0
INSERT
  5
17FA8
330
17FA2
100
AcDbEntity
  8
DIM
 62
     0
370
    -2
100
AcDbBlockReference
  2
_DOT
 10
422.8331872998222
 20
454.0636641424621
 30
0.0
 41
3.0
 42
3.0
 43
3.0
 50
180.0
  0
INSERT
  5
17FA9
330
17FA2
100
AcDbEntity
  8
DIM
 62
     0
370
    -2
100
AcDbBlockReference
  2
_DOT
 10
485.5331804355527
 20
454.0636641424621
 30
0.0
 41
3.0
 42
3.0
 43
3.0
  0
MTEXT
  5
17FAA
330
17FA2
100
AcDbEntity
  8
DIM
 62
     0
100
AcDbMText
 10
454.1831838676874
 20
461.0636641424621
 30
0.0
 40
8.0
 41
0.0
 46
0.0
 71
     5
 72
     1
  1
\A1;63-50
  7
ＭＳ ゴシック
 73
     1
 44
1.0
  0
POINT
  5
17FAB
330
17FA2
100
AcDbEntity
  8
Defpoints
 62
     0
100
AcDbPoint
 10
422.8331872998222
 20
379.9202625378925
 30
0.0
  0
POINT
  5
17FAC
330
17FA2
100
AcDbEntity
  8
Defpoints
 62
     0
100
AcDbPoint
 10
485.5331804355527
 20
432.8284602899318
 30
0.0
  0
POINT
  5
17FAD
330
17FA2
100
AcDbEntity
  8
Defpoints
 62
     0
100
AcDbPoint
 10
485.5331804355527
 20
454.0636641424621
 30
0.0
  0
ENDBLK
  5
17FA4
330
17FA2
100
AcDbEntity
  8
0
100
AcDbBlockEnd
  0
BLOCK
  5
17FAF
330
17FAE
100
AcDbEntity
  8
0
100
AcDbBlockBegin
  2
*D37
 70
     1
 10
0.0
 20
0.0
 30
0.0
  3
*D37
  1

  0
LINE
  5
17FB1
330
17FAE
100
AcDbEntity
  8
DIM
 62
     0
370
    -2
100
AcDbLine
 10
339.2068695337936
 20
414.4203344018507
 30
0.0
 11
368.9034541843232
 21
414.4203344018507
 31
0.0
  0
LINE
  5
17FB2
330
17FAE
100
AcDbEntity
  8
DIM
 62
     0
370
    -2
100
AcDbLine
 10
339.2068695337936
 20
302.4203344018516
 30
0.0
 11
368.9034541843232
 21
302.4203344018516
 31
0.0
  0
LINE
  5
17FB3
330
17FAE
100
AcDbEntity
  8
DIM
 62
     0
370
    -2
100
AcDbLine
 10
368.9034541843232
 20
411.4203344018507
 30
0.0
 11
368.9034541843232
 21
305.4203344018516
 31
0.0
  0
INSERT
  5
17FB4
330
17FAE
100
AcDbEntity
  8
DIM
 62
     0
370
    -2
100
AcDbBlockReference
  2
_DOT
 10
368.9034541843232
 20
414.4203344018507
 30
0.0
 41
3.0
 42
3.0
 43
3.0
 50
90.0
  0
INSERT
  5
17FB5
330
17FAE
100
AcDbEntity
  8
DIM
 62
     0
370
    -2
100
AcDbBlockReference
  2
_DOT
 10
368.9034541843232
 20
302.4203344018516
 30
0.0
 41
3.0
 42
3.0
 43
3.0
 50
270.0
  0
MTEXT
  5
17FB6
330
17FAE
100
AcDbEntity
  8
DIM
 62
     0
100
AcDbMText
 10
361.9034541843232
 20
358.4203344018516
 30
0.0
 40
8.0
 41
0.0
 46
0.0
 71
     5
 72
     1
  1
\A1;112
  7
ＭＳ ゴシック
 11
0.0
 21
1.0
 31
0.0
 73
     1
 44
1.0
  0
POINT
  5
17FB7
330
17FAE
100
AcDbEntity
  8
Defpoints
 62
     0
100
AcDbPoint
 10
334.2068695337936
 20
414.4203344018507
 30
0.0
  0
POINT
  5
17FB8
330
17FAE
100
AcDbEntity
  8
Defpoints
 62
     0
100
AcDbPoint
 10
334.2068695337936
 20
302.4203344018516
 30
0.0
  0
POINT
  5
17FB9
330
17FAE
100
AcDbEntity
  8
Defpoints
 62
     0
100
AcDbPoint
 10
368.9034541843232
 20
302.4203344018516
 30
0.0
  0
ENDBLK
  5
17FB0
330
17FAE
100
AcDbEntity
  8
0
100
AcDbBlockEnd
  0
BLOCK
  5
17FBB
330
17FBA
100
AcDbEntity
  8
0
100
AcDbBlockBegin
  2
*D38
 70
     1
 10
0.0
 20
0.0
 30
0.0
  3
*D38
  1

  0
LINE
  5
17FBD
330
17FBA
100
AcDbEntity
  8
DIM
 62
     0
370
    -2
100
AcDbLine
 10
136.8604803670796
 20
537.9845250565894
 30
0.0
 11
136.8604803670796
 21
548.5605061019386
 31
0.0
  0
LINE
  5
17FBE
330
17FBA
100
AcDbEntity
  8
DIM
 62
     0
370
    -2
100
AcDbLine
 10
266.83548023216
 20
486.7620072686986
 30
0.0
 11
266.83548023216
 21
548.5605061019386
 31
0.0
  0
LINE
  5
17FBF
330
17FBA
100
AcDbEntity
  8
DIM
 62
     0
370
    -2
100
AcDbLine
 10
139.8604803670796
 20
548.5605061019386
 30
0.0
 11
263.83548023216
 21
548.5605061019386
 31
0.0
  0
INSERT
  5
17FC0
330
17FBA
100
AcDbEntity
  8
DIM
 62
     0
370
    -2
100
AcDbBlockReference
  2
_DOT
 10
136.8604803670796
 20
548.5605061019386
 30
0.0
 41
3.0
 42
3.0
 43
3.0
 50
180.0
  0
INSERT
  5
17FC1
330
17FBA
100
AcDbEntity
  8
DIM
 62
     0
370
    -2
100
AcDbBlockReference
  2
_DOT
 10
266.83548023216
 20
548.5605061019386
 30
0.0
 41
3.0
 42
3.0
 43
3.0
  0
MTEXT
  5
17FC2
330
17FBA
100
AcDbEntity
  8
DIM
 62
     0
100
AcDbMText
 10
201.8479802996198
 20
555.5605061019386
 30
0.0
 40
8.0
 41
0.0
 46
0.0
 71
     5
 72
     1
  1
\A1;130
  7
ＭＳ ゴシック
 73
     1
 44
1.0
  0
POINT
  5
17FC3
330
17FBA
100
AcDbEntity
  8
Defpoints
 62
     0
100
AcDbPoint
 10
136.8604803670796
 20
532.9845250565894
 30
0.0
  0
POINT
  5
17FC4
330
17FBA
100
AcDbEntity
  8
Defpoints
 62
     0
100
AcDbPoint
 10
266.83548023216
 20
481.7620072686986
 30
0.0
  0
POINT
  5
17FC5
330
17FBA
100
AcDbEntity
  8
Defpoints
 62
     0
100
AcDbPoint
 10
266.83548023216
 20
548.5605061019386
 30
0.0
  0
ENDBLK
  5
17FBC
330
17FBA
100
AcDbEntity
  8
0
100
AcDbBlockEnd
  0
BLOCK
  5
17FC7
330
17FC6
100
AcDbEntity
  8
0
100
AcDbBlockBegin
  2
*D39
 70
     1
 10
0.0
 20
0.0
 30
0.0
  3
*D39
  1

  0
LINE
  5
17FC9
330
17FC6
100
AcDbEntity
  8
DIM
 62
     0
370
    -2
100
AcDbLine
 10
214.7068111521837
 20
268.0108472002086
 30
0.0
 11
214.7068111521837
 21
239.0424489586335
 31
0.0
  0
LINE
  5
17FCA
330
17FC6
100
AcDbEntity
  8
DIM
 62
     0
370
    -2
100
AcDbLine
 10
294.7068111472419
 20
268.0108269189433
 30
0.0
 11
294.7068111472419
 21
239.0424489586335
 31
0.0
  0
LINE
  5
17FCB
330
17FC6
100
AcDbEntity
  8
DIM
 62
     0
370
    -2
100
AcDbLine
 10
217.7068111521837
 20
239.0424489586335
 30
0.0
 11
291.7068111472419
 21
239.0424489586335
 31
0.0
  0
INSERT
  5
17FCC
330
17FC6
100
AcDbEntity
  8
DIM
 62
     0
370
    -2
100
AcDbBlockReference
  2
_DOT
 10
214.7068111521837
 20
239.0424489586335
 30
0.0
 41
3.0
 42
3.0
 43
3.0
 50
180.0
  0
INSERT
  5
17FCD
330
17FC6
100
AcDbEntity
  8
DIM
 62
     0
370
    -2
100
AcDbBlockReference
  2
_DOT
 10
294.7068111472419
 20
239.0424489586335
 30
0.0
 41
3.0
 42
3.0
 43
3.0
  0
MTEXT
  5
17FCE
330
17FC6
100
AcDbEntity
  8
DIM
 62
     0
100
AcDbMText
 10
254.7068111497128
 20
246.0424489586335
 30
0.0
 40
8.0
 41
0.0
 46
0.0
 71
     5
 72
     1
  1
\A1;80
  7
ＭＳ ゴシック
 73
     1
 44
1.0
  0
POINT
  5
17FCF
330
17FC6
100
AcDbEntity
  8
Defpoints
 62
     0
100
AcDbPoint
 10
214.7068111521837
 20
273.0108472002086
 30
0.0
  0
POINT
  5
17FD0
330
17FC6
100
AcDbEntity
  8
Defpoints
 62
     0
100
AcDbPoint
 10
294.7068111472419
 20
273.0108269189433
 30
0.0
  0
POINT
  5
17FD1
330
17FC6
100
AcDbEntity
  8
Defpoints
 62
     0
100
AcDbPoint
 10
294.7068111472419
 20
239.0424489586335
 30
0.0
  0
ENDBLK
  5
17FC8
330
17FC6
100
AcDbEntity
  8
0
100
AcDbBlockEnd
  0
BLOCK
  5
17FD3
330
17FD2
100
AcDbEntity
  8
0
100
AcDbBlockBegin
  2
*D40
 70
     1
 10
0.0
 20
0.0
 30
0.0
  3
*D40
  1

  0
LINE
  5
17FD5
330
17FD2
100
AcDbEntity
  8
DIM
 62
     0
370
    -2
100
AcDbLine
 10
71.83548023215957
 20
472.4767609922682
 30
0.0
 11
71.83548023215957
 21
597.8372461363159
 31
0.0
  0
LINE
  5
17FD6
330
17FD2
100
AcDbEntity
  8
DIM
 62
     0
370
    -2
100
AcDbLine
 10
331.83548023216
 20
472.476760992268
 30
0.0
 11
331.83548023216
 21
597.8372461363159
 31
0.0
  0
LINE
  5
17FD7
330
17FD2
100
AcDbEntity
  8
DIM
 62
     0
370
    -2
100
AcDbLine
 10
74.83548023215957
 20
597.8372461363159
 30
0.0
 11
328.83548023216
 21
597.8372461363159
 31
0.0
  0
INSERT
  5
17FD8
330
17FD2
100
AcDbEntity
  8
DIM
 62
     0
370
    -2
100
AcDbBlockReference
  2
_DOT
 10
71.83548023215957
 20
597.8372461363159
 30
0.0
 41
3.0
 42
3.0
 43
3.0
 50
180.0
  0
INSERT
  5
17FD9
330
17FD2
100
AcDbEntity
  8
DIM
 62
     0
370
    -2
100
AcDbBlockReference
  2
_DOT
 10
331.83548023216
 20
597.8372461363159
 30
0.0
 41
3.0
 42
3.0
 43
3.0
  0
MTEXT
  5
17FDA
330
17FD2
100
AcDbEntity
  8
DIM
 62
     0
100
AcDbMText
 10
201.8354802321598
 20
604.8372461363159
 30
0.0
 40
8.0
 41
0.0
 46
0.0
 71
     5
 72
     1
  1
\A1;260
  7
ＭＳ ゴシック
 73
     1
 44
1.0
  0
POINT
  5
17FDB
330
17FD2
100
AcDbEntity
  8
Defpoints
 62
     0
100
AcDbPoint
 10
71.83548023215957
 20
467.4767609922682
 30
0.0
  0
POINT
  5
17FDC
330
17FD2
100
AcDbEntity
  8
Defpoints
 62
     0
100
AcDbPoint
 10
331.83548023216
 20
467.476760992268
 30
0.0
  0
POINT
  5
17FDD
330
17FD2
100
AcDbEntity
  8
Defpoints
 62
     0
100
AcDbPoint
 10
331.83548023216
 20
597.8372461363159
 30
0.0
  0
ENDBLK
  5
17FD4
330
17FD2
100
AcDbEntity
  8
0
100
AcDbBlockEnd
  0
BLOCK
  5
17FDF
330
17FDE
100
AcDbEntity
  8
0
100
AcDbBlockBegin
  2
*D41
 70
     1
 10
0.0
 20
0.0
 30
0.0
  3
*D41
  1

  0
LINE
  5
17FE1
330
17FDE
100
AcDbEntity
  8
DIM
 62
     0
370
    -2
100
AcDbLine
 10
104.3354802321595
 20
490.4627786545564
 30
0.0
 11
52.1674784638538
 21
490.4627786545564
 31
0.0
  0
LINE
  5
17FE2
330
17FDE
100
AcDbEntity
  8
DIM
 62
     0
370
    -2
100
AcDbLine
 10
104.3354802321595
 20
415.4627786545564
 30
0.0
 11
52.1674784638538
 21
415.4627786545564
 31
0.0
  0
LINE
  5
17FE3
330
17FDE
100
AcDbEntity
  8
DIM
 62
     0
370
    -2
100
AcDbLine
 10
52.1674784638538
 20
487.4627786545564
 30
0.0
 11
52.1674784638538
 21
418.4627786545564
 31
0.0
  0
INSERT
  5
17FE4
330
17FDE
100
AcDbEntity
  8
DIM
 62
     0
370
    -2
100
AcDbBlockReference
  2
_DOT
 10
52.1674784638538
 20
490.4627786545564
 30
0.0
 41
3.0
 42
3.0
 43
3.0
 50
90.0
  0
INSERT
  5
17FE5
330
17FDE
100
AcDbEntity
  8
DIM
 62
     0
370
    -2
100
AcDbBlockReference
  2
_DOT
 10
52.1674784638538
 20
415.4627786545564
 30
0.0
 41
3.0
 42
3.0
 43
3.0
 50
270.0
  0
MTEXT
  5
17FE6
330
17FDE
100
AcDbEntity
  8
DIM
 62
     0
100
AcDbMText
 10
45.1674784638538
 20
452.9627786545564
 30
0.0
 40
8.0
 41
0.0
 46
0.0
 71
     5
 72
     1
  1
\A1;75
  7
ＭＳ ゴシック
 11
9.473903143468003E-17
 21
1.0
 31
0.0
 73
     1
 44
1.0
  0
POINT
  5
17FE7
330
17FDE
100
AcDbEntity
  8
Defpoints
 62
     0
100
AcDbPoint
 10
109.3354802321595
 20
490.4627786545564
 30
0.0
  0
POINT
  5
17FE8
330
17FDE
100
AcDbEntity
  8
Defpoints
 62
     0
100
AcDbPoint
 10
109.3354802321595
 20
415.4627786545564
 30
0.0
  0
POINT
  5
17FE9
330
17FDE
100
AcDbEntity
  8
Defpoints
 62
     0
100
AcDbPoint
 10
52.1674784638538
 20
415.4627786545564
 30
0.0
  0
ENDBLK
  5
17FE0
330
17FDE
100
AcDbEntity
  8
0
100
AcDbBlockEnd
  0
BLOCK
  5
17FEE
330
17FED
100
AcDbEntity
  8
0
100
AcDbBlockBegin
  2
*D42
 70
     1
 10
0.0
 20
0.0
 30
0.0
  3
*D42
  1

  0
LINE
  5
17FF0
330
17FED
100
AcDbEntity
  8
DIM
 62
     0
370
    -2
100
AcDbLine
 10
337.2068681658868
 20
422.2679725884097
 30
0.0
 11
337.2068681658868
 21
454.0165449055015
 31
0.0
  0
LINE
  5
17FF1
330
17FED
100
AcDbEntity
  8
DIM
 62
     0
370
    -2
100
AcDbLine
 10
87.20686816588682
 20
421.3668687282208
 30
0.0
 11
87.20686816588682
 21
454.0165449055015
 31
0.0
  0
LINE
  5
17FF2
330
17FED
100
AcDbEntity
  8
DIM
 62
     0
370
    -2
100
AcDbLine
 10
334.2068681658868
 20
454.0165449055015
 30
0.0
 11
90.20686816588682
 21
454.0165449055015
 31
0.0
  0
INSERT
  5
17FF3
330
17FED
100
AcDbEntity
  8
DIM
 62
     0
370
    -2
100
AcDbBlockReference
  2
_DOT
 10
337.2068681658868
 20
454.0165449055015
 30
0.0
 41
3.0
 42
3.0
 43
3.0
  0
INSERT
  5
17FF4
330
17FED
100
AcDbEntity
  8
DIM
 62
     0
370
    -2
100
AcDbBlockReference
  2
_DOT
 10
87.20686816588682
 20
454.0165449055015
 30
0.0
 41
3.0
 42
3.0
 43
3.0
 50
180.0
  0
MTEXT
  5
17FF5
330
17FED
100
AcDbEntity
  8
DIM
 62
     0
100
AcDbMText
 10
212.2068681658868
 20
461.0165449055015
 30
0.0
 40
8.0
 41
0.0
 46
0.0
 71
     5
 72
     1
  1
\A1;250
  7
ＭＳ ゴシック
 73
     1
 44
1.0
  0
POINT
  5
17FF6
330
17FED
100
AcDbEntity
  8
Defpoints
 62
     0
100
AcDbPoint
 10
337.2068681658868
 20
417.2679725884097
 30
0.0
  0
POINT
  5
17FF7
330
17FED
100
AcDbEntity
  8
Defpoints
 62
     0
100
AcDbPoint
 10
87.20686816588682
 20
416.3668687282208
 30
0.0
  0
POINT
  5
17FF8
330
17FED
100
AcDbEntity
  8
Defpoints
 62
     0
100
AcDbPoint
 10
87.20686816588682
 20
454.0165449055015
 30
0.0
  0
ENDBLK
  5
17FEF
330
17FED
100
AcDbEntity
  8
0
100
AcDbBlockEnd
  0
BLOCK
  5
18106
330
18105
100
AcDbEntity
  8
0
100
AcDbBlockBegin
  2
*D43
 70
     1
 10
0.0
 20
0.0
 30
0.0
  3
*D43
  1

  0
LINE
  5
18108
330
18105
100
AcDbEntity
  8
DIM
 62
     0
370
    -2
100
AcDbLine
 10
351.3604802321591
 20
808.1973210288936
 30
0.0
 11
381.0570648826886
 21
808.1973210288936
 31
0.0
  0
LINE
  5
18109
330
18105
100
AcDbEntity
  8
DIM
 62
     0
370
    -2
100
AcDbLine
 10
351.3604802321591
 20
696.1973210288945
 30
0.0
 11
381.0570648826886
 21
696.1973210288945
 31
0.0
  0
LINE
  5
1810A
330
18105
100
AcDbEntity
  8
DIM
 62
     0
370
    -2
100
AcDbLine
 10
381.0570648826886
 20
805.1973210288936
 30
0.0
 11
381.0570648826886
 21
699.1973210288945
 31
0.0
  0
INSERT
  5
1810B
330
18105
100
AcDbEntity
  8
DIM
 62
     0
370
    -2
100
AcDbBlockReference
  2
_DOT
 10
381.0570648826886
 20
808.1973210288936
 30
0.0
 41
3.0
 42
3.0
 43
3.0
 50
90.0
  0
INSERT
  5
1810C
330
18105
100
AcDbEntity
  8
DIM
 62
     0
370
    -2
100
AcDbBlockReference
  2
_DOT
 10
381.0570648826886
 20
696.1973210288945
 30
0.0
 41
3.0
 42
3.0
 43
3.0
 50
270.0
  0
MTEXT
  5
1810D
330
18105
100
AcDbEntity
  8
DIM
 62
     0
100
AcDbMText
 10
374.0570648826886
 20
752.1973210288945
 30
0.0
 40
8.0
 41
0.0
 46
0.0
 71
     5
 72
     1
  1
\A1;112
  7
ＭＳ ゴシック
 11
0.0
 21
1.0
 31
0.0
 73
     1
 44
1.0
  0
POINT
  5
1810E
330
18105
100
AcDbEntity
  8
Defpoints
 62
     0
100
AcDbPoint
 10
346.3604802321591
 20
808.1973210288936
 30
0.0
  0
POINT
  5
1810F
330
18105
100
AcDbEntity
  8
Defpoints
 62
     0
100
AcDbPoint
 10
346.3604802321591
 20
696.1973210288945
 30
0.0
  0
POINT
  5
18110
330
18105
100
AcDbEntity
  8
Defpoints
 62
     0
100
AcDbPoint
 10
381.0570648826886
 20
696.1973210288945
 30
0.0
  0
ENDBLK
  5
18107
330
18105
100
AcDbEntity
  8
0
100
AcDbBlockEnd
  0
BLOCK
  5
18112
330
18111
100
AcDbEntity
  8
0
100
AcDbBlockBegin
  2
*D44
 70
     1
 10
0.0
 20
0.0
 30
0.0
  3
*D44
  1

  0
LINE
  5
18114
330
18111
100
AcDbEntity
  8
DIM
 62
     0
370
    -2
100
AcDbLine
 10
124.7068696687142
 20
662.847706797201
 30
0.0
 11
124.7068696687142
 21
683.56314056672
 31
0.0
  0
LINE
  5
18115
330
18111
100
AcDbEntity
  8
DIM
 62
     0
370
    -2
100
AcDbLine
 10
254.6818695337946
 20
661.5550339114138
 30
0.0
 11
254.6818695337946
 21
683.56314056672
 31
0.0
  0
LINE
  5
18116
330
18111
100
AcDbEntity
  8
DIM
 62
     0
370
    -2
100
AcDbLine
 10
127.7068696687142
 20
683.56314056672
 30
0.0
 11
251.6818695337946
 21
683.56314056672
 31
0.0
  0
INSERT
  5
18117
330
18111
100
AcDbEntity
  8
DIM
 62
     0
370
    -2
100
AcDbBlockReference
  2
_DOT
 10
124.7068696687142
 20
683.56314056672
 30
0.0
 41
3.0
 42
3.0
 43
3.0
 50
180.0
  0
INSERT
  5
18118
330
18111
100
AcDbEntity
  8
DIM
 62
     0
370
    -2
100
AcDbBlockReference
  2
_DOT
 10
254.6818695337946
 20
683.56314056672
 30
0.0
 41
3.0
 42
3.0
 43
3.0
  0
MTEXT
  5
18119
330
18111
100
AcDbEntity
  8
DIM
 62
     0
100
AcDbMText
 10
189.6943696012547
 20
690.56314056672
 30
0.0
 40
8.0
 41
0.0
 46
0.0
 71
     5
 72
     1
  1
\A1;130
  7
ＭＳ ゴシック
 73
     1
 44
1.0
  0
POINT
  5
1811A
330
18111
100
AcDbEntity
  8
Defpoints
 62
     0
100
AcDbPoint
 10
124.7068696687142
 20
657.847706797201
 30
0.0
  0
POINT
  5
1811B
330
18111
100
AcDbEntity
  8
Defpoints
 62
     0
100
AcDbPoint
 10
254.6818695337946
 20
656.5550339114138
 30
0.0
  0
POINT
  5
1811C
330
18111
100
AcDbEntity
  8
Defpoints
 62
     0
100
AcDbPoint
 10
254.6818695337946
 20
683.56314056672
 30
0.0
  0
ENDBLK
  5
18113
330
18111
100
AcDbEntity
  8
0
100
AcDbBlockEnd
  0
BLOCK
  5
1811E
330
1811D
100
AcDbEntity
  8
0
100
AcDbBlockBegin
  2
*D45
 70
     1
 10
0.0
 20
0.0
 30
0.0
  3
*D45
  1

  0
LINE
  5
18120
330
1811D
100
AcDbEntity
  8
DIM
 62
     0
370
    -2
100
AcDbLine
 10
226.8604218505491
 20
661.7878338272516
 30
0.0
 11
226.8604218505491
 21
632.8194355856765
 31
0.0
  0
LINE
  5
18121
330
1811D
100
AcDbEntity
  8
DIM
 62
     0
370
    -2
100
AcDbLine
 10
306.8604218456074
 20
661.7878135459863
 30
0.0
 11
306.8604218456074
 21
632.8194355856765
 31
0.0
  0
LINE
  5
18122
330
1811D
100
AcDbEntity
  8
DIM
 62
     0
370
    -2
100
AcDbLine
 10
229.8604218505491
 20
632.8194355856765
 30
0.0
 11
303.8604218456074
 21
632.8194355856765
 31
0.0
  0
INSERT
  5
18123
330
1811D
100
AcDbEntity
  8
DIM
 62
     0
370
    -2
100
AcDbBlockReference
  2
_DOT
 10
226.8604218505491
 20
632.8194355856765
 30
0.0
 41
3.0
 42
3.0
 43
3.0
 50
180.0
  0
INSERT
  5
18124
330
1811D
100
AcDbEntity
  8
DIM
 62
     0
370
    -2
100
AcDbBlockReference
  2
_DOT
 10
306.8604218456074
 20
632.8194355856765
 30
0.0
 41
3.0
 42
3.0
 43
3.0
  0
MTEXT
  5
18125
330
1811D
100
AcDbEntity
  8
DIM
 62
     0
100
AcDbMText
 10
266.8604218480783
 20
639.8194355856765
 30
0.0
 40
8.0
 41
0.0
 46
0.0
 71
     5
 72
     1
  1
\A1;80
  7
ＭＳ ゴシック
 73
     1
 44
1.0
  0
POINT
  5
18126
330
1811D
100
AcDbEntity
  8
Defpoints
 62
     0
100
AcDbPoint
 10
226.8604218505491
 20
666.7878338272516
 30
0.0
  0
POINT
  5
18127
330
1811D
100
AcDbEntity
  8
Defpoints
 62
     0
100
AcDbPoint
 10
306.8604218456074
 20
666.7878135459863
 30
0.0
  0
POINT
  5
18128
330
1811D
100
AcDbEntity
  8
Defpoints
 62
     0
100
AcDbPoint
 10
306.8604218456074
 20
632.8194355856765
 30
0.0
  0
ENDBLK
  5
1811F
330
1811D
100
AcDbEntity
  8
0
100
AcDbBlockEnd
  0
BLOCK
  5
1812A
330
18129
100
AcDbEntity
  8
0
100
AcDbBlockBegin
  2
*D46
 70
     1
 10
0.0
 20
0.0
 30
0.0
  3
*D46
  1

  0
LINE
  5
1812C
330
18129
100
AcDbEntity
  8
DIM
 62
     0
370
    -2
100
AcDbLine
 10
59.68186953379421
 20
639.8616891349129
 30
0.0
 11
59.68186953379421
 21
714.8398323314141
 31
0.0
  0
LINE
  5
1812D
330
18129
100
AcDbEntity
  8
DIM
 62
     0
370
    -2
100
AcDbLine
 10
319.6818695337947
 20
639.8616891349127
 30
0.0
 11
319.6818695337947
 21
714.8398323314141
 31
0.0
  0
LINE
  5
1812E
330
18129
100
AcDbEntity
  8
DIM
 62
     0
370
    -2
100
AcDbLine
 10
62.68186953379421
 20
714.8398323314141
 30
0.0
 11
316.6818695337947
 21
714.8398323314141
 31
0.0
  0
INSERT
  5
1812F
330
18129
100
AcDbEntity
  8
DIM
 62
     0
370
    -2
100
AcDbBlockReference
  2
_DOT
 10
59.68186953379421
 20
714.8398323314141
 30
0.0
 41
3.0
 42
3.0
 43
3.0
 50
180.0
  0
INSERT
  5
18130
330
18129
100
AcDbEntity
  8
DIM
 62
     0
370
    -2
100
AcDbBlockReference
  2
_DOT
 10
319.6818695337947
 20
714.8398323314141
 30
0.0
 41
3.0
 42
3.0
 43
3.0
  0
MTEXT
  5
18131
330
18129
100
AcDbEntity
  8
DIM
 62
     0
100
AcDbMText
 10
189.6818695337944
 20
721.8398323314141
 30
0.0
 40
8.0
 41
0.0
 46
0.0
 71
     5
 72
     1
  1
\A1;260
  7
ＭＳ ゴシック
 73
     1
 44
1.0
  0
POINT
  5
18132
330
18129
100
AcDbEntity
  8
Defpoints
 62
     0
100
AcDbPoint
 10
59.68186953379421
 20
634.8616891349129
 30
0.0
  0
POINT
  5
18133
330
18129
100
AcDbEntity
  8
Defpoints
 62
     0
100
AcDbPoint
 10
319.6818695337947
 20
634.8616891349127
 30
0.0
  0
POINT
  5
18134
330
18129
100
AcDbEntity
  8
Defpoints
 62
     0
100
AcDbPoint
 10
319.6818695337947
 20
714.8398323314141
 30
0.0
  0
ENDBLK
  5
1812B
330
18129
100
AcDbEntity
  8
0
100
AcDbBlockEnd
  0
BLOCK
  5
18136
330
18135
100
AcDbEntity
  8
0
100
AcDbBlockBegin
  2
*D47
 70
     1
 10
0.0
 20
0.0
 30
0.0
  3
*D47
  1

  0
LINE
  5
18138
330
18135
100
AcDbEntity
  8
DIM
 62
     0
370
    -2
100
AcDbLine
 10
349.3604788642522
 20
816.0449592154526
 30
0.0
 11
349.3604788642522
 21
873.5805781581405
 31
0.0
  0
LINE
  5
18139
330
18135
100
AcDbEntity
  8
DIM
 62
     0
370
    -2
100
AcDbLine
 10
99.36047886425229
 20
815.1438553552638
 30
0.0
 11
99.36047886425229
 21
873.5805781581405
 31
0.0
  0
LINE
  5
1813A
330
18135
100
AcDbEntity
  8
DIM
 62
     0
370
    -2
100
AcDbLine
 10
346.3604788642522
 20
873.5805781581405
 30
0.0
 11
102.3604788642523
 21
873.5805781581405
 31
0.0
  0
INSERT
  5
1813B
330
18135
100
AcDbEntity
  8
DIM
 62
     0
370
    -2
100
AcDbBlockReference
  2
_DOT
 10
349.3604788642522
 20
873.5805781581405
 30
0.0
 41
3.0
 42
3.0
 43
3.0
  0
INSERT
  5
1813C
330
18135
100
AcDbEntity
  8
DIM
 62
     0
370
    -2
100
AcDbBlockReference
  2
_DOT
 10
99.36047886425229
 20
873.5805781581405
 30
0.0
 41
3.0
 42
3.0
 43
3.0
 50
180.0
  0
MTEXT
  5
1813D
330
18135
100
AcDbEntity
  8
DIM
 62
     0
100
AcDbMText
 10
224.3604788642523
 20
880.5805781581405
 30
0.0
 40
8.0
 41
0.0
 46
0.0
 71
     5
 72
     1
  1
\A1;250
  7
ＭＳ ゴシック
 73
     1
 44
1.0
  0
POINT
  5
1813E
330
18135
100
AcDbEntity
  8
Defpoints
 62
     0
100
AcDbPoint
 10
349.3604788642522
 20
811.0449592154526
 30
0.0
  0
POINT
  5
1813F
330
18135
100
AcDbEntity
  8
Defpoints
 62
     0
100
AcDbPoint
 10
99.36047886425229
 20
810.1438553552638
 30
0.0
  0
POINT
  5
18140
330
18135
100
AcDbEntity
  8
Defpoints
 62
     0
100
AcDbPoint
 10
99.36047886425229
 20
873.5805781581405
 30
0.0
  0
ENDBLK
  5
18137
330
18135
100
AcDbEntity
  8
0
100
AcDbBlockEnd
  0
BLOCK
  5
18142
330
18141
100
AcDbEntity
  8
0
100
AcDbBlockBegin
  2
*D48
 70
     1
 10
0.0
 20
0.0
 30
0.0
  3
*D48
  1

  0
LINE
  5
18144
330
18141
100
AcDbEntity
  8
DIM
 62
     0
370
    -2
100
AcDbLine
 10
307.2363876291431
 20
657.8477067972012
 30
0.0
 11
347.9905131692716
 21
657.8477067972012
 31
0.0
  0
LINE
  5
18145
330
18141
100
AcDbEntity
  8
DIM
 62
     0
370
    -2
100
AcDbLine
 10
307.2363876291431
 20
582.8477067972012
 30
0.0
 11
347.9905131692715
 21
582.8477067972012
 31
0.0
  0
LINE
  5
18146
330
18141
100
AcDbEntity
  8
DIM
 62
     0
370
    -2
100
AcDbLine
 10
347.9905131692716
 20
654.8477067972012
 30
0.0
 11
347.9905131692715
 21
585.8477067972012
 31
0.0
  0
INSERT
  5
18147
330
18141
100
AcDbEntity
  8
DIM
 62
     0
370
    -2
100
AcDbBlockReference
  2
_DOT
 10
347.9905131692716
 20
657.8477067972012
 30
0.0
 41
3.0
 42
3.0
 43
3.0
 50
89.99999999999991
  0
INSERT
  5
18148
330
18141
100
AcDbEntity
  8
DIM
 62
     0
370
    -2
100
AcDbBlockReference
  2
_DOT
 10
347.9905131692715
 20
582.8477067972012
 30
0.0
 41
3.0
 42
3.0
 43
3.0
 50
269.9999999999999
  0
MTEXT
  5
18149
330
18141
100
AcDbEntity
  8
DIM
 62
     0
100
AcDbMText
 10
340.9905131692715
 20
620.3477067972015
 30
0.0
 40
8.0
 41
0.0
 46
0.0
 71
     5
 72
     1
  1
\A1;75
  7
ＭＳ ゴシック
 11
1.515824502954880E-15
 21
1.0
 31
0.0
 73
     1
 44
1.0
  0
POINT
  5
1814A
330
18141
100
AcDbEntity
  8
Defpoints
 62
     0
100
AcDbPoint
 10
302.2363876291431
 20
657.8477067972012
 30
0.0
  0
POINT
  5
1814B
330
18141
100
AcDbEntity
  8
Defpoints
 62
     0
100
AcDbPoint
 10
302.2363876291431
 20
582.8477067972012
 30
0.0
  0
POINT
  5
1814C
330
18141
100
AcDbEntity
  8
Defpoints
 62
     0
100
AcDbPoint
 10
347.9905131692715
 20
582.8477067972012
 30
0.0
  0
ENDBLK
  5
18143
330
18141
100
AcDbEntity
  8
0
100
AcDbBlockEnd
  0
ENDSEC
  0
SECTION
  2
ENTITIES
  0
MTEXT
  5
177
330
A
100
AcDbEntity
  8
TEMPLATE
390
1D
100
AcDbMText
 10
23.76064336431923
 20
103.1195254894285
 30
0.0
 40
4.886523437499998
 41
0.0
 46
0.0
 71
     1
 72
     1
  1
品名
  7
ＭＳ ゴシック
 73
     1
 44
0.7828267384257843
  0
MTEXT
  5
178
330
A
100
AcDbEntity
  8
TEMPLATE
390
1D
100
AcDbMText
 10
23.76064336431923
 20
77.6195254894284
 30
0.0
 40
4.886523437499998
 41
0.0
 46
0.0
 71
     1
 72
     1
  1
仕様
  7
ＭＳ ゴシック
 73
     1
 44
0.7828267384257843
  0
LINE
  5
179
330
A
100
AcDbEntity
  8
TEMPLATE
390
1D
100
AcDbLine
 10
606.6606433641745
 20
80.14400205192852
 30
0.0
 11
21.66064336417462
 21
80.14400205192852
 31
0.0
  0
LWPOLYLINE
  5
17A
330
A
100
AcDbEntity
  8
TEMPLATE
390
1D
100
AcDbPolyline
 90
        5
 70
   128
 43
0.0
 10
606.6606433641745
 20
869.1440020519278
 10
21.66064336417462
 20
869.1440020519278
 10
21.66064336417462
 20
29.14400205192847
 10
606.6606433641745
 20
29.14400205192847
 10
606.6606433641745
 20
869.1440020519278
  0
LINE
  5
17B
330
A
100
AcDbEntity
  8
TEMPLATE
390
1D
100
AcDbLine
 10
606.6606433641745
 20
105.6440020519285
 30
0.0
 11
21.66064336417462
 21
105.6440020519285
 31
0.0
  0
LINE
  5
17C
330
A
100
AcDbEntity
  8
TEMPLATE
390
1D
100
AcDbLine
 10
606.6606433643196
 20
54.64400205192847
 30
0.0
 11
380.760643364319
 21
54.64400205192847
 31
0.0
  0
MTEXT
  5
17E
330
A
100
AcDbEntity
  8
TEMPLATE
390
1D
100
AcDbMText
 10
389.7220652399973
 20
45.67088370993605
 30
0.0
 40
7.329785156250001
 41
0.0
 46
0.0
 71
     1
 72
     1
  1
大洋金物株式会社 ティーフォルム事業部
  7
ＭＳ ゴシック
 73
     1
 44
0.7828267384257843
  0
MTEXT
  5
180
330
A
100
AcDbEntity
  8
TEMPLATE
390
1D
100
AcDbMText
 10
549.360643364397
 20
69.04478720817846
 30
0.0
 40
7.329785156250001
 41
0.0
 46
7.329785156250001
 71
     1
 72
     1
  1
{1:3}
  7
ＭＳ ゴシック
 73
     1
 44
0.7828267384257843
1001
ACAD
1000
ACAD_MTEXT_DEFINED_HEIGHT_BEGIN
1070
    46
1040
7.329785156250001
1000
ACAD_MTEXT_DEFINED_HEIGHT_END
  0
MTEXT
  5
181
330
A
100
AcDbEntity
  8
TEMPLATE
390
1D
100
AcDbMText
 10
533.4606433643969
 20
77.6195254894284
 30
0.0
 40
4.886523437499998
 41
0.0
 46
0.0
 71
     1
 72
     1
  1
縮尺
  7
ＭＳ ゴシック
 73
     1
 44
0.7828267384257843
  0
LINE
  5
182
330
A
100
AcDbEntity
  8
TEMPLATE
390
1D
100
AcDbLine
 10
531.360643364397
 20
54.64400205192847
 30
0.0
 11
531.360643364397
 21
80.14400205192852
 31
0.0
  0
MTEXT
  5
183
330
A
100
AcDbEntity
  8
TEMPLATE
390
1D
100
AcDbMText
 10
458.1606433643969
 20
77.6195254894284
 30
0.0
 40
4.886523437499998
 41
0.0
 46
0.0
 71
     1
 72
     1
  1
容量
  7
ＭＳ ゴシック
 73
     1
 44
0.7828267384257843
  0
LINE
  5
184
330
A
100
AcDbEntity
  8
TEMPLATE
390
1D
100
AcDbLine
 10
456.060643364397
 20
54.64400205192847
 30
0.0
 11
456.060643364397
 21
80.14400205192852
 31
0.0
  0
MTEXT
  5
185
330
A
100
AcDbEntity
  8
TEMPLATE
390
1D
100
AcDbMText
 10
382.860643364397
 20
103.1195254894285
 30
0.0
 40
4.886523437499998
 41
0.0
 46
0.0
 71
     1
 72
     1
  1
品番
  7
ＭＳ ゴシック
 73
     1
 44
0.7828267384257843
  0
MTEXT
  5
186
330
A
100
AcDbEntity
  8
TEMPLATE
390
1D
100
AcDbMText
 10
382.860643364397
 20
77.6195254894284
 30
0.0
 40
4.886523437499998
 41
0.0
 46
0.0
 71
     1
 72
     1
  1
重量
  7
ＭＳ ゴシック
 73
     1
 44
0.7828267384257843
  0
MTEXT
  5
187
330
A
100
AcDbEntity
  8
TEMPLATE
390
1D
100
AcDbMText
 10
398.760643364397
 20
94.54478720817846
 30
0.0
 40
7.329785156250001
 41
0.0
 46
7.329785156250001
 71
     1
 72
     1
  1
{AGN73-3027}
  7
ＭＳ ゴシック
 73
     1
 44
0.7828267384257843
1001
ACAD
1000
ACAD_MTEXT_DEFINED_HEIGHT_BEGIN
1070
    46
1040
7.329785156250001
1000
ACAD_MTEXT_DEFINED_HEIGHT_END
  0
LINE
  5
188
330
A
100
AcDbEntity
  8
TEMPLATE
390
1D
100
AcDbLine
 10
380.760643364397
 20
29.14400205192847
 30
0.0
 11
380.760643364397
 21
105.6440020519285
 31
0.0
  0
MTEXT
  5
189
330
A
100
AcDbEntity
  8
TEMPLATE
390
1D
100
AcDbMText
 10
39.66064336431923
 20
94.54478720817846
 30
0.0
 40
7.329785156250001
 41
0.0
 46
8.260667871093752
 71
     1
 72
     1
  1
{混合栓　-FANTINI, Mare-}
  7
ＭＳ ゴシック
 73
     1
 44
0.7828267384257843
1001
ACAD
1000
ACAD_MTEXT_DEFINED_HEIGHT_BEGIN
1070
    46
1040
8.260667871093752
1000
ACAD_MTEXT_DEFINED_HEIGHT_END
  0
INSERT
  5
68C
330
A
100
AcDbEntity
  8
TEMPLATE
100
AcDbBlockReference
  2
block 2
 10
367.7097207081031
 20
3.349230605734547
 30
0.0
 41
0.1524
 42
0.1524
 43
0.1524
  0
LWPOLYLINE
  5
D69
330
A
100
AcDbEntity
  8
BORDER
100
AcDbPolyline
 90
        4
 70
     1
 43
0.0
 10
0.0
 20
0.0
 10
0.0
 20
891.0
 10
630.0
 20
891.0
 10
630.0
 20
0.0
  0
INSERT
  5
1343
330
A
100
AcDbEntity
  8
TEMPLATE
100
AcDbBlockReference
  2
block 2
 10
838.6973883465873
 20
9.774128564918277
 30
0.0
 41
0.1524
 42
0.1524
 43
0.1524
  0
MTEXT
  5
36AC
102
{ACAD_XDICTIONARY
360
36AE
102
}
330
A
100
AcDbEntity
  8
TEMPLATE
 48
0.05
100
AcDbMText
 10
22.06848147481188
 20
25.15049698669364
 30
0.0
 40
7.0
 41
0.0
 46
7.0
 71
     1
 72
     1
  1
{20200314N}
  7
ＭＳ ゴシック
 73
     1
 44
1.0
1001
ACAD
1000
ACAD_MTEXT_DEFINED_HEIGHT_BEGIN
1070
    46
1040
7.0
1000
ACAD_MTEXT_DEFINED_HEIGHT_END
  0
HATCH
  5
172F9
102
{ACAD_REACTORS
330
1730A
102
}
330
A
100
AcDbEntity
  8
TEMPLATE
100
AcDbHatch
 10
0.0
 20
0.0
 30
0.0
210
0.0
220
0.0
230
1.0
  2
SOLID
 70
     1
 71
     1
 91
        6
 92
        1
 93
        8
 72
     1
 10
580.3195574690816
 20
45.81237511424545
 11
580.3195574690816
 21
44.03955282504737
 72
     1
 10
580.3195574690816
 20
44.03955282504737
 11
577.5113800039879
 21
44.03955282504737
 72
     1
 10
577.5113800039879
 20
44.03955282504737
 11
577.5113800039879
 21
36.81237511467916
 72
     1
 10
577.5113800039879
 20
36.81237511467916
 11
575.0415960580052
 21
36.81237511467916
 72
     1
 10
575.0415960580052
 20
36.81237511467916
 11
575.0415960580052
 21
44.03955282504737
 72
     1
 10
575.0415960580052
 20
44.03955282504737
 11
572.2831856276422
 21
44.03955282504737
 72
     1
 10
572.2831856276422
 20
44.03955282504737
 11
572.2831856276422
 21
45.81237511424545
 72
     1
 10
572.2831856276422
 20
45.81237511424545
 11
580.3195574690816
 21
45.81237511424545
 97
        1
330
172FA
 92
        1
 93
        1
 72
     4
 94
        3
 73
     0
 74
     1
 95
       56
 96
       52
 40
0.0
 40
0.0
 40
0.0
 40
0.0
 40
1.0
 40
1.0
 40
1.0
 40
2.0
 40
2.0
 40
2.0
 40
3.0
 40
3.0
 40
3.0
 40
4.0
 40
4.0
 40
4.0
 40
5.0
 40
5.0
 40
5.0
 40
6.0
 40
6.0
 40
6.0
 40
7.0
 40
7.0
 40
7.0
 40
8.0
 40
8.0
 40
8.0
 40
9.0
 40
9.0
 40
9.0
 40
10.0
 40
10.0
 40
10.0
 40
11.0
 40
11.0
 40
11.0
 40
12.0
 40
12.0
 40
12.0
 40
13.0
 40
13.0
 40
13.0
 40
14.0
 40
14.0
 40
14.0
 40
15.0
 40
15.0
 40
15.0
 40
16.0
 40
16.0
 40
16.0
 40
17.0
 40
17.0
 40
17.0
 40
17.0
 10
584.0822130993691
 20
45.59806442612169
 10
584.4283729539446
 20
45.69550069232489
 10
584.8752496819451
 20
45.61399880405779
 10
584.8752496819451
 20
45.61399880405779
 10
584.8752496819451
 20
45.61399880405779
 10
584.6605596038704
 20
44.96972771633077
 10
584.6605596038704
 20
44.96972771633077
 10
584.6605596038704
 20
44.96972771633077
 10
584.2218509183414
 20
45.07124800376958
 10
583.8834797162866
 20
44.80442528303579
 10
583.6205401632852
 20
44.59576081006296
 10
583.4501940753495
 20
44.04131587246591
 10
583.3848497355779
 20
43.83050896212374
 10
583.3848497355779
 20
43.83050896212374
 10
583.0935228874299
 20
42.93630916500408
 10
583.0935228874299
 20
42.93630916500408
 10
583.0935228874299
 20
42.93630916500408
 10
584.0487598325259
 20
42.93630916500408
 10
584.0487598325259
 20
42.93630916500408
 10
584.0487598325259
 20
42.93630916500408
 10
583.9001951911804
 20
42.37351764848811
 10
583.9001951911804
 20
42.37351764848811
 10
583.9001951911804
 20
42.37351764848811
 10
582.9371695935639
 20
42.37351764848811
 10
582.9371695935639
 20
42.37351764848811
 10
582.9371695935639
 20
42.37351764848811
 10
581.2141366561519
 20
36.81237511467916
 10
581.2141366561519
 20
36.81237511467916
 10
581.2141366561519
 20
36.81237511467916
 10
580.6746664630858
 20
36.81237511467916
 10
580.6746664630858
 20
36.81237511467916
 10
580.6746664630858
 20
36.81237511467916
 10
582.3992615944129
 20
42.37351764848811
 10
582.3992615944129
 20
42.37351764848811
 10
582.3992615944129
 20
42.37351764848811
 10
581.6886418993973
 20
42.37351764848811
 10
581.6886418993973
 20
42.37351764848811
 10
581.6886418993973
 20
42.37351764848811
 10
581.8376082477495
 20
42.93630916500408
 10
581.8376082477495
 20
42.93630916500408
 10
581.8376082477495
 20
42.93630916500408
 10
582.5556148882789
 20
42.93630916500408
 10
582.5556148882789
 20
42.93630916500408
 10
582.5556148882789
 20
42.93630916500408
 10
582.8095829847954
 20
43.71615636752356
 10
582.8095829847954
 20
43.71615636752356
 10
583.0149445334899
 20
44.36997915518985
 10
583.1891961062141
 20
44.72100412795849
 10
583.3385641615731
 20
44.98566209426688
 10
583.4863477059606
 20
45.25054323113452
 10
583.7788350410173
 20
45.51073778625616
 10
584.0822130993691
 20
45.59806442612169
 97
        1
330
17305
 92
        1
 93
        1
 72
     4
 94
        3
 73
     0
 74
     1
 95
       32
 96
       28
 40
0.0
 40
0.0
 40
0.0
 40
0.0
 40
1.0
 40
1.0
 40
1.0
 40
2.0
 40
2.0
 40
2.0
 40
3.0
 40
3.0
 40
3.0
 40
4.0
 40
4.0
 40
4.0
 40
5.0
 40
5.0
 40
5.0
 40
6.0
 40
6.0
 40
6.0
 40
7.0
 40
7.0
 40
7.0
 40
8.0
 40
8.0
 40
8.0
 40
9.0
 40
9.0
 40
9.0
 40
9.0
 10
585.394880012287
 20
42.5961972325865
 10
585.0701222143513
 20
42.17612328876155
 10
584.8200372855671
 20
41.79807236125814
 10
584.4151612568324
 20
40.60984535222244
 10
584.0429350809274
 20
39.52296009417805
 10
583.8060618492556
 20
38.73222216836346
 10
583.7702876085951
 20
37.76919657074652
 10
583.7430608003568
 20
37.0525512706291
 10
584.1794485120689
 20
36.81237511467916
 10
584.8192785056652
 20
36.81237511467916
 10
585.0950280487724
 20
36.81237511467916
 10
585.7908738527602
 20
36.82991632064248
 10
586.2864017626947
 20
37.44247487188884
 10
586.6332980801157
 20
37.87283697849896
 10
586.9530122234106
 20
38.3189549265978
 10
587.3816335996579
 20
39.78237355234214
 10
587.7383047875777
 20
41.00579455858404
 10
587.985265328531
 20
41.79651016734281
 10
587.9670099767781
 20
42.24671213667737
 10
587.9670099767781
 20
42.24671213667737
 10
587.9670099767781
 20
42.24671213667737
 10
587.9670099767781
 20
42.24671213667737
 10
587.8506934812557
 20
42.9977703370432
 10
587.305398536591
 20
43.1564669217822
 10
586.9938524357677
 20
43.1564669217822
 10
586.6869929166902
 20
43.1564669217822
 10
585.8647433078983
 20
43.20955919784658
 10
585.394880012287
 20
42.5961972325865
 97
        1
330
17308
 92
        1
 93
        1
 72
     4
 94
        3
 73
     0
 74
     1
 95
       38
 96
       34
 40
0.0
 40
0.0
 40
0.0
 40
0.0
 40
1.0
 40
1.0
 40
1.0
 40
2.0
 40
2.0
 40
2.0
 40
3.0
 40
3.0
 40
3.0
 40
4.0
 40
4.0
 40
4.0
 40
5.0
 40
5.0
 40
5.0
 40
6.0
 40
6.0
 40
6.0
 40
7.0
 40
7.0
 40
7.0
 40
8.0
 40
8.0
 40
8.0
 40
9.0
 40
9.0
 40
9.0
 40
10.0
 40
10.0
 40
10.0
 40
11.0
 40
11.0
 40
11.0
 40
11.0
 10
589.9393467460162
 20
42.91472857191693
 10
589.9393467460162
 20
42.91472857191693
 10
590.4939702200608
 20
42.91472857191693
 10
590.4939702200608
 20
42.91472857191693
 10
590.4939702200608
 20
42.91472857191693
 10
590.2462062650937
 20
42.12146881878184
 10
590.2462062650937
 20
42.12146881878184
 10
590.4344729489438
 20
42.34414840288034
 10
590.7316022316344
 20
42.6407197591727
 10
590.9867754491712
 20
42.79026635097919
 10
591.3679507645053
 20
43.01294593507769
 10
591.5857652304104
 20
43.04231518068534
 10
591.8253165087943
 20
43.03646811203098
 10
591.8253165087943
 20
43.03646811203098
 10
591.591210592058
 20
42.28639186212602
 10
591.591210592058
 20
42.28639186212602
 10
591.4387404659245
 20
42.35095510493986
 10
590.968877170313
 20
42.22805507791734
 10
590.6993317687555
 20
42.03416449597226
 10
590.4562543955343
 20
41.85933267979383
 10
590.2882069643596
 20
41.71056718494513
 10
590.0890941913261
 20
41.33657796162161
 10
589.8914989780961
 20
40.96203081189956
 10
589.735547391237
 20
40.36480407807901
 10
589.4671624765878
 20
39.49841133265191
 10
589.4671624765878
 20
39.49841133265191
 10
588.6289784898598
 20
36.81237511467916
 10
588.6289784898598
 20
36.81237511467916
 10
588.6289784898598
 20
36.81237511467916
 10
588.0906911007581
 20
36.81237511467916
 10
588.0906911007581
 20
36.81237511467916
 10
588.0906911007581
 20
36.81237511467916
 10
589.9393467460162
 20
42.91472857191693
 10
589.9393467460162
 20
42.91472857191693
 97
        1
330
17306
 92
        1
 93
        1
 72
     4
 94
        3
 73
     0
 74
     1
 95
      104
 96
      100
 40
0.0
 40
0.0
 40
0.0
 40
0.0
 40
1.0
 40
1.0
 40
1.0
 40
2.0
 40
2.0
 40
2.0
 40
3.0
 40
3.0
 40
3.0
 40
4.0
 40
4.0
 40
4.0
 40
5.0
 40
5.0
 40
5.0
 40
6.0
 40
6.0
 40
6.0
 40
7.0
 40
7.0
 40
7.0
 40
8.0
 40
8.0
 40
8.0
 40
9.0
 40
9.0
 40
9.0
 40
10.0
 40
10.0
 40
10.0
 40
11.0
 40
11.0
 40
11.0
 40
12.0
 40
12.0
 40
12.0
 40
13.0
 40
13.0
 40
13.0
 40
14.0
 40
14.0
 40
14.0
 40
15.0
 40
15.0
 40
15.0
 40
16.0
 40
16.0
 40
16.0
 40
17.0
 40
17.0
 40
17.0
 40
18.0
 40
18.0
 40
18.0
 40
19.0
 40
19.0
 40
19.0
 40
20.0
 40
20.0
 40
20.0
 40
21.0
 40
21.0
 40
21.0
 40
22.0
 40
22.0
 40
22.0
 40
23.0
 40
23.0
 40
23.0
 40
24.0
 40
24.0
 40
24.0
 40
25.0
 40
25.0
 40
25.0
 40
26.0
 40
26.0
 40
26.0
 40
27.0
 40
27.0
 40
27.0
 40
28.0
 40
28.0
 40
28.0
 40
29.0
 40
29.0
 40
29.0
 40
30.0
 40
30.0
 40
30.0
 40
31.0
 40
31.0
 40
31.0
 40
32.0
 40
32.0
 40
32.0
 40
33.0
 40
33.0
 40
33.0
 40
33.0
 10
592.9921860953021
 20
42.91803149619498
 10
592.9921860953021
 20
42.91803149619498
 10
593.4764215749343
 20
42.91803149619498
 10
593.4764215749343
 20
42.91803149619498
 10
593.4764215749343
 20
42.91803149619498
 10
593.2317820077977
 20
42.12401296315816
 10
593.2317820077977
 20
42.12401296315816
 10
593.4441064779436
 20
42.4569388035653
 10
593.6346941356106
 20
42.6053249084632
 10
593.8879034522253
 20
42.79707305303871
 10
594.1418715487417
 20
42.98609851679041
 10
594.4433303402833
 20
43.02461775533059
 10
594.6525750567104
 20
43.02461775533059
 10
594.9116314419795
 20
43.02461775533059
 10
595.1617163707637
 20
42.97346706313235
 10
595.2931638302083
 20
42.68952716049805
 10
595.3939030206897
 20
42.46686989345537
 10
595.3985896024354
 20
42.44060271862234
 10
595.369800600282
 20
42.0010906190797
 10
595.6330972261784
 20
42.451694295421
 10
595.8275680515779
 20
42.64578573086951
 10
596.1581729181679
 20
42.83226705024479
 10
596.5051138697007
 20
43.02461775533059
 10
596.7073510305648
 20
43.0390122564073
 10
596.9423049954265
 20
43.00437618559952
 10
597.2884425329456
 20
42.95324781045711
 10
597.5093813866816
 20
42.82974522292441
 10
597.6248944681903
 20
42.45441697624481
 10
597.7408092567058
 20
42.0802492164738
 10
597.678187597758
 20
41.87955193246919
 10
597.5350460010044
 20
41.28388739256386
 10
597.4697016612328
 20
41.01260126064356
 10
597.3751666123011
 20
40.68411651436711
 10
597.251485488321
 20
40.29325559675826
 10
597.251485488321
 20
40.29325559675826
 10
596.1581729181679
 20
36.81237511467916
 10
596.1581729181679
 20
36.81237511467916
 10
596.1581729181679
 20
36.81237511467916
 10
595.5895343329975
 20
36.81237511467916
 10
595.5895343329975
 20
36.81237511467916
 10
595.5895343329975
 20
36.81237511467916
 10
596.5467574960716
 20
39.85548422757834
 10
596.5467574960716
 20
39.85548422757834
 10
596.7466736831187
 20
40.49218983334411
 10
596.8820043102957
 20
40.95716569370618
 10
596.952035231813
 20
41.24869339535778
 10
597.0399197980768
 20
41.61234982178448
 10
597.0749129417799
 20
41.73234863153571
 10
597.0333139495209
 20
41.99702891489992
 10
596.9951964179876
 20
42.24340921239921
 10
596.8707118799938
 20
42.40384652750092
 10
596.6575839958344
 20
42.40384652750092
 10
596.4304410005492
 20
42.40384652750092
 10
596.2464591914385
 20
42.37856130312887
 10
595.9890096341963
 20
42.11992894192245
 10
595.7315154428426
 20
41.85933267979383
 10
595.5187446315782
 20
41.55343279412157
 10
595.3519023214238
 20
41.20162672439526
 10
595.1854170841642
 20
40.8476782172995
 10
595.0166108730879
 20
40.39903844188016
 10
594.8454836881943
 20
39.85548422757834
 10
594.8454836881943
 20
39.85548422757834
 10
593.8879034522253
 20
36.81237511467916
 10
593.8879034522253
 20
36.81237511467916
 10
593.8879034522253
 20
36.81237511467916
 10
593.3530975238492
 20
36.81237511467916
 10
593.3530975238492
 20
36.81237511467916
 10
593.3530975238492
 20
36.81237511467916
 10
594.4479722879174
 20
40.29169340284293
 10
594.4479722879174
 20
40.29169340284293
 10
594.5634853694261
 20
40.66197799488166
 10
594.6502540828932
 20
40.96379385931832
 10
594.7074303801934
 20
41.19968514052912
 10
594.804643475837
 20
41.60574397322828
 10
594.8318702840753
 20
41.88033302942674
 10
594.7583579018323
 20
42.12401296315816
 10
594.6860060064979
 20
42.36691179993202
 10
594.5588434217922
 20
42.42895321542549
 10
594.3464743175347
 20
42.42895321542549
 10
594.1683395770782
 20
42.42895321542549
 10
593.9944897113609
 20
42.3525172988552
 10
593.7961357182293
 20
42.20042656267251
 10
593.5464078623398
 20
42.00908012510374
 10
593.4464720858722
 20
41.85194573428019
 10
593.3239514488008
 20
41.66524124434543
 10
593.1586266984499
 20
41.41825838633597
 10
593.0812311484743
 20
41.25199631963583
 10
592.941615646558
 20
40.88715708924472
 10
592.8019555105301
 20
40.52017542148403
 10
592.6697492711836
 20
40.09311623915196
 10
592.5775351960687
 20
39.7977276868239
 10
592.5775351960687
 20
39.7977276868239
 10
591.6382549459648
 20
36.81237511467916
 10
591.6382549459648
 20
36.81237511467916
 10
591.6382549459648
 20
36.81237511467916
 10
591.0781861102724
 20
36.81237511467916
 10
591.0781861102724
 20
36.81237511467916
 10
591.0781861102724
 20
36.81237511467916
 10
592.9921860953021
 20
42.91803149619498
 10
592.9921860953021
 20
42.91803149619498
 97
        1
330
17307
 92
       16
 93
        1
 72
     4
 94
        3
 73
     0
 74
     1
 95
       29
 96
       25
 40
0.0
 40
0.0
 40
0.0
 40
0.0
 40
1.0
 40
1.0
 40
1.0
 40
2.0
 40
2.0
 40
2.0
 40
3.0
 40
3.0
 40
3.0
 40
4.0
 40
4.0
 40
4.0
 40
5.0
 40
5.0
 40
5.0
 40
6.0
 40
6.0
 40
6.0
 40
7.0
 40
7.0
 40
7.0
 40
8.0
 40
8.0
 40
8.0
 40
8.0
 10
584.3513791109762
 20
37.94925057801331
 10
584.3490135030473
 20
38.37439049353518
 10
584.4832282774277
 20
39.12973356864027
 10
584.82704484113
 20
40.1403837636178
 10
585.2953459428262
 20
41.50888795047954
 10
585.5761837746858
 20
42.00908012510374
 10
585.821939194619
 20
42.25255920533161
 10
586.1809759904676
 20
42.60708795588196
 10
586.6636492761844
 20
42.62476306418078
 10
586.8060320930364
 20
42.60708795588196
 10
587.0086709609071
 20
42.58276236491495
 10
587.2949095203024
 20
42.45013210150578
 10
587.3120043851471
 20
42.00363476345613
 10
587.325662423378
 20
41.621499814717
 10
587.2155500694051
 20
40.90583646506057
 10
586.8301345134438
 20
39.78237355234214
 10
586.3859358321553
 20
38.47687041437903
 10
586.1191131114214
 20
37.96366739614584
 10
585.9052264473606
 20
37.74000586158636
 10
585.5022696854361
 20
37.32071301471897
 10
585.0701222143513
 20
37.36097298362186
 10
585.006340068495
 20
37.36097298362186
 10
584.923499156872
 20
37.36097298362186
 10
584.3525395978846
 20
37.45086608491963
 10
584.3513791109762
 20
37.94925057801331
 97
        1
330
17309
 75
     0
 76
     1
 98
        1
 10
557.776987685974
 20
21.56103299246715
1001
ACAD
1010
0.0
1020
0.0
1030
0.0
  0
POLYLINE
  5
172FA
102
{ACAD_REACTORS
330
172F9
330
1730A
102
}
330
A
100
AcDbEntity
  8
TEMPLATE
100
AcDb2dPolyline
 66
     1
 10
0.0
 20
0.0
 30
0.0
  0
VERTEX
  5
172FB
330
172FA
100
AcDbEntity
  8
TEMPLATE
100
AcDbVertex
100
AcDb2dVertex
 10
580.3195574690816
 20
45.81237511424545
 30
0.0
  0
VERTEX
  5
172FC
330
172FA
100
AcDbEntity
  8
TEMPLATE
100
AcDbVertex
100
AcDb2dVertex
 10
580.3195574690816
 20
44.03955282504737
 30
0.0
  0
VERTEX
  5
172FD
330
172FA
100
AcDbEntity
  8
TEMPLATE
100
AcDbVertex
100
AcDb2dVertex
 10
577.5113800039879
 20
44.03955282504737
 30
0.0
  0
VERTEX
  5
172FE
330
172FA
100
AcDbEntity
  8
TEMPLATE
100
AcDbVertex
100
AcDb2dVertex
 10
577.5113800039879
 20
36.81237511467916
 30
0.0
  0
VERTEX
  5
172FF
330
172FA
100
AcDbEntity
  8
TEMPLATE
100
AcDbVertex
100
AcDb2dVertex
 10
575.0415960580052
 20
36.81237511467916
 30
0.0
  0
VERTEX
  5
17300
330
172FA
100
AcDbEntity
  8
TEMPLATE
100
AcDbVertex
100
AcDb2dVertex
 10
575.0415960580052
 20
44.03955282504737
 30
0.0
  0
VERTEX
  5
17301
330
172FA
100
AcDbEntity
  8
TEMPLATE
100
AcDbVertex
100
AcDb2dVertex
 10
572.2831856276422
 20
44.03955282504737
 30
0.0
  0
VERTEX
  5
17302
330
172FA
100
AcDbEntity
  8
TEMPLATE
100
AcDbVertex
100
AcDb2dVertex
 10
572.2831856276422
 20
45.81237511424545
 30
0.0
  0
VERTEX
  5
17303
330
172FA
100
AcDbEntity
  8
TEMPLATE
100
AcDbVertex
100
AcDb2dVertex
 10
580.3195574690816
 20
45.81237511424545
 30
0.0
  0
SEQEND
  5
17304
330
172FA
100
AcDbEntity
  8
TEMPLATE
  0
SPLINE
  5
17305
102
{ACAD_REACTORS
330
172F9
330
1730A
102
}
330
A
100
AcDbEntity
  8
TEMPLATE
100
AcDbSpline
210
0.0
220
0.0
230
1.0
 70
    11
 71
     3
 72
    56
 73
    52
 74
     0
 42
0.000000001
 43
0.0000000001
 40
0.0
 40
0.0
 40
0.0
 40
0.0
 40
1.0
 40
1.0
 40
1.0
 40
2.0
 40
2.0
 40
2.0
 40
3.0
 40
3.0
 40
3.0
 40
4.0
 40
4.0
 40
4.0
 40
5.0
 40
5.0
 40
5.0
 40
6.0
 40
6.0
 40
6.0
 40
7.0
 40
7.0
 40
7.0
 40
8.0
 40
8.0
 40
8.0
 40
9.0
 40
9.0
 40
9.0
 40
10.0
 40
10.0
 40
10.0
 40
11.0
 40
11.0
 40
11.0
 40
12.0
 40
12.0
 40
12.0
 40
13.0
 40
13.0
 40
13.0
 40
14.0
 40
14.0
 40
14.0
 40
15.0
 40
15.0
 40
15.0
 40
16.0
 40
16.0
 40
16.0
 40
17.0
 40
17.0
 40
17.0
 40
17.0
 10
584.0822130993691
 20
45.59806442612169
 30
0.0
 10
584.4283729539446
 20
45.69550069232489
 30
0.0
 10
584.8752496819451
 20
45.61399880405779
 30
0.0
 10
584.8752496819451
 20
45.61399880405779
 30
0.0
 10
584.8752496819451
 20
45.61399880405779
 30
0.0
 10
584.6605596038704
 20
44.96972771633077
 30
0.0
 10
584.6605596038704
 20
44.96972771633077
 30
0.0
 10
584.6605596038704
 20
44.96972771633077
 30
0.0
 10
584.2218509183414
 20
45.07124800376958
 30
0.0
 10
583.8834797162866
 20
44.80442528303579
 30
0.0
 10
583.6205401632852
 20
44.59576081006296
 30
0.0
 10
583.4501940753495
 20
44.04131587246591
 30
0.0
 10
583.3848497355779
 20
43.83050896212374
 30
0.0
 10
583.3848497355779
 20
43.83050896212374
 30
0.0
 10
583.0935228874299
 20
42.93630916500408
 30
0.0
 10
583.0935228874299
 20
42.93630916500408
 30
0.0
 10
583.0935228874299
 20
42.93630916500408
 30
0.0
 10
584.0487598325259
 20
42.93630916500408
 30
0.0
 10
584.0487598325259
 20
42.93630916500408
 30
0.0
 10
584.0487598325259
 20
42.93630916500408
 30
0.0
 10
583.9001951911804
 20
42.37351764848811
 30
0.0
 10
583.9001951911804
 20
42.37351764848811
 30
0.0
 10
583.9001951911804
 20
42.37351764848811
 30
0.0
 10
582.9371695935639
 20
42.37351764848811
 30
0.0
 10
582.9371695935639
 20
42.37351764848811
 30
0.0
 10
582.9371695935639
 20
42.37351764848811
 30
0.0
 10
581.2141366561519
 20
36.81237511467916
 30
0.0
 10
581.2141366561519
 20
36.81237511467916
 30
0.0
 10
581.2141366561519
 20
36.81237511467916
 30
0.0
 10
580.6746664630858
 20
36.81237511467916
 30
0.0
 10
580.6746664630858
 20
36.81237511467916
 30
0.0
 10
580.6746664630858
 20
36.81237511467916
 30
0.0
 10
582.3992615944129
 20
42.37351764848811
 30
0.0
 10
582.3992615944129
 20
42.37351764848811
 30
0.0
 10
582.3992615944129
 20
42.37351764848811
 30
0.0
 10
581.6886418993973
 20
42.37351764848811
 30
0.0
 10
581.6886418993973
 20
42.37351764848811
 30
0.0
 10
581.6886418993973
 20
42.37351764848811
 30
0.0
 10
581.8376082477495
 20
42.93630916500408
 30
0.0
 10
581.8376082477495
 20
42.93630916500408
 30
0.0
 10
581.8376082477495
 20
42.93630916500408
 30
0.0
 10
582.5556148882789
 20
42.93630916500408
 30
0.0
 10
582.5556148882789
 20
42.93630916500408
 30
0.0
 10
582.5556148882789
 20
42.93630916500408
 30
0.0
 10
582.8095829847954
 20
43.71615636752356
 30
0.0
 10
582.8095829847954
 20
43.71615636752356
 30
0.0
 10
583.0149445334899
 20
44.36997915518985
 30
0.0
 10
583.1891961062141
 20
44.72100412795849
 30
0.0
 10
583.3385641615731
 20
44.98566209426688
 30
0.0
 10
583.4863477059606
 20
45.25054323113452
 30
0.0
 10
583.7788350410173
 20
45.51073778625616
 30
0.0
 10
584.0822130993691
 20
45.59806442612169
 30
0.0
  0
SPLINE
  5
17306
102
{ACAD_REACTORS
330
172F9
330
1730A
102
}
330
A
100
AcDbEntity
  8
TEMPLATE
100
AcDbSpline
210
0.0
220
0.0
230
1.0
 70
    11
 71
     3
 72
    38
 73
    34
 74
     0
 42
0.000000001
 43
0.0000000001
 40
0.0
 40
0.0
 40
0.0
 40
0.0
 40
1.0
 40
1.0
 40
1.0
 40
2.0
 40
2.0
 40
2.0
 40
3.0
 40
3.0
 40
3.0
 40
4.0
 40
4.0
 40
4.0
 40
5.0
 40
5.0
 40
5.0
 40
6.0
 40
6.0
 40
6.0
 40
7.0
 40
7.0
 40
7.0
 40
8.0
 40
8.0
 40
8.0
 40
9.0
 40
9.0
 40
9.0
 40
10.0
 40
10.0
 40
10.0
 40
11.0
 40
11.0
 40
11.0
 40
11.0
 10
589.9393467460162
 20
42.91472857191693
 30
0.0
 10
589.9393467460162
 20
42.91472857191693
 30
0.0
 10
590.4939702200608
 20
42.91472857191693
 30
0.0
 10
590.4939702200608
 20
42.91472857191693
 30
0.0
 10
590.4939702200608
 20
42.91472857191693
 30
0.0
 10
590.2462062650937
 20
42.12146881878184
 30
0.0
 10
590.2462062650937
 20
42.12146881878184
 30
0.0
 10
590.4344729489438
 20
42.34414840288034
 30
0.0
 10
590.7316022316344
 20
42.6407197591727
 30
0.0
 10
590.9867754491712
 20
42.79026635097919
 30
0.0
 10
591.3679507645053
 20
43.01294593507769
 30
0.0
 10
591.5857652304104
 20
43.04231518068534
 30
0.0
 10
591.8253165087943
 20
43.03646811203098
 30
0.0
 10
591.8253165087943
 20
43.03646811203098
 30
0.0
 10
591.591210592058
 20
42.28639186212602
 30
0.0
 10
591.591210592058
 20
42.28639186212602
 30
0.0
 10
591.4387404659245
 20
42.35095510493986
 30
0.0
 10
590.968877170313
 20
42.22805507791734
 30
0.0
 10
590.6993317687555
 20
42.03416449597226
 30
0.0
 10
590.4562543955343
 20
41.85933267979383
 30
0.0
 10
590.2882069643596
 20
41.71056718494513
 30
0.0
 10
590.0890941913261
 20
41.33657796162161
 30
0.0
 10
589.8914989780961
 20
40.96203081189956
 30
0.0
 10
589.735547391237
 20
40.36480407807901
 30
0.0
 10
589.4671624765878
 20
39.49841133265191
 30
0.0
 10
589.4671624765878
 20
39.49841133265191
 30
0.0
 10
588.6289784898598
 20
36.81237511467916
 30
0.0
 10
588.6289784898598
 20
36.81237511467916
 30
0.0
 10
588.6289784898598
 20
36.81237511467916
 30
0.0
 10
588.0906911007581
 20
36.81237511467916
 30
0.0
 10
588.0906911007581
 20
36.81237511467916
 30
0.0
 10
588.0906911007581
 20
36.81237511467916
 30
0.0
 10
589.9393467460162
 20
42.91472857191693
 30
0.0
 10
589.9393467460162
 20
42.91472857191693
 30
0.0
  0
SPLINE
  5
17307
102
{ACAD_REACTORS
330
172F9
330
1730A
102
}
330
A
100
AcDbEntity
  8
TEMPLATE
100
AcDbSpline
210
0.0
220
0.0
230
1.0
 70
    11
 71
     3
 72
   104
 73
   100
 74
     0
 42
0.000000001
 43
0.0000000001
 40
0.0
 40
0.0
 40
0.0
 40
0.0
 40
1.0
 40
1.0
 40
1.0
 40
2.0
 40
2.0
 40
2.0
 40
3.0
 40
3.0
 40
3.0
 40
4.0
 40
4.0
 40
4.0
 40
5.0
 40
5.0
 40
5.0
 40
6.0
 40
6.0
 40
6.0
 40
7.0
 40
7.0
 40
7.0
 40
8.0
 40
8.0
 40
8.0
 40
9.0
 40
9.0
 40
9.0
 40
10.0
 40
10.0
 40
10.0
 40
11.0
 40
11.0
 40
11.0
 40
12.0
 40
12.0
 40
12.0
 40
13.0
 40
13.0
 40
13.0
 40
14.0
 40
14.0
 40
14.0
 40
15.0
 40
15.0
 40
15.0
 40
16.0
 40
16.0
 40
16.0
 40
17.0
 40
17.0
 40
17.0
 40
18.0
 40
18.0
 40
18.0
 40
19.0
 40
19.0
 40
19.0
 40
20.0
 40
20.0
 40
20.0
 40
21.0
 40
21.0
 40
21.0
 40
22.0
 40
22.0
 40
22.0
 40
23.0
 40
23.0
 40
23.0
 40
24.0
 40
24.0
 40
24.0
 40
25.0
 40
25.0
 40
25.0
 40
26.0
 40
26.0
 40
26.0
 40
27.0
 40
27.0
 40
27.0
 40
28.0
 40
28.0
 40
28.0
 40
29.0
 40
29.0
 40
29.0
 40
30.0
 40
30.0
 40
30.0
 40
31.0
 40
31.0
 40
31.0
 40
32.0
 40
32.0
 40
32.0
 40
33.0
 40
33.0
 40
33.0
 40
33.0
 10
592.9921860953021
 20
42.91803149619498
 30
0.0
 10
592.9921860953021
 20
42.91803149619498
 30
0.0
 10
593.4764215749343
 20
42.91803149619498
 30
0.0
 10
593.4764215749343
 20
42.91803149619498
 30
0.0
 10
593.4764215749343
 20
42.91803149619498
 30
0.0
 10
593.2317820077977
 20
42.12401296315816
 30
0.0
 10
593.2317820077977
 20
42.12401296315816
 30
0.0
 10
593.4441064779436
 20
42.4569388035653
 30
0.0
 10
593.6346941356106
 20
42.6053249084632
 30
0.0
 10
593.8879034522253
 20
42.79707305303871
 30
0.0
 10
594.1418715487417
 20
42.98609851679041
 30
0.0
 10
594.4433303402833
 20
43.02461775533059
 30
0.0
 10
594.6525750567104
 20
43.02461775533059
 30
0.0
 10
594.9116314419795
 20
43.02461775533059
 30
0.0
 10
595.1617163707637
 20
42.97346706313235
 30
0.0
 10
595.2931638302083
 20
42.68952716049805
 30
0.0
 10
595.3939030206897
 20
42.46686989345537
 30
0.0
 10
595.3985896024354
 20
42.44060271862234
 30
0.0
 10
595.369800600282
 20
42.0010906190797
 30
0.0
 10
595.6330972261784
 20
42.451694295421
 30
0.0
 10
595.8275680515779
 20
42.64578573086951
 30
0.0
 10
596.1581729181679
 20
42.83226705024479
 30
0.0
 10
596.5051138697007
 20
43.02461775533059
 30
0.0
 10
596.7073510305648
 20
43.0390122564073
 30
0.0
 10
596.9423049954265
 20
43.00437618559952
 30
0.0
 10
597.2884425329456
 20
42.95324781045711
 30
0.0
 10
597.5093813866816
 20
42.82974522292441
 30
0.0
 10
597.6248944681903
 20
42.45441697624481
 30
0.0
 10
597.7408092567058
 20
42.0802492164738
 30
0.0
 10
597.678187597758
 20
41.87955193246919
 30
0.0
 10
597.5350460010044
 20
41.28388739256386
 30
0.0
 10
597.4697016612328
 20
41.01260126064356
 30
0.0
 10
597.3751666123011
 20
40.68411651436711
 30
0.0
 10
597.251485488321
 20
40.29325559675826
 30
0.0
 10
597.251485488321
 20
40.29325559675826
 30
0.0
 10
596.1581729181679
 20
36.81237511467916
 30
0.0
 10
596.1581729181679
 20
36.81237511467916
 30
0.0
 10
596.1581729181679
 20
36.81237511467916
 30
0.0
 10
595.5895343329975
 20
36.81237511467916
 30
0.0
 10
595.5895343329975
 20
36.81237511467916
 30
0.0
 10
595.5895343329975
 20
36.81237511467916
 30
0.0
 10
596.5467574960716
 20
39.85548422757834
 30
0.0
 10
596.5467574960716
 20
39.85548422757834
 30
0.0
 10
596.7466736831187
 20
40.49218983334411
 30
0.0
 10
596.8820043102957
 20
40.95716569370618
 30
0.0
 10
596.952035231813
 20
41.24869339535778
 30
0.0
 10
597.0399197980768
 20
41.61234982178448
 30
0.0
 10
597.0749129417799
 20
41.73234863153571
 30
0.0
 10
597.0333139495209
 20
41.99702891489992
 30
0.0
 10
596.9951964179876
 20
42.24340921239921
 30
0.0
 10
596.8707118799938
 20
42.40384652750092
 30
0.0
 10
596.6575839958344
 20
42.40384652750092
 30
0.0
 10
596.4304410005492
 20
42.40384652750092
 30
0.0
 10
596.2464591914385
 20
42.37856130312887
 30
0.0
 10
595.9890096341963
 20
42.11992894192245
 30
0.0
 10
595.7315154428426
 20
41.85933267979383
 30
0.0
 10
595.5187446315782
 20
41.55343279412157
 30
0.0
 10
595.3519023214238
 20
41.20162672439526
 30
0.0
 10
595.1854170841642
 20
40.8476782172995
 30
0.0
 10
595.0166108730879
 20
40.39903844188016
 30
0.0
 10
594.8454836881943
 20
39.85548422757834
 30
0.0
 10
594.8454836881943
 20
39.85548422757834
 30
0.0
 10
593.8879034522253
 20
36.81237511467916
 30
0.0
 10
593.8879034522253
 20
36.81237511467916
 30
0.0
 10
593.8879034522253
 20
36.81237511467916
 30
0.0
 10
593.3530975238492
 20
36.81237511467916
 30
0.0
 10
593.3530975238492
 20
36.81237511467916
 30
0.0
 10
593.3530975238492
 20
36.81237511467916
 30
0.0
 10
594.4479722879174
 20
40.29169340284293
 30
0.0
 10
594.4479722879174
 20
40.29169340284293
 30
0.0
 10
594.5634853694261
 20
40.66197799488166
 30
0.0
 10
594.6502540828932
 20
40.96379385931832
 30
0.0
 10
594.7074303801934
 20
41.19968514052912
 30
0.0
 10
594.804643475837
 20
41.60574397322828
 30
0.0
 10
594.8318702840753
 20
41.88033302942674
 30
0.0
 10
594.7583579018323
 20
42.12401296315816
 30
0.0
 10
594.6860060064979
 20
42.36691179993202
 30
0.0
 10
594.5588434217922
 20
42.42895321542549
 30
0.0
 10
594.3464743175347
 20
42.42895321542549
 30
0.0
 10
594.1683395770782
 20
42.42895321542549
 30
0.0
 10
593.9944897113609
 20
42.3525172988552
 30
0.0
 10
593.7961357182293
 20
42.20042656267251
 30
0.0
 10
593.5464078623398
 20
42.00908012510374
 30
0.0
 10
593.4464720858722
 20
41.85194573428019
 30
0.0
 10
593.3239514488008
 20
41.66524124434543
 30
0.0
 10
593.1586266984499
 20
41.41825838633597
 30
0.0
 10
593.0812311484743
 20
41.25199631963583
 30
0.0
 10
592.941615646558
 20
40.88715708924472
 30
0.0
 10
592.8019555105301
 20
40.52017542148403
 30
0.0
 10
592.6697492711836
 20
40.09311623915196
 30
0.0
 10
592.5775351960687
 20
39.7977276868239
 30
0.0
 10
592.5775351960687
 20
39.7977276868239
 30
0.0
 10
591.6382549459648
 20
36.81237511467916
 30
0.0
 10
591.6382549459648
 20
36.81237511467916
 30
0.0
 10
591.6382549459648
 20
36.81237511467916
 30
0.0
 10
591.0781861102724
 20
36.81237511467916
 30
0.0
 10
591.0781861102724
 20
36.81237511467916
 30
0.0
 10
591.0781861102724
 20
36.81237511467916
 30
0.0
 10
592.9921860953021
 20
42.91803149619498
 30
0.0
 10
592.9921860953021
 20
42.91803149619498
 30
0.0
  0
SPLINE
  5
17308
102
{ACAD_REACTORS
330
172F9
330
1730A
102
}
330
A
100
AcDbEntity
  8
TEMPLATE
100
AcDbSpline
210
0.0
220
0.0
230
1.0
 70
    11
 71
     3
 72
    32
 73
    28
 74
     0
 42
0.000000001
 43
0.0000000001
 40
0.0
 40
0.0
 40
0.0
 40
0.0
 40
1.0
 40
1.0
 40
1.0
 40
2.0
 40
2.0
 40
2.0
 40
3.0
 40
3.0
 40
3.0
 40
4.0
 40
4.0
 40
4.0
 40
5.0
 40
5.0
 40
5.0
 40
6.0
 40
6.0
 40
6.0
 40
7.0
 40
7.0
 40
7.0
 40
8.0
 40
8.0
 40
8.0
 40
9.0
 40
9.0
 40
9.0
 40
9.0
 10
585.394880012287
 20
42.5961972325865
 30
0.0
 10
585.0701222143513
 20
42.17612328876155
 30
0.0
 10
584.8200372855671
 20
41.79807236125814
 30
0.0
 10
584.4151612568324
 20
40.60984535222244
 30
0.0
 10
584.0429350809274
 20
39.52296009417805
 30
0.0
 10
583.8060618492556
 20
38.73222216836346
 30
0.0
 10
583.7702876085951
 20
37.76919657074652
 30
0.0
 10
583.7430608003568
 20
37.0525512706291
 30
0.0
 10
584.1794485120689
 20
36.81237511467916
 30
0.0
 10
584.8192785056652
 20
36.81237511467916
 30
0.0
 10
585.0950280487724
 20
36.81237511467916
 30
0.0
 10
585.7908738527602
 20
36.82991632064248
 30
0.0
 10
586.2864017626947
 20
37.44247487188884
 30
0.0
 10
586.6332980801157
 20
37.87283697849896
 30
0.0
 10
586.9530122234106
 20
38.3189549265978
 30
0.0
 10
587.3816335996579
 20
39.78237355234214
 30
0.0
 10
587.7383047875777
 20
41.00579455858404
 30
0.0
 10
587.985265328531
 20
41.79651016734281
 30
0.0
 10
587.9670099767781
 20
42.24671213667737
 30
0.0
 10
587.9670099767781
 20
42.24671213667737
 30
0.0
 10
587.9670099767781
 20
42.24671213667737
 30
0.0
 10
587.9670099767781
 20
42.24671213667737
 30
0.0
 10
587.8506934812557
 20
42.9977703370432
 30
0.0
 10
587.305398536591
 20
43.1564669217822
 30
0.0
 10
586.9938524357677
 20
43.1564669217822
 30
0.0
 10
586.6869929166902
 20
43.1564669217822
 30
0.0
 10
585.8647433078983
 20
43.20955919784658
 30
0.0
 10
585.394880012287
 20
42.5961972325865
 30
0.0
  0
SPLINE
  5
17309
102
{ACAD_REACTORS
330
172F9
330
1730A
102
}
330
A
100
AcDbEntity
  8
TEMPLATE
100
AcDbSpline
210
0.0
220
0.0
230
1.0
 70
    11
 71
     3
 72
    29
 73
    25
 74
     0
 42
0.000000001
 43
0.0000000001
 40
0.0
 40
0.0
 40
0.0
 40
0.0
 40
1.0
 40
1.0
 40
1.0
 40
2.0
 40
2.0
 40
2.0
 40
3.0
 40
3.0
 40
3.0
 40
4.0
 40
4.0
 40
4.0
 40
5.0
 40
5.0
 40
5.0
 40
6.0
 40
6.0
 40
6.0
 40
7.0
 40
7.0
 40
7.0
 40
8.0
 40
8.0
 40
8.0
 40
8.0
 10
584.3513791109762
 20
37.94925057801331
 30
0.0
 10
584.3490135030473
 20
38.37439049353518
 30
0.0
 10
584.4832282774277
 20
39.12973356864027
 30
0.0
 10
584.82704484113
 20
40.1403837636178
 30
0.0
 10
585.2953459428262
 20
41.50888795047954
 30
0.0
 10
585.5761837746858
 20
42.00908012510374
 30
0.0
 10
585.821939194619
 20
42.25255920533161
 30
0.0
 10
586.1809759904676
 20
42.60708795588196
 30
0.0
 10
586.6636492761844
 20
42.62476306418078
 30
0.0
 10
586.8060320930364
 20
42.60708795588196
 30
0.0
 10
587.0086709609071
 20
42.58276236491495
 30
0.0
 10
587.2949095203024
 20
42.45013210150578
 30
0.0
 10
587.3120043851471
 20
42.00363476345613
 30
0.0
 10
587.325662423378
 20
41.621499814717
 30
0.0
 10
587.2155500694051
 20
40.90583646506057
 30
0.0
 10
586.8301345134438
 20
39.78237355234214
 30
0.0
 10
586.3859358321553
 20
38.47687041437903
 30
0.0
 10
586.1191131114214
 20
37.96366739614584
 30
0.0
 10
585.9052264473606
 20
37.74000586158636
 30
0.0
 10
585.5022696854361
 20
37.32071301471897
 30
0.0
 10
585.0701222143513
 20
37.36097298362186
 30
0.0
 10
585.006340068495
 20
37.36097298362186
 30
0.0
 10
584.923499156872
 20
37.36097298362186
 30
0.0
 10
584.3525395978846
 20
37.45086608491963
 30
0.0
 10
584.3513791109762
 20
37.94925057801331
 30
0.0
  0
LINE
  5
17E3B
330
A
100
AcDbEntity
  8
MODEL
100
AcDbLine
 10
255.0358912488629
 20
382.3809242196654
 30
0.0
 11
255.0358912488629
 21
382.3809242196654
 31
0.0
  0
LINE
  5
17E3C
330
A
100
AcDbEntity
  8
MODEL
100
AcDbLine
 10
479.5331804355527
 20
335.9346954450464
 30
0.0
 11
463.5331804355527
 21
335.9346954450464
 31
0.0
  0
LINE
  5
17E3D
330
A
100
AcDbEntity
  8
MODEL
100
AcDbLine
 10
463.5331804355527
 20
335.9346954450464
 30
0.0
 11
463.5331804355527
 21
380.9346954450464
 31
0.0
  0
LINE
  5
17E3E
330
A
100
AcDbEntity
  8
MODEL
100
AcDbLine
 10
463.5331804355527
 20
380.9346954450464
 30
0.0
 11
479.5331804355527
 21
380.9346954450464
 31
0.0
  0
LINE
  5
17E3F
330
A
100
AcDbEntity
  8
MODEL
100
AcDbLine
 10
479.5331804355527
 20
380.9346954450464
 30
0.0
 11
479.5331804355527
 21
335.9346954450464
 31
0.0
  0
LINE
  5
17E40
330
A
100
AcDbEntity
  8
MODEL
100
AcDbLine
 10
485.5331804355527
 20
432.869870285541
 30
0.0
 11
485.5331804355527
 21
393.4346954450464
 31
0.0
  0
LINE
  5
17E42
330
A
100
AcDbEntity
  8
MODEL
100
AcDbLine
 10
485.5331804355527
 20
323.4346954450464
 30
0.0
 11
485.5331804355527
 21
393.4346954450464
 31
0.0
  0
LINE
  5
17E43
330
A
100
AcDbEntity
  8
MODEL
100
AcDbLine
 10
485.5331804355527
 20
393.4346954450464
 30
0.0
 11
479.5331804355527
 21
393.4346954450464
 31
0.0
  0
LINE
  5
17E44
330
A
100
AcDbEntity
  8
MODEL
100
AcDbLine
 10
479.5331804355527
 20
393.4346954450464
 30
0.0
 11
479.5331804355527
 21
323.4346954450464
 31
0.0
  0
LINE
  5
17E45
330
A
100
AcDbEntity
  8
MODEL
100
AcDbLine
 10
479.5331804355527
 20
323.4346954450464
 30
0.0
 11
485.5331804355527
 21
323.4346954450464
 31
0.0
  0
LINE
  5
17E46
330
A
100
AcDbEntity
  8
MODEL
100
AcDbLine
 10
485.5331804355527
 20
323.4346954450464
 30
0.0
 11
485.5331804355527
 21
295.8572296091384
 31
0.0
  0
LINE
  5
17E47
330
A
100
AcDbEntity
  8
MODEL
100
AcDbLine
 10
569.5331804355527
 20
414.4346954450464
 30
0.0
 11
569.5331804355527
 21
402.9346954450464
 31
0.0
  0
LINE
  5
17E48
330
A
100
AcDbEntity
  8
MODEL
100
AcDbLine
 10
569.5331804355527
 20
302.4346954450464
 30
0.0
 11
567.5331804355527
 21
302.4346954450464
 31
0.0
  0
LINE
  5
17E49
330
A
100
AcDbEntity
  8
MODEL
100
AcDbLine
 10
561.5331804355527
 20
316.9346954450464
 30
0.0
 11
561.5331804355527
 21
399.9346954450464
 31
0.0
  0
LINE
  5
17E4A
330
A
100
AcDbEntity
  8
MODEL
100
AcDbLine
 10
567.5331804355527
 20
414.4346954450464
 30
0.0
 11
569.5331804355527
 21
414.4346954450464
 31
0.0
  0
LINE
  5
17E4B
330
A
100
AcDbEntity
  8
MODEL
100
AcDbLine
 10
567.5331804355527
 20
414.4346954450464
 30
0.0
 11
567.5331804355527
 21
402.9346954450464
 31
0.0
  0
LINE
  5
17E4C
330
A
100
AcDbEntity
  8
MODEL
100
AcDbLine
 10
563.5331804355527
 20
316.9346954450464
 30
0.0
 11
563.5331804355527
 21
399.9346954450464
 31
0.0
  0
LINE
  5
17E4D
330
A
100
AcDbEntity
  8
MODEL
100
AcDbLine
 10
564.0331804355527
 20
402.4346954450464
 30
0.0
 11
567.0331804355527
 21
402.4346954450464
 31
0.0
  0
LINE
  5
17E4E
330
A
100
AcDbEntity
  8
MODEL
100
AcDbLine
 10
567.0331804355527
 20
314.4346954450464
 30
0.0
 11
564.0331804355527
 21
314.4346954450464
 31
0.0
  0
LINE
  5
17E4F
330
A
100
AcDbEntity
  8
MODEL
100
AcDbLine
 10
567.0331804355527
 20
316.4346954450464
 30
0.0
 11
564.0331804355527
 21
316.4346954450464
 31
0.0
  0
LINE
  5
17E50
330
A
100
AcDbEntity
  8
MODEL
100
AcDbLine
 10
564.0331804355527
 20
400.4346954450464
 30
0.0
 11
567.0331804355527
 21
400.4346954450464
 31
0.0
  0
LINE
  5
17E51
330
A
100
AcDbEntity
  8
MODEL
100
AcDbLine
 10
567.5331804355527
 20
313.9346954450464
 30
0.0
 11
567.5331804355527
 21
302.4346954450464
 31
0.0
  0
LINE
  5
17E52
330
A
100
AcDbEntity
  8
MODEL
100
AcDbLine
 10
569.5331804355527
 20
313.9346954450464
 30
0.0
 11
569.5331804355527
 21
302.4346954450464
 31
0.0
  0
ARC
  5
17E53
330
A
100
AcDbEntity
  8
MODEL
100
AcDbCircle
 10
567.0331804355527
 20
402.9346954450464
 30
0.0
 40
2.5
100
AcDbArc
 50
270.0
 51
0.0
  0
ARC
  5
17E54
330
A
100
AcDbEntity
  8
MODEL
100
AcDbCircle
 10
564.0331804355527
 20
399.9346954450464
 30
0.0
 40
2.5
100
AcDbArc
 50
90.0
 51
180.0
  0
ARC
  5
17E55
330
A
100
AcDbEntity
  8
MODEL
100
AcDbCircle
 10
564.0331804355527
 20
316.9346954450464
 30
0.0
 40
2.5
100
AcDbArc
 50
180.0
 51
270.0
  0
ARC
  5
17E56
330
A
100
AcDbEntity
  8
MODEL
100
AcDbCircle
 10
567.0331804355527
 20
313.9346954450464
 30
0.0
 40
2.5
100
AcDbArc
 50
0.0
 51
90.0
  0
ARC
  5
17E57
330
A
100
AcDbEntity
  8
MODEL
100
AcDbCircle
 10
567.0331804355527
 20
313.9346954450464
 30
0.0
 40
0.5
100
AcDbArc
 50
0.0
 51
90.0
  0
ARC
  5
17E58
330
A
100
AcDbEntity
  8
MODEL
100
AcDbCircle
 10
564.0331804355527
 20
316.9346954450464
 30
0.0
 40
0.5
100
AcDbArc
 50
180.0
 51
270.0
  0
ARC
  5
17E59
330
A
100
AcDbEntity
  8
MODEL
100
AcDbCircle
 10
567.0331804355527
 20
402.9346954450464
 30
0.0
 40
0.5
100
AcDbArc
 50
270.0
 51
0.0
  0
ARC
  5
17E5A
330
A
100
AcDbEntity
  8
MODEL
100
AcDbCircle
 10
564.0331804355527
 20
399.9346954450464
 30
0.0
 40
0.5
100
AcDbArc
 50
90.0
 51
180.0
  0
LINE
  5
17E5B
330
A
100
AcDbEntity
  8
MODEL
100
AcDbLine
 10
527.5331804355527
 20
394.9346954450464
 30
0.0
 11
527.5331804355527
 21
375.4346954450464
 31
0.0
  0
CIRCLE
  5
17E5C
330
A
100
AcDbEntity
  8
MODEL
100
AcDbCircle
 10
527.5331804355527
 20
358.4346954450464
 30
0.0
 40
17.0
  0
CIRCLE
  5
17E5D
330
A
100
AcDbEntity
  8
MODEL
100
AcDbCircle
 10
527.5331804355527
 20
358.4346954450464
 30
0.0
 40
12.25
  0
CIRCLE
  5
17E5E
330
A
100
AcDbEntity
  8
MODEL
100
AcDbCircle
 10
527.5331804355527
 20
358.4346954450464
 30
0.0
 40
16.0
  0
LINE
  5
17E5F
330
A
100
AcDbEntity
  8
MODEL
100
AcDbLine
 10
499.0331804355527
 20
394.9346954450464
 30
0.0
 11
499.0331804355527
 21
321.9346954450464
 31
0.0
  0
LINE
  5
17E60
330
A
100
AcDbEntity
  8
MODEL
100
AcDbLine
 10
560.5331804355527
 20
394.9346954450464
 30
0.0
 11
560.5331804355527
 21
321.9346954450466
 31
0.0
  0
LINE
  5
17E61
330
A
100
AcDbEntity
  8
MODEL
100
AcDbLine
 10
559.0331804355527
 20
396.4346954450464
 30
0.0
 11
529.0331804355527
 21
396.4346954450464
 31
0.0
  0
LINE
  5
17E62
330
A
100
AcDbEntity
  8
MODEL
100
AcDbLine
 10
559.0331804355527
 20
320.4346954450466
 30
0.0
 11
529.0331804355527
 21
320.4346954450466
 31
0.0
  0
ARC
  5
17E63
330
A
100
AcDbEntity
  8
MODEL
100
AcDbCircle
 10
559.0331804355527
 20
394.9346954450464
 30
0.0
 40
1.5
100
AcDbArc
 50
0.0
 51
90.0
  0
ARC
  5
17E64
330
A
100
AcDbEntity
  8
MODEL
100
AcDbCircle
 10
500.5331804355527
 20
394.9346954450464
 30
0.0
 40
1.5
100
AcDbArc
 50
90.0
 51
180.0
  0
ARC
  5
17E65
330
A
100
AcDbEntity
  8
MODEL
100
AcDbCircle
 10
500.5331804355527
 20
321.9346954450464
 30
0.0
 40
1.5
100
AcDbArc
 50
180.0
 51
270.0
  0
ARC
  5
17E66
330
A
100
AcDbEntity
  8
MODEL
100
AcDbCircle
 10
559.0331804355527
 20
321.9346954450466
 30
0.0
 40
1.5
100
AcDbArc
 50
270.0
 51
0.0
  0
LINE
  5
17E67
330
A
100
AcDbEntity
  8
MODEL
100
AcDbLine
 10
527.5331804355527
 20
341.4346954450464
 30
0.0
 11
527.5331804355527
 21
321.9346954450464
 31
0.0
  0
ARC
  5
17E68
330
A
100
AcDbEntity
  8
MODEL
100
AcDbCircle
 10
529.0331804355527
 20
394.9346954450464
 30
0.0
 40
1.5
100
AcDbArc
 50
90.0
 51
180.0
  0
ARC
  5
17E69
330
A
100
AcDbEntity
  8
MODEL
100
AcDbCircle
 10
529.0331804355527
 20
321.9346954450466
 30
0.0
 40
1.5
100
AcDbArc
 50
180.0
 51
270.0
  0
LINE
  5
17E6A
330
A
100
AcDbEntity
  8
MODEL
100
AcDbLine
 10
500.5331804355527
 20
396.4346954450464
 30
0.0
 11
526.0331804355527
 21
396.4346954450464
 31
0.0
  0
LINE
  5
17E6B
330
A
100
AcDbEntity
  8
MODEL
100
AcDbLine
 10
500.5331804355527
 20
320.4346954450464
 30
0.0
 11
526.0331804355527
 21
320.4346954450464
 31
0.0
  0
ARC
  5
17E6C
330
A
100
AcDbEntity
  8
MODEL
100
AcDbCircle
 10
526.0331804355527
 20
394.9346954450464
 30
0.0
 40
1.5
100
AcDbArc
 50
0.0
 51
90.0
  0
ARC
  5
17E6D
330
A
100
AcDbEntity
  8
MODEL
100
AcDbCircle
 10
526.0331804355527
 20
321.9346954450464
 30
0.0
 40
1.5
100
AcDbArc
 50
270.0
 51
0.0
  0
LINE
  5
17E6E
330
A
100
AcDbEntity
  8
MODEL
100
AcDbLine
 10
529.0331804355527
 20
396.4346954450464
 30
0.0
 11
526.0331804355527
 21
396.4346954450464
 31
0.0
  0
LINE
  5
17E6F
330
A
100
AcDbEntity
  8
MODEL
100
AcDbLine
 10
510.5331804355527
 20
396.4346954450464
 30
0.0
 11
510.5331804355527
 21
396.4346954450464
 31
0.0
  0
LINE
  5
17E70
330
A
100
AcDbEntity
  8
MODEL
100
AcDbLine
 10
544.5331804355527
 20
396.4346954450464
 30
0.0
 11
544.5331804355527
 21
396.4346954450464
 31
0.0
  0
LINE
  5
17E71
330
A
100
AcDbEntity
  8
MODEL
100
AcDbLine
 10
511.5331804355527
 20
397.4346954450464
 30
0.0
 11
543.5331804355527
 21
397.4346954450464
 31
0.0
  0
LINE
  5
17E72
330
A
100
AcDbEntity
  8
MODEL
100
AcDbLine
 10
544.5331804355527
 20
396.4346954450464
 30
0.0
 11
544.5331804355527
 21
396.4346954450464
 31
0.0
  0
LINE
  5
17E73
330
A
100
AcDbEntity
  8
MODEL
100
AcDbLine
 10
510.5331804355527
 20
396.4346954450464
 30
0.0
 11
510.5331804355527
 21
396.4346954450464
 31
0.0
  0
LINE
  5
17E74
330
A
100
AcDbEntity
  8
MODEL
100
AcDbLine
 10
544.5331804355527
 20
396.4346954450464
 30
0.0
 11
543.5331804355527
 21
397.4346954450464
 31
0.0
  0
LINE
  5
17E75
330
A
100
AcDbEntity
  8
MODEL
100
AcDbLine
 10
511.5331804355527
 20
397.4346954450464
 30
0.0
 11
510.5331804355527
 21
396.4346954450464
 31
0.0
  0
LINE
  5
17E76
330
A
100
AcDbEntity
  8
MODEL
100
AcDbLine
 10
511.5331804355527
 20
319.4346954450466
 30
0.0
 11
543.5331804355527
 21
319.4346954450464
 31
0.0
  0
LINE
  5
17E77
330
A
100
AcDbEntity
  8
MODEL
100
AcDbLine
 10
544.5331804355527
 20
320.4346954450464
 30
0.0
 11
543.5331804355527
 21
319.4346954450464
 31
0.0
  0
LINE
  5
17E78
330
A
100
AcDbEntity
  8
MODEL
100
AcDbLine
 10
511.5331804355527
 20
319.4346954450466
 30
0.0
 11
510.5331804355527
 21
320.4346954450466
 31
0.0
  0
DIMENSION
  5
17E79
330
A
100
AcDbEntity
  8
DIM
100
AcDbDimension
  2
*D34
 10
485.5331804355527
 20
454.0636641424621
 30
0.0
 11
527.5331804355527
 21
454.0636641424621
 31
0.0
 70
   160
  1
84-97
 71
     5
 42
84.00000000000006
 73
     0
 74
     0
 75
     0
 52
-270.0
  3
tfrom線あり
100
AcDbAlignedDimension
 13
569.5331804355527
 23
414.4346954450464
 33
0.0
 14
485.5331804355527
 24
432.869870285541
 34
0.0
 50
180.0
100
AcDbRotatedDimension
  0
DIMENSION
  5
17E7A
330
A
100
AcDbEntity
  8
DIM
100
AcDbDimension
  2
*D35
 10
485.5331804355527
 20
269.1736072614396
 30
0.0
 11
506.5331804355527
 21
269.1736072614396
 31
0.0
 70
   160
  1
42-55
 71
     5
 42
42.00000000000006
 73
     0
 74
     0
 75
     0
 52
-270.0
  3
tfrom線あり
100
AcDbAlignedDimension
 13
527.5331804355527
 23
317.6383534359575
 33
0.0
 14
485.5331804355527
 24
295.8572296091384
 34
0.0
 50
180.0
100
AcDbRotatedDimension
  0
LINE
  5
17E7B
330
A
100
AcDbEntity
  8
MODEL
100
AcDbLine
 10
495.5331804355527
 20
334.4346954450464
 30
0.0
 11
485.5331804355527
 21
334.4346954450464
 31
0.0
  0
LINE
  5
17E7C
330
A
100
AcDbEntity
  8
MODEL
100
AcDbLine
 10
485.5331804355527
 20
382.4346954450464
 30
0.0
 11
495.5331804355527
 21
382.4346954450466
 31
0.0
  0
LINE
  5
17E7D
330
A
100
AcDbEntity
  8
MODEL
100
AcDbLine
 10
563.5331804355527
 20
352.3346954450465
 30
0.0
 11
563.5331804355527
 21
364.5346954450465
 31
0.0
  0
LINE
  5
17E7E
330
A
100
AcDbEntity
  8
MODEL
100
AcDbLine
 10
563.9331804355528
 20
364.9346954450464
 30
0.0
 11
564.1331804355531
 21
364.9346954450464
 31
0.0
  0
LINE
  5
17E7F
330
A
100
AcDbEntity
  8
MODEL
100
AcDbLine
 10
564.1331804355531
 20
351.9346954450464
 30
0.0
 11
563.9331804355528
 21
351.9346954450464
 31
0.0
  0
LINE
  5
17E80
330
A
100
AcDbEntity
  8
MODEL
100
AcDbLine
 10
564.5331804355527
 20
352.3346954450465
 30
0.0
 11
564.5331804355527
 21
364.5346954450465
 31
0.0
  0
ARC
  5
17E81
330
A
100
AcDbEntity
  8
MODEL
100
AcDbCircle
 10
564.1331804355531
 20
352.3346954450465
 30
0.0
 40
0.4
100
AcDbArc
 50
270.0
 51
0.0
  0
ARC
  5
17E82
330
A
100
AcDbEntity
  8
MODEL
100
AcDbCircle
 10
563.9331804355528
 20
352.3346954450465
 30
0.0
 40
0.4
100
AcDbArc
 50
180.0
 51
270.0
  0
ARC
  5
17E83
330
A
100
AcDbEntity
  8
MODEL
100
AcDbCircle
 10
563.9331804355528
 20
364.5346954450465
 30
0.0
 40
0.4
100
AcDbArc
 50
90.0
 51
180.0
  0
ARC
  5
17E84
330
A
100
AcDbEntity
  8
MODEL
100
AcDbCircle
 10
564.1331804355531
 20
364.5346954450465
 30
0.0
 40
0.4
100
AcDbArc
 50
0.0
 51
90.0
  0
ARC
  5
17E85
330
A
100
AcDbEntity
  8
MODEL
100
AcDbCircle
 10
560.7831804355527
 20
358.4346954450464
 30
0.0
 40
6.250000000000034
100
AcDbArc
 50
306.8698976458385
 51
53.13010235416151
  0
CIRCLE
  5
17E86
330
A
100
AcDbEntity
  8
MODEL
100
AcDbCircle
 10
527.5331804355527
 20
358.4346954450464
 30
0.0
 40
13.5
  0
LINE
  5
17E87
330
A
100
AcDbEntity
  8
MODEL
100
AcDbLine
 10
529.0331804355527
 20
320.4346954450466
 30
0.0
 11
526.0331804355527
 21
320.4346954450464
 31
0.0
  0
LINE
  5
17E89
330
A
100
AcDbEntity
  8
MODEL
100
AcDbLine
 10
499.0331804355527
 20
380.9346954450464
 30
0.0
 11
485.5331804355527
 21
380.9346954450464
 31
0.0
  0
LINE
  5
17E8A
330
A
100
AcDbEntity
  8
MODEL
100
AcDbLine
 10
499.0331804355527
 20
335.9346954450464
 30
0.0
 11
485.5331804355527
 21
335.9346954450464
 31
0.0
  0
HATCH
  5
17E8B
330
A
100
AcDbEntity
  8
MODEL
100
AcDbHatch
 10
0.0
 20
0.0
 30
0.0
210
0.0
220
0.0
230
1.0
  2
ANSI31
 70
     0
 71
     0
 91
        2
 92
        7
 72
     0
 73
     1
 93
        4
 10
495.5331804355527
 20
432.869870285541
 10
485.5331804355527
 20
432.869870285541
 10
485.5331804355527
 20
382.4346954450464
 10
495.5331804355527
 20
382.4346954450464
 97
        0
 92
        7
 72
     0
 73
     1
 93
        4
 10
495.5331804355527
 20
334.4346954450464
 10
485.5331804355527
 20
334.4346954450464
 10
485.5331804355527
 20
295.8572296091384
 10
495.5331804355527
 20
295.8572296091384
 97
        0
 75
     0
 76
     1
 52
0.0
 41
1.0
 77
     0
 78
     1
 53
45.0
 43
1009.176106789006
 44
-4.416018311014341
 45
-2.245064030267288
 46
2.245064030267288
 79
     0
 47
0.3004867427992772
 98
        2
 10
491.3800730315405
 20
398.6064775785726
 10
489.2758953258588
 20
319.2779770010877
  0
LINE
  5
17E8C
330
A
100
AcDbEntity
  8
MODEL
100
AcDbLine
 10
282.1818695337944
 20
395.9346954450465
 30
0.0
 11
97.18186953379399
 21
395.9346954450467
 31
0.0
  0
ARC
  5
17E8D
330
A
100
AcDbEntity
  8
MODEL
100
AcDbCircle
 10
97.18186953379399
 20
358.4346954450467
 30
0.0
 40
37.5
100
AcDbArc
 50
90.0
 51
180.0
  0
ARC
  5
17E8E
330
A
100
AcDbEntity
  8
MODEL
100
AcDbCircle
 10
97.18186953379399
 20
358.4346954450467
 30
0.0
 40
37.5
100
AcDbArc
 50
180.0000000000007
 51
270.0
  0
ARC
  5
17E8F
330
A
100
AcDbEntity
  8
MODEL
100
AcDbCircle
 10
282.1818695337944
 20
358.4346954450469
 30
0.0
 40
37.5
100
AcDbArc
 50
270.0
 51
0.0
  0
ARC
  5
17E90
330
A
100
AcDbEntity
  8
MODEL
100
AcDbCircle
 10
282.1818695337944
 20
358.4346954450465
 30
0.0
 40
37.5
100
AcDbArc
 50
0.0
 51
90.0
  0
LINE
  5
17E91
330
A
100
AcDbEntity
  8
MODEL
100
AcDbLine
 10
463.3331804325688
 20
338.9346954450464
 30
0.0
 11
463.3331804325688
 21
358.4346954450423
 31
0.0
  0
LINE
  5
17E92
330
A
100
AcDbEntity
  8
MODEL
100
AcDbLine
 10
463.5331804355527
 20
336.1346954480266
 30
0.0
 11
463.5331804355527
 21
358.4346954450464
 31
0.0
  0
LINE
  5
17E93
330
A
100
AcDbEntity
  8
MODEL
100
AcDbLine
 10
422.8331872998222
 20
336.9202625379432
 30
0.0
 11
422.8331872998222
 21
358.4202625379389
 31
0.0
  0
LINE
  5
17E94
330
A
100
AcDbEntity
  8
MODEL
100
AcDbLine
 10
462.8331872998222
 20
335.9202630790462
 30
0.0
 11
462.8331853328098
 21
358.4202625379417
 31
0.0
  0
LINE
  5
17E95
330
A
100
AcDbEntity
  8
MODEL
100
AcDbLine
 10
462.8331872998222
 20
335.9202625379417
 30
0.0
 11
437.8331872998213
 21
335.9202625379417
 31
0.0
  0
LINE
  5
17E96
330
A
100
AcDbEntity
  8
MODEL
100
AcDbLine
 10
437.8331872998213
 20
335.9202625379417
 30
0.0
 11
423.833187299824
 21
335.9202625379417
 31
0.0
  0
ARC
  5
17E97
330
A
100
AcDbEntity
  8
MODEL
100
AcDbCircle
 10
423.8331872998222
 20
336.9202625379437
 30
0.0
 40
1.0
100
AcDbArc
 50
179.9999999995701
 51
269.9999999993226
  0
ARC
  5
17E98
330
A
100
AcDbEntity
  8
MODEL
100
AcDbCircle
 10
462.8331773808148
 20
339.1846954450452
 30
0.0
 40
0.5
100
AcDbArc
 50
270.0000000002084
 51
0.0
  0
LINE
  5
17E99
330
A
100
AcDbEntity
  8
MODEL
100
AcDbLine
 10
463.5331804355527
 20
338.9346954450464
 30
0.0
 11
463.3331804325688
 21
338.9346954450464
 31
0.0
  0
LINE
  5
17E9A
330
A
100
AcDbEntity
  8
MODEL
100
AcDbLine
 10
463.7331804385329
 20
335.9346954450464
 30
0.0
 11
463.5331804355527
 21
336.1346954480266
 31
0.0
  0
LINE
  5
17E9B
330
A
100
AcDbEntity
  8
MODEL
100
AcDbLine
 10
462.8331872998222
 20
380.9202625379417
 30
0.0
 11
442.3581872998219
 21
380.9202625379417
 31
0.0
  0
LINE
  5
17E9C
330
A
100
AcDbEntity
  8
MODEL
100
AcDbLine
 10
432.3081872998217
 20
380.9202625379417
 30
0.0
 11
423.833187299824
 21
380.9202625379417
 31
0.0
  0
LINE
  5
17E9D
330
A
100
AcDbEntity
  8
MODEL
100
AcDbLine
 10
422.8331854202323
 20
358.4202625379417
 30
0.0
 11
422.8331872998222
 21
379.9202625378925
 31
0.0
  0
ARC
  5
17E9E
330
A
100
AcDbEntity
  8
MODEL
100
AcDbCircle
 10
423.8331872998222
 20
379.9202625379396
 30
0.0
 40
1.0
100
AcDbArc
 50
89.99999999979156
 51
179.999999999518
  0
LINE
  5
17E9F
330
A
100
AcDbEntity
  8
MODEL
100
AcDbLine
 10
463.3331787278283
 20
358.4346954450464
 30
0.0
 11
463.3331804325724
 21
377.9346357189979
 31
0.0
  0
LINE
  5
17EA0
330
A
100
AcDbEntity
  8
MODEL
100
AcDbLine
 10
462.8331853328098
 20
358.4202625379417
 30
0.0
 11
462.8331872998222
 21
380.9202619968369
 31
0.0
  0
ARC
  5
17EA1
330
A
100
AcDbEntity
  8
MODEL
100
AcDbCircle
 10
462.8331773808148
 20
377.6846954450475
 30
0.0
 40
0.5
100
AcDbArc
 50
0.0
 51
89.99999999979156
  0
LINE
  5
17EA2
330
A
100
AcDbEntity
  8
MODEL
100
AcDbLine
 10
463.5331804355527
 20
377.9346954450464
 30
0.0
 11
463.3331804325688
 21
377.9346954450464
 31
0.0
  0
LINE
  5
17EA3
330
A
100
AcDbEntity
  8
MODEL
100
AcDbLine
 10
463.7331804385329
 20
380.9346954450464
 30
0.0
 11
463.5331804355527
 21
380.7346954420661
 31
0.0
  0
ARC
  5
17EA4
330
A
100
AcDbEntity
  8
MODEL
100
AcDbCircle
 10
437.3331872998104
 20
357.1702625379401
 30
0.0
 40
30.0
100
AcDbArc
 50
89.99999999979156
 51
98.67604115001268
  0
ARC
  5
17EA5
330
A
100
AcDbEntity
  8
MODEL
100
AcDbCircle
 10
437.4177982366598
 20
403.6188846348625
 30
0.0
 40
23.267077992556
100
AcDbArc
 50
257.3160999778156
 51
269.7916418445883
  0
ARC
  5
17EA6
330
A
100
AcDbEntity
  8
MODEL
100
AcDbCircle
 10
432.8831872998097
 20
386.3326955640102
 30
0.0
 40
0.5
100
AcDbArc
 50
98.67604114995886
 51
179.999999999531
  0
LINE
  5
17EA7
330
A
100
AcDbEntity
  8
MODEL
100
AcDbLine
 10
432.3089976943373
 20
380.919609859433
 30
0.0
 11
432.3831873753505
 21
380.9035188282051
 31
0.0
  0
LINE
  5
17EA8
330
A
100
AcDbEntity
  8
MODEL
100
AcDbLine
 10
432.3831872998106
 20
380.9035188282066
 30
0.0
 11
432.3831872998106
 21
386.3326955640086
 31
0.0
  0
ARC
  5
17EA9
330
A
100
AcDbEntity
  8
MODEL
100
AcDbCircle
 10
441.7831872998111
 20
386.3326955640102
 30
0.0
 40
0.5
100
AcDbArc
 50
0.0
 51
81.3239588495667
  0
ARC
  5
17EAA
330
A
100
AcDbEntity
  8
MODEL
100
AcDbCircle
 10
437.3331872998104
 20
357.1702625379401
 30
0.0
 40
30.0
100
AcDbArc
 50
81.32395884956561
 51
89.99999999979156
  0
ARC
  5
17EAB
330
A
100
AcDbEntity
  8
MODEL
100
AcDbCircle
 10
437.2485741871686
 20
403.6189040234815
 30
0.0
 40
23.26709738576417
100
AcDbArc
 50
270.2083611748012
 51
282.6838947645669
  0
LINE
  5
17EAC
330
A
100
AcDbEntity
  8
MODEL
100
AcDbLine
 10
442.2831872998102
 20
380.9035188282062
 30
0.0
 11
442.2831872998102
 21
386.3326955640086
 31
0.0
  0
LINE
  5
17EAD
330
A
100
AcDbEntity
  8
MODEL
100
AcDbLine
 10
432.5331804355527
 20
298.3346954435565
 30
0.0
 11
437.5331804355527
 21
298.3346954435565
 31
0.0
  0
LINE
  5
17EAE
330
A
100
AcDbEntity
  8
MODEL
100
AcDbLine
 10
432.5331804355527
 20
335.9202625379417
 30
0.0
 11
432.5331804355527
 21
298.3346954435565
 31
0.0
  0
LINE
  5
17EAF
330
A
100
AcDbEntity
  8
MODEL
100
AcDbLine
 10
437.5331804355527
 20
298.3346954435565
 30
0.0
 11
437.5331804355527
 21
335.9202625379419
 31
0.0
  0
LINE
  5
17EB0
330
A
100
AcDbEntity
  8
MODEL
100
AcDbLine
 10
255.0349113157792
 20
385.3617088860254
 30
0.0
 11
259.9849117485575
 21
385.3617088860254
 31
0.0
  0
ARC
  5
17EB1
330
A
100
AcDbEntity
  8
MODEL
100
AcDbCircle
 10
255.0349117485568
 20
356.1992758599553
 30
0.0
 40
30.0
100
AcDbArc
 50
81.32395884956561
 51
89.99999999979156
  0
ARC
  5
17EB2
330
A
100
AcDbEntity
  8
MODEL
100
AcDbCircle
 10
255.0349117485568
 20
356.1992758599553
 30
0.0
 40
30.0
100
AcDbArc
 50
89.99999999979156
 51
98.67604115001268
  0
LINE
  5
17EB3
330
A
100
AcDbEntity
  8
MODEL
100
AcDbLine
 10
255.0349117485568
 20
385.8559874118909
 30
0.0
 11
255.0349117485568
 21
386.1992758599553
 31
0.0
  0
LINE
  5
17EB4
330
A
100
AcDbEntity
  8
MODEL
100
AcDbLine
 10
255.0349113594932
 20
385.8559874118909
 30
0.0
 11
255.0349113594932
 21
385.3617088860254
 31
0.0
  0
LINE
  5
17EB5
330
A
100
AcDbEntity
  8
MODEL
100
AcDbLine
 10
255.0349113157983
 20
385.3617088860254
 30
0.0
 11
250.084911748557
 21
385.3617088860254
 31
0.0
  0
ARC
  5
17EB6
330
A
100
AcDbEntity
  8
MODEL
100
AcDbCircle
 10
250.584911748557
 20
385.3617088860254
 30
0.0
 40
0.5
100
AcDbArc
 50
98.67604114995886
 51
179.999999999531
  0
LINE
  5
17EB7
330
A
100
AcDbEntity
  8
MODEL
100
AcDbLine
 10
250.084911748557
 20
380.2889570005963
 30
0.0
 11
250.084911748557
 21
385.3617088860241
 31
0.0
  0
ARC
  5
17EB8
330
A
100
AcDbEntity
  8
MODEL
100
AcDbCircle
 10
259.4849117485575
 20
385.3617088860254
 30
0.0
 40
0.5
100
AcDbArc
 50
0.0
 51
81.3239588495667
  0
LINE
  5
17EB9
330
A
100
AcDbEntity
  8
MODEL
100
AcDbLine
 10
259.9849117485575
 20
380.2894321537013
 30
0.0
 11
259.9849117485575
 21
385.3617088860241
 31
0.0
  0
LINE
  5
17EBA
330
A
100
AcDbEntity
  8
MODEL
100
AcDbLine
 10
144.67920775191
 20
298.3364444306186
 30
0.0
 11
104.67920775191
 21
298.3364444306186
 31
0.0
  0
LINE
  5
17EBB
330
A
100
AcDbEntity
  8
MODEL
100
AcDbLine
 10
144.67920775191
 20
298.3364444306186
 30
0.0
 11
144.67920775191
 21
358.4346954450467
 31
0.0
  0
LINE
  5
17EBC
330
A
100
AcDbEntity
  8
MODEL
100
AcDbLine
 10
104.67920775191
 20
298.3364444306186
 30
0.0
 11
104.67920775191
 21
358.4346954450467
 31
0.0
  0
ARC
  5
17EBD
330
A
100
AcDbEntity
  8
MODEL
100
AcDbCircle
 10
124.67920775191
 20
358.4346954450467
 30
0.0
 40
20.0
100
AcDbArc
 50
0.0
 51
179.9999999995441
  0
CIRCLE
  5
17EBE
330
A
100
AcDbEntity
  8
MODEL
100
AcDbCircle
 10
254.6351002195972
 20
358.4346954450467
 30
0.0
 40
22.5
  0
LINE
  5
17EBF
330
A
100
AcDbEntity
  8
MODEL
100
AcDbLine
 10
144.67920775191
 20
320.9346954450467
 30
0.0
 11
282.1818695337944
 21
320.9346954450469
 31
0.0
  0
DIMENSION
  5
17EC0
330
A
100
AcDbEntity
  8
DIM
100
AcDbDimension
  2
*D36
 10
485.5331804355527
 20
454.0636641424621
 30
0.0
 11
454.1831838676874
 21
461.0636641424621
 31
0.0
 70
    32
  1
63-50
 71
     5
 42
62.69999313573044
 73
     0
 74
     0
 75
     0
  3
tfrom線あり
100
AcDbAlignedDimension
 13
422.8331872998222
 23
379.9202625378925
 33
0.0
 14
485.5331804355527
 24
432.8284602899318
 34
0.0
100
AcDbRotatedDimension
  0
LINE
  5
17EC1
330
A
100
AcDbEntity
  8
MODEL
100
AcDbLine
 10
99.70078337993726
 20
302.4203344018516
 30
0.0
 11
90.20686953379362
 21
302.4203344018516
 31
0.0
  0
LINE
  5
17EC2
330
A
100
AcDbEntity
  8
MODEL
100
AcDbLine
 10
99.70078182620563
 20
414.4203344018512
 30
0.0
 11
90.20686953379362
 21
414.4203344018512
 31
0.0
  0
LINE
  5
17EC3
330
A
100
AcDbEntity
  8
MODEL
100
AcDbLine
 10
140.2953269368338
 20
399.9203342469938
 30
0.0
 11
87.20686846269672
 21
399.9203342469938
 31
0.0
  0
LINE
  5
17EC4
330
A
100
AcDbEntity
  8
MODEL
100
AcDbLine
 10
109.1184124005942
 20
402.9203344018512
 30
0.0
 11
87.2068683852678
 21
402.9203344018512
 31
0.0
  0
LINE
  5
17EC5
330
A
100
AcDbEntity
  8
MODEL
100
AcDbLine
 10
104.67920775191
 20
313.9203344018516
 30
0.0
 11
87.20687068231945
 21
313.9203344018516
 31
0.0
  0
LINE
  5
17EC6
330
A
100
AcDbEntity
  8
MODEL
100
AcDbLine
 10
87.20687060489053
 20
316.9203342469938
 30
0.0
 11
87.20687066941463
 21
314.4203343115179
 31
0.0
  0
LINE
  5
17EC7
330
A
100
AcDbEntity
  8
MODEL
100
AcDbLine
 10
87.20687068231945
 20
313.9203344018516
 30
0.0
 11
87.20687090170048
 21
305.4203344018516
 31
0.0
  0
ARC
  5
17EC8
330
A
100
AcDbEntity
  8
MODEL
100
AcDbCircle
 10
90.20686953379362
 20
305.4203344018516
 30
0.0
 40
3.000000000000001
100
AcDbArc
 50
180.0000000002084
 51
270.0
  0
LINE
  5
17EC9
330
A
100
AcDbEntity
  8
MODEL
100
AcDbLine
 10
87.20687066941463
 20
314.4203343889468
 30
0.0
 11
87.20687068231945
 21
313.9203344018516
 31
0.0
  0
LINE
  5
17ECA
330
A
100
AcDbEntity
  8
MODEL
100
AcDbLine
 10
87.20687046641268
 20
322.2857066126361
 30
0.0
 11
87.20687060489053
 21
316.9203342469938
 31
0.0
  0
LINE
  5
17ECB
330
A
100
AcDbEntity
  8
MODEL
100
AcDbLine
 10
87.20686846269672
 20
399.9203342469938
 30
0.0
 11
87.20686860043332
 21
394.5836837625565
 31
0.0
  0
ARC
  5
17ECC
330
A
100
AcDbEntity
  8
MODEL
100
AcDbCircle
 10
90.20686953379362
 20
411.4203344018512
 30
0.0
 40
3.000000000000001
100
AcDbArc
 50
90.0
 51
179.9999999997655
  0
LINE
  5
17ECD
330
A
100
AcDbEntity
  8
MODEL
100
AcDbLine
 10
87.2068683852678
 20
402.9203344018512
 30
0.0
 11
87.20686839817262
 21
402.4203343889468
 31
0.0
  0
LINE
  5
17ECE
330
A
100
AcDbEntity
  8
MODEL
100
AcDbLine
 10
87.20686839817262
 20
402.4203343115179
 30
0.0
 11
87.20686846269672
 21
399.9203342469938
 31
0.0
  0
LINE
  5
17ECF
330
A
100
AcDbEntity
  8
MODEL
100
AcDbLine
 10
87.20686816588676
 20
411.4203344018512
 30
0.0
 11
87.2068683852678
 21
402.9203344018512
 31
0.0
  0
LINE
  5
17ED0
330
A
100
AcDbEntity
  8
MODEL
100
AcDbLine
 10
328.7068111497121
 20
326.4203879208313
 30
0.0
 11
328.7068111497121
 21
390.4203879208313
 31
0.0
  0
LINE
  5
17ED1
330
A
100
AcDbEntity
  8
MODEL
100
AcDbLine
 10
332.706751539679
 20
350.4203297303217
 30
0.0
 11
332.7067515396786
 21
366.4203297303148
 31
0.0
  0
LINE
  5
17ED2
330
A
100
AcDbEntity
  8
MODEL
100
AcDbLine
 10
329.7067515396786
 20
375.4203301174649
 30
0.0
 11
329.7067515396795
 21
341.4203301174649
 31
0.0
  0
LWPOLYLINE
  5
17ED3
330
A
100
AcDbEntity
  8
MODEL
100
AcDbPolyline
 90
        5
 70
     0
 43
0.0
 10
338.206739829777
 20
358.4203262801576
 10
338.1282486188395
 20
356.3969116683412
 10
337.8987869489176
 20
354.38488774256
 10
337.5337967145426
 20
352.3931122298646
 10
337.0520462262613
 20
350.4203262801576
  0
LINE
  5
17ED4
330
A
100
AcDbEntity
  8
MODEL
100
AcDbLine
 10
338.2067507653912
 20
358.420329730469
 30
0.0
 11
338.2067511525349
 21
345.4299488671833
 31
0.0
  0
LINE
  5
17ED5
330
A
100
AcDbEntity
  8
MODEL
100
AcDbLine
 10
103.7913249061696
 20
303.808395446477
 30
0.0
 11
104.6792077519105
 21
305.9170913305212
 31
0.0
  0
LINE
  5
17ED6
330
A
100
AcDbEntity
  8
MODEL
100
AcDbLine
 10
99.21156155937632
 20
307.1591361266675
 30
0.0
 11
100.6224170520892
 21
303.808395446477
 31
0.0
  0
ARC
  5
17ED7
330
A
100
AcDbEntity
  8
MODEL
100
AcDbCircle
 10
102.2068709791294
 20
308.4203345567086
 30
0.0
 40
3.25
100
AcDbArc
 50
40.47237497847004
 51
202.8339062888514
  0
ARC
  5
17ED8
330
A
100
AcDbEntity
  8
MODEL
100
AcDbCircle
 10
99.70078337993726
 20
303.4203344018516
 30
0.0
 40
1.0
100
AcDbArc
 50
270.0
 51
22.83390561857289
  0
ARC
  5
17ED9
330
A
100
AcDbEntity
  8
MODEL
100
AcDbCircle
 10
104.7129585783215
 20
303.4203344018516
 30
0.0
 40
1.0
100
AcDbArc
 50
157.166094381445
 51
270.0
  0
LINE
  5
17EDA
330
A
100
AcDbEntity
  8
MODEL
100
AcDbLine
 10
337.2068706048905
 20
316.9203342469938
 30
0.0
 11
337.2068706694146
 21
314.4203343115179
 31
0.0
  0
ARC
  5
17EDB
330
A
100
AcDbEntity
  8
MODEL
100
AcDbCircle
 10
322.2068709791294
 20
308.4203453967276
 30
0.0
 40
3.25
100
AcDbArc
 50
337.1660937123882
 51
202.8339062888514
  0
LINE
  5
17EDC
330
A
100
AcDbEntity
  8
MODEL
100
AcDbLine
 10
285.6224187255286
 20
303.8083943826906
 30
0.0
 11
284.2115615593763
 21
307.1591460633518
 31
0.0
  0
ARC
  5
17EDD
330
A
100
AcDbEntity
  8
MODEL
100
AcDbCircle
 10
287.2068709791294
 20
308.4203444933929
 30
0.0
 40
3.25
100
AcDbArc
 50
337.1660937123882
 51
202.8339062888514
  0
LINE
  5
17EDE
330
A
100
AcDbEntity
  8
MODEL
100
AcDbLine
 10
288.7913232327293
 20
303.8083943826915
 30
0.0
 11
290.2021803988825
 21
307.1591460633518
 31
0.0
  0
LINE
  5
17EDF
330
A
100
AcDbEntity
  8
MODEL
100
AcDbLine
 10
320.6224188774378
 20
303.808394286502
 30
0.0
 11
319.2115615593759
 21
307.1591469666865
 31
0.0
  0
LINE
  5
17EE0
330
A
100
AcDbEntity
  8
MODEL
100
AcDbLine
 10
319.7007879903169
 20
302.4203344018516
 30
0.0
 11
289.7129543482981
 21
302.4203344018516
 31
0.0
  0
ARC
  5
17EE1
330
A
100
AcDbEntity
  8
MODEL
100
AcDbCircle
 10
284.7007876099607
 20
303.4203344018516
 30
0.0
 40
0.9999999999999996
100
AcDbArc
 50
270.0000000002606
 51
22.83390628862785
  0
ARC
  5
17EE2
330
A
100
AcDbEntity
  8
MODEL
100
AcDbCircle
 10
289.7129543482981
 20
303.4203344018516
 30
0.0
 40
0.9999999999999968
100
AcDbArc
 50
157.1660937113722
 51
269.9999999997134
  0
ARC
  5
17EE3
330
A
100
AcDbEntity
  8
MODEL
100
AcDbCircle
 10
319.7007879903169
 20
303.4203344018516
 30
0.0
 40
1.0
100
AcDbArc
 50
270.0000000002606
 51
22.83390628862785
  0
LINE
  5
17EE4
330
A
100
AcDbEntity
  8
MODEL
100
AcDbLine
 10
323.7913230808151
 20
303.8083942865043
 30
0.0
 11
325.2021803988825
 21
307.1591469666865
 31
0.0
  0
LINE
  5
17EE5
330
A
100
AcDbEntity
  8
MODEL
100
AcDbLine
 10
337.2068706823194
 20
313.9203344018516
 30
0.0
 11
337.2068709017005
 21
305.4203344018516
 31
0.0
  0
LINE
  5
17EE6
330
A
100
AcDbEntity
  8
MODEL
100
AcDbLine
 10
334.2068695337936
 20
302.4203344018516
 30
0.0
 11
324.7129539679419
 21
302.4203344018516
 31
0.0
  0
ARC
  5
17EE7
330
A
100
AcDbEntity
  8
MODEL
100
AcDbCircle
 10
324.7129539679419
 20
303.4203344018516
 30
0.0
 40
0.9999999999999988
100
AcDbArc
 50
157.1660937113722
 51
269.9999999997134
  0
ARC
  5
17EE8
330
A
100
AcDbEntity
  8
MODEL
100
AcDbCircle
 10
334.2068695337936
 20
305.4203344018516
 30
0.0
 40
3.000000000000001
100
AcDbArc
 50
270.0
 51
359.9999999997655
  0
LINE
  5
17EE9
330
A
100
AcDbEntity
  8
MODEL
100
AcDbLine
 10
337.2068706694146
 20
314.4203343889468
 30
0.0
 11
337.2068706823194
 21
313.9203344018516
 31
0.0
  0
LINE
  5
17EEA
330
A
100
AcDbEntity
  8
MODEL
100
AcDbLine
 10
337.2068699656358
 20
341.6884844296702
 30
0.0
 11
337.2068706048905
 21
316.9203342469938
 31
0.0
  0
ARC
  5
17EEB
330
A
100
AcDbEntity
  8
MODEL
100
AcDbCircle
 10
327.7068111497121
 20
326.4203879208313
 30
0.0
 40
1.0
100
AcDbArc
 50
270.0
 51
359.9999999997655
  0
LINE
  5
17EEC
330
A
100
AcDbEntity
  8
MODEL
100
AcDbLine
 10
332.706751539679
 20
341.4299490459399
 30
0.0
 11
332.706751539679
 21
349.4299486883148
 31
0.0
  0
LWPOLYLINE
  5
17EED
330
A
100
AcDbEntity
  8
MODEL
100
AcDbPolyline
 90
        5
 70
     0
 43
0.0
 10
338.206739829777
 20
345.4299469466615
 10
338.1282486188395
 20
344.4182587142396
 10
337.8987869489176
 20
343.4122086043764
 10
337.5337967145426
 20
342.4163513656068
 10
337.0520462262613
 20
341.4299469466615
  0
LINE
  5
17EEE
330
A
100
AcDbEntity
  8
MODEL
100
AcDbLine
 10
338.2067511525349
 20
345.4299488671833
 30
0.0
 11
338.2067515396786
 21
343.4203306801602
 31
0.0
  0
LINE
  5
17EEF
330
A
100
AcDbEntity
  8
MODEL
100
AcDbLine
 10
329.7067515396795
 20
341.4203301174649
 30
0.0
 11
337.0520510012995
 21
341.4203301174649
 31
0.0
  0
LINE
  5
17EF0
330
A
100
AcDbEntity
  8
MODEL
100
AcDbLine
 10
329.7067824401676
 20
342.4203818286888
 30
0.0
 11
328.7067556999606
 21
341.4203600326347
 31
0.0
  0
LINE
  5
17EF1
330
A
100
AcDbEntity
  8
MODEL
100
AcDbLine
 10
337.0520510012995
 20
341.4203301174649
 30
0.0
 11
338.2067515396786
 21
343.4203301174649
 31
0.0
  0
LINE
  5
17EF2
330
A
100
AcDbEntity
  8
MODEL
100
AcDbLine
 10
337.0520509717837
 20
341.4299490459399
 30
0.0
 11
332.7067515101637
 21
341.4299490459399
 31
0.0
  0
LINE
  5
17EF3
330
A
100
AcDbEntity
  8
MODEL
100
AcDbLine
 10
337.0520510012995
 20
341.4299490459399
 30
0.0
 11
337.0520510012995
 21
341.4203301174649
 31
0.0
  0
LINE
  5
17EF4
330
A
100
AcDbEntity
  8
MODEL
100
AcDbLine
 10
337.0520510012995
 20
350.4203297303217
 30
0.0
 11
337.0520510012995
 21
349.4299486883148
 31
0.0
  0
LWPOLYLINE
  5
17EF5
330
A
100
AcDbEntity
  8
MODEL
100
AcDbPolyline
 90
        5
 70
     0
 43
0.0
 10
337.0520462262613
 20
349.4299469466615
 10
337.5325454938395
 20
348.4464722152162
 10
337.897901939152
 20
347.4505920882631
 10
338.1277908551676
 20
346.4446411605287
 10
338.206739829777
 20
345.4299469466615
  0
LINE
  5
17EF6
330
A
100
AcDbEntity
  8
MODEL
100
AcDbLine
 10
332.7067507949079
 20
349.4299486883148
 30
0.0
 11
337.0520502565279
 21
349.4299486883148
 31
0.0
  0
LINE
  5
17EF7
330
A
100
AcDbEntity
  8
MODEL
100
AcDbLine
 10
337.0520502270121
 20
350.4203297303217
 30
0.0
 11
332.7067507653921
 21
350.4203297303217
 31
0.0
  0
LINE
  5
17EF8
330
A
100
AcDbEntity
  8
MODEL
100
AcDbLine
 10
245.7164282862711
 20
400.7656276433682
 30
0.0
 11
246.70680934305
 21
400.7656276433682
 31
0.0
  0
LINE
  5
17EF9
330
A
100
AcDbEntity
  8
MODEL
100
AcDbLine
 10
241.7164282862142
 20
401.9203276010322
 30
0.0
 11
254.7068093428963
 21
401.9203270203171
 31
0.0
  0
LINE
  5
17EFA
330
A
100
AcDbEntity
  8
MODEL
100
AcDbLine
 10
284.7007809157269
 20
414.4203344018512
 30
0.0
 11
139.712955641545
 21
414.4203244651668
 31
0.0
  0
LINE
  5
17EFB
330
A
100
AcDbEntity
  8
MODEL
100
AcDbLine
 10
337.2068683852678
 20
402.9203344018512
 30
0.0
 11
109.1184124005942
 21
402.9203344018512
 31
0.0
  0
ARC
  5
17EFC
330
A
100
AcDbEntity
  8
MODEL
100
AcDbCircle
 10
229.7068108270943
 20
393.4203296322463
 30
0.0
 40
6.0
100
AcDbArc
 50
90.00000147878347
 51
155.2246832867055
  0
LINE
  5
17EFD
330
A
100
AcDbEntity
  8
MODEL
100
AcDbLine
 10
227.1087500495316
 20
399.9203342469938
 30
0.0
 11
140.2953269368338
 21
399.9203342469938
 31
0.0
  0
LINE
  5
17EFE
330
A
100
AcDbEntity
  8
MODEL
100
AcDbLine
 10
100.6224158158386
 20
413.0322741112351
 30
0.0
 11
99.21155866870475
 21
409.6815218370158
 31
0.0
  0
LINE
  5
17EFF
330
A
100
AcDbEntity
  8
MODEL
100
AcDbLine
 10
105.2021775082109
 20
409.6815218370158
 30
0.0
 11
103.791320361083
 21
413.0322741112369
 31
0.0
  0
ARC
  5
17F00
330
A
100
AcDbEntity
  8
MODEL
100
AcDbCircle
 10
102.2068680884578
 20
408.4203234069747
 30
0.0
 40
3.25
100
AcDbArc
 50
157.1660937123881
 51
22.83390628885141
  0
ARC
  5
17F01
330
A
100
AcDbEntity
  8
MODEL
100
AcDbCircle
 10
99.70078182620563
 20
413.4203344018512
 30
0.0
 40
1.000000000000007
100
AcDbArc
 50
337.1661412564109
 51
90.0
  0
LINE
  5
17F02
330
A
100
AcDbEntity
  8
MODEL
100
AcDbLine
 10
134.7007805353707
 20
414.4203244651668
 30
0.0
 11
104.7129543507169
 21
414.4203344018512
 31
0.0
  0
ARC
  5
17F03
330
A
100
AcDbEntity
  8
MODEL
100
AcDbCircle
 10
104.7129543507169
 20
413.4203344018512
 30
0.0
 40
1.0
100
AcDbArc
 50
90.0
 51
202.8338587434836
  0
ARC
  5
17F04
330
A
100
AcDbEntity
  8
MODEL
100
AcDbCircle
 10
229.7068093430441
 20
393.4203274848898
 30
0.0
 40
7.0
100
AcDbArc
 50
26.38780144003618
 51
158.9492075854084
  0
ARC
  5
17F05
330
A
100
AcDbEntity
  8
MODEL
100
AcDbCircle
 10
229.7068093430441
 20
393.4203274461757
 30
0.0
 40
6.322875655532
100
AcDbArc
 50
26.38780144003764
 51
156.5678939361766
  0
LINE
  5
17F06
330
A
100
AcDbEntity
  8
MODEL
100
AcDbLine
 10
237.7164282862743
 20
396.420328137474
 30
0.0
 11
237.7164282862743
 21
400.765627599095
 31
0.0
  0
LINE
  5
17F07
330
A
100
AcDbEntity
  8
MODEL
100
AcDbLine
 10
245.716428286277
 20
400.7656265262118
 30
0.0
 11
245.716428286277
 21
396.4203270645904
 31
0.0
  0
ARC
  5
17F08
330
A
100
AcDbEntity
  8
MODEL
100
AcDbCircle
 10
237.769066988106
 20
397.4203276929735
 30
0.0
 40
2.0
100
AcDbArc
 50
206.3878014400941
 51
227.9718618825627
  0
ARC
  5
17F09
330
A
100
AcDbEntity
  8
MODEL
100
AcDbCircle
 10
237.769066988106
 20
397.420327654259
 30
0.0
 40
2.677124344468
100
AcDbArc
 50
206.3878014401277
 51
213.7062947450448
  0
LINE
  5
17F0A
330
A
100
AcDbEntity
  8
MODEL
100
AcDbLine
 10
245.7164282862715
 20
396.4203281817482
 30
0.0
 11
237.7164282862779
 21
396.4203281817482
 31
0.0
  0
LINE
  5
17F0B
330
A
100
AcDbEntity
  8
MODEL
100
AcDbLine
 10
237.7068093430441
 20
399.9203342469938
 30
0.0
 11
232.3048686365566
 21
399.9203342469938
 31
0.0
  0
LWPOLYLINE
  5
17F0C
330
A
100
AcDbEntity
  8
MODEL
100
AcDbPolyline
 90
        5
 70
     0
 43
0.0
 10
237.7164291608316
 20
400.765632676642
 10
238.6999344098551
 20
401.2461319442201
 10
239.695753501652
 20
401.6114731307435
 10
240.7017807233316
 20
401.8413620467592
 10
241.7164291608316
 20
401.9203262801576
  0
LINE
  5
17F0D
330
A
100
AcDbEntity
  8
MODEL
100
AcDbLine
 10
239.7068099057389
 20
401.9203281817478
 30
0.0
 11
241.7164282862142
 21
401.9203276010322
 31
0.0
  0
LINE
  5
17F0E
330
A
100
AcDbEntity
  8
MODEL
100
AcDbLine
 10
237.7068093430441
 20
400.7656276433682
 30
0.0
 11
239.7068093430436
 21
401.9203281817478
 31
0.0
  0
LINE
  5
17F0F
330
A
100
AcDbEntity
  8
MODEL
100
AcDbLine
 10
237.7068093430441
 20
400.7656276433682
 30
0.0
 11
237.7164282862774
 21
400.7656276433682
 31
0.0
  0
LWPOLYLINE
  5
17F10
330
A
100
AcDbEntity
  8
MODEL
100
AcDbPolyline
 90
        5
 70
     0
 43
0.0
 10
241.7164291608316
 20
401.9203262801576
 10
242.7281631696207
 20
401.841819810431
 10
243.7341293561441
 20
401.6123581405092
 10
244.7300552594645
 20
401.2473831649232
 10
245.7164291608316
 20
400.765632676642
  0
LINE
  5
17F11
330
A
100
AcDbEntity
  8
MODEL
100
AcDbLine
 10
337.2068684626967
 20
399.9203342469938
 30
0.0
 11
337.2068691019519
 21
375.1521773012029
 31
0.0
  0
ARC
  5
17F12
330
A
100
AcDbEntity
  8
MODEL
100
AcDbCircle
 10
279.7068108270943
 20
393.4203296322463
 30
0.0
 40
6.0
100
AcDbArc
 50
90.00000147878347
 51
155.2246832867055
  0
ARC
  5
17F13
330
A
100
AcDbEntity
  8
MODEL
100
AcDbCircle
 10
279.7068108270943
 20
393.4203296322463
 30
0.0
 40
6.0
100
AcDbArc
 50
23.49436169508787
 51
90.00000147787155
  0
LINE
  5
17F14
330
A
100
AcDbEntity
  8
MODEL
100
AcDbLine
 10
327.7068111497121
 20
391.4203879208313
 30
0.0
 11
300.0198652702263
 21
391.4203879208313
 31
0.0
  0
LINE
  5
17F15
330
A
100
AcDbEntity
  8
MODEL
100
AcDbLine
 10
337.052051001299
 20
375.4203301174649
 30
0.0
 11
338.2067515396786
 21
373.4203301174649
 31
0.0
  0
LINE
  5
17F16
330
A
100
AcDbEntity
  8
MODEL
100
AcDbLine
 10
332.7067515396786
 20
367.4107108018517
 30
0.0
 11
332.7067515396786
 21
375.4107111594732
 31
0.0
  0
LWPOLYLINE
  5
17F17
330
A
100
AcDbEntity
  8
MODEL
100
AcDbPolyline
 90
        5
 70
     0
 43
0.0
 10
337.0520462262613
 20
375.4107132430482
 10
337.5325454938395
 20
374.4272079940248
 10
337.897901939152
 20
373.4313889022279
 10
338.1277908551676
 20
372.4253616805482
 10
338.206739829777
 20
371.4107132430482
  0
LWPOLYLINE
  5
17F18
330
A
100
AcDbEntity
  8
MODEL
100
AcDbPolyline
 90
        5
 70
     0
 43
0.0
 10
337.0520462262613
 20
366.4203262801576
 10
337.5325454938395
 20
364.4533539290834
 10
337.897901939152
 20
362.4616470809389
 10
338.1277908551676
 20
360.4496689315248
 10
338.206739829777
 20
358.4203262801576
  0
LINE
  5
17F19
330
A
100
AcDbEntity
  8
MODEL
100
AcDbLine
 10
338.2067511525349
 20
371.4107109807229
 30
0.0
 11
338.2067507653912
 21
358.420329730469
 31
0.0
  0
LWPOLYLINE
  5
17F1A
330
A
100
AcDbEntity
  8
MODEL
100
AcDbPolyline
 90
        5
 70
     0
 43
0.0
 10
338.206739829777
 20
371.4107132430482
 10
338.1282486188395
 20
370.3989792342592
 10
337.8987869489176
 20
369.3930054183412
 10
337.5337967145426
 20
368.3970871444154
 10
337.0520462262613
 20
367.4107132430482
  0
LINE
  5
17F1B
330
A
100
AcDbEntity
  8
MODEL
100
AcDbLine
 10
337.052051001299
 20
367.4107108018517
 30
0.0
 11
337.052051001299
 21
366.4203297303148
 31
0.0
  0
LINE
  5
17F1C
330
A
100
AcDbEntity
  8
MODEL
100
AcDbLine
 10
332.7067507653916
 20
366.4203297303148
 30
0.0
 11
337.0520502270121
 21
366.4203297303148
 31
0.0
  0
LINE
  5
17F1D
330
A
100
AcDbEntity
  8
MODEL
100
AcDbLine
 10
337.0520502565279
 20
367.4107108018462
 30
0.0
 11
332.706750794907
 21
367.4107108018462
 31
0.0
  0
LINE
  5
17F1E
330
A
100
AcDbEntity
  8
MODEL
100
AcDbLine
 10
338.2067515396786
 20
373.4203295547696
 30
0.0
 11
338.2067511525349
 21
371.4107109807229
 31
0.0
  0
LINE
  5
17F1F
330
A
100
AcDbEntity
  8
MODEL
100
AcDbLine
 10
337.0520510012986
 20
375.4203301174649
 30
0.0
 11
329.7067515396786
 21
375.4203301174649
 31
0.0
  0
LINE
  5
17F20
330
A
100
AcDbEntity
  8
MODEL
100
AcDbLine
 10
328.7067741448693
 20
375.4203095673021
 30
0.0
 11
329.7067816710853
 21
374.4202877702656
 31
0.0
  0
LINE
  5
17F21
330
A
100
AcDbEntity
  8
MODEL
100
AcDbLine
 10
332.7067515101627
 20
375.4107111594768
 30
0.0
 11
337.0520509717837
 21
375.4107111594768
 31
0.0
  0
LINE
  5
17F22
330
A
100
AcDbEntity
  8
MODEL
100
AcDbLine
 10
337.0520510012986
 20
375.4203301174649
 30
0.0
 11
337.0520510012986
 21
375.4107111594732
 31
0.0
  0
ARC
  5
17F23
330
A
100
AcDbEntity
  8
MODEL
100
AcDbCircle
 10
327.7068111497121
 20
390.4203879208313
 30
0.0
 40
1.0
100
AcDbArc
 50
0.0000000002344959
 51
90.0
  0
ARC
  5
17F24
330
A
100
AcDbEntity
  8
MODEL
100
AcDbCircle
 10
322.2068680884578
 20
408.4203342469938
 30
0.0
 40
3.25
100
AcDbArc
 50
157.1660937123881
 51
22.83390628885141
  0
LINE
  5
17F25
330
A
100
AcDbEntity
  8
MODEL
100
AcDbLine
 10
337.2068684626967
 20
399.9203342469938
 30
0.0
 11
282.3048718651636
 21
399.9203342469938
 31
0.0
  0
LINE
  5
17F26
330
A
100
AcDbEntity
  8
MODEL
100
AcDbLine
 10
320.6224141638251
 20
413.0322733629433
 30
0.0
 11
319.2115586687043
 21
409.6815326770349
 31
0.0
  0
LINE
  5
17F27
330
A
100
AcDbEntity
  8
MODEL
100
AcDbLine
 10
288.7913218611781
 20
413.0322734591315
 30
0.0
 11
290.2021775082105
 21
409.6815317737002
 31
0.0
  0
LINE
  5
17F28
330
A
100
AcDbEntity
  8
MODEL
100
AcDbLine
 10
285.6224143157371
 20
413.0322734591315
 30
0.0
 11
284.2115586687043
 21
409.6815317737002
 31
0.0
  0
ARC
  5
17F29
330
A
100
AcDbEntity
  8
MODEL
100
AcDbCircle
 10
287.2068680884578
 20
408.4203333436591
 30
0.0
 40
3.25
100
AcDbArc
 50
157.1660937123881
 51
22.83390628885141
  0
ARC
  5
17F2A
330
A
100
AcDbEntity
  8
MODEL
100
AcDbCircle
 10
279.7068093430441
 20
393.4203287753686
 30
0.0
 40
7.0
100
AcDbArc
 50
19.05189667980787
 51
153.6122015171538
  0
ARC
  5
17F2B
330
A
100
AcDbEntity
  8
MODEL
100
AcDbCircle
 10
279.7068093430441
 20
393.4203287366541
 30
0.0
 40
6.322875655532
100
AcDbArc
 50
21.92361847743379
 51
153.6122015171885
  0
LINE
  5
17F2C
330
A
100
AcDbEntity
  8
MODEL
100
AcDbLine
 10
271.6971903998112
 20
396.4203281817482
 30
0.0
 11
263.6971903998084
 21
396.4203281817482
 31
0.0
  0
LWPOLYLINE
  5
17F2D
330
A
100
AcDbEntity
  8
MODEL
100
AcDbPolyline
 90
        5
 70
     0
 43
0.0
 10
263.6971878278238
 20
400.765632676642
 10
264.6806625592691
 20
401.2461319442201
 10
265.6765426862223
 20
401.6114731307435
 10
266.6824936139566
 20
401.8413620467592
 10
267.6971878278238
 20
401.9203262801576
  0
LINE
  5
17F2E
330
A
100
AcDbEntity
  8
MODEL
100
AcDbLine
 10
254.7068093428963
 20
401.9203270203171
 30
0.0
 11
267.6971903997539
 21
401.9203276010331
 31
0.0
  0
LINE
  5
17F2F
330
A
100
AcDbEntity
  8
MODEL
100
AcDbLine
 10
246.7068093430505
 20
396.4203270203176
 30
0.0
 11
246.70680934305
 21
400.7656264819376
 31
0.0
  0
LINE
  5
17F30
330
A
100
AcDbEntity
  8
MODEL
100
AcDbLine
 10
262.7068093430436
 20
400.7656264819381
 30
0.0
 11
262.7068093430436
 21
396.420327020318
 31
0.0
  0
LINE
  5
17F31
330
A
100
AcDbEntity
  8
MODEL
100
AcDbLine
 10
263.6971903998084
 20
396.4203270645913
 30
0.0
 11
263.697190399808
 21
400.7656265262113
 31
0.0
  0
LINE
  5
17F32
330
A
100
AcDbEntity
  8
MODEL
100
AcDbLine
 10
262.7068093430436
 20
396.4203281817482
 30
0.0
 11
246.7068093430505
 21
396.4203281817482
 31
0.0
  0
LWPOLYLINE
  5
17F33
330
A
100
AcDbEntity
  8
MODEL
100
AcDbPolyline
 90
        5
 70
     0
 43
0.0
 10
254.7068161237223
 20
401.9203262801576
 10
256.7302231061441
 20
401.841819810431
 10
258.7422470319254
 20
401.6123581405092
 10
260.7340225446207
 20
401.2473831649232
 10
262.7068161237223
 20
400.765632676642
  0
LWPOLYLINE
  5
17F34
330
A
100
AcDbEntity
  8
MODEL
100
AcDbPolyline
 90
        5
 70
     0
 43
0.0
 10
246.7068161237223
 20
400.765632676642
 10
248.673796104191
 20
401.2461319442201
 10
250.665495322941
 20
401.6114731307435
 10
252.6774734723551
 20
401.8413620467592
 10
254.7068161237223
 20
401.9203262801576
  0
LINE
  5
17F35
330
A
100
AcDbEntity
  8
MODEL
100
AcDbLine
 10
262.7068093430436
 20
400.7656276433687
 30
0.0
 11
263.697190399808
 21
400.7656276433687
 31
0.0
  0
LINE
  5
17F36
330
A
100
AcDbEntity
  8
MODEL
100
AcDbLine
 10
271.6971903998112
 20
400.765627599095
 30
0.0
 11
271.6971903998112
 21
396.4203281374749
 31
0.0
  0
ARC
  5
17F37
330
A
100
AcDbEntity
  8
MODEL
100
AcDbCircle
 10
271.644551491506
 20
397.4203285285708
 30
0.0
 40
2.677124344468
100
AcDbArc
 50
326.293682761666
 51
333.612201517327
  0
ARC
  5
17F38
330
A
100
AcDbEntity
  8
MODEL
100
AcDbCircle
 10
271.644551491506
 20
397.4203285672849
 30
0.0
 40
2.0
100
AcDbArc
 50
312.0281007054045
 51
333.6122015175375
  0
LINE
  5
17F39
330
A
100
AcDbEntity
  8
MODEL
100
AcDbLine
 10
277.1087468209245
 20
399.9203342469938
 30
0.0
 11
271.7068093430441
 21
399.9203342469938
 31
0.0
  0
LINE
  5
17F3A
330
A
100
AcDbEntity
  8
MODEL
100
AcDbLine
 10
271.7068093430441
 20
400.7656276433692
 30
0.0
 11
269.7068093430441
 21
401.9203281817482
 31
0.0
  0
LWPOLYLINE
  5
17F3B
330
A
100
AcDbEntity
  8
MODEL
100
AcDbPolyline
 90
        5
 70
     0
 43
0.0
 10
267.6971878278238
 20
401.9203262801576
 10
268.7088760602457
 20
401.841819810431
 10
269.7149337995035
 20
401.6123581405092
 10
270.7107834088785
 20
401.2473831649232
 10
271.6971878278238
 20
400.765632676642
  0
LINE
  5
17F3C
330
A
100
AcDbEntity
  8
MODEL
100
AcDbLine
 10
267.6971903997539
 20
401.9203276010331
 30
0.0
 11
269.7068087803493
 21
401.9203281817482
 31
0.0
  0
LINE
  5
17F3D
330
A
100
AcDbEntity
  8
MODEL
100
AcDbLine
 10
271.6971903998112
 20
400.7656276433692
 30
0.0
 11
271.7068093430441
 21
400.7656276433692
 31
0.0
  0
LINE
  5
17F3E
330
A
100
AcDbEntity
  8
MODEL
100
AcDbLine
 10
319.7007805353707
 20
414.4203344018512
 30
0.0
 11
289.7129552611888
 21
414.4203344018512
 31
0.0
  0
ARC
  5
17F3F
330
A
100
AcDbEntity
  8
MODEL
100
AcDbCircle
 10
289.7129552611888
 20
413.4203344018512
 30
0.0
 40
0.9999999999999966
100
AcDbArc
 50
90.00000000026056
 51
202.8339062885081
  0
ARC
  5
17F40
330
A
100
AcDbEntity
  8
MODEL
100
AcDbCircle
 10
284.7007809157269
 20
413.4203344018512
 30
0.0
 40
0.9999999999999966
100
AcDbArc
 50
337.1660937114919
 51
89.9999999997134
  0
ARC
  5
17F41
330
A
100
AcDbEntity
  8
MODEL
100
AcDbCircle
 10
319.7007805353707
 20
413.4203344018512
 30
0.0
 40
0.999999999999999
100
AcDbArc
 50
337.1660937114932
 51
89.9999999997134
  0
LINE
  5
17F42
330
A
100
AcDbEntity
  8
MODEL
100
AcDbLine
 10
323.7913220130906
 20
413.0322733629433
 30
0.0
 11
325.2021775082109
 21
409.6815326770349
 31
0.0
  0
ARC
  5
17F43
330
A
100
AcDbEntity
  8
MODEL
100
AcDbCircle
 10
334.2068695337936
 20
411.4203344018512
 30
0.0
 40
3.000000000000001
100
AcDbArc
 50
0.0000000002344959
 51
90.0
  0
LINE
  5
17F44
330
A
100
AcDbEntity
  8
MODEL
100
AcDbLine
 10
337.2068683852678
 20
402.9203344018512
 30
0.0
 11
337.2068683981726
 21
402.4203343889468
 31
0.0
  0
LINE
  5
17F45
330
A
100
AcDbEntity
  8
MODEL
100
AcDbLine
 10
337.2068683981726
 20
402.4203343115179
 30
0.0
 11
337.2068684626967
 21
399.9203342469938
 31
0.0
  0
LINE
  5
17F46
330
A
100
AcDbEntity
  8
MODEL
100
AcDbLine
 10
337.2068681658868
 20
411.4203344018512
 30
0.0
 11
337.2068683852678
 21
402.9203344018512
 31
0.0
  0
LINE
  5
17F47
330
A
100
AcDbEntity
  8
MODEL
100
AcDbLine
 10
334.2068695337936
 20
414.4203344018512
 30
0.0
 11
324.712955641545
 21
414.4203344018512
 31
0.0
  0
ARC
  5
17F48
330
A
100
AcDbEntity
  8
MODEL
100
AcDbCircle
 10
324.712955641545
 20
413.4203344018512
 30
0.0
 40
0.999999999999999
100
AcDbArc
 50
90.00000000026056
 51
202.8339062885068
  0
DIMENSION
  5
17F50
330
A
100
AcDbEntity
  8
DIM
100
AcDbDimension
  2
*D37
 10
368.9034541843232
 20
302.4203344018516
 30
0.0
 11
368.9034541843232
 21
358.4203344018516
 31
0.0
 70
   160
 71
     5
 42
111.9999999999991
 73
     0
 74
     0
 75
     0
  3
tfrom線あり
100
AcDbAlignedDimension
 13
334.2068695337936
 23
414.4203344018507
 33
0.0
 14
334.2068695337936
 24
302.4203344018516
 34
0.0
 50
90.0
100
AcDbRotatedDimension
  0
DIMENSION
  5
17F56
330
A
100
AcDbEntity
  8
DIM
100
AcDbDimension
  2
*D39
 10
294.7068111472419
 20
239.0424489586335
 30
0.0
 11
254.7068111497128
 21
246.0424489586335
 31
0.0
 70
    32
 71
     5
 42
79.99999999505826
 73
     0
 74
     0
 75
     0
  3
tfrom線あり
100
AcDbAlignedDimension
 13
214.7068111521837
 23
273.0108472002086
 33
0.0
 14
294.7068111472419
 24
273.0108269189433
 34
0.0
100
AcDbRotatedDimension
  0
ARC
  5
17F77
330
A
100
AcDbEntity
  8
MODEL
100
AcDbCircle
 10
137.2068680884578
 20
408.4203243103094
 30
0.0
 40
3.25
100
AcDbArc
 50
157.1660937123881
 51
22.83390628885141
  0
LINE
  5
17F78
330
A
100
AcDbEntity
  8
MODEL
100
AcDbLine
 10
135.6224141638251
 20
413.032263426259
 30
0.0
 11
134.2115586687043
 21
409.6815227403505
 31
0.0
  0
ARC
  5
17F79
330
A
100
AcDbEntity
  8
MODEL
100
AcDbCircle
 10
134.7007805353707
 20
413.4203244651668
 30
0.0
 40
0.999999999999999
100
AcDbArc
 50
337.1660937114926
 51
89.9999999997134
  0
LINE
  5
17F7A
330
A
100
AcDbEntity
  8
MODEL
100
AcDbLine
 10
138.7913220130906
 20
413.032263426259
 30
0.0
 11
140.2021775082109
 21
409.6815227403505
 31
0.0
  0
ARC
  5
17F7B
330
A
100
AcDbEntity
  8
MODEL
100
AcDbCircle
 10
139.712955641545
 20
413.4203244651668
 30
0.0
 40
0.999999999999999
100
AcDbArc
 50
90.00000000026056
 51
202.8339062885075
  0
ARC
  5
17F7D
330
A
100
AcDbEntity
  8
MODEL
100
AcDbCircle
 10
254.6818695337944
 20
358.4346954450467
 30
0.0
 40
22.5
100
AcDbArc
 50
90.0
 51
180.0
  0
ARC
  5
17F7E
330
A
100
AcDbEntity
  8
MODEL
100
AcDbCircle
 10
254.6818695337944
 20
358.4346954450467
 30
0.0
 40
22.5
100
AcDbArc
 50
0.0
 51
90.0
  0
LINE
  5
17F7F
330
A
100
AcDbEntity
  8
MODEL
100
AcDbLine
 10
299.9668491147924
 20
325.4203879208313
 30
0.0
 11
327.7068111497121
 21
325.4203879208313
 31
0.0
  0
LINE
  5
17F81
330
A
100
AcDbEntity
  8
MODEL
100
AcDbLine
 10
337.2068706048905
 20
316.9203342469942
 30
0.0
 11
144.67920775191
 21
316.9203342469935
 31
0.0
  0
LINE
  5
17F82
330
A
100
AcDbEntity
  8
MODEL
100
AcDbLine
 10
337.2068706823199
 20
313.9203344018512
 30
0.0
 11
144.67920775191
 21
313.9203344018521
 31
0.0
  0
LINE
  5
17F83
330
A
100
AcDbEntity
  8
MODEL
100
AcDbLine
 10
284.7007876099607
 20
302.4203344018523
 30
0.0
 11
144.6792077519096
 21
302.4203344018516
 31
0.0
  0
LINE
  5
17F84
330
A
100
AcDbEntity
  8
MODEL
100
AcDbLine
 10
97.18186953379399
 20
320.9346954450467
 30
0.0
 11
104.67920775191
 21
320.9346954450467
 31
0.0
  0
LINE
  5
17F85
330
A
100
AcDbEntity
  8
MODEL
100
AcDbLine
 10
104.6792077519105
 20
316.9203342469935
 30
0.0
 11
87.20687060489053
 21
316.9203342469938
 31
0.0
  0
DIMENSION
  5
17FEA
330
A
100
AcDbEntity
  8
DIM
100
AcDbDimension
  2
*D42
 10
87.20686816588682
 20
454.0165449055015
 30
0.0
 11
212.2068681658868
 21
461.0165449055015
 31
0.0
 70
    32
 71
     5
 42
249.9999999999999
 73
     0
 74
     0
 75
     0
  3
tfrom線あり
100
AcDbAlignedDimension
 13
337.2068681658868
 23
417.2679725884097
 33
0.0
 14
87.20686816588682
 24
416.3668687282208
 34
0.0
100
AcDbRotatedDimension
1001
ACAD
1000
DSTYLE
1002
{
1070
   144
1040
1.0
1002
}
  0
MTEXT
  5
18037
330
A
100
AcDbEntity
  8
DIM
390
1D
100
AcDbMText
 10
114.9028970419232
 20
283.4221954379381
 30
0.0
 40
8.0
 41
0.0
 46
13.9510244140625
 71
     1
 72
     1
  1
{G1/2”}
  7
ＭＳ ゴシック
 73
     1
 44
0.7828267384257843
1001
ACAD
1000
ACAD_MTEXT_DEFINED_HEIGHT_BEGIN
1070
    46
1040
13.9510244140625
1000
ACAD_MTEXT_DEFINED_HEIGHT_END
  0
MTEXT
  5
18038
330
A
100
AcDbEntity
  8
DIM
390
1D
100
AcDbMText
 10
127.8248742979501
 20
288.3724265110368
 30
0.0
 40
5.0
 41
0.0
 46
12.21630859375
 71
     1
 72
     1
  1
{▲}
  7
ＭＳ ゴシック
 11
-1.0
 21
3.031929298844581E-15
 31
0.0
 73
     1
 44
0.7828267384257843
1001
ACAD
1000
ACAD_MTEXT_DEFINED_HEIGHT_BEGIN
1070
    46
1040
12.21630859375
1000
ACAD_MTEXT_DEFINED_HEIGHT_END
  0
MTEXT
  5
18039
330
A
100
AcDbEntity
  8
DIM
390
1D
100
AcDbMText
 10
204.2877882680748
 20
283.4221954379382
 30
0.0
 40
8.0
 41
0.0
 46
9.136
 71
     1
 72
     1
  1
{G3/4”}
  7
ＭＳ ゴシック
 73
     1
 44
0.7828267384257843
1001
ACAD
1000
ACAD_MTEXT_DEFINED_HEIGHT_BEGIN
1070
    46
1040
9.136
1000
ACAD_MTEXT_DEFINED_HEIGHT_END
  0
MTEXT
  5
1803A
330
A
100
AcDbEntity
  8
DIM
390
1D
100
AcDbMText
 10
212.3344307088715
 20
294.1404795817012
 30
0.0
 40
5.0
 41
0.0
 46
12.21630859375
 71
     1
 72
     1
  1
{▲}
  7
ＭＳ ゴシック
 73
     1
 44
0.7828267384257843
1001
ACAD
1000
ACAD_MTEXT_DEFINED_HEIGHT_BEGIN
1070
    46
1040
12.21630859375
1000
ACAD_MTEXT_DEFINED_HEIGHT_END
  0
MTEXT
  5
1803B
330
A
100
AcDbEntity
  8
DIM
390
1D
100
AcDbMText
 10
283.8668914270406
 20
283.4221954379382
 30
0.0
 40
8.0
 41
0.0
 46
9.136
 71
     1
 72
     1
  1
{G3/4”}
  7
ＭＳ ゴシック
 73
     1
 44
0.7828267384257843
1001
ACAD
1000
ACAD_MTEXT_DEFINED_HEIGHT_BEGIN
1070
    46
1040
9.136
1000
ACAD_MTEXT_DEFINED_HEIGHT_END
  0
MTEXT
  5
1803C
330
A
100
AcDbEntity
  8
DIM
390
1D
100
AcDbMText
 10
291.9135338678374
 20
294.1404795817012
 30
0.0
 40
5.0
 41
0.0
 46
12.21630859375
 71
     1
 72
     1
  1
{▲}
  7
ＭＳ ゴシック
 73
     1
 44
0.7828267384257843
1001
ACAD
1000
ACAD_MTEXT_DEFINED_HEIGHT_BEGIN
1070
    46
1040
12.21630859375
1000
ACAD_MTEXT_DEFINED_HEIGHT_END
  0
MTEXT
  5
1803D
330
A
100
AcDbEntity
  8
DIM
390
1D
100
AcDbMText
 10
113.7700984204434
 20
437.8545075068833
 30
0.0
 40
8.0
 41
0.0
 46
13.9510244140625
 71
     1
 72
     1
  1
{G1/2”}
  7
ＭＳ ゴシック
 73
     1
 44
0.7828267384257843
1001
ACAD
1000
ACAD_MTEXT_DEFINED_HEIGHT_BEGIN
1070
    46
1040
13.9510244140625
1000
ACAD_MTEXT_DEFINED_HEIGHT_END
  0
MTEXT
  5
1803F
330
A
100
AcDbEntity
  8
DIM
390
1D
100
AcDbMText
 10
127.7770444955008
 20
425.1135379656737
 30
0.0
 40
5.0
 41
0.0
 46
12.21630859375
 71
     1
 72
     1
  1
{▲}
  7
ＭＳ ゴシック
210
0.0
220
0.0
230
-1.0
 11
-1.0
 21
-2.342910729165048E-15
 31
0.0
 73
     1
 44
0.7828267384257843
1001
ACAD
1000
ACAD_MTEXT_DEFINED_HEIGHT_BEGIN
1070
    46
1040
12.21630859375
1000
ACAD_MTEXT_DEFINED_HEIGHT_END
  0
LINE
  5
1804B
330
A
100
AcDbEntity
  8
MODEL
100
AcDbLine
 10
255.035891248863
 20
644.2939355718197
 30
0.0
 11
255.035891248863
 21
644.2939355718197
 31
0.0
  0
LINE
  5
1804C
330
A
100
AcDbEntity
  8
MODEL
100
AcDbLine
 10
282.1818695337946
 20
657.8477067972008
 30
0.0
 11
97.1818695337941
 21
657.847706797201
 31
0.0
  0
ARC
  5
1804D
330
A
100
AcDbEntity
  8
MODEL
100
AcDbCircle
 10
97.1818695337941
 20
620.347706797201
 30
0.0
 40
37.5
100
AcDbArc
 50
90.0
 51
180.0
  0
ARC
  5
1804E
330
A
100
AcDbEntity
  8
MODEL
100
AcDbCircle
 10
97.1818695337941
 20
620.347706797201
 30
0.0
 40
37.5
100
AcDbArc
 50
180.0000000000007
 51
270.0
  0
ARC
  5
1804F
330
A
100
AcDbEntity
  8
MODEL
100
AcDbCircle
 10
282.1818695337946
 20
620.3477067972012
 30
0.0
 40
37.5
100
AcDbArc
 50
270.0
 51
0.0
  0
ARC
  5
18050
330
A
100
AcDbEntity
  8
MODEL
100
AcDbCircle
 10
282.1818695337946
 20
620.3477067972008
 30
0.0
 40
37.5
100
AcDbArc
 50
0.0
 51
90.0
  0
LINE
  5
18051
330
A
100
AcDbEntity
  8
MODEL
100
AcDbLine
 10
255.0349113157793
 20
647.2747202381797
 30
0.0
 11
259.9849117485576
 21
647.2747202381797
 31
0.0
  0
ARC
  5
18052
330
A
100
AcDbEntity
  8
MODEL
100
AcDbCircle
 10
255.0349117485569
 20
618.1122872121095
 30
0.0
 40
30.0
100
AcDbArc
 50
81.32395884956564
 51
89.99999999979156
  0
ARC
  5
18053
330
A
100
AcDbEntity
  8
MODEL
100
AcDbCircle
 10
255.0349117485569
 20
618.1122872121095
 30
0.0
 40
30.0
100
AcDbArc
 50
89.99999999979156
 51
98.67604115001268
  0
LINE
  5
18054
330
A
100
AcDbEntity
  8
MODEL
100
AcDbLine
 10
255.0349117485569
 20
647.7689987640451
 30
0.0
 11
255.0349117485569
 21
648.1122872121095
 31
0.0
  0
LINE
  5
18055
330
A
100
AcDbEntity
  8
MODEL
100
AcDbLine
 10
255.0349113594933
 20
647.7689987640451
 30
0.0
 11
255.0349113594933
 21
647.2747202381797
 31
0.0
  0
LINE
  5
18056
330
A
100
AcDbEntity
  8
MODEL
100
AcDbLine
 10
255.0349113157984
 20
647.2747202381797
 30
0.0
 11
250.0849117485571
 21
647.2747202381797
 31
0.0
  0
ARC
  5
18057
330
A
100
AcDbEntity
  8
MODEL
100
AcDbCircle
 10
250.5849117485571
 20
647.2747202381797
 30
0.0
 40
0.5
100
AcDbArc
 50
98.6760411499569
 51
179.999999999531
  0
LINE
  5
18058
330
A
100
AcDbEntity
  8
MODEL
100
AcDbLine
 10
250.0849117485571
 20
642.2019683527506
 30
0.0
 11
250.0849117485571
 21
647.2747202381784
 31
0.0
  0
ARC
  5
18059
330
A
100
AcDbEntity
  8
MODEL
100
AcDbCircle
 10
259.4849117485576
 20
647.2747202381797
 30
0.0
 40
0.5
100
AcDbArc
 50
0.0
 51
81.32395884956769
  0
LINE
  5
1805A
330
A
100
AcDbEntity
  8
MODEL
100
AcDbLine
 10
259.9849117485576
 20
642.2024435058556
 30
0.0
 11
259.9849117485576
 21
647.2747202381784
 31
0.0
  0
LINE
  5
1805B
330
A
100
AcDbEntity
  8
MODEL
100
AcDbLine
 10
144.6792077519102
 20
560.2494557827729
 30
0.0
 11
104.6792077519102
 21
560.2494557827729
 31
0.0
  0
LINE
  5
1805C
330
A
100
AcDbEntity
  8
MODEL
100
AcDbLine
 10
144.6792077519102
 20
560.2494557827729
 30
0.0
 11
144.6792077519102
 21
620.347706797201
 31
0.0
  0
LINE
  5
1805D
330
A
100
AcDbEntity
  8
MODEL
100
AcDbLine
 10
104.6792077519102
 20
560.2494557827729
 30
0.0
 11
104.6792077519102
 21
620.347706797201
 31
0.0
  0
ARC
  5
1805E
330
A
100
AcDbEntity
  8
MODEL
100
AcDbCircle
 10
124.6792077519102
 20
620.347706797201
 30
0.0
 40
20.0
100
AcDbArc
 50
0.0
 51
179.9999999995441
  0
CIRCLE
  5
1805F
330
A
100
AcDbEntity
  8
MODEL
100
AcDbCircle
 10
254.6351002195973
 20
620.347706797201
 30
0.0
 40
22.5
  0
LINE
  5
18060
330
A
100
AcDbEntity
  8
MODEL
100
AcDbLine
 10
144.6792077519102
 20
582.847706797201
 30
0.0
 11
282.1818695337946
 21
582.8477067972012
 31
0.0
  0
DIMENSION
  5
180EA
330
A
100
AcDbEntity
  8
DIM
100
AcDbDimension
  2
*D44
 10
254.6818695337946
 20
683.56314056672
 30
0.0
 11
189.6943696012547
 21
683.56314056672
 31
0.0
 70
   160
 71
     5
 42
129.9749998650804
 73
     0
 74
     0
 75
     0
  3
tfrom線あり
100
AcDbAlignedDimension
 13
124.7068696687142
 23
657.847706797201
 33
0.0
 14
254.6818695337946
 24
656.5550339114138
 34
0.0
100
AcDbRotatedDimension
  0
ARC
  5
180F1
330
A
100
AcDbEntity
  8
MODEL
100
AcDbCircle
 10
254.6818695337946
 20
620.347706797201
 30
0.0
 40
22.5
100
AcDbArc
 50
90.0
 51
180.0
  0
ARC
  5
180F2
330
A
100
AcDbEntity
  8
MODEL
100
AcDbCircle
 10
254.6818695337946
 20
620.347706797201
 30
0.0
 40
22.5
100
AcDbArc
 50
0.0
 51
90.0
  0
DIMENSION
  5
180F4
330
A
100
AcDbEntity
  8
DIM
100
AcDbDimension
  2
*D46
 10
319.6818695337947
 20
714.8398323314141
 30
0.0
 11
189.6818695337944
 21
721.8398323314141
 31
0.0
 70
    32
 71
     5
 42
260.0000000000005
 73
     0
 74
     0
 75
     0
  3
tfrom線あり
100
AcDbAlignedDimension
 13
59.68186953379421
 23
634.8616891349129
 33
0.0
 14
319.6818695337947
 24
634.8616891349127
 34
0.0
100
AcDbRotatedDimension
  0
LINE
  5
180F8
330
A
100
AcDbEntity
  8
MODEL
100
AcDbLine
 10
97.1818695337941
 20
582.847706797201
 30
0.0
 11
104.6792077519102
 21
582.847706797201
 31
0.0
  0
DIMENSION
  5
18104
330
A
100
AcDbEntity
  8
DIM
100
AcDbDimension
  2
*D48
 10
347.9905131692715
 20
582.8477067972012
 30
0.0
 11
347.9905131692715
 21
620.3477067972015
 31
0.0
 70
   160
 71
     5
 42
75.0
 73
     0
 74
     0
 75
     0
 52
-90.0
  3
tfrom線あり
100
AcDbAlignedDimension
 13
302.2363876291431
 23
657.8477067972012
 33
0.0
 14
302.2363876291431
 24
582.8477067972012
 34
0.0
 50
89.99999999999994
100
AcDbRotatedDimension
  0
MTEXT
  5
18170
330
A
100
AcDbEntity
  8
TEMPLATE
390
1D
100
AcDbMText
 10
39.66064336431923
 20
65.78232220966433
 30
0.0
 40
7.329785156250001
 41
0.0
 46
8.033444531250002
 71
     1
 72
     1
  1
{サーモスタットディバーター(二方向切替)付}
  7
ＭＳ ゴシック
 73
     1
 44
0.7828267384257843
1001
ACAD
1000
ACAD_MTEXT_DEFINED_HEIGHT_BEGIN
1070
    46
1040
8.033444531250002
1000
ACAD_MTEXT_DEFINED_HEIGHT_END
  0
VIEWPORT
  5
349
330
B
100
AcDbEntity
 67
     1
  8
0
100
AcDbViewport
 10
202.5
 20
128.5
 30
0.0
 40
486.0
 41
308.4
 68
     1
 69
     1
 12
202.5
 22
128.5
 13
0.0
 23
0.0
 14
0.5
 24
0.5
 15
0.0
 25
0.0
 16
0.0
 26
0.0
 36
1.0
 17
0.0
 27
0.0
 37
0.0
 42
50.0
 43
0.0
 44
0.0
 45
308.4
 50
0.0
 51
0.0
 72
   100
 90
   557152
  1

281
     0
 71
     1
 74
     0
110
0.0
120
0.0
130
0.0
111
1.0
121
0.0
131
0.0
112
0.0
122
1.0
132
0.0
 79
     0
146
0.0
170
     0
 61
     5
348
26C
292
     1
282
     1
141
0.0
142
0.0
 63
   256
  0
VIEWPORT
  5
34A
330
B
100
AcDbEntity
 67
     1
  8
0
100
AcDbViewport
 10
202.5
 20
128.5
 30
0.0
 40
324.0
 41
205.6
 68
     2
 69
     2
 12
986.6781359294573
 22
1427.077061889956
 13
0.0
 23
0.0
 14
0.5
 24
0.5
 15
0.0
 25
0.0
 16
0.0
 26
0.0
 36
1.0
 17
0.0
 27
0.0
 37
0.0
 42
50.0
 43
0.0
 44
0.0
 45
2890.021615685494
 50
0.0
 51
0.0
 72
   100
 90
   557152
  1

281
     0
 71
     1
 74
     0
110
0.0
120
0.0
130
0.0
111
1.0
121
0.0
131
0.0
112
0.0
122
1.0
132
0.0
 79
     0
146
0.0
170
     0
 61
     5
348
26C
292
     1
282
     1
141
0.0
142
0.0
 63
   256
  0
ENDSEC
  0
SECTION
  2
OBJECTS
  0
DICTIONARY
  5
19
330
0
100
AcDbDictionary
281
     1
  3
ACAD_COLOR
350
674
  3
ACAD_DETAILVIEWSTYLE
350
BBF
  3
ACAD_FIELDLIST
350
36B0
  3
ACAD_GROUP
350
1A
  3
ACAD_IMAGE_VARS
350
27B
  3
ACAD_LAYOUT
350
1E
  3
ACAD_MATERIAL
350
263
  3
ACAD_MLEADERSTYLE
350
336
  3
ACAD_MLINESTYLE
350
1B
  3
ACAD_PLOTSETTINGS
350
22
  3
ACAD_PLOTSTYLENAME
350
1F
  3
ACAD_SCALELIST
350
241
  3
ACAD_SECTIONVIEWSTYLE
350
BC0
  3
ACAD_TABLESTYLE
350
278
  3
ACAD_VISUALSTYLE
350
267
  3
ACDB_RECOMPOSE_DATA
350
181BD
  3
AcDbVariableDictionary
350
330
  3
APPDATA
350
27A
  3
CENTERLINE
350
366B
  3
DimOffsetDictionary
350
E38
  0
SUN
  5
904
330
15
100
AcDbSun
 90
        1
290
     0
 63
     7
421
 16777215
 40
1.0
291
     1
 91
  2455826
 92
 54000000
292
     0
 70
     2
 71
   256
280
     1
  0
DICTIONARY
  5
2E1
330
2
100
AcDbDictionary
280
     1
281
     1
  3
ACAD_LAYERSTATES
360
2E2
  3
ACLYDICTIONARY
360
DDE
  0
DICTIONARY
  5
17C57
330
17C56
100
AcDbDictionary
280
     1
281
     1
  3
ADSK_XREC_LAYER_RECONCILED
360
17C58
  0
DICTIONARY
  5
17C5C
330
17C5B
100
AcDbDictionary
280
     1
281
     1
  3
ADSK_XREC_LAYER_RECONCILED
360
17C5D
  0
DICTIONARY
  5
17C5F
330
17C5E
100
AcDbDictionary
280
     1
281
     1
  3
ADSK_XREC_LAYER_RECONCILED
360
17C60
  0
DICTIONARY
  5
17C62
330
17C61
100
AcDbDictionary
280
     1
281
     1
  3
ADSK_XREC_LAYER_RECONCILED
360
17C63
  0
DICTIONARY
  5
1733E
330
A
100
AcDbDictionary
280
     1
281
     1
  3
ACAD_SORTENTS
360
1733F
  0
DICTIONARY
  5
36AE
330
36AC
100
AcDbDictionary
280
     1
281
     1
  3
ACAD_FIELD
360
181B7
  0
DICTIONARY
  5
674
102
{ACAD_REACTORS
330
19
102
}
330
19
100
AcDbDictionary
281
     1
  0
DICTIONARY
  5
BBF
102
{ACAD_REACTORS
330
19
102
}
330
19
100
AcDbDictionary
281
     1
  0
FIELDLIST
  5
36B0
102
{ACAD_REACTORS
330
19
102
}
330
19
100
AcDbIdSet
 90
        2
330
36B1
330
36AD
100
AcDbFieldList
  0
DICTIONARY
  5
1A
102
{ACAD_REACTORS
330
19
102
}
330
19
100
AcDbDictionary
281
     1
  3
*A1
350
1730A
  0
RASTERVARIABLES
  5
27B
102
{ACAD_REACTORS
330
19
102
}
330
19
100
AcDbRasterVariables
 90
        0
 70
     1
 71
     1
 72
     1
  0
DICTIONARY
  5
1E
102
{ACAD_REACTORS
330
19
102
}
330
19
100
AcDbDictionary
281
     1
  3
Layout1
350
21
  3
Model
350
20
  0
DICTIONARY
  5
263
102
{ACAD_REACTORS
330
19
102
}
330
19
100
AcDbDictionary
281
     1
  3
ByBlock
350
265
  3
ByLayer
350
264
  3
Global
350
266
  0
DICTIONARY
  5
336
102
{ACAD_REACTORS
330
19
102
}
330
19
100
AcDbDictionary
281
     1
  3
Standard
350
D59
  0
DICTIONARY
  5
1B
102
{ACAD_REACTORS
330
19
102
}
330
19
100
AcDbDictionary
281
     1
  3
Standard
350
1C
  0
DICTIONARY
  5
22
102
{ACAD_REACTORS
330
19
102
}
330
19
100
AcDbDictionary
281
     1
  0
ACDBDICTIONARYWDFLT
  5
1F
102
{ACAD_REACTORS
330
19
102
}
330
19
100
AcDbDictionary
281
     1
  3
Normal
350
1D
100
AcDbDictionaryWithDefault
340
1D
  0
DICTIONARY
  5
241
102
{ACAD_REACTORS
330
19
102
}
330
19
100
AcDbDictionary
281
     1
  3
A0
350
242
  3
A1
350
243
  3
A2
350
244
  3
A3
350
245
  3
A4
350
246
  3
A5
350
247
  3
A6
350
248
  3
A7
350
249
  3
A8
350
24A
  3
A9
350
24B
  3
B0
350
24C
  3
B1
350
24D
  3
B2
350
24E
  3
B3
350
24F
  3
B4
350
250
  3
B5
350
251
  3
B6
350
252
  3
B7
350
253
  3
B8
350
254
  3
B9
350
255
  3
C0
350
256
  3
C1
350
257
  3
C2
350
258
  3
C3
350
259
  3
C4
350
25A
  3
C5
350
25B
  3
C6
350
25C
  3
C7
350
25D
  3
C8
350
25E
  3
C9
350
25F
  3
D0
350
260
  3
D1
350
261
  3
D2
350
262
  0
DICTIONARY
  5
BC0
102
{ACAD_REACTORS
330
19
102
}
330
19
100
AcDbDictionary
281
     1
  0
DICTIONARY
  5
278
102
{ACAD_REACTORS
330
19
102
}
330
19
100
AcDbDictionary
281
     1
  3
Standard
350
279
  0
DICTIONARY
  5
267
102
{ACAD_REACTORS
330
19
102
}
330
19
100
AcDbDictionary
281
     1
  3
*A1
350
3666
  3
2dWireframe
350
26C
  3
3D Hidden
350
26E
  3
3dWireframe
350
26D
  3
Basic
350
26F
  3
Brighten
350
273
  3
ColorChange
350
277
  3
Conceptual
350
271
  3
Dim
350
272
  3
EdgeColorOff
350
8FE
  3
Facepattern
350
276
  3
Flat
350
268
  3
FlatWithEdges
350
269
  3
Gouraud
350
26A
  3
GouraudWithEdges
350
26B
  3
Hidden
350
8FB
  3
JitterOff
350
8FC
  3
Linepattern
350
275
  3
OverhangOff
350
8FD
  3
Realistic
350
270
  3
Shaded
350
903
  3
Shaded with edges
350
902
  3
Shades of Gray
350
8FF
  3
Sketchy
350
900
  3
Thicken
350
274
  3
Wireframe
350
8FA
  3
X-Ray
350
901
  0
XRECORD
  5
181BD
102
{ACAD_REACTORS
330
19
102
}
330
19
100
AcDbXrecord
280
     1
 90
        1
330
279
  0
DICTIONARY
  5
330
102
{ACAD_REACTORS
330
19
102
}
330
19
100
AcDbDictionary
281
     1
  3
CANNOSCALE
350
331
  3
CMLEADERSTYLE
350
D5E
  3
CTABLESTYLE
350
335
  3
HPTRANSPARENCY
350
D52
  3
XCLIPFRAME
350
896
  0
DICTIONARY
  5
27A
102
{ACAD_REACTORS
330
19
102
}
330
19
100
AcDbDictionary
281
     1
  0
DICTIONARY
  5
366B
102
{ACAD_REACTORS
330
19
102
}
330
19
100
AcDbDictionary
281
     1
  3
CLEXTENSION
350
36AB
  0
DICTIONARY
  5
E38
102
{ACAD_REACTORS
330
19
102
}
330
19
100
AcDbDictionary
281
     1
  3
DIMRAILANGLE
350
36A9
  3
DIMRAILFIRSTOFFSET
350
36A7
  3
DIMRAILOFFSET
350
36A8
  3
DIMRAILSENABLED
350
36AA
  0
DICTIONARY
  5
2E2
102
{ACAD_REACTORS
330
2E1
102
}
330
2E1
100
AcDbDictionary
281
     1
  0
DICTIONARY
  5
DDE
102
{ACAD_REACTORS
330
2E1
102
}
330
2E1
100
AcDbDictionary
281
     1
1001
ACAD
1000
<All
  0
XRECORD
  5
17C58
102
{ACAD_REACTORS
330
17C57
102
}
330
17C57
100
AcDbXrecord
280
     1
290
     1
  0
XRECORD
  5
17C5D
102
{ACAD_REACTORS
330
17C5C
102
}
330
17C5C
100
AcDbXrecord
280
     1
290
     1
  0
XRECORD
  5
17C60
102
{ACAD_REACTORS
330
17C5F
102
}
330
17C5F
100
AcDbXrecord
280
     1
290
     1
  0
XRECORD
  5
17C63
102
{ACAD_REACTORS
330
17C62
102
}
330
17C62
100
AcDbXrecord
280
     1
290
     1
  0
SORTENTSTABLE
  5
1733F
102
{ACAD_REACTORS
330
1733E
102
}
330
1733E
100
AcDbSortentsTable
330
A
331
0
  5
172B6
331
172F9
  5
172B7
331
172FA
  5
172F8
331
17305
  5
172F9
331
17306
  5
172FA
331
17307
  5
17305
331
17308
  5
17306
331
17309
  5
17307
  0
DICTIONARY
  5
181B7
102
{ACAD_REACTORS
330
36AE
102
}
330
36AE
100
AcDbDictionary
280
     1
281
     1
  3
TEXT
360
36AD
  0
GROUP
  5
1730A
102
{ACAD_REACTORS
330
1A
102
}
330
1A
100
AcDbGroup
300

 70
     1
 71
     1
340
172F9
340
172FA
340
17305
340
17306
340
17307
340
17308
340
17309
  0
LAYOUT
  5
21
102
{ACAD_REACTORS
330
1E
102
}
330
1E
100
AcDbPlotSettings
  1

  2
none_device
  4
ISO_A3_(420.00_x_297.00_MM)
  6

 40
7.5
 41
20.0
 42
7.5
 43
20.0
 44
420.0
 45
297.0
 46
0.0
 47
0.0
 48
0.0
 49
0.0
140
0.0
141
0.0
142
1.0
143
1.0
 70
     0
 72
     1
 73
     0
 74
     0
  7

 75
     0
 76
     0
 77
     2
 78
   300
147
1.0
148
0.0
149
0.0
100
AcDbLayout
  1
Layout1
 70
     0
 71
     0
 10
-7.5
 20
-20.0
 11
412.5
 21
277.0
 12
0.0
 22
0.0
 32
0.0
 14
0.0
 24
0.0
 34
0.0
 15
0.0
 25
0.0
 35
0.0
146
0.0
 13
0.0
 23
0.0
 33
0.0
 16
0.0
 26
0.0
 36
0.0
 17
0.0
 27
0.0
 37
0.0
 76
     0
330
B
331
349
  0
LAYOUT
  5
20
102
{ACAD_REACTORS
330
1E
102
}
330
1E
100
AcDbPlotSettings
  1

  2
none_device
  4
ISO_A3_(420.00_x_297.00_MM)
  6

 40
7.5
 41
20.0
 42
7.5
 43
20.0
 44
420.0
 45
297.0
 46
0.0
 47
0.0
 48
0.0
 49
0.0
140
0.0
141
0.0
142
1.0
143
1.0
 70
  1024
 72
     1
 73
     0
 74
     0
  7

 75
     0
 76
     0
 77
     2
 78
   300
147
1.0
148
0.0
149
0.0
100
AcDbLayout
  1
Model
 70
     0
 71
     1
 10
0.0
 20
0.0
 11
630.0
 21
891.0
 12
0.0
 22
0.0
 32
0.0
 14
0.0
 24
0.0
 34
-0.0000000000000071
 15
630.0
 25
891.0
 35
0.0000000000000071
146
0.0
 13
0.0
 23
0.0
 33
0.0
 16
0.0
 26
0.0
 36
0.0
 17
0.0
 27
0.0
 37
0.0
 76
     0
330
A
331
15
  0
MATERIAL
  5
265
102
{ACAD_REACTORS
330
263
102
}
330
263
100
AcDbMaterial
  1
ByBlock
 72
     1
 94
      127
  0
MATERIAL
  5
264
102
{ACAD_REACTORS
330
263
102
}
330
263
100
AcDbMaterial
  1
ByLayer
 72
     1
 94
      127
  0
MATERIAL
  5
266
102
{ACAD_REACTORS
330
263
102
}
330
263
100
AcDbMaterial
  1
Global
 72
     1
 94
      127
  0
MLEADERSTYLE
  5
D59
102
{ACAD_REACTORS
330
336
102
}
330
336
100
AcDbMLeaderStyle
170
     2
171
     1
172
     0
 90
        2
 40
0.0
 41
0.0
173
     1
 91
-1056964608
340
11
 92
       -2
290
     1
 42
2.0
291
     1
 43
8.0
  3
Standard
341
0
 44
4.0
300

342
17
174
     1
178
     6
175
     1
176
     0
 93
-1056964608
 45
4.0
292
     0
297
     0
 46
4.0
343
0
 94
-1056964608
 47
1.0
 49
1.0
140
1.0
293
     1
141
0.0
294
     1
177
     0
142
1.0
295
     0
296
     0
143
3.75
1001
ACAD_MLEADERVER
1070
     2
  0
MLINESTYLE
  5
1C
102
{ACAD_REACTORS
330
1B
102
}
330
1B
100
AcDbMlineStyle
  2
Standard
 70
     0
  3

 62
     0
 51
90.0
 52
90.0
 71
     2
 49
0.5
 62
   256
  6
BYLAYER
 49
-0.5
 62
   256
  6
BYLAYER
  0
ACDBPLACEHOLDER
  5
1D
102
{ACAD_REACTORS
330
1F
102
}
330
1F
  0
SCALE
  5
242
102
{ACAD_REACTORS
330
241
102
}
330
241
100
AcDbScale
 70
     0
300
1:1
140
1.0
141
1.0
290
     1
  0
SCALE
  5
243
102
{ACAD_REACTORS
330
241
102
}
330
241
100
AcDbScale
 70
     0
300
1:2
140
1.0
141
2.0
290
     0
  0
SCALE
  5
244
102
{ACAD_REACTORS
330
241
102
}
330
241
100
AcDbScale
 70
     0
300
1:4
140
1.0
141
4.0
290
     0
  0
SCALE
  5
245
102
{ACAD_REACTORS
330
241
102
}
330
241
100
AcDbScale
 70
     0
300
1:5
140
1.0
141
5.0
290
     0
  0
SCALE
  5
246
102
{ACAD_REACTORS
330
241
102
}
330
241
100
AcDbScale
 70
     0
300
1:8
140
1.0
141
8.0
290
     0
  0
SCALE
  5
247
102
{ACAD_REACTORS
330
241
102
}
330
241
100
AcDbScale
 70
     0
300
1:10
140
1.0
141
10.0
290
     0
  0
SCALE
  5
248
102
{ACAD_REACTORS
330
241
102
}
330
241
100
AcDbScale
 70
     0
300
1:16
140
1.0
141
16.0
290
     0
  0
SCALE
  5
249
102
{ACAD_REACTORS
330
241
102
}
330
241
100
AcDbScale
 70
     0
300
1:20
140
1.0
141
20.0
290
     0
  0
SCALE
  5
24A
102
{ACAD_REACTORS
330
241
102
}
330
241
100
AcDbScale
 70
     0
300
1:30
140
1.0
141
30.0
290
     0
  0
SCALE
  5
24B
102
{ACAD_REACTORS
330
241
102
}
330
241
100
AcDbScale
 70
     0
300
1:40
140
1.0
141
40.0
290
     0
  0
SCALE
  5
24C
102
{ACAD_REACTORS
330
241
102
}
330
241
100
AcDbScale
 70
     0
300
1:50
140
1.0
141
50.0
290
     0
  0
SCALE
  5
24D
102
{ACAD_REACTORS
330
241
102
}
330
241
100
AcDbScale
 70
     0
300
1:100
140
1.0
141
100.0
290
     0
  0
SCALE
  5
24E
102
{ACAD_REACTORS
330
241
102
}
330
241
100
AcDbScale
 70
     0
300
2:1
140
2.0
141
1.0
290
     0
  0
SCALE
  5
24F
102
{ACAD_REACTORS
330
241
102
}
330
241
100
AcDbScale
 70
     0
300
4:1
140
4.0
141
1.0
290
     0
  0
SCALE
  5
250
102
{ACAD_REACTORS
330
241
102
}
330
241
100
AcDbScale
 70
     0
300
8:1
140
8.0
141
1.0
290
     0
  0
SCALE
  5
251
102
{ACAD_REACTORS
330
241
102
}
330
241
100
AcDbScale
 70
     0
300
10:1
140
10.0
141
1.0
290
     0
  0
SCALE
  5
252
102
{ACAD_REACTORS
330
241
102
}
330
241
100
AcDbScale
 70
     0
300
100:1
140
100.0
141
1.0
290
     0
  0
SCALE
  5
253
102
{ACAD_REACTORS
330
241
102
}
330
241
100
AcDbScale
 70
     0
300
1/128" = 1'-0"
140
0.0078125
141
12.0
290
     0
  0
SCALE
  5
254
102
{ACAD_REACTORS
330
241
102
}
330
241
100
AcDbScale
 70
     0
300
1/64" = 1'-0"
140
0.015625
141
12.0
290
     0
  0
SCALE
  5
255
102
{ACAD_REACTORS
330
241
102
}
330
241
100
AcDbScale
 70
     0
300
1/32" = 1'-0"
140
0.03125
141
12.0
290
     0
  0
SCALE
  5
256
102
{ACAD_REACTORS
330
241
102
}
330
241
100
AcDbScale
 70
     0
300
1/16" = 1'-0"
140
0.0625
141
12.0
290
     0
  0
SCALE
  5
257
102
{ACAD_REACTORS
330
241
102
}
330
241
100
AcDbScale
 70
     0
300
3/32" = 1'-0"
140
0.09375
141
12.0
290
     0
  0
SCALE
  5
258
102
{ACAD_REACTORS
330
241
102
}
330
241
100
AcDbScale
 70
     0
300
1/8" = 1'-0"
140
0.125
141
12.0
290
     0
  0
SCALE
  5
259
102
{ACAD_REACTORS
330
241
102
}
330
241
100
AcDbScale
 70
     0
300
3/16" = 1'-0"
140
0.1875
141
12.0
290
     0
  0
SCALE
  5
25A
102
{ACAD_REACTORS
330
241
102
}
330
241
100
AcDbScale
 70
     0
300
1/4" = 1'-0"
140
0.25
141
12.0
290
     0
  0
SCALE
  5
25B
102
{ACAD_REACTORS
330
241
102
}
330
241
100
AcDbScale
 70
     0
300
3/8" = 1'-0"
140
0.375
141
12.0
290
     0
  0
SCALE
  5
25C
102
{ACAD_REACTORS
330
241
102
}
330
241
100
AcDbScale
 70
     0
300
1/2" = 1'-0"
140
0.5
141
12.0
290
     0
  0
SCALE
  5
25D
102
{ACAD_REACTORS
330
241
102
}
330
241
100
AcDbScale
 70
     0
300
3/4" = 1'-0"
140
0.75
141
12.0
290
     0
  0
SCALE
  5
25E
102
{ACAD_REACTORS
330
241
102
}
330
241
100
AcDbScale
 70
     0
300
1" = 1'-0"
140
1.0
141
12.0
290
     0
  0
SCALE
  5
25F
102
{ACAD_REACTORS
330
241
102
}
330
241
100
AcDbScale
 70
     0
300
1-1/2" = 1'-0"
140
1.5
141
12.0
290
     0
  0
SCALE
  5
260
102
{ACAD_REACTORS
330
241
102
}
330
241
100
AcDbScale
 70
     0
300
3" = 1'-0"
140
3.0
141
12.0
290
     0
  0
SCALE
  5
261
102
{ACAD_REACTORS
330
241
102
}
330
241
100
AcDbScale
 70
     0
300
6" = 1'-0"
140
6.0
141
12.0
290
     0
  0
SCALE
  5
262
102
{ACAD_REACTORS
330
241
102
}
330
241
100
AcDbScale
 70
     0
300
1'-0" = 1'-0"
140
12.0
141
12.0
290
     0
  0
TABLESTYLE
  5
279
102
{ACAD_REACTORS
330
278
102
}
102
{ACAD_XDICTIONARY
360
181BB
102
}
330
278
100
AcDbTableStyle
  3
Standard
 70
     0
 71
     0
 40
0.06
 41
0.06
280
     0
281
     0
  7
Standard
140
4.5
170
     2
 62
     0
 63
   257
283
     0
 90
        4
 91
        0
  1

274
    -2
284
     1
 64
     0
275
    -2
285
     1
 65
     0
276
    -2
286
     1
 66
     0
277
    -2
287
     1
 67
     0
278
    -2
288
     1
 68
     0
279
    -2
289
     1
 69
     0
  7
Standard
140
6.0
170
     5
 62
     0
 63
   257
283
     0
 90
        4
 91
        0
  1

274
    -2
284
     1
 64
     0
275
    -2
285
     1
 65
     0
276
    -2
286
     1
 66
     0
277
    -2
287
     1
 67
     0
278
    -2
288
     1
 68
     0
279
    -2
289
     1
 69
     0
  7
Standard
140
4.5
170
     5
 62
     0
 63
   257
283
     0
 90
        4
 91
        0
  1

274
    -2
284
     1
 64
     0
275
    -2
285
     1
 65
     0
276
    -2
286
     1
 66
     0
277
    -2
287
     1
 67
     0
278
    -2
288
     1
 68
     0
279
    -2
289
     1
 69
     0
  0
VISUALSTYLE
  5
3666
102
{ACAD_REACTORS
330
267
102
}
330
267
100
AcDbVisualStyle
  2
*
 70
    10
 71
     0
 72
     2
 73
     0
 90
        0
 40
-0.6
 41
-30.0
 62
     5
 63
     7
421
 16777215
 74
     1
 91
        4
 64
     7
 65
   257
 75
     1
175
     1
 42
1.0
 92
        8
 66
     7
 43
1.0
 76
     1
 77
     6
 78
     2
 67
     7
 79
     5
170
     0
171
     0
290
     0
174
     0
 93
        1
 44
0.0
173
     0
291
     0
 45
0.0
  0
VISUALSTYLE
  5
26C
102
{ACAD_REACTORS
330
267
102
}
330
267
100
AcDbVisualStyle
  2
2dWireframe
 70
     4
 71
     0
 72
     2
 73
     0
 90
        0
 40
-0.6
 41
-30.0
 62
     5
 63
     7
421
 16777215
 74
     1
 91
        4
 64
     7
 65
   257
 75
     1
175
     1
 42
1.0
 92
        0
 66
   257
 43
1.0
 76
     1
 77
     6
 78
     2
 67
     7
 79
     5
170
     0
171
     0
290
     0
174
     0
 93
        1
 44
0.0
173
     0
291
     0
 45
0.0
  0
VISUALSTYLE
  5
26E
102
{ACAD_REACTORS
330
267
102
}
330
267
100
AcDbVisualStyle
  2
3D Hidden
 70
     6
 71
     1
 72
     2
 73
     2
 90
        0
 40
-0.6
 41
-30.0
 62
     5
 63
     7
421
 16777215
 74
     2
 91
        2
 64
     7
 65
   257
 75
     2
175
     1
 42
40.0
 92
        0
 66
   257
 43
1.0
 76
     1
 77
     6
 78
     2
 67
     7
 79
     3
170
     0
171
     0
290
     0
174
     0
 93
        1
 44
0.0
173
     0
291
     0
 45
0.0
  0
VISUALSTYLE
  5
26D
102
{ACAD_REACTORS
330
267
102
}
330
267
100
AcDbVisualStyle
  2
3dWireframe
 70
     5
 71
     0
 72
     2
 73
     0
 90
        0
 40
-0.6
 41
-30.0
 62
     5
 63
     7
421
 16777215
 74
     1
 91
        4
 64
     7
 65
   257
 75
     1
175
     1
 42
1.0
 92
        0
 66
   257
 43
1.0
 76
     1
 77
     6
 78
     2
 67
     7
 79
     5
170
     0
171
     0
290
     0
174
     0
 93
        1
 44
0.0
173
     0
291
     0
 45
0.0
  0
VISUALSTYLE
  5
26F
102
{ACAD_REACTORS
330
267
102
}
330
267
100
AcDbVisualStyle
  2
Basic
 70
     7
 71
     1
 72
     0
 73
     1
 90
        0
 40
-0.6
 41
-30.0
 62
     5
 63
     7
421
 16777215
 74
     0
 91
        4
 64
     7
 65
   257
 75
     1
175
     1
 42
1.0
 92
        8
 66
     7
 43
1.0
 76
     1
 77
     6
 78
     2
 67
     7
 79
     5
170
     0
171
     0
290
     0
174
     0
 93
        1
 44
0.0
173
     0
291
     1
 45
0.0
  0
VISUALSTYLE
  5
273
102
{ACAD_REACTORS
330
267
102
}
330
267
100
AcDbVisualStyle
  2
Brighten
 70
    12
 71
     2
 72
     2
 73
     0
 90
        0
 40
-0.6
 41
-30.0
 62
     5
 63
     7
421
 16777215
 74
     1
 91
        4
 64
     7
 65
   257
 75
     1
175
     1
 42
1.0
 92
        8
 66
     7
 43
1.0
 76
     1
 77
     6
 78
     2
 67
     7
 79
     5
170
     0
171
     0
290
     0
174
     0
 93
        1
 44
50.0
173
     0
291
     1
 45
0.0
  0
VISUALSTYLE
  5
277
102
{ACAD_REACTORS
330
267
102
}
330
267
100
AcDbVisualStyle
  2
ColorChange
 70
    16
 71
     2
 72
     2
 73
     3
 90
        0
 40
-0.6
 41
-30.0
 62
     5
 63
     8
421
  8421504
 74
     1
 91
        4
 64
     7
 65
   257
 75
     1
175
     1
 42
1.0
 92
        8
 66
     8
424
  8421504
 43
1.0
 76
     1
 77
     6
 78
     2
 67
     7
 79
     5
170
     0
171
     0
290
     0
174
     0
 93
        1
 44
0.0
173
     0
291
     1
 45
0.0
  0
VISUALSTYLE
  5
271
102
{ACAD_REACTORS
330
267
102
}
330
267
100
AcDbVisualStyle
  2
Conceptual
 70
     9
 71
     3
 72
     2
 73
     0
 90
        0
 40
-0.6
 41
-30.0
 62
     5
 63
     7
421
 16777215
 74
     2
 91
        2
 64
     7
 65
   257
 75
     1
175
     1
 42
40.0
 92
        8
 66
     7
 43
1.0
 76
     1
 77
     6
 78
     2
 67
     7
 79
     3
170
     0
171
     0
290
     0
174
     0
 93
        1
 44
0.0
173
     0
291
     0
 45
0.0
  0
VISUALSTYLE
  5
272
102
{ACAD_REACTORS
330
267
102
}
330
267
100
AcDbVisualStyle
  2
Dim
 70
    11
 71
     2
 72
     2
 73
     0
 90
        0
 40
-0.6
 41
-30.0
 62
     5
 63
     7
421
 16777215
 74
     1
 91
        4
 64
     7
 65
   257
 75
     1
175
     1
 42
1.0
 92
        8
 66
     7
 43
1.0
 76
     1
 77
     6
 78
     2
 67
     7
 79
     5
170
     0
171
     0
290
     0
174
     0
 93
        1
 44
-50.0
173
     0
291
     1
 45
0.0
  0
VISUALSTYLE
  5
8FE
102
{ACAD_REACTORS
330
267
102
}
330
267
100
AcDbVisualStyle
  2
EdgeColorOff
 70
    22
 71
     2
 72
     2
 73
     0
 90
        0
 40
0.6
 41
30.0
 62
     5
 63
     7
421
 16777215
 74
     1
 91
        4
 64
     7
 65
   257
 75
     1
175
     1
 42
1.0
 92
        8
 66
     7
 43
1.0
 76
     1
 77
     6
 78
     2
 67
     7
 79
     5
170
     0
171
     0
290
     0
174
     0
 93
        1
 44
0.0
173
     0
291
     1
 45
0.0
  0
VISUALSTYLE
  5
276
102
{ACAD_REACTORS
330
267
102
}
330
267
100
AcDbVisualStyle
  2
Facepattern
 70
    15
 71
     2
 72
     2
 73
     0
 90
        0
 40
-0.6
 41
-30.0
 62
     5
 63
     7
421
 16777215
 74
     1
 91
        4
 64
     7
 65
   257
 75
     1
175
     1
 42
1.0
 92
        8
 66
     7
 43
1.0
 76
     1
 77
     6
 78
     2
 67
     7
 79
     5
170
     0
171
     0
290
     0
174
     0
 93
        1
 44
0.0
173
     0
291
     1
 45
0.0
  0
VISUALSTYLE
  5
268
102
{ACAD_REACTORS
330
267
102
}
330
267
100
AcDbVisualStyle
  2
Flat
 70
     0
 71
     2
 72
     1
 73
     1
 90
        2
 40
-0.6
 41
30.0
 62
     5
 63
     7
421
 16777215
 74
     0
 91
        4
 64
     7
 65
   257
 75
     1
175
     1
 42
1.0
 92
        8
 66
     7
 43
1.0
 76
     1
 77
     6
 78
     2
 67
     7
 79
     5
170
     0
171
     0
290
     0
174
     0
 93
       13
 44
0.0
173
     0
291
     1
 45
0.0
  0
VISUALSTYLE
  5
269
102
{ACAD_REACTORS
330
267
102
}
330
267
100
AcDbVisualStyle
  2
FlatWithEdges
 70
     1
 71
     2
 72
     1
 73
     1
 90
        2
 40
-0.6
 41
30.0
 62
     5
 63
     7
421
 16777215
 74
     1
 91
        4
 64
     7
 65
   257
 75
     1
175
     1
 42
1.0
 92
        0
 66
   257
 43
1.0
 76
     1
 77
     6
 78
     2
 67
     7
 79
     5
170
     0
171
     0
290
     0
174
     0
 93
       13
 44
0.0
173
     0
291
     1
 45
0.0
  0
VISUALSTYLE
  5
26A
102
{ACAD_REACTORS
330
267
102
}
330
267
100
AcDbVisualStyle
  2
Gouraud
 70
     2
 71
     2
 72
     2
 73
     1
 90
        2
 40
-0.6
 41
30.0
 62
     5
 63
     7
421
 16777215
 74
     0
 91
        4
 64
     7
 65
   257
 75
     1
175
     1
 42
1.0
 92
        0
 66
     7
 43
1.0
 76
     1
 77
     6
 78
     2
 67
     7
 79
     5
170
     0
171
     0
290
     0
174
     0
 93
       13
 44
0.0
173
     0
291
     1
 45
0.0
  0
VISUALSTYLE
  5
26B
102
{ACAD_REACTORS
330
267
102
}
330
267
100
AcDbVisualStyle
  2
GouraudWithEdges
 70
     3
 71
     2
 72
     2
 73
     1
 90
        2
 40
-0.6
 41
30.0
 62
     5
 63
     7
421
 16777215
 74
     1
 91
        4
 64
     7
 65
   257
 75
     1
175
     1
 42
1.0
 92
        0
 66
   257
 43
1.0
 76
     1
 77
     6
 78
     2
 67
     7
 79
     5
170
     0
171
     0
290
     0
174
     0
 93
       13
 44
0.0
173
     0
291
     1
 45
0.0
  0
VISUALSTYLE
  5
8FB
102
{ACAD_REACTORS
330
267
102
}
330
267
100
AcDbVisualStyle
  2
Hidden
 70
     6
 71
     1
 72
     2
 73
     2
 90
        0
 40
0.6
 41
30.0
 62
     5
 63
     7
421
 16777215
 74
     2
 91
        2
 64
     7
 65
   257
 75
     2
175
     1
 42
40.0
 92
        0
 66
   257
 43
1.0
 76
     1
 77
     6
 78
     2
 67
     7
 79
     3
170
     0
171
     0
290
     0
174
     0
 93
        1
 44
0.0
173
     0
291
     0
 45
0.0
  0
VISUALSTYLE
  5
8FC
102
{ACAD_REACTORS
330
267
102
}
330
267
100
AcDbVisualStyle
  2
JitterOff
 70
    20
 71
     2
 72
     2
 73
     0
 90
        0
 40
0.6
 41
30.0
 62
     5
 63
     7
421
 16777215
 74
     1
 91
        4
 64
     7
 65
   257
 75
     1
175
     1
 42
1.0
 92
       10
 66
     7
 43
1.0
 76
     1
 77
     6
 78
     2
 67
     7
 79
     5
170
     0
171
     0
290
     0
174
     0
 93
        1
 44
0.0
173
     0
291
     1
 45
0.0
  0
VISUALSTYLE
  5
275
102
{ACAD_REACTORS
330
267
102
}
330
267
100
AcDbVisualStyle
  2
Linepattern
 70
    14
 71
     2
 72
     2
 73
     0
 90
        0
 40
-0.6
 41
-30.0
 62
     5
 63
     7
421
 16777215
 74
     1
 91
        4
 64
     7
 65
   257
 75
     7
175
     7
 42
1.0
 92
        8
 66
     7
 43
1.0
 76
     1
 77
     6
 78
     2
 67
     7
 79
     5
170
     0
171
     0
290
     0
174
     0
 93
        1
 44
0.0
173
     0
291
     1
 45
0.0
  0
VISUALSTYLE
  5
8FD
102
{ACAD_REACTORS
330
267
102
}
330
267
100
AcDbVisualStyle
  2
OverhangOff
 70
    21
 71
     2
 72
     2
 73
     0
 90
        0
 40
0.6
 41
30.0
 62
     5
 63
     7
421
 16777215
 74
     1
 91
        4
 64
     7
 65
   257
 75
     1
175
     1
 42
1.0
 92
        9
 66
     7
 43
1.0
 76
     1
 77
     6
 78
     2
 67
     7
 79
     5
170
     0
171
     0
290
     0
174
     0
 93
        1
 44
0.0
173
     0
291
     1
 45
0.0
  0
VISUALSTYLE
  5
270
102
{ACAD_REACTORS
330
267
102
}
330
267
100
AcDbVisualStyle
  2
Realistic
 70
     8
 71
     2
 72
     2
 73
     0
 90
        0
 40
-0.6
 41
-30.0
 62
     5
 63
     7
421
 16777215
 74
     1
 91
        0
 64
     7
 65
   257
 75
     1
175
     1
 42
1.0
 92
        8
 66
     8
424
  7895160
 43
1.0
 76
     1
 77
     6
 78
     2
 67
     7
 79
     5
170
     0
171
     0
290
     0
174
     0
 93
       13
 44
0.0
173
     0
291
     0
 45
0.0
  0
VISUALSTYLE
  5
903
102
{ACAD_REACTORS
330
267
102
}
330
267
100
AcDbVisualStyle
  2
Shaded
 70
    27
 71
     2
 72
     2
 73
     1
 90
        2
 40
0.6
 41
30.0
 62
     5
 63
     7
421
 16777215
 74
     0
 91
        4
 64
     7
 65
   257
 75
     1
175
     1
 42
1.0
 92
        8
 66
   257
 43
1.0
 76
     1
 77
     6
 78
     2
 67
     8
425
  7895160
 79
     3
170
     0
171
     0
290
     0
174
     0
 93
        5
 44
0.0
173
     0
291
     0
 45
0.0
  0
VISUALSTYLE
  5
902
102
{ACAD_REACTORS
330
267
102
}
330
267
100
AcDbVisualStyle
  2
Shaded with edges
 70
    26
 71
     2
 72
     2
 73
     1
 90
        2
 40
0.6
 41
30.0
 62
     5
 63
     7
421
 16777215
 74
     1
 91
       10
 64
     7
 65
   257
 75
     2
175
     1
 42
1.0
 92
        8
 66
   257
 43
1.0
 76
     1
 77
     6
 78
     2
 67
     7
 79
     3
170
     0
171
     0
290
     0
174
     0
 93
        5
 44
0.0
173
     0
291
     0
 45
0.0
  0
VISUALSTYLE
  5
8FF
102
{ACAD_REACTORS
330
267
102
}
330
267
100
AcDbVisualStyle
  2
Shades of Gray
 70
    23
 71
     2
 72
     2
 73
     3
 90
        0
 40
0.6
 41
30.0
 62
     5
 63
     7
421
 16777215
 74
     2
 91
        2
 64
     7
 65
     7
 75
     1
175
     1
 42
40.0
 92
        8
 66
     7
 43
1.0
 76
     1
 77
     6
 78
     2
 67
     7
 79
     3
170
     0
171
     0
290
     0
174
     0
 93
        1
 44
0.0
173
     0
291
     0
 45
0.0
  0
VISUALSTYLE
  5
900
102
{ACAD_REACTORS
330
267
102
}
330
267
100
AcDbVisualStyle
  2
Sketchy
 70
    24
 71
     1
 72
     2
 73
     2
 90
        0
 40
0.6
 41
30.0
 62
     5
 63
     7
421
 16777215
 74
     2
 91
        2
 64
     7
 65
     7
 75
     1
175
     1
 42
40.0
 92
       11
 66
     7
 43
1.0
 76
     1
 77
     6
 78
     2
 67
     7
 79
     6
170
     0
171
     0
290
     0
174
     0
 93
        1
 44
0.0
173
     0
291
     0
 45
0.0
  0
VISUALSTYLE
  5
274
102
{ACAD_REACTORS
330
267
102
}
330
267
100
AcDbVisualStyle
  2
Thicken
 70
    13
 71
     2
 72
     2
 73
     0
 90
        0
 40
-0.6
 41
-30.0
 62
     5
 63
     7
421
 16777215
 74
     1
 91
        4
 64
     7
 65
   257
 75
     1
175
     1
 42
1.0
 92
       12
 66
     7
 43
1.0
 76
     1
 77
     6
 78
     2
 67
     7
 79
     5
170
     0
171
     0
290
     0
174
     0
 93
        1
 44
0.0
173
     0
291
     1
 45
0.0
  0
VISUALSTYLE
  5
8FA
102
{ACAD_REACTORS
330
267
102
}
330
267
100
AcDbVisualStyle
  2
Wireframe
 70
     5
 71
     0
 72
     2
 73
     0
 90
        0
 40
0.6
 41
30.0
 62
     5
 63
     7
421
 16777215
 74
     1
 91
        4
 64
     7
 65
   257
 75
     1
175
     1
 42
1.0
 92
        0
 66
   257
 43
1.0
 76
     1
 77
     6
 78
     2
 67
     7
 79
     3
170
     0
171
     0
290
     0
174
     0
 93
        1
 44
0.0
173
     0
291
     0
 45
0.0
  0
VISUALSTYLE
  5
901
102
{ACAD_REACTORS
330
267
102
}
330
267
100
AcDbVisualStyle
  2
X-Ray
 70
    25
 71
     2
 72
     2
 73
     1
 90
        1
 40
0.5
 41
30.0
 62
     5
 63
     7
421
 16777215
 74
     1
 91
        0
 64
     7
 65
   257
 75
     1
175
     1
 42
1.0
 92
        8
 66
     7
 43
1.0
 76
     1
 77
     6
 78
     2
 67
     7
 79
     3
170
     0
171
     0
290
     0
174
     0
 93
       13
 44
0.0
173
     0
291
     0
 45
0.0
  0
DICTIONARYVAR
  5
331
102
{ACAD_REACTORS
330
330
102
}
330
330
100
DictionaryVariables
280
     0
  1
1:1
  0
DICTIONARYVAR
  5
D5E
102
{ACAD_REACTORS
330
330
102
}
330
330
100
DictionaryVariables
280
     0
  1
Standard
  0
DICTIONARYVAR
  5
335
102
{ACAD_REACTORS
330
330
102
}
330
330
100
DictionaryVariables
280
     0
  1
Standard
  0
DICTIONARYVAR
  5
D52
102
{ACAD_REACTORS
330
330
102
}
330
330
100
DictionaryVariables
280
     0
  1
ByLayer
  0
DICTIONARYVAR
  5
896
102
{ACAD_REACTORS
330
330
102
}
330
330
100
DictionaryVariables
280
     0
  1
0
  0
DICTIONARYVAR
  5
36AB
102
{ACAD_REACTORS
330
366B
102
}
330
366B
100
DictionaryVariables
280
     0
  1
0.250000
  0
DICTIONARYVAR
  5
36A9
102
{ACAD_REACTORS
330
E38
102
}
330
E38
100
DictionaryVariables
280
     0
  1
0.261799
  0
DICTIONARYVAR
  5
36A7
102
{ACAD_REACTORS
330
E38
102
}
330
E38
100
DictionaryVariables
280
     0
  1
0.400000
  0
DICTIONARYVAR
  5
36A8
102
{ACAD_REACTORS
330
E38
102
}
330
E38
100
DictionaryVariables
280
     0
  1
0.250000
  0
DICTIONARYVAR
  5
36AA
102
{ACAD_REACTORS
330
E38
102
}
330
E38
100
DictionaryVariables
280
     0
  1
1
  0
FIELD
  5
36AD
102
{ACAD_REACTORS
330
18174
330
181B7
102
}
330
181B7
100
AcDbField
  1
_text
  2
{%<\_FldIdx 0>%N}
 90
        1
360
36B1
 97
        0
 91
       63
 92
        0
 94
       11
 95
        2
 96
        0
300

 93
        1
  6
ACFD_FIELDTEXT_CHECKSUM
 93
        2
 90
        2
140
4467.0
 94
        0
300

302

304
ACVALUE_END
  7
ACFD_FIELD_VALUE
 93
        6
 90
        4
  1
{20200314N}
 94
        0
300

302

304
ACVALUE_END
301
{20200314N}
 98
       11
  0
DICTIONARY
  5
181BB
330
279
100
AcDbDictionary
280
     1
281
     1
  3
ACAD_ROUNDTRIP_2008_TABLESTYLE_CELLSTYLEMAP
360
181BC
  0
FIELD
  5
36B1
330
36AD
100
AcDbField
  1
AcVar
  2
\AcVar Date \f "yyyyMMdd"
 90
        0
 97
        0
 91
       63
 92
        0
 94
        8
 95
       64
 96
        0
300
Variable not supported
 93
        1
  6
Variable
 93
        2
 90
        4
  1
Date
 94
        0
300

302

304
ACVALUE_END
  7
ACFD_FIELD_VALUE
 93
        6
 90
        8
 92
       16
310
E407030000000D0010002D002D000000
 94
        0
300
yyyyMMdd
302

304
ACVALUE_END
301
20200314
 98
        8
  0
CELLSTYLEMAP
  5
181BC
102
{ACAD_REACTORS
330
181BB
102
}
330
181BB
100
AcDbCellStyleMap
 90
        3
300
CELLSTYLE
  1
TABLEFORMAT_BEGIN
 90
        5
170
     1
 91
        0
 92
    32768
 62
   257
 93
        1
300
CONTENTFORMAT
  1
CONTENTFORMAT_BEGIN
 90
        0
 91
        0
 92
        4
 93
        0
300

 40
0.0
140
1.0
 94
        5
 62
     0
340
17
144
6.0
309
CONTENTFORMAT_END
171
     1
301
MARGIN
  1
CELLMARGIN_BEGIN
 40
0.06
 40
0.06
 40
0.06
 40
0.06
 40
0.18
 40
0.18
309
CELLMARGIN_END
 94
        6
 95
        1
302
GRIDFORMAT
  1
GRIDFORMAT_BEGIN
 90
        0
 91
        1
 62
     0
 92
       -2
340
0
 93
        0
 40
0.045
309
GRIDFORMAT_END
 95
        2
302
GRIDFORMAT
  1
GRIDFORMAT_BEGIN
 90
        0
 91
        1
 62
     0
 92
       -2
340
0
 93
        0
 40
0.045
309
GRIDFORMAT_END
 95
        4
302
GRIDFORMAT
  1
GRIDFORMAT_BEGIN
 90
        0
 91
        1
 62
     0
 92
       -2
340
0
 93
        0
 40
0.045
309
GRIDFORMAT_END
 95
        8
302
GRIDFORMAT
  1
GRIDFORMAT_BEGIN
 90
        0
 91
        1
 62
     0
 92
       -2
340
0
 93
        0
 40
0.045
309
GRIDFORMAT_END
 95
       16
302
GRIDFORMAT
  1
GRIDFORMAT_BEGIN
 90
        0
 91
        1
 62
     0
 92
       -2
340
0
 93
        0
 40
0.045
309
GRIDFORMAT_END
 95
       32
302
GRIDFORMAT
  1
GRIDFORMAT_BEGIN
 90
        0
 91
        1
 62
     0
 92
       -2
340
0
 93
        0
 40
0.045
309
GRIDFORMAT_END
309
TABLEFORMAT_END
  1
CELLSTYLE_BEGIN
 90
        1
 91
        1
300
_TITLE
309
CELLSTYLE_END
300
CELLSTYLE
  1
TABLEFORMAT_BEGIN
 90
        5
170
     1
 91
        0
 92
        0
 62
   257
 93
        1
300
CONTENTFORMAT
  1
CONTENTFORMAT_BEGIN
 90
        0
 91
        0
 92
        4
 93
        0
300

 40
0.0
140
1.0
 94
        5
 62
     0
340
17
144
4.5
309
CONTENTFORMAT_END
171
     1
301
MARGIN
  1
CELLMARGIN_BEGIN
 40
0.06
 40
0.06
 40
0.06
 40
0.06
 40
0.18
 40
0.18
309
CELLMARGIN_END
 94
        6
 95
        1
302
GRIDFORMAT
  1
GRIDFORMAT_BEGIN
 90
        0
 91
        1
 62
     0
 92
       -2
340
0
 93
        0
 40
0.045
309
GRIDFORMAT_END
 95
        2
302
GRIDFORMAT
  1
GRIDFORMAT_BEGIN
 90
        0
 91
        1
 62
     0
 92
       -2
340
0
 93
        0
 40
0.045
309
GRIDFORMAT_END
 95
        4
302
GRIDFORMAT
  1
GRIDFORMAT_BEGIN
 90
        0
 91
        1
 62
     0
 92
       -2
340
0
 93
        0
 40
0.045
309
GRIDFORMAT_END
 95
        8
302
GRIDFORMAT
  1
GRIDFORMAT_BEGIN
 90
        0
 91
        1
 62
     0
 92
       -2
340
0
 93
        0
 40
0.045
309
GRIDFORMAT_END
 95
       16
302
GRIDFORMAT
  1
GRIDFORMAT_BEGIN
 90
        0
 91
        1
 62
     0
 92
       -2
340
0
 93
        0
 40
0.045
309
GRIDFORMAT_END
 95
       32
302
GRIDFORMAT
  1
GRIDFORMAT_BEGIN
 90
        0
 91
        1
 62
     0
 92
       -2
340
0
 93
        0
 40
0.045
309
GRIDFORMAT_END
309
TABLEFORMAT_END
  1
CELLSTYLE_BEGIN
 90
        2
 91
        1
300
_HEADER
309
CELLSTYLE_END
300
CELLSTYLE
  1
TABLEFORMAT_BEGIN
 90
        5
170
     1
 91
        0
 92
        0
 62
   257
 93
        1
300
CONTENTFORMAT
  1
CONTENTFORMAT_BEGIN
 90
        0
 91
        0
 92
        4
 93
        0
300

 40
0.0
140
1.0
 94
        2
 62
     0
340
17
144
4.5
309
CONTENTFORMAT_END
171
     1
301
MARGIN
  1
CELLMARGIN_BEGIN
 40
0.06
 40
0.06
 40
0.06
 40
0.06
 40
0.18
 40
0.18
309
CELLMARGIN_END
 94
        6
 95
        1
302
GRIDFORMAT
  1
GRIDFORMAT_BEGIN
 90
        0
 91
        1
 62
     0
 92
       -2
340
0
 93
        0
 40
0.045
309
GRIDFORMAT_END
 95
        2
302
GRIDFORMAT
  1
GRIDFORMAT_BEGIN
 90
        0
 91
        1
 62
     0
 92
       -2
340
0
 93
        0
 40
0.045
309
GRIDFORMAT_END
 95
        4
302
GRIDFORMAT
  1
GRIDFORMAT_BEGIN
 90
        0
 91
        1
 62
     0
 92
       -2
340
0
 93
        0
 40
0.045
309
GRIDFORMAT_END
 95
        8
302
GRIDFORMAT
  1
GRIDFORMAT_BEGIN
 90
        0
 91
        1
 62
     0
 92
       -2
340
0
 93
        0
 40
0.045
309
GRIDFORMAT_END
 95
       16
302
GRIDFORMAT
  1
GRIDFORMAT_BEGIN
 90
        0
 91
        1
 62
     0
 92
       -2
340
0
 93
        0
 40
0.045
309
GRIDFORMAT_END
 95
       32
302
GRIDFORMAT
  1
GRIDFORMAT_BEGIN
 90
        0
 91
        1
 62
     0
 92
       -2
340
0
 93
        0
 40
0.045
309
GRIDFORMAT_END
309
TABLEFORMAT_END
  1
CELLSTYLE_BEGIN
 90
        3
 91
        2
300
_DATA
309
CELLSTYLE_END
  0
ENDSEC
  0
EOF
