  0
SECTION
  2
HEADER
  9
$ACADVER
  1
AC1032
  9
$ACADMAINTVER
 90
      228
  9
$DWGCODEPAGE
  3
ANSI_932
  9
$LASTSAVEDBY
  1
T-HOWE-PC
  9
$REQUIREDVERSIONS
160
                 0
  9
$INSBASE
 10
0.0
 20
0.0
 30
0.0
  9
$EXTMIN
 10
0.0
 20
0.0
 30
0.0
  9
$EXTMAX
 10
630.0
 20
891.0
 30
0.0
  9
$LIMMIN
 10
0.0
 20
0.0
  9
$LIMMAX
 10
630.0
 20
891.0
  9
$ORTHOMODE
 70
     1
  9
$REGENMODE
 70
     1
  9
$FILLMODE
 70
     1
  9
$QTEXTMODE
 70
     0
  9
$MIRRTEXT
 70
     1
  9
$LTSCALE
 40
2.0
  9
$ATTMODE
 70
     1
  9
$TEXTSIZE
 40
2.5
  9
$TRACEWID
 40
1.0
  9
$TEXTSTYLE
  7
ＭＳ ゴシック
  9
$CLAYER
  8
HIDDEN
  9
$CELTYPE
  6
ByLayer
  9
$CECOLOR
 62
   256
  9
$CELTSCALE
 40
1.0
  9
$DISPSILH
 70
     0
  9
$DIMSCALE
 40
1.0
  9
$DIMASZ
 40
3.0
  9
$DIMEXO
 40
10.0
  9
$DIMDLI
 40
1.0
  9
$DIMRND
 40
0.0
  9
$DIMDLE
 40
0.0
  9
$DIMEXE
 40
0.0
  9
$DIMTP
 40
0.0
  9
$DIMTM
 40
0.0
  9
$DIMTXT
 40
8.0
  9
$DIMCEN
 40
0.0
  9
$DIMTSZ
 40
0.0
  9
$DIMTOL
 70
     0
  9
$DIMLIM
 70
     0
  9
$DIMTIH
 70
     0
  9
$DIMTOH
 70
     0
  9
$DIMSE1
 70
     0
  9
$DIMSE2
 70
     0
  9
$DIMTAD
 70
     1
  9
$DIMZIN
 70
    11
  9
$DIMBLK
  1
DOT
  9
$DIMASO
 70
     1
  9
$DIMSHO
 70
     1
  9
$DIMPOST
  1
<>
  9
$DIMAPOST
  1
[]
  9
$DIMALT
 70
     0
  9
$DIMALTD
 70
     1
  9
$DIMALTF
 40
1.0
  9
$DIMLFAC
 40
1.0
  9
$DIMTOFL
 70
     0
  9
$DIMTVP
 40
0.0
  9
$DIMTIX
 70
     1
  9
$DIMSOXD
 70
     0
  9
$DIMSAH
 70
     0
  9
$DIMBLK1
  1

  9
$DIMBLK2
  1

  9
$DIMSTYLE
  2
tfrom線あり
  9
$DIMCLRD
 70
     0
  9
$DIMCLRE
 70
     0
  9
$DIMCLRT
 70
     0
  9
$DIMTFAC
 40
1.0
  9
$DIMGAP
 40
6.0
  9
$DIMJUST
 70
     0
  9
$DIMSD1
 70
     0
  9
$DIMSD2
 70
     0
  9
$DIMTOLJ
 70
     1
  9
$DIMTZIN
 70
    11
  9
$DIMALTZ
 70
    11
  9
$DIMALTTZ
 70
    11
  9
$DIMUPT
 70
     0
  9
$DIMDEC
 70
     0
  9
$DIMTDEC
 70
     1
  9
$DIMALTU
 70
     2
  9
$DIMALTTD
 70
     2
  9
$DIMTXSTY
  7
ＭＳ ゴシック
  9
$DIMAUNIT
 70
     0
  9
$DIMADEC
 70
     2
  9
$DIMALTRND
 40
0.0
  9
$DIMAZIN
 70
     0
  9
$DIMDSEP
 70
    46
  9
$DIMATFIT
 70
     0
  9
$DIMFRAC
 70
     2
  9
$DIMLDRBLK
  1
DOT
  9
$DIMLUNIT
 70
     2
  9
$DIMLWD
 70
    -2
  9
$DIMLWE
 70
    -2
  9
$DIMTMOVE
 70
     0
  9
$DIMFXL
 40
1.0
  9
$DIMFXLON
 70
     0
  9
$DIMJOGANG
 40
0.7853981633974483
  9
$DIMTFILL
 70
     0
  9
$DIMTFILLCLR
 70
     0
  9
$DIMARCSYM
 70
     0
  9
$DIMLTYPE
  6

  9
$DIMLTEX1
  6

  9
$DIMLTEX2
  6

  9
$DIMTXTDIRECTION
 70
     0
  9
$LUNITS
 70
     2
  9
$LUPREC
 70
     0
  9
$SKETCHINC
 40
0.1
  9
$FILLETRAD
 40
0.0
  9
$AUNITS
 70
     0
  9
$AUPREC
 70
     0
  9
$MENU
  1
acad
  9
$ELEVATION
 40
0.0
  9
$PELEVATION
 40
0.0
  9
$THICKNESS
 40
0.0
  9
$LIMCHECK
 70
     0
  9
$CHAMFERA
 40
0.0
  9
$CHAMFERB
 40
0.0
  9
$CHAMFERC
 40
0.0
  9
$CHAMFERD
 40
0.0
  9
$SKPOLY
 70
     0
  9
$TDCREATE
 40
2460060.491643519
  9
$TDUCREATE
 40
2460060.116643519
  9
$TDUPDATE
 40
2460083.417268518
  9
$TDUUPDATE
 40
2460083.042268518
  9
$TDINDWG
 40
1.1921656944
  9
$TDUSRTIMER
 40
1.0494321991
  9
$USRTIMER
 70
     1
  9
$ANGBASE
 50
0.0
  9
$ANGDIR
 70
     0
  9
$PDMODE
 70
     1
  9
$PDSIZE
 40
-2.0
  9
$PLINEWID
 40
0.0
  9
$SPLFRAME
 70
     0
  9
$SPLINETYPE
 70
     6
  9
$SPLINESEGS
 70
     8
  9
$HANDSEED
  5
179F9
  9
$SURFTAB1
 70
     6
  9
$SURFTAB2
 70
     6
  9
$SURFTYPE
 70
     6
  9
$SURFU
 70
     6
  9
$SURFV
 70
     6
  9
$UCSBASE
  2

  9
$UCSNAME
  2

  9
$UCSORG
 10
0.0
 20
0.0
 30
0.0
  9
$UCSXDIR
 10
1.0
 20
0.0
 30
0.0
  9
$UCSYDIR
 10
0.0
 20
1.0
 30
0.0
  9
$UCSORTHOREF
  2

  9
$UCSORTHOVIEW
 70
     0
  9
$UCSORGTOP
 10
0.0
 20
0.0
 30
0.0
  9
$UCSORGBOTTOM
 10
0.0
 20
0.0
 30
0.0
  9
$UCSORGLEFT
 10
0.0
 20
0.0
 30
0.0
  9
$UCSORGRIGHT
 10
0.0
 20
0.0
 30
0.0
  9
$UCSORGFRONT
 10
0.0
 20
0.0
 30
0.0
  9
$UCSORGBACK
 10
0.0
 20
0.0
 30
0.0
  9
$PUCSBASE
  2

  9
$PUCSNAME
  2

  9
$PUCSORG
 10
0.0
 20
0.0
 30
0.0
  9
$PUCSXDIR
 10
1.0
 20
0.0
 30
0.0
  9
$PUCSYDIR
 10
0.0
 20
1.0
 30
0.0
  9
$PUCSORTHOREF
  2

  9
$PUCSORTHOVIEW
 70
     0
  9
$PUCSORGTOP
 10
0.0
 20
0.0
 30
0.0
  9
$PUCSORGBOTTOM
 10
0.0
 20
0.0
 30
0.0
  9
$PUCSORGLEFT
 10
0.0
 20
0.0
 30
0.0
  9
$PUCSORGRIGHT
 10
0.0
 20
0.0
 30
0.0
  9
$PUCSORGFRONT
 10
0.0
 20
0.0
 30
0.0
  9
$PUCSORGBACK
 10
0.0
 20
0.0
 30
0.0
  9
$USERI1
 70
     0
  9
$USERI2
 70
     0
  9
$USERI3
 70
     0
  9
$USERI4
 70
     0
  9
$USERI5
 70
     0
  9
$USERR1
 40
0.0
  9
$USERR2
 40
0.0
  9
$USERR3
 40
0.0
  9
$USERR4
 40
0.0
  9
$USERR5
 40
0.0
  9
$WORLDVIEW
 70
     1
  9
$SHADEDGE
 70
     3
  9
$SHADEDIF
 70
    70
  9
$TILEMODE
 70
     1
  9
$MAXACTVP
 70
    64
  9
$PINSBASE
 10
0.0
 20
0.0
 30
0.0
  9
$PLIMCHECK
 70
     0
  9
$PEXTMIN
 10
0.0
 20
0.0
 30
0.0
  9
$PEXTMAX
 10
0.0
 20
0.0
 30
0.0
  9
$PLIMMIN
 10
-7.5
 20
-20.0
  9
$PLIMMAX
 10
412.5
 20
277.0
  9
$UNITMODE
 70
     0
  9
$VISRETAIN
 70
     0
  9
$PLINEGEN
 70
     1
  9
$PSLTSCALE
 70
     0
  9
$TREEDEPTH
 70
  3020
  9
$CMLSTYLE
  2
Standard
  9
$CMLJUST
 70
     0
  9
$CMLSCALE
 40
1.0
  9
$PROXYGRAPHICS
 70
     0
  9
$MEASUREMENT
 70
     1
  9
$CELWEIGHT
370
    -1
  9
$ENDCAPS
280
     0
  9
$JOINSTYLE
280
     0
  9
$LWDISPLAY
290
     1
  9
$INSUNITS
 70
     4
  9
$HYPERLINKBASE
  1

  9
$STYLESHEET
  1
monochrome.ctb
  9
$XEDIT
290
     1
  9
$CEPSNTYPE
380
     0
  9
$PSTYLEMODE
290
     1
  9
$FINGERPRINTGUID
  2

  9
$VERSIONGUID
  2
{62C2F53B-73EF-5B44-910B-BFF21DFCD6EB}
  9
$EXTNAMES
290
     1
  9
$PSVPSCALE
 40
0.0
  9
$OLESTARTUP
290
     0
  9
$SORTENTS
280
   127
  9
$INDEXCTL
280
     0
  9
$HIDETEXT
280
     1
  9
$XCLIPFRAME
280
     0
  9
$HALOGAP
280
     0
  9
$OBSCOLOR
 70
   257
  9
$OBSLTYPE
280
     0
  9
$INTERSECTIONDISPLAY
280
     0
  9
$INTERSECTIONCOLOR
 70
   257
  9
$DIMASSOC
280
     2
  9
$PROJECTNAME
  1

  9
$CAMERADISPLAY
290
     0
  9
$LENSLENGTH
 40
50.0
  9
$CAMERAHEIGHT
 40
0.0
  9
$STEPSPERSEC
 40
2.0
  9
$STEPSIZE
 40
6.0
  9
$3DDWFPREC
 40
2.0
  9
$PSOLWIDTH
 40
0.25
  9
$PSOLHEIGHT
 40
4.0
  9
$LOFTANG1
 40
1.570796326794897
  9
$LOFTANG2
 40
1.570796326794897
  9
$LOFTMAG1
 40
0.0
  9
$LOFTMAG2
 40
0.0
  9
$LOFTPARAM
 70
     7
  9
$LOFTNORMALS
280
     1
  9
$LATITUDE
 40
37.795
  9
$LONGITUDE
 40
-122.394
  9
$NORTHDIRECTION
 40
0.0
  9
$TIMEZONE
 70
 -8000
  9
$LIGHTGLYPHDISPLAY
280
     1
  9
$TILEMODELIGHTSYNCH
280
     1
  9
$CMATERIAL
347
264
  9
$SOLIDHIST
280
     1
  9
$SHOWHIST
280
     1
  9
$DWFFRAME
280
     2
  9
$DGNFRAME
280
     2
  9
$REALWORLDSCALE
290
     1
  9
$INTERFERECOLOR
 62
   256
  9
$INTERFEREOBJVS
345
270
  9
$INTERFEREVPVS
346
8FA
  9
$CSHADOW
280
     0
  9
$SHADOWPLANELOCATION
 40
0.0
  0
ENDSEC
  0
SECTION
  2
CLASSES
  0
CLASS
  1
IMAGE
  2
AcDbRasterImage
  3
ISM
 90
     2175
 91
        0
280
     0
281
     1
  0
CLASS
  1
DICTIONARYVAR
  2
AcDbDictionaryVar
  3
ObjectDBX Classes
 90
        0
 91
       21
280
     0
281
     0
  0
CLASS
  1
RASTERVARIABLES
  2
AcDbRasterVariables
  3
ISM
 90
        0
 91
        1
280
     0
281
     0
  0
CLASS
  1
IMAGEDEF
  2
AcDbRasterImageDef
  3
ISM
 90
        0
 91
        0
280
     0
281
     0
  0
CLASS
  1
IMAGEDEF_REACTOR
  2
AcDbRasterImageDefReactor
  3
ISM
 90
        1
 91
        0
280
     0
281
     0
  0
CLASS
  1
IDBUFFER
  2
AcDbIdBuffer
  3
ObjectDBX Classes
 90
        0
 91
        0
280
     0
281
     0
  0
CLASS
  1
SPATIAL_FILTER
  2
AcDbSpatialFilter
  3
ObjectDBX Classes
 90
        0
 91
        0
280
     0
281
     0
  0
CLASS
  1
SORTENTSTABLE
  2
AcDbSortentsTable
  3
ObjectDBX Classes
 90
        0
 91
        1
280
     0
281
     0
  0
CLASS
  1
LAYER_INDEX
  2
AcDbLayerIndex
  3
ObjectDBX Classes
 90
        0
 91
        0
280
     0
281
     0
  0
CLASS
  1
SPATIAL_INDEX
  2
AcDbSpatialIndex
  3
ObjectDBX Classes
 90
        0
 91
        0
280
     0
281
     0
  0
CLASS
  1
OBJECT_PTR
  2
CAseDLPNTableRecord
  3
ASE-LPNTableRecord
 90
        1
 91
        0
280
     0
281
     0
  0
CLASS
  1
PLOTSETTINGS
  2
AcDbPlotSettings
  3
ObjectDBX Classes
 90
        0
 91
        0
280
     0
281
     0
  0
CLASS
  1
ACDBDICTIONARYWDFLT
  2
AcDbDictionaryWithDefault
  3
ObjectDBX Classes
 90
        0
 91
        1
280
     0
281
     0
  0
CLASS
  1
SCALE
  2
AcDbScale
  3
ObjectDBX Classes
 90
     1153
 91
       33
280
     0
281
     0
  0
CLASS
  1
MATERIAL
  2
AcDbMaterial
  3
ObjectDBX Classes
 90
     1153
 91
        3
280
     0
281
     0
  0
CLASS
  1
VISUALSTYLE
  2
AcDbVisualStyle
  3
ObjectDBX Classes
 90
     4095
 91
       27
280
     0
281
     0
  0
CLASS
  1
TABLESTYLE
  2
AcDbTableStyle
  3
ObjectDBX Classes
 90
     4095
 91
        1
280
     0
281
     0
  0
CLASS
  1
DIMASSOC
  2
AcDbDimAssoc
  3
"AcDbDimAssoc|Product Desc:     AcDim ARX App For Dimension|Company:          Autodesk, Inc.|WEB Address:      www.autodesk.com"
 90
        0
 91
        7
280
     0
281
     0
  0
CLASS
  1
CELLSTYLEMAP
  2
AcDbCellStyleMap
  3
ObjectDBX Classes
 90
     1152
 91
        7
280
     0
281
     0
  0
CLASS
  1
SUN
  2
AcDbSun
  3
SCENEOE
 90
     1153
 91
        1
280
     0
281
     0
  0
CLASS
  1
MLEADERSTYLE
  2
AcDbMLeaderStyle
  3
ACDB_MLEADERSTYLE_CLASS
 90
     4095
 91
        1
280
     0
281
     0
  0
CLASS
  1
FIELD
  2
AcDbField
  3
ObjectDBX Classes
 90
     1152
 91
        2
280
     0
281
     0
  0
CLASS
  1
FIELDLIST
  2
AcDbFieldList
  3
ObjectDBX Classes
 90
     1152
 91
        1
280
     0
281
     0
  0
CLASS
  1
ACDBSECTIONVIEWSTYLE
  2
AcDbSectionViewStyle
  3
ObjectDBX Classes
 90
     1025
 91
        1
280
     0
281
     0
  0
CLASS
  1
ACDBDETAILVIEWSTYLE
  2
AcDbDetailViewStyle
  3
ObjectDBX Classes
 90
     1025
 91
        1
280
     0
281
     0
  0
CLASS
  1
SOLID_BACKGROUND
  2
AcDbSolidBackground
  3
SCENEOE
 90
     4095
 91
        1
280
     0
281
     0
  0
CLASS
  1
NPOCOLLECTION
  2
AcDbImpNonPersistentObjectsCollection
  3
ObjectDBX Classes
 90
     1153
 91
        1
280
     0
281
     0
  0
CLASS
  1
RAPIDRTRENDERSETTINGS
  2
AcDbRapidRTRenderSettings
  3
ObjectDBX Classes
 90
     1024
 91
        6
280
     0
281
     0
  0
ENDSEC
  0
SECTION
  2
TABLES
  0
TABLE
  2
VPORT
  5
7
330
0
100
AcDbSymbolTable
 70
     1
  0
VPORT
  5
15
330
7
100
AcDbSymbolTableRecord
100
AcDbViewportTableRecord
  2
*ACTIVE
 70
     0
 10
0.0
 20
0.0
 11
1.0
 21
1.0
 12
0.0
 22
0.0
 13
0.0
 23
0.0
 14
1.0
 24
1.0
 15
0.0
 25
0.0
 16
0.0
 26
0.0
 36
2187.719602029261
 17
315.0
 27
445.5
 37
-46.86809886248109
 40
893.7443531827515
 41
1.796610169491525
 42
50.0
 43
0.0
 44
0.0
 50
0.0
 51
0.0
 71
     0
 72
  2000
 73
     1
 74
     1
 75
     0
 76
     0
 77
     0
 78
     0
281
     1
 65
     1
110
0.0
120
0.0
130
0.0
111
1.0
121
0.0
131
0.0
112
0.0
122
1.0
132
0.0
 79
     0
146
0.0
348
3666
 60
     3
 61
     5
292
     1
282
     1
141
0.0
142
0.0
 63
   250
421
  3355443
361
904
1001
ACAD_NAV_VCDISPLAY
1070
     3
  0
ENDTAB
  0
TABLE
  2
LTYPE
  5
4
330
0
100
AcDbSymbolTable
 70
     5
  0
LTYPE
  5
11
330
4
100
AcDbSymbolTableRecord
100
AcDbLinetypeTableRecord
  2
ByBlock
 70
     0
  3

 72
    65
 73
     0
 40
0.0
  0
LTYPE
  5
12
330
4
100
AcDbSymbolTableRecord
100
AcDbLinetypeTableRecord
  2
ByLayer
 70
     0
  3

 72
    65
 73
     0
 40
0.0
  0
LTYPE
  5
13
330
4
100
AcDbSymbolTableRecord
100
AcDbLinetypeTableRecord
  2
Continuous
 70
     0
  3
Solid line
 72
    65
 73
     0
 40
0.0
  0
LTYPE
  5
D6C
330
4
100
AcDbSymbolTableRecord
100
AcDbLinetypeTableRecord
  2
BORDER
 70
     0
  3
Border __  __  . __  __  . __  __  . __  __  . 
 72
    65
 73
     6
 40
44.45
 49
12.7
 74
     0
 49
-6.349999999999998
 74
     0
 49
12.7
 74
     0
 49
-6.349999999999998
 74
     0
 49
0.0
 74
     0
 49
-6.349999999999998
 74
     0
  0
LTYPE
  5
D6D
330
4
100
AcDbSymbolTableRecord
100
AcDbLinetypeTableRecord
  2
HIDDEN
 70
     0
  3
Hidden _ _ _ _ _ _ _ _ _ _ _ _ _ _ _ _ _ _ _ _ 
 72
    65
 73
     2
 40
9.525
 49
6.349999999999998
 74
     0
 49
-3.174999999999998
 74
     0
  0
ENDTAB
  0
TABLE
  2
LAYER
  5
2
102
{ACAD_XDICTIONARY
360
2E1
102
}
330
0
100
AcDbSymbolTable
 70
     9
  0
LAYER
  5
14
102
{ACAD_XDICTIONARY
360
17902
102
}
330
2
100
AcDbSymbolTableRecord
100
AcDbLayerTableRecord
  2
0
 70
     0
 62
     7
  6
Continuous
370
    -3
390
1D
347
266
348
0
  0
LAYER
  5
4B
102
{ACAD_XDICTIONARY
360
17904
102
}
330
2
100
AcDbSymbolTableRecord
100
AcDbLayerTableRecord
  2
TEMPLATE
 70
     0
 62
     7
  6
Continuous
370
    20
390
1D
347
266
348
0
  0
LAYER
  5
4C
102
{ACAD_XDICTIONARY
360
17906
102
}
330
2
100
AcDbSymbolTableRecord
100
AcDbLayerTableRecord
  2
DIM
 70
     0
 62
     3
  6
Continuous
370
    13
390
1D
347
266
348
0
  0
LAYER
  5
4D
102
{ACAD_XDICTIONARY
360
17908
102
}
330
2
100
AcDbSymbolTableRecord
100
AcDbLayerTableRecord
  2
MODEL
 70
     0
 62
     7
  6
Continuous
370
    20
390
1D
347
266
348
0
  0
LAYER
  5
667
102
{ACAD_XDICTIONARY
360
1790A
102
}
330
2
100
AcDbSymbolTableRecord
100
AcDbLayerTableRecord
  2
LOGO
 70
     0
 62
     7
  6
Continuous
370
    -3
390
1D
347
266
348
0
  0
LAYER
  5
88C
102
{ACAD_XDICTIONARY
360
1790C
102
}
330
2
100
AcDbSymbolTableRecord
100
AcDbLayerTableRecord
  2
HIDDEN
 70
     0
 62
     8
  6
HIDDEN
370
    20
390
1D
347
266
348
0
1001
AcAecLayerStandard
1000

1000

  0
LAYER
  5
D6B
102
{ACAD_XDICTIONARY
360
1790E
102
}
330
2
100
AcDbSymbolTableRecord
100
AcDbLayerTableRecord
  2
BORDER
 70
     0
 62
     4
  6
BORDER
290
     0
370
    20
390
1D
347
266
348
0
1001
AcAecLayerStandard
1000

1000

  0
LAYER
  5
36C6
102
{ACAD_XDICTIONARY
360
17910
102
}
330
2
100
AcDbSymbolTableRecord
100
AcDbLayerTableRecord
  2
レイヤー 1
 70
     0
 62
     7
  6
Continuous
370
    -3
390
1D
347
266
348
0
  0
LAYER
  5
A5DF
330
2
100
AcDbSymbolTableRecord
100
AcDbLayerTableRecord
  2
Defpoints
 70
     0
 62
     7
  6
Continuous
290
     0
370
    -3
390
1D
347
266
348
0
  0
ENDTAB
  0
TABLE
  2
STYLE
  5
3
330
0
100
AcDbSymbolTable
 70
     5
  0
STYLE
  5
17
330
3
100
AcDbSymbolTableRecord
100
AcDbTextStyleTableRecord
  2
Standard
 70
     0
 40
0.0
 41
1.0
 50
0.0
 71
     0
 42
2.5
  3
txt
  4
BIGFONT.SHX
  0
STYLE
  5
39
330
3
100
AcDbSymbolTableRecord
100
AcDbTextStyleTableRecord
  2
ＭＳ ゴシック
 70
     0
 40
0.0
 41
1.0
 50
0.0
 71
     0
 42
2.5
  3
msgothic.ttc
  4
ＭＳ ゴシック
1001
ACAD
1000
ＭＳ ゴシック
1071
        0
  0
STYLE
  5
384
330
3
100
AcDbSymbolTableRecord
100
AcDbTextStyleTableRecord
  2
ARIAL
 70
     0
 40
0.0
 41
1.0
 50
0.0
 71
     0
 42
12.0
  3
ARIAL.TTF
  4

1001
ACAD
1000
Arial
1071
       34
  0
STYLE
  5
385
330
3
100
AcDbSymbolTableRecord
100
AcDbTextStyleTableRecord
  2
ROMANS
 70
     0
 40
0.0
 41
1.0
 50
0.0
 71
     0
 42
5.0
  3
romans.shx
  4

  0
ENDTAB
  0
TABLE
  2
VIEW
  5
5
330
0
100
AcDbSymbolTable
 70
     6
  0
ENDTAB
  0
TABLE
  2
UCS
  5
6
330
0
100
AcDbSymbolTable
 70
     0
  0
ENDTAB
  0
TABLE
  2
APPID
  5
8
330
0
100
AcDbSymbolTable
 70
     8
  0
APPID
  5
16
330
8
100
AcDbSymbolTableRecord
100
AcDbRegAppTableRecord
  2
ACAD
 70
     0
  0
APPID
  5
7AC
330
8
100
AcDbSymbolTableRecord
100
AcDbRegAppTableRecord
  2
AcAecLayerStandard
 70
     0
  0
APPID
  5
E29
330
8
100
AcDbSymbolTableRecord
100
AcDbRegAppTableRecord
  2
ACAD_MLEADERVER
 70
     0
  0
APPID
  5
17914
330
8
100
AcDbSymbolTableRecord
100
AcDbRegAppTableRecord
  2
DCO15
 70
     0
  0
APPID
  5
17921
330
8
100
AcDbSymbolTableRecord
100
AcDbRegAppTableRecord
  2
ACAD_NAV_VCDISPLAY
 70
     0
  0
APPID
  5
17926
330
8
100
AcDbSymbolTableRecord
100
AcDbRegAppTableRecord
  2
ACAD_EXEMPT_FROM_CAD_STANDARDS
 70
     0
  0
APPID
  5
17928
330
8
100
AcDbSymbolTableRecord
100
AcDbRegAppTableRecord
  2
PE_URL
 70
     0
  0
APPID
  5
17973
330
8
100
AcDbSymbolTableRecord
100
AcDbRegAppTableRecord
  2
ACAD_PSEXT
 70
     0
  0
ENDTAB
  0
TABLE
  2
DIMSTYLE
  5
9
330
0
100
AcDbSymbolTable
 70
     4
100
AcDbDimStyleTable
 71
     1
340
57
  0
DIMSTYLE
105
18
330
9
100
AcDbSymbolTableRecord
100
AcDbDimStyleTableRecord
  2
Standard
 70
     0
340
17
  0
DIMSTYLE
105
57
102
{ACAD_REACTORS
330
176C6
330
176C7
330
176C8
330
176CB
330
176CF
330
176D6
330
17719
330
1771A
330
17720
330
17721
330
17740
330
17741
330
17757
330
1775A
330
1786B
102
}
330
9
100
AcDbSymbolTableRecord
100
AcDbDimStyleTableRecord
  2
tfrom線あり
 70
     0
  3
<>
  4
[]
 41
3.0
 42
10.0
 43
1.0
 44
0.0
 73
     0
 74
     0
 77
     1
 78
    11
140
8.0
141
0.0
143
1.0
147
6.0
171
     1
174
     1
179
     2
271
     0
272
     1
276
     2
284
    11
285
    11
286
    11
289
     0
340
39
341
4E
342
4E
  0
ENDTAB
  0
TABLE
  2
BLOCK_RECORD
  5
1
330
0
100
AcDbSymbolTable
 70
    49
  0
BLOCK_RECORD
  5
A
330
1
100
AcDbSymbolTableRecord
100
AcDbBlockTableRecord
  2
*MODEL_SPACE
340
20
 70
     0
280
     1
281
     0
  0
BLOCK_RECORD
  5
B
330
1
100
AcDbSymbolTableRecord
100
AcDbBlockTableRecord
  2
*PAPER_SPACE
340
21
 70
     0
280
     1
281
     0
  0
BLOCK_RECORD
  5
4E
330
1
100
AcDbSymbolTableRecord
100
AcDbBlockTableRecord
  2
_DOT
340
0
102
{BLKREFS
331
1788F
331
17890
331
174D8
331
174E6
331
174E7
331
174F5
331
174F6
331
1751D
331
1751E
331
1752A
331
1752B
331
17539
331
1753A
331
1755B
331
1755C
331
1756A
331
1756B
331
17764
331
17765
331
1777E
331
1777F
331
1778A
331
1778B
331
17796
331
17797
331
177A2
331
177A3
331
17947
331
17949
331
A5F8
331
A5F9
331
A607
331
A608
331
17410
331
17411
331
1741F
331
17420
331
1742E
331
1742F
331
1743B
331
1743C
331
1744A
331
1744B
331
17457
331
17458
331
1746C
331
1746D
331
174B9
331
174BA
331
174C8
331
174C9
331
174D7
331
A5E9
331
A5EA
331
177AE
331
177AF
331
177BA
331
177BB
331
177C6
331
177C7
331
177D4
331
177D5
331
177E0
331
177E1
331
177EC
331
177ED
331
177F8
331
177F9
331
17804
331
17805
331
17810
331
17811
331
1781C
331
1781D
331
17828
331
17829
331
17872
331
17873
331
17882
331
17883
102
}
 70
     0
280
     1
281
     0
  0
BLOCK_RECORD
  5
68A
330
1
100
AcDbSymbolTableRecord
100
AcDbBlockTableRecord
  2
名称未設定-1
340
0
102
{BLKREFS
331
6B5
102
}
 70
     1
280
     1
281
     0
  0
BLOCK_RECORD
  5
68D
330
1
100
AcDbSymbolTableRecord
100
AcDbBlockTableRecord
  2
block 2
340
0
102
{BLKREFS
331
68C
331
1343
102
}
 70
     0
280
     1
281
     0
  0
BLOCK_RECORD
  5
690
330
1
100
AcDbSymbolTableRecord
100
AcDbBlockTableRecord
  2
block 3
340
0
102
{BLKREFS
331
68F
102
}
 70
     0
280
     1
281
     0
  0
BLOCK_RECORD
  5
693
330
1
100
AcDbSymbolTableRecord
100
AcDbBlockTableRecord
  2
block 4
340
0
102
{BLKREFS
331
692
102
}
 70
     0
280
     1
281
     0
  0
BLOCK_RECORD
  5
6A2
330
1
100
AcDbSymbolTableRecord
100
AcDbBlockTableRecord
  2
block 5
340
0
102
{BLKREFS
331
6A1
102
}
 70
     0
280
     1
281
     0
  0
BLOCK_RECORD
  5
A5E3
330
1
100
AcDbSymbolTableRecord
100
AcDbBlockTableRecord
  2
*D6
340
0
 70
     0
280
     1
281
     0
  0
BLOCK_RECORD
  5
A5F2
330
1
100
AcDbSymbolTableRecord
100
AcDbBlockTableRecord
  2
*D7
340
0
 70
     0
280
     1
281
     0
  0
BLOCK_RECORD
  5
A601
330
1
100
AcDbSymbolTableRecord
100
AcDbBlockTableRecord
  2
*D8
340
0
 70
     0
280
     1
281
     0
  0
BLOCK_RECORD
  5
1740B
330
1
100
AcDbSymbolTableRecord
100
AcDbBlockTableRecord
  2
*D9
340
0
 70
     0
280
     1
281
     0
  0
BLOCK_RECORD
  5
17418
330
1
100
AcDbSymbolTableRecord
100
AcDbBlockTableRecord
  2
*D10
340
0
 70
     0
280
     1
281
     0
  0
BLOCK_RECORD
  5
17429
330
1
100
AcDbSymbolTableRecord
100
AcDbBlockTableRecord
  2
*D11
340
0
 70
     0
280
     1
281
     0
  0
BLOCK_RECORD
  5
17436
330
1
100
AcDbSymbolTableRecord
100
AcDbBlockTableRecord
  2
*D12
340
0
 70
     0
280
     1
281
     0
  0
BLOCK_RECORD
  5
17445
330
1
100
AcDbSymbolTableRecord
100
AcDbBlockTableRecord
  2
*D13
340
0
 70
     0
280
     1
281
     0
  0
BLOCK_RECORD
  5
17452
330
1
100
AcDbSymbolTableRecord
100
AcDbBlockTableRecord
  2
*D14
340
0
 70
     0
280
     1
281
     0
  0
BLOCK_RECORD
  5
17467
330
1
100
AcDbSymbolTableRecord
100
AcDbBlockTableRecord
  2
*D15
340
0
 70
     0
280
     1
281
     0
  0
BLOCK_RECORD
  5
174B4
330
1
100
AcDbSymbolTableRecord
100
AcDbBlockTableRecord
  2
*D16
340
0
 70
     0
280
     1
281
     0
  0
BLOCK_RECORD
  5
174C3
330
1
100
AcDbSymbolTableRecord
100
AcDbBlockTableRecord
  2
*D17
340
0
 70
     0
280
     1
281
     0
  0
BLOCK_RECORD
  5
174D2
330
1
100
AcDbSymbolTableRecord
100
AcDbBlockTableRecord
  2
*D18
340
0
 70
     0
280
     1
281
     0
  0
BLOCK_RECORD
  5
174DF
330
1
100
AcDbSymbolTableRecord
100
AcDbBlockTableRecord
  2
*D19
340
0
 70
     0
280
     1
281
     0
  0
BLOCK_RECORD
  5
174F0
330
1
100
AcDbSymbolTableRecord
100
AcDbBlockTableRecord
  2
*D20
340
0
 70
     0
280
     1
281
     0
  0
BLOCK_RECORD
  5
17518
330
1
100
AcDbSymbolTableRecord
100
AcDbBlockTableRecord
  2
*D21
340
0
 70
     0
280
     1
281
     0
  0
BLOCK_RECORD
  5
17525
330
1
100
AcDbSymbolTableRecord
100
AcDbBlockTableRecord
  2
*D22
340
0
 70
     0
280
     1
281
     0
  0
BLOCK_RECORD
  5
17534
330
1
100
AcDbSymbolTableRecord
100
AcDbBlockTableRecord
  2
*D23
340
0
 70
     0
280
     1
281
     0
  0
BLOCK_RECORD
  5
17556
330
1
100
AcDbSymbolTableRecord
100
AcDbBlockTableRecord
  2
*D24
340
0
 70
     0
280
     1
281
     0
  0
BLOCK_RECORD
  5
17565
330
1
100
AcDbSymbolTableRecord
100
AcDbBlockTableRecord
  2
*D25
340
0
 70
     0
280
     1
281
     0
  0
BLOCK_RECORD
  5
1775E
330
1
100
AcDbSymbolTableRecord
100
AcDbBlockTableRecord
  2
*D26
340
0
 70
     0
280
     1
281
     0
  0
BLOCK_RECORD
  5
1776A
330
1
100
AcDbSymbolTableRecord
100
AcDbBlockTableRecord
  2
*D27
340
0
 70
     0
280
     1
281
     0
  0
BLOCK_RECORD
  5
17778
330
1
100
AcDbSymbolTableRecord
100
AcDbBlockTableRecord
  2
*D28
340
0
 70
     0
280
     1
281
     0
  0
BLOCK_RECORD
  5
17784
330
1
100
AcDbSymbolTableRecord
100
AcDbBlockTableRecord
  2
*D29
340
0
 70
     0
280
     1
281
     0
  0
BLOCK_RECORD
  5
17790
330
1
100
AcDbSymbolTableRecord
100
AcDbBlockTableRecord
  2
*D30
340
0
 70
     0
280
     1
281
     0
  0
BLOCK_RECORD
  5
1779C
330
1
100
AcDbSymbolTableRecord
100
AcDbBlockTableRecord
  2
*D31
340
0
 70
     0
280
     1
281
     0
  0
BLOCK_RECORD
  5
177A8
330
1
100
AcDbSymbolTableRecord
100
AcDbBlockTableRecord
  2
*D32
340
0
 70
     0
280
     1
281
     0
  0
BLOCK_RECORD
  5
177B4
330
1
100
AcDbSymbolTableRecord
100
AcDbBlockTableRecord
  2
*D33
340
0
 70
     0
280
     1
281
     0
  0
BLOCK_RECORD
  5
177C0
330
1
100
AcDbSymbolTableRecord
100
AcDbBlockTableRecord
  2
*D34
340
0
 70
     0
280
     1
281
     0
  0
BLOCK_RECORD
  5
177CC
330
1
100
AcDbSymbolTableRecord
100
AcDbBlockTableRecord
  2
*D35
340
0
 70
     0
280
     1
281
     0
  0
BLOCK_RECORD
  5
177D8
330
1
100
AcDbSymbolTableRecord
100
AcDbBlockTableRecord
  2
*D36
340
0
 70
     0
280
     1
281
     0
  0
BLOCK_RECORD
  5
177E6
330
1
100
AcDbSymbolTableRecord
100
AcDbBlockTableRecord
  2
*D37
340
0
 70
     0
280
     1
281
     0
  0
BLOCK_RECORD
  5
177F2
330
1
100
AcDbSymbolTableRecord
100
AcDbBlockTableRecord
  2
*D38
340
0
 70
     0
280
     1
281
     0
  0
BLOCK_RECORD
  5
177FE
330
1
100
AcDbSymbolTableRecord
100
AcDbBlockTableRecord
  2
*D39
340
0
 70
     0
280
     1
281
     0
  0
BLOCK_RECORD
  5
1780A
330
1
100
AcDbSymbolTableRecord
100
AcDbBlockTableRecord
  2
*D40
340
0
 70
     0
280
     1
281
     0
  0
BLOCK_RECORD
  5
17816
330
1
100
AcDbSymbolTableRecord
100
AcDbBlockTableRecord
  2
*D41
340
0
 70
     0
280
     1
281
     0
  0
BLOCK_RECORD
  5
17822
330
1
100
AcDbSymbolTableRecord
100
AcDbBlockTableRecord
  2
*D42
340
0
 70
     0
280
     1
281
     0
  0
BLOCK_RECORD
  5
1786C
330
1
100
AcDbSymbolTableRecord
100
AcDbBlockTableRecord
  2
*D43
340
0
 70
     0
280
     1
281
     0
  0
BLOCK_RECORD
  5
1787C
330
1
100
AcDbSymbolTableRecord
100
AcDbBlockTableRecord
  2
*D44
340
0
 70
     0
280
     1
281
     0
  0
BLOCK_RECORD
  5
17889
330
1
100
AcDbSymbolTableRecord
100
AcDbBlockTableRecord
  2
*D45
340
0
 70
     0
280
     1
281
     0
  0
ENDTAB
  0
ENDSEC
  0
SECTION
  2
BLOCKS
  0
BLOCK
  5
D
330
A
100
AcDbEntity
  8
0
390
1D
100
AcDbBlockBegin
  2
*MODEL_SPACE
 70
     0
 10
0.0
 20
0.0
 30
0.0
  3
*MODEL_SPACE
  1
*MODEL_SPACE
  0
ENDBLK
  5
E
330
A
100
AcDbEntity
  8
0
390
1D
100
AcDbBlockEnd
  0
BLOCK
  5
F
330
B
100
AcDbEntity
 67
     1
  8
0
390
1D
100
AcDbBlockBegin
  2
*PAPER_SPACE
 70
     0
 10
0.0
 20
0.0
 30
0.0
  3
*PAPER_SPACE
  1
*PAPER_SPACE
  0
ENDBLK
  5
10
330
B
100
AcDbEntity
 67
     1
  8
0
390
1D
100
AcDbBlockEnd
  0
BLOCK
  5
369F
330
4E
100
AcDbEntity
  8
0
390
1D
100
AcDbBlockBegin
  2
_DOT
 70
     0
 10
0.0
 20
0.0
 30
0.0
  3
_DOT
  1
_DOT
  0
POLYLINE
  5
36A1
330
4E
100
AcDbEntity
  8
0
  6
ByBlock
 62
     0
370
    -2
390
1D
100
AcDb2dPolyline
 66
     1
 10
0.0
 20
0.0
 30
0.0
 70
     1
 40
0.5
 41
0.5
  0
VERTEX
  5
36A2
330
36A1
100
AcDbEntity
  8
0
  6
ByBlock
 62
     0
370
    -2
390
1D
100
AcDbVertex
100
AcDb2dVertex
 10
-0.25
 20
0.0
 30
0.0
 42
1.0
  0
VERTEX
  5
36A3
330
36A1
100
AcDbEntity
  8
0
  6
ByBlock
 62
     0
370
    -2
390
1D
100
AcDbVertex
100
AcDb2dVertex
 10
0.25
 20
0.0
 30
0.0
 42
1.0
  0
SEQEND
  5
36A4
330
36A1
100
AcDbEntity
  8
0
390
1D
  0
LINE
  5
36A5
330
4E
100
AcDbEntity
  8
0
  6
ByBlock
 62
     0
370
    -2
390
1D
100
AcDbLine
 10
-0.5
 20
0.0
 30
0.0
 11
-1.0
 21
0.0
 31
0.0
  0
ENDBLK
  5
36A6
330
4E
100
AcDbEntity
  8
0
390
1D
100
AcDbBlockEnd
  0
BLOCK
  5
68B
330
68A
100
AcDbEntity
  8
0
100
AcDbBlockBegin
  2
名称未設定-1
 70
     0
 10
0.0
 20
0.0
 30
0.0
  3
名称未設定-1
  1
名称未設定-1
  0
INSERT
  5
68F
330
68A
100
AcDbEntity
  8
LOGO
100
AcDbBlockReference
  2
block 3
 10
0.0
 20
0.0
 30
0.0
  0
ENDBLK
  5
6B1
330
68A
100
AcDbEntity
  8
0
100
AcDbBlockEnd
  0
BLOCK
  5
68E
330
68D
100
AcDbEntity
  8
0
100
AcDbBlockBegin
  2
block 2
 70
     0
 10
0.0
 20
0.0
 30
0.0
  3
block 2
  1
block 2
  0
ENDBLK
  5
6B0
330
68D
100
AcDbEntity
  8
0
100
AcDbBlockEnd
  0
BLOCK
  5
691
330
690
100
AcDbEntity
  8
0
100
AcDbBlockBegin
  2
block 3
 70
     0
 10
0.0
 20
0.0
 30
0.0
  3
block 3
  1
block 3
  0
INSERT
  5
692
330
690
100
AcDbEntity
  8
LOGO
100
AcDbBlockReference
  2
block 4
 10
0.0
 20
0.0
 30
0.0
  0
INSERT
  5
6A1
330
690
100
AcDbEntity
  8
LOGO
100
AcDbBlockReference
  2
block 5
 10
0.0
 20
0.0
 30
0.0
  0
ENDBLK
  5
6AF
330
690
100
AcDbEntity
  8
0
100
AcDbBlockEnd
  0
BLOCK
  5
694
330
693
100
AcDbEntity
  8
0
100
AcDbBlockBegin
  2
block 4
 70
     0
 10
0.0
 20
0.0
 30
0.0
  3
block 4
  1
block 4
  0
POLYLINE
  5
695
330
693
100
AcDbEntity
  8
LOGO
370
     0
100
AcDb2dPolyline
 66
     1
 10
0.0
 20
0.0
 30
0.0
  0
VERTEX
  5
696
330
695
100
AcDbEntity
  8
LOGO
370
     0
100
AcDbVertex
100
AcDb2dVertex
 10
83.79545727667794
 20
167.6444858234922
 30
0.0
  0
VERTEX
  5
697
330
695
100
AcDbEntity
  8
LOGO
370
     0
100
AcDbVertex
100
AcDb2dVertex
 10
83.79545727667794
 20
159.7968976406313
 30
0.0
  0
VERTEX
  5
698
330
695
100
AcDbEntity
  8
LOGO
370
     0
100
AcDbVertex
100
AcDb2dVertex
 10
71.36313299752159
 20
159.7968976406313
 30
0.0
  0
VERTEX
  5
699
330
695
100
AcDbEntity
  8
LOGO
370
     0
100
AcDbVertex
100
AcDb2dVertex
 10
71.36313299752159
 20
127.8027915271048
 30
0.0
  0
VERTEX
  5
69A
330
695
100
AcDbEntity
  8
LOGO
370
     0
100
AcDbVertex
100
AcDb2dVertex
 10
60.43011526263017
 20
127.8027915271048
 30
0.0
  0
VERTEX
  5
69B
330
695
100
AcDbEntity
  8
LOGO
370
     0
100
AcDbVertex
100
AcDb2dVertex
 10
60.43011526263017
 20
159.7968976406313
 30
0.0
  0
VERTEX
  5
69C
330
695
100
AcDbEntity
  8
LOGO
370
     0
100
AcDbVertex
100
AcDb2dVertex
 10
48.21793273020759
 20
159.7968976406313
 30
0.0
  0
VERTEX
  5
69D
330
695
100
AcDbEntity
  8
LOGO
370
     0
100
AcDbVertex
100
AcDb2dVertex
 10
48.21793273020759
 20
167.6444858234922
 30
0.0
  0
VERTEX
  5
69E
330
695
100
AcDbEntity
  8
LOGO
370
     0
100
AcDbVertex
100
AcDb2dVertex
 10
83.79545727667794
 20
167.6444858234922
 30
0.0
  0
SEQEND
  5
69F
330
695
100
AcDbEntity
  8
LOGO
370
     0
  0
HATCH
  5
6A0
330
693
100
AcDbEntity
  8
LOGO
 62
   250
420
  2234388
100
AcDbHatch
 10
0.0
 20
0.0
 30
0.0
210
0.0
220
0.0
230
1.0
  2
SOLID
 70
     1
 71
     0
 91
        1
 92
        1
 93
        8
 72
     1
 10
83.79545727667794
 20
167.6444858234922
 11
83.79545727667794
 21
159.7968976406313
 72
     1
 10
83.79545727667794
 20
159.7968976406313
 11
71.36313299752159
 21
159.7968976406313
 72
     1
 10
71.36313299752159
 20
159.7968976406313
 11
71.36313299752159
 21
127.8027915271048
 72
     1
 10
71.36313299752159
 20
127.8027915271048
 11
60.43011526263017
 21
127.8027915271048
 72
     1
 10
60.43011526263017
 20
127.8027915271048
 11
60.43011526263017
 21
159.7968976406313
 72
     1
 10
60.43011526263017
 20
159.7968976406313
 11
48.21793273020759
 21
159.7968976406313
 72
     1
 10
48.21793273020759
 20
159.7968976406313
 11
48.21793273020759
 21
167.6444858234922
 72
     1
 10
48.21793273020759
 20
167.6444858234922
 11
83.79545727667794
 21
167.6444858234922
 97
        0
 75
     2
 76
     1
 98
        0
450
        0
451
        0
460
0.0
461
0.0
452
        0
462
0.0
453
        0
470

  0
ENDBLK
  5
6AE
330
693
100
AcDbEntity
  8
0
100
AcDbBlockEnd
  0
BLOCK
  5
6A3
330
6A2
100
AcDbEntity
  8
0
100
AcDbBlockBegin
  2
block 5
 70
     0
 10
0.0
 20
0.0
 30
0.0
  3
block 5
  1
block 5
  0
SPLINE
  5
6A4
330
6A2
100
AcDbEntity
  8
LOGO
370
     0
100
AcDbSpline
210
0.0
220
0.0
230
1.0
 70
     9
 71
     3
 72
    56
 73
    52
 74
     0
 42
0.000000001
 43
0.0000000001
 40
0.0
 40
0.0
 40
0.0
 40
0.0
 40
1.0
 40
1.0
 40
1.0
 40
2.0
 40
2.0
 40
2.0
 40
3.0
 40
3.0
 40
3.0
 40
4.0
 40
4.0
 40
4.0
 40
5.0
 40
5.0
 40
5.0
 40
6.0
 40
6.0
 40
6.0
 40
7.0
 40
7.0
 40
7.0
 40
8.0
 40
8.0
 40
8.0
 40
9.0
 40
9.0
 40
9.0
 40
10.0
 40
10.0
 40
10.0
 40
11.0
 40
11.0
 40
11.0
 40
12.0
 40
12.0
 40
12.0
 40
13.0
 40
13.0
 40
13.0
 40
14.0
 40
14.0
 40
14.0
 40
15.0
 40
15.0
 40
15.0
 40
16.0
 40
16.0
 40
16.0
 40
17.0
 40
17.0
 40
17.0
 40
17.0
 10
100.4504378777679
 20
166.69157178364
 30
0.0
 10
101.9848844191641
 20
167.1313385124438
 30
0.0
 10
103.9637485713373
 20
166.7649523658846
 30
0.0
 10
103.9637485713373
 20
166.7649523658846
 30
0.0
 10
103.9637485713373
 20
166.7649523658846
 30
0.0
 10
103.0132460999156
 20
163.9112056380769
 30
0.0
 10
103.0132460999156
 20
163.9112056380769
 30
0.0
 10
103.0132460999156
 20
163.9112056380769
 30
0.0
 10
101.0674548862189
 20
164.3601018759394
 30
0.0
 10
99.57090442016031
 20
163.1805004036133
 30
0.0
 10
98.40508333886608
 20
162.258247733807
 30
0.0
 10
97.65301849830308
 20
159.804132345923
 30
0.0
 10
97.35984067910052
 20
158.8699940888517
 30
0.0
 10
97.35984067910052
 20
158.8699940888517
 30
0.0
 10
96.0713741176228
 20
154.9119212747295
 30
0.0
 10
96.0713741176228
 20
154.9119212747295
 30
0.0
 10
96.0713741176228
 20
154.9119212747295
 30
0.0
 10
100.3012651448482
 20
154.9119212747295
 30
0.0
 10
100.3012651448482
 20
154.9119212747295
 30
0.0
 10
100.3012651448482
 20
154.9119212747295
 30
0.0
 10
99.64152892419852
 20
152.4199098115079
 30
0.0
 10
99.64152892419852
 20
152.4199098115079
 30
0.0
 10
99.64152892419852
 20
152.4199098115079
 30
0.0
 10
95.38097652692732
 20
152.4199098115079
 30
0.0
 10
95.38097652692732
 20
152.4199098115079
 30
0.0
 10
95.38097652692732
 20
152.4199098115079
 30
0.0
 10
87.75353009080012
 20
127.8027915271048
 30
0.0
 10
87.75353009080012
 20
127.8027915271048
 30
0.0
 10
87.75353009080012
 20
127.8027915271048
 30
0.0
 10
85.36538832498106
 20
127.8027915271048
 30
0.0
 10
85.36538832498106
 20
127.8027915271048
 30
0.0
 10
85.36538832498106
 20
127.8027915271048
 30
0.0
 10
93.00006946639999
 20
152.4199098115079
 30
0.0
 10
93.00006946639999
 20
152.4199098115079
 30
0.0
 10
93.00006946639999
 20
152.4199098115079
 30
0.0
 10
89.85297266450199
 20
152.4199098115079
 30
0.0
 10
89.85297266450199
 20
152.4199098115079
 30
0.0
 10
89.85297266450199
 20
152.4199098115079
 30
0.0
 10
90.51270888515164
 20
154.9119212747295
 30
0.0
 10
90.51270888515164
 20
154.9119212747295
 30
0.0
 10
90.51270888515164
 20
154.9119212747295
 30
0.0
 10
93.6904670570955
 20
154.9119212747295
 30
0.0
 10
93.6904670570955
 20
154.9119212747295
 30
0.0
 10
93.6904670570955
 20
154.9119212747295
 30
0.0
 10
94.81598049462158
 20
158.3616699146644
 30
0.0
 10
94.81598049462158
 20
158.3616699146644
 30
0.0
 10
95.7237637538445
 20
161.2605474231013
 30
0.0
 10
96.49684369073108
 20
162.8139420021662
 30
0.0
 10
97.1565799113808
 20
163.9844139654337
 30
0.0
 10
97.81183750494509
 20
165.1523021053827
 30
0.0
 10
99.10478269350807
 20
166.3084769129547
 30
0.0
 10
100.4504378777679
 20
166.69157178364
 30
0.0
  0
HATCH
  5
6A5
330
6A2
100
AcDbEntity
  8
LOGO
 62
   250
420
  2234388
100
AcDbHatch
 10
0.0
 20
0.0
 30
0.0
210
0.0
220
0.0
230
1.0
  2
SOLID
 70
     1
 71
     0
 91
        1
 92
        1
 93
        1
 72
     4
 94
        3
 73
     0
 74
     0
 95
       56
 96
       52
 40
0.0
 40
0.0
 40
0.0
 40
0.0
 40
1.0
 40
1.0
 40
1.0
 40
2.0
 40
2.0
 40
2.0
 40
3.0
 40
3.0
 40
3.0
 40
4.0
 40
4.0
 40
4.0
 40
5.0
 40
5.0
 40
5.0
 40
6.0
 40
6.0
 40
6.0
 40
7.0
 40
7.0
 40
7.0
 40
8.0
 40
8.0
 40
8.0
 40
9.0
 40
9.0
 40
9.0
 40
10.0
 40
10.0
 40
10.0
 40
11.0
 40
11.0
 40
11.0
 40
12.0
 40
12.0
 40
12.0
 40
13.0
 40
13.0
 40
13.0
 40
14.0
 40
14.0
 40
14.0
 40
15.0
 40
15.0
 40
15.0
 40
16.0
 40
16.0
 40
16.0
 40
17.0
 40
17.0
 40
17.0
 40
17.0
 10
100.4504378777679
 20
166.69157178364
 10
101.9848844191641
 20
167.1313385124438
 10
103.9637485713373
 20
166.7649523658846
 10
103.9637485713373
 20
166.7649523658846
 10
103.9637485713373
 20
166.7649523658846
 10
103.0132460999156
 20
163.9112056380769
 10
103.0132460999156
 20
163.9112056380769
 10
103.0132460999156
 20
163.9112056380769
 10
101.0674548862189
 20
164.3601018759394
 10
99.57090442016031
 20
163.1805004036133
 10
98.40508333886608
 20
162.258247733807
 10
97.65301849830308
 20
159.804132345923
 10
97.35984067910052
 20
158.8699940888517
 10
97.35984067910052
 20
158.8699940888517
 10
96.0713741176228
 20
154.9119212747295
 10
96.0713741176228
 20
154.9119212747295
 10
96.0713741176228
 20
154.9119212747295
 10
100.3012651448482
 20
154.9119212747295
 10
100.3012651448482
 20
154.9119212747295
 10
100.3012651448482
 20
154.9119212747295
 10
99.64152892419852
 20
152.4199098115079
 10
99.64152892419852
 20
152.4199098115079
 10
99.64152892419852
 20
152.4199098115079
 10
95.38097652692732
 20
152.4199098115079
 10
95.38097652692732
 20
152.4199098115079
 10
95.38097652692732
 20
152.4199098115079
 10
87.75353009080012
 20
127.8027915271048
 10
87.75353009080012
 20
127.8027915271048
 10
87.75353009080012
 20
127.8027915271048
 10
85.36538832498106
 20
127.8027915271048
 10
85.36538832498106
 20
127.8027915271048
 10
85.36538832498106
 20
127.8027915271048
 10
93.00006946639999
 20
152.4199098115079
 10
93.00006946639999
 20
152.4199098115079
 10
93.00006946639999
 20
152.4199098115079
 10
89.85297266450199
 20
152.4199098115079
 10
89.85297266450199
 20
152.4199098115079
 10
89.85297266450199
 20
152.4199098115079
 10
90.51270888515164
 20
154.9119212747295
 10
90.51270888515164
 20
154.9119212747295
 10
90.51270888515164
 20
154.9119212747295
 10
93.6904670570955
 20
154.9119212747295
 10
93.6904670570955
 20
154.9119212747295
 10
93.6904670570955
 20
154.9119212747295
 10
94.81598049462158
 20
158.3616699146644
 10
94.81598049462158
 20
158.3616699146644
 10
95.7237637538445
 20
161.2605474231013
 10
96.49684369073108
 20
162.8139420021662
 10
97.1565799113808
 20
163.9844139654337
 10
97.81183750494509
 20
165.1523021053827
 10
99.10478269350807
 20
166.3084769129547
 10
100.4504378777679
 20
166.69157178364
 97
        0
 97
        0
 75
     2
 76
     1
 98
        0
450
        0
451
        0
460
0.0
461
0.0
452
        0
462
0.0
453
        0
470

  0
SPLINE
  5
6A6
330
6A2
100
AcDbEntity
  8
LOGO
370
     0
100
AcDbSpline
210
0.0
220
0.0
230
1.0
 70
    11
 71
     3
 72
    38
 73
    34
 74
     0
 42
0.000000001
 43
0.0000000001
 40
0.0
 40
0.0
 40
0.0
 40
0.0
 40
1.0
 40
1.0
 40
1.0
 40
2.0
 40
2.0
 40
2.0
 40
3.0
 40
3.0
 40
3.0
 40
4.0
 40
4.0
 40
4.0
 40
5.0
 40
5.0
 40
5.0
 40
6.0
 40
6.0
 40
6.0
 40
7.0
 40
7.0
 40
7.0
 40
8.0
 40
8.0
 40
8.0
 40
9.0
 40
9.0
 40
9.0
 40
10.0
 40
10.0
 40
10.0
 40
11.0
 40
11.0
 40
11.0
 40
11.0
 10
126.377554584636
 20
154.8151140277308
 30
0.0
 10
126.377554584636
 20
154.8151140277308
 30
0.0
 10
128.8311532078563
 20
154.8151140277308
 30
0.0
 10
128.8311532078563
 20
154.8151140277308
 30
0.0
 10
128.8311532078563
 20
154.8151140277308
 30
0.0
 10
127.7345785914971
 20
151.3062819612468
 30
0.0
 10
127.7345785914971
 20
151.3062819612468
 30
0.0
 10
128.571392836906
 20
152.2922689395754
 30
0.0
 10
129.8860421413442
 20
153.604506675583
 30
0.0
 10
131.0163787157314
 20
154.2664822097754
 30
0.0
 10
132.7044766171327
 20
155.2500576196734
 30
0.0
 10
133.6642808525008
 20
155.3847609420097
 30
0.0
 10
134.7284715499351
 20
155.3565111403944
 30
0.0
 10
134.7284715499351
 20
155.3565111403944
 30
0.0
 10
133.6877075172549
 20
152.0345756272799
 30
0.0
 10
133.6877075172549
 20
152.0345756272799
 30
0.0
 10
133.011434827367
 20
152.3184516825359
 30
0.0
 10
130.930940291334
 20
151.7768823149844
 30
0.0
 10
129.739280976855
 20
150.9162968950455
 30
0.0
 10
128.66613302525
 20
150.1454562717016
 30
0.0
 10
127.9192358313239
 20
149.4857200510519
 30
0.0
 10
127.0393578639405
 20
147.8282835196966
 30
0.0
 10
126.164647543194
 20
146.1699857139017
 30
0.0
 10
125.4742499524985
 20
143.5262176944419
 30
0.0
 10
124.2822461282437
 20
139.6959580071401
 30
0.0
 10
124.2822461282437
 20
139.6959580071401
 30
0.0
 10
120.5753209406769
 20
127.8027915271048
 30
0.0
 10
120.5753209406769
 20
127.8027915271048
 30
0.0
 10
120.5753209406769
 20
127.8027915271048
 30
0.0
 10
118.1964809388044
 20
127.8027915271048
 30
0.0
 10
118.1964809388044
 20
127.8027915271048
 30
0.0
 10
118.1964809388044
 20
127.8027915271048
 30
0.0
 10
126.377554584636
 20
154.8151140277308
 30
0.0
 10
126.377554584636
 20
154.8151140277308
 30
0.0
  0
HATCH
  5
6A7
330
6A2
100
AcDbEntity
  8
LOGO
 62
   250
420
  2234388
100
AcDbHatch
 10
0.0
 20
0.0
 30
0.0
210
0.0
220
0.0
230
1.0
  2
SOLID
 70
     1
 71
     0
 91
        1
 92
        1
 93
        1
 72
     4
 94
        3
 73
     0
 74
     0
 95
       38
 96
       34
 40
0.0
 40
0.0
 40
0.0
 40
0.0
 40
1.0
 40
1.0
 40
1.0
 40
2.0
 40
2.0
 40
2.0
 40
3.0
 40
3.0
 40
3.0
 40
4.0
 40
4.0
 40
4.0
 40
5.0
 40
5.0
 40
5.0
 40
6.0
 40
6.0
 40
6.0
 40
7.0
 40
7.0
 40
7.0
 40
8.0
 40
8.0
 40
8.0
 40
9.0
 40
9.0
 40
9.0
 40
10.0
 40
10.0
 40
10.0
 40
11.0
 40
11.0
 40
11.0
 40
11.0
 10
126.377554584636
 20
154.8151140277308
 10
126.377554584636
 20
154.8151140277308
 10
128.8311532078563
 20
154.8151140277308
 10
128.8311532078563
 20
154.8151140277308
 10
128.8311532078563
 20
154.8151140277308
 10
127.7345785914971
 20
151.3062819612468
 10
127.7345785914971
 20
151.3062819612468
 10
128.571392836906
 20
152.2922689395754
 10
129.8860421413442
 20
153.604506675583
 10
131.0163787157314
 20
154.2664822097754
 10
132.7044766171327
 20
155.2500576196734
 10
133.6642808525008
 20
155.3847609420097
 10
134.7284715499351
 20
155.3565111403944
 10
134.7284715499351
 20
155.3565111403944
 10
133.6877075172549
 20
152.0345756272799
 10
133.6877075172549
 20
152.0345756272799
 10
133.011434827367
 20
152.3184516825359
 10
130.930940291334
 20
151.7768823149844
 10
129.739280976855
 20
150.9162968950455
 10
128.66613302525
 20
150.1454562717016
 10
127.9192358313239
 20
149.4857200510519
 10
127.0393578639405
 20
147.8282835196966
 10
126.164647543194
 20
146.1699857139017
 10
125.4742499524985
 20
143.5262176944419
 10
124.2822461282437
 20
139.6959580071401
 10
124.2822461282437
 20
139.6959580071401
 10
120.5753209406769
 20
127.8027915271048
 10
120.5753209406769
 20
127.8027915271048
 10
120.5753209406769
 20
127.8027915271048
 10
118.1964809388044
 20
127.8027915271048
 10
118.1964809388044
 20
127.8027915271048
 10
118.1964809388044
 20
127.8027915271048
 10
126.377554584636
 20
154.8151140277308
 10
126.377554584636
 20
154.8151140277308
 97
        0
 97
        0
 75
     2
 76
     1
 98
        0
450
        0
451
        0
460
0.0
461
0.0
452
        0
462
0.0
453
        0
470

  0
SPLINE
  5
6A8
330
6A2
100
AcDbEntity
  8
LOGO
370
     0
100
AcDbSpline
210
0.0
220
0.0
230
1.0
 70
    11
 71
     3
 72
   104
 73
   100
 74
     0
 42
0.000000001
 43
0.0000000001
 40
0.0
 40
0.0
 40
0.0
 40
0.0
 40
1.0
 40
1.0
 40
1.0
 40
2.0
 40
2.0
 40
2.0
 40
3.0
 40
3.0
 40
3.0
 40
4.0
 40
4.0
 40
4.0
 40
5.0
 40
5.0
 40
5.0
 40
6.0
 40
6.0
 40
6.0
 40
7.0
 40
7.0
 40
7.0
 40
8.0
 40
8.0
 40
8.0
 40
9.0
 40
9.0
 40
9.0
 40
10.0
 40
10.0
 40
10.0
 40
11.0
 40
11.0
 40
11.0
 40
12.0
 40
12.0
 40
12.0
 40
13.0
 40
13.0
 40
13.0
 40
14.0
 40
14.0
 40
14.0
 40
15.0
 40
15.0
 40
15.0
 40
16.0
 40
16.0
 40
16.0
 40
17.0
 40
17.0
 40
17.0
 40
18.0
 40
18.0
 40
18.0
 40
19.0
 40
19.0
 40
19.0
 40
20.0
 40
20.0
 40
20.0
 40
21.0
 40
21.0
 40
21.0
 40
22.0
 40
22.0
 40
22.0
 40
23.0
 40
23.0
 40
23.0
 40
24.0
 40
24.0
 40
24.0
 40
25.0
 40
25.0
 40
25.0
 40
26.0
 40
26.0
 40
26.0
 40
27.0
 40
27.0
 40
27.0
 40
28.0
 40
28.0
 40
28.0
 40
29.0
 40
29.0
 40
29.0
 40
30.0
 40
30.0
 40
30.0
 40
31.0
 40
31.0
 40
31.0
 40
32.0
 40
32.0
 40
32.0
 40
33.0
 40
33.0
 40
33.0
 40
33.0
 10
139.8926730891197
 20
154.8294111834263
 30
0.0
 10
139.8926730891197
 20
154.8294111834263
 30
0.0
 10
142.0344903652445
 20
154.8294111834263
 30
0.0
 10
142.0344903652445
 20
154.8294111834263
 30
0.0
 10
142.0344903652445
 20
154.8294111834263
 30
0.0
 10
140.9516961399171
 20
151.3157559800812
 30
0.0
 10
140.9516961399171
 20
151.3157559800812
 30
0.0
 10
141.8928968473923
 20
152.7887075264977
 30
0.0
 10
142.7341897198865
 20
153.4484437471474
 30
0.0
 10
143.8552245303271
 20
154.2926649527359
 30
0.0
 10
144.9803934580775
 20
155.1296514530327
 30
0.0
 10
146.3139908001845
 20
155.3044901642492
 30
0.0
 10
147.241066606852
 20
155.3044901642492
 30
0.0
 10
148.3855280820469
 20
155.3044901642492
 30
0.0
 10
149.4969166187653
 20
155.0752189084569
 30
0.0
 10
150.0784491203092
 20
153.8172414621372
 30
0.0
 10
150.5228667310863
 20
152.833838307127
 30
0.0
 10
150.5414702589793
 20
152.7201500811143
 30
0.0
 10
150.4140016419347
 20
150.7765981809602
 30
0.0
 10
151.5818897818837
 20
152.7699317437168
 30
0.0
 10
152.4424752018226
 20
153.6256940267945
 30
0.0
 10
153.9038856707499
 20
154.4507949398263
 30
0.0
 10
155.4455669174378
 20
155.3044901642492
 30
0.0
 10
156.339225275853
 20
155.3659851592288
 30
0.0
 10
157.3748216618963
 20
155.2147453676543
 30
0.0
 10
158.911679771723
 20
154.9877134254046
 30
0.0
 10
159.8859534176746
 20
154.4390816074493
 30
0.0
 10
160.3965169054045
 20
152.7816450760939
 30
0.0
 10
160.9070803931344
 20
151.1219692311958
 30
0.0
 10
160.6328506116007
 20
150.2303779314354
 30
0.0
 10
159.9992971339115
 20
147.597634224801
 30
0.0
 10
159.7105979417943
 20
146.4014962832367
 30
0.0
 10
159.2947746424084
 20
144.9400858143094
 30
0.0
 10
158.7463150793409
 20
143.2092687007094
 30
0.0
 10
158.7463150793409
 20
143.2092687007094
 30
0.0
 10
153.9038856707499
 20
127.8027915271048
 30
0.0
 10
153.9038856707499
 20
127.8027915271048
 30
0.0
 10
153.9038856707499
 20
127.8027915271048
 30
0.0
 10
151.3882752878863
 20
127.8027915271048
 30
0.0
 10
151.3882752878863
 20
127.8027915271048
 30
0.0
 10
151.3882752878863
 20
127.8027915271048
 30
0.0
 10
155.6250565106276
 20
141.2751908193897
 30
0.0
 10
155.6250565106276
 20
141.2751908193897
 30
0.0
 10
156.5094131050963
 20
144.0936252951782
 30
0.0
 10
157.109893644309
 20
146.1506931664571
 30
0.0
 10
157.4220195011804
 20
147.4415712963654
 30
0.0
 10
157.8095929989511
 20
149.0530157726519
 30
0.0
 10
157.9656559273866
 20
149.5826995529385
 30
0.0
 10
157.7816877071116
 20
150.7529992613181
 30
0.0
 10
157.6111553680925
 20
151.8430281919371
 30
0.0
 10
157.0582171779396
 20
152.5547853887321
 30
0.0
 10
156.1170164704645
 20
152.5547853887321
 30
0.0
 10
155.1096698860365
 20
152.5547853887321
 30
0.0
 10
154.2962823053817
 20
152.4412694176073
 30
0.0
 10
153.156643967048
 20
151.2945686288697
 30
0.0
 10
152.0170056287143
 20
150.1476955852443
 30
0.0
 10
151.076149431015
 20
148.7930831468136
 30
0.0
 10
150.3337308641742
 20
147.2290087646991
 30
0.0
 10
149.5957909244188
 20
145.6683794803425
 30
0.0
 10
148.8530278478023
 20
143.6822806228776
 30
0.0
 10
148.0964843801539
 20
141.2751908193897
 30
0.0
 10
148.0964843801539
 20
141.2751908193897
 30
0.0
 10
143.8552245303271
 20
127.8027915271048
 30
0.0
 10
143.8552245303271
 20
127.8027915271048
 30
0.0
 10
143.8552245303271
 20
127.8027915271048
 30
0.0
 10
141.486030802177
 20
127.8027915271048
 30
0.0
 10
141.486030802177
 20
127.8027915271048
 30
0.0
 10
141.486030802177
 20
127.8027915271048
 30
0.0
 10
146.3329388378533
 20
143.2092687007094
 30
0.0
 10
146.3329388378533
 20
143.2092687007094
 30
0.0
 10
146.8483254624444
 20
144.8408669988801
 30
0.0
 10
147.2314203331297
 20
146.1837661049335
 30
0.0
 10
147.4867020769946
 20
147.224185627838
 30
0.0
 10
147.9169947869641
 20
149.0197705792876
 30
0.0
 10
148.0306830129768
 20
150.2400242051576
 30
0.0
 10
147.709255392159
 20
151.3157559800812
 30
0.0
 10
147.3874832615654
 20
152.3916600098926
 30
0.0
 10
146.8245542879144
 20
152.6683013598569
 30
0.0
 10
145.8840425999909
 20
152.6683013598569
 30
0.0
 10
145.0989048209514
 20
152.6683013598569
 30
0.0
 10
144.3282364524954
 20
152.3275811915945
 30
0.0
 10
143.4531816219731
 20
151.6538923250251
 30
0.0
 10
142.34627171234
 20
150.8074318058939
 30
0.0
 10
141.901854101563
 20
150.1097995099067
 30
0.0
 10
141.3578731655808
 20
149.289521733736
 30
0.0
 10
140.6299240093235
 20
148.192602607601
 30
0.0
 10
140.2850697237515
 20
147.455696197173
 30
0.0
 10
139.6652966370942
 20
145.8385673095858
 30
0.0
 10
139.0506911970739
 20
144.2214384219986
 30
0.0
 10
138.463991048893
 20
142.3252566160164
 30
0.0
 10
138.0571250036777
 20
141.0154304484394
 30
0.0
 10
138.0571250036777
 20
141.0154304484394
 30
0.0
 10
133.9009590684727
 20
127.8027915271048
 30
0.0
 10
133.9009590684727
 20
127.8027915271048
 30
0.0
 10
133.9009590684727
 20
127.8027915271048
 30
0.0
 10
131.4180771143097
 20
127.8027915271048
 30
0.0
 10
131.4180771143097
 20
127.8027915271048
 30
0.0
 10
131.4180771143097
 20
127.8027915271048
 30
0.0
 10
139.8926730891197
 20
154.8294111834263
 30
0.0
 10
139.8926730891197
 20
154.8294111834263
 30
0.0
  0
HATCH
  5
6A9
330
6A2
100
AcDbEntity
  8
LOGO
 62
   250
420
  2234388
100
AcDbHatch
 10
0.0
 20
0.0
 30
0.0
210
0.0
220
0.0
230
1.0
  2
SOLID
 70
     1
 71
     0
 91
        1
 92
        1
 93
        1
 72
     4
 94
        3
 73
     0
 74
     0
 95
      104
 96
      100
 40
0.0
 40
0.0
 40
0.0
 40
0.0
 40
1.0
 40
1.0
 40
1.0
 40
2.0
 40
2.0
 40
2.0
 40
3.0
 40
3.0
 40
3.0
 40
4.0
 40
4.0
 40
4.0
 40
5.0
 40
5.0
 40
5.0
 40
6.0
 40
6.0
 40
6.0
 40
7.0
 40
7.0
 40
7.0
 40
8.0
 40
8.0
 40
8.0
 40
9.0
 40
9.0
 40
9.0
 40
10.0
 40
10.0
 40
10.0
 40
11.0
 40
11.0
 40
11.0
 40
12.0
 40
12.0
 40
12.0
 40
13.0
 40
13.0
 40
13.0
 40
14.0
 40
14.0
 40
14.0
 40
15.0
 40
15.0
 40
15.0
 40
16.0
 40
16.0
 40
16.0
 40
17.0
 40
17.0
 40
17.0
 40
18.0
 40
18.0
 40
18.0
 40
19.0
 40
19.0
 40
19.0
 40
20.0
 40
20.0
 40
20.0
 40
21.0
 40
21.0
 40
21.0
 40
22.0
 40
22.0
 40
22.0
 40
23.0
 40
23.0
 40
23.0
 40
24.0
 40
24.0
 40
24.0
 40
25.0
 40
25.0
 40
25.0
 40
26.0
 40
26.0
 40
26.0
 40
27.0
 40
27.0
 40
27.0
 40
28.0
 40
28.0
 40
28.0
 40
29.0
 40
29.0
 40
29.0
 40
30.0
 40
30.0
 40
30.0
 40
31.0
 40
31.0
 40
31.0
 40
32.0
 40
32.0
 40
32.0
 40
33.0
 40
33.0
 40
33.0
 40
33.0
 10
139.8926730891197
 20
154.8294111834263
 10
139.8926730891197
 20
154.8294111834263
 10
142.0344903652445
 20
154.8294111834263
 10
142.0344903652445
 20
154.8294111834263
 10
142.0344903652445
 20
154.8294111834263
 10
140.9516961399171
 20
151.3157559800812
 10
140.9516961399171
 20
151.3157559800812
 10
141.8928968473923
 20
152.7887075264977
 10
142.7341897198865
 20
153.4484437471474
 10
143.8552245303271
 20
154.2926649527359
 10
144.9803934580775
 20
155.1296514530327
 10
146.3139908001845
 20
155.3044901642492
 10
147.241066606852
 20
155.3044901642492
 10
148.3855280820469
 20
155.3044901642492
 10
149.4969166187653
 20
155.0752189084569
 10
150.0784491203092
 20
153.8172414621372
 10
150.5228667310863
 20
152.833838307127
 10
150.5414702589793
 20
152.7201500811143
 10
150.4140016419347
 20
150.7765981809602
 10
151.5818897818837
 20
152.7699317437168
 10
152.4424752018226
 20
153.6256940267945
 10
153.9038856707499
 20
154.4507949398263
 10
155.4455669174378
 20
155.3044901642492
 10
156.339225275853
 20
155.3659851592288
 10
157.3748216618963
 20
155.2147453676543
 10
158.911679771723
 20
154.9877134254046
 10
159.8859534176746
 20
154.4390816074493
 10
160.3965169054045
 20
152.7816450760939
 10
160.9070803931344
 20
151.1219692311958
 10
160.6328506116007
 20
150.2303779314354
 10
159.9992971339115
 20
147.597634224801
 10
159.7105979417943
 20
146.4014962832367
 10
159.2947746424084
 20
144.9400858143094
 10
158.7463150793409
 20
143.2092687007094
 10
158.7463150793409
 20
143.2092687007094
 10
153.9038856707499
 20
127.8027915271048
 10
153.9038856707499
 20
127.8027915271048
 10
153.9038856707499
 20
127.8027915271048
 10
151.3882752878863
 20
127.8027915271048
 10
151.3882752878863
 20
127.8027915271048
 10
151.3882752878863
 20
127.8027915271048
 10
155.6250565106276
 20
141.2751908193897
 10
155.6250565106276
 20
141.2751908193897
 10
156.5094131050963
 20
144.0936252951782
 10
157.109893644309
 20
146.1506931664571
 10
157.4220195011804
 20
147.4415712963654
 10
157.8095929989511
 20
149.0530157726519
 10
157.9656559273866
 20
149.5826995529385
 10
157.7816877071116
 20
150.7529992613181
 10
157.6111553680925
 20
151.8430281919371
 10
157.0582171779396
 20
152.5547853887321
 10
156.1170164704645
 20
152.5547853887321
 10
155.1096698860365
 20
152.5547853887321
 10
154.2962823053817
 20
152.4412694176073
 10
153.156643967048
 20
151.2945686288697
 10
152.0170056287143
 20
150.1476955852443
 10
151.076149431015
 20
148.7930831468136
 10
150.3337308641742
 20
147.2290087646991
 10
149.5957909244188
 20
145.6683794803425
 10
148.8530278478023
 20
143.6822806228776
 10
148.0964843801539
 20
141.2751908193897
 10
148.0964843801539
 20
141.2751908193897
 10
143.8552245303271
 20
127.8027915271048
 10
143.8552245303271
 20
127.8027915271048
 10
143.8552245303271
 20
127.8027915271048
 10
141.486030802177
 20
127.8027915271048
 10
141.486030802177
 20
127.8027915271048
 10
141.486030802177
 20
127.8027915271048
 10
146.3329388378533
 20
143.2092687007094
 10
146.3329388378533
 20
143.2092687007094
 10
146.8483254624444
 20
144.8408669988801
 10
147.2314203331297
 20
146.1837661049335
 10
147.4867020769946
 20
147.224185627838
 10
147.9169947869641
 20
149.0197705792876
 10
148.0306830129768
 20
150.2400242051576
 10
147.709255392159
 20
151.3157559800812
 10
147.3874832615654
 20
152.3916600098926
 10
146.8245542879144
 20
152.6683013598569
 10
145.8840425999909
 20
152.6683013598569
 10
145.0989048209514
 20
152.6683013598569
 10
144.3282364524954
 20
152.3275811915945
 10
143.4531816219731
 20
151.6538923250251
 10
142.34627171234
 20
150.8074318058939
 10
141.901854101563
 20
150.1097995099067
 10
141.3578731655808
 20
149.289521733736
 10
140.6299240093235
 20
148.192602607601
 10
140.2850697237515
 20
147.455696197173
 10
139.6652966370942
 20
145.8385673095858
 10
139.0506911970739
 20
144.2214384219986
 10
138.463991048893
 20
142.3252566160164
 10
138.0571250036777
 20
141.0154304484394
 10
138.0571250036777
 20
141.0154304484394
 10
133.9009590684727
 20
127.8027915271048
 10
133.9009590684727
 20
127.8027915271048
 10
133.9009590684727
 20
127.8027915271048
 10
131.4180771143097
 20
127.8027915271048
 10
131.4180771143097
 20
127.8027915271048
 10
131.4180771143097
 20
127.8027915271048
 10
139.8926730891197
 20
154.8294111834263
 10
139.8926730891197
 20
154.8294111834263
 97
        0
 97
        0
 75
     2
 76
     1
 98
        0
450
        0
451
        0
460
0.0
461
0.0
452
        0
462
0.0
453
        0
470

  0
SPLINE
  5
6AA
330
6A2
100
AcDbEntity
  8
LOGO
370
     0
100
AcDbSpline
210
0.0
220
0.0
230
1.0
 70
     9
 71
     3
 72
    29
 73
    25
 74
     0
 42
0.000000001
 43
0.0000000001
 40
0.0
 40
0.0
 40
0.0
 40
0.0
 40
1.0
 40
1.0
 40
1.0
 40
2.0
 40
2.0
 40
2.0
 40
3.0
 40
3.0
 40
3.0
 40
4.0
 40
4.0
 40
4.0
 40
5.0
 40
5.0
 40
5.0
 40
6.0
 40
6.0
 40
6.0
 40
7.0
 40
7.0
 40
7.0
 40
8.0
 40
8.0
 40
8.0
 40
8.0
 10
101.6420971922469
 20
132.8388354296931
 30
0.0
 10
101.630039350094
 20
134.7164137077823
 30
0.0
 10
102.2236296937908
 20
138.0598810818841
 30
0.0
 10
103.7487744712405
 20
142.5378191476827
 30
0.0
 10
105.819967243327
 20
148.5896501242061
 30
0.0
 10
107.0602024361932
 20
150.8074318058939
 30
0.0
 10
108.1522984254671
 20
151.8833358357054
 30
0.0
 10
109.741177511439
 20
153.4532668840085
 30
0.0
 10
111.8740375333931
 20
153.5290590346837
 30
0.0
 10
112.5075910110823
 20
153.4532668840085
 30
0.0
 10
113.4012493694975
 20
153.3490526768302
 30
0.0
 10
114.6683563248758
 20
152.7580461564518
 30
0.0
 10
114.7493161221879
 20
150.7838328862519
 30
0.0
 10
114.8106388622796
 20
149.0909118479895
 30
0.0
 10
114.3186789024427
 20
145.9191825971221
 30
0.0
 10
112.6164561002338
 20
140.9489400617108
 30
0.0
 10
110.6444821435766
 20
135.1746117095912
 30
0.0
 10
109.4669477299053
 20
132.8960240524753
 30
0.0
 10
108.5212683953448
 20
131.9072809959403
 30
0.0
 10
106.7346406980658
 20
130.0538184021569
 30
0.0
 10
104.8222669326213
 20
130.2336525051225
 30
0.0
 10
104.5408024457958
 20
130.2336525051225
 30
0.0
 10
104.1721769856939
 20
130.2336525051225
 30
0.0
 10
101.6465758193322
 20
130.6305277668397
 30
0.0
 10
101.6420971922469
 20
132.8388354296931
 30
0.0
  0
SPLINE
  5
6AB
330
6A2
100
AcDbEntity
  8
LOGO
370
     0
100
AcDbSpline
210
0.0
220
0.0
230
1.0
 70
     9
 71
     3
 72
    32
 73
    28
 74
     0
 42
0.000000001
 43
0.0000000001
 40
0.0
 40
0.0
 40
0.0
 40
0.0
 40
1.0
 40
1.0
 40
1.0
 40
2.0
 40
2.0
 40
2.0
 40
3.0
 40
3.0
 40
3.0
 40
4.0
 40
4.0
 40
4.0
 40
5.0
 40
5.0
 40
5.0
 40
6.0
 40
6.0
 40
6.0
 40
7.0
 40
7.0
 40
7.0
 40
8.0
 40
8.0
 40
8.0
 40
9.0
 40
9.0
 40
9.0
 40
9.0
 10
106.2595617172429
 20
153.4105476718098
 30
0.0
 10
104.8222669326213
 20
151.5474388043041
 30
0.0
 10
103.7177685914188
 20
149.8758773721411
 30
0.0
 10
101.9232171692965
 20
144.6141795664062
 30
0.0
 10
100.2754269116635
 20
139.7999999594306
 30
0.0
 10
99.22777268346731
 20
136.3052927937542
 30
0.0
 10
99.06964269637688
 20
132.039572749846
 30
0.0
 10
98.94665270641764
 20
128.8673267343149
 30
0.0
 10
100.8807305877373
 20
127.8027915271048
 30
0.0
 10
103.7129454545577
 20
127.8027915271048
 30
0.0
 10
104.9352661390825
 20
127.8027915271048
 30
0.0
 10
108.0151835347002
 20
127.8827177950895
 30
0.0
 10
110.2045431598849
 20
130.5926316915021
 30
0.0
 10
111.7417457794874
 20
132.4984597712065
 30
0.0
 10
113.155269389579
 20
134.475256864725
 30
0.0
 10
115.0562743324223
 20
140.9489400617108
 30
0.0
 10
116.6361961642235
 20
146.3680788349845
 30
0.0
 10
117.7282921534974
 20
149.8639917848761
 30
0.0
 10
117.6480213757369
 20
151.8595646611754
 30
0.0
 10
117.6480213757369
 20
151.8595646611754
 30
0.0
 10
117.6480213757369
 20
151.8595646611754
 30
0.0
 10
117.6480213757369
 20
151.8595646611754
 30
0.0
 10
117.13229024137
 20
155.18150017429
 30
0.0
 10
114.7162431837115
 20
155.886194920681
 30
0.0
 10
113.3351034925446
 20
155.886194920681
 30
0.0
 10
111.9829026225447
 20
155.886194920681
 30
0.0
 10
108.3414342923792
 20
156.1251124501957
 30
0.0
 10
106.2595617172429
 20
153.4105476718098
 30
0.0
  0
HATCH
  5
6AC
330
6A2
100
AcDbEntity
  8
LOGO
 62
   250
420
  2234388
100
AcDbHatch
 10
0.0
 20
0.0
 30
0.0
210
0.0
220
0.0
230
1.0
  2
SOLID
 70
     1
 71
     0
 91
        2
 92
        1
 93
        1
 72
     4
 94
        3
 73
     0
 74
     0
 95
       29
 96
       25
 40
0.0
 40
0.0
 40
0.0
 40
0.0
 40
1.0
 40
1.0
 40
1.0
 40
2.0
 40
2.0
 40
2.0
 40
3.0
 40
3.0
 40
3.0
 40
4.0
 40
4.0
 40
4.0
 40
5.0
 40
5.0
 40
5.0
 40
6.0
 40
6.0
 40
6.0
 40
7.0
 40
7.0
 40
7.0
 40
8.0
 40
8.0
 40
8.0
 40
8.0
 10
101.6420971922469
 20
132.8388354296931
 10
101.630039350094
 20
134.7164137077823
 10
102.2236296937908
 20
138.0598810818841
 10
103.7487744712405
 20
142.5378191476827
 10
105.819967243327
 20
148.5896501242061
 10
107.0602024361932
 20
150.8074318058939
 10
108.1522984254671
 20
151.8833358357054
 10
109.741177511439
 20
153.4532668840085
 10
111.8740375333931
 20
153.5290590346837
 10
112.5075910110823
 20
153.4532668840085
 10
113.4012493694975
 20
153.3490526768302
 10
114.6683563248758
 20
152.7580461564518
 10
114.7493161221879
 20
150.7838328862519
 10
114.8106388622796
 20
149.0909118479895
 10
114.3186789024427
 20
145.9191825971221
 10
112.6164561002338
 20
140.9489400617108
 10
110.6444821435766
 20
135.1746117095912
 10
109.4669477299053
 20
132.8960240524753
 10
108.5212683953448
 20
131.9072809959403
 10
106.7346406980658
 20
130.0538184021569
 10
104.8222669326213
 20
130.2336525051225
 10
104.5408024457958
 20
130.2336525051225
 10
104.1721769856939
 20
130.2336525051225
 10
101.6465758193322
 20
130.6305277668397
 10
101.6420971922469
 20
132.8388354296931
 97
        0
 97
        0
 92
        1
 93
        1
 72
     4
 94
        3
 73
     0
 74
     0
 95
       32
 96
       28
 40
0.0
 40
0.0
 40
0.0
 40
0.0
 40
1.0
 40
1.0
 40
1.0
 40
2.0
 40
2.0
 40
2.0
 40
3.0
 40
3.0
 40
3.0
 40
4.0
 40
4.0
 40
4.0
 40
5.0
 40
5.0
 40
5.0
 40
6.0
 40
6.0
 40
6.0
 40
7.0
 40
7.0
 40
7.0
 40
8.0
 40
8.0
 40
8.0
 40
9.0
 40
9.0
 40
9.0
 40
9.0
 10
106.2595617172429
 20
153.4105476718098
 10
104.8222669326213
 20
151.5474388043041
 10
103.7177685914188
 20
149.8758773721411
 10
101.9232171692965
 20
144.6141795664062
 10
100.2754269116635
 20
139.7999999594306
 10
99.22777268346731
 20
136.3052927937542
 10
99.06964269637688
 20
132.039572749846
 10
98.94665270641764
 20
128.8673267343149
 10
100.8807305877373
 20
127.8027915271048
 10
103.7129454545577
 20
127.8027915271048
 10
104.9352661390825
 20
127.8027915271048
 10
108.0151835347002
 20
127.8827177950895
 10
110.2045431598849
 20
130.5926316915021
 10
111.7417457794874
 20
132.4984597712065
 10
113.155269389579
 20
134.475256864725
 10
115.0562743324223
 20
140.9489400617108
 10
116.6361961642235
 20
146.3680788349845
 10
117.7282921534974
 20
149.8639917848761
 10
117.6480213757369
 20
151.8595646611754
 10
117.6480213757369
 20
151.8595646611754
 10
117.6480213757369
 20
151.8595646611754
 10
117.6480213757369
 20
151.8595646611754
 10
117.13229024137
 20
155.18150017429
 10
114.7162431837115
 20
155.886194920681
 10
113.3351034925446
 20
155.886194920681
 10
111.9829026225447
 20
155.886194920681
 10
108.3414342923792
 20
156.1251124501957
 10
106.2595617172429
 20
153.4105476718098
 97
        0
 97
        0
 75
     2
 76
     1
 98
        0
450
        0
451
        0
460
0.0
461
0.0
452
        0
462
0.0
453
        0
470

  0
ENDBLK
  5
6AD
330
6A2
100
AcDbEntity
  8
0
100
AcDbBlockEnd
  0
BLOCK
  5
A5E4
330
A5E3
100
AcDbEntity
  8
0
100
AcDbBlockBegin
  2
*D6
 70
     1
 10
0.0
 20
0.0
 30
0.0
  3
*D6
  1

  0
LINE
  5
A5E6
330
A5E3
100
AcDbEntity
  8
DIM
 62
     0
 48
0.05
370
    -2
100
AcDbLine
 10
1730.864134938687
 20
730.1371355814874
 30
0.0
 11
1788.374382379747
 21
730.1371355814874
 31
0.0
  0
LINE
  5
A5E7
330
A5E3
100
AcDbEntity
  8
DIM
 62
     0
 48
0.05
370
    -2
100
AcDbLine
 10
1726.384589974683
 20
375.9574480814874
 30
0.0
 11
1788.374382379747
 21
375.9574480814874
 31
0.0
  0
LINE
  5
A5E8
330
A5E3
100
AcDbEntity
  8
DIM
 62
     0
 48
0.05
370
    -2
100
AcDbLine
 10
1788.374382379747
 20
727.1371355814874
 30
0.0
 11
1788.374382379747
 21
378.9574480814874
 31
0.0
  0
INSERT
  5
A5E9
330
A5E3
100
AcDbEntity
  8
DIM
 62
     0
370
    -2
100
AcDbBlockReference
  2
_DOT
 10
1788.374382379747
 20
730.1371355814874
 30
0.0
 41
3.0
 42
3.0
 43
3.0
 50
90.0
  0
INSERT
  5
A5EA
330
A5E3
100
AcDbEntity
  8
DIM
 62
     0
370
    -2
100
AcDbBlockReference
  2
_DOT
 10
1788.374382379747
 20
375.9574480814874
 30
0.0
 41
3.0
 42
3.0
 43
3.0
 50
270.0
  0
MTEXT
  5
A5EB
330
A5E3
100
AcDbEntity
  8
DIM
 62
     0
 48
0.05
100
AcDbMText
 10
1778.374382379747
 20
553.0472918314873
 30
0.0
 40
8.0
 41
0.0
 46
0.0
 71
     5
 72
     1
  1
\A1;354
  7
ＭＳ ゴシック
 11
0.0
 21
1.0
 31
0.0
 73
     1
 44
1.0
  0
POINT
  5
A5EC
330
A5E3
100
AcDbEntity
  8
Defpoints
 62
     0
100
AcDbPoint
 10
1720.864134938687
 20
730.1371355814874
 30
0.0
  0
POINT
  5
A5ED
330
A5E3
100
AcDbEntity
  8
Defpoints
 62
     0
100
AcDbPoint
 10
1716.384589974683
 20
375.9574480814874
 30
0.0
  0
POINT
  5
A5EE
330
A5E3
100
AcDbEntity
  8
Defpoints
 62
     0
100
AcDbPoint
 10
1788.374382379747
 20
375.9574480814874
 30
0.0
  0
ENDBLK
  5
A5E5
330
A5E3
100
AcDbEntity
  8
0
100
AcDbBlockEnd
  0
BLOCK
  5
A5F3
330
A5F2
100
AcDbEntity
  8
0
100
AcDbBlockBegin
  2
*D7
 70
     1
 10
0.0
 20
0.0
 30
0.0
  3
*D7
  1

  0
LINE
  5
A5F5
330
A5F2
100
AcDbEntity
  8
DIM
 62
     0
 48
0.05
370
    -2
100
AcDbLine
 10
1163.625107365538
 20
213.9891871044305
 30
0.0
 11
1163.625107365538
 21
189.1818780151896
 31
0.0
  0
LINE
  5
A5F6
330
A5F2
100
AcDbEntity
  8
DIM
 62
     0
 48
0.05
370
    -2
100
AcDbLine
 10
943.3536229905376
 20
213.9891871044305
 30
0.0
 11
943.3536229905376
 21
189.1818780151896
 31
0.0
  0
LINE
  5
A5F7
330
A5F2
100
AcDbEntity
  8
DIM
 62
     0
 48
0.05
370
    -2
100
AcDbLine
 10
1160.625107365538
 20
189.1818780151896
 30
0.0
 11
946.3536229905376
 21
189.1818780151896
 31
0.0
  0
INSERT
  5
A5F8
330
A5F2
100
AcDbEntity
  8
DIM
 62
     0
370
    -2
100
AcDbBlockReference
  2
_DOT
 10
1163.625107365538
 20
189.1818780151896
 30
0.0
 41
3.0
 42
3.0
 43
3.0
  0
INSERT
  5
A5F9
330
A5F2
100
AcDbEntity
  8
DIM
 62
     0
370
    -2
100
AcDbBlockReference
  2
_DOT
 10
943.3536229905376
 20
189.1818780151896
 30
0.0
 41
3.0
 42
3.0
 43
3.0
 50
180.0
  0
MTEXT
  5
A5FA
330
A5F2
100
AcDbEntity
  8
DIM
 62
     0
 48
0.05
100
AcDbMText
 10
1053.489365178038
 20
199.1818780151896
 30
0.0
 40
8.0
 41
0.0
 46
0.0
 71
     5
 72
     1
  1
\A1;220
  7
ＭＳ ゴシック
 73
     1
 44
1.0
  0
POINT
  5
A5FB
330
A5F2
100
AcDbEntity
  8
Defpoints
 62
     0
100
AcDbPoint
 10
1163.625107365538
 20
223.9891871044305
 30
0.0
  0
POINT
  5
A5FC
330
A5F2
100
AcDbEntity
  8
Defpoints
 62
     0
100
AcDbPoint
 10
943.3536229905376
 20
223.9891871044305
 30
0.0
  0
POINT
  5
A5FD
330
A5F2
100
AcDbEntity
  8
Defpoints
 62
     0
100
AcDbPoint
 10
943.3536229905376
 20
189.1818780151896
 30
0.0
  0
ENDBLK
  5
A5F4
330
A5F2
100
AcDbEntity
  8
0
100
AcDbBlockEnd
  0
BLOCK
  5
A602
330
A601
100
AcDbEntity
  8
0
100
AcDbBlockBegin
  2
*D8
 70
     1
 10
0.0
 20
0.0
 30
0.0
  3
*D8
  1

  0
LINE
  5
A604
330
A601
100
AcDbEntity
  8
DIM
 62
     0
 48
0.05
370
    -2
100
AcDbLine
 10
902.3685601265823
 20
841.937129400712
 30
0.0
 11
902.3685601265823
 21
872.5940663696199
 31
0.0
  0
LINE
  5
A605
330
A601
100
AcDbEntity
  8
DIM
 62
     0
 48
0.05
370
    -2
100
AcDbLine
 10
1148.876372626582
 20
841.937129400712
 30
0.0
 11
1148.876372626582
 21
872.5940663696199
 31
0.0
  0
LINE
  5
A606
330
A601
100
AcDbEntity
  8
DIM
 62
     0
 48
0.05
370
    -2
100
AcDbLine
 10
905.3685601265822
 20
872.5940663696199
 30
0.0
 11
1145.876372626582
 21
872.5940663696199
 31
0.0
  0
INSERT
  5
A607
330
A601
100
AcDbEntity
  8
DIM
 62
     0
370
    -2
100
AcDbBlockReference
  2
_DOT
 10
902.3685601265823
 20
872.5940663696199
 30
0.0
 41
3.0
 42
3.0
 43
3.0
 50
180.0
  0
INSERT
  5
A608
330
A601
100
AcDbEntity
  8
DIM
 62
     0
370
    -2
100
AcDbBlockReference
  2
_DOT
 10
1148.876372626582
 20
872.5940663696199
 30
0.0
 41
3.0
 42
3.0
 43
3.0
  0
MTEXT
  5
A609
330
A601
100
AcDbEntity
  8
DIM
 62
     0
 48
0.05
100
AcDbMText
 10
1025.622466376582
 20
882.5940663696199
 30
0.0
 40
8.0
 41
0.0
 46
0.0
 71
     5
 72
     1
  1
\A1;247
  7
ＭＳ ゴシック
 73
     1
 44
1.0
  0
POINT
  5
A60A
330
A601
100
AcDbEntity
  8
Defpoints
 62
     0
100
AcDbPoint
 10
902.3685601265823
 20
831.9371294007121
 30
0.0
  0
POINT
  5
A60B
330
A601
100
AcDbEntity
  8
Defpoints
 62
     0
100
AcDbPoint
 10
1148.876372626582
 20
831.9371294007121
 30
0.0
  0
POINT
  5
A60C
330
A601
100
AcDbEntity
  8
Defpoints
 62
     0
100
AcDbPoint
 10
1148.876372626582
 20
872.5940663696199
 30
0.0
  0
ENDBLK
  5
A603
330
A601
100
AcDbEntity
  8
0
100
AcDbBlockEnd
  0
BLOCK
  5
1740C
330
1740B
100
AcDbEntity
  8
0
100
AcDbBlockBegin
  2
*D9
 70
     1
 10
0.0
 20
0.0
 30
0.0
  3
*D9
  1

  0
LINE
  5
1740D
330
1740B
100
AcDbEntity
  8
DIM
 62
     0
370
    -2
100
AcDbLine
 10
219.1852980459965
 20
159.0458566868357
 30
0.0
 11
298.0435093235027
 21
159.0458566868357
 31
0.0
  0
LINE
  5
1740E
330
1740B
100
AcDbEntity
  8
DIM
 62
     0
370
    -2
100
AcDbLine
 10
191.4906901433754
 20
89.04585668683569
 30
0.0
 11
298.0435093235027
 21
89.04585668683569
 31
0.0
  0
LINE
  5
1740F
330
1740B
100
AcDbEntity
  8
DIM
 62
     0
370
    -2
100
AcDbLine
 10
298.0435093235027
 20
156.0458566868357
 30
0.0
 11
298.0435093235027
 21
92.04585668683568
 31
0.0
  0
INSERT
  5
17410
330
1740B
100
AcDbEntity
  8
DIM
 62
     0
370
    -2
100
AcDbBlockReference
  2
_DOT
 10
298.0435093235027
 20
159.0458566868357
 30
0.0
 41
3.0
 42
3.0
 43
3.0
 50
90.0
  0
INSERT
  5
17411
330
1740B
100
AcDbEntity
  8
DIM
 62
     0
370
    -2
100
AcDbBlockReference
  2
_DOT
 10
298.0435093235027
 20
89.04585668683569
 30
0.0
 41
3.0
 42
3.0
 43
3.0
 50
270.0
  0
MTEXT
  5
17412
330
1740B
100
AcDbEntity
  8
DIM
 62
     0
 48
0.05
100
AcDbMText
 10
288.0435093235027
 20
124.0458566868357
 30
0.0
 40
8.0
 41
0.0
 46
0.0
 71
     5
 72
     1
  1
\A1;70
  7
ＭＳ ゴシック
 11
0.0
 21
1.0
 31
0.0
 73
     1
 44
1.0
  0
POINT
  5
17413
330
1740B
100
AcDbEntity
  8
Defpoints
 62
     0
100
AcDbPoint
 10
209.1852980459965
 20
159.0458566868357
 30
0.0
  0
POINT
  5
17414
330
1740B
100
AcDbEntity
  8
Defpoints
 62
     0
100
AcDbPoint
 10
181.4906901433754
 20
89.04585668683569
 30
0.0
  0
POINT
  5
17415
330
1740B
100
AcDbEntity
  8
Defpoints
 62
     0
100
AcDbPoint
 10
298.0435093235027
 20
89.04585668683569
 30
0.0
  0
ENDBLK
  5
17416
330
1740B
100
AcDbEntity
  8
0
100
AcDbBlockEnd
  0
BLOCK
  5
17419
330
17418
100
AcDbEntity
  8
0
100
AcDbBlockBegin
  2
*D10
 70
     1
 10
0.0
 20
0.0
 30
0.0
  3
*D10
  1

  0
LINE
  5
1741A
330
17418
100
AcDbEntity
  8
DIM
 62
     0
370
    -2
100
AcDbLine
 10
634.7240700274042
 20
201.5135579646653
 30
0.0
 11
634.7240700274042
 21
214.1211433585245
 31
0.0
  0
LINE
  5
1741B
330
17418
100
AcDbEntity
  8
DIM
 62
     0
370
    -2
100
AcDbLine
 10
640.7240700274042
 20
201.5135579646653
 30
0.0
 11
640.7240700274042
 21
214.1211433585245
 31
0.0
  0
LINE
  5
1741C
330
17418
100
AcDbEntity
  8
DIM
 62
     0
370
    -2
100
AcDbLine
 10
640.7240700274042
 20
214.1211433585245
 30
0.0
 11
667.7940700274042
 21
214.1211433585245
 31
0.0
  0
LINE
  5
1741D
330
17418
100
AcDbEntity
  8
DIM
 62
     0
370
    -2
100
AcDbLine
 10
637.724070027404
 20
214.1211433585245
 30
0.0
 11
637.724070027404
 21
214.1211433585245
 31
0.0
  0
LINE
  5
1741E
330
17418
100
AcDbEntity
  8
DIM
 62
     0
370
    -2
100
AcDbLine
 10
637.724070027404
 20
214.1211433585245
 30
0.0
 11
634.7240700274042
 21
214.1211433585245
 31
0.0
  0
INSERT
  5
1741F
330
17418
100
AcDbEntity
  8
DIM
 62
     0
370
    -2
100
AcDbBlockReference
  2
_DOT
 10
634.7240700274042
 20
214.1211433585245
 30
0.0
 41
3.0
 42
3.0
 43
3.0
 50
180.0
  0
INSERT
  5
17420
330
17418
100
AcDbEntity
  8
DIM
 62
     0
370
    -2
100
AcDbBlockReference
  2
_DOT
 10
640.7240700274042
 20
214.1211433585245
 30
0.0
 41
3.0
 42
3.0
 43
3.0
  0
MTEXT
  5
17421
330
17418
100
AcDbEntity
  8
DIM
 62
     0
 48
0.05
100
AcDbMText
 10
659.7660700274042
 20
224.1211433585245
 30
0.0
 40
8.0
 41
0.0
 46
0.0
 71
     5
 72
     1
  1
\A1;6
  7
ＭＳ ゴシック
 73
     1
 44
1.0
  0
POINT
  5
17422
330
17418
100
AcDbEntity
  8
Defpoints
 62
     0
100
AcDbPoint
 10
634.7240700274042
 20
191.5135579646653
 30
0.0
  0
POINT
  5
17423
330
17418
100
AcDbEntity
  8
Defpoints
 62
     0
100
AcDbPoint
 10
640.7240700274042
 20
191.5135579646653
 30
0.0
  0
POINT
  5
17424
330
17418
100
AcDbEntity
  8
Defpoints
 62
     0
100
AcDbPoint
 10
640.7240700274042
 20
214.1211433585245
 30
0.0
  0
ENDBLK
  5
17425
330
17418
100
AcDbEntity
  8
0
100
AcDbBlockEnd
  0
BLOCK
  5
1742A
330
17429
100
AcDbEntity
  8
0
100
AcDbBlockBegin
  2
*D11
 70
     1
 10
0.0
 20
0.0
 30
0.0
  3
*D11
  1

  0
LINE
  5
1742B
330
17429
100
AcDbEntity
  8
DIM
 62
     0
370
    -2
100
AcDbLine
 10
634.7240700273959
 20
116.5135579646653
 30
0.0
 11
634.7240700273959
 21
30.64496251711853
 31
0.0
  0
LINE
  5
1742C
330
17429
100
AcDbEntity
  8
DIM
 62
     0
370
    -2
100
AcDbLine
 10
697.6240736451046
 20
79.02122582021435
 30
0.0
 11
697.6240736451046
 21
30.64496251711853
 31
0.0
  0
LINE
  5
1742D
330
17429
100
AcDbEntity
  8
DIM
 62
     0
370
    -2
100
AcDbLine
 10
637.724070027396
 20
30.64496251711853
 30
0.0
 11
694.6240736451046
 21
30.64496251711853
 31
0.0
  0
INSERT
  5
1742E
330
17429
100
AcDbEntity
  8
DIM
 62
     0
370
    -2
100
AcDbBlockReference
  2
_DOT
 10
634.7240700273959
 20
30.64496251711853
 30
0.0
 41
3.0
 42
3.0
 43
3.0
 50
180.0
  0
INSERT
  5
1742F
330
17429
100
AcDbEntity
  8
DIM
 62
     0
370
    -2
100
AcDbBlockReference
  2
_DOT
 10
697.6240736451046
 20
30.64496251711853
 30
0.0
 41
3.0
 42
3.0
 43
3.0
  0
MTEXT
  5
17430
330
17429
100
AcDbEntity
  8
DIM
 62
     0
 48
0.05
100
AcDbMText
 10
666.9240718362584
 20
40.64496251711853
 30
0.0
 40
8.0
 41
0.0
 46
0.0
 71
     5
 72
     1
  1
\A1;34～52
  7
ＭＳ ゴシック
 73
     1
 44
1.0
  0
POINT
  5
17431
330
17429
100
AcDbEntity
  8
Defpoints
 62
     0
100
AcDbPoint
 10
634.7240700273959
 20
126.5135579646653
 30
0.0
  0
POINT
  5
17432
330
17429
100
AcDbEntity
  8
Defpoints
 62
     0
100
AcDbPoint
 10
697.6240736451046
 20
89.02122582021435
 30
0.0
  0
POINT
  5
17433
330
17429
100
AcDbEntity
  8
Defpoints
 62
     0
100
AcDbPoint
 10
697.6240736451046
 20
30.64496251711853
 30
0.0
  0
ENDBLK
  5
17434
330
17429
100
AcDbEntity
  8
0
100
AcDbBlockEnd
  0
BLOCK
  5
17437
330
17436
100
AcDbEntity
  8
0
100
AcDbBlockBegin
  2
*D12
 70
     1
 10
0.0
 20
0.0
 30
0.0
  3
*D12
  1

  0
LINE
  5
17438
330
17436
100
AcDbEntity
  8
DIM
 62
     0
370
    -2
100
AcDbLine
 10
697.6240736451046
 20
69.02122582021435
 30
0.0
 11
697.6240736451046
 21
30.64496251711853
 31
0.0
  0
LINE
  5
17439
330
17436
100
AcDbEntity
  8
DIM
 62
     0
370
    -2
100
AcDbLine
 10
724.6240736451047
 20
94.10056747892237
 30
0.0
 11
724.6240736451047
 21
30.64496251711853
 31
0.0
  0
LINE
  5
1743A
330
17436
100
AcDbEntity
  8
DIM
 62
     0
370
    -2
100
AcDbLine
 10
700.6240736451046
 20
30.64496251711853
 30
0.0
 11
721.6240736451046
 21
30.64496251711853
 31
0.0
  0
INSERT
  5
1743B
330
17436
100
AcDbEntity
  8
DIM
 62
     0
370
    -2
100
AcDbBlockReference
  2
_DOT
 10
697.6240736451046
 20
30.64496251711853
 30
0.0
 41
3.0
 42
3.0
 43
3.0
 50
180.0
  0
INSERT
  5
1743C
330
17436
100
AcDbEntity
  8
DIM
 62
     0
370
    -2
100
AcDbBlockReference
  2
_DOT
 10
724.6240736451047
 20
30.64496251711853
 30
0.0
 41
3.0
 42
3.0
 43
3.0
  0
MTEXT
  5
1743D
330
17436
100
AcDbEntity
  8
DIM
 62
     0
 48
0.05
100
AcDbMText
 10
711.1240736451046
 20
40.64496251711853
 30
0.0
 40
8.0
 41
0.0
 46
0.0
 71
     5
 72
     1
  1
\A1;27
  7
ＭＳ ゴシック
 73
     1
 44
1.0
  0
POINT
  5
1743E
330
17436
100
AcDbEntity
  8
Defpoints
 62
     0
100
AcDbPoint
 10
697.6240736451046
 20
79.02122582021435
 30
0.0
  0
POINT
  5
1743F
330
17436
100
AcDbEntity
  8
Defpoints
 62
     0
100
AcDbPoint
 10
724.6240736451047
 20
104.1005674789224
 30
0.0
  0
POINT
  5
17440
330
17436
100
AcDbEntity
  8
Defpoints
 62
     0
100
AcDbPoint
 10
724.6240736451047
 20
30.64496251711853
 30
0.0
  0
ENDBLK
  5
17441
330
17436
100
AcDbEntity
  8
0
100
AcDbBlockEnd
  0
BLOCK
  5
17446
330
17445
100
AcDbEntity
  8
0
100
AcDbBlockBegin
  2
*D13
 70
     1
 10
0.0
 20
0.0
 30
0.0
  3
*D13
  1

  0
LINE
  5
17447
330
17445
100
AcDbEntity
  8
DIM
 62
     0
370
    -2
100
AcDbLine
 10
123.9353983615705
 20
201.5458573080223
 30
0.0
 11
30.62538835292154
 21
201.5458573080223
 31
0.0
  0
LINE
  5
17448
330
17445
100
AcDbEntity
  8
DIM
 62
     0
370
    -2
100
AcDbLine
 10
117.789036353354
 20
106.5458558935037
 30
0.0
 11
30.62538835292154
 21
106.5458558935037
 31
0.0
  0
LINE
  5
17449
330
17445
100
AcDbEntity
  8
DIM
 62
     0
370
    -2
100
AcDbLine
 10
30.62538835292154
 20
198.5458573080223
 30
0.0
 11
30.62538835292154
 21
109.5458558935037
 31
0.0
  0
INSERT
  5
1744A
330
17445
100
AcDbEntity
  8
DIM
 62
     0
370
    -2
100
AcDbBlockReference
  2
_DOT
 10
30.62538835292154
 20
201.5458573080223
 30
0.0
 41
3.0
 42
3.0
 43
3.0
 50
90.0
  0
INSERT
  5
1744B
330
17445
100
AcDbEntity
  8
DIM
 62
     0
370
    -2
100
AcDbBlockReference
  2
_DOT
 10
30.62538835292154
 20
106.5458558935037
 30
0.0
 41
3.0
 42
3.0
 43
3.0
 50
270.0
  0
MTEXT
  5
1744C
330
17445
100
AcDbEntity
  8
DIM
 62
     0
 48
0.05
100
AcDbMText
 10
20.62538835292154
 20
154.045856600763
 30
0.0
 40
8.0
 41
0.0
 46
0.0
 71
     5
 72
     1
  1
\A1;95
  7
ＭＳ ゴシック
 11
0.0000000000000001
 21
1.0
 31
0.0
 73
     1
 44
1.0
  0
POINT
  5
1744D
330
17445
100
AcDbEntity
  8
Defpoints
 62
     0
100
AcDbPoint
 10
133.9353983615705
 20
201.5458573080223
 30
0.0
  0
POINT
  5
1744E
330
17445
100
AcDbEntity
  8
Defpoints
 62
     0
100
AcDbPoint
 10
127.789036353354
 20
106.5458558935037
 30
0.0
  0
POINT
  5
1744F
330
17445
100
AcDbEntity
  8
Defpoints
 62
     0
100
AcDbPoint
 10
30.62538835292154
 20
106.5458558935037
 30
0.0
  0
ENDBLK
  5
17450
330
17445
100
AcDbEntity
  8
0
100
AcDbBlockEnd
  0
BLOCK
  5
17453
330
17452
100
AcDbEntity
  8
0
100
AcDbBlockBegin
  2
*D14
 70
     1
 10
0.0
 20
0.0
 30
0.0
  3
*D14
  1

  0
LINE
  5
17454
330
17452
100
AcDbEntity
  8
DIM
 62
     0
370
    -2
100
AcDbLine
 10
151.6851883610384
 20
45.85594046373204
 30
0.0
 11
151.6851883610384
 21
6.585234363516292
 31
0.0
  0
LINE
  5
17455
330
17452
100
AcDbEntity
  8
DIM
 62
     0
370
    -2
100
AcDbLine
 10
201.6851883610385
 20
45.85594046373204
 30
0.0
 11
201.6851883610385
 21
6.585234363516292
 31
0.0
  0
LINE
  5
17456
330
17452
100
AcDbEntity
  8
DIM
 62
     0
370
    -2
100
AcDbLine
 10
154.6851883610385
 20
6.585234363516292
 30
0.0
 11
198.6851883610385
 21
6.585234363516292
 31
0.0
  0
INSERT
  5
17457
330
17452
100
AcDbEntity
  8
DIM
 62
     0
370
    -2
100
AcDbBlockReference
  2
_DOT
 10
151.6851883610384
 20
6.585234363516292
 30
0.0
 41
3.0
 42
3.0
 43
3.0
 50
180.0
  0
INSERT
  5
17458
330
17452
100
AcDbEntity
  8
DIM
 62
     0
370
    -2
100
AcDbBlockReference
  2
_DOT
 10
201.6851883610385
 20
6.585234363516292
 30
0.0
 41
3.0
 42
3.0
 43
3.0
  0
MTEXT
  5
17459
330
17452
100
AcDbEntity
  8
DIM
 62
     0
 48
0.05
100
AcDbMText
 10
176.6851883610385
 20
16.58523436351629
 30
0.0
 40
8.0
 41
0.0
 46
0.0
 71
     5
 72
     1
  1
\A1;50
  7
ＭＳ ゴシック
 73
     1
 44
1.0
  0
POINT
  5
1745A
330
17452
100
AcDbEntity
  8
Defpoints
 62
     0
100
AcDbPoint
 10
151.6851883610384
 20
55.85594046373204
 30
0.0
  0
POINT
  5
1745B
330
17452
100
AcDbEntity
  8
Defpoints
 62
     0
100
AcDbPoint
 10
201.6851883610385
 20
55.85594046373204
 30
0.0
  0
POINT
  5
1745C
330
17452
100
AcDbEntity
  8
Defpoints
 62
     0
100
AcDbPoint
 10
201.6851883610385
 20
6.585234363516292
 30
0.0
  0
ENDBLK
  5
1745D
330
17452
100
AcDbEntity
  8
0
100
AcDbBlockEnd
  0
BLOCK
  5
17468
330
17467
100
AcDbEntity
  8
0
100
AcDbBlockBegin
  2
*D15
 70
     1
 10
0.0
 20
0.0
 30
0.0
  3
*D15
  1

  0
LINE
  5
17469
330
17467
100
AcDbEntity
  8
DIM
 62
     0
370
    -2
100
AcDbLine
 10
239.1263756115928
 20
564.9373691837825
 30
0.0
 11
300.4011380735998
 21
564.9373691837825
 31
0.0
  0
LINE
  5
1746A
330
17467
100
AcDbEntity
  8
DIM
 62
     0
370
    -2
100
AcDbLine
 10
250.0465715199997
 20
611.9372796234837
 30
0.0
 11
300.4011380735998
 21
611.9372796234837
 31
0.0
  0
LINE
  5
1746B
330
17467
100
AcDbEntity
  8
DIM
 62
     0
370
    -2
100
AcDbLine
 10
300.4011380735998
 20
567.9373691837826
 30
0.0
 11
300.4011380735998
 21
608.9372796234837
 31
0.0
  0
INSERT
  5
1746C
330
17467
100
AcDbEntity
  8
DIM
 62
     0
370
    -2
100
AcDbBlockReference
  2
_DOT
 10
300.4011380735998
 20
564.9373691837825
 30
0.0
 41
3.0
 42
3.0
 43
3.0
 50
270.0
  0
INSERT
  5
1746D
330
17467
100
AcDbEntity
  8
DIM
 62
     0
370
    -2
100
AcDbBlockReference
  2
_DOT
 10
300.4011380735998
 20
611.9372796234837
 30
0.0
 41
3.0
 42
3.0
 43
3.0
 50
90.0
  0
MTEXT
  5
1746E
330
17467
100
AcDbEntity
  8
DIM
 62
     0
 48
0.05
100
AcDbMText
 10
310.4011380735999
 20
588.4373244036327
 30
0.0
 40
8.0
 41
0.0
 46
0.0
 71
     5
 72
     1
  1
\A1;29～47
  7
ＭＳ ゴシック
 11
0.0
 21
1.0
 31
0.0
 73
     1
 44
1.0
  0
POINT
  5
1746F
330
17467
100
AcDbEntity
  8
Defpoints
 62
     0
100
AcDbPoint
 10
229.1263756115928
 20
564.9373691837825
 30
0.0
  0
POINT
  5
17470
330
17467
100
AcDbEntity
  8
Defpoints
 62
     0
100
AcDbPoint
 10
240.0465715199997
 20
611.9372796234837
 30
0.0
  0
POINT
  5
17471
330
17467
100
AcDbEntity
  8
Defpoints
 62
     0
100
AcDbPoint
 10
300.4011380735998
 20
611.9372796234837
 30
0.0
  0
ENDBLK
  5
17472
330
17467
100
AcDbEntity
  8
0
100
AcDbBlockEnd
  0
BLOCK
  5
174B5
330
174B4
100
AcDbEntity
  8
0
100
AcDbBlockBegin
  2
*D16
 70
     1
 10
0.0
 20
0.0
 30
0.0
  3
*D16
  1

  0
LINE
  5
174B6
330
174B4
100
AcDbEntity
  8
DIM
 62
     0
370
    -2
100
AcDbLine
 10
61.18539692661773
 20
591.1373702250656
 30
0.0
 11
38.08036317341043
 21
591.1373702250656
 31
0.0
  0
LINE
  5
174B7
330
174B4
100
AcDbEntity
  8
DIM
 62
     0
370
    -2
100
AcDbLine
 10
153.4246073553973
 20
636.9372796234837
 30
0.0
 11
38.08036317341043
 21
636.9372796234837
 31
0.0
  0
LINE
  5
174B8
330
174B4
100
AcDbEntity
  8
DIM
 62
     0
370
    -2
100
AcDbLine
 10
38.08036317341043
 20
594.1373702250656
 30
0.0
 11
38.08036317341043
 21
633.9372796234837
 31
0.0
  0
INSERT
  5
174B9
330
174B4
100
AcDbEntity
  8
DIM
 62
     0
370
    -2
100
AcDbBlockReference
  2
_DOT
 10
38.08036317341043
 20
591.1373702250656
 30
0.0
 41
3.0
 42
3.0
 43
3.0
 50
270.0
  0
INSERT
  5
174BA
330
174B4
100
AcDbEntity
  8
DIM
 62
     0
370
    -2
100
AcDbBlockReference
  2
_DOT
 10
38.08036317341043
 20
636.9372796234837
 30
0.0
 41
3.0
 42
3.0
 43
3.0
 50
90.0
  0
MTEXT
  5
174BB
330
174B4
100
AcDbEntity
  8
DIM
 62
     0
 48
0.05
100
AcDbMText
 10
28.08036317341043
 20
614.0373249242748
 30
0.0
 40
8.0
 41
0.0
 46
0.0
 71
     5
 72
     1
  1
\A1;45
  7
ＭＳ ゴシック
 11
0.0
 21
1.0
 31
0.0
 73
     1
 44
1.0
  0
POINT
  5
174BC
330
174B4
100
AcDbEntity
  8
Defpoints
 62
     0
100
AcDbPoint
 10
71.18539692661774
 20
591.1373702250656
 30
0.0
  0
POINT
  5
174BD
330
174B4
100
AcDbEntity
  8
Defpoints
 62
     0
100
AcDbPoint
 10
163.4246073553973
 20
636.9372796234837
 30
0.0
  0
POINT
  5
174BE
330
174B4
100
AcDbEntity
  8
Defpoints
 62
     0
100
AcDbPoint
 10
38.08036317341043
 20
636.9372796234837
 30
0.0
  0
ENDBLK
  5
174BF
330
174B4
100
AcDbEntity
  8
0
100
AcDbBlockEnd
  0
BLOCK
  5
174C4
330
174C3
100
AcDbEntity
  8
0
100
AcDbBlockBegin
  2
*D17
 70
     1
 10
0.0
 20
0.0
 30
0.0
  3
*D17
  1

  0
LINE
  5
174C5
330
174C3
100
AcDbEntity
  8
DIM
 62
     0
370
    -2
100
AcDbLine
 10
117.1853976005157
 20
640.1373705876557
 30
0.0
 11
117.1853976005157
 21
670.8123283986996
 31
0.0
  0
LINE
  5
174C6
330
174C3
100
AcDbEntity
  8
DIM
 62
     0
370
    -2
100
AcDbLine
 10
236.1853993737548
 20
636.8080875758415
 30
0.0
 11
236.1853993737548
 21
670.8123283986996
 31
0.0
  0
LINE
  5
174C7
330
174C3
100
AcDbEntity
  8
DIM
 62
     0
370
    -2
100
AcDbLine
 10
120.1853976005157
 20
670.8123283986996
 30
0.0
 11
233.1853993737548
 21
670.8123283986996
 31
0.0
  0
INSERT
  5
174C8
330
174C3
100
AcDbEntity
  8
DIM
 62
     0
370
    -2
100
AcDbBlockReference
  2
_DOT
 10
117.1853976005157
 20
670.8123283986996
 30
0.0
 41
3.0
 42
3.0
 43
3.0
 50
180.0
  0
INSERT
  5
174C9
330
174C3
100
AcDbEntity
  8
DIM
 62
     0
370
    -2
100
AcDbBlockReference
  2
_DOT
 10
236.1853993737548
 20
670.8123283986996
 30
0.0
 41
3.0
 42
3.0
 43
3.0
  0
MTEXT
  5
174CA
330
174C3
100
AcDbEntity
  8
DIM
 62
     0
 48
0.05
100
AcDbMText
 10
176.6853984871353
 20
680.8123283986994
 30
0.0
 40
8.0
 41
0.0
 46
0.0
 71
     5
 72
     1
  1
\A1;119
  7
ＭＳ ゴシック
 73
     1
 44
1.0
  0
POINT
  5
174CB
330
174C3
100
AcDbEntity
  8
Defpoints
 62
     0
100
AcDbPoint
 10
117.1853976005157
 20
630.1373705876557
 30
0.0
  0
POINT
  5
174CC
330
174C3
100
AcDbEntity
  8
Defpoints
 62
     0
100
AcDbPoint
 10
236.1853993737548
 20
626.8080875758415
 30
0.0
  0
POINT
  5
174CD
330
174C3
100
AcDbEntity
  8
Defpoints
 62
     0
100
AcDbPoint
 10
236.1853993737548
 20
670.8123283986996
 30
0.0
  0
ENDBLK
  5
174CE
330
174C3
100
AcDbEntity
  8
0
100
AcDbBlockEnd
  0
BLOCK
  5
174D3
330
174D2
100
AcDbEntity
  8
0
100
AcDbBlockBegin
  2
*D18
 70
     1
 10
0.0
 20
0.0
 30
0.0
  3
*D18
  1

  0
LINE
  5
174D4
330
174D2
100
AcDbEntity
  8
DIM
 62
     0
370
    -2
100
AcDbLine
 10
250.0465715199997
 20
611.9372796234837
 30
0.0
 11
300.4011380735998
 21
611.9372796234837
 31
0.0
  0
LINE
  5
174D5
330
174D2
100
AcDbEntity
  8
DIM
 62
     0
370
    -2
100
AcDbLine
 10
202.5774169005399
 20
636.9372796234837
 30
0.0
 11
300.4011380735998
 21
636.9372796234837
 31
0.0
  0
LINE
  5
174D6
330
174D2
100
AcDbEntity
  8
DIM
 62
     0
370
    -2
100
AcDbLine
 10
300.4011380735998
 20
614.9372796234837
 30
0.0
 11
300.4011380735998
 21
633.9372796234837
 31
0.0
  0
INSERT
  5
174D7
330
174D2
100
AcDbEntity
  8
DIM
 62
     0
370
    -2
100
AcDbBlockReference
  2
_DOT
 10
300.4011380735998
 20
611.9372796234837
 30
0.0
 41
3.0
 42
3.0
 43
3.0
 50
270.0
  0
INSERT
  5
174D8
330
174D2
100
AcDbEntity
  8
DIM
 62
     0
370
    -2
100
AcDbBlockReference
  2
_DOT
 10
300.4011380735998
 20
636.9372796234837
 30
0.0
 41
3.0
 42
3.0
 43
3.0
 50
90.0
  0
MTEXT
  5
174D9
330
174D2
100
AcDbEntity
  8
DIM
 62
     0
 48
0.05
100
AcDbMText
 10
310.4011380735999
 20
624.4372796234837
 30
0.0
 40
8.0
 41
0.0
 46
0.0
 71
     5
 72
     1
  1
\A1;25
  7
ＭＳ ゴシック
 11
0.0
 21
1.0
 31
0.0
 73
     1
 44
1.0
  0
POINT
  5
174DA
330
174D2
100
AcDbEntity
  8
Defpoints
 62
     0
100
AcDbPoint
 10
240.0465715199997
 20
611.9372796234837
 30
0.0
  0
POINT
  5
174DB
330
174D2
100
AcDbEntity
  8
Defpoints
 62
     0
100
AcDbPoint
 10
192.5774169005399
 20
636.9372796234837
 30
0.0
  0
POINT
  5
174DC
330
174D2
100
AcDbEntity
  8
Defpoints
 62
     0
100
AcDbPoint
 10
300.4011380735998
 20
636.9372796234837
 30
0.0
  0
ENDBLK
  5
174DD
330
174D2
100
AcDbEntity
  8
0
100
AcDbBlockEnd
  0
BLOCK
  5
174E0
330
174DF
100
AcDbEntity
  8
0
100
AcDbBlockBegin
  2
*D19
 70
     1
 10
0.0
 20
0.0
 30
0.0
  3
*D19
  1

  0
LINE
  5
174E1
330
174DF
100
AcDbEntity
  8
DIM
 62
     0
370
    -2
100
AcDbLine
 10
152.6853989995028
 20
566.4373702372667
 30
0.0
 11
152.6853989995028
 21
571.8078279705506
 31
0.0
  0
LINE
  5
174E2
330
174DF
100
AcDbEntity
  8
DIM
 62
     0
370
    -2
100
AcDbLine
 10
200.6853989995029
 20
566.4373702372667
 30
0.0
 11
200.6853989995029
 21
571.8078279705506
 31
0.0
  0
LINE
  5
174E3
330
174DF
100
AcDbEntity
  8
DIM
 62
     0
370
    -2
100
AcDbLine
 10
200.6853989995029
 20
571.8078279705506
 30
0.0
 11
249.6929361438835
 21
571.8078279705506
 31
0.0
  0
LINE
  5
174E4
330
174DF
100
AcDbEntity
  8
DIM
 62
     0
370
    -2
100
AcDbLine
 10
155.6853989995028
 20
571.8078279705506
 30
0.0
 11
197.6853989995028
 21
571.8078279705506
 31
0.0
  0
LINE
  5
174E5
330
174DF
100
AcDbEntity
  8
DIM
 62
     0
370
    -2
100
AcDbLine
 10
197.6853989995028
 20
571.8078279705506
 30
0.0
 11
194.6853989995028
 21
571.8078279705506
 31
0.0
  0
INSERT
  5
174E6
330
174DF
100
AcDbEntity
  8
DIM
 62
     0
370
    -2
100
AcDbBlockReference
  2
_DOT
 10
152.6853989995028
 20
571.8078279705506
 30
0.0
 41
3.0
 42
3.0
 43
3.0
 50
180.0
  0
INSERT
  5
174E7
330
174DF
100
AcDbEntity
  8
DIM
 62
     0
370
    -2
100
AcDbBlockReference
  2
_DOT
 10
200.6853989995029
 20
571.8078279705506
 30
0.0
 41
3.0
 42
3.0
 43
3.0
  0
MTEXT
  5
174E8
330
174DF
100
AcDbEntity
  8
DIM
 62
     0
 48
0.05
100
AcDbMText
 10
238.9209361438835
 20
581.8078279705506
 30
0.0
 40
8.0
 41
0.0
 46
0.0
 71
     5
 72
     1
  1
\A1;48
  7
ＭＳ ゴシック
 73
     1
 44
1.0
  0
POINT
  5
174E9
330
174DF
100
AcDbEntity
  8
Defpoints
 62
     0
100
AcDbPoint
 10
152.6853989995028
 20
576.4373702372668
 30
0.0
  0
POINT
  5
174EA
330
174DF
100
AcDbEntity
  8
Defpoints
 62
     0
100
AcDbPoint
 10
200.6853989995029
 20
576.4373702372668
 30
0.0
  0
POINT
  5
174EB
330
174DF
100
AcDbEntity
  8
Defpoints
 62
     0
100
AcDbPoint
 10
200.6853989995029
 20
571.8078279705506
 30
0.0
  0
ENDBLK
  5
174EC
330
174DF
100
AcDbEntity
  8
0
100
AcDbBlockEnd
  0
BLOCK
  5
174F1
330
174F0
100
AcDbEntity
  8
0
100
AcDbBlockBegin
  2
*D20
 70
     1
 10
0.0
 20
0.0
 30
0.0
  3
*D20
  1

  0
LINE
  5
174F2
330
174F0
100
AcDbEntity
  8
DIM
 62
     0
370
    -2
100
AcDbLine
 10
558.5240686036359
 20
201.5457502741983
 30
0.0
 11
534.0776312912516
 21
201.5457502741983
 31
0.0
  0
LINE
  5
174F3
330
174F0
100
AcDbEntity
  8
DIM
 62
     0
370
    -2
100
AcDbLine
 10
558.5240686036359
 20
106.5457488595935
 30
0.0
 11
534.0776312912516
 21
106.5457488595935
 31
0.0
  0
LINE
  5
174F4
330
174F0
100
AcDbEntity
  8
DIM
 62
     0
370
    -2
100
AcDbLine
 10
534.0776312912516
 20
198.5457502741983
 30
0.0
 11
534.0776312912516
 21
109.5457488595935
 31
0.0
  0
INSERT
  5
174F5
330
174F0
100
AcDbEntity
  8
DIM
 62
     0
370
    -2
100
AcDbBlockReference
  2
_DOT
 10
534.0776312912516
 20
201.5457502741983
 30
0.0
 41
3.0
 42
3.0
 43
3.0
 50
90.0
  0
INSERT
  5
174F6
330
174F0
100
AcDbEntity
  8
DIM
 62
     0
370
    -2
100
AcDbBlockReference
  2
_DOT
 10
534.0776312912516
 20
106.5457488595935
 30
0.0
 41
3.0
 42
3.0
 43
3.0
 50
270.0
  0
MTEXT
  5
174F7
330
174F0
100
AcDbEntity
  8
DIM
 62
     0
 48
0.05
100
AcDbMText
 10
524.0776312912515
 20
154.0457495668959
 30
0.0
 40
8.0
 41
0.0
 46
0.0
 71
     5
 72
     1
  1
\A1;95
  7
ＭＳ ゴシック
 11
0.0
 21
1.0
 31
0.0
 73
     1
 44
1.0
  0
POINT
  5
174F8
330
174F0
100
AcDbEntity
  8
Defpoints
 62
     0
100
AcDbPoint
 10
568.5240686036357
 20
201.5457502741983
 30
0.0
  0
POINT
  5
174F9
330
174F0
100
AcDbEntity
  8
Defpoints
 62
     0
100
AcDbPoint
 10
568.5240686036357
 20
106.5457488595935
 30
0.0
  0
POINT
  5
174FA
330
174F0
100
AcDbEntity
  8
Defpoints
 62
     0
100
AcDbPoint
 10
534.0776312912516
 20
106.5457488595935
 30
0.0
  0
ENDBLK
  5
174FB
330
174F0
100
AcDbEntity
  8
0
100
AcDbBlockEnd
  0
BLOCK
  5
17519
330
17518
100
AcDbEntity
  8
0
100
AcDbBlockBegin
  2
*D21
 70
     1
 10
0.0
 20
0.0
 30
0.0
  3
*D21
  1

  0
LINE
  5
1751A
330
17518
100
AcDbEntity
  8
DIM
 62
     0
370
    -2
100
AcDbLine
 10
568.5240686036357
 20
207.7545687939769
 30
0.0
 11
568.5240686036357
 21
225.0371981041484
 31
0.0
  0
LINE
  5
1751B
330
17518
100
AcDbEntity
  8
DIM
 62
     0
370
    -2
100
AcDbLine
 10
616.5240686036359
 20
207.7545687939769
 30
0.0
 11
616.5240686036359
 21
225.0371981041484
 31
0.0
  0
LINE
  5
1751C
330
17518
100
AcDbEntity
  8
DIM
 62
     0
370
    -2
100
AcDbLine
 10
571.5240686036358
 20
225.0371981041484
 30
0.0
 11
613.5240686036357
 21
225.0371981041484
 31
0.0
  0
INSERT
  5
1751D
330
17518
100
AcDbEntity
  8
DIM
 62
     0
370
    -2
100
AcDbBlockReference
  2
_DOT
 10
568.5240686036357
 20
225.0371981041484
 30
0.0
 41
3.0
 42
3.0
 43
3.0
 50
180.0
  0
INSERT
  5
1751E
330
17518
100
AcDbEntity
  8
DIM
 62
     0
370
    -2
100
AcDbBlockReference
  2
_DOT
 10
616.5240686036359
 20
225.0371981041484
 30
0.0
 41
3.0
 42
3.0
 43
3.0
  0
MTEXT
  5
1751F
330
17518
100
AcDbEntity
  8
DIM
 62
     0
 48
0.05
100
AcDbMText
 10
592.5240686036358
 20
235.0371981041484
 30
0.0
 40
8.0
 41
0.0
 46
0.0
 71
     5
 72
     1
  1
\A1;48
  7
ＭＳ ゴシック
 73
     1
 44
1.0
  0
POINT
  5
17520
330
17518
100
AcDbEntity
  8
Defpoints
 62
     0
100
AcDbPoint
 10
568.5240686036357
 20
197.7545687939769
 30
0.0
  0
POINT
  5
17521
330
17518
100
AcDbEntity
  8
Defpoints
 62
     0
100
AcDbPoint
 10
616.5240686036359
 20
197.7545687939769
 30
0.0
  0
POINT
  5
17522
330
17518
100
AcDbEntity
  8
Defpoints
 62
     0
100
AcDbPoint
 10
616.5240686036359
 20
225.0371981041484
 30
0.0
  0
ENDBLK
  5
17523
330
17518
100
AcDbEntity
  8
0
100
AcDbBlockEnd
  0
BLOCK
  5
17526
330
17525
100
AcDbEntity
  8
0
100
AcDbBlockBegin
  2
*D22
 70
     1
 10
0.0
 20
0.0
 30
0.0
  3
*D22
  1

  0
LINE
  5
17527
330
17525
100
AcDbEntity
  8
DIM
 62
     0
370
    -2
100
AcDbLine
 10
587.5240687774789
 20
53.49573261266129
 30
0.0
 11
587.5240687774789
 21
30.64496251711853
 31
0.0
  0
LINE
  5
17528
330
17525
100
AcDbEntity
  8
DIM
 62
     0
370
    -2
100
AcDbLine
 10
562.5240687774792
 20
147.0780847626041
 30
0.0
 11
562.5240687774792
 21
30.64496251711853
 31
0.0
  0
LINE
  5
17529
330
17525
100
AcDbEntity
  8
DIM
 62
     0
370
    -2
100
AcDbLine
 10
584.5240687774791
 20
30.64496251711853
 30
0.0
 11
565.524068777479
 21
30.64496251711853
 31
0.0
  0
INSERT
  5
1752A
330
17525
100
AcDbEntity
  8
DIM
 62
     0
370
    -2
100
AcDbBlockReference
  2
_DOT
 10
587.5240687774789
 20
30.64496251711853
 30
0.0
 41
3.0
 42
3.0
 43
3.0
  0
INSERT
  5
1752B
330
17525
100
AcDbEntity
  8
DIM
 62
     0
370
    -2
100
AcDbBlockReference
  2
_DOT
 10
562.5240687774792
 20
30.64496251711853
 30
0.0
 41
3.0
 42
3.0
 43
3.0
 50
180.0
  0
MTEXT
  5
1752C
330
17525
100
AcDbEntity
  8
DIM
 62
     0
 48
0.05
100
AcDbMText
 10
575.0240687774792
 20
40.64496251711853
 30
0.0
 40
8.0
 41
0.0
 46
0.0
 71
     5
 72
     1
  1
\A1;25
  7
ＭＳ ゴシック
 73
     1
 44
1.0
  0
POINT
  5
1752D
330
17525
100
AcDbEntity
  8
Defpoints
 62
     0
100
AcDbPoint
 10
587.5240687774789
 20
63.49573261266129
 30
0.0
  0
POINT
  5
1752E
330
17525
100
AcDbEntity
  8
Defpoints
 62
     0
100
AcDbPoint
 10
562.5240687774792
 20
157.0780847626041
 30
0.0
  0
POINT
  5
1752F
330
17525
100
AcDbEntity
  8
Defpoints
 62
     0
100
AcDbPoint
 10
562.5240687774792
 20
30.64496251711853
 30
0.0
  0
ENDBLK
  5
17530
330
17525
100
AcDbEntity
  8
0
100
AcDbBlockEnd
  0
BLOCK
  5
17535
330
17534
100
AcDbEntity
  8
0
100
AcDbBlockBegin
  2
*D23
 70
     1
 10
0.0
 20
0.0
 30
0.0
  3
*D23
  1

  0
LINE
  5
17536
330
17534
100
AcDbEntity
  8
DIM
 62
     0
370
    -2
100
AcDbLine
 10
587.5240687774789
 20
53.49573261266129
 30
0.0
 11
587.5240687774789
 21
30.64496251711853
 31
0.0
  0
LINE
  5
17537
330
17534
100
AcDbEntity
  8
DIM
 62
     0
370
    -2
100
AcDbLine
 10
634.7240700274042
 20
114.0015637440898
 30
0.0
 11
634.7240700274042
 21
30.64496251711853
 31
0.0
  0
LINE
  5
17538
330
17534
100
AcDbEntity
  8
DIM
 62
     0
370
    -2
100
AcDbLine
 10
590.524068777479
 20
30.64496251711853
 30
0.0
 11
631.7240700274042
 21
30.64496251711853
 31
0.0
  0
INSERT
  5
17539
330
17534
100
AcDbEntity
  8
DIM
 62
     0
370
    -2
100
AcDbBlockReference
  2
_DOT
 10
587.5240687774789
 20
30.64496251711853
 30
0.0
 41
3.0
 42
3.0
 43
3.0
 50
180.0
  0
INSERT
  5
1753A
330
17534
100
AcDbEntity
  8
DIM
 62
     0
370
    -2
100
AcDbBlockReference
  2
_DOT
 10
634.7240700274042
 20
30.64496251711853
 30
0.0
 41
3.0
 42
3.0
 43
3.0
  0
MTEXT
  5
1753B
330
17534
100
AcDbEntity
  8
DIM
 62
     0
 48
0.05
100
AcDbMText
 10
611.1240694024335
 20
40.64496251711853
 30
0.0
 40
8.0
 41
0.0
 46
0.0
 71
     5
 72
     1
  1
\A1;29～47
  7
ＭＳ ゴシック
 73
     1
 44
1.0
  0
POINT
  5
1753C
330
17534
100
AcDbEntity
  8
Defpoints
 62
     0
100
AcDbPoint
 10
587.5240687774789
 20
63.49573261266129
 30
0.0
  0
POINT
  5
1753D
330
17534
100
AcDbEntity
  8
Defpoints
 62
     0
100
AcDbPoint
 10
634.7240700274042
 20
124.0015637440898
 30
0.0
  0
POINT
  5
1753E
330
17534
100
AcDbEntity
  8
Defpoints
 62
     0
100
AcDbPoint
 10
634.7240700274042
 20
30.64496251711853
 30
0.0
  0
ENDBLK
  5
1753F
330
17534
100
AcDbEntity
  8
0
100
AcDbBlockEnd
  0
BLOCK
  5
17557
330
17556
100
AcDbEntity
  8
0
100
AcDbBlockBegin
  2
*D24
 70
     1
 10
0.0
 20
0.0
 30
0.0
  3
*D24
  1

  0
LINE
  5
17558
330
17556
100
AcDbEntity
  8
DIM
 62
     0
370
    -2
100
AcDbLine
 10
76.68519774868761
 20
179.0458571835039
 30
0.0
 11
62.56581562018845
 21
179.0458571835039
 31
0.0
  0
LINE
  5
17559
330
17556
100
AcDbEntity
  8
DIM
 62
     0
370
    -2
100
AcDbLine
 10
76.6851976100386
 20
139.0458562894343
 30
0.0
 11
62.5658156201884
 21
139.0458562894343
 31
0.0
  0
LINE
  5
1755A
330
17556
100
AcDbEntity
  8
DIM
 62
     0
370
    -2
100
AcDbLine
 10
62.56581562018845
 20
176.0458571835039
 30
0.0
 11
62.5658156201884
 21
142.0458562894343
 31
0.0
  0
INSERT
  5
1755B
330
17556
100
AcDbEntity
  8
DIM
 62
     0
370
    -2
100
AcDbBlockReference
  2
_DOT
 10
62.56581562018845
 20
179.0458571835039
 30
0.0
 41
3.0
 42
3.0
 43
3.0
 50
89.99999999999996
  0
INSERT
  5
1755C
330
17556
100
AcDbEntity
  8
DIM
 62
     0
370
    -2
100
AcDbBlockReference
  2
_DOT
 10
62.5658156201884
 20
139.0458562894343
 30
0.0
 41
3.0
 42
3.0
 43
3.0
 50
269.9999999999999
  0
MTEXT
  5
1755D
330
17556
100
AcDbEntity
  8
DIM
 62
     0
 48
0.05
100
AcDbMText
 10
52.56581562018841
 20
159.0458567364693
 30
0.0
 40
8.0
 41
0.0
 46
0.0
 71
     5
 72
     1
  1
\A1;40
  7
ＭＳ ゴシック
 11
0.0000000000000007
 21
1.0
 31
0.0
 73
     1
 44
1.0
  0
POINT
  5
1755E
330
17556
100
AcDbEntity
  8
Defpoints
 62
     0
100
AcDbPoint
 10
86.68519774868761
 20
179.0458571835039
 30
0.0
  0
POINT
  5
1755F
330
17556
100
AcDbEntity
  8
Defpoints
 62
     0
100
AcDbPoint
 10
86.68519761003858
 20
139.0458562894343
 30
0.0
  0
POINT
  5
17560
330
17556
100
AcDbEntity
  8
Defpoints
 62
     0
100
AcDbPoint
 10
62.56581562018832
 20
139.0458562894343
 30
0.0
  0
ENDBLK
  5
17561
330
17556
100
AcDbEntity
  8
0
100
AcDbBlockEnd
  0
BLOCK
  5
17566
330
17565
100
AcDbEntity
  8
0
100
AcDbBlockBegin
  2
*D25
 70
     1
 10
0.0
 20
0.0
 30
0.0
  3
*D25
  1

  0
LINE
  5
17567
330
17565
100
AcDbEntity
  8
DIM
 62
     0
370
    -2
100
AcDbLine
 10
81.6853995679858
 20
184.0458571205519
 30
0.0
 11
81.6853995679858
 21
265.2122281033731
 31
0.0
  0
LINE
  5
17568
330
17565
100
AcDbEntity
  8
DIM
 62
     0
370
    -2
100
AcDbLine
 10
271.6853984293653
 20
184.0458571205521
 30
0.0
 11
271.6853984293653
 21
265.2122281033731
 31
0.0
  0
LINE
  5
17569
330
17565
100
AcDbEntity
  8
DIM
 62
     0
370
    -2
100
AcDbLine
 10
84.68539956798583
 20
265.2122281033731
 30
0.0
 11
268.6853984293653
 21
265.2122281033731
 31
0.0
  0
INSERT
  5
1756A
330
17565
100
AcDbEntity
  8
DIM
 62
     0
370
    -2
100
AcDbBlockReference
  2
_DOT
 10
81.6853995679858
 20
265.2122281033731
 30
0.0
 41
3.0
 42
3.0
 43
3.0
 50
180.0
  0
INSERT
  5
1756B
330
17565
100
AcDbEntity
  8
DIM
 62
     0
370
    -2
100
AcDbBlockReference
  2
_DOT
 10
271.6853984293653
 20
265.2122281033731
 30
0.0
 41
3.0
 42
3.0
 43
3.0
  0
MTEXT
  5
1756C
330
17565
100
AcDbEntity
  8
DIM
 62
     0
 48
0.05
100
AcDbMText
 10
176.6853989986755
 20
275.2122281033731
 30
0.0
 40
8.0
 41
0.0
 46
0.0
 71
     5
 72
     1
  1
\A1;190
  7
ＭＳ ゴシック
 73
     1
 44
1.0
  0
POINT
  5
1756D
330
17565
100
AcDbEntity
  8
Defpoints
 62
     0
100
AcDbPoint
 10
81.6853995679858
 20
174.0458571205519
 30
0.0
  0
POINT
  5
1756E
330
17565
100
AcDbEntity
  8
Defpoints
 62
     0
100
AcDbPoint
 10
271.6853984293653
 20
174.0458571205521
 30
0.0
  0
POINT
  5
1756F
330
17565
100
AcDbEntity
  8
Defpoints
 62
     0
100
AcDbPoint
 10
271.6853984293653
 20
265.2122281033731
 30
0.0
  0
ENDBLK
  5
17570
330
17565
100
AcDbEntity
  8
0
100
AcDbBlockEnd
  0
BLOCK
  5
1775F
330
1775E
100
AcDbEntity
  8
0
100
AcDbBlockBegin
  2
*D26
 70
     1
 10
0.0
 20
0.0
 30
0.0
  3
*D26
  1

  0
LINE
  5
17761
330
1775E
100
AcDbEntity
  8
DIM
 62
     0
440
 16777216
370
    -2
100
AcDbLine
 10
246.1624389428124
 20
352.8269955471101
 30
0.0
 11
325.0206502203185
 21
352.8269955471101
 31
0.0
  0
LINE
  5
17762
330
1775E
100
AcDbEntity
  8
DIM
 62
     0
440
 16777216
370
    -2
100
AcDbLine
 10
218.4678310401913
 20
282.8269955471101
 30
0.0
 11
325.0206502203185
 21
282.8269955471101
 31
0.0
  0
LINE
  5
17763
330
1775E
100
AcDbEntity
  8
DIM
 62
     0
440
 16777216
370
    -2
100
AcDbLine
 10
325.0206502203185
 20
349.8269955471101
 30
0.0
 11
325.0206502203185
 21
285.8269955471101
 31
0.0
  0
INSERT
  5
17764
330
1775E
100
AcDbEntity
  8
DIM
 62
     0
440
 16777216
370
    -2
100
AcDbBlockReference
  2
_DOT
 10
325.0206502203185
 20
352.8269955471101
 30
0.0
 41
3.0
 42
3.0
 43
3.0
 50
90.0
  0
INSERT
  5
17765
330
1775E
100
AcDbEntity
  8
DIM
 62
     0
440
 16777216
370
    -2
100
AcDbBlockReference
  2
_DOT
 10
325.0206502203185
 20
282.8269955471101
 30
0.0
 41
3.0
 42
3.0
 43
3.0
 50
270.0
  0
MTEXT
  5
17766
330
1775E
100
AcDbEntity
  8
DIM
 62
     0
440
 16777216
100
AcDbMText
 10
315.0206502203185
 20
317.8269955471102
 30
0.0
 40
8.0
 41
0.0
 46
0.0
 71
     5
 72
     1
  1
\A1;70
  7
ＭＳ ゴシック
 11
0.0
 21
1.0
 31
0.0
 73
     1
 44
1.0
  0
POINT
  5
17767
330
1775E
100
AcDbEntity
  8
Defpoints
 62
     0
440
 16777216
100
AcDbPoint
 10
236.1624389428124
 20
352.8269955471101
 30
0.0
  0
POINT
  5
17768
330
1775E
100
AcDbEntity
  8
Defpoints
 62
     0
440
 16777216
100
AcDbPoint
 10
208.4678310401913
 20
282.8269955471101
 30
0.0
  0
POINT
  5
17769
330
1775E
100
AcDbEntity
  8
Defpoints
 62
     0
440
 16777216
100
AcDbPoint
 10
325.0206502203185
 20
282.8269955471101
 30
0.0
  0
ENDBLK
  5
17760
330
1775E
100
AcDbEntity
  8
0
100
AcDbBlockEnd
  0
BLOCK
  5
1776B
330
1776A
100
AcDbEntity
  8
0
100
AcDbBlockBegin
  2
*D27
 70
     1
 10
0.0
 20
0.0
 30
0.0
  3
*D27
  1

  0
LINE
  5
17943
330
1776A
100
AcDbEntity
  8
DIM
 62
     0
440
 16777216
370
    -2
100
AcDbLine
 10
491.215496638506
 20
395.2946968249398
 30
0.0
 11
491.215496638506
 21
407.9022822187988
 31
0.0
  0
LINE
  5
17944
330
1776A
100
AcDbEntity
  8
DIM
 62
     0
440
 16777216
370
    -2
100
AcDbLine
 10
495.2154966385061
 20
395.2946968249398
 30
0.0
 11
495.2154966385061
 21
407.9022822187988
 31
0.0
  0
LINE
  5
17945
330
1776A
100
AcDbEntity
  8
DIM
 62
     0
440
 16777216
370
    -2
100
AcDbLine
 10
498.2154966385062
 20
407.9022822187988
 30
0.0
 11
524.5113037451052
 21
407.9022822187988
 31
0.0
  0
LINE
  5
17946
330
1776A
100
AcDbEntity
  8
DIM
 62
     0
440
 16777216
370
    -2
100
AcDbLine
 10
491.215496638506
 20
407.9022822187988
 30
0.0
 11
495.2154966385061
 21
407.9022822187988
 31
0.0
  0
INSERT
  5
17947
330
1776A
100
AcDbEntity
  8
DIM
 62
     0
440
 16777216
370
    -2
100
AcDbBlockReference
  2
_DOT
 10
491.215496638506
 20
407.9022822187988
 30
0.0
 41
3.0
 42
3.0
 43
3.0
 50
180.0
  0
LINE
  5
17948
330
1776A
100
AcDbEntity
  8
DIM
 62
     0
440
 16777216
370
    -2
100
AcDbLine
 10
494.2154966385062
 20
407.9022822187988
 30
0.0
 11
497.215496638506
 21
407.9022822187988
 31
0.0
  0
INSERT
  5
17949
330
1776A
100
AcDbEntity
  8
DIM
 62
     0
440
 16777216
370
    -2
100
AcDbBlockReference
  2
_DOT
 10
495.2154966385061
 20
407.9022822187988
 30
0.0
 41
3.0
 42
3.0
 43
3.0
  0
LINE
  5
1794A
330
1776A
100
AcDbEntity
  8
DIM
 62
     0
440
 16777216
370
    -2
100
AcDbLine
 10
492.215496638506
 20
407.9022822187988
 30
0.0
 11
489.2154966385062
 21
407.9022822187988
 31
0.0
  0
LINE
  5
1794B
330
1776A
100
AcDbEntity
  8
DIM
 62
     0
440
 16777216
370
    -2
100
AcDbLine
 10
495.2154966385061
 20
407.9022822187988
 30
0.0
 11
498.2154966385062
 21
407.9022822187988
 31
0.0
  0
MTEXT
  5
1794C
330
1776A
100
AcDbEntity
  8
DIM
 62
     0
440
 16777216
100
AcDbMText
 10
516.2574966385062
 20
417.9022822187989
 30
0.0
 40
8.0
 41
0.0
 46
0.0
 71
     5
 72
     1
  1
\A1;4
  7
ＭＳ ゴシック
 73
     1
 44
1.0
  0
POINT
  5
1794D
330
1776A
100
AcDbEntity
  8
Defpoints
 62
     0
440
 16777216
100
AcDbPoint
 10
491.215496638506
 20
385.2946968249398
 30
0.0
  0
POINT
  5
1794E
330
1776A
100
AcDbEntity
  8
Defpoints
 62
     0
440
 16777216
100
AcDbPoint
 10
495.2154966385061
 20
385.2946968249398
 30
0.0
  0
POINT
  5
1794F
330
1776A
100
AcDbEntity
  8
Defpoints
 62
     0
440
 16777216
100
AcDbPoint
 10
495.2154966385061
 20
407.9022822187988
 30
0.0
  0
ENDBLK
  5
1776C
330
1776A
100
AcDbEntity
  8
0
100
AcDbBlockEnd
  0
BLOCK
  5
17779
330
17778
100
AcDbEntity
  8
0
100
AcDbBlockBegin
  2
*D28
 70
     1
 10
0.0
 20
0.0
 30
0.0
  3
*D28
  1

  0
LINE
  5
1777B
330
17778
100
AcDbEntity
  8
DIM
 62
     0
440
 16777216
370
    -2
100
AcDbLine
 10
491.2154966384978
 20
310.2946968249398
 30
0.0
 11
491.2154966384978
 21
224.426101377393
 31
0.0
  0
LINE
  5
1777C
330
17778
100
AcDbEntity
  8
DIM
 62
     0
440
 16777216
370
    -2
100
AcDbLine
 10
554.1155002562065
 20
272.8023646804889
 30
0.0
 11
554.1155002562065
 21
224.426101377393
 31
0.0
  0
LINE
  5
1777D
330
17778
100
AcDbEntity
  8
DIM
 62
     0
440
 16777216
370
    -2
100
AcDbLine
 10
494.2154966384978
 20
224.426101377393
 30
0.0
 11
551.1155002562064
 21
224.426101377393
 31
0.0
  0
INSERT
  5
1777E
330
17778
100
AcDbEntity
  8
DIM
 62
     0
440
 16777216
370
    -2
100
AcDbBlockReference
  2
_DOT
 10
491.2154966384978
 20
224.426101377393
 30
0.0
 41
3.0
 42
3.0
 43
3.0
 50
180.0
  0
INSERT
  5
1777F
330
17778
100
AcDbEntity
  8
DIM
 62
     0
440
 16777216
370
    -2
100
AcDbBlockReference
  2
_DOT
 10
554.1155002562065
 20
224.426101377393
 30
0.0
 41
3.0
 42
3.0
 43
3.0
  0
MTEXT
  5
17780
330
17778
100
AcDbEntity
  8
DIM
 62
     0
440
 16777216
 48
0.05
100
AcDbMText
 10
523.4154984473605
 20
234.426101377393
 30
0.0
 40
8.0
 41
0.0
 46
0.0
 71
     5
 72
     1
  1
\A1;34～52
  7
ＭＳ ゴシック
 73
     1
 44
1.0
  0
POINT
  5
17781
330
17778
100
AcDbEntity
  8
Defpoints
 62
     0
440
 16777216
100
AcDbPoint
 10
491.2154966384978
 20
320.2946968249398
 30
0.0
  0
POINT
  5
17782
330
17778
100
AcDbEntity
  8
Defpoints
 62
     0
440
 16777216
100
AcDbPoint
 10
554.1155002562065
 20
282.8023646804888
 30
0.0
  0
POINT
  5
17783
330
17778
100
AcDbEntity
  8
Defpoints
 62
     0
440
 16777216
100
AcDbPoint
 10
554.1155002562065
 20
224.426101377393
 30
0.0
  0
ENDBLK
  5
1777A
330
17778
100
AcDbEntity
  8
0
100
AcDbBlockEnd
  0
BLOCK
  5
17785
330
17784
100
AcDbEntity
  8
0
100
AcDbBlockBegin
  2
*D29
 70
     1
 10
0.0
 20
0.0
 30
0.0
  3
*D29
  1

  0
LINE
  5
17787
330
17784
100
AcDbEntity
  8
DIM
 62
     0
440
 16777216
370
    -2
100
AcDbLine
 10
554.1155002562065
 20
262.8023646804888
 30
0.0
 11
554.1155002562065
 21
224.426101377393
 31
0.0
  0
LINE
  5
17788
330
17784
100
AcDbEntity
  8
DIM
 62
     0
440
 16777216
370
    -2
100
AcDbLine
 10
581.1155002562066
 20
287.8817063391968
 30
0.0
 11
581.1155002562066
 21
224.426101377393
 31
0.0
  0
LINE
  5
17789
330
17784
100
AcDbEntity
  8
DIM
 62
     0
440
 16777216
370
    -2
100
AcDbLine
 10
557.1155002562066
 20
224.426101377393
 30
0.0
 11
578.1155002562066
 21
224.426101377393
 31
0.0
  0
INSERT
  5
1778A
330
17784
100
AcDbEntity
  8
DIM
 62
     0
440
 16777216
370
    -2
100
AcDbBlockReference
  2
_DOT
 10
554.1155002562065
 20
224.426101377393
 30
0.0
 41
3.0
 42
3.0
 43
3.0
 50
180.0
  0
INSERT
  5
1778B
330
17784
100
AcDbEntity
  8
DIM
 62
     0
440
 16777216
370
    -2
100
AcDbBlockReference
  2
_DOT
 10
581.1155002562066
 20
224.426101377393
 30
0.0
 41
3.0
 42
3.0
 43
3.0
  0
MTEXT
  5
1778C
330
17784
100
AcDbEntity
  8
DIM
 62
     0
440
 16777216
 48
0.05
100
AcDbMText
 10
567.6155002562064
 20
234.426101377393
 30
0.0
 40
8.0
 41
0.0
 46
0.0
 71
     5
 72
     1
  1
\A1;27
  7
ＭＳ ゴシック
 73
     1
 44
1.0
  0
POINT
  5
1778D
330
17784
100
AcDbEntity
  8
Defpoints
 62
     0
440
 16777216
100
AcDbPoint
 10
554.1155002562065
 20
272.8023646804889
 30
0.0
  0
POINT
  5
1778E
330
17784
100
AcDbEntity
  8
Defpoints
 62
     0
440
 16777216
100
AcDbPoint
 10
581.1155002562066
 20
297.8817063391968
 30
0.0
  0
POINT
  5
1778F
330
17784
100
AcDbEntity
  8
Defpoints
 62
     0
440
 16777216
100
AcDbPoint
 10
581.1155002562066
 20
224.426101377393
 30
0.0
  0
ENDBLK
  5
17786
330
17784
100
AcDbEntity
  8
0
100
AcDbBlockEnd
  0
BLOCK
  5
17791
330
17790
100
AcDbEntity
  8
0
100
AcDbBlockBegin
  2
*D30
 70
     1
 10
0.0
 20
0.0
 30
0.0
  3
*D30
  1

  0
LINE
  5
17793
330
17790
100
AcDbEntity
  8
DIM
 62
     0
370
    -2
100
AcDbLine
 10
158.7811106869582
 20
395.3269961682967
 30
0.0
 11
65.4711006783092
 21
395.3269961682967
 31
0.0
  0
LINE
  5
17794
330
17790
100
AcDbEntity
  8
DIM
 62
     0
370
    -2
100
AcDbLine
 10
152.6347486787416
 20
300.3269947537781
 30
0.0
 11
65.4711006783092
 21
300.3269947537781
 31
0.0
  0
LINE
  5
17795
330
17790
100
AcDbEntity
  8
DIM
 62
     0
370
    -2
100
AcDbLine
 10
65.4711006783092
 20
392.3269961682967
 30
0.0
 11
65.4711006783092
 21
303.3269947537781
 31
0.0
  0
INSERT
  5
17796
330
17790
100
AcDbEntity
  8
DIM
 62
     0
370
    -2
100
AcDbBlockReference
  2
_DOT
 10
65.4711006783092
 20
395.3269961682967
 30
0.0
 41
3.0
 42
3.0
 43
3.0
 50
90.0
  0
INSERT
  5
17797
330
17790
100
AcDbEntity
  8
DIM
 62
     0
370
    -2
100
AcDbBlockReference
  2
_DOT
 10
65.4711006783092
 20
300.3269947537781
 30
0.0
 41
3.0
 42
3.0
 43
3.0
 50
270.0
  0
MTEXT
  5
17798
330
17790
100
AcDbEntity
  8
DIM
 62
     0
100
AcDbMText
 10
55.4711006783092
 20
347.8269954610374
 30
0.0
 40
8.0
 41
0.0
 46
0.0
 71
     5
 72
     1
  1
\A1;95
  7
ＭＳ ゴシック
 11
0.0
 21
1.0
 31
0.0
 73
     1
 44
1.0
  0
POINT
  5
17799
330
17790
100
AcDbEntity
  8
Defpoints
 62
     0
100
AcDbPoint
 10
168.7811106869582
 20
395.3269961682967
 30
0.0
  0
POINT
  5
1779A
330
17790
100
AcDbEntity
  8
Defpoints
 62
     0
100
AcDbPoint
 10
162.6347486787416
 20
300.3269947537781
 30
0.0
  0
POINT
  5
1779B
330
17790
100
AcDbEntity
  8
Defpoints
 62
     0
100
AcDbPoint
 10
65.4711006783092
 20
300.3269947537781
 30
0.0
  0
ENDBLK
  5
17792
330
17790
100
AcDbEntity
  8
0
100
AcDbBlockEnd
  0
BLOCK
  5
1779D
330
1779C
100
AcDbEntity
  8
0
100
AcDbBlockBegin
  2
*D31
 70
     1
 10
0.0
 20
0.0
 30
0.0
  3
*D31
  1

  0
LINE
  5
1779F
330
1779C
100
AcDbEntity
  8
DIM
 62
     0
440
 16777216
370
    -2
100
AcDbLine
 10
178.6623292578544
 20
239.6370793240065
 30
0.0
 11
178.6623292578544
 21
211.7321288228571
 31
0.0
  0
LINE
  5
177A0
330
1779C
100
AcDbEntity
  8
DIM
 62
     0
440
 16777216
370
    -2
100
AcDbLine
 10
228.6623292578544
 20
239.6370793240065
 30
0.0
 11
228.6623292578544
 21
211.7321288228571
 31
0.0
  0
LINE
  5
177A1
330
1779C
100
AcDbEntity
  8
DIM
 62
     0
440
 16777216
370
    -2
100
AcDbLine
 10
181.6623292578544
 20
211.7321288228571
 30
0.0
 11
225.6623292578544
 21
211.7321288228571
 31
0.0
  0
INSERT
  5
177A2
330
1779C
100
AcDbEntity
  8
DIM
 62
     0
440
 16777216
370
    -2
100
AcDbBlockReference
  2
_DOT
 10
178.6623292578544
 20
211.7321288228571
 30
0.0
 41
3.0
 42
3.0
 43
3.0
 50
180.0
  0
INSERT
  5
177A3
330
1779C
100
AcDbEntity
  8
DIM
 62
     0
440
 16777216
370
    -2
100
AcDbBlockReference
  2
_DOT
 10
228.6623292578544
 20
211.7321288228571
 30
0.0
 41
3.0
 42
3.0
 43
3.0
  0
MTEXT
  5
177A4
330
1779C
100
AcDbEntity
  8
DIM
 62
     0
440
 16777216
100
AcDbMText
 10
203.6623292578544
 20
221.7321288228571
 30
0.0
 40
8.0
 41
0.0
 46
0.0
 71
     5
 72
     1
  1
\A1;50
  7
ＭＳ ゴシック
 73
     1
 44
1.0
  0
POINT
  5
177A5
330
1779C
100
AcDbEntity
  8
Defpoints
 62
     0
440
 16777216
100
AcDbPoint
 10
178.6623292578544
 20
249.6370793240065
 30
0.0
  0
POINT
  5
177A6
330
1779C
100
AcDbEntity
  8
Defpoints
 62
     0
440
 16777216
100
AcDbPoint
 10
228.6623292578544
 20
249.6370793240065
 30
0.0
  0
POINT
  5
177A7
330
1779C
100
AcDbEntity
  8
Defpoints
 62
     0
440
 16777216
100
AcDbPoint
 10
228.6623292578544
 20
211.7321288228571
 30
0.0
  0
ENDBLK
  5
1779E
330
1779C
100
AcDbEntity
  8
0
100
AcDbBlockEnd
  0
BLOCK
  5
177A9
330
177A8
100
AcDbEntity
  8
0
100
AcDbBlockBegin
  2
*D32
 70
     1
 10
0.0
 20
0.0
 30
0.0
  3
*D32
  1

  0
LINE
  5
177AB
330
177A8
100
AcDbEntity
  8
DIM
 62
     0
440
 16777216
370
    -2
100
AcDbLine
 10
266.1035165084086
 20
652.4927937583429
 30
0.0
 11
327.3782789704156
 21
652.4927937583429
 31
0.0
  0
LINE
  5
177AC
330
177A8
100
AcDbEntity
  8
DIM
 62
     0
440
 16777216
370
    -2
100
AcDbLine
 10
236.5882110537138
 20
724.4927041980442
 30
0.0
 11
327.3782789704156
 21
724.4927041980442
 31
0.0
  0
LINE
  5
177AD
330
177A8
100
AcDbEntity
  8
DIM
 62
     0
440
 16777216
370
    -2
100
AcDbLine
 10
327.3782789704156
 20
655.4927937583429
 30
0.0
 11
327.3782789704156
 21
721.4927041980443
 31
0.0
  0
INSERT
  5
177AE
330
177A8
100
AcDbEntity
  8
DIM
 62
     0
440
 16777216
370
    -2
100
AcDbBlockReference
  2
_DOT
 10
327.3782789704156
 20
652.4927937583429
 30
0.0
 41
3.0
 42
3.0
 43
3.0
 50
270.0
  0
INSERT
  5
177AF
330
177A8
100
AcDbEntity
  8
DIM
 62
     0
440
 16777216
370
    -2
100
AcDbBlockReference
  2
_DOT
 10
327.3782789704156
 20
724.4927041980442
 30
0.0
 41
3.0
 42
3.0
 43
3.0
 50
90.0
  0
MTEXT
  5
177B0
330
177A8
100
AcDbEntity
  8
DIM
 62
     0
440
 16777216
100
AcDbMText
 10
337.3782789704157
 20
688.4927489781936
 30
0.0
 40
8.0
 41
0.0
 46
0.0
 71
     5
 72
     1
  1
\A1;54～72
  7
ＭＳ ゴシック
 11
0.0
 21
1.0
 31
0.0
 73
     1
 44
1.0
  0
POINT
  5
177B1
330
177A8
100
AcDbEntity
  8
Defpoints
 62
     0
440
 16777216
100
AcDbPoint
 10
256.1035165084086
 20
652.4927937583429
 30
0.0
  0
POINT
  5
177B2
330
177A8
100
AcDbEntity
  8
Defpoints
 62
     0
440
 16777216
100
AcDbPoint
 10
226.5882110537138
 20
724.4927041980442
 30
0.0
  0
POINT
  5
177B3
330
177A8
100
AcDbEntity
  8
Defpoints
 62
     0
440
 16777216
100
AcDbPoint
 10
327.3782789704156
 20
724.4927041980442
 30
0.0
  0
ENDBLK
  5
177AA
330
177A8
100
AcDbEntity
  8
0
100
AcDbBlockEnd
  0
BLOCK
  5
177B5
330
177B4
100
AcDbEntity
  8
0
100
AcDbBlockBegin
  2
*D33
 70
     1
 10
0.0
 20
0.0
 30
0.0
  3
*D33
  1

  0
LINE
  5
177B7
330
177B4
100
AcDbEntity
  8
DIM
 62
     0
440
 16777216
370
    -2
100
AcDbLine
 10
88.16253782343355
 20
678.6927947996262
 30
0.0
 11
65.05750407022627
 21
678.6927947996262
 31
0.0
  0
LINE
  5
177B8
330
177B4
100
AcDbEntity
  8
DIM
 62
     0
440
 16777216
370
    -2
100
AcDbLine
 10
180.4017482522133
 20
724.4927041980442
 30
0.0
 11
65.05750407022627
 21
724.4927041980442
 31
0.0
  0
LINE
  5
177B9
330
177B4
100
AcDbEntity
  8
DIM
 62
     0
440
 16777216
370
    -2
100
AcDbLine
 10
65.05750407022627
 20
681.6927947996262
 30
0.0
 11
65.05750407022627
 21
721.4927041980443
 31
0.0
  0
INSERT
  5
177BA
330
177B4
100
AcDbEntity
  8
DIM
 62
     0
440
 16777216
370
    -2
100
AcDbBlockReference
  2
_DOT
 10
65.05750407022627
 20
678.6927947996262
 30
0.0
 41
3.0
 42
3.0
 43
3.0
 50
270.0
  0
INSERT
  5
177BB
330
177B4
100
AcDbEntity
  8
DIM
 62
     0
440
 16777216
370
    -2
100
AcDbBlockReference
  2
_DOT
 10
65.05750407022627
 20
724.4927041980442
 30
0.0
 41
3.0
 42
3.0
 43
3.0
 50
90.0
  0
MTEXT
  5
177BC
330
177B4
100
AcDbEntity
  8
DIM
 62
     0
440
 16777216
100
AcDbMText
 10
55.05750407022627
 20
701.5927494988351
 30
0.0
 40
8.0
 41
0.0
 46
0.0
 71
     5
 72
     1
  1
\A1;45
  7
ＭＳ ゴシック
 11
0.0
 21
1.0
 31
0.0
 73
     1
 44
1.0
  0
POINT
  5
177BD
330
177B4
100
AcDbEntity
  8
Defpoints
 62
     0
440
 16777216
100
AcDbPoint
 10
98.16253782343357
 20
678.6927947996262
 30
0.0
  0
POINT
  5
177BE
330
177B4
100
AcDbEntity
  8
Defpoints
 62
     0
440
 16777216
100
AcDbPoint
 10
190.4017482522133
 20
724.4927041980442
 30
0.0
  0
POINT
  5
177BF
330
177B4
100
AcDbEntity
  8
Defpoints
 62
     0
440
 16777216
100
AcDbPoint
 10
65.05750407022627
 20
724.4927041980442
 30
0.0
  0
ENDBLK
  5
177B6
330
177B4
100
AcDbEntity
  8
0
100
AcDbBlockEnd
  0
BLOCK
  5
177C1
330
177C0
100
AcDbEntity
  8
0
100
AcDbBlockBegin
  2
*D34
 70
     1
 10
0.0
 20
0.0
 30
0.0
  3
*D34
  1

  0
LINE
  5
177C3
330
177C0
100
AcDbEntity
  8
DIM
 62
     0
440
 16777216
370
    -2
100
AcDbLine
 10
144.1625384973317
 20
727.6927951622162
 30
0.0
 11
144.1625384973317
 21
758.3677529732599
 31
0.0
  0
LINE
  5
177C4
330
177C0
100
AcDbEntity
  8
DIM
 62
     0
440
 16777216
370
    -2
100
AcDbLine
 10
263.1625402705708
 20
724.363512150402
 30
0.0
 11
263.1625402705708
 21
758.3677529732599
 31
0.0
  0
LINE
  5
177C5
330
177C0
100
AcDbEntity
  8
DIM
 62
     0
440
 16777216
370
    -2
100
AcDbLine
 10
147.1625384973317
 20
758.3677529732599
 30
0.0
 11
260.1625402705709
 21
758.3677529732599
 31
0.0
  0
INSERT
  5
177C6
330
177C0
100
AcDbEntity
  8
DIM
 62
     0
440
 16777216
370
    -2
100
AcDbBlockReference
  2
_DOT
 10
144.1625384973317
 20
758.3677529732599
 30
0.0
 41
3.0
 42
3.0
 43
3.0
 50
180.0
  0
INSERT
  5
177C7
330
177C0
100
AcDbEntity
  8
DIM
 62
     0
440
 16777216
370
    -2
100
AcDbBlockReference
  2
_DOT
 10
263.1625402705708
 20
758.3677529732599
 30
0.0
 41
3.0
 42
3.0
 43
3.0
  0
MTEXT
  5
177C8
330
177C0
100
AcDbEntity
  8
DIM
 62
     0
440
 16777216
100
AcDbMText
 10
203.6625393839512
 20
768.3677529732599
 30
0.0
 40
8.0
 41
0.0
 46
0.0
 71
     5
 72
     1
  1
\A1;119
  7
ＭＳ ゴシック
 73
     1
 44
1.0
  0
POINT
  5
177C9
330
177C0
100
AcDbEntity
  8
Defpoints
 62
     0
440
 16777216
100
AcDbPoint
 10
144.1625384973317
 20
717.6927951622161
 30
0.0
  0
POINT
  5
177CA
330
177C0
100
AcDbEntity
  8
Defpoints
 62
     0
440
 16777216
100
AcDbPoint
 10
263.1625402705708
 20
714.3635121504019
 30
0.0
  0
POINT
  5
177CB
330
177C0
100
AcDbEntity
  8
Defpoints
 62
     0
440
 16777216
100
AcDbPoint
 10
263.1625402705708
 20
758.3677529732599
 30
0.0
  0
ENDBLK
  5
177C2
330
177C0
100
AcDbEntity
  8
0
100
AcDbBlockEnd
  0
BLOCK
  5
177CD
330
177CC
100
AcDbEntity
  8
0
100
AcDbBlockBegin
  2
*D35
 70
     1
 10
0.0
 20
0.0
 30
0.0
  3
*D35
  1

  0
LINE
  5
177CF
330
177CC
100
AcDbEntity
  8
DIM
 62
     0
370
    -2
100
AcDbLine
 10
305.8751409882445
 20
724.4927041980441
 30
0.0
 11
356.2297075418446
 21
724.4927041980441
 31
0.0
  0
LINE
  5
177D0
330
177CC
100
AcDbEntity
  8
DIM
 62
     0
370
    -2
100
AcDbLine
 10
258.4059863687849
 20
724.4927041980441
 30
0.0
 11
356.2297075418446
 21
724.4927041980441
 31
0.0
  0
LINE
  5
177D1
330
177CC
100
AcDbEntity
  8
DIM
 62
     0
370
    -2
100
AcDbLine
 10
356.2297075418446
 20
724.4927041980441
 30
0.0
 11
356.2297075418446
 21
718.4927041980443
 31
0.0
  0
LINE
  5
177D2
330
177CC
100
AcDbEntity
  8
DIM
 62
     0
370
    -2
100
AcDbLine
 10
356.2297075418446
 20
721.4927041980441
 30
0.0
 11
356.2297075418446
 21
718.4927041980443
 31
0.0
  0
LINE
  5
177D3
330
177CC
100
AcDbEntity
  8
DIM
 62
     0
370
    -2
100
AcDbLine
 10
356.2297075418446
 20
727.4927041980443
 30
0.0
 11
356.2297075418446
 21
730.4927041980441
 31
0.0
  0
INSERT
  5
177D4
330
177CC
100
AcDbEntity
  8
DIM
 62
     0
370
    -2
100
AcDbBlockReference
  2
_DOT
 10
356.2297075418446
 20
724.4927041980441
 30
0.0
 41
3.0
 42
3.0
 43
3.0
 50
90.0
  0
INSERT
  5
177D5
330
177CC
100
AcDbEntity
  8
DIM
 62
     0
370
    -2
100
AcDbBlockReference
  2
_DOT
 10
356.2297075418446
 20
724.4927041980441
 30
0.0
 41
3.0
 42
3.0
 43
3.0
 50
270.0
  0
MTEXT
  5
177D6
330
177CC
100
AcDbEntity
  8
DIM
 62
     0
 48
0.05
100
AcDbMText
 10
366.2297075418446
 20
710.2607041980441
 30
0.0
 40
8.0
 41
0.0
 46
0.0
 71
     5
 72
     1
  1
\A1;0
  7
ＭＳ ゴシック
 11
0.0000000000000001
 21
1.0
 31
0.0
 73
     1
 44
1.0
  0
POINT
  5
177D7
330
177CC
100
AcDbEntity
  8
Defpoints
 62
     0
100
AcDbPoint
 10
295.8751409882445
 20
724.4927041980441
 30
0.0
  0
POINT
  5
17832
330
177CC
100
AcDbEntity
  8
Defpoints
 62
     0
100
AcDbPoint
 10
248.4059863687849
 20
724.4927041980441
 30
0.0
  0
POINT
  5
17833
330
177CC
100
AcDbEntity
  8
Defpoints
 62
     0
100
AcDbPoint
 10
356.2297075418446
 20
724.4927041980441
 30
0.0
  0
ENDBLK
  5
177CE
330
177CC
100
AcDbEntity
  8
0
100
AcDbBlockEnd
  0
BLOCK
  5
177D9
330
177D8
100
AcDbEntity
  8
0
100
AcDbBlockBegin
  2
*D36
 70
     1
 10
0.0
 20
0.0
 30
0.0
  3
*D36
  1

  0
LINE
  5
177DB
330
177D8
100
AcDbEntity
  8
DIM
 62
     0
440
 16777216
370
    -2
100
AcDbLine
 10
179.6625398963187
 20
653.9927948118271
 30
0.0
 11
179.6625398963187
 21
659.3632525451112
 31
0.0
  0
LINE
  5
177DC
330
177D8
100
AcDbEntity
  8
DIM
 62
     0
440
 16777216
370
    -2
100
AcDbLine
 10
227.6625398963187
 20
653.9927948118271
 30
0.0
 11
227.6625398963187
 21
659.3632525451112
 31
0.0
  0
LINE
  5
177DD
330
177D8
100
AcDbEntity
  8
DIM
 62
     0
440
 16777216
370
    -2
100
AcDbLine
 10
227.6625398963187
 20
659.3632525451112
 30
0.0
 11
279.3340770406994
 21
659.3632525451112
 31
0.0
  0
LINE
  5
177DE
330
177D8
100
AcDbEntity
  8
DIM
 62
     0
440
 16777216
370
    -2
100
AcDbLine
 10
182.6625398963187
 20
659.3632525451112
 30
0.0
 11
224.6625398963187
 21
659.3632525451112
 31
0.0
  0
LINE
  5
177DF
330
177D8
100
AcDbEntity
  8
DIM
 62
     0
440
 16777216
370
    -2
100
AcDbLine
 10
224.6625398963187
 20
659.3632525451112
 30
0.0
 11
221.6625398963187
 21
659.3632525451112
 31
0.0
  0
INSERT
  5
177E0
330
177D8
100
AcDbEntity
  8
DIM
 62
     0
440
 16777216
370
    -2
100
AcDbBlockReference
  2
_DOT
 10
179.6625398963187
 20
659.3632525451112
 30
0.0
 41
3.0
 42
3.0
 43
3.0
 50
180.0
  0
INSERT
  5
177E1
330
177D8
100
AcDbEntity
  8
DIM
 62
     0
440
 16777216
370
    -2
100
AcDbBlockReference
  2
_DOT
 10
227.6625398963187
 20
659.3632525451112
 30
0.0
 41
3.0
 42
3.0
 43
3.0
  0
MTEXT
  5
177E2
330
177D8
100
AcDbEntity
  8
DIM
 62
     0
440
 16777216
100
AcDbMText
 10
265.8980770406994
 20
669.3632525451111
 30
0.0
 40
8.0
 41
0.0
 46
0.0
 71
     5
 72
     1
  1
\A1;%%c48
  7
ＭＳ ゴシック
 73
     1
 44
1.0
  0
POINT
  5
177E3
330
177D8
100
AcDbEntity
  8
Defpoints
 62
     0
440
 16777216
100
AcDbPoint
 10
179.6625398963187
 20
663.9927948118271
 30
0.0
  0
POINT
  5
177E4
330
177D8
100
AcDbEntity
  8
Defpoints
 62
     0
440
 16777216
100
AcDbPoint
 10
227.6625398963187
 20
663.9927948118271
 30
0.0
  0
POINT
  5
177E5
330
177D8
100
AcDbEntity
  8
Defpoints
 62
     0
440
 16777216
100
AcDbPoint
 10
227.6625398963187
 20
659.3632525451112
 30
0.0
  0
ENDBLK
  5
177DA
330
177D8
100
AcDbEntity
  8
0
100
AcDbBlockEnd
  0
BLOCK
  5
177E7
330
177E6
100
AcDbEntity
  8
0
100
AcDbBlockBegin
  2
*D37
 70
     1
 10
0.0
 20
0.0
 30
0.0
  3
*D37
  1

  0
LINE
  5
177E9
330
177E6
100
AcDbEntity
  8
DIM
 62
     0
440
 16777216
370
    -2
100
AcDbLine
 10
415.0154952147377
 20
395.3268891344728
 30
0.0
 11
390.5690579023535
 21
395.3268891344728
 31
0.0
  0
LINE
  5
177EA
330
177E6
100
AcDbEntity
  8
DIM
 62
     0
440
 16777216
370
    -2
100
AcDbLine
 10
415.0154952147377
 20
300.3268877198678
 30
0.0
 11
390.5690579023535
 21
300.3268877198678
 31
0.0
  0
LINE
  5
177EB
330
177E6
100
AcDbEntity
  8
DIM
 62
     0
440
 16777216
370
    -2
100
AcDbLine
 10
390.5690579023535
 20
392.3268891344728
 30
0.0
 11
390.5690579023535
 21
303.3268877198679
 31
0.0
  0
INSERT
  5
177EC
330
177E6
100
AcDbEntity
  8
DIM
 62
     0
440
 16777216
370
    -2
100
AcDbBlockReference
  2
_DOT
 10
390.5690579023535
 20
395.3268891344728
 30
0.0
 41
3.0
 42
3.0
 43
3.0
 50
90.0
  0
INSERT
  5
177ED
330
177E6
100
AcDbEntity
  8
DIM
 62
     0
440
 16777216
370
    -2
100
AcDbBlockReference
  2
_DOT
 10
390.5690579023535
 20
300.3268877198678
 30
0.0
 41
3.0
 42
3.0
 43
3.0
 50
270.0
  0
MTEXT
  5
177EE
330
177E6
100
AcDbEntity
  8
DIM
 62
     0
440
 16777216
 48
0.05
100
AcDbMText
 10
380.5690579023535
 20
347.8268884271703
 30
0.0
 40
8.0
 41
0.0
 46
0.0
 71
     5
 72
     1
  1
\A1;95
  7
ＭＳ ゴシック
 11
0.0
 21
1.0
 31
0.0
 73
     1
 44
1.0
  0
POINT
  5
177EF
330
177E6
100
AcDbEntity
  8
Defpoints
 62
     0
440
 16777216
100
AcDbPoint
 10
425.0154952147377
 20
395.3268891344728
 30
0.0
  0
POINT
  5
177F0
330
177E6
100
AcDbEntity
  8
Defpoints
 62
     0
440
 16777216
100
AcDbPoint
 10
425.0154952147377
 20
300.3268877198678
 30
0.0
  0
POINT
  5
177F1
330
177E6
100
AcDbEntity
  8
Defpoints
 62
     0
440
 16777216
100
AcDbPoint
 10
390.5690579023535
 20
300.3268877198678
 30
0.0
  0
ENDBLK
  5
177E8
330
177E6
100
AcDbEntity
  8
0
100
AcDbBlockEnd
  0
BLOCK
  5
177F3
330
177F2
100
AcDbEntity
  8
0
100
AcDbBlockBegin
  2
*D38
 70
     1
 10
0.0
 20
0.0
 30
0.0
  3
*D38
  1

  0
LINE
  5
177F5
330
177F2
100
AcDbEntity
  8
DIM
 62
     0
370
    -2
100
AcDbLine
 10
420.0371076095995
 20
367.5365663663543
 30
0.0
 11
420.0371076095995
 21
422.8667271201256
 31
0.0
  0
LINE
  5
177F6
330
177F2
100
AcDbEntity
  8
DIM
 62
     0
370
    -2
100
AcDbLine
 10
473.0154952147377
 20
405.5840978099542
 30
0.0
 11
473.0154952147377
 21
422.8667271201256
 31
0.0
  0
LINE
  5
177F7
330
177F2
100
AcDbEntity
  8
DIM
 62
     0
370
    -2
100
AcDbLine
 10
423.0371076095996
 20
422.8667271201256
 30
0.0
 11
470.0154952147378
 21
422.8667271201256
 31
0.0
  0
INSERT
  5
177F8
330
177F2
100
AcDbEntity
  8
DIM
 62
     0
370
    -2
100
AcDbBlockReference
  2
_DOT
 10
420.0371076095995
 20
422.8667271201256
 30
0.0
 41
3.0
 42
3.0
 43
3.0
 50
180.0
  0
INSERT
  5
177F9
330
177F2
100
AcDbEntity
  8
DIM
 62
     0
370
    -2
100
AcDbBlockReference
  2
_DOT
 10
473.0154952147377
 20
422.8667271201256
 30
0.0
 41
3.0
 42
3.0
 43
3.0
  0
MTEXT
  5
177FA
330
177F2
100
AcDbEntity
  8
DIM
 62
     0
100
AcDbMText
 10
446.5263014121688
 20
432.8667271201256
 30
0.0
 40
8.0
 41
0.0
 46
0.0
 71
     5
 72
     1
  1
\A1;53
  7
ＭＳ ゴシック
 73
     1
 44
1.0
  0
POINT
  5
177FB
330
177F2
100
AcDbEntity
  8
Defpoints
 62
     0
100
AcDbPoint
 10
420.0371076095995
 20
357.5365663663543
 30
0.0
  0
POINT
  5
177FC
330
177F2
100
AcDbEntity
  8
Defpoints
 62
     0
100
AcDbPoint
 10
473.0154952147377
 20
395.5840978099542
 30
0.0
  0
POINT
  5
177FD
330
177F2
100
AcDbEntity
  8
Defpoints
 62
     0
100
AcDbPoint
 10
473.0154952147377
 20
422.8667271201256
 30
0.0
  0
ENDBLK
  5
177F4
330
177F2
100
AcDbEntity
  8
0
100
AcDbBlockEnd
  0
BLOCK
  5
177FF
330
177FE
100
AcDbEntity
  8
0
100
AcDbBlockBegin
  2
*D39
 70
     1
 10
0.0
 20
0.0
 30
0.0
  3
*D39
  1

  0
LINE
  5
17801
330
177FE
100
AcDbEntity
  8
DIM
 62
     0
440
 16777216
370
    -2
100
AcDbLine
 10
444.015495388581
 20
247.2768714729357
 30
0.0
 11
444.015495388581
 21
224.426101377393
 31
0.0
  0
LINE
  5
17802
330
177FE
100
AcDbEntity
  8
DIM
 62
     0
440
 16777216
370
    -2
100
AcDbLine
 10
419.0154953885813
 20
340.8592236228786
 30
0.0
 11
419.0154953885813
 21
224.426101377393
 31
0.0
  0
LINE
  5
17803
330
177FE
100
AcDbEntity
  8
DIM
 62
     0
440
 16777216
370
    -2
100
AcDbLine
 10
441.015495388581
 20
224.426101377393
 30
0.0
 11
422.0154953885811
 21
224.426101377393
 31
0.0
  0
INSERT
  5
17804
330
177FE
100
AcDbEntity
  8
DIM
 62
     0
440
 16777216
370
    -2
100
AcDbBlockReference
  2
_DOT
 10
444.015495388581
 20
224.426101377393
 30
0.0
 41
3.0
 42
3.0
 43
3.0
  0
INSERT
  5
17805
330
177FE
100
AcDbEntity
  8
DIM
 62
     0
440
 16777216
370
    -2
100
AcDbBlockReference
  2
_DOT
 10
419.0154953885813
 20
224.426101377393
 30
0.0
 41
3.0
 42
3.0
 43
3.0
 50
180.0
  0
MTEXT
  5
17806
330
177FE
100
AcDbEntity
  8
DIM
 62
     0
440
 16777216
100
AcDbMText
 10
431.5154953885811
 20
234.426101377393
 30
0.0
 40
8.0
 41
0.0
 46
0.0
 71
     5
 72
     1
  1
\A1;25
  7
ＭＳ ゴシック
 73
     1
 44
1.0
  0
POINT
  5
17807
330
177FE
100
AcDbEntity
  8
Defpoints
 62
     0
440
 16777216
100
AcDbPoint
 10
444.015495388581
 20
257.2768714729357
 30
0.0
  0
POINT
  5
17808
330
177FE
100
AcDbEntity
  8
Defpoints
 62
     0
440
 16777216
100
AcDbPoint
 10
419.0154953885813
 20
350.8592236228786
 30
0.0
  0
POINT
  5
17809
330
177FE
100
AcDbEntity
  8
Defpoints
 62
     0
440
 16777216
100
AcDbPoint
 10
419.0154953885813
 20
224.426101377393
 30
0.0
  0
ENDBLK
  5
17800
330
177FE
100
AcDbEntity
  8
0
100
AcDbBlockEnd
  0
BLOCK
  5
1780B
330
1780A
100
AcDbEntity
  8
0
100
AcDbBlockBegin
  2
*D40
 70
     1
 10
0.0
 20
0.0
 30
0.0
  3
*D40
  1

  0
LINE
  5
1780D
330
1780A
100
AcDbEntity
  8
DIM
 62
     0
440
 16777216
370
    -2
100
AcDbLine
 10
444.015495388581
 20
247.2768714729357
 30
0.0
 11
444.015495388581
 21
224.426101377393
 31
0.0
  0
LINE
  5
1780E
330
1780A
100
AcDbEntity
  8
DIM
 62
     0
440
 16777216
370
    -2
100
AcDbLine
 10
491.215496638506
 20
307.7827026043643
 30
0.0
 11
491.215496638506
 21
224.426101377393
 31
0.0
  0
LINE
  5
1780F
330
1780A
100
AcDbEntity
  8
DIM
 62
     0
440
 16777216
370
    -2
100
AcDbLine
 10
447.015495388581
 20
224.426101377393
 30
0.0
 11
488.2154966385058
 21
224.426101377393
 31
0.0
  0
INSERT
  5
17810
330
1780A
100
AcDbEntity
  8
DIM
 62
     0
440
 16777216
370
    -2
100
AcDbBlockReference
  2
_DOT
 10
444.015495388581
 20
224.426101377393
 30
0.0
 41
3.0
 42
3.0
 43
3.0
 50
180.0
  0
INSERT
  5
17811
330
1780A
100
AcDbEntity
  8
DIM
 62
     0
440
 16777216
370
    -2
100
AcDbBlockReference
  2
_DOT
 10
491.215496638506
 20
224.426101377393
 30
0.0
 41
3.0
 42
3.0
 43
3.0
  0
MTEXT
  5
17812
330
1780A
100
AcDbEntity
  8
DIM
 62
     0
440
 16777216
 48
0.05
100
AcDbMText
 10
467.6154960135353
 20
234.426101377393
 30
0.0
 40
8.0
 41
0.0
 46
0.0
 71
     5
 72
     1
  1
\A1;29～47
  7
ＭＳ ゴシック
 73
     1
 44
1.0
  0
POINT
  5
17813
330
1780A
100
AcDbEntity
  8
Defpoints
 62
     0
440
 16777216
100
AcDbPoint
 10
444.015495388581
 20
257.2768714729357
 30
0.0
  0
POINT
  5
17814
330
1780A
100
AcDbEntity
  8
Defpoints
 62
     0
440
 16777216
100
AcDbPoint
 10
491.215496638506
 20
317.7827026043643
 30
0.0
  0
POINT
  5
17815
330
1780A
100
AcDbEntity
  8
Defpoints
 62
     0
440
 16777216
100
AcDbPoint
 10
491.215496638506
 20
224.426101377393
 30
0.0
  0
ENDBLK
  5
1780C
330
1780A
100
AcDbEntity
  8
0
100
AcDbBlockEnd
  0
BLOCK
  5
17817
330
17816
100
AcDbEntity
  8
0
100
AcDbBlockBegin
  2
*D41
 70
     1
 10
0.0
 20
0.0
 30
0.0
  3
*D41
  1

  0
LINE
  5
17819
330
17816
100
AcDbEntity
  8
DIM
 62
     0
440
 16777216
370
    -2
100
AcDbLine
 10
103.6623386455037
 20
372.8269960437784
 30
0.0
 11
89.54295651700443
 21
372.8269960437784
 31
0.0
  0
LINE
  5
1781A
330
17816
100
AcDbEntity
  8
DIM
 62
     0
440
 16777216
370
    -2
100
AcDbLine
 10
103.6623385068544
 20
332.8269951497087
 30
0.0
 11
89.54295651700441
 21
332.8269951497087
 31
0.0
  0
LINE
  5
1781B
330
17816
100
AcDbEntity
  8
DIM
 62
     0
440
 16777216
370
    -2
100
AcDbLine
 10
89.54295651700443
 20
369.8269960437784
 30
0.0
 11
89.54295651700441
 21
335.8269951497087
 31
0.0
  0
INSERT
  5
1781C
330
17816
100
AcDbEntity
  8
DIM
 62
     0
440
 16777216
370
    -2
100
AcDbBlockReference
  2
_DOT
 10
89.54295651700443
 20
372.8269960437784
 30
0.0
 41
3.0
 42
3.0
 43
3.0
 50
89.99999999999996
  0
INSERT
  5
1781D
330
17816
100
AcDbEntity
  8
DIM
 62
     0
440
 16777216
370
    -2
100
AcDbBlockReference
  2
_DOT
 10
89.54295651700441
 20
332.8269951497087
 30
0.0
 41
3.0
 42
3.0
 43
3.0
 50
269.9999999999999
  0
MTEXT
  5
1781E
330
17816
100
AcDbEntity
  8
DIM
 62
     0
440
 16777216
100
AcDbMText
 10
79.54295651700444
 20
352.8269955967437
 30
0.0
 40
8.0
 41
0.0
 46
0.0
 71
     5
 72
     1
  1
\A1;40
  7
ＭＳ ゴシック
 11
0.0000000000000007
 21
1.0
 31
0.0
 73
     1
 44
1.0
  0
POINT
  5
1781F
330
17816
100
AcDbEntity
  8
Defpoints
 62
     0
440
 16777216
100
AcDbPoint
 10
113.6623386455037
 20
372.8269960437784
 30
0.0
  0
POINT
  5
17820
330
17816
100
AcDbEntity
  8
Defpoints
 62
     0
440
 16777216
100
AcDbPoint
 10
113.6623385068544
 20
332.8269951497087
 30
0.0
  0
POINT
  5
17821
330
17816
100
AcDbEntity
  8
Defpoints
 62
     0
440
 16777216
100
AcDbPoint
 10
89.54295651700441
 20
332.8269951497087
 30
0.0
  0
ENDBLK
  5
17818
330
17816
100
AcDbEntity
  8
0
100
AcDbBlockEnd
  0
BLOCK
  5
17823
330
17822
100
AcDbEntity
  8
0
100
AcDbBlockBegin
  2
*D42
 70
     1
 10
0.0
 20
0.0
 30
0.0
  3
*D42
  1

  0
LINE
  5
17825
330
17822
100
AcDbEntity
  8
DIM
 62
     0
440
 16777216
370
    -2
100
AcDbLine
 10
108.6625404648018
 20
377.8269959808263
 30
0.0
 11
108.6625404648018
 21
458.9933669636476
 31
0.0
  0
LINE
  5
17826
330
17822
100
AcDbEntity
  8
DIM
 62
     0
440
 16777216
370
    -2
100
AcDbLine
 10
298.6625393261813
 20
377.8269959808266
 30
0.0
 11
298.6625393261813
 21
458.9933669636476
 31
0.0
  0
LINE
  5
17827
330
17822
100
AcDbEntity
  8
DIM
 62
     0
440
 16777216
370
    -2
100
AcDbLine
 10
111.6625404648018
 20
458.9933669636476
 30
0.0
 11
295.6625393261813
 21
458.9933669636476
 31
0.0
  0
INSERT
  5
17828
330
17822
100
AcDbEntity
  8
DIM
 62
     0
440
 16777216
370
    -2
100
AcDbBlockReference
  2
_DOT
 10
108.6625404648018
 20
458.9933669636476
 30
0.0
 41
3.0
 42
3.0
 43
3.0
 50
180.0
  0
INSERT
  5
17829
330
17822
100
AcDbEntity
  8
DIM
 62
     0
440
 16777216
370
    -2
100
AcDbBlockReference
  2
_DOT
 10
298.6625393261813
 20
458.9933669636476
 30
0.0
 41
3.0
 42
3.0
 43
3.0
  0
MTEXT
  5
1782A
330
17822
100
AcDbEntity
  8
DIM
 62
     0
440
 16777216
100
AcDbMText
 10
203.6625398954915
 20
468.9933669636475
 30
0.0
 40
8.0
 41
0.0
 46
0.0
 71
     5
 72
     1
  1
\A1;190
  7
ＭＳ ゴシック
 73
     1
 44
1.0
  0
POINT
  5
1782B
330
17822
100
AcDbEntity
  8
Defpoints
 62
     0
440
 16777216
100
AcDbPoint
 10
108.6625404648018
 20
367.8269959808263
 30
0.0
  0
POINT
  5
1782C
330
17822
100
AcDbEntity
  8
Defpoints
 62
     0
440
 16777216
100
AcDbPoint
 10
298.6625393261813
 20
367.8269959808267
 30
0.0
  0
POINT
  5
1782D
330
17822
100
AcDbEntity
  8
Defpoints
 62
     0
440
 16777216
100
AcDbPoint
 10
298.6625393261813
 20
458.9933669636476
 30
0.0
  0
ENDBLK
  5
17824
330
17822
100
AcDbEntity
  8
0
100
AcDbBlockEnd
  0
BLOCK
  5
1786D
330
1786C
100
AcDbEntity
  8
0
100
AcDbBlockBegin
  2
*D43
 70
     1
 10
0.0
 20
0.0
 30
0.0
  3
*D43
  1

  0
LINE
  5
1786F
330
1786C
100
AcDbEntity
  8
DIM
 62
     0
440
 16777216
370
    -2
100
AcDbLine
 10
420.1062828710638
 20
362.8268884947088
 30
0.0
 11
420.1062828710638
 21
418.2288580755572
 31
0.0
  0
LINE
  5
17870
330
1786C
100
AcDbEntity
  8
DIM
 62
     0
440
 16777216
370
    -2
100
AcDbLine
 10
468.1062828710638
 20
405.3268891344727
 30
0.0
 11
468.1062828710638
 21
418.2288580755572
 31
0.0
  0
LINE
  5
17871
330
1786C
100
AcDbEntity
  8
DIM
 62
     0
440
 16777216
370
    -2
100
AcDbLine
 10
423.1062828710638
 20
418.2288580755572
 30
0.0
 11
465.106282871064
 21
418.2288580755572
 31
0.0
  0
INSERT
  5
17872
330
1786C
100
AcDbEntity
  8
DIM
 62
     0
440
 16777216
370
    -2
100
AcDbBlockReference
  2
_DOT
 10
420.1062828710638
 20
418.2288580755572
 30
0.0
 41
3.0
 42
3.0
 43
3.0
 50
180.0
  0
INSERT
  5
17873
330
1786C
100
AcDbEntity
  8
DIM
 62
     0
440
 16777216
370
    -2
100
AcDbBlockReference
  2
_DOT
 10
468.1062828710638
 20
418.2288580755572
 30
0.0
 41
3.0
 42
3.0
 43
3.0
  0
MTEXT
  5
17874
330
1786C
100
AcDbEntity
  8
DIM
 62
     0
440
 16777216
100
AcDbMText
 10
444.106282871064
 20
428.2288580755571
 30
0.0
 40
8.0
 41
0.0
 46
0.0
 71
     5
 72
     1
  1
\A1;48
  7
ＭＳ ゴシック
 73
     1
 44
1.0
  0
POINT
  5
17875
330
1786C
100
AcDbEntity
  8
Defpoints
 62
     0
440
 16777216
100
AcDbPoint
 10
420.1062828710638
 20
352.8268884947088
 30
0.0
  0
POINT
  5
17876
330
1786C
100
AcDbEntity
  8
Defpoints
 62
     0
440
 16777216
100
AcDbPoint
 10
468.1062828710638
 20
395.3268891344728
 30
0.0
  0
POINT
  5
17877
330
1786C
100
AcDbEntity
  8
Defpoints
 62
     0
440
 16777216
100
AcDbPoint
 10
468.1062828710638
 20
418.2288580755572
 30
0.0
  0
ENDBLK
  5
1786E
330
1786C
100
AcDbEntity
  8
0
100
AcDbBlockEnd
  0
BLOCK
  5
1787D
330
1787C
100
AcDbEntity
  8
0
100
AcDbBlockBegin
  2
*D44
 70
     1
 10
0.0
 20
0.0
 30
0.0
  3
*D44
  1

  0
LINE
  5
1787F
330
1787C
100
AcDbEntity
  8
HIDDEN
 62
     0
370
    -2
100
AcDbLine
 10
252.1600843357492
 20
718.6927951771195
 30
0.0
 11
260.399914702835
 21
718.6927951771195
 31
0.0
  0
LINE
  5
17880
330
1787C
100
AcDbEntity
  8
HIDDEN
 62
     0
370
    -2
100
AcDbLine
 10
252.1600843357492
 20
670.6927951771197
 30
0.0
 11
260.399914702835
 21
670.6927951771197
 31
0.0
  0
LINE
  5
17881
330
1787C
100
AcDbEntity
  8
HIDDEN
 62
     0
370
    -2
100
AcDbLine
 10
260.399914702835
 20
715.6927951771197
 30
0.0
 11
260.399914702835
 21
673.6927951771197
 31
0.0
  0
INSERT
  5
17882
330
1787C
100
AcDbEntity
  8
HIDDEN
 62
     0
370
    -2
100
AcDbBlockReference
  2
_DOT
 10
260.399914702835
 20
718.6927951771195
 30
0.0
 41
3.0
 42
3.0
 43
3.0
 50
90.0
  0
INSERT
  5
17883
330
1787C
100
AcDbEntity
  8
HIDDEN
 62
     0
370
    -2
100
AcDbBlockReference
  2
_DOT
 10
260.399914702835
 20
670.6927951771197
 30
0.0
 41
3.0
 42
3.0
 43
3.0
 50
270.0
  0
MTEXT
  5
17884
330
1787C
100
AcDbEntity
  8
HIDDEN
 62
     0
100
AcDbMText
 10
250.399914702835
 20
694.6927951771197
 30
0.0
 40
8.0
 41
0.0
 46
0.0
 71
     5
 72
     1
  1
\A1;48
  7
ＭＳ ゴシック
 11
0.0
 21
1.0
 31
0.0
 73
     1
 44
1.0
  0
POINT
  5
17885
330
1787C
100
AcDbEntity
  8
Defpoints
 62
     0
100
AcDbPoint
 10
262.1600843357492
 20
718.6927951771195
 30
0.0
  0
POINT
  5
17886
330
1787C
100
AcDbEntity
  8
Defpoints
 62
     0
100
AcDbPoint
 10
262.1600843357492
 20
670.6927951771197
 30
0.0
  0
POINT
  5
17887
330
1787C
100
AcDbEntity
  8
Defpoints
 62
     0
100
AcDbPoint
 10
260.399914702835
 20
670.6927951771197
 30
0.0
  0
ENDBLK
  5
1787E
330
1787C
100
AcDbEntity
  8
0
100
AcDbBlockEnd
  0
BLOCK
  5
1788A
330
17889
100
AcDbEntity
  8
0
100
AcDbBlockBegin
  2
*D45
 70
     1
 10
0.0
 20
0.0
 30
0.0
  3
*D45
  1

  0
LINE
  5
1788C
330
17889
100
AcDbEntity
  8
HIDDEN
 62
     0
370
    -2
100
AcDbLine
 10
229.8727252385551
 20
724.1438045185408
 30
0.0
 11
327.9983826139203
 21
724.1438045185408
 31
0.0
  0
LINE
  5
1788D
330
17889
100
AcDbEntity
  8
HIDDEN
 62
     0
370
    -2
100
AcDbLine
 10
266.6340650170436
 20
676.1438045185411
 30
0.0
 11
327.9983826139203
 21
676.1438045185411
 31
0.0
  0
LINE
  5
1788E
330
17889
100
AcDbEntity
  8
HIDDEN
 62
     0
370
    -2
100
AcDbLine
 10
327.9983826139203
 20
721.1438045185408
 30
0.0
 11
327.9983826139203
 21
679.143804518541
 31
0.0
  0
INSERT
  5
1788F
330
17889
100
AcDbEntity
  8
HIDDEN
 62
     0
370
    -2
100
AcDbBlockReference
  2
_DOT
 10
327.9983826139203
 20
724.1438045185408
 30
0.0
 41
3.0
 42
3.0
 43
3.0
 50
90.0
  0
INSERT
  5
17890
330
17889
100
AcDbEntity
  8
HIDDEN
 62
     0
370
    -2
100
AcDbBlockReference
  2
_DOT
 10
327.9983826139203
 20
676.1438045185411
 30
0.0
 41
3.0
 42
3.0
 43
3.0
 50
270.0
  0
MTEXT
  5
17891
330
17889
100
AcDbEntity
  8
HIDDEN
 62
     0
100
AcDbMText
 10
317.9983826139203
 20
700.1438045185408
 30
0.0
 40
8.0
 41
0.0
 46
0.0
 71
     5
 72
     1
  1
\A1;48
  7
ＭＳ ゴシック
 11
0.0
 21
1.0
 31
0.0
 73
     1
 44
1.0
  0
POINT
  5
17892
330
17889
100
AcDbEntity
  8
Defpoints
 62
     0
100
AcDbPoint
 10
219.8727252385551
 20
724.1438045185408
 30
0.0
  0
POINT
  5
17893
330
17889
100
AcDbEntity
  8
Defpoints
 62
     0
100
AcDbPoint
 10
256.6340650170436
 20
676.1438045185411
 30
0.0
  0
POINT
  5
17894
330
17889
100
AcDbEntity
  8
Defpoints
 62
     0
100
AcDbPoint
 10
327.9983826139203
 20
676.1438045185411
 30
0.0
  0
ENDBLK
  5
1788B
330
17889
100
AcDbEntity
  8
0
100
AcDbBlockEnd
  0
ENDSEC
  0
SECTION
  2
ENTITIES
  0
MTEXT
  5
177
330
A
100
AcDbEntity
  8
TEMPLATE
390
1D
100
AcDbMText
 10
23.76064336431923
 20
103.1195254894285
 30
0.0
 40
4.886523437499998
 41
0.0
 46
0.0
 71
     1
 72
     1
  1
品名
  7
ＭＳ ゴシック
 73
     1
 44
0.7828267384257845
  0
MTEXT
  5
178
330
A
100
AcDbEntity
  8
TEMPLATE
390
1D
100
AcDbMText
 10
23.76064336431923
 20
77.61952548942841
 30
0.0
 40
4.886523437499998
 41
0.0
 46
0.0
 71
     1
 72
     1
  1
仕様
  7
ＭＳ ゴシック
 73
     1
 44
0.7828267384257845
  0
LINE
  5
179
330
A
100
AcDbEntity
  8
TEMPLATE
390
1D
100
AcDbLine
 10
606.6606433641744
 20
80.14400205192853
 30
0.0
 11
21.66064336417462
 21
80.14400205192853
 31
0.0
  0
LWPOLYLINE
  5
17A
330
A
100
AcDbEntity
  8
TEMPLATE
390
1D
100
AcDbPolyline
 90
        5
 70
   128
 43
0.0
 10
606.6606433641744
 20
869.1440020519278
 10
21.66064336417462
 20
869.1440020519278
 10
21.66064336417462
 20
29.14400205192847
 10
606.6606433641744
 20
29.14400205192847
 10
606.6606433641744
 20
869.1440020519278
  0
LINE
  5
17B
330
A
100
AcDbEntity
  8
TEMPLATE
390
1D
100
AcDbLine
 10
606.6606433641744
 20
105.6440020519285
 30
0.0
 11
21.66064336417462
 21
105.6440020519285
 31
0.0
  0
LINE
  5
17C
330
A
100
AcDbEntity
  8
TEMPLATE
390
1D
100
AcDbLine
 10
606.6606433643196
 20
54.64400205192847
 30
0.0
 11
380.760643364319
 21
54.64400205192847
 31
0.0
  0
MTEXT
  5
17E
330
A
100
AcDbEntity
  8
TEMPLATE
390
1D
100
AcDbMText
 10
389.7220652399973
 20
45.67088370993603
 30
0.0
 40
7.329785156250001
 41
0.0
 46
0.0
 71
     1
 72
     1
  1
大洋金物株式会社 ティーフォルム事業部
  7
ＭＳ ゴシック
 73
     1
 44
0.7828267384257845
  0
MTEXT
  5
180
330
A
100
AcDbEntity
  8
TEMPLATE
390
1D
100
AcDbMText
 10
549.360643364397
 20
69.04478720817846
 30
0.0
 40
7.329785156250001
 41
0.0
 46
7.329785156250001
 71
     1
 72
     1
  1
{1:3}
  7
ＭＳ ゴシック
 73
     1
 44
0.7828267384257845
1001
ACAD
1000
ACAD_MTEXT_DEFINED_HEIGHT_BEGIN
1070
    46
1040
7.329785156250001
1000
ACAD_MTEXT_DEFINED_HEIGHT_END
  0
MTEXT
  5
181
330
A
100
AcDbEntity
  8
TEMPLATE
390
1D
100
AcDbMText
 10
533.4606433643967
 20
77.61952548942841
 30
0.0
 40
4.886523437499998
 41
0.0
 46
0.0
 71
     1
 72
     1
  1
縮尺
  7
ＭＳ ゴシック
 73
     1
 44
0.7828267384257845
  0
LINE
  5
182
330
A
100
AcDbEntity
  8
TEMPLATE
390
1D
100
AcDbLine
 10
531.3606433643968
 20
54.64400205192847
 30
0.0
 11
531.3606433643968
 21
80.14400205192853
 31
0.0
  0
MTEXT
  5
183
330
A
100
AcDbEntity
  8
TEMPLATE
390
1D
100
AcDbMText
 10
458.1606433643968
 20
77.61952548942841
 30
0.0
 40
4.886523437499998
 41
0.0
 46
0.0
 71
     1
 72
     1
  1
容量
  7
ＭＳ ゴシック
 73
     1
 44
0.7828267384257845
  0
LINE
  5
184
330
A
100
AcDbEntity
  8
TEMPLATE
390
1D
100
AcDbLine
 10
456.0606433643969
 20
54.64400205192847
 30
0.0
 11
456.0606433643969
 21
80.14400205192853
 31
0.0
  0
MTEXT
  5
185
330
A
100
AcDbEntity
  8
TEMPLATE
390
1D
100
AcDbMText
 10
382.860643364397
 20
103.1195254894285
 30
0.0
 40
4.886523437499998
 41
0.0
 46
0.0
 71
     1
 72
     1
  1
品番
  7
ＭＳ ゴシック
 73
     1
 44
0.7828267384257845
  0
MTEXT
  5
186
330
A
100
AcDbEntity
  8
TEMPLATE
390
1D
100
AcDbMText
 10
382.860643364397
 20
77.61952548942841
 30
0.0
 40
4.886523437499998
 41
0.0
 46
0.0
 71
     1
 72
     1
  1
重量
  7
ＭＳ ゴシック
 73
     1
 44
0.7828267384257845
  0
MTEXT
  5
187
330
A
100
AcDbEntity
  8
TEMPLATE
390
1D
100
AcDbMText
 10
398.760643364397
 20
94.54478720817844
 30
0.0
 40
7.329785156250001
 41
0.0
 46
7.329785156250001
 71
     1
 72
     1
  1
{AGN73-3303}
  7
ＭＳ ゴシック
 73
     1
 44
0.7828267384257845
1001
ACAD
1000
ACAD_MTEXT_DEFINED_HEIGHT_BEGIN
1070
    46
1040
7.329785156250001
1000
ACAD_MTEXT_DEFINED_HEIGHT_END
  0
LINE
  5
188
330
A
100
AcDbEntity
  8
TEMPLATE
390
1D
100
AcDbLine
 10
380.760643364397
 20
29.14400205192847
 30
0.0
 11
380.760643364397
 21
105.6440020519285
 31
0.0
  0
MTEXT
  5
189
330
A
100
AcDbEntity
  8
TEMPLATE
390
1D
100
AcDbMText
 10
39.66064336431923
 20
94.54478720817844
 30
0.0
 40
7.329785156250001
 41
0.0
 46
8.260667871093751
 71
     1
 72
     1
  1
{混合栓部のみ　-FANTINI, Cafe-}
  7
ＭＳ ゴシック
 73
     1
 44
0.7828267384257845
1001
ACAD
1000
ACAD_MTEXT_DEFINED_HEIGHT_BEGIN
1070
    46
1040
8.260667871093751
1000
ACAD_MTEXT_DEFINED_HEIGHT_END
  0
INSERT
  5
6B5
330
A
100
AcDbEntity
  8
TEMPLATE
100
AcDbBlockReference
  2
名称未設定-1
 10
561.225224426535
 20
7.784029726996144
 30
0.0
 41
0.2286
 42
0.2286
 43
0.2286
  0
INSERT
  5
68C
330
A
100
AcDbEntity
  8
TEMPLATE
100
AcDbBlockReference
  2
block 2
 10
367.7097207081031
 20
3.349230605734546
 30
0.0
 41
0.1524
 42
0.1524
 43
0.1524
  0
LWPOLYLINE
  5
D69
330
A
100
AcDbEntity
  8
BORDER
 48
0.5
100
AcDbPolyline
 90
        4
 70
     1
 43
0.0
 10
0.0
 20
0.0
 10
0.0
 20
891.0
 10
630.0
 20
891.0
 10
630.0
 20
0.0
  0
INSERT
  5
1343
330
A
100
AcDbEntity
  8
TEMPLATE
100
AcDbBlockReference
  2
block 2
 10
838.6973883465872
 20
9.774128564918273
 30
0.0
 41
0.1524
 42
0.1524
 43
0.1524
  0
MTEXT
  5
36AC
102
{ACAD_XDICTIONARY
360
36AE
102
}
330
A
100
AcDbEntity
  8
TEMPLATE
 48
0.05
100
AcDbMText
 10
22.06848147481188
 20
25.15049698669364
 30
0.0
 40
7.0
 41
0.0
 46
7.0
 71
     1
 72
     1
  1
20230517N
  7
ＭＳ ゴシック
 73
     1
 44
1.0
1001
ACAD
1000
ACAD_MTEXT_DEFINED_HEIGHT_BEGIN
1070
    46
1040
7.0
1000
ACAD_MTEXT_DEFINED_HEIGHT_END
  0
LINE
  5
17575
330
A
100
AcDbEntity
  8
MODEL
100
AcDbLine
 10
261.1625403563083
 20
332.8269950503437
 30
0.0
 11
261.1625402638763
 21
372.8269959444133
 31
0.0
  0
ARC
  5
17576
330
A
100
AcDbEntity
  8
MODEL
100
AcDbCircle
 10
293.6625393672157
 20
337.8269952242145
 30
0.0
 40
5.000000074505806
100
AcDbArc
 50
270.0000001326205
 51
0.0000001323990088
  0
LINE
  5
17577
330
A
100
AcDbEntity
  8
MODEL
100
AcDbLine
 10
247.9125405726575
 20
332.8269950556469
 30
0.0
 11
293.6625393787702
 21
332.8269951497087
 31
0.0
  0
LINE
  5
17578
102
{ACAD_REACTORS
330
1775C
102
}
330
A
100
AcDbEntity
  8
MODEL
100
AcDbLine
 10
298.6625394417213
 20
337.8269952357685
 30
0.0
 11
298.6625393261813
 21
367.8269959808267
 31
0.0
  0
LINE
  5
17579
330
A
100
AcDbEntity
  8
MODEL
100
AcDbLine
 10
293.6625392401215
 20
372.8269960437784
 30
0.0
 11
247.9125405613235
 21
372.8269959406589
 31
0.0
  0
ARC
  5
1757A
330
A
100
AcDbEntity
  8
MODEL
100
AcDbCircle
 10
293.6625392516755
 20
367.8269959692726
 30
0.0
 40
5.000000074505806
100
AcDbArc
 50
0.0000001323990088
 51
90.00000013217755
  0
ARC
  5
1757B
330
A
100
AcDbEntity
  8
MODEL
100
AcDbCircle
 10
275.0320092100487
 20
338.4979830054017
 30
0.0
 40
3.200000047683761
100
AcDbArc
 50
180.0000001328464
 51
0.0000001324006372
  0
LINE
  5
1757C
330
A
100
AcDbEntity
  8
MODEL
100
AcDbLine
 10
278.2320092577316
 20
338.4979830127959
 30
0.0
 11
278.2320092230697
 21
353.4979832363134
 31
0.0
  0
ARC
  5
1757D
330
A
100
AcDbEntity
  8
MODEL
100
AcDbCircle
 10
275.0320091753854
 20
353.4979832289192
 30
0.0
 40
3.200000047683761
100
AcDbArc
 50
0.0000001328464237
 51
180.0000001324007
  0
LINE
  5
1757E
330
A
100
AcDbEntity
  8
MODEL
100
AcDbLine
 10
271.8320091623635
 20
338.497982998007
 30
0.0
 11
271.8320091277016
 21
353.4979832215244
 31
0.0
  0
ARC
  5
1757F
330
A
100
AcDbEntity
  8
MODEL
100
AcDbCircle
 10
191.8540914069546
 20
352.8269948872245
 30
0.0
 40
104.200001552701
100
AcDbArc
 50
355.0000001324
 51
5.00000013237524
  0
ARC
  5
17580
330
A
100
AcDbEntity
  8
MODEL
100
AcDbCircle
 10
292.4697573931707
 20
361.629725268413
 30
0.0
 40
3.200000047683726
100
AcDbArc
 50
5.000000132404813
 51
185.0000001319492
  0
ARC
  5
17581
330
A
100
AcDbEntity
  8
MODEL
100
AcDbCircle
 10
191.8540914069546
 20
352.8269948872245
 30
0.0
 40
97.80000145733357
100
AcDbArc
 50
355.0000001324
 51
5.000000132375244
  0
ARC
  5
17582
330
A
100
AcDbEntity
  8
MODEL
100
AcDbCircle
 10
292.4697574338527
 20
344.0242649710443
 30
0.0
 40
3.200000047683711
100
AcDbArc
 50
175.0000001323945
 51
355.0000001319572
  0
ARC
  5
17583
330
A
100
AcDbEntity
  8
MODEL
100
AcDbCircle
 10
282.7666985322491
 20
365.8135853831741
 30
0.0
 40
3.200000047683761
100
AcDbArc
 50
270.0000001324007
 51
90.00000013195281
  0
LINE
  5
17584
330
A
100
AcDbEntity
  8
MODEL
100
AcDbLine
 10
282.7666985248551
 20
369.0135854308577
 30
0.0
 11
267.7666983013373
 21
369.0135853961955
 31
0.0
  0
ARC
  5
17585
330
A
100
AcDbEntity
  8
MODEL
100
AcDbCircle
 10
267.766698308731
 20
365.8135853485116
 30
0.0
 40
3.200000047683761
100
AcDbArc
 50
90.00000013329222
 51
270.0000001328443
  0
LINE
  5
17586
330
A
100
AcDbEntity
  8
MODEL
100
AcDbLine
 10
282.7666985396442
 20
362.61358533549
 30
0.0
 11
267.7666983161261
 21
362.6135853008278
 31
0.0
  0
ARC
  5
17587
330
A
100
AcDbEntity
  8
MODEL
100
AcDbCircle
 10
160.9125392588113
 20
393.826996145945
 30
0.0
 40
1.50000002235174
100
AcDbArc
 50
90.00000001690976
 51
180.0000000166796
  0
LINE
  5
17588
330
A
100
AcDbEntity
  8
MODEL
100
AcDbLine
 10
246.4125405595145
 20
300.3269947769119
 30
0.0
 11
208.6628104970852
 21
300.3269947662158
 31
0.0
  0
LINE
  5
17589
330
A
100
AcDbEntity
  8
MODEL
100
AcDbLine
 10
160.9125392583863
 20
395.3269961682967
 30
0.0
 11
246.4125405325964
 21
395.3269961925225
 31
0.0
  0
LINE
  5
1758A
330
A
100
AcDbEntity
  8
MODEL
100
AcDbLine
 10
159.4125392625274
 20
301.826994774613
 30
0.0
 11
159.4125392364594
 21
393.8269961455198
 31
0.0
  0
LINE
  5
1758B
330
A
100
AcDbEntity
  8
MODEL
100
AcDbLine
 10
247.9125405553734
 20
393.8269961705957
 30
0.0
 11
247.9125405814414
 21
301.8269947996889
 31
0.0
  0
ARC
  5
1758C
330
A
100
AcDbEntity
  8
MODEL
100
AcDbCircle
 10
246.4125405590895
 20
301.8269947992637
 30
0.0
 40
1.50000002235174
100
AcDbArc
 50
270.0000000155636
 51
0.0000000153421135
  0
ARC
  5
1758D
330
A
100
AcDbEntity
  8
MODEL
100
AcDbCircle
 10
160.9125392848784
 20
301.8269947750381
 30
0.0
 40
1.50000002235174
100
AcDbArc
 50
180.000000015785
 51
270.0000000155636
  0
ARC
  5
1758E
330
A
100
AcDbEntity
  8
MODEL
100
AcDbCircle
 10
246.4125405330214
 20
393.8269961701705
 30
0.0
 40
1.50000002235174
100
AcDbArc
 50
0.000000016236672
 51
90.00000001600652
  0
ARC
  5
1758F
330
A
100
AcDbEntity
  8
MODEL
100
AcDbCircle
 10
264.1625402854717
 20
681.6927946257769
 30
0.0
 40
1.000000014901154
100
AcDbArc
 50
180.0
 51
269.9999999997785
  0
LINE
  5
17590
102
{ACAD_REACTORS
330
1771C
102
}
330
A
100
AcDbEntity
  8
MODEL
100
AcDbLine
 10
263.1625402705708
 20
681.6927946257769
 30
0.0
 11
263.1625402705708
 21
717.6927951622189
 31
0.0
  0
ARC
  5
17591
330
A
100
AcDbEntity
  8
MODEL
100
AcDbCircle
 10
260.1625402258666
 20
717.6927951622189
 30
0.0
 40
3.000000044703484
100
AcDbArc
 50
0.0000000002258109
 51
90.0
  0
LINE
  5
17592
330
A
100
AcDbEntity
  8
MODEL
100
AcDbLine
 10
260.1625402258666
 20
720.6927952069221
 30
0.0
 11
147.1625385420357
 21
720.6927952069203
 31
0.0
  0
ARC
  5
17593
330
A
100
AcDbEntity
  8
MODEL
100
AcDbCircle
 10
147.1625385420357
 20
717.6927951622161
 30
0.0
 40
3.000000044703491
100
AcDbArc
 50
90.00000000022586
 51
180.0
  0
LINE
  5
17594
102
{ACAD_REACTORS
330
1771C
102
}
330
A
100
AcDbEntity
  8
MODEL
100
AcDbLine
 10
144.1625384973317
 20
717.6927951622161
 30
0.0
 11
144.1625384973325
 21
681.6927946257741
 31
0.0
  0
ARC
  5
17595
330
A
100
AcDbEntity
  8
MODEL
100
AcDbCircle
 10
143.1625384824316
 20
681.6927946257741
 30
0.0
 40
1.000000014901146
100
AcDbArc
 50
270.0000000002215
 51
0.0
  0
ARC
  5
17596
330
A
100
AcDbEntity
  8
MODEL
100
AcDbCircle
 10
143.1625384824316
 20
681.6927946257741
 30
0.0
 40
3.000000044703484
100
AcDbArc
 50
270.0000000000043
 51
359.9999999997828
  0
LINE
  5
17597
330
A
100
AcDbEntity
  8
MODEL
100
AcDbLine
 10
146.1625385271346
 20
681.6927946257741
 30
0.0
 11
146.1625385271346
 21
717.6927951622161
 31
0.0
  0
ARC
  5
17598
330
A
100
AcDbEntity
  8
MODEL
100
AcDbCircle
 10
147.1625385420357
 20
717.6927951622161
 30
0.0
 40
1.000000014901166
100
AcDbArc
 50
90.00000000023451
 51
180.0
  0
LINE
  5
17599
330
A
100
AcDbEntity
  8
MODEL
100
AcDbLine
 10
147.1625385420357
 20
718.6927951771171
 30
0.0
 11
260.1625402258666
 21
718.69279517712
 31
0.0
  0
ARC
  5
1759A
330
A
100
AcDbEntity
  8
MODEL
100
AcDbCircle
 10
260.1625402258666
 20
717.6927951622189
 30
0.0
 40
1.00000001490116
100
AcDbArc
 50
0.0000000002344959
 51
90.0
  0
LINE
  5
1759B
330
A
100
AcDbEntity
  8
MODEL
100
AcDbLine
 10
261.1625402407678
 20
717.6927951622189
 30
0.0
 11
261.1625402407686
 21
681.6927946257769
 31
0.0
  0
ARC
  5
1759C
330
A
100
AcDbEntity
  8
MODEL
100
AcDbCircle
 10
264.1625402854717
 20
681.6927946257769
 30
0.0
 40
3.000000044703484
100
AcDbArc
 50
180.0
 51
269.9999999997785
  0
LINE
  5
1759D
330
A
100
AcDbEntity
  8
MODEL
100
AcDbLine
 10
108.6625393839512
 20
680.6927948294291
 30
0.0
 11
108.6625393839512
 21
678.6927947996262
 31
0.0
  0
LINE
  5
1759E
330
A
100
AcDbEntity
  8
MODEL
100
AcDbLine
 10
108.6625393839512
 20
680.6927946108733
 30
0.0
 11
143.1625384824316
 21
680.6927946108733
 31
0.0
  0
LINE
  5
1759F
330
A
100
AcDbEntity
  8
MODEL
100
AcDbLine
 10
143.1625384824316
 20
678.6927945810711
 30
0.0
 11
108.6625393839512
 21
678.6927945810703
 31
0.0
  0
LINE
  5
175A0
330
A
100
AcDbEntity
  8
MODEL
100
AcDbLine
 10
298.6625393839512
 20
678.6927945810738
 30
0.0
 11
298.6625393839512
 21
680.6927946108761
 31
0.0
  0
LINE
  5
175A1
330
A
100
AcDbEntity
  8
MODEL
100
AcDbLine
 10
298.6625393839512
 20
678.6927945810738
 30
0.0
 11
264.1625402854717
 21
678.6927945810738
 31
0.0
  0
LINE
  5
175A2
330
A
100
AcDbEntity
  8
MODEL
100
AcDbLine
 10
264.1625402854717
 20
680.6927946108761
 30
0.0
 11
298.6625393839512
 21
680.6927946108761
 31
0.0
  0
ARC
  5
175A3
330
A
100
AcDbEntity
  8
MODEL
100
AcDbCircle
 10
203.6625394949287
 20
699.492794216439
 30
0.0
 40
10.47750015612691
100
AcDbArc
 50
175.0000000004604
 51
94.99999999976429
  0
LINE
  5
175A4
330
A
100
AcDbEntity
  8
MODEL
100
AcDbLine
 10
197.1720393561376
 20
718.492796453179
 30
0.0
 11
197.1720393561376
 21
718.69279642345
 31
0.0
  0
LINE
  5
175A5
330
A
100
AcDbEntity
  8
MODEL
100
AcDbLine
 10
206.1625394905276
 20
721.6927965331628
 30
0.0
 11
218.1625396693416
 21
721.692796533164
 31
0.0
  0
ARC
  5
175A6
330
A
100
AcDbEntity
  8
MODEL
100
AcDbCircle
 10
213.3402727987155
 20
719.211528741969
 30
0.0
 40
4.459486853048044
100
AcDbArc
 50
84.32418999213791
 51
95.67581268233292
  0
ARC
  5
175A7
330
A
100
AcDbEntity
  8
MODEL
100
AcDbCircle
 10
211.9230733316516
 20
719.2859246103489
 30
0.0
 40
4.887050800744423
100
AcDbArc
 50
78.77443299760392
 51
83.73665174087269
  0
ARC
  5
175A8
330
A
100
AcDbEntity
  8
MODEL
100
AcDbCircle
 10
212.4213193349937
 20
719.1853707607521
 30
0.0
 40
4.989118234565268
100
AcDbArc
 50
96.35783941793937
 51
116.5296219082114
  0
ARC
  5
175A9
330
A
100
AcDbEntity
  8
MODEL
100
AcDbCircle
 10
212.6229513457708
 20
722.6782163080023
 30
0.0
 40
1.496383696415803
100
AcDbArc
 50
101.6444172611305
 51
107.9196502728434
  0
ARC
  5
175AA
330
A
100
AcDbEntity
  8
MODEL
100
AcDbCircle
 10
212.3885841785176
 20
723.5823072251221
 30
0.0
 40
0.5655590179892879
100
AcDbArc
 50
83.1291469002304
 51
96.87085157422778
  0
ARC
  5
175AB
330
A
100
AcDbEntity
  8
MODEL
100
AcDbCircle
 10
212.3946570864436
 20
719.2909230462548
 30
0.0
 40
4.882027338525081
100
AcDbArc
 50
80.21952071466094
 51
83.735973009047
  0
ARC
  5
175AC
330
A
100
AcDbEntity
  8
MODEL
100
AcDbCircle
 10
211.4399145877485
 20
723.8991310098262
 30
0.0
 40
0.2482812865382782
100
AcDbArc
 50
87.59676190255232
 51
99.77935885674265
  0
ARC
  5
175AD
330
A
100
AcDbEntity
  8
MODEL
100
AcDbCircle
 10
211.9364949672987
 20
723.5823075438051
 30
0.0
 40
0.5655586367751184
100
AcDbArc
 50
83.129142216728
 51
96.87085619801191
  0
ARC
  5
175AE
330
A
100
AcDbEntity
  8
MODEL
100
AcDbCircle
 10
211.9475197541778
 20
719.1967340733749
 30
0.0
 40
4.977524050966696
100
AcDbArc
 50
96.34136435571896
 51
115.4317542744989
  0
ARC
  5
175AF
330
A
100
AcDbEntity
  8
MODEL
100
AcDbCircle
 10
209.9574520267257
 20
722.3922865938681
 30
0.0
 40
1.278724894151095
100
AcDbArc
 50
79.3907726136746
 51
98.47964732416849
  0
LINE
  5
175B0
330
A
100
AcDbEntity
  8
MODEL
100
AcDbLine
 10
212.8744455864285
 20
724.1471974718851
 30
0.0
 11
212.8744455922078
 21
723.6719134731592
 31
0.0
  0
LINE
  5
175B1
330
A
100
AcDbEntity
  8
MODEL
100
AcDbLine
 10
211.4506335745497
 20
724.147197493655
 30
0.0
 11
211.4506335753737
 21
724.079478204553
 31
0.0
  0
ARC
  5
175B2
330
A
100
AcDbEntity
  8
MODEL
100
AcDbCircle
 10
212.1625395799346
 20
717.9427964772841
 30
0.0
 40
6.250000093132257
100
AcDbArc
 50
99.77802731596151
 51
142.236533636612
  0
ARC
  5
175B3
330
A
100
AcDbEntity
  8
MODEL
100
AcDbCircle
 10
212.1625395799346
 20
717.9427964772841
 30
0.0
 40
6.250000093132257
100
AcDbArc
 50
37.76346636339075
 51
80.2219725896737
  0
ARC
  5
175B4
330
A
100
AcDbEntity
  8
MODEL
100
AcDbCircle
 10
207.0635199903616
 20
721.8927965361441
 30
0.0
 40
0.2000000029802322
100
AcDbArc
 50
270.0
 51
322.2365336364098
  0
ARC
  5
175B5
330
A
100
AcDbEntity
  8
MODEL
100
AcDbCircle
 10
217.2615591695098
 20
721.8927965361441
 30
0.0
 40
0.2000000029802322
100
AcDbArc
 50
217.7634663635902
 51
270.0
  0
ARC
  5
175B6
330
A
100
AcDbEntity
  8
MODEL
100
AcDbCircle
 10
206.1625394905276
 20
721.1927965257132
 30
0.0
 40
0.5000000074505806
100
AcDbArc
 50
90.00000000020843
 51
180.0
  0
ARC
  5
175B7
330
A
100
AcDbEntity
  8
MODEL
100
AcDbCircle
 10
218.1625396693416
 20
721.1927965257132
 30
0.0
 40
0.5000000074505806
100
AcDbArc
 50
0.0
 51
89.99999999979158
  0
ARC
  5
175B8
330
A
100
AcDbEntity
  8
MODEL
100
AcDbCircle
 10
206.1625394905276
 20
721.1927965257132
 30
0.0
 40
0.5000000074505806
100
AcDbArc
 50
180.0000000002084
 51
270.0
  0
ARC
  5
175B9
330
A
100
AcDbEntity
  8
MODEL
100
AcDbCircle
 10
218.1625396693416
 20
721.1927965257132
 30
0.0
 40
0.5000000074505806
100
AcDbArc
 50
270.0
 51
359.9999999997917
  0
LINE
  5
175BA
330
A
100
AcDbEntity
  8
MODEL
100
AcDbLine
 10
209.6625395426817
 20
718.492796521536
 30
0.0
 11
209.6625395426817
 21
718.5927965035461
 31
0.0
  0
LINE
  5
175BB
330
A
100
AcDbEntity
  8
MODEL
100
AcDbLine
 10
210.1530395495696
 20
718.4927964566583
 30
0.0
 11
210.1530395495696
 21
718.69279642345
 31
0.0
  0
LINE
  5
175BC
330
A
100
AcDbEntity
  8
MODEL
100
AcDbLine
 10
189.1625392372086
 20
721.6927965331628
 30
0.0
 11
201.1625394160227
 21
721.692796533164
 31
0.0
  0
ARC
  5
175BD
330
A
100
AcDbEntity
  8
MODEL
100
AcDbCircle
 10
193.8109525289427
 20
719.6137888755479
 30
0.0
 40
4.05722673568043
100
AcDbArc
 50
84.04922549997944
 51
95.95077128175949
  0
LINE
  5
175BE
330
A
100
AcDbEntity
  8
MODEL
100
AcDbLine
 10
194.3874674716085
 20
724.1438043169131
 30
0.0
 11
194.2345754125396
 21
724.123523306663
 31
0.0
  0
LINE
  5
175BF
330
A
100
AcDbEntity
  8
MODEL
100
AcDbLine
 10
195.0662913969056
 20
724.1438043547731
 30
0.0
 11
195.1625393267115
 21
724.1239919999501
 31
0.0
  0
ARC
  5
175C0
330
A
100
AcDbEntity
  8
MODEL
100
AcDbCircle
 10
195.4010368622756
 20
719.5801510847688
 30
0.0
 40
4.59508899803607
100
AcDbArc
 50
62.31446246978901
 51
83.2942009692111
  0
ARC
  5
175C1
330
A
100
AcDbEntity
  8
MODEL
100
AcDbCircle
 10
195.4398169287996
 20
719.7025793309332
 30
0.0
 40
4.470606224143745
100
AcDbArc
 50
96.57259760018586
 51
103.0098035500364
  0
ARC
  5
175C2
330
A
100
AcDbEntity
  8
MODEL
100
AcDbCircle
 10
194.9971967816826
 20
723.5537215034918
 30
0.0
 40
0.5941145583518331
100
AcDbArc
 50
83.32147651429327
 51
96.67852459713516
  0
ARC
  5
175C3
330
A
100
AcDbEntity
  8
MODEL
100
AcDbCircle
 10
195.3278818840558
 20
723.5537218112519
 30
0.0
 40
0.594114186909244
100
AcDbArc
 50
83.32147229001305
 51
96.67852876173784
  0
ARC
  5
175C4
330
A
100
AcDbEntity
  8
MODEL
100
AcDbCircle
 10
195.8911185044928
 20
723.8531479293599
 30
0.0
 40
0.2943515623967314
100
AcDbArc
 50
80.91210638258047
 51
89.89065119643155
  0
ARC
  5
175C5
330
A
100
AcDbEntity
  8
MODEL
100
AcDbCircle
 10
194.8638875265966
 20
719.594294296738
 30
0.0
 40
4.580634566622046
100
AcDbArc
 50
63.45131015774875
 51
83.31683928925
  0
ARC
  5
175C6
330
A
100
AcDbEntity
  8
MODEL
100
AcDbCircle
 10
197.2657790103956
 20
721.9899125939239
 30
0.0
 40
1.681099963983994
100
AcDbArc
 50
80.75010080665974
 51
97.39420997020712
  0
ARC
  5
175C7
330
A
100
AcDbEntity
  8
MODEL
100
AcDbCircle
 10
197.0539533654137
 20
723.9660312380713
 30
0.0
 40
0.3090312595341193
100
AcDbArc
 50
242.4961072599506
 51
269.161170716762
  0
LINE
  5
175C8
330
A
100
AcDbEntity
  8
MODEL
100
AcDbLine
 10
194.4334040239836
 20
724.1474983800391
 30
0.0
 11
194.4334040288538
 21
723.7984909846751
 31
0.0
  0
ARC
  5
175C9
330
A
100
AcDbEntity
  8
MODEL
100
AcDbCircle
 10
195.1625393266158
 20
717.9427964772841
 30
0.0
 40
6.250000093132257
100
AcDbArc
 50
98.50987433258898
 51
142.236533636612
  0
ARC
  5
175CA
330
A
100
AcDbEntity
  8
MODEL
100
AcDbCircle
 10
195.1625393266158
 20
717.9427964772841
 30
0.0
 40
6.250000093132257
100
AcDbArc
 50
37.76346636339336
 51
81.46148470921088
  0
LINE
  5
175CB
330
A
100
AcDbEntity
  8
MODEL
100
AcDbLine
 10
195.8916746305116
 20
724.1474983956031
 30
0.0
 11
195.8916746317547
 21
724.0584320316623
 31
0.0
  0
ARC
  5
175CC
330
A
100
AcDbEntity
  8
MODEL
100
AcDbCircle
 10
190.0635197370417
 20
721.892796536143
 30
0.0
 40
0.2000000029802322
100
AcDbArc
 50
270.0
 51
322.2365336365776
  0
ARC
  5
175CD
330
A
100
AcDbEntity
  8
MODEL
100
AcDbCircle
 10
200.2615589161896
 20
721.892796536143
 30
0.0
 40
0.2000000029802322
100
AcDbArc
 50
217.7634663634224
 51
270.0
  0
ARC
  5
175CE
330
A
100
AcDbEntity
  8
MODEL
100
AcDbCircle
 10
189.1625392372086
 20
721.1927965257132
 30
0.0
 40
0.5000000074505806
100
AcDbArc
 50
90.00000000020843
 51
180.0
  0
ARC
  5
175CF
330
A
100
AcDbEntity
  8
MODEL
100
AcDbCircle
 10
201.1625394160227
 20
721.1927965257132
 30
0.0
 40
0.5000000074505806
100
AcDbArc
 50
0.0
 51
89.99999999979158
  0
ARC
  5
175D0
330
A
100
AcDbEntity
  8
MODEL
100
AcDbCircle
 10
189.1625392372086
 20
721.1927965257132
 30
0.0
 40
0.5000000074505806
100
AcDbArc
 50
180.0000000002084
 51
270.0
  0
ARC
  5
175D1
330
A
100
AcDbEntity
  8
MODEL
100
AcDbCircle
 10
201.1625394160227
 20
721.1927965257132
 30
0.0
 40
0.5000000074505806
100
AcDbArc
 50
270.0
 51
359.9999999997917
  0
LINE
  5
175D2
330
A
100
AcDbEntity
  8
MODEL
100
AcDbLine
 10
197.6625393638687
 20
718.49279651832
 30
0.0
 11
197.6625393638687
 21
718.59279648697
 31
0.0
  0
CIRCLE
  5
175D3
330
A
100
AcDbEntity
  8
MODEL
100
AcDbCircle
 10
203.6625394966896
 20
699.4927944879711
 30
0.0
 40
9.500000141561033
  0
ARC
  5
175D4
330
A
100
AcDbEntity
  8
MODEL
100
AcDbCircle
 10
203.6625394959016
 20
699.4927943664792
 30
0.0
 40
13.25000019744039
100
AcDbArc
 50
89.99999999822135
 51
269.9999999978085
  0
ARC
  5
175D5
330
A
100
AcDbEntity
  8
MODEL
100
AcDbCircle
 10
203.6625394957597
 20
699.4927943446231
 30
0.0
 40
12.75000018998981
100
AcDbArc
 50
89.9999999982201
 51
269.9999999978073
  0
ARC
  5
175D6
330
A
100
AcDbEntity
  8
MODEL
100
AcDbCircle
 10
203.6625394959016
 20
699.4927943664792
 30
0.0
 40
13.25000019744039
100
AcDbArc
 50
269.9999999982549
 51
89.99999999777401
  0
ARC
  5
175D7
330
A
100
AcDbEntity
  8
MODEL
100
AcDbCircle
 10
203.6625394957597
 20
699.4927943446231
 30
0.0
 40
12.75000018998981
100
AcDbArc
 50
269.9999999982549
 51
89.99999999777459
  0
CIRCLE
  5
175D8
330
A
100
AcDbEntity
  8
MODEL
100
AcDbCircle
 10
203.6625395027296
 20
699.4927954198391
 30
0.0
 40
5.000000074505806
  0
CIRCLE
  5
175D9
330
A
100
AcDbEntity
  8
MODEL
100
AcDbCircle
 10
203.6625394958457
 20
699.4927943577371
 30
0.0
 40
10.85000016167759
  0
LINE
  5
175DA
330
A
100
AcDbEntity
  8
MODEL
100
AcDbLine
 10
189.8831731476135
 20
718.4927965162341
 30
0.0
 11
189.8901573006437
 21
718.6927964913889
 31
0.0
  0
LINE
  5
175DB
330
A
100
AcDbEntity
  8
MODEL
100
AcDbLine
 10
217.4349217151277
 20
718.6927964866023
 30
0.0
 11
217.4419058677326
 21
718.4927965236221
 31
0.0
  0
LINE
  5
175DC
330
A
100
AcDbEntity
  8
MODEL
100
AcDbLine
 10
227.6972570669062
 20
676.1438045176056
 30
0.0
 11
227.6296827504188
 21
652.492793746796
 31
0.0
  0
LINE
  5
175DD
330
A
100
AcDbEntity
  8
MODEL
100
AcDbLine
 10
179.6278227257671
 20
676.143804504719
 30
0.0
 11
179.6953970422068
 21
652.4927937510341
 31
0.0
  0
LINE
  5
175DE
330
A
100
AcDbEntity
  8
MODEL
100
AcDbLine
 10
160.9125392478477
 20
718.4927947163011
 30
0.0
 11
246.4125405218967
 21
718.492794739221
 31
0.0
  0
ARC
  5
175DF
330
A
100
AcDbEntity
  8
MODEL
100
AcDbCircle
 10
218.3360799253236
 20
700.992704213461
 30
0.0
 40
1.50000002235174
100
AcDbArc
 50
185.8364271882665
 51
270.0000000153551
  0
ARC
  5
175E0
330
A
100
AcDbEntity
  8
MODEL
100
AcDbCircle
 10
188.9889998538028
 20
700.9927042055941
 30
0.0
 40
1.50000002235174
100
AcDbArc
 50
270.0000000153638
 51
354.1635728424641
  0
LINE
  5
175E1
330
A
100
AcDbEntity
  8
MODEL
100
AcDbLine
 10
159.4125392258975
 20
716.9927946935469
 30
0.0
 11
159.4125392301866
 21
700.9927041976651
 31
0.0
  0
LINE
  5
175E2
330
A
100
AcDbEntity
  8
MODEL
100
AcDbLine
 10
247.9125405446506
 20
716.992794717272
 30
0.0
 11
247.9125405489395
 21
700.9927042213893
 31
0.0
  0
ARC
  5
175E3
330
A
100
AcDbEntity
  8
MODEL
100
AcDbCircle
 10
246.4125405265875
 20
700.9927042209871
 30
0.0
 40
1.50000002235174
100
AcDbArc
 50
270.0000000153725
 51
0.0000000151293301
  0
ARC
  5
175E4
330
A
100
AcDbEntity
  8
MODEL
100
AcDbCircle
 10
246.4125405222987
 20
716.992794716869
 30
0.0
 40
1.50000002235174
100
AcDbArc
 50
0.0000000155809519
 51
90.00000001535516
  0
ARC
  5
175E5
330
A
100
AcDbEntity
  8
MODEL
100
AcDbCircle
 10
160.9125392525386
 20
700.9927041980659
 30
0.0
 40
1.50000002235174
100
AcDbArc
 50
180.0000000155809
 51
270.0000000153638
  0
ARC
  5
175E6
330
A
100
AcDbEntity
  8
MODEL
100
AcDbCircle
 10
160.9125392482487
 20
716.9927946939491
 30
0.0
 40
1.50000002235174
100
AcDbArc
 50
90.00000001535516
 51
180.0000000151466
  0
LINE
  5
175E7
330
A
100
AcDbEntity
  8
MODEL
100
AcDbLine
 10
246.4125405334236
 20
676.1438045226229
 30
0.0
 11
160.9125392592134
 21
676.1438044997017
 31
0.0
  0
LINE
  5
175E8
330
A
100
AcDbEntity
  8
MODEL
100
AcDbLine
 10
218.3360614724476
 20
699.4927041911081
 30
0.0
 11
246.4125405269908
 21
699.492704198634
 31
0.0
  0
LINE
  5
175E9
330
A
100
AcDbEntity
  8
MODEL
100
AcDbLine
 10
160.9125392527808
 20
699.4927041757137
 30
0.0
 11
188.9890183071627
 21
699.492704183241
 31
0.0
  0
LINE
  5
175EA
330
A
100
AcDbEntity
  8
MODEL
100
AcDbLine
 10
159.412539234871
 20
678.2569640848031
 30
0.0
 11
159.4125392308298
 21
696.7768625312737
 31
0.0
  0
LINE
  5
175EB
330
A
100
AcDbEntity
  8
MODEL
100
AcDbLine
 10
247.9125405497444
 20
696.7768625549748
 30
0.0
 11
247.9125405553733
 21
677.6438045453703
 31
0.0
  0
ARC
  5
175EC
330
A
100
AcDbEntity
  8
MODEL
100
AcDbCircle
 10
188.9890183075645
 20
697.9927041608902
 30
0.0
 40
1.50000002235174
100
AcDbArc
 50
5.837132044987972
 51
90.00000001491221
  0
ARC
  5
175ED
330
A
100
AcDbEntity
  8
MODEL
100
AcDbCircle
 10
218.3360614728487
 20
697.9927041687562
 30
0.0
 40
1.50000002235174
100
AcDbArc
 50
90.00000001491221
 51
174.1628679848346
  0
ARC
  5
175EE
330
A
100
AcDbEntity
  8
MODEL
100
AcDbCircle
 10
246.4125405330216
 20
677.6438045449739
 30
0.0
 40
1.50000002235174
100
AcDbArc
 50
270.0000000153638
 51
0.0000000151467002
  0
ARC
  5
175EF
330
A
100
AcDbEntity
  8
MODEL
100
AcDbCircle
 10
160.9125392588114
 20
677.6438045220537
 30
0.0
 40
1.50000002235174
100
AcDbArc
 50
180.0000000146951
 51
270.0000000144606
  0
ARC
  5
175F0
330
A
100
AcDbEntity
  8
MODEL
100
AcDbCircle
 10
160.9125392531816
 20
697.992704153363
 30
0.0
 40
1.50000002235174
100
AcDbArc
 50
90.00000001491221
 51
180.0000000146951
  0
ARC
  5
175F1
330
A
100
AcDbEntity
  8
MODEL
100
AcDbCircle
 10
246.4125405273927
 20
697.9927041762833
 30
0.0
 40
1.50000002235174
100
AcDbArc
 50
0.0000000151293301
 51
90.00000001491221
  0
LINE
  5
175F2
102
{ACAD_REACTORS
330
176D8
102
}
330
A
100
AcDbEntity
  8
MODEL
100
AcDbLine
 10
256.1035165084086
 20
652.4927937583429
 30
0.0
 11
51.63366857142802
 21
652.4927937365532
 31
0.0
  0
LINE
  5
175F3
330
A
100
AcDbEntity
  8
MODEL
100
AcDbLine
 10
212.8862451135795
 20
724.1437969688879
 30
0.0
 11
213.3430932581117
 21
723.9717083458412
 31
0.0
  0
LINE
  5
175F4
330
A
100
AcDbEntity
  8
MODEL
100
AcDbLine
 10
213.3430932581117
 20
723.9717083458412
 30
0.0
 11
213.7813256799867
 21
723.6491528038481
 31
0.0
  0
LINE
  5
175F5
330
A
100
AcDbEntity
  8
MODEL
100
AcDbLine
 10
212.9273217737367
 20
724.1437969688879
 30
0.0
 11
212.8787988245178
 21
724.147810030411
 31
0.0
  0
LINE
  5
175F6
330
A
100
AcDbEntity
  8
MODEL
100
AcDbLine
 10
212.8787988245178
 20
724.147810030411
 30
0.0
 11
212.8862451135795
 21
724.1437969688879
 31
0.0
  0
LINE
  5
175F7
330
A
100
AcDbEntity
  8
MODEL
100
AcDbLine
 10
212.8992456018617
 20
723.6491528038481
 30
0.0
 11
212.4609521448295
 21
723.9717541222082
 31
0.0
  0
LINE
  5
175F8
330
A
100
AcDbEntity
  8
MODEL
100
AcDbLine
 10
212.4609521448295
 20
723.9717541222082
 30
0.0
 11
212.0041650354545
 21
724.1437969688879
 31
0.0
  0
LINE
  5
175F9
330
A
100
AcDbEntity
  8
MODEL
100
AcDbLine
 10
209.7688745081117
 20
723.657026339005
 30
0.0
 11
209.7620385706117
 21
723.664884615372
 31
0.0
  0
LINE
  5
175FA
330
A
100
AcDbEntity
  8
MODEL
100
AcDbLine
 10
209.7620385706117
 20
723.664884615372
 30
0.0
 11
209.8100122034236
 21
723.691923189591
 31
0.0
  0
LINE
  5
175FB
330
A
100
AcDbEntity
  8
MODEL
100
AcDbLine
 10
195.2588037073295
 20
724.1437969688879
 30
0.0
 11
194.7345117151428
 21
723.9717083458412
 31
0.0
  0
LINE
  5
175FC
330
A
100
AcDbEntity
  8
MODEL
100
AcDbLine
 10
194.7345117151428
 20
723.9717083458412
 30
0.0
 11
194.2315820276428
 21
723.6491528038481
 31
0.0
  0
LINE
  5
175FD
330
A
100
AcDbEntity
  8
MODEL
100
AcDbLine
 10
193.3903344690486
 20
723.6491528038481
 30
0.0
 11
193.8932641565486
 21
723.9717541222082
 31
0.0
  0
LINE
  5
175FE
330
A
100
AcDbEntity
  8
MODEL
100
AcDbLine
 10
193.8932641565486
 20
723.9717541222082
 30
0.0
 11
194.4175561487367
 21
724.1437969688879
 31
0.0
  0
LINE
  5
175FF
330
A
100
AcDbEntity
  8
MODEL
100
AcDbLine
 10
194.4175561487367
 20
724.1437969688879
 30
0.0
 11
194.4310449182678
 21
724.147810030411
 31
0.0
  0
LINE
  5
17600
330
A
100
AcDbEntity
  8
MODEL
100
AcDbLine
 10
194.4310449182678
 20
724.147810030411
 30
0.0
 11
194.3874658167045
 21
724.1437969688879
 31
0.0
  0
LINE
  5
17601
330
A
100
AcDbEntity
  8
MODEL
100
AcDbLine
 10
190.4168847620178
 20
699.83305172963
 30
0.0
 11
190.3485253870178
 21
699.7498760704501
 31
0.0
  0
LINE
  5
17602
330
A
100
AcDbEntity
  8
MODEL
100
AcDbLine
 10
190.3485253870178
 20
699.7498760704501
 30
0.0
 11
190.1488793909235
 21
699.6723156456453
 31
0.0
  0
LINE
  5
17603
330
A
100
AcDbEntity
  8
MODEL
100
AcDbLine
 10
190.1488793909235
 20
699.6723156456453
 30
0.0
 11
189.8230126917045
 21
699.6030560020912
 31
0.0
  0
LINE
  5
17604
330
A
100
AcDbEntity
  8
MODEL
100
AcDbLine
 10
189.8230126917045
 20
699.6030560020912
 30
0.0
 11
189.3801415979545
 21
699.5445995811921
 31
0.0
  0
LINE
  5
17605
330
A
100
AcDbEntity
  8
MODEL
100
AcDbLine
 10
216.9081567346736
 20
699.83305172963
 30
0.0
 11
216.9765771448295
 21
699.7498913292392
 31
0.0
  0
LINE
  5
17606
330
A
100
AcDbEntity
  8
MODEL
100
AcDbLine
 10
216.9765771448295
 20
699.7498913292392
 30
0.0
 11
217.1761621057678
 21
699.672330904434
 31
0.0
  0
LINE
  5
17607
330
A
100
AcDbEntity
  8
MODEL
100
AcDbLine
 10
217.1761621057678
 20
699.672330904434
 30
0.0
 11
217.5020288049867
 21
699.60307126088
 31
0.0
  0
LINE
  5
17608
330
A
100
AcDbEntity
  8
MODEL
100
AcDbLine
 10
217.5020288049867
 20
699.60307126088
 30
0.0
 11
217.9448388635795
 21
699.5446300987703
 31
0.0
  0
LINE
  5
17609
330
A
100
AcDbEntity
  8
MODEL
100
AcDbLine
 10
206.9511865198295
 20
695.7265148643953
 30
0.0
 11
206.5708764612367
 21
696.1171246056059
 31
0.0
  0
LINE
  5
1760A
330
A
100
AcDbEntity
  8
MODEL
100
AcDbLine
 10
206.5708764612367
 20
696.1171246056059
 30
0.0
 11
206.1079248010795
 21
696.4156017784582
 31
0.0
  0
LINE
  5
1760B
330
A
100
AcDbEntity
  8
MODEL
100
AcDbLine
 10
206.1079248010795
 20
696.4156017784582
 30
0.0
 11
205.5678247034236
 21
696.594343233536
 31
0.0
  0
LINE
  5
1760C
330
A
100
AcDbEntity
  8
MODEL
100
AcDbLine
 10
205.5678247034236
 20
696.594343233536
 30
0.0
 11
204.9762719690486
 21
696.6644878868558
 31
0.0
  0
LINE
  5
1760D
330
A
100
AcDbEntity
  8
MODEL
100
AcDbLine
 10
204.9762719690486
 20
696.6644878868558
 30
0.0
 11
204.3590844690486
 21
696.6723919395912
 31
0.0
  0
LINE
  5
1760E
330
A
100
AcDbEntity
  8
MODEL
100
AcDbLine
 10
204.3590844690486
 20
696.6723919395912
 30
0.0
 11
203.7310327112367
 21
696.6586895470129
 31
0.0
  0
LINE
  5
1760F
330
A
100
AcDbEntity
  8
MODEL
100
AcDbLine
 10
203.7310327112367
 20
696.6586895470129
 30
0.0
 11
203.1033471643617
 21
696.6378918175203
 31
0.0
  0
LINE
  5
17610
330
A
100
AcDbEntity
  8
MODEL
100
AcDbLine
 10
203.1033471643617
 20
696.6378918175203
 30
0.0
 11
202.4878076135795
 21
696.5961132530671
 31
0.0
  0
LINE
  5
17611
330
A
100
AcDbEntity
  8
MODEL
100
AcDbLine
 10
202.4878076135795
 20
696.5961132530671
 30
0.0
 11
201.9008325159236
 21
696.4954967979892
 31
0.0
  0
LINE
  5
17612
330
A
100
AcDbEntity
  8
MODEL
100
AcDbLine
 10
201.9008325159236
 20
696.4954967979892
 30
0.0
 11
201.3667138635795
 21
696.2963848595129
 31
0.0
  0
LINE
  5
17613
330
A
100
AcDbEntity
  8
MODEL
100
AcDbLine
 10
201.3667138635795
 20
696.2963848595129
 30
0.0
 11
200.9079736292045
 21
695.9889660362703
 31
0.0
  0
LINE
  5
17614
330
A
100
AcDbEntity
  8
MODEL
100
AcDbLine
 10
200.9079736292045
 20
695.9889660362703
 30
0.0
 11
200.5285790979545
 21
695.596891451309
 31
0.0
  0
ARC
  5
17615
330
A
100
AcDbEntity
  8
MODEL
100
AcDbCircle
 10
203.6624405051303
 20
352.826995547106
 30
0.0
 40
20.5
100
AcDbArc
 50
281.2517735728507
 51
258.7480781113878
  0
ARC
  5
17616
330
A
100
AcDbEntity
  8
MODEL
100
AcDbCircle
 10
203.6624405295417
 20
352.826995547106
 30
0.0
 40
20.0
100
AcDbArc
 50
281.5368647608464
 51
258.4629466921395
  0
LINE
  5
17617
330
A
100
AcDbEntity
  8
MODEL
100
AcDbLine
 10
208.6624440612631
 20
330.3770583481401
 30
0.0
 11
205.2032072477492
 21
330.377016165591
 31
0.0
  0
LINE
  5
17618
330
A
100
AcDbEntity
  8
MODEL
100
AcDbLine
 10
205.2032072477492
 20
330.377016165591
 30
0.0
 11
198.6624440620066
 21
330.3769364063601
 31
0.0
  0
LINE
  5
17619
330
A
100
AcDbEntity
  8
MODEL
100
AcDbLine
 10
208.4624416194621
 20
330.5770559122701
 30
0.0
 11
205.1415742805505
 21
330.5770154170222
 31
0.0
  0
LINE
  5
1761A
330
A
100
AcDbEntity
  8
MODEL
100
AcDbLine
 10
205.1415742805505
 20
330.5770154170222
 30
0.0
 11
198.8624416261365
 21
330.576938848162
 31
0.0
  0
LINE
  5
1761B
330
A
100
AcDbEntity
  8
MODEL
100
AcDbLine
 10
207.6624391836662
 20
330.7770461598921
 30
0.0
 11
204.895049732855
 21
330.7770124138531
 31
0.0
  0
LINE
  5
1761C
330
A
100
AcDbEntity
  8
MODEL
100
AcDbLine
 10
204.895049732855
 20
330.7770124138531
 30
0.0
 11
199.662439184261
 21
330.776948606469
 31
0.0
  0
LINE
  5
1761D
330
A
100
AcDbEntity
  8
MODEL
100
AcDbLine
 10
208.6630238009431
 20
282.834724336957
 30
0.0
 11
205.203786987429
 21
282.8346821544072
 31
0.0
  0
LINE
  5
1761E
330
A
100
AcDbEntity
  8
MODEL
100
AcDbLine
 10
205.203786987429
 20
282.8346821544072
 30
0.0
 11
198.6630238016866
 21
282.834602395177
 31
0.0
  0
LINE
  5
1761F
330
A
100
AcDbEntity
  8
MODEL
100
AcDbLine
 10
208.4678310409826
 20
282.6347796774501
 30
0.0
 11
205.143639510491
 21
282.6347391416671
 31
0.0
  0
LINE
  5
17620
330
A
100
AcDbEntity
  8
MODEL
100
AcDbLine
 10
205.143639510491
 20
282.6347391416671
 30
0.0
 11
198.8582214379107
 21
282.6346624961612
 31
0.0
  0
ARC
  5
17621
330
A
100
AcDbEntity
  8
MODEL
100
AcDbCircle
 10
198.8630238046518
 20
282.8346048340132
 30
0.0
 40
0.2000000029802328
100
AcDbArc
 50
180.0006986749625
 51
268.6240910513131
  0
ARC
  5
17622
330
A
100
AcDbEntity
  8
MODEL
100
AcDbCircle
 10
208.4630237979776
 20
282.834721898121
 30
0.0
 40
0.2000000029802328
100
AcDbArc
 50
271.377306298515
 51
0.0006986748974693
  0
LINE
  5
17623
330
A
100
AcDbEntity
  8
MODEL
100
AcDbLine
 10
198.6624440620066
 20
330.3769364063601
 30
0.0
 11
198.6630238016864
 21
282.834602395177
 31
0.0
  0
LINE
  5
17624
330
A
100
AcDbEntity
  8
MODEL
100
AcDbLine
 10
208.6624440612631
 20
330.3770583481401
 30
0.0
 11
208.6630238009431
 21
282.834724336957
 31
0.0
  0
ARC
  5
17625
330
A
100
AcDbEntity
  8
MODEL
100
AcDbCircle
 10
203.6605881077548
 20
482.576997368915
 30
0.0
 40
200.0
100
AcDbArc
 50
270.0006986747064
 51
271.3773062980641
  0
ARC
  5
17626
330
A
100
AcDbEntity
  8
MODEL
100
AcDbCircle
 10
203.6605881077548
 20
482.576997368915
 30
0.0
 40
200.0
100
AcDbArc
 50
268.6240910517952
 51
270.0006986751529
  0
ARC
  5
17627
330
A
100
AcDbEntity
  8
MODEL
100
AcDbCircle
 10
199.4624391812958
 20
330.776946167634
 30
0.0
 40
0.2000000029802328
100
AcDbArc
 50
270.000698675158
 51
0.0006986748974693
  0
ARC
  5
17628
330
A
100
AcDbEntity
  8
MODEL
100
AcDbCircle
 10
207.8624391866315
 20
330.7770485987281
 30
0.0
 40
0.2000000029802323
100
AcDbArc
 50
180.0006986750277
 51
270.000698674637
  0
ARC
  5
17629
330
A
100
AcDbEntity
  8
MODEL
100
AcDbCircle
 10
198.862444064972
 20
330.3769388451961
 30
0.0
 40
0.2000000029802328
100
AcDbArc
 50
90.00069867515803
 51
180.0006986750277
  0
ARC
  5
1762A
330
A
100
AcDbEntity
  8
MODEL
100
AcDbCircle
 10
208.4624440582978
 20
330.3770559093042
 30
0.0
 40
0.2000000029802328
100
AcDbArc
 50
0.0006986750277448
 51
90.00069867470205
  0
LINE
  5
1762B
330
A
100
AcDbEntity
  8
MODEL
100
AcDbLine
 10
199.6624061457568
 20
333.4863156852151
 30
0.0
 11
199.662439184261
 21
330.776948606469
 31
0.0
  0
LINE
  5
1762C
330
A
100
AcDbEntity
  8
MODEL
100
AcDbLine
 10
207.6624061465933
 20
333.4862958631441
 30
0.0
 11
207.6624391836662
 21
330.7770461598921
 31
0.0
  0
ARC
  5
1762D
330
A
100
AcDbEntity
  8
MODEL
100
AcDbCircle
 10
203.6624389428124
 20
352.8269955471101
 30
0.0
 40
32.5
100
AcDbArc
 50
151.081875758168
 51
261.1503317072132
  0
ARC
  5
1762E
330
A
100
AcDbEntity
  8
MODEL
100
AcDbCircle
 10
203.6624389428124
 20
352.8269955471101
 30
0.0
 40
32.5
100
AcDbArc
 50
278.850097904664
 51
151.0818757572751
  0
ARC
  5
1762F
330
A
100
AcDbEntity
  8
MODEL
100
AcDbCircle
 10
203.6624389672237
 20
352.8269955471101
 30
0.0
 40
32.0
100
AcDbArc
 50
151.0818757581683
 51
261.0109077122927
  0
ARC
  5
17630
330
A
100
AcDbEntity
  8
MODEL
100
AcDbCircle
 10
203.6624389672237
 20
352.8269955471101
 30
0.0
 40
32.0
100
AcDbArc
 50
278.9895064032406
 51
151.0818757572755
  0
ARC
  5
17631
330
A
100
AcDbEntity
  8
MODEL
100
AcDbCircle
 10
203.6624389672237
 20
352.8269955471101
 30
0.0
 40
21.5
100
AcDbArc
 50
280.722115525808
 51
151.0818757563817
  0
ARC
  5
17632
330
A
100
AcDbEntity
  8
MODEL
100
AcDbCircle
 10
203.6624389672237
 20
352.8269955471101
 30
0.0
 40
21.5
100
AcDbArc
 50
151.0818757572749
 51
259.2778106929937
  0
ARC
  5
17633
330
A
100
AcDbEntity
  8
MODEL
100
AcDbCircle
 10
203.6624389428124
 20
352.8269955471101
 30
0.0
 40
21.0
100
AcDbArc
 50
280.9805203731079
 51
151.0818757563824
  0
ARC
  5
17634
330
A
100
AcDbEntity
  8
MODEL
100
AcDbCircle
 10
203.6624389428124
 20
352.8269955471101
 30
0.0
 40
21.0
100
AcDbArc
 50
151.0818757572754
 51
259.0193695160148
  0
CIRCLE
  5
17635
330
A
100
AcDbEntity
  8
MODEL
100
AcDbCircle
 10
203.6624544973762
 20
352.8269951884591
 30
0.0
 40
19.7499941019076
  0
CIRCLE
  5
17636
330
A
100
AcDbEntity
  8
MODEL
100
AcDbCircle
 10
203.6624545071408
 20
352.8269951884591
 30
0.0
 40
19.54999409892737
  0
ARC
  5
17637
330
A
100
AcDbEntity
  8
HIDDEN
 48
0.5
100
AcDbCircle
 10
563.5638379161163
 20
346.8667349356618
 30
0.0
 40
0.2000000029802322
100
AcDbArc
 50
294.9999999999429
 51
24.99999999979736
  0
LINE
  5
17638
330
A
100
AcDbEntity
  8
HIDDEN
 48
0.5
100
AcDbLine
 10
561.3454658342796
 20
342.6324910245928
 30
0.0
 11
552.2823879948377
 21
338.4063083408677
 31
0.0
  0
LINE
  5
17639
330
A
100
AcDbEntity
  8
HIDDEN
 48
0.5
100
AcDbLine
 10
561.0796806198622
 20
342.7292289291358
 30
0.0
 11
552.3791258993999
 21
338.6720935552777
 31
0.0
  0
LINE
  5
1763A
330
A
100
AcDbEntity
  8
HIDDEN
 48
0.5
100
AcDbLine
 10
560.2701107404799
 20
342.5723958751727
 30
0.0
 11
553.0196484689263
 21
339.1914497281927
 31
0.0
  0
LINE
  5
1763B
330
A
100
AcDbEntity
  8
HIDDEN
 48
0.5
100
AcDbLine
 10
581.4377247084733
 20
299.5445036433827
 30
0.0
 11
572.3746468690315
 21
295.3183209596578
 31
0.0
  0
LINE
  5
1763C
330
A
100
AcDbEntity
  8
HIDDEN
 48
0.5
100
AcDbLine
 10
581.3453170408766
 20
299.2808013427309
 30
0.0
 11
572.6360530563002
 21
295.2196047722418
 31
0.0
  0
ARC
  5
1763D
330
A
100
AcDbEntity
  8
HIDDEN
 48
0.5
100
AcDbCircle
 10
572.5559197854836
 20
295.4028746585017
 30
0.0
 40
0.2000229942361432
100
AcDbArc
 50
205.0064252231982
 51
293.6171402773095
  0
ARC
  5
1763E
330
A
100
AcDbEntity
  8
HIDDEN
 48
0.5
100
AcDbCircle
 10
581.2564328338062
 20
299.4599906004098
 30
0.0
 40
0.2000229943094269
100
AcDbArc
 50
296.3828607079964
 51
24.99357559531725
  0
LINE
  5
1763F
330
A
100
AcDbEntity
  8
HIDDEN
 48
0.5
100
AcDbLine
 10
561.3454658342771
 20
342.6324910245978
 30
0.0
 11
581.4377247084707
 21
299.5445036433876
 31
0.0
  0
LINE
  5
17640
330
A
100
AcDbEntity
  8
HIDDEN
 48
0.5
100
AcDbLine
 10
552.2823879948401
 20
338.4063083408627
 30
0.0
 11
572.3746468690337
 21
295.3183209596529
 31
0.0
  0
ARC
  5
17641
330
A
100
AcDbEntity
  8
HIDDEN
 48
0.5
100
AcDbCircle
 10
492.4914686832038
 20
478.4593494511176
 30
0.0
 40
199.9998961006238
100
AcDbArc
 50
293.623392792167
 51
295.0000009541071
  0
ARC
  5
17642
330
A
100
AcDbEntity
  8
HIDDEN
 48
0.5
100
AcDbCircle
 10
492.4914720586056
 20
478.4593510473418
 30
0.0
 40
199.9998961207876
100
AcDbArc
 50
294.9999998844738
 51
296.3766080464042
  0
ARC
  5
17643
330
A
100
AcDbEntity
  8
HIDDEN
 48
0.5
100
AcDbCircle
 10
552.8382902772651
 20
339.1069612538678
 30
0.0
 40
0.2000727267276306
100
AcDbArc
 50
295.0208585077003
 51
24.97917439139562
  0
ARC
  5
17644
330
A
100
AcDbEntity
  8
HIDDEN
 48
0.5
100
AcDbCircle
 10
560.4514074639686
 20
342.6570161681647
 30
0.0
 40
0.2000727266174852
100
AcDbArc
 50
205.0208264146786
 51
294.9791423071083
  0
ARC
  5
17645
330
A
100
AcDbEntity
  8
HIDDEN
 48
0.5
100
AcDbCircle
 10
552.4637464792331
 20
338.4907967286887
 30
0.0
 40
0.2000729555457456
100
AcDbArc
 50
115.020847642759
 51
204.9791165376653
  0
ARC
  5
17646
330
A
100
AcDbEntity
  8
HIDDEN
 48
0.5
100
AcDbCircle
 10
561.1641689888235
 20
342.5478704515758
 30
0.0
 40
0.2000729555770416
100
AcDbArc
 50
25.020884311011
 51
114.9791532496939
  0
LINE
  5
17647
330
A
100
AcDbEntity
  8
HIDDEN
 48
0.5
100
AcDbLine
 10
559.275617608283
 20
344.7050932388249
 30
0.0
 11
560.2701107404782
 21
342.5723958751768
 31
0.0
  0
LINE
  5
17648
330
A
100
AcDbEntity
  8
HIDDEN
 48
0.5
100
AcDbLine
 10
552.0251633939261
 20
341.3241298131308
 30
0.0
 11
553.0196484689282
 21
339.1914497281888
 31
0.0
  0
LINE
  5
17649
330
A
100
AcDbEntity
  8
HIDDEN
100
AcDbLine
 10
547.2563221473101
 20
382.3115556818788
 30
0.0
 11
547.2207304305844
 21
382.3878823647107
 31
0.0
  0
LINE
  5
1764A
330
A
100
AcDbEntity
  8
HIDDEN
 48
0.5
100
AcDbLine
 10
563.7450994762246
 20
346.9512585892698
 30
0.0
 11
563.7095287833112
 21
347.0275401863889
 31
0.0
  0
ARC
  5
1764B
330
A
100
AcDbEntity
  8
HIDDEN
100
AcDbCircle
 10
547.0394688704959
 20
382.3033587111128
 30
0.0
 40
0.2000000029802322
100
AcDbArc
 50
31.92307692269723
 51
114.9999999999361
  0
LINE
  5
1764C
330
A
100
AcDbEntity
  8
HIDDEN
 48
0.5
100
AcDbLine
 10
546.9549452168949
 20
382.4846202712078
 30
0.0
 11
530.1062969167133
 21
374.6279665392748
 31
0.0
  0
ARC
  5
1764D
330
A
100
AcDbEntity
  8
HIDDEN
 48
0.5
100
AcDbCircle
 10
559.440143494261
 20
344.9438246484448
 30
0.0
 40
0.2000000029802317
100
AcDbArc
 50
270.6815936922357
 51
294.9999999997246
  0
ARC
  5
1764E
330
A
100
AcDbEntity
  8
HIDDEN
 48
0.5
100
AcDbCircle
 10
551.7351528730585
 20
341.3510574228388
 30
0.0
 40
0.200122162287455
100
AcDbArc
 50
295.4186364773589
 51
318.8945606223593
  0
LINE
  5
1764F
330
A
100
AcDbEntity
  8
HIDDEN
 48
0.5
100
AcDbLine
 10
563.6483615697239
 20
346.6854733755528
 30
0.0
 11
559.5246671483313
 21
344.7625630873698
 31
0.0
  0
LINE
  5
17650
330
A
100
AcDbEntity
  8
HIDDEN
 48
0.5
100
AcDbLine
 10
551.8210510985507
 20
341.1703079274698
 30
0.0
 11
538.4530050928047
 21
334.9366857004249
 31
0.0
  0
LINE
  5
17651
330
A
100
AcDbEntity
  8
HIDDEN
 48
0.5
100
AcDbLine
 10
538.4530050928047
 20
334.9366857004249
 30
0.0
 11
530.1532436035273
 21
352.7355816527638
 31
0.0
  0
LINE
  5
17652
330
A
100
AcDbEntity
  8
HIDDEN
 48
0.5
100
AcDbLine
 10
530.1062969167133
 20
374.6279665392748
 30
0.0
 11
530.1063992854119
 21
352.9468912727488
 31
0.0
  0
LINE
  5
17653
330
A
100
AcDbEntity
  8
MODEL
100
AcDbLine
 10
528.7154966385044
 20
373.2946968249348
 30
0.0
 11
528.7154966384991
 21
332.3592943916598
 31
0.0
  0
LINE
  5
17654
330
A
100
AcDbEntity
  8
MODEL
100
AcDbLine
 10
528.7154966384991
 20
332.3592943916598
 30
0.0
 11
528.7154966384991
 21
332.2946968249348
 31
0.0
  0
LINE
  5
17655
330
A
100
AcDbEntity
  8
MODEL
100
AcDbLine
 10
529.2154966385044
 20
372.7946968249348
 30
0.0
 11
529.2154966384991
 21
332.8577188412518
 31
0.0
  0
LINE
  5
17656
330
A
100
AcDbEntity
  8
MODEL
100
AcDbLine
 10
529.2154966384991
 20
332.8577188412518
 30
0.0
 11
529.2154966384991
 21
332.7946968249348
 31
0.0
  0
LINE
  5
17657
330
A
100
AcDbEntity
  8
MODEL
100
AcDbLine
 10
528.7154966384991
 20
332.2946968249348
 30
0.0
 11
529.2154966384991
 21
332.7946968249348
 31
0.0
  0
LINE
  5
17658
330
A
100
AcDbEntity
  8
MODEL
100
AcDbLine
 10
528.7154966385044
 20
373.2946968249348
 30
0.0
 11
529.2154966385044
 21
372.7946968249348
 31
0.0
  0
LINE
  5
17659
330
A
100
AcDbEntity
  8
MODEL
100
AcDbLine
 10
528.7154966384991
 20
332.2946968249348
 30
0.0
 11
495.2355881458291
 21
332.2946968249391
 31
0.0
  0
LINE
  5
1765A
330
A
100
AcDbEntity
  8
MODEL
100
AcDbLine
 10
528.7154966385044
 20
373.2946968249348
 30
0.0
 11
495.2355881458343
 21
373.2946968249391
 31
0.0
  0
ARC
  5
1765B
330
A
100
AcDbEntity
  8
MODEL
100
AcDbCircle
 10
526.1738282274505
 20
352.7946969584218
 30
0.0
 40
19.24192651766219
100
AcDbArc
 50
279.0951773467986
 51
281.8205958282178
  0
ARC
  5
1765C
330
A
100
AcDbEntity
  8
MODEL
100
AcDbCircle
 10
526.1738282274505
 20
352.7946969584218
 30
0.0
 40
19.24192651766219
100
AcDbArc
 50
54.30047565183677
 51
80.90482265318703
  0
LINE
  5
1765D
330
A
100
AcDbEntity
  8
MODEL
100
AcDbLine
 10
554.1154999083263
 20
330.3446986916658
 30
0.0
 11
544.1154999083265
 21
330.3446986184919
 31
0.0
  0
LINE
  5
1765E
330
A
100
AcDbEntity
  8
MODEL
100
AcDbLine
 10
553.9154999038828
 20
330.5446986931678
 30
0.0
 11
544.3154999098433
 21
330.5446986229207
 31
0.0
  0
LINE
  5
1765F
330
A
100
AcDbEntity
  8
MODEL
100
AcDbLine
 10
553.1154999053995
 20
330.7446986902798
 30
0.0
 11
545.1154999053995
 21
330.7446986317408
 31
0.0
  0
LINE
  5
17660
330
A
100
AcDbEntity
  8
MODEL
100
AcDbLine
 10
554.1155002562121
 20
282.8023646804829
 30
0.0
 11
544.1155002562123
 21
282.8023646073088
 31
0.0
  0
LINE
  5
17661
330
A
100
AcDbEntity
  8
MODEL
100
AcDbLine
 10
553.9203050595688
 20
282.6024223997928
 30
0.0
 11
544.3106954557824
 21
282.6024223294756
 31
0.0
  0
ARC
  5
17662
330
A
100
AcDbEntity
  8
MODEL
100
AcDbCircle
 10
544.315523249204
 20
282.8023870381439
 30
0.0
 40
0.2000229942384559
100
AcDbArc
 50
180.0064252236383
 51
268.6171402763737
  0
ARC
  5
17663
330
A
100
AcDbEntity
  8
MODEL
100
AcDbCircle
 10
553.9154772631807
 20
282.8023871084387
 30
0.0
 40
0.2000229942832305
100
AcDbArc
 50
271.3828607021838
 51
359.9935756040385
  0
LINE
  5
17664
330
A
100
AcDbEntity
  8
MODEL
100
AcDbLine
 10
554.1154999083263
 20
330.3446986916719
 30
0.0
 11
554.1155002562121
 21
282.8023646804888
 31
0.0
  0
LINE
  5
17665
330
A
100
AcDbEntity
  8
MODEL
100
AcDbLine
 10
544.1154999083265
 20
330.3446986184868
 30
0.0
 11
544.1155002562123
 21
282.8023646073038
 31
0.0
  0
ARC
  5
17666
330
A
100
AcDbEntity
  8
MODEL
100
AcDbCircle
 10
549.1154969276252
 20
482.5445947622367
 30
0.0
 40
199.9998961006238
100
AcDbArc
 50
268.6233927921671
 51
270.0000009541071
  0
ARC
  5
17667
330
A
100
AcDbEntity
  8
MODEL
100
AcDbCircle
 10
549.1155006613715
 20
482.5445947824007
 30
0.0
 40
199.9998961207876
100
AcDbArc
 50
269.9999998844738
 51
271.3766080464042
  0
ARC
  5
17668
330
A
100
AcDbEntity
  8
MODEL
100
AcDbCircle
 10
544.9154271918471
 20
330.7447713532949
 30
0.0
 40
0.2000727267721134
100
AcDbArc
 50
270.0208585221587
 51
359.9791743804451
  0
ARC
  5
17669
330
A
100
AcDbEntity
  8
MODEL
100
AcDbCircle
 10
553.3155726187938
 20
330.7447714146198
 30
0.0
 40
0.2000727266174852
100
AcDbArc
 50
180.0208264147443
 51
269.9791423071181
  0
ARC
  5
1766A
330
A
100
AcDbEntity
  8
MODEL
100
AcDbCircle
 10
544.3155728505773
 20
330.3446256948618
 30
0.0
 40
0.2000729555457091
100
AcDbArc
 50
90.02084764276039
 51
179.979116537696
  0
ARC
  5
1766B
330
A
100
AcDbEntity
  8
MODEL
100
AcDbCircle
 10
553.9154269660486
 20
330.3446257650839
 30
0.0
 40
0.2000729555770416
100
AcDbArc
 50
0.0208843108665163
 51
89.97915324969554
  0
LINE
  5
1766C
330
A
100
AcDbEntity
  8
MODEL
100
AcDbLine
 10
553.1154998881803
 20
333.0978698771918
 30
0.0
 11
553.1154999053995
 21
330.7446986902839
 31
0.0
  0
LINE
  5
1766D
330
A
100
AcDbEntity
  8
MODEL
100
AcDbLine
 10
545.1154998881807
 20
333.0978507537008
 30
0.0
 11
545.1154999053995
 21
330.7446986317358
 31
0.0
  0
LINE
  5
1766E
102
{ACAD_REACTORS
330
176CA
102
}
330
A
100
AcDbEntity
  8
MODEL
100
AcDbLine
 10
491.2154966384978
 20
320.2946968249398
 30
0.0
 11
491.2154966385042
 21
368.5103738396386
 31
0.0
  0
LINE
  5
1766F
330
A
100
AcDbEntity
  8
MODEL
100
AcDbLine
 10
491.2154966385042
 20
368.5103738396386
 30
0.0
 11
491.215496638506
 21
385.2946968249398
 31
0.0
  0
LINE
  5
17670
330
A
100
AcDbEntity
  8
MODEL
100
AcDbLine
 10
494.7355881458276
 20
320.0119206578859
 30
0.0
 11
494.735588145834
 21
368.2275976725849
 31
0.0
  0
LINE
  5
17671
330
A
100
AcDbEntity
  8
MODEL
100
AcDbLine
 10
494.735588145834
 20
368.2275976725849
 30
0.0
 11
494.735588145836
 21
385.0119206578859
 31
0.0
  0
LINE
  5
17672
330
A
100
AcDbEntity
  8
MODEL
100
AcDbLine
 10
495.2355881458277
 20
320.5119206578859
 30
0.0
 11
495.2355881458337
 21
367.9858180262049
 31
0.0
  0
LINE
  5
17673
330
A
100
AcDbEntity
  8
MODEL
100
AcDbLine
 10
495.2355881458337
 20
367.9858180262049
 30
0.0
 11
495.235588145836
 21
384.5119206578859
 31
0.0
  0
ARC
  5
17674
330
A
100
AcDbEntity
  8
MODEL
100
AcDbCircle
 10
494.735588145836
 20
384.5119206578859
 30
0.0
 40
0.5
100
AcDbArc
 50
0.0000000002084408
 51
89.99999999997395
  0
ARC
  5
17675
330
A
100
AcDbEntity
  8
MODEL
100
AcDbCircle
 10
494.7355881458276
 20
320.5119206578859
 30
0.0
 40
0.5
100
AcDbArc
 50
270.0
 51
359.9999999997917
  0
LINE
  5
17676
330
A
100
AcDbEntity
  8
MODEL
100
AcDbLine
 10
491.215496638506
 20
385.2946968249398
 30
0.0
 11
494.7154966385062
 21
385.2946968249392
 31
0.0
  0
LINE
  5
17677
330
A
100
AcDbEntity
  8
MODEL
100
AcDbLine
 10
491.2154966384978
 20
320.2946968249398
 30
0.0
 11
494.7154966384978
 21
320.2946968249392
 31
0.0
  0
LINE
  5
17678
330
A
100
AcDbEntity
  8
MODEL
100
AcDbLine
 10
490.5254966384986
 20
326.0520228509319
 30
0.0
 11
490.5254966384988
 21
328.4966448773758
 31
0.0
  0
LINE
  5
17679
330
A
100
AcDbEntity
  8
MODEL
100
AcDbLine
 10
490.5254966384988
 20
328.4966448773758
 30
0.0
 11
490.5254966385053
 21
379.5373707989479
 31
0.0
  0
ARC
  5
1767A
330
A
100
AcDbEntity
  8
MODEL
100
AcDbCircle
 10
491.8204966384985
 20
326.2496968249398
 30
0.0
 40
1.31
100
AcDbArc
 50
188.6788640974062
 51
242.4946096201508
  0
ARC
  5
1767B
330
A
100
AcDbEntity
  8
MODEL
100
AcDbCircle
 10
491.8204966385053
 20
379.3396968249398
 30
0.0
 40
1.31
100
AcDbArc
 50
117.5053903798269
 51
171.3211359025742
  0
LINE
  5
1767C
330
A
100
AcDbEntity
  8
MODEL
100
AcDbLine
 10
558.115496605107
 20
372.2604733872966
 30
0.0
 11
558.115496605107
 21
372.3446905637617
 31
0.0
  0
LINE
  5
1767D
330
A
100
AcDbEntity
  8
MODEL
100
AcDbLine
 10
558.1154966051022
 20
333.2447023673598
 30
0.0
 11
558.1154966051022
 21
333.3288697972459
 31
0.0
  0
ARC
  5
1767E
330
A
100
AcDbEntity
  8
MODEL
100
AcDbCircle
 10
557.9154966021486
 20
372.3446905637617
 30
0.0
 40
0.2000000029802322
100
AcDbArc
 50
6.923076922600661
 51
89.99999999993486
  0
LINE
  5
1767F
330
A
100
AcDbEntity
  8
MODEL
100
AcDbLine
 10
557.9154966021492
 20
372.5446905667267
 30
0.0
 11
539.3250701033649
 21
372.5446905667288
 31
0.0
  0
LINE
  5
17680
330
A
100
AcDbEntity
  8
MODEL
100
AcDbLine
 10
539.3250701033649
 20
372.5446905667288
 30
0.0
 11
530.1623445391053
 21
352.8949199584678
 31
0.0
  0
LINE
  5
17681
330
A
100
AcDbEntity
  8
MODEL
100
AcDbLine
 10
530.1154966051021
 20
333.0447023643828
 30
0.0
 11
530.1154966051045
 21
352.6836111401048
 31
0.0
  0
ARC
  5
17682
330
A
100
AcDbEntity
  8
MODEL
100
AcDbCircle
 10
530.6162709360708
 20
352.6834395677099
 30
0.0
 40
0.5007725327339356
100
AcDbArc
 50
155.0195946636621
 51
179.9804052586005
  0
ARC
  5
17683
330
A
100
AcDbEntity
  8
MODEL
100
AcDbCircle
 10
553.365503233168
 20
333.2447023687968
 30
0.0
 40
0.2000000029802317
100
AcDbArc
 50
245.6815936922478
 51
269.9999999996743
  0
ARC
  5
17684
330
A
100
AcDbEntity
  8
MODEL
100
AcDbCircle
 10
544.8640411944031
 20
333.2448191982806
 30
0.0
 40
0.200122162287455
100
AcDbArc
 50
270.4186364774078
 51
293.8945606223315
  0
LINE
  5
17685
330
A
100
AcDbEntity
  8
MODEL
100
AcDbLine
 10
557.9154966021214
 20
333.0447023643798
 30
0.0
 11
553.3655032331787
 21
333.0447023647448
 31
0.0
  0
LINE
  5
17686
330
A
100
AcDbEntity
  8
MODEL
100
AcDbLine
 10
544.8655033875161
 20
333.0447023643819
 30
0.0
 11
530.1154966051021
 21
333.0447023643828
 31
0.0
  0
ARC
  5
17687
330
A
100
AcDbEntity
  8
MODEL
100
AcDbCircle
 10
557.9154966021218
 20
333.2447023673598
 30
0.0
 40
0.2000000029802322
100
AcDbArc
 50
270.0
 51
359.9999999997394
  0
LINE
  5
17688
330
A
100
AcDbEntity
  8
HIDDEN
 48
0.5
100
AcDbLine
 10
559.5246817907617
 20
344.7625560930828
 30
0.0
 11
559.4512870153711
 21
344.7458324602698
 31
0.0
  0
LINE
  5
17689
330
A
100
AcDbEntity
  8
HIDDEN
 48
0.5
100
AcDbLine
 10
559.4512870153711
 20
344.7458324602698
 30
0.0
 11
559.2369925817775
 21
344.6959667376138
 31
0.0
  0
LINE
  5
1768A
330
A
100
AcDbEntity
  8
HIDDEN
 48
0.5
100
AcDbLine
 10
552.0569999059961
 20
341.3478832415198
 30
0.0
 11
551.8810050329492
 21
341.2157421282389
 31
0.0
  0
LINE
  5
1768B
330
A
100
AcDbEntity
  8
HIDDEN
 48
0.5
100
AcDbLine
 10
551.8810050329492
 20
341.2157421282389
 30
0.0
 11
551.8210379919336
 21
341.1703319719888
 31
0.0
  0
LINE
  5
1768C
330
A
100
AcDbEntity
  8
HIDDEN
 48
0.5
100
AcDbLine
 10
563.7539603552149
 20
346.9288158587078
 30
0.0
 11
563.7202994665431
 21
347.0009594133947
 31
0.0
  0
LINE
  5
1768D
330
A
100
AcDbEntity
  8
HIDDEN
 48
0.5
100
AcDbLine
 10
563.7095287833112
 20
347.0275401863889
 30
0.0
 11
547.2428824743555
 21
382.3368969133948
 31
0.0
  0
LINE
  5
1768E
330
A
100
AcDbEntity
  8
HIDDEN
100
AcDbLine
 10
547.2428824743555
 20
382.3368969133948
 30
0.0
 11
547.2092215856836
 21
382.4091015032388
 31
0.0
  0
LINE
  5
1768F
330
A
100
AcDbEntity
  8
MODEL
100
AcDbLine
 10
553.3655021032617
 20
333.0447216204267
 30
0.0
 11
553.2919547399806
 21
333.0605907610517
 31
0.0
  0
LINE
  5
17690
330
A
100
AcDbEntity
  8
MODEL
100
AcDbLine
 10
553.2919547399806
 20
333.0605907610517
 30
0.0
 11
553.0766227087306
 21
333.1059398821448
 31
0.0
  0
LINE
  5
17691
330
A
100
AcDbEntity
  8
MODEL
100
AcDbLine
 10
553.0766227087306
 20
333.1059398821448
 30
0.0
 11
552.727593167715
 21
333.1747265032388
 31
0.0
  0
LINE
  5
17692
330
A
100
AcDbEntity
  8
MODEL
100
AcDbLine
 10
552.727593167715
 20
333.1747265032388
 30
0.0
 11
552.2556388220117
 21
333.2578563860517
 31
0.0
  0
LINE
  5
17693
330
A
100
AcDbEntity
  8
MODEL
100
AcDbLine
 10
552.2556388220117
 20
333.2578563860517
 30
0.0
 11
551.6779105505275
 21
333.3440380266767
 31
0.0
  0
LINE
  5
17694
330
A
100
AcDbEntity
  8
MODEL
100
AcDbLine
 10
551.6779105505275
 20
333.3440380266767
 30
0.0
 11
551.0123832067773
 21
333.4218578508948
 31
0.0
  0
LINE
  5
17695
330
A
100
AcDbEntity
  8
MODEL
100
AcDbLine
 10
551.0123832067773
 20
333.4218578508948
 30
0.0
 11
550.2805106481836
 21
333.4808788469889
 31
0.0
  0
LINE
  5
17696
330
A
100
AcDbEntity
  8
MODEL
100
AcDbLine
 10
550.2805106481836
 20
333.4808788469889
 30
0.0
 11
549.5084464391992
 21
333.5128612688639
 31
0.0
  0
LINE
  5
17697
330
A
100
AcDbEntity
  8
MODEL
100
AcDbLine
 10
549.5084464391992
 20
333.5128612688639
 30
0.0
 11
548.7227408727931
 21
333.5127391985517
 31
0.0
  0
LINE
  5
17698
330
A
100
AcDbEntity
  8
MODEL
100
AcDbLine
 10
548.7227408727931
 20
333.5127391985517
 30
0.0
 11
547.9503104528711
 21
333.4808178118328
 31
0.0
  0
LINE
  5
17699
330
A
100
AcDbEntity
  8
MODEL
100
AcDbLine
 10
547.9503104528711
 20
333.4808178118328
 30
0.0
 11
547.2184684118555
 21
333.4219188860517
 31
0.0
  0
LINE
  5
1769A
330
A
100
AcDbEntity
  8
MODEL
100
AcDbLine
 10
547.2184684118555
 20
333.4219188860517
 30
0.0
 11
546.5533988317774
 21
333.3440380266767
 31
0.0
  0
LINE
  5
1769B
330
A
100
AcDbEntity
  8
MODEL
100
AcDbLine
 10
546.5533988317774
 20
333.3440380266767
 30
0.0
 11
545.9755790075586
 21
333.2577953508948
 31
0.0
  0
LINE
  5
1769C
330
A
100
AcDbEntity
  8
MODEL
100
AcDbLine
 10
545.9755790075586
 20
333.2577953508948
 30
0.0
 11
545.5034415563869
 21
333.1747265032388
 31
0.0
  0
LINE
  5
1769D
330
A
100
AcDbEntity
  8
MODEL
100
AcDbLine
 10
545.5034415563869
 20
333.1747265032388
 30
0.0
 11
545.1543814977931
 21
333.1058788469889
 31
0.0
  0
LINE
  5
1769E
330
A
100
AcDbEntity
  8
MODEL
100
AcDbLine
 10
545.1543814977931
 20
333.1058788469889
 30
0.0
 11
544.9390494665431
 21
333.0605297258948
 31
0.0
  0
LINE
  5
1769F
330
A
100
AcDbEntity
  8
MODEL
100
AcDbLine
 10
544.9390494665431
 20
333.0605297258948
 30
0.0
 11
544.8655021032617
 21
333.0447216204267
 31
0.0
  0
LINE
  5
176A0
330
A
100
AcDbEntity
  8
MODEL
100
AcDbLine
 10
558.1140372595117
 20
333.2206249407388
 30
0.0
 11
558.1140372595117
 21
333.3002147844888
 31
0.0
  0
LINE
  5
176A1
330
A
100
AcDbEntity
  8
MODEL
100
AcDbLine
 10
558.1140372595117
 20
333.3002147844888
 30
0.0
 11
558.1140372595117
 21
333.5370311907388
 31
0.0
  0
LINE
  5
176A2
330
A
100
AcDbEntity
  8
MODEL
100
AcDbLine
 10
558.1140372595117
 20
333.5370311907388
 30
0.0
 11
558.1140372595117
 21
333.9279003313639
 31
0.0
  0
LINE
  5
176A3
330
A
100
AcDbEntity
  8
MODEL
100
AcDbLine
 10
558.1140372595117
 20
333.9279003313639
 30
0.0
 11
558.1140372595117
 21
334.4695873430828
 31
0.0
  0
LINE
  5
176A4
330
A
100
AcDbEntity
  8
MODEL
100
AcDbLine
 10
558.1140372595117
 20
334.4695873430828
 30
0.0
 11
558.1140372595117
 21
335.1589183977698
 31
0.0
  0
LINE
  5
176A5
330
A
100
AcDbEntity
  8
MODEL
100
AcDbLine
 10
558.1140372595117
 20
335.1589183977698
 30
0.0
 11
558.1140372595117
 21
335.9918041399578
 31
0.0
  0
LINE
  5
176A6
330
A
100
AcDbEntity
  8
MODEL
100
AcDbLine
 10
558.1140372595117
 20
335.9918041399578
 30
0.0
 11
558.1140372595117
 21
336.9603099993328
 31
0.0
  0
LINE
  5
176A7
330
A
100
AcDbEntity
  8
MODEL
100
AcDbLine
 10
558.1140372595117
 20
336.9603099993328
 30
0.0
 11
558.1140372595117
 21
338.0554638079267
 31
0.0
  0
LINE
  5
176A8
330
A
100
AcDbEntity
  8
MODEL
100
AcDbLine
 10
558.1140372595117
 20
338.0554638079267
 30
0.0
 11
558.1140372595117
 21
339.2684154680828
 31
0.0
  0
LINE
  5
176A9
330
A
100
AcDbEntity
  8
MODEL
100
AcDbLine
 10
558.1140372595117
 20
339.2684154680828
 30
0.0
 11
558.1140372595117
 21
340.5902538469888
 31
0.0
  0
LINE
  5
176AA
330
A
100
AcDbEntity
  8
MODEL
100
AcDbLine
 10
558.1140372595117
 20
340.5902538469888
 30
0.0
 11
558.1140372595117
 21
342.0114574602698
 31
0.0
  0
LINE
  5
176AB
330
A
100
AcDbEntity
  8
MODEL
100
AcDbLine
 10
558.1140372595117
 20
342.0114574602698
 30
0.0
 11
558.1140372595117
 21
346.7462597063638
 31
0.0
  0
LINE
  5
176AC
330
A
100
AcDbEntity
  8
MODEL
100
AcDbLine
 10
558.1140372595117
 20
346.7462597063638
 30
0.0
 11
558.1140372595117
 21
348.4388256243328
 31
0.0
  0
LINE
  5
176AD
330
A
100
AcDbEntity
  8
MODEL
100
AcDbLine
 10
558.1140372595117
 20
348.4388256243328
 30
0.0
 11
558.1140372595117
 21
350.1667919329267
 31
0.0
  0
LINE
  5
176AE
330
A
100
AcDbEntity
  8
MODEL
100
AcDbLine
 10
558.1140372595117
 20
350.1667919329267
 30
0.0
 11
558.1140372595117
 21
351.9161815813638
 31
0.0
  0
LINE
  5
176AF
330
A
100
AcDbEntity
  8
MODEL
100
AcDbLine
 10
558.1140372595117
 20
351.9161815813638
 30
0.0
 11
558.1140372595117
 21
353.6727123430828
 31
0.0
  0
LINE
  5
176B0
330
A
100
AcDbEntity
  8
MODEL
100
AcDbLine
 10
558.1140372595117
 20
353.6727123430828
 30
0.0
 11
558.1140372595117
 21
355.4221019915198
 31
0.0
  0
LINE
  5
176B1
330
A
100
AcDbEntity
  8
MODEL
100
AcDbLine
 10
558.1140372595117
 20
355.4221019915198
 30
0.0
 11
558.1140372595117
 21
357.1501293352698
 31
0.0
  0
LINE
  5
176B2
330
A
100
AcDbEntity
  8
MODEL
100
AcDbLine
 10
558.1140372595117
 20
357.1501293352698
 30
0.0
 11
558.1140372595117
 21
358.8426342180828
 31
0.0
  0
LINE
  5
176B3
330
A
100
AcDbEntity
  8
MODEL
100
AcDbLine
 10
558.1140372595117
 20
358.8426342180828
 30
0.0
 11
558.1140372595117
 21
360.4866771868328
 31
0.0
  0
LINE
  5
176B4
330
A
100
AcDbEntity
  8
MODEL
100
AcDbLine
 10
558.1140372595117
 20
360.4866771868328
 30
0.0
 11
558.1140372595117
 21
362.0692577532389
 31
0.0
  0
LINE
  5
176B5
330
A
100
AcDbEntity
  8
MODEL
100
AcDbLine
 10
558.1140372595117
 20
362.0692577532389
 30
0.0
 11
558.1140372595117
 21
363.5775585344888
 31
0.0
  0
LINE
  5
176B6
330
A
100
AcDbEntity
  8
MODEL
100
AcDbLine
 10
558.1140372595117
 20
363.5775585344888
 30
0.0
 11
558.1140372595117
 21
364.9987621477698
 31
0.0
  0
LINE
  5
176B7
330
A
100
AcDbEntity
  8
MODEL
100
AcDbLine
 10
558.1140372595117
 20
364.9987621477698
 30
0.0
 11
558.1140372595117
 21
366.3206615618328
 31
0.0
  0
LINE
  5
176B8
330
A
100
AcDbEntity
  8
MODEL
100
AcDbLine
 10
558.1140372595117
 20
366.3206615618328
 30
0.0
 11
558.1140372595117
 21
367.5336132219888
 31
0.0
  0
LINE
  5
176B9
330
A
100
AcDbEntity
  8
MODEL
100
AcDbLine
 10
558.1140372595117
 20
367.5336132219888
 30
0.0
 11
558.1140372595117
 21
368.6288280657389
 31
0.0
  0
LINE
  5
176BA
330
A
100
AcDbEntity
  8
MODEL
100
AcDbLine
 10
558.1140372595117
 20
368.6288280657389
 30
0.0
 11
558.1140372595117
 21
369.5973339251139
 31
0.0
  0
LINE
  5
176BB
330
A
100
AcDbEntity
  8
MODEL
100
AcDbLine
 10
558.1140372595117
 20
369.5973339251139
 30
0.0
 11
558.1140372595117
 21
370.4302196673017
 31
0.0
  0
LINE
  5
176BC
330
A
100
AcDbEntity
  8
MODEL
100
AcDbLine
 10
558.1140372595117
 20
370.4302196673017
 30
0.0
 11
558.1140372595117
 21
371.1196117571447
 31
0.0
  0
LINE
  5
176BD
330
A
100
AcDbEntity
  8
MODEL
100
AcDbLine
 10
558.1140372595117
 20
371.1196117571447
 30
0.0
 11
558.1140372595117
 21
371.6613598040197
 31
0.0
  0
LINE
  5
176BE
330
A
100
AcDbEntity
  8
MODEL
100
AcDbLine
 10
558.1140372595117
 20
371.6613598040197
 30
0.0
 11
558.1140372595117
 21
372.0522289446448
 31
0.0
  0
LINE
  5
176BF
330
A
100
AcDbEntity
  8
MODEL
100
AcDbLine
 10
558.1140372595117
 20
372.0522289446448
 30
0.0
 11
558.1140372595117
 21
372.2891063860517
 31
0.0
  0
LINE
  5
176C0
330
A
100
AcDbEntity
  8
MODEL
100
AcDbLine
 10
558.1140372595117
 20
372.2891063860517
 30
0.0
 11
558.1140372595117
 21
372.3688183001138
 31
0.0
  0
ARC
  5
176C1
330
A
100
AcDbEntity
  8
HIDDEN
 48
0.5
100
AcDbCircle
 10
563.7103047022777
 20
325.7298522459348
 30
0.0
 40
19.4865086723842
100
AcDbArc
 50
103.2711358428134
 51
126.8450420120894
  0
LINE
  5
176C2
330
A
100
AcDbEntity
  8
DIM
100
AcDbLine
 10
253.3996475363572
 20
412.3040611260837
 30
0.0
 11
284.0822920163571
 21
412.3040611260837
 31
0.0
  0
LINE
  5
176C3
330
A
100
AcDbEntity
  8
DIM
100
AcDbLine
 10
222.7100364095469
 20
379.160226088486
 30
0.0
 11
253.3996475363572
 21
412.3040611260837
 31
0.0
  0
MTEXT
  5
176C4
330
A
100
AcDbEntity
  8
DIM
390
1D
100
AcDbMText
 10
262.2270323004201
 20
424.2261106128815
 30
0.0
 40
8.0
 41
0.0
 46
8.0
 71
     1
 72
     1
  1
%%c65
  7
ＭＳ ゴシック
 73
     1
 44
0.7828267384257845
1001
ACAD
1000
ACAD_MTEXT_DEFINED_HEIGHT_BEGIN
1070
    46
1040
8.0
1000
ACAD_MTEXT_DEFINED_HEIGHT_END
  0
DIMENSION
  5
176C6
330
A
100
AcDbEntity
  8
DIM
100
AcDbDimension
280
     0
  2
*D26
 10
325.0206502203185
 20
282.8269955471101
 30
0.0
 11
325.0206502203185
 21
317.8269955471102
 31
0.0
 70
   160
 71
     5
 42
70.0
 73
     0
 74
     0
 75
     0
  3
tfrom線あり
100
AcDbAlignedDimension
 13
236.1624389428124
 23
352.8269955471101
 33
0.0
 14
208.4678310401913
 24
282.8269955471101
 34
0.0
 50
90.0
100
AcDbRotatedDimension
1001
ACAD
1000
DSTYLE
1002
{
1070
   144
1040
1.0
1002
}
  0
DIMENSION
  5
176C7
330
A
100
AcDbEntity
  8
DIM
100
AcDbDimension
280
     0
  2
*D27
 10
495.2154966385061
 20
407.9022822187988
 30
0.0
 11
516.2574966385062
 21
407.9022822187988
 31
0.0
 70
   160
 71
     5
 42
4.0
 73
     0
 74
     1
 75
     1
  3
tfrom線あり
100
AcDbAlignedDimension
 13
491.215496638506
 23
385.2946968249398
 33
0.0
 14
495.2154966385061
 24
385.2946968249398
 34
0.0
100
AcDbRotatedDimension
1001
ACAD
1000
DSTYLE
1002
{
1070
   172
1070
     1
1070
   144
1040
1.0
1002
}
  0
DIMENSION
  5
176C8
102
{ACAD_XDICTIONARY
360
176C9
102
}
102
{ACAD_REACTORS
330
176CA
102
}
330
A
100
AcDbEntity
  8
DIM
100
AcDbDimension
280
     0
  2
*D28
 10
554.1155002562065
 20
224.426101377393
 30
0.0
 11
523.4154984473605
 21
224.426101377393
 31
0.0
 70
   160
  1
34～52
 71
     5
 42
62.90000361770876
 73
     0
 74
     0
 75
     0
  3
tfrom線あり
100
AcDbAlignedDimension
 13
491.2154966384978
 23
320.2946968249398
 33
0.0
 14
554.1155002562065
 24
282.8023646804888
 34
0.0
100
AcDbRotatedDimension
1001
ACAD
1000
DSTYLE
1002
{
1070
   144
1040
1.0
1002
}
  0
DIMENSION
  5
176CB
330
A
100
AcDbEntity
  8
DIM
100
AcDbDimension
280
     0
  2
*D29
 10
581.1155002562066
 20
224.426101377393
 30
0.0
 11
567.6155002562064
 21
224.426101377393
 31
0.0
 70
   160
 71
     5
 42
27.0
 73
     0
 74
     0
 75
     0
  3
tfrom線あり
100
AcDbAlignedDimension
 13
554.1155002562065
 23
272.8023646804889
 33
0.0
 14
581.1155002562066
 24
297.8817063391968
 34
0.0
100
AcDbRotatedDimension
1001
ACAD
1000
DSTYLE
1002
{
1070
   144
1040
1.0
1002
}
  0
DIMENSION
  5
176CF
330
A
100
AcDbEntity
  8
DIM
100
AcDbDimension
280
     0
  2
*D31
 10
228.6623292578544
 20
211.7321288228571
 30
0.0
 11
203.6623292578544
 21
221.7321288228571
 31
0.0
 70
    32
 71
     5
 42
50.0
 73
     0
 74
     0
 75
     0
  3
tfrom線あり
100
AcDbAlignedDimension
 13
178.6623292578544
 23
249.6370793240065
 33
0.0
 14
228.6623292578544
 24
249.6370793240065
 34
0.0
100
AcDbRotatedDimension
1001
ACAD
1000
DSTYLE
1002
{
1070
   144
1040
1.0
1002
}
  0
MTEXT
  5
176D0
330
A
100
AcDbEntity
  8
DIM
390
1D
100
AcDbMText
 10
165.1108198389944
 20
264.4644650985337
 30
0.0
 40
8.0
 41
0.0
 46
13.704
 71
     1
 72
     1
  1
{\fＭＳ ゴシック|b0|i0|c1|p0;G1/2"}
  7
ＭＳ ゴシック
 73
     1
 44
0.7828267384257845
1001
ACAD
1000
ACAD_MTEXT_DEFINED_HEIGHT_BEGIN
1070
    46
1040
13.704
1000
ACAD_MTEXT_DEFINED_HEIGHT_END
  0
MTEXT
  5
176D1
330
A
100
AcDbEntity
  8
DIM
390
1D
100
AcDbMText
 10
169.6500864389874
 20
268.9053898657109
 30
0.0
 40
16.0
 41
0.0
 46
12.0
 71
     1
 72
     1
  1
{\fＭＳ ゴシック|b0|i0|c1|p0;▶}
  7
ＭＳ ゴシック
 11
0.0000000000000001
 21
1.0
 31
0.0
 73
     1
 44
0.7828267384257845
1001
ACAD
1000
ACAD_MTEXT_DEFINED_HEIGHT_BEGIN
1070
    46
1040
12.0
1000
ACAD_MTEXT_DEFINED_HEIGHT_END
  0
MTEXT
  5
176D2
330
A
100
AcDbEntity
  8
DIM
390
1D
100
AcDbMText
 10
217.754743294409
 20
264.4644650985337
 30
0.0
 40
8.0
 41
0.0
 46
13.704
 71
     1
 72
     1
  1
{\fＭＳ ゴシック|b0|i0|c1|p0;G1/2"}
  7
ＭＳ ゴシック
 73
     1
 44
0.7828267384257845
1001
ACAD
1000
ACAD_MTEXT_DEFINED_HEIGHT_BEGIN
1070
    46
1040
13.704
1000
ACAD_MTEXT_DEFINED_HEIGHT_END
  0
MTEXT
  5
176D3
330
A
100
AcDbEntity
  8
DIM
390
1D
100
AcDbMText
 10
220.0937978532592
 20
268.9053898657109
 30
0.0
 40
16.0
 41
0.0
 46
12.0
 71
     1
 72
     1
  1
{\fＭＳ ゴシック|b0|i0|c1|p0;▶}
  7
ＭＳ ゴシック
 11
0.0000000000000001
 21
1.0
 31
0.0
 73
     1
 44
0.7828267384257845
1001
ACAD
1000
ACAD_MTEXT_DEFINED_HEIGHT_BEGIN
1070
    46
1040
12.0
1000
ACAD_MTEXT_DEFINED_HEIGHT_END
  0
MTEXT
  5
176D4
330
A
100
AcDbEntity
  8
DIM
390
1D
100
AcDbMText
 10
192.9207501620843
 20
425.9248090528192
 30
0.0
 40
8.0
 41
0.0
 46
13.704
 71
     1
 72
     1
  1
{\fＭＳ ゴシック|b0|i0|c1|p0;G1/2"}
  7
ＭＳ ゴシック
 73
     1
 44
0.7828267384257845
1001
ACAD
1000
ACAD_MTEXT_DEFINED_HEIGHT_BEGIN
1070
    46
1040
13.704
1000
ACAD_MTEXT_DEFINED_HEIGHT_END
  0
MTEXT
  5
176D5
330
A
100
AcDbEntity
  8
DIM
390
1D
100
AcDbMText
 10
195.1910480946491
 20
401.5416668942822
 30
0.0
 40
16.0
 41
0.0
 46
12.0
 71
     1
 72
     1
  1
{\fＭＳ ゴシック|b0|i0|c1|p0;▶}
  7
ＭＳ ゴシック
 11
0.0000000000000001
 21
1.0
 31
0.0
 73
     1
 44
0.7828267384257845
1001
ACAD
1000
ACAD_MTEXT_DEFINED_HEIGHT_BEGIN
1070
    46
1040
12.0
1000
ACAD_MTEXT_DEFINED_HEIGHT_END
  0
DIMENSION
  5
176D6
102
{ACAD_XDICTIONARY
360
176D7
102
}
102
{ACAD_REACTORS
330
176D8
102
}
330
A
100
AcDbEntity
  8
DIM
100
AcDbDimension
280
     0
  2
*D32
 10
327.3782789704156
 20
724.4927041980442
 30
0.0
 11
327.3782789704156
 21
688.4927489781936
 31
0.0
 70
   160
  1
54～72
 71
     5
 42
71.99991043970112
 73
     0
 74
     0
 75
     0
  3
tfrom線あり
100
AcDbAlignedDimension
 13
256.1035165084086
 23
652.4927937583429
 33
0.0
 14
226.5882110537138
 24
724.4927041980442
 34
0.0
 50
90.0
100
AcDbRotatedDimension
1001
ACAD
1000
DSTYLE
1002
{
1070
    77
1070
     2
1070
   144
1040
1.0
1002
}
  0
LINE
  5
176D9
330
A
100
AcDbEntity
  8
MODEL
100
AcDbLine
 10
96.95948701609726
 20
666.9909693257142
 30
0.0
 11
82.41449049500063
 21
652.4927937381832
 31
0.0
  0
LINE
  5
176DA
330
A
100
AcDbEntity
  8
MODEL
100
AcDbLine
 10
83.98704541609719
 20
666.9909693257142
 30
0.0
 11
69.4420488950006
 21
652.4927937381832
 31
0.0
  0
LINE
  5
176DB
330
A
100
AcDbEntity
  8
MODEL
100
AcDbLine
 10
71.01460381609728
 20
666.9909693257142
 30
0.0
 11
56.46960729500069
 21
652.4927937381832
 31
0.0
  0
LINE
  5
176DC
330
A
100
AcDbEntity
  8
MODEL
 48
0.5
100
AcDbLine
 10
171.16254125048
 20
646.9927940798601
 30
0.0
 11
203.6625398410638
 21
646.9927937533561
 31
0.0
  0
LINE
  5
176DD
330
A
100
AcDbEntity
  8
MODEL
 48
0.5
100
AcDbLine
 10
171.662541245457
 20
646.4927940748371
 30
0.0
 11
203.6625398577241
 21
646.492793753356
 31
0.0
  0
ARC
  5
176DE
330
A
100
AcDbEntity
  8
MODEL
 48
0.5
100
AcDbCircle
 10
171.66254125048
 20
646.992794074837
 30
0.0
 40
0.5
100
AcDbArc
 50
179.9999994243906
 51
269.9999994241562
  0
LINE
  5
176DF
330
A
100
AcDbEntity
  8
MODEL
 48
0.5
100
AcDbLine
 10
171.16254125048
 20
646.9927940798601
 30
0.0
 11
171.1625413057349
 21
652.4927940798601
 31
0.0
  0
LINE
  5
176E0
330
A
100
AcDbEntity
  8
MODEL
 48
0.5
100
AcDbLine
 10
203.6625398410638
 20
646.9927937533561
 30
0.0
 11
236.16254125048
 21
646.9927934268511
 31
0.0
  0
LINE
  5
176E1
330
A
100
AcDbEntity
  8
MODEL
 48
0.5
100
AcDbLine
 10
203.6625398577241
 20
646.492793753356
 30
0.0
 11
235.662541245457
 21
646.492793431874
 31
0.0
  0
ARC
  5
176E2
330
A
100
AcDbEntity
  8
MODEL
 48
0.5
100
AcDbCircle
 10
235.66254125048
 20
646.9927934318739
 30
0.0
 40
0.5
100
AcDbArc
 50
269.9999994245991
 51
359.9999994243906
  0
LINE
  5
176E3
330
A
100
AcDbEntity
  8
MODEL
 48
0.5
100
AcDbLine
 10
236.16254125048
 20
646.9927934268511
 30
0.0
 11
236.1625413057347
 21
652.4927934268511
 31
0.0
  0
LINE
  5
176E4
330
A
100
AcDbEntity
  8
MODEL
 48
0.5
100
AcDbLine
 10
203.6625398963185
 20
652.492793753356
 30
0.0
 11
236.1625413057347
 21
652.4927934268511
 31
0.0
  0
LINE
  5
176E5
330
A
100
AcDbEntity
  8
MODEL
 48
0.5
100
AcDbLine
 10
171.1625413057349
 20
652.4927940798601
 30
0.0
 11
203.6625398963185
 21
652.492793753356
 31
0.0
  0
LINE
  5
176E6
330
A
100
AcDbEntity
  8
MODEL
 48
0.5
100
AcDbLine
 10
224.1625466751636
 20
625.7928055768201
 30
0.0
 11
203.6625398577241
 21
625.792805782769
 31
0.0
  0
LINE
  5
176E7
330
A
100
AcDbEntity
  8
MODEL
 48
0.5
100
AcDbLine
 10
223.6625466701404
 20
625.292805581843
 30
0.0
 11
203.6625398577241
 21
625.292805782769
 31
0.0
  0
LINE
  5
176E8
330
A
100
AcDbEntity
  8
MODEL
 48
0.5
100
AcDbLine
 10
224.1625466751636
 20
625.7928055768188
 30
0.0
 11
223.6625466701404
 21
625.2928055818421
 31
0.0
  0
LINE
  5
176E9
330
A
100
AcDbEntity
  8
MODEL
 48
0.5
100
AcDbLine
 10
224.1625466751636
 20
625.7928055768188
 30
0.0
 11
224.162546883122
 21
646.492805576819
 31
0.0
  0
LINE
  5
176EA
330
A
100
AcDbEntity
  8
MODEL
 48
0.5
100
AcDbLine
 10
203.6625398577241
 20
596.5928058191459
 30
0.0
 11
223.4125401236035
 21
596.5928056207319
 31
0.0
  0
LINE
  5
176EB
330
A
100
AcDbEntity
  8
MODEL
 48
0.5
100
AcDbLine
 10
223.1283229126425
 20
596.392805620607
 30
0.0
 11
223.2125401186289
 21
596.3928056197611
 31
0.0
  0
ARC
  5
176EC
330
A
100
AcDbEntity
  8
MODEL
 48
0.5
100
AcDbCircle
 10
223.2125401206382
 20
596.5928056227189
 30
0.0
 40
0.2000000029802322
100
AcDbArc
 50
276.9230763470691
 51
359.9999994243126
  0
LINE
  5
176ED
330
A
100
AcDbEntity
  8
MODEL
 48
0.5
100
AcDbLine
 10
223.4125401236035
 20
596.5928056207091
 30
0.0
 11
223.4125403103687
 21
615.1832321194943
 31
0.0
  0
LINE
  5
176EE
330
A
100
AcDbEntity
  8
MODEL
 48
0.5
100
AcDbLine
 10
203.6625398577241
 20
596.3942603433086
 30
0.0
 11
223.2366474550521
 21
596.394263844698
 31
0.0
  0
LINE
  5
176EF
330
A
100
AcDbEntity
  8
MODEL
 48
0.5
100
AcDbLine
 10
203.6625398577241
 20
596.5928058191459
 30
0.0
 11
183.9125395918448
 21
596.5928056207319
 31
0.0
  0
LINE
  5
176F0
330
A
100
AcDbEntity
  8
MODEL
 48
0.5
100
AcDbLine
 10
184.1967568028057
 20
596.392805620607
 30
0.0
 11
184.1125395968191
 21
596.3928056197611
 31
0.0
  0
ARC
  5
176F1
330
A
100
AcDbEntity
  8
MODEL
 48
0.5
100
AcDbCircle
 10
184.1125395948098
 20
596.5928056227189
 30
0.0
 40
0.2000000029802322
100
AcDbArc
 50
180.0000005756875
 51
263.0769236529309
  0
LINE
  5
176F2
330
A
100
AcDbEntity
  8
MODEL
 48
0.5
100
AcDbLine
 10
183.9125395918448
 20
596.5928056207091
 30
0.0
 11
183.9125394050794
 21
615.1832321194943
 31
0.0
  0
LINE
  5
176F3
330
A
100
AcDbEntity
  8
MODEL
 48
0.5
100
AcDbLine
 10
203.6625398577241
 20
596.3942603433086
 30
0.0
 11
184.088432260396
 21
596.394263844698
 31
0.0
  0
LINE
  5
176F4
330
A
100
AcDbEntity
  8
MODEL
 48
0.5
100
AcDbLine
 10
223.4125403103687
 20
615.1832321194943
 30
0.0
 11
223.4125403103687
 21
624.392806311355
 31
0.0
  0
LINE
  5
176F5
330
A
100
AcDbEntity
  8
MODEL
 48
0.5
100
AcDbLine
 10
183.9125394050794
 20
624.392806311355
 30
0.0
 11
223.4125403103687
 21
624.392806311355
 31
0.0
  0
LINE
  5
176F6
330
A
100
AcDbEntity
  8
MODEL
 48
0.5
100
AcDbLine
 10
183.1625330402846
 20
625.7928055768201
 30
0.0
 11
203.6625398577241
 21
625.792805782769
 31
0.0
  0
LINE
  5
176F7
330
A
100
AcDbEntity
  8
MODEL
 48
0.5
100
AcDbLine
 10
183.6625330453077
 20
625.292805581843
 30
0.0
 11
203.6625398577241
 21
625.292805782769
 31
0.0
  0
LINE
  5
176F8
330
A
100
AcDbEntity
  8
MODEL
 48
0.5
100
AcDbLine
 10
183.1625330402846
 20
625.7928055768188
 30
0.0
 11
183.6625330453077
 21
625.2928055818421
 31
0.0
  0
LINE
  5
176F9
330
A
100
AcDbEntity
  8
MODEL
 48
0.5
100
AcDbLine
 10
183.1625330402846
 20
625.7928055768188
 30
0.0
 11
183.1625328323261
 21
646.492805576819
 31
0.0
  0
LINE
  5
176FA
330
A
100
AcDbEntity
  8
MODEL
 48
0.5
100
AcDbLine
 10
183.9125394050794
 20
615.1832321194943
 30
0.0
 11
183.9125394050794
 21
624.392806311355
 31
0.0
  0
ARC
  5
176FB
330
A
100
AcDbEntity
  8
MODEL
 48
0.5
100
AcDbCircle
 10
203.6625328812632
 20
628.33447419382
 30
0.0
 40
19.24192651766219
100
AcDbArc
 50
189.0951779224168
 51
191.8205943216756
  0
ARC
  5
176FC
330
A
100
AcDbEntity
  8
MODEL
 48
0.5
100
AcDbCircle
 10
203.6625468341848
 20
628.33447419382
 30
0.0
 40
19.24192651766219
100
AcDbArc
 50
348.1794056783244
 51
350.9048220775832
  0
LINE
  5
176FD
330
A
100
AcDbEntity
  8
HIDDEN
 48
0.5
100
AcDbLine
 10
169.5658276002545
 20
319.416456757018
 30
0.0
 11
169.5658276002545
 21
305.8208657938553
 31
0.0
  0
LINE
  5
176FE
330
A
100
AcDbEntity
  8
HIDDEN
 48
0.5
100
AcDbLine
 10
171.2961447561945
 20
303.8224539154181
 30
0.0
 11
186.0285137595144
 21
303.8224539154181
 31
0.0
  0
LINE
  5
176FF
330
A
100
AcDbEntity
  8
HIDDEN
 48
0.5
100
AcDbLine
 10
187.7588309154545
 20
305.8208657938555
 30
0.0
 11
187.7588309154545
 21
319.416456757018
 31
0.0
  0
MTEXT
  5
17706
330
A
100
AcDbEntity
  8
DIM
390
1D
100
AcDbMText
 10
433.3869150252511
 20
275.7995845018257
 30
0.0
 40
8.0
 41
0.0
 46
13.704
 71
     1
 72
     1
  1
{\fＭＳ ゴシック|b0|i0|c1|p0;G1/2"}
  7
ＭＳ ゴシック
 73
     1
 44
0.7828267384257845
1001
ACAD
1000
ACAD_MTEXT_DEFINED_HEIGHT_BEGIN
1070
    46
1040
13.704
1000
ACAD_MTEXT_DEFINED_HEIGHT_END
  0
MTEXT
  5
17707
330
A
100
AcDbEntity
  8
DIM
390
1D
100
AcDbMText
 10
435.4465426548759
 20
281.8133858519149
 30
0.0
 40
16.0
 41
0.0
 46
12.0
 71
     1
 72
     1
  1
{\fＭＳ ゴシック|b0|i0|c1|p0;▶}
  7
ＭＳ ゴシック
 11
0.0000000000000001
 21
1.0
 31
0.0
 73
     1
 44
0.7828267384257845
1001
ACAD
1000
ACAD_MTEXT_DEFINED_HEIGHT_BEGIN
1070
    46
1040
12.0
1000
ACAD_MTEXT_DEFINED_HEIGHT_END
  0
LINE
  5
17708
330
A
100
AcDbEntity
  8
MODEL
100
AcDbLine
 10
465.0154955922267
 20
332.8268880474438
 30
0.0
 11
465.0154955922267
 21
372.8268889415139
 31
0.0
  0
LINE
  5
17709
330
A
100
AcDbEntity
  8
MODEL
100
AcDbLine
 10
463.0154955624242
 20
332.8268880474438
 30
0.0
 11
463.0154955624242
 21
372.8268889415139
 31
0.0
  0
LINE
  5
1770A
330
A
100
AcDbEntity
  8
MODEL
100
AcDbLine
 10
468.1062828710638
 20
377.2967365777009
 30
0.0
 11
491.2154966361813
 21
377.2307102526589
 31
0.0
  0
LINE
  5
1770B
330
A
100
AcDbEntity
  8
MODEL
100
AcDbLine
 10
468.1062828710638
 20
328.3572546388793
 30
0.0
 11
491.2154966408229
 21
328.4232809639358
 31
0.0
  0
LINE
  5
1770C
330
A
100
AcDbEntity
  8
MODEL
100
AcDbLine
 10
468.1062828710638
 20
300.3268877198678
 30
0.0
 11
468.1062828710638
 21
395.3268891344728
 31
0.0
  0
LINE
  5
1770D
330
A
100
AcDbEntity
  8
MODEL
100
AcDbLine
 10
423.0154951849352
 20
332.8268880474438
 30
0.0
 11
423.0154951849352
 21
372.8268889415139
 31
0.0
  0
LINE
  5
1770E
330
A
100
AcDbEntity
  8
MODEL
100
AcDbLine
 10
425.0154952147377
 20
300.3268877198678
 30
0.0
 11
468.1062828710638
 21
300.3268877198678
 31
0.0
  0
LINE
  5
1770F
330
A
100
AcDbEntity
  8
MODEL
100
AcDbLine
 10
425.0154952147377
 20
395.3268891344728
 30
0.0
 11
468.1062828710638
 21
395.3268891344728
 31
0.0
  0
LINE
  5
17710
330
A
100
AcDbEntity
  8
MODEL
100
AcDbLine
 10
423.0154951849352
 20
372.8268889415139
 30
0.0
 11
465.0154955922267
 21
372.8268889415139
 31
0.0
  0
LINE
  5
17711
330
A
100
AcDbEntity
  8
MODEL
100
AcDbLine
 10
423.0154951849352
 20
332.8268880474438
 30
0.0
 11
465.0154955922267
 21
332.8268880474438
 31
0.0
  0
LINE
  5
17712
102
{ACAD_REACTORS
330
17723
102
}
330
A
100
AcDbEntity
  8
MODEL
100
AcDbLine
 10
425.0154952147377
 20
300.3268877198678
 30
0.0
 11
425.0154952147377
 21
332.8268880474438
 31
0.0
  0
LINE
  5
17713
102
{ACAD_REACTORS
330
17723
102
}
330
A
100
AcDbEntity
  8
MODEL
100
AcDbLine
 10
425.0154952147377
 20
372.8268889415139
 30
0.0
 11
425.0154952147377
 21
395.3268891344728
 31
0.0
  0
LINE
  5
17714
330
A
100
AcDbEntity
  8
MODEL
100
AcDbLine
 10
491.215496638506
 20
467.3774316916499
 30
0.0
 11
476.4077749028569
 21
447.5492909820553
 31
0.0
  0
LINE
  5
17715
330
A
100
AcDbEntity
  8
MODEL
100
AcDbLine
 10
491.215496638506
 20
481.4779116916498
 30
0.0
 11
476.4077749028569
 21
461.6497709820554
 31
0.0
  0
LINE
  5
17716
330
A
100
AcDbEntity
  8
MODEL
100
AcDbLine
 10
491.215496638506
 20
494.4503532916497
 30
0.0
 11
476.4077749028569
 21
474.6222125820552
 31
0.0
  0
MTEXT
  5
17717
330
A
100
AcDbEntity
  8
DIM
390
1D
100
AcDbMText
 10
148.3342030252801
 20
264.2884481352422
 30
0.0
 40
8.0
 41
0.0
 46
13.524
 71
     1
 72
     1
  1
{\fＭＳ ゴシック|b0|i0|c1|p0;湯}
  7
ＭＳ ゴシック
 73
     1
 44
0.7828267384257845
1001
ACAD
1000
ACAD_MTEXT_DEFINED_HEIGHT_BEGIN
1070
    46
1040
13.524
1000
ACAD_MTEXT_DEFINED_HEIGHT_END
  0
MTEXT
  5
17718
330
A
100
AcDbEntity
  8
DIM
390
1D
100
AcDbMText
 10
247.2704044753373
 20
264.096448135242
 30
0.0
 40
8.0
 41
0.0
 46
13.152
 71
     1
 72
     1
  1
{\fＭＳ ゴシック|b0|i0|c1|p0;水}
  7
ＭＳ ゴシック
 73
     1
 44
0.7828267384257845
1001
ACAD
1000
ACAD_MTEXT_DEFINED_HEIGHT_BEGIN
1070
    46
1040
13.152
1000
ACAD_MTEXT_DEFINED_HEIGHT_END
  0
DIMENSION
  5
17719
330
A
100
AcDbEntity
  8
DIM
100
AcDbDimension
280
     0
  2
*D33
 10
65.05750407022627
 20
724.4927041980442
 30
0.0
 11
65.05750407022627
 21
701.5927494988351
 31
0.0
 70
   160
  1
45
 71
     5
 42
45.7999093984181
 73
     0
 74
     0
 75
     0
  3
tfrom線あり
100
AcDbAlignedDimension
 13
98.16253782343357
 23
678.6927947996262
 33
0.0
 14
190.4017482522133
 24
724.4927041980442
 34
0.0
 50
90.0
100
AcDbRotatedDimension
1001
ACAD
1000
DSTYLE
1002
{
1070
   144
1040
1.0
1002
}
  0
DIMENSION
  5
1771A
102
{ACAD_XDICTIONARY
360
1771B
102
}
102
{ACAD_REACTORS
330
1771C
102
}
330
A
100
AcDbEntity
  8
DIM
100
AcDbDimension
280
     0
  2
*D34
 10
263.1625402705708
 20
758.3677529732599
 30
0.0
 11
203.6625393839512
 21
768.3677529732599
 31
0.0
 70
    32
 71
     5
 42
119.0000017732391
 73
     0
 74
     0
 75
     0
  3
tfrom線あり
100
AcDbAlignedDimension
 13
144.1625384973317
 23
717.6927951622161
 33
0.0
 14
263.1625402705708
 24
714.3635121504019
 34
0.0
100
AcDbRotatedDimension
1001
ACAD
1000
DSTYLE
1002
{
1070
   144
1040
1.0
1002
}
  0
DIMENSION
  5
17720
330
A
100
AcDbEntity
  8
DIM
100
AcDbDimension
280
     0
  2
*D36
 10
227.6625398963187
 20
659.3632525451112
 30
0.0
 11
265.8980770406994
 21
659.3632525451112
 31
0.0
 70
   160
 71
     5
 42
48.0
 73
     0
 74
     1
 75
     1
  3
tfrom線あり
100
AcDbAlignedDimension
 13
179.6625398963187
 23
663.9927948118271
 33
0.0
 14
227.6625398963187
 24
663.9927948118271
 34
0.0
100
AcDbRotatedDimension
1001
ACAD
1000
DSTYLE
1002
{
1070
     3
1000
%%c<>
1070
   172
1070
     1
1070
   144
1040
1.0
1002
}
  0
DIMENSION
  5
17721
102
{ACAD_XDICTIONARY
360
17722
102
}
102
{ACAD_REACTORS
330
17723
102
}
330
A
100
AcDbEntity
  8
DIM
100
AcDbDimension
280
     0
  2
*D37
 10
390.5690579023535
 20
300.3268877198678
 30
0.0
 11
380.5690579023535
 21
347.8268884271703
 31
0.0
 70
    32
 71
     5
 42
95.00000141460487
 73
     0
 74
     0
 75
     0
  3
tfrom線あり
100
AcDbAlignedDimension
 13
425.0154952147377
 23
395.3268891344728
 33
0.0
 14
425.0154952147377
 24
300.3268877198678
 34
0.0
 50
90.0
100
AcDbRotatedDimension
1001
ACAD
1000
DSTYLE
1002
{
1070
   144
1040
1.0
1002
}
  0
LINE
  5
17724
330
A
100
AcDbEntity
  8
MODEL
100
AcDbLine
 10
422.5154951774852
 20
346.8268884050719
 30
0.0
 11
422.5154951774848
 21
358.8268885838858
 31
0.0
  0
ARC
  5
17725
330
A
100
AcDbEntity
  8
MODEL
100
AcDbCircle
 10
424.9967629686798
 20
354.0046217132597
 30
0.0
 40
4.459486853048044
100
AcDbArc
 50
174.3241899921379
 51
185.6758126823329
  0
ARC
  5
17726
330
A
100
AcDbEntity
  8
MODEL
100
AcDbCircle
 10
424.9223671002996
 20
352.5874222461959
 30
0.0
 40
4.887050800744423
100
AcDbArc
 50
168.7744329976045
 51
173.7366517408712
  0
ARC
  5
17727
330
A
100
AcDbEntity
  8
MODEL
100
AcDbCircle
 10
425.0229209498961
 20
353.0856682495378
 30
0.0
 40
4.989118234565268
100
AcDbArc
 50
186.3578394179395
 51
206.5296219082108
  0
ARC
  5
17728
330
A
100
AcDbEntity
  8
MODEL
100
AcDbCircle
 10
421.5300754026466
 20
353.287300260315
 30
0.0
 40
1.496383696415803
100
AcDbArc
 50
191.6444172611264
 51
197.9196502728379
  0
ARC
  5
17729
330
A
100
AcDbEntity
  8
MODEL
100
AcDbCircle
 10
420.6259844855266
 20
353.0529330930619
 30
0.0
 40
0.5655590179892879
100
AcDbArc
 50
173.1291469002133
 51
186.8708515742278
  0
ARC
  5
1772A
330
A
100
AcDbEntity
  8
MODEL
100
AcDbCircle
 10
424.9173686643931
 20
353.0590060009877
 30
0.0
 40
4.882027338525081
100
AcDbArc
 50
170.219520714659
 51
173.735973009045
  0
ARC
  5
1772B
330
A
100
AcDbEntity
  8
MODEL
100
AcDbCircle
 10
420.3091607008222
 20
352.1042635022928
 30
0.0
 40
0.2482812865382782
100
AcDbArc
 50
177.5967619025523
 51
189.7793588567426
  0
ARC
  5
1772C
330
A
100
AcDbEntity
  8
MODEL
100
AcDbCircle
 10
420.6259841668433
 20
352.600843881843
 30
0.0
 40
0.5655586367751184
100
AcDbArc
 50
173.1291422167408
 51
186.8708561980077
  0
ARC
  5
1772D
330
A
100
AcDbEntity
  8
MODEL
100
AcDbCircle
 10
425.011557637273
 20
352.611868668722
 30
0.0
 40
4.977524050966696
100
AcDbArc
 50
186.3413643557189
 51
205.4317542745012
  0
ARC
  5
1772E
330
A
100
AcDbEntity
  8
MODEL
100
AcDbCircle
 10
421.81600511678
 20
350.62180094127
 30
0.0
 40
1.278724894151095
100
AcDbArc
 50
169.390772613672
 51
188.4796473241685
  0
LINE
  5
1772F
330
A
100
AcDbEntity
  8
MODEL
100
AcDbLine
 10
420.0610942387632
 20
353.538794500973
 30
0.0
 11
420.5363782374897
 21
353.538794506752
 31
0.0
  0
LINE
  5
17730
330
A
100
AcDbEntity
  8
MODEL
100
AcDbLine
 10
420.0610942169933
 20
352.1149824890942
 30
0.0
 11
420.1288135060949
 21
352.1149824899181
 31
0.0
  0
ARC
  5
17731
330
A
100
AcDbEntity
  8
MODEL
100
AcDbCircle
 10
426.265495233364
 20
352.826888494479
 30
0.0
 40
6.250000093132257
100
AcDbArc
 50
189.7780273159624
 51
232.236533636612
  0
ARC
  5
17732
330
A
100
AcDbEntity
  8
MODEL
100
AcDbCircle
 10
426.265495233364
 20
352.826888494479
 30
0.0
 40
6.250000093132257
100
AcDbArc
 50
127.7634663633932
 51
170.2219725896737
  0
ARC
  5
17733
330
A
100
AcDbEntity
  8
MODEL
100
AcDbCircle
 10
422.3154951745041
 20
347.7278689049061
 30
0.0
 40
0.2000000029802322
100
AcDbArc
 50
0.0
 51
52.2365336364048
  0
ARC
  5
17734
330
A
100
AcDbEntity
  8
MODEL
100
AcDbCircle
 10
422.3154951745041
 20
357.925908084054
 30
0.0
 40
0.2000000029802322
100
AcDbArc
 50
307.7634663635854
 51
0.0
  0
ARC
  5
17735
330
A
100
AcDbEntity
  8
MODEL
100
AcDbCircle
 10
423.0154951849352
 20
346.8268884050719
 30
0.0
 40
0.5000000074505806
100
AcDbArc
 50
180.0000000002084
 51
270.0
  0
ARC
  5
17736
330
A
100
AcDbEntity
  8
MODEL
100
AcDbCircle
 10
423.0154951849352
 20
358.8268885838858
 30
0.0
 40
0.5000000074505806
100
AcDbArc
 50
90.0
 51
179.9999999997916
  0
LINE
  5
17737
330
A
100
AcDbEntity
  8
MODEL
100
AcDbLine
 10
420.0644947417607
 20
353.5505940281237
 30
0.0
 11
420.2365833648078
 21
354.007442172656
 31
0.0
  0
LINE
  5
17738
330
A
100
AcDbEntity
  8
MODEL
100
AcDbLine
 10
420.2365833648078
 20
354.007442172656
 30
0.0
 11
420.5591389067998
 21
354.445674594531
 31
0.0
  0
LINE
  5
17739
330
A
100
AcDbEntity
  8
MODEL
100
AcDbLine
 10
420.0644947417607
 20
353.591670688281
 30
0.0
 11
420.0604816802373
 21
353.543147739062
 31
0.0
  0
LINE
  5
1773A
330
A
100
AcDbEntity
  8
MODEL
100
AcDbLine
 10
420.0604816802373
 20
353.543147739062
 30
0.0
 11
420.0644947417607
 21
353.5505940281237
 31
0.0
  0
LINE
  5
1773B
330
A
100
AcDbEntity
  8
MODEL
100
AcDbLine
 10
420.5591389067998
 20
353.563594516406
 30
0.0
 11
420.2365375884406
 21
353.1253010593737
 31
0.0
  0
LINE
  5
1773C
330
A
100
AcDbEntity
  8
MODEL
100
AcDbLine
 10
420.2365375884406
 20
353.1253010593737
 30
0.0
 11
420.0644947417607
 21
352.6685139499987
 31
0.0
  0
LINE
  5
1773D
330
A
100
AcDbEntity
  8
MODEL
100
AcDbLine
 10
420.5512653716437
 20
350.433223422656
 30
0.0
 11
420.5434070952764
 21
350.426387485156
 31
0.0
  0
LINE
  5
1773E
330
A
100
AcDbEntity
  8
MODEL
100
AcDbLine
 10
420.5434070952764
 20
350.426387485156
 30
0.0
 11
420.5163685210576
 21
350.4743611179678
 31
0.0
  0
DIMENSION
  5
17740
330
A
100
AcDbEntity
  8
DIM
100
AcDbDimension
280
     0
  2
*D39
 10
419.0154953885813
 20
224.426101377393
 30
0.0
 11
431.5154953885811
 21
224.426101377393
 31
0.0
 70
   160
 71
     5
 42
24.99999999999966
 73
     0
 74
     0
 75
     0
  3
tfrom線あり
100
AcDbAlignedDimension
 13
444.015495388581
 23
257.2768714729357
 33
0.0
 14
419.0154953885813
 24
350.8592236228786
 34
0.0
100
AcDbRotatedDimension
1001
ACAD
1000
DSTYLE
1002
{
1070
   172
1070
     1
1070
   144
1040
1.0
1002
}
  0
DIMENSION
  5
17741
102
{ACAD_XDICTIONARY
360
17742
102
}
102
{ACAD_REACTORS
330
17743
102
}
330
A
100
AcDbEntity
  8
DIM
100
AcDbDimension
280
     0
  2
*D40
 10
491.215496638506
 20
224.426101377393
 30
0.0
 11
467.6154960135353
 21
224.426101377393
 31
0.0
 70
   160
  1
29～47
 71
     5
 42
47.20000124992496
 73
     0
 74
     0
 75
     0
  3
tfrom線あり
100
AcDbAlignedDimension
 13
444.015495388581
 23
257.2768714729357
 33
0.0
 14
491.215496638506
 24
317.7827026043643
 34
0.0
100
AcDbRotatedDimension
1001
ACAD
1000
DSTYLE
1002
{
1070
   144
1040
1.0
1002
}
  0
LINE
  5
17744
330
A
100
AcDbEntity
  8
MODEL
100
AcDbLine
 10
491.215496638506
 20
509.8873165362415
 30
0.0
 11
491.215496638506
 21
193.7811388602744
 31
0.0
  0
ARC
  5
17745
330
A
100
AcDbEntity
  8
MODEL
100
AcDbCircle
 10
113.6625404237675
 20
337.8269952242143
 30
0.0
 40
5.000000074505806
100
AcDbArc
 50
179.999999867601
 51
269.9999998673745
  0
LINE
  5
17746
330
A
100
AcDbEntity
  8
MODEL
100
AcDbLine
 10
159.4125392183252
 20
332.8269950556468
 30
0.0
 11
113.6625404122125
 21
332.8269951497085
 31
0.0
  0
LINE
  5
17747
102
{ACAD_REACTORS
330
1775C
102
}
330
A
100
AcDbEntity
  8
MODEL
100
AcDbLine
 10
108.6625403492618
 20
337.8269952357683
 30
0.0
 11
108.6625404648018
 21
367.8269959808263
 31
0.0
  0
LINE
  5
17748
330
A
100
AcDbEntity
  8
MODEL
100
AcDbLine
 10
113.6625405508616
 20
372.8269960437781
 30
0.0
 11
159.4125392296593
 21
372.8269959406588
 31
0.0
  0
ARC
  5
17749
330
A
100
AcDbEntity
  8
MODEL
100
AcDbCircle
 10
113.6625405393076
 20
367.8269959692723
 30
0.0
 40
5.000000074505806
100
AcDbArc
 50
89.99999986782247
 51
179.999999867601
  0
ARC
  5
1774A
330
A
100
AcDbEntity
  8
MODEL
100
AcDbCircle
 10
132.2930705809346
 20
338.4979830054015
 30
0.0
 40
3.200000047683761
100
AcDbArc
 50
179.9999998675994
 51
359.9999998671556
  0
LINE
  5
1774B
330
A
100
AcDbEntity
  8
MODEL
100
AcDbLine
 10
129.0930705332513
 20
338.4979830127957
 30
0.0
 11
129.0930705679133
 21
353.4979832363131
 31
0.0
  0
ARC
  5
1774C
330
A
100
AcDbEntity
  8
MODEL
100
AcDbCircle
 10
132.2930706155975
 20
353.4979832289188
 30
0.0
 40
3.200000047683761
100
AcDbArc
 50
359.9999998676013
 51
179.9999998671536
  0
LINE
  5
1774D
330
A
100
AcDbEntity
  8
MODEL
100
AcDbLine
 10
135.4930706286194
 20
338.4979829980069
 30
0.0
 11
135.4930706632814
 21
353.4979832215243
 31
0.0
  0
ARC
  5
1774E
330
A
100
AcDbEntity
  8
MODEL
100
AcDbCircle
 10
215.4709883840281
 20
352.8269948872246
 30
0.0
 40
104.200001552701
100
AcDbArc
 50
174.999999867625
 51
184.9999998676003
  0
ARC
  5
1774F
330
A
100
AcDbEntity
  8
MODEL
100
AcDbCircle
 10
114.8553223978121
 20
361.6297252684128
 30
0.0
 40
3.200000047683726
100
AcDbArc
 50
354.9999998680509
 51
174.9999998675951
  0
ARC
  5
17750
330
A
100
AcDbEntity
  8
MODEL
100
AcDbCircle
 10
215.4709883840281
 20
352.8269948872246
 30
0.0
 40
97.80000145733357
100
AcDbArc
 50
174.999999867625
 51
184.9999998676003
  0
ARC
  5
17751
330
A
100
AcDbEntity
  8
MODEL
100
AcDbCircle
 10
114.8553223571302
 20
344.0242649710441
 30
0.0
 40
3.200000047683711
100
AcDbArc
 50
184.9999998680428
 51
4.999999867605526
  0
ARC
  5
17752
330
A
100
AcDbEntity
  8
MODEL
100
AcDbCircle
 10
124.5583812587338
 20
365.8135853831739
 30
0.0
 40
3.200000047683761
100
AcDbArc
 50
89.99999986804718
 51
269.9999998675993
  0
LINE
  5
17753
330
A
100
AcDbEntity
  8
MODEL
100
AcDbLine
 10
124.5583812661277
 20
369.0135854308575
 30
0.0
 11
139.5583814896458
 21
369.0135853961954
 31
0.0
  0
ARC
  5
17754
330
A
100
AcDbEntity
  8
MODEL
100
AcDbCircle
 10
139.5583814822517
 20
365.8135853485115
 30
0.0
 40
3.200000047683761
100
AcDbArc
 50
269.9999998671597
 51
89.99999986670372
  0
LINE
  5
17755
330
A
100
AcDbEntity
  8
MODEL
100
AcDbLine
 10
124.5583812513388
 20
362.6135853354896
 30
0.0
 11
139.5583814748566
 21
362.6135853008277
 31
0.0
  0
LINE
  5
17756
330
A
100
AcDbEntity
  8
MODEL
100
AcDbLine
 10
146.1625394346746
 20
332.8269950503436
 30
0.0
 11
146.1625395271066
 21
372.8269959444132
 31
0.0
  0
DIMENSION
  5
17757
102
{ACAD_XDICTIONARY
360
17758
102
}
330
A
100
AcDbEntity
  8
DIM
100
AcDbDimension
280
     0
  2
*D41
 10
89.54295651700441
 20
332.8269951497087
 30
0.0
 11
89.54295651700443
 21
352.8269955967437
 31
0.0
 70
   160
 71
     5
 42
40.00000089406973
 73
     0
 74
     0
 75
     0
 52
-90.0
  3
tfrom線あり
100
AcDbAlignedDimension
 13
113.6623386455037
 23
372.8269960437784
 33
0.0
 14
113.6623385068544
 24
332.8269951497087
 34
0.0
 50
89.99999999999996
100
AcDbRotatedDimension
1001
ACAD
1000
DSTYLE
1002
{
1070
   144
1040
1.0
1002
}
  0
DIMENSION
  5
1775A
102
{ACAD_XDICTIONARY
360
1775B
102
}
102
{ACAD_REACTORS
330
1775C
102
}
330
A
100
AcDbEntity
  8
DIM
100
AcDbDimension
280
     0
  2
*D42
 10
298.6625393261813
 20
458.9933669636476
 30
0.0
 11
203.6625398954915
 21
468.9933669636475
 31
0.0
 70
    32
 71
     5
 42
189.9999988613795
 73
     0
 74
     0
 75
     0
  3
tfrom線あり
100
AcDbAlignedDimension
 13
108.6625404648018
 23
367.8269959808263
 33
0.0
 14
298.6625393261813
 24
367.8269959808267
 34
0.0
100
AcDbRotatedDimension
1001
ACAD
1000
DSTYLE
1002
{
1070
   144
1040
1.0
1002
}
  0
LINE
  5
1775D
330
A
100
AcDbEntity
  8
MODEL
100
AcDbLine
 10
198.6628104963416
 20
300.3269947633824
 30
0.0
 11
160.9125392853045
 21
300.3269947526862
 31
0.0
  0
LINE
  5
17848
330
A
100
AcDbEntity
  8
HIDDEN
 48
0.5
100
AcDbLine
 10
171.2961447561946
 20
319.416456757018
 30
0.0
 11
171.2961447561946
 21
303.822453915418
 31
0.0
  0
LINE
  5
1784A
330
A
100
AcDbEntity
  8
HIDDEN
 48
2.0
100
AcDbLine
 10
171.2961447561946
 20
303.822453915418
 30
0.0
 11
169.5658276002545
 21
305.8208657938553
 31
0.0
  0
LINE
  5
1784D
330
A
100
AcDbEntity
  8
HIDDEN
100
AcDbLine
 10
169.5658276002545
 20
305.8208657938553
 30
0.0
 11
187.7588309154545
 21
305.8208657938553
 31
0.0
  0
LINE
  5
1784E
330
A
100
AcDbEntity
  8
HIDDEN
 48
2.0
100
AcDbLine
 10
186.0285137595145
 20
303.8224539154182
 30
0.0
 11
187.7588309154545
 21
305.8208657938555
 31
0.0
  0
LINE
  5
1784F
330
A
100
AcDbEntity
  8
HIDDEN
 48
0.5
100
AcDbLine
 10
186.0285137595136
 20
319.4164567570183
 30
0.0
 11
186.0285137595145
 21
303.8224539154185
 31
0.0
  0
LINE
  5
17850
102
{ACAD_REACTORS
330
17858
102
}
330
A
100
AcDbEntity
  8
HIDDEN
 48
0.5
100
AcDbLine
 10
236.0287642580874
 20
319.4164567570185
 30
0.0
 11
236.0287642580876
 21
303.8224539154186
 31
0.0
  0
LINE
  5
17851
102
{ACAD_REACTORS
330
17858
102
}
330
A
100
AcDbEntity
  8
HIDDEN
 48
2.0
100
AcDbLine
 10
236.0287642580876
 20
303.8224539154186
 30
0.0
 11
237.7590814140277
 21
305.8208657938558
 31
0.0
  0
LINE
  5
17852
102
{ACAD_REACTORS
330
17858
102
}
330
A
100
AcDbEntity
  8
HIDDEN
100
AcDbLine
 10
237.7590814140277
 20
305.8208657938558
 30
0.0
 11
219.5660780988278
 21
305.8208657938555
 31
0.0
  0
LINE
  5
17853
102
{ACAD_REACTORS
330
17858
102
}
330
A
100
AcDbEntity
  8
HIDDEN
 48
0.5
100
AcDbLine
 10
237.7590814140275
 20
319.4164567570187
 30
0.0
 11
237.7590814140277
 21
305.8208657938558
 31
0.0
  0
LINE
  5
17854
102
{ACAD_REACTORS
330
17858
102
}
330
A
100
AcDbEntity
  8
HIDDEN
 48
2.0
100
AcDbLine
 10
221.2963952547678
 20
303.8224539154186
 30
0.0
 11
219.5660780988278
 21
305.8208657938558
 31
0.0
  0
LINE
  5
17855
102
{ACAD_REACTORS
330
17858
102
}
330
A
100
AcDbEntity
  8
HIDDEN
 48
0.5
100
AcDbLine
 10
219.5660780988278
 20
305.8208657938558
 30
0.0
 11
219.5660780988275
 21
319.4164567570183
 31
0.0
  0
LINE
  5
17856
102
{ACAD_REACTORS
330
17858
102
}
330
A
100
AcDbEntity
  8
HIDDEN
 48
0.5
100
AcDbLine
 10
236.0287642580878
 20
303.8224539154186
 30
0.0
 11
221.296395254768
 21
303.8224539154184
 31
0.0
  0
LINE
  5
17857
102
{ACAD_REACTORS
330
17858
102
}
330
A
100
AcDbEntity
  8
HIDDEN
 48
0.5
100
AcDbLine
 10
221.2963952547685
 20
319.4164567570188
 30
0.0
 11
221.2963952547678
 21
303.8224539154188
 31
0.0
  0
LINE
  5
17859
102
{ACAD_REACTORS
330
17861
102
}
330
A
100
AcDbEntity
  8
HIDDEN
 48
0.5
100
AcDbLine
 10
451.3816798902407
 20
318.1491282906508
 30
0.0
 11
451.3816798902407
 21
302.5551254490508
 31
0.0
  0
LINE
  5
1785A
102
{ACAD_REACTORS
330
17861
102
}
330
A
100
AcDbEntity
  8
HIDDEN
 48
2.0
100
AcDbLine
 10
451.3816798902407
 20
302.5551254490508
 30
0.0
 11
453.111997046181
 21
304.5535373274881
 31
0.0
  0
LINE
  5
1785B
102
{ACAD_REACTORS
330
17861
102
}
330
A
100
AcDbEntity
  8
HIDDEN
100
AcDbLine
 10
453.111997046181
 20
304.5535373274881
 30
0.0
 11
434.918993730981
 21
304.5535373274879
 31
0.0
  0
LINE
  5
1785C
102
{ACAD_REACTORS
330
17861
102
}
330
A
100
AcDbEntity
  8
HIDDEN
 48
0.5
100
AcDbLine
 10
453.1119970461808
 20
318.1491282906508
 30
0.0
 11
453.111997046181
 21
304.5535373274881
 31
0.0
  0
LINE
  5
1785D
102
{ACAD_REACTORS
330
17861
102
}
330
A
100
AcDbEntity
  8
HIDDEN
 48
2.0
100
AcDbLine
 10
436.6493108869211
 20
302.5551254490508
 30
0.0
 11
434.918993730981
 21
304.5535373274881
 31
0.0
  0
LINE
  5
1785E
102
{ACAD_REACTORS
330
17861
102
}
330
A
100
AcDbEntity
  8
HIDDEN
 48
0.5
100
AcDbLine
 10
434.918993730981
 20
304.5535373274881
 30
0.0
 11
434.9189937309808
 21
318.1491282906505
 31
0.0
  0
LINE
  5
1785F
102
{ACAD_REACTORS
330
17861
102
}
330
A
100
AcDbEntity
  8
HIDDEN
 48
0.5
100
AcDbLine
 10
451.3816798902411
 20
302.5551254490509
 30
0.0
 11
436.6493108869211
 21
302.5551254490506
 31
0.0
  0
LINE
  5
17860
102
{ACAD_REACTORS
330
17861
102
}
330
A
100
AcDbEntity
  8
HIDDEN
 48
0.5
100
AcDbLine
 10
436.6493108869216
 20
318.149128290651
 30
0.0
 11
436.6493108869208
 21
302.555125449051
 31
0.0
  0
DIMENSION
  5
1786B
330
A
100
AcDbEntity
  8
DIM
100
AcDbDimension
280
     0
  2
*D43
 10
468.1062828710638
 20
418.2288580755572
 30
0.0
 11
444.106282871064
 21
428.2288580755571
 31
0.0
 70
    32
 71
     5
 42
48.0
 73
     0
 74
     0
 75
     0
  3
tfrom線あり
100
AcDbAlignedDimension
 13
420.1062828710638
 23
352.8268884947088
 33
0.0
 14
468.1062828710638
 24
395.3268891344728
 34
0.0
100
AcDbRotatedDimension
1001
ACAD
1000
DSTYLE
1002
{
1070
   144
1040
1.0
1002
}
  0
LINE
  5
178C2
102
{ACAD_REACTORS
330
178CA
102
}
330
A
100
AcDbEntity
  8
HIDDEN
 48
0.5
100
AcDbLine
 10
196.2963553938316
 20
377.9787235598734
 30
0.0
 11
196.2963553938314
 21
393.5727264014733
 31
0.0
  0
LINE
  5
178C3
102
{ACAD_REACTORS
330
178CA
102
}
330
A
100
AcDbEntity
  8
HIDDEN
 48
2.0
100
AcDbLine
 10
196.2963553938314
 20
393.5727264014733
 30
0.0
 11
194.5660382378914
 21
391.5743145230362
 31
0.0
  0
LINE
  5
178C4
102
{ACAD_REACTORS
330
178CA
102
}
330
A
100
AcDbEntity
  8
HIDDEN
100
AcDbLine
 10
194.5660382378914
 20
391.5743145230362
 30
0.0
 11
212.7590415530913
 21
391.5743145230363
 31
0.0
  0
LINE
  5
178C5
102
{ACAD_REACTORS
330
178CA
102
}
330
A
100
AcDbEntity
  8
HIDDEN
 48
0.5
100
AcDbLine
 10
194.5660382378916
 20
377.9787235598733
 30
0.0
 11
194.5660382378914
 21
391.5743145230362
 31
0.0
  0
LINE
  5
178C6
102
{ACAD_REACTORS
330
178CA
102
}
330
A
100
AcDbEntity
  8
HIDDEN
 48
2.0
100
AcDbLine
 10
211.0287243971514
 20
393.5727264014733
 30
0.0
 11
212.7590415530913
 21
391.5743145230362
 31
0.0
  0
LINE
  5
178C7
102
{ACAD_REACTORS
330
178CA
102
}
330
A
100
AcDbEntity
  8
HIDDEN
 48
0.5
100
AcDbLine
 10
212.7590415530913
 20
391.5743145230362
 30
0.0
 11
212.7590415530915
 21
377.9787235598737
 31
0.0
  0
LINE
  5
178C8
102
{ACAD_REACTORS
330
178CA
102
}
330
A
100
AcDbEntity
  8
HIDDEN
 48
0.5
100
AcDbLine
 10
196.2963553938313
 20
393.5727264014733
 30
0.0
 11
211.0287243971512
 21
393.5727264014735
 31
0.0
  0
LINE
  5
178C9
102
{ACAD_REACTORS
330
178CA
102
}
330
A
100
AcDbEntity
  8
HIDDEN
 48
0.5
100
AcDbLine
 10
211.0287243971507
 20
377.9787235598731
 30
0.0
 11
211.0287243971514
 21
393.5727264014732
 31
0.0
  0
LINE
  5
178CB
102
{ACAD_REACTORS
330
178D3
102
}
330
A
100
AcDbEntity
  8
HIDDEN
 48
0.5
100
AcDbLine
 10
436.6493108869214
 20
377.9787235598734
 30
0.0
 11
436.6493108869213
 21
393.5727264014733
 31
0.0
  0
LINE
  5
178CC
102
{ACAD_REACTORS
330
178D3
102
}
330
A
100
AcDbEntity
  8
HIDDEN
 48
2.0
100
AcDbLine
 10
436.6493108869213
 20
393.5727264014733
 30
0.0
 11
434.9189937309812
 21
391.5743145230362
 31
0.0
  0
LINE
  5
178CD
102
{ACAD_REACTORS
330
178D3
102
}
330
A
100
AcDbEntity
  8
HIDDEN
100
AcDbLine
 10
434.9189937309812
 20
391.5743145230362
 30
0.0
 11
453.111997046181
 21
391.5743145230363
 31
0.0
  0
LINE
  5
178CE
102
{ACAD_REACTORS
330
178D3
102
}
330
A
100
AcDbEntity
  8
HIDDEN
 48
0.5
100
AcDbLine
 10
434.9189937309812
 20
377.9787235598733
 30
0.0
 11
434.9189937309812
 21
391.5743145230362
 31
0.0
  0
LINE
  5
178CF
102
{ACAD_REACTORS
330
178D3
102
}
330
A
100
AcDbEntity
  8
HIDDEN
 48
2.0
100
AcDbLine
 10
451.3816798902412
 20
393.5727264014733
 30
0.0
 11
453.111997046181
 21
391.5743145230362
 31
0.0
  0
LINE
  5
178D0
102
{ACAD_REACTORS
330
178D3
102
}
330
A
100
AcDbEntity
  8
HIDDEN
 48
0.5
100
AcDbLine
 10
453.111997046181
 20
391.5743145230362
 30
0.0
 11
453.1119970461814
 21
377.9787235598737
 31
0.0
  0
LINE
  5
178D1
102
{ACAD_REACTORS
330
178D3
102
}
330
A
100
AcDbEntity
  8
HIDDEN
 48
0.5
100
AcDbLine
 10
436.6493108869211
 20
393.5727264014733
 30
0.0
 11
451.381679890241
 21
393.5727264014735
 31
0.0
  0
LINE
  5
178D2
102
{ACAD_REACTORS
330
178D3
102
}
330
A
100
AcDbEntity
  8
HIDDEN
 48
0.5
100
AcDbLine
 10
451.3816798902404
 20
377.9787235598731
 30
0.0
 11
451.3816798902412
 21
393.5727264014732
 31
0.0
  0
MTEXT
  5
178DF
330
A
100
AcDbEntity
  8
TEMPLATE
390
1D
100
AcDbMText
 10
398.760643364397
 20
117.2344738824642
 30
0.0
 40
7.329785156250001
 41
0.0
 46
8.033444531250001
 71
     1
 72
     1
  1
AGN73-3303-N25 マットブラック
  7
ＭＳ ゴシック
 73
     1
 44
0.7828267384257845
1001
ACAD
1000
ACAD_MTEXT_DEFINED_HEIGHT_BEGIN
1070
    46
1040
8.033444531250001
1000
ACAD_MTEXT_DEFINED_HEIGHT_END
  0
MTEXT
  5
178E0
330
A
100
AcDbEntity
  8
TEMPLATE
390
1D
100
AcDbMText
 10
398.760643364397
 20
127.2041846938928
 30
0.0
 40
7.329785156250001
 41
0.0
 46
7.666955273437499
 71
     1
 72
     1
  1
AGN73-3303-N24 マットホワイト
  7
ＭＳ ゴシック
 73
     1
 44
0.7828267384257845
1001
ACAD
1000
ACAD_MTEXT_DEFINED_HEIGHT_BEGIN
1070
    46
1040
7.666955273437499
1000
ACAD_MTEXT_DEFINED_HEIGHT_END
  0
MTEXT
  5
178E1
330
A
100
AcDbEntity
  8
TEMPLATE
390
1D
100
AcDbMText
 10
398.760643364397
 20
137.1738955053214
 30
0.0
 40
7.329785156250001
 41
0.0
 46
7.439731933593749
 71
     1
 72
     1
  1
AGN73-3303-N01 クローム
  7
ＭＳ ゴシック
 73
     1
 44
0.7828267384257845
1001
ACAD
1000
ACAD_MTEXT_DEFINED_HEIGHT_BEGIN
1070
    46
1040
7.439731933593749
1000
ACAD_MTEXT_DEFINED_HEIGHT_END
  0
LINE
  5
179B9
330
A
100
AcDbEntity
  8
MODEL
  6
Continuous
100
AcDbLine
 10
28.61540799042297
 20
113.641242536216
 30
0.0
 11
110.2085566522823
 21
113.641242536216
 31
0.0
  0
LINE
  5
179BA
330
A
100
AcDbEntity
  8
MODEL
  6
Continuous
100
AcDbLine
 10
28.61540799042297
 20
126.1688573091418
 30
0.0
 11
110.2085566522823
 21
126.1688573091419
 31
0.0
  0
LINE
  5
179BC
330
A
100
AcDbEntity
  8
MODEL
  6
Continuous
100
AcDbLine
 10
110.2085566522823
 20
126.1688573091418
 30
0.0
 11
110.2085566522823
 21
113.6412425362159
 31
0.0
  0
MTEXT
  5
179BD
330
A
100
AcDbEntity
  8
TEMPLATE
390
1D
100
AcDbMText
 10
36.16266788881518
 20
123.8291121295577
 30
0.0
 40
7.32978515625
 41
0.0
 46
8.187691734498095
 71
     1
 72
     1
  1
27.6 L/min
  7
ＭＳ ゴシック
 73
     1
 44
0.7828267384257845
1001
ACAD
1000
ACAD_MTEXT_DEFINED_HEIGHT_BEGIN
1070
    46
1040
13.64615289083016
1000
ACAD_MTEXT_DEFINED_HEIGHT_END
  0
MTEXT
  5
179C0
330
A
100
AcDbEntity
  8
TEMPLATE
390
1D
100
AcDbMText
 10
35.26854767784318
 20
138.3538693491877
 30
0.0
 40
7.32978515625
 41
0.0
 46
8.187691734498095
 71
     1
 72
     1
  1
■流量　0.3Mpa時
  7
ＭＳ ゴシック
 73
     1
 44
0.7828267384257845
1001
ACAD
1000
ACAD_MTEXT_DEFINED_HEIGHT_BEGIN
1070
    46
1040
13.64615289083016
1000
ACAD_MTEXT_DEFINED_HEIGHT_END
  0
LINE
  5
179C1
330
A
100
AcDbEntity
  8
MODEL
  6
Continuous
100
AcDbLine
 10
28.61540799042297
 20
126.1688573091419
 30
0.0
 11
28.61540799042297
 21
113.641242536216
 31
0.0
  0
VIEWPORT
  5
349
330
B
100
AcDbEntity
 67
     1
  8
0
348
26C
100
AcDbViewport
 10
202.5
 20
128.5
 30
0.0
 40
486.0
 41
308.4
 68
     1
 69
     1
 12
202.5
 22
128.5
 13
0.0
 23
0.0
 14
0.5
 24
0.5
 15
0.0
 25
0.0
 16
0.0
 26
0.0
 36
1.0
 17
0.0
 27
0.0
 37
0.0
 42
50.0
 43
0.0
 44
0.0
 45
308.4
 50
0.0
 51
0.0
 72
   100
 90
   557152
  1

281
     0
 71
     1
 74
     0
110
0.0
120
0.0
130
0.0
111
1.0
121
0.0
131
0.0
112
0.0
122
1.0
132
0.0
 79
     0
146
0.0
170
     0
 61
     5
292
     1
282
     1
141
0.0
142
0.0
 63
   250
421
  3355443
  0
VIEWPORT
  5
34A
330
B
100
AcDbEntity
 67
     1
  8
0
348
26C
100
AcDbViewport
 10
202.5
 20
128.5
 30
0.0
 40
324.0
 41
205.6
 68
     2
 69
     2
 12
986.6781359294572
 22
1427.077061889956
 13
0.0
 23
0.0
 14
0.5
 24
0.5
 15
0.0
 25
0.0
 16
0.0
 26
0.0
 36
1.0
 17
0.0
 27
0.0
 37
0.0
 42
50.0
 43
0.0
 44
0.0
 45
2890.021615685494
 50
0.0
 51
0.0
 72
   100
 90
   557152
  1

281
     0
 71
     1
 74
     0
110
0.0
120
0.0
130
0.0
111
1.0
121
0.0
131
0.0
112
0.0
122
1.0
132
0.0
 79
     0
146
0.0
170
     0
 61
     5
292
     1
282
     1
141
0.0
142
0.0
 63
   250
421
  3355443
  0
ENDSEC
  0
SECTION
  2
OBJECTS
  0
DICTIONARY
  5
19
330
0
100
AcDbDictionary
281
     1
  3
ACAD_BACKGROUND
350
178FC
  3
ACAD_CIP_PREVIOUS_PRODUCT_INFO
350
17900
  3
ACAD_COLOR
350
674
  3
ACAD_DETAILVIEWSTYLE
350
BBF
  3
ACAD_FIELDLIST
350
36B0
  3
ACAD_GROUP
350
1A
  3
ACAD_IMAGE_VARS
350
27B
  3
ACAD_LAYOUT
350
1E
  3
ACAD_MATERIAL
350
263
  3
ACAD_MLEADERSTYLE
350
336
  3
ACAD_MLINESTYLE
350
1B
  3
ACAD_PLOTSETTINGS
350
22
  3
ACAD_PLOTSTYLENAME
350
1F
  3
ACAD_RENDER_RAPIDRT_SETTINGS
350
17964
  3
ACAD_SCALELIST
350
241
  3
ACAD_SECTIONVIEWSTYLE
350
BC0
  3
ACAD_TABLESTYLE
350
278
  3
ACAD_VISUALSTYLE
350
267
  3
ACDB_RECOMPOSE_DATA
350
179F8
  3
AcDbVariableDictionary
350
330
  3
APPDATA
350
27A
  3
ASE_INDEX_DICTIONARY
350
17913
  3
CENTERLINE
350
366B
  3
DimOffsetDictionary
350
E38
  0
SUN
  5
904
330
15
100
AcDbSun
 90
        1
290
     1
 63
     7
421
 16777215
 40
1.0
291
     1
 91
  2455826
 92
 54000000
292
     0
 70
     0
 71
   256
280
     1
  0
DICTIONARY
  5
2E1
330
2
100
AcDbDictionary
280
     1
281
     1
  3
ACAD_LAYERSTATES
360
2E2
  3
ACLYDICTIONARY
360
DDE
  0
DICTIONARY
  5
17902
330
14
100
AcDbDictionary
280
     1
281
     1
  3
ADSK_XREC_LAYER_RECONCILED
360
17903
  0
DICTIONARY
  5
17904
330
4B
100
AcDbDictionary
280
     1
281
     1
  3
ADSK_XREC_LAYER_RECONCILED
360
17905
  0
DICTIONARY
  5
17906
330
4C
100
AcDbDictionary
280
     1
281
     1
  3
ADSK_XREC_LAYER_RECONCILED
360
17907
  0
DICTIONARY
  5
17908
330
4D
100
AcDbDictionary
280
     1
281
     1
  3
ADSK_XREC_LAYER_RECONCILED
360
17909
  0
DICTIONARY
  5
1790A
330
667
100
AcDbDictionary
280
     1
281
     1
  3
ADSK_XREC_LAYER_RECONCILED
360
1790B
  0
DICTIONARY
  5
1790C
330
88C
100
AcDbDictionary
280
     1
281
     1
  3
ADSK_XREC_LAYER_RECONCILED
360
1790D
  0
DICTIONARY
  5
1790E
330
D6B
100
AcDbDictionary
280
     1
281
     1
  3
ADSK_XREC_LAYER_RECONCILED
360
1790F
  0
DICTIONARY
  5
17910
330
36C6
100
AcDbDictionary
280
     1
281
     1
  3
ADSK_XREC_LAYER_RECONCILED
360
17911
  0
DICTIONARY
  5
36AE
330
36AC
100
AcDbDictionary
280
     1
281
     1
  3
ACAD_FIELD
360
1782E
  0
DICTIONARY
  5
176C9
330
176C8
100
AcDbDictionary
280
     1
281
     1
  3
ACAD_DIMASSOC
360
176CA
  0
DICTIONARY
  5
176D7
330
176D6
100
AcDbDictionary
280
     1
281
     1
  3
ACAD_DIMASSOC
360
176D8
  0
DICTIONARY
  5
1771B
330
1771A
100
AcDbDictionary
280
     1
281
     1
  3
ACAD_DIMASSOC
360
1771C
  0
DICTIONARY
  5
17722
330
17721
100
AcDbDictionary
280
     1
281
     1
  3
ACAD_DIMASSOC
360
17723
  0
DICTIONARY
  5
17742
330
17741
100
AcDbDictionary
280
     1
281
     1
  3
ACAD_DIMASSOC
360
17743
  0
DICTIONARY
  5
17758
330
17757
100
AcDbDictionary
280
     1
281
     1
  3
ACAD_DIMASSOC
360
17759
  0
DICTIONARY
  5
1775B
330
1775A
100
AcDbDictionary
280
     1
281
     1
  3
ACAD_DIMASSOC
360
1775C
  0
DICTIONARY
  5
178FC
102
{ACAD_REACTORS
330
19
102
}
330
19
100
AcDbDictionary
281
     1
  0
XRECORD
  5
17900
102
{ACAD_REACTORS
330
19
102
}
330
19
100
AcDbXrecord
280
     1
300
ACD
300
2023
300

  0
DICTIONARY
  5
674
102
{ACAD_REACTORS
330
19
102
}
330
19
100
AcDbDictionary
281
     1
  0
DICTIONARY
  5
BBF
102
{ACAD_REACTORS
330
19
102
}
330
19
100
AcDbDictionary
281
     1
  3
Metric50
350
178F4
  0
FIELDLIST
  5
36B0
102
{ACAD_REACTORS
330
19
102
}
330
19
100
AcDbIdSet
 90
        2
330
36AD
330
36B1
100
AcDbFieldList
  0
DICTIONARY
  5
1A
102
{ACAD_REACTORS
330
19
102
}
330
19
100
AcDbDictionary
281
     1
  3
*A1
350
17858
  3
*A2
350
17861
  3
*A3
350
178CA
  3
*A4
350
178D3
  0
RASTERVARIABLES
  5
27B
102
{ACAD_REACTORS
330
19
102
}
330
19
100
AcDbRasterVariables
 90
        0
 70
     1
 71
     1
 72
     1
  0
DICTIONARY
  5
1E
102
{ACAD_REACTORS
330
19
102
}
330
19
100
AcDbDictionary
281
     1
  3
Layout1
350
21
  3
Model
350
20
  0
DICTIONARY
  5
263
102
{ACAD_REACTORS
330
19
102
}
330
19
100
AcDbDictionary
281
     1
  3
ByBlock
350
265
  3
ByLayer
350
264
  3
Global
350
266
  0
DICTIONARY
  5
336
102
{ACAD_REACTORS
330
19
102
}
330
19
100
AcDbDictionary
281
     1
  3
Standard
350
D59
  0
DICTIONARY
  5
1B
102
{ACAD_REACTORS
330
19
102
}
330
19
100
AcDbDictionary
281
     1
  3
Standard
350
1C
  0
DICTIONARY
  5
22
102
{ACAD_REACTORS
330
19
102
}
330
19
100
AcDbDictionary
281
     1
  0
ACDBDICTIONARYWDFLT
  5
1F
102
{ACAD_REACTORS
330
19
102
}
330
19
100
AcDbDictionary
281
     1
  3
Normal
350
1D
100
AcDbDictionaryWithDefault
340
1D
  0
DICTIONARY
  5
17964
102
{ACAD_REACTORS
330
19
102
}
330
19
100
AcDbDictionary
281
     1
  3
Coffee-Break Quality
350
17968
  3
High
350
17967
  3
Low
350
17965
  3
Lunch Quality
350
17969
  3
Medium
350
17966
  3
Overnight Quality
350
1796A
  0
DICTIONARY
  5
241
102
{ACAD_REACTORS
330
19
102
}
330
19
100
AcDbDictionary
281
     1
  3
A0
350
242
  3
A1
350
243
  3
A2
350
244
  3
A3
350
245
  3
A4
350
246
  3
A5
350
247
  3
A6
350
248
  3
A7
350
249
  3
A8
350
24A
  3
A9
350
24B
  3
B0
350
24C
  3
B1
350
24D
  3
B2
350
24E
  3
B3
350
24F
  3
B4
350
250
  3
B5
350
251
  3
B6
350
252
  3
B7
350
253
  3
B8
350
254
  3
B9
350
255
  3
C0
350
256
  3
C1
350
257
  3
C2
350
258
  3
C3
350
259
  3
C4
350
25A
  3
C5
350
25B
  3
C6
350
25C
  3
C7
350
25D
  3
C8
350
25E
  3
C9
350
25F
  3
D0
350
260
  3
D1
350
261
  3
D2
350
262
  0
DICTIONARY
  5
BC0
102
{ACAD_REACTORS
330
19
102
}
330
19
100
AcDbDictionary
281
     1
  3
Metric50
350
178F3
  0
DICTIONARY
  5
278
102
{ACAD_REACTORS
330
19
102
}
330
19
100
AcDbDictionary
281
     1
  3
Standard
350
279
  0
DICTIONARY
  5
267
102
{ACAD_REACTORS
330
19
102
}
330
19
100
AcDbDictionary
281
     1
  3
*A1
350
3666
  3
2dWireframe
350
26C
  3
3D Hidden
350
26E
  3
3dWireframe
350
26D
  3
Basic
350
26F
  3
Brighten
350
273
  3
ColorChange
350
277
  3
Conceptual
350
271
  3
Dim
350
272
  3
EdgeColorOff
350
8FE
  3
Facepattern
350
276
  3
Flat
350
268
  3
FlatWithEdges
350
269
  3
Gouraud
350
26A
  3
GouraudWithEdges
350
26B
  3
Hidden
350
8FB
  3
JitterOff
350
8FC
  3
Linepattern
350
275
  3
OverhangOff
350
8FD
  3
Realistic
350
270
  3
Shaded
350
903
  3
Shaded with edges
350
902
  3
Shades of Gray
350
8FF
  3
Sketchy
350
900
  3
Thicken
350
274
  3
Wireframe
350
8FA
  3
X-Ray
350
901
  0
XRECORD
  5
179F8
102
{ACAD_REACTORS
330
19
102
}
330
19
100
AcDbXrecord
280
     1
 90
        1
330
279
  0
DICTIONARY
  5
330
102
{ACAD_REACTORS
330
19
102
}
330
19
100
AcDbDictionary
281
     1
  3
CANNOSCALE
350
331
  3
CMLEADERSTYLE
350
D5E
  3
CTABLESTYLE
350
335
  3
CVIEWDETAILSTYLE
350
1791D
  3
CVIEWSECTIONSTYLE
350
1791E
  3
HPTRANSPARENCY
350
D52
  3
LAYEREVAL
350
1791F
  3
LAYERNOTIFY
350
17920
  0
DICTIONARY
  5
27A
102
{ACAD_REACTORS
330
19
102
}
330
19
100
AcDbDictionary
281
     1
  0
DICTIONARY
  5
17913
102
{ACAD_REACTORS
330
19
102
}
330
19
100
AcDbDictionary
281
     1
  3
ASEBlockHierarchyIndexRecord
350
17915
1001
DCO15
1040
2097809748.0
  0
DICTIONARY
  5
366B
102
{ACAD_REACTORS
330
19
102
}
330
19
100
AcDbDictionary
281
     1
  3
CLEXTENSION
350
36AB
  0
DICTIONARY
  5
E38
102
{ACAD_REACTORS
330
19
102
}
330
19
100
AcDbDictionary
281
     1
  3
DIMRAILANGLE
350
36A9
  3
DIMRAILFIRSTOFFSET
350
36A7
  3
DIMRAILOFFSET
350
36A8
  3
DIMRAILSENABLED
350
36AA
  0
DICTIONARY
  5
2E2
102
{ACAD_REACTORS
330
2E1
102
}
330
2E1
100
AcDbDictionary
281
     1
  0
DICTIONARY
  5
DDE
102
{ACAD_REACTORS
330
2E1
102
}
330
2E1
100
AcDbDictionary
281
     1
1001
ACAD
1000
<All
  0
XRECORD
  5
17903
102
{ACAD_REACTORS
330
17902
102
}
330
17902
100
AcDbXrecord
280
     1
290
     1
  0
XRECORD
  5
17905
102
{ACAD_REACTORS
330
17904
102
}
330
17904
100
AcDbXrecord
280
     1
290
     1
  0
XRECORD
  5
17907
102
{ACAD_REACTORS
330
17906
102
}
330
17906
100
AcDbXrecord
280
     1
290
     1
  0
XRECORD
  5
17909
102
{ACAD_REACTORS
330
17908
102
}
330
17908
100
AcDbXrecord
280
     1
290
     1
  0
XRECORD
  5
1790B
102
{ACAD_REACTORS
330
1790A
102
}
330
1790A
100
AcDbXrecord
280
     1
290
     1
  0
XRECORD
  5
1790D
102
{ACAD_REACTORS
330
1790C
102
}
330
1790C
100
AcDbXrecord
280
     1
290
     1
  0
XRECORD
  5
1790F
102
{ACAD_REACTORS
330
1790E
102
}
330
1790E
100
AcDbXrecord
280
     1
290
     1
  0
XRECORD
  5
17911
102
{ACAD_REACTORS
330
17910
102
}
330
17910
100
AcDbXrecord
280
     1
290
     1
  0
DICTIONARY
  5
1782E
102
{ACAD_REACTORS
330
36AE
102
}
330
36AE
100
AcDbDictionary
280
     1
281
     1
  3
TEXT
360
36AD
  0
DIMASSOC
  5
176CA
102
{ACAD_REACTORS
330
176C9
102
}
330
176C9
100
AcDbDimAssoc
330
176C8
 90
        1
 70
     0
 71
     1
  1
AcDbOsnapPointRef
 72
    13
331
1766E
 73
     0
 91
        0
 40
0.0
 10
0.0
 20
0.0
 30
0.0
 75
     0
  0
DIMASSOC
  5
176D8
102
{ACAD_REACTORS
330
176D7
102
}
330
176D7
100
AcDbDimAssoc
330
176D6
 90
        1
 70
     0
 71
     1
  1
AcDbOsnapPointRef
 72
    13
331
175F2
 73
     0
 91
        0
 40
0.0
 10
0.0
 20
0.0
 30
0.0
 75
     0
  0
DIMASSOC
  5
1771C
102
{ACAD_REACTORS
330
1771B
102
}
330
1771B
100
AcDbDimAssoc
330
1771A
 90
        3
 70
     0
 71
     1
  1
AcDbOsnapPointRef
 72
    13
331
17594
 73
     0
 91
        0
 40
0.0
 10
0.0
 20
0.0
 30
0.0
 75
     0
  1
AcDbOsnapPointRef
 72
    10
331
17590
 73
     0
 91
        0
 40
0.9075199177165
 10
0.0
 20
0.0
 30
0.0
 75
     0
  0
DIMASSOC
  5
17723
102
{ACAD_REACTORS
330
17722
102
}
330
17722
100
AcDbDimAssoc
330
17721
 90
        3
 70
     0
 71
     1
  1
AcDbOsnapPointRef
 72
     1
331
17713
 73
     0
 91
        0
 40
0.0
 10
0.0
 20
0.0
 30
0.0
 75
     0
  1
AcDbOsnapPointRef
 72
    13
331
17712
 73
     0
 91
        0
 40
0.0
 10
0.0
 20
0.0
 30
0.0
 75
     0
  0
DIMASSOC
  5
17743
102
{ACAD_REACTORS
330
17742
102
}
330
17742
100
AcDbDimAssoc
330
17741
 90
        0
 70
     0
 71
     1
  0
DIMASSOC
  5
17759
102
{ACAD_REACTORS
330
17758
102
}
330
17758
100
AcDbDimAssoc
330
17757
 90
        0
 70
     0
 71
     1
  0
DIMASSOC
  5
1775C
102
{ACAD_REACTORS
330
1775B
102
}
330
1775B
100
AcDbDimAssoc
330
1775A
 90
        3
 70
     0
 71
     1
  1
AcDbOsnapPointRef
 72
     1
331
17747
 73
     0
 91
        0
 40
0.0
 10
0.0
 20
0.0
 30
0.0
 75
     0
  1
AcDbOsnapPointRef
 72
     1
331
17578
 73
     0
 91
        0
 40
0.0
 10
0.0
 20
0.0
 30
0.0
 75
     0
  0
ACDBDETAILVIEWSTYLE
  5
178F4
102
{ACAD_REACTORS
330
BBF
102
}
330
BBF
100
AcDbModelDocViewStyle
 70
     0
  3
Metric50
290
     0
300
Metric50
 90
        0
100
AcDbDetailViewStyle
 70
     0
 71
     0
 90
        3
 71
     1
340
17
 62
   256
 40
5.0
340
0
 62
   256
 40
5.0
300

 40
0.0
280
     1
 71
     2
340
13
 90
       25
 62
   256
 71
     3
340
17
 62
   256
 40
5.0
 90
        0
 40
15.0
 90
        1
300
%<\AcVar ViewDetailId>% (%<\AcVar ViewScale \f "%sn">%)
 71
     4
340
13
 90
       25
 62
   256
340
13
 90
       25
 62
   256
280
     0
  0
GROUP
  5
17858
102
{ACAD_REACTORS
330
1A
102
}
330
1A
100
AcDbGroup
300

 70
     1
 71
     1
340
17850
340
17851
340
17852
340
17853
340
17854
340
17855
340
17856
340
17857
  0
GROUP
  5
17861
102
{ACAD_REACTORS
330
1A
102
}
330
1A
100
AcDbGroup
300

 70
     1
 71
     1
340
17859
340
1785A
340
1785B
340
1785C
340
1785D
340
1785E
340
1785F
340
17860
  0
GROUP
  5
178CA
102
{ACAD_REACTORS
330
1A
102
}
330
1A
100
AcDbGroup
300

 70
     1
 71
     1
340
178C2
340
178C3
340
178C4
340
178C5
340
178C6
340
178C7
340
178C8
340
178C9
  0
GROUP
  5
178D3
102
{ACAD_REACTORS
330
1A
102
}
330
1A
100
AcDbGroup
300

 70
     1
 71
     1
340
178CB
340
178CC
340
178CD
340
178CE
340
178CF
340
178D0
340
178D1
340
178D2
  0
LAYOUT
  5
21
102
{ACAD_REACTORS
330
1E
102
}
330
1E
100
AcDbPlotSettings
  1

  2
none_device
  4
ISO_A3_(420.00_x_297.00_MM)
  6

 40
7.5
 41
20.0
 42
7.5
 43
20.0
 44
420.0
 45
297.0
 46
0.0
 47
0.0
 48
0.0
 49
0.0
140
0.0
141
0.0
142
1.0
143
1.0
 70
     0
 72
     1
 73
     0
 74
     0
  7

 75
     0
147
1.0
 76
     0
 77
     2
 78
   300
148
0.0
149
0.0
100
AcDbLayout
  1
Layout1
 70
     0
 71
     1
 10
-7.5
 20
-20.0
 11
412.5
 21
277.0
 12
0.0
 22
0.0
 32
0.0
 14
0.0
 24
0.0
 34
0.0
 15
0.0
 25
0.0
 35
0.0
146
0.0
 13
0.0
 23
0.0
 33
0.0
 16
1.0
 26
0.0
 36
0.0
 17
0.0
 27
1.0
 37
0.0
 76
     0
330
B
331
349
  0
LAYOUT
  5
20
102
{ACAD_REACTORS
330
1E
102
}
330
1E
100
AcDbPlotSettings
  1

  2
Adobe PDF
  4
A4
  6

 40
0.0
 41
0.010498046875
 42
0.0901641845703125
 43
0.0
 44
210.0
 45
297.0
 46
0.0
 47
0.0585099356515002
 48
0.0
 49
0.0
140
210.0
141
297.0
142
1.0
143
3.001288613049789
 70
  3764
 72
     1
 73
     0
 74
     2
  7
monochrome.ctb
 75
     0
147
0.3331902155800471
 76
     0
 77
     4
 78
   300
148
0.0
149
0.0
100
AcDbLayout
  1
Model
 70
     0
 71
     0
 10
0.0
 20
0.0
 11
630.0
 21
891.0
 12
0.0
 22
0.0
 32
0.0
 14
0.0
 24
0.0
 34
0.0
 15
630.0
 25
891.0
 35
0.0
146
0.0
 13
0.0
 23
0.0
 33
0.0
 16
0.0
 26
0.0
 36
0.0
 17
0.0
 27
0.0
 37
0.0
 76
     0
330
A
331
15
1001
ACAD_PSEXT
1000
Adobe PDF
1000
Adobe PDF Converter
1000
Documents\*.pdf
1000

1070
     0
  0
MATERIAL
  5
265
102
{ACAD_REACTORS
330
263
102
}
330
263
100
AcDbMaterial
  1
ByBlock
  0
MATERIAL
  5
264
102
{ACAD_REACTORS
330
263
102
}
330
263
100
AcDbMaterial
  1
ByLayer
  0
MATERIAL
  5
266
102
{ACAD_REACTORS
330
263
102
}
330
263
100
AcDbMaterial
  1
Global
  0
MLEADERSTYLE
  5
D59
102
{ACAD_REACTORS
330
336
102
}
330
336
100
AcDbMLeaderStyle
179
     2
170
     2
171
     1
172
     0
 90
        2
 40
0.0
 41
0.0
173
     1
 91
-1056964608
340
11
 92
       -2
290
     1
 42
2.0
291
     1
 43
8.0
  3
Standard
 44
4.0
300

342
17
174
     1
178
     6
175
     1
176
     0
 93
-1056964608
 45
4.0
292
     0
297
     0
 46
4.0
 94
-1056964608
 47
1.0
 49
1.0
140
1.0
293
     1
141
0.0
294
     1
177
     0
142
1.0
295
     0
296
     0
143
3.75
271
     0
272
     9
273
     9
298
     0
1001
ACAD_MLEADERVER
1070
     2
  0
MLINESTYLE
  5
1C
102
{ACAD_REACTORS
330
1B
102
}
330
1B
100
AcDbMlineStyle
  2
STANDARD
 70
     0
  3

 62
     0
 51
90.0
 52
90.0
 71
     2
 49
0.5
 62
   256
  6
BYLAYER
 49
-0.5
 62
   256
  6
BYLAYER
  0
ACDBPLACEHOLDER
  5
1D
102
{ACAD_REACTORS
330
1F
102
}
330
1F
  0
RAPIDRTRENDERSETTINGS
  5
17968
102
{ACAD_REACTORS
330
17964
102
}
330
17964
100
AcDbRenderSettings
 90
        2
  1
Coffee-Break Quality
290
     1
290
     0
290
     1
290
     1
  1

  1
Renders for 10 minutes
 90
        3
100
AcDbRapidRTRenderSettings
 90
        3
 70
     1
 90
        1
 90
       10
 70
     1
 70
     2
 40
3.0
 40
3.0
290
     1
  0
RAPIDRTRENDERSETTINGS
  5
17967
102
{ACAD_REACTORS
330
17964
102
}
330
17964
100
AcDbRenderSettings
 90
        2
  1
High
290
     1
290
     0
290
     1
290
     1
  1

  1
Applies 10 rendering levels
 90
        2
100
AcDbRapidRTRenderSettings
 90
        3
 70
     0
 90
       10
 90
        1
 70
     2
 70
     2
 40
3.0
 40
3.0
290
     1
  0
RAPIDRTRENDERSETTINGS
  5
17965
102
{ACAD_REACTORS
330
17964
102
}
330
17964
100
AcDbRenderSettings
 90
        2
  1
Low
290
     1
290
     0
290
     1
290
     1
  1

  1
Applies 1 rendering level
 90
        0
100
AcDbRapidRTRenderSettings
 90
        3
 70
     0
 90
        1
 90
        1
 70
     0
 70
     2
 40
3.0
 40
3.0
290
     1
  0
RAPIDRTRENDERSETTINGS
  5
17969
102
{ACAD_REACTORS
330
17964
102
}
330
17964
100
AcDbRenderSettings
 90
        2
  1
Lunch Quality
290
     1
290
     0
290
     1
290
     1
  1

  1
Renders for 60 minutes
 90
        4
100
AcDbRapidRTRenderSettings
 90
        3
 70
     1
 90
        1
 90
       60
 70
     2
 70
     2
 40
3.0
 40
3.0
290
     1
  0
RAPIDRTRENDERSETTINGS
  5
17966
102
{ACAD_REACTORS
330
17964
102
}
330
17964
100
AcDbRenderSettings
 90
        2
  1
Medium
290
     1
290
     0
290
     1
290
     1
  1

  1
Applies 5 rendering levels
 90
        1
100
AcDbRapidRTRenderSettings
 90
        3
 70
     0
 90
        5
 90
        1
 70
     1
 70
     2
 40
3.0
 40
3.0
290
     1
  0
RAPIDRTRENDERSETTINGS
  5
1796A
102
{ACAD_REACTORS
330
17964
102
}
330
17964
100
AcDbRenderSettings
 90
        2
  1
Overnight Quality
290
     1
290
     0
290
     1
290
     1
  1

  1
Renders for 12 hours
 90
        5
100
AcDbRapidRTRenderSettings
 90
        3
 70
     1
 90
        1
 90
      720
 70
     2
 70
     2
 40
3.0
 40
3.0
290
     1
  0
SCALE
  5
242
102
{ACAD_REACTORS
330
241
102
}
330
241
100
AcDbScale
 70
     0
300
1:1
140
1.0
141
1.0
290
     1
  0
SCALE
  5
243
102
{ACAD_REACTORS
330
241
102
}
330
241
100
AcDbScale
 70
     0
300
1:2
140
1.0
141
2.0
290
     0
  0
SCALE
  5
244
102
{ACAD_REACTORS
330
241
102
}
330
241
100
AcDbScale
 70
     0
300
1:4
140
1.0
141
4.0
290
     0
  0
SCALE
  5
245
102
{ACAD_REACTORS
330
241
102
}
330
241
100
AcDbScale
 70
     0
300
1:5
140
1.0
141
5.0
290
     0
  0
SCALE
  5
246
102
{ACAD_REACTORS
330
241
102
}
330
241
100
AcDbScale
 70
     0
300
1:8
140
1.0
141
8.0
290
     0
  0
SCALE
  5
247
102
{ACAD_REACTORS
330
241
102
}
330
241
100
AcDbScale
 70
     0
300
1:10
140
1.0
141
10.0
290
     0
  0
SCALE
  5
248
102
{ACAD_REACTORS
330
241
102
}
330
241
100
AcDbScale
 70
     0
300
1:16
140
1.0
141
16.0
290
     0
  0
SCALE
  5
249
102
{ACAD_REACTORS
330
241
102
}
330
241
100
AcDbScale
 70
     0
300
1:20
140
1.0
141
20.0
290
     0
  0
SCALE
  5
24A
102
{ACAD_REACTORS
330
241
102
}
330
241
100
AcDbScale
 70
     0
300
1:30
140
1.0
141
30.0
290
     0
  0
SCALE
  5
24B
102
{ACAD_REACTORS
330
241
102
}
330
241
100
AcDbScale
 70
     0
300
1:40
140
1.0
141
40.0
290
     0
  0
SCALE
  5
24C
102
{ACAD_REACTORS
330
241
102
}
330
241
100
AcDbScale
 70
     0
300
1:50
140
1.0
141
50.0
290
     0
  0
SCALE
  5
24D
102
{ACAD_REACTORS
330
241
102
}
330
241
100
AcDbScale
 70
     0
300
1:100
140
1.0
141
100.0
290
     0
  0
SCALE
  5
24E
102
{ACAD_REACTORS
330
241
102
}
330
241
100
AcDbScale
 70
     0
300
2:1
140
2.0
141
1.0
290
     0
  0
SCALE
  5
24F
102
{ACAD_REACTORS
330
241
102
}
330
241
100
AcDbScale
 70
     0
300
4:1
140
4.0
141
1.0
290
     0
  0
SCALE
  5
250
102
{ACAD_REACTORS
330
241
102
}
330
241
100
AcDbScale
 70
     0
300
8:1
140
8.0
141
1.0
290
     0
  0
SCALE
  5
251
102
{ACAD_REACTORS
330
241
102
}
330
241
100
AcDbScale
 70
     0
300
10:1
140
10.0
141
1.0
290
     0
  0
SCALE
  5
252
102
{ACAD_REACTORS
330
241
102
}
330
241
100
AcDbScale
 70
     0
300
100:1
140
100.0
141
1.0
290
     0
  0
SCALE
  5
253
102
{ACAD_REACTORS
330
241
102
}
330
241
100
AcDbScale
 70
     0
300
1/128" = 1'-0"
140
0.0078125
141
12.0
290
     0
  0
SCALE
  5
254
102
{ACAD_REACTORS
330
241
102
}
330
241
100
AcDbScale
 70
     0
300
1/64" = 1'-0"
140
0.015625
141
12.0
290
     0
  0
SCALE
  5
255
102
{ACAD_REACTORS
330
241
102
}
330
241
100
AcDbScale
 70
     0
300
1/32" = 1'-0"
140
0.03125
141
12.0
290
     0
  0
SCALE
  5
256
102
{ACAD_REACTORS
330
241
102
}
330
241
100
AcDbScale
 70
     0
300
1/16" = 1'-0"
140
0.0625
141
12.0
290
     0
  0
SCALE
  5
257
102
{ACAD_REACTORS
330
241
102
}
330
241
100
AcDbScale
 70
     0
300
3/32" = 1'-0"
140
0.09375
141
12.0
290
     0
  0
SCALE
  5
258
102
{ACAD_REACTORS
330
241
102
}
330
241
100
AcDbScale
 70
     0
300
1/8" = 1'-0"
140
0.125
141
12.0
290
     0
  0
SCALE
  5
259
102
{ACAD_REACTORS
330
241
102
}
330
241
100
AcDbScale
 70
     0
300
3/16" = 1'-0"
140
0.1875
141
12.0
290
     0
  0
SCALE
  5
25A
102
{ACAD_REACTORS
330
241
102
}
330
241
100
AcDbScale
 70
     0
300
1/4" = 1'-0"
140
0.25
141
12.0
290
     0
  0
SCALE
  5
25B
102
{ACAD_REACTORS
330
241
102
}
330
241
100
AcDbScale
 70
     0
300
3/8" = 1'-0"
140
0.375
141
12.0
290
     0
  0
SCALE
  5
25C
102
{ACAD_REACTORS
330
241
102
}
330
241
100
AcDbScale
 70
     0
300
1/2" = 1'-0"
140
0.5
141
12.0
290
     0
  0
SCALE
  5
25D
102
{ACAD_REACTORS
330
241
102
}
330
241
100
AcDbScale
 70
     0
300
3/4" = 1'-0"
140
0.75
141
12.0
290
     0
  0
SCALE
  5
25E
102
{ACAD_REACTORS
330
241
102
}
330
241
100
AcDbScale
 70
     0
300
1" = 1'-0"
140
1.0
141
12.0
290
     0
  0
SCALE
  5
25F
102
{ACAD_REACTORS
330
241
102
}
330
241
100
AcDbScale
 70
     0
300
1-1/2" = 1'-0"
140
1.5
141
12.0
290
     0
  0
SCALE
  5
260
102
{ACAD_REACTORS
330
241
102
}
330
241
100
AcDbScale
 70
     0
300
3" = 1'-0"
140
3.0
141
12.0
290
     0
  0
SCALE
  5
261
102
{ACAD_REACTORS
330
241
102
}
330
241
100
AcDbScale
 70
     0
300
6" = 1'-0"
140
6.0
141
12.0
290
     0
  0
SCALE
  5
262
102
{ACAD_REACTORS
330
241
102
}
330
241
100
AcDbScale
 70
     0
300
1'-0" = 1'-0"
140
12.0
141
12.0
290
     0
  0
ACDBSECTIONVIEWSTYLE
  5
178F3
102
{ACAD_REACTORS
330
BC0
102
}
330
BC0
100
AcDbModelDocViewStyle
 70
     0
  3
Metric50
290
     0
300
Metric50
 90
        0
100
AcDbSectionViewStyle
 70
     0
 71
     0
 90
      102
 71
     1
340
17
 62
   256
 40
5.0
340
0
340
0
 62
   256
 40
5.0
300
I, O, Q, S, X, Z
 40
10.0
 90
        0
 40
2.5
 90
        0
 71
     2
340
13
 90
       25
 62
   256
340
13
 90
       50
 62
   256
 40
5.0
 40
2.5
 40
5.0
 71
     3
340
17
 62
   256
 40
5.0
 90
        0
 40
15.0
 90
        1
300
%<\AcVar ViewSectionStartId>%-%<\AcVar ViewSectionEndId>% (%<\AcVar ViewScale \f "%sn">%)
 71
     4
 62
   256
 62
   257
300
ANSI31
 40
1.0
 90
        0
290
     0
290
     0
 90
        6
 40
0.0
 40
1.570796326794896
 40
0.2617993877991494
 40
1.308996938995747
 40
-0.2617993877991494
 40
1.832595714594045
  0
TABLESTYLE
  5
279
102
{ACAD_XDICTIONARY
360
178EB
102
}
102
{ACAD_REACTORS
330
278
102
}
330
278
100
AcDbTableStyle
280
     0
  3
Standard
 70
     0
 71
     0
 40
0.06
 41
0.06
280
     0
281
     0
  7
Standard
140
4.5
170
     2
 62
     0
 63
     7
283
     0
 90
        4
 91
        0
  1

274
    -2
284
     1
 64
     0
275
    -2
285
     1
 65
     0
276
    -2
286
     1
 66
     0
277
    -2
287
     1
 67
     0
278
    -2
288
     1
 68
     0
279
    -2
289
     1
 69
     0
  7
Standard
140
6.0
170
     5
 62
     0
 63
     7
283
     0
 90
        4
 91
        0
  1

274
    -2
284
     1
 64
     0
275
    -2
285
     1
 65
     0
276
    -2
286
     1
 66
     0
277
    -2
287
     1
 67
     0
278
    -2
288
     1
 68
     0
279
    -2
289
     1
 69
     0
  7
Standard
140
4.5
170
     5
 62
     0
 63
     7
283
     0
 90
        4
 91
        0
  1

274
    -2
284
     1
 64
     0
275
    -2
285
     1
 65
     0
276
    -2
286
     1
 66
     0
277
    -2
287
     1
 67
     0
278
    -2
288
     1
 68
     0
279
    -2
289
     1
 69
     0
  0
VISUALSTYLE
  5
3666
102
{ACAD_REACTORS
330
267
102
}
330
267
100
AcDbVisualStyle
  2

 70
    10
177
     3
291
     0
 70
    58
 90
        0
176
     1
 90
        2
176
     1
 90
        0
176
     1
 90
        0
176
     1
 40
0.6
176
     1
 40
30.0
176
     1
 62
     7
420
 16777215
176
     1
 90
        1
176
     1
 90
        4
176
     1
 62
     7
176
     1
 62
   257
176
     1
 90
        1
176
     1
 90
        1
176
     1
 40
1.0
176
     1
 90
        8
176
     1
 62
     7
176
     1
 40
1.0
176
     1
 90
        1
176
     1
 90
        6
176
     1
 90
        2
176
     1
 62
     7
176
     1
 90
        5
176
     1
 90
        0
176
     1
 90
        0
176
     1
290
     0
176
     1
 90
        1
176
     1
 40
0.0
176
     1
 90
        0
176
     1
290
     0
176
     1
290
     1
176
     1
290
     1
176
     1
290
     0
176
     1
290
     0
176
     1
290
     0
176
     1
290
     0
176
     1
290
     0
176
     1
290
     0
176
     1
 90
       50
176
     1
 40
0.0
176
     1
 40
1.0
176
     1
 90
        0
176
     1
 62
    18
176
     1
 90
       50
176
     1
 90
        3
176
     1
 62
     5
420
      255
176
     1
290
     0
176
     1
 90
       50
176
     1
 90
       50
176
     1
 90
       50
176
     1
290
     0
176
     1
 90
       50
176
     1
 62
   256
176
     0
 40
1.0
176
     0
 90
        2
176
     1
  1
strokes_ogs.tif
176
     1
290
     0
176
     1
 40
1.0
176
     1
 40
1.0
176
     1
  0
VISUALSTYLE
  5
26C
102
{ACAD_REACTORS
330
267
102
}
330
267
100
AcDbVisualStyle
  2

 70
     4
177
     3
291
     0
 70
    58
 90
        0
176
     1
 90
        2
176
     1
 90
        0
176
     1
 90
        0
176
     1
 40
0.6
176
     1
 40
30.0
176
     1
 62
     7
420
 16777215
176
     1
 90
        1
176
     1
 90
        4
176
     1
 62
     7
176
     1
 62
   257
176
     1
 90
        1
176
     1
 90
        1
176
     1
 40
1.0
176
     1
 90
        0
176
     1
 62
   257
176
     1
 40
1.0
176
     1
 90
        1
176
     1
 90
        6
176
     1
 90
        2
176
     1
 62
     7
176
     1
 90
        5
176
     1
 90
        0
176
     1
 90
        0
176
     1
290
     0
176
     1
 90
        1
176
     1
 40
0.0
176
     1
 90
        0
176
     1
290
     1
176
     1
290
     1
176
     1
290
     0
176
     1
290
     0
176
     1
290
     0
176
     1
290
     0
176
     1
290
     0
176
     1
290
     0
176
     1
290
     0
176
     1
 90
       50
176
     1
 40
0.0
176
     1
 40
1.0
176
     1
 90
        0
176
     1
 62
    18
176
     1
 90
       50
176
     1
 90
        3
176
     1
 62
     5
420
      255
176
     1
290
     0
176
     1
 90
       50
176
     1
 90
       50
176
     1
 90
       50
176
     1
290
     0
176
     1
 90
       50
176
     1
 62
   256
176
     0
 40
1.0
176
     0
 90
        2
176
     1
  1
strokes_ogs.tif
176
     1
290
     0
176
     1
 40
1.0
176
     1
 40
1.0
176
     1
  0
VISUALSTYLE
  5
26E
102
{ACAD_REACTORS
330
267
102
}
330
267
100
AcDbVisualStyle
  2

 70
     6
177
     3
291
     0
 70
    58
 90
        1
176
     1
 90
        2
176
     1
 90
        2
176
     1
 90
        0
176
     1
 40
0.6
176
     1
 40
30.0
176
     1
 62
     7
420
 16777215
176
     1
 90
        2
176
     1
 90
        2
176
     1
 62
     7
176
     1
 62
   257
176
     1
 90
        2
176
     1
 90
        1
176
     1
 40
40.0
176
     1
 90
        0
176
     1
 62
   257
176
     1
 40
1.0
176
     1
 90
        1
176
     1
 90
        6
176
     1
 90
        2
176
     1
 62
     7
176
     1
 90
        3
176
     1
 90
        0
176
     1
 90
        0
176
     1
290
     0
176
     1
 90
        1
176
     1
 40
0.0
176
     1
 90
        0
176
     1
290
     0
176
     1
290
     1
176
     1
290
     1
176
     1
290
     0
176
     1
290
     0
176
     1
290
     0
176
     1
290
     0
176
     1
290
     0
176
     1
290
     0
176
     1
 90
       50
176
     1
 40
0.0
176
     1
 40
1.0
176
     1
 90
        0
176
     1
 62
    18
176
     1
 90
       50
176
     1
 90
        3
176
     1
 62
     5
420
      255
176
     1
290
     0
176
     1
 90
       50
176
     1
 90
       50
176
     1
 90
       50
176
     1
290
     0
176
     1
 90
       50
176
     1
 62
   256
176
     0
 40
1.0
176
     0
 90
        2
176
     1
  1
strokes_ogs.tif
176
     1
290
     0
176
     1
 40
1.0
176
     1
 40
1.0
176
     1
  0
VISUALSTYLE
  5
26D
102
{ACAD_REACTORS
330
267
102
}
330
267
100
AcDbVisualStyle
  2

 70
     5
177
     3
291
     0
 70
    58
 90
        0
176
     1
 90
        2
176
     1
 90
        0
176
     1
 90
        0
176
     1
 40
0.6
176
     1
 40
30.0
176
     1
 62
     7
420
 16777215
176
     1
 90
        1
176
     1
 90
        4
176
     1
 62
     7
176
     1
 62
   257
176
     1
 90
        1
176
     1
 90
        1
176
     1
 40
1.0
176
     1
 90
        0
176
     1
 62
   257
176
     1
 40
1.0
176
     1
 90
        1
176
     1
 90
        6
176
     1
 90
        2
176
     1
 62
     7
176
     1
 90
        5
176
     1
 90
        0
176
     1
 90
        0
176
     1
290
     0
176
     1
 90
        1
176
     1
 40
0.0
176
     1
 90
        0
176
     1
290
     0
176
     1
290
     1
176
     1
290
     1
176
     1
290
     0
176
     1
290
     0
176
     1
290
     0
176
     1
290
     0
176
     1
290
     0
176
     1
290
     0
176
     1
 90
       50
176
     1
 40
0.0
176
     1
 40
1.0
176
     1
 90
        0
176
     1
 62
    18
176
     1
 90
       50
176
     1
 90
        3
176
     1
 62
     5
420
      255
176
     1
290
     0
176
     1
 90
       50
176
     1
 90
       50
176
     1
 90
       50
176
     1
290
     0
176
     1
 90
       50
176
     1
 62
   256
176
     0
 40
1.0
176
     0
 90
        2
176
     1
  1
strokes_ogs.tif
176
     1
290
     0
176
     1
 40
1.0
176
     1
 40
1.0
176
     1
  0
VISUALSTYLE
  5
26F
102
{ACAD_REACTORS
330
267
102
}
330
267
100
AcDbVisualStyle
  2

 70
     7
177
     3
291
     1
 70
    58
 90
        1
176
     1
 90
        0
176
     1
 90
        1
176
     1
 90
        0
176
     1
 40
0.6
176
     1
 40
30.0
176
     1
 62
     7
420
 16777215
176
     1
 90
        0
176
     1
 90
        4
176
     1
 62
     7
176
     1
 62
   257
176
     1
 90
        1
176
     1
 90
        1
176
     1
 40
1.0
176
     1
 90
        8
176
     1
 62
     7
176
     1
 40
1.0
176
     1
 90
        1
176
     1
 90
        6
176
     1
 90
        2
176
     1
 62
     7
176
     1
 90
        5
176
     1
 90
        0
176
     1
 90
        0
176
     1
290
     0
176
     1
 90
        1
176
     1
 40
0.0
176
     1
 90
        0
176
     1
290
     0
176
     1
290
     1
176
     1
290
     1
176
     1
290
     0
176
     1
290
     0
176
     1
290
     0
176
     1
290
     0
176
     1
290
     0
176
     1
290
     0
176
     1
 90
       50
176
     1
 40
0.0
176
     1
 40
1.0
176
     1
 90
        0
176
     1
 62
    18
176
     1
 90
       50
176
     1
 90
        3
176
     1
 62
     5
420
      255
176
     1
290
     0
176
     1
 90
       50
176
     1
 90
       50
176
     1
 90
       50
176
     1
290
     0
176
     1
 90
       50
176
     1
 62
   256
176
     0
 40
1.0
176
     0
 90
        2
176
     1
  1
strokes_ogs.tif
176
     1
290
     0
176
     1
 40
1.0
176
     1
 40
1.0
176
     1
  0
VISUALSTYLE
  5
273
102
{ACAD_REACTORS
330
267
102
}
330
267
100
AcDbVisualStyle
  2

 70
    12
177
     3
291
     1
 70
    58
 90
        2
176
     1
 90
        2
176
     1
 90
        0
176
     1
 90
        0
176
     1
 40
0.6
176
     1
 40
30.0
176
     1
 62
     7
420
 16777215
176
     1
 90
        1
176
     1
 90
        4
176
     1
 62
     7
176
     1
 62
   257
176
     1
 90
        1
176
     1
 90
        1
176
     1
 40
1.0
176
     1
 90
        8
176
     1
 62
     7
176
     1
 40
1.0
176
     1
 90
        1
176
     1
 90
        6
176
     1
 90
        2
176
     1
 62
     7
176
     1
 90
        5
176
     1
 90
        0
176
     1
 90
        0
176
     1
290
     0
176
     1
 90
        1
176
     1
 40
50.0
176
     1
 90
        0
176
     1
290
     0
176
     1
290
     1
176
     1
290
     1
176
     1
290
     0
176
     1
290
     0
176
     1
290
     0
176
     1
290
     0
176
     1
290
     0
176
     1
290
     0
176
     1
 90
       50
176
     1
 40
0.0
176
     1
 40
1.0
176
     1
 90
        0
176
     1
 62
    18
176
     1
 90
       50
176
     1
 90
        3
176
     1
 62
     5
420
      255
176
     1
290
     0
176
     1
 90
       50
176
     1
 90
       50
176
     1
 90
       50
176
     1
290
     0
176
     1
 90
       50
176
     1
 62
   256
176
     0
 40
1.0
176
     0
 90
        2
176
     1
  1
strokes_ogs.tif
176
     1
290
     0
176
     1
 40
1.0
176
     1
 40
1.0
176
     1
  0
VISUALSTYLE
  5
277
102
{ACAD_REACTORS
330
267
102
}
330
267
100
AcDbVisualStyle
  2

 70
    16
177
     3
291
     1
 70
    58
 90
        2
176
     1
 90
        2
176
     1
 90
        3
176
     1
 90
        0
176
     1
 40
0.6
176
     1
 40
30.0
176
     1
 62
     8
420
  8421504
176
     1
 90
        1
176
     1
 90
        4
176
     1
 62
     7
176
     1
 62
   257
176
     1
 90
        1
176
     1
 90
        1
176
     1
 40
1.0
176
     1
 90
        8
176
     1
 62
     8
420
  8421504
176
     1
 40
1.0
176
     1
 90
        1
176
     1
 90
        6
176
     1
 90
        2
176
     1
 62
     7
176
     1
 90
        5
176
     1
 90
        0
176
     1
 90
        0
176
     1
290
     0
176
     1
 90
        1
176
     1
 40
0.0
176
     1
 90
        0
176
     1
290
     0
176
     1
290
     1
176
     1
290
     1
176
     1
290
     0
176
     1
290
     0
176
     1
290
     0
176
     1
290
     0
176
     1
290
     0
176
     1
290
     0
176
     1
 90
       50
176
     1
 40
0.0
176
     1
 40
1.0
176
     1
 90
        0
176
     1
 62
    18
176
     1
 90
       50
176
     1
 90
        3
176
     1
 62
     5
420
      255
176
     1
290
     0
176
     1
 90
       50
176
     1
 90
       50
176
     1
 90
       50
176
     1
290
     0
176
     1
 90
       50
176
     1
 62
   256
176
     0
 40
1.0
176
     0
 90
        2
176
     1
  1
strokes_ogs.tif
176
     1
290
     0
176
     1
 40
1.0
176
     1
 40
1.0
176
     1
  0
VISUALSTYLE
  5
271
102
{ACAD_REACTORS
330
267
102
}
330
267
100
AcDbVisualStyle
  2

 70
     9
177
     3
291
     0
 70
    58
 90
        3
176
     1
 90
        2
176
     1
 90
        0
176
     1
 90
        0
176
     1
 40
0.6
176
     1
 40
30.0
176
     1
 62
     7
420
 16777215
176
     1
 90
        2
176
     1
 90
        2
176
     1
 62
     7
176
     1
 62
   257
176
     1
 90
        1
176
     1
 90
        1
176
     1
 40
40.0
176
     1
 90
        8
176
     1
 62
     7
176
     1
 40
1.0
176
     1
 90
        1
176
     1
 90
        6
176
     1
 90
        2
176
     1
 62
     7
176
     1
 90
        3
176
     1
 90
        0
176
     1
 90
        0
176
     1
290
     0
176
     1
 90
        1
176
     1
 40
0.0
176
     1
 90
        0
176
     1
290
     0
176
     1
290
     1
176
     1
290
     1
176
     1
290
     0
176
     1
290
     0
176
     1
290
     0
176
     1
290
     0
176
     1
290
     0
176
     1
290
     0
176
     1
 90
       50
176
     1
 40
0.0
176
     1
 40
1.0
176
     1
 90
        0
176
     1
 62
    18
176
     1
 90
       50
176
     1
 90
        3
176
     1
 62
     5
420
      255
176
     1
290
     0
176
     1
 90
       50
176
     1
 90
       50
176
     1
 90
       50
176
     1
290
     0
176
     1
 90
       50
176
     1
 62
   256
176
     0
 40
1.0
176
     0
 90
        2
176
     1
  1
strokes_ogs.tif
176
     1
290
     0
176
     1
 40
1.0
176
     1
 40
1.0
176
     1
  0
VISUALSTYLE
  5
272
102
{ACAD_REACTORS
330
267
102
}
330
267
100
AcDbVisualStyle
  2

 70
    11
177
     3
291
     1
 70
    58
 90
        2
176
     1
 90
        2
176
     1
 90
        0
176
     1
 90
        0
176
     1
 40
0.6
176
     1
 40
30.0
176
     1
 62
     7
420
 16777215
176
     1
 90
        1
176
     1
 90
        4
176
     1
 62
     7
176
     1
 62
   257
176
     1
 90
        1
176
     1
 90
        1
176
     1
 40
1.0
176
     1
 90
        8
176
     1
 62
     7
176
     1
 40
1.0
176
     1
 90
        1
176
     1
 90
        6
176
     1
 90
        2
176
     1
 62
     7
176
     1
 90
        5
176
     1
 90
        0
176
     1
 90
        0
176
     1
290
     0
176
     1
 90
        1
176
     1
 40
-50.0
176
     1
 90
        0
176
     1
290
     0
176
     1
290
     1
176
     1
290
     1
176
     1
290
     0
176
     1
290
     0
176
     1
290
     0
176
     1
290
     0
176
     1
290
     0
176
     1
290
     0
176
     1
 90
       50
176
     1
 40
0.0
176
     1
 40
1.0
176
     1
 90
        0
176
     1
 62
    18
176
     1
 90
       50
176
     1
 90
        3
176
     1
 62
     5
420
      255
176
     1
290
     0
176
     1
 90
       50
176
     1
 90
       50
176
     1
 90
       50
176
     1
290
     0
176
     1
 90
       50
176
     1
 62
   256
176
     0
 40
1.0
176
     0
 90
        2
176
     1
  1
strokes_ogs.tif
176
     1
290
     0
176
     1
 40
1.0
176
     1
 40
1.0
176
     1
  0
VISUALSTYLE
  5
8FE
102
{ACAD_REACTORS
330
267
102
}
330
267
100
AcDbVisualStyle
  2

 70
    22
177
     3
291
     1
 70
    58
 90
        2
176
     1
 90
        2
176
     1
 90
        0
176
     1
 90
        0
176
     1
 40
0.6
176
     1
 40
30.0
176
     1
 62
     7
420
 16777215
176
     1
 90
        1
176
     1
 90
        4
176
     1
 62
     7
176
     1
 62
   257
176
     1
 90
        1
176
     1
 90
        1
176
     1
 40
1.0
176
     1
 90
        8
176
     1
 62
     7
176
     1
 40
1.0
176
     1
 90
        1
176
     1
 90
        6
176
     1
 90
        2
176
     1
 62
     7
176
     1
 90
        5
176
     1
 90
        0
176
     1
 90
        0
176
     1
290
     0
176
     1
 90
        1
176
     1
 40
0.0
176
     1
 90
        0
176
     1
290
     0
176
     1
290
     1
176
     1
290
     1
176
     1
290
     0
176
     1
290
     0
176
     1
290
     0
176
     1
290
     0
176
     1
290
     0
176
     1
290
     0
176
     1
 90
       50
176
     1
 40
0.0
176
     1
 40
1.0
176
     1
 90
        0
176
     1
 62
    18
176
     1
 90
       50
176
     1
 90
        3
176
     1
 62
     5
420
      255
176
     1
290
     0
176
     1
 90
       50
176
     1
 90
       50
176
     1
 90
       50
176
     1
290
     0
176
     1
 90
       50
176
     1
 62
   256
176
     0
 40
1.0
176
     0
 90
        2
176
     1
  1
strokes_ogs.tif
176
     1
290
     0
176
     1
 40
1.0
176
     1
 40
1.0
176
     1
  0
VISUALSTYLE
  5
276
102
{ACAD_REACTORS
330
267
102
}
330
267
100
AcDbVisualStyle
  2

 70
    15
177
     3
291
     1
 70
    58
 90
        2
176
     1
 90
        2
176
     1
 90
        0
176
     1
 90
        0
176
     1
 40
0.6
176
     1
 40
30.0
176
     1
 62
     7
420
 16777215
176
     1
 90
        1
176
     1
 90
        4
176
     1
 62
     7
176
     1
 62
   257
176
     1
 90
        1
176
     1
 90
        1
176
     1
 40
1.0
176
     1
 90
        8
176
     1
 62
     7
176
     1
 40
1.0
176
     1
 90
        1
176
     1
 90
        6
176
     1
 90
        2
176
     1
 62
     7
176
     1
 90
        5
176
     1
 90
        0
176
     1
 90
        0
176
     1
290
     0
176
     1
 90
        1
176
     1
 40
0.0
176
     1
 90
        0
176
     1
290
     0
176
     1
290
     1
176
     1
290
     1
176
     1
290
     0
176
     1
290
     0
176
     1
290
     0
176
     1
290
     0
176
     1
290
     0
176
     1
290
     0
176
     1
 90
       50
176
     1
 40
0.0
176
     1
 40
1.0
176
     1
 90
        0
176
     1
 62
    18
176
     1
 90
       50
176
     1
 90
        3
176
     1
 62
     5
420
      255
176
     1
290
     0
176
     1
 90
       50
176
     1
 90
       50
176
     1
 90
       50
176
     1
290
     0
176
     1
 90
       50
176
     1
 62
   256
176
     0
 40
1.0
176
     0
 90
        2
176
     1
  1
strokes_ogs.tif
176
     1
290
     0
176
     1
 40
1.0
176
     1
 40
1.0
176
     1
  0
VISUALSTYLE
  5
268
102
{ACAD_REACTORS
330
267
102
}
330
267
100
AcDbVisualStyle
  2

 70
     0
177
     3
291
     1
 70
    58
 90
        2
176
     1
 90
        1
176
     1
 90
        1
176
     1
 90
        2
176
     1
 40
0.6
176
     1
 40
30.0
176
     1
 62
     7
420
 16777215
176
     1
 90
        0
176
     1
 90
        4
176
     1
 62
     7
176
     1
 62
   257
176
     1
 90
        1
176
     1
 90
        1
176
     1
 40
1.0
176
     1
 90
        8
176
     1
 62
     7
176
     1
 40
1.0
176
     1
 90
        1
176
     1
 90
        6
176
     1
 90
        2
176
     1
 62
     7
176
     1
 90
        5
176
     1
 90
        0
176
     1
 90
        0
176
     1
290
     0
176
     1
 90
       13
176
     1
 40
0.0
176
     1
 90
        0
176
     1
290
     0
176
     1
290
     1
176
     1
290
     1
176
     1
290
     0
176
     1
290
     0
176
     1
290
     0
176
     1
290
     0
176
     1
290
     0
176
     1
290
     0
176
     1
 90
       50
176
     1
 40
0.0
176
     1
 40
1.0
176
     1
 90
        0
176
     1
 62
    18
176
     1
 90
       50
176
     1
 90
        3
176
     1
 62
     5
420
      255
176
     1
290
     0
176
     1
 90
       50
176
     1
 90
       50
176
     1
 90
       50
176
     1
290
     0
176
     1
 90
       50
176
     1
 62
   256
176
     0
 40
1.0
176
     0
 90
        2
176
     1
  1
strokes_ogs.tif
176
     1
290
     0
176
     1
 40
1.0
176
     1
 40
1.0
176
     1
  0
VISUALSTYLE
  5
269
102
{ACAD_REACTORS
330
267
102
}
330
267
100
AcDbVisualStyle
  2

 70
     1
177
     3
291
     1
 70
    58
 90
        2
176
     1
 90
        1
176
     1
 90
        1
176
     1
 90
        2
176
     1
 40
0.6
176
     1
 40
30.0
176
     1
 62
     7
420
 16777215
176
     1
 90
        1
176
     1
 90
        4
176
     1
 62
     7
176
     1
 62
   257
176
     1
 90
        1
176
     1
 90
        1
176
     1
 40
1.0
176
     1
 90
        0
176
     1
 62
   257
176
     1
 40
1.0
176
     1
 90
        1
176
     1
 90
        6
176
     1
 90
        2
176
     1
 62
     7
176
     1
 90
        5
176
     1
 90
        0
176
     1
 90
        0
176
     1
290
     0
176
     1
 90
       13
176
     1
 40
0.0
176
     1
 90
        0
176
     1
290
     0
176
     1
290
     1
176
     1
290
     1
176
     1
290
     0
176
     1
290
     0
176
     1
290
     0
176
     1
290
     0
176
     1
290
     0
176
     1
290
     0
176
     1
 90
       50
176
     1
 40
0.0
176
     1
 40
1.0
176
     1
 90
        0
176
     1
 62
    18
176
     1
 90
       50
176
     1
 90
        3
176
     1
 62
     5
420
      255
176
     1
290
     0
176
     1
 90
       50
176
     1
 90
       50
176
     1
 90
       50
176
     1
290
     0
176
     1
 90
       50
176
     1
 62
   256
176
     0
 40
1.0
176
     0
 90
        2
176
     1
  1
strokes_ogs.tif
176
     1
290
     0
176
     1
 40
1.0
176
     1
 40
1.0
176
     1
  0
VISUALSTYLE
  5
26A
102
{ACAD_REACTORS
330
267
102
}
330
267
100
AcDbVisualStyle
  2

 70
     2
177
     3
291
     1
 70
    58
 90
        2
176
     1
 90
        2
176
     1
 90
        1
176
     1
 90
        2
176
     1
 40
0.6
176
     1
 40
30.0
176
     1
 62
     7
420
 16777215
176
     1
 90
        0
176
     1
 90
        4
176
     1
 62
     7
176
     1
 62
   257
176
     1
 90
        1
176
     1
 90
        1
176
     1
 40
1.0
176
     1
 90
        0
176
     1
 62
     7
176
     1
 40
1.0
176
     1
 90
        1
176
     1
 90
        6
176
     1
 90
        2
176
     1
 62
     7
176
     1
 90
        5
176
     1
 90
        0
176
     1
 90
        0
176
     1
290
     0
176
     1
 90
       13
176
     1
 40
0.0
176
     1
 90
        0
176
     1
290
     0
176
     1
290
     1
176
     1
290
     1
176
     1
290
     0
176
     1
290
     0
176
     1
290
     0
176
     1
290
     0
176
     1
290
     0
176
     1
290
     0
176
     1
 90
       50
176
     1
 40
0.0
176
     1
 40
1.0
176
     1
 90
        0
176
     1
 62
    18
176
     1
 90
       50
176
     1
 90
        3
176
     1
 62
     5
420
      255
176
     1
290
     0
176
     1
 90
       50
176
     1
 90
       50
176
     1
 90
       50
176
     1
290
     0
176
     1
 90
       50
176
     1
 62
   256
176
     0
 40
1.0
176
     0
 90
        2
176
     1
  1
strokes_ogs.tif
176
     1
290
     0
176
     1
 40
1.0
176
     1
 40
1.0
176
     1
  0
VISUALSTYLE
  5
26B
102
{ACAD_REACTORS
330
267
102
}
330
267
100
AcDbVisualStyle
  2

 70
     3
177
     3
291
     1
 70
    58
 90
        2
176
     1
 90
        2
176
     1
 90
        1
176
     1
 90
        2
176
     1
 40
0.6
176
     1
 40
30.0
176
     1
 62
     7
420
 16777215
176
     1
 90
        1
176
     1
 90
        4
176
     1
 62
     7
176
     1
 62
   257
176
     1
 90
        1
176
     1
 90
        1
176
     1
 40
1.0
176
     1
 90
        0
176
     1
 62
   257
176
     1
 40
1.0
176
     1
 90
        1
176
     1
 90
        6
176
     1
 90
        2
176
     1
 62
     7
176
     1
 90
        5
176
     1
 90
        0
176
     1
 90
        0
176
     1
290
     0
176
     1
 90
       13
176
     1
 40
0.0
176
     1
 90
        0
176
     1
290
     0
176
     1
290
     1
176
     1
290
     1
176
     1
290
     0
176
     1
290
     0
176
     1
290
     0
176
     1
290
     0
176
     1
290
     0
176
     1
290
     0
176
     1
 90
       50
176
     1
 40
0.0
176
     1
 40
1.0
176
     1
 90
        0
176
     1
 62
    18
176
     1
 90
       50
176
     1
 90
        3
176
     1
 62
     5
420
      255
176
     1
290
     0
176
     1
 90
       50
176
     1
 90
       50
176
     1
 90
       50
176
     1
290
     0
176
     1
 90
       50
176
     1
 62
   256
176
     0
 40
1.0
176
     0
 90
        2
176
     1
  1
strokes_ogs.tif
176
     1
290
     0
176
     1
 40
1.0
176
     1
 40
1.0
176
     1
  0
VISUALSTYLE
  5
8FB
102
{ACAD_REACTORS
330
267
102
}
330
267
100
AcDbVisualStyle
  2

 70
     6
177
     3
291
     0
 70
    58
 90
        1
176
     1
 90
        2
176
     1
 90
        2
176
     1
 90
        0
176
     1
 40
0.6
176
     1
 40
30.0
176
     1
 62
     7
420
 16777215
176
     1
 90
        2
176
     1
 90
        2
176
     1
 62
     7
176
     1
 62
   257
176
     1
 90
        2
176
     1
 90
        1
176
     1
 40
40.0
176
     1
 90
        0
176
     1
 62
   257
176
     1
 40
1.0
176
     1
 90
        1
176
     1
 90
        6
176
     1
 90
        2
176
     1
 62
     7
176
     1
 90
        3
176
     1
 90
        0
176
     1
 90
        0
176
     1
290
     0
176
     1
 90
        1
176
     1
 40
0.0
176
     1
 90
        0
176
     1
290
     0
176
     1
290
     1
176
     1
290
     1
176
     1
290
     0
176
     1
290
     0
176
     1
290
     0
176
     1
290
     0
176
     1
290
     0
176
     1
290
     0
176
     1
 90
       50
176
     1
 40
0.0
176
     1
 40
1.0
176
     1
 90
        0
176
     1
 62
    18
176
     1
 90
       50
176
     1
 90
        3
176
     1
 62
     5
420
      255
176
     1
290
     0
176
     1
 90
       50
176
     1
 90
       50
176
     1
 90
       50
176
     1
290
     0
176
     1
 90
       50
176
     1
 62
   256
176
     0
 40
1.0
176
     0
 90
        2
176
     1
  1
strokes_ogs.tif
176
     1
290
     0
176
     1
 40
1.0
176
     1
 40
1.0
176
     1
  0
VISUALSTYLE
  5
8FC
102
{ACAD_REACTORS
330
267
102
}
330
267
100
AcDbVisualStyle
  2

 70
    20
177
     3
291
     1
 70
    58
 90
        2
176
     1
 90
        2
176
     1
 90
        0
176
     1
 90
        0
176
     1
 40
0.6
176
     1
 40
30.0
176
     1
 62
     7
420
 16777215
176
     1
 90
        1
176
     1
 90
        4
176
     1
 62
     7
176
     1
 62
   257
176
     1
 90
        1
176
     1
 90
        1
176
     1
 40
1.0
176
     1
 90
       10
176
     1
 62
     7
176
     1
 40
1.0
176
     1
 90
        1
176
     1
 90
        6
176
     1
 90
        2
176
     1
 62
     7
176
     1
 90
        5
176
     1
 90
        0
176
     1
 90
        0
176
     1
290
     0
176
     1
 90
        1
176
     1
 40
0.0
176
     1
 90
        0
176
     1
290
     0
176
     1
290
     1
176
     1
290
     1
176
     1
290
     0
176
     1
290
     0
176
     1
290
     0
176
     1
290
     0
176
     1
290
     0
176
     1
290
     0
176
     1
 90
       50
176
     1
 40
0.0
176
     1
 40
1.0
176
     1
 90
        0
176
     1
 62
    18
176
     1
 90
       50
176
     1
 90
        3
176
     1
 62
     5
420
      255
176
     1
290
     0
176
     1
 90
       50
176
     1
 90
       50
176
     1
 90
       50
176
     1
290
     0
176
     1
 90
       50
176
     1
 62
   256
176
     0
 40
1.0
176
     0
 90
        2
176
     1
  1
strokes_ogs.tif
176
     1
290
     0
176
     1
 40
1.0
176
     1
 40
1.0
176
     1
  0
VISUALSTYLE
  5
275
102
{ACAD_REACTORS
330
267
102
}
330
267
100
AcDbVisualStyle
  2

 70
    14
177
     3
291
     1
 70
    58
 90
        2
176
     1
 90
        2
176
     1
 90
        0
176
     1
 90
        0
176
     1
 40
0.6
176
     1
 40
30.0
176
     1
 62
     7
420
 16777215
176
     1
 90
        1
176
     1
 90
        4
176
     1
 62
     7
176
     1
 62
   257
176
     1
 90
        7
176
     1
 90
        7
176
     1
 40
1.0
176
     1
 90
        8
176
     1
 62
     7
176
     1
 40
1.0
176
     1
 90
        1
176
     1
 90
        6
176
     1
 90
        2
176
     1
 62
     7
176
     1
 90
        5
176
     1
 90
        0
176
     1
 90
        0
176
     1
290
     0
176
     1
 90
        1
176
     1
 40
0.0
176
     1
 90
        0
176
     1
290
     0
176
     1
290
     1
176
     1
290
     1
176
     1
290
     0
176
     1
290
     0
176
     1
290
     0
176
     1
290
     0
176
     1
290
     0
176
     1
290
     0
176
     1
 90
       50
176
     1
 40
0.0
176
     1
 40
1.0
176
     1
 90
        0
176
     1
 62
    18
176
     1
 90
       50
176
     1
 90
        3
176
     1
 62
     5
420
      255
176
     1
290
     0
176
     1
 90
       50
176
     1
 90
       50
176
     1
 90
       50
176
     1
290
     0
176
     1
 90
       50
176
     1
 62
   256
176
     0
 40
1.0
176
     0
 90
        2
176
     1
  1
strokes_ogs.tif
176
     1
290
     0
176
     1
 40
1.0
176
     1
 40
1.0
176
     1
  0
VISUALSTYLE
  5
8FD
102
{ACAD_REACTORS
330
267
102
}
330
267
100
AcDbVisualStyle
  2

 70
    21
177
     3
291
     1
 70
    58
 90
        2
176
     1
 90
        2
176
     1
 90
        0
176
     1
 90
        0
176
     1
 40
0.6
176
     1
 40
30.0
176
     1
 62
     7
420
 16777215
176
     1
 90
        1
176
     1
 90
        4
176
     1
 62
     7
176
     1
 62
   257
176
     1
 90
        1
176
     1
 90
        1
176
     1
 40
1.0
176
     1
 90
        9
176
     1
 62
     7
176
     1
 40
1.0
176
     1
 90
        1
176
     1
 90
        6
176
     1
 90
        2
176
     1
 62
     7
176
     1
 90
        5
176
     1
 90
        0
176
     1
 90
        0
176
     1
290
     0
176
     1
 90
        1
176
     1
 40
0.0
176
     1
 90
        0
176
     1
290
     0
176
     1
290
     1
176
     1
290
     1
176
     1
290
     0
176
     1
290
     0
176
     1
290
     0
176
     1
290
     0
176
     1
290
     0
176
     1
290
     0
176
     1
 90
       50
176
     1
 40
0.0
176
     1
 40
1.0
176
     1
 90
        0
176
     1
 62
    18
176
     1
 90
       50
176
     1
 90
        3
176
     1
 62
     5
420
      255
176
     1
290
     0
176
     1
 90
       50
176
     1
 90
       50
176
     1
 90
       50
176
     1
290
     0
176
     1
 90
       50
176
     1
 62
   256
176
     0
 40
1.0
176
     0
 90
        2
176
     1
  1
strokes_ogs.tif
176
     1
290
     0
176
     1
 40
1.0
176
     1
 40
1.0
176
     1
  0
VISUALSTYLE
  5
270
102
{ACAD_REACTORS
330
267
102
}
330
267
100
AcDbVisualStyle
  2

 70
     8
177
     3
291
     0
 70
    58
 90
        2
176
     1
 90
        2
176
     1
 90
        0
176
     1
 90
        0
176
     1
 40
0.6
176
     1
 40
30.0
176
     1
 62
     7
420
 16777215
176
     1
 90
        1
176
     1
 90
        0
176
     1
 62
     7
176
     1
 62
   257
176
     1
 90
        1
176
     1
 90
        1
176
     1
 40
1.0
176
     1
 90
        8
176
     1
 62
     8
420
  7895160
176
     1
 40
1.0
176
     1
 90
        1
176
     1
 90
        6
176
     1
 90
        2
176
     1
 62
     7
176
     1
 90
        5
176
     1
 90
        0
176
     1
 90
        0
176
     1
290
     0
176
     1
 90
       13
176
     1
 40
0.0
176
     1
 90
        0
176
     1
290
     0
176
     1
290
     1
176
     1
290
     1
176
     1
290
     0
176
     1
290
     0
176
     1
290
     0
176
     1
290
     0
176
     1
290
     0
176
     1
290
     0
176
     1
 90
       50
176
     1
 40
0.0
176
     1
 40
1.0
176
     1
 90
        0
176
     1
 62
    18
176
     1
 90
       50
176
     1
 90
        3
176
     1
 62
     5
420
      255
176
     1
290
     0
176
     1
 90
       50
176
     1
 90
       50
176
     1
 90
       50
176
     1
290
     0
176
     1
 90
       50
176
     1
 62
   256
176
     0
 40
1.0
176
     0
 90
        2
176
     1
  1
strokes_ogs.tif
176
     1
290
     0
176
     1
 40
1.0
176
     1
 40
1.0
176
     1
  0
VISUALSTYLE
  5
903
102
{ACAD_REACTORS
330
267
102
}
330
267
100
AcDbVisualStyle
  2

 70
    27
177
     3
291
     0
 70
    58
 90
        2
176
     1
 90
        2
176
     1
 90
        1
176
     1
 90
        2
176
     1
 40
0.6
176
     1
 40
30.0
176
     1
 62
     7
420
 16777215
176
     1
 90
        0
176
     1
 90
        4
176
     1
 62
     7
176
     1
 62
   257
176
     1
 90
        1
176
     1
 90
        1
176
     1
 40
1.0
176
     1
 90
        8
176
     1
 62
   257
176
     1
 40
1.0
176
     1
 90
        1
176
     1
 90
        6
176
     1
 90
        2
176
     1
 62
     8
420
  7895160
176
     1
 90
        3
176
     1
 90
        0
176
     1
 90
        0
176
     1
290
     0
176
     1
 90
        5
176
     1
 40
0.0
176
     1
 90
        0
176
     1
290
     0
176
     1
290
     1
176
     1
290
     1
176
     1
290
     0
176
     1
290
     0
176
     1
290
     0
176
     1
290
     0
176
     1
290
     0
176
     1
290
     0
176
     1
 90
       50
176
     1
 40
0.0
176
     1
 40
1.0
176
     1
 90
        0
176
     1
 62
    18
176
     1
 90
       50
176
     1
 90
        3
176
     1
 62
     5
420
      255
176
     1
290
     0
176
     1
 90
       50
176
     1
 90
       50
176
     1
 90
       50
176
     1
290
     0
176
     1
 90
       50
176
     1
 62
   256
176
     0
 40
1.0
176
     0
 90
        2
176
     1
  1
strokes_ogs.tif
176
     1
290
     0
176
     1
 40
1.0
176
     1
 40
1.0
176
     1
  0
VISUALSTYLE
  5
902
102
{ACAD_REACTORS
330
267
102
}
330
267
100
AcDbVisualStyle
  2

 70
    26
177
     3
291
     0
 70
    58
 90
        2
176
     1
 90
        2
176
     1
 90
        1
176
     1
 90
        2
176
     1
 40
0.6
176
     1
 40
30.0
176
     1
 62
     7
420
 16777215
176
     1
 90
        1
176
     1
 90
       10
176
     1
 62
     7
176
     1
 62
   257
176
     1
 90
        2
176
     1
 90
        1
176
     1
 40
1.0
176
     1
 90
        8
176
     1
 62
   257
176
     1
 40
1.0
176
     1
 90
        1
176
     1
 90
        6
176
     1
 90
        2
176
     1
 62
     7
176
     1
 90
        3
176
     1
 90
        0
176
     1
 90
        0
176
     1
290
     0
176
     1
 90
        5
176
     1
 40
0.0
176
     1
 90
        0
176
     1
290
     0
176
     1
290
     1
176
     1
290
     1
176
     1
290
     0
176
     1
290
     0
176
     1
290
     0
176
     1
290
     0
176
     1
290
     0
176
     1
290
     0
176
     1
 90
       50
176
     1
 40
0.0
176
     1
 40
1.0
176
     1
 90
        0
176
     1
 62
    18
176
     1
 90
       50
176
     1
 90
        3
176
     1
 62
     5
420
      255
176
     1
290
     0
176
     1
 90
       50
176
     1
 90
       50
176
     1
 90
       50
176
     1
290
     0
176
     1
 90
       50
176
     1
 62
   256
176
     0
 40
1.0
176
     0
 90
        2
176
     1
  1
strokes_ogs.tif
176
     1
290
     0
176
     1
 40
1.0
176
     1
 40
1.0
176
     1
  0
VISUALSTYLE
  5
8FF
102
{ACAD_REACTORS
330
267
102
}
330
267
100
AcDbVisualStyle
  2

 70
    23
177
     3
291
     0
 70
    58
 90
        2
176
     1
 90
        2
176
     1
 90
        3
176
     1
 90
        0
176
     1
 40
0.6
176
     1
 40
30.0
176
     1
 62
     7
420
 16777215
176
     1
 90
        2
176
     1
 90
        2
176
     1
 62
     7
176
     1
 62
     7
176
     1
 90
        1
176
     1
 90
        1
176
     1
 40
40.0
176
     1
 90
        8
176
     1
 62
     7
176
     1
 40
1.0
176
     1
 90
        1
176
     1
 90
        6
176
     1
 90
        2
176
     1
 62
     7
176
     1
 90
        3
176
     1
 90
        0
176
     1
 90
        0
176
     1
290
     0
176
     1
 90
        1
176
     1
 40
0.0
176
     1
 90
        0
176
     1
290
     0
176
     1
290
     1
176
     1
290
     1
176
     1
290
     0
176
     1
290
     0
176
     1
290
     0
176
     1
290
     0
176
     1
290
     0
176
     1
290
     0
176
     1
 90
       50
176
     1
 40
0.0
176
     1
 40
1.0
176
     1
 90
        0
176
     1
 62
    18
176
     1
 90
       50
176
     1
 90
        3
176
     1
 62
     5
420
      255
176
     1
290
     0
176
     1
 90
       50
176
     1
 90
       50
176
     1
 90
       50
176
     1
290
     0
176
     1
 90
       50
176
     1
 62
   256
176
     0
 40
1.0
176
     0
 90
        2
176
     1
  1
strokes_ogs.tif
176
     1
290
     0
176
     1
 40
1.0
176
     1
 40
1.0
176
     1
  0
VISUALSTYLE
  5
900
102
{ACAD_REACTORS
330
267
102
}
330
267
100
AcDbVisualStyle
  2

 70
    24
177
     3
291
     0
 70
    58
 90
        1
176
     1
 90
        2
176
     1
 90
        2
176
     1
 90
        0
176
     1
 40
0.6
176
     1
 40
30.0
176
     1
 62
     7
420
 16777215
176
     1
 90
        2
176
     1
 90
        2
176
     1
 62
     7
176
     1
 62
     7
176
     1
 90
        1
176
     1
 90
        1
176
     1
 40
40.0
176
     1
 90
       11
176
     1
 62
     7
176
     1
 40
1.0
176
     1
 90
        1
176
     1
 90
        6
176
     1
 90
        2
176
     1
 62
     7
176
     1
 90
        6
176
     1
 90
        0
176
     1
 90
        0
176
     1
290
     0
176
     1
 90
        1
176
     1
 40
0.0
176
     1
 90
        0
176
     1
290
     0
176
     1
290
     1
176
     1
290
     1
176
     1
290
     0
176
     1
290
     0
176
     1
290
     0
176
     1
290
     0
176
     1
290
     0
176
     1
290
     0
176
     1
 90
       50
176
     1
 40
0.0
176
     1
 40
1.0
176
     1
 90
        0
176
     1
 62
    18
176
     1
 90
       50
176
     1
 90
        3
176
     1
 62
     5
420
      255
176
     1
290
     0
176
     1
 90
       50
176
     1
 90
       50
176
     1
 90
       50
176
     1
290
     0
176
     1
 90
       50
176
     1
 62
   256
176
     0
 40
1.0
176
     0
 90
        2
176
     1
  1
strokes_ogs.tif
176
     1
290
     0
176
     1
 40
1.0
176
     1
 40
1.0
176
     1
  0
VISUALSTYLE
  5
274
102
{ACAD_REACTORS
330
267
102
}
330
267
100
AcDbVisualStyle
  2

 70
    13
177
     3
291
     1
 70
    58
 90
        2
176
     1
 90
        2
176
     1
 90
        0
176
     1
 90
        0
176
     1
 40
0.6
176
     1
 40
30.0
176
     1
 62
     7
420
 16777215
176
     1
 90
        1
176
     1
 90
        4
176
     1
 62
     7
176
     1
 62
   257
176
     1
 90
        1
176
     1
 90
        1
176
     1
 40
1.0
176
     1
 90
       12
176
     1
 62
     7
176
     1
 40
1.0
176
     1
 90
        1
176
     1
 90
        6
176
     1
 90
        2
176
     1
 62
     7
176
     1
 90
        5
176
     1
 90
        0
176
     1
 90
        0
176
     1
290
     0
176
     1
 90
        1
176
     1
 40
0.0
176
     1
 90
        0
176
     1
290
     0
176
     1
290
     1
176
     1
290
     1
176
     1
290
     0
176
     1
290
     0
176
     1
290
     0
176
     1
290
     0
176
     1
290
     0
176
     1
290
     0
176
     1
 90
       50
176
     1
 40
0.0
176
     1
 40
1.0
176
     1
 90
        0
176
     1
 62
    18
176
     1
 90
       50
176
     1
 90
        3
176
     1
 62
     5
420
      255
176
     1
290
     0
176
     1
 90
       50
176
     1
 90
       50
176
     1
 90
       50
176
     1
290
     0
176
     1
 90
       50
176
     1
 62
   256
176
     0
 40
1.0
176
     0
 90
        2
176
     1
  1
strokes_ogs.tif
176
     1
290
     0
176
     1
 40
1.0
176
     1
 40
1.0
176
     1
  0
VISUALSTYLE
  5
8FA
102
{ACAD_REACTORS
330
267
102
}
330
267
100
AcDbVisualStyle
  2

 70
     5
177
     3
291
     0
 70
    58
 90
        0
176
     1
 90
        2
176
     1
 90
        0
176
     1
 90
        0
176
     1
 40
0.6
176
     1
 40
30.0
176
     1
 62
     7
420
 16777215
176
     1
 90
        1
176
     1
 90
        4
176
     1
 62
     7
176
     1
 62
   257
176
     1
 90
        1
176
     1
 90
        1
176
     1
 40
1.0
176
     1
 90
        0
176
     1
 62
   257
176
     1
 40
1.0
176
     1
 90
        1
176
     1
 90
        6
176
     1
 90
        2
176
     1
 62
     7
176
     1
 90
        3
176
     1
 90
        0
176
     1
 90
        0
176
     1
290
     0
176
     1
 90
        1
176
     1
 40
0.0
176
     1
 90
        0
176
     1
290
     0
176
     1
290
     1
176
     1
290
     1
176
     1
290
     0
176
     1
290
     0
176
     1
290
     0
176
     1
290
     0
176
     1
290
     0
176
     1
290
     0
176
     1
 90
       50
176
     1
 40
0.0
176
     1
 40
1.0
176
     1
 90
        0
176
     1
 62
    18
176
     1
 90
       50
176
     1
 90
        3
176
     1
 62
     5
420
      255
176
     1
290
     0
176
     1
 90
       50
176
     1
 90
       50
176
     1
 90
       50
176
     1
290
     0
176
     1
 90
       50
176
     1
 62
   256
176
     0
 40
1.0
176
     0
 90
        2
176
     1
  1
strokes_ogs.tif
176
     1
290
     0
176
     1
 40
1.0
176
     1
 40
1.0
176
     1
  0
VISUALSTYLE
  5
901
102
{ACAD_REACTORS
330
267
102
}
330
267
100
AcDbVisualStyle
  2

 70
    25
177
     3
291
     0
 70
    58
 90
        2
176
     1
 90
        2
176
     1
 90
        1
176
     1
 90
        1
176
     1
 40
0.5
176
     1
 40
30.0
176
     1
 62
     7
420
 16777215
176
     1
 90
        1
176
     1
 90
        0
176
     1
 62
     7
176
     1
 62
   257
176
     1
 90
        1
176
     1
 90
        1
176
     1
 40
1.0
176
     1
 90
        8
176
     1
 62
     7
176
     1
 40
1.0
176
     1
 90
        1
176
     1
 90
        6
176
     1
 90
        2
176
     1
 62
     7
176
     1
 90
        3
176
     1
 90
        0
176
     1
 90
        0
176
     1
290
     0
176
     1
 90
       13
176
     1
 40
0.0
176
     1
 90
        0
176
     1
290
     0
176
     1
290
     1
176
     1
290
     1
176
     1
290
     0
176
     1
290
     0
176
     1
290
     0
176
     1
290
     0
176
     1
290
     0
176
     1
290
     0
176
     1
 90
       50
176
     1
 40
0.0
176
     1
 40
1.0
176
     1
 90
        0
176
     1
 62
    18
176
     1
 90
       50
176
     1
 90
        3
176
     1
 62
     5
420
      255
176
     1
290
     0
176
     1
 90
       50
176
     1
 90
       50
176
     1
 90
       50
176
     1
290
     0
176
     1
 90
       50
176
     1
 62
   256
176
     0
 40
1.0
176
     0
 90
        2
176
     1
  1
strokes_ogs.tif
176
     1
290
     0
176
     1
 40
1.0
176
     1
 40
1.0
176
     1
  0
DICTIONARYVAR
  5
331
102
{ACAD_REACTORS
330
330
102
}
330
330
100
DictionaryVariables
280
     0
  1
1:1
  0
DICTIONARYVAR
  5
D5E
102
{ACAD_REACTORS
330
330
102
}
330
330
100
DictionaryVariables
280
     0
  1
STANDARD
  0
DICTIONARYVAR
  5
335
102
{ACAD_REACTORS
330
330
102
}
330
330
100
DictionaryVariables
280
     0
  1
STANDARD
  0
DICTIONARYVAR
  5
1791D
102
{ACAD_REACTORS
330
330
102
}
330
330
100
DictionaryVariables
280
     0
  1
Metric50
  0
DICTIONARYVAR
  5
1791E
102
{ACAD_REACTORS
330
330
102
}
330
330
100
DictionaryVariables
280
     0
  1
Metric50
  0
DICTIONARYVAR
  5
D52
102
{ACAD_REACTORS
330
330
102
}
330
330
100
DictionaryVariables
280
     0
  1
ByLayer
  0
DICTIONARYVAR
  5
1791F
102
{ACAD_REACTORS
330
330
102
}
330
330
100
DictionaryVariables
280
     0
  1
1
  0
DICTIONARYVAR
  5
17920
102
{ACAD_REACTORS
330
330
102
}
330
330
100
DictionaryVariables
280
     0
  1
15
  0
XRECORD
  5
17915
102
{ACAD_REACTORS
330
17913
102
}
330
17913
100
AcDbXrecord
280
     1
330
6B5
330
68C
330
1343
330
68F
330
692
330
6A1
330
A5E9
330
A5EA
330
A5F8
330
A5F9
330
A607
330
A608
330
17410
330
17411
330
1741F
330
17420
330
1742E
330
1742F
330
1743B
330
1743C
330
1744A
330
1744B
330
17457
330
17458
330
1746C
330
1746D
330
174B9
330
174BA
330
174C8
330
174C9
330
174D8
330
174D7
330
174E6
330
174E7
330
174F5
330
174F6
330
1751D
330
1751E
330
1752A
330
1752B
330
17539
330
1753A
330
1755B
330
1755C
330
1756A
330
1756B
330
17764
330
17765
330
17947
330
17949
330
1777E
330
1777F
330
1778A
330
1778B
330
17796
330
17797
330
177A2
330
177A3
330
177AE
330
177AF
330
177BA
330
177BB
330
177C6
330
177C7
330
177D4
330
177D5
330
177E0
330
177E1
330
177EC
330
177ED
330
177F8
330
177F9
330
17804
330
17805
330
17810
330
17811
330
1781C
330
1781D
330
17828
330
17829
330
17872
330
17873
330
17882
330
17883
330
1788F
330
17890
  0
DICTIONARYVAR
  5
36AB
102
{ACAD_REACTORS
330
366B
102
}
330
366B
100
DictionaryVariables
280
     0
  1
0.250000
  0
DICTIONARYVAR
  5
36A9
102
{ACAD_REACTORS
330
E38
102
}
330
E38
100
DictionaryVariables
280
     0
  1
0.261799
  0
DICTIONARYVAR
  5
36A7
102
{ACAD_REACTORS
330
E38
102
}
330
E38
100
DictionaryVariables
280
     0
  1
0.400000
  0
DICTIONARYVAR
  5
36A8
102
{ACAD_REACTORS
330
E38
102
}
330
E38
100
DictionaryVariables
280
     0
  1
0.250000
  0
DICTIONARYVAR
  5
36AA
102
{ACAD_REACTORS
330
E38
102
}
330
E38
100
DictionaryVariables
280
     0
  1
1
  0
FIELD
  5
36AD
102
{ACAD_REACTORS
330
1782E
102
}
330
1782E
100
AcDbField
  1
_text
  2
%<\_FldIdx 0>%N
 90
        1
360
36B1
 97
        0
 91
       63
 92
        0
 94
       13
 95
        2
 96
        0
300

 93
        1
  6
ACFD_FIELDTEXT_CHECKSUM
 93
        2
 90
        2
140
2543.0
 94
        0
300

302

304
ACVALUE_END
  7
ACFD_FIELD_VALUE
 93
        3
 90
        0
 94
        0
300

302

304
ACVALUE_END
301

 98
        0
  0
DICTIONARY
  5
178EB
330
279
100
AcDbDictionary
280
     1
281
     1
  3
ACAD_ROUNDTRIP_2008_TABLESTYLE_CELLSTYLEMAP
360
179F7
  0
FIELD
  5
36B1
330
36AD
100
AcDbField
  1
AcVar
  2
\AcVar Date \f "yyyyMMdd"
 90
        0
 97
        0
 91
       32
 92
        0
 94
       59
 95
        2
 96
        0
300

 93
        1
  6
Variable
 93
        2
 90
        4
  1
Date
 94
        0
300

302

304
ACVALUE_END
  7
ACFD_FIELD_VALUE
 93
        4
 90
        8
 92
       16
310
E7070500030011000D00380009000000
 94
        0
300
yyyyMMdd
302
20230517
304
ACVALUE_END
301
20230517
 98
        8
  0
CELLSTYLEMAP
  5
179F7
102
{ACAD_REACTORS
330
178EB
102
}
330
178EB
100
AcDbCellStyleMap
 90
        3
300
CELLSTYLE
  1
TABLEFORMAT_BEGIN
 90
        5
170
     1
 91
        0
 92
    32768
 62
   257
 93
        1
300
CONTENTFORMAT
  1
CONTENTFORMAT_BEGIN
 90
        0
 91
        0
 92
        4
 93
        0
300

 40
0.0
140
1.0
 94
        5
 62
     0
340
17
144
6.0
309
CONTENTFORMAT_END
171
     1
301
MARGIN
  1
CELLMARGIN_BEGIN
 40
0.06
 40
0.06
 40
0.06
 40
0.06
 40
0.18
 40
0.18
309
CELLMARGIN_END
 94
        6
 95
        1
302
GRIDFORMAT
  1
GRIDFORMAT_BEGIN
 90
        0
 91
        1
 62
     0
 92
       -2
340
0
 93
        0
 40
0.045
309
GRIDFORMAT_END
 95
        2
302
GRIDFORMAT
  1
GRIDFORMAT_BEGIN
 90
        0
 91
        1
 62
     0
 92
       -2
340
0
 93
        0
 40
0.045
309
GRIDFORMAT_END
 95
        4
302
GRIDFORMAT
  1
GRIDFORMAT_BEGIN
 90
        0
 91
        1
 62
     0
 92
       -2
340
0
 93
        0
 40
0.045
309
GRIDFORMAT_END
 95
        8
302
GRIDFORMAT
  1
GRIDFORMAT_BEGIN
 90
        0
 91
        1
 62
     0
 92
       -2
340
0
 93
        0
 40
0.045
309
GRIDFORMAT_END
 95
       16
302
GRIDFORMAT
  1
GRIDFORMAT_BEGIN
 90
        0
 91
        1
 62
     0
 92
       -2
340
0
 93
        0
 40
0.045
309
GRIDFORMAT_END
 95
       32
302
GRIDFORMAT
  1
GRIDFORMAT_BEGIN
 90
        0
 91
        1
 62
     0
 92
       -2
340
0
 93
        0
 40
0.045
309
GRIDFORMAT_END
309
TABLEFORMAT_END
  1
CELLSTYLE_BEGIN
 90
        1
 91
        1
300
_TITLE
309
CELLSTYLE_END
300
CELLSTYLE
  1
TABLEFORMAT_BEGIN
 90
        5
170
     1
 91
        0
 92
        0
 62
   257
 93
        1
300
CONTENTFORMAT
  1
CONTENTFORMAT_BEGIN
 90
        0
 91
        0
 92
        4
 93
        0
300

 40
0.0
140
1.0
 94
        5
 62
     0
340
17
144
4.5
309
CONTENTFORMAT_END
171
     1
301
MARGIN
  1
CELLMARGIN_BEGIN
 40
0.06
 40
0.06
 40
0.06
 40
0.06
 40
0.18
 40
0.18
309
CELLMARGIN_END
 94
        6
 95
        1
302
GRIDFORMAT
  1
GRIDFORMAT_BEGIN
 90
        0
 91
        1
 62
     0
 92
       -2
340
0
 93
        0
 40
0.045
309
GRIDFORMAT_END
 95
        2
302
GRIDFORMAT
  1
GRIDFORMAT_BEGIN
 90
        0
 91
        1
 62
     0
 92
       -2
340
0
 93
        0
 40
0.045
309
GRIDFORMAT_END
 95
        4
302
GRIDFORMAT
  1
GRIDFORMAT_BEGIN
 90
        0
 91
        1
 62
     0
 92
       -2
340
0
 93
        0
 40
0.045
309
GRIDFORMAT_END
 95
        8
302
GRIDFORMAT
  1
GRIDFORMAT_BEGIN
 90
        0
 91
        1
 62
     0
 92
       -2
340
0
 93
        0
 40
0.045
309
GRIDFORMAT_END
 95
       16
302
GRIDFORMAT
  1
GRIDFORMAT_BEGIN
 90
        0
 91
        1
 62
     0
 92
       -2
340
0
 93
        0
 40
0.045
309
GRIDFORMAT_END
 95
       32
302
GRIDFORMAT
  1
GRIDFORMAT_BEGIN
 90
        0
 91
        1
 62
     0
 92
       -2
340
0
 93
        0
 40
0.045
309
GRIDFORMAT_END
309
TABLEFORMAT_END
  1
CELLSTYLE_BEGIN
 90
        2
 91
        1
300
_HEADER
309
CELLSTYLE_END
300
CELLSTYLE
  1
TABLEFORMAT_BEGIN
 90
        5
170
     1
 91
        0
 92
        0
 62
   257
 93
        1
300
CONTENTFORMAT
  1
CONTENTFORMAT_BEGIN
 90
        0
 91
        0
 92
        4
 93
        0
300

 40
0.0
140
1.0
 94
        2
 62
     0
340
17
144
4.5
309
CONTENTFORMAT_END
171
     1
301
MARGIN
  1
CELLMARGIN_BEGIN
 40
0.06
 40
0.06
 40
0.06
 40
0.06
 40
0.18
 40
0.18
309
CELLMARGIN_END
 94
        6
 95
        1
302
GRIDFORMAT
  1
GRIDFORMAT_BEGIN
 90
        0
 91
        1
 62
     0
 92
       -2
340
0
 93
        0
 40
0.045
309
GRIDFORMAT_END
 95
        2
302
GRIDFORMAT
  1
GRIDFORMAT_BEGIN
 90
        0
 91
        1
 62
     0
 92
       -2
340
0
 93
        0
 40
0.045
309
GRIDFORMAT_END
 95
        4
302
GRIDFORMAT
  1
GRIDFORMAT_BEGIN
 90
        0
 91
        1
 62
     0
 92
       -2
340
0
 93
        0
 40
0.045
309
GRIDFORMAT_END
 95
        8
302
GRIDFORMAT
  1
GRIDFORMAT_BEGIN
 90
        0
 91
        1
 62
     0
 92
       -2
340
0
 93
        0
 40
0.045
309
GRIDFORMAT_END
 95
       16
302
GRIDFORMAT
  1
GRIDFORMAT_BEGIN
 90
        0
 91
        1
 62
     0
 92
       -2
340
0
 93
        0
 40
0.045
309
GRIDFORMAT_END
 95
       32
302
GRIDFORMAT
  1
GRIDFORMAT_BEGIN
 90
        0
 91
        1
 62
     0
 92
       -2
340
0
 93
        0
 40
0.045
309
GRIDFORMAT_END
309
TABLEFORMAT_END
  1
CELLSTYLE_BEGIN
 90
        3
 91
        2
300
_DATA
309
CELLSTYLE_END
  0
ENDSEC
  0
SECTION
  2
ACDSDATA
 70
     2
 71
     8
  0
ACDSSCHEMA
 90
        0
  1
AcDb_Thumbnail_Schema
  2
AcDbDs::ID
280
    10
 91
        8
  2
Thumbnail_Data
280
    15
 91
        0
101
ACDSRECORD
 95
        0
 90
        1
  2
AcDbDs::TreatedAsObjectData
280
     1
291
     1
101
ACDSRECORD
 95
        0
 90
        2
  2
AcDbDs::Legacy
280
     1
291
     1
101
ACDSRECORD
  1
AcDbDs::ID
 90
        3
  2
AcDs:Indexable
280
     1
291
     1
101
ACDSRECORD
  1
AcDbDs::ID
 90
        4
  2
AcDbDs::HandleAttribute
280
     7
282
     1
  0
ACDSSCHEMA
 90
        1
  1
AcDbDs::TreatedAsObjectDataSchema
  2
AcDbDs::TreatedAsObjectData
280
     1
 91
        0
  0
ACDSSCHEMA
 90
        2
  1
AcDbDs::LegacySchema
  2
AcDbDs::Legacy
280
     1
 91
        0
  0
ACDSSCHEMA
 90
        3
  1
AcDbDs::IndexedPropertySchema
  2
AcDs:Indexable
280
     1
 91
        0
  0
ACDSSCHEMA
 90
        4
  1
AcDbDs::HandleAttributeSchema
  2
AcDbDs::HandleAttribute
280
     7
 91
        1
284
     1
  0
ACDSRECORD
 90
        0
  2
AcDbDs::ID
280
    10
320
20
  2
Thumbnail_Data
280
    15
 94
     3107
310
89504E470D0A1A0A0000000D49484452000001000000008E080200000051DD412D000006654944415478DAED9D3B72AB301486A53BD9885D5DBAB09394E9B2140F4B4997323B893B75F152B88532BA0A7A2040E2A5EF9B8CC74388B1E3F39F737E2490BCFC7D1675F0505F832D97A665A377E3A5692B890A599500EAF95EF9
310
4725F287EF1B6A060140D53C55F899BF9DDE1734D7FA5AC427BE69A8392FD002011E00000100200000040080000010000002004000000800000100200000040070789EF81764E1A1EEFAC9A579E6BF410500A0029C0E3D635E0A99520A6C7AD10B2E42400047E7DAB40F759FD1E44825698D6881001000000200C003ECCEE0
310
C6DD6DC8E65E9A67D718B856D86B8EB1C8086047A4F854CFAD1394F51835D0C1DF29FEF708606BA490179174A2E6DAB4DFEA6B10D04618EE76BDFFC8A139478407D88A87BA47FA93C4F6295622800A704ACF30E357A3BE825280003668FD675400BBD519447CE457400B7454FBBBC21B20FD530136A317FD55B4F39A199DF2
310
5D671C7F297B675D82E6CDB3000490CD0DA79705AF36687810C051B936AD7B1A3494D1CDF650D61F6C37436C21517947D3000FB02A3A7FDB8FA3240E1E1FC28750016A8F7E33C215EFE607CE412AE96E1481B90FA47904B0D3C43FAF0298708F6FD71712789DC6CF9E8AB9400860BBEE7FA172525E3992F8DDB34F80000EA3
310
1CEFBC20D2392618800A50998B0004808B400FB440000800000100E00130C180002A71C0400B0480000010000002004000000800000100200000040080000010000002802C30330F01002000000400800030008000007C7045581EF6B0C817E99F0A50355C9C4905C89F53A7AE0090B8DE5E2FFAECF14A054000F929D5D214
310
581D7E74456EA0059A46C60560567865EE4A8D00F000800000F000A7670F275EA900F0138B66A5EBD0DA78A15FAD2312A002AC146DF17CBC7C9548F7CCEC43DDF5827C5E0FC0BA9408A0383AC242A13648C30B23520AE9FEF955B40F75370B7D0F44820610C04AE9DF0DB5AD828F88470005898D3739235C0B5741D5C7B233
310
7AE8E8FA407A4F530D000114C16EB8DF5E5FCCF3F78F4F3BF7E71A9A35195D979AAEEB064734072A31C9E2C47016281BB7DBAD44E723850C05B4115B6281B2850A0820733B64D6CDDEAAEFFF565F91D0D7D18F06688192224977D2BDE8E3B3D6F4F41B1D76A602E8CEC7A4ED78CBBEA4DAD88FB6020707EDBACEECD3751D53
310
8610C078D7F193C295BFFBB7834C3FDAE13E88F8129334475726F65A946BD3520110408CA943A73AB8ED68335B0A255A3DE6355B3321DB80006024CAA7E67229A43E17A9452585D4B16B9E18B185CEDB649CC840CF83094E22A37935A95ABFA6796513EE97E659FF94BBEAC0188641E7432344058869606AEA752D6FBC502C
310
B104A6804CC53B580108C09FBCA5F28CBC0E82DB6EF7ED981E1880144944CA91578DA3AF36D8E176BB99B1337D46080D2080F1E00B9DA9F46A20628B4BD812F72D0D44E87DDB5DD7755DF7FEF1F9F6FA8206F0008B2CA36E2AF49975F3576FAF2F3AD7A6F4D9792F12B836EDE83BB787AB01011CF51C4B6464373275C21800
310
4C3002D84BA3B5D5BC6564800016A1DB1E1D43AE250D6D9FE7C8F5FC22B75F3247997120ED01D000263843CFF3FEF16942D07696195DA63D1DDA3DFABCF44FF42380631B8C25D34EDF3F3EB9541201E46F8A669CD5E9453F636668E8224C4000EB61E2CFE46933FF273D2E6747FFD43AC08C204C70E6E8F7A6FCD0F6FDBC67
310
4000F303C88DEFC8F315EE87450B840036CEA3A1102C179A660081E847001B600F600D4270CDD024FA31C11B847E4AFC85E451C8820302D8AC170ADD0EB15C687A2D877B1983B957A97B1F69AC302DD0C96DC9E876A0021489BFD23D492F7A7309A5FDDCDE4128FF124CFA3ED2E65A1FBD67E5830308E0C83E44F9F4A6C4B5
310
6983F70655BFFE1C10C0E27CACA45B0AE6CD6E4861E1B566A52F55430015E7E3DF891630C1E727944449AE08000001C06E8A122000000400800000100000020004008000006AA4DEA910897753DBC969F549F77E2BB7401315000EA3EDEC2BF35101AA4BFF67FA9814042A406A6FA36FB47FAC88897F1C029D0A30A1081CB1
310
3E9CECE320009A253E0802D8AE6DD85BD4AEF056EB54C853CDA11FFFCABDCB620F36AE1097F1B74A7F8F09DEB291A0AFA0029CB6214E0CEED21A28B7E636E001CEE001B2EF830008FD83BDD5C47DCC727A38073C00B287EA5BA0AAEC8ABD0FCE010190B6F10008E02C1580EE080F00FF4339976FA60290564FFBD118D1A305
310
2229022D10D00291E9810A004005383B0F0680E037FF0028ACB0C1F4BA3B7A0000000049454E44AE426082635E8D2B60230148A3EB34555754501E3F98455A5B1A514F5A35D2677D3CFECA388BFC1140D1D4E28DDC9FD364233AFB8D8F8301204F0D60F1F1518A339DDF7A237A6BB0BFCB54B086B940B17253D98E91FB5202
310
52FE162400C30DC71A025B74F09DBBFF6EBF7EF6CD710F96526C32510979A2F6B28F1408949802311A00BA1600A301A06B01008A60040000020020365810D369B6F318EE169B8C074CF4FF523F211F17AB1D2200F061BFE36B02D9E6D888E30B52503FFF3800A4ACB13E769C3A3A9E731A9CB1449EB2CAB628BDA5BCE758AA
310
70692A3659CFEDCDDB2502E477E7AB34E3D7C2DCA4F7EC855CDDDBA280141120E2A429CB6416BF76DAC32158C1F71ECC1402B9D594656FA29FBDA806FF6D79420EAA096933C5E7561C01D8F824307FF0CB31D4AE8F695294C6FBAF498192433A48CB29322A38B89F3463BC7DED41358ECD2EDE52C95BEE39628F7B003D2348
310
0046C243FE03BA4B81203D08E3CFA57401C84A7F277641FD094DE48BA0DF0810E4E907EC0CE6CAC8E207C2C27B797B3E4B14B45C04038000004000002000001000002BC082180010000843BD1DCDD9D7042300400A0440AFF817FAC85757CA9053000000000049454E44AE426082B00B320A00D06206C0FB4198FFC89E0BF4
310
77BFEC4175AADBFD87256FCF0F8EEE1B28647BF4A0183FD0D0E078FC01B75371BEA2D84A4F0000000049454E44AE426082F0719072B4910E169EDC94C06B3CD8A5C258A85805232A9FF0574D978D72DE3BB22A4F57FA86E222EF13958ED884D141AF9E4F9E34B7F0C657FDEAB5205A5550C265185F8C8DDDCBEE9734012818
310
592494B2ADC8404C9B0220178C2A129EF2A6A5C036679BC63314BAE72CECA7D21B54B226970FF66ABC12BB46AC1D0DDA3594334007B2E7E2B5CEA650C7D53D3B8CBC3B5CDA35049FE5834D5B58C1B8F040AC7756E757F36ABB767020662E3CFB19E17160ED5FDB64AFEE08C4FD27731B9F9C802FB31DA16B3A9BF2757EB753
310
1774D775B35FBAEB535485774DEBC5E455F7A442D8FB513C5F44850A2E04AF41F7F29C128C9704B9EC48392A68EE7B1A5EB266DE753F3B323961EBECC248A018509401501040C162EC08A88582CF72DFC90B08C420A6394B0CC688416630E33E2010030005411514A42803325390A20CC011031C3100D811000501C011833A
310
ED088E18604740DD2A08404415644E1929987CECD2E771CCF13276A7D6A3BB1D65E7EED8117DBCF459CBFC6CD94832F028BB62AACDC9612F7B0F0DC61115148128331998986B561990CFD645FB5FAD7684A28C58755C8CBFF687D1594851A640AAF94F22335E78BCEEE2026A02314816885731D80EC48E2F9296295294292D
310
10F784368CDC35F2624708C40B81786090651608DBC3AFD5D38F8E8B320F0C0AC983A8407C442657CA9EBA3336293ACCB80F54229A0A1EA742B34947ECA4647CF78F07311D617DE0E6C6E98EDE40E639465C5E84D9450507D55147B174BCC0AAB4327845BDF1AEBCC394E58817CB5A3E025992232610FB3AE22D31681C881D
310
64EA2F5561F1A8660347510664BE6D28CA8888BC0167CCDEC2C6D503B640510694934A4241F0A3A4909ECDBBD405553FCAA028973A463585CDCF8E1BD1143CAC7C13DAB88317161609B92F00D3F52803921C0C412F009BEB0E42FC50C1441404696CECC62DECF1EC48D5AF41AC33F6E9BD7F52D811E07F39E79A8906AD40FD
310
92E3CF27693DFE7CB28369EEF6D858FDF644B4013AF2BC00DA459193B077B0FB28B483A093573CDDE8082A283CB29B86232DA2C0841E4233C2C59E5C5B87B6942056B50CEF1191B1230A246D572A389E784FA3A3D12848D999339693829361A2A1160D9251901B1A0855415015640DD011822B045DD340A50A4241105305A1
310
20A8C68E8CF97E385D061F0E3E317F4E7EE8DE8EE7A626E382CC6F2CFE74AD42489B020011F10F780826DEDF164ADF0000000049454E44AE426082
  0
ENDSEC
  0
EOF
