  0
SECTION
  2
HEADER
  9
$ACADVER
  1
AC1021
  9
$ACADMAINTVER
 70
    25
  9
$DWGCODEPAGE
  3
ANSI_932
  9
$LASTSAVEDBY
  1
howeNelson
  9
$INSBASE
 10
0.0
 20
0.0
 30
0.0
  9
$EXTMIN
 10
0.0
 20
0.0
 30
0.0
  9
$EXTMAX
 10
840.0000000000001
 20
1188.0
 30
0.0000000000000071
  9
$LIMMIN
 10
0.0
 20
0.0
  9
$LIMMAX
 10
840.0000000000001
 20
1188.0
  9
$ORTHOMODE
 70
     0
  9
$REGENMODE
 70
     1
  9
$FILLMODE
 70
     1
  9
$QTEXTMODE
 70
     0
  9
$MIRRTEXT
 70
     1
  9
$LTSCALE
 40
50.8
  9
$ATTMODE
 70
     1
  9
$TEXTSIZE
 40
2.5
  9
$TRACEWID
 40
1.0
  9
$TEXTSTYLE
  7
ＭＳ ゴシック
  9
$CLAYER
  8
DIM
  9
$CELTYPE
  6
ByLayer
  9
$CECOLOR
 62
     2
  9
$CELTSCALE
 40
1.0
  9
$DISPSILH
 70
     0
  9
$DIMSCALE
 40
1.0
  9
$DIMASZ
 40
2.0
  9
$DIMEXO
 40
10.0
  9
$DIMDLI
 40
0.0
  9
$DIMRND
 40
0.0
  9
$DIMDLE
 40
0.0
  9
$DIMEXE
 40
0.0
  9
$DIMTP
 40
0.0
  9
$DIMTM
 40
0.0
  9
$DIMTXT
 40
9.0
  9
$DIMCEN
 40
0.0
  9
$DIMTSZ
 40
0.0
  9
$DIMTOL
 70
     0
  9
$DIMLIM
 70
     0
  9
$DIMTIH
 70
     0
  9
$DIMTOH
 70
     0
  9
$DIMSE1
 70
     0
  9
$DIMSE2
 70
     0
  9
$DIMTAD
 70
     1
  9
$DIMZIN
 70
    11
  9
$DIMBLK
  1
DOT
  9
$DIMASO
 70
     1
  9
$DIMSHO
 70
     1
  9
$DIMPOST
  1
<>
  9
$DIMAPOST
  1
[]
  9
$DIMALT
 70
     0
  9
$DIMALTD
 70
     1
  9
$DIMALTF
 40
1.0
  9
$DIMLFAC
 40
1.0
  9
$DIMTOFL
 70
     0
  9
$DIMTVP
 40
0.0
  9
$DIMTIX
 70
     1
  9
$DIMSOXD
 70
     0
  9
$DIMSAH
 70
     0
  9
$DIMBLK1
  1

  9
$DIMBLK2
  1

  9
$DIMSTYLE
  2
tfrom線あり
  9
$DIMCLRD
 70
     0
  9
$DIMCLRE
 70
     0
  9
$DIMCLRT
 70
     0
  9
$DIMTFAC
 40
1.0
  9
$DIMGAP
 40
10.0
  9
$DIMJUST
 70
     0
  9
$DIMSD1
 70
     0
  9
$DIMSD2
 70
     0
  9
$DIMTOLJ
 70
     1
  9
$DIMTZIN
 70
    11
  9
$DIMALTZ
 70
    11
  9
$DIMALTTZ
 70
    11
  9
$DIMUPT
 70
     0
  9
$DIMDEC
 70
     0
  9
$DIMTDEC
 70
     1
  9
$DIMALTU
 70
     2
  9
$DIMALTTD
 70
     2
  9
$DIMTXSTY
  7
ＭＳ ゴシック
  9
$DIMAUNIT
 70
     0
  9
$DIMADEC
 70
     2
  9
$DIMALTRND
 40
0.0
  9
$DIMAZIN
 70
     0
  9
$DIMDSEP
 70
    46
  9
$DIMATFIT
 70
     0
  9
$DIMFRAC
 70
     2
  9
$DIMLDRBLK
  1
DOT
  9
$DIMLUNIT
 70
     2
  9
$DIMLWD
 70
    -2
  9
$DIMLWE
 70
    -2
  9
$DIMTMOVE
 70
     0
  9
$DIMFXL
 40
1.0
  9
$DIMFXLON
 70
     0
  9
$DIMJOGANG
 40
0.7853981633974483
  9
$DIMTFILL
 70
     0
  9
$DIMTFILLCLR
 70
     0
  9
$DIMARCSYM
 70
     0
  9
$DIMLTYPE
  6

  9
$DIMLTEX1
  6

  9
$DIMLTEX2
  6

  9
$LUNITS
 70
     2
  9
$LUPREC
 70
     0
  9
$SKETCHINC
 40
0.1
  9
$FILLETRAD
 40
0.0
  9
$AUNITS
 70
     0
  9
$AUPREC
 70
     0
  9
$MENU
  1
acad
  9
$ELEVATION
 40
0.0
  9
$PELEVATION
 40
0.0
  9
$THICKNESS
 40
0.0
  9
$LIMCHECK
 70
     0
  9
$CHAMFERA
 40
0.0
  9
$CHAMFERB
 40
0.0
  9
$CHAMFERC
 40
0.0
  9
$CHAMFERD
 40
0.0
  9
$SKPOLY
 70
     0
  9
$TDCREATE
 40
2447893.375
  9
$TDUCREATE
 40
0.0
  9
$TDUPDATE
 40
2457611.618937187
  9
$TDUUPDATE
 40
2457611.243937187
  9
$TDINDWG
 40
0.285106169
  9
$TDUSRTIMER
 40
2457611.243864016
  9
$USRTIMER
 70
     1
  9
$ANGBASE
 50
0.0
  9
$ANGDIR
 70
     0
  9
$PDMODE
 70
     1
  9
$PDSIZE
 40
-2.0
  9
$PLINEWID
 40
0.0
  9
$SPLFRAME
 70
     0
  9
$SPLINETYPE
 70
     6
  9
$SPLINESEGS
 70
     8
  9
$HANDSEED
  5
8063
  9
$SURFTAB1
 70
     6
  9
$SURFTAB2
 70
     6
  9
$SURFTYPE
 70
     6
  9
$SURFU
 70
     6
  9
$SURFV
 70
     6
  9
$UCSBASE
  2

  9
$UCSNAME
  2

  9
$UCSORG
 10
0.0
 20
0.0
 30
0.0
  9
$UCSXDIR
 10
1.0
 20
0.0
 30
0.0
  9
$UCSYDIR
 10
0.0
 20
1.0
 30
0.0
  9
$UCSORTHOREF
  2

  9
$UCSORTHOVIEW
 70
     0
  9
$UCSORGTOP
 10
0.0
 20
0.0
 30
0.0
  9
$UCSORGBOTTOM
 10
0.0
 20
0.0
 30
0.0
  9
$UCSORGLEFT
 10
0.0
 20
0.0
 30
0.0
  9
$UCSORGRIGHT
 10
0.0
 20
0.0
 30
0.0
  9
$UCSORGFRONT
 10
0.0
 20
0.0
 30
0.0
  9
$UCSORGBACK
 10
0.0
 20
0.0
 30
0.0
  9
$PUCSBASE
  2

  9
$PUCSNAME
  2

  9
$PUCSORG
 10
0.0
 20
0.0
 30
0.0
  9
$PUCSXDIR
 10
1.0
 20
0.0
 30
0.0
  9
$PUCSYDIR
 10
0.0
 20
1.0
 30
0.0
  9
$PUCSORTHOREF
  2

  9
$PUCSORTHOVIEW
 70
     0
  9
$PUCSORGTOP
 10
0.0
 20
0.0
 30
0.0
  9
$PUCSORGBOTTOM
 10
0.0
 20
0.0
 30
0.0
  9
$PUCSORGLEFT
 10
0.0
 20
0.0
 30
0.0
  9
$PUCSORGRIGHT
 10
0.0
 20
0.0
 30
0.0
  9
$PUCSORGFRONT
 10
0.0
 20
0.0
 30
0.0
  9
$PUCSORGBACK
 10
0.0
 20
0.0
 30
0.0
  9
$USERI1
 70
     0
  9
$USERI2
 70
     0
  9
$USERI3
 70
     0
  9
$USERI4
 70
     0
  9
$USERI5
 70
     0
  9
$USERR1
 40
0.0
  9
$USERR2
 40
0.0
  9
$USERR3
 40
0.0
  9
$USERR4
 40
0.0
  9
$USERR5
 40
0.0
  9
$WORLDVIEW
 70
     1
  9
$SHADEDGE
 70
     3
  9
$SHADEDIF
 70
    70
  9
$TILEMODE
 70
     1
  9
$MAXACTVP
 70
    64
  9
$PINSBASE
 10
0.0
 20
0.0
 30
0.0
  9
$PLIMCHECK
 70
     0
  9
$PEXTMIN
 10
0.0
 20
0.0
 30
0.0
  9
$PEXTMAX
 10
0.0
 20
0.0
 30
0.0
  9
$PLIMMIN
 10
-95.87226993865028
 20
-25.69999999999999
  9
$PLIMMAX
 10
201.1277300613497
 20
184.3
  9
$UNITMODE
 70
     0
  9
$VISRETAIN
 70
     0
  9
$PLINEGEN
 70
     1
  9
$PSLTSCALE
 70
     0
  9
$TREEDEPTH
 70
  3020
  9
$CMLSTYLE
  2
Standard
  9
$CMLJUST
 70
     0
  9
$CMLSCALE
 40
1.0
  9
$PROXYGRAPHICS
 70
     0
  9
$MEASUREMENT
 70
     1
  9
$CELWEIGHT
370
    -1
  9
$ENDCAPS
280
     0
  9
$JOINSTYLE
280
     0
  9
$LWDISPLAY
290
     1
  9
$INSUNITS
 70
     4
  9
$HYPERLINKBASE
  1

  9
$STYLESHEET
  1

  9
$XEDIT
290
     1
  9
$CEPSNTYPE
380
     0
  9
$PSTYLEMODE
290
     1
  9
$FINGERPRINTGUID
  2

  9
$VERSIONGUID
  2

  9
$EXTNAMES
290
     1
  9
$PSVPSCALE
 40
0.0
  9
$OLESTARTUP
290
     0
  9
$SORTENTS
280
   127
  9
$INDEXCTL
280
     0
  9
$HIDETEXT
280
     1
  9
$XCLIPFRAME
290
     0
  9
$HALOGAP
280
     0
  9
$OBSCOLOR
 70
   257
  9
$OBSLTYPE
280
     0
  9
$INTERSECTIONDISPLAY
280
     0
  9
$INTERSECTIONCOLOR
 70
   257
  9
$DIMASSOC
280
     2
  9
$PROJECTNAME
  1

  9
$CAMERADISPLAY
290
     0
  9
$LENSLENGTH
 40
50.0
  9
$CAMERAHEIGHT
 40
0.0
  9
$STEPSPERSEC
 40
2.0
  9
$STEPSIZE
 40
6.0
  9
$3DDWFPREC
 40
2.0
  9
$PSOLWIDTH
 40
0.25
  9
$PSOLHEIGHT
 40
4.0
  9
$LOFTANG1
 40
1.570796326794897
  9
$LOFTANG2
 40
1.570796326794897
  9
$LOFTMAG1
 40
0.0
  9
$LOFTMAG2
 40
0.0
  9
$LOFTPARAM
 70
     7
  9
$LOFTNORMALS
280
     1
  9
$LATITUDE
 40
37.795
  9
$LONGITUDE
 40
-122.394
  9
$NORTHDIRECTION
 40
0.0
  9
$TIMEZONE
 70
 -8000
  9
$LIGHTGLYPHDISPLAY
280
     1
  9
$TILEMODELIGHTSYNCH
280
     1
  9
$SOLIDHIST
280
     1
  9
$SHOWHIST
280
     1
  9
$DWFFRAME
280
     2
  9
$DGNFRAME
280
     2
  9
$REALWORLDSCALE
290
     1
  9
$INTERFERECOLOR
 62
   256
  9
$CSHADOW
280
     0
  9
$SHADOWPLANELOCATION
 40
0.0
  0
ENDSEC
  0
SECTION
  2
CLASSES
  0
CLASS
  1
LWPOLYLINE
  2
AcDbPolyline
  3
ObjectDBX Classes
 90
        0
 91
        1
280
     0
281
     1
  0
CLASS
  1
IMAGE
  2
AcDbRasterImage
  3
ISM
 90
      127
 91
        5
280
     0
281
     1
  0
CLASS
  1
OLE2FRAME
  2
AcDbOle2Frame
  3
ObjectDBX Classes
 90
        0
 91
        1
280
     0
281
     1
  0
CLASS
  1
HATCH
  2
AcDbHatch
  3
ObjectDBX Classes
 90
        0
 91
        1
280
     0
281
     1
  0
CLASS
  1
DICTIONARYVAR
  2
AcDbDictionaryVar
  3
ObjectDBX Classes
 90
        0
 91
        4
280
     0
281
     0
  0
CLASS
  1
RASTERVARIABLES
  2
AcDbRasterVariables
  3
ISM
 90
        0
 91
        4
280
     0
281
     0
  0
CLASS
  1
IMAGEDEF
  2
AcDbRasterImageDef
  3
ISM
 90
        0
 91
        4
280
     0
281
     0
  0
CLASS
  1
IMAGEDEF_REACTOR
  2
AcDbRasterImageDefReactor
  3
ISM
 90
        1
 91
        4
280
     0
281
     0
  0
CLASS
  1
IDBUFFER
  2
AcDbIdBuffer
  3
ObjectDBX Classes
 90
        0
 91
        4
280
     0
281
     0
  0
CLASS
  1
SPATIAL_FILTER
  2
AcDbSpatialFilter
  3
ObjectDBX Classes
 90
        0
 91
        4
280
     0
281
     0
  0
CLASS
  1
XRECORD
  2
AcDbXrecord
  3
ObjectDBX Classes
 90
        0
 91
        1
280
     0
281
     0
  0
CLASS
  1
SORTENTSTABLE
  2
AcDbSortentsTable
  3
ObjectDBX Classes
 90
        0
 91
        4
280
     0
281
     0
  0
CLASS
  1
LAYER_INDEX
  2
AcDbLayerIndex
  3
ObjectDBX Classes
 90
        0
 91
        4
280
     0
281
     0
  0
CLASS
  1
SPATIAL_INDEX
  2
AcDbSpatialIndex
  3
AutoCAD 2000
 90
        0
 91
        4
280
     0
281
     0
  0
CLASS
  1
OBJECT_PTR
  2
CAseDLPNTableRecord
  3
ASE-LPNTableRecord
 90
        1
 91
        4
280
     0
281
     0
  0
CLASS
  1
LAYOUT
  2
AcDbLayout
  3
ObjectDBX Classes
 90
        0
 91
        1
280
     0
281
     0
  0
CLASS
  1
PLOTSETTINGS
  2
AcDbPlotSettings
  3
ObjectDBX Classes
 90
        0
 91
        4
280
     0
281
     0
  0
CLASS
  1
ACDBDICTIONARYWDFLT
  2
AcDbDictionaryWithDefault
  3
ObjectDBX Classes
 90
        0
 91
        4
280
     0
281
     0
  0
CLASS
  1
ACDBPLACEHOLDER
  2
AcDbPlaceHolder
  3
ObjectDBX Classes
 90
        0
 91
        1
280
     0
281
     0
  0
CLASS
  1
SCALE
  2
AcDbScale
  3
ObjectDBX Classes
 90
     1153
 91
        4
280
     0
281
     0
  0
CLASS
  1
MATERIAL
  2
AcDbMaterial
  3
ObjectDBX Classes
 90
     1153
 91
        4
280
     0
281
     0
  0
CLASS
  1
VISUALSTYLE
  2
AcDbVisualStyle
  3
ObjectDBX Classes
 90
     4095
 91
        4
280
     0
281
     0
  0
CLASS
  1
TABLESTYLE
  2
AcDbTableStyle
  3
ObjectDBX Classes
 90
     4095
 91
        4
280
     0
281
     0
  0
CLASS
  1
DIMASSOC
  2
AcDbDimAssoc
  3
"AcDbDimAssoc|Product Desc:     AcDim ARX App For Dimension|Company:          Autodesk, Inc.|WEB Address:      www.autodesk.com"
 90
        0
 91
        4
280
     0
281
     0
  0
CLASS
  1
CELLSTYLEMAP
  2
AcDbCellStyleMap
  3
ObjectDBX Classes
 90
     1152
 91
        4
280
     0
281
     0
  0
CLASS
  1
SUN
  2
AcDbSun
  3
SCENEOE
 90
     1153
 91
        4
280
     0
281
     0
  0
CLASS
  1
MLEADERSTYLE
  2
AcDbMLeaderStyle
  3
ACDB_MLEADERSTYLE_CLASS
 90
     4095
 91
        4
280
     0
281
     0
  0
CLASS
  1
FIELD
  2
AcDbField
  3
ObjectDBX Classes
 90
     1152
 91
        4
280
     0
281
     0
  0
CLASS
  1
FIELDLIST
  2
AcDbFieldList
  3
ObjectDBX Classes
 90
     1152
 91
        4
280
     0
281
     0
  0
ENDSEC
  0
SECTION
  2
TABLES
  0
TABLE
  2
VPORT
  5
7
330
0
100
AcDbSymbolTable
 70
     1
  0
VPORT
  5
15
330
7
100
AcDbSymbolTableRecord
100
AcDbViewportTableRecord
  2
*ACTIVE
 70
     0
 10
0.0
 20
0.0
 11
1.0
 21
1.0
 12
511.0201356708977
 22
520.401285469834
 13
0.0
 23
0.0
 14
1.0
 24
1.0
 15
0.0
 25
0.0
 16
0.0
 26
0.0
 36
1.0
 17
-91.02013567089762
 27
73.59871453016603
 37
-46.86809886248109
 40
1211.76
 41
2.476261127596439
 42
50.0
 43
0.0
 44
0.0
 50
0.0
 51
0.0
 71
    16
 72
  2000
 73
     1
 74
     1
 75
     0
 76
     0
 77
     0
 78
     0
281
     0
 65
     1
110
0.0
120
0.0
130
0.0
111
1.0
121
0.0
131
0.0
112
0.0
122
1.0
132
0.0
 79
     0
146
0.0
348
26C
 60
     3
 61
     5
292
     1
282
     1
141
0.0
142
0.0
 63
   256
361
904
  0
ENDTAB
  0
TABLE
  2
LTYPE
  5
4
330
0
100
AcDbSymbolTable
 70
     6
  0
LTYPE
  5
11
330
4
100
AcDbSymbolTableRecord
100
AcDbLinetypeTableRecord
  2
ByBlock
 70
     0
  3

 72
    65
 73
     0
 40
0.0
  0
LTYPE
  5
12
330
4
100
AcDbSymbolTableRecord
100
AcDbLinetypeTableRecord
  2
ByLayer
 70
     0
  3

 72
    65
 73
     0
 40
0.0
  0
LTYPE
  5
13
330
4
100
AcDbSymbolTableRecord
100
AcDbLinetypeTableRecord
  2
Continuous
 70
     0
  3
Solid line
 72
    65
 73
     0
 40
0.0
  0
LTYPE
  5
16E4
330
4
100
AcDbSymbolTableRecord
100
AcDbLinetypeTableRecord
  2
CENTER
 70
     0
  3
 Center _____  _  _____  _  _____  _  _____  _ 
 72
    65
 73
     4
 40
50.8
 49
31.75
 74
     0
 49
-6.35
 74
     0
 49
6.35
 74
     0
 49
-6.35
 74
     0
  0
LTYPE
  5
1AB3
330
4
100
AcDbSymbolTableRecord
100
AcDbLinetypeTableRecord
  2
BORDER
 70
     0
  3
Border __  __  . __  __  . __  __  . __  __  . 
 72
    65
 73
     6
 40
44.45
 49
12.7
 74
     0
 49
-6.35
 74
     0
 49
12.7
 74
     0
 49
-6.35
 74
     0
 49
0.0
 74
     0
 49
-6.35
 74
     0
  0
LTYPE
  5
1EC6
330
4
100
AcDbSymbolTableRecord
100
AcDbLinetypeTableRecord
  2
HIDDEN2
 70
     0
  3
Hidden (.5x) _ _ _ _ _ _ _ _ _ _ _ _ _ _ _ _ _ 
 72
    65
 73
     2
 40
4.7625
 49
3.175
 74
     4
 75
     0
340
0
 46
0.0
 50
0.0
 44
0.0
 45
0.0
 49
-1.5875
 74
     4
 75
     0
340
0
 46
0.0
 50
0.0
 44
0.0
 45
0.0
  0
LTYPE
  5
1EC7
330
4
100
AcDbSymbolTableRecord
100
AcDbLinetypeTableRecord
  2
CENTER2
 70
     0
  3
Center (.5x) ___ _ ___ _ ___ _ ___ _ ___ _ ___
 72
    65
 73
     4
 40
28.575
 49
19.05
 74
     4
 75
     0
340
0
 46
0.0
 50
0.0
 44
0.0
 45
0.0
 49
-3.175
 74
     4
 75
     0
340
0
 46
0.0
 50
0.0
 44
0.0
 45
0.0
 49
3.175
 74
     4
 75
     0
340
0
 46
0.0
 50
0.0
 44
0.0
 45
0.0
 49
-3.175
 74
     4
 75
     0
340
0
 46
0.0
 50
0.0
 44
0.0
 45
0.0
  0
LTYPE
  5
71E9
330
4
100
AcDbSymbolTableRecord
100
AcDbLinetypeTableRecord
  2
HIDDEN
 70
     0
  3
Hidden _ _ _ _ _ _ _ _ _ _ _ _ _ _ _ _ _ _ _ _ 
 72
    65
 73
     2
 40
9.524999999999999
 49
6.35
 74
     0
 49
-3.175
 74
     0
  0
ENDTAB
  0
TABLE
  2
LAYER
  5
2
102
{ACAD_XDICTIONARY
360
2E1
102
}
330
0
100
AcDbSymbolTable
 70
     9
  0
LAYER
  5
14
330
2
100
AcDbSymbolTableRecord
100
AcDbLayerTableRecord
  2
0
 70
     0
 62
     7
  6
Continuous
370
    -3
390
1D
347
266
  0
LAYER
  5
4B
330
2
100
AcDbSymbolTableRecord
100
AcDbLayerTableRecord
  2
TEMPLATE
 70
     0
 62
     7
  6
Continuous
370
    20
390
1D
347
266
  0
LAYER
  5
4C
330
2
100
AcDbSymbolTableRecord
100
AcDbLayerTableRecord
  2
DIM
 70
     0
 62
     3
  6
Continuous
370
    13
390
1D
347
266
1001
AcCmTransparency
1071
 33554687
  0
LAYER
  5
4D
330
2
100
AcDbSymbolTableRecord
100
AcDbLayerTableRecord
  2
MODEL
 70
     0
 62
     7
  6
Continuous
370
    20
390
1D
347
266
  0
LAYER
  5
667
330
2
100
AcDbSymbolTableRecord
100
AcDbLayerTableRecord
  2
LOGO
 70
     0
 62
     7
  6
Continuous
370
    -3
390
1D
347
266
  0
LAYER
  5
DDE
330
2
100
AcDbSymbolTableRecord
100
AcDbLayerTableRecord
  2
Defpoints
 70
     0
 62
     7
  6
Continuous
290
     0
370
    -3
390
1D
347
266
  0
LAYER
  5
E72
330
2
100
AcDbSymbolTableRecord
100
AcDbLayerTableRecord
  2
Standard
 70
     0
 62
     7
  6
Continuous
370
    -3
390
1D
347
266
  0
LAYER
  5
19F1
330
2
100
AcDbSymbolTableRecord
100
AcDbLayerTableRecord
  2
PRINT
 70
     0
 62
     4
  6
Continuous
290
     0
370
    20
390
1D
347
266
1001
AcAecLayerStandard
1000

1000

  0
LAYER
  5
775B
102
{ACAD_XDICTIONARY
360
775C
102
}
330
2
100
AcDbSymbolTableRecord
100
AcDbLayerTableRecord
  2
SPESSA
 70
     0
 62
     4
  6
Continuous
370
    -3
390
1D
347
266
  0
ENDTAB
  0
TABLE
  2
STYLE
  5
3
330
0
100
AcDbSymbolTable
 70
     4
  0
STYLE
  5
17
330
3
100
AcDbSymbolTableRecord
100
AcDbTextStyleTableRecord
  2
Standard
 70
     0
 40
0.0
 41
1.0
 50
0.0
 71
     0
 42
2.5
  3
txt
  4
BIGFONT.SHX
  0
STYLE
  5
39
330
3
100
AcDbSymbolTableRecord
100
AcDbTextStyleTableRecord
  2
ＭＳ ゴシック
 70
     0
 40
0.0
 41
1.0
 50
0.0
 71
     0
 42
2.5
  3
msgothic.ttc
  4
ＭＳ ゴシック
1001
ACAD
1000
ＭＳ ゴシック
1071
        0
  0
STYLE
  5
7761
330
3
100
AcDbSymbolTableRecord
100
AcDbTextStyleTableRecord
  2
ARIAL
 70
     0
 40
0.0
 41
1.0
 50
0.0
 71
     0
 42
2.5
  3
ARIAL.TTF
  4

1001
ACAD
1000
Arial
1071
       34
  0
STYLE
  5
7762
330
3
100
AcDbSymbolTableRecord
100
AcDbTextStyleTableRecord
  2
ROMANS
 70
     0
 40
0.0
 41
1.0
 50
0.0
 71
     0
 42
2.5
  3
romans.shx
  4

  0
ENDTAB
  0
TABLE
  2
VIEW
  5
5
330
0
100
AcDbSymbolTable
 70
     0
  0
ENDTAB
  0
TABLE
  2
UCS
  5
6
330
0
100
AcDbSymbolTable
 70
     0
  0
ENDTAB
  0
TABLE
  2
APPID
  5
8
330
0
100
AcDbSymbolTable
 70
     4
  0
APPID
  5
16
330
8
100
AcDbSymbolTableRecord
100
AcDbRegAppTableRecord
  2
ACAD
 70
     0
  0
APPID
  5
7AC
330
8
100
AcDbSymbolTableRecord
100
AcDbRegAppTableRecord
  2
AcAecLayerStandard
 70
     0
  0
APPID
  5
1AAF
330
8
100
AcDbSymbolTableRecord
100
AcDbRegAppTableRecord
  2
ACAD_MLEADERVER
 70
     0
  0
APPID
  5
7C36
330
8
100
AcDbSymbolTableRecord
100
AcDbRegAppTableRecord
  2
AcCmTransparency
 70
     0
  0
ENDTAB
  0
TABLE
  2
DIMSTYLE
  5
9
330
0
100
AcDbSymbolTable
 70
     4
100
AcDbDimStyleTable
  0
DIMSTYLE
105
18
330
9
100
AcDbSymbolTableRecord
100
AcDbDimStyleTableRecord
  2
Standard
 70
     0
178
     0
340
17
  0
DIMSTYLE
105
57
102
{ACAD_REACTORS
330
7B62
330
7B43
330
7B4C
330
7D12
330
7D14
330
7D18
330
7D1B
330
7D23
330
7E37
330
7FCF
102
}
330
9
100
AcDbSymbolTableRecord
100
AcDbDimStyleTableRecord
  2
tfrom線あり
 70
     0
  3
<>
  4
[]
 41
2.0
 42
10.0
 43
0.0
 44
0.0
 73
     0
 74
     0
 77
     1
 78
    11
140
9.0
141
0.0
143
1.0
147
10.0
171
     1
174
     1
178
     0
179
     2
271
     0
272
     1
276
     2
284
    11
285
    11
286
    11
289
     0
340
39
341
4E
342
4E
  0
DIMSTYLE
105
68D8
330
9
100
AcDbSymbolTableRecord
100
AcDbDimStyleTableRecord
  2
ISO-25
 70
     0
 41
2.5
 42
0.625
 43
3.75
 44
1.25
 73
     0
 74
     0
 77
     1
 78
     8
140
2.5
141
2.5
143
0.03937007874016
147
0.625
171
     3
172
     1
178
     0
271
     2
272
     2
274
     3
278
    44
283
     0
284
     8
340
17
  0
DIMSTYLE
105
7760
102
{ACAD_REACTORS
102
}
330
9
100
AcDbSymbolTableRecord
100
AcDbDimStyleTableRecord
  2
ARIAL
 70
     0
 41
10.0
 42
3.0
 43
0.5
 44
3.0
 73
     0
 74
     0
 77
     1
 78
     8
140
12.0
141
0.0
146
0.5
147
4.0
171
     1
172
     1
178
     0
271
     1
289
     0
340
7761
  0
ENDTAB
  0
TABLE
  2
BLOCK_RECORD
  5
1
330
0
100
AcDbSymbolTable
 70
    70
  0
BLOCK_RECORD
  5
A
330
1
100
AcDbSymbolTableRecord
100
AcDbBlockTableRecord
  2
*MODEL_SPACE
340
20
 70
     0
280
     1
281
     0
  0
BLOCK_RECORD
  5
B
330
1
100
AcDbSymbolTableRecord
100
AcDbBlockTableRecord
  2
*PAPER_SPACE
340
21
 70
     0
280
     1
281
     0
  0
BLOCK_RECORD
  5
4E
330
1
100
AcDbSymbolTableRecord
100
AcDbBlockTableRecord
  2
_DOT
340
0
102
{BLKREFS
331
175B
331
175C
331
176A
331
176B
331
1786
331
1787
331
17A6
331
17A7
331
17C3
331
17C4
331
5294
331
5295
331
52A2
331
52A3
331
52E3
331
52E4
331
5364
331
5365
331
6D40
331
6D41
331
6D5A
331
6D5B
331
6D67
331
6D68
331
6D75
331
6D76
331
70A2
331
70A3
331
70D9
331
70DA
331
70E6
331
70E7
331
70FB
331
70FC
331
7B6A
331
7B6B
331
7B76
331
7B77
331
7B85
331
7B86
331
7B91
331
7B92
331
7B9D
331
7B9E
331
7BAC
331
7BAD
331
7BB8
331
7BB9
331
7BC6
331
7BC7
331
7BD3
331
7BD4
331
7BE1
331
7BE2
331
7BEE
331
7BEF
331
7BFC
331
7BFD
331
7C09
331
7C0A
331
7C17
331
7C18
331
7C27
331
7C28
331
7E40
331
7E41
331
7E4C
331
7E4D
331
7E58
331
7E59
331
7E64
331
7E65
331
7E70
331
7E71
331
7E7C
331
7E7D
331
7E88
331
7E89
331
7E96
331
7E97
331
7EA2
331
7EA3
331
7EB0
331
7EB1
331
7EBC
331
7EBD
331
7ECA
331
7ECB
331
7ED6
331
7ED7
331
7EE2
331
7EE3
331
7EF0
331
7EF1
331
7F37
331
7F38
331
7FD8
331
7FD9
102
}
 70
     0
280
     1
281
     0
  0
BLOCK_RECORD
  5
68A
330
1
100
AcDbSymbolTableRecord
100
AcDbBlockTableRecord
  2
名称未設定-1
340
0
102
{BLKREFS
331
6B5
102
}
 70
     1
280
     1
281
     0
  0
BLOCK_RECORD
  5
68D
330
1
100
AcDbSymbolTableRecord
100
AcDbBlockTableRecord
  2
block 2
340
0
102
{BLKREFS
331
68C
102
}
 70
     0
280
     1
281
     0
  0
BLOCK_RECORD
  5
690
330
1
100
AcDbSymbolTableRecord
100
AcDbBlockTableRecord
  2
block 3
340
0
102
{BLKREFS
331
68F
102
}
 70
     0
280
     1
281
     0
  0
BLOCK_RECORD
  5
693
330
1
100
AcDbSymbolTableRecord
100
AcDbBlockTableRecord
  2
block 4
340
0
102
{BLKREFS
331
692
102
}
 70
     0
280
     1
281
     0
  0
BLOCK_RECORD
  5
6A2
330
1
100
AcDbSymbolTableRecord
100
AcDbBlockTableRecord
  2
block 5
340
0
102
{BLKREFS
331
6A1
102
}
 70
     0
280
     1
281
     0
  0
BLOCK_RECORD
  5
1755
330
1
100
AcDbSymbolTableRecord
100
AcDbBlockTableRecord
  2
*D6
340
0
 70
     0
280
     1
281
     0
  0
BLOCK_RECORD
  5
1764
330
1
100
AcDbSymbolTableRecord
100
AcDbBlockTableRecord
  2
*D7
340
0
 70
     0
280
     1
281
     0
  0
BLOCK_RECORD
  5
1780
330
1
100
AcDbSymbolTableRecord
100
AcDbBlockTableRecord
  2
*D8
340
0
 70
     0
280
     1
281
     0
  0
BLOCK_RECORD
  5
17A0
330
1
100
AcDbSymbolTableRecord
100
AcDbBlockTableRecord
  2
*D9
340
0
 70
     0
280
     1
281
     0
  0
BLOCK_RECORD
  5
17BC
330
1
100
AcDbSymbolTableRecord
100
AcDbBlockTableRecord
  2
*D10
340
0
 70
     0
280
     1
281
     0
  0
BLOCK_RECORD
  5
528E
330
1
100
AcDbSymbolTableRecord
100
AcDbBlockTableRecord
  2
*D11
340
0
 70
     0
280
     1
281
     0
  0
BLOCK_RECORD
  5
529C
330
1
100
AcDbSymbolTableRecord
100
AcDbBlockTableRecord
  2
*D12
340
0
 70
     0
280
     1
281
     0
  0
BLOCK_RECORD
  5
52DD
330
1
100
AcDbSymbolTableRecord
100
AcDbBlockTableRecord
  2
*D13
340
0
 70
     0
280
     1
281
     0
  0
BLOCK_RECORD
  5
535E
330
1
100
AcDbSymbolTableRecord
100
AcDbBlockTableRecord
  2
*D14
340
0
 70
     0
280
     1
281
     0
  0
BLOCK_RECORD
  5
6D39
330
1
100
AcDbSymbolTableRecord
100
AcDbBlockTableRecord
  2
*D15
340
0
 70
     0
280
     1
281
     0
  0
BLOCK_RECORD
  5
6D54
330
1
100
AcDbSymbolTableRecord
100
AcDbBlockTableRecord
  2
*D16
340
0
 70
     0
280
     1
281
     0
  0
BLOCK_RECORD
  5
6D61
330
1
100
AcDbSymbolTableRecord
100
AcDbBlockTableRecord
  2
*D17
340
0
 70
     0
280
     1
281
     0
  0
BLOCK_RECORD
  5
6D6F
330
1
100
AcDbSymbolTableRecord
100
AcDbBlockTableRecord
  2
*D18
340
0
 70
     0
280
     1
281
     0
  0
BLOCK_RECORD
  5
709C
330
1
100
AcDbSymbolTableRecord
100
AcDbBlockTableRecord
  2
*D19
340
0
 70
     0
280
     1
281
     0
  0
BLOCK_RECORD
  5
70D3
330
1
100
AcDbSymbolTableRecord
100
AcDbBlockTableRecord
  2
*D20
340
0
 70
     0
280
     1
281
     0
  0
BLOCK_RECORD
  5
70E0
330
1
100
AcDbSymbolTableRecord
100
AcDbBlockTableRecord
  2
*D21
340
0
 70
     0
280
     1
281
     0
  0
BLOCK_RECORD
  5
70F5
330
1
100
AcDbSymbolTableRecord
100
AcDbBlockTableRecord
  2
*D22
340
0
 70
     0
280
     1
281
     0
  0
BLOCK_RECORD
  5
77E0
330
1
100
AcDbSymbolTableRecord
100
AcDbBlockTableRecord
  2
*D23
340
0
 70
     0
280
     1
281
     0
  0
BLOCK_RECORD
  5
77ED
330
1
100
AcDbSymbolTableRecord
100
AcDbBlockTableRecord
  2
*D24
340
0
 70
     0
280
     1
281
     0
  0
BLOCK_RECORD
  5
77FC
330
1
100
AcDbSymbolTableRecord
100
AcDbBlockTableRecord
  2
*D25
340
0
 70
     0
280
     1
281
     0
  0
BLOCK_RECORD
  5
780C
330
1
100
AcDbSymbolTableRecord
100
AcDbBlockTableRecord
  2
*D26
340
0
 70
     0
280
     1
281
     0
  0
BLOCK_RECORD
  5
7819
330
1
100
AcDbSymbolTableRecord
100
AcDbBlockTableRecord
  2
*D27
340
0
 70
     0
280
     1
281
     0
  0
BLOCK_RECORD
  5
7829
330
1
100
AcDbSymbolTableRecord
100
AcDbBlockTableRecord
  2
*D28
340
0
 70
     0
280
     1
281
     0
  0
BLOCK_RECORD
  5
783D
330
1
100
AcDbSymbolTableRecord
100
AcDbBlockTableRecord
  2
*D29
340
0
 70
     0
280
     1
281
     0
  0
BLOCK_RECORD
  5
784A
330
1
100
AcDbSymbolTableRecord
100
AcDbBlockTableRecord
  2
*D30
340
0
 70
     0
280
     1
281
     0
  0
BLOCK_RECORD
  5
7953
330
1
100
AcDbSymbolTableRecord
100
AcDbBlockTableRecord
  2
*D31
340
0
 70
     0
280
     1
281
     0
  0
BLOCK_RECORD
  5
7967
330
1
100
AcDbSymbolTableRecord
100
AcDbBlockTableRecord
  2
*D32
340
0
 70
     0
280
     1
281
     0
  0
BLOCK_RECORD
  5
7976
330
1
100
AcDbSymbolTableRecord
100
AcDbBlockTableRecord
  2
*D33
340
0
 70
     0
280
     1
281
     0
  0
BLOCK_RECORD
  5
7983
330
1
100
AcDbSymbolTableRecord
100
AcDbBlockTableRecord
  2
*D34
340
0
 70
     0
280
     1
281
     0
  0
BLOCK_RECORD
  5
79A5
330
1
100
AcDbSymbolTableRecord
100
AcDbBlockTableRecord
  2
*D35
340
0
 70
     0
280
     1
281
     0
  0
BLOCK_RECORD
  5
79B4
330
1
100
AcDbSymbolTableRecord
100
AcDbBlockTableRecord
  2
*D36
340
0
 70
     0
280
     1
281
     0
  0
BLOCK_RECORD
  5
79C3
330
1
100
AcDbSymbolTableRecord
100
AcDbBlockTableRecord
  2
*D37
340
0
 70
     0
280
     1
281
     0
  0
BLOCK_RECORD
  5
7B64
330
1
100
AcDbSymbolTableRecord
100
AcDbBlockTableRecord
  2
*D38
340
0
 70
     0
280
     1
281
     0
  0
BLOCK_RECORD
  5
7B70
330
1
100
AcDbSymbolTableRecord
100
AcDbBlockTableRecord
  2
*D39
340
0
 70
     0
280
     1
281
     0
  0
BLOCK_RECORD
  5
7B7F
330
1
100
AcDbSymbolTableRecord
100
AcDbBlockTableRecord
  2
*D40
340
0
 70
     0
280
     1
281
     0
  0
BLOCK_RECORD
  5
7B8B
330
1
100
AcDbSymbolTableRecord
100
AcDbBlockTableRecord
  2
*D41
340
0
 70
     0
280
     1
281
     0
  0
BLOCK_RECORD
  5
7B97
330
1
100
AcDbSymbolTableRecord
100
AcDbBlockTableRecord
  2
*D42
340
0
 70
     0
280
     1
281
     0
  0
BLOCK_RECORD
  5
7BA6
330
1
100
AcDbSymbolTableRecord
100
AcDbBlockTableRecord
  2
*D43
340
0
 70
     0
280
     1
281
     0
  0
BLOCK_RECORD
  5
7BB2
330
1
100
AcDbSymbolTableRecord
100
AcDbBlockTableRecord
  2
*D44
340
0
 70
     0
280
     1
281
     0
  0
BLOCK_RECORD
  5
7BBE
330
1
100
AcDbSymbolTableRecord
100
AcDbBlockTableRecord
  2
*D45
340
0
 70
     0
280
     1
281
     0
  0
BLOCK_RECORD
  5
7BCD
330
1
100
AcDbSymbolTableRecord
100
AcDbBlockTableRecord
  2
*D46
340
0
 70
     0
280
     1
281
     0
  0
BLOCK_RECORD
  5
7BD9
330
1
100
AcDbSymbolTableRecord
100
AcDbBlockTableRecord
  2
*D47
340
0
 70
     0
280
     1
281
     0
  0
BLOCK_RECORD
  5
7BE8
330
1
100
AcDbSymbolTableRecord
100
AcDbBlockTableRecord
  2
*D48
340
0
 70
     0
280
     1
281
     0
  0
BLOCK_RECORD
  5
7BF4
330
1
100
AcDbSymbolTableRecord
100
AcDbBlockTableRecord
  2
*D49
340
0
 70
     0
280
     1
281
     0
  0
BLOCK_RECORD
  5
7C03
330
1
100
AcDbSymbolTableRecord
100
AcDbBlockTableRecord
  2
*D50
340
0
 70
     0
280
     1
281
     0
  0
BLOCK_RECORD
  5
7C11
330
1
100
AcDbSymbolTableRecord
100
AcDbBlockTableRecord
  2
*D51
340
0
 70
     0
280
     1
281
     0
  0
BLOCK_RECORD
  5
7C1F
330
1
100
AcDbSymbolTableRecord
100
AcDbBlockTableRecord
  2
*D52
340
0
 70
     0
280
     1
281
     0
  0
BLOCK_RECORD
  5
7E3A
330
1
100
AcDbSymbolTableRecord
100
AcDbBlockTableRecord
  2
*D53
340
0
 70
     0
280
     1
281
     0
  0
BLOCK_RECORD
  5
7E46
330
1
100
AcDbSymbolTableRecord
100
AcDbBlockTableRecord
  2
*D54
340
0
 70
     0
280
     1
281
     0
  0
BLOCK_RECORD
  5
7E52
330
1
100
AcDbSymbolTableRecord
100
AcDbBlockTableRecord
  2
*D55
340
0
 70
     0
280
     1
281
     0
  0
BLOCK_RECORD
  5
7E5E
330
1
100
AcDbSymbolTableRecord
100
AcDbBlockTableRecord
  2
*D56
340
0
 70
     0
280
     1
281
     0
  0
BLOCK_RECORD
  5
7E6A
330
1
100
AcDbSymbolTableRecord
100
AcDbBlockTableRecord
  2
*D57
340
0
 70
     0
280
     1
281
     0
  0
BLOCK_RECORD
  5
7E76
330
1
100
AcDbSymbolTableRecord
100
AcDbBlockTableRecord
  2
*D58
340
0
 70
     0
280
     1
281
     0
  0
BLOCK_RECORD
  5
7E82
330
1
100
AcDbSymbolTableRecord
100
AcDbBlockTableRecord
  2
*D59
340
0
 70
     0
280
     1
281
     0
  0
BLOCK_RECORD
  5
7E8E
330
1
100
AcDbSymbolTableRecord
100
AcDbBlockTableRecord
  2
*D60
340
0
 70
     0
280
     1
281
     0
  0
BLOCK_RECORD
  5
7E9C
330
1
100
AcDbSymbolTableRecord
100
AcDbBlockTableRecord
  2
*D61
340
0
 70
     0
280
     1
281
     0
  0
BLOCK_RECORD
  5
7EA8
330
1
100
AcDbSymbolTableRecord
100
AcDbBlockTableRecord
  2
*D62
340
0
 70
     0
280
     1
281
     0
  0
BLOCK_RECORD
  5
7EB6
330
1
100
AcDbSymbolTableRecord
100
AcDbBlockTableRecord
  2
*D63
340
0
 70
     0
280
     1
281
     0
  0
BLOCK_RECORD
  5
7EC2
330
1
100
AcDbSymbolTableRecord
100
AcDbBlockTableRecord
  2
*D64
340
0
 70
     0
280
     1
281
     0
  0
BLOCK_RECORD
  5
7ED0
330
1
100
AcDbSymbolTableRecord
100
AcDbBlockTableRecord
  2
*D65
340
0
 70
     0
280
     1
281
     0
  0
BLOCK_RECORD
  5
7EDC
330
1
100
AcDbSymbolTableRecord
100
AcDbBlockTableRecord
  2
*D66
340
0
 70
     0
280
     1
281
     0
  0
BLOCK_RECORD
  5
7EE8
330
1
100
AcDbSymbolTableRecord
100
AcDbBlockTableRecord
  2
*D67
340
0
 70
     0
280
     1
281
     0
  0
BLOCK_RECORD
  5
7F31
330
1
100
AcDbSymbolTableRecord
100
AcDbBlockTableRecord
  2
*D68
340
0
 70
     0
280
     1
281
     0
  0
BLOCK_RECORD
  5
7FD2
330
1
100
AcDbSymbolTableRecord
100
AcDbBlockTableRecord
  2
*D69
340
0
 70
     0
280
     1
281
     0
  0
ENDTAB
  0
ENDSEC
  0
SECTION
  2
BLOCKS
  0
BLOCK
  5
D
330
A
100
AcDbEntity
  8
0
390
1D
100
AcDbBlockBegin
  2
*MODEL_SPACE
 70
     0
 10
0.0
 20
0.0
 30
0.0
  3
*MODEL_SPACE
  1
*MODEL_SPACE
  0
ENDBLK
  5
E
330
A
100
AcDbEntity
  8
0
390
1D
100
AcDbBlockEnd
  0
BLOCK
  5
F
330
B
100
AcDbEntity
 67
     1
  8
0
390
1D
100
AcDbBlockBegin
  2
*PAPER_SPACE
 70
     0
 10
0.0
 20
0.0
 30
0.0
  3
*PAPER_SPACE
  1
*PAPER_SPACE
  0
ENDBLK
  5
10
330
B
100
AcDbEntity
 67
     1
  8
0
390
1D
100
AcDbBlockEnd
  0
BLOCK
  5
803F
330
4E
100
AcDbEntity
  8
0
390
1D
100
AcDbBlockBegin
  2
_DOT
 70
     0
 10
0.0
 20
0.0
 30
0.0
  3
_DOT
  1
_DOT
  0
POLYLINE
  5
8041
330
4E
100
AcDbEntity
  8
0
  6
ByBlock
 62
     0
370
    -2
390
1D
100
AcDb2dPolyline
 66
     1
 10
0.0
 20
0.0
 30
0.0
 70
     1
 40
0.5
 41
0.5
  0
VERTEX
  5
8042
330
8041
100
AcDbEntity
  8
0
  6
ByBlock
 62
     0
370
    -2
390
1D
100
AcDbVertex
100
AcDb2dVertex
 10
-0.25
 20
0.0
 30
0.0
 42
1.0
  0
VERTEX
  5
8043
330
8041
100
AcDbEntity
  8
0
  6
ByBlock
 62
     0
370
    -2
390
1D
100
AcDbVertex
100
AcDb2dVertex
 10
0.25
 20
0.0
 30
0.0
 42
1.0
  0
SEQEND
  5
8044
330
8041
100
AcDbEntity
  8
0
390
1D
  0
LINE
  5
8045
330
4E
100
AcDbEntity
  8
0
  6
ByBlock
 62
     0
370
    -2
390
1D
100
AcDbLine
 10
-0.5
 20
0.0
 30
0.0
 11
-1.0
 21
0.0
 31
0.0
  0
ENDBLK
  5
8046
330
4E
100
AcDbEntity
  8
0
390
1D
100
AcDbBlockEnd
  0
BLOCK
  5
68B
330
68A
100
AcDbEntity
  8
0
100
AcDbBlockBegin
  2
名称未設定-1
 70
     0
 10
0.0
 20
0.0
 30
0.0
  3
名称未設定-1
  1
名称未設定-1
  0
INSERT
  5
68F
330
68A
100
AcDbEntity
  8
LOGO
100
AcDbBlockReference
  2
block 3
 10
0.0
 20
0.0
 30
0.0
  0
ENDBLK
  5
6B1
330
68A
100
AcDbEntity
  8
0
100
AcDbBlockEnd
  0
BLOCK
  5
68E
330
68D
100
AcDbEntity
  8
0
100
AcDbBlockBegin
  2
block 2
 70
     0
 10
0.0
 20
0.0
 30
0.0
  3
block 2
  1
block 2
  0
ENDBLK
  5
6B0
330
68D
100
AcDbEntity
  8
0
100
AcDbBlockEnd
  0
BLOCK
  5
691
330
690
100
AcDbEntity
  8
0
100
AcDbBlockBegin
  2
block 3
 70
     0
 10
0.0
 20
0.0
 30
0.0
  3
block 3
  1
block 3
  0
INSERT
  5
692
330
690
100
AcDbEntity
  8
LOGO
100
AcDbBlockReference
  2
block 4
 10
0.0
 20
0.0
 30
0.0
  0
INSERT
  5
6A1
330
690
100
AcDbEntity
  8
LOGO
100
AcDbBlockReference
  2
block 5
 10
0.0
 20
0.0
 30
0.0
  0
ENDBLK
  5
6AF
330
690
100
AcDbEntity
  8
0
100
AcDbBlockEnd
  0
BLOCK
  5
694
330
693
100
AcDbEntity
  8
0
100
AcDbBlockBegin
  2
block 4
 70
     0
 10
0.0
 20
0.0
 30
0.0
  3
block 4
  1
block 4
  0
POLYLINE
  5
695
330
693
100
AcDbEntity
  8
LOGO
370
     0
100
AcDb2dPolyline
 66
     1
 10
0.0
 20
0.0
 30
0.0
  0
VERTEX
  5
696
330
695
100
AcDbEntity
  8
LOGO
370
     0
100
AcDbVertex
100
AcDb2dVertex
 10
83.79545727667795
 20
167.6444858234922
 30
0.0
  0
VERTEX
  5
697
330
695
100
AcDbEntity
  8
LOGO
370
     0
100
AcDbVertex
100
AcDb2dVertex
 10
83.79545727667795
 20
159.7968976406313
 30
0.0
  0
VERTEX
  5
698
330
695
100
AcDbEntity
  8
LOGO
370
     0
100
AcDbVertex
100
AcDb2dVertex
 10
71.3631329975216
 20
159.7968976406313
 30
0.0
  0
VERTEX
  5
699
330
695
100
AcDbEntity
  8
LOGO
370
     0
100
AcDbVertex
100
AcDb2dVertex
 10
71.3631329975216
 20
127.8027915271048
 30
0.0
  0
VERTEX
  5
69A
330
695
100
AcDbEntity
  8
LOGO
370
     0
100
AcDbVertex
100
AcDb2dVertex
 10
60.43011526263018
 20
127.8027915271048
 30
0.0
  0
VERTEX
  5
69B
330
695
100
AcDbEntity
  8
LOGO
370
     0
100
AcDbVertex
100
AcDb2dVertex
 10
60.43011526263018
 20
159.7968976406313
 30
0.0
  0
VERTEX
  5
69C
330
695
100
AcDbEntity
  8
LOGO
370
     0
100
AcDbVertex
100
AcDb2dVertex
 10
48.21793273020759
 20
159.7968976406313
 30
0.0
  0
VERTEX
  5
69D
330
695
100
AcDbEntity
  8
LOGO
370
     0
100
AcDbVertex
100
AcDb2dVertex
 10
48.21793273020759
 20
167.6444858234922
 30
0.0
  0
VERTEX
  5
69E
330
695
100
AcDbEntity
  8
LOGO
370
     0
100
AcDbVertex
100
AcDb2dVertex
 10
83.79545727667795
 20
167.6444858234922
 30
0.0
  0
SEQEND
  5
69F
330
695
100
AcDbEntity
  8
LOGO
370
     0
  0
HATCH
  5
6A0
330
693
100
AcDbEntity
  8
LOGO
 62
   250
420
  2234388
100
AcDbHatch
 10
0.0
 20
0.0
 30
0.0
210
0.0
220
0.0
230
1.0
  2
SOLID
 70
     1
 71
     0
 91
        1
 92
        1
 93
        8
 72
     1
 10
83.79545727667795
 20
167.6444858234922
 11
83.79545727667795
 21
159.7968976406313
 72
     1
 10
83.79545727667795
 20
159.7968976406313
 11
71.3631329975216
 21
159.7968976406313
 72
     1
 10
71.3631329975216
 20
159.7968976406313
 11
71.3631329975216
 21
127.8027915271048
 72
     1
 10
71.3631329975216
 20
127.8027915271048
 11
60.43011526263018
 21
127.8027915271048
 72
     1
 10
60.43011526263018
 20
127.8027915271048
 11
60.43011526263018
 21
159.7968976406313
 72
     1
 10
60.43011526263018
 20
159.7968976406313
 11
48.21793273020759
 21
159.7968976406313
 72
     1
 10
48.21793273020759
 20
159.7968976406313
 11
48.21793273020759
 21
167.6444858234922
 72
     1
 10
48.21793273020759
 20
167.6444858234922
 11
83.79545727667795
 21
167.6444858234922
 97
        0
 75
     2
 76
     1
 98
        0
  0
ENDBLK
  5
6AE
330
693
100
AcDbEntity
  8
0
100
AcDbBlockEnd
  0
BLOCK
  5
6A3
330
6A2
100
AcDbEntity
  8
0
100
AcDbBlockBegin
  2
block 5
 70
     0
 10
0.0
 20
0.0
 30
0.0
  3
block 5
  1
block 5
  0
SPLINE
  5
6A4
330
6A2
100
AcDbEntity
  8
LOGO
370
     0
100
AcDbSpline
210
0.0
220
0.0
230
1.0
 70
    11
 71
     3
 72
    56
 73
    52
 74
     0
 42
0.000000001
 43
0.0000000001
 40
0.0
 40
0.0
 40
0.0
 40
0.0
 40
1.0
 40
1.0
 40
1.0
 40
2.0
 40
2.0
 40
2.0
 40
3.0
 40
3.0
 40
3.0
 40
4.0
 40
4.0
 40
4.0
 40
5.0
 40
5.0
 40
5.0
 40
6.0
 40
6.0
 40
6.0
 40
7.0
 40
7.0
 40
7.0
 40
8.0
 40
8.0
 40
8.0
 40
9.0
 40
9.0
 40
9.0
 40
10.0
 40
10.0
 40
10.0
 40
11.0
 40
11.0
 40
11.0
 40
12.0
 40
12.0
 40
12.0
 40
13.0
 40
13.0
 40
13.0
 40
14.0
 40
14.0
 40
14.0
 40
15.0
 40
15.0
 40
15.0
 40
16.0
 40
16.0
 40
16.0
 40
17.0
 40
17.0
 40
17.0
 40
17.0
 10
100.4504378777679
 20
166.69157178364
 30
0.0
 10
101.9848844191641
 20
167.1313385124438
 30
0.0
 10
103.9637485713373
 20
166.7649523658846
 30
0.0
 10
103.9637485713373
 20
166.7649523658846
 30
0.0
 10
103.9637485713373
 20
166.7649523658846
 30
0.0
 10
103.0132460999156
 20
163.911205638077
 30
0.0
 10
103.0132460999156
 20
163.911205638077
 30
0.0
 10
103.0132460999156
 20
163.911205638077
 30
0.0
 10
101.0674548862189
 20
164.3601018759394
 30
0.0
 10
99.57090442016032
 20
163.1805004036133
 30
0.0
 10
98.40508333886608
 20
162.258247733807
 30
0.0
 10
97.65301849830304
 20
159.804132345923
 30
0.0
 10
97.3598406791005
 20
158.8699940888517
 30
0.0
 10
97.3598406791005
 20
158.8699940888517
 30
0.0
 10
96.07137411762282
 20
154.9119212747295
 30
0.0
 10
96.07137411762282
 20
154.9119212747295
 30
0.0
 10
96.07137411762282
 20
154.9119212747295
 30
0.0
 10
100.3012651448482
 20
154.9119212747295
 30
0.0
 10
100.3012651448482
 20
154.9119212747295
 30
0.0
 10
100.3012651448482
 20
154.9119212747295
 30
0.0
 10
99.64152892419852
 20
152.4199098115079
 30
0.0
 10
99.64152892419852
 20
152.4199098115079
 30
0.0
 10
99.64152892419852
 20
152.4199098115079
 30
0.0
 10
95.38097652692731
 20
152.4199098115079
 30
0.0
 10
95.38097652692731
 20
152.4199098115079
 30
0.0
 10
95.38097652692731
 20
152.4199098115079
 30
0.0
 10
87.75353009080013
 20
127.8027915271048
 30
0.0
 10
87.75353009080013
 20
127.8027915271048
 30
0.0
 10
87.75353009080013
 20
127.8027915271048
 30
0.0
 10
85.36538832498108
 20
127.8027915271048
 30
0.0
 10
85.36538832498108
 20
127.8027915271048
 30
0.0
 10
85.36538832498108
 20
127.8027915271048
 30
0.0
 10
93.00006946639998
 20
152.4199098115079
 30
0.0
 10
93.00006946639998
 20
152.4199098115079
 30
0.0
 10
93.00006946639998
 20
152.4199098115079
 30
0.0
 10
89.85297266450198
 20
152.4199098115079
 30
0.0
 10
89.85297266450198
 20
152.4199098115079
 30
0.0
 10
89.85297266450198
 20
152.4199098115079
 30
0.0
 10
90.51270888515164
 20
154.9119212747295
 30
0.0
 10
90.51270888515164
 20
154.9119212747295
 30
0.0
 10
90.51270888515164
 20
154.9119212747295
 30
0.0
 10
93.6904670570955
 20
154.9119212747295
 30
0.0
 10
93.6904670570955
 20
154.9119212747295
 30
0.0
 10
93.6904670570955
 20
154.9119212747295
 30
0.0
 10
94.81598049462158
 20
158.3616699146644
 30
0.0
 10
94.81598049462158
 20
158.3616699146644
 30
0.0
 10
95.7237637538445
 20
161.2605474231013
 30
0.0
 10
96.4968436907311
 20
162.8139420021662
 30
0.0
 10
97.15657991138076
 20
163.9844139654337
 30
0.0
 10
97.81183750494507
 20
165.1523021053827
 30
0.0
 10
99.1047826935081
 20
166.3084769129547
 30
0.0
 10
100.4504378777679
 20
166.69157178364
 30
0.0
  0
HATCH
  5
6A5
330
6A2
100
AcDbEntity
  8
LOGO
 62
   250
420
  2234388
100
AcDbHatch
 10
0.0
 20
0.0
 30
0.0
210
0.0
220
0.0
230
1.0
  2
SOLID
 70
     1
 71
     0
 91
        1
 92
        1
 93
        1
 72
     4
 94
        3
 73
     0
 74
     1
 95
       56
 96
       52
 40
0.0
 40
0.0
 40
0.0
 40
0.0
 40
1.0
 40
1.0
 40
1.0
 40
2.0
 40
2.0
 40
2.0
 40
3.0
 40
3.0
 40
3.0
 40
4.0
 40
4.0
 40
4.0
 40
5.0
 40
5.0
 40
5.0
 40
6.0
 40
6.0
 40
6.0
 40
7.0
 40
7.0
 40
7.0
 40
8.0
 40
8.0
 40
8.0
 40
9.0
 40
9.0
 40
9.0
 40
10.0
 40
10.0
 40
10.0
 40
11.0
 40
11.0
 40
11.0
 40
12.0
 40
12.0
 40
12.0
 40
13.0
 40
13.0
 40
13.0
 40
14.0
 40
14.0
 40
14.0
 40
15.0
 40
15.0
 40
15.0
 40
16.0
 40
16.0
 40
16.0
 40
17.0
 40
17.0
 40
17.0
 40
17.0
 10
100.4504378777679
 20
166.69157178364
 10
101.9848844191641
 20
167.1313385124438
 10
103.9637485713373
 20
166.7649523658846
 10
103.9637485713373
 20
166.7649523658846
 10
103.9637485713373
 20
166.7649523658846
 10
103.0132460999156
 20
163.911205638077
 10
103.0132460999156
 20
163.911205638077
 10
103.0132460999156
 20
163.911205638077
 10
101.0674548862189
 20
164.3601018759394
 10
99.57090442016032
 20
163.1805004036133
 10
98.40508333886608
 20
162.258247733807
 10
97.65301849830304
 20
159.804132345923
 10
97.3598406791005
 20
158.8699940888517
 10
97.3598406791005
 20
158.8699940888517
 10
96.07137411762282
 20
154.9119212747295
 10
96.07137411762282
 20
154.9119212747295
 10
96.07137411762282
 20
154.9119212747295
 10
100.3012651448482
 20
154.9119212747295
 10
100.3012651448482
 20
154.9119212747295
 10
100.3012651448482
 20
154.9119212747295
 10
99.64152892419852
 20
152.4199098115079
 10
99.64152892419852
 20
152.4199098115079
 10
99.64152892419852
 20
152.4199098115079
 10
95.38097652692731
 20
152.4199098115079
 10
95.38097652692731
 20
152.4199098115079
 10
95.38097652692731
 20
152.4199098115079
 10
87.75353009080013
 20
127.8027915271048
 10
87.75353009080013
 20
127.8027915271048
 10
87.75353009080013
 20
127.8027915271048
 10
85.36538832498108
 20
127.8027915271048
 10
85.36538832498108
 20
127.8027915271048
 10
85.36538832498108
 20
127.8027915271048
 10
93.00006946639998
 20
152.4199098115079
 10
93.00006946639998
 20
152.4199098115079
 10
93.00006946639998
 20
152.4199098115079
 10
89.85297266450198
 20
152.4199098115079
 10
89.85297266450198
 20
152.4199098115079
 10
89.85297266450198
 20
152.4199098115079
 10
90.51270888515164
 20
154.9119212747295
 10
90.51270888515164
 20
154.9119212747295
 10
90.51270888515164
 20
154.9119212747295
 10
93.6904670570955
 20
154.9119212747295
 10
93.6904670570955
 20
154.9119212747295
 10
93.6904670570955
 20
154.9119212747295
 10
94.81598049462158
 20
158.3616699146644
 10
94.81598049462158
 20
158.3616699146644
 10
95.7237637538445
 20
161.2605474231013
 10
96.4968436907311
 20
162.8139420021662
 10
97.15657991138076
 20
163.9844139654337
 10
97.81183750494507
 20
165.1523021053827
 10
99.1047826935081
 20
166.3084769129547
 10
100.4504378777679
 20
166.69157178364
 97
        0
 75
     2
 76
     1
 98
        0
  0
SPLINE
  5
6A6
330
6A2
100
AcDbEntity
  8
LOGO
370
     0
100
AcDbSpline
210
0.0
220
0.0
230
1.0
 70
    11
 71
     3
 72
    38
 73
    34
 74
     0
 42
0.000000001
 43
0.0000000001
 40
0.0
 40
0.0
 40
0.0
 40
0.0
 40
1.0
 40
1.0
 40
1.0
 40
2.0
 40
2.0
 40
2.0
 40
3.0
 40
3.0
 40
3.0
 40
4.0
 40
4.0
 40
4.0
 40
5.0
 40
5.0
 40
5.0
 40
6.0
 40
6.0
 40
6.0
 40
7.0
 40
7.0
 40
7.0
 40
8.0
 40
8.0
 40
8.0
 40
9.0
 40
9.0
 40
9.0
 40
10.0
 40
10.0
 40
10.0
 40
11.0
 40
11.0
 40
11.0
 40
11.0
 10
126.377554584636
 20
154.8151140277308
 30
0.0
 10
126.377554584636
 20
154.8151140277308
 30
0.0
 10
128.8311532078563
 20
154.8151140277308
 30
0.0
 10
128.8311532078563
 20
154.8151140277308
 30
0.0
 10
128.8311532078563
 20
154.8151140277308
 30
0.0
 10
127.7345785914971
 20
151.3062819612468
 30
0.0
 10
127.7345785914971
 20
151.3062819612468
 30
0.0
 10
128.571392836906
 20
152.2922689395754
 30
0.0
 10
129.8860421413442
 20
153.604506675583
 30
0.0
 10
131.0163787157314
 20
154.2664822097754
 30
0.0
 10
132.7044766171327
 20
155.2500576196734
 30
0.0
 10
133.6642808525008
 20
155.3847609420097
 30
0.0
 10
134.7284715499351
 20
155.3565111403944
 30
0.0
 10
134.7284715499351
 20
155.3565111403944
 30
0.0
 10
133.6877075172549
 20
152.0345756272799
 30
0.0
 10
133.6877075172549
 20
152.0345756272799
 30
0.0
 10
133.011434827367
 20
152.3184516825359
 30
0.0
 10
130.930940291334
 20
151.7768823149844
 30
0.0
 10
129.739280976855
 20
150.9162968950455
 30
0.0
 10
128.66613302525
 20
150.1454562717016
 30
0.0
 10
127.9192358313239
 20
149.4857200510519
 30
0.0
 10
127.0393578639405
 20
147.8282835196966
 30
0.0
 10
126.164647543194
 20
146.1699857139017
 30
0.0
 10
125.4742499524985
 20
143.5262176944419
 30
0.0
 10
124.2822461282437
 20
139.6959580071401
 30
0.0
 10
124.2822461282437
 20
139.6959580071401
 30
0.0
 10
120.5753209406769
 20
127.8027915271048
 30
0.0
 10
120.5753209406769
 20
127.8027915271048
 30
0.0
 10
120.5753209406769
 20
127.8027915271048
 30
0.0
 10
118.1964809388044
 20
127.8027915271048
 30
0.0
 10
118.1964809388044
 20
127.8027915271048
 30
0.0
 10
118.1964809388044
 20
127.8027915271048
 30
0.0
 10
126.377554584636
 20
154.8151140277308
 30
0.0
 10
126.377554584636
 20
154.8151140277308
 30
0.0
  0
HATCH
  5
6A7
330
6A2
100
AcDbEntity
  8
LOGO
 62
   250
420
  2234388
100
AcDbHatch
 10
0.0
 20
0.0
 30
0.0
210
0.0
220
0.0
230
1.0
  2
SOLID
 70
     1
 71
     0
 91
        1
 92
        1
 93
        1
 72
     4
 94
        3
 73
     0
 74
     1
 95
       38
 96
       34
 40
0.0
 40
0.0
 40
0.0
 40
0.0
 40
1.0
 40
1.0
 40
1.0
 40
2.0
 40
2.0
 40
2.0
 40
3.0
 40
3.0
 40
3.0
 40
4.0
 40
4.0
 40
4.0
 40
5.0
 40
5.0
 40
5.0
 40
6.0
 40
6.0
 40
6.0
 40
7.0
 40
7.0
 40
7.0
 40
8.0
 40
8.0
 40
8.0
 40
9.0
 40
9.0
 40
9.0
 40
10.0
 40
10.0
 40
10.0
 40
11.0
 40
11.0
 40
11.0
 40
11.0
 10
126.377554584636
 20
154.8151140277308
 10
126.377554584636
 20
154.8151140277308
 10
128.8311532078563
 20
154.8151140277308
 10
128.8311532078563
 20
154.8151140277308
 10
128.8311532078563
 20
154.8151140277308
 10
127.7345785914971
 20
151.3062819612468
 10
127.7345785914971
 20
151.3062819612468
 10
128.571392836906
 20
152.2922689395754
 10
129.8860421413442
 20
153.604506675583
 10
131.0163787157314
 20
154.2664822097754
 10
132.7044766171327
 20
155.2500576196734
 10
133.6642808525008
 20
155.3847609420097
 10
134.7284715499351
 20
155.3565111403944
 10
134.7284715499351
 20
155.3565111403944
 10
133.6877075172549
 20
152.0345756272799
 10
133.6877075172549
 20
152.0345756272799
 10
133.011434827367
 20
152.3184516825359
 10
130.930940291334
 20
151.7768823149844
 10
129.739280976855
 20
150.9162968950455
 10
128.66613302525
 20
150.1454562717016
 10
127.9192358313239
 20
149.4857200510519
 10
127.0393578639405
 20
147.8282835196966
 10
126.164647543194
 20
146.1699857139017
 10
125.4742499524985
 20
143.5262176944419
 10
124.2822461282437
 20
139.6959580071401
 10
124.2822461282437
 20
139.6959580071401
 10
120.5753209406769
 20
127.8027915271048
 10
120.5753209406769
 20
127.8027915271048
 10
120.5753209406769
 20
127.8027915271048
 10
118.1964809388044
 20
127.8027915271048
 10
118.1964809388044
 20
127.8027915271048
 10
118.1964809388044
 20
127.8027915271048
 10
126.377554584636
 20
154.8151140277308
 10
126.377554584636
 20
154.8151140277308
 97
        0
 75
     2
 76
     1
 98
        0
  0
SPLINE
  5
6A8
330
6A2
100
AcDbEntity
  8
LOGO
370
     0
100
AcDbSpline
210
0.0
220
0.0
230
1.0
 70
    11
 71
     3
 72
   104
 73
   100
 74
     0
 42
0.000000001
 43
0.0000000001
 40
0.0
 40
0.0
 40
0.0
 40
0.0
 40
1.0
 40
1.0
 40
1.0
 40
2.0
 40
2.0
 40
2.0
 40
3.0
 40
3.0
 40
3.0
 40
4.0
 40
4.0
 40
4.0
 40
5.0
 40
5.0
 40
5.0
 40
6.0
 40
6.0
 40
6.0
 40
7.0
 40
7.0
 40
7.0
 40
8.0
 40
8.0
 40
8.0
 40
9.0
 40
9.0
 40
9.0
 40
10.0
 40
10.0
 40
10.0
 40
11.0
 40
11.0
 40
11.0
 40
12.0
 40
12.0
 40
12.0
 40
13.0
 40
13.0
 40
13.0
 40
14.0
 40
14.0
 40
14.0
 40
15.0
 40
15.0
 40
15.0
 40
16.0
 40
16.0
 40
16.0
 40
17.0
 40
17.0
 40
17.0
 40
18.0
 40
18.0
 40
18.0
 40
19.0
 40
19.0
 40
19.0
 40
20.0
 40
20.0
 40
20.0
 40
21.0
 40
21.0
 40
21.0
 40
22.0
 40
22.0
 40
22.0
 40
23.0
 40
23.0
 40
23.0
 40
24.0
 40
24.0
 40
24.0
 40
25.0
 40
25.0
 40
25.0
 40
26.0
 40
26.0
 40
26.0
 40
27.0
 40
27.0
 40
27.0
 40
28.0
 40
28.0
 40
28.0
 40
29.0
 40
29.0
 40
29.0
 40
30.0
 40
30.0
 40
30.0
 40
31.0
 40
31.0
 40
31.0
 40
32.0
 40
32.0
 40
32.0
 40
33.0
 40
33.0
 40
33.0
 40
33.0
 10
139.8926730891197
 20
154.8294111834263
 30
0.0
 10
139.8926730891197
 20
154.8294111834263
 30
0.0
 10
142.0344903652445
 20
154.8294111834263
 30
0.0
 10
142.0344903652445
 20
154.8294111834263
 30
0.0
 10
142.0344903652445
 20
154.8294111834263
 30
0.0
 10
140.9516961399171
 20
151.3157559800812
 30
0.0
 10
140.9516961399171
 20
151.3157559800812
 30
0.0
 10
141.8928968473923
 20
152.7887075264977
 30
0.0
 10
142.7341897198865
 20
153.4484437471474
 30
0.0
 10
143.8552245303272
 20
154.2926649527359
 30
0.0
 10
144.9803934580775
 20
155.1296514530327
 30
0.0
 10
146.3139908001845
 20
155.3044901642492
 30
0.0
 10
147.241066606852
 20
155.3044901642492
 30
0.0
 10
148.3855280820469
 20
155.3044901642492
 30
0.0
 10
149.4969166187653
 20
155.0752189084569
 30
0.0
 10
150.0784491203092
 20
153.8172414621372
 30
0.0
 10
150.5228667310863
 20
152.833838307127
 30
0.0
 10
150.5414702589793
 20
152.7201500811143
 30
0.0
 10
150.4140016419347
 20
150.7765981809602
 30
0.0
 10
151.5818897818837
 20
152.7699317437168
 30
0.0
 10
152.4424752018226
 20
153.6256940267945
 30
0.0
 10
153.9038856707499
 20
154.4507949398263
 30
0.0
 10
155.4455669174378
 20
155.3044901642492
 30
0.0
 10
156.339225275853
 20
155.3659851592288
 30
0.0
 10
157.3748216618963
 20
155.2147453676543
 30
0.0
 10
158.911679771723
 20
154.9877134254046
 30
0.0
 10
159.8859534176746
 20
154.4390816074493
 30
0.0
 10
160.3965169054045
 20
152.7816450760939
 30
0.0
 10
160.9070803931344
 20
151.1219692311958
 30
0.0
 10
160.6328506116007
 20
150.2303779314354
 30
0.0
 10
159.9992971339115
 20
147.597634224801
 30
0.0
 10
159.7105979417943
 20
146.4014962832367
 30
0.0
 10
159.2947746424084
 20
144.9400858143094
 30
0.0
 10
158.7463150793409
 20
143.2092687007094
 30
0.0
 10
158.7463150793409
 20
143.2092687007094
 30
0.0
 10
153.9038856707499
 20
127.8027915271048
 30
0.0
 10
153.9038856707499
 20
127.8027915271048
 30
0.0
 10
153.9038856707499
 20
127.8027915271048
 30
0.0
 10
151.3882752878863
 20
127.8027915271048
 30
0.0
 10
151.3882752878863
 20
127.8027915271048
 30
0.0
 10
151.3882752878863
 20
127.8027915271048
 30
0.0
 10
155.6250565106276
 20
141.2751908193897
 30
0.0
 10
155.6250565106276
 20
141.2751908193897
 30
0.0
 10
156.5094131050963
 20
144.0936252951782
 30
0.0
 10
157.109893644309
 20
146.1506931664571
 30
0.0
 10
157.4220195011804
 20
147.4415712963654
 30
0.0
 10
157.8095929989511
 20
149.0530157726519
 30
0.0
 10
157.9656559273867
 20
149.5826995529385
 30
0.0
 10
157.7816877071116
 20
150.7529992613181
 30
0.0
 10
157.6111553680925
 20
151.8430281919372
 30
0.0
 10
157.0582171779396
 20
152.5547853887321
 30
0.0
 10
156.1170164704645
 20
152.5547853887321
 30
0.0
 10
155.1096698860365
 20
152.5547853887321
 30
0.0
 10
154.2962823053817
 20
152.4412694176073
 30
0.0
 10
153.156643967048
 20
151.2945686288697
 30
0.0
 10
152.0170056287143
 20
150.1476955852443
 30
0.0
 10
151.076149431015
 20
148.7930831468137
 30
0.0
 10
150.3337308641742
 20
147.2290087646991
 30
0.0
 10
149.5957909244188
 20
145.6683794803425
 30
0.0
 10
148.8530278478023
 20
143.6822806228776
 30
0.0
 10
148.0964843801539
 20
141.2751908193897
 30
0.0
 10
148.0964843801539
 20
141.2751908193897
 30
0.0
 10
143.8552245303272
 20
127.8027915271048
 30
0.0
 10
143.8552245303272
 20
127.8027915271048
 30
0.0
 10
143.8552245303272
 20
127.8027915271048
 30
0.0
 10
141.486030802177
 20
127.8027915271048
 30
0.0
 10
141.486030802177
 20
127.8027915271048
 30
0.0
 10
141.486030802177
 20
127.8027915271048
 30
0.0
 10
146.3329388378533
 20
143.2092687007094
 30
0.0
 10
146.3329388378533
 20
143.2092687007094
 30
0.0
 10
146.8483254624444
 20
144.8408669988801
 30
0.0
 10
147.2314203331297
 20
146.1837661049335
 30
0.0
 10
147.4867020769946
 20
147.224185627838
 30
0.0
 10
147.9169947869641
 20
149.0197705792876
 30
0.0
 10
148.0306830129768
 20
150.2400242051577
 30
0.0
 10
147.709255392159
 20
151.3157559800812
 30
0.0
 10
147.3874832615654
 20
152.3916600098926
 30
0.0
 10
146.8245542879144
 20
152.6683013598569
 30
0.0
 10
145.8840425999909
 20
152.6683013598569
 30
0.0
 10
145.0989048209514
 20
152.6683013598569
 30
0.0
 10
144.3282364524954
 20
152.3275811915945
 30
0.0
 10
143.4531816219731
 20
151.6538923250251
 30
0.0
 10
142.34627171234
 20
150.8074318058939
 30
0.0
 10
141.901854101563
 20
150.1097995099067
 30
0.0
 10
141.3578731655808
 20
149.289521733736
 30
0.0
 10
140.6299240093235
 20
148.192602607601
 30
0.0
 10
140.2850697237515
 20
147.455696197173
 30
0.0
 10
139.6652966370942
 20
145.8385673095858
 30
0.0
 10
139.0506911970739
 20
144.2214384219986
 30
0.0
 10
138.463991048893
 20
142.3252566160164
 30
0.0
 10
138.0571250036777
 20
141.0154304484394
 30
0.0
 10
138.0571250036777
 20
141.0154304484394
 30
0.0
 10
133.9009590684727
 20
127.8027915271048
 30
0.0
 10
133.9009590684727
 20
127.8027915271048
 30
0.0
 10
133.9009590684727
 20
127.8027915271048
 30
0.0
 10
131.4180771143097
 20
127.8027915271048
 30
0.0
 10
131.4180771143097
 20
127.8027915271048
 30
0.0
 10
131.4180771143097
 20
127.8027915271048
 30
0.0
 10
139.8926730891197
 20
154.8294111834263
 30
0.0
 10
139.8926730891197
 20
154.8294111834263
 30
0.0
  0
HATCH
  5
6A9
330
6A2
100
AcDbEntity
  8
LOGO
 62
   250
420
  2234388
100
AcDbHatch
 10
0.0
 20
0.0
 30
0.0
210
0.0
220
0.0
230
1.0
  2
SOLID
 70
     1
 71
     0
 91
        1
 92
        1
 93
        1
 72
     4
 94
        3
 73
     0
 74
     1
 95
      104
 96
      100
 40
0.0
 40
0.0
 40
0.0
 40
0.0
 40
1.0
 40
1.0
 40
1.0
 40
2.0
 40
2.0
 40
2.0
 40
3.0
 40
3.0
 40
3.0
 40
4.0
 40
4.0
 40
4.0
 40
5.0
 40
5.0
 40
5.0
 40
6.0
 40
6.0
 40
6.0
 40
7.0
 40
7.0
 40
7.0
 40
8.0
 40
8.0
 40
8.0
 40
9.0
 40
9.0
 40
9.0
 40
10.0
 40
10.0
 40
10.0
 40
11.0
 40
11.0
 40
11.0
 40
12.0
 40
12.0
 40
12.0
 40
13.0
 40
13.0
 40
13.0
 40
14.0
 40
14.0
 40
14.0
 40
15.0
 40
15.0
 40
15.0
 40
16.0
 40
16.0
 40
16.0
 40
17.0
 40
17.0
 40
17.0
 40
18.0
 40
18.0
 40
18.0
 40
19.0
 40
19.0
 40
19.0
 40
20.0
 40
20.0
 40
20.0
 40
21.0
 40
21.0
 40
21.0
 40
22.0
 40
22.0
 40
22.0
 40
23.0
 40
23.0
 40
23.0
 40
24.0
 40
24.0
 40
24.0
 40
25.0
 40
25.0
 40
25.0
 40
26.0
 40
26.0
 40
26.0
 40
27.0
 40
27.0
 40
27.0
 40
28.0
 40
28.0
 40
28.0
 40
29.0
 40
29.0
 40
29.0
 40
30.0
 40
30.0
 40
30.0
 40
31.0
 40
31.0
 40
31.0
 40
32.0
 40
32.0
 40
32.0
 40
33.0
 40
33.0
 40
33.0
 40
33.0
 10
139.8926730891197
 20
154.8294111834263
 10
139.8926730891197
 20
154.8294111834263
 10
142.0344903652445
 20
154.8294111834263
 10
142.0344903652445
 20
154.8294111834263
 10
142.0344903652445
 20
154.8294111834263
 10
140.9516961399171
 20
151.3157559800812
 10
140.9516961399171
 20
151.3157559800812
 10
141.8928968473923
 20
152.7887075264977
 10
142.7341897198865
 20
153.4484437471474
 10
143.8552245303272
 20
154.2926649527359
 10
144.9803934580775
 20
155.1296514530327
 10
146.3139908001845
 20
155.3044901642492
 10
147.241066606852
 20
155.3044901642492
 10
148.3855280820469
 20
155.3044901642492
 10
149.4969166187653
 20
155.0752189084569
 10
150.0784491203092
 20
153.8172414621372
 10
150.5228667310863
 20
152.833838307127
 10
150.5414702589793
 20
152.7201500811143
 10
150.4140016419347
 20
150.7765981809602
 10
151.5818897818837
 20
152.7699317437168
 10
152.4424752018226
 20
153.6256940267945
 10
153.9038856707499
 20
154.4507949398263
 10
155.4455669174378
 20
155.3044901642492
 10
156.339225275853
 20
155.3659851592288
 10
157.3748216618963
 20
155.2147453676543
 10
158.911679771723
 20
154.9877134254046
 10
159.8859534176746
 20
154.4390816074493
 10
160.3965169054045
 20
152.7816450760939
 10
160.9070803931344
 20
151.1219692311958
 10
160.6328506116007
 20
150.2303779314354
 10
159.9992971339115
 20
147.597634224801
 10
159.7105979417943
 20
146.4014962832367
 10
159.2947746424084
 20
144.9400858143094
 10
158.7463150793409
 20
143.2092687007094
 10
158.7463150793409
 20
143.2092687007094
 10
153.9038856707499
 20
127.8027915271048
 10
153.9038856707499
 20
127.8027915271048
 10
153.9038856707499
 20
127.8027915271048
 10
151.3882752878863
 20
127.8027915271048
 10
151.3882752878863
 20
127.8027915271048
 10
151.3882752878863
 20
127.8027915271048
 10
155.6250565106276
 20
141.2751908193897
 10
155.6250565106276
 20
141.2751908193897
 10
156.5094131050963
 20
144.0936252951782
 10
157.109893644309
 20
146.1506931664571
 10
157.4220195011804
 20
147.4415712963654
 10
157.8095929989511
 20
149.0530157726519
 10
157.9656559273867
 20
149.5826995529385
 10
157.7816877071116
 20
150.7529992613181
 10
157.6111553680925
 20
151.8430281919372
 10
157.0582171779396
 20
152.5547853887321
 10
156.1170164704645
 20
152.5547853887321
 10
155.1096698860365
 20
152.5547853887321
 10
154.2962823053817
 20
152.4412694176073
 10
153.156643967048
 20
151.2945686288697
 10
152.0170056287143
 20
150.1476955852443
 10
151.076149431015
 20
148.7930831468137
 10
150.3337308641742
 20
147.2290087646991
 10
149.5957909244188
 20
145.6683794803425
 10
148.8530278478023
 20
143.6822806228776
 10
148.0964843801539
 20
141.2751908193897
 10
148.0964843801539
 20
141.2751908193897
 10
143.8552245303272
 20
127.8027915271048
 10
143.8552245303272
 20
127.8027915271048
 10
143.8552245303272
 20
127.8027915271048
 10
141.486030802177
 20
127.8027915271048
 10
141.486030802177
 20
127.8027915271048
 10
141.486030802177
 20
127.8027915271048
 10
146.3329388378533
 20
143.2092687007094
 10
146.3329388378533
 20
143.2092687007094
 10
146.8483254624444
 20
144.8408669988801
 10
147.2314203331297
 20
146.1837661049335
 10
147.4867020769946
 20
147.224185627838
 10
147.9169947869641
 20
149.0197705792876
 10
148.0306830129768
 20
150.2400242051577
 10
147.709255392159
 20
151.3157559800812
 10
147.3874832615654
 20
152.3916600098926
 10
146.8245542879144
 20
152.6683013598569
 10
145.8840425999909
 20
152.6683013598569
 10
145.0989048209514
 20
152.6683013598569
 10
144.3282364524954
 20
152.3275811915945
 10
143.4531816219731
 20
151.6538923250251
 10
142.34627171234
 20
150.8074318058939
 10
141.901854101563
 20
150.1097995099067
 10
141.3578731655808
 20
149.289521733736
 10
140.6299240093235
 20
148.192602607601
 10
140.2850697237515
 20
147.455696197173
 10
139.6652966370942
 20
145.8385673095858
 10
139.0506911970739
 20
144.2214384219986
 10
138.463991048893
 20
142.3252566160164
 10
138.0571250036777
 20
141.0154304484394
 10
138.0571250036777
 20
141.0154304484394
 10
133.9009590684727
 20
127.8027915271048
 10
133.9009590684727
 20
127.8027915271048
 10
133.9009590684727
 20
127.8027915271048
 10
131.4180771143097
 20
127.8027915271048
 10
131.4180771143097
 20
127.8027915271048
 10
131.4180771143097
 20
127.8027915271048
 10
139.8926730891197
 20
154.8294111834263
 10
139.8926730891197
 20
154.8294111834263
 97
        0
 75
     2
 76
     1
 98
        0
  0
SPLINE
  5
6AA
330
6A2
100
AcDbEntity
  8
LOGO
370
     0
100
AcDbSpline
210
0.0
220
0.0
230
1.0
 70
    11
 71
     3
 72
    29
 73
    25
 74
     0
 42
0.000000001
 43
0.0000000001
 40
0.0
 40
0.0
 40
0.0
 40
0.0
 40
1.0
 40
1.0
 40
1.0
 40
2.0
 40
2.0
 40
2.0
 40
3.0
 40
3.0
 40
3.0
 40
4.0
 40
4.0
 40
4.0
 40
5.0
 40
5.0
 40
5.0
 40
6.0
 40
6.0
 40
6.0
 40
7.0
 40
7.0
 40
7.0
 40
8.0
 40
8.0
 40
8.0
 40
8.0
 10
101.6420971922469
 20
132.8388354296931
 30
0.0
 10
101.630039350094
 20
134.7164137077823
 30
0.0
 10
102.2236296937908
 20
138.0598810818841
 30
0.0
 10
103.7487744712405
 20
142.5378191476827
 30
0.0
 10
105.819967243327
 20
148.5896501242061
 30
0.0
 10
107.0602024361932
 20
150.8074318058939
 30
0.0
 10
108.1522984254671
 20
151.8833358357054
 30
0.0
 10
109.741177511439
 20
153.4532668840085
 30
0.0
 10
111.8740375333931
 20
153.5290590346837
 30
0.0
 10
112.5075910110823
 20
153.4532668840085
 30
0.0
 10
113.4012493694975
 20
153.3490526768302
 30
0.0
 10
114.6683563248758
 20
152.7580461564518
 30
0.0
 10
114.7493161221879
 20
150.7838328862519
 30
0.0
 10
114.8106388622796
 20
149.0909118479895
 30
0.0
 10
114.3186789024427
 20
145.9191825971221
 30
0.0
 10
112.6164561002338
 20
140.9489400617108
 30
0.0
 10
110.6444821435766
 20
135.1746117095912
 30
0.0
 10
109.4669477299053
 20
132.8960240524753
 30
0.0
 10
108.5212683953448
 20
131.9072809959403
 30
0.0
 10
106.7346406980658
 20
130.0538184021569
 30
0.0
 10
104.8222669326213
 20
130.2336525051225
 30
0.0
 10
104.5408024457958
 20
130.2336525051225
 30
0.0
 10
104.1721769856939
 20
130.2336525051225
 30
0.0
 10
101.6465758193322
 20
130.6305277668397
 30
0.0
 10
101.6420971922469
 20
132.8388354296931
 30
0.0
  0
SPLINE
  5
6AB
330
6A2
100
AcDbEntity
  8
LOGO
370
     0
100
AcDbSpline
210
0.0
220
0.0
230
1.0
 70
    11
 71
     3
 72
    32
 73
    28
 74
     0
 42
0.000000001
 43
0.0000000001
 40
0.0
 40
0.0
 40
0.0
 40
0.0
 40
1.0
 40
1.0
 40
1.0
 40
2.0
 40
2.0
 40
2.0
 40
3.0
 40
3.0
 40
3.0
 40
4.0
 40
4.0
 40
4.0
 40
5.0
 40
5.0
 40
5.0
 40
6.0
 40
6.0
 40
6.0
 40
7.0
 40
7.0
 40
7.0
 40
8.0
 40
8.0
 40
8.0
 40
9.0
 40
9.0
 40
9.0
 40
9.0
 10
106.2595617172429
 20
153.4105476718098
 30
0.0
 10
104.8222669326213
 20
151.5474388043041
 30
0.0
 10
103.7177685914188
 20
149.8758773721411
 30
0.0
 10
101.9232171692965
 20
144.6141795664062
 30
0.0
 10
100.2754269116635
 20
139.7999999594306
 30
0.0
 10
99.22777268346732
 20
136.3052927937542
 30
0.0
 10
99.06964269637689
 20
132.039572749846
 30
0.0
 10
98.94665270641765
 20
128.8673267343149
 30
0.0
 10
100.8807305877373
 20
127.8027915271048
 30
0.0
 10
103.7129454545577
 20
127.8027915271048
 30
0.0
 10
104.9352661390825
 20
127.8027915271048
 30
0.0
 10
108.0151835347002
 20
127.8827177950895
 30
0.0
 10
110.2045431598849
 20
130.5926316915021
 30
0.0
 10
111.7417457794874
 20
132.4984597712065
 30
0.0
 10
113.155269389579
 20
134.475256864725
 30
0.0
 10
115.0562743324223
 20
140.9489400617108
 30
0.0
 10
116.6361961642235
 20
146.3680788349845
 30
0.0
 10
117.7282921534974
 20
149.8639917848761
 30
0.0
 10
117.6480213757369
 20
151.8595646611754
 30
0.0
 10
117.6480213757369
 20
151.8595646611754
 30
0.0
 10
117.6480213757369
 20
151.8595646611754
 30
0.0
 10
117.6480213757369
 20
151.8595646611754
 30
0.0
 10
117.13229024137
 20
155.18150017429
 30
0.0
 10
114.7162431837115
 20
155.886194920681
 30
0.0
 10
113.3351034925446
 20
155.886194920681
 30
0.0
 10
111.9829026225447
 20
155.886194920681
 30
0.0
 10
108.3414342923792
 20
156.1251124501957
 30
0.0
 10
106.2595617172429
 20
153.4105476718098
 30
0.0
  0
HATCH
  5
6AC
330
6A2
100
AcDbEntity
  8
LOGO
 62
   250
420
  2234388
100
AcDbHatch
 10
0.0
 20
0.0
 30
0.0
210
0.0
220
0.0
230
1.0
  2
SOLID
 70
     1
 71
     0
 91
        2
 92
        1
 93
        1
 72
     4
 94
        3
 73
     0
 74
     1
 95
       29
 96
       25
 40
0.0
 40
0.0
 40
0.0
 40
0.0
 40
1.0
 40
1.0
 40
1.0
 40
2.0
 40
2.0
 40
2.0
 40
3.0
 40
3.0
 40
3.0
 40
4.0
 40
4.0
 40
4.0
 40
5.0
 40
5.0
 40
5.0
 40
6.0
 40
6.0
 40
6.0
 40
7.0
 40
7.0
 40
7.0
 40
8.0
 40
8.0
 40
8.0
 40
8.0
 10
101.6420971922469
 20
132.8388354296931
 10
101.630039350094
 20
134.7164137077823
 10
102.2236296937908
 20
138.0598810818841
 10
103.7487744712405
 20
142.5378191476827
 10
105.819967243327
 20
148.5896501242061
 10
107.0602024361932
 20
150.8074318058939
 10
108.1522984254671
 20
151.8833358357054
 10
109.741177511439
 20
153.4532668840085
 10
111.8740375333931
 20
153.5290590346837
 10
112.5075910110823
 20
153.4532668840085
 10
113.4012493694975
 20
153.3490526768302
 10
114.6683563248758
 20
152.7580461564518
 10
114.7493161221879
 20
150.7838328862519
 10
114.8106388622796
 20
149.0909118479895
 10
114.3186789024427
 20
145.9191825971221
 10
112.6164561002338
 20
140.9489400617108
 10
110.6444821435766
 20
135.1746117095912
 10
109.4669477299053
 20
132.8960240524753
 10
108.5212683953448
 20
131.9072809959403
 10
106.7346406980658
 20
130.0538184021569
 10
104.8222669326213
 20
130.2336525051225
 10
104.5408024457958
 20
130.2336525051225
 10
104.1721769856939
 20
130.2336525051225
 10
101.6465758193322
 20
130.6305277668397
 10
101.6420971922469
 20
132.8388354296931
 97
        0
 92
        1
 93
        1
 72
     4
 94
        3
 73
     0
 74
     1
 95
       32
 96
       28
 40
0.0
 40
0.0
 40
0.0
 40
0.0
 40
1.0
 40
1.0
 40
1.0
 40
2.0
 40
2.0
 40
2.0
 40
3.0
 40
3.0
 40
3.0
 40
4.0
 40
4.0
 40
4.0
 40
5.0
 40
5.0
 40
5.0
 40
6.0
 40
6.0
 40
6.0
 40
7.0
 40
7.0
 40
7.0
 40
8.0
 40
8.0
 40
8.0
 40
9.0
 40
9.0
 40
9.0
 40
9.0
 10
106.2595617172429
 20
153.4105476718098
 10
104.8222669326213
 20
151.5474388043041
 10
103.7177685914188
 20
149.8758773721411
 10
101.9232171692965
 20
144.6141795664062
 10
100.2754269116635
 20
139.7999999594306
 10
99.22777268346732
 20
136.3052927937542
 10
99.06964269637689
 20
132.039572749846
 10
98.94665270641765
 20
128.8673267343149
 10
100.8807305877373
 20
127.8027915271048
 10
103.7129454545577
 20
127.8027915271048
 10
104.9352661390825
 20
127.8027915271048
 10
108.0151835347002
 20
127.8827177950895
 10
110.2045431598849
 20
130.5926316915021
 10
111.7417457794874
 20
132.4984597712065
 10
113.155269389579
 20
134.475256864725
 10
115.0562743324223
 20
140.9489400617108
 10
116.6361961642235
 20
146.3680788349845
 10
117.7282921534974
 20
149.8639917848761
 10
117.6480213757369
 20
151.8595646611754
 10
117.6480213757369
 20
151.8595646611754
 10
117.6480213757369
 20
151.8595646611754
 10
117.6480213757369
 20
151.8595646611754
 10
117.13229024137
 20
155.18150017429
 10
114.7162431837115
 20
155.886194920681
 10
113.3351034925446
 20
155.886194920681
 10
111.9829026225447
 20
155.886194920681
 10
108.3414342923792
 20
156.1251124501957
 10
106.2595617172429
 20
153.4105476718098
 97
        0
 75
     2
 76
     1
 98
        0
  0
ENDBLK
  5
6AD
330
6A2
100
AcDbEntity
  8
0
100
AcDbBlockEnd
  0
BLOCK
  5
1756
330
1755
100
AcDbEntity
  8
0
100
AcDbBlockBegin
  2
*D6
 70
     1
 10
0.0
 20
0.0
 30
0.0
  3
*D6
  1
*D47
  0
LINE
  5
1758
330
1755
100
AcDbEntity
  8
DIM
 62
     0
370
    -2
100
AcDbLine
 10
-295.5188489193064
 20
775.2981836049703
 30
0.0
 11
-295.5188489193064
 21
815.6652411493675
 31
0.0
  0
LINE
  5
1759
330
1755
100
AcDbEntity
  8
DIM
 62
     0
370
    -2
100
AcDbLine
 10
-205.4284433023048
 20
706.1451893518793
 30
0.0
 11
-205.4284433023048
 21
815.6652411493675
 31
0.0
  0
LINE
  5
175A
330
1755
100
AcDbEntity
  8
DIM
 62
     0
370
    -2
100
AcDbLine
 10
-293.5188489193064
 20
815.6652411493675
 30
0.0
 11
-207.4284433023048
 21
815.6652411493675
 31
0.0
  0
INSERT
  5
175B
330
1755
100
AcDbEntity
  8
DIM
 62
     0
370
    -2
100
AcDbBlockReference
  2
_DOT
 10
-295.5188489193064
 20
815.6652411493675
 30
0.0
 41
2.0
 42
2.0
 43
2.0
 50
180.0
  0
INSERT
  5
175C
330
1755
100
AcDbEntity
  8
DIM
 62
     0
370
    -2
100
AcDbBlockReference
  2
_DOT
 10
-205.4284433023048
 20
815.6652411493675
 30
0.0
 41
2.0
 42
2.0
 43
2.0
  0
MTEXT
  5
175D
330
1755
100
AcDbEntity
  8
DIM
 62
     0
100
AcDbMText
 10
-250.4736461108056
 20
831.6652411493675
 30
0.0
 40
12.0
 41
0.0
 46
0.0
 71
     5
 72
     1
  1
\A1;90
  7
ＭＳ ゴシック
 73
     1
 44
1.0
  0
POINT
  5
175E
330
1755
100
AcDbEntity
  8
Defpoints
 62
     0
100
AcDbPoint
 10
-295.5188489193064
 20
770.2981836049703
 30
0.0
  0
POINT
  5
175F
330
1755
100
AcDbEntity
  8
Defpoints
 62
     0
100
AcDbPoint
 10
-205.4284433023048
 20
701.1451893518793
 30
0.0
  0
POINT
  5
1760
330
1755
100
AcDbEntity
  8
Defpoints
 62
     0
100
AcDbPoint
 10
-205.4284433023048
 20
815.6652411493675
 30
0.0
  0
ENDBLK
  5
1757
330
1755
100
AcDbEntity
  8
0
100
AcDbBlockEnd
  0
BLOCK
  5
1765
330
1764
100
AcDbEntity
  8
0
100
AcDbBlockBegin
  2
*D7
 70
     1
 10
0.0
 20
0.0
 30
0.0
  3
*D7
  1
*D48
  0
LINE
  5
1767
330
1764
100
AcDbEntity
  8
DIM
 62
     0
370
    -2
100
AcDbLine
 10
-200.4284433023048
 20
671.8525143521373
 30
0.0
 11
-150.0688743412373
 21
671.8525143521373
 31
0.0
  0
LINE
  5
1768
330
1764
100
AcDbEntity
  8
DIM
 62
     0
370
    -2
100
AcDbLine
 10
-233.0005079817896
 20
584.7930199689371
 30
0.0
 11
-150.0688743412373
 21
584.7930199689371
 31
0.0
  0
LINE
  5
1769
330
1764
100
AcDbEntity
  8
DIM
 62
     0
370
    -2
100
AcDbLine
 10
-150.0688743412373
 20
669.8525143521373
 30
0.0
 11
-150.0688743412373
 21
586.7930199689371
 31
0.0
  0
INSERT
  5
176A
330
1764
100
AcDbEntity
  8
DIM
 62
     0
370
    -2
100
AcDbBlockReference
  2
_DOT
 10
-150.0688743412373
 20
671.8525143521373
 30
0.0
 41
2.0
 42
2.0
 43
2.0
 50
90.0
  0
INSERT
  5
176B
330
1764
100
AcDbEntity
  8
DIM
 62
     0
370
    -2
100
AcDbBlockReference
  2
_DOT
 10
-150.0688743412373
 20
584.7930199689371
 30
0.0
 41
2.0
 42
2.0
 43
2.0
 50
270.0
  0
MTEXT
  5
176C
330
1764
100
AcDbEntity
  8
DIM
 62
     0
100
AcDbMText
 10
-166.0688743412373
 20
628.3227671605372
 30
0.0
 40
12.0
 41
0.0
 46
0.0
 71
     5
 72
     1
  1
\A1;87
  7
ＭＳ ゴシック
 11
0.0
 21
1.0
 31
0.0
 73
     1
 44
1.0
  0
POINT
  5
176D
330
1764
100
AcDbEntity
  8
Defpoints
 62
     0
100
AcDbPoint
 10
-205.4284433023048
 20
671.8525143521373
 30
0.0
  0
POINT
  5
176E
330
1764
100
AcDbEntity
  8
Defpoints
 62
     0
100
AcDbPoint
 10
-238.0005079817896
 20
584.7930199689371
 30
0.0
  0
POINT
  5
176F
330
1764
100
AcDbEntity
  8
Defpoints
 62
     0
100
AcDbPoint
 10
-150.0688743412373
 20
584.7930199689371
 30
0.0
  0
ENDBLK
  5
1766
330
1764
100
AcDbEntity
  8
0
100
AcDbBlockEnd
  0
BLOCK
  5
1781
330
1780
100
AcDbEntity
  8
0
100
AcDbBlockBegin
  2
*D8
 70
     1
 10
0.0
 20
0.0
 30
0.0
  3
*D8
  1
*D50
  0
LINE
  5
1783
330
1780
100
AcDbEntity
  8
DIM
 62
     0
370
    -2
100
AcDbLine
 10
-329.1967209567216
 20
584.7930199689371
 30
0.0
 11
-425.0716077610881
 21
584.7930199689371
 31
0.0
  0
LINE
  5
1784
330
1780
100
AcDbEntity
  8
DIM
 62
     0
370
    -2
100
AcDbLine
 10
-258.6313006938241
 20
766.9407353208452
 30
0.0
 11
-425.0716077610881
 21
766.9407353208452
 31
0.0
  0
LINE
  5
1785
330
1780
100
AcDbEntity
  8
DIM
 62
     0
370
    -2
100
AcDbLine
 10
-425.0716077610881
 20
586.7930199689371
 30
0.0
 11
-425.0716077610881
 21
764.9407353208452
 31
0.0
  0
INSERT
  5
1786
330
1780
100
AcDbEntity
  8
DIM
 62
     0
370
    -2
100
AcDbBlockReference
  2
_DOT
 10
-425.0716077610881
 20
584.7930199689371
 30
0.0
 41
2.0
 42
2.0
 43
2.0
 50
270.0
  0
INSERT
  5
1787
330
1780
100
AcDbEntity
  8
DIM
 62
     0
370
    -2
100
AcDbBlockReference
  2
_DOT
 10
-425.0716077610881
 20
766.9407353208452
 30
0.0
 41
2.0
 42
2.0
 43
2.0
 50
90.0
  0
MTEXT
  5
1788
330
1780
100
AcDbEntity
  8
DIM
 62
     0
100
AcDbMText
 10
-441.0716077610881
 20
675.8668776448911
 30
0.0
 40
12.0
 41
0.0
 46
0.0
 71
     5
 72
     1
  1
\A1;182
  7
ＭＳ ゴシック
 11
0.0
 21
1.0
 31
0.0
 73
     1
 44
1.0
  0
POINT
  5
1789
330
1780
100
AcDbEntity
  8
Defpoints
 62
     0
100
AcDbPoint
 10
-324.1967209567216
 20
584.7930199689371
 30
0.0
  0
POINT
  5
178A
330
1780
100
AcDbEntity
  8
Defpoints
 62
     0
100
AcDbPoint
 10
-253.6313006938241
 20
766.9407353208452
 30
0.0
  0
POINT
  5
178B
330
1780
100
AcDbEntity
  8
Defpoints
 62
     0
100
AcDbPoint
 10
-425.0716077610881
 20
766.9407353208452
 30
0.0
  0
ENDBLK
  5
1782
330
1780
100
AcDbEntity
  8
0
100
AcDbBlockEnd
  0
BLOCK
  5
17A1
330
17A0
100
AcDbEntity
  8
0
100
AcDbBlockBegin
  2
*D9
 70
     1
 10
0.0
 20
0.0
 30
0.0
  3
*D9
  1
*D52
  0
LINE
  5
17A3
330
17A0
100
AcDbEntity
  8
DIM
 62
     0
370
    -2
100
AcDbLine
 10
-329.1967209567216
 20
584.7930199689371
 30
0.0
 11
-425.0716077610881
 21
584.7930199689371
 31
0.0
  0
LINE
  5
17A4
330
17A0
100
AcDbEntity
  8
DIM
 62
     0
370
    -2
100
AcDbLine
 10
-322.3302740070764
 20
253.4654709517774
 30
0.0
 11
-425.0716077610881
 21
253.4654709517774
 31
0.0
  0
LINE
  5
17A5
330
17A0
100
AcDbEntity
  8
DIM
 62
     0
370
    -2
100
AcDbLine
 10
-425.0716077610881
 20
582.7930199689371
 30
0.0
 11
-425.0716077610881
 21
255.4654709517774
 31
0.0
  0
INSERT
  5
17A6
330
17A0
100
AcDbEntity
  8
DIM
 62
     0
370
    -2
100
AcDbBlockReference
  2
_DOT
 10
-425.0716077610881
 20
584.7930199689371
 30
0.0
 41
2.0
 42
2.0
 43
2.0
 50
90.0
  0
INSERT
  5
17A7
330
17A0
100
AcDbEntity
  8
DIM
 62
     0
370
    -2
100
AcDbBlockReference
  2
_DOT
 10
-425.0716077610881
 20
253.4654709517774
 30
0.0
 41
2.0
 42
2.0
 43
2.0
 50
270.0
  0
MTEXT
  5
17A8
330
17A0
100
AcDbEntity
  8
DIM
 62
     0
100
AcDbMText
 10
-441.0716077610881
 20
419.1292454603572
 30
0.0
 40
12.0
 41
0.0
 46
0.0
 71
     5
 72
     1
  1
\A1;445
  7
ＭＳ ゴシック
 11
0.0
 21
1.0
 31
0.0
 73
     1
 44
1.0
  0
POINT
  5
17A9
330
17A0
100
AcDbEntity
  8
Defpoints
 62
     0
100
AcDbPoint
 10
-324.1967209567216
 20
584.7930199689371
 30
0.0
  0
POINT
  5
17AA
330
17A0
100
AcDbEntity
  8
Defpoints
 62
     0
100
AcDbPoint
 10
-317.3302740070764
 20
253.4654709517774
 30
0.0
  0
POINT
  5
17AB
330
17A0
100
AcDbEntity
  8
Defpoints
 62
     0
100
AcDbPoint
 10
-425.0716077610881
 20
253.4654709517774
 30
0.0
  0
ENDBLK
  5
17A2
330
17A0
100
AcDbEntity
  8
0
100
AcDbBlockEnd
  0
BLOCK
  5
17BD
330
17BC
100
AcDbEntity
  8
0
100
AcDbBlockBegin
  2
*D10
 70
     1
 10
0.0
 20
0.0
 30
0.0
  3
*D10
  1
*D54
  0
LINE
  5
17BF
330
17BC
100
AcDbEntity
  8
DIM
 62
     0
370
    -2
100
AcDbLine
 10
-266.9479771814878
 20
584.7930199689371
 30
0.0
 11
-238.0005079817896
 21
584.7930199689371
 31
0.0
  0
LINE
  5
17C0
330
17BC
100
AcDbEntity
  8
DIM
 62
     0
370
    -2
100
AcDbLine
 10
-263.1570615189634
 20
554.8854335595191
 30
0.0
 11
-238.0005079817896
 21
554.8854335595191
 31
0.0
  0
LINE
  5
17C1
330
17BC
100
AcDbEntity
  8
DIM
 62
     0
370
    -2
100
AcDbLine
 10
-238.0005079817896
 20
554.8854335595191
 30
0.0
 11
-238.0005079817896
 21
473.1374335595191
 31
0.0
  0
LINE
  5
17C2
330
17BC
100
AcDbEntity
  8
DIM
 62
     0
370
    -2
100
AcDbLine
 10
-238.0005079817896
 20
582.7930199689371
 30
0.0
 11
-238.0005079817896
 21
556.8854335595191
 31
0.0
  0
INSERT
  5
17C3
330
17BC
100
AcDbEntity
  8
DIM
 62
     0
370
    -2
100
AcDbBlockReference
  2
_DOT
 10
-238.0005079817896
 20
584.7930199689371
 30
0.0
 41
2.0
 42
2.0
 43
2.0
 50
90.0
  0
INSERT
  5
17C4
330
17BC
100
AcDbEntity
  8
DIM
 62
     0
370
    -2
100
AcDbBlockReference
  2
_DOT
 10
-238.0005079817896
 20
554.8854335595191
 30
0.0
 41
2.0
 42
2.0
 43
2.0
 50
270.0
  0
MTEXT
  5
17C5
330
17BC
100
AcDbEntity
  8
DIM
 62
     0
100
AcDbMText
 10
-254.0005079817896
 20
510.0114335595191
 30
0.0
 40
12.0
 41
0.0
 46
0.0
 71
     5
 72
     1
  1
\A1;max. 30
  7
ＭＳ ゴシック
 11
0.0
 21
1.0
 31
0.0
 73
     1
 44
1.0
  0
POINT
  5
17C6
330
17BC
100
AcDbEntity
  8
Defpoints
 62
     0
100
AcDbPoint
 10
-271.9479771814878
 20
584.7930199689371
 30
0.0
  0
POINT
  5
17C7
330
17BC
100
AcDbEntity
  8
Defpoints
 62
     0
100
AcDbPoint
 10
-268.1570615189634
 20
554.8854335595191
 30
0.0
  0
POINT
  5
17CA
330
17BC
100
AcDbEntity
  8
Defpoints
 62
     0
100
AcDbPoint
 10
-238.0005079817896
 20
554.8854335595191
 30
0.0
  0
ENDBLK
  5
17BE
330
17BC
100
AcDbEntity
  8
0
100
AcDbBlockEnd
  0
BLOCK
  5
528F
330
528E
100
AcDbEntity
  8
0
100
AcDbBlockBegin
  2
*D11
 70
     1
 10
0.0
 20
0.0
 30
0.0
  3
*D11
  1
*D180
  0
LINE
  5
5291
330
528E
100
AcDbEntity
  8
DIM
  6
Continuous
 62
     0
370
    -2
100
AcDbLine
 10
-207.5753895233053
 20
977.2721363221665
 30
0.0
 11
-163.6424299452556
 21
977.2721363221665
 31
0.0
  0
LINE
  5
5292
330
528E
100
AcDbEntity
  8
DIM
  6
Continuous
 62
     0
370
    -2
100
AcDbLine
 10
-239.0090207202426
 20
1044.68174079606
 30
0.0
 11
-210.7694720948707
 21
1078.336351635498
 31
0.0
  0
ARC
  5
5293
330
528E
100
AcDbEntity
  8
DIM
  6
Continuous
 62
     0
370
    -2
100
AcDbCircle
 10
-295.5723490689053
 20
977.2721363221665
 30
0.0
 40
131.9299191236497
100
AcDbArc
 50
0.8685873309782567
 51
49.13143556460852
  0
INSERT
  5
5294
330
528E
100
AcDbEntity
  8
DIM
 62
     0
370
    -2
100
AcDbBlockReference
  2
_DOT
 10
-163.6424299452556
 20
977.2721363221665
 30
0.0
 41
2.0
 42
2.0
 43
2.0
 50
270.4342936654891
  0
INSERT
  5
5295
330
528E
100
AcDbEntity
  8
DIM
 62
     0
370
    -2
100
AcDbBlockReference
  2
_DOT
 10
-210.7694720948707
 20
1078.336351635498
 30
0.0
 41
2.0
 42
2.0
 43
2.0
 50
139.5657292300976
  0
MTEXT
  5
5296
330
528E
100
AcDbEntity
  8
DIM
 62
     0
100
AcDbMText
 10
-161.3119993050034
 20
1039.878798261901
 30
0.0
 40
12.0
 41
0.0
 46
0.0
 71
     5
 72
     1
  1
\A1;\A1;50%%d
  7
ＭＳ ゴシック
 11
0.4226184428214646
 21
-0.9063077025972804
 31
0.0
 73
     1
 44
1.0
  0
POINT
  5
5297
330
528E
100
AcDbEntity
  8
Defpoints
 62
     0
100
AcDbPoint
 10
-185.3465289936827
 20
1049.768840721176
 30
0.0
  0
POINT
  5
5298
330
528E
100
AcDbEntity
  8
Defpoints
 62
     0
100
AcDbPoint
 10
-295.5723490689053
 20
977.2721363221665
 30
0.0
  0
POINT
  5
5299
330
528E
100
AcDbEntity
  8
Defpoints
 62
     0
100
AcDbPoint
 10
-295.5723490689053
 20
977.2721363221665
 30
0.0
  0
POINT
  5
529A
330
528E
100
AcDbEntity
  8
Defpoints
 62
     0
100
AcDbPoint
 10
-242.2229572381053
 20
1040.851517296165
 30
0.0
  0
POINT
  5
529B
330
528E
100
AcDbEntity
  8
Defpoints
 62
     0
100
AcDbPoint
 10
-212.5753895233053
 20
977.2721363221665
 30
0.0
  0
ENDBLK
  5
5290
330
528E
100
AcDbEntity
  8
0
100
AcDbBlockEnd
  0
BLOCK
  5
529D
330
529C
100
AcDbEntity
  8
0
100
AcDbBlockBegin
  2
*D12
 70
     1
 10
0.0
 20
0.0
 30
0.0
  3
*D12
  1
*D181
  0
LINE
  5
529F
330
529C
100
AcDbEntity
  8
DIM
  6
Continuous
 62
     0
370
    -2
100
AcDbLine
 10
-239.0090207202426
 20
909.8625318482716
 30
0.0
 11
-210.7884466621311
 21
876.2305340358844
 31
0.0
  0
LINE
  5
52A0
330
529C
100
AcDbEntity
  8
DIM
  6
Continuous
 62
     0
370
    -2
100
AcDbLine
 10
-207.5753895233053
 20
977.2721363221665
 30
0.0
 11
-163.6719491457033
 21
977.2721363221665
 31
0.0
  0
ARC
  5
52A1
330
529C
100
AcDbEntity
  8
DIM
  6
Continuous
 62
     0
370
    -2
100
AcDbCircle
 10
-295.5723490689053
 20
977.2721363221665
 30
0.0
 40
131.900399923202
100
AcDbArc
 50
310.8687588282413
 51
359.1312182761714
  0
INSERT
  5
52A2
330
529C
100
AcDbEntity
  8
DIM
 62
     0
370
    -2
100
AcDbBlockReference
  2
_DOT
 10
-210.7884466621311
 20
876.2305340358844
 30
0.0
 41
2.0
 42
2.0
 43
2.0
 50
220.434367966327
  0
INSERT
  5
52A3
330
529C
100
AcDbEntity
  8
DIM
 62
     0
370
    -2
100
AcDbBlockReference
  2
_DOT
 10
-163.6719491457033
 20
977.2721363221665
 30
0.0
 41
2.0
 42
2.0
 43
2.0
 50
89.56560913808569
  0
MTEXT
  5
52A4
330
529C
100
AcDbEntity
  8
DIM
 62
     0
100
AcDbMText
 10
-190.7212485019999
 20
928.3792396571181
 30
0.0
 40
12.0
 41
0.0
 46
0.0
 71
     5
 72
     1
  1
\A1;\A1;50%%d
  7
ＭＳ ゴシック
 11
0.4226184428224356
 21
0.9063077025968275
 31
0.0
 73
     1
 44
1.0
  0
POINT
  5
52A5
330
529C
100
AcDbEntity
  8
Defpoints
 62
     0
100
AcDbPoint
 10
-185.3711919215385
 20
904.7916529953976
 30
0.0
  0
POINT
  5
52A6
330
529C
100
AcDbEntity
  8
Defpoints
 62
     0
100
AcDbPoint
 10
-295.5723490689053
 20
977.2721363221665
 30
0.0
  0
POINT
  5
52A7
330
529C
100
AcDbEntity
  8
Defpoints
 62
     0
100
AcDbPoint
 10
-295.5723490689053
 20
977.2721363221665
 30
0.0
  0
POINT
  5
52A8
330
529C
100
AcDbEntity
  8
Defpoints
 62
     0
100
AcDbPoint
 10
-242.2229572381053
 20
913.6927553481667
 30
0.0
  0
POINT
  5
52A9
330
529C
100
AcDbEntity
  8
Defpoints
 62
     0
100
AcDbPoint
 10
-212.5753895233053
 20
977.2721363221665
 30
0.0
  0
ENDBLK
  5
529E
330
529C
100
AcDbEntity
  8
0
100
AcDbBlockEnd
  0
BLOCK
  5
52DE
330
52DD
100
AcDbEntity
  8
0
100
AcDbBlockBegin
  2
*D13
 70
     1
 10
0.0
 20
0.0
 30
0.0
  3
*D13
  1
*D186
  0
LINE
  5
52E0
330
52DD
100
AcDbEntity
  8
DIM
  6
Continuous
 62
     0
370
    -2
100
AcDbLine
 10
-205.4284433023048
 20
665.739013240537
 30
0.0
 11
-205.4284433023048
 21
644.9255475526911
 31
0.0
  0
LINE
  5
52E1
330
52DD
100
AcDbEntity
  8
DIM
  6
Continuous
 62
     0
370
    -2
100
AcDbLine
 10
-203.4848498383751
 20
666.20790906948
 30
0.0
 11
-196.6618804203525
 21
646.3925670573126
 31
0.0
  0
ARC
  5
52E2
330
52DD
100
AcDbEntity
  8
DIM
  6
Continuous
 62
     0
370
    -2
100
AcDbCircle
 10
-205.4284433023048
 20
671.8525143521373
 30
0.0
 40
26.9269667994462
100
AcDbArc
 50
274.256621879935
 51
284.7433781109
  0
INSERT
  5
52E3
330
52DD
100
AcDbEntity
  8
DIM
 62
     0
370
    -2
100
AcDbBlockReference
  2
_DOT
 10
-205.4284433023048
 20
644.9255475526911
 30
0.0
 41
2.0
 42
2.0
 43
2.0
 50
182.1283109399675
  0
INSERT
  5
52E4
330
52DD
100
AcDbEntity
  8
DIM
 62
     0
370
    -2
100
AcDbBlockReference
  2
_DOT
 10
-196.6618804203525
 20
646.3925670573126
 30
0.0
 41
2.0
 42
2.0
 43
2.0
 50
16.87168905086749
  0
MTEXT
  5
52E5
330
52DD
100
AcDbEntity
  8
DIM
 62
     0
100
AcDbMText
 10
-195.1420403270876
 20
629.9599396104486
 30
0.0
 40
12.0
 41
0.0
 46
0.0
 71
     5
 72
     1
  1
\A1;\A1;19%%d
  7
ＭＳ ゴシック
 11
0.9711525369054564
 21
0.238459116122861
 31
0.0
 73
     1
 44
1.0
  0
POINT
  5
52E6
330
52DD
100
AcDbEntity
  8
Defpoints
 62
     0
100
AcDbPoint
 10
-202.4580607833727
 20
645.0898842738043
 30
0.0
  0
POINT
  5
52E7
330
52DD
100
AcDbEntity
  8
Defpoints
 62
     0
100
AcDbPoint
 10
-205.4284433023048
 20
671.8525143521373
 30
0.0
  0
POINT
  5
52E8
330
52DD
100
AcDbEntity
  8
Defpoints
 62
     0
100
AcDbPoint
 10
-205.4284433023048
 20
671.8525143521373
 30
0.0
  0
POINT
  5
52E9
330
52DD
100
AcDbEntity
  8
Defpoints
 62
     0
100
AcDbPoint
 10
-205.4284433023048
 20
670.739013240537
 30
0.0
  0
POINT
  5
52EA
330
52DD
100
AcDbEntity
  8
Defpoints
 62
     0
100
AcDbPoint
 10
-205.1126906099047
 20
670.935501947737
 30
0.0
  0
ENDBLK
  5
52DF
330
52DD
100
AcDbEntity
  8
0
100
AcDbBlockEnd
  0
BLOCK
  5
535F
330
535E
100
AcDbEntity
  8
0
100
AcDbBlockBegin
  2
*D14
 70
     1
 10
0.0
 20
0.0
 30
0.0
  3
*D14
  1
*D195
  0
LINE
  5
5361
330
535E
100
AcDbEntity
  8
DIM
 62
     0
370
    -2
100
AcDbLine
 10
-665.2773563670436
 20
584.7930199689371
 30
0.0
 11
-617.0190628856021
 21
584.7930199689371
 31
0.0
  0
LINE
  5
5362
330
535E
100
AcDbEntity
  8
DIM
 62
     0
370
    -2
100
AcDbLine
 10
-665.2773563670436
 20
731.7930199689371
 30
0.0
 11
-617.0190628856021
 21
731.7930199689371
 31
0.0
  0
LINE
  5
5363
330
535E
100
AcDbEntity
  8
DIM
 62
     0
370
    -2
100
AcDbLine
 10
-617.0190628856021
 20
586.7930199689371
 30
0.0
 11
-617.0190628856021
 21
729.7930199689371
 31
0.0
  0
INSERT
  5
5364
330
535E
100
AcDbEntity
  8
DIM
 62
     0
370
    -2
100
AcDbBlockReference
  2
_DOT
 10
-617.0190628856021
 20
584.7930199689371
 30
0.0
 41
2.0
 42
2.0
 43
2.0
 50
270.0
  0
INSERT
  5
5365
330
535E
100
AcDbEntity
  8
DIM
 62
     0
370
    -2
100
AcDbBlockReference
  2
_DOT
 10
-617.0190628856021
 20
731.7930199689371
 30
0.0
 41
2.0
 42
2.0
 43
2.0
 50
90.0
  0
MTEXT
  5
5366
330
535E
100
AcDbEntity
  8
DIM
 62
     0
100
AcDbMText
 10
-633.0190628856021
 20
658.2930199689371
 30
0.0
 40
12.0
 41
0.0
 46
0.0
 71
     5
 72
     1
  1
\A1;147
  7
ＭＳ ゴシック
 11
0.0
 21
1.0
 31
0.0
 73
     1
 44
1.0
  0
POINT
  5
5367
330
535E
100
AcDbEntity
  8
Defpoints
 62
     0
100
AcDbPoint
 10
-670.2773563670436
 20
584.7930199689371
 30
0.0
  0
POINT
  5
5368
330
535E
100
AcDbEntity
  8
Defpoints
 62
     0
100
AcDbPoint
 10
-670.2773563670436
 20
731.7930199689371
 30
0.0
  0
POINT
  5
5369
330
535E
100
AcDbEntity
  8
Defpoints
 62
     0
100
AcDbPoint
 10
-617.0190628856021
 20
731.7930199689371
 30
0.0
  0
ENDBLK
  5
5360
330
535E
100
AcDbEntity
  8
0
100
AcDbBlockEnd
  0
BLOCK
  5
6D3A
330
6D39
100
AcDbEntity
  8
0
100
AcDbBlockBegin
  2
*D15
 70
     1
 10
0.0
 20
0.0
 30
0.0
  3
*D15
  1
*D16
  0
LINE
  5
6D3C
330
6D39
100
AcDbEntity
  8
DIM
 62
     0
370
    -2
100
AcDbLine
 10
562.9716035188872
 20
759.0014491832753
 30
0.0
 11
555.7692641093848
 21
759.0014491832753
 31
0.0
  0
LINE
  5
6D3D
330
6D39
100
AcDbEntity
  8
DIM
 62
     0
370
    -2
100
AcDbLine
 10
562.9716035188872
 20
739.0014496303102
 30
0.0
 11
555.7692641093848
 21
739.0014496303102
 31
0.0
  0
LINE
  5
6D3E
330
6D39
100
AcDbEntity
  8
DIM
 62
     0
370
    -2
100
AcDbLine
 10
555.7692641093848
 20
761.0014491832753
 30
0.0
 11
555.7692641093848
 21
763.0014491832753
 31
0.0
  0
LINE
  5
6D3F
330
6D39
100
AcDbEntity
  8
DIM
 62
     0
370
    -2
100
AcDbLine
 10
555.7692641093848
 20
737.0014496303102
 30
0.0
 11
555.7692641093848
 21
735.0014496303102
 31
0.0
  0
INSERT
  5
6D40
330
6D39
100
AcDbEntity
  8
DIM
 62
     0
370
    -2
100
AcDbBlockReference
  2
_DOT
 10
555.7692641093848
 20
759.0014491832753
 30
0.0
 41
2.0
 42
2.0
 43
2.0
 50
270.0
  0
INSERT
  5
6D41
330
6D39
100
AcDbEntity
  8
DIM
 62
     0
370
    -2
100
AcDbBlockReference
  2
_DOT
 10
555.7692641093848
 20
739.0014496303102
 30
0.0
 41
2.0
 42
2.0
 43
2.0
 50
90.0
  0
MTEXT
  5
6D42
330
6D39
100
AcDbEntity
  8
DIM
 62
     0
100
AcDbMText
 10
539.7692641093848
 20
749.0014494067927
 30
0.0
 40
12.0
 41
0.0
 46
0.0
 71
     5
 72
     1
  1
\A1;20
  7
ＭＳ ゴシック
 11
0.0
 21
1.0
 31
0.0
 73
     1
 44
1.0
  0
POINT
  5
6D43
330
6D39
100
AcDbEntity
  8
Defpoints
 62
     0
100
AcDbPoint
 10
567.9716035188872
 20
759.0014491832753
 30
0.0
  0
POINT
  5
6D44
330
6D39
100
AcDbEntity
  8
Defpoints
 62
     0
100
AcDbPoint
 10
567.9716035188872
 20
739.0014496303102
 30
0.0
  0
POINT
  5
6D45
330
6D39
100
AcDbEntity
  8
Defpoints
 62
     0
100
AcDbPoint
 10
555.7692641093848
 20
739.0014496303102
 30
0.0
  0
ENDBLK
  5
6D3B
330
6D39
100
AcDbEntity
  8
0
100
AcDbBlockEnd
  0
BLOCK
  5
6D55
330
6D54
100
AcDbEntity
  8
0
100
AcDbBlockBegin
  2
*D16
 70
     1
 10
0.0
 20
0.0
 30
0.0
  3
*D16
  1
*D17
  0
LINE
  5
6D57
330
6D54
100
AcDbEntity
  8
DIM
 62
     0
370
    -2
100
AcDbLine
 10
-116.4892797867196
 20
309.5754420530043
 30
0.0
 11
-116.4892797867196
 21
256.8033659867495
 31
0.0
  0
LINE
  5
6D58
330
6D54
100
AcDbEntity
  8
DIM
 62
     0
370
    -2
100
AcDbLine
 10
-190.1825999418633
 20
285.0246469796245
 30
0.0
 11
-190.1825999418633
 21
256.8033659867495
 31
0.0
  0
LINE
  5
6D59
330
6D54
100
AcDbEntity
  8
DIM
 62
     0
370
    -2
100
AcDbLine
 10
-118.4892797867196
 20
256.8033659867495
 30
0.0
 11
-188.1825999418633
 21
256.8033659867495
 31
0.0
  0
INSERT
  5
6D5A
330
6D54
100
AcDbEntity
  8
DIM
 62
     0
370
    -2
100
AcDbBlockReference
  2
_DOT
 10
-116.4892797867196
 20
256.8033659867495
 30
0.0
 41
2.0
 42
2.0
 43
2.0
  0
INSERT
  5
6D5B
330
6D54
100
AcDbEntity
  8
DIM
 62
     0
370
    -2
100
AcDbBlockReference
  2
_DOT
 10
-190.1825999418633
 20
256.8033659867495
 30
0.0
 41
2.0
 42
2.0
 43
2.0
 50
180.0
  0
MTEXT
  5
6D5C
330
6D54
100
AcDbEntity
  8
DIM
 62
     0
100
AcDbMText
 10
-153.3359398642915
 20
270.3033659867495
 30
0.0
 40
7.0
 41
0.0
 46
0.0
 71
     5
 72
     1
  1
\A1;74
  7
ＭＳ ゴシック
 73
     1
 44
1.0
  0
POINT
  5
6D5D
330
6D54
100
AcDbEntity
  8
Defpoints
 62
     0
100
AcDbPoint
 10
-116.4892797867196
 20
314.5754420530043
 30
0.0
  0
POINT
  5
6D5E
330
6D54
100
AcDbEntity
  8
Defpoints
 62
     0
100
AcDbPoint
 10
-190.1825999418633
 20
290.0246469796245
 30
0.0
  0
POINT
  5
6D5F
330
6D54
100
AcDbEntity
  8
Defpoints
 62
     0
100
AcDbPoint
 10
-190.1825999418633
 20
256.8033659867495
 30
0.0
  0
ENDBLK
  5
6D56
330
6D54
100
AcDbEntity
  8
0
100
AcDbBlockEnd
  0
BLOCK
  5
6D62
330
6D61
100
AcDbEntity
  8
0
100
AcDbBlockBegin
  2
*D17
 70
     1
 10
0.0
 20
0.0
 30
0.0
  3
*D17
  1
*D18
  0
LINE
  5
6D64
330
6D61
100
AcDbEntity
  8
DIM
 62
     0
370
    -2
100
AcDbLine
 10
-190.1825999418633
 20
285.0246469796245
 30
0.0
 11
-190.1825999418633
 21
256.8033659867495
 31
0.0
  0
LINE
  5
6D65
330
6D61
100
AcDbEntity
  8
DIM
 62
     0
370
    -2
100
AcDbLine
 10
-210.1825999418633
 20
353.4980563592158
 30
0.0
 11
-210.1825999418633
 21
256.8033659867495
 31
0.0
  0
LINE
  5
6D66
330
6D61
100
AcDbEntity
  8
DIM
 62
     0
370
    -2
100
AcDbLine
 10
-192.1825999418633
 20
256.8033659867495
 30
0.0
 11
-208.1825999418633
 21
256.8033659867495
 31
0.0
  0
INSERT
  5
6D67
330
6D61
100
AcDbEntity
  8
DIM
 62
     0
370
    -2
100
AcDbBlockReference
  2
_DOT
 10
-190.1825999418633
 20
256.8033659867495
 30
0.0
 41
2.0
 42
2.0
 43
2.0
  0
INSERT
  5
6D68
330
6D61
100
AcDbEntity
  8
DIM
 62
     0
370
    -2
100
AcDbBlockReference
  2
_DOT
 10
-210.1825999418633
 20
256.8033659867495
 30
0.0
 41
2.0
 42
2.0
 43
2.0
 50
180.0
  0
MTEXT
  5
6D69
330
6D61
100
AcDbEntity
  8
DIM
 62
     0
100
AcDbMText
 10
-200.6825999418633
 20
270.3033659867495
 30
0.0
 40
7.0
 41
0.0
 46
0.0
 71
     5
 72
     1
  1
\A1;20
  7
ＭＳ ゴシック
 73
     1
 44
1.0
  0
POINT
  5
6D6A
330
6D61
100
AcDbEntity
  8
Defpoints
 62
     0
100
AcDbPoint
 10
-190.1825999418633
 20
290.0246469796245
 30
0.0
  0
POINT
  5
6D6B
330
6D61
100
AcDbEntity
  8
Defpoints
 62
     0
100
AcDbPoint
 10
-210.1825999418633
 20
358.4980563592158
 30
0.0
  0
POINT
  5
6D6C
330
6D61
100
AcDbEntity
  8
Defpoints
 62
     0
100
AcDbPoint
 10
-210.1825999418633
 20
256.8033659867495
 30
0.0
  0
ENDBLK
  5
6D63
330
6D61
100
AcDbEntity
  8
0
100
AcDbBlockEnd
  0
BLOCK
  5
6D70
330
6D6F
100
AcDbEntity
  8
0
100
AcDbBlockBegin
  2
*D18
 70
     1
 10
0.0
 20
0.0
 30
0.0
  3
*D18
  1
*D19
  0
LINE
  5
6D72
330
6D6F
100
AcDbEntity
  8
DIM
 62
     0
370
    -2
100
AcDbLine
 10
467.7564224872594
 20
556.3060297558618
 30
0.0
 11
467.7564224872594
 21
576.4934079428253
 31
0.0
  0
LINE
  5
6D73
330
6D6F
100
AcDbEntity
  8
DIM
 62
     0
370
    -2
100
AcDbLine
 10
447.7564224872594
 20
556.3060297558618
 30
0.0
 11
447.7564224872594
 21
576.4934079428253
 31
0.0
  0
LINE
  5
6D74
330
6D6F
100
AcDbEntity
  8
DIM
 62
     0
370
    -2
100
AcDbLine
 10
465.7564224872594
 20
576.4934079428253
 30
0.0
 11
449.7564224872594
 21
576.4934079428253
 31
0.0
  0
INSERT
  5
6D75
330
6D6F
100
AcDbEntity
  8
DIM
 62
     0
370
    -2
100
AcDbBlockReference
  2
_DOT
 10
467.7564224872594
 20
576.4934079428253
 30
0.0
 41
2.0
 42
2.0
 43
2.0
  0
INSERT
  5
6D76
330
6D6F
100
AcDbEntity
  8
DIM
 62
     0
370
    -2
100
AcDbBlockReference
  2
_DOT
 10
447.7564224872594
 20
576.4934079428253
 30
0.0
 41
2.0
 42
2.0
 43
2.0
 50
180.0
  0
MTEXT
  5
6D77
330
6D6F
100
AcDbEntity
  8
DIM
 62
     0
100
AcDbMText
 10
457.7564224872594
 20
592.4934079428253
 30
0.0
 40
12.0
 41
0.0
 46
0.0
 71
     5
 72
     1
  1
\A1;20
  7
ＭＳ ゴシック
 73
     1
 44
1.0
  0
POINT
  5
6D78
330
6D6F
100
AcDbEntity
  8
Defpoints
 62
     0
100
AcDbPoint
 10
467.7564224872594
 20
551.3060297558618
 30
0.0
  0
POINT
  5
6D79
330
6D6F
100
AcDbEntity
  8
Defpoints
 62
     0
100
AcDbPoint
 10
447.7564224872594
 20
551.3060297558618
 30
0.0
  0
POINT
  5
6D7A
330
6D6F
100
AcDbEntity
  8
Defpoints
 62
     0
100
AcDbPoint
 10
447.7564224872594
 20
576.4934079428253
 30
0.0
  0
ENDBLK
  5
6D71
330
6D6F
100
AcDbEntity
  8
0
100
AcDbBlockEnd
  0
BLOCK
  5
709D
330
709C
100
AcDbEntity
  8
0
100
AcDbBlockBegin
  2
*D19
 70
     1
 10
0.0
 20
0.0
 30
0.0
  3
*D19
  1
*D23
  0
LINE
  5
709F
330
709C
100
AcDbEntity
  8
DIM
 62
     0
370
    -2
100
AcDbLine
 10
328.92380611569
 20
528.5334565678319
 30
0.0
 11
328.92380611569
 21
567.5741791948802
 31
0.0
  0
LINE
  5
70A0
330
709C
100
AcDbEntity
  8
DIM
 62
     0
370
    -2
100
AcDbLine
 10
280.9238061156892
 20
528.5334565678319
 30
0.0
 11
280.9238061156892
 21
567.5741791948802
 31
0.0
  0
LINE
  5
70A1
330
709C
100
AcDbEntity
  8
DIM
 62
     0
370
    -2
100
AcDbLine
 10
326.92380611569
 20
567.5741791948802
 30
0.0
 11
282.9238061156892
 21
567.5741791948802
 31
0.0
  0
INSERT
  5
70A2
330
709C
100
AcDbEntity
  8
DIM
 62
     0
370
    -2
100
AcDbBlockReference
  2
_DOT
 10
328.92380611569
 20
567.5741791948802
 30
0.0
 41
2.0
 42
2.0
 43
2.0
  0
INSERT
  5
70A3
330
709C
100
AcDbEntity
  8
DIM
 62
     0
370
    -2
100
AcDbBlockReference
  2
_DOT
 10
280.9238061156892
 20
567.5741791948802
 30
0.0
 41
2.0
 42
2.0
 43
2.0
 50
180.0
  0
MTEXT
  5
70A4
330
709C
100
AcDbEntity
  8
DIM
 62
     0
100
AcDbMText
 10
304.9238061156896
 20
583.5741791948802
 30
0.0
 40
12.0
 41
0.0
 46
0.0
 71
     5
 72
     1
  1
\A1;48
  7
ＭＳ ゴシック
 73
     1
 44
1.0
  0
POINT
  5
70A5
330
709C
100
AcDbEntity
  8
Defpoints
 62
     0
100
AcDbPoint
 10
328.92380611569
 20
523.5334565678319
 30
0.0
  0
POINT
  5
70A6
330
709C
100
AcDbEntity
  8
Defpoints
 62
     0
100
AcDbPoint
 10
280.9238061156892
 20
523.5334565678319
 30
0.0
  0
POINT
  5
70A7
330
709C
100
AcDbEntity
  8
Defpoints
 62
     0
100
AcDbPoint
 10
280.9238061156892
 20
567.5741791948802
 30
0.0
  0
ENDBLK
  5
709E
330
709C
100
AcDbEntity
  8
0
100
AcDbBlockEnd
  0
BLOCK
  5
70D4
330
70D3
100
AcDbEntity
  8
0
100
AcDbBlockBegin
  2
*D20
 70
     1
 10
0.0
 20
0.0
 30
0.0
  3
*D20
  1
*D24
  0
LINE
  5
70D6
330
70D3
100
AcDbEntity
  8
DIM
 62
     0
370
    -2
100
AcDbLine
 10
309.9238061156896
 20
547.5334565678322
 30
0.0
 11
369.6526534180869
 21
547.5334565678322
 31
0.0
  0
LINE
  5
70D7
330
70D3
100
AcDbEntity
  8
DIM
 62
     0
370
    -2
100
AcDbLine
 10
310.2201393965472
 20
452.3947542348584
 30
0.0
 11
369.6526534180869
 21
452.3947542348584
 31
0.0
  0
LINE
  5
70D8
330
70D3
100
AcDbEntity
  8
DIM
 62
     0
370
    -2
100
AcDbLine
 10
369.6526534180869
 20
545.5334565678322
 30
0.0
 11
369.6526534180869
 21
454.3947542348584
 31
0.0
  0
INSERT
  5
70D9
330
70D3
100
AcDbEntity
  8
DIM
 62
     0
370
    -2
100
AcDbBlockReference
  2
_DOT
 10
369.6526534180869
 20
547.5334565678322
 30
0.0
 41
2.0
 42
2.0
 43
2.0
 50
90.0
  0
INSERT
  5
70DA
330
70D3
100
AcDbEntity
  8
DIM
 62
     0
370
    -2
100
AcDbBlockReference
  2
_DOT
 10
369.6526534180869
 20
452.3947542348584
 30
0.0
 41
2.0
 42
2.0
 43
2.0
 50
270.0
  0
MTEXT
  5
70DB
330
70D3
100
AcDbEntity
  8
DIM
 62
     0
100
AcDbMText
 10
353.6526534180869
 20
499.9641054013453
 30
0.0
 40
12.0
 41
0.0
 46
0.0
 71
     5
 72
     1
  1
\A1;95
  7
ＭＳ ゴシック
 11
0.0
 21
1.0
 31
0.0
 73
     1
 44
1.0
  0
POINT
  5
70DC
330
70D3
100
AcDbEntity
  8
Defpoints
 62
     0
100
AcDbPoint
 10
304.9238061156896
 20
547.5334565678322
 30
0.0
  0
POINT
  5
70DD
330
70D3
100
AcDbEntity
  8
Defpoints
 62
     0
100
AcDbPoint
 10
305.2201393965472
 20
452.3947542348584
 30
0.0
  0
POINT
  5
70DE
330
70D3
100
AcDbEntity
  8
Defpoints
 62
     0
100
AcDbPoint
 10
369.6526534180869
 20
452.3947542348584
 30
0.0
  0
ENDBLK
  5
70D5
330
70D3
100
AcDbEntity
  8
0
100
AcDbBlockEnd
  0
BLOCK
  5
70E1
330
70E0
100
AcDbEntity
  8
0
100
AcDbBlockBegin
  2
*D21
 70
     1
 10
0.0
 20
0.0
 30
0.0
  3
*D21
  1
*D25
  0
LINE
  5
70E3
330
70E0
100
AcDbEntity
  8
DIM
 62
     0
370
    -2
100
AcDbLine
 10
442.7564224872594
 20
523.5334565678319
 30
0.0
 11
365.5038358061061
 21
523.5334565678319
 31
0.0
  0
LINE
  5
70E4
330
70E0
100
AcDbEntity
  8
DIM
 62
     0
370
    -2
100
AcDbLine
 10
443.7564225347569
 20
398.3387659867494
 30
0.0
 11
365.5038358061061
 21
398.3387659867494
 31
0.0
  0
LINE
  5
70E5
330
70E0
100
AcDbEntity
  8
DIM
 62
     0
370
    -2
100
AcDbLine
 10
365.5038358061061
 20
521.5334565678319
 30
0.0
 11
365.5038358061061
 21
400.3387659867494
 31
0.0
  0
INSERT
  5
70E6
330
70E0
100
AcDbEntity
  8
DIM
 62
     0
370
    -2
100
AcDbBlockReference
  2
_DOT
 10
365.5038358061061
 20
523.5334565678319
 30
0.0
 41
2.0
 42
2.0
 43
2.0
 50
90.0
  0
INSERT
  5
70E7
330
70E0
100
AcDbEntity
  8
DIM
 62
     0
370
    -2
100
AcDbBlockReference
  2
_DOT
 10
365.5038358061061
 20
398.3387659867494
 30
0.0
 41
2.0
 42
2.0
 43
2.0
 50
270.0
  0
MTEXT
  5
70E8
330
70E0
100
AcDbEntity
  8
DIM
 62
     0
100
AcDbMText
 10
349.5038358061061
 20
460.9361112772906
 30
0.0
 40
12.0
 41
0.0
 46
0.0
 71
     5
 72
     1
  1
\A1;125
  7
ＭＳ ゴシック
 11
0.0
 21
1.0
 31
0.0
 73
     1
 44
1.0
  0
POINT
  5
70E9
330
70E0
100
AcDbEntity
  8
Defpoints
 62
     0
100
AcDbPoint
 10
447.7564224872594
 20
523.5334565678319
 30
0.0
  0
POINT
  5
70EA
330
70E0
100
AcDbEntity
  8
Defpoints
 62
     0
100
AcDbPoint
 10
448.7564225347569
 20
398.3387659867494
 30
0.0
  0
POINT
  5
70EB
330
70E0
100
AcDbEntity
  8
Defpoints
 62
     0
100
AcDbPoint
 10
365.5038358061061
 20
398.3387659867494
 30
0.0
  0
ENDBLK
  5
70E2
330
70E0
100
AcDbEntity
  8
0
100
AcDbBlockEnd
  0
BLOCK
  5
70F6
330
70F5
100
AcDbEntity
  8
0
100
AcDbBlockBegin
  2
*D22
 70
     1
 10
0.0
 20
0.0
 30
0.0
  3
*D22
  1
*D26
  0
LINE
  5
70F8
330
70F5
100
AcDbEntity
  8
DIM
 62
     0
370
    -2
100
AcDbLine
 10
-101.7007808836797
 20
314.5754420530043
 30
0.0
 11
-51.53221870331175
 21
314.5754420530043
 31
0.0
  0
LINE
  5
70F9
330
70F5
100
AcDbEntity
  8
DIM
 62
     0
370
    -2
100
AcDbLine
 10
-125.0667663912577
 20
382.498056567832
 30
0.0
 11
-51.53221870331174
 21
382.498056567832
 31
0.0
  0
LINE
  5
70FA
330
70F5
100
AcDbEntity
  8
DIM
 62
     0
370
    -2
100
AcDbLine
 10
-51.53221870331175
 20
316.5754420530043
 30
0.0
 11
-51.53221870331174
 21
380.498056567832
 31
0.0
  0
INSERT
  5
70FB
330
70F5
100
AcDbEntity
  8
DIM
 62
     0
370
    -2
100
AcDbBlockReference
  2
_DOT
 10
-51.53221870331175
 20
314.5754420530043
 30
0.0
 41
2.0
 42
2.0
 43
2.0
 50
270.0
  0
INSERT
  5
70FC
330
70F5
100
AcDbEntity
  8
DIM
 62
     0
370
    -2
100
AcDbBlockReference
  2
_DOT
 10
-51.53221870331174
 20
382.498056567832
 30
0.0
 41
2.0
 42
2.0
 43
2.0
 50
90.0
  0
MTEXT
  5
70FD
330
70F5
100
AcDbEntity
  8
DIM
 62
     0
100
AcDbMText
 10
-65.03221870331174
 20
348.5367493104181
 30
0.0
 40
7.0
 41
0.0
 46
0.0
 71
     5
 72
     1
  1
\A1;68
  7
ＭＳ ゴシック
 11
1.046106279676537E-16
 21
1.0
 31
0.0
 73
     1
 44
1.0
  0
POINT
  5
70FE
330
70F5
100
AcDbEntity
  8
Defpoints
 62
     0
100
AcDbPoint
 10
-106.7007808836797
 20
314.5754420530043
 30
0.0
  0
POINT
  5
70FF
330
70F5
100
AcDbEntity
  8
Defpoints
 62
     0
100
AcDbPoint
 10
-130.0667663912577
 20
382.498056567832
 30
0.0
  0
POINT
  5
7100
330
70F5
100
AcDbEntity
  8
Defpoints
 62
     0
100
AcDbPoint
 10
-51.53221870331174
 20
382.498056567832
 30
0.0
  0
ENDBLK
  5
70F7
330
70F5
100
AcDbEntity
  8
0
100
AcDbBlockEnd
  0
BLOCK
  5
77E1
330
77E0
100
AcDbEntity
  8
0
 62
     4
100
AcDbBlockBegin
  2
*D23
 70
     1
 10
0.0
 20
0.0
 30
0.0
  3
*D23
  1
*D24
  0
LINE
  5
77E2
330
77E0
100
AcDbEntity
  8
0
 62
     0
370
    -2
100
AcDbLine
 10
0.0000016897541855
 20
93.52840587813239
 30
0.0
 11
0.0000016897541855
 21
0.0
 31
0.0
  0
LINE
  5
77E3
330
77E0
100
AcDbEntity
  8
0
 62
     0
370
    -2
100
AcDbLine
 10
219.8857497955121
 20
127.0284205741984
 30
0.0
 11
219.8857497955121
 21
0.0
 31
0.0
  0
LINE
  5
77E4
330
77E0
100
AcDbEntity
  8
0
 62
     0
370
    -2
100
AcDbLine
 10
10.00000168975419
 20
3.0
 30
0.0
 11
209.8857497955121
 21
3.0
 31
0.0
  0
SOLID
  5
77E5
330
77E0
100
AcDbEntity
  8
0
 62
     0
100
AcDbTrace
 10
10.00000168975419
 20
4.666666666666667
 30
0.0
 11
10.00000168975419
 21
1.333333333333333
 31
0.0
 12
0.0000016897541855
 22
3.0
 32
0.0
 13
0.0000016897541855
 23
3.0
 33
0.0
  0
SOLID
  5
77E6
330
77E0
100
AcDbEntity
  8
0
 62
     0
100
AcDbTrace
 10
209.8857497955121
 20
1.333333333333333
 30
0.0
 11
209.8857497955121
 21
4.666666666666667
 31
0.0
 12
219.8857497955121
 22
3.0
 32
0.0
 13
219.8857497955121
 23
3.0
 33
0.0
  0
MTEXT
  5
77E7
330
77E0
100
AcDbEntity
  8
0
 62
     0
370
     0
100
AcDbMText
 10
109.9428757426332
 20
13.126
 30
0.0
 40
12.0
 41
0.0
 46
0.0
 71
     5
 72
     1
  1
\A1;220
  7
ARIAL
 73
     1
 44
1.0
  0
POINT
  5
77E8
330
77E0
100
AcDbEntity
  8
Defpoints
 62
     0
100
AcDbPoint
 10
0.0000016897541855
 20
96.52840587813239
 30
0.0
  0
POINT
  5
77E9
330
77E0
100
AcDbEntity
  8
Defpoints
 62
     0
100
AcDbPoint
 10
219.8857497955121
 20
130.0284205741984
 30
0.0
  0
POINT
  5
77EA
330
77E0
100
AcDbEntity
  8
Defpoints
 62
     0
100
AcDbPoint
 10
219.8857497955121
 20
3.0
 30
0.0
  0
ENDBLK
  5
77EB
330
77E0
100
AcDbEntity
  8
0
 62
     4
100
AcDbBlockEnd
  0
BLOCK
  5
77EE
330
77ED
100
AcDbEntity
  8
0
 62
     4
100
AcDbBlockBegin
  2
*D24
 70
     1
 10
0.0
 20
0.0
 30
0.0
  3
*D24
  1
*D25
  0
LINE
  5
77EF
330
77ED
100
AcDbEntity
  8
0
 62
     0
370
    -2
100
AcDbLine
 10
518.592893500795
 20
93.5284296111929
 30
0.0
 11
518.592893500795
 21
30.23463213317655
 31
0.0
  0
LINE
  5
77F0
330
77ED
100
AcDbEntity
  8
0
 62
     0
370
    -2
100
AcDbLine
 10
543.592893500795
 20
93.5284296111929
 30
0.0
 11
543.592893500795
 21
30.23463213317655
 31
0.0
  0
LINE
  5
77F1
330
77ED
100
AcDbEntity
  8
0
 62
     0
370
    -2
100
AcDbLine
 10
543.592893500795
 20
33.23463213317655
 30
0.0
 11
601.7811199673706
 21
33.23463213317655
 31
0.0
  0
LINE
  5
77F2
330
77ED
100
AcDbEntity
  8
0
 62
     0
370
    -2
100
AcDbLine
 10
518.592893500795
 20
33.23463213317655
 30
0.0
 11
543.592893500795
 21
33.23463213317655
 31
0.0
  0
LINE
  5
77F3
330
77ED
100
AcDbEntity
  8
0
 62
     0
370
    -2
100
AcDbLine
 10
508.592893500795
 20
33.23463213317655
 30
0.0
 11
498.592893500795
 21
33.23463213317655
 31
0.0
  0
LINE
  5
77F4
330
77ED
100
AcDbEntity
  8
0
 62
     0
370
    -2
100
AcDbLine
 10
553.592893500795
 20
33.23463213317655
 30
0.0
 11
563.592893500795
 21
33.23463213317655
 31
0.0
  0
SOLID
  5
77F5
330
77ED
100
AcDbEntity
  8
0
 62
     0
100
AcDbTrace
 10
508.592893500795
 20
31.56796546650988
 30
0.0
 11
508.592893500795
 21
34.90129879984321
 31
0.0
 12
518.592893500795
 22
33.23463213317655
 32
0.0
 13
518.592893500795
 23
33.23463213317655
 33
0.0
  0
SOLID
  5
77F6
330
77ED
100
AcDbEntity
  8
0
 62
     0
100
AcDbTrace
 10
553.592893500795
 20
34.90129879984321
 30
0.0
 11
553.592893500795
 21
31.56796546650988
 31
0.0
 12
543.592893500795
 22
33.23463213317655
 32
0.0
 13
543.592893500795
 23
33.23463213317655
 33
0.0
  0
MTEXT
  5
77F7
330
77ED
100
AcDbEntity
  8
0
 62
     0
370
     0
100
AcDbMText
 10
582.6911199673706
 20
43.69063213317655
 30
0.0
 40
12.0
 41
0.0
 46
0.0
 71
     5
 72
     1
  1
\A1;%%c24
  7
ARIAL
 73
     1
 44
1.0
  0
POINT
  5
77F8
330
77ED
100
AcDbEntity
  8
Defpoints
 62
     0
100
AcDbPoint
 10
518.592893500795
 20
96.5284296111929
 30
0.0
  0
POINT
  5
77F9
330
77ED
100
AcDbEntity
  8
Defpoints
 62
     0
100
AcDbPoint
 10
543.592893500795
 20
96.5284296111929
 30
0.0
  0
POINT
  5
79D3
330
77ED
100
AcDbEntity
  8
Defpoints
 62
     0
100
AcDbPoint
 10
543.592893500795
 20
33.23463213317655
 30
0.0
  0
ENDBLK
  5
77FA
330
77ED
100
AcDbEntity
  8
0
 62
     4
100
AcDbBlockEnd
  0
BLOCK
  5
77FD
330
77FC
100
AcDbEntity
  8
0
 62
     4
100
AcDbBlockBegin
  2
*D25
 70
     1
 10
0.0
 20
0.0
 30
0.0
  3
*D25
  1
*D26
  0
LINE
  5
77FE
330
77FC
100
AcDbEntity
  8
0
 62
     0
370
    -2
100
AcDbLine
 10
188.0843751199145
 20
194.3284176631853
 30
0.0
 11
188.0843751199145
 21
248.4595857843528
 31
0.0
  0
LINE
  5
77FF
330
77FC
100
AcDbEntity
  8
0
 62
     0
370
    -2
100
AcDbLine
 10
219.8857458752825
 20
191.028420574198
 30
0.0
 11
219.8857458752825
 21
248.4595857843528
 31
0.0
  0
LINE
  5
7800
330
77FC
100
AcDbEntity
  8
0
 62
     0
370
    -2
100
AcDbLine
 10
198.0843751199145
 20
245.4595857843528
 30
0.0
 11
209.8857458752825
 21
245.4595857843528
 31
0.0
  0
SOLID
  5
7801
330
77FC
100
AcDbEntity
  8
0
 62
     0
100
AcDbTrace
 10
198.0843751199145
 20
247.1262524510195
 30
0.0
 11
198.0843751199145
 21
243.7929191176862
 31
0.0
 12
188.0843751199145
 22
245.4595857843528
 32
0.0
 13
188.0843751199145
 23
245.4595857843528
 33
0.0
  0
SOLID
  5
7802
330
77FC
100
AcDbEntity
  8
0
 62
     0
100
AcDbTrace
 10
209.8857458752825
 20
243.7929191176862
 30
0.0
 11
209.8857458752825
 21
247.1262524510195
 31
0.0
 12
219.8857458752825
 22
245.4595857843528
 32
0.0
 13
219.8857458752825
 23
245.4595857843528
 33
0.0
  0
MTEXT
  5
7803
330
77FC
100
AcDbEntity
  8
0
 62
     0
370
     0
100
AcDbMText
 10
203.9850604975985
 20
255.5855857843528
 30
0.0
 40
12.0
 41
0.0
 46
0.0
 71
     5
 72
     1
  1
\A1;32
  7
ARIAL
 73
     1
 44
1.0
  0
POINT
  5
7804
330
77FC
100
AcDbEntity
  8
Defpoints
 62
     0
100
AcDbPoint
 10
188.0843751199145
 20
191.3284176631853
 30
0.0
  0
POINT
  5
7805
330
77FC
100
AcDbEntity
  8
Defpoints
 62
     0
100
AcDbPoint
 10
219.8857458752825
 20
188.028420574198
 30
0.0
  0
POINT
  5
7806
330
77FC
100
AcDbEntity
  8
Defpoints
 62
     0
100
AcDbPoint
 10
219.8857458752825
 20
245.4595857843528
 30
0.0
  0
ENDBLK
  5
7807
330
77FC
100
AcDbEntity
  8
0
 62
     4
100
AcDbBlockEnd
  0
BLOCK
  5
780D
330
780C
100
AcDbEntity
  8
0
 62
     4
100
AcDbBlockBegin
  2
*D26
 70
     1
 10
0.0
 20
0.0
 30
0.0
  3
*D26
  1
*D27
  0
LINE
  5
780E
330
780C
100
AcDbEntity
  8
0
 62
     0
370
    -2
100
AcDbLine
 10
12.50000168975419
 20
93.52840672300931
 30
0.0
 11
12.50000168975419
 21
28.96458890702547
 31
0.0
  0
LINE
  5
780F
330
780C
100
AcDbEntity
  8
0
 62
     0
370
    -2
100
AcDbLine
 10
219.8857497955121
 20
127.0284205741984
 30
0.0
 11
219.8857497955121
 21
28.96458890702547
 31
0.0
  0
LINE
  5
7810
330
780C
100
AcDbEntity
  8
0
 62
     0
370
    -2
100
AcDbLine
 10
22.50000168975419
 20
31.96458890702547
 30
0.0
 11
209.8857497955121
 21
31.96458890702547
 31
0.0
  0
SOLID
  5
7811
330
780C
100
AcDbEntity
  8
0
 62
     0
100
AcDbTrace
 10
22.50000168975419
 20
33.63125557369214
 30
0.0
 11
22.50000168975419
 21
30.2979222403588
 31
0.0
 12
12.50000168975419
 22
31.96458890702547
 32
0.0
 13
12.50000168975419
 23
31.96458890702547
 33
0.0
  0
SOLID
  5
7812
330
780C
100
AcDbEntity
  8
0
 62
     0
100
AcDbTrace
 10
209.8857497955121
 20
30.2979222403588
 30
0.0
 11
209.8857497955121
 21
33.63125557369214
 31
0.0
 12
219.8857497955121
 22
31.96458890702547
 32
0.0
 13
219.8857497955121
 23
31.96458890702547
 33
0.0
  0
MTEXT
  5
7813
330
780C
100
AcDbEntity
  8
0
 62
     0
370
     0
100
AcDbMText
 10
116.1928757426332
 20
42.09058890702547
 30
0.0
 40
12.0
 41
0.0
 46
0.0
 71
     5
 72
     1
  1
\A1;208
  7
ARIAL
 73
     1
 44
1.0
  0
POINT
  5
7814
330
780C
100
AcDbEntity
  8
Defpoints
 62
     0
100
AcDbPoint
 10
12.50000168975419
 20
96.52840672300931
 30
0.0
  0
POINT
  5
7815
330
780C
100
AcDbEntity
  8
Defpoints
 62
     0
100
AcDbPoint
 10
219.8857497955121
 20
130.0284205741984
 30
0.0
  0
POINT
  5
7816
330
780C
100
AcDbEntity
  8
Defpoints
 62
     0
100
AcDbPoint
 10
219.8857497955121
 20
31.96458890702547
 30
0.0
  0
ENDBLK
  5
7817
330
780C
100
AcDbEntity
  8
0
 62
     4
100
AcDbBlockEnd
  0
BLOCK
  5
781A
330
7819
100
AcDbEntity
  8
0
 62
     4
100
AcDbBlockBegin
  2
*D27
 70
     1
 10
0.0
 20
0.0
 30
0.0
  3
*D27
  1
*D28
  0
LINE
  5
781B
330
7819
100
AcDbEntity
  8
0
 62
     0
370
    -2
100
AcDbLine
 10
491.7928906735364
 20
159.0284435896917
 30
0.0
 11
494.564338273604
 21
159.0284435896917
 31
0.0
  0
LINE
  5
781C
330
7819
100
AcDbEntity
  8
0
 62
     0
370
    -2
100
AcDbLine
 10
515.592893500795
 20
96.5284296111929
 30
0.0
 11
488.564338273604
 21
96.5284296111929
 31
0.0
  0
LINE
  5
781D
330
7819
100
AcDbEntity
  8
0
 62
     0
370
    -2
100
AcDbLine
 10
491.564338273604
 20
96.5284296111929
 30
0.0
 11
491.564338273604
 21
37.21740096180713
 31
0.0
  0
LINE
  5
781E
330
7819
100
AcDbEntity
  8
0
 62
     0
370
    -2
100
AcDbLine
 10
491.564338273604
 20
159.0284435896917
 30
0.0
 11
491.564338273604
 21
96.5284296111929
 31
0.0
  0
LINE
  5
781F
330
7819
100
AcDbEntity
  8
0
 62
     0
370
    -2
100
AcDbLine
 10
491.564338273604
 20
169.0284435896917
 30
0.0
 11
491.564338273604
 21
179.0284435896917
 31
0.0
  0
LINE
  5
7820
330
7819
100
AcDbEntity
  8
0
 62
     0
370
    -2
100
AcDbLine
 10
491.564338273604
 20
86.5284296111929
 30
0.0
 11
491.564338273604
 21
76.5284296111929
 31
0.0
  0
SOLID
  5
7821
330
7819
100
AcDbEntity
  8
0
 62
     0
100
AcDbTrace
 10
489.8976716069373
 20
169.0284435896917
 30
0.0
 11
493.2310049402707
 21
169.0284435896917
 31
0.0
 12
491.564338273604
 22
159.0284435896917
 32
0.0
 13
491.564338273604
 23
159.0284435896917
 33
0.0
  0
SOLID
  5
7822
330
7819
100
AcDbEntity
  8
0
 62
     0
100
AcDbTrace
 10
493.2310049402707
 20
86.5284296111929
 30
0.0
 11
489.8976716069373
 21
86.5284296111929
 31
0.0
 12
491.564338273604
 22
96.5284296111929
 32
0.0
 13
491.564338273604
 23
96.5284296111929
 33
0.0
  0
MTEXT
  5
7823
330
7819
100
AcDbEntity
  8
0
 62
     0
370
     0
100
AcDbMText
 10
481.438338273604
 20
56.86540096180715
 30
0.0
 40
12.0
 41
0.0
 46
0.0
 71
     5
 72
     1
  1
\A1;62.5
  7
ARIAL
 11
0.0
 21
1.0
 31
0.0
 73
     1
 44
1.0
  0
POINT
  5
7824
330
7819
100
AcDbEntity
  8
Defpoints
 62
     0
100
AcDbPoint
 10
488.7928906735364
 20
159.0284435896917
 30
0.0
  0
POINT
  5
7825
330
7819
100
AcDbEntity
  8
Defpoints
 62
     0
100
AcDbPoint
 10
518.592893500795
 20
96.5284296111929
 30
0.0
  0
POINT
  5
79D4
330
7819
100
AcDbEntity
  8
Defpoints
 62
     0
100
AcDbPoint
 10
491.564338273604
 20
96.5284296111929
 30
0.0
  0
ENDBLK
  5
7826
330
7819
100
AcDbEntity
  8
0
 62
     4
100
AcDbBlockEnd
  0
BLOCK
  5
782A
330
7829
100
AcDbEntity
  8
0
 62
     4
100
AcDbBlockBegin
  2
*D28
 70
     1
 10
0.0
 20
0.0
 30
0.0
  3
*D28
  1
*D29
  0
LINE
  5
782B
330
7829
100
AcDbEntity
  8
0
 62
     0
370
    -2
100
AcDbLine
 10
531.0928906705561
 20
204.3284435867115
 30
0.0
 11
531.0928906705561
 21
254.3114367371011
 31
0.0
  0
LINE
  5
782C
330
7829
100
AcDbEntity
  8
0
 62
     0
370
    -2
100
AcDbLine
 10
631.0928906705561
 20
204.3284435867115
 30
0.0
 11
631.0928906705561
 21
254.3114367371011
 31
0.0
  0
LINE
  5
782D
330
7829
100
AcDbEntity
  8
0
 62
     0
370
    -2
100
AcDbLine
 10
541.0928906705561
 20
251.3114367371011
 30
0.0
 11
621.0928906705561
 21
251.3114367371011
 31
0.0
  0
SOLID
  5
782E
330
7829
100
AcDbEntity
  8
0
 62
     0
100
AcDbTrace
 10
541.0928906705561
 20
252.9781034037677
 30
0.0
 11
541.0928906705561
 21
249.6447700704344
 31
0.0
 12
531.0928906705561
 22
251.3114367371011
 32
0.0
 13
531.0928906705561
 23
251.3114367371011
 33
0.0
  0
SOLID
  5
782F
330
7829
100
AcDbEntity
  8
0
 62
     0
100
AcDbTrace
 10
621.0928906705561
 20
249.6447700704344
 30
0.0
 11
621.0928906705561
 21
252.9781034037677
 31
0.0
 12
631.0928906705561
 22
251.3114367371011
 32
0.0
 13
631.0928906705561
 23
251.3114367371011
 33
0.0
  0
MTEXT
  5
7830
330
7829
100
AcDbEntity
  8
0
 62
     0
370
     0
100
AcDbMText
 10
581.0928906705561
 20
261.4374367371011
 30
0.0
 40
12.0
 41
0.0
 46
0.0
 71
     5
 72
     1
  1
\A1;100
  7
ARIAL
 73
     1
 44
1.0
  0
POINT
  5
7831
330
7829
100
AcDbEntity
  8
Defpoints
 62
     0
100
AcDbPoint
 10
531.0928906705561
 20
201.3284435867115
 30
0.0
  0
POINT
  5
7832
330
7829
100
AcDbEntity
  8
Defpoints
 62
     0
100
AcDbPoint
 10
631.0928906705561
 20
201.3284435867115
 30
0.0
  0
POINT
  5
7833
330
7829
100
AcDbEntity
  8
Defpoints
 62
     0
100
AcDbPoint
 10
631.0928906705561
 20
251.3114367371011
 30
0.0
  0
ENDBLK
  5
7834
330
7829
100
AcDbEntity
  8
0
 62
     4
100
AcDbBlockEnd
  0
BLOCK
  5
783E
330
783D
100
AcDbEntity
  8
0
 62
     4
100
AcDbBlockBegin
  2
*D29
 70
     1
 10
0.0
 20
0.0
 30
0.0
  3
*D29
  1
*D30
  0
LINE
  5
783F
330
783D
100
AcDbEntity
  8
0
 62
     0
370
    -2
100
AcDbLine
 10
431.0928906705561
 20
204.3284435867115
 30
0.0
 11
431.0928906705561
 21
253.8330620340007
 31
0.0
  0
LINE
  5
7840
330
783D
100
AcDbEntity
  8
0
 62
     0
370
    -2
100
AcDbLine
 10
531.0928906705561
 20
204.3284435867115
 30
0.0
 11
531.0928906705561
 21
253.8330620340007
 31
0.0
  0
LINE
  5
7841
330
783D
100
AcDbEntity
  8
0
 62
     0
370
    -2
100
AcDbLine
 10
441.0928906705561
 20
250.8330620340007
 30
0.0
 11
521.0928906705561
 21
250.8330620340007
 31
0.0
  0
SOLID
  5
7842
330
783D
100
AcDbEntity
  8
0
 62
     0
100
AcDbTrace
 10
441.0928906705561
 20
252.4997287006674
 30
0.0
 11
441.0928906705561
 21
249.166395367334
 31
0.0
 12
431.0928906705561
 22
250.8330620340007
 32
0.0
 13
431.0928906705561
 23
250.8330620340007
 33
0.0
  0
SOLID
  5
7843
330
783D
100
AcDbEntity
  8
0
 62
     0
100
AcDbTrace
 10
521.0928906705561
 20
249.166395367334
 30
0.0
 11
521.0928906705561
 21
252.4997287006674
 31
0.0
 12
531.0928906705561
 22
250.8330620340007
 32
0.0
 13
531.0928906705561
 23
250.8330620340007
 33
0.0
  0
MTEXT
  5
7844
330
783D
100
AcDbEntity
  8
0
 62
     0
370
     0
100
AcDbMText
 10
481.0928906705561
 20
260.9590620340007
 30
0.0
 40
12.0
 41
0.0
 46
0.0
 71
     5
 72
     1
  1
\A1;100
  7
ARIAL
 73
     1
 44
1.0
  0
POINT
  5
7845
330
783D
100
AcDbEntity
  8
Defpoints
 62
     0
100
AcDbPoint
 10
431.0928906705561
 20
201.3284435867115
 30
0.0
  0
POINT
  5
7846
330
783D
100
AcDbEntity
  8
Defpoints
 62
     0
100
AcDbPoint
 10
531.0928906705561
 20
201.3284435867115
 30
0.0
  0
POINT
  5
7847
330
783D
100
AcDbEntity
  8
Defpoints
 62
     0
100
AcDbPoint
 10
531.0928906705561
 20
250.8330620340007
 30
0.0
  0
ENDBLK
  5
7848
330
783D
100
AcDbEntity
  8
0
 62
     4
100
AcDbBlockEnd
  0
BLOCK
  5
784B
330
784A
100
AcDbEntity
  8
0
 62
     4
100
AcDbBlockBegin
  2
*D30
 70
     1
 10
0.0
 20
0.0
 30
0.0
  3
*D30
  1
*D31
  0
LINE
  5
784C
330
784A
100
AcDbEntity
  8
0
 62
     0
370
    -2
100
AcDbLine
 10
498.5928906653943
 20
162.0284435896917
 30
0.0
 11
498.5928906653943
 21
215.5630459479628
 31
0.0
  0
LINE
  5
784D
330
784A
100
AcDbEntity
  8
0
 62
     0
370
    -2
100
AcDbLine
 10
563.5928906653943
 20
162.0284435896917
 30
0.0
 11
563.5928906653943
 21
215.5630459479628
 31
0.0
  0
LINE
  5
784E
330
784A
100
AcDbEntity
  8
0
 62
     0
370
    -2
100
AcDbLine
 10
498.5928906653943
 20
212.5630459479628
 30
0.0
 11
440.2690871183275
 21
212.5630459479628
 31
0.0
  0
LINE
  5
784F
330
784A
100
AcDbEntity
  8
0
 62
     0
370
    -2
100
AcDbLine
 10
498.5928906653943
 20
212.5630459479628
 30
0.0
 11
563.5928906653943
 21
212.5630459479628
 31
0.0
  0
LINE
  5
7850
330
784A
100
AcDbEntity
  8
0
 62
     0
370
    -2
100
AcDbLine
 10
488.5928906653943
 20
212.5630459479628
 30
0.0
 11
478.5928906653943
 21
212.5630459479628
 31
0.0
  0
LINE
  5
7851
330
784A
100
AcDbEntity
  8
0
 62
     0
370
    -2
100
AcDbLine
 10
573.5928906653943
 20
212.5630459479628
 30
0.0
 11
583.5928906653943
 21
212.5630459479628
 31
0.0
  0
SOLID
  5
7852
330
784A
100
AcDbEntity
  8
0
 62
     0
100
AcDbTrace
 10
488.5928906653943
 20
210.8963792812961
 30
0.0
 11
488.5928906653943
 21
214.2297126146294
 31
0.0
 12
498.5928906653943
 22
212.5630459479628
 32
0.0
 13
498.5928906653943
 23
212.5630459479628
 33
0.0
  0
SOLID
  5
7853
330
784A
100
AcDbEntity
  8
0
 62
     0
100
AcDbTrace
 10
573.5928906653943
 20
214.2297126146294
 30
0.0
 11
573.5928906653943
 21
210.8963792812961
 31
0.0
 12
563.5928906653943
 22
212.5630459479628
 32
0.0
 13
563.5928906653943
 23
212.5630459479628
 33
0.0
  0
MTEXT
  5
7854
330
784A
100
AcDbEntity
  8
0
 62
     0
370
     0
100
AcDbMText
 10
459.4250871183275
 20
223.0190459479628
 30
0.0
 40
12.0
 41
0.0
 46
0.0
 71
     5
 72
     1
  1
\A1;%%c65
  7
ARIAL
 73
     1
 44
1.0
  0
POINT
  5
7855
330
784A
100
AcDbEntity
  8
Defpoints
 62
     0
100
AcDbPoint
 10
498.5928906653943
 20
159.0284435896917
 30
0.0
  0
POINT
  5
7856
330
784A
100
AcDbEntity
  8
Defpoints
 62
     0
100
AcDbPoint
 10
563.5928906653943
 20
159.0284435896917
 30
0.0
  0
POINT
  5
79D5
330
784A
100
AcDbEntity
  8
Defpoints
 62
     0
100
AcDbPoint
 10
563.5928906653943
 20
212.5630459479628
 30
0.0
  0
ENDBLK
  5
7857
330
784A
100
AcDbEntity
  8
0
 62
     4
100
AcDbBlockEnd
  0
BLOCK
  5
7954
330
7953
100
AcDbEntity
  8
0
 62
     4
100
AcDbBlockBegin
  2
*D31
 70
     1
 10
0.0
 20
0.0
 30
0.0
  3
*D31
  1
*D32
  0
LINE
  5
7955
330
7953
100
AcDbEntity
  8
0
 62
     0
370
    -2
100
AcDbLine
 10
373.5927589330259
 20
146.8313930225479
 30
0.0
 11
373.5927589330259
 21
284.8984295261266
 31
0.0
  0
LINE
  5
7956
330
7953
100
AcDbEntity
  8
0
 62
     0
370
    -2
100
AcDbLine
 10
688.592758933026
 20
146.8313930225479
 30
0.0
 11
688.592758933026
 21
284.8984295261266
 31
0.0
  0
LINE
  5
7957
330
7953
100
AcDbEntity
  8
0
 62
     0
370
    -2
100
AcDbLine
 10
383.5927589330259
 20
281.8984295261266
 30
0.0
 11
678.592758933026
 21
281.8984295261266
 31
0.0
  0
SOLID
  5
7958
330
7953
100
AcDbEntity
  8
0
 62
     0
100
AcDbTrace
 10
383.5927589330259
 20
283.5650961927933
 30
0.0
 11
383.5927589330259
 21
280.2317628594599
 31
0.0
 12
373.5927589330259
 22
281.8984295261266
 32
0.0
 13
373.5927589330259
 23
281.8984295261266
 33
0.0
  0
SOLID
  5
7959
330
7953
100
AcDbEntity
  8
0
 62
     0
100
AcDbTrace
 10
678.592758933026
 20
280.2317628594599
 30
0.0
 11
678.592758933026
 21
283.5650961927933
 31
0.0
 12
688.592758933026
 22
281.8984295261266
 32
0.0
 13
688.592758933026
 23
281.8984295261266
 33
0.0
  0
MTEXT
  5
795A
330
7953
100
AcDbEntity
  8
0
 62
     0
370
     0
100
AcDbMText
 10
531.092758933026
 20
292.0244295261266
 30
0.0
 40
12.0
 41
0.0
 46
0.0
 71
     5
 72
     1
  1
\A1;315
  7
ARIAL
 73
     1
 44
1.0
  0
POINT
  5
795B
330
7953
100
AcDbEntity
  8
Defpoints
 62
     0
100
AcDbPoint
 10
373.5927589330259
 20
143.8313930225479
 30
0.0
  0
POINT
  5
795C
330
7953
100
AcDbEntity
  8
Defpoints
 62
     0
100
AcDbPoint
 10
688.592758933026
 20
143.8313930225479
 30
0.0
  0
POINT
  5
795D
330
7953
100
AcDbEntity
  8
Defpoints
 62
     0
100
AcDbPoint
 10
688.592758933026
 20
281.8984295261266
 30
0.0
  0
ENDBLK
  5
795E
330
7953
100
AcDbEntity
  8
0
 62
     4
100
AcDbBlockEnd
  0
BLOCK
  5
7968
330
7967
100
AcDbEntity
  8
0
 62
     4
100
AcDbBlockBegin
  2
*D32
 70
     1
 10
0.0
 20
0.0
 30
0.0
  3
*D32
  1
*D33
  0
LINE
  5
7969
330
7967
100
AcDbEntity
  8
0
 62
     0
370
    -2
100
AcDbLine
 10
443.6992698213754
 20
115.5429535024446
 30
0.0
 11
443.6992698213754
 21
70.03896296016615
 31
0.0
  0
LINE
  5
796A
330
7967
100
AcDbEntity
  8
0
 62
     0
370
    -2
100
AcDbLine
 10
419.8650881671575
 20
116.6705438593197
 30
0.0
 11
419.8650881671575
 21
70.03896296016615
 31
0.0
  0
LINE
  5
796B
330
7967
100
AcDbEntity
  8
0
 62
     0
370
    -2
100
AcDbLine
 10
419.8650881671575
 20
73.03896296016615
 30
0.0
 11
349.1744404681098
 21
73.03896296016615
 31
0.0
  0
LINE
  5
796C
330
7967
100
AcDbEntity
  8
0
 62
     0
370
    -2
100
AcDbLine
 10
443.6992698213754
 20
73.03896296016615
 30
0.0
 11
419.8650881671575
 21
73.03896296016615
 31
0.0
  0
LINE
  5
796D
330
7967
100
AcDbEntity
  8
0
 62
     0
370
    -2
100
AcDbLine
 10
453.6992698213754
 20
73.03896296016615
 30
0.0
 11
463.6992698213754
 21
73.03896296016615
 31
0.0
  0
LINE
  5
796E
330
7967
100
AcDbEntity
  8
0
 62
     0
370
    -2
100
AcDbLine
 10
409.8650881671575
 20
73.03896296016615
 30
0.0
 11
399.8650881671575
 21
73.03896296016615
 31
0.0
  0
SOLID
  5
796F
330
7967
100
AcDbEntity
  8
0
 62
     0
100
AcDbTrace
 10
453.6992698213754
 20
74.70562962683282
 30
0.0
 11
453.6992698213754
 21
71.37229629349947
 31
0.0
 12
443.6992698213754
 22
73.03896296016615
 32
0.0
 13
443.6992698213754
 23
73.03896296016615
 33
0.0
  0
SOLID
  5
7970
330
7967
100
AcDbEntity
  8
0
 62
     0
100
AcDbTrace
 10
409.8650881671575
 20
71.37229629349947
 30
0.0
 11
409.8650881671575
 21
74.70562962683282
 31
0.0
 12
419.8650881671575
 22
73.03896296016615
 32
0.0
 13
419.8650881671575
 23
73.03896296016615
 33
0.0
  0
MTEXT
  5
7971
330
7967
100
AcDbEntity
  8
0
 62
     0
370
     0
100
AcDbMText
 10
372.7704404681098
 20
83.24296296016615
 30
0.0
 40
12.0
 41
0.0
 46
0.0
 71
     5
 72
     1
  1
\A1;G 1/2
  7
ARIAL
 73
     1
 44
1.0
  0
POINT
  5
7972
330
7967
100
AcDbEntity
  8
Defpoints
 62
     0
100
AcDbPoint
 10
443.6992698213754
 20
118.5429535024446
 30
0.0
  0
POINT
  5
7973
330
7967
100
AcDbEntity
  8
Defpoints
 62
     0
100
AcDbPoint
 10
419.8650881671575
 20
119.6705438593197
 30
0.0
  0
POINT
  5
79D6
330
7967
100
AcDbEntity
  8
Defpoints
 62
     0
100
AcDbPoint
 10
419.8650881671575
 20
73.03896296016615
 30
0.0
  0
ENDBLK
  5
7974
330
7967
100
AcDbEntity
  8
0
 62
     4
100
AcDbBlockEnd
  0
BLOCK
  5
7977
330
7976
100
AcDbEntity
  8
0
 62
     4
100
AcDbBlockBegin
  2
*D33
 70
     1
 10
0.0
 20
0.0
 30
0.0
  3
*D33
  1
*D34
  0
LINE
  5
7978
330
7976
100
AcDbEntity
  8
0
 62
     0
370
    -2
100
AcDbLine
 10
382.5927589330259
 20
209.0284082355888
 30
0.0
 11
349.7294815112183
 21
209.0284082355888
 31
0.0
  0
LINE
  5
7979
330
7976
100
AcDbEntity
  8
0
 62
     0
370
    -2
100
AcDbLine
 10
382.5927589330259
 20
109.0284082355888
 30
0.0
 11
349.7294815112183
 21
109.0284082355888
 31
0.0
  0
LINE
  5
797A
330
7976
100
AcDbEntity
  8
0
 62
     0
370
    -2
100
AcDbLine
 10
352.7294815112183
 20
199.0284082355888
 30
0.0
 11
352.7294815112183
 21
119.0284082355888
 31
0.0
  0
SOLID
  5
797B
330
7976
100
AcDbEntity
  8
0
 62
     0
100
AcDbTrace
 10
354.396148177885
 20
199.0284082355888
 30
0.0
 11
351.0628148445516
 21
199.0284082355888
 31
0.0
 12
352.7294815112183
 22
209.0284082355888
 32
0.0
 13
352.7294815112183
 23
209.0284082355888
 33
0.0
  0
SOLID
  5
797C
330
7976
100
AcDbEntity
  8
0
 62
     0
100
AcDbTrace
 10
351.0628148445516
 20
119.0284082355888
 30
0.0
 11
354.396148177885
 21
119.0284082355888
 31
0.0
 12
352.7294815112183
 22
109.0284082355888
 32
0.0
 13
352.7294815112183
 23
109.0284082355888
 33
0.0
  0
MTEXT
  5
797D
330
7976
100
AcDbEntity
  8
0
 62
     0
370
     0
100
AcDbMText
 10
342.6034815112183
 20
159.0284082355888
 30
0.0
 40
12.0
 41
0.0
 46
0.0
 71
     5
 72
     1
  1
\A1;100
  7
ARIAL
 11
0.0
 21
1.0
 31
0.0
 73
     1
 44
1.0
  0
POINT
  5
797E
330
7976
100
AcDbEntity
  8
Defpoints
 62
     0
100
AcDbPoint
 10
385.5927589330259
 20
209.0284082355888
 30
0.0
  0
POINT
  5
797F
330
7976
100
AcDbEntity
  8
Defpoints
 62
     0
100
AcDbPoint
 10
385.5927589330259
 20
109.0284082355888
 30
0.0
  0
POINT
  5
7980
330
7976
100
AcDbEntity
  8
Defpoints
 62
     0
100
AcDbPoint
 10
352.7294815112183
 20
109.0284082355888
 30
0.0
  0
ENDBLK
  5
7981
330
7976
100
AcDbEntity
  8
0
 62
     4
100
AcDbBlockEnd
  0
BLOCK
  5
7984
330
7983
100
AcDbEntity
  8
0
 62
     4
100
AcDbBlockBegin
  2
*D34
 70
     1
 10
0.0
 20
0.0
 30
0.0
  3
*D34
  1
*D35
  0
LINE
  5
7985
330
7983
100
AcDbEntity
  8
0
 62
     0
370
    -2
100
AcDbLine
 10
643.5926005995565
 20
113.6545348587642
 30
0.0
 11
643.5926005995565
 21
72.50063064891901
 31
0.0
  0
LINE
  5
7986
330
7983
100
AcDbEntity
  8
0
 62
     0
370
    -2
100
AcDbLine
 10
618.9094396643092
 20
113.3176551797524
 30
0.0
 11
618.9094396643092
 21
72.50063064891901
 31
0.0
  0
LINE
  5
7987
330
7983
100
AcDbEntity
  8
0
 62
     0
370
    -2
100
AcDbLine
 10
643.5926005995565
 20
75.50063064891901
 30
0.0
 11
713.4707045970548
 21
75.50063064891901
 31
0.0
  0
LINE
  5
7988
330
7983
100
AcDbEntity
  8
0
 62
     0
370
    -2
100
AcDbLine
 10
643.5926005995565
 20
75.50063064891901
 30
0.0
 11
618.9094396643092
 21
75.50063064891901
 31
0.0
  0
LINE
  5
7989
330
7983
100
AcDbEntity
  8
0
 62
     0
370
    -2
100
AcDbLine
 10
653.5926005995565
 20
75.50063064891901
 30
0.0
 11
663.5926005995565
 21
75.50063064891901
 31
0.0
  0
LINE
  5
798A
330
7983
100
AcDbEntity
  8
0
 62
     0
370
    -2
100
AcDbLine
 10
608.9094396643092
 20
75.50063064891901
 30
0.0
 11
598.9094396643092
 21
75.50063064891901
 31
0.0
  0
SOLID
  5
798B
330
7983
100
AcDbEntity
  8
0
 62
     0
100
AcDbTrace
 10
653.5926005995565
 20
77.16729731558569
 30
0.0
 11
653.5926005995565
 21
73.83396398225234
 31
0.0
 12
643.5926005995565
 22
75.50063064891901
 32
0.0
 13
643.5926005995565
 23
75.50063064891901
 33
0.0
  0
SOLID
  5
798C
330
7983
100
AcDbEntity
  8
0
 62
     0
100
AcDbTrace
 10
608.9094396643092
 20
73.83396398225234
 30
0.0
 11
608.9094396643092
 21
77.16729731558569
 31
0.0
 12
618.9094396643092
 22
75.50063064891901
 32
0.0
 13
618.9094396643092
 23
75.50063064891901
 33
0.0
  0
MTEXT
  5
798D
330
7983
100
AcDbEntity
  8
0
 62
     0
370
     0
100
AcDbMText
 10
689.8747045970548
 20
85.70463064891902
 30
0.0
 40
12.0
 41
0.0
 46
0.0
 71
     5
 72
     1
  1
\A1;G 1/2
  7
ARIAL
 73
     1
 44
1.0
  0
POINT
  5
798E
330
7983
100
AcDbEntity
  8
Defpoints
 62
     0
100
AcDbPoint
 10
643.5926005995565
 20
116.6545348587642
 30
0.0
  0
POINT
  5
798F
330
7983
100
AcDbEntity
  8
Defpoints
 62
     0
100
AcDbPoint
 10
618.9094396643092
 20
116.3176551797524
 30
0.0
  0
POINT
  5
79D7
330
7983
100
AcDbEntity
  8
Defpoints
 62
     0
100
AcDbPoint
 10
618.9094396643092
 20
75.50063064891901
 30
0.0
  0
ENDBLK
  5
7990
330
7983
100
AcDbEntity
  8
0
 62
     4
100
AcDbBlockEnd
  0
BLOCK
  5
79A6
330
79A5
100
AcDbEntity
  8
0
 62
     4
100
AcDbBlockBegin
  2
*D35
 70
     1
 10
0.0
 20
0.0
 30
0.0
  3
*D35
  1
*D36
  0
LINE
  5
79A7
330
79A5
100
AcDbEntity
  8
0
 62
     0
370
    -2
100
AcDbLine
 10
262.3857516929274
 20
192.0284153784341
 30
0.0
 11
262.3857516929274
 21
246.3624456468906
 31
0.0
  0
LINE
  5
79A8
330
79A5
100
AcDbEntity
  8
0
 62
     0
370
    -2
100
AcDbLine
 10
289.3900642963631
 20
212.0284153784341
 30
0.0
 11
289.3900642963631
 21
246.3624456468906
 31
0.0
  0
LINE
  5
79A9
330
79A5
100
AcDbEntity
  8
0
 62
     0
370
    -2
100
AcDbLine
 10
299.3900642963631
 20
243.3624456468906
 30
0.0
 11
334.7540642963631
 21
243.3624456468906
 31
0.0
  0
LINE
  5
79AA
330
79A5
100
AcDbEntity
  8
0
 62
     0
370
    -2
100
AcDbLine
 10
262.3857516929274
 20
243.3624456468906
 30
0.0
 11
289.3900642963631
 21
243.3624456468906
 31
0.0
  0
LINE
  5
79AB
330
79A5
100
AcDbEntity
  8
0
 62
     0
370
    -2
100
AcDbLine
 10
252.3857516929274
 20
243.3624456468906
 30
0.0
 11
242.3857516929274
 21
243.3624456468906
 31
0.0
  0
SOLID
  5
79AC
330
79A5
100
AcDbEntity
  8
0
 62
     0
100
AcDbTrace
 10
252.3857516929274
 20
241.6957789802239
 30
0.0
 11
252.3857516929274
 21
245.0291123135572
 31
0.0
 12
262.3857516929274
 22
243.3624456468906
 32
0.0
 13
262.3857516929274
 23
243.3624456468906
 33
0.0
  0
SOLID
  5
79AD
330
79A5
100
AcDbEntity
  8
0
 62
     0
100
AcDbTrace
 10
299.3900642963631
 20
245.0291123135572
 30
0.0
 11
299.3900642963631
 21
241.6957789802239
 31
0.0
 12
289.3900642963631
 22
243.3624456468906
 32
0.0
 13
289.3900642963631
 23
243.3624456468906
 33
0.0
  0
MTEXT
  5
79AE
330
79A5
100
AcDbEntity
  8
0
 62
     0
370
     0
100
AcDbMText
 10
322.0720642963631
 20
253.3864456468906
 30
0.0
 40
12.0
 41
0.0
 46
0.0
 71
     5
 72
     1
  1
\A1;27
  7
ARIAL
 73
     1
 44
1.0
  0
POINT
  5
79AF
330
79A5
100
AcDbEntity
  8
Defpoints
 62
     0
100
AcDbPoint
 10
262.3857516929274
 20
189.0284153784341
 30
0.0
  0
POINT
  5
79B0
330
79A5
100
AcDbEntity
  8
Defpoints
 62
     0
100
AcDbPoint
 10
289.3900642963631
 20
209.0284153784341
 30
0.0
  0
POINT
  5
79B1
330
79A5
100
AcDbEntity
  8
Defpoints
 62
     0
100
AcDbPoint
 10
289.3900642963631
 20
243.3624456468906
 30
0.0
  0
ENDBLK
  5
79B2
330
79A5
100
AcDbEntity
  8
0
 62
     4
100
AcDbBlockEnd
  0
BLOCK
  5
79B5
330
79B4
100
AcDbEntity
  8
0
 62
     4
100
AcDbBlockBegin
  2
*D36
 70
     1
 10
0.0
 20
0.0
 30
0.0
  3
*D36
  1
*D37
  0
LINE
  5
79B6
330
79B4
100
AcDbEntity
  8
0
 62
     0
370
    -2
100
AcDbLine
 10
262.3857478353974
 20
159.0284153784341
 30
0.0
 11
262.3857478353974
 21
66.40569167366766
 31
0.0
  0
LINE
  5
79B7
330
79B4
100
AcDbEntity
  8
0
 62
     0
370
    -2
100
AcDbLine
 10
219.8857497955121
 20
127.0284205741984
 30
0.0
 11
219.8857497955121
 21
66.40569167366766
 31
0.0
  0
LINE
  5
79B8
330
79B4
100
AcDbEntity
  8
0
 62
     0
370
    -2
100
AcDbLine
 10
209.8857497955121
 20
69.40569167366766
 30
0.0
 11
150.1617497955121
 21
69.40569167366766
 31
0.0
  0
LINE
  5
79B9
330
79B4
100
AcDbEntity
  8
0
 62
     0
370
    -2
100
AcDbLine
 10
262.3857478353974
 20
69.40569167366766
 30
0.0
 11
219.8857497955121
 21
69.40569167366766
 31
0.0
  0
LINE
  5
79BA
330
79B4
100
AcDbEntity
  8
0
 62
     0
370
    -2
100
AcDbLine
 10
272.3857478353974
 20
69.40569167366766
 30
0.0
 11
282.3857478353974
 21
69.40569167366766
 31
0.0
  0
SOLID
  5
79BB
330
79B4
100
AcDbEntity
  8
0
 62
     0
100
AcDbTrace
 10
272.3857478353974
 20
71.07235834033433
 30
0.0
 11
272.3857478353974
 21
67.73902500700099
 31
0.0
 12
262.3857478353974
 22
69.40569167366766
 32
0.0
 13
262.3857478353974
 23
69.40569167366766
 33
0.0
  0
SOLID
  5
79BC
330
79B4
100
AcDbEntity
  8
0
 62
     0
100
AcDbTrace
 10
209.8857497955121
 20
67.73902500700099
 30
0.0
 11
209.8857497955121
 21
71.07235834033433
 31
0.0
 12
219.8857497955121
 22
69.40569167366766
 32
0.0
 13
219.8857497955121
 23
69.40569167366766
 33
0.0
  0
MTEXT
  5
79BD
330
79B4
100
AcDbEntity
  8
0
 62
     0
370
     0
100
AcDbMText
 10
175.0237497955121
 20
79.53169167366767
 30
0.0
 40
12.0
 41
0.0
 46
0.0
 71
     5
 72
     1
  1
\A1;42-62
  7
ARIAL
 73
     1
 44
1.0
  0
POINT
  5
79BE
330
79B4
100
AcDbEntity
  8
Defpoints
 62
     0
100
AcDbPoint
 10
262.3857478353974
 20
162.0284153784341
 30
0.0
  0
POINT
  5
79BF
330
79B4
100
AcDbEntity
  8
Defpoints
 62
     0
100
AcDbPoint
 10
219.8857497955121
 20
130.0284205741984
 30
0.0
  0
POINT
  5
79C0
330
79B4
100
AcDbEntity
  8
Defpoints
 62
     0
100
AcDbPoint
 10
219.8857497955121
 20
69.40569167366766
 30
0.0
  0
ENDBLK
  5
79C1
330
79B4
100
AcDbEntity
  8
0
 62
     4
100
AcDbBlockEnd
  0
BLOCK
  5
79C4
330
79C3
100
AcDbEntity
  8
0
 62
     4
100
AcDbBlockBegin
  2
*D37
 70
     1
 10
0.0
 20
0.0
 30
0.0
  3
*D37
  1
*D38
  0
LINE
  5
79C5
330
79C3
100
AcDbEntity
  8
0
 62
     0
370
    -2
100
AcDbLine
 10
185.2843751093767
 20
191.5284176796838
 30
0.0
 11
150.5674042078012
 21
191.5284176796838
 31
0.0
  0
LINE
  5
79C6
330
79C3
100
AcDbEntity
  8
0
 62
     0
370
    -2
100
AcDbLine
 10
185.2843795027377
 20
126.5284176796836
 30
0.0
 11
150.5674042078012
 21
126.5284176796836
 31
0.0
  0
LINE
  5
79C7
330
79C3
100
AcDbEntity
  8
0
 62
     0
370
    -2
100
AcDbLine
 10
153.5674042078012
 20
191.5284176796838
 30
0.0
 11
153.5674042078012
 21
249.8522212267508
 31
0.0
  0
LINE
  5
79C8
330
79C3
100
AcDbEntity
  8
0
 62
     0
370
    -2
100
AcDbLine
 10
153.5674042078012
 20
191.5284176796838
 30
0.0
 11
153.5674042078012
 21
126.5284176796836
 31
0.0
  0
LINE
  5
79C9
330
79C3
100
AcDbEntity
  8
0
 62
     0
370
    -2
100
AcDbLine
 10
153.5674042078012
 20
201.5284176796838
 30
0.0
 11
153.5674042078012
 21
211.5284176796838
 31
0.0
  0
LINE
  5
79CA
330
79C3
100
AcDbEntity
  8
0
 62
     0
370
    -2
100
AcDbLine
 10
153.5674042078012
 20
116.5284176796836
 30
0.0
 11
153.5674042078012
 21
106.5284176796836
 31
0.0
  0
SOLID
  5
79CB
330
79C3
100
AcDbEntity
  8
0
 62
     0
100
AcDbTrace
 10
151.9007375411346
 20
201.5284176796838
 30
0.0
 11
155.2340708744679
 21
201.5284176796838
 31
0.0
 12
153.5674042078012
 22
191.5284176796838
 32
0.0
 13
153.5674042078012
 23
191.5284176796838
 33
0.0
  0
SOLID
  5
79CC
330
79C3
100
AcDbEntity
  8
0
 62
     0
100
AcDbTrace
 10
155.2340708744679
 20
116.5284176796836
 30
0.0
 11
151.9007375411346
 21
116.5284176796836
 31
0.0
 12
153.5674042078012
 22
126.5284176796836
 32
0.0
 13
153.5674042078012
 23
126.5284176796836
 33
0.0
  0
MTEXT
  5
79CD
330
79C3
100
AcDbEntity
  8
0
 62
     0
370
     0
100
AcDbMText
 10
143.1114042078013
 20
230.6962212267508
 30
0.0
 40
12.0
 41
0.0
 46
0.0
 71
     5
 72
     1
  1
\A1;Ø65
  7
ARIAL
 11
0.0
 21
1.0
 31
0.0
 73
     1
 44
1.0
  0
POINT
  5
79CE
330
79C3
100
AcDbEntity
  8
Defpoints
 62
     0
100
AcDbPoint
 10
188.2843751093767
 20
191.5284176796838
 30
0.0
  0
POINT
  5
79CF
330
79C3
100
AcDbEntity
  8
Defpoints
 62
     0
100
AcDbPoint
 10
188.2843795027377
 20
126.5284176796836
 30
0.0
  0
POINT
  5
79D8
330
79C3
100
AcDbEntity
  8
Defpoints
 62
     0
100
AcDbPoint
 10
153.5674042078012
 20
126.5284176796836
 30
0.0
  0
ENDBLK
  5
79D0
330
79C3
100
AcDbEntity
  8
0
 62
     4
100
AcDbBlockEnd
  0
BLOCK
  5
7B65
330
7B64
100
AcDbEntity
  8
0
100
AcDbBlockBegin
  2
*D38
 70
     1
 10
0.0
 20
0.0
 30
0.0
  3
*D38
  1
*D39
  0
LINE
  5
7B67
330
7B64
100
AcDbEntity
  8
DIM
 62
     0
370
    -2
100
AcDbLine
 10
1491.727070475185
 20
328.8913666232024
 30
0.0
 11
1491.727070475185
 21
240.36296074507
 31
0.0
  0
LINE
  5
7B68
330
7B64
100
AcDbEntity
  8
DIM
 62
     0
370
    -2
100
AcDbLine
 10
1271.841322369427
 20
362.3913813192685
 30
0.0
 11
1271.841322369427
 21
240.36296074507
 31
0.0
  0
LINE
  5
7B69
330
7B64
100
AcDbEntity
  8
DIM
 62
     0
370
    -2
100
AcDbLine
 10
1489.727070475185
 20
240.36296074507
 30
0.0
 11
1273.841322369427
 21
240.36296074507
 31
0.0
  0
INSERT
  5
7B6A
330
7B64
100
AcDbEntity
  8
DIM
 62
     0
370
    -2
100
AcDbBlockReference
  2
_DOT
 10
1491.727070475185
 20
240.36296074507
 30
0.0
 41
2.0
 42
2.0
 43
2.0
 50
360.0
  0
INSERT
  5
7B6B
330
7B64
100
AcDbEntity
  8
DIM
 62
     0
370
    -2
100
AcDbBlockReference
  2
_DOT
 10
1271.841322369427
 20
240.36296074507
 30
0.0
 41
2.0
 42
2.0
 43
2.0
 50
180.0
  0
MTEXT
  5
7B6C
330
7B64
100
AcDbEntity
  8
DIM
 62
     0
370
     0
100
AcDbMText
 10
1381.784196422305
 20
253.86296074507
 30
0.0
 40
7.0
 41
0.0
 46
0.0
 71
     5
 72
     1
  1
\A1;220
  7
ＭＳ ゴシック
 73
     1
 44
1.0
  0
POINT
  5
7B6D
330
7B64
100
AcDbEntity
  8
Defpoints
 62
     0
100
AcDbPoint
 10
1491.727070475185
 20
333.8913666232024
 30
0.0
  0
POINT
  5
7B6E
330
7B64
100
AcDbEntity
  8
Defpoints
 62
     0
100
AcDbPoint
 10
1271.841322369427
 20
367.3913813192685
 30
0.0
  0
POINT
  5
7B6F
330
7B64
100
AcDbEntity
  8
Defpoints
 62
     0
100
AcDbPoint
 10
1271.841322369427
 20
240.36296074507
 30
0.0
  0
ENDBLK
  5
7B66
330
7B64
100
AcDbEntity
  8
0
100
AcDbBlockEnd
  0
BLOCK
  5
7B71
330
7B70
100
AcDbEntity
  8
0
100
AcDbBlockBegin
  2
*D39
 70
     1
 10
0.0
 20
0.0
 30
0.0
  3
*D39
  1
*D40
  0
LINE
  5
7B73
330
7B70
100
AcDbEntity
  8
DIM
 62
     0
370
    -2
100
AcDbLine
 10
940.6184122008856
 20
328.8913903562629
 30
0.0
 11
940.6184122008856
 21
270.5975928782466
 31
0.0
  0
LINE
  5
7B74
330
7B70
100
AcDbEntity
  8
DIM
 62
     0
370
    -2
100
AcDbLine
 10
965.6184122008856
 20
328.8913903562629
 30
0.0
 11
965.6184122008856
 21
270.5975928782466
 31
0.0
  0
LINE
  5
7B75
330
7B70
100
AcDbEntity
  8
DIM
 62
     0
370
    -2
100
AcDbLine
 10
942.6184122008856
 20
270.5975928782466
 30
0.0
 11
963.6184122008856
 21
270.5975928782466
 31
0.0
  0
INSERT
  5
7B76
330
7B70
100
AcDbEntity
  8
DIM
 62
     0
370
    -2
100
AcDbBlockReference
  2
_DOT
 10
940.6184122008856
 20
270.5975928782466
 30
0.0
 41
2.0
 42
2.0
 43
2.0
 50
180.0
  0
INSERT
  5
7B77
330
7B70
100
AcDbEntity
  8
DIM
 62
     0
370
    -2
100
AcDbBlockReference
  2
_DOT
 10
965.6184122008856
 20
270.5975928782466
 30
0.0
 41
2.0
 42
2.0
 43
2.0
  0
MTEXT
  5
7B78
330
7B70
100
AcDbEntity
  8
DIM
 62
     0
370
     0
100
AcDbMText
 10
953.7883062331168
 20
284.3600928782466
 30
0.0
 40
7.0
 41
0.0
 46
0.0
 71
     5
 72
     1
  1
\A1;%%c24
  7
ＭＳ ゴシック
 73
     1
 44
1.0
  0
POINT
  5
7B79
330
7B70
100
AcDbEntity
  8
Defpoints
 62
     0
100
AcDbPoint
 10
940.6184122008856
 20
333.8913903562629
 30
0.0
  0
POINT
  5
7B7A
330
7B70
100
AcDbEntity
  8
Defpoints
 62
     0
100
AcDbPoint
 10
965.6184122008856
 20
333.8913903562629
 30
0.0
  0
POINT
  5
7B7B
330
7B70
100
AcDbEntity
  8
Defpoints
 62
     0
100
AcDbPoint
 10
965.6184122008856
 20
270.5975928782466
 30
0.0
  0
ENDBLK
  5
7B72
330
7B70
100
AcDbEntity
  8
0
100
AcDbBlockEnd
  0
BLOCK
  5
7B80
330
7B7F
100
AcDbEntity
  8
0
100
AcDbBlockBegin
  2
*D40
 70
     1
 10
0.0
 20
0.0
 30
0.0
  3
*D40
  1
*D41
  0
LINE
  5
7B82
330
7B7F
100
AcDbEntity
  8
DIM
 62
     0
370
    -2
100
AcDbLine
 10
1303.642697045024
 20
433.6913784082553
 30
0.0
 11
1303.642697045024
 21
482.8225465294229
 31
0.0
  0
LINE
  5
7B83
330
7B7F
100
AcDbEntity
  8
DIM
 62
     0
370
    -2
100
AcDbLine
 10
1271.841326289656
 20
430.391381319268
 30
0.0
 11
1271.841326289656
 21
482.8225465294229
 31
0.0
  0
LINE
  5
7B84
330
7B7F
100
AcDbEntity
  8
DIM
 62
     0
370
    -2
100
AcDbLine
 10
1301.642697045024
 20
482.8225465294229
 30
0.0
 11
1273.841326289656
 21
482.8225465294229
 31
0.0
  0
INSERT
  5
7B85
330
7B7F
100
AcDbEntity
  8
DIM
 62
     0
370
    -2
100
AcDbBlockReference
  2
_DOT
 10
1303.642697045024
 20
482.8225465294229
 30
0.0
 41
2.0
 42
2.0
 43
2.0
  0
INSERT
  5
7B86
330
7B7F
100
AcDbEntity
  8
DIM
 62
     0
370
    -2
100
AcDbBlockReference
  2
_DOT
 10
1271.841326289656
 20
482.8225465294229
 30
0.0
 41
2.0
 42
2.0
 43
2.0
 50
180.0
  0
MTEXT
  5
7B87
330
7B7F
100
AcDbEntity
  8
DIM
 62
     0
370
     0
100
AcDbMText
 10
1287.74201166734
 20
496.3225465294229
 30
0.0
 40
7.0
 41
0.0
 46
0.0
 71
     5
 72
     1
  1
\A1;32
  7
ＭＳ ゴシック
 73
     1
 44
1.0
  0
POINT
  5
7B88
330
7B7F
100
AcDbEntity
  8
Defpoints
 62
     0
100
AcDbPoint
 10
1303.642697045024
 20
428.6913784082553
 30
0.0
  0
POINT
  5
7B89
330
7B7F
100
AcDbEntity
  8
Defpoints
 62
     0
100
AcDbPoint
 10
1271.841326289656
 20
425.391381319268
 30
0.0
  0
POINT
  5
7B8A
330
7B7F
100
AcDbEntity
  8
Defpoints
 62
     0
100
AcDbPoint
 10
1271.841326289656
 20
482.8225465294229
 30
0.0
  0
ENDBLK
  5
7B81
330
7B7F
100
AcDbEntity
  8
0
100
AcDbBlockEnd
  0
BLOCK
  5
7B8C
330
7B8B
100
AcDbEntity
  8
0
100
AcDbBlockBegin
  2
*D41
 70
     1
 10
0.0
 20
0.0
 30
0.0
  3
*D41
  1
*D42
  0
LINE
  5
7B8E
330
7B8B
100
AcDbEntity
  8
DIM
 62
     0
370
    -2
100
AcDbLine
 10
1479.227070475185
 20
328.8913674680794
 30
0.0
 11
1479.227070475185
 21
269.3275496520955
 31
0.0
  0
LINE
  5
7B8F
330
7B8B
100
AcDbEntity
  8
DIM
 62
     0
370
    -2
100
AcDbLine
 10
1271.841322369427
 20
362.3913813192685
 30
0.0
 11
1271.841322369427
 21
269.3275496520955
 31
0.0
  0
LINE
  5
7B90
330
7B8B
100
AcDbEntity
  8
DIM
 62
     0
370
    -2
100
AcDbLine
 10
1477.227070475185
 20
269.3275496520955
 30
0.0
 11
1273.841322369427
 21
269.3275496520955
 31
0.0
  0
INSERT
  5
7B91
330
7B8B
100
AcDbEntity
  8
DIM
 62
     0
370
    -2
100
AcDbBlockReference
  2
_DOT
 10
1479.227070475185
 20
269.3275496520955
 30
0.0
 41
2.0
 42
2.0
 43
2.0
  0
INSERT
  5
7B92
330
7B8B
100
AcDbEntity
  8
DIM
 62
     0
370
    -2
100
AcDbBlockReference
  2
_DOT
 10
1271.841322369427
 20
269.3275496520955
 30
0.0
 41
2.0
 42
2.0
 43
2.0
 50
180.0
  0
MTEXT
  5
7B93
330
7B8B
100
AcDbEntity
  8
DIM
 62
     0
370
     0
100
AcDbMText
 10
1375.534196422305
 20
282.8275496520955
 30
0.0
 40
7.0
 41
0.0
 46
0.0
 71
     5
 72
     1
  1
\A1;208
  7
ＭＳ ゴシック
 73
     1
 44
1.0
  0
POINT
  5
7B94
330
7B8B
100
AcDbEntity
  8
Defpoints
 62
     0
100
AcDbPoint
 10
1479.227070475185
 20
333.8913674680794
 30
0.0
  0
POINT
  5
7B95
330
7B8B
100
AcDbEntity
  8
Defpoints
 62
     0
100
AcDbPoint
 10
1271.841322369427
 20
367.3913813192685
 30
0.0
  0
POINT
  5
7B96
330
7B8B
100
AcDbEntity
  8
Defpoints
 62
     0
100
AcDbPoint
 10
1271.841322369427
 20
269.3275496520955
 30
0.0
  0
ENDBLK
  5
7B8D
330
7B8B
100
AcDbEntity
  8
0
100
AcDbBlockEnd
  0
BLOCK
  5
7B98
330
7B97
100
AcDbEntity
  8
0
100
AcDbBlockBegin
  2
*D42
 70
     1
 10
0.0
 20
0.0
 30
0.0
  3
*D42
  1
*D43
  0
LINE
  5
7B9A
330
7B97
100
AcDbEntity
  8
DIM
 62
     0
370
    -2
100
AcDbLine
 10
915.818409373627
 20
396.3914043347618
 30
0.0
 11
913.5898569736946
 21
396.3914043347618
 31
0.0
  0
LINE
  5
7B9B
330
7B97
100
AcDbEntity
  8
DIM
 62
     0
370
    -2
100
AcDbLine
 10
935.6184122008856
 20
333.8913903562629
 30
0.0
 11
913.5898569736946
 21
333.8913903562629
 31
0.0
  0
LINE
  5
7B9C
330
7B97
100
AcDbEntity
  8
DIM
 62
     0
370
    -2
100
AcDbLine
 10
913.5898569736946
 20
394.3914043347618
 30
0.0
 11
913.5898569736946
 21
335.8913903562629
 31
0.0
  0
INSERT
  5
7B9D
330
7B97
100
AcDbEntity
  8
DIM
 62
     0
370
    -2
100
AcDbBlockReference
  2
_DOT
 10
913.5898569736946
 20
396.3914043347618
 30
0.0
 41
2.0
 42
2.0
 43
2.0
 50
90.0
  0
INSERT
  5
7B9E
330
7B97
100
AcDbEntity
  8
DIM
 62
     0
370
    -2
100
AcDbBlockReference
  2
_DOT
 10
913.5898569736946
 20
333.8913903562629
 30
0.0
 41
2.0
 42
2.0
 43
2.0
 50
270.0
  0
MTEXT
  5
7B9F
330
7B97
100
AcDbEntity
  8
DIM
 62
     0
370
     0
100
AcDbMText
 10
900.0898569736946
 20
365.1413973455124
 30
0.0
 40
7.0
 41
0.0
 46
0.0
 71
     5
 72
     1
  1
\A1;63
  7
ＭＳ ゴシック
 11
0.0
 21
1.0
 31
0.0
 73
     1
 44
1.0
  0
POINT
  5
7BA0
330
7B97
100
AcDbEntity
  8
Defpoints
 62
     0
100
AcDbPoint
 10
910.818409373627
 20
396.3914043347618
 30
0.0
  0
POINT
  5
7BA1
330
7B97
100
AcDbEntity
  8
Defpoints
 62
     0
100
AcDbPoint
 10
940.6184122008856
 20
333.8913903562629
 30
0.0
  0
POINT
  5
7BA2
330
7B97
100
AcDbEntity
  8
Defpoints
 62
     0
100
AcDbPoint
 10
913.5898569736946
 20
333.8913903562629
 30
0.0
  0
ENDBLK
  5
7B99
330
7B97
100
AcDbEntity
  8
0
100
AcDbBlockEnd
  0
BLOCK
  5
7BA7
330
7BA6
100
AcDbEntity
  8
0
100
AcDbBlockBegin
  2
*D43
 70
     1
 10
0.0
 20
0.0
 30
0.0
  3
*D43
  1
*D44
  0
LINE
  5
7BA9
330
7BA6
100
AcDbEntity
  8
DIM
 62
     0
370
    -2
100
AcDbLine
 10
953.1184093706468
 20
443.6914043317815
 30
0.0
 11
953.1184093706468
 21
488.6743974821711
 31
0.0
  0
LINE
  5
7BAA
330
7BA6
100
AcDbEntity
  8
DIM
 62
     0
370
    -2
100
AcDbLine
 10
1053.118409370647
 20
443.6914043317815
 30
0.0
 11
1053.118409370647
 21
488.6743974821711
 31
0.0
  0
LINE
  5
7BAB
330
7BA6
100
AcDbEntity
  8
DIM
 62
     0
370
    -2
100
AcDbLine
 10
955.1184093706468
 20
488.6743974821711
 30
0.0
 11
1051.118409370647
 21
488.6743974821711
 31
0.0
  0
INSERT
  5
7BAC
330
7BA6
100
AcDbEntity
  8
DIM
 62
     0
370
    -2
100
AcDbBlockReference
  2
_DOT
 10
953.1184093706468
 20
488.6743974821711
 30
0.0
 41
2.0
 42
2.0
 43
2.0
 50
180.0
  0
INSERT
  5
7BAD
330
7BA6
100
AcDbEntity
  8
DIM
 62
     0
370
    -2
100
AcDbBlockReference
  2
_DOT
 10
1053.118409370647
 20
488.6743974821711
 30
0.0
 41
2.0
 42
2.0
 43
2.0
  0
MTEXT
  5
7BAE
330
7BA6
100
AcDbEntity
  8
DIM
 62
     0
370
     0
100
AcDbMText
 10
1003.118409370647
 20
502.1743974821711
 30
0.0
 40
7.0
 41
0.0
 46
0.0
 71
     5
 72
     1
  1
\A1;100
  7
ＭＳ ゴシック
 73
     1
 44
1.0
  0
POINT
  5
7BAF
330
7BA6
100
AcDbEntity
  8
Defpoints
 62
     0
100
AcDbPoint
 10
953.1184093706468
 20
438.6914043317815
 30
0.0
  0
POINT
  5
7BB0
330
7BA6
100
AcDbEntity
  8
Defpoints
 62
     0
100
AcDbPoint
 10
1053.118409370647
 20
438.6914043317815
 30
0.0
  0
POINT
  5
7BB1
330
7BA6
100
AcDbEntity
  8
Defpoints
 62
     0
100
AcDbPoint
 10
1053.118409370647
 20
488.6743974821711
 30
0.0
  0
ENDBLK
  5
7BA8
330
7BA6
100
AcDbEntity
  8
0
100
AcDbBlockEnd
  0
BLOCK
  5
7BB3
330
7BB2
100
AcDbEntity
  8
0
100
AcDbBlockBegin
  2
*D44
 70
     1
 10
0.0
 20
0.0
 30
0.0
  3
*D44
  1
*D45
  0
LINE
  5
7BB5
330
7BB2
100
AcDbEntity
  8
DIM
 62
     0
370
    -2
100
AcDbLine
 10
853.1184093706468
 20
443.6914043317815
 30
0.0
 11
853.1184093706468
 21
488.1960227790707
 31
0.0
  0
LINE
  5
7BB6
330
7BB2
100
AcDbEntity
  8
DIM
 62
     0
370
    -2
100
AcDbLine
 10
953.1184093706468
 20
443.6914043317815
 30
0.0
 11
953.1184093706468
 21
488.1960227790707
 31
0.0
  0
LINE
  5
7BB7
330
7BB2
100
AcDbEntity
  8
DIM
 62
     0
370
    -2
100
AcDbLine
 10
855.1184093706468
 20
488.1960227790707
 30
0.0
 11
951.1184093706468
 21
488.1960227790707
 31
0.0
  0
INSERT
  5
7BB8
330
7BB2
100
AcDbEntity
  8
DIM
 62
     0
370
    -2
100
AcDbBlockReference
  2
_DOT
 10
853.1184093706468
 20
488.1960227790707
 30
0.0
 41
2.0
 42
2.0
 43
2.0
 50
180.0
  0
INSERT
  5
7BB9
330
7BB2
100
AcDbEntity
  8
DIM
 62
     0
370
    -2
100
AcDbBlockReference
  2
_DOT
 10
953.1184093706468
 20
488.1960227790707
 30
0.0
 41
2.0
 42
2.0
 43
2.0
  0
MTEXT
  5
7BBA
330
7BB2
100
AcDbEntity
  8
DIM
 62
     0
370
     0
100
AcDbMText
 10
903.1184093706468
 20
501.6960227790707
 30
0.0
 40
7.0
 41
0.0
 46
0.0
 71
     5
 72
     1
  1
\A1;100
  7
ＭＳ ゴシック
 73
     1
 44
1.0
  0
POINT
  5
7BBB
330
7BB2
100
AcDbEntity
  8
Defpoints
 62
     0
100
AcDbPoint
 10
853.1184093706468
 20
438.6914043317815
 30
0.0
  0
POINT
  5
7BBC
330
7BB2
100
AcDbEntity
  8
Defpoints
 62
     0
100
AcDbPoint
 10
953.1184093706468
 20
438.6914043317815
 30
0.0
  0
POINT
  5
7BBD
330
7BB2
100
AcDbEntity
  8
Defpoints
 62
     0
100
AcDbPoint
 10
953.1184093706468
 20
488.1960227790707
 30
0.0
  0
ENDBLK
  5
7BB4
330
7BB2
100
AcDbEntity
  8
0
100
AcDbBlockEnd
  0
BLOCK
  5
7BBF
330
7BBE
100
AcDbEntity
  8
0
100
AcDbBlockBegin
  2
*D45
 70
     1
 10
0.0
 20
0.0
 30
0.0
  3
*D45
  1
*D46
  0
LINE
  5
7BC1
330
7BBE
100
AcDbEntity
  8
DIM
 62
     0
370
    -2
100
AcDbLine
 10
920.6184093654849
 20
401.3914043347618
 30
0.0
 11
920.6184093654849
 21
449.9260066930328
 31
0.0
  0
LINE
  5
7BC2
330
7BBE
100
AcDbEntity
  8
DIM
 62
     0
370
    -2
100
AcDbLine
 10
985.6184093654849
 20
401.3914043347618
 30
0.0
 11
985.6184093654849
 21
449.9260066930328
 31
0.0
  0
LINE
  5
7BC3
330
7BBE
100
AcDbEntity
  8
DIM
 62
     0
370
    -2
100
AcDbLine
 10
920.6184093654849
 20
449.9260066930328
 30
0.0
 11
865.0386058184181
 21
449.9260066930328
 31
0.0
  0
LINE
  5
7BC4
330
7BBE
100
AcDbEntity
  8
DIM
 62
     0
370
    -2
100
AcDbLine
 10
918.6184093654849
 20
449.9260066930328
 30
0.0
 11
916.6184093654849
 21
449.9260066930328
 31
0.0
  0
LINE
  5
7BC5
330
7BBE
100
AcDbEntity
  8
DIM
 62
     0
370
    -2
100
AcDbLine
 10
987.6184093654849
 20
449.9260066930328
 30
0.0
 11
989.6184093654849
 21
449.9260066930328
 31
0.0
  0
INSERT
  5
7BC6
330
7BBE
100
AcDbEntity
  8
DIM
 62
     0
370
    -2
100
AcDbBlockReference
  2
_DOT
 10
920.6184093654849
 20
449.9260066930328
 30
0.0
 41
2.0
 42
2.0
 43
2.0
  0
INSERT
  5
7BC7
330
7BBE
100
AcDbEntity
  8
DIM
 62
     0
370
    -2
100
AcDbBlockReference
  2
_DOT
 10
985.6184093654849
 20
449.9260066930328
 30
0.0
 41
2.0
 42
2.0
 43
2.0
 50
180.0
  0
MTEXT
  5
7BC8
330
7BBE
100
AcDbEntity
  8
DIM
 62
     0
370
     0
100
AcDbMText
 10
881.4506058184181
 20
463.6885066930328
 30
0.0
 40
7.0
 41
0.0
 46
0.0
 71
     5
 72
     1
  1
\A1;%%c65
  7
ＭＳ ゴシック
 73
     1
 44
1.0
  0
POINT
  5
7BC9
330
7BBE
100
AcDbEntity
  8
Defpoints
 62
     0
100
AcDbPoint
 10
920.6184093654849
 20
396.3914043347618
 30
0.0
  0
POINT
  5
7BCA
330
7BBE
100
AcDbEntity
  8
Defpoints
 62
     0
100
AcDbPoint
 10
985.6184093654849
 20
396.3914043347618
 30
0.0
  0
POINT
  5
7BCB
330
7BBE
100
AcDbEntity
  8
Defpoints
 62
     0
100
AcDbPoint
 10
985.6184093654849
 20
449.9260066930328
 30
0.0
  0
ENDBLK
  5
7BC0
330
7BBE
100
AcDbEntity
  8
0
100
AcDbBlockEnd
  0
BLOCK
  5
7BCE
330
7BCD
100
AcDbEntity
  8
0
100
AcDbBlockBegin
  2
*D46
 70
     1
 10
0.0
 20
0.0
 30
0.0
  3
*D46
  1
*D47
  0
LINE
  5
7BD0
330
7BCD
100
AcDbEntity
  8
DIM
 62
     0
370
    -2
100
AcDbLine
 10
95.05723755058898
 20
474.9550485058351
 30
0.0
 11
95.05723755058898
 21
507.1208111689198
 31
0.0
  0
LINE
  5
7BD1
330
7BCD
100
AcDbEntity
  8
DIM
 62
     0
370
    -2
100
AcDbLine
 10
410.057237550589
 20
474.3677795729668
 30
0.0
 11
410.057237550589
 21
507.1208111689198
 31
0.0
  0
LINE
  5
7BD2
330
7BCD
100
AcDbEntity
  8
DIM
 62
     0
370
    -2
100
AcDbLine
 10
97.05723755058898
 20
507.1208111689198
 30
0.0
 11
408.057237550589
 21
507.1208111689198
 31
0.0
  0
INSERT
  5
7BD3
330
7BCD
100
AcDbEntity
  8
DIM
 62
     0
370
    -2
100
AcDbBlockReference
  2
_DOT
 10
95.05723755058898
 20
507.1208111689198
 30
0.0
 41
2.0
 42
2.0
 43
2.0
 50
180.0
  0
INSERT
  5
7BD4
330
7BCD
100
AcDbEntity
  8
DIM
 62
     0
370
    -2
100
AcDbBlockReference
  2
_DOT
 10
410.057237550589
 20
507.1208111689198
 30
0.0
 41
2.0
 42
2.0
 43
2.0
  0
MTEXT
  5
7BD5
330
7BCD
100
AcDbEntity
  8
DIM
 62
     0
370
     0
100
AcDbMText
 10
252.557237550589
 20
521.6208111689198
 30
0.0
 40
9.0
 41
0.0
 46
0.0
 71
     5
 72
     1
  1
\A1;315
  7
ＭＳ ゴシック
 73
     1
 44
1.0
  0
POINT
  5
7BD6
330
7BCD
100
AcDbEntity
  8
Defpoints
 62
     0
100
AcDbPoint
 10
95.05723755058898
 20
464.9550485058351
 30
0.0
  0
POINT
  5
7BD7
330
7BCD
100
AcDbEntity
  8
Defpoints
 62
     0
100
AcDbPoint
 10
410.057237550589
 20
464.3677795729668
 30
0.0
  0
POINT
  5
7BD8
330
7BCD
100
AcDbEntity
  8
Defpoints
 62
     0
100
AcDbPoint
 10
410.057237550589
 20
507.1208111689198
 30
0.0
  0
ENDBLK
  5
7BCF
330
7BCD
100
AcDbEntity
  8
0
100
AcDbBlockEnd
  0
BLOCK
  5
7BDA
330
7BD9
100
AcDbEntity
  8
0
100
AcDbBlockBegin
  2
*D47
 70
     1
 10
0.0
 20
0.0
 30
0.0
  3
*D47
  1
*D48
  0
LINE
  5
7BDC
330
7BD9
100
AcDbEntity
  8
DIM
 62
     0
370
    -2
100
AcDbLine
 10
865.724788521466
 20
216.0661516362389
 30
0.0
 11
865.724788521466
 21
175.5621610939605
 31
0.0
  0
LINE
  5
7BDD
330
7BD9
100
AcDbEntity
  8
DIM
 62
     0
370
    -2
100
AcDbLine
 10
841.8906068672482
 20
217.193741993114
 30
0.0
 11
841.8906068672482
 21
175.5621610939605
 31
0.0
  0
LINE
  5
7BDE
330
7BD9
100
AcDbEntity
  8
DIM
 62
     0
370
    -2
100
AcDbLine
 10
841.8906068672482
 20
175.5621610939605
 30
0.0
 11
773.8514591682004
 21
175.5621610939605
 31
0.0
  0
LINE
  5
7BDF
330
7BD9
100
AcDbEntity
  8
DIM
 62
     0
370
    -2
100
AcDbLine
 10
867.724788521466
 20
175.5621610939605
 30
0.0
 11
869.724788521466
 21
175.5621610939605
 31
0.0
  0
LINE
  5
7BE0
330
7BD9
100
AcDbEntity
  8
DIM
 62
     0
370
    -2
100
AcDbLine
 10
839.8906068672482
 20
175.5621610939605
 30
0.0
 11
837.8906068672482
 21
175.5621610939605
 31
0.0
  0
INSERT
  5
7BE1
330
7BD9
100
AcDbEntity
  8
DIM
 62
     0
370
    -2
100
AcDbBlockReference
  2
_DOT
 10
865.724788521466
 20
175.5621610939605
 30
0.0
 41
2.0
 42
2.0
 43
2.0
 50
180.0
  0
INSERT
  5
7BE2
330
7BD9
100
AcDbEntity
  8
DIM
 62
     0
370
    -2
100
AcDbBlockReference
  2
_DOT
 10
841.8906068672482
 20
175.5621610939605
 30
0.0
 41
2.0
 42
2.0
 43
2.0
  0
MTEXT
  5
7BE3
330
7BD9
100
AcDbEntity
  8
DIM
 62
     0
370
     0
100
AcDbMText
 10
794.7959591682004
 20
189.8076610939605
 30
0.0
 40
7.0
 41
0.0
 46
0.0
 71
     5
 72
     1
  1
\A1;G 1/2
  7
ＭＳ ゴシック
 73
     1
 44
1.0
  0
POINT
  5
7BE4
330
7BD9
100
AcDbEntity
  8
Defpoints
 62
     0
100
AcDbPoint
 10
865.724788521466
 20
221.0661516362389
 30
0.0
  0
POINT
  5
7BE5
330
7BD9
100
AcDbEntity
  8
Defpoints
 62
     0
100
AcDbPoint
 10
841.8906068672482
 20
222.193741993114
 30
0.0
  0
POINT
  5
7BE6
330
7BD9
100
AcDbEntity
  8
Defpoints
 62
     0
100
AcDbPoint
 10
841.8906068672482
 20
175.5621610939605
 30
0.0
  0
ENDBLK
  5
7BDB
330
7BD9
100
AcDbEntity
  8
0
100
AcDbBlockEnd
  0
BLOCK
  5
7BE9
330
7BE8
100
AcDbEntity
  8
0
100
AcDbBlockBegin
  2
*D48
 70
     1
 10
0.0
 20
0.0
 30
0.0
  3
*D48
  1
*D49
  0
LINE
  5
7BEB
330
7BE8
100
AcDbEntity
  8
DIM
 62
     0
370
    -2
100
AcDbLine
 10
97.05723755058898
 20
476.9550485058815
 30
0.0
 11
74.88978322135239
 21
476.9550485058815
 31
0.0
  0
LINE
  5
7BEC
330
7BE8
100
AcDbEntity
  8
DIM
 62
     0
370
    -2
100
AcDbLine
 10
97.05723755058898
 20
376.9550485058815
 30
0.0
 11
74.88978322135239
 21
376.9550485058815
 31
0.0
  0
LINE
  5
7BED
330
7BE8
100
AcDbEntity
  8
DIM
 62
     0
370
    -2
100
AcDbLine
 10
74.88978322135239
 20
474.9550485058815
 30
0.0
 11
74.88978322135239
 21
378.9550485058815
 31
0.0
  0
INSERT
  5
7BEE
330
7BE8
100
AcDbEntity
  8
DIM
 62
     0
370
    -2
100
AcDbBlockReference
  2
_DOT
 10
74.88978322135239
 20
476.9550485058815
 30
0.0
 41
2.0
 42
2.0
 43
2.0
 50
90.0
  0
INSERT
  5
7BEF
330
7BE8
100
AcDbEntity
  8
DIM
 62
     0
370
    -2
100
AcDbBlockReference
  2
_DOT
 10
74.88978322135239
 20
376.9550485058815
 30
0.0
 41
2.0
 42
2.0
 43
2.0
 50
270.0
  0
MTEXT
  5
7BF0
330
7BE8
100
AcDbEntity
  8
DIM
 62
     0
370
     0
100
AcDbMText
 10
60.38978322135239
 20
426.9550485058815
 30
0.0
 40
9.0
 41
0.0
 46
0.0
 71
     5
 72
     1
  1
\A1;100
  7
ＭＳ ゴシック
 11
0.0
 21
1.0
 31
0.0
 73
     1
 44
1.0
  0
POINT
  5
7BF1
330
7BE8
100
AcDbEntity
  8
Defpoints
 62
     0
100
AcDbPoint
 10
107.057237550589
 20
476.9550485058815
 30
0.0
  0
POINT
  5
7BF2
330
7BE8
100
AcDbEntity
  8
Defpoints
 62
     0
100
AcDbPoint
 10
107.057237550589
 20
376.9550485058815
 30
0.0
  0
POINT
  5
7BF3
330
7BE8
100
AcDbEntity
  8
Defpoints
 62
     0
100
AcDbPoint
 10
74.88978322135239
 20
376.9550485058815
 30
0.0
  0
ENDBLK
  5
7BEA
330
7BE8
100
AcDbEntity
  8
0
100
AcDbBlockEnd
  0
BLOCK
  5
7BF5
330
7BF4
100
AcDbEntity
  8
0
100
AcDbBlockBegin
  2
*D49
 70
     1
 10
0.0
 20
0.0
 30
0.0
  3
*D49
  1
*D50
  0
LINE
  5
7BF7
330
7BF4
100
AcDbEntity
  8
DIM
 62
     0
370
    -2
100
AcDbLine
 10
1065.618119299647
 20
214.1777329925586
 30
0.0
 11
1065.618119299647
 21
178.0238287827134
 31
0.0
  0
LINE
  5
7BF8
330
7BF4
100
AcDbEntity
  8
DIM
 62
     0
370
    -2
100
AcDbLine
 10
1040.9349583644
 20
213.8408533135467
 30
0.0
 11
1040.9349583644
 21
178.0238287827134
 31
0.0
  0
LINE
  5
7BF9
330
7BF4
100
AcDbEntity
  8
DIM
 62
     0
370
    -2
100
AcDbLine
 10
1065.618119299647
 20
178.0238287827134
 30
0.0
 11
1132.844723297145
 21
178.0238287827134
 31
0.0
  0
LINE
  5
7BFA
330
7BF4
100
AcDbEntity
  8
DIM
 62
     0
370
    -2
100
AcDbLine
 10
1067.618119299647
 20
178.0238287827134
 30
0.0
 11
1069.618119299647
 21
178.0238287827134
 31
0.0
  0
LINE
  5
7BFB
330
7BF4
100
AcDbEntity
  8
DIM
 62
     0
370
    -2
100
AcDbLine
 10
1038.9349583644
 20
178.0238287827134
 30
0.0
 11
1036.9349583644
 21
178.0238287827134
 31
0.0
  0
INSERT
  5
7BFC
330
7BF4
100
AcDbEntity
  8
DIM
 62
     0
370
    -2
100
AcDbBlockReference
  2
_DOT
 10
1065.618119299647
 20
178.0238287827134
 30
0.0
 41
2.0
 42
2.0
 43
2.0
 50
180.0
  0
INSERT
  5
7BFD
330
7BF4
100
AcDbEntity
  8
DIM
 62
     0
370
    -2
100
AcDbBlockReference
  2
_DOT
 10
1040.9349583644
 20
178.0238287827134
 30
0.0
 41
2.0
 42
2.0
 43
2.0
  0
MTEXT
  5
7BFE
330
7BF4
100
AcDbEntity
  8
DIM
 62
     0
370
     0
100
AcDbMText
 10
1111.900223297145
 20
192.2693287827134
 30
0.0
 40
7.0
 41
0.0
 46
0.0
 71
     5
 72
     1
  1
\A1;G 1/2
  7
ＭＳ ゴシック
 73
     1
 44
1.0
  0
POINT
  5
7BFF
330
7BF4
100
AcDbEntity
  8
Defpoints
 62
     0
100
AcDbPoint
 10
1065.618119299647
 20
219.1777329925586
 30
0.0
  0
POINT
  5
7C00
330
7BF4
100
AcDbEntity
  8
Defpoints
 62
     0
100
AcDbPoint
 10
1040.9349583644
 20
218.8408533135467
 30
0.0
  0
POINT
  5
7C01
330
7BF4
100
AcDbEntity
  8
Defpoints
 62
     0
100
AcDbPoint
 10
1040.9349583644
 20
178.0238287827134
 30
0.0
  0
ENDBLK
  5
7BF6
330
7BF4
100
AcDbEntity
  8
0
100
AcDbBlockEnd
  0
BLOCK
  5
7C04
330
7C03
100
AcDbEntity
  8
0
100
AcDbBlockBegin
  2
*D50
 70
     1
 10
0.0
 20
0.0
 30
0.0
  3
*D50
  1
*D51
  0
LINE
  5
7C06
330
7C03
100
AcDbEntity
  8
DIM
 62
     0
370
    -2
100
AcDbLine
 10
481.586367914977
 20
378.9551540453306
 30
0.0
 11
481.586367914977
 21
337.3323319439603
 31
0.0
  0
LINE
  5
7C07
330
7C03
100
AcDbEntity
  8
DIM
 62
     0
370
    -2
100
AcDbLine
 10
454.5820508721013
 20
366.9550556487268
 30
0.0
 11
454.5820508721013
 21
337.3323319439603
 31
0.0
  0
LINE
  5
7C08
330
7C03
100
AcDbEntity
  8
DIM
 62
     0
370
    -2
100
AcDbLine
 10
479.586367914977
 20
337.3323319439603
 30
0.0
 11
456.5820508721013
 21
337.3323319439603
 31
0.0
  0
INSERT
  5
7C09
330
7C03
100
AcDbEntity
  8
DIM
 62
     0
370
    -2
100
AcDbBlockReference
  2
_DOT
 10
481.586367914977
 20
337.3323319439603
 30
0.0
 41
2.0
 42
2.0
 43
2.0
  0
INSERT
  5
7C0A
330
7C03
100
AcDbEntity
  8
DIM
 62
     0
370
    -2
100
AcDbBlockReference
  2
_DOT
 10
454.5820508721013
 20
337.3323319439603
 30
0.0
 41
2.0
 42
2.0
 43
2.0
 50
180.0
  0
MTEXT
  5
7C0B
330
7C03
100
AcDbEntity
  8
DIM
 62
     0
370
     0
100
AcDbMText
 10
468.0842071738193
 20
351.8323319439603
 30
0.0
 40
9.0
 41
0.0
 46
0.0
 71
     5
 72
     1
  1
\A1;27
  7
ＭＳ ゴシック
 73
     1
 44
1.0
  0
POINT
  5
7C0C
330
7C03
100
AcDbEntity
  8
Defpoints
 62
     0
100
AcDbPoint
 10
481.586367914977
 20
388.9551540453306
 30
0.0
  0
POINT
  5
7C0D
330
7C03
100
AcDbEntity
  8
Defpoints
 62
     0
100
AcDbPoint
 10
454.5820508721013
 20
376.9550556487268
 30
0.0
  0
POINT
  5
7C0E
330
7C03
100
AcDbEntity
  8
Defpoints
 62
     0
100
AcDbPoint
 10
454.5820508721013
 20
337.3323319439603
 30
0.0
  0
ENDBLK
  5
7C05
330
7C03
100
AcDbEntity
  8
0
100
AcDbBlockEnd
  0
BLOCK
  5
7C12
330
7C11
100
AcDbEntity
  8
0
100
AcDbBlockBegin
  2
*D51
 70
     1
 10
0.0
 20
0.0
 30
0.0
  3
*D51
  1
*D52
  0
LINE
  5
7C14
330
7C11
100
AcDbEntity
  8
DIM
 62
     0
370
    -2
100
AcDbLine
 10
481.586367914977
 20
378.9551540453306
 30
0.0
 11
481.586367914977
 21
337.3323319439603
 31
0.0
  0
LINE
  5
7C15
330
7C11
100
AcDbEntity
  8
DIM
 62
     0
370
    -2
100
AcDbLine
 10
524.086366184034
 20
363.6243303486115
 30
0.0
 11
524.086366184034
 21
337.3323319439603
 31
0.0
  0
LINE
  5
7C16
330
7C11
100
AcDbEntity
  8
DIM
 62
     0
370
    -2
100
AcDbLine
 10
483.586367914977
 20
337.3323319439603
 30
0.0
 11
522.086366184034
 21
337.3323319439603
 31
0.0
  0
INSERT
  5
7C17
330
7C11
100
AcDbEntity
  8
DIM
 62
     0
370
    -2
100
AcDbBlockReference
  2
_DOT
 10
481.586367914977
 20
337.3323319439603
 30
0.0
 41
2.0
 42
2.0
 43
2.0
 50
180.0
  0
INSERT
  5
7C18
330
7C11
100
AcDbEntity
  8
DIM
 62
     0
370
    -2
100
AcDbBlockReference
  2
_DOT
 10
524.086366184034
 20
337.3323319439603
 30
0.0
 41
2.0
 42
2.0
 43
2.0
  0
MTEXT
  5
7C19
330
7C11
100
AcDbEntity
  8
DIM
 62
     0
370
     0
100
AcDbMText
 10
502.8363670495055
 20
351.8323319439603
 30
0.0
 40
9.0
 41
0.0
 46
0.0
 71
     5
 72
     1
  1
\A1;42-62
  7
ＭＳ ゴシック
 73
     1
 44
1.0
  0
POINT
  5
7C1A
330
7C11
100
AcDbEntity
  8
Defpoints
 62
     0
100
AcDbPoint
 10
481.586367914977
 20
388.9551540453306
 30
0.0
  0
POINT
  5
7C1B
330
7C11
100
AcDbEntity
  8
Defpoints
 62
     0
100
AcDbPoint
 10
524.086366184034
 20
373.6243303486115
 30
0.0
  0
POINT
  5
7C1C
330
7C11
100
AcDbEntity
  8
Defpoints
 62
     0
100
AcDbPoint
 10
524.086366184034
 20
337.3323319439603
 30
0.0
  0
ENDBLK
  5
7C13
330
7C11
100
AcDbEntity
  8
0
100
AcDbBlockEnd
  0
BLOCK
  5
7C20
330
7C1F
100
AcDbEntity
  8
0
100
AcDbBlockBegin
  2
*D52
 70
     1
 10
0.0
 20
0.0
 30
0.0
  3
*D52
  1
*D53
  0
LINE
  5
7C22
330
7C1F
100
AcDbEntity
  8
DIM
 62
     0
370
    -2
100
AcDbLine
 10
1308.442697055562
 20
428.8913784247538
 30
0.0
 11
1338.159667957137
 21
428.8913784247538
 31
0.0
  0
LINE
  5
7C23
330
7C1F
100
AcDbEntity
  8
DIM
 62
     0
370
    -2
100
AcDbLine
 10
1308.442692662201
 20
363.8913784247536
 30
0.0
 11
1338.159667957137
 21
363.8913784247536
 31
0.0
  0
LINE
  5
7C24
330
7C1F
100
AcDbEntity
  8
DIM
 62
     0
370
    -2
100
AcDbLine
 10
1338.159667957137
 20
428.8913784247538
 30
0.0
 11
1338.159667957137
 21
484.4711819718209
 31
0.0
  0
LINE
  5
7C25
330
7C1F
100
AcDbEntity
  8
DIM
 62
     0
370
    -2
100
AcDbLine
 10
1338.159667957137
 20
430.8913784247538
 30
0.0
 11
1338.159667957137
 21
432.8913784247538
 31
0.0
  0
LINE
  5
7C26
330
7C1F
100
AcDbEntity
  8
DIM
 62
     0
370
    -2
100
AcDbLine
 10
1338.159667957137
 20
361.8913784247536
 30
0.0
 11
1338.159667957137
 21
359.8913784247536
 31
0.0
  0
INSERT
  5
7C27
330
7C1F
100
AcDbEntity
  8
DIM
 62
     0
370
    -2
100
AcDbBlockReference
  2
_DOT
 10
1338.159667957137
 20
428.8913784247538
 30
0.0
 41
2.0
 42
2.0
 43
2.0
 50
270.0
  0
INSERT
  5
7C28
330
7C1F
100
AcDbEntity
  8
DIM
 62
     0
370
    -2
100
AcDbBlockReference
  2
_DOT
 10
1338.159667957137
 20
363.8913784247536
 30
0.0
 41
2.0
 42
2.0
 43
2.0
 50
90.0
  0
MTEXT
  5
7C29
330
7C1F
100
AcDbEntity
  8
DIM
 62
     0
370
     0
100
AcDbMText
 10
1324.397167957137
 20
468.0591819718209
 30
0.0
 40
7.0
 41
0.0
 46
0.0
 71
     5
 72
     1
  1
\A1;Ø65
  7
ＭＳ ゴシック
 11
0.0
 21
1.0
 31
0.0
 73
     1
 44
1.0
  0
POINT
  5
7C2A
330
7C1F
100
AcDbEntity
  8
Defpoints
 62
     0
100
AcDbPoint
 10
1303.442697055562
 20
428.8913784247538
 30
0.0
  0
POINT
  5
7C2B
330
7C1F
100
AcDbEntity
  8
Defpoints
 62
     0
100
AcDbPoint
 10
1303.442692662201
 20
363.8913784247536
 30
0.0
  0
POINT
  5
7C2C
330
7C1F
100
AcDbEntity
  8
Defpoints
 62
     0
100
AcDbPoint
 10
1338.159667957137
 20
363.8913784247536
 30
0.0
  0
ENDBLK
  5
7C21
330
7C1F
100
AcDbEntity
  8
0
100
AcDbBlockEnd
  0
BLOCK
  5
7E3B
330
7E3A
100
AcDbEntity
  8
0
100
AcDbBlockBegin
  2
*D53
 70
     1
 10
0.0
 20
0.0
 30
0.0
  3
*D53
  1
*D55
  0
LINE
  5
7E3D
330
7E3A
100
AcDbEntity
  8
DIM
 62
     0
370
    -2
100
AcDbLine
 10
743.9721134787105
 20
747.10843487246
 30
0.0
 11
743.9721134787105
 21
683.3246956972735
 31
0.0
  0
LINE
  5
7E3E
330
7E3A
100
AcDbEntity
  8
DIM
 62
     0
370
    -2
100
AcDbLine
 10
524.086366184034
 20
756.2777190726464
 30
0.0
 11
524.086366184034
 21
683.3246956972735
 31
0.0
  0
LINE
  5
7E3F
330
7E3A
100
AcDbEntity
  8
DIM
 62
     0
370
    -2
100
AcDbLine
 10
741.9721134787105
 20
683.3246956972735
 30
0.0
 11
526.086366184034
 21
683.3246956972735
 31
0.0
  0
INSERT
  5
7E40
330
7E3A
100
AcDbEntity
  8
DIM
 62
     0
370
    -2
100
AcDbBlockReference
  2
_DOT
 10
743.9721134787105
 20
683.3246956972735
 30
0.0
 41
2.0
 42
2.0
 43
2.0
  0
INSERT
  5
7E41
330
7E3A
100
AcDbEntity
  8
DIM
 62
     0
370
    -2
100
AcDbBlockReference
  2
_DOT
 10
524.086366184034
 20
683.3246956972735
 30
0.0
 41
2.0
 42
2.0
 43
2.0
 50
180.0
  0
MTEXT
  5
7E42
330
7E3A
100
AcDbEntity
  8
DIM
 62
     0
370
     0
100
AcDbMText
 10
634.0292394258313
 20
697.8246956972735
 30
0.0
 40
9.0
 41
0.0
 46
0.0
 71
     5
 72
     1
  1
\A1;220
  7
ＭＳ ゴシック
 73
     1
 44
1.0
  0
POINT
  5
7E43
330
7E3A
100
AcDbEntity
  8
Defpoints
 62
     0
100
AcDbPoint
 10
743.9721134787105
 20
757.10843487246
 30
0.0
  0
POINT
  5
7E44
330
7E3A
100
AcDbEntity
  8
Defpoints
 62
     0
100
AcDbPoint
 10
524.086366184034
 20
766.2777190726464
 30
0.0
  0
POINT
  5
7E45
330
7E3A
100
AcDbEntity
  8
Defpoints
 62
     0
100
AcDbPoint
 10
524.086366184034
 20
683.3246956972735
 30
0.0
  0
ENDBLK
  5
7E3C
330
7E3A
100
AcDbEntity
  8
0
100
AcDbBlockEnd
  0
BLOCK
  5
7E47
330
7E46
100
AcDbEntity
  8
0
100
AcDbBlockBegin
  2
*D54
 70
     1
 10
0.0
 20
0.0
 30
0.0
  3
*D54
  1
*D56
  0
LINE
  5
7E49
330
7E46
100
AcDbEntity
  8
DIM
 62
     0
370
    -2
100
AcDbLine
 10
940.6184122008856
 20
721.5447790802979
 30
0.0
 11
940.6184122008856
 21
663.2509816022815
 31
0.0
  0
LINE
  5
7E4A
330
7E46
100
AcDbEntity
  8
DIM
 62
     0
370
    -2
100
AcDbLine
 10
965.6184122008856
 20
721.5447790802979
 30
0.0
 11
965.6184122008856
 21
663.2509816022815
 31
0.0
  0
LINE
  5
7E4B
330
7E46
100
AcDbEntity
  8
DIM
 62
     0
370
    -2
100
AcDbLine
 10
942.6184122008856
 20
663.2509816022815
 30
0.0
 11
963.6184122008856
 21
663.2509816022815
 31
0.0
  0
INSERT
  5
7E4C
330
7E46
100
AcDbEntity
  8
DIM
 62
     0
370
    -2
100
AcDbBlockReference
  2
_DOT
 10
940.6184122008856
 20
663.2509816022815
 30
0.0
 41
2.0
 42
2.0
 43
2.0
 50
180.0
  0
INSERT
  5
7E4D
330
7E46
100
AcDbEntity
  8
DIM
 62
     0
370
    -2
100
AcDbBlockReference
  2
_DOT
 10
965.6184122008856
 20
663.2509816022815
 30
0.0
 41
2.0
 42
2.0
 43
2.0
  0
MTEXT
  5
7E4E
330
7E46
100
AcDbEntity
  8
DIM
 62
     0
370
     0
100
AcDbMText
 10
953.7883062331168
 20
677.0134816022816
 30
0.0
 40
7.0
 41
0.0
 46
0.0
 71
     5
 72
     1
  1
\A1;%%c24
  7
ＭＳ ゴシック
 73
     1
 44
1.0
  0
POINT
  5
7E4F
330
7E46
100
AcDbEntity
  8
Defpoints
 62
     0
100
AcDbPoint
 10
940.6184122008856
 20
726.5447790802979
 30
0.0
  0
POINT
  5
7E50
330
7E46
100
AcDbEntity
  8
Defpoints
 62
     0
100
AcDbPoint
 10
965.6184122008856
 20
726.5447790802979
 30
0.0
  0
POINT
  5
7E51
330
7E46
100
AcDbEntity
  8
Defpoints
 62
     0
100
AcDbPoint
 10
965.6184122008856
 20
663.2509816022815
 30
0.0
  0
ENDBLK
  5
7E48
330
7E46
100
AcDbEntity
  8
0
100
AcDbBlockEnd
  0
BLOCK
  5
7E53
330
7E52
100
AcDbEntity
  8
0
100
AcDbBlockBegin
  2
*D55
 70
     1
 10
0.0
 20
0.0
 30
0.0
  3
*D55
  1
*D57
  0
LINE
  5
7E55
330
7E52
100
AcDbEntity
  8
DIM
 62
     0
370
    -2
100
AcDbLine
 10
555.8877400485499
 20
861.9084466575129
 30
0.0
 11
555.8877400485499
 21
906.0396147786804
 31
0.0
  0
LINE
  5
7E56
330
7E52
100
AcDbEntity
  8
DIM
 62
     0
370
    -2
100
AcDbLine
 10
524.0863684820997
 20
896.0313099124897
 30
0.0
 11
524.0863684820997
 21
906.0396147786804
 31
0.0
  0
LINE
  5
7E57
330
7E52
100
AcDbEntity
  8
DIM
 62
     0
370
    -2
100
AcDbLine
 10
553.8877400485499
 20
906.0396147786804
 30
0.0
 11
526.0863684820997
 21
906.0396147786804
 31
0.0
  0
INSERT
  5
7E58
330
7E52
100
AcDbEntity
  8
DIM
 62
     0
370
    -2
100
AcDbBlockReference
  2
_DOT
 10
555.8877400485499
 20
906.0396147786804
 30
0.0
 41
2.0
 42
2.0
 43
2.0
  0
INSERT
  5
7E59
330
7E52
100
AcDbEntity
  8
DIM
 62
     0
370
    -2
100
AcDbBlockReference
  2
_DOT
 10
524.0863684820997
 20
906.0396147786804
 30
0.0
 41
2.0
 42
2.0
 43
2.0
 50
180.0
  0
MTEXT
  5
7E5A
330
7E52
100
AcDbEntity
  8
DIM
 62
     0
370
     0
100
AcDbMText
 10
539.9870546708662
 20
920.5396147786804
 30
0.0
 40
9.0
 41
0.0
 46
0.0
 71
     5
 72
     1
  1
\A1;32
  7
ＭＳ ゴシック
 73
     1
 44
1.0
  0
POINT
  5
7E5B
330
7E52
100
AcDbEntity
  8
Defpoints
 62
     0
100
AcDbPoint
 10
555.8877400485499
 20
851.9084466575129
 30
0.0
  0
POINT
  5
7E5C
330
7E52
100
AcDbEntity
  8
Defpoints
 62
     0
100
AcDbPoint
 10
524.0863684820997
 20
886.0313099124897
 30
0.0
  0
POINT
  5
7E5D
330
7E52
100
AcDbEntity
  8
Defpoints
 62
     0
100
AcDbPoint
 10
524.0863684820997
 20
906.0396147786804
 30
0.0
  0
ENDBLK
  5
7E54
330
7E52
100
AcDbEntity
  8
0
100
AcDbBlockEnd
  0
BLOCK
  5
7E5F
330
7E5E
100
AcDbEntity
  8
0
100
AcDbBlockBegin
  2
*D56
 70
     1
 10
0.0
 20
0.0
 30
0.0
  3
*D56
  1
*D58
  0
LINE
  5
7E61
330
7E5E
100
AcDbEntity
  8
DIM
 62
     0
370
    -2
100
AcDbLine
 10
731.4721134787105
 20
747.1084357173369
 30
0.0
 11
731.4721134787105
 21
717.2582330380449
 31
0.0
  0
LINE
  5
7E62
330
7E5E
100
AcDbEntity
  8
DIM
 62
     0
370
    -2
100
AcDbLine
 10
524.086366184034
 20
756.2777190726464
 30
0.0
 11
524.086366184034
 21
717.2582330380449
 31
0.0
  0
LINE
  5
7E63
330
7E5E
100
AcDbEntity
  8
DIM
 62
     0
370
    -2
100
AcDbLine
 10
729.4721134787105
 20
717.2582330380449
 30
0.0
 11
526.086366184034
 21
717.2582330380449
 31
0.0
  0
INSERT
  5
7E64
330
7E5E
100
AcDbEntity
  8
DIM
 62
     0
370
    -2
100
AcDbBlockReference
  2
_DOT
 10
731.4721134787105
 20
717.2582330380449
 30
0.0
 41
2.0
 42
2.0
 43
2.0
  0
INSERT
  5
7E65
330
7E5E
100
AcDbEntity
  8
DIM
 62
     0
370
    -2
100
AcDbBlockReference
  2
_DOT
 10
524.086366184034
 20
717.2582330380449
 30
0.0
 41
2.0
 42
2.0
 43
2.0
 50
180.0
  0
MTEXT
  5
7E66
330
7E5E
100
AcDbEntity
  8
DIM
 62
     0
370
     0
100
AcDbMText
 10
627.7792394258313
 20
731.7582330380449
 30
0.0
 40
9.0
 41
0.0
 46
0.0
 71
     5
 72
     1
  1
\A1;208
  7
ＭＳ ゴシック
 73
     1
 44
1.0
  0
POINT
  5
7E67
330
7E5E
100
AcDbEntity
  8
Defpoints
 62
     0
100
AcDbPoint
 10
731.4721134787105
 20
757.1084357173369
 30
0.0
  0
POINT
  5
7E68
330
7E5E
100
AcDbEntity
  8
Defpoints
 62
     0
100
AcDbPoint
 10
524.086366184034
 20
766.2777190726464
 30
0.0
  0
POINT
  5
7E69
330
7E5E
100
AcDbEntity
  8
Defpoints
 62
     0
100
AcDbPoint
 10
524.086366184034
 20
717.2582330380449
 30
0.0
  0
ENDBLK
  5
7E60
330
7E5E
100
AcDbEntity
  8
0
100
AcDbBlockEnd
  0
BLOCK
  5
7E6B
330
7E6A
100
AcDbEntity
  8
0
100
AcDbBlockBegin
  2
*D57
 70
     1
 10
0.0
 20
0.0
 30
0.0
  3
*D57
  1
*D59
  0
LINE
  5
7E6D
330
7E6A
100
AcDbEntity
  8
DIM
 62
     0
370
    -2
100
AcDbLine
 10
915.818409373627
 20
789.0447930587967
 30
0.0
 11
913.5898569736946
 21
789.0447930587967
 31
0.0
  0
LINE
  5
7E6E
330
7E6A
100
AcDbEntity
  8
DIM
 62
     0
370
    -2
100
AcDbLine
 10
935.6184122008856
 20
726.5447790802979
 30
0.0
 11
913.5898569736946
 21
726.5447790802979
 31
0.0
  0
LINE
  5
7E6F
330
7E6A
100
AcDbEntity
  8
DIM
 62
     0
370
    -2
100
AcDbLine
 10
913.5898569736946
 20
787.0447930587967
 30
0.0
 11
913.5898569736946
 21
728.5447790802979
 31
0.0
  0
INSERT
  5
7E70
330
7E6A
100
AcDbEntity
  8
DIM
 62
     0
370
    -2
100
AcDbBlockReference
  2
_DOT
 10
913.5898569736946
 20
789.0447930587967
 30
0.0
 41
2.0
 42
2.0
 43
2.0
 50
90.0
  0
INSERT
  5
7E71
330
7E6A
100
AcDbEntity
  8
DIM
 62
     0
370
    -2
100
AcDbBlockReference
  2
_DOT
 10
913.5898569736946
 20
726.5447790802979
 30
0.0
 41
2.0
 42
2.0
 43
2.0
 50
270.0
  0
MTEXT
  5
7E72
330
7E6A
100
AcDbEntity
  8
DIM
 62
     0
370
     0
100
AcDbMText
 10
900.0898569736946
 20
757.7947860695473
 30
0.0
 40
7.0
 41
0.0
 46
0.0
 71
     5
 72
     1
  1
\A1;63
  7
ＭＳ ゴシック
 11
0.0
 21
1.0
 31
0.0
 73
     1
 44
1.0
  0
POINT
  5
7E73
330
7E6A
100
AcDbEntity
  8
Defpoints
 62
     0
100
AcDbPoint
 10
910.818409373627
 20
789.0447930587967
 30
0.0
  0
POINT
  5
7E74
330
7E6A
100
AcDbEntity
  8
Defpoints
 62
     0
100
AcDbPoint
 10
940.6184122008856
 20
726.5447790802979
 30
0.0
  0
POINT
  5
7E75
330
7E6A
100
AcDbEntity
  8
Defpoints
 62
     0
100
AcDbPoint
 10
913.5898569736946
 20
726.5447790802979
 30
0.0
  0
ENDBLK
  5
7E6C
330
7E6A
100
AcDbEntity
  8
0
100
AcDbBlockEnd
  0
BLOCK
  5
7E77
330
7E76
100
AcDbEntity
  8
0
100
AcDbBlockBegin
  2
*D58
 70
     1
 10
0.0
 20
0.0
 30
0.0
  3
*D58
  1
*D60
  0
LINE
  5
7E79
330
7E76
100
AcDbEntity
  8
DIM
 62
     0
370
    -2
100
AcDbLine
 10
252.5573692881189
 20
862.7181395512467
 30
0.0
 11
252.5573692881189
 21
902.7011327016363
 31
0.0
  0
LINE
  5
7E7A
330
7E76
100
AcDbEntity
  8
DIM
 62
     0
370
    -2
100
AcDbLine
 10
352.5573692881189
 20
862.7181395512467
 30
0.0
 11
352.5573692881189
 21
902.7011327016363
 31
0.0
  0
LINE
  5
7E7B
330
7E76
100
AcDbEntity
  8
DIM
 62
     0
370
    -2
100
AcDbLine
 10
254.5573692881189
 20
902.7011327016363
 30
0.0
 11
350.5573692881189
 21
902.7011327016363
 31
0.0
  0
INSERT
  5
7E7C
330
7E76
100
AcDbEntity
  8
DIM
 62
     0
370
    -2
100
AcDbBlockReference
  2
_DOT
 10
252.5573692881189
 20
902.7011327016363
 30
0.0
 41
2.0
 42
2.0
 43
2.0
 50
180.0
  0
INSERT
  5
7E7D
330
7E76
100
AcDbEntity
  8
DIM
 62
     0
370
    -2
100
AcDbBlockReference
  2
_DOT
 10
352.5573692881189
 20
902.7011327016363
 30
0.0
 41
2.0
 42
2.0
 43
2.0
  0
MTEXT
  5
7E7E
330
7E76
100
AcDbEntity
  8
DIM
 62
     0
370
     0
100
AcDbMText
 10
302.5573692881189
 20
917.2011327016363
 30
0.0
 40
9.0
 41
0.0
 46
0.0
 71
     5
 72
     1
  1
\A1;100
  7
ＭＳ ゴシック
 73
     1
 44
1.0
  0
POINT
  5
7E7F
330
7E76
100
AcDbEntity
  8
Defpoints
 62
     0
100
AcDbPoint
 10
252.5573692881189
 20
852.7181395512467
 30
0.0
  0
POINT
  5
7E80
330
7E76
100
AcDbEntity
  8
Defpoints
 62
     0
100
AcDbPoint
 10
352.5573692881189
 20
852.7181395512467
 30
0.0
  0
POINT
  5
7E81
330
7E76
100
AcDbEntity
  8
Defpoints
 62
     0
100
AcDbPoint
 10
352.5573692881189
 20
902.7011327016363
 30
0.0
  0
ENDBLK
  5
7E78
330
7E76
100
AcDbEntity
  8
0
100
AcDbBlockEnd
  0
BLOCK
  5
7E83
330
7E82
100
AcDbEntity
  8
0
100
AcDbBlockBegin
  2
*D59
 70
     1
 10
0.0
 20
0.0
 30
0.0
  3
*D59
  1
*D61
  0
LINE
  5
7E85
330
7E82
100
AcDbEntity
  8
DIM
 62
     0
370
    -2
100
AcDbLine
 10
152.5573692881189
 20
862.7181395512467
 30
0.0
 11
152.5573692881189
 21
902.2227579985359
 31
0.0
  0
LINE
  5
7E86
330
7E82
100
AcDbEntity
  8
DIM
 62
     0
370
    -2
100
AcDbLine
 10
252.5573692881189
 20
862.7181395512467
 30
0.0
 11
252.5573692881189
 21
902.2227579985359
 31
0.0
  0
LINE
  5
7E87
330
7E82
100
AcDbEntity
  8
DIM
 62
     0
370
    -2
100
AcDbLine
 10
154.5573692881189
 20
902.2227579985359
 30
0.0
 11
250.5573692881189
 21
902.2227579985359
 31
0.0
  0
INSERT
  5
7E88
330
7E82
100
AcDbEntity
  8
DIM
 62
     0
370
    -2
100
AcDbBlockReference
  2
_DOT
 10
152.5573692881189
 20
902.2227579985359
 30
0.0
 41
2.0
 42
2.0
 43
2.0
 50
180.0
  0
INSERT
  5
7E89
330
7E82
100
AcDbEntity
  8
DIM
 62
     0
370
    -2
100
AcDbBlockReference
  2
_DOT
 10
252.5573692881189
 20
902.2227579985359
 30
0.0
 41
2.0
 42
2.0
 43
2.0
  0
MTEXT
  5
7E8A
330
7E82
100
AcDbEntity
  8
DIM
 62
     0
370
     0
100
AcDbMText
 10
202.5573692881189
 20
916.7227579985359
 30
0.0
 40
9.0
 41
0.0
 46
0.0
 71
     5
 72
     1
  1
\A1;100
  7
ＭＳ ゴシック
 73
     1
 44
1.0
  0
POINT
  5
7E8B
330
7E82
100
AcDbEntity
  8
Defpoints
 62
     0
100
AcDbPoint
 10
152.5573692881189
 20
852.7181395512467
 30
0.0
  0
POINT
  5
7E8C
330
7E82
100
AcDbEntity
  8
Defpoints
 62
     0
100
AcDbPoint
 10
252.5573692881189
 20
852.7181395512467
 30
0.0
  0
POINT
  5
7E8D
330
7E82
100
AcDbEntity
  8
Defpoints
 62
     0
100
AcDbPoint
 10
252.5573692881189
 20
902.2227579985359
 30
0.0
  0
ENDBLK
  5
7E84
330
7E82
100
AcDbEntity
  8
0
100
AcDbBlockEnd
  0
BLOCK
  5
7E8F
330
7E8E
100
AcDbEntity
  8
0
100
AcDbBlockBegin
  2
*D60
 70
     1
 10
0.0
 20
0.0
 30
0.0
  3
*D60
  1
*D62
  0
LINE
  5
7E91
330
7E8E
100
AcDbEntity
  8
DIM
 62
     0
370
    -2
100
AcDbLine
 10
920.6184093654849
 20
794.0447930587967
 30
0.0
 11
920.6184093654849
 21
842.5793954170678
 31
0.0
  0
LINE
  5
7E92
330
7E8E
100
AcDbEntity
  8
DIM
 62
     0
370
    -2
100
AcDbLine
 10
985.6184093654849
 20
794.0447930587967
 30
0.0
 11
985.6184093654849
 21
842.5793954170678
 31
0.0
  0
LINE
  5
7E93
330
7E8E
100
AcDbEntity
  8
DIM
 62
     0
370
    -2
100
AcDbLine
 10
920.6184093654849
 20
842.5793954170678
 30
0.0
 11
865.0386058184181
 21
842.5793954170678
 31
0.0
  0
LINE
  5
7E94
330
7E8E
100
AcDbEntity
  8
DIM
 62
     0
370
    -2
100
AcDbLine
 10
918.6184093654849
 20
842.5793954170678
 30
0.0
 11
916.6184093654849
 21
842.5793954170678
 31
0.0
  0
LINE
  5
7E95
330
7E8E
100
AcDbEntity
  8
DIM
 62
     0
370
    -2
100
AcDbLine
 10
987.6184093654849
 20
842.5793954170678
 30
0.0
 11
989.6184093654849
 21
842.5793954170678
 31
0.0
  0
INSERT
  5
7E96
330
7E8E
100
AcDbEntity
  8
DIM
 62
     0
370
    -2
100
AcDbBlockReference
  2
_DOT
 10
920.6184093654849
 20
842.5793954170678
 30
0.0
 41
2.0
 42
2.0
 43
2.0
  0
INSERT
  5
7E97
330
7E8E
100
AcDbEntity
  8
DIM
 62
     0
370
    -2
100
AcDbBlockReference
  2
_DOT
 10
985.6184093654849
 20
842.5793954170678
 30
0.0
 41
2.0
 42
2.0
 43
2.0
 50
180.0
  0
MTEXT
  5
7E98
330
7E8E
100
AcDbEntity
  8
DIM
 62
     0
370
     0
100
AcDbMText
 10
881.4506058184181
 20
856.3418954170678
 30
0.0
 40
7.0
 41
0.0
 46
0.0
 71
     5
 72
     1
  1
\A1;%%c65
  7
ＭＳ ゴシック
 73
     1
 44
1.0
  0
POINT
  5
7E99
330
7E8E
100
AcDbEntity
  8
Defpoints
 62
     0
100
AcDbPoint
 10
920.6184093654849
 20
789.0447930587967
 30
0.0
  0
POINT
  5
7E9A
330
7E8E
100
AcDbEntity
  8
Defpoints
 62
     0
100
AcDbPoint
 10
985.6184093654849
 20
789.0447930587967
 30
0.0
  0
POINT
  5
7E9B
330
7E8E
100
AcDbEntity
  8
Defpoints
 62
     0
100
AcDbPoint
 10
985.6184093654849
 20
842.5793954170678
 30
0.0
  0
ENDBLK
  5
7E90
330
7E8E
100
AcDbEntity
  8
0
100
AcDbBlockEnd
  0
BLOCK
  5
7E9D
330
7E9C
100
AcDbEntity
  8
0
100
AcDbBlockBegin
  2
*D61
 70
     1
 10
0.0
 20
0.0
 30
0.0
  3
*D61
  1
*D63
  0
LINE
  5
7E9F
330
7E9C
100
AcDbEntity
  8
DIM
 62
     0
370
    -2
100
AcDbLine
 10
795.6182776331166
 20
778.8477424916529
 30
0.0
 11
795.6182776331166
 21
911.9147789952316
 31
0.0
  0
LINE
  5
7EA0
330
7E9C
100
AcDbEntity
  8
DIM
 62
     0
370
    -2
100
AcDbLine
 10
1110.618277633117
 20
778.8477424916529
 30
0.0
 11
1110.618277633117
 21
911.9147789952316
 31
0.0
  0
LINE
  5
7EA1
330
7E9C
100
AcDbEntity
  8
DIM
 62
     0
370
    -2
100
AcDbLine
 10
797.6182776331166
 20
911.9147789952316
 30
0.0
 11
1108.618277633117
 21
911.9147789952316
 31
0.0
  0
INSERT
  5
7EA2
330
7E9C
100
AcDbEntity
  8
DIM
 62
     0
370
    -2
100
AcDbBlockReference
  2
_DOT
 10
795.6182776331166
 20
911.9147789952316
 30
0.0
 41
2.0
 42
2.0
 43
2.0
 50
180.0
  0
INSERT
  5
7EA3
330
7E9C
100
AcDbEntity
  8
DIM
 62
     0
370
    -2
100
AcDbBlockReference
  2
_DOT
 10
1110.618277633117
 20
911.9147789952316
 30
0.0
 41
2.0
 42
2.0
 43
2.0
  0
MTEXT
  5
7EA4
330
7E9C
100
AcDbEntity
  8
DIM
 62
     0
370
     0
100
AcDbMText
 10
953.1182776331166
 20
925.4147789952316
 30
0.0
 40
7.0
 41
0.0
 46
0.0
 71
     5
 72
     1
  1
\A1;315
  7
ＭＳ ゴシック
 73
     1
 44
1.0
  0
POINT
  5
7EA5
330
7E9C
100
AcDbEntity
  8
Defpoints
 62
     0
100
AcDbPoint
 10
795.6182776331166
 20
773.8477424916529
 30
0.0
  0
POINT
  5
7EA6
330
7E9C
100
AcDbEntity
  8
Defpoints
 62
     0
100
AcDbPoint
 10
1110.618277633117
 20
773.8477424916529
 30
0.0
  0
POINT
  5
7EA7
330
7E9C
100
AcDbEntity
  8
Defpoints
 62
     0
100
AcDbPoint
 10
1110.618277633117
 20
911.9147789952316
 30
0.0
  0
ENDBLK
  5
7E9E
330
7E9C
100
AcDbEntity
  8
0
100
AcDbBlockEnd
  0
BLOCK
  5
7EA9
330
7EA8
100
AcDbEntity
  8
0
100
AcDbBlockBegin
  2
*D62
 70
     1
 10
0.0
 20
0.0
 30
0.0
  3
*D62
  1
*D64
  0
LINE
  5
7EAB
330
7EA8
100
AcDbEntity
  8
DIM
 62
     0
370
    -2
100
AcDbLine
 10
865.724788521466
 20
743.5593029715495
 30
0.0
 11
865.724788521466
 21
703.0553124292711
 31
0.0
  0
LINE
  5
7EAC
330
7EA8
100
AcDbEntity
  8
DIM
 62
     0
370
    -2
100
AcDbLine
 10
841.8906068672482
 20
744.6868933284246
 30
0.0
 11
841.8906068672482
 21
703.0553124292711
 31
0.0
  0
LINE
  5
7EAD
330
7EA8
100
AcDbEntity
  8
DIM
 62
     0
370
    -2
100
AcDbLine
 10
841.8906068672482
 20
703.0553124292711
 30
0.0
 11
773.8514591682004
 21
703.0553124292711
 31
0.0
  0
LINE
  5
7EAE
330
7EA8
100
AcDbEntity
  8
DIM
 62
     0
370
    -2
100
AcDbLine
 10
867.724788521466
 20
703.0553124292711
 30
0.0
 11
869.724788521466
 21
703.0553124292711
 31
0.0
  0
LINE
  5
7EAF
330
7EA8
100
AcDbEntity
  8
DIM
 62
     0
370
    -2
100
AcDbLine
 10
839.8906068672482
 20
703.0553124292711
 30
0.0
 11
837.8906068672482
 21
703.0553124292711
 31
0.0
  0
INSERT
  5
7EB0
330
7EA8
100
AcDbEntity
  8
DIM
 62
     0
370
    -2
100
AcDbBlockReference
  2
_DOT
 10
865.724788521466
 20
703.0553124292711
 30
0.0
 41
2.0
 42
2.0
 43
2.0
 50
180.0
  0
INSERT
  5
7EB1
330
7EA8
100
AcDbEntity
  8
DIM
 62
     0
370
    -2
100
AcDbBlockReference
  2
_DOT
 10
841.8906068672482
 20
703.0553124292711
 30
0.0
 41
2.0
 42
2.0
 43
2.0
  0
MTEXT
  5
7EB2
330
7EA8
100
AcDbEntity
  8
DIM
 62
     0
370
     0
100
AcDbMText
 10
794.7959591682004
 20
717.3008124292711
 30
0.0
 40
7.0
 41
0.0
 46
0.0
 71
     5
 72
     1
  1
\A1;G 1/2
  7
ＭＳ ゴシック
 73
     1
 44
1.0
  0
POINT
  5
7EB3
330
7EA8
100
AcDbEntity
  8
Defpoints
 62
     0
100
AcDbPoint
 10
865.724788521466
 20
748.5593029715495
 30
0.0
  0
POINT
  5
7EB4
330
7EA8
100
AcDbEntity
  8
Defpoints
 62
     0
100
AcDbPoint
 10
841.8906068672482
 20
749.6868933284246
 30
0.0
  0
POINT
  5
7EB5
330
7EA8
100
AcDbEntity
  8
Defpoints
 62
     0
100
AcDbPoint
 10
841.8906068672482
 20
703.0553124292711
 30
0.0
  0
ENDBLK
  5
7EAA
330
7EA8
100
AcDbEntity
  8
0
100
AcDbBlockEnd
  0
BLOCK
  5
7EB7
330
7EB6
100
AcDbEntity
  8
0
100
AcDbBlockBegin
  2
*D63
 70
     1
 10
0.0
 20
0.0
 30
0.0
  3
*D63
  1
*D65
  0
LINE
  5
7EB9
330
7EB6
100
AcDbEntity
  8
DIM
 62
     0
370
    -2
100
AcDbLine
 10
802.6182776331166
 20
839.0447577046938
 30
0.0
 11
774.7550002113089
 21
839.0447577046938
 31
0.0
  0
LINE
  5
7EBA
330
7EB6
100
AcDbEntity
  8
DIM
 62
     0
370
    -2
100
AcDbLine
 10
802.6182776331166
 20
739.0447577046938
 30
0.0
 11
774.7550002113089
 21
739.0447577046938
 31
0.0
  0
LINE
  5
7EBB
330
7EB6
100
AcDbEntity
  8
DIM
 62
     0
370
    -2
100
AcDbLine
 10
774.7550002113089
 20
837.0447577046938
 30
0.0
 11
774.7550002113089
 21
741.0447577046938
 31
0.0
  0
INSERT
  5
7EBC
330
7EB6
100
AcDbEntity
  8
DIM
 62
     0
370
    -2
100
AcDbBlockReference
  2
_DOT
 10
774.7550002113089
 20
839.0447577046938
 30
0.0
 41
2.0
 42
2.0
 43
2.0
 50
90.0
  0
INSERT
  5
7EBD
330
7EB6
100
AcDbEntity
  8
DIM
 62
     0
370
    -2
100
AcDbBlockReference
  2
_DOT
 10
774.7550002113089
 20
739.0447577046938
 30
0.0
 41
2.0
 42
2.0
 43
2.0
 50
270.0
  0
MTEXT
  5
7EBE
330
7EB6
100
AcDbEntity
  8
DIM
 62
     0
370
     0
100
AcDbMText
 10
761.2550002113089
 20
789.0447577046938
 30
0.0
 40
7.0
 41
0.0
 46
0.0
 71
     5
 72
     1
  1
\A1;100
  7
ＭＳ ゴシック
 11
0.0
 21
1.0
 31
0.0
 73
     1
 44
1.0
  0
POINT
  5
7EBF
330
7EB6
100
AcDbEntity
  8
Defpoints
 62
     0
100
AcDbPoint
 10
807.6182776331166
 20
839.0447577046938
 30
0.0
  0
POINT
  5
7EC0
330
7EB6
100
AcDbEntity
  8
Defpoints
 62
     0
100
AcDbPoint
 10
807.6182776331166
 20
739.0447577046938
 30
0.0
  0
POINT
  5
7EC1
330
7EB6
100
AcDbEntity
  8
Defpoints
 62
     0
100
AcDbPoint
 10
774.7550002113089
 20
739.0447577046938
 30
0.0
  0
ENDBLK
  5
7EB8
330
7EB6
100
AcDbEntity
  8
0
100
AcDbBlockEnd
  0
BLOCK
  5
7EC3
330
7EC2
100
AcDbEntity
  8
0
100
AcDbBlockBegin
  2
*D64
 70
     1
 10
0.0
 20
0.0
 30
0.0
  3
*D64
  1
*D66
  0
LINE
  5
7EC5
330
7EC2
100
AcDbEntity
  8
DIM
 62
     0
370
    -2
100
AcDbLine
 10
1065.618119299647
 20
741.6708843278692
 30
0.0
 11
1065.618119299647
 21
705.516980118024
 31
0.0
  0
LINE
  5
7EC6
330
7EC2
100
AcDbEntity
  8
DIM
 62
     0
370
    -2
100
AcDbLine
 10
1040.9349583644
 20
741.3340046488573
 30
0.0
 11
1040.9349583644
 21
705.516980118024
 31
0.0
  0
LINE
  5
7EC7
330
7EC2
100
AcDbEntity
  8
DIM
 62
     0
370
    -2
100
AcDbLine
 10
1065.618119299647
 20
705.516980118024
 30
0.0
 11
1132.844723297145
 21
705.516980118024
 31
0.0
  0
LINE
  5
7EC8
330
7EC2
100
AcDbEntity
  8
DIM
 62
     0
370
    -2
100
AcDbLine
 10
1067.618119299647
 20
705.516980118024
 30
0.0
 11
1069.618119299647
 21
705.516980118024
 31
0.0
  0
LINE
  5
7EC9
330
7EC2
100
AcDbEntity
  8
DIM
 62
     0
370
    -2
100
AcDbLine
 10
1038.9349583644
 20
705.516980118024
 30
0.0
 11
1036.9349583644
 21
705.516980118024
 31
0.0
  0
INSERT
  5
7ECA
330
7EC2
100
AcDbEntity
  8
DIM
 62
     0
370
    -2
100
AcDbBlockReference
  2
_DOT
 10
1065.618119299647
 20
705.516980118024
 30
0.0
 41
2.0
 42
2.0
 43
2.0
 50
180.0
  0
INSERT
  5
7ECB
330
7EC2
100
AcDbEntity
  8
DIM
 62
     0
370
    -2
100
AcDbBlockReference
  2
_DOT
 10
1040.9349583644
 20
705.516980118024
 30
0.0
 41
2.0
 42
2.0
 43
2.0
  0
MTEXT
  5
7ECC
330
7EC2
100
AcDbEntity
  8
DIM
 62
     0
370
     0
100
AcDbMText
 10
1111.900223297145
 20
719.762480118024
 30
0.0
 40
7.0
 41
0.0
 46
0.0
 71
     5
 72
     1
  1
\A1;G 1/2
  7
ＭＳ ゴシック
 73
     1
 44
1.0
  0
POINT
  5
7ECD
330
7EC2
100
AcDbEntity
  8
Defpoints
 62
     0
100
AcDbPoint
 10
1065.618119299647
 20
746.6708843278692
 30
0.0
  0
POINT
  5
7ECE
330
7EC2
100
AcDbEntity
  8
Defpoints
 62
     0
100
AcDbPoint
 10
1040.9349583644
 20
746.3340046488573
 30
0.0
  0
POINT
  5
7ECF
330
7EC2
100
AcDbEntity
  8
Defpoints
 62
     0
100
AcDbPoint
 10
1040.9349583644
 20
705.516980118024
 30
0.0
  0
ENDBLK
  5
7EC4
330
7EC2
100
AcDbEntity
  8
0
100
AcDbBlockEnd
  0
BLOCK
  5
7ED1
330
7ED0
100
AcDbEntity
  8
0
100
AcDbBlockBegin
  2
*D65
 70
     1
 10
0.0
 20
0.0
 30
0.0
  3
*D65
  1
*D67
  0
LINE
  5
7ED3
330
7ED0
100
AcDbEntity
  8
DIM
 62
     0
370
    -2
100
AcDbLine
 10
481.5863634755369
 20
467.8180301294394
 30
0.0
 11
481.5863634755369
 21
513.493707396952
 31
0.0
  0
LINE
  5
7ED4
330
7ED0
100
AcDbEntity
  8
DIM
 62
     0
370
    -2
100
AcDbLine
 10
454.5820508721013
 20
487.8180301294394
 30
0.0
 11
454.5820508721013
 21
513.493707396952
 31
0.0
  0
LINE
  5
7ED5
330
7ED0
100
AcDbEntity
  8
DIM
 62
     0
370
    -2
100
AcDbLine
 10
479.5863634755369
 20
513.493707396952
 30
0.0
 11
456.5820508721013
 21
513.493707396952
 31
0.0
  0
INSERT
  5
7ED6
330
7ED0
100
AcDbEntity
  8
DIM
 62
     0
370
    -2
100
AcDbBlockReference
  2
_DOT
 10
481.5863634755369
 20
513.493707396952
 30
0.0
 41
2.0
 42
2.0
 43
2.0
  0
INSERT
  5
7ED7
330
7ED0
100
AcDbEntity
  8
DIM
 62
     0
370
    -2
100
AcDbBlockReference
  2
_DOT
 10
454.5820508721013
 20
513.493707396952
 30
0.0
 41
2.0
 42
2.0
 43
2.0
 50
180.0
  0
MTEXT
  5
7ED8
330
7ED0
100
AcDbEntity
  8
DIM
 62
     0
370
     0
100
AcDbMText
 10
468.0842071738193
 20
527.993707396952
 30
0.0
 40
9.0
 41
0.0
 46
0.0
 71
     5
 72
     1
  1
\A1;27
  7
ＭＳ ゴシック
 73
     1
 44
1.0
  0
POINT
  5
7ED9
330
7ED0
100
AcDbEntity
  8
Defpoints
 62
     0
100
AcDbPoint
 10
481.5863634755369
 20
457.8180301294394
 30
0.0
  0
POINT
  5
7EDA
330
7ED0
100
AcDbEntity
  8
Defpoints
 62
     0
100
AcDbPoint
 10
454.5820508721013
 20
477.8180301294394
 30
0.0
  0
POINT
  5
7EDB
330
7ED0
100
AcDbEntity
  8
Defpoints
 62
     0
100
AcDbPoint
 10
454.5820508721013
 20
513.493707396952
 30
0.0
  0
ENDBLK
  5
7ED2
330
7ED0
100
AcDbEntity
  8
0
100
AcDbBlockEnd
  0
BLOCK
  5
7EDD
330
7EDC
100
AcDbEntity
  8
0
100
AcDbBlockBegin
  2
*D66
 70
     1
 10
0.0
 20
0.0
 30
0.0
  3
*D66
  1
*D68
  0
LINE
  5
7EDF
330
7EDC
100
AcDbEntity
  8
DIM
 62
     0
370
    -2
100
AcDbLine
 10
1229.341324329541
 20
787.0447648475391
 30
0.0
 11
1229.341324329541
 21
699.4220411427726
 31
0.0
  0
LINE
  5
7EE0
330
7EDC
100
AcDbEntity
  8
DIM
 62
     0
370
    -2
100
AcDbLine
 10
1271.841322369427
 20
755.0447700433034
 30
0.0
 11
1271.841322369427
 21
699.4220411427726
 31
0.0
  0
LINE
  5
7EE1
330
7EDC
100
AcDbEntity
  8
DIM
 62
     0
370
    -2
100
AcDbLine
 10
1231.341324329541
 20
699.4220411427726
 30
0.0
 11
1269.841322369427
 21
699.4220411427726
 31
0.0
  0
INSERT
  5
7EE2
330
7EDC
100
AcDbEntity
  8
DIM
 62
     0
370
    -2
100
AcDbBlockReference
  2
_DOT
 10
1229.341324329541
 20
699.4220411427726
 30
0.0
 41
2.0
 42
2.0
 43
2.0
 50
180.0
  0
INSERT
  5
7EE3
330
7EDC
100
AcDbEntity
  8
DIM
 62
     0
370
    -2
100
AcDbBlockReference
  2
_DOT
 10
1271.841322369427
 20
699.4220411427726
 30
0.0
 41
2.0
 42
2.0
 43
2.0
  0
MTEXT
  5
7EE4
330
7EDC
100
AcDbEntity
  8
DIM
 62
     0
370
     0
100
AcDbMText
 10
1250.591323349484
 20
712.9220411427726
 30
0.0
 40
7.0
 41
0.0
 46
0.0
 71
     5
 72
     1
  1
\A1;42-62
  7
ＭＳ ゴシック
 73
     1
 44
1.0
  0
POINT
  5
7EE5
330
7EDC
100
AcDbEntity
  8
Defpoints
 62
     0
100
AcDbPoint
 10
1229.341324329541
 20
792.0447648475391
 30
0.0
  0
POINT
  5
7EE6
330
7EDC
100
AcDbEntity
  8
Defpoints
 62
     0
100
AcDbPoint
 10
1271.841322369427
 20
760.0447700433034
 30
0.0
  0
POINT
  5
7EE7
330
7EDC
100
AcDbEntity
  8
Defpoints
 62
     0
100
AcDbPoint
 10
1271.841322369427
 20
699.4220411427726
 30
0.0
  0
ENDBLK
  5
7EDE
330
7EDC
100
AcDbEntity
  8
0
100
AcDbBlockEnd
  0
BLOCK
  5
7EE9
330
7EE8
100
AcDbEntity
  8
0
100
AcDbBlockBegin
  2
*D67
 70
     1
 10
0.0
 20
0.0
 30
0.0
  3
*D67
  1
*D69
  0
LINE
  5
7EEB
330
7EE8
100
AcDbEntity
  8
DIM
 62
     0
370
    -2
100
AcDbLine
 10
1308.442697055562
 20
821.5447671487888
 30
0.0
 11
1338.159667957137
 21
821.5447671487888
 31
0.0
  0
LINE
  5
7EEC
330
7EE8
100
AcDbEntity
  8
DIM
 62
     0
370
    -2
100
AcDbLine
 10
1308.442692662201
 20
756.5447671487885
 30
0.0
 11
1338.159667957137
 21
756.5447671487885
 31
0.0
  0
LINE
  5
7EED
330
7EE8
100
AcDbEntity
  8
DIM
 62
     0
370
    -2
100
AcDbLine
 10
1338.159667957137
 20
821.5447671487888
 30
0.0
 11
1338.159667957137
 21
877.1245706958558
 31
0.0
  0
LINE
  5
7EEE
330
7EE8
100
AcDbEntity
  8
DIM
 62
     0
370
    -2
100
AcDbLine
 10
1338.159667957137
 20
823.5447671487888
 30
0.0
 11
1338.159667957137
 21
825.5447671487888
 31
0.0
  0
LINE
  5
7EEF
330
7EE8
100
AcDbEntity
  8
DIM
 62
     0
370
    -2
100
AcDbLine
 10
1338.159667957137
 20
754.5447671487885
 30
0.0
 11
1338.159667957137
 21
752.5447671487885
 31
0.0
  0
INSERT
  5
7EF0
330
7EE8
100
AcDbEntity
  8
DIM
 62
     0
370
    -2
100
AcDbBlockReference
  2
_DOT
 10
1338.159667957137
 20
821.5447671487888
 30
0.0
 41
2.0
 42
2.0
 43
2.0
 50
270.0
  0
INSERT
  5
7EF1
330
7EE8
100
AcDbEntity
  8
DIM
 62
     0
370
    -2
100
AcDbBlockReference
  2
_DOT
 10
1338.159667957137
 20
756.5447671487885
 30
0.0
 41
2.0
 42
2.0
 43
2.0
 50
90.0
  0
MTEXT
  5
7EF2
330
7EE8
100
AcDbEntity
  8
DIM
 62
     0
370
     0
100
AcDbMText
 10
1324.397167957137
 20
860.7125706958558
 30
0.0
 40
7.0
 41
0.0
 46
0.0
 71
     5
 72
     1
  1
\A1;Ø65
  7
ＭＳ ゴシック
 11
0.0
 21
1.0
 31
0.0
 73
     1
 44
1.0
  0
POINT
  5
7EF3
330
7EE8
100
AcDbEntity
  8
Defpoints
 62
     0
100
AcDbPoint
 10
1303.442697055562
 20
821.5447671487888
 30
0.0
  0
POINT
  5
7EF4
330
7EE8
100
AcDbEntity
  8
Defpoints
 62
     0
100
AcDbPoint
 10
1303.442692662201
 20
756.5447671487885
 30
0.0
  0
POINT
  5
7EF5
330
7EE8
100
AcDbEntity
  8
Defpoints
 62
     0
100
AcDbPoint
 10
1338.159667957137
 20
756.5447671487885
 30
0.0
  0
ENDBLK
  5
7EEA
330
7EE8
100
AcDbEntity
  8
0
100
AcDbBlockEnd
  0
BLOCK
  5
7F32
330
7F31
100
AcDbEntity
  8
0
100
AcDbBlockBegin
  2
*D68
 70
     1
 10
0.0
 20
0.0
 30
0.0
  3
*D68
  1
*D71
  0
LINE
  5
7F34
330
7F31
100
AcDbEntity
  8
DIM
 62
     0
370
    -2
100
AcDbLine
 10
1446.727074699568
 20
396.3913700027105
 30
0.0
 11
1534.437030014638
 21
396.3913700027105
 31
0.0
  0
LINE
  5
7F35
330
7F31
100
AcDbEntity
  8
DIM
 62
     0
370
    -2
100
AcDbLine
 10
1496.727070475185
 20
333.8913666232024
 30
0.0
 11
1534.437030014638
 21
333.8913666232024
 31
0.0
  0
LINE
  5
7F36
330
7F31
100
AcDbEntity
  8
DIM
 62
     0
370
    -2
100
AcDbLine
 10
1534.437030014638
 20
394.3913700027105
 30
0.0
 11
1534.437030014638
 21
335.8913666232024
 31
0.0
  0
INSERT
  5
7F37
330
7F31
100
AcDbEntity
  8
DIM
 62
     0
370
    -2
100
AcDbBlockReference
  2
_DOT
 10
1534.437030014638
 20
396.3913700027105
 30
0.0
 41
2.0
 42
2.0
 43
2.0
 50
90.0
  0
INSERT
  5
7F38
330
7F31
100
AcDbEntity
  8
DIM
 62
     0
370
    -2
100
AcDbBlockReference
  2
_DOT
 10
1534.437030014638
 20
333.8913666232024
 30
0.0
 41
2.0
 42
2.0
 43
2.0
 50
270.0
  0
MTEXT
  5
7F39
330
7F31
100
AcDbEntity
  8
DIM
 62
     0
100
AcDbMText
 10
1520.937030014638
 20
365.1413683129564
 30
0.0
 40
7.0
 41
0.0
 46
0.0
 71
     5
 72
     1
  1
\A1;63
  7
ＭＳ ゴシック
 11
0.0
 21
1.0
 31
0.0
 73
     1
 44
1.0
  0
POINT
  5
7F3A
330
7F31
100
AcDbEntity
  8
Defpoints
 62
     0
100
AcDbPoint
 10
1441.727074699568
 20
396.3913700027105
 30
0.0
  0
POINT
  5
7F3B
330
7F31
100
AcDbEntity
  8
Defpoints
 62
     0
100
AcDbPoint
 10
1491.727070475185
 20
333.8913666232024
 30
0.0
  0
POINT
  5
7F3C
330
7F31
100
AcDbEntity
  8
Defpoints
 62
     0
100
AcDbPoint
 10
1534.437030014638
 20
333.8913666232024
 30
0.0
  0
ENDBLK
  5
7F33
330
7F31
100
AcDbEntity
  8
0
100
AcDbBlockEnd
  0
BLOCK
  5
7FD3
330
7FD2
100
AcDbEntity
  8
0
100
AcDbBlockBegin
  2
*D69
 70
     1
 10
0.0
 20
0.0
 30
0.0
  3
*D69
  1
*D74
  0
LINE
  5
7FD5
330
7FD2
100
AcDbEntity
  8
DIM
 62
     0
370
    -2
100
AcDbLine
 10
703.9721177030942
 20
819.608438251968
 30
0.0
 11
769.6820730181644
 21
819.608438251968
 31
0.0
  0
LINE
  5
7FD6
330
7FD2
100
AcDbEntity
  8
DIM
 62
     0
370
    -2
100
AcDbLine
 10
753.9721134787105
 20
757.10843487246
 30
0.0
 11
769.6820730181644
 21
757.10843487246
 31
0.0
  0
LINE
  5
7FD7
330
7FD2
100
AcDbEntity
  8
DIM
 62
     0
370
    -2
100
AcDbLine
 10
769.6820730181644
 20
817.608438251968
 30
0.0
 11
769.6820730181644
 21
759.10843487246
 31
0.0
  0
INSERT
  5
7FD8
330
7FD2
100
AcDbEntity
  8
DIM
 62
     0
370
    -2
100
AcDbBlockReference
  2
_DOT
 10
769.6820730181644
 20
819.608438251968
 30
0.0
 41
2.0
 42
2.0
 43
2.0
 50
90.0
  0
INSERT
  5
7FD9
330
7FD2
100
AcDbEntity
  8
DIM
 62
     0
370
    -2
100
AcDbBlockReference
  2
_DOT
 10
769.6820730181644
 20
757.10843487246
 30
0.0
 41
2.0
 42
2.0
 43
2.0
 50
270.0
  0
MTEXT
  5
7FDA
330
7FD2
100
AcDbEntity
  8
DIM
 62
     0
100
AcDbMText
 10
755.1820730181644
 20
788.3584365622139
 30
0.0
 40
9.0
 41
0.0
 46
0.0
 71
     5
 72
     1
  1
\A1;63
  7
ＭＳ ゴシック
 11
0.0
 21
1.0
 31
0.0
 73
     1
 44
1.0
  0
POINT
  5
7FDB
330
7FD2
100
AcDbEntity
  8
Defpoints
 62
     0
100
AcDbPoint
 10
693.9721177030942
 20
819.608438251968
 30
0.0
  0
POINT
  5
7FDC
330
7FD2
100
AcDbEntity
  8
Defpoints
 62
     0
100
AcDbPoint
 10
743.9721134787105
 20
757.10843487246
 30
0.0
  0
POINT
  5
7FDD
330
7FD2
100
AcDbEntity
  8
Defpoints
 62
     0
100
AcDbPoint
 10
769.6820730181644
 20
757.10843487246
 30
0.0
  0
ENDBLK
  5
7FD4
330
7FD2
100
AcDbEntity
  8
0
100
AcDbBlockEnd
  0
ENDSEC
  0
SECTION
  2
ENTITIES
  0
MTEXT
  5
177
330
A
100
AcDbEntity
  8
MODEL
390
1D
100
AcDbMText
 10
31.6808578190923
 20
137.4927006525713
 30
0.0
 40
6.515364583333332
 41
0.0
 46
0.0
 71
     1
 72
     1
  1
品名
  7
ＭＳ ゴシック
 73
     1
 44
0.7828267384257843
  0
MTEXT
  5
178
330
A
100
AcDbEntity
  8
MODEL
390
1D
100
AcDbMText
 10
31.6808578190923
 20
103.4927006525712
 30
0.0
 40
6.515364583333332
 41
0.0
 46
0.0
 71
     1
 72
     1
  1
仕様
  7
ＭＳ ゴシック
 73
     1
 44
0.7828267384257843
  0
LINE
  5
179
330
A
100
AcDbEntity
  8
MODEL
390
1D
100
AcDbLine
 10
808.8808578188996
 20
106.8586694025714
 30
0.0
 11
28.88085781889949
 21
106.8586694025714
 31
0.0
  0
LWPOLYLINE
  5
17A
330
A
100
AcDbEntity
  8
MODEL
390
1D
100
AcDbPolyline
 90
        5
 70
   128
 43
0.0
 10
808.8808578188996
 20
1158.858669402571
 10
28.88085781889949
 20
1158.858669402571
 10
28.88085781889949
 20
38.85866940257129
 10
808.8808578188996
 20
38.85866940257129
 10
808.8808578188996
 20
1158.858669402571
  0
LINE
  5
17B
330
A
100
AcDbEntity
  8
MODEL
390
1D
100
AcDbLine
 10
808.8808578188996
 20
140.8586694025713
 30
0.0
 11
28.88085781889949
 21
140.8586694025713
 31
0.0
  0
LINE
  5
17C
330
A
100
AcDbEntity
  8
MODEL
390
1D
100
AcDbLine
 10
808.8808578190924
 20
72.85866940257128
 30
0.0
 11
507.680857819092
 21
72.85866940257128
 31
0.0
  0
MTEXT
  5
17E
330
A
100
AcDbEntity
  8
MODEL
390
1D
100
AcDbMText
 10
519.6294203199964
 20
60.89451161324806
 30
0.0
 40
9.773046875
 41
0.0
 46
0.0
 71
     1
 72
     1
  1
大洋金物株式会社 ティーフォルム事業部
  7
ＭＳ ゴシック
 73
     1
 44
0.7828267384257843
  0
MTEXT
  5
180
330
A
100
AcDbEntity
  8
MODEL
390
1D
100
AcDbMText
 10
732.480857819196
 20
92.05971627757124
 30
0.0
 40
9.773046875
 41
0.0
 46
9.773046875
 71
     1
 72
     1
  1
{1:4}
  7
ＭＳ ゴシック
 73
     1
 44
0.7828267384257843
1001
ACAD
1000
ACAD_MTEXT_DEFINED_HEIGHT_BEGIN
1070
    46
1040
9.773046875
1000
ACAD_MTEXT_DEFINED_HEIGHT_END
  0
MTEXT
  5
181
330
A
100
AcDbEntity
  8
MODEL
390
1D
100
AcDbMText
 10
711.2808578191958
 20
103.4927006525712
 30
0.0
 40
6.515364583333332
 41
0.0
 46
0.0
 71
     1
 72
     1
  1
縮尺
  7
ＭＳ ゴシック
 73
     1
 44
0.7828267384257843
  0
LINE
  5
182
330
A
100
AcDbEntity
  8
MODEL
390
1D
100
AcDbLine
 10
708.480857819196
 20
72.85866940257128
 30
0.0
 11
708.480857819196
 21
106.8586694025714
 31
0.0
  0
MTEXT
  5
183
330
A
100
AcDbEntity
  8
MODEL
390
1D
100
AcDbMText
 10
610.8808578191959
 20
103.4927006525712
 30
0.0
 40
6.515364583333332
 41
0.0
 46
0.0
 71
     1
 72
     1
  1
容量
  7
ＭＳ ゴシック
 73
     1
 44
0.7828267384257843
  0
LINE
  5
184
330
A
100
AcDbEntity
  8
MODEL
390
1D
100
AcDbLine
 10
608.0808578191959
 20
72.85866940257128
 30
0.0
 11
608.0808578191959
 21
106.8586694025714
 31
0.0
  0
MTEXT
  5
185
330
A
100
AcDbEntity
  8
MODEL
390
1D
100
AcDbMText
 10
510.480857819196
 20
137.4927006525713
 30
0.0
 40
6.515364583333332
 41
0.0
 46
0.0
 71
     1
 72
     1
  1
品番
  7
ＭＳ ゴシック
 73
     1
 44
0.7828267384257843
  0
MTEXT
  5
186
330
A
100
AcDbEntity
  8
MODEL
390
1D
100
AcDbMText
 10
510.480857819196
 20
103.4927006525712
 30
0.0
 40
6.515364583333332
 41
0.0
 46
0.0
 71
     1
 72
     1
  1
重量
  7
ＭＳ ゴシック
 73
     1
 44
0.7828267384257843
  0
MTEXT
  5
187
330
A
100
AcDbEntity
  8
MODEL
390
1D
100
AcDbMText
 10
531.680857819196
 20
126.0597162775713
 30
0.0
 40
9.773046875
 41
0.0
 46
7.329785156250001
 71
     1
 72
     1
  1
{AGN73-3611}
  7
ＭＳ ゴシック
 73
     1
 44
0.7828267384257843
1001
ACAD
1000
ACAD_MTEXT_DEFINED_HEIGHT_BEGIN
1070
    46
1040
7.329785156250001
1000
ACAD_MTEXT_DEFINED_HEIGHT_END
  0
LINE
  5
188
330
A
100
AcDbEntity
  8
MODEL
390
1D
100
AcDbLine
 10
507.680857819196
 20
38.85866940257129
 30
0.0
 11
507.680857819196
 21
140.8586694025713
 31
0.0
  0
MTEXT
  5
189
330
A
100
AcDbEntity
  8
MODEL
390
1D
100
AcDbMText
 10
52.88085781909228
 20
126.0597162775713
 30
0.0
 40
9.773046875
 41
0.0
 46
8.260667871093752
 71
     1
 72
     1
  1
{混合栓　- FANTINI,Fukasawa -}
  7
ＭＳ ゴシック
 73
     1
 44
0.7828267384257843
1001
ACAD
1000
ACAD_MTEXT_DEFINED_HEIGHT_BEGIN
1070
    46
1040
8.260667871093752
1000
ACAD_MTEXT_DEFINED_HEIGHT_END
  0
INSERT
  5
6B5
330
A
100
AcDbEntity
  8
MODEL
100
AcDbBlockReference
  2
名称未設定-1
 10
748.30029923538
 20
10.37870630266152
 30
0.0
 41
0.3048
 42
0.3048
 43
0.3048
  0
INSERT
  5
68C
330
A
100
AcDbEntity
  8
TEMPLATE
100
AcDbBlockReference
  2
block 2
 10
3677.09720708103
 20
33.49230605734548
 30
0.0
 41
1.524
 42
1.524
 43
1.524
  0
LWPOLYLINE
  5
19EF
330
A
100
AcDbEntity
  8
PRINT
  6
BORDER
 48
0.05
100
AcDbPolyline
 90
        4
 70
     1
 43
0.0
 10
0.0
 20
0.0
 10
0.0
 20
1188.0
 10
840.0000000000001
 20
1188.0
 10
840.0000000000001
 20
0.0
  0
MTEXT
  5
1A9D
330
A
100
AcDbEntity
  8
MODEL
390
1D
100
AcDbMText
 10
52.49908775216074
 20
93.03439131132407
 30
0.0
 40
9.773046875
 41
0.0
 46
9.919642578125
 71
     1
 72
     1
  1
{クローム}
  7
ＭＳ ゴシック
 73
     1
 44
0.7828267384257843
1001
ACAD
1000
ACAD_MTEXT_DEFINED_HEIGHT_BEGIN
1070
    46
1040
9.919642578125
1000
ACAD_MTEXT_DEFINED_HEIGHT_END
  0
MTEXT
  5
774A
102
{ACAD_XDICTIONARY
360
774C
102
}
330
A
100
AcDbEntity
  8
MODEL
100
AcDbMText
 10
30.45051911505021
 20
34.8482171585165
 30
0.0
 40
9.333333333333332
 41
0.0
 46
2.5
 71
     1
 72
     1
  1
{20160810N}
  7
ＭＳ ゴシック
 73
     1
 44
1.0
1001
ACAD
1000
ACAD_MTEXT_DEFINED_HEIGHT_BEGIN
1070
    46
1040
2.5
1000
ACAD_MTEXT_DEFINED_HEIGHT_END
  0
ARC
  5
79DA
330
A
100
AcDbEntity
  8
MODEL
100
AcDbCircle
 10
693.9721151684644
 20
389.4550495279332
 30
0.0
 40
25.0
100
AcDbArc
 50
359.9999961275992
 51
89.99999612737051
  0
ARC
  5
79DB
330
A
100
AcDbEntity
  8
MODEL
100
AcDbCircle
 10
693.9721151684644
 20
389.4550495279332
 30
0.0
 40
50.0
100
AcDbArc
 50
359.9999961275992
 51
89.99999612737102
  0
LINE
  5
79DC
330
A
100
AcDbEntity
  8
MODEL
100
AcDbLine
 10
740.7221134686474
 20
364.3061679144298
 30
0.0
 11
722.2221134686474
 21
364.3061691648477
 31
0.0
  0
LINE
  5
79DD
330
A
100
AcDbEntity
  8
MODEL
100
AcDbLine
 10
726.5003072789091
 20
364.2391815775763
 30
0.0
 11
723.6718801035286
 21
364.2391817687499
 31
0.0
  0
LINE
  5
79DE
330
A
100
AcDbEntity
  8
MODEL
100
AcDbLine
 10
743.9721134787101
 20
364.455046148425
 30
0.0
 11
718.9721134787105
 21
364.4550478381789
 31
0.0
  0
LINE
  5
79E0
330
A
100
AcDbEntity
  8
MODEL
100
AcDbLine
 10
743.9721151684644
 20
389.455046148425
 30
0.0
 11
743.9721134787105
 21
364.455046148425
 31
0.0
  0
LINE
  5
79E1
330
A
100
AcDbEntity
  8
MODEL
100
AcDbLine
 10
736.4439198610171
 20
363.2391809054857
 30
0.0
 11
733.4721135582045
 21
363.2391811063508
 31
0.0
  0
LINE
  5
79E2
330
A
100
AcDbEntity
  8
MODEL
100
AcDbLine
 10
740.72211346412
 20
364.2391806163218
 30
0.0
 11
740.7221134686474
 21
364.3061679144298
 31
0.0
  0
ARC
  5
79E3
330
A
100
AcDbEntity
  8
MODEL
100
AcDbCircle
 10
740.472113497915
 20
364.7391806332193
 30
0.0
 40
0.4999999999999982
100
AcDbArc
 50
299.9999961266305
 51
325.3704253312391
  0
LINE
  5
79E4
330
A
100
AcDbEntity
  8
MODEL
100
AcDbLine
 10
739.2723470027199
 20
364.2391807143122
 30
0.0
 11
736.4439199286076
 21
364.2391809054857
 31
0.0
  0
LINE
  5
79E5
330
A
100
AcDbEntity
  8
MODEL
100
AcDbLine
 10
740.72211346412
 20
364.2391806163218
 30
0.0
 11
740.5033094340179
 21
364.2391806311111
 31
0.0
  0
LINE
  5
79E6
330
A
100
AcDbEntity
  8
MODEL
100
AcDbLine
 10
740.5033094340179
 20
364.2391806311111
 30
0.0
 11
740.5033093664274
 21
363.2391806311109
 31
0.0
  0
LINE
  5
79E7
330
A
100
AcDbEntity
  8
MODEL
100
AcDbLine
 10
739.2723469351295
 20
363.2391807143119
 30
0.0
 11
739.2723470027199
 21
364.2391807143122
 31
0.0
  0
LINE
  5
79E8
330
A
100
AcDbEntity
  8
MODEL
100
AcDbLine
 10
736.4439199286076
 20
364.2391809054857
 30
0.0
 11
736.4439198610175
 21
363.2391809054857
 31
0.0
  0
LINE
  5
79E9
330
A
100
AcDbEntity
  8
MODEL
100
AcDbLine
 10
740.5033093664274
 20
363.2391806311109
 30
0.0
 11
739.2723469351295
 21
363.2391807143119
 31
0.0
  0
LINE
  5
79EA
330
A
100
AcDbEntity
  8
MODEL
100
AcDbLine
 10
739.2723469351295
 20
363.2391807143119
 30
0.0
 11
738.7279877609362
 21
363.2391807511053
 31
0.0
  0
LINE
  5
79EB
330
A
100
AcDbEntity
  8
MODEL
100
AcDbLine
 10
738.7279877609362
 20
363.2391807511053
 30
0.0
 11
738.7279878285262
 21
364.2391807511053
 31
0.0
  0
LINE
  5
79EC
330
A
100
AcDbEntity
  8
MODEL
100
AcDbLine
 10
733.4721136257945
 20
364.2391811063508
 30
0.0
 11
729.4721136257945
 21
364.2391813767113
 31
0.0
  0
LINE
  5
79ED
330
A
100
AcDbEntity
  8
MODEL
100
AcDbLine
 10
733.4721135582045
 20
363.2391811063508
 30
0.0
 11
733.4721136257945
 21
364.2391811063508
 31
0.0
  0
LINE
  5
79EE
330
A
100
AcDbEntity
  8
MODEL
100
AcDbLine
 10
729.4721136257945
 20
364.2391813767113
 30
0.0
 11
729.4721135582045
 21
363.2391813767113
 31
0.0
  0
LINE
  5
79EF
330
A
100
AcDbEntity
  8
MODEL
100
AcDbLine
 10
726.5003072113186
 20
363.2391815775761
 30
0.0
 11
726.5003072789091
 21
364.2391815775763
 31
0.0
  0
LINE
  5
79F0
330
A
100
AcDbEntity
  8
MODEL
100
AcDbLine
 10
729.4721135582045
 20
363.2391813767113
 30
0.0
 11
726.5003072113186
 21
363.2391815775761
 31
0.0
  0
LINE
  5
79F1
330
A
100
AcDbEntity
  8
MODEL
100
AcDbLine
 10
718.9721151684644
 20
389.4550478381789
 30
0.0
 11
718.9721134787105
 21
364.4550478381789
 31
0.0
  0
LINE
  5
79F2
330
A
100
AcDbEntity
  8
MODEL
100
AcDbLine
 10
722.22211346412
 20
364.2391818667402
 30
0.0
 11
722.2221134686474
 21
364.3061691648477
 31
0.0
  0
ARC
  5
79F3
330
A
100
AcDbEntity
  8
MODEL
100
AcDbCircle
 10
722.472113497915
 20
364.7391818498427
 30
0.0
 40
0.4999999999999982
100
AcDbArc
 50
214.6295669234534
 51
239.9999961281322
  0
LINE
  5
79F4
330
A
100
AcDbEntity
  8
MODEL
100
AcDbLine
 10
722.4409175658293
 20
364.2391818519509
 30
0.0
 11
722.22211346412
 21
364.2391818667402
 31
0.0
  0
LINE
  5
79F5
330
A
100
AcDbEntity
  8
MODEL
100
AcDbLine
 10
722.4409174982393
 20
363.2391818519509
 30
0.0
 11
722.4409175658293
 21
364.2391818519509
 31
0.0
  0
LINE
  5
79F6
330
A
100
AcDbEntity
  8
MODEL
100
AcDbLine
 10
723.6718801035286
 20
364.2391817687499
 30
0.0
 11
723.6718800359386
 21
363.2391817687501
 31
0.0
  0
LINE
  5
79F7
330
A
100
AcDbEntity
  8
MODEL
100
AcDbLine
 10
723.6718800359386
 20
363.2391817687501
 30
0.0
 11
722.4409174982393
 21
363.2391818519511
 31
0.0
  0
LINE
  5
79F8
330
A
100
AcDbEntity
  8
MODEL
100
AcDbLine
 10
724.2162391906418
 20
363.2391817319567
 30
0.0
 11
723.6718800359386
 21
363.2391817687501
 31
0.0
  0
LINE
  5
79F9
330
A
100
AcDbEntity
  8
MODEL
100
AcDbLine
 10
724.2162391906418
 20
363.2391817319567
 30
0.0
 11
724.2162392582322
 21
364.2391817319567
 31
0.0
  0
LINE
  5
79FA
330
A
100
AcDbEntity
  8
MODEL
100
AcDbLine
 10
555.8877346932745
 20
414.4550588610791
 30
0.0
 11
693.9721168582187
 21
414.4550495279332
 31
0.0
  0
LINE
  5
79FB
330
A
100
AcDbEntity
  8
MODEL
100
AcDbLine
 10
555.8877363830284
 20
439.4550588610791
 30
0.0
 11
693.9721185479725
 21
439.4550495279332
 31
0.0
  0
LINE
  5
79FD
330
A
100
AcDbEntity
  8
MODEL
100
AcDbLine
 10
555.6877378624072
 20
426.9550579499764
 30
0.0
 11
555.6877400590879
 21
459.4550579499764
 31
0.0
  0
LINE
  5
79FE
330
A
100
AcDbEntity
  8
MODEL
100
AcDbLine
 10
555.8877378653874
 20
426.9550579364586
 30
0.0
 11
555.8877400485499
 21
459.2550579334779
 31
0.0
  0
LINE
  5
79FF
330
A
100
AcDbEntity
  8
MODEL
100
AcDbLine
 10
526.8877378653879
 20
426.9550598965734
 30
0.0
 11
526.8877400620681
 21
459.4550598965729
 31
0.0
  0
LINE
  5
7A00
330
A
100
AcDbEntity
  8
MODEL
100
AcDbLine
 10
555.6877356657269
 20
394.4550579499764
 30
0.0
 11
555.6877378624072
 21
426.9550579499764
 31
0.0
  0
LINE
  5
7A01
330
A
100
AcDbEntity
  8
MODEL
100
AcDbLine
 10
555.8877356822254
 20
394.6550579394388
 30
0.0
 11
555.8877378653874
 21
426.9550579364586
 31
0.0
  0
LINE
  5
7A02
330
A
100
AcDbEntity
  8
MODEL
100
AcDbLine
 10
555.8877356822254
 20
394.6550579394388
 30
0.0
 11
555.6877356657269
 21
394.4550579499764
 31
0.0
  0
LINE
  5
7A03
330
A
100
AcDbEntity
  8
MODEL
100
AcDbLine
 10
526.8877356687071
 20
394.4550598965734
 30
0.0
 11
526.8877378653879
 21
426.9550598965734
 31
0.0
  0
LINE
  5
7A04
330
A
100
AcDbEntity
  8
MODEL
100
AcDbLine
 10
524.0863653729525
 20
397.9550608444911
 30
0.0
 11
524.0863692931821
 21
455.9550608444906
 31
0.0
  0
LINE
  5
7A05
330
A
100
AcDbEntity
  8
MODEL
100
AcDbLine
 10
526.8877356687071
 20
394.4550598965734
 30
0.0
 11
555.6877356657269
 21
394.4550579499762
 31
0.0
  0
LINE
  5
7A06
330
A
100
AcDbEntity
  8
MODEL
100
AcDbLine
 10
524.0863653729525
 20
397.9550608444911
 30
0.0
 11
526.8877359052731
 21
397.9550606551456
 31
0.0
  0
LINE
  5
7A07
330
A
100
AcDbEntity
  8
MODEL
100
AcDbLine
 10
524.0863692931821
 20
455.9550608444906
 30
0.0
 11
526.8877398255026
 21
455.9550606551456
 31
0.0
  0
LINE
  5
7A08
330
A
100
AcDbEntity
  8
MODEL
100
AcDbLine
 10
526.8877400620681
 20
459.4550598965732
 30
0.0
 11
555.6877400590879
 21
459.4550579499764
 31
0.0
  0
LINE
  5
7A09
330
A
100
AcDbEntity
  8
MODEL
100
AcDbLine
 10
555.8877400485499
 20
459.2550579334779
 30
0.0
 11
555.6877400590879
 21
459.4550579499764
 31
0.0
  0
LINE
  5
7A0A
330
A
100
AcDbEntity
  8
MODEL
100
AcDbLine
 10
265.057371150499
 20
426.9550724161168
 30
0.0
 11
265.057371150499
 21
389.4550698814855
 31
0.0
  0
LINE
  5
7A0B
330
A
100
AcDbEntity
  8
MODEL
100
AcDbLine
 10
240.057371150499
 20
426.9550724161168
 30
0.0
 11
240.057371150499
 21
389.4550698814855
 31
0.0
  0
LINE
  5
7A0E
330
A
100
AcDbEntity
  8
MODEL
100
AcDbLine
 10
243.3073721183719
 20
364.3061914278223
 30
0.0
 11
261.8073721183719
 21
364.3061914278223
 31
0.0
  0
LINE
  5
7A0F
330
A
100
AcDbEntity
  8
MODEL
100
AcDbLine
 10
260.3576056962875
 20
363.2392041297146
 30
0.0
 11
261.588568104085
 21
363.2392041297146
 31
0.0
  0
LINE
  5
7A10
330
A
100
AcDbEntity
  8
MODEL
100
AcDbLine
 10
240.0573721183578
 20
364.4550698814855
 30
0.0
 11
265.0573721183578
 21
364.4550698814855
 31
0.0
  0
LINE
  5
7A11
330
A
100
AcDbEntity
  8
MODEL
100
AcDbLine
 10
240.0573721183578
 20
389.4550698814855
 30
0.0
 11
265.0573721183578
 21
389.4550698814855
 31
0.0
  0
LINE
  5
7A12
330
A
100
AcDbEntity
  8
MODEL
100
AcDbLine
 10
240.0573721183578
 20
389.4550698814855
 30
0.0
 11
240.0573721183578
 21
364.4550698814855
 31
0.0
  0
LINE
  5
7A13
330
A
100
AcDbEntity
  8
MODEL
100
AcDbLine
 10
247.5855659948434
 20
363.2392041297146
 30
0.0
 11
250.5573723514631
 21
363.2392041297146
 31
0.0
  0
LINE
  5
7A14
330
A
100
AcDbEntity
  8
MODEL
100
AcDbLine
 10
243.5261762358969
 20
363.2392041297146
 30
0.0
 11
244.7571387970966
 21
363.2392041297146
 31
0.0
  0
ARC
  5
7A15
330
A
100
AcDbEntity
  8
MODEL
100
AcDbCircle
 10
243.5573721183719
 20
364.7392041297144
 30
0.0
 40
0.4999999999999982
100
AcDbArc
 50
214.6295707961008
 51
240.0000000007815
  0
LINE
  5
7A16
330
A
100
AcDbEntity
  8
MODEL
100
AcDbLine
 10
243.3073721183719
 20
364.2392041297144
 30
0.0
 11
243.3073721183719
 21
364.3061914278223
 31
0.0
  0
LINE
  5
7A17
330
A
100
AcDbEntity
  8
MODEL
100
AcDbLine
 10
243.3073721183719
 20
364.2392041297144
 30
0.0
 11
243.5261762358969
 21
364.2392041297144
 31
0.0
  0
LINE
  5
7A18
330
A
100
AcDbEntity
  8
MODEL
100
AcDbLine
 10
243.5261762358969
 20
364.2392039945344
 30
0.0
 11
243.5261762358969
 21
363.2392039945344
 31
0.0
  0
LINE
  5
7A19
330
A
100
AcDbEntity
  8
MODEL
100
AcDbLine
 10
244.7571387970966
 20
364.2392041297144
 30
0.0
 11
247.5855659948434
 21
364.2392041297144
 31
0.0
  0
LINE
  5
7A1A
330
A
100
AcDbEntity
  8
MODEL
100
AcDbLine
 10
244.7571387970966
 20
363.2392037936693
 30
0.0
 11
244.7571387970966
 21
364.2392037936693
 31
0.0
  0
LINE
  5
7A1B
330
A
100
AcDbEntity
  8
MODEL
100
AcDbLine
 10
247.5855659948434
 20
364.2392036024958
 30
0.0
 11
247.5855659948434
 21
363.2392036024955
 31
0.0
  0
LINE
  5
7A1C
330
A
100
AcDbEntity
  8
MODEL
100
AcDbLine
 10
244.7571387970966
 20
363.2392037936693
 30
0.0
 11
245.3014979474951
 21
363.2392038304627
 31
0.0
  0
LINE
  5
7A1D
330
A
100
AcDbEntity
  8
MODEL
100
AcDbLine
 10
245.3014979474951
 20
363.2392038304627
 30
0.0
 11
245.3014979474951
 21
364.2392038304629
 31
0.0
  0
LINE
  5
7A1E
330
A
100
AcDbEntity
  8
MODEL
100
AcDbLine
 10
254.5573723514631
 20
363.2392041297146
 30
0.0
 11
257.5291786445418
 21
363.2392041297146
 31
0.0
  0
LINE
  5
7A1F
330
A
100
AcDbEntity
  8
MODEL
100
AcDbLine
 10
250.5573723514631
 20
364.2392041297144
 30
0.0
 11
254.5573723514631
 21
364.2392041297144
 31
0.0
  0
LINE
  5
7A20
330
A
100
AcDbEntity
  8
MODEL
100
AcDbLine
 10
250.5573723514631
 20
363.2392035192945
 30
0.0
 11
250.5573723514631
 21
364.2392035192947
 31
0.0
  0
LINE
  5
7A21
330
A
100
AcDbEntity
  8
MODEL
100
AcDbLine
 10
254.5573723514631
 20
364.2392035192947
 30
0.0
 11
254.5573723514631
 21
363.2392035192945
 31
0.0
  0
LINE
  5
7A22
330
A
100
AcDbEntity
  8
MODEL
100
AcDbLine
 10
257.5291786445418
 20
364.2392041297144
 30
0.0
 11
260.3576056962875
 21
364.2392041297144
 31
0.0
  0
LINE
  5
7A23
330
A
100
AcDbEntity
  8
MODEL
100
AcDbLine
 10
257.5291786445418
 20
363.2392036024955
 30
0.0
 11
257.5291786445418
 21
364.2392036024958
 31
0.0
  0
LINE
  5
7A24
330
A
100
AcDbEntity
  8
MODEL
100
AcDbLine
 10
260.3576056962875
 20
364.2392037936693
 30
0.0
 11
260.3576056962875
 21
363.2392037936693
 31
0.0
  0
LINE
  5
7A25
330
A
100
AcDbEntity
  8
MODEL
100
AcDbLine
 10
259.8132465177891
 20
363.2392038304627
 30
0.0
 11
260.3576056962875
 21
363.2392037936693
 31
0.0
  0
LINE
  5
7A26
330
A
100
AcDbEntity
  8
MODEL
100
AcDbLine
 10
259.8132465177891
 20
363.2392038304627
 30
0.0
 11
259.8132465177891
 21
364.2392038304629
 31
0.0
  0
LINE
  5
7A27
330
A
100
AcDbEntity
  8
MODEL
100
AcDbLine
 10
265.0573721183578
 20
389.4550698814855
 30
0.0
 11
265.0573721183578
 21
364.4550698814855
 31
0.0
  0
LINE
  5
7A28
330
A
100
AcDbEntity
  8
MODEL
100
AcDbLine
 10
261.8073721183719
 20
364.2392041297144
 30
0.0
 11
261.8073721183719
 21
364.3061914278223
 31
0.0
  0
ARC
  5
7A29
330
A
100
AcDbEntity
  8
MODEL
100
AcDbCircle
 10
261.5573721183719
 20
364.7392041297144
 30
0.0
 40
0.4999999999999982
100
AcDbArc
 50
299.9999999992766
 51
325.3704292038993
  0
LINE
  5
7A2A
330
A
100
AcDbEntity
  8
MODEL
100
AcDbLine
 10
261.588568104085
 20
364.2392041297144
 30
0.0
 11
261.8073721183719
 21
364.2392041297144
 31
0.0
  0
LINE
  5
7A2B
330
A
100
AcDbEntity
  8
MODEL
100
AcDbLine
 10
261.588568104085
 20
363.2392039945344
 30
0.0
 11
261.588568104085
 21
364.2392039945344
 31
0.0
  0
CIRCLE
  5
7A2C
330
A
100
AcDbEntity
  8
MODEL
100
AcDbCircle
 10
352.5573692829566
 20
426.9550838735026
 30
0.0
 40
32.5
  0
ARC
  5
7A2E
330
A
100
AcDbEntity
  8
MODEL
100
AcDbCircle
 10
252.5573692829571
 20
426.9550838735022
 30
0.0
 40
32.5
100
AcDbArc
 50
292.6198604057421
 51
179.9999999991009
  0
ARC
  5
7A2F
330
A
100
AcDbEntity
  8
MODEL
100
AcDbCircle
 10
252.557371150499
 20
426.9550724161168
 30
0.0
 40
12.5
100
AcDbArc
 50
0.0000000004429368
 51
180.0
  0
ARC
  5
7A33
330
A
100
AcDbEntity
  8
MODEL
100
AcDbCircle
 10
252.5573692829571
 20
426.9550838735022
 30
0.0
 40
32.5
100
AcDbArc
 50
180.0
 51
247.380130509774
  0
CIRCLE
  5
7A42
330
A
100
AcDbEntity
  8
MODEL
100
AcDbCircle
 10
152.5573692829566
 20
426.9550838735026
 30
0.0
 40
32.5
  0
LINE
  5
7A4B
330
A
100
AcDbEntity
  8
MODEL
100
AcDbLine
 10
464.0820513966382
 20
426.9550556487268
 30
0.0
 11
464.0820513966382
 21
411.7580404356859
 31
0.0
  0
LINE
  5
7A4C
330
A
100
AcDbEntity
  8
MODEL
100
AcDbLine
 10
466.0820513966382
 20
442.1520708617679
 30
0.0
 11
466.0820513966382
 21
411.7580404356859
 31
0.0
  0
LINE
  5
7A4D
330
A
100
AcDbEntity
  8
MODEL
100
AcDbLine
 10
466.8363673330673
 20
416.9868098121749
 30
0.0
 11
466.8363673330673
 21
389.4551003093568
 31
0.0
  0
LINE
  5
7A4E
330
A
100
AcDbEntity
  8
MODEL
100
AcDbLine
 10
495.7594682268946
 20
410.8602309316368
 30
0.0
 11
482.3320495271505
 21
426.1081749002456
 31
0.0
  0
LINE
  5
7A4F
330
A
100
AcDbEntity
  8
MODEL
100
AcDbLine
 10
481.5863679778136
 20
389.4554278966968
 30
0.0
 11
496.0863674512693
 21
389.4554278966968
 31
0.0
  0
LINE
  5
7A50
330
A
100
AcDbEntity
  8
MODEL
100
AcDbLine
 10
481.5863679559457
 20
388.9552139821967
 30
0.0
 11
495.836166042227
 21
388.9552139821967
 31
0.0
  0
LINE
  5
7A51
330
A
100
AcDbEntity
  8
MODEL
100
AcDbLine
 10
496.0863621332574
 20
404.5820576966769
 30
0.0
 11
496.0863674512734
 21
389.4554278966968
 31
0.0
  0
LINE
  5
7A52
330
A
100
AcDbEntity
  8
MODEL
100
AcDbLine
 10
495.8361660422288
 20
388.9552139821947
 30
0.0
 11
496.0863037534386
 21
389.2053580061674
 31
0.0
  0
LINE
  5
7A53
330
A
100
AcDbEntity
  8
MODEL
100
AcDbLine
 10
496.08636733307
 20
389.2053111966693
 30
0.0
 11
496.0863674512698
 21
389.4554278966968
 31
0.0
  0
LINE
  5
7A54
330
A
100
AcDbEntity
  8
MODEL
100
AcDbLine
 10
495.7596149598426
 20
407.9550556624067
 30
0.0
 11
495.75946822689
 21
410.8602309316368
 31
0.0
  0
LINE
  5
7A55
330
A
100
AcDbEntity
  8
MODEL
100
AcDbLine
 10
496.0863674859283
 20
407.9550556534768
 30
0.0
 11
496.0863674814086
 21
410.8602624919968
 31
0.0
  0
ARC
  5
7A56
330
A
100
AcDbEntity
  8
MODEL
100
AcDbCircle
 10
513.7263006019689
 20
407.9931891728454
 30
0.0
 40
17.96672611044172
100
AcDbArc
 50
180.1216076225365
 51
190.9445129189272
  0
LINE
  5
7A57
330
A
100
AcDbEntity
  8
MODEL
100
AcDbLine
 10
496.0863674859283
 20
407.9550556534768
 30
0.0
 11
496.0863621332574
 21
404.5820576966769
 31
0.0
  0
LINE
  5
7A58
330
A
100
AcDbEntity
  8
MODEL
100
AcDbLine
 10
495.7595258511415
 20
407.9550556642769
 30
0.0
 11
496.0863267710215
 21
407.9550556642769
 31
0.0
  0
ARC
  5
7A59
330
A
100
AcDbEntity
  8
MODEL
100
AcDbCircle
 10
497.7771366536094
 20
410.7387905235328
 30
0.0
 40
2.021319779967619
100
AcDbArc
 50
146.7680416455845
 51
176.5556090381383
  0
LINE
  5
7A5A
330
A
100
AcDbEntity
  8
MODEL
100
AcDbLine
 10
496.0863860081804
 20
411.8465341346068
 30
0.0
 11
496.0863674814036
 21
410.8602624919968
 31
0.0
  0
LINE
  5
7A5B
330
A
100
AcDbEntity
  8
MODEL
100
AcDbLine
 10
495.7594392196274
 20
410.8602603938921
 30
0.0
 11
496.0863448448249
 21
410.8602482343881
 31
0.0
  0
LINE
  5
7A5C
330
A
100
AcDbEntity
  8
MODEL
100
AcDbLine
 10
454.5820513966382
 20
400.0561326742618
 30
0.0
 11
454.5820513966382
 21
388.9550556487268
 31
0.0
  0
LINE
  5
7A5D
330
A
100
AcDbEntity
  8
MODEL
100
AcDbLine
 10
456.5820513966382
 20
401.4550556487268
 30
0.0
 11
456.5820513966382
 21
388.9550556487268
 31
0.0
  0
LINE
  5
7A5E
330
A
100
AcDbEntity
  8
MODEL
100
AcDbLine
 10
456.5820508721013
 20
388.9550556487268
 30
0.0
 11
456.5820508721013
 21
376.9550556487268
 31
0.0
  0
LINE
  5
7A5F
330
A
100
AcDbEntity
  8
MODEL
100
AcDbLine
 10
454.5820508721013
 20
388.9550556487268
 30
0.0
 11
454.5820508721013
 21
376.9550556487268
 31
0.0
  0
LINE
  5
7A60
330
A
100
AcDbEntity
  8
MODEL
100
AcDbLine
 10
456.5820508721013
 20
376.9550556487268
 30
0.0
 11
454.5820508721013
 21
376.9550556487268
 31
0.0
  0
LINE
  5
7A61
330
A
100
AcDbEntity
  8
MODEL
100
AcDbLine
 10
466.8363673330673
 20
389.4551003093568
 30
0.0
 11
481.5863679778136
 21
389.4551003093568
 31
0.0
  0
LINE
  5
7A62
330
A
100
AcDbEntity
  8
MODEL
100
AcDbLine
 10
467.3365686239072
 20
388.9552139821967
 30
0.0
 11
481.5863679559457
 21
388.9552139821967
 31
0.0
  0
LINE
  5
7A64
330
A
100
AcDbEntity
  8
MODEL
100
AcDbLine
 10
466.8365311267335
 20
389.4552640988898
 30
0.0
 11
467.3365686239058
 21
388.9552139821958
 31
0.0
  0
LINE
  5
7A66
330
A
100
AcDbEntity
  8
MODEL
100
AcDbLine
 10
464.295989445071
 20
407.927818220091
 30
0.0
 11
456.5820513966382
 21
401.4550556487268
 31
0.0
  0
ARC
  5
7A67
330
A
100
AcDbEntity
  8
MODEL
100
AcDbCircle
 10
459.5820513966382
 20
400.0561326742618
 30
0.0
 40
4.999999999999998
100
AcDbArc
 50
130.0000000000006
 51
179.9999999998697
  0
LINE
  5
7A68
330
A
100
AcDbEntity
  8
MODEL
100
AcDbLine
 10
463.0104142256978
 20
409.459907106329
 30
0.0
 11
456.3681133482055
 21
403.8863548898566
 31
0.0
  0
ARC
  5
7A69
330
A
100
AcDbEntity
  8
MODEL
100
AcDbCircle
 10
461.0820513966382
 20
411.7580404356859
 30
0.0
 40
4.999999999999994
100
AcDbArc
 50
310.000000000001
 51
359.9999999998698
  0
ARC
  5
7A6A
330
A
100
AcDbEntity
  8
MODEL
100
AcDbCircle
 10
461.0820513966382
 20
411.7580404356859
 30
0.0
 40
3.0
100
AcDbArc
 50
310.0000000001227
 51
0.0
  0
ARC
  5
7A6B
330
A
100
AcDbEntity
  8
MODEL
100
AcDbCircle
 10
459.5820513966382
 20
453.853978623192
 30
0.0
 40
5.000000000000002
100
AcDbArc
 50
180.0
 51
229.9999999998773
  0
LINE
  5
7A6C
330
A
100
AcDbEntity
  8
MODEL
100
AcDbLine
 10
456.5820513966382
 20
452.4550556487268
 30
0.0
 11
456.5820513966382
 21
464.9550556487268
 31
0.0
  0
LINE
  5
7A6D
330
A
100
AcDbEntity
  8
MODEL
100
AcDbLine
 10
494.3363629619284
 20
456.9550556587267
 30
0.0
 11
494.3363629619284
 21
444.2051292882613
 31
0.0
  0
LINE
  5
7A6E
330
A
100
AcDbEntity
  8
MODEL
100
AcDbLine
 10
468.8363629619284
 20
456.9550556587267
 30
0.0
 11
468.8363629619284
 21
436.9550556487268
 31
0.0
  0
LINE
  5
7A70
330
A
100
AcDbEntity
  8
MODEL
100
AcDbLine
 10
481.586367323067
 20
441.7050556487268
 30
0.0
 11
496.0863673330673
 21
441.7050556487268
 31
0.0
  0
LINE
  5
7A71
330
A
100
AcDbEntity
  8
MODEL
100
AcDbLine
 10
496.0863676558356
 20
414.1864220931068
 30
0.0
 11
482.3320495273342
 21
426.2984826673076
 31
0.0
  0
ARC
  5
7A72
330
A
100
AcDbEntity
  8
MODEL
100
AcDbCircle
 10
496.3373827305409
 20
444.205996095913
 30
0.0
 40
2.00115105162098
100
AcDbArc
 50
180.023976684344
 51
262.7931659536814
  0
LWPOLYLINE
  5
7A73
330
A
100
AcDbEntity
  8
MODEL
100
AcDbPolyline
 90
        9
 70
     0
 43
0.0
 10
494.3367673331795
 20
444.2054466551965
 10
494.3011990958748
 20
444.1702751464074
 10
494.193578856617
 20
444.063967163009
 10
494.0103818351326
 20
443.8836693114465
 10
493.7470227653084
 20
443.6257652587121
 10
493.3974896842537
 20
443.2859825438684
 10
492.9550153190194
 20
442.8599876708215
 10
492.4109937125741
 20
442.3437828368371
 10
491.7246533805428
 20
441.7050499266809
  0
LINE
  5
7A74
330
A
100
AcDbEntity
  8
MODEL
100
AcDbLine
 10
464.0820513966382
 20
442.1520708617675
 30
0.0
 11
464.0820513966382
 21
426.9550556487268
 31
0.0
  0
LINE
  5
7A75
330
A
100
AcDbEntity
  8
MODEL
100
AcDbLine
 10
467.0863686444086
 20
418.9550556487268
 30
0.0
 11
467.0863686444086
 21
434.9550556562217
 31
0.0
  0
LINE
  5
7A76
330
A
100
AcDbEntity
  8
MODEL
100
AcDbLine
 10
471.0863686444086
 20
418.9550556487268
 30
0.0
 11
471.0863686444086
 21
434.9550556487268
 31
0.0
  0
LINE
  5
7A77
330
A
100
AcDbEntity
  8
MODEL
100
AcDbLine
 10
473.0863680324492
 20
432.6435778007851
 30
0.0
 11
473.0863680324492
 21
435.9550556487268
 31
0.0
  0
LINE
  5
7A78
330
A
100
AcDbEntity
  8
MODEL
100
AcDbLine
 10
475.232522491126
 20
435.1242868022616
 30
0.0
 11
475.232522491126
 21
432.7285583406231
 31
0.0
  0
LINE
  5
7A7A
330
A
100
AcDbEntity
  8
MODEL
100
AcDbLine
 10
472.6888092422569
 20
420.9550556487268
 30
0.0
 11
472.6888092422569
 21
432.9550556487268
 31
0.0
  0
ARC
  5
7A7B
330
A
100
AcDbEntity
  8
MODEL
100
AcDbCircle
 10
475.5774582440072
 20
422.5219642671179
 30
0.0
 40
2.890442700883431
100
AcDbArc
 50
147.6571868520489
 51
177.9585577620632
  0
ARC
  5
7A7C
330
A
100
AcDbEntity
  8
MODEL
100
AcDbCircle
 10
474.8002421819378
 20
422.5219647429519
 30
0.0
 40
2.890442341373979
100
AcDbArc
 50
2.041433053740175
 51
32.34280649632772
  0
LINE
  5
7A7D
330
A
100
AcDbEntity
  8
MODEL
100
AcDbLine
 10
477.6888499323063
 20
422.6249286298046
 30
0.0
 11
477.6888499323063
 21
426.9550556487268
 31
0.0
  0
LINE
  5
7A7E
330
A
100
AcDbEntity
  8
MODEL
100
AcDbLine
 10
463.935086421151
 20
420.9550556487268
 30
0.0
 11
463.935086421151
 21
432.9550556487268
 31
0.0
  0
LINE
  5
7A7F
330
A
100
AcDbEntity
  8
MODEL
100
AcDbLine
 10
462.3350864211511
 20
420.9550556487268
 30
0.0
 11
462.3350864211511
 21
432.9550556487268
 31
0.0
  0
LINE
  5
7A80
330
A
100
AcDbEntity
  8
MODEL
100
AcDbLine
 10
456.532049935287
 20
431.9550556487268
 30
0.0
 11
456.532049935287
 21
421.9550556487268
 31
0.0
  0
LINE
  5
7A81
330
A
100
AcDbEntity
  8
MODEL
100
AcDbLine
 10
456.3320499323067
 20
431.7550556457466
 30
0.0
 11
456.3320499323067
 21
422.155055651707
 31
0.0
  0
LINE
  5
7A82
330
A
100
AcDbEntity
  8
MODEL
100
AcDbLine
 10
462.3320499323067
 20
431.9550556487268
 30
0.0
 11
462.3320499323067
 21
421.9550556487268
 31
0.0
  0
LINE
  5
7A83
330
A
100
AcDbEntity
  8
MODEL
100
AcDbLine
 10
462.3350864211511
 20
420.9550556487268
 30
0.0
 11
463.935086421151
 21
420.9550556487268
 31
0.0
  0
LINE
  5
7A84
330
A
100
AcDbEntity
  8
MODEL
100
AcDbLine
 10
467.0863685569861
 20
416.9550556487268
 30
0.0
 11
467.0863685569861
 21
418.9550556487268
 31
0.0
  0
LINE
  5
7A85
330
A
100
AcDbEntity
  8
MODEL
100
AcDbLine
 10
471.0863685569861
 20
416.9550556487268
 30
0.0
 11
471.0863685569861
 21
418.9550556487268
 31
0.0
  0
LINE
  5
7A86
330
A
100
AcDbEntity
  8
MODEL
100
AcDbLine
 10
473.0863680324492
 20
417.9550556487268
 30
0.0
 11
473.0863680324492
 21
421.2665334966684
 31
0.0
  0
LINE
  5
7A87
330
A
100
AcDbEntity
  8
MODEL
100
AcDbLine
 10
475.2325210514123
 20
421.1815529568305
 30
0.0
 11
475.2325206547021
 21
417.9550556478227
 31
0.0
  0
ELLIPSE
  5
7A88
330
A
100
AcDbEntity
  8
MODEL
100
AcDbEllipse
 10
472.0863679043759
 20
415.4550556487268
 30
0.0
 11
-2.566417289565100E-17
 21
1.5
 31
0.0
210
0.0
220
0.0
230
1.0
 40
0.5846153494578751
 41
4.712388980671353
 42
6.283201613472247
  0
ELLIPSE
  5
7A89
330
A
100
AcDbEntity
  8
MODEL
100
AcDbEllipse
 10
467.0863679161807
 20
415.4550514290968
 30
0.0
 11
7.400353991446626E-6
 21
1.500002531756745
 31
0.0
210
0.0
220
0.0
230
1.0
 40
0.8923074096777267
 41
4.712396195725118
 42
6.283194826703077
  0
ELLIPSE
  5
7A8A
330
A
100
AcDbEntity
  8
MODEL
100
AcDbEllipse
 10
466.6930080883712
 20
415.4861983652668
 30
0.0
 11
0.2359955170078877
 21
1.481316994914758
 31
0.0
210
0.0
220
0.0
230
1.0
 40
0.9146571658847641
 41
4.857088428875575
 42
6.170236458784355
  0
LWPOLYLINE
  5
7A8B
330
A
100
AcDbEntity
  8
MODEL
100
AcDbPolyline
 90
        5
 70
     0
 43
0.0
 10
468.0677701407967
 20
415.486200744552
 10
467.8366528922616
 20
415.5960945433801
 10
467.6315595084725
 20
415.8512977904504
 10
467.4583035880623
 20
416.255014831466
 10
467.324552672535
 20
416.8069099730676
  0
ARC
  5
7A8C
330
A
100
AcDbEntity
  8
MODEL
100
AcDbCircle
 10
472.84007125275
 20
417.8467812490182
 30
0.0
 40
2.394898220453401
100
AcDbArc
 50
272.9495185000833
 51
2.59125057568659
  0
LINE
  5
7A8D
330
A
100
AcDbEntity
  8
MODEL
100
AcDbLine
 10
472.9632909289717
 20
415.4550556487268
 30
0.0
 11
468.4248291625704
 21
415.4550556487268
 31
0.0
  0
LINE
  5
7A8E
330
A
100
AcDbEntity
  8
MODEL
100
AcDbLine
 10
468.4248307492621
 20
415.4550556487368
 30
0.0
 11
468.0677729388544
 21
415.4861977651067
 31
0.0
  0
LINE
  5
7A8F
330
A
100
AcDbEntity
  8
MODEL
100
AcDbLine
 10
467.0863685569861
 20
416.9550556487268
 30
0.0
 11
471.0863685569861
 21
416.9550556487268
 31
0.0
  0
ARC
  5
7A90
330
A
100
AcDbEntity
  8
MODEL
100
AcDbCircle
 10
472.0863680324492
 20
417.9550556487268
 30
0.0
 40
1.0
100
AcDbArc
 50
270.0000000002345
 51
0.0
  0
LINE
  5
7A91
330
A
100
AcDbEntity
  8
MODEL
100
AcDbLine
 10
472.0863680324492
 20
416.9550556487268
 30
0.0
 11
471.0863680324492
 21
416.9550556487268
 31
0.0
  0
LINE
  5
7A92
330
A
100
AcDbEntity
  8
MODEL
100
AcDbLine
 10
475.2325203394103
 20
417.9550558772473
 30
0.0
 11
473.0863679006775
 21
417.9550615871112
 31
0.0
  0
ARC
  5
7A93
330
A
100
AcDbEntity
  8
MODEL
100
AcDbCircle
 10
466.8707424346949
 20
416.199618098937
 30
0.0
 40
0.7595148228788018
100
AcDbArc
 50
36.94768105788971
 51
74.08946070793397
  0
ARC
  5
7A94
330
A
100
AcDbEntity
  8
MODEL
100
AcDbCircle
 10
467.0863685569861
 20
417.9550556487268
 30
0.0
 40
1.0
100
AcDbArc
 50
180.0000000002215
 51
270.0
  0
LINE
  5
7A95
330
A
100
AcDbEntity
  8
MODEL
100
AcDbLine
 10
473.1354319196917
 20
421.1815529568305
 30
0.0
 11
477.2422679449214
 21
421.1815529568305
 31
0.0
  0
LINE
  5
7A96
330
A
100
AcDbEntity
  8
MODEL
100
AcDbLine
 10
477.6888499323063
 20
421.9550556487268
 30
0.0
 11
477.2422679449214
 21
421.1815529568305
 31
0.0
  0
ARC
  5
7A97
330
A
100
AcDbEntity
  8
MODEL
100
AcDbCircle
 10
474.8063179432247
 20
422.7260130388731
 30
0.0
 40
2.88430396383781
100
AcDbArc
 50
327.6241654859724
 51
357.9915791286753
  0
LINE
  5
7A98
330
A
100
AcDbEntity
  8
MODEL
100
AcDbLine
 10
477.6888499323063
 20
421.9550556487268
 30
0.0
 11
477.6888499323063
 21
422.6249286298046
 31
0.0
  0
LINE
  5
7A99
330
A
100
AcDbEntity
  8
MODEL
100
AcDbLine
 10
467.0863686444086
 20
418.9550556412319
 30
0.0
 11
471.0863686444086
 21
418.9550556487263
 31
0.0
  0
LINE
  5
7A9A
330
A
100
AcDbEntity
  8
MODEL
100
AcDbLine
 10
467.0863686444086
 20
418.9550556487268
 30
0.0
 11
466.0863686006974
 21
418.9550556487268
 31
0.0
  0
LINE
  5
7A9B
330
A
100
AcDbEntity
  8
MODEL
100
AcDbLine
 10
471.088809242257
 20
420.9550556487268
 30
0.0
 11
472.6888092422569
 21
420.9550556487268
 31
0.0
  0
LINE
  5
7A9C
330
A
100
AcDbEntity
  8
MODEL
100
AcDbLine
 10
473.1354319196917
 20
421.1815529568305
 30
0.0
 11
472.6888499323063
 21
421.9550556487268
 31
0.0
  0
ARC
  5
7A9D
330
A
100
AcDbEntity
  8
MODEL
100
AcDbCircle
 10
475.571381797814
 20
422.7260125641706
 30
0.0
 40
2.884303605281969
100
AcDbArc
 50
182.008411685482
 51
212.3758278644877
  0
LINE
  5
7A9E
330
A
100
AcDbEntity
  8
MODEL
100
AcDbLine
 10
462.3320499323067
 20
421.9550556487268
 30
0.0
 11
456.532049935287
 21
421.9550556487268
 31
0.0
  0
ARC
  5
7A9F
330
A
100
AcDbEntity
  8
MODEL
100
AcDbCircle
 10
456.532049935287
 20
422.155055651707
 30
0.0
 40
0.2000000029802322
100
AcDbArc
 50
180.0
 51
269.9999999997393
  0
LINE
  5
7AA0
330
A
100
AcDbEntity
  8
MODEL
100
AcDbLine
 10
462.3350864211511
 20
432.9550556487268
 30
0.0
 11
463.935086421151
 21
432.9550556487268
 31
0.0
  0
ARC
  5
7AA1
330
A
100
AcDbEntity
  8
MODEL
100
AcDbCircle
 10
482.9845085003662
 20
426.8402306690159
 30
0.0
 40
10.29629863716298
100
AcDbArc
 50
163.051025662338
 51
179.3610205638599
  0
ARC
  5
7AA2
330
A
100
AcDbEntity
  8
MODEL
100
AcDbCircle
 10
467.365527503513
 20
426.8359509872275
 30
0.0
 40
10.3240097056182
100
AcDbArc
 50
0.6610169890557367
 51
16.92693678494265
  0
LINE
  5
7AA3
330
A
100
AcDbEntity
  8
MODEL
100
AcDbLine
 10
477.6888499323063
 20
426.9550556487268
 30
0.0
 11
477.6888499323063
 21
431.285182667649
 31
0.0
  0
LINE
  5
7AA4
330
A
100
AcDbEntity
  8
MODEL
100
AcDbLine
 10
482.3320499323067
 20
429.4550556487268
 30
0.0
 11
482.3320499323067
 21
424.4550556487268
 31
0.0
  0
LINE
  5
7AA5
330
A
100
AcDbEntity
  8
MODEL
100
AcDbLine
 10
481.8320499323067
 20
429.9550556487268
 30
0.0
 11
481.8320499323067
 21
423.9550556487268
 31
0.0
  0
LINE
  5
7AA6
330
A
100
AcDbEntity
  8
MODEL
100
AcDbLine
 10
473.1354321382482
 20
424.0683043027786
 30
0.0
 11
477.2422681634785
 21
424.0683043027786
 31
0.0
  0
ARC
  5
7AA7
330
A
100
AcDbEntity
  8
MODEL
100
AcDbCircle
 10
467.3880138975451
 20
427.0706816529682
 30
0.0
 40
10.30148517887422
100
AcDbArc
 50
343.0551594315524
 51
359.3568867942969
  0
LINE
  5
7AA8
330
A
100
AcDbEntity
  8
MODEL
100
AcDbLine
 10
481.8320499323067
 20
423.9550556487268
 30
0.0
 11
477.6888499323063
 21
423.9550556487268
 31
0.0
  0
LINE
  5
7AA9
330
A
100
AcDbEntity
  8
MODEL
100
AcDbLine
 10
481.8320499323067
 20
423.9550556487268
 30
0.0
 11
482.3320499323067
 21
424.4550556487268
 31
0.0
  0
LINE
  5
7AAA
330
A
100
AcDbEntity
  8
MODEL
100
AcDbLine
 10
482.3320500117679
 20
424.5685556487267
 30
0.0
 11
477.688850011768
 21
424.5685556487267
 31
0.0
  0
ARC
  5
7AAB
330
A
100
AcDbEntity
  8
MODEL
100
AcDbCircle
 10
482.9849029447137
 20
427.0699416492034
 30
0.0
 40
10.29669373764533
100
AcDbArc
 50
180.6392944866622
 51
196.9486592873735
  0
LINE
  5
7AAC
330
A
100
AcDbEntity
  8
MODEL
100
AcDbLine
 10
471.0888093217181
 20
424.5685556487267
 30
0.0
 11
471.0863684616015
 21
424.5685556487267
 31
0.0
  0
LINE
  5
7AAD
330
A
100
AcDbEntity
  8
MODEL
100
AcDbLine
 10
464.0820499323067
 20
423.9550556487268
 30
0.0
 11
463.935086421151
 21
423.9550556487268
 31
0.0
  0
LINE
  5
7AAE
330
A
100
AcDbEntity
  8
MODEL
100
AcDbLine
 10
464.0820500117679
 20
424.5685556487267
 30
0.0
 11
463.9350865006122
 21
424.5685556487267
 31
0.0
  0
LINE
  5
7AAF
330
A
100
AcDbEntity
  8
MODEL
100
AcDbLine
 10
473.1354321382451
 20
429.8418069946749
 30
0.0
 11
477.2422681634785
 21
429.8418069946749
 31
0.0
  0
LINE
  5
7AB0
330
A
100
AcDbEntity
  8
MODEL
100
AcDbLine
 10
473.1354319196917
 20
432.7285583406231
 30
0.0
 11
477.2422679449214
 21
432.7285583406231
 31
0.0
  0
ARC
  5
7AB1
330
A
100
AcDbEntity
  8
MODEL
100
AcDbCircle
 10
474.8063182855676
 20
431.3862666019638
 30
0.0
 40
2.884303605072054
100
AcDbArc
 50
327.6241721341103
 51
357.9915883153797
  0
LINE
  5
7AB2
330
A
100
AcDbEntity
  8
MODEL
100
AcDbLine
 10
481.8320499323067
 20
429.9550556487268
 30
0.0
 11
477.6888499323063
 21
429.9550556487268
 31
0.0
  0
LINE
  5
7AB3
330
A
100
AcDbEntity
  8
MODEL
100
AcDbLine
 10
481.8320499323067
 20
429.9550556487268
 30
0.0
 11
482.3320499323067
 21
429.4550556487268
 31
0.0
  0
LINE
  5
7AB4
330
A
100
AcDbEntity
  8
MODEL
100
AcDbLine
 10
482.3320500117679
 20
429.3415556487269
 30
0.0
 11
477.688850011768
 21
429.3415556487269
 31
0.0
  0
LINE
  5
7AB5
330
A
100
AcDbEntity
  8
MODEL
100
AcDbLine
 10
477.6888499323063
 20
431.9550556487268
 30
0.0
 11
477.2422679449214
 21
432.7285583406231
 31
0.0
  0
ARC
  5
7AB6
330
A
100
AcDbEntity
  8
MODEL
100
AcDbCircle
 10
474.8002418391152
 20
431.1822183049683
 30
0.0
 40
2.890442700925276
100
AcDbArc
 50
2.041442237781023
 51
32.3428131473505
  0
LINE
  5
7AB7
330
A
100
AcDbEntity
  8
MODEL
100
AcDbLine
 10
477.6888499323063
 20
431.285182667649
 30
0.0
 11
477.6888499323063
 21
431.9550556487268
 31
0.0
  0
ARC
  5
7AB8
330
A
100
AcDbEntity
  8
MODEL
100
AcDbCircle
 10
475.577458243898
 20
431.3881470302986
 30
0.0
 40
2.890442700773976
100
AcDbArc
 50
182.0414422372701
 51
212.342813148475
  0
LINE
  5
7AB9
330
A
100
AcDbEntity
  8
MODEL
100
AcDbLine
 10
471.0888093217181
 20
429.3415556487269
 30
0.0
 11
471.0863684616015
 21
429.3415556487269
 31
0.0
  0
LINE
  5
7ABA
330
A
100
AcDbEntity
  8
MODEL
100
AcDbLine
 10
464.0820499323067
 20
429.9550556487268
 30
0.0
 11
463.935086421151
 21
429.9550556487268
 31
0.0
  0
LINE
  5
7ABB
330
A
100
AcDbEntity
  8
MODEL
100
AcDbLine
 10
464.0820500117679
 20
429.3415556487269
 30
0.0
 11
463.9350865006122
 21
429.3415556487269
 31
0.0
  0
LINE
  5
7ABC
330
A
100
AcDbEntity
  8
MODEL
100
AcDbLine
 10
471.088809242257
 20
432.9550556487268
 30
0.0
 11
472.6888092422569
 21
432.9550556487268
 31
0.0
  0
LINE
  5
7ABD
330
A
100
AcDbEntity
  8
MODEL
100
AcDbLine
 10
473.1354319196917
 20
432.7285583406231
 30
0.0
 11
472.6888499323063
 21
431.9550556487268
 31
0.0
  0
ARC
  5
7ABE
330
A
100
AcDbEntity
  8
MODEL
100
AcDbCircle
 10
475.5713817979108
 20
431.184098733255
 30
0.0
 40
2.884303605379364
100
AcDbArc
 50
147.6241721360675
 51
177.9915883140255
  0
LINE
  5
7ABF
330
A
100
AcDbEntity
  8
MODEL
100
AcDbLine
 10
462.3350864211511
 20
423.9550556487268
 30
0.0
 11
462.3320499323067
 21
423.9550556487268
 31
0.0
  0
LINE
  5
7AC0
330
A
100
AcDbEntity
  8
MODEL
100
AcDbLine
 10
462.3350865006123
 20
424.5685556487267
 30
0.0
 11
462.3320500117679
 21
424.5685556487267
 31
0.0
  0
LINE
  5
7AC1
330
A
100
AcDbEntity
  8
MODEL
100
AcDbLine
 10
462.3350864211511
 20
429.9550556487268
 30
0.0
 11
462.3320499323067
 21
429.9550556487268
 31
0.0
  0
LINE
  5
7AC2
330
A
100
AcDbEntity
  8
MODEL
100
AcDbLine
 10
462.3350865006123
 20
429.3415556487269
 30
0.0
 11
462.3320500117679
 21
429.3415556487269
 31
0.0
  0
LINE
  5
7AC3
330
A
100
AcDbEntity
  8
MODEL
100
AcDbLine
 10
462.3320499323067
 20
431.9550556487268
 30
0.0
 11
456.532049935287
 21
431.9550556487268
 31
0.0
  0
ARC
  5
7AC4
330
A
100
AcDbEntity
  8
MODEL
100
AcDbCircle
 10
456.532049935287
 20
431.7550556457466
 30
0.0
 40
0.2000000029802322
100
AcDbArc
 50
90.00000000026056
 51
180.0
  0
ARC
  5
7AC5
330
A
100
AcDbEntity
  8
MODEL
100
AcDbCircle
 10
461.0820513966382
 20
442.1520708617675
 30
0.0
 40
3.0
100
AcDbArc
 50
0.0
 51
49.99999999987731
  0
ARC
  5
7AC6
330
A
100
AcDbEntity
  8
MODEL
100
AcDbCircle
 10
461.0820513966382
 20
442.1520708617679
 30
0.0
 40
4.999999999999996
100
AcDbArc
 50
0.0000000001302755
 51
49.99999999999941
  0
ARC
  5
7AC7
330
A
100
AcDbEntity
  8
MODEL
100
AcDbCircle
 10
481.5871791514128
 20
426.9546931714638
 30
0.0
 40
14.75036249960398
100
AcDbArc
 50
90.00315339809299
 51
137.3144724802741
  0
LINE
  5
7AC8
330
A
100
AcDbEntity
  8
MODEL
100
AcDbLine
 10
467.0863685569861
 20
434.9550556562217
 30
0.0
 11
467.0863685569861
 21
436.9550556487268
 31
0.0
  0
LINE
  5
7AC9
330
A
100
AcDbEntity
  8
MODEL
100
AcDbLine
 10
471.0863685569861
 20
434.9550556487268
 30
0.0
 11
471.0863685569861
 21
436.9550556487268
 31
0.0
  0
ELLIPSE
  5
7ACA
330
A
100
AcDbEntity
  8
MODEL
100
AcDbEllipse
 10
474.5863678391811
 20
435.9550557155637
 30
0.0
 11
-1.499999999999998
 21
-5.096531546689567E-8
 31
0.0
210
0.0
220
0.0
230
-1.0
 40
0.613705715151312
 41
4.267044061858787
 42
6.283185363443923
  0
ARC
  5
7ACB
330
A
100
AcDbEntity
  8
MODEL
100
AcDbCircle
 10
472.9626493934556
 20
435.1240048082466
 30
0.0
 40
2.269926309942781
100
AcDbArc
 50
0.005356012264271
 51
30.45766973713097
  0
LINE
  5
7ACC
330
A
100
AcDbEntity
  8
MODEL
100
AcDbLine
 10
471.0863686444086
 20
434.9550556487268
 30
0.0
 11
467.0863686444086
 21
434.9550556562215
 31
0.0
  0
LINE
  5
7ACD
330
A
100
AcDbEntity
  8
MODEL
100
AcDbLine
 10
467.0863686444086
 20
434.9550556487268
 30
0.0
 11
466.0863686006974
 21
434.9550556487268
 31
0.0
  0
LINE
  5
7ACE
330
A
100
AcDbEntity
  8
MODEL
100
AcDbLine
 10
471.0863685569861
 20
436.9550556487268
 30
0.0
 11
467.0863685569861
 21
436.9550556487268
 31
0.0
  0
LWPOLYLINE
  5
7ACF
330
A
100
AcDbEntity
  8
MODEL
100
AcDbPolyline
 90
        4
 70
     0
 43
0.0
 10
473.0560285026131
 20
436.3537773436731
 10
473.0610715323983
 20
436.3530144042199
 10
473.02401556316
 20
436.376467163009
 10
472.9483548575936
 20
436.4619926757043
  0
LINE
  5
7AD0
330
A
100
AcDbEntity
  8
MODEL
100
AcDbLine
 10
472.0863680324492
 20
436.9550556487268
 30
0.0
 11
471.0863680324492
 21
436.9550556487268
 31
0.0
  0
ARC
  5
7AD1
330
A
100
AcDbEntity
  8
MODEL
100
AcDbCircle
 10
472.0863680324492
 20
435.9550556487268
 30
0.0
 40
1.0
100
AcDbArc
 50
0.0000000002214684
 51
90.0
  0
ELLIPSE
  5
7AD2
330
A
100
AcDbEntity
  8
MODEL
100
AcDbEllipse
 10
470.9753212407768
 20
438.0530021099069
 30
0.0
 11
0.0760369968178968
 21
-1.498071310054689
 31
0.0
210
0.0
220
0.0
230
-1.0
 40
0.8835124077111683
 41
5.509320059660091
 42
5.57870672221326
  0
ELLIPSE
  5
7AD3
330
A
100
AcDbEntity
  8
MODEL
100
AcDbEllipse
 10
473.4003534657245
 20
437.8137339253867
 30
0.0
 11
-0.344250432637676
 21
-1.459976808581322
 31
0.0
210
0.0
220
0.0
230
-1.0
 40
0.7617415433281329
 41
5.276644348442942
 42
6.276901447794675
  0
ELLIPSE
  5
7AD4
330
A
100
AcDbEntity
  8
MODEL
100
AcDbEllipse
 10
474.2413357214823
 20
437.2223892025468
 30
0.0
 11
-1.292977686140198
 21
-0.7604053670260293
 31
0.0
210
0.0
220
0.0
230
-1.0
 40
0.775634036236912
 41
4.643018021616014
 42
6.283188423925972
  0
ARC
  5
7AD5
330
A
100
AcDbEntity
  8
MODEL
100
AcDbCircle
 10
473.9269090766238
 20
435.6744051865144
 30
0.0
 40
1.159820469030028
100
AcDbArc
 50
31.16597100065279
 51
78.60972743552435
  0
ARC
  5
7AD6
330
A
100
AcDbEntity
  8
MODEL
100
AcDbCircle
 10
472.2514314021059
 20
428.7688191764312
 30
0.0
 40
8.264990523877138
100
AcDbArc
 50
76.67739796533711
 51
92.05693002999438
  0
LINE
  5
7AD7
330
A
100
AcDbEntity
  8
MODEL
100
AcDbLine
 10
471.6265911049877
 20
436.9550556485387
 30
0.0
 11
471.9547803082969
 21
437.0284842113067
 31
0.0
  0
ARC
  5
7AD8
330
A
100
AcDbEntity
  8
MODEL
100
AcDbCircle
 10
467.0863685569861
 20
435.9550556487268
 30
0.0
 40
1.0
100
AcDbArc
 50
90.0
 51
180.0013419861071
  0
LINE
  5
7AD9
330
A
100
AcDbEntity
  8
MODEL
100
AcDbLine
 10
456.3681133482055
 20
450.0237564075967
 30
0.0
 11
463.0104142256978
 21
444.4502041911244
 31
0.0
  0
LINE
  5
7ADA
330
A
100
AcDbEntity
  8
MODEL
100
AcDbLine
 10
464.295989445071
 20
445.9822930773623
 30
0.0
 11
456.5820513966382
 21
452.4550556487268
 31
0.0
  0
LINE
  5
7ADB
330
A
100
AcDbEntity
  8
MODEL
100
AcDbLine
 10
493.3363577014584
 20
457.9550556487168
 30
0.0
 11
481.5863634755369
 21
457.9550556487168
 31
0.0
  0
LINE
  5
7ADC
330
A
100
AcDbEntity
  8
MODEL
100
AcDbLine
 10
494.3363629619284
 20
456.9550556487268
 30
0.0
 11
481.5863635192486
 21
456.9550556487268
 31
0.0
  0
ARC
  5
7ADD
330
A
100
AcDbEntity
  8
MODEL
100
AcDbCircle
 10
493.3350266562688
 20
456.9537193360309
 30
0.0
 40
1.001337197337016
100
AcDbArc
 50
0.0764628543998991
 51
89.92383854849457
  0
LINE
  5
7ADE
330
A
100
AcDbEntity
  8
MODEL
100
AcDbLine
 10
456.5820508721013
 20
476.9550556487268
 30
0.0
 11
456.5820508721013
 21
464.9550556487268
 31
0.0
  0
LINE
  5
7ADF
330
A
100
AcDbEntity
  8
MODEL
100
AcDbLine
 10
454.5820508721013
 20
476.9550556487268
 30
0.0
 11
454.5820508721013
 21
464.9550556487268
 31
0.0
  0
LINE
  5
7AE0
330
A
100
AcDbEntity
  8
MODEL
100
AcDbLine
 10
454.5820513966382
 20
464.9550556487268
 30
0.0
 11
454.5820513966382
 21
453.853978623192
 31
0.0
  0
ARC
  5
7AE1
330
A
100
AcDbEntity
  8
MODEL
100
AcDbCircle
 10
469.8376992675667
 20
456.9537193360641
 30
0.0
 40
1.001337197309449
100
AcDbArc
 50
90.07616145028456
 51
179.9235371475105
  0
LINE
  5
7AE2
330
A
100
AcDbEntity
  8
MODEL
100
AcDbLine
 10
481.5863635192486
 20
456.9550556487268
 30
0.0
 11
468.8363629619284
 21
456.9550556487268
 31
0.0
  0
LINE
  5
7AE3
330
A
100
AcDbEntity
  8
MODEL
100
AcDbLine
 10
481.5863634755369
 20
457.9550556487168
 30
0.0
 11
469.8363682223981
 21
457.9550556487168
 31
0.0
  0
LINE
  5
7AE6
330
A
100
AcDbEntity
  8
MODEL
100
AcDbLine
 10
456.5820508721013
 20
476.9550556487268
 30
0.0
 11
454.5820508721013
 21
476.9550556487268
 31
0.0
  0
LINE
  5
7AE7
330
A
100
AcDbEntity
  8
MODEL
100
AcDbLine
 10
95.05723755058898
 20
411.7580332928405
 30
0.0
 11
95.05723755058898
 21
442.1520637189221
 31
0.0
  0
LINE
  5
7AE8
330
A
100
AcDbEntity
  8
MODEL
100
AcDbLine
 10
410.057237550589
 20
442.1520637189221
 30
0.0
 11
410.057237550589
 21
411.7580332928405
 31
0.0
  0
LINE
  5
7AE9
330
A
100
AcDbEntity
  8
MODEL
100
AcDbLine
 10
323.8291599270306
 20
411.7580332928405
 30
0.0
 11
280.785173949324
 21
411.7580332928405
 31
0.0
  0
LINE
  5
7AEA
330
A
100
AcDbEntity
  8
MODEL
100
AcDbLine
 10
326.2092595808413
 20
407.9278110772457
 30
0.0
 11
278.4050782215754
 21
407.9278110772457
 31
0.0
  0
LINE
  5
7AEB
330
A
100
AcDbEntity
  8
MODEL
100
AcDbLine
 10
337.807237550589
 20
393.4550485058815
 30
0.0
 11
263.5572375510405
 21
393.4550485058815
 31
0.0
  0
LINE
  5
7AEC
330
A
100
AcDbEntity
  8
MODEL
100
AcDbLine
 10
332.407756316642
 20
401.4550485058815
 30
0.0
 11
272.2065925306038
 21
401.4550485058815
 31
0.0
  0
LINE
  5
7AED
330
A
100
AcDbEntity
  8
MODEL
100
AcDbLine
 10
241.0571093263252
 20
393.4550485058815
 30
0.0
 11
167.307237550589
 21
393.4550485058815
 31
0.0
  0
LINE
  5
7AEE
330
A
100
AcDbEntity
  8
MODEL
100
AcDbLine
 10
231.9076243928071
 20
401.4550485058815
 30
0.0
 11
172.7066720426387
 21
401.4550485058815
 31
0.0
  0
LINE
  5
7AEF
330
A
100
AcDbEntity
  8
MODEL
100
AcDbLine
 10
95.05723755058898
 20
401.4550485058815
 30
0.0
 11
95.05723755058898
 21
388.9550485058815
 31
0.0
  0
LINE
  5
7AF0
330
A
100
AcDbEntity
  8
MODEL
100
AcDbLine
 10
137.807237550589
 20
389.4547328204374
 30
0.0
 11
137.807237550589
 21
397.9949225777539
 31
0.0
  0
LINE
  5
7AF1
330
A
100
AcDbEntity
  8
MODEL
100
AcDbLine
 10
167.307237550589
 20
389.4547328204374
 30
0.0
 11
167.307237550589
 21
397.9949458926378
 31
0.0
  0
CIRCLE
  5
7AF2
330
A
100
AcDbEntity
  8
MODEL
100
AcDbCircle
 10
122.057237550589
 20
384.9550485058815
 30
0.0
 40
2.75
  0
LINE
  5
7AF3
330
A
100
AcDbEntity
  8
MODEL
100
AcDbLine
 10
123.0866748021117
 20
376.9550485058815
 30
0.0
 11
107.057237550589
 21
376.9550485058815
 31
0.0
  0
CIRCLE
  5
7AF4
330
A
100
AcDbEntity
  8
MODEL
100
AcDbCircle
 10
107.057237550589
 20
384.9550485058815
 30
0.0
 40
3.25
  0
ARC
  5
7AF5
330
A
100
AcDbEntity
  8
MODEL
100
AcDbCircle
 10
107.057237550589
 20
388.9550485058815
 30
0.0
 40
12.0
100
AcDbArc
 50
180.0000000002215
 51
270.0
  0
LINE
  5
7AF6
330
A
100
AcDbEntity
  8
MODEL
100
AcDbLine
 10
138.69937317432
 20
387.5971841296123
 30
0.0
 11
131.5719561763503
 21
380.4697671316428
 31
0.0
  0
ARC
  5
7AF7
330
A
100
AcDbEntity
  8
MODEL
100
AcDbCircle
 10
123.0866748021117
 20
388.9550485058815
 30
0.0
 40
12.00000000000001
100
AcDbArc
 50
270.0
 51
314.9999999998933
  0
ARC
  5
7AF8
330
A
100
AcDbEntity
  8
MODEL
100
AcDbCircle
 10
152.8415087980507
 20
373.4550485058815
 30
0.0
 40
20.0
100
AcDbArc
 50
129.1942496679596
 51
135.0000000003358
  0
LINE
  5
7AF9
330
A
100
AcDbEntity
  8
MODEL
100
AcDbLine
 10
137.8072375505844
 20
389.455420753847
 30
0.0
 11
138.3074388414266
 21
388.9552068393496
 31
0.0
  0
LINE
  5
7AFA
330
A
100
AcDbEntity
  8
MODEL
100
AcDbLine
 10
152.5571842864802
 20
389.4554207538513
 30
0.0
 11
137.807237550589
 21
389.4554207538515
 31
0.0
  0
LINE
  5
7AFB
330
A
100
AcDbEntity
  8
MODEL
100
AcDbLine
 10
152.5571842864806
 20
388.9552068393514
 30
0.0
 11
138.3074388414288
 21
388.9552068393514
 31
0.0
  0
LINE
  5
7AFC
330
A
100
AcDbEntity
  8
MODEL
100
AcDbLine
 10
167.307237550589
 20
389.4554207538515
 30
0.0
 11
152.5571842864802
 21
389.4554207538515
 31
0.0
  0
LINE
  5
7AFD
330
A
100
AcDbEntity
  8
MODEL
100
AcDbLine
 10
166.8070961976387
 20
388.9551469024702
 30
0.0
 11
167.3071357987715
 21
389.4551949166171
 31
0.0
  0
LINE
  5
7AFE
330
A
100
AcDbEntity
  8
MODEL
100
AcDbLine
 10
166.8070362597491
 20
388.9552068393514
 30
0.0
 11
152.5571842864802
 21
388.9552068393514
 31
0.0
  0
LINE
  5
7AFF
330
A
100
AcDbEntity
  8
MODEL
100
AcDbLine
 10
123.8291603306211
 20
411.7580332928405
 30
0.0
 11
95.05723755058898
 21
411.7580332928405
 31
0.0
  0
LINE
  5
7B00
330
A
100
AcDbEntity
  8
MODEL
100
AcDbLine
 10
126.2092601317981
 20
407.9278110772457
 30
0.0
 11
95.05723755058898
 21
407.9278110772457
 31
0.0
  0
LINE
  5
7B01
330
A
100
AcDbEntity
  8
MODEL
100
AcDbLine
 10
132.407757282172
 20
401.4550485058815
 30
0.0
 11
95.05723755058898
 21
401.4550485058815
 31
0.0
  0
LINE
  5
7B02
330
A
100
AcDbEntity
  8
MODEL
100
AcDbLine
 10
95.05723755058898
 20
407.9278110772457
 30
0.0
 11
95.05723755058898
 21
401.4550485058815
 31
0.0
  0
LINE
  5
7B03
330
A
100
AcDbEntity
  8
MODEL
100
AcDbLine
 10
95.05723755058898
 20
407.9278110772457
 30
0.0
 11
95.05723755058898
 21
411.7580332928405
 31
0.0
  0
LINE
  5
7B04
330
A
100
AcDbEntity
  8
MODEL
100
AcDbLine
 10
223.3290429740873
 20
411.7580332928405
 30
0.0
 11
181.2852689941897
 21
411.7580332928405
 31
0.0
  0
LINE
  5
7B05
330
A
100
AcDbEntity
  8
MODEL
100
AcDbLine
 10
225.7091387018359
 20
407.9278110772455
 30
0.0
 11
178.9051691930126
 21
407.9278110772457
 31
0.0
  0
LINE
  5
7B06
330
A
100
AcDbEntity
  8
MODEL
100
AcDbLine
 10
410.057237550589
 20
411.7580332928405
 30
0.0
 11
381.2852693977798
 21
411.7580332928405
 31
0.0
  0
LINE
  5
7B07
330
A
100
AcDbEntity
  8
MODEL
100
AcDbLine
 10
410.057237550589
 20
407.9278110772457
 30
0.0
 11
378.9051697439695
 21
407.9278110772457
 31
0.0
  0
LINE
  5
7B08
330
A
100
AcDbEntity
  8
MODEL
100
AcDbLine
 10
398.057237550589
 20
376.9550485058815
 30
0.0
 11
382.0278002990663
 21
376.9550485058815
 31
0.0
  0
LINE
  5
7B09
330
A
100
AcDbEntity
  8
MODEL
100
AcDbLine
 10
410.057237550589
 20
401.4550485058815
 30
0.0
 11
372.7066730081688
 21
401.4550485058815
 31
0.0
  0
LINE
  5
7B0A
330
A
100
AcDbEntity
  8
MODEL
100
AcDbLine
 10
367.307237550589
 20
397.9949451297
 30
0.0
 11
367.307237550589
 21
389.4550931665115
 31
0.0
  0
LINE
  5
7B0B
330
A
100
AcDbEntity
  8
MODEL
100
AcDbLine
 10
337.807237550589
 20
397.9949218148161
 30
0.0
 11
337.807237550589
 21
389.4554207538515
 31
0.0
  0
CIRCLE
  5
7B0C
330
A
100
AcDbEntity
  8
MODEL
100
AcDbCircle
 10
383.057237550589
 20
384.9550485058815
 30
0.0
 40
2.75
  0
LINE
  5
7B0D
330
A
100
AcDbEntity
  8
MODEL
100
AcDbLine
 10
373.5425189248276
 20
380.4697671316428
 30
0.0
 11
365.0570792171193
 21
388.9552068393514
 31
0.0
  0
ARC
  5
7B0E
330
A
100
AcDbEntity
  8
MODEL
100
AcDbCircle
 10
382.0278002990663
 20
388.9550485058815
 30
0.0
 40
12.0
100
AcDbArc
 50
225.0000000001069
 51
270.0
  0
LINE
  5
7B0F
330
A
100
AcDbEntity
  8
MODEL
100
AcDbLine
 10
337.8072375505844
 20
389.455420753847
 30
0.0
 11
338.307438841427
 21
388.9552068393493
 31
0.0
  0
LINE
  5
7B10
330
A
100
AcDbEntity
  8
MODEL
100
AcDbLine
 10
352.5571841185433
 20
389.4554207538513
 30
0.0
 11
337.807237550589
 21
389.4554207538515
 31
0.0
  0
LINE
  5
7B11
330
A
100
AcDbEntity
  8
MODEL
100
AcDbLine
 10
352.5571841185433
 20
388.9552068393511
 30
0.0
 11
338.3074388414288
 21
388.9552068393514
 31
0.0
  0
LINE
  5
7B12
330
A
100
AcDbEntity
  8
MODEL
100
AcDbLine
 10
367.307237550589
 20
389.4554207538515
 30
0.0
 11
352.5571841185433
 21
389.4554207538515
 31
0.0
  0
LINE
  5
7B13
330
A
100
AcDbEntity
  8
MODEL
100
AcDbLine
 10
366.8070961976637
 20
388.9551469024852
 30
0.0
 11
367.3071357987765
 21
389.4551949166121
 31
0.0
  0
LINE
  5
7B14
330
A
100
AcDbEntity
  8
MODEL
100
AcDbLine
 10
366.8070362597491
 20
388.9552068393514
 30
0.0
 11
352.5571841185433
 21
388.9552068393514
 31
0.0
  0
LINE
  5
7B15
330
A
100
AcDbEntity
  8
MODEL
100
AcDbLine
 10
410.057237550589
 20
401.4550485058815
 30
0.0
 11
410.057237550589
 21
388.9550485058815
 31
0.0
  0
CIRCLE
  5
7B16
330
A
100
AcDbEntity
  8
MODEL
100
AcDbCircle
 10
398.057237550589
 20
384.9550485058815
 30
0.0
 40
3.25
  0
ARC
  5
7B17
330
A
100
AcDbEntity
  8
MODEL
100
AcDbCircle
 10
398.057237550589
 20
388.9550485058815
 30
0.0
 40
12.0
100
AcDbArc
 50
270.0
 51
359.9999999997785
  0
LINE
  5
7B18
330
A
100
AcDbEntity
  8
MODEL
100
AcDbLine
 10
410.057237550589
 20
407.9278110772457
 30
0.0
 11
410.057237550589
 21
401.4550485058815
 31
0.0
  0
LINE
  5
7B19
330
A
100
AcDbEntity
  8
MODEL
100
AcDbLine
 10
410.057237550589
 20
407.9278110772457
 30
0.0
 11
410.057237550589
 21
411.7580332928405
 31
0.0
  0
LINE
  5
7B1A
330
A
100
AcDbEntity
  8
MODEL
100
AcDbLine
 10
323.8291738599041
 20
442.1520637189221
 30
0.0
 11
280.7851385119206
 21
442.1520637189226
 31
0.0
  0
LINE
  5
7B1B
330
A
100
AcDbEntity
  8
MODEL
100
AcDbLine
 10
326.2092786011467
 20
445.9822859345174
 30
0.0
 11
278.4050298446036
 21
445.9822859345174
 31
0.0
  0
LINE
  5
7B1C
330
A
100
AcDbEntity
  8
MODEL
100
AcDbLine
 10
152.8415087980507
 20
460.4550485058815
 30
0.0
 11
352.2729663031269
 21
460.4550485058815
 31
0.0
  0
LINE
  5
7B1D
330
A
100
AcDbEntity
  8
MODEL
100
AcDbLine
 10
332.4077896489712
 20
452.4550485058815
 30
0.0
 11
272.2065077518823
 21
452.4550485058815
 31
0.0
  0
LINE
  5
7B1E
330
A
100
AcDbEntity
  8
MODEL
100
AcDbLine
 10
95.05723755058898
 20
452.4550485058815
 30
0.0
 11
95.05723755058898
 21
464.9550485058815
 31
0.0
  0
LINE
  5
7B1F
330
A
100
AcDbEntity
  8
MODEL
100
AcDbLine
 10
231.9077091715294
 20
452.4550485058815
 30
0.0
 11
172.7066406413719
 21
452.4550485058815
 31
0.0
  0
LINE
  5
7B20
330
A
100
AcDbEntity
  8
MODEL
100
AcDbLine
 10
123.8291734563127
 20
442.1520637189221
 30
0.0
 11
95.05723755058898
 21
442.1520637189221
 31
0.0
  0
LINE
  5
7B21
330
A
100
AcDbEntity
  8
MODEL
100
AcDbLine
 10
126.2092780501885
 20
445.9822859345174
 30
0.0
 11
95.05723755058898
 21
445.9822859345174
 31
0.0
  0
LINE
  5
7B22
330
A
100
AcDbEntity
  8
MODEL
100
AcDbLine
 10
132.4077886834389
 20
452.4550485058815
 30
0.0
 11
95.05723755058898
 21
452.4550485058815
 31
0.0
  0
LINE
  5
7B23
330
A
100
AcDbEntity
  8
MODEL
100
AcDbLine
 10
95.05723755058898
 20
445.9822859345174
 30
0.0
 11
95.05723755058898
 21
442.1520637189221
 31
0.0
  0
LINE
  5
7B24
330
A
100
AcDbEntity
  8
MODEL
100
AcDbLine
 10
95.05723755058898
 20
445.9822859345174
 30
0.0
 11
95.05723755058898
 21
452.4550485058815
 31
0.0
  0
LINE
  5
7B25
330
A
100
AcDbEntity
  8
MODEL
100
AcDbLine
 10
182.6397728181419
 20
414.6550485058835
 30
0.0
 11
221.9745416833302
 21
414.6550485058833
 31
0.0
  0
LINE
  5
7B26
330
A
100
AcDbEntity
  8
MODEL
100
AcDbLine
 10
184.0459492739892
 20
418.9108088178468
 30
0.0
 11
220.5683752819587
 21
418.9107821242505
 31
0.0
  0
LINE
  5
7B27
330
A
100
AcDbEntity
  8
MODEL
100
AcDbLine
 10
223.3290784114902
 20
442.1520637189221
 30
0.0
 11
181.2852558684981
 21
442.1520637189221
 31
0.0
  0
LINE
  5
7B28
330
A
100
AcDbEntity
  8
MODEL
100
AcDbLine
 10
182.6397626729463
 20
439.2550485058794
 30
0.0
 11
221.9745690738405
 21
439.2550485058794
 31
0.0
  0
LINE
  5
7B29
330
A
100
AcDbEntity
  8
MODEL
100
AcDbLine
 10
184.0458893126161
 20
434.9994980936619
 30
0.0
 11
220.5684043272299
 21
434.9993615929111
 31
0.0
  0
LINE
  5
7B2A
330
A
100
AcDbEntity
  8
MODEL
100
AcDbLine
 10
225.7091870788076
 20
445.9822859345174
 30
0.0
 11
178.9051512746223
 21
445.9822859345174
 31
0.0
  0
ARC
  5
7B2B
330
A
100
AcDbEntity
  8
MODEL
100
AcDbCircle
 10
107.057237550589
 20
464.9550485058815
 30
0.0
 40
12.0
100
AcDbArc
 50
90.00000000044946
 51
180.0000000002215
  0
LINE
  5
7B2C
330
A
100
AcDbEntity
  8
MODEL
100
AcDbLine
 10
131.5719561763503
 20
473.4403298801201
 30
0.0
 11
138.69937317432
 21
466.3129128821504
 31
0.0
  0
CIRCLE
  5
7B2D
330
A
100
AcDbEntity
  8
MODEL
100
AcDbCircle
 10
122.057237550589
 20
468.9550485058815
 30
0.0
 40
2.75
  0
CIRCLE
  5
7B2E
330
A
100
AcDbEntity
  8
MODEL
100
AcDbCircle
 10
107.057237550589
 20
468.9550485058815
 30
0.0
 40
3.25
  0
ARC
  5
7B2F
330
A
100
AcDbEntity
  8
MODEL
100
AcDbCircle
 10
152.8415087980507
 20
480.4550485058815
 30
0.0
 40
20.0
100
AcDbArc
 50
225.0000000001057
 51
270.0
  0
LINE
  5
7B30
330
A
100
AcDbEntity
  8
MODEL
100
AcDbLine
 10
123.0866748021117
 20
476.9550485058815
 30
0.0
 11
107.057237550589
 21
476.9550485058815
 31
0.0
  0
ARC
  5
7B31
330
A
100
AcDbEntity
  8
MODEL
100
AcDbCircle
 10
123.0866748021117
 20
464.9550485058815
 30
0.0
 40
12.00000000000001
100
AcDbArc
 50
45.00000000056155
 51
90.00000000044946
  0
LINE
  5
7B32
330
A
100
AcDbEntity
  8
MODEL
100
AcDbLine
 10
410.057237550589
 20
452.4550485058815
 30
0.0
 11
410.057237550589
 21
464.9550485058815
 31
0.0
  0
LINE
  5
7B33
330
A
100
AcDbEntity
  8
MODEL
100
AcDbLine
 10
410.057237550589
 20
442.1520637189221
 30
0.0
 11
381.2852554649066
 21
442.1520637189221
 31
0.0
  0
LINE
  5
7B34
330
A
100
AcDbEntity
  8
MODEL
100
AcDbLine
 10
410.057237550589
 20
445.9822859345174
 30
0.0
 11
378.9051507236641
 21
445.9822859345174
 31
0.0
  0
LINE
  5
7B35
330
A
100
AcDbEntity
  8
MODEL
100
AcDbLine
 10
410.057237550589
 20
452.4550485058815
 30
0.0
 11
372.7066396758391
 21
452.4550485058815
 31
0.0
  0
LINE
  5
7B36
330
A
100
AcDbEntity
  8
MODEL
100
AcDbLine
 10
282.139675240081
 20
414.6550485058838
 30
0.0
 11
322.4746561947227
 21
414.6550485058835
 31
0.0
  0
LINE
  5
7B37
330
A
100
AcDbEntity
  8
MODEL
100
AcDbLine
 10
283.5458229584206
 20
418.9107089908439
 30
0.0
 11
321.0685358846936
 21
418.9105894991073
 31
0.0
  0
LINE
  5
7B38
330
A
100
AcDbEntity
  8
MODEL
100
AcDbLine
 10
282.1396478495708
 20
439.2550485058794
 30
0.0
 11
322.4746669638107
 21
439.2550485058794
 31
0.0
  0
LINE
  5
7B39
330
A
100
AcDbEntity
  8
MODEL
100
AcDbLine
 10
283.5457609261098
 20
434.9995638469766
 30
0.0
 11
321.0685570160858
 21
434.9995638892644
 31
0.0
  0
LINE
  5
7B3A
330
A
100
AcDbEntity
  8
MODEL
100
AcDbLine
 10
410.057237550589
 20
445.9822859345174
 30
0.0
 11
410.057237550589
 21
442.1520637189221
 31
0.0
  0
LINE
  5
7B3B
330
A
100
AcDbEntity
  8
MODEL
100
AcDbLine
 10
410.057237550589
 20
445.9822859345174
 30
0.0
 11
410.057237550589
 21
452.4550485058815
 31
0.0
  0
LINE
  5
7B3C
330
A
100
AcDbEntity
  8
MODEL
100
AcDbLine
 10
398.057237550589
 20
476.9550485058815
 30
0.0
 11
382.0278002990663
 21
476.9550485058815
 31
0.0
  0
LINE
  5
7B3D
330
A
100
AcDbEntity
  8
MODEL
100
AcDbLine
 10
366.4151019268579
 20
466.3129128821504
 30
0.0
 11
373.5425189248276
 21
473.4403298801201
 31
0.0
  0
ARC
  5
7B3E
330
A
100
AcDbEntity
  8
MODEL
100
AcDbCircle
 10
352.2729663031269
 20
480.4550485058815
 30
0.0
 40
20.0
100
AcDbArc
 50
270.0
 51
314.9999999998936
  0
CIRCLE
  5
7B3F
330
A
100
AcDbEntity
  8
MODEL
100
AcDbCircle
 10
383.057237550589
 20
468.9550485058815
 30
0.0
 40
2.75
  0
ARC
  5
7B40
330
A
100
AcDbEntity
  8
MODEL
100
AcDbCircle
 10
382.0278002990663
 20
464.9550485058815
 30
0.0
 40
12.00000000000001
100
AcDbArc
 50
90.00000000044946
 51
135.0000000003353
  0
ARC
  5
7B41
330
A
100
AcDbEntity
  8
MODEL
100
AcDbCircle
 10
398.057237550589
 20
464.9550485058815
 30
0.0
 40
12.0
100
AcDbArc
 50
0.0000000006644052
 51
90.00000000044946
  0
CIRCLE
  5
7B42
330
A
100
AcDbEntity
  8
MODEL
100
AcDbCircle
 10
398.057237550589
 20
468.9550485058815
 30
0.0
 40
3.25
  0
DIMENSION
  5
7B43
330
A
100
AcDbEntity
  8
DIM
370
     0
100
AcDbDimension
  2
*D46
 10
410.057237550589
 20
507.1208111689198
 30
0.0
 11
252.557237550589
 21
507.1208111689198
 31
0.0
 70
   160
 71
     5
 42
315.0
 73
     0
 74
     0
 75
     0
  3
tfrom線あり
100
AcDbAlignedDimension
 13
95.05723755058898
 23
464.9550485058351
 33
0.0
 14
410.057237550589
 24
464.3677795729668
 34
0.0
100
AcDbRotatedDimension
  0
DIMENSION
  5
7B4C
330
A
100
AcDbEntity
  8
DIM
370
     0
100
AcDbDimension
  2
*D48
 10
74.88978322135239
 20
376.9550485058815
 30
0.0
 11
74.88978322135239
 21
426.9550485058815
 31
0.0
 70
   160
 71
     5
 42
100.0
 73
     0
 74
     0
 75
     0
  3
tfrom線あり
100
AcDbAlignedDimension
 13
107.057237550589
 23
476.9550485058815
 33
0.0
 14
107.057237550589
 24
376.9550485058815
 34
0.0
 50
90.0
100
AcDbRotatedDimension
  0
CIRCLE
  5
7B4E
330
A
100
AcDbEntity
  8
MODEL
100
AcDbCircle
 10
152.5573692881189
 20
426.9550838599844
 30
0.0
 40
32.5
  0
CIRCLE
  5
7B4F
330
A
100
AcDbEntity
  8
MODEL
100
AcDbCircle
 10
352.5571841185433
 20
426.9550567694575
 30
0.0
 40
32.5
  0
LINE
  5
7B50
330
A
100
AcDbEntity
  8
MODEL
100
AcDbLine
 10
500.0863661840344
 20
409.9550579499762
 30
0.0
 11
500.0863684821002
 21
443.9550579499758
 31
0.0
  0
LINE
  5
7B51
330
A
100
AcDbEntity
  8
MODEL
100
AcDbLine
 10
500.0863684820997
 20
443.9550579499762
 30
0.0
 11
524.0863684820997
 21
443.955057949976
 31
0.0
  0
LINE
  5
7B52
330
A
100
AcDbEntity
  8
MODEL
100
AcDbLine
 10
500.0863661840344
 20
409.9550579499762
 30
0.0
 11
524.086366184034
 21
409.955057949976
 31
0.0
  0
LINE
  5
7B53
330
A
100
AcDbEntity
  8
MODEL
100
AcDbLine
 10
524.0863684820997
 20
443.955057949976
 30
0.0
 11
524.0863684820997
 21
493.3779211884548
 31
0.0
  0
LINE
  5
7B54
330
A
100
AcDbEntity
  8
MODEL
100
AcDbLine
 10
524.0863684821002
 20
445.955057949976
 30
0.0
 11
514.0863684821002
 21
445.955057949976
 31
0.0
  0
LINE
  5
7B55
330
A
100
AcDbEntity
  8
MODEL
100
AcDbLine
 10
524.0863684821002
 20
493.3779211884548
 30
0.0
 11
518.4737018628284
 21
489.1599536790241
 31
0.0
  0
LINE
  5
7B56
330
A
100
AcDbEntity
  8
MODEL
100
AcDbLine
 10
518.4737018628284
 20
489.1599536790241
 30
0.0
 11
514.0863684821002
 21
490.1566512575787
 31
0.0
  0
HATCH
  5
7B57
330
A
100
AcDbEntity
  8
MODEL
100
AcDbHatch
 10
0.0
 20
0.0
 30
0.0
210
0.0
220
0.0
230
1.0
  2
ANSI31
 70
     0
 71
     0
 91
        1
 92
        7
 72
     0
 73
     1
 93
        5
 10
514.0863684821002
 20
490.1566512575787
 10
518.4737018628284
 20
489.1599536790241
 10
524.0863684821002
 20
493.3779211884544
 10
524.0863684820997
 20
445.955057949976
 10
514.0863684821002
 20
445.955057949976
 97
        0
 75
     0
 76
     1
 52
180.0
 41
1.0
 77
     0
 78
     1
 53
135.0
 43
1395.641837088181
 44
-1307.448258173693
 45
2.245064030267288
 46
2.245064030267288
 79
     0
 47
0.1697004212199504
 98
        1
 10
514.7672860455468
 20
472.3141573805538
  0
LINE
  5
7B58
330
A
100
AcDbEntity
  8
MODEL
100
AcDbLine
 10
524.086366184034
 20
409.955057949976
 30
0.0
 11
524.086366184034
 21
373.6243303486115
 31
0.0
  0
LINE
  5
7B59
330
A
100
AcDbEntity
  8
MODEL
100
AcDbLine
 10
518.4736995647622
 20
377.4755174985009
 30
0.0
 11
514.4374047193328
 21
374.7246692188044
 31
0.0
  0
LINE
  5
7B5A
330
A
100
AcDbEntity
  8
MODEL
100
AcDbLine
 10
524.086366184034
 20
373.6243303486115
 30
0.0
 11
518.4736995647622
 21
377.4755174985009
 31
0.0
  0
LINE
  5
7B5B
330
A
100
AcDbEntity
  8
MODEL
100
AcDbLine
 10
514.4374047193328
 20
374.7246692188044
 30
0.0
 11
514.086366184034
 21
375.5317145079041
 31
0.0
  0
LINE
  5
7B5C
330
A
100
AcDbEntity
  8
MODEL
100
AcDbLine
 10
514.086366184034
 20
407.955057949976
 30
0.0
 11
524.086366184034
 21
407.955057949976
 31
0.0
  0
HATCH
  5
7B5D
330
A
100
AcDbEntity
  8
MODEL
100
AcDbHatch
 10
0.0
 20
0.0
 30
0.0
210
0.0
220
0.0
230
1.0
  2
ANSI31
 70
     0
 71
     0
 91
        1
 92
        7
 72
     0
 73
     1
 93
        6
 10
514.086366184034
 20
407.955057949976
 10
524.0863661840344
 20
407.955057949976
 10
524.086366184034
 20
373.6243303486115
 10
518.4736995647622
 20
377.4755174985009
 10
514.4374047193328
 20
374.7246692188041
 10
514.0863661840344
 20
375.5317145079041
 97
        0
 75
     0
 76
     1
 52
180.0
 41
1.0
 77
     0
 78
     1
 53
135.0
 43
1395.554488520466
 44
-1305.410108206222
 45
2.245064030267288
 46
2.245064030267288
 79
     0
 47
0.23758058742485
 98
        1
 10
514.537781492842
 20
393.765206123431
  0
LINE
  5
7B5E
330
A
100
AcDbEntity
  8
MODEL
100
AcDbLine
 10
496.0863663192144
 20
411.9550579499767
 30
0.0
 11
496.0863683469197
 21
441.9550579499764
 31
0.0
  0
LINE
  5
7B5F
330
A
100
AcDbEntity
  8
MODEL
100
AcDbLine
 10
496.0863673330673
 20
441.9550579499764
 30
0.0
 11
500.0863683469197
 21
441.9550579499762
 31
0.0
  0
LINE
  5
7B60
330
A
100
AcDbEntity
  8
MODEL
100
AcDbLine
 10
496.0863673330673
 20
411.9550579499764
 30
0.0
 11
500.0863663192144
 21
411.9550579499764
 31
0.0
  0
DIMENSION
  5
7B62
330
A
100
AcDbEntity
  8
DIM
370
     0
100
AcDbDimension
  2
*D51
 10
524.086366184034
 20
337.3323319439603
 30
0.0
 11
502.8363670495055
 21
337.3323319439603
 31
0.0
 70
   160
  1
42-62
 71
     5
 42
42.49999826905696
 73
     0
 74
     0
 75
     0
 52
-89.99999999999999
  3
tfrom線あり
100
AcDbAlignedDimension
 13
481.586367914977
 23
388.9551540453306
 33
0.0
 14
524.086366184034
 24
373.6243303486115
 34
0.0
 50
180.0
100
AcDbRotatedDimension
  0
ARC
  5
7CB6
330
A
100
AcDbEntity
  8
MODEL
100
AcDbCircle
 10
693.9721151684644
 20
782.1084382519681
 30
0.0
 40
25.0
100
AcDbArc
 50
359.9999961275992
 51
89.99999612737051
  0
ARC
  5
7CB7
330
A
100
AcDbEntity
  8
MODEL
100
AcDbCircle
 10
693.9721151684644
 20
782.1084382519681
 30
0.0
 40
50.0
100
AcDbArc
 50
359.9999961275992
 51
89.99999612737102
  0
LINE
  5
7CB8
330
A
100
AcDbEntity
  8
MODEL
100
AcDbLine
 10
740.7221134686474
 20
756.9595566384647
 30
0.0
 11
722.2221134686474
 21
756.9595578888826
 31
0.0
  0
LINE
  5
7CB9
330
A
100
AcDbEntity
  8
MODEL
100
AcDbLine
 10
726.5003072789091
 20
756.8925703016113
 30
0.0
 11
723.6718801035286
 21
756.8925704927848
 31
0.0
  0
LINE
  5
7CBA
330
A
100
AcDbEntity
  8
MODEL
100
AcDbLine
 10
743.9721134787101
 20
757.10843487246
 30
0.0
 11
718.9721134787105
 21
757.1084365622138
 31
0.0
  0
LINE
  5
7CBC
330
A
100
AcDbEntity
  8
MODEL
100
AcDbLine
 10
743.9721151684644
 20
782.10843487246
 30
0.0
 11
743.9721134787105
 21
757.10843487246
 31
0.0
  0
LINE
  5
7CBD
330
A
100
AcDbEntity
  8
MODEL
100
AcDbLine
 10
736.4439198610171
 20
755.8925696295206
 30
0.0
 11
733.4721135582045
 21
755.8925698303857
 31
0.0
  0
LINE
  5
7CBE
330
A
100
AcDbEntity
  8
MODEL
100
AcDbLine
 10
740.72211346412
 20
756.8925693403568
 30
0.0
 11
740.7221134686474
 21
756.9595566384647
 31
0.0
  0
ARC
  5
7CBF
330
A
100
AcDbEntity
  8
MODEL
100
AcDbCircle
 10
740.472113497915
 20
757.3925693572543
 30
0.0
 40
0.4999999999999982
100
AcDbArc
 50
299.9999961266305
 51
325.3704253312391
  0
LINE
  5
7CC0
330
A
100
AcDbEntity
  8
MODEL
100
AcDbLine
 10
739.2723470027199
 20
756.8925694383471
 30
0.0
 11
736.4439199286076
 21
756.8925696295206
 31
0.0
  0
LINE
  5
7CC1
330
A
100
AcDbEntity
  8
MODEL
100
AcDbLine
 10
740.72211346412
 20
756.8925693403568
 30
0.0
 11
740.5033094340179
 21
756.8925693551461
 31
0.0
  0
LINE
  5
7CC2
330
A
100
AcDbEntity
  8
MODEL
100
AcDbLine
 10
740.5033094340179
 20
756.8925693551461
 30
0.0
 11
740.5033093664274
 21
755.8925693551458
 31
0.0
  0
LINE
  5
7CC3
330
A
100
AcDbEntity
  8
MODEL
100
AcDbLine
 10
739.2723469351295
 20
755.8925694383469
 30
0.0
 11
739.2723470027199
 21
756.8925694383471
 31
0.0
  0
LINE
  5
7CC4
330
A
100
AcDbEntity
  8
MODEL
100
AcDbLine
 10
736.4439199286076
 20
756.8925696295206
 30
0.0
 11
736.4439198610175
 21
755.8925696295206
 31
0.0
  0
LINE
  5
7CC5
330
A
100
AcDbEntity
  8
MODEL
100
AcDbLine
 10
740.5033093664274
 20
755.8925693551458
 30
0.0
 11
739.2723469351295
 21
755.8925694383469
 31
0.0
  0
LINE
  5
7CC6
330
A
100
AcDbEntity
  8
MODEL
100
AcDbLine
 10
739.2723469351295
 20
755.8925694383469
 30
0.0
 11
738.7279877609362
 21
755.8925694751402
 31
0.0
  0
LINE
  5
7CC7
330
A
100
AcDbEntity
  8
MODEL
100
AcDbLine
 10
738.7279877609362
 20
755.8925694751402
 30
0.0
 11
738.7279878285262
 21
756.8925694751402
 31
0.0
  0
LINE
  5
7CC8
330
A
100
AcDbEntity
  8
MODEL
100
AcDbLine
 10
733.4721136257945
 20
756.8925698303857
 30
0.0
 11
729.4721136257945
 21
756.8925701007462
 31
0.0
  0
LINE
  5
7CC9
330
A
100
AcDbEntity
  8
MODEL
100
AcDbLine
 10
733.4721135582045
 20
755.8925698303857
 30
0.0
 11
733.4721136257945
 21
756.8925698303857
 31
0.0
  0
LINE
  5
7CCA
330
A
100
AcDbEntity
  8
MODEL
100
AcDbLine
 10
729.4721136257945
 20
756.8925701007462
 30
0.0
 11
729.4721135582045
 21
755.8925701007462
 31
0.0
  0
LINE
  5
7CCB
330
A
100
AcDbEntity
  8
MODEL
100
AcDbLine
 10
726.5003072113186
 20
755.892570301611
 30
0.0
 11
726.5003072789091
 21
756.8925703016113
 31
0.0
  0
LINE
  5
7CCC
330
A
100
AcDbEntity
  8
MODEL
100
AcDbLine
 10
729.4721135582045
 20
755.8925701007462
 30
0.0
 11
726.5003072113186
 21
755.892570301611
 31
0.0
  0
LINE
  5
7CCD
330
A
100
AcDbEntity
  8
MODEL
100
AcDbLine
 10
718.9721151684644
 20
782.1084365622138
 30
0.0
 11
718.9721134787105
 21
757.1084365622138
 31
0.0
  0
LINE
  5
7CCE
330
A
100
AcDbEntity
  8
MODEL
100
AcDbLine
 10
722.22211346412
 20
756.8925705907751
 30
0.0
 11
722.2221134686474
 21
756.9595578888826
 31
0.0
  0
ARC
  5
7CCF
330
A
100
AcDbEntity
  8
MODEL
100
AcDbCircle
 10
722.472113497915
 20
757.3925705738776
 30
0.0
 40
0.4999999999999982
100
AcDbArc
 50
214.6295669234587
 51
239.9999961281355
  0
LINE
  5
7CD0
330
A
100
AcDbEntity
  8
MODEL
100
AcDbLine
 10
722.4409175658293
 20
756.8925705759858
 30
0.0
 11
722.22211346412
 21
756.8925705907751
 31
0.0
  0
LINE
  5
7CD1
330
A
100
AcDbEntity
  8
MODEL
100
AcDbLine
 10
722.4409174982393
 20
755.8925705759858
 30
0.0
 11
722.4409175658293
 21
756.8925705759858
 31
0.0
  0
LINE
  5
7CD2
330
A
100
AcDbEntity
  8
MODEL
100
AcDbLine
 10
723.6718801035286
 20
756.8925704927848
 30
0.0
 11
723.6718800359386
 21
755.892570492785
 31
0.0
  0
LINE
  5
7CD3
330
A
100
AcDbEntity
  8
MODEL
100
AcDbLine
 10
723.6718800359386
 20
755.892570492785
 30
0.0
 11
722.4409174982393
 21
755.892570575986
 31
0.0
  0
LINE
  5
7CD4
330
A
100
AcDbEntity
  8
MODEL
100
AcDbLine
 10
724.2162391906418
 20
755.8925704559916
 30
0.0
 11
723.6718800359386
 21
755.892570492785
 31
0.0
  0
LINE
  5
7CD5
330
A
100
AcDbEntity
  8
MODEL
100
AcDbLine
 10
724.2162391906418
 20
755.8925704559916
 30
0.0
 11
724.2162392582322
 21
756.8925704559916
 31
0.0
  0
LINE
  5
7CD6
330
A
100
AcDbEntity
  8
MODEL
100
AcDbLine
 10
555.8877346932745
 20
807.108447585114
 30
0.0
 11
693.9721168582187
 21
807.1084382519681
 31
0.0
  0
LINE
  5
7CD7
330
A
100
AcDbEntity
  8
MODEL
100
AcDbLine
 10
555.8877363830284
 20
832.108447585114
 30
0.0
 11
693.9721185479725
 21
832.1084382519681
 31
0.0
  0
LINE
  5
7CD9
330
A
100
AcDbEntity
  8
MODEL
100
AcDbLine
 10
555.6877378624072
 20
819.6084466740114
 30
0.0
 11
555.6877400590879
 21
852.1084466740114
 31
0.0
  0
LINE
  5
7CDA
330
A
100
AcDbEntity
  8
MODEL
100
AcDbLine
 10
555.8877378653874
 20
819.6084466604935
 30
0.0
 11
555.8877400485499
 21
851.9084466575129
 31
0.0
  0
LINE
  5
7CDB
330
A
100
AcDbEntity
  8
MODEL
100
AcDbLine
 10
526.8877378653879
 20
819.6084486206083
 30
0.0
 11
526.8877400620681
 21
852.1084486206079
 31
0.0
  0
LINE
  5
7CDC
330
A
100
AcDbEntity
  8
MODEL
100
AcDbLine
 10
555.6877356657269
 20
787.1084466740114
 30
0.0
 11
555.6877378624072
 21
819.6084466740114
 31
0.0
  0
LINE
  5
7CDD
330
A
100
AcDbEntity
  8
MODEL
100
AcDbLine
 10
555.8877356822254
 20
787.3084466634738
 30
0.0
 11
555.8877378653874
 21
819.6084466604935
 31
0.0
  0
LINE
  5
7CDE
330
A
100
AcDbEntity
  8
MODEL
100
AcDbLine
 10
555.8877356822254
 20
787.3084466634738
 30
0.0
 11
555.6877356657269
 21
787.1084466740114
 31
0.0
  0
LINE
  5
7CDF
330
A
100
AcDbEntity
  8
MODEL
100
AcDbLine
 10
526.8877356687071
 20
787.1084486206083
 30
0.0
 11
526.8877378653879
 21
819.6084486206083
 31
0.0
  0
LINE
  5
7CE0
330
A
100
AcDbEntity
  8
MODEL
100
AcDbLine
 10
524.0863653729525
 20
790.608449568526
 30
0.0
 11
524.0863692931821
 21
848.6084495685255
 31
0.0
  0
LINE
  5
7CE1
330
A
100
AcDbEntity
  8
MODEL
100
AcDbLine
 10
526.8877356687071
 20
787.1084486206083
 30
0.0
 11
555.6877356657269
 21
787.1084466740111
 31
0.0
  0
LINE
  5
7CE2
330
A
100
AcDbEntity
  8
MODEL
100
AcDbLine
 10
524.0863653729525
 20
790.608449568526
 30
0.0
 11
526.8877359052731
 21
790.6084493791806
 31
0.0
  0
LINE
  5
7CE3
330
A
100
AcDbEntity
  8
MODEL
100
AcDbLine
 10
524.0863692931821
 20
848.6084495685255
 30
0.0
 11
526.8877398255026
 21
848.6084493791806
 31
0.0
  0
LINE
  5
7CE4
330
A
100
AcDbEntity
  8
MODEL
100
AcDbLine
 10
526.8877400620681
 20
852.1084486206081
 30
0.0
 11
555.6877400590879
 21
852.1084466740114
 31
0.0
  0
LINE
  5
7CE5
330
A
100
AcDbEntity
  8
MODEL
100
AcDbLine
 10
555.8877400485499
 20
851.9084466575129
 30
0.0
 11
555.6877400590879
 21
852.1084466740114
 31
0.0
  0
LINE
  5
7CE6
330
A
100
AcDbEntity
  8
MODEL
100
AcDbLine
 10
265.057371150499
 20
819.6084611401517
 30
0.0
 11
265.057371150499
 21
782.1084586055205
 31
0.0
  0
LINE
  5
7CE7
330
A
100
AcDbEntity
  8
MODEL
100
AcDbLine
 10
240.057371150499
 20
819.6084611401517
 30
0.0
 11
240.057371150499
 21
782.1084586055205
 31
0.0
  0
LINE
  5
7CEA
330
A
100
AcDbEntity
  8
MODEL
100
AcDbLine
 10
243.3073721183719
 20
756.9595801518573
 30
0.0
 11
261.8073721183719
 21
756.9595801518573
 31
0.0
  0
LINE
  5
7CEB
330
A
100
AcDbEntity
  8
MODEL
100
AcDbLine
 10
260.3576056962875
 20
755.8925928537495
 30
0.0
 11
261.588568104085
 21
755.8925928537495
 31
0.0
  0
LINE
  5
7CEC
330
A
100
AcDbEntity
  8
MODEL
100
AcDbLine
 10
240.0573721183578
 20
757.1084586055205
 30
0.0
 11
265.0573721183578
 21
757.1084586055205
 31
0.0
  0
LINE
  5
7CED
330
A
100
AcDbEntity
  8
MODEL
100
AcDbLine
 10
240.0573721183578
 20
782.1084586055205
 30
0.0
 11
265.0573721183578
 21
782.1084586055205
 31
0.0
  0
LINE
  5
7CEE
330
A
100
AcDbEntity
  8
MODEL
100
AcDbLine
 10
240.0573721183578
 20
782.1084586055205
 30
0.0
 11
240.0573721183578
 21
757.1084586055205
 31
0.0
  0
LINE
  5
7CEF
330
A
100
AcDbEntity
  8
MODEL
100
AcDbLine
 10
247.5855659948434
 20
755.8925928537495
 30
0.0
 11
250.5573723514631
 21
755.8925928537495
 31
0.0
  0
LINE
  5
7CF0
330
A
100
AcDbEntity
  8
MODEL
100
AcDbLine
 10
243.5261762358969
 20
755.8925928537495
 30
0.0
 11
244.7571387970966
 21
755.8925928537495
 31
0.0
  0
ARC
  5
7CF1
330
A
100
AcDbEntity
  8
MODEL
100
AcDbCircle
 10
243.5573721183719
 20
757.3925928537493
 30
0.0
 40
0.4999999999999982
100
AcDbArc
 50
214.6295707961008
 51
240.0000000007698
  0
LINE
  5
7CF2
330
A
100
AcDbEntity
  8
MODEL
100
AcDbLine
 10
243.3073721183719
 20
756.8925928537493
 30
0.0
 11
243.3073721183719
 21
756.9595801518573
 31
0.0
  0
LINE
  5
7CF3
330
A
100
AcDbEntity
  8
MODEL
100
AcDbLine
 10
243.3073721183719
 20
756.8925928537493
 30
0.0
 11
243.5261762358969
 21
756.8925928537493
 31
0.0
  0
LINE
  5
7CF4
330
A
100
AcDbEntity
  8
MODEL
100
AcDbLine
 10
243.5261762358969
 20
756.8925927185693
 30
0.0
 11
243.5261762358969
 21
755.8925927185693
 31
0.0
  0
LINE
  5
7CF5
330
A
100
AcDbEntity
  8
MODEL
100
AcDbLine
 10
244.7571387970966
 20
756.8925928537493
 30
0.0
 11
247.5855659948434
 21
756.8925928537493
 31
0.0
  0
LINE
  5
7CF6
330
A
100
AcDbEntity
  8
MODEL
100
AcDbLine
 10
244.7571387970966
 20
755.8925925177042
 30
0.0
 11
244.7571387970966
 21
756.8925925177042
 31
0.0
  0
LINE
  5
7CF7
330
A
100
AcDbEntity
  8
MODEL
100
AcDbLine
 10
247.5855659948434
 20
756.8925923265307
 30
0.0
 11
247.5855659948434
 21
755.8925923265305
 31
0.0
  0
LINE
  5
7CF8
330
A
100
AcDbEntity
  8
MODEL
100
AcDbLine
 10
244.7571387970966
 20
755.8925925177042
 30
0.0
 11
245.3014979474951
 21
755.8925925544976
 31
0.0
  0
LINE
  5
7CF9
330
A
100
AcDbEntity
  8
MODEL
100
AcDbLine
 10
245.3014979474951
 20
755.8925925544976
 30
0.0
 11
245.3014979474951
 21
756.8925925544978
 31
0.0
  0
LINE
  5
7CFA
330
A
100
AcDbEntity
  8
MODEL
100
AcDbLine
 10
254.5573723514631
 20
755.8925928537495
 30
0.0
 11
257.5291786445418
 21
755.8925928537495
 31
0.0
  0
LINE
  5
7CFB
330
A
100
AcDbEntity
  8
MODEL
100
AcDbLine
 10
250.5573723514631
 20
756.8925928537493
 30
0.0
 11
254.5573723514631
 21
756.8925928537493
 31
0.0
  0
LINE
  5
7CFC
330
A
100
AcDbEntity
  8
MODEL
100
AcDbLine
 10
250.5573723514631
 20
755.8925922433294
 30
0.0
 11
250.5573723514631
 21
756.8925922433297
 31
0.0
  0
LINE
  5
7CFD
330
A
100
AcDbEntity
  8
MODEL
100
AcDbLine
 10
254.5573723514631
 20
756.8925922433297
 30
0.0
 11
254.5573723514631
 21
755.8925922433294
 31
0.0
  0
LINE
  5
7CFE
330
A
100
AcDbEntity
  8
MODEL
100
AcDbLine
 10
257.5291786445418
 20
756.8925928537493
 30
0.0
 11
260.3576056962875
 21
756.8925928537493
 31
0.0
  0
LINE
  5
7CFF
330
A
100
AcDbEntity
  8
MODEL
100
AcDbLine
 10
257.5291786445418
 20
755.8925923265305
 30
0.0
 11
257.5291786445418
 21
756.8925923265307
 31
0.0
  0
LINE
  5
7D00
330
A
100
AcDbEntity
  8
MODEL
100
AcDbLine
 10
260.3576056962875
 20
756.8925925177042
 30
0.0
 11
260.3576056962875
 21
755.8925925177042
 31
0.0
  0
LINE
  5
7D01
330
A
100
AcDbEntity
  8
MODEL
100
AcDbLine
 10
259.8132465177891
 20
755.8925925544976
 30
0.0
 11
260.3576056962875
 21
755.8925925177042
 31
0.0
  0
LINE
  5
7D02
330
A
100
AcDbEntity
  8
MODEL
100
AcDbLine
 10
259.8132465177891
 20
755.8925925544976
 30
0.0
 11
259.8132465177891
 21
756.8925925544978
 31
0.0
  0
LINE
  5
7D03
330
A
100
AcDbEntity
  8
MODEL
100
AcDbLine
 10
265.0573721183578
 20
782.1084586055205
 30
0.0
 11
265.0573721183578
 21
757.1084586055205
 31
0.0
  0
LINE
  5
7D04
330
A
100
AcDbEntity
  8
MODEL
100
AcDbLine
 10
261.8073721183719
 20
756.8925928537493
 30
0.0
 11
261.8073721183719
 21
756.9595801518573
 31
0.0
  0
ARC
  5
7D05
330
A
100
AcDbEntity
  8
MODEL
100
AcDbCircle
 10
261.5573721183719
 20
757.3925928537493
 30
0.0
 40
0.4999999999999982
100
AcDbArc
 50
299.9999999992799
 51
325.3704292038993
  0
LINE
  5
7D06
330
A
100
AcDbEntity
  8
MODEL
100
AcDbLine
 10
261.588568104085
 20
756.8925928537493
 30
0.0
 11
261.8073721183719
 21
756.8925928537493
 31
0.0
  0
LINE
  5
7D07
330
A
100
AcDbEntity
  8
MODEL
100
AcDbLine
 10
261.588568104085
 20
755.8925927185693
 30
0.0
 11
261.588568104085
 21
756.8925927185693
 31
0.0
  0
CIRCLE
  5
7D08
330
A
100
AcDbEntity
  8
MODEL
100
AcDbCircle
 10
352.5573692829566
 20
819.6084725975376
 30
0.0
 40
32.5
  0
ARC
  5
7D0A
330
A
100
AcDbEntity
  8
MODEL
100
AcDbCircle
 10
252.5573692829571
 20
819.6084725975371
 30
0.0
 40
32.5
100
AcDbArc
 50
292.6198604057421
 51
179.9999999991009
  0
ARC
  5
7D0B
330
A
100
AcDbEntity
  8
MODEL
100
AcDbCircle
 10
252.557371150499
 20
819.6084611401517
 30
0.0
 40
12.5
100
AcDbArc
 50
0.0000000004429368
 51
180.0
  0
ARC
  5
7D0F
330
A
100
AcDbEntity
  8
MODEL
100
AcDbCircle
 10
252.5573692829571
 20
819.6084725975371
 30
0.0
 40
32.5
100
AcDbArc
 50
180.0
 51
247.3801305097741
  0
DIMENSION
  5
7D12
330
A
100
AcDbEntity
  8
DIM
370
     0
100
AcDbDimension
  2
*D53
 10
524.086366184034
 20
683.3246956972735
 30
0.0
 11
634.0292394258313
 21
683.3246956972735
 31
0.0
 70
   160
  1
220
 71
     5
 42
219.8857472946765
 73
     0
 74
     0
 75
     0
 52
-89.99999999999999
  3
tfrom線あり
100
AcDbAlignedDimension
 13
743.9721134787105
 23
757.10843487246
 33
0.0
 14
524.086366184034
 24
766.2777190726464
 34
0.0
 50
180.0
100
AcDbRotatedDimension
  0
DIMENSION
  5
7D14
330
A
100
AcDbEntity
  8
DIM
370
     0
100
AcDbDimension
  2
*D55
 10
524.0863684820997
 20
906.0396147786804
 30
0.0
 11
539.9870546708662
 21
906.0396147786804
 31
0.0
 70
   160
  1
32
 71
     5
 42
31.80137156645015
 73
     0
 74
     0
 75
     0
 52
-89.99999999999999
  3
tfrom線あり
100
AcDbAlignedDimension
 13
555.8877400485499
 23
851.9084466575129
 33
0.0
 14
524.0863684820997
 24
886.0313099124897
 34
0.0
 50
180.0
100
AcDbRotatedDimension
  0
LINE
  5
7D15
330
A
100
AcDbEntity
  8
MODEL
  6
CENTER
 48
0.01
100
AcDbLine
 10
496.0863673330673
 20
819.6084466740114
 30
0.0
 11
693.972117703096
 21
819.6084466740114
 31
0.0
  0
LINE
  5
7D16
330
A
100
AcDbEntity
  8
MODEL
  6
CENTER
 48
0.01
100
AcDbLine
 10
731.4721134787105
 20
782.1084357173366
 30
0.0
 11
731.4721134787105
 21
757.1084357173369
 31
0.0
  0
ARC
  5
7D17
330
A
100
AcDbEntity
  8
MODEL
  6
CENTER
 48
0.01
100
AcDbCircle
 10
693.9721151684644
 20
782.1084382519681
 30
0.0
 40
37.5
100
AcDbArc
 50
359.9999961275991
 51
89.99999612737085
  0
DIMENSION
  5
7D18
330
A
100
AcDbEntity
  8
DIM
370
     0
100
AcDbDimension
  2
*D56
 10
524.086366184034
 20
717.2582330380449
 30
0.0
 11
627.7792394258313
 21
717.2582330380449
 31
0.0
 70
   160
  1
208
 71
     5
 42
207.3857472946765
 73
     0
 74
     0
 75
     0
 52
-89.99999999999999
  3
tfrom線あり
100
AcDbAlignedDimension
 13
731.4721134787105
 23
757.1084357173369
 33
0.0
 14
524.086366184034
 24
766.2777190726464
 34
0.0
 50
180.0
100
AcDbRotatedDimension
  0
DIMENSION
  5
7D1B
330
A
100
AcDbEntity
  8
DIM
370
     0
100
AcDbDimension
  2
*D58
 10
352.5573692881189
 20
902.7011327016363
 30
0.0
 11
302.5573692881189
 21
902.7011327016363
 31
0.0
 70
   160
 71
     5
 42
100.0
 73
     0
 74
     0
 75
     0
  3
tfrom線あり
100
AcDbAlignedDimension
 13
252.5573692881189
 23
852.7181395512467
 33
0.0
 14
352.5573692881189
 24
852.7181395512467
 34
0.0
100
AcDbRotatedDimension
  0
CIRCLE
  5
7D1E
330
A
100
AcDbEntity
  8
MODEL
100
AcDbCircle
 10
152.5573692829566
 20
819.6084725975376
 30
0.0
 40
32.5
  0
DIMENSION
  5
7D23
330
A
100
AcDbEntity
  8
DIM
370
     0
100
AcDbDimension
  2
*D59
 10
252.5573692881189
 20
902.2227579985359
 30
0.0
 11
202.5573692881189
 21
902.2227579985359
 31
0.0
 70
   160
 71
     5
 42
100.0
 73
     0
 74
     0
 75
     0
  3
tfrom線あり
100
AcDbAlignedDimension
 13
152.5573692881189
 23
852.7181395512467
 33
0.0
 14
252.5573692881189
 24
852.7181395512467
 34
0.0
100
AcDbRotatedDimension
  0
LINE
  5
7D25
330
A
100
AcDbEntity
  8
MODEL
100
AcDbLine
 10
464.0820513966382
 20
819.6084443727617
 30
0.0
 11
464.0820513966382
 21
804.4114291597208
 31
0.0
  0
LINE
  5
7D26
330
A
100
AcDbEntity
  8
MODEL
100
AcDbLine
 10
466.0820513966382
 20
834.8054595858029
 30
0.0
 11
466.0820513966382
 21
804.4114291597208
 31
0.0
  0
LINE
  5
7D27
330
A
100
AcDbEntity
  8
MODEL
100
AcDbLine
 10
466.8363673330673
 20
809.6401985362098
 30
0.0
 11
466.8363673330673
 21
782.1084890333917
 31
0.0
  0
LINE
  5
7D28
330
A
100
AcDbEntity
  8
MODEL
100
AcDbLine
 10
495.7594682268946
 20
803.5136196556717
 30
0.0
 11
482.3320495271505
 21
818.7615636242805
 31
0.0
  0
LINE
  5
7D29
330
A
100
AcDbEntity
  8
MODEL
100
AcDbLine
 10
481.5863679778136
 20
782.1088166207318
 30
0.0
 11
496.0863674512693
 21
782.1088166207318
 31
0.0
  0
LINE
  5
7D2A
330
A
100
AcDbEntity
  8
MODEL
100
AcDbLine
 10
481.5863679559457
 20
781.6086027062316
 30
0.0
 11
495.836166042227
 21
781.6086027062316
 31
0.0
  0
LINE
  5
7D2B
330
A
100
AcDbEntity
  8
MODEL
100
AcDbLine
 10
496.0863621332574
 20
797.2354464207118
 30
0.0
 11
496.0863674512734
 21
782.1088166207318
 31
0.0
  0
LINE
  5
7D2C
330
A
100
AcDbEntity
  8
MODEL
100
AcDbLine
 10
495.8361660422288
 20
781.6086027062296
 30
0.0
 11
496.0863037534386
 21
781.8587467302024
 31
0.0
  0
LINE
  5
7D2D
330
A
100
AcDbEntity
  8
MODEL
100
AcDbLine
 10
496.08636733307
 20
781.8586999207042
 30
0.0
 11
496.0863674512698
 21
782.1088166207318
 31
0.0
  0
LINE
  5
7D2E
330
A
100
AcDbEntity
  8
MODEL
100
AcDbLine
 10
495.7596149598426
 20
800.6084443864416
 30
0.0
 11
495.75946822689
 21
803.5136196556717
 31
0.0
  0
LINE
  5
7D2F
330
A
100
AcDbEntity
  8
MODEL
100
AcDbLine
 10
496.0863674859283
 20
800.6084443775118
 30
0.0
 11
496.0863674814086
 21
803.5136512160317
 31
0.0
  0
ARC
  5
7D30
330
A
100
AcDbEntity
  8
MODEL
100
AcDbCircle
 10
513.7263006019689
 20
800.6465778968803
 30
0.0
 40
17.96672611044172
100
AcDbArc
 50
180.1216076225365
 51
190.9445129189272
  0
LINE
  5
7D31
330
A
100
AcDbEntity
  8
MODEL
100
AcDbLine
 10
496.0863674859283
 20
800.6084443775118
 30
0.0
 11
496.0863621332574
 21
797.2354464207118
 31
0.0
  0
LINE
  5
7D32
330
A
100
AcDbEntity
  8
MODEL
100
AcDbLine
 10
495.7595258511415
 20
800.6084443883118
 30
0.0
 11
496.0863267710215
 21
800.6084443883118
 31
0.0
  0
ARC
  5
7D33
330
A
100
AcDbEntity
  8
MODEL
100
AcDbCircle
 10
497.7771366536094
 20
803.3921792475677
 30
0.0
 40
2.021319779967619
100
AcDbArc
 50
146.7680416455858
 51
176.5556090381383
  0
LINE
  5
7D34
330
A
100
AcDbEntity
  8
MODEL
100
AcDbLine
 10
496.0863860081804
 20
804.4999228586418
 30
0.0
 11
496.0863674814036
 21
803.5136512160317
 31
0.0
  0
LINE
  5
7D35
330
A
100
AcDbEntity
  8
MODEL
100
AcDbLine
 10
495.7594392196274
 20
803.513649117927
 30
0.0
 11
496.0863448448249
 21
803.513636958423
 31
0.0
  0
LINE
  5
7D36
330
A
100
AcDbEntity
  8
MODEL
100
AcDbLine
 10
454.5820513966382
 20
792.7095213982967
 30
0.0
 11
454.5820513966382
 21
781.6084443727617
 31
0.0
  0
LINE
  5
7D37
330
A
100
AcDbEntity
  8
MODEL
100
AcDbLine
 10
456.5820513966382
 20
794.1084443727617
 30
0.0
 11
456.5820513966382
 21
781.6084443727617
 31
0.0
  0
LINE
  5
7D38
330
A
100
AcDbEntity
  8
MODEL
100
AcDbLine
 10
456.5820508721013
 20
781.6084443727617
 30
0.0
 11
456.5820508721013
 21
769.6084443727617
 31
0.0
  0
LINE
  5
7D39
330
A
100
AcDbEntity
  8
MODEL
100
AcDbLine
 10
454.5820508721013
 20
781.6084443727617
 30
0.0
 11
454.5820508721013
 21
769.6084443727617
 31
0.0
  0
LINE
  5
7D3A
330
A
100
AcDbEntity
  8
MODEL
100
AcDbLine
 10
456.5820508721013
 20
769.6084443727617
 30
0.0
 11
454.5820508721013
 21
769.6084443727617
 31
0.0
  0
LINE
  5
7D3B
330
A
100
AcDbEntity
  8
MODEL
100
AcDbLine
 10
466.8363673330673
 20
782.1084890333917
 30
0.0
 11
481.5863679778136
 21
782.1084890333917
 31
0.0
  0
LINE
  5
7D3C
330
A
100
AcDbEntity
  8
MODEL
100
AcDbLine
 10
467.3365686239072
 20
781.6086027062316
 30
0.0
 11
481.5863679559457
 21
781.6086027062316
 31
0.0
  0
LINE
  5
7D3E
330
A
100
AcDbEntity
  8
MODEL
100
AcDbLine
 10
466.8365311267335
 20
782.1086528229247
 30
0.0
 11
467.3365686239058
 21
781.6086027062307
 31
0.0
  0
LINE
  5
7D40
330
A
100
AcDbEntity
  8
MODEL
100
AcDbLine
 10
464.295989445071
 20
800.5812069441259
 30
0.0
 11
456.5820513966382
 21
794.1084443727617
 31
0.0
  0
ARC
  5
7D41
330
A
100
AcDbEntity
  8
MODEL
100
AcDbCircle
 10
459.5820513966382
 20
792.7095213982967
 30
0.0
 40
4.999999999999998
100
AcDbArc
 50
130.0000000000006
 51
179.9999999998697
  0
LINE
  5
7D42
330
A
100
AcDbEntity
  8
MODEL
100
AcDbLine
 10
463.0104142256978
 20
802.1132958303639
 30
0.0
 11
456.3681133482055
 21
796.5397436138916
 31
0.0
  0
ARC
  5
7D43
330
A
100
AcDbEntity
  8
MODEL
100
AcDbCircle
 10
461.0820513966382
 20
804.4114291597208
 30
0.0
 40
4.999999999999994
100
AcDbArc
 50
310.0000000000006
 51
359.9999999998698
  0
ARC
  5
7D44
330
A
100
AcDbEntity
  8
MODEL
100
AcDbCircle
 10
461.0820513966382
 20
804.4114291597208
 30
0.0
 40
3.0
100
AcDbArc
 50
310.0000000001227
 51
0.0
  0
ARC
  5
7D45
330
A
100
AcDbEntity
  8
MODEL
100
AcDbCircle
 10
459.5820513966382
 20
846.5073673472269
 30
0.0
 40
5.000000000000002
100
AcDbArc
 50
180.0
 51
229.9999999998773
  0
LINE
  5
7D46
330
A
100
AcDbEntity
  8
MODEL
100
AcDbLine
 10
456.5820513966382
 20
845.1084443727617
 30
0.0
 11
456.5820513966382
 21
857.6084443727617
 31
0.0
  0
LINE
  5
7D47
330
A
100
AcDbEntity
  8
MODEL
100
AcDbLine
 10
494.3363629619284
 20
849.6084443827616
 30
0.0
 11
494.3363629619284
 21
836.8585180122963
 31
0.0
  0
LINE
  5
7D48
330
A
100
AcDbEntity
  8
MODEL
100
AcDbLine
 10
468.8363629619284
 20
849.6084443827616
 30
0.0
 11
468.8363629619284
 21
829.6084443727617
 31
0.0
  0
LINE
  5
7D4A
330
A
100
AcDbEntity
  8
MODEL
100
AcDbLine
 10
481.586367323067
 20
834.3584443727617
 30
0.0
 11
496.0863673330673
 21
834.3584443727617
 31
0.0
  0
LINE
  5
7D4B
330
A
100
AcDbEntity
  8
MODEL
100
AcDbLine
 10
496.0863676558356
 20
806.8398108171417
 30
0.0
 11
482.3320495273342
 21
818.9518713913425
 31
0.0
  0
ARC
  5
7D4C
330
A
100
AcDbEntity
  8
MODEL
100
AcDbCircle
 10
496.3373827305409
 20
836.8593848199479
 30
0.0
 40
2.00115105162098
100
AcDbArc
 50
180.023976684344
 51
262.7931659536814
  0
LWPOLYLINE
  5
7D4D
330
A
100
AcDbEntity
  8
MODEL
100
AcDbPolyline
 90
        9
 70
     0
 43
0.0
 10
494.3367673331795
 20
836.8588353792314
 10
494.3011990958748
 20
836.8236638704424
 10
494.193578856617
 20
836.7173558870439
 10
494.0103818351326
 20
836.5370580354814
 10
493.7470227653084
 20
836.2791539827471
 10
493.3974896842537
 20
835.9393712679033
 10
492.9550153190194
 20
835.5133763948564
 10
492.4109937125741
 20
834.9971715608721
 10
491.7246533805428
 20
834.3584386507158
  0
LINE
  5
7D4E
330
A
100
AcDbEntity
  8
MODEL
100
AcDbLine
 10
464.0820513966382
 20
834.8054595858024
 30
0.0
 11
464.0820513966382
 21
819.6084443727617
 31
0.0
  0
LINE
  5
7D4F
330
A
100
AcDbEntity
  8
MODEL
100
AcDbLine
 10
467.0863686444086
 20
811.6084443727617
 30
0.0
 11
467.0863686444086
 21
827.6084443802566
 31
0.0
  0
LINE
  5
7D50
330
A
100
AcDbEntity
  8
MODEL
100
AcDbLine
 10
471.0863686444086
 20
811.6084443727617
 30
0.0
 11
471.0863686444086
 21
827.6084443727617
 31
0.0
  0
LINE
  5
7D51
330
A
100
AcDbEntity
  8
MODEL
100
AcDbLine
 10
473.0863680324492
 20
825.29696652482
 30
0.0
 11
473.0863680324492
 21
828.6084443727617
 31
0.0
  0
LINE
  5
7D52
330
A
100
AcDbEntity
  8
MODEL
100
AcDbLine
 10
475.232522491126
 20
827.7776755262965
 30
0.0
 11
475.232522491126
 21
825.381947064658
 31
0.0
  0
LINE
  5
7D54
330
A
100
AcDbEntity
  8
MODEL
100
AcDbLine
 10
472.6888092422569
 20
813.6084443727617
 30
0.0
 11
472.6888092422569
 21
825.6084443727617
 31
0.0
  0
ARC
  5
7D55
330
A
100
AcDbEntity
  8
MODEL
100
AcDbCircle
 10
475.5774582440072
 20
815.1753529911529
 30
0.0
 40
2.890442700883431
100
AcDbArc
 50
147.6571868520479
 51
177.9585577620632
  0
ARC
  5
7D56
330
A
100
AcDbEntity
  8
MODEL
100
AcDbCircle
 10
474.8002421819378
 20
815.1753534669868
 30
0.0
 40
2.890442341373979
100
AcDbArc
 50
2.041433053740175
 51
32.34280649632868
  0
LINE
  5
7D57
330
A
100
AcDbEntity
  8
MODEL
100
AcDbLine
 10
477.6888499323063
 20
815.2783173538395
 30
0.0
 11
477.6888499323063
 21
819.6084443727617
 31
0.0
  0
LINE
  5
7D58
330
A
100
AcDbEntity
  8
MODEL
100
AcDbLine
 10
463.935086421151
 20
813.6084443727617
 30
0.0
 11
463.935086421151
 21
825.6084443727617
 31
0.0
  0
LINE
  5
7D59
330
A
100
AcDbEntity
  8
MODEL
100
AcDbLine
 10
462.3350864211511
 20
813.6084443727617
 30
0.0
 11
462.3350864211511
 21
825.6084443727617
 31
0.0
  0
LINE
  5
7D5A
330
A
100
AcDbEntity
  8
MODEL
100
AcDbLine
 10
456.532049935287
 20
824.6084443727617
 30
0.0
 11
456.532049935287
 21
814.6084443727617
 31
0.0
  0
LINE
  5
7D5B
330
A
100
AcDbEntity
  8
MODEL
100
AcDbLine
 10
456.3320499323067
 20
824.4084443697815
 30
0.0
 11
456.3320499323067
 21
814.8084443757419
 31
0.0
  0
LINE
  5
7D5C
330
A
100
AcDbEntity
  8
MODEL
100
AcDbLine
 10
462.3320499323067
 20
824.6084443727617
 30
0.0
 11
462.3320499323067
 21
814.6084443727617
 31
0.0
  0
LINE
  5
7D5D
330
A
100
AcDbEntity
  8
MODEL
100
AcDbLine
 10
462.3350864211511
 20
813.6084443727617
 30
0.0
 11
463.935086421151
 21
813.6084443727617
 31
0.0
  0
LINE
  5
7D5E
330
A
100
AcDbEntity
  8
MODEL
100
AcDbLine
 10
467.0863685569861
 20
809.6084443727617
 30
0.0
 11
467.0863685569861
 21
811.6084443727617
 31
0.0
  0
LINE
  5
7D5F
330
A
100
AcDbEntity
  8
MODEL
100
AcDbLine
 10
471.0863685569861
 20
809.6084443727617
 30
0.0
 11
471.0863685569861
 21
811.6084443727617
 31
0.0
  0
LINE
  5
7D60
330
A
100
AcDbEntity
  8
MODEL
100
AcDbLine
 10
473.0863680324492
 20
810.6084443727617
 30
0.0
 11
473.0863680324492
 21
813.9199222207034
 31
0.0
  0
LINE
  5
7D61
330
A
100
AcDbEntity
  8
MODEL
100
AcDbLine
 10
475.2325210514123
 20
813.8349416808654
 30
0.0
 11
475.2325206547021
 21
810.6084443718577
 31
0.0
  0
ELLIPSE
  5
7D62
330
A
100
AcDbEntity
  8
MODEL
100
AcDbEllipse
 10
472.0863679043759
 20
808.1084443727617
 30
0.0
 11
-2.566417289565100E-17
 21
1.5
 31
0.0
210
0.0
220
0.0
230
1.0
 40
0.5846153494578751
 41
4.712388980671353
 42
6.283201613472247
  0
ELLIPSE
  5
7D63
330
A
100
AcDbEntity
  8
MODEL
100
AcDbEllipse
 10
467.0863679161807
 20
808.1084401531317
 30
0.0
 11
7.400353991446626E-6
 21
1.500002531756745
 31
0.0
210
0.0
220
0.0
230
1.0
 40
0.8923074096777267
 41
4.712396195725118
 42
6.283194826703077
  0
ELLIPSE
  5
7D64
330
A
100
AcDbEntity
  8
MODEL
100
AcDbEllipse
 10
466.6930080883712
 20
808.1395870893017
 30
0.0
 11
0.2359955170078877
 21
1.481316994914758
 31
0.0
210
0.0
220
0.0
230
1.0
 40
0.914657165884764
 41
4.857088428875575
 42
6.170236458784355
  0
LWPOLYLINE
  5
7D65
330
A
100
AcDbEntity
  8
MODEL
100
AcDbPolyline
 90
        5
 70
     0
 43
0.0
 10
468.0677701407967
 20
808.1395894685869
 10
467.8366528922616
 20
808.249483267415
 10
467.6315595084725
 20
808.5046865144853
 10
467.4583035880623
 20
808.908403555501
 10
467.324552672535
 20
809.4602986971025
  0
ARC
  5
7D66
330
A
100
AcDbEntity
  8
MODEL
100
AcDbCircle
 10
472.84007125275
 20
810.5001699730532
 30
0.0
 40
2.394898220453401
100
AcDbArc
 50
272.9495185000833
 51
2.59125057568659
  0
LINE
  5
7D67
330
A
100
AcDbEntity
  8
MODEL
100
AcDbLine
 10
472.9632909289717
 20
808.1084443727617
 30
0.0
 11
468.4248291625704
 21
808.1084443727617
 31
0.0
  0
LINE
  5
7D68
330
A
100
AcDbEntity
  8
MODEL
100
AcDbLine
 10
468.4248307492621
 20
808.1084443727717
 30
0.0
 11
468.0677729388544
 21
808.1395864891416
 31
0.0
  0
LINE
  5
7D69
330
A
100
AcDbEntity
  8
MODEL
100
AcDbLine
 10
467.0863685569861
 20
809.6084443727617
 30
0.0
 11
471.0863685569861
 21
809.6084443727617
 31
0.0
  0
ARC
  5
7D6A
330
A
100
AcDbEntity
  8
MODEL
100
AcDbCircle
 10
472.0863680324492
 20
810.6084443727617
 30
0.0
 40
1.0
100
AcDbArc
 50
270.0000000002345
 51
0.0
  0
LINE
  5
7D6B
330
A
100
AcDbEntity
  8
MODEL
100
AcDbLine
 10
472.0863680324492
 20
809.6084443727617
 30
0.0
 11
471.0863680324492
 21
809.6084443727617
 31
0.0
  0
LINE
  5
7D6C
330
A
100
AcDbEntity
  8
MODEL
100
AcDbLine
 10
475.2325203394103
 20
810.6084446012823
 30
0.0
 11
473.0863679006775
 21
810.6084503111462
 31
0.0
  0
ARC
  5
7D6D
330
A
100
AcDbEntity
  8
MODEL
100
AcDbCircle
 10
466.8707424346949
 20
808.8530068229719
 30
0.0
 40
0.7595148228788018
100
AcDbArc
 50
36.94768105788971
 51
74.08946070793279
  0
ARC
  5
7D6E
330
A
100
AcDbEntity
  8
MODEL
100
AcDbCircle
 10
467.0863685569861
 20
810.6084443727617
 30
0.0
 40
1.0
100
AcDbArc
 50
180.0000000002215
 51
270.0
  0
LINE
  5
7D6F
330
A
100
AcDbEntity
  8
MODEL
100
AcDbLine
 10
473.1354319196917
 20
813.8349416808654
 30
0.0
 11
477.2422679449214
 21
813.8349416808654
 31
0.0
  0
LINE
  5
7D70
330
A
100
AcDbEntity
  8
MODEL
100
AcDbLine
 10
477.6888499323063
 20
814.6084443727617
 30
0.0
 11
477.2422679449214
 21
813.8349416808654
 31
0.0
  0
ARC
  5
7D71
330
A
100
AcDbEntity
  8
MODEL
100
AcDbCircle
 10
474.8063179432247
 20
815.3794017629081
 30
0.0
 40
2.88430396383781
100
AcDbArc
 50
327.6241654859734
 51
357.9915791286753
  0
LINE
  5
7D72
330
A
100
AcDbEntity
  8
MODEL
100
AcDbLine
 10
477.6888499323063
 20
814.6084443727617
 30
0.0
 11
477.6888499323063
 21
815.2783173538395
 31
0.0
  0
LINE
  5
7D73
330
A
100
AcDbEntity
  8
MODEL
100
AcDbLine
 10
467.0863686444086
 20
811.6084443652668
 30
0.0
 11
471.0863686444086
 21
811.6084443727613
 31
0.0
  0
LINE
  5
7D74
330
A
100
AcDbEntity
  8
MODEL
100
AcDbLine
 10
467.0863686444086
 20
811.6084443727617
 30
0.0
 11
466.0863686006974
 21
811.6084443727617
 31
0.0
  0
LINE
  5
7D75
330
A
100
AcDbEntity
  8
MODEL
100
AcDbLine
 10
471.088809242257
 20
813.6084443727617
 30
0.0
 11
472.6888092422569
 21
813.6084443727617
 31
0.0
  0
LINE
  5
7D76
330
A
100
AcDbEntity
  8
MODEL
100
AcDbLine
 10
473.1354319196917
 20
813.8349416808654
 30
0.0
 11
472.6888499323063
 21
814.6084443727617
 31
0.0
  0
ARC
  5
7D77
330
A
100
AcDbEntity
  8
MODEL
100
AcDbCircle
 10
475.571381797814
 20
815.3794012882055
 30
0.0
 40
2.884303605281969
100
AcDbArc
 50
182.008411685482
 51
212.3758278644893
  0
LINE
  5
7D78
330
A
100
AcDbEntity
  8
MODEL
100
AcDbLine
 10
462.3320499323067
 20
814.6084443727617
 30
0.0
 11
456.532049935287
 21
814.6084443727617
 31
0.0
  0
ARC
  5
7D79
330
A
100
AcDbEntity
  8
MODEL
100
AcDbCircle
 10
456.532049935287
 20
814.8084443757419
 30
0.0
 40
0.2000000029802322
100
AcDbArc
 50
180.0
 51
269.9999999997393
  0
LINE
  5
7D7A
330
A
100
AcDbEntity
  8
MODEL
100
AcDbLine
 10
462.3350864211511
 20
825.6084443727617
 30
0.0
 11
463.935086421151
 21
825.6084443727617
 31
0.0
  0
ARC
  5
7D7B
330
A
100
AcDbEntity
  8
MODEL
100
AcDbCircle
 10
482.9845085003662
 20
819.4936193930508
 30
0.0
 40
10.29629863716298
100
AcDbArc
 50
163.0510256623383
 51
179.3610205638599
  0
ARC
  5
7D7C
330
A
100
AcDbEntity
  8
MODEL
100
AcDbCircle
 10
467.365527503513
 20
819.4893397112625
 30
0.0
 40
10.3240097056182
100
AcDbArc
 50
0.6610169890557367
 51
16.92693678494304
  0
LINE
  5
7D7D
330
A
100
AcDbEntity
  8
MODEL
100
AcDbLine
 10
477.6888499323063
 20
819.6084443727617
 30
0.0
 11
477.6888499323063
 21
823.9385713916839
 31
0.0
  0
LINE
  5
7D7E
330
A
100
AcDbEntity
  8
MODEL
100
AcDbLine
 10
482.3320499323067
 20
822.1084443727617
 30
0.0
 11
482.3320499323067
 21
817.1084443727617
 31
0.0
  0
LINE
  5
7D7F
330
A
100
AcDbEntity
  8
MODEL
100
AcDbLine
 10
481.8320499323067
 20
822.6084443727617
 30
0.0
 11
481.8320499323067
 21
816.6084443727617
 31
0.0
  0
LINE
  5
7D80
330
A
100
AcDbEntity
  8
MODEL
100
AcDbLine
 10
473.1354321382482
 20
816.7216930268136
 30
0.0
 11
477.2422681634785
 21
816.7216930268136
 31
0.0
  0
ARC
  5
7D81
330
A
100
AcDbEntity
  8
MODEL
100
AcDbCircle
 10
467.3880138975451
 20
819.7240703770032
 30
0.0
 40
10.30148517887422
100
AcDbArc
 50
343.0551594315524
 51
359.3568867942969
  0
LINE
  5
7D82
330
A
100
AcDbEntity
  8
MODEL
100
AcDbLine
 10
481.8320499323067
 20
816.6084443727617
 30
0.0
 11
477.6888499323063
 21
816.6084443727617
 31
0.0
  0
LINE
  5
7D83
330
A
100
AcDbEntity
  8
MODEL
100
AcDbLine
 10
481.8320499323067
 20
816.6084443727617
 30
0.0
 11
482.3320499323067
 21
817.1084443727617
 31
0.0
  0
LINE
  5
7D84
330
A
100
AcDbEntity
  8
MODEL
100
AcDbLine
 10
482.3320500117679
 20
817.2219443727616
 30
0.0
 11
477.688850011768
 21
817.2219443727616
 31
0.0
  0
ARC
  5
7D85
330
A
100
AcDbEntity
  8
MODEL
100
AcDbCircle
 10
482.9849029447137
 20
819.7233303732384
 30
0.0
 40
10.29669373764533
100
AcDbArc
 50
180.6392944866622
 51
196.9486592873731
  0
LINE
  5
7D86
330
A
100
AcDbEntity
  8
MODEL
100
AcDbLine
 10
471.0888093217181
 20
817.2219443727616
 30
0.0
 11
471.0863684616015
 21
817.2219443727616
 31
0.0
  0
LINE
  5
7D87
330
A
100
AcDbEntity
  8
MODEL
100
AcDbLine
 10
464.0820499323067
 20
816.6084443727617
 30
0.0
 11
463.935086421151
 21
816.6084443727617
 31
0.0
  0
LINE
  5
7D88
330
A
100
AcDbEntity
  8
MODEL
100
AcDbLine
 10
464.0820500117679
 20
817.2219443727616
 30
0.0
 11
463.9350865006122
 21
817.2219443727616
 31
0.0
  0
LINE
  5
7D89
330
A
100
AcDbEntity
  8
MODEL
100
AcDbLine
 10
473.1354321382451
 20
822.4951957187099
 30
0.0
 11
477.2422681634785
 21
822.4951957187099
 31
0.0
  0
LINE
  5
7D8A
330
A
100
AcDbEntity
  8
MODEL
100
AcDbLine
 10
473.1354319196917
 20
825.381947064658
 30
0.0
 11
477.2422679449214
 21
825.381947064658
 31
0.0
  0
ARC
  5
7D8B
330
A
100
AcDbEntity
  8
MODEL
100
AcDbCircle
 10
474.8063182855676
 20
824.0396553259988
 30
0.0
 40
2.884303605072054
100
AcDbArc
 50
327.6241721341103
 51
357.9915883153797
  0
LINE
  5
7D8C
330
A
100
AcDbEntity
  8
MODEL
100
AcDbLine
 10
481.8320499323067
 20
822.6084443727617
 30
0.0
 11
477.6888499323063
 21
822.6084443727617
 31
0.0
  0
LINE
  5
7D8D
330
A
100
AcDbEntity
  8
MODEL
100
AcDbLine
 10
481.8320499323067
 20
822.6084443727617
 30
0.0
 11
482.3320499323067
 21
822.1084443727617
 31
0.0
  0
LINE
  5
7D8E
330
A
100
AcDbEntity
  8
MODEL
100
AcDbLine
 10
482.3320500117679
 20
821.9949443727618
 30
0.0
 11
477.688850011768
 21
821.9949443727618
 31
0.0
  0
LINE
  5
7D8F
330
A
100
AcDbEntity
  8
MODEL
100
AcDbLine
 10
477.6888499323063
 20
824.6084443727617
 30
0.0
 11
477.2422679449214
 21
825.381947064658
 31
0.0
  0
ARC
  5
7D90
330
A
100
AcDbEntity
  8
MODEL
100
AcDbCircle
 10
474.8002418391152
 20
823.8356070290032
 30
0.0
 40
2.890442700925276
100
AcDbArc
 50
2.041442237781023
 51
32.34281314734956
  0
LINE
  5
7D91
330
A
100
AcDbEntity
  8
MODEL
100
AcDbLine
 10
477.6888499323063
 20
823.9385713916839
 30
0.0
 11
477.6888499323063
 21
824.6084443727617
 31
0.0
  0
ARC
  5
7D92
330
A
100
AcDbEntity
  8
MODEL
100
AcDbCircle
 10
475.577458243898
 20
824.0415357543335
 30
0.0
 40
2.890442700773976
100
AcDbArc
 50
182.0414422372701
 51
212.342813148475
  0
LINE
  5
7D93
330
A
100
AcDbEntity
  8
MODEL
100
AcDbLine
 10
471.0888093217181
 20
821.9949443727618
 30
0.0
 11
471.0863684616015
 21
821.9949443727618
 31
0.0
  0
LINE
  5
7D94
330
A
100
AcDbEntity
  8
MODEL
100
AcDbLine
 10
464.0820499323067
 20
822.6084443727617
 30
0.0
 11
463.935086421151
 21
822.6084443727617
 31
0.0
  0
LINE
  5
7D95
330
A
100
AcDbEntity
  8
MODEL
100
AcDbLine
 10
464.0820500117679
 20
821.9949443727618
 30
0.0
 11
463.9350865006122
 21
821.9949443727618
 31
0.0
  0
LINE
  5
7D96
330
A
100
AcDbEntity
  8
MODEL
100
AcDbLine
 10
471.088809242257
 20
825.6084443727617
 30
0.0
 11
472.6888092422569
 21
825.6084443727617
 31
0.0
  0
LINE
  5
7D97
330
A
100
AcDbEntity
  8
MODEL
100
AcDbLine
 10
473.1354319196917
 20
825.381947064658
 30
0.0
 11
472.6888499323063
 21
824.6084443727617
 31
0.0
  0
ARC
  5
7D98
330
A
100
AcDbEntity
  8
MODEL
100
AcDbCircle
 10
475.5713817979108
 20
823.83748745729
 30
0.0
 40
2.884303605379364
100
AcDbArc
 50
147.6241721360665
 51
177.9915883140255
  0
LINE
  5
7D99
330
A
100
AcDbEntity
  8
MODEL
100
AcDbLine
 10
462.3350864211511
 20
816.6084443727617
 30
0.0
 11
462.3320499323067
 21
816.6084443727617
 31
0.0
  0
LINE
  5
7D9A
330
A
100
AcDbEntity
  8
MODEL
100
AcDbLine
 10
462.3350865006123
 20
817.2219443727616
 30
0.0
 11
462.3320500117679
 21
817.2219443727616
 31
0.0
  0
LINE
  5
7D9B
330
A
100
AcDbEntity
  8
MODEL
100
AcDbLine
 10
462.3350864211511
 20
822.6084443727617
 30
0.0
 11
462.3320499323067
 21
822.6084443727617
 31
0.0
  0
LINE
  5
7D9C
330
A
100
AcDbEntity
  8
MODEL
100
AcDbLine
 10
462.3350865006123
 20
821.9949443727618
 30
0.0
 11
462.3320500117679
 21
821.9949443727618
 31
0.0
  0
LINE
  5
7D9D
330
A
100
AcDbEntity
  8
MODEL
100
AcDbLine
 10
462.3320499323067
 20
824.6084443727617
 30
0.0
 11
456.532049935287
 21
824.6084443727617
 31
0.0
  0
ARC
  5
7D9E
330
A
100
AcDbEntity
  8
MODEL
100
AcDbCircle
 10
456.532049935287
 20
824.4084443697815
 30
0.0
 40
0.2000000029802322
100
AcDbArc
 50
90.00000000026056
 51
180.0
  0
ARC
  5
7D9F
330
A
100
AcDbEntity
  8
MODEL
100
AcDbCircle
 10
461.0820513966382
 20
834.8054595858024
 30
0.0
 40
3.0
100
AcDbArc
 50
0.0
 51
49.99999999987731
  0
ARC
  5
7DA0
330
A
100
AcDbEntity
  8
MODEL
100
AcDbCircle
 10
461.0820513966382
 20
834.8054595858029
 30
0.0
 40
4.999999999999996
100
AcDbArc
 50
0.0000000001302755
 51
49.99999999999941
  0
ARC
  5
7DA1
330
A
100
AcDbEntity
  8
MODEL
100
AcDbCircle
 10
481.5871791514128
 20
819.6080818954987
 30
0.0
 40
14.75036249960398
100
AcDbArc
 50
90.00315339809299
 51
137.314472480274
  0
LINE
  5
7DA2
330
A
100
AcDbEntity
  8
MODEL
100
AcDbLine
 10
467.0863685569861
 20
827.6084443802566
 30
0.0
 11
467.0863685569861
 21
829.6084443727617
 31
0.0
  0
LINE
  5
7DA3
330
A
100
AcDbEntity
  8
MODEL
100
AcDbLine
 10
471.0863685569861
 20
827.6084443727617
 30
0.0
 11
471.0863685569861
 21
829.6084443727617
 31
0.0
  0
ELLIPSE
  5
7DA4
330
A
100
AcDbEntity
  8
MODEL
100
AcDbEllipse
 10
474.5863678391811
 20
828.6084444395987
 30
0.0
 11
-1.499999999999998
 21
-5.096531546689567E-8
 31
0.0
210
0.0
220
0.0
230
-1.0
 40
0.613705715151312
 41
4.267044061858787
 42
6.283185363443923
  0
ARC
  5
7DA5
330
A
100
AcDbEntity
  8
MODEL
100
AcDbCircle
 10
472.9626493934556
 20
827.7773935322815
 30
0.0
 40
2.269926309942781
100
AcDbArc
 50
0.005356012264271
 51
30.45766973713417
  0
LINE
  5
7DA6
330
A
100
AcDbEntity
  8
MODEL
100
AcDbLine
 10
471.0863686444086
 20
827.6084443727617
 30
0.0
 11
467.0863686444086
 21
827.6084443802564
 31
0.0
  0
LINE
  5
7DA7
330
A
100
AcDbEntity
  8
MODEL
100
AcDbLine
 10
467.0863686444086
 20
827.6084443727617
 30
0.0
 11
466.0863686006974
 21
827.6084443727617
 31
0.0
  0
LINE
  5
7DA8
330
A
100
AcDbEntity
  8
MODEL
100
AcDbLine
 10
471.0863685569861
 20
829.6084443727617
 30
0.0
 11
467.0863685569861
 21
829.6084443727617
 31
0.0
  0
LWPOLYLINE
  5
7DA9
330
A
100
AcDbEntity
  8
MODEL
100
AcDbPolyline
 90
        4
 70
     0
 43
0.0
 10
473.0560285026131
 20
829.007166067708
 10
473.0610715323983
 20
829.0064031282549
 10
473.02401556316
 20
829.0298558870439
 10
472.9483548575936
 20
829.1153813997392
  0
LINE
  5
7DAA
330
A
100
AcDbEntity
  8
MODEL
100
AcDbLine
 10
472.0863680324492
 20
829.6084443727617
 30
0.0
 11
471.0863680324492
 21
829.6084443727617
 31
0.0
  0
ARC
  5
7DAB
330
A
100
AcDbEntity
  8
MODEL
100
AcDbCircle
 10
472.0863680324492
 20
828.6084443727617
 30
0.0
 40
1.0
100
AcDbArc
 50
0.0000000002214684
 51
90.0
  0
ELLIPSE
  5
7DAC
330
A
100
AcDbEntity
  8
MODEL
100
AcDbEllipse
 10
470.9753212407768
 20
830.7063908339418
 30
0.0
 11
0.0760369968178968
 21
-1.498071310054689
 31
0.0
210
0.0
220
0.0
230
-1.0
 40
0.8835124077111683
 41
5.509320059660091
 42
5.57870672221326
  0
ELLIPSE
  5
7DAD
330
A
100
AcDbEntity
  8
MODEL
100
AcDbEllipse
 10
473.4003534657245
 20
830.4671226494216
 30
0.0
 11
-0.344250432637676
 21
-1.459976808581322
 31
0.0
210
0.0
220
0.0
230
-1.0
 40
0.7617415433281329
 41
5.276644348442942
 42
6.276901447794675
  0
ELLIPSE
  5
7DAE
330
A
100
AcDbEntity
  8
MODEL
100
AcDbEllipse
 10
474.2413357214823
 20
829.8757779265817
 30
0.0
 11
-1.292977686140198
 21
-0.7604053670260293
 31
0.0
210
0.0
220
0.0
230
-1.0
 40
0.775634036236912
 41
4.643018021616014
 42
6.283188423925972
  0
ARC
  5
7DAF
330
A
100
AcDbEntity
  8
MODEL
100
AcDbCircle
 10
473.9269090766238
 20
828.3277939105493
 30
0.0
 40
1.159820469030028
100
AcDbArc
 50
31.16597100065664
 51
78.60972743552489
  0
ARC
  5
7DB0
330
A
100
AcDbEntity
  8
MODEL
100
AcDbCircle
 10
472.2514314021059
 20
821.4222079004661
 30
0.0
 40
8.264990523877138
100
AcDbArc
 50
76.67739796533702
 51
92.05693002999438
  0
LINE
  5
7DB1
330
A
100
AcDbEntity
  8
MODEL
100
AcDbLine
 10
471.6265911049877
 20
829.6084443725737
 30
0.0
 11
471.9547803082969
 21
829.6818729353416
 31
0.0
  0
ARC
  5
7DB2
330
A
100
AcDbEntity
  8
MODEL
100
AcDbCircle
 10
467.0863685569861
 20
828.6084443727617
 30
0.0
 40
1.0
100
AcDbArc
 50
90.0
 51
180.0013419861071
  0
LINE
  5
7DB3
330
A
100
AcDbEntity
  8
MODEL
100
AcDbLine
 10
456.3681133482055
 20
842.6771451316316
 30
0.0
 11
463.0104142256978
 21
837.1035929151593
 31
0.0
  0
LINE
  5
7DB4
330
A
100
AcDbEntity
  8
MODEL
100
AcDbLine
 10
464.295989445071
 20
838.6356818013973
 30
0.0
 11
456.5820513966382
 21
845.1084443727617
 31
0.0
  0
LINE
  5
7DB5
330
A
100
AcDbEntity
  8
MODEL
100
AcDbLine
 10
493.3363577014584
 20
850.6084443727517
 30
0.0
 11
481.5863634755369
 21
850.6084443727517
 31
0.0
  0
LINE
  5
7DB6
330
A
100
AcDbEntity
  8
MODEL
100
AcDbLine
 10
494.3363629619284
 20
849.6084443727617
 30
0.0
 11
481.5863635192486
 21
849.6084443727617
 31
0.0
  0
ARC
  5
7DB7
330
A
100
AcDbEntity
  8
MODEL
100
AcDbCircle
 10
493.3350266562688
 20
849.6071080600658
 30
0.0
 40
1.001337197337016
100
AcDbArc
 50
0.0764628543998991
 51
89.92383854849459
  0
LINE
  5
7DB8
330
A
100
AcDbEntity
  8
MODEL
100
AcDbLine
 10
456.5820508721013
 20
869.6084443727617
 30
0.0
 11
456.5820508721013
 21
857.6084443727617
 31
0.0
  0
LINE
  5
7DB9
330
A
100
AcDbEntity
  8
MODEL
100
AcDbLine
 10
454.5820508721013
 20
869.6084443727617
 30
0.0
 11
454.5820508721013
 21
857.6084443727617
 31
0.0
  0
LINE
  5
7DBA
330
A
100
AcDbEntity
  8
MODEL
100
AcDbLine
 10
454.5820513966382
 20
857.6084443727617
 30
0.0
 11
454.5820513966382
 21
846.5073673472269
 31
0.0
  0
ARC
  5
7DBB
330
A
100
AcDbEntity
  8
MODEL
100
AcDbCircle
 10
469.8376992675667
 20
849.607108060099
 30
0.0
 40
1.001337197309449
100
AcDbArc
 50
90.07616145028457
 51
179.9235371475105
  0
LINE
  5
7DBC
330
A
100
AcDbEntity
  8
MODEL
100
AcDbLine
 10
481.5863635192486
 20
849.6084443727617
 30
0.0
 11
468.8363629619284
 21
849.6084443727617
 31
0.0
  0
LINE
  5
7DBD
330
A
100
AcDbEntity
  8
MODEL
100
AcDbLine
 10
481.5863634755369
 20
850.6084443727517
 30
0.0
 11
469.8363682223981
 21
850.6084443727517
 31
0.0
  0
LINE
  5
7DC0
330
A
100
AcDbEntity
  8
MODEL
100
AcDbLine
 10
456.5820508721013
 20
869.6084443727617
 30
0.0
 11
454.5820508721013
 21
869.6084443727617
 31
0.0
  0
CIRCLE
  5
7E24
330
A
100
AcDbEntity
  8
MODEL
100
AcDbCircle
 10
152.5573692881189
 20
819.6084725840193
 30
0.0
 40
32.5
  0
CIRCLE
  5
7E25
330
A
100
AcDbEntity
  8
MODEL
100
AcDbCircle
 10
352.5571841185433
 20
819.6084454934925
 30
0.0
 40
32.5
  0
LINE
  5
7E26
330
A
100
AcDbEntity
  8
MODEL
100
AcDbLine
 10
500.0863661840344
 20
802.6084466740111
 30
0.0
 11
500.0863684821002
 21
836.6084466740107
 31
0.0
  0
LINE
  5
7E27
330
A
100
AcDbEntity
  8
MODEL
100
AcDbLine
 10
500.0863684820997
 20
836.6084466740111
 30
0.0
 11
524.0863684820997
 21
836.6084466740109
 31
0.0
  0
LINE
  5
7E28
330
A
100
AcDbEntity
  8
MODEL
100
AcDbLine
 10
500.0863661840344
 20
802.6084466740111
 30
0.0
 11
524.086366184034
 21
802.6084466740109
 31
0.0
  0
LINE
  5
7E29
330
A
100
AcDbEntity
  8
MODEL
100
AcDbLine
 10
524.0863684820997
 20
836.6084466740109
 30
0.0
 11
524.0863684820997
 21
886.0313099124897
 31
0.0
  0
LINE
  5
7E2A
330
A
100
AcDbEntity
  8
MODEL
100
AcDbLine
 10
524.0863684821002
 20
838.6084466740109
 30
0.0
 11
514.0863684821002
 21
838.6084466740109
 31
0.0
  0
LINE
  5
7E2B
330
A
100
AcDbEntity
  8
MODEL
100
AcDbLine
 10
524.0863684821002
 20
886.0313099124897
 30
0.0
 11
518.4737018628284
 21
881.813342403059
 31
0.0
  0
LINE
  5
7E2C
330
A
100
AcDbEntity
  8
MODEL
100
AcDbLine
 10
518.4737018628284
 20
881.813342403059
 30
0.0
 11
514.0863684821002
 21
882.8100399816136
 31
0.0
  0
HATCH
  5
7E2D
330
A
100
AcDbEntity
  8
MODEL
100
AcDbHatch
 10
0.0
 20
0.0
 30
0.0
210
0.0
220
0.0
230
1.0
  2
ANSI31
 70
     0
 71
     0
 91
        1
 92
        7
 72
     0
 73
     1
 93
        5
 10
514.0863684821002
 20
882.8100399816136
 10
518.4737018628284
 20
881.813342403059
 10
524.0863684821002
 20
886.0313099124893
 10
524.0863684820997
 20
838.6084466740109
 10
514.0863684821002
 20
838.6084466740109
 97
        0
 75
     0
 76
     1
 52
180.0
 41
1.0
 77
     0
 78
     1
 53
135.0
 43
1395.641837088181
 44
-914.7948694496578
 45
2.245064030267288
 46
2.245064030267288
 79
     0
 47
0.1697004212199504
 98
        1
 10
514.7672860455468
 20
864.9675461045887
  0
LINE
  5
7E2E
330
A
100
AcDbEntity
  8
MODEL
100
AcDbLine
 10
524.086366184034
 20
802.6084466740109
 30
0.0
 11
524.086366184034
 21
766.2777190726464
 31
0.0
  0
LINE
  5
7E2F
330
A
100
AcDbEntity
  8
MODEL
100
AcDbLine
 10
518.4736995647622
 20
770.1289062225359
 30
0.0
 11
514.4374047193328
 21
767.3780579428393
 31
0.0
  0
LINE
  5
7E30
330
A
100
AcDbEntity
  8
MODEL
100
AcDbLine
 10
524.086366184034
 20
766.2777190726464
 30
0.0
 11
518.4736995647622
 21
770.1289062225359
 31
0.0
  0
LINE
  5
7E31
330
A
100
AcDbEntity
  8
MODEL
100
AcDbLine
 10
514.4374047193328
 20
767.3780579428393
 30
0.0
 11
514.086366184034
 21
768.185103231939
 31
0.0
  0
LINE
  5
7E32
330
A
100
AcDbEntity
  8
MODEL
100
AcDbLine
 10
514.086366184034
 20
800.6084466740109
 30
0.0
 11
524.086366184034
 21
800.6084466740109
 31
0.0
  0
HATCH
  5
7E33
330
A
100
AcDbEntity
  8
MODEL
100
AcDbHatch
 10
0.0
 20
0.0
 30
0.0
210
0.0
220
0.0
230
1.0
  2
ANSI31
 70
     0
 71
     0
 91
        1
 92
        7
 72
     0
 73
     1
 93
        6
 10
514.086366184034
 20
800.6084466740109
 10
524.0863661840344
 20
800.6084466740109
 10
524.086366184034
 20
766.2777190726464
 10
518.4736995647622
 20
770.1289062225359
 10
514.4374047193328
 20
767.3780579428391
 10
514.0863661840344
 20
768.185103231939
 97
        0
 75
     0
 76
     1
 52
180.0
 41
1.0
 77
     0
 78
     1
 53
135.0
 43
1395.554488520466
 44
-912.7567194821867
 45
2.245064030267288
 46
2.245064030267288
 79
     0
 47
0.23758058742485
 98
        1
 10
514.537781492842
 20
786.4185948474659
  0
LINE
  5
7E34
330
A
100
AcDbEntity
  8
MODEL
100
AcDbLine
 10
496.0863663192144
 20
804.6084466740116
 30
0.0
 11
496.0863683469197
 21
834.6084466740114
 31
0.0
  0
LINE
  5
7E35
330
A
100
AcDbEntity
  8
MODEL
100
AcDbLine
 10
496.0863673330673
 20
834.6084466740114
 30
0.0
 11
500.0863683469197
 21
834.6084466740111
 31
0.0
  0
LINE
  5
7E36
330
A
100
AcDbEntity
  8
MODEL
100
AcDbLine
 10
496.0863673330673
 20
804.6084466740114
 30
0.0
 11
500.0863663192144
 21
804.6084466740114
 31
0.0
  0
DIMENSION
  5
7E37
330
A
100
AcDbEntity
  8
DIM
370
     0
100
AcDbDimension
  2
*D65
 10
454.5820508721013
 20
513.493707396952
 30
0.0
 11
468.0842071738193
 21
513.493707396952
 31
0.0
 70
   160
 71
     5
 42
27.00431260343567
 73
     0
 74
     0
 75
     0
 52
-89.99999999999999
  3
tfrom線あり
100
AcDbAlignedDimension
 13
481.5863634755369
 23
457.8180301294394
 33
0.0
 14
454.5820508721013
 24
477.8180301294394
 34
0.0
 50
180.0
100
AcDbRotatedDimension
  0
LINE
  5
7F28
330
A
100
AcDbEntity
  8
DIM
100
AcDbLine
 10
372.7066396758391
 20
845.1084372299164
 30
0.0
 11
391.7727950031867
 21
868.4969803849051
 31
0.0
  0
LINE
  5
7F29
330
A
100
AcDbEntity
  8
DIM
100
AcDbLine
 10
391.7727950031867
 20
868.4969803849051
 30
0.0
 11
418.2087269970943
 21
868.4969803849051
 31
0.0
  0
MTEXT
  5
7F2A
330
A
100
AcDbEntity
  8
DIM
390
1D
100
AcDbMText
 10
394.4499013549473
 20
881.9939276351108
 30
0.0
 40
9.0
 41
0.0
 46
8.134
 71
     1
 72
     1
  1
{\fＭＳ ゴシック|b0|i0|c1|p0;φ65}
  7
ＭＳ ゴシック
 73
     1
 44
0.7828267384257843
1001
ACAD
1000
ACAD_MTEXT_DEFINED_HEIGHT_BEGIN
1070
    46
1040
8.134
1000
ACAD_MTEXT_DEFINED_HEIGHT_END
  0
LINE
  5
7F83
330
A
100
AcDbEntity
  8
DIM
100
AcDbLine
 10
652.2641220341252
 20
832.1084410710184
 30
0.0
 11
671.3302773614723
 21
855.4969842260072
 31
0.0
  0
LINE
  5
7F84
330
A
100
AcDbEntity
  8
DIM
100
AcDbLine
 10
671.3302773614723
 20
855.4969842260072
 30
0.0
 11
697.7662093553799
 21
855.4969842260072
 31
0.0
  0
MTEXT
  5
7F85
330
A
100
AcDbEntity
  8
DIM
390
1D
100
AcDbMText
 10
675.7747554497314
 20
868.5520885420883
 30
0.0
 40
9.0
 41
0.0
 46
8.134
 71
     1
 72
     1
  1
{\fＭＳ ゴシック|b0|i0|c1|p0;φ24}
  7
ＭＳ ゴシック
 73
     1
 44
0.7828267384257843
1001
ACAD
1000
ACAD_MTEXT_DEFINED_HEIGHT_BEGIN
1070
    46
1040
8.134
1000
ACAD_MTEXT_DEFINED_HEIGHT_END
  0
MTEXT
  5
7FB7
330
A
100
AcDbEntity
  8
DIM
390
1D
100
AcDbMText
 10
146.4813546212918
 20
365.7530478092045
 30
0.0
 40
9.0
 41
0.0
 46
7.889
 71
     1
 72
     1
  1
{\fＭＳ ゴシック|b0|i0|c1|p0;湯}
  7
ＭＳ ゴシック
 73
     1
 44
0.7828267384257843
1001
ACAD
1000
ACAD_MTEXT_DEFINED_HEIGHT_BEGIN
1070
    46
1040
7.889
1000
ACAD_MTEXT_DEFINED_HEIGHT_END
  0
MTEXT
  5
7FB8
330
A
100
AcDbEntity
  8
DIM
390
1D
100
AcDbMText
 10
146.4170013670728
 20
372.1096530300397
 30
0.0
 40
12.0
 41
0.0
 46
12.0
 71
     1
 72
     1
  1
{\fＭＳ ゴシック|b0|i0|c1|p0;▶}
  7
ＭＳ ゴシック
 11
3.061616997868383E-16
 21
1.0
 31
0.0
 73
     1
 44
0.7828267384257843
1001
ACAD
1000
ACAD_MTEXT_DEFINED_HEIGHT_BEGIN
1070
    46
1040
12.0
1000
ACAD_MTEXT_DEFINED_HEIGHT_END
  0
MTEXT
  5
7FB9
330
A
100
AcDbEntity
  8
DIM
390
1D
100
AcDbMText
 10
140.8257650644967
 20
351.1616267526728
 30
0.0
 40
9.0
 41
0.0
 46
7.994
 71
     1
 72
     1
  1
{\fＭＳ ゴシック|b0|i0|c1|p0;G1/2”}
  7
ＭＳ ゴシック
 73
     1
 44
0.7828267384257843
1001
ACAD
1000
ACAD_MTEXT_DEFINED_HEIGHT_BEGIN
1070
    46
1040
7.994
1000
ACAD_MTEXT_DEFINED_HEIGHT_END
  0
MTEXT
  5
7FBA
330
A
100
AcDbEntity
  8
DIM
390
1D
100
AcDbMText
 10
347.8291797018851
 20
366.3186067648841
 30
0.0
 40
9.0
 41
0.0
 46
7.672
 71
     1
 72
     1
  1
{\fＭＳ ゴシック|b0|i0|c1|p0;水}
  7
ＭＳ ゴシック
 73
     1
 44
0.7828267384257843
1001
ACAD
1000
ACAD_MTEXT_DEFINED_HEIGHT_BEGIN
1070
    46
1040
7.672
1000
ACAD_MTEXT_DEFINED_HEIGHT_END
  0
MTEXT
  5
7FBB
330
A
100
AcDbEntity
  8
DIM
390
1D
100
AcDbMText
 10
346.350929058467
 20
372.1096530300397
 30
0.0
 40
12.0
 41
0.0
 46
12.0
 71
     1
 72
     1
  1
{\fＭＳ ゴシック|b0|i0|c1|p0;▶}
  7
ＭＳ ゴシック
 11
3.061616997868383E-16
 21
1.0
 31
0.0
 73
     1
 44
0.7828267384257843
1001
ACAD
1000
ACAD_MTEXT_DEFINED_HEIGHT_BEGIN
1070
    46
1040
12.0
1000
ACAD_MTEXT_DEFINED_HEIGHT_END
  0
MTEXT
  5
7FBC
330
A
100
AcDbEntity
  8
DIM
390
1D
100
AcDbMText
 10
342.1735901450897
 20
350.8222913792652
 30
0.0
 40
9.0
 41
0.0
 46
7.994
 71
     1
 72
     1
  1
{\fＭＳ ゴシック|b0|i0|c1|p0;G1/2”}
  7
ＭＳ ゴシック
 73
     1
 44
0.7828267384257843
1001
ACAD
1000
ACAD_MTEXT_DEFINED_HEIGHT_BEGIN
1070
    46
1040
7.994
1000
ACAD_MTEXT_DEFINED_HEIGHT_END
  0
LINE
  5
7FC6
330
A
100
AcDbEntity
  8
DIM
100
AcDbLine
 10
273.9823590823676
 20
845.1084372299164
 30
0.0
 11
293.0485144097147
 21
868.4969803849051
 31
0.0
  0
LINE
  5
7FC7
330
A
100
AcDbEntity
  8
DIM
100
AcDbLine
 10
293.0485144097147
 20
868.4969803849051
 30
0.0
 11
319.4844464036223
 21
868.4969803849051
 31
0.0
  0
MTEXT
  5
7FC8
330
A
100
AcDbEntity
  8
DIM
390
1D
100
AcDbMText
 10
295.7256207614753
 20
881.9939276351108
 30
0.0
 40
9.0
 41
0.0
 46
8.134
 71
     1
 72
     1
  1
{\fＭＳ ゴシック|b0|i0|c1|p0;φ65}
  7
ＭＳ ゴシック
 73
     1
 44
0.7828267384257843
1001
ACAD
1000
ACAD_MTEXT_DEFINED_HEIGHT_BEGIN
1070
    46
1040
8.134
1000
ACAD_MTEXT_DEFINED_HEIGHT_END
  0
LINE
  5
7FC9
330
A
100
AcDbEntity
  8
DIM
100
AcDbLine
 10
173.8773193197562
 20
845.1084372299164
 30
0.0
 11
192.9434746471038
 21
868.4969803849051
 31
0.0
  0
LINE
  5
7FCA
330
A
100
AcDbEntity
  8
DIM
100
AcDbLine
 10
192.9434746471038
 20
868.4969803849051
 30
0.0
 11
219.3794066410114
 21
868.4969803849051
 31
0.0
  0
MTEXT
  5
7FCB
330
A
100
AcDbEntity
  8
DIM
390
1D
100
AcDbMText
 10
195.6205809988644
 20
881.9939276351108
 30
0.0
 40
9.0
 41
0.0
 46
8.134
 71
     1
 72
     1
  1
{\fＭＳ ゴシック|b0|i0|c1|p0;φ65}
  7
ＭＳ ゴシック
 73
     1
 44
0.7828267384257843
1001
ACAD
1000
ACAD_MTEXT_DEFINED_HEIGHT_BEGIN
1070
    46
1040
8.134
1000
ACAD_MTEXT_DEFINED_HEIGHT_END
  0
DIMENSION
  5
7FCF
330
A
100
AcDbEntity
  8
DIM
100
AcDbDimension
  2
*D69
 10
769.6820730181644
 20
757.10843487246
 30
0.0
 11
769.6820730181644
 21
788.3584365622139
 31
0.0
 70
   160
 71
     5
 42
62.50000337950803
 73
     0
 74
     0
 75
     0
  3
tfrom線あり
100
AcDbAlignedDimension
 13
693.9721177030942
 23
819.608438251968
 33
0.0
 14
743.9721134787105
 24
757.10843487246
 34
0.0
 50
90.0
100
AcDbRotatedDimension
  0
VIEWPORT
  5
349
330
B
100
AcDbEntity
 67
     1
  8
0
100
AcDbViewport
 10
202.5
 20
128.5
 30
0.0
 40
486.0
 41
308.4
 68
     1
 69
     1
 12
202.5
 22
128.5
 13
0.0
 23
0.0
 14
0.5
 24
0.5
 15
0.0
 25
0.0
 16
0.0
 26
0.0
 36
1.0
 17
0.0
 27
0.0
 37
0.0
 42
50.0
 43
0.0
 44
0.0
 45
308.4
 50
0.0
 51
0.0
 72
   100
 90
   557152
  1

281
     0
 71
     1
 74
     0
110
0.0
120
0.0
130
0.0
111
1.0
121
0.0
131
0.0
112
0.0
122
1.0
132
0.0
 79
     0
146
0.0
170
     0
 61
     5
348
26C
292
     1
282
     1
141
0.0
142
0.0
 63
   256
  0
VIEWPORT
  5
34A
330
B
100
AcDbEntity
 67
     1
  8
0
100
AcDbViewport
 10
202.5
 20
128.5
 30
0.0
 40
324.0
 41
205.6
 68
     2
 69
     2
 12
986.6781359294573
 22
1427.077061889956
 13
0.0
 23
0.0
 14
0.5
 24
0.5
 15
0.0
 25
0.0
 16
0.0
 26
0.0
 36
1.0
 17
0.0
 27
0.0
 37
0.0
 42
50.0
 43
0.0
 44
0.0
 45
2890.021615685494
 50
0.0
 51
0.0
 72
   100
 90
   557152
  1

281
     0
 71
     1
 74
     0
110
0.0
120
0.0
130
0.0
111
1.0
121
0.0
131
0.0
112
0.0
122
1.0
132
0.0
 79
     0
146
0.0
170
     0
 61
     5
348
26C
292
     1
282
     1
141
0.0
142
0.0
 63
   256
  0
ENDSEC
  0
SECTION
  2
OBJECTS
  0
DICTIONARY
  5
19
330
0
100
AcDbDictionary
281
     1
  3
ACAD_COLOR
350
674
  3
ACAD_DETAILVIEWSTYLE
350
BBF
  3
ACAD_FIELDLIST
350
774E
  3
ACAD_GROUP
350
1A
  3
ACAD_IMAGE_VARS
350
27B
  3
ACAD_LAYOUT
350
1E
  3
ACAD_MATERIAL
350
263
  3
ACAD_MLEADERSTYLE
350
336
  3
ACAD_MLINESTYLE
350
1B
  3
ACAD_PLOTSETTINGS
350
22
  3
ACAD_PLOTSTYLENAME
350
1F
  3
ACAD_SCALELIST
350
241
  3
ACAD_SECTIONVIEWSTYLE
350
BC0
  3
ACAD_TABLESTYLE
350
278
  3
ACAD_VISUALSTYLE
350
267
  3
AcadDim
350
186B
  3
ACDB_RECOMPOSE_DATA
350
8062
  3
AcDbVariableDictionary
350
330
  3
APPDATA
350
27A
  3
DimOffsetDictionary
350
7176
  0
SUN
  5
904
330
15
100
AcDbSun
 90
        1
290
     0
 63
     7
421
 16777215
 40
1.0
291
     1
 91
  2455826
 92
 54000000
292
     0
 70
     2
 71
   256
280
     1
  0
DICTIONARY
  5
2E1
330
2
100
AcDbDictionary
280
     1
281
     1
  3
ACAD_LAYERSTATES
360
2E2
  3
ACLYDICTIONARY
360
7C37
  0
DICTIONARY
  5
775C
330
775B
100
AcDbDictionary
280
     1
281
     1
  3
ADSK_XREC_LAYER_RECONCILED
360
775D
  0
DICTIONARY
  5
774C
330
774A
100
AcDbDictionary
280
     1
281
     1
  3
ACAD_FIELD
360
7750
  0
DICTIONARY
  5
674
102
{ACAD_REACTORS
330
19
102
}
330
19
100
AcDbDictionary
281
     1
  0
DICTIONARY
  5
BBF
102
{ACAD_REACTORS
330
19
102
}
330
19
100
AcDbDictionary
281
     1
  0
FIELDLIST
  5
774E
102
{ACAD_REACTORS
330
19
102
}
330
19
100
AcDbIdSet
 90
        2
330
774F
330
774B
100
AcDbFieldList
  0
DICTIONARY
  5
1A
102
{ACAD_REACTORS
330
19
102
}
330
19
100
AcDbDictionary
281
     1
  0
RASTERVARIABLES
  5
27B
102
{ACAD_REACTORS
330
19
102
}
330
19
100
AcDbRasterVariables
 90
        0
 70
     1
 71
     1
 72
     1
  0
DICTIONARY
  5
1E
102
{ACAD_REACTORS
330
19
102
}
330
19
100
AcDbDictionary
281
     1
  3
Layout1
350
21
  3
Model
350
20
  0
DICTIONARY
  5
263
102
{ACAD_REACTORS
330
19
102
}
330
19
100
AcDbDictionary
281
     1
  3
ByBlock
350
68D3
  3
ByLayer
350
264
  3
Global
350
266
  0
DICTIONARY
  5
336
102
{ACAD_REACTORS
330
19
102
}
330
19
100
AcDbDictionary
281
     1
  3
Standard
350
1A6C
  0
DICTIONARY
  5
1B
102
{ACAD_REACTORS
330
19
102
}
330
19
100
AcDbDictionary
281
     1
  3
Standard
350
1C
  0
DICTIONARY
  5
22
102
{ACAD_REACTORS
330
19
102
}
330
19
100
AcDbDictionary
281
     1
  0
ACDBDICTIONARYWDFLT
  5
1F
102
{ACAD_REACTORS
330
19
102
}
330
19
100
AcDbDictionary
281
     1
  3
Normal
350
1D
100
AcDbDictionaryWithDefault
340
1D
  0
DICTIONARY
  5
241
102
{ACAD_REACTORS
330
19
102
}
330
19
100
AcDbDictionary
281
     1
  3
*A1
350
728B
  3
A0
350
242
  3
A1
350
243
  3
A2
350
244
  3
A3
350
245
  3
A4
350
246
  3
A5
350
247
  3
A6
350
248
  3
A7
350
249
  3
A8
350
24A
  3
A9
350
24B
  3
B0
350
24C
  3
B1
350
24D
  3
B2
350
24E
  3
B3
350
24F
  3
B4
350
250
  3
B5
350
251
  3
B6
350
252
  3
B7
350
253
  3
B8
350
254
  3
B9
350
255
  3
C0
350
256
  3
C1
350
257
  3
C2
350
258
  3
C3
350
259
  3
C4
350
25A
  3
C5
350
25B
  3
C6
350
25C
  3
C7
350
25D
  3
C8
350
25E
  3
C9
350
25F
  3
D0
350
260
  3
D1
350
261
  3
D2
350
262
  0
DICTIONARY
  5
BC0
102
{ACAD_REACTORS
330
19
102
}
330
19
100
AcDbDictionary
281
     1
  0
DICTIONARY
  5
278
102
{ACAD_REACTORS
330
19
102
}
330
19
100
AcDbDictionary
281
     1
  3
Standard
350
279
  0
DICTIONARY
  5
267
102
{ACAD_REACTORS
330
19
102
}
330
19
100
AcDbDictionary
281
     1
  3
2dWireframe
350
26C
  3
3D Hidden
350
26E
  3
3dWireframe
350
26D
  3
Basic
350
26F
  3
Brighten
350
273
  3
ColorChange
350
277
  3
Conceptual
350
271
  3
Dim
350
272
  3
EdgeColorOff
350
8FE
  3
Facepattern
350
276
  3
Flat
350
268
  3
FlatWithEdges
350
269
  3
Gouraud
350
26A
  3
GouraudWithEdges
350
26B
  3
Hidden
350
8FB
  3
JitterOff
350
8FC
  3
Linepattern
350
275
  3
OverhangOff
350
8FD
  3
Realistic
350
270
  3
Shaded
350
903
  3
Shaded with edges
350
902
  3
Shades of Gray
350
8FF
  3
Sketchy
350
900
  3
Thicken
350
274
  3
Wireframe
350
8FA
  3
X-Ray
350
901
  0
XRECORD
  5
186B
102
{ACAD_REACTORS
330
19
102
}
330
19
100
AcDbXrecord
280
     1
340
0
 72
     0
 71
     0
 70
     0
 69
     0
 68
     1
 67
     3
 66
     0
 65
     0
 64
     0
 63
     3
 62
     1
 61
     0
 60
     0
 40
0.0
  0
XRECORD
  5
8062
102
{ACAD_REACTORS
330
19
102
}
330
19
100
AcDbXrecord
280
     1
 90
        1
330
279
  0
DICTIONARY
  5
330
102
{ACAD_REACTORS
330
19
102
}
330
19
100
AcDbDictionary
281
     1
  3
CANNOSCALE
350
331
  3
CMLEADERSTYLE
350
1AA2
  3
CTABLESTYLE
350
335
  3
HPTRANSPARENCY
350
D6B
  3
XCLIPFRAME
350
896
  0
DICTIONARY
  5
27A
102
{ACAD_REACTORS
330
19
102
}
330
19
100
AcDbDictionary
281
     1
  0
DICTIONARY
  5
7176
102
{ACAD_REACTORS
330
19
102
}
330
19
100
AcDbDictionary
281
     1
  3
DIMRAILANGLE
350
8049
  3
DIMRAILFIRSTOFFSET
350
8047
  3
DIMRAILOFFSET
350
8048
  3
DIMRAILSENABLED
350
804A
  0
DICTIONARY
  5
2E2
102
{ACAD_REACTORS
330
2E1
102
}
330
2E1
100
AcDbDictionary
281
     1
  3
ARGON_LAYERP_9
350
7AA
  0
DICTIONARY
  5
7C37
102
{ACAD_REACTORS
330
2E1
102
}
330
2E1
100
AcDbDictionary
281
     1
1001
ACAD
1000
<All
  0
XRECORD
  5
775D
102
{ACAD_REACTORS
330
775C
102
}
330
775C
100
AcDbXrecord
280
     1
290
     1
  0
DICTIONARY
  5
7750
102
{ACAD_REACTORS
330
774C
102
}
330
774C
100
AcDbDictionary
280
     1
281
     1
  3
TEXT
360
774B
  0
LAYOUT
  5
21
102
{ACAD_REACTORS
330
1E
102
}
330
1E
100
AcDbPlotSettings
  1

  2
none_device
  4
ISO_A3_(420.00_x_297.00_MM)
  6

 40
7.5
 41
20.0
 42
7.5
 43
20.0
 44
420.0
 45
297.0
 46
0.0
 47
0.0
 48
0.0
 49
0.0
140
0.0
141
0.0
142
1.0
143
1.0
 70
     0
 72
     1
 73
     0
 74
     0
  7

 75
     0
 76
     0
 77
     2
 78
   300
147
1.0
148
0.0
149
0.0
100
AcDbLayout
  1
Layout1
 70
     0
 71
     0
 10
-7.5
 20
-20.0
 11
412.5
 21
277.0
 12
0.0
 22
0.0
 32
0.0
 14
0.0
 24
0.0
 34
0.0
 15
0.0
 25
0.0
 35
0.0
146
0.0
 13
0.0
 23
0.0
 33
0.0
 16
0.0
 26
0.0
 36
0.0
 17
0.0
 27
0.0
 37
0.0
 76
     0
330
B
331
349
  0
LAYOUT
  5
20
102
{ACAD_REACTORS
330
1E
102
}
330
1E
100
AcDbPlotSettings
  1

  2
none_device
  4
ISO_A3_(420.00_x_297.00_MM)
  6

 40
7.5
 41
20.0
 42
7.5
 43
20.0
 44
420.0
 45
297.0
 46
0.0
 47
0.0
 48
0.0
 49
0.0
140
0.0
141
0.0
142
1.0
143
1.0
 70
  1024
 72
     1
 73
     0
 74
     0
  7

 75
     0
 76
     0
 77
     2
 78
   300
147
1.0
148
0.0
149
0.0
100
AcDbLayout
  1
Model
 70
     0
 71
     1
 10
0.0
 20
0.0
 11
840.0000000000001
 21
1188.0
 12
0.0
 22
0.0
 32
0.0
 14
0.0
 24
0.0
 34
0.0
 15
840.0000000000001
 25
1188.0
 35
0.0000000000000071
146
0.0
 13
0.0
 23
0.0
 33
0.0
 16
0.0
 26
0.0
 36
0.0
 17
0.0
 27
0.0
 37
0.0
 76
     0
330
A
331
15
  0
MATERIAL
  5
68D3
102
{ACAD_REACTORS
330
263
102
}
330
263
100
AcDbMaterial
  1
ByBlock
 72
     1
 94
      127
  0
MATERIAL
  5
264
102
{ACAD_REACTORS
330
263
102
}
330
263
100
AcDbMaterial
  1
ByLayer
 72
     1
 94
      127
  0
MATERIAL
  5
266
102
{ACAD_REACTORS
330
263
102
}
330
263
100
AcDbMaterial
  1
Global
 72
     1
 94
      127
  0
MLEADERSTYLE
  5
1A6C
102
{ACAD_REACTORS
330
336
102
}
330
336
100
AcDbMLeaderStyle
170
     2
171
     1
172
     0
 90
        2
 40
0.0
 41
0.0
173
     1
 91
-1056964608
340
11
 92
       -2
290
     1
 42
2.0
291
     1
 43
8.0
  3
Standard
341
0
 44
4.0
300

342
17
174
     1
178
     6
175
     1
176
     0
 93
-1056964608
 45
4.0
292
     0
297
     0
 46
4.0
343
0
 94
-1056964608
 47
1.0
 49
1.0
140
1.0
293
     1
141
0.0
294
     1
177
     0
142
1.0
295
     0
296
     0
143
3.75
1001
ACAD_MLEADERVER
1070
     2
  0
MLINESTYLE
  5
1C
102
{ACAD_REACTORS
330
1B
102
}
330
1B
100
AcDbMlineStyle
  2
Standard
 70
     0
  3

 62
     0
 51
90.0
 52
90.0
 71
     2
 49
0.5
 62
   256
  6
BYLAYER
 49
-0.5
 62
   256
  6
BYLAYER
  0
ACDBPLACEHOLDER
  5
1D
102
{ACAD_REACTORS
330
1F
102
}
330
1F
  0
SCALE
  5
728B
102
{ACAD_REACTORS
330
241
102
}
330
241
100
AcDbScale
 70
     0
300
1:1_XREF_XREF
140
1.0
141
1.0
290
     1
  0
SCALE
  5
242
102
{ACAD_REACTORS
330
241
102
}
330
241
100
AcDbScale
 70
     0
300
1:1
140
1.0
141
1.0
290
     0
  0
SCALE
  5
243
102
{ACAD_REACTORS
330
241
102
}
330
241
100
AcDbScale
 70
     0
300
1:2
140
1.0
141
2.0
290
     0
  0
SCALE
  5
244
102
{ACAD_REACTORS
330
241
102
}
330
241
100
AcDbScale
 70
     0
300
1:4
140
1.0
141
4.0
290
     0
  0
SCALE
  5
245
102
{ACAD_REACTORS
330
241
102
}
330
241
100
AcDbScale
 70
     0
300
1:5
140
1.0
141
5.0
290
     0
  0
SCALE
  5
246
102
{ACAD_REACTORS
330
241
102
}
330
241
100
AcDbScale
 70
     0
300
1:8
140
1.0
141
8.0
290
     0
  0
SCALE
  5
247
102
{ACAD_REACTORS
330
241
102
}
330
241
100
AcDbScale
 70
     0
300
1:10
140
1.0
141
10.0
290
     0
  0
SCALE
  5
248
102
{ACAD_REACTORS
330
241
102
}
330
241
100
AcDbScale
 70
     0
300
1:16
140
1.0
141
16.0
290
     0
  0
SCALE
  5
249
102
{ACAD_REACTORS
330
241
102
}
330
241
100
AcDbScale
 70
     0
300
1:20
140
1.0
141
20.0
290
     0
  0
SCALE
  5
24A
102
{ACAD_REACTORS
330
241
102
}
330
241
100
AcDbScale
 70
     0
300
1:30
140
1.0
141
30.0
290
     0
  0
SCALE
  5
24B
102
{ACAD_REACTORS
330
241
102
}
330
241
100
AcDbScale
 70
     0
300
1:40
140
1.0
141
40.0
290
     0
  0
SCALE
  5
24C
102
{ACAD_REACTORS
330
241
102
}
330
241
100
AcDbScale
 70
     0
300
1:50
140
1.0
141
50.0
290
     0
  0
SCALE
  5
24D
102
{ACAD_REACTORS
330
241
102
}
330
241
100
AcDbScale
 70
     0
300
1:100
140
1.0
141
100.0
290
     0
  0
SCALE
  5
24E
102
{ACAD_REACTORS
330
241
102
}
330
241
100
AcDbScale
 70
     0
300
2:1
140
2.0
141
1.0
290
     0
  0
SCALE
  5
24F
102
{ACAD_REACTORS
330
241
102
}
330
241
100
AcDbScale
 70
     0
300
4:1
140
4.0
141
1.0
290
     0
  0
SCALE
  5
250
102
{ACAD_REACTORS
330
241
102
}
330
241
100
AcDbScale
 70
     0
300
8:1
140
8.0
141
1.0
290
     0
  0
SCALE
  5
251
102
{ACAD_REACTORS
330
241
102
}
330
241
100
AcDbScale
 70
     0
300
10:1
140
10.0
141
1.0
290
     0
  0
SCALE
  5
252
102
{ACAD_REACTORS
330
241
102
}
330
241
100
AcDbScale
 70
     0
300
100:1
140
100.0
141
1.0
290
     0
  0
SCALE
  5
253
102
{ACAD_REACTORS
330
241
102
}
330
241
100
AcDbScale
 70
     0
300
1/128" = 1'-0"
140
0.0078125
141
12.0
290
     0
  0
SCALE
  5
254
102
{ACAD_REACTORS
330
241
102
}
330
241
100
AcDbScale
 70
     0
300
1/64" = 1'-0"
140
0.015625
141
12.0
290
     0
  0
SCALE
  5
255
102
{ACAD_REACTORS
330
241
102
}
330
241
100
AcDbScale
 70
     0
300
1/32" = 1'-0"
140
0.03125
141
12.0
290
     0
  0
SCALE
  5
256
102
{ACAD_REACTORS
330
241
102
}
330
241
100
AcDbScale
 70
     0
300
1/16" = 1'-0"
140
0.0625
141
12.0
290
     0
  0
SCALE
  5
257
102
{ACAD_REACTORS
330
241
102
}
330
241
100
AcDbScale
 70
     0
300
3/32" = 1'-0"
140
0.09375
141
12.0
290
     0
  0
SCALE
  5
258
102
{ACAD_REACTORS
330
241
102
}
330
241
100
AcDbScale
 70
     0
300
1/8" = 1'-0"
140
0.125
141
12.0
290
     0
  0
SCALE
  5
259
102
{ACAD_REACTORS
330
241
102
}
330
241
100
AcDbScale
 70
     0
300
3/16" = 1'-0"
140
0.1875
141
12.0
290
     0
  0
SCALE
  5
25A
102
{ACAD_REACTORS
330
241
102
}
330
241
100
AcDbScale
 70
     0
300
1/4" = 1'-0"
140
0.25
141
12.0
290
     0
  0
SCALE
  5
25B
102
{ACAD_REACTORS
330
241
102
}
330
241
100
AcDbScale
 70
     0
300
3/8" = 1'-0"
140
0.375
141
12.0
290
     0
  0
SCALE
  5
25C
102
{ACAD_REACTORS
330
241
102
}
330
241
100
AcDbScale
 70
     0
300
1/2" = 1'-0"
140
0.5
141
12.0
290
     0
  0
SCALE
  5
25D
102
{ACAD_REACTORS
330
241
102
}
330
241
100
AcDbScale
 70
     0
300
3/4" = 1'-0"
140
0.75
141
12.0
290
     0
  0
SCALE
  5
25E
102
{ACAD_REACTORS
330
241
102
}
330
241
100
AcDbScale
 70
     0
300
1" = 1'-0"
140
1.0
141
12.0
290
     0
  0
SCALE
  5
25F
102
{ACAD_REACTORS
330
241
102
}
330
241
100
AcDbScale
 70
     0
300
1-1/2" = 1'-0"
140
1.5
141
12.0
290
     0
  0
SCALE
  5
260
102
{ACAD_REACTORS
330
241
102
}
330
241
100
AcDbScale
 70
     0
300
3" = 1'-0"
140
3.0
141
12.0
290
     0
  0
SCALE
  5
261
102
{ACAD_REACTORS
330
241
102
}
330
241
100
AcDbScale
 70
     0
300
6" = 1'-0"
140
6.0
141
12.0
290
     0
  0
SCALE
  5
262
102
{ACAD_REACTORS
330
241
102
}
330
241
100
AcDbScale
 70
     0
300
1'-0" = 1'-0"
140
12.0
141
12.0
290
     0
  0
TABLESTYLE
  5
279
102
{ACAD_REACTORS
330
278
102
}
102
{ACAD_XDICTIONARY
360
8060
102
}
330
278
100
AcDbTableStyle
  3
Standard
 70
     0
 71
     0
 40
0.06
 41
0.06
280
     0
281
     0
  7
Standard
140
4.5
170
     2
 62
     0
 63
   257
283
     0
 90
        4
 91
        0
  1

274
    -2
284
     1
 64
     0
275
    -2
285
     1
 65
     0
276
    -2
286
     1
 66
     0
277
    -2
287
     1
 67
     0
278
    -2
288
     1
 68
     0
279
    -2
289
     1
 69
     0
  7
Standard
140
6.0
170
     5
 62
     0
 63
   257
283
     0
 90
        4
 91
        0
  1

274
    -2
284
     1
 64
     0
275
    -2
285
     1
 65
     0
276
    -2
286
     1
 66
     0
277
    -2
287
     1
 67
     0
278
    -2
288
     1
 68
     0
279
    -2
289
     1
 69
     0
  7
Standard
140
4.5
170
     5
 62
     0
 63
   257
283
     0
 90
        4
 91
        0
  1

274
    -2
284
     1
 64
     0
275
    -2
285
     1
 65
     0
276
    -2
286
     1
 66
     0
277
    -2
287
     1
 67
     0
278
    -2
288
     1
 68
     0
279
    -2
289
     1
 69
     0
  0
VISUALSTYLE
  5
26C
102
{ACAD_REACTORS
330
267
102
}
330
267
100
AcDbVisualStyle
  2
2dWireframe
 70
     4
 71
     0
 72
     2
 73
     0
 90
        0
 40
-0.6
 41
-30.0
 62
     5
 63
     7
421
 16777215
 74
     1
 91
        4
 64
     7
 65
   257
 75
     1
175
     1
 42
1.0
 92
        0
 66
   257
 43
1.0
 76
     1
 77
     6
 78
     2
 67
     7
 79
     5
170
     0
171
     0
290
     0
174
     0
 93
        1
 44
0.0
173
     0
291
     0
 45
0.0
  0
VISUALSTYLE
  5
26E
102
{ACAD_REACTORS
330
267
102
}
330
267
100
AcDbVisualStyle
  2
3D Hidden
 70
     6
 71
     1
 72
     2
 73
     2
 90
        0
 40
-0.6
 41
-30.0
 62
     5
 63
     7
421
 16777215
 74
     2
 91
        2
 64
     7
 65
   257
 75
     2
175
     1
 42
40.0
 92
        0
 66
   257
 43
1.0
 76
     1
 77
     6
 78
     2
 67
     7
 79
     3
170
     0
171
     0
290
     0
174
     0
 93
        1
 44
0.0
173
     0
291
     0
 45
0.0
  0
VISUALSTYLE
  5
26D
102
{ACAD_REACTORS
330
267
102
}
330
267
100
AcDbVisualStyle
  2
3dWireframe
 70
     5
 71
     0
 72
     2
 73
     0
 90
        0
 40
-0.6
 41
-30.0
 62
     5
 63
     7
421
 16777215
 74
     1
 91
        4
 64
     7
 65
   257
 75
     1
175
     1
 42
1.0
 92
        0
 66
   257
 43
1.0
 76
     1
 77
     6
 78
     2
 67
     7
 79
     5
170
     0
171
     0
290
     0
174
     0
 93
        1
 44
0.0
173
     0
291
     0
 45
0.0
  0
VISUALSTYLE
  5
26F
102
{ACAD_REACTORS
330
267
102
}
330
267
100
AcDbVisualStyle
  2
Basic
 70
     7
 71
     1
 72
     0
 73
     1
 90
        0
 40
-0.6
 41
-30.0
 62
     5
 63
     7
421
 16777215
 74
     0
 91
        4
 64
     7
 65
   257
 75
     1
175
     1
 42
1.0
 92
        8
 66
     7
 43
1.0
 76
     1
 77
     6
 78
     2
 67
     7
 79
     5
170
     0
171
     0
290
     0
174
     0
 93
        1
 44
0.0
173
     0
291
     1
 45
0.0
  0
VISUALSTYLE
  5
273
102
{ACAD_REACTORS
330
267
102
}
330
267
100
AcDbVisualStyle
  2
Brighten
 70
    12
 71
     2
 72
     2
 73
     0
 90
        0
 40
-0.6
 41
-30.0
 62
     5
 63
     7
421
 16777215
 74
     1
 91
        4
 64
     7
 65
   257
 75
     1
175
     1
 42
1.0
 92
        8
 66
     7
 43
1.0
 76
     1
 77
     6
 78
     2
 67
     7
 79
     5
170
     0
171
     0
290
     0
174
     0
 93
        1
 44
50.0
173
     0
291
     1
 45
0.0
  0
VISUALSTYLE
  5
277
102
{ACAD_REACTORS
330
267
102
}
330
267
100
AcDbVisualStyle
  2
ColorChange
 70
    16
 71
     2
 72
     2
 73
     3
 90
        0
 40
-0.6
 41
-30.0
 62
     5
 63
     8
421
  8421504
 74
     1
 91
        4
 64
     7
 65
   257
 75
     1
175
     1
 42
1.0
 92
        8
 66
     8
424
  8421504
 43
1.0
 76
     1
 77
     6
 78
     2
 67
     7
 79
     5
170
     0
171
     0
290
     0
174
     0
 93
        1
 44
0.0
173
     0
291
     1
 45
0.0
  0
VISUALSTYLE
  5
271
102
{ACAD_REACTORS
330
267
102
}
330
267
100
AcDbVisualStyle
  2
Conceptual
 70
     9
 71
     3
 72
     2
 73
     0
 90
        0
 40
-0.6
 41
-30.0
 62
     5
 63
     7
421
 16777215
 74
     2
 91
        2
 64
     7
 65
   257
 75
     1
175
     1
 42
40.0
 92
        8
 66
     7
 43
1.0
 76
     1
 77
     6
 78
     2
 67
     7
 79
     3
170
     0
171
     0
290
     0
174
     0
 93
        1
 44
0.0
173
     0
291
     0
 45
0.0
  0
VISUALSTYLE
  5
272
102
{ACAD_REACTORS
330
267
102
}
330
267
100
AcDbVisualStyle
  2
Dim
 70
    11
 71
     2
 72
     2
 73
     0
 90
        0
 40
-0.6
 41
-30.0
 62
     5
 63
     7
421
 16777215
 74
     1
 91
        4
 64
     7
 65
   257
 75
     1
175
     1
 42
1.0
 92
        8
 66
     7
 43
1.0
 76
     1
 77
     6
 78
     2
 67
     7
 79
     5
170
     0
171
     0
290
     0
174
     0
 93
        1
 44
-50.0
173
     0
291
     1
 45
0.0
  0
VISUALSTYLE
  5
8FE
102
{ACAD_REACTORS
330
267
102
}
330
267
100
AcDbVisualStyle
  2
EdgeColorOff
 70
    22
 71
     2
 72
     2
 73
     0
 90
        0
 40
0.6
 41
30.0
 62
     5
 63
     7
421
 16777215
 74
     1
 91
        4
 64
     7
 65
   257
 75
     1
175
     1
 42
1.0
 92
        8
 66
     7
 43
1.0
 76
     1
 77
     6
 78
     2
 67
     7
 79
     5
170
     0
171
     0
290
     0
174
     0
 93
        1
 44
0.0
173
     0
291
     1
 45
0.0
  0
VISUALSTYLE
  5
276
102
{ACAD_REACTORS
330
267
102
}
330
267
100
AcDbVisualStyle
  2
Facepattern
 70
    15
 71
     2
 72
     2
 73
     0
 90
        0
 40
-0.6
 41
-30.0
 62
     5
 63
     7
421
 16777215
 74
     1
 91
        4
 64
     7
 65
   257
 75
     1
175
     1
 42
1.0
 92
        8
 66
     7
 43
1.0
 76
     1
 77
     6
 78
     2
 67
     7
 79
     5
170
     0
171
     0
290
     0
174
     0
 93
        1
 44
0.0
173
     0
291
     1
 45
0.0
  0
VISUALSTYLE
  5
268
102
{ACAD_REACTORS
330
267
102
}
330
267
100
AcDbVisualStyle
  2
Flat
 70
     0
 71
     2
 72
     1
 73
     1
 90
        2
 40
-0.6
 41
30.0
 62
     5
 63
     7
421
 16777215
 74
     0
 91
        4
 64
     7
 65
   257
 75
     1
175
     1
 42
1.0
 92
        8
 66
     7
 43
1.0
 76
     1
 77
     6
 78
     2
 67
     7
 79
     5
170
     0
171
     0
290
     0
174
     0
 93
       13
 44
0.0
173
     0
291
     1
 45
0.0
  0
VISUALSTYLE
  5
269
102
{ACAD_REACTORS
330
267
102
}
330
267
100
AcDbVisualStyle
  2
FlatWithEdges
 70
     1
 71
     2
 72
     1
 73
     1
 90
        2
 40
-0.6
 41
30.0
 62
     5
 63
     7
421
 16777215
 74
     1
 91
        4
 64
     7
 65
   257
 75
     1
175
     1
 42
1.0
 92
        0
 66
   257
 43
1.0
 76
     1
 77
     6
 78
     2
 67
     7
 79
     5
170
     0
171
     0
290
     0
174
     0
 93
       13
 44
0.0
173
     0
291
     1
 45
0.0
  0
VISUALSTYLE
  5
26A
102
{ACAD_REACTORS
330
267
102
}
330
267
100
AcDbVisualStyle
  2
Gouraud
 70
     2
 71
     2
 72
     2
 73
     1
 90
        2
 40
-0.6
 41
30.0
 62
     5
 63
     7
421
 16777215
 74
     0
 91
        4
 64
     7
 65
   257
 75
     1
175
     1
 42
1.0
 92
        0
 66
     7
 43
1.0
 76
     1
 77
     6
 78
     2
 67
     7
 79
     5
170
     0
171
     0
290
     0
174
     0
 93
       13
 44
0.0
173
     0
291
     1
 45
0.0
  0
VISUALSTYLE
  5
26B
102
{ACAD_REACTORS
330
267
102
}
330
267
100
AcDbVisualStyle
  2
GouraudWithEdges
 70
     3
 71
     2
 72
     2
 73
     1
 90
        2
 40
-0.6
 41
30.0
 62
     5
 63
     7
421
 16777215
 74
     1
 91
        4
 64
     7
 65
   257
 75
     1
175
     1
 42
1.0
 92
        0
 66
   257
 43
1.0
 76
     1
 77
     6
 78
     2
 67
     7
 79
     5
170
     0
171
     0
290
     0
174
     0
 93
       13
 44
0.0
173
     0
291
     1
 45
0.0
  0
VISUALSTYLE
  5
8FB
102
{ACAD_REACTORS
330
267
102
}
330
267
100
AcDbVisualStyle
  2
Hidden
 70
     6
 71
     1
 72
     2
 73
     2
 90
        0
 40
0.6
 41
30.0
 62
     5
 63
     7
421
 16777215
 74
     2
 91
        2
 64
     7
 65
   257
 75
     2
175
     1
 42
40.0
 92
        0
 66
   257
 43
1.0
 76
     1
 77
     6
 78
     2
 67
     7
 79
     3
170
     0
171
     0
290
     0
174
     0
 93
        1
 44
0.0
173
     0
291
     0
 45
0.0
  0
VISUALSTYLE
  5
8FC
102
{ACAD_REACTORS
330
267
102
}
330
267
100
AcDbVisualStyle
  2
JitterOff
 70
    20
 71
     2
 72
     2
 73
     0
 90
        0
 40
0.6
 41
30.0
 62
     5
 63
     7
421
 16777215
 74
     1
 91
        4
 64
     7
 65
   257
 75
     1
175
     1
 42
1.0
 92
       10
 66
     7
 43
1.0
 76
     1
 77
     6
 78
     2
 67
     7
 79
     5
170
     0
171
     0
290
     0
174
     0
 93
        1
 44
0.0
173
     0
291
     1
 45
0.0
  0
VISUALSTYLE
  5
275
102
{ACAD_REACTORS
330
267
102
}
330
267
100
AcDbVisualStyle
  2
Linepattern
 70
    14
 71
     2
 72
     2
 73
     0
 90
        0
 40
-0.6
 41
-30.0
 62
     5
 63
     7
421
 16777215
 74
     1
 91
        4
 64
     7
 65
   257
 75
     7
175
     7
 42
1.0
 92
        8
 66
     7
 43
1.0
 76
     1
 77
     6
 78
     2
 67
     7
 79
     5
170
     0
171
     0
290
     0
174
     0
 93
        1
 44
0.0
173
     0
291
     1
 45
0.0
  0
VISUALSTYLE
  5
8FD
102
{ACAD_REACTORS
330
267
102
}
330
267
100
AcDbVisualStyle
  2
OverhangOff
 70
    21
 71
     2
 72
     2
 73
     0
 90
        0
 40
0.6
 41
30.0
 62
     5
 63
     7
421
 16777215
 74
     1
 91
        4
 64
     7
 65
   257
 75
     1
175
     1
 42
1.0
 92
        9
 66
     7
 43
1.0
 76
     1
 77
     6
 78
     2
 67
     7
 79
     5
170
     0
171
     0
290
     0
174
     0
 93
        1
 44
0.0
173
     0
291
     1
 45
0.0
  0
VISUALSTYLE
  5
270
102
{ACAD_REACTORS
330
267
102
}
330
267
100
AcDbVisualStyle
  2
Realistic
 70
     8
 71
     2
 72
     2
 73
     0
 90
        0
 40
-0.6
 41
-30.0
 62
     5
 63
     7
421
 16777215
 74
     1
 91
        0
 64
     7
 65
   257
 75
     1
175
     1
 42
1.0
 92
        8
 66
     8
424
  7895160
 43
1.0
 76
     1
 77
     6
 78
     2
 67
     7
 79
     5
170
     0
171
     0
290
     0
174
     0
 93
       13
 44
0.0
173
     0
291
     0
 45
0.0
  0
VISUALSTYLE
  5
903
102
{ACAD_REACTORS
330
267
102
}
330
267
100
AcDbVisualStyle
  2
Shaded
 70
    27
 71
     2
 72
     2
 73
     1
 90
        2
 40
0.6
 41
30.0
 62
     5
 63
     7
421
 16777215
 74
     0
 91
        4
 64
     7
 65
   257
 75
     1
175
     1
 42
1.0
 92
        8
 66
   257
 43
1.0
 76
     1
 77
     6
 78
     2
 67
     8
425
  7895160
 79
     3
170
     0
171
     0
290
     0
174
     0
 93
        5
 44
0.0
173
     0
291
     0
 45
0.0
  0
VISUALSTYLE
  5
902
102
{ACAD_REACTORS
330
267
102
}
330
267
100
AcDbVisualStyle
  2
Shaded with edges
 70
    26
 71
     2
 72
     2
 73
     1
 90
        2
 40
0.6
 41
30.0
 62
     5
 63
     7
421
 16777215
 74
     1
 91
       10
 64
     7
 65
   257
 75
     2
175
     1
 42
1.0
 92
        8
 66
   257
 43
1.0
 76
     1
 77
     6
 78
     2
 67
     7
 79
     3
170
     0
171
     0
290
     0
174
     0
 93
        5
 44
0.0
173
     0
291
     0
 45
0.0
  0
VISUALSTYLE
  5
8FF
102
{ACAD_REACTORS
330
267
102
}
330
267
100
AcDbVisualStyle
  2
Shades of Gray
 70
    23
 71
     2
 72
     2
 73
     3
 90
        0
 40
0.6
 41
30.0
 62
     5
 63
     7
421
 16777215
 74
     2
 91
        2
 64
     7
 65
     7
 75
     1
175
     1
 42
40.0
 92
        8
 66
     7
 43
1.0
 76
     1
 77
     6
 78
     2
 67
     7
 79
     3
170
     0
171
     0
290
     0
174
     0
 93
        1
 44
0.0
173
     0
291
     0
 45
0.0
  0
VISUALSTYLE
  5
900
102
{ACAD_REACTORS
330
267
102
}
330
267
100
AcDbVisualStyle
  2
Sketchy
 70
    24
 71
     1
 72
     2
 73
     2
 90
        0
 40
0.6
 41
30.0
 62
     5
 63
     7
421
 16777215
 74
     2
 91
        2
 64
     7
 65
     7
 75
     1
175
     1
 42
40.0
 92
       11
 66
     7
 43
1.0
 76
     1
 77
     6
 78
     2
 67
     7
 79
     6
170
     0
171
     0
290
     0
174
     0
 93
        1
 44
0.0
173
     0
291
     0
 45
0.0
  0
VISUALSTYLE
  5
274
102
{ACAD_REACTORS
330
267
102
}
330
267
100
AcDbVisualStyle
  2
Thicken
 70
    13
 71
     2
 72
     2
 73
     0
 90
        0
 40
-0.6
 41
-30.0
 62
     5
 63
     7
421
 16777215
 74
     1
 91
        4
 64
     7
 65
   257
 75
     1
175
     1
 42
1.0
 92
       12
 66
     7
 43
1.0
 76
     1
 77
     6
 78
     2
 67
     7
 79
     5
170
     0
171
     0
290
     0
174
     0
 93
        1
 44
0.0
173
     0
291
     1
 45
0.0
  0
VISUALSTYLE
  5
8FA
102
{ACAD_REACTORS
330
267
102
}
330
267
100
AcDbVisualStyle
  2
Wireframe
 70
     5
 71
     0
 72
     2
 73
     0
 90
        0
 40
0.6
 41
30.0
 62
     5
 63
     7
421
 16777215
 74
     1
 91
        4
 64
     7
 65
   257
 75
     1
175
     1
 42
1.0
 92
        0
 66
   257
 43
1.0
 76
     1
 77
     6
 78
     2
 67
     7
 79
     3
170
     0
171
     0
290
     0
174
     0
 93
        1
 44
0.0
173
     0
291
     0
 45
0.0
  0
VISUALSTYLE
  5
901
102
{ACAD_REACTORS
330
267
102
}
330
267
100
AcDbVisualStyle
  2
X-Ray
 70
    25
 71
     2
 72
     2
 73
     1
 90
        1
 40
0.5
 41
30.0
 62
     5
 63
     7
421
 16777215
 74
     1
 91
        0
 64
     7
 65
   257
 75
     1
175
     1
 42
1.0
 92
        8
 66
     7
 43
1.0
 76
     1
 77
     6
 78
     2
 67
     7
 79
     3
170
     0
171
     0
290
     0
174
     0
 93
       13
 44
0.0
173
     0
291
     0
 45
0.0
  0
DICTIONARYVAR
  5
331
102
{ACAD_REACTORS
330
330
102
}
330
330
100
DictionaryVariables
280
     0
  1
1:1
  0
DICTIONARYVAR
  5
1AA2
102
{ACAD_REACTORS
330
330
102
}
330
330
100
DictionaryVariables
280
     0
  1
Standard
  0
DICTIONARYVAR
  5
335
102
{ACAD_REACTORS
330
330
102
}
330
330
100
DictionaryVariables
280
     0
  1
Standard
  0
DICTIONARYVAR
  5
D6B
102
{ACAD_REACTORS
330
330
102
}
330
330
100
DictionaryVariables
280
     0
  1
ByLayer
  0
DICTIONARYVAR
  5
896
102
{ACAD_REACTORS
330
330
102
}
330
330
100
DictionaryVariables
280
     0
  1
0
  0
DICTIONARYVAR
  5
8049
102
{ACAD_REACTORS
330
7176
102
}
330
7176
100
DictionaryVariables
280
     0
  1
0.261799
  0
DICTIONARYVAR
  5
8047
102
{ACAD_REACTORS
330
7176
102
}
330
7176
100
DictionaryVariables
280
     0
  1
0.400000
  0
DICTIONARYVAR
  5
8048
102
{ACAD_REACTORS
330
7176
102
}
330
7176
100
DictionaryVariables
280
     0
  1
0.250000
  0
DICTIONARYVAR
  5
804A
102
{ACAD_REACTORS
330
7176
102
}
330
7176
100
DictionaryVariables
280
     0
  1
1
  0
XRECORD
  5
7AA
102
{ACAD_REACTORS
330
2E2
102
}
330
2E2
100
AcDbXrecord
280
     1
 91
     1023
301

290
     0
302
DIM
330
14
 90
        8
 62
     7
370
    -3
331
13
  1
Color_7
330
4B
 90
        8
 62
     7
370
    20
331
13
  1
Color_7
330
4C
 90
        8
 62
     7
370
    13
331
13
  1
Color_7
330
4D
 90
        8
 62
     7
370
    20
331
13
  1
Color_7
330
667
 90
        8
 62
     7
370
    -3
331
13
  1
Color_7
330
0
 90
        8
 62
     7
370
    20
331
0
  1
Color_7
330
DDE
 90
        0
 62
     7
370
    -3
331
13
  1
Color_7
330
E72
 90
        8
 62
     7
370
    -3
331
13
  1
Color_7
  0
FIELD
  5
774B
102
{ACAD_REACTORS
330
7750
102
}
330
7750
100
AcDbField
  1
_text
  2
{%<\_FldIdx 0>%N}
 90
        1
360
774F
 97
        0
 91
       63
 92
        0
 94
        8
 95
        2
 96
        0
300

 93
        1
  6
ACFD_FIELDTEXT_CHECKSUM
 93
        2
 90
        2
140
4492.0
 94
        0
300

302

304
ACVALUE_END
  7
ACFD_FIELD_VALUE
 93
        6
 90
        4
  1
{20160810N}
 94
        0
300

302

304
ACVALUE_END
301
{20160810N}
 98
       11
  0
DICTIONARY
  5
8060
330
279
100
AcDbDictionary
280
     1
281
     1
  3
ACAD_ROUNDTRIP_2008_TABLESTYLE_CELLSTYLEMAP
360
8061
  0
FIELD
  5
774F
330
774B
100
AcDbField
  1
AcVar
  2
\AcVar Date \f "yyyyMMdd"
 90
        0
 97
        0
 91
       63
 92
        0
 94
        8
 95
        2
 96
        0
300

 93
        1
  6
Variable
 93
        2
 90
        4
  1
Date
 94
        0
300

302

304
ACVALUE_END
  7
ACFD_FIELD_VALUE
 93
        6
 90
        8
 92
       16
310
E007080000000A000500330010000000
 94
        0
300
yyyyMMdd
302

304
ACVALUE_END
301
20160810
 98
        8
  0
CELLSTYLEMAP
  5
8061
102
{ACAD_REACTORS
330
8060
102
}
330
8060
100
AcDbCellStyleMap
 90
        3
300
CELLSTYLE
  1
TABLEFORMAT_BEGIN
 90
        5
170
     1
 91
        0
 92
    32768
 62
   257
 93
        1
300
CONTENTFORMAT
  1
CONTENTFORMAT_BEGIN
 90
        0
 91
        0
 92
        4
 93
        0
300

 40
0.0
140
1.0
 94
        5
 62
     0
340
17
144
6.0
309
CONTENTFORMAT_END
171
     1
301
MARGIN
  1
CELLMARGIN_BEGIN
 40
0.06
 40
0.06
 40
0.06
 40
0.06
 40
0.18
 40
0.18
309
CELLMARGIN_END
 94
        6
 95
        1
302
GRIDFORMAT
  1
GRIDFORMAT_BEGIN
 90
        0
 91
        1
 62
     0
 92
       -2
340
0
 93
        0
 40
0.045
309
GRIDFORMAT_END
 95
        2
302
GRIDFORMAT
  1
GRIDFORMAT_BEGIN
 90
        0
 91
        1
 62
     0
 92
       -2
340
0
 93
        0
 40
0.045
309
GRIDFORMAT_END
 95
        4
302
GRIDFORMAT
  1
GRIDFORMAT_BEGIN
 90
        0
 91
        1
 62
     0
 92
       -2
340
0
 93
        0
 40
0.045
309
GRIDFORMAT_END
 95
        8
302
GRIDFORMAT
  1
GRIDFORMAT_BEGIN
 90
        0
 91
        1
 62
     0
 92
       -2
340
0
 93
        0
 40
0.045
309
GRIDFORMAT_END
 95
       16
302
GRIDFORMAT
  1
GRIDFORMAT_BEGIN
 90
        0
 91
        1
 62
     0
 92
       -2
340
0
 93
        0
 40
0.045
309
GRIDFORMAT_END
 95
       32
302
GRIDFORMAT
  1
GRIDFORMAT_BEGIN
 90
        0
 91
        1
 62
     0
 92
       -2
340
0
 93
        0
 40
0.045
309
GRIDFORMAT_END
309
TABLEFORMAT_END
  1
CELLSTYLE_BEGIN
 90
        1
 91
        1
300
_TITLE
309
CELLSTYLE_END
300
CELLSTYLE
  1
TABLEFORMAT_BEGIN
 90
        5
170
     1
 91
        0
 92
        0
 62
   257
 93
        1
300
CONTENTFORMAT
  1
CONTENTFORMAT_BEGIN
 90
        0
 91
        0
 92
        4
 93
        0
300

 40
0.0
140
1.0
 94
        5
 62
     0
340
17
144
4.5
309
CONTENTFORMAT_END
171
     1
301
MARGIN
  1
CELLMARGIN_BEGIN
 40
0.06
 40
0.06
 40
0.06
 40
0.06
 40
0.18
 40
0.18
309
CELLMARGIN_END
 94
        6
 95
        1
302
GRIDFORMAT
  1
GRIDFORMAT_BEGIN
 90
        0
 91
        1
 62
     0
 92
       -2
340
0
 93
        0
 40
0.045
309
GRIDFORMAT_END
 95
        2
302
GRIDFORMAT
  1
GRIDFORMAT_BEGIN
 90
        0
 91
        1
 62
     0
 92
       -2
340
0
 93
        0
 40
0.045
309
GRIDFORMAT_END
 95
        4
302
GRIDFORMAT
  1
GRIDFORMAT_BEGIN
 90
        0
 91
        1
 62
     0
 92
       -2
340
0
 93
        0
 40
0.045
309
GRIDFORMAT_END
 95
        8
302
GRIDFORMAT
  1
GRIDFORMAT_BEGIN
 90
        0
 91
        1
 62
     0
 92
       -2
340
0
 93
        0
 40
0.045
309
GRIDFORMAT_END
 95
       16
302
GRIDFORMAT
  1
GRIDFORMAT_BEGIN
 90
        0
 91
        1
 62
     0
 92
       -2
340
0
 93
        0
 40
0.045
309
GRIDFORMAT_END
 95
       32
302
GRIDFORMAT
  1
GRIDFORMAT_BEGIN
 90
        0
 91
        1
 62
     0
 92
       -2
340
0
 93
        0
 40
0.045
309
GRIDFORMAT_END
309
TABLEFORMAT_END
  1
CELLSTYLE_BEGIN
 90
        2
 91
        1
300
_HEADER
309
CELLSTYLE_END
300
CELLSTYLE
  1
TABLEFORMAT_BEGIN
 90
        5
170
     1
 91
        0
 92
        0
 62
   257
 93
        1
300
CONTENTFORMAT
  1
CONTENTFORMAT_BEGIN
 90
        0
 91
        0
 92
        4
 93
        0
300

 40
0.0
140
1.0
 94
        2
 62
     0
340
17
144
4.5
309
CONTENTFORMAT_END
171
     1
301
MARGIN
  1
CELLMARGIN_BEGIN
 40
0.06
 40
0.06
 40
0.06
 40
0.06
 40
0.18
 40
0.18
309
CELLMARGIN_END
 94
        6
 95
        1
302
GRIDFORMAT
  1
GRIDFORMAT_BEGIN
 90
        0
 91
        1
 62
     0
 92
       -2
340
0
 93
        0
 40
0.045
309
GRIDFORMAT_END
 95
        2
302
GRIDFORMAT
  1
GRIDFORMAT_BEGIN
 90
        0
 91
        1
 62
     0
 92
       -2
340
0
 93
        0
 40
0.045
309
GRIDFORMAT_END
 95
        4
302
GRIDFORMAT
  1
GRIDFORMAT_BEGIN
 90
        0
 91
        1
 62
     0
 92
       -2
340
0
 93
        0
 40
0.045
309
GRIDFORMAT_END
 95
        8
302
GRIDFORMAT
  1
GRIDFORMAT_BEGIN
 90
        0
 91
        1
 62
     0
 92
       -2
340
0
 93
        0
 40
0.045
309
GRIDFORMAT_END
 95
       16
302
GRIDFORMAT
  1
GRIDFORMAT_BEGIN
 90
        0
 91
        1
 62
     0
 92
       -2
340
0
 93
        0
 40
0.045
309
GRIDFORMAT_END
 95
       32
302
GRIDFORMAT
  1
GRIDFORMAT_BEGIN
 90
        0
 91
        1
 62
     0
 92
       -2
340
0
 93
        0
 40
0.045
309
GRIDFORMAT_END
309
TABLEFORMAT_END
  1
CELLSTYLE_BEGIN
 90
        3
 91
        2
300
_DATA
309
CELLSTYLE_END
  0
ENDSEC
  0
EOF
