  0
SECTION
  2
HEADER
  9
$ACADVER
  1
AC1021
  9
$ACADMAINTVER
 70
    25
  9
$DWGCODEPAGE
  3
ANSI_932
  9
$LASTSAVEDBY
  1
howeNelson
  9
$INSBASE
 10
0.0
 20
0.0
 30
0.0
  9
$EXTMIN
 10
0.0
 20
0.0
 30
0.0
  9
$EXTMAX
 10
630.0
 20
891.0
 30
0.0
  9
$LIMMIN
 10
0.0
 20
0.0
  9
$LIMMAX
 10
630.0
 20
891.0
  9
$ORTHOMODE
 70
     0
  9
$REGENMODE
 70
     1
  9
$FILLMODE
 70
     1
  9
$QTEXTMODE
 70
     0
  9
$MIRRTEXT
 70
     1
  9
$LTSCALE
 40
1.0
  9
$ATTMODE
 70
     1
  9
$TEXTSIZE
 40
2.5
  9
$TRACEWID
 40
1.0
  9
$TEXTSTYLE
  7
ＭＳ ゴシック
  9
$CLAYER
  8
DIM
  9
$CELTYPE
  6
ByLayer
  9
$CECOLOR
 62
   256
  9
$CELTSCALE
 40
0.05
  9
$DISPSILH
 70
     0
  9
$DIMSCALE
 40
1.0
  9
$DIMASZ
 40
3.0
  9
$DIMEXO
 40
10.0
  9
$DIMDLI
 40
0.9999999999999999
  9
$DIMRND
 40
0.0
  9
$DIMDLE
 40
0.0
  9
$DIMEXE
 40
0.0
  9
$DIMTP
 40
0.0
  9
$DIMTM
 40
0.0
  9
$DIMTXT
 40
8.0
  9
$DIMCEN
 40
0.0
  9
$DIMTSZ
 40
0.0
  9
$DIMTOL
 70
     0
  9
$DIMLIM
 70
     0
  9
$DIMTIH
 70
     0
  9
$DIMTOH
 70
     0
  9
$DIMSE1
 70
     0
  9
$DIMSE2
 70
     0
  9
$DIMTAD
 70
     1
  9
$DIMZIN
 70
    11
  9
$DIMBLK
  1
DOT
  9
$DIMASO
 70
     1
  9
$DIMSHO
 70
     1
  9
$DIMPOST
  1
<>
  9
$DIMAPOST
  1
[]
  9
$DIMALT
 70
     0
  9
$DIMALTD
 70
     1
  9
$DIMALTF
 40
1.0
  9
$DIMLFAC
 40
1.0
  9
$DIMTOFL
 70
     0
  9
$DIMTVP
 40
0.0
  9
$DIMTIX
 70
     1
  9
$DIMSOXD
 70
     0
  9
$DIMSAH
 70
     0
  9
$DIMBLK1
  1

  9
$DIMBLK2
  1

  9
$DIMSTYLE
  2
tfrom線あり
  9
$DIMCLRD
 70
     0
  9
$DIMCLRE
 70
     0
  9
$DIMCLRT
 70
     0
  9
$DIMTFAC
 40
1.0
  9
$DIMGAP
 40
6.0
  9
$DIMJUST
 70
     0
  9
$DIMSD1
 70
     0
  9
$DIMSD2
 70
     0
  9
$DIMTOLJ
 70
     1
  9
$DIMTZIN
 70
    11
  9
$DIMALTZ
 70
    11
  9
$DIMALTTZ
 70
    11
  9
$DIMUPT
 70
     0
  9
$DIMDEC
 70
     0
  9
$DIMTDEC
 70
     1
  9
$DIMALTU
 70
     2
  9
$DIMALTTD
 70
     2
  9
$DIMTXSTY
  7
ＭＳ ゴシック
  9
$DIMAUNIT
 70
     0
  9
$DIMADEC
 70
     2
  9
$DIMALTRND
 40
0.0
  9
$DIMAZIN
 70
     0
  9
$DIMDSEP
 70
    46
  9
$DIMATFIT
 70
     0
  9
$DIMFRAC
 70
     2
  9
$DIMLDRBLK
  1
DOT
  9
$DIMLUNIT
 70
     2
  9
$DIMLWD
 70
    -2
  9
$DIMLWE
 70
    -2
  9
$DIMTMOVE
 70
     0
  9
$DIMFXL
 40
1.0
  9
$DIMFXLON
 70
     0
  9
$DIMJOGANG
 40
0.7853981633974483
  9
$DIMTFILL
 70
     0
  9
$DIMTFILLCLR
 70
     0
  9
$DIMARCSYM
 70
     0
  9
$DIMLTYPE
  6

  9
$DIMLTEX1
  6

  9
$DIMLTEX2
  6

  9
$LUNITS
 70
     2
  9
$LUPREC
 70
     0
  9
$SKETCHINC
 40
0.1
  9
$FILLETRAD
 40
0.0
  9
$AUNITS
 70
     0
  9
$AUPREC
 70
     0
  9
$MENU
  1
acad
  9
$ELEVATION
 40
0.0
  9
$PELEVATION
 40
0.0
  9
$THICKNESS
 40
0.0
  9
$LIMCHECK
 70
     0
  9
$CHAMFERA
 40
0.0
  9
$CHAMFERB
 40
0.0
  9
$CHAMFERC
 40
0.0
  9
$CHAMFERD
 40
0.0
  9
$SKPOLY
 70
     0
  9
$TDCREATE
 40
2447893.375
  9
$TDUCREATE
 40
0.0
  9
$TDUPDATE
 40
2458144.610801887
  9
$TDUUPDATE
 40
2458144.235801887
  9
$TDINDWG
 40
0.0005513657
  9
$TDUSRTIMER
 40
2458144.235781019
  9
$USRTIMER
 70
     1
  9
$ANGBASE
 50
0.0
  9
$ANGDIR
 70
     0
  9
$PDMODE
 70
     1
  9
$PDSIZE
 40
-2.0
  9
$PLINEWID
 40
0.0
  9
$SPLFRAME
 70
     0
  9
$SPLINETYPE
 70
     6
  9
$SPLINESEGS
 70
     8
  9
$HANDSEED
  5
1BFEB
  9
$SURFTAB1
 70
     6
  9
$SURFTAB2
 70
     6
  9
$SURFTYPE
 70
     6
  9
$SURFU
 70
     6
  9
$SURFV
 70
     6
  9
$UCSBASE
  2

  9
$UCSNAME
  2

  9
$UCSORG
 10
0.0
 20
0.0
 30
0.0
  9
$UCSXDIR
 10
1.0
 20
0.0
 30
0.0
  9
$UCSYDIR
 10
0.0
 20
1.0
 30
0.0
  9
$UCSORTHOREF
  2

  9
$UCSORTHOVIEW
 70
     0
  9
$UCSORGTOP
 10
0.0
 20
0.0
 30
0.0
  9
$UCSORGBOTTOM
 10
0.0
 20
0.0
 30
0.0
  9
$UCSORGLEFT
 10
0.0
 20
0.0
 30
0.0
  9
$UCSORGRIGHT
 10
0.0
 20
0.0
 30
0.0
  9
$UCSORGFRONT
 10
0.0
 20
0.0
 30
0.0
  9
$UCSORGBACK
 10
0.0
 20
0.0
 30
0.0
  9
$PUCSBASE
  2

  9
$PUCSNAME
  2

  9
$PUCSORG
 10
0.0
 20
0.0
 30
0.0
  9
$PUCSXDIR
 10
1.0
 20
0.0
 30
0.0
  9
$PUCSYDIR
 10
0.0
 20
1.0
 30
0.0
  9
$PUCSORTHOREF
  2

  9
$PUCSORTHOVIEW
 70
     0
  9
$PUCSORGTOP
 10
0.0
 20
0.0
 30
0.0
  9
$PUCSORGBOTTOM
 10
0.0
 20
0.0
 30
0.0
  9
$PUCSORGLEFT
 10
0.0
 20
0.0
 30
0.0
  9
$PUCSORGRIGHT
 10
0.0
 20
0.0
 30
0.0
  9
$PUCSORGFRONT
 10
0.0
 20
0.0
 30
0.0
  9
$PUCSORGBACK
 10
0.0
 20
0.0
 30
0.0
  9
$USERI1
 70
     0
  9
$USERI2
 70
     0
  9
$USERI3
 70
     0
  9
$USERI4
 70
     0
  9
$USERI5
 70
     0
  9
$USERR1
 40
0.0
  9
$USERR2
 40
0.0
  9
$USERR3
 40
0.0
  9
$USERR4
 40
0.0
  9
$USERR5
 40
0.0
  9
$WORLDVIEW
 70
     1
  9
$SHADEDGE
 70
     3
  9
$SHADEDIF
 70
    70
  9
$TILEMODE
 70
     1
  9
$MAXACTVP
 70
    64
  9
$PINSBASE
 10
0.0
 20
0.0
 30
0.0
  9
$PLIMCHECK
 70
     0
  9
$PEXTMIN
 10
0.0
 20
0.0
 30
0.0
  9
$PEXTMAX
 10
0.0
 20
0.0
 30
0.0
  9
$PLIMMIN
 10
-7.5
 20
-20.0
  9
$PLIMMAX
 10
412.5
 20
277.0
  9
$UNITMODE
 70
     0
  9
$VISRETAIN
 70
     0
  9
$PLINEGEN
 70
     1
  9
$PSLTSCALE
 70
     0
  9
$TREEDEPTH
 70
  3020
  9
$CMLSTYLE
  2
Standard
  9
$CMLJUST
 70
     0
  9
$CMLSCALE
 40
1.0
  9
$PROXYGRAPHICS
 70
     0
  9
$MEASUREMENT
 70
     1
  9
$CELWEIGHT
370
    -1
  9
$ENDCAPS
280
     0
  9
$JOINSTYLE
280
     0
  9
$LWDISPLAY
290
     1
  9
$INSUNITS
 70
     4
  9
$HYPERLINKBASE
  1

  9
$STYLESHEET
  1

  9
$XEDIT
290
     1
  9
$CEPSNTYPE
380
     0
  9
$PSTYLEMODE
290
     1
  9
$FINGERPRINTGUID
  2

  9
$VERSIONGUID
  2

  9
$EXTNAMES
290
     1
  9
$PSVPSCALE
 40
0.0
  9
$OLESTARTUP
290
     0
  9
$SORTENTS
280
   127
  9
$INDEXCTL
280
     0
  9
$HIDETEXT
280
     1
  9
$XCLIPFRAME
290
     0
  9
$HALOGAP
280
     0
  9
$OBSCOLOR
 70
   257
  9
$OBSLTYPE
280
     0
  9
$INTERSECTIONDISPLAY
280
     0
  9
$INTERSECTIONCOLOR
 70
   257
  9
$DIMASSOC
280
     2
  9
$PROJECTNAME
  1

  9
$CAMERADISPLAY
290
     0
  9
$LENSLENGTH
 40
50.0
  9
$CAMERAHEIGHT
 40
0.0
  9
$STEPSPERSEC
 40
2.0
  9
$STEPSIZE
 40
6.0
  9
$3DDWFPREC
 40
2.0
  9
$PSOLWIDTH
 40
0.25
  9
$PSOLHEIGHT
 40
4.0
  9
$LOFTANG1
 40
1.570796326794897
  9
$LOFTANG2
 40
1.570796326794897
  9
$LOFTMAG1
 40
0.0
  9
$LOFTMAG2
 40
0.0
  9
$LOFTPARAM
 70
     7
  9
$LOFTNORMALS
280
     1
  9
$LATITUDE
 40
37.795
  9
$LONGITUDE
 40
-122.394
  9
$NORTHDIRECTION
 40
0.0
  9
$TIMEZONE
 70
 -8000
  9
$LIGHTGLYPHDISPLAY
280
     1
  9
$TILEMODELIGHTSYNCH
280
     1
  9
$SOLIDHIST
280
     1
  9
$SHOWHIST
280
     1
  9
$DWFFRAME
280
     2
  9
$DGNFRAME
280
     2
  9
$REALWORLDSCALE
290
     1
  9
$INTERFERECOLOR
 62
   256
  9
$CSHADOW
280
     0
  9
$SHADOWPLANELOCATION
 40
0.0
  0
ENDSEC
  0
SECTION
  2
CLASSES
  0
CLASS
  1
LWPOLYLINE
  2
AcDbPolyline
  3
ObjectDBX Classes
 90
        0
 91
        1
280
     0
281
     1
  0
CLASS
  1
IMAGE
  2
AcDbRasterImage
  3
ISM
 90
      127
 91
       10
280
     0
281
     1
  0
CLASS
  1
OLE2FRAME
  2
AcDbOle2Frame
  3
ObjectDBX Classes
 90
        0
 91
        1
280
     0
281
     1
  0
CLASS
  1
HATCH
  2
AcDbHatch
  3
ObjectDBX Classes
 90
        0
 91
        1
280
     0
281
     1
  0
CLASS
  1
DICTIONARYVAR
  2
AcDbDictionaryVar
  3
ObjectDBX Classes
 90
        0
 91
        9
280
     0
281
     0
  0
CLASS
  1
RASTERVARIABLES
  2
AcDbRasterVariables
  3
ISM
 90
        0
 91
        9
280
     0
281
     0
  0
CLASS
  1
IMAGEDEF
  2
AcDbRasterImageDef
  3
ISM
 90
        0
 91
        9
280
     0
281
     0
  0
CLASS
  1
IMAGEDEF_REACTOR
  2
AcDbRasterImageDefReactor
  3
ISM
 90
        1
 91
        9
280
     0
281
     0
  0
CLASS
  1
IDBUFFER
  2
AcDbIdBuffer
  3
ObjectDBX Classes
 90
        0
 91
        9
280
     0
281
     0
  0
CLASS
  1
SPATIAL_FILTER
  2
AcDbSpatialFilter
  3
ObjectDBX Classes
 90
        0
 91
        9
280
     0
281
     0
  0
CLASS
  1
XRECORD
  2
AcDbXrecord
  3
ObjectDBX Classes
 90
        0
 91
        1
280
     0
281
     0
  0
CLASS
  1
SORTENTSTABLE
  2
AcDbSortentsTable
  3
ObjectDBX Classes
 90
        0
 91
        9
280
     0
281
     0
  0
CLASS
  1
LAYER_INDEX
  2
AcDbLayerIndex
  3
ObjectDBX Classes
 90
        0
 91
        9
280
     0
281
     0
  0
CLASS
  1
SPATIAL_INDEX
  2
AcDbSpatialIndex
  3
AutoCAD 2000
 90
        0
 91
        9
280
     0
281
     0
  0
CLASS
  1
OBJECT_PTR
  2
CAseDLPNTableRecord
  3
ASE-LPNTableRecord
 90
        1
 91
        9
280
     0
281
     0
  0
CLASS
  1
LAYOUT
  2
AcDbLayout
  3
ObjectDBX Classes
 90
        0
 91
        1
280
     0
281
     0
  0
CLASS
  1
PLOTSETTINGS
  2
AcDbPlotSettings
  3
ObjectDBX Classes
 90
        0
 91
        9
280
     0
281
     0
  0
CLASS
  1
ACDBDICTIONARYWDFLT
  2
AcDbDictionaryWithDefault
  3
ObjectDBX Classes
 90
        0
 91
        9
280
     0
281
     0
  0
CLASS
  1
ACDBPLACEHOLDER
  2
AcDbPlaceHolder
  3
ObjectDBX Classes
 90
        0
 91
        1
280
     0
281
     0
  0
CLASS
  1
SCALE
  2
AcDbScale
  3
ObjectDBX Classes
 90
     1153
 91
        9
280
     0
281
     0
  0
CLASS
  1
MATERIAL
  2
AcDbMaterial
  3
ObjectDBX Classes
 90
     1153
 91
        9
280
     0
281
     0
  0
CLASS
  1
VISUALSTYLE
  2
AcDbVisualStyle
  3
ObjectDBX Classes
 90
     4095
 91
        9
280
     0
281
     0
  0
CLASS
  1
TABLESTYLE
  2
AcDbTableStyle
  3
ObjectDBX Classes
 90
     4095
 91
        9
280
     0
281
     0
  0
CLASS
  1
DIMASSOC
  2
AcDbDimAssoc
  3
"AcDbDimAssoc|Product Desc:     AcDim ARX App For Dimension|Company:          Autodesk, Inc.|WEB Address:      www.autodesk.com"
 90
        0
 91
        9
280
     0
281
     0
  0
CLASS
  1
CELLSTYLEMAP
  2
AcDbCellStyleMap
  3
ObjectDBX Classes
 90
     1152
 91
        9
280
     0
281
     0
  0
CLASS
  1
SUN
  2
AcDbSun
  3
SCENEOE
 90
     1153
 91
        9
280
     0
281
     0
  0
CLASS
  1
MLEADERSTYLE
  2
AcDbMLeaderStyle
  3
ACDB_MLEADERSTYLE_CLASS
 90
     4095
 91
        9
280
     0
281
     0
  0
CLASS
  1
FIELD
  2
AcDbField
  3
ObjectDBX Classes
 90
     1152
 91
        9
280
     0
281
     0
  0
CLASS
  1
FIELDLIST
  2
AcDbFieldList
  3
ObjectDBX Classes
 90
     1152
 91
        9
280
     0
281
     0
  0
ENDSEC
  0
SECTION
  2
TABLES
  0
TABLE
  2
VPORT
  5
7
330
0
100
AcDbSymbolTable
 70
     1
  0
VPORT
  5
15
330
7
100
AcDbSymbolTableRecord
100
AcDbViewportTableRecord
  2
*ACTIVE
 70
     0
 10
0.0
 20
0.0
 11
1.0
 21
1.0
 12
406.0201356708999
 22
371.9012854698333
 13
0.0
 23
0.0
 14
1.0
 24
1.0
 15
0.0
 25
0.0
 16
0.0
 26
0.0
 36
1.0
 17
-91.02013567089995
 27
73.59871453016672
 37
-46.86809886248109
 40
908.82
 41
2.236286919831223
 42
50.0
 43
0.0
 44
0.0
 50
0.0
 51
0.0
 71
    16
 72
  2000
 73
     1
 74
     1
 75
     0
 76
     0
 77
     0
 78
     0
281
     0
 65
     1
110
0.0
120
0.0
130
0.0
111
1.0
121
0.0
131
0.0
112
0.0
122
1.0
132
0.0
 79
     0
146
0.0
348
3666
 60
     3
 61
     5
292
     1
282
     1
141
0.0
142
0.0
 63
   256
361
904
  0
ENDTAB
  0
TABLE
  2
LTYPE
  5
4
330
0
100
AcDbSymbolTable
 70
     4
  0
LTYPE
  5
11
330
4
100
AcDbSymbolTableRecord
100
AcDbLinetypeTableRecord
  2
ByBlock
 70
     0
  3

 72
    65
 73
     0
 40
0.0
  0
LTYPE
  5
12
330
4
100
AcDbSymbolTableRecord
100
AcDbLinetypeTableRecord
  2
ByLayer
 70
     0
  3

 72
    65
 73
     0
 40
0.0
  0
LTYPE
  5
13
330
4
100
AcDbSymbolTableRecord
100
AcDbLinetypeTableRecord
  2
Continuous
 70
     0
  3
Solid line
 72
    65
 73
     0
 40
0.0
  0
LTYPE
  5
D6C
330
4
100
AcDbSymbolTableRecord
100
AcDbLinetypeTableRecord
  2
BORDER
 70
     0
  3
Border __  __  . __  __  . __  __  . __  __  . 
 72
    65
 73
     6
 40
44.45
 49
12.7
 74
     0
 49
-6.35
 74
     0
 49
12.7
 74
     0
 49
-6.35
 74
     0
 49
0.0
 74
     0
 49
-6.35
 74
     0
  0
LTYPE
  5
1BC37
330
4
100
AcDbSymbolTableRecord
100
AcDbLinetypeTableRecord
  2
STYLE_12
 70
     0
  3

 72
    65
 73
     2
 40
0.3937007874015748
 49
0.1968503937007874
 74
     0
 49
-0.1968503937007874
 74
     0
  0
LTYPE
  5
1BC39
330
4
100
AcDbSymbolTableRecord
100
AcDbLinetypeTableRecord
  2
CENTER2
 70
     0
  3
___ _ ___ _ ___ _ ___ _ ___ _ ___ _ ___ _ ___ _
 72
    65
 73
     4
 40
1.125
 49
0.75
 74
     0
 49
-0.125
 74
     0
 49
0.125
 74
     0
 49
-0.125
 74
     0
  0
ENDTAB
  0
TABLE
  2
LAYER
  5
2
102
{ACAD_XDICTIONARY
360
2E1
102
}
330
0
100
AcDbSymbolTable
 70
     8
  0
LAYER
  5
14
330
2
100
AcDbSymbolTableRecord
100
AcDbLayerTableRecord
  2
0
 70
     0
 62
     7
  6
Continuous
370
    -3
390
1D
347
266
  0
LAYER
  5
4B
330
2
100
AcDbSymbolTableRecord
100
AcDbLayerTableRecord
  2
TEMPLATE
 70
     0
 62
     7
  6
Continuous
370
    20
390
1D
347
266
  0
LAYER
  5
4C
330
2
100
AcDbSymbolTableRecord
100
AcDbLayerTableRecord
  2
DIM
 70
     0
 62
     3
  6
Continuous
370
    13
390
1D
347
266
  0
LAYER
  5
4D
330
2
100
AcDbSymbolTableRecord
100
AcDbLayerTableRecord
  2
MODEL
 70
     0
 62
     7
  6
Continuous
370
    20
390
1D
347
266
  0
LAYER
  5
667
330
2
100
AcDbSymbolTableRecord
100
AcDbLayerTableRecord
  2
LOGO
 70
     0
 62
     7
  6
Continuous
370
    -3
390
1D
347
266
  0
LAYER
  5
D6B
330
2
100
AcDbSymbolTableRecord
100
AcDbLayerTableRecord
  2
BORDER
 70
     0
 62
     4
  6
BORDER
290
     0
370
    20
390
1D
347
266
1001
AcAecLayerStandard
1000

1000

  0
LAYER
  5
A5DF
330
2
100
AcDbSymbolTableRecord
100
AcDbLayerTableRecord
  2
Defpoints
 70
     0
 62
     7
  6
Continuous
290
     0
370
    -3
390
1D
347
266
  0
LAYER
  5
1BC36
330
2
100
AcDbSymbolTableRecord
100
AcDbLayerTableRecord
  2
HIDDEN
 70
     0
 62
     7
  6
STYLE_12
370
     9
390
1D
347
266
1001
AcAecLayerStandard
1000

1000

  0
ENDTAB
  0
TABLE
  2
STYLE
  5
3
330
0
100
AcDbSymbolTable
 70
     4
  0
STYLE
  5
17
330
3
100
AcDbSymbolTableRecord
100
AcDbTextStyleTableRecord
  2
Standard
 70
     0
 40
0.0
 41
1.0
 50
0.0
 71
     0
 42
2.5
  3
txt
  4
BIGFONT.SHX
  0
STYLE
  5
39
330
3
100
AcDbSymbolTableRecord
100
AcDbTextStyleTableRecord
  2
ＭＳ ゴシック
 70
     0
 40
0.0
 41
1.0
 50
0.0
 71
     0
 42
2.5
  3
msgothic.ttc
  4
ＭＳ ゴシック
1001
ACAD
1000
ＭＳ ゴシック
1071
        0
  0
STYLE
  5
384
330
3
100
AcDbSymbolTableRecord
100
AcDbTextStyleTableRecord
  2
ARIAL
 70
     0
 40
0.0
 41
1.0
 50
0.0
 71
     0
 42
12.0
  3
ARIAL.TTF
  4

1001
ACAD
1000
Arial
1071
       34
  0
STYLE
  5
385
330
3
100
AcDbSymbolTableRecord
100
AcDbTextStyleTableRecord
  2
ROMANS
 70
     0
 40
0.0
 41
1.0
 50
0.0
 71
     0
 42
5.0
  3
romans.shx
  4

  0
ENDTAB
  0
TABLE
  2
VIEW
  5
5
330
0
100
AcDbSymbolTable
 70
     0
  0
ENDTAB
  0
TABLE
  2
UCS
  5
6
330
0
100
AcDbSymbolTable
 70
     0
  0
ENDTAB
  0
TABLE
  2
APPID
  5
8
330
0
100
AcDbSymbolTable
 70
     3
  0
APPID
  5
16
330
8
100
AcDbSymbolTableRecord
100
AcDbRegAppTableRecord
  2
ACAD
 70
     0
  0
APPID
  5
7AC
330
8
100
AcDbSymbolTableRecord
100
AcDbRegAppTableRecord
  2
AcAecLayerStandard
 70
     0
  0
APPID
  5
E29
330
8
100
AcDbSymbolTableRecord
100
AcDbRegAppTableRecord
  2
ACAD_MLEADERVER
 70
     0
  0
ENDTAB
  0
TABLE
  2
DIMSTYLE
  5
9
330
0
100
AcDbSymbolTable
 70
     3
100
AcDbDimStyleTable
  0
DIMSTYLE
105
18
330
9
100
AcDbSymbolTableRecord
100
AcDbDimStyleTableRecord
  2
Standard
 70
     0
178
     0
340
17
  0
DIMSTYLE
105
57
102
{ACAD_REACTORS
330
1BEC6
330
1BECA
330
1BED0
330
1BF50
102
}
330
9
100
AcDbSymbolTableRecord
100
AcDbDimStyleTableRecord
  2
tfrom線あり
 70
     0
  3
<>
  4
[]
 41
3.0
 42
10.0
 43
0.9999999999999999
 44
0.0
 73
     0
 74
     0
 77
     1
 78
    11
140
8.0
141
0.0
143
1.0
147
6.0
171
     1
174
     1
178
     0
179
     2
271
     0
272
     1
276
     2
284
    11
285
    11
286
    11
289
     0
340
39
341
4E
342
4E
  0
DIMSTYLE
105
1BC44
330
9
100
AcDbSymbolTableRecord
100
AcDbDimStyleTableRecord
  2
ARIAL
 70
     0
 41
10.0
 42
3.0
 43
0.5
 44
3.0
 73
     0
 74
     0
 77
     1
 78
     8
140
12.0
141
0.0
146
0.5
147
4.0
171
     1
172
     1
178
     0
271
     1
289
     0
340
384
  0
ENDTAB
  0
TABLE
  2
BLOCK_RECORD
  5
1
330
0
100
AcDbSymbolTable
 70
   115
  0
BLOCK_RECORD
  5
A
330
1
100
AcDbSymbolTableRecord
100
AcDbBlockTableRecord
  2
*MODEL_SPACE
340
20
 70
     0
280
     1
281
     0
  0
BLOCK_RECORD
  5
B
330
1
100
AcDbSymbolTableRecord
100
AcDbBlockTableRecord
  2
*PAPER_SPACE
340
21
 70
     0
280
     1
281
     0
  0
BLOCK_RECORD
  5
4E
330
1
100
AcDbSymbolTableRecord
100
AcDbBlockTableRecord
  2
_DOT
340
0
102
{BLKREFS
331
1931D
331
1931E
331
1932E
331
1932F
331
193E9
331
193EA
331
1941C
331
1941D
331
1942B
331
1942C
331
1943A
331
1943B
331
19449
331
1944A
331
19482
331
19483
331
19493
331
19494
331
194A5
331
194A6
331
194EB
331
194EC
331
19501
331
19502
331
19510
331
19511
331
1951F
331
19520
331
19598
331
19599
331
195AA
331
195AB
331
195BA
331
195BB
331
195C9
331
195CA
331
195D8
331
195D9
331
195E7
331
195E8
331
19663
331
19664
331
19672
331
19673
331
19681
331
19682
331
1969A
331
1969B
331
196A9
331
196AA
331
196BB
331
196BC
331
196CB
331
196CC
331
196DC
331
196DD
331
196EE
331
196EF
331
19700
331
19701
331
1970F
331
19710
331
19721
331
19722
331
19736
331
19737
331
19745
331
19746
331
19753
331
19754
331
19762
331
19763
331
197AD
331
197AE
331
197C2
331
197C3
331
197D1
331
197D2
331
197E0
331
197E1
331
197EF
331
197F0
331
197FE
331
197FF
331
1980D
331
1980E
331
1981D
331
1981E
331
1982C
331
1982D
331
1983B
331
1983C
331
1984A
331
1984B
331
19859
331
1985A
331
1A77A
331
1A77B
331
1A786
331
1A787
331
1A792
331
1A793
331
1A7A1
331
1A7A2
331
1A7AD
331
1A7AE
331
1A7B9
331
1A7BA
331
1A7C5
331
1A7C6
331
1A7D3
331
1A7D4
331
1A7E1
331
1A7E2
331
1A7ED
331
1A7EE
331
1A7F9
331
1A7FA
331
1A805
331
1A806
331
1A811
331
1A812
331
1A81D
331
1A81E
331
1A829
331
1A82A
331
1A835
331
1A836
331
1A841
331
1A842
331
1A84D
331
1A84E
331
1A859
331
1A85A
331
1B72C
331
1B72D
331
1B738
331
1B739
331
1B744
331
1B745
331
1B753
331
1B754
331
1B75F
331
1B760
331
1B76B
331
1B76C
331
1B777
331
1B778
331
1B785
331
1B786
331
1B793
331
1B794
331
1B79F
331
1B7A0
331
1B7AB
331
1B7AC
331
1B7B7
331
1B7B8
331
1B7C3
331
1B7C4
331
1B7CF
331
1B7D0
331
1B7DB
331
1B7DC
331
1B7E7
331
1B7E8
331
1B7F3
331
1B7F4
331
1B7FF
331
1B800
331
1B80B
331
1B80C
331
1BBDE
331
1BBDF
331
1BBEA
331
1BBEB
331
1BBF8
331
1BBF9
331
1BC02
331
1BC03
331
1BC10
331
1BC11
331
1BC1C
331
1BC1D
331
1BC6B
331
1BC6C
331
1BC78
331
1BC79
331
1BC85
331
1BC86
331
1BC92
331
1BC93
331
1BCA1
331
1BCA2
331
1BDA8
331
1BDA9
331
1BDB7
331
1BDB8
331
1BEE6
331
1BEE7
331
1BEF2
331
1BEF3
331
1BEFE
331
1BEFF
331
1BF0A
331
1BF0B
331
1BF18
331
1BF19
331
1BF24
331
1BF25
331
1BF30
331
1BF31
331
1BF3F
331
1BF40
331
1BF59
331
1BF5A
102
}
 70
     0
280
     1
281
     0
  0
BLOCK_RECORD
  5
68A
330
1
100
AcDbSymbolTableRecord
100
AcDbBlockTableRecord
  2
名称未設定-1
340
0
102
{BLKREFS
331
1BBD1
102
}
 70
     1
280
     1
281
     0
  0
BLOCK_RECORD
  5
68D
330
1
100
AcDbSymbolTableRecord
100
AcDbBlockTableRecord
  2
block 2
340
0
102
{BLKREFS
331
68C
331
1343
102
}
 70
     0
280
     1
281
     0
  0
BLOCK_RECORD
  5
690
330
1
100
AcDbSymbolTableRecord
100
AcDbBlockTableRecord
  2
block 3
340
0
102
{BLKREFS
331
68F
102
}
 70
     0
280
     1
281
     0
  0
BLOCK_RECORD
  5
693
330
1
100
AcDbSymbolTableRecord
100
AcDbBlockTableRecord
  2
block 4
340
0
102
{BLKREFS
331
692
102
}
 70
     0
280
     1
281
     0
  0
BLOCK_RECORD
  5
6A2
330
1
100
AcDbSymbolTableRecord
100
AcDbBlockTableRecord
  2
block 5
340
0
102
{BLKREFS
331
6A1
102
}
 70
     0
280
     1
281
     0
  0
BLOCK_RECORD
  5
19317
330
1
100
AcDbSymbolTableRecord
100
AcDbBlockTableRecord
  2
*D6
340
0
 70
     0
280
     1
281
     0
  0
BLOCK_RECORD
  5
19328
330
1
100
AcDbSymbolTableRecord
100
AcDbBlockTableRecord
  2
*D7
340
0
 70
     0
280
     1
281
     0
  0
BLOCK_RECORD
  5
193E3
330
1
100
AcDbSymbolTableRecord
100
AcDbBlockTableRecord
  2
*D8
340
0
 70
     0
280
     1
281
     0
  0
BLOCK_RECORD
  5
19416
330
1
100
AcDbSymbolTableRecord
100
AcDbBlockTableRecord
  2
*D9
340
0
 70
     0
280
     1
281
     0
  0
BLOCK_RECORD
  5
19425
330
1
100
AcDbSymbolTableRecord
100
AcDbBlockTableRecord
  2
*D10
340
0
 70
     0
280
     1
281
     0
  0
BLOCK_RECORD
  5
19434
330
1
100
AcDbSymbolTableRecord
100
AcDbBlockTableRecord
  2
*D11
340
0
 70
     0
280
     1
281
     0
  0
BLOCK_RECORD
  5
19443
330
1
100
AcDbSymbolTableRecord
100
AcDbBlockTableRecord
  2
*D12
340
0
 70
     0
280
     1
281
     0
  0
BLOCK_RECORD
  5
1947C
330
1
100
AcDbSymbolTableRecord
100
AcDbBlockTableRecord
  2
*D13
340
0
 70
     0
280
     1
281
     0
  0
BLOCK_RECORD
  5
1948B
330
1
100
AcDbSymbolTableRecord
100
AcDbBlockTableRecord
  2
*D14
340
0
 70
     0
280
     1
281
     0
  0
BLOCK_RECORD
  5
1949F
330
1
100
AcDbSymbolTableRecord
100
AcDbBlockTableRecord
  2
*D15
340
0
 70
     0
280
     1
281
     0
  0
BLOCK_RECORD
  5
194E5
330
1
100
AcDbSymbolTableRecord
100
AcDbBlockTableRecord
  2
*D16
340
0
 70
     0
280
     1
281
     0
  0
BLOCK_RECORD
  5
194FB
330
1
100
AcDbSymbolTableRecord
100
AcDbBlockTableRecord
  2
*D17
340
0
 70
     0
280
     1
281
     0
  0
BLOCK_RECORD
  5
1950A
330
1
100
AcDbSymbolTableRecord
100
AcDbBlockTableRecord
  2
*D18
340
0
 70
     0
280
     1
281
     0
  0
BLOCK_RECORD
  5
19519
330
1
100
AcDbSymbolTableRecord
100
AcDbBlockTableRecord
  2
*D19
340
0
 70
     0
280
     1
281
     0
  0
BLOCK_RECORD
  5
19590
330
1
100
AcDbSymbolTableRecord
100
AcDbBlockTableRecord
  2
*D20
340
0
 70
     0
280
     1
281
     0
  0
BLOCK_RECORD
  5
195A4
330
1
100
AcDbSymbolTableRecord
100
AcDbBlockTableRecord
  2
*D21
340
0
 70
     0
280
     1
281
     0
  0
BLOCK_RECORD
  5
195B4
330
1
100
AcDbSymbolTableRecord
100
AcDbBlockTableRecord
  2
*D22
340
0
 70
     0
280
     1
281
     0
  0
BLOCK_RECORD
  5
195C3
330
1
100
AcDbSymbolTableRecord
100
AcDbBlockTableRecord
  2
*D23
340
0
 70
     0
280
     1
281
     0
  0
BLOCK_RECORD
  5
195D2
330
1
100
AcDbSymbolTableRecord
100
AcDbBlockTableRecord
  2
*D24
340
0
 70
     0
280
     1
281
     0
  0
BLOCK_RECORD
  5
195E1
330
1
100
AcDbSymbolTableRecord
100
AcDbBlockTableRecord
  2
*D25
340
0
 70
     0
280
     1
281
     0
  0
BLOCK_RECORD
  5
1965D
330
1
100
AcDbSymbolTableRecord
100
AcDbBlockTableRecord
  2
*D26
340
0
 70
     0
280
     1
281
     0
  0
BLOCK_RECORD
  5
1966C
330
1
100
AcDbSymbolTableRecord
100
AcDbBlockTableRecord
  2
*D27
340
0
 70
     0
280
     1
281
     0
  0
BLOCK_RECORD
  5
1967B
330
1
100
AcDbSymbolTableRecord
100
AcDbBlockTableRecord
  2
*D28
340
0
 70
     0
280
     1
281
     0
  0
BLOCK_RECORD
  5
19694
330
1
100
AcDbSymbolTableRecord
100
AcDbBlockTableRecord
  2
*D29
340
0
 70
     0
280
     1
281
     0
  0
BLOCK_RECORD
  5
196A3
330
1
100
AcDbSymbolTableRecord
100
AcDbBlockTableRecord
  2
*D30
340
0
 70
     0
280
     1
281
     0
  0
BLOCK_RECORD
  5
196B3
330
1
100
AcDbSymbolTableRecord
100
AcDbBlockTableRecord
  2
*D31
340
0
 70
     0
280
     1
281
     0
  0
BLOCK_RECORD
  5
196C7
330
1
100
AcDbSymbolTableRecord
100
AcDbBlockTableRecord
  2
*D32
340
0
 70
     0
280
     1
281
     0
  0
BLOCK_RECORD
  5
196D6
330
1
100
AcDbSymbolTableRecord
100
AcDbBlockTableRecord
  2
*D33
340
0
 70
     0
280
     1
281
     0
  0
BLOCK_RECORD
  5
196E8
330
1
100
AcDbSymbolTableRecord
100
AcDbBlockTableRecord
  2
*D34
340
0
 70
     0
280
     1
281
     0
  0
BLOCK_RECORD
  5
196FA
330
1
100
AcDbSymbolTableRecord
100
AcDbBlockTableRecord
  2
*D35
340
0
 70
     0
280
     1
281
     0
  0
BLOCK_RECORD
  5
19709
330
1
100
AcDbSymbolTableRecord
100
AcDbBlockTableRecord
  2
*D36
340
0
 70
     0
280
     1
281
     0
  0
BLOCK_RECORD
  5
1971B
330
1
100
AcDbSymbolTableRecord
100
AcDbBlockTableRecord
  2
*D37
340
0
 70
     0
280
     1
281
     0
  0
BLOCK_RECORD
  5
1972D
330
1
100
AcDbSymbolTableRecord
100
AcDbBlockTableRecord
  2
*D38
340
0
 70
     0
280
     1
281
     0
  0
BLOCK_RECORD
  5
1973F
330
1
100
AcDbSymbolTableRecord
100
AcDbBlockTableRecord
  2
*D39
340
0
 70
     0
280
     1
281
     0
  0
BLOCK_RECORD
  5
1974D
330
1
100
AcDbSymbolTableRecord
100
AcDbBlockTableRecord
  2
*D40
340
0
 70
     0
280
     1
281
     0
  0
BLOCK_RECORD
  5
1975C
330
1
100
AcDbSymbolTableRecord
100
AcDbBlockTableRecord
  2
*D41
340
0
 70
     0
280
     1
281
     0
  0
BLOCK_RECORD
  5
197A5
330
1
100
AcDbSymbolTableRecord
100
AcDbBlockTableRecord
  2
*D42
340
0
 70
     0
280
     1
281
     0
  0
BLOCK_RECORD
  5
197BA
330
1
100
AcDbSymbolTableRecord
100
AcDbBlockTableRecord
  2
*D43
340
0
 70
     0
280
     1
281
     0
  0
BLOCK_RECORD
  5
197CB
330
1
100
AcDbSymbolTableRecord
100
AcDbBlockTableRecord
  2
*D44
340
0
 70
     0
280
     1
281
     0
  0
BLOCK_RECORD
  5
197DA
330
1
100
AcDbSymbolTableRecord
100
AcDbBlockTableRecord
  2
*D45
340
0
 70
     0
280
     1
281
     0
  0
BLOCK_RECORD
  5
197E9
330
1
100
AcDbSymbolTableRecord
100
AcDbBlockTableRecord
  2
*D46
340
0
 70
     0
280
     1
281
     0
  0
BLOCK_RECORD
  5
197F8
330
1
100
AcDbSymbolTableRecord
100
AcDbBlockTableRecord
  2
*D47
340
0
 70
     0
280
     1
281
     0
  0
BLOCK_RECORD
  5
19807
330
1
100
AcDbSymbolTableRecord
100
AcDbBlockTableRecord
  2
*D48
340
0
 70
     0
280
     1
281
     0
  0
BLOCK_RECORD
  5
19817
330
1
100
AcDbSymbolTableRecord
100
AcDbBlockTableRecord
  2
*D49
340
0
 70
     0
280
     1
281
     0
  0
BLOCK_RECORD
  5
19826
330
1
100
AcDbSymbolTableRecord
100
AcDbBlockTableRecord
  2
*D50
340
0
 70
     0
280
     1
281
     0
  0
BLOCK_RECORD
  5
19835
330
1
100
AcDbSymbolTableRecord
100
AcDbBlockTableRecord
  2
*D51
340
0
 70
     0
280
     1
281
     0
  0
BLOCK_RECORD
  5
19844
330
1
100
AcDbSymbolTableRecord
100
AcDbBlockTableRecord
  2
*D52
340
0
 70
     0
280
     1
281
     0
  0
BLOCK_RECORD
  5
19853
330
1
100
AcDbSymbolTableRecord
100
AcDbBlockTableRecord
  2
*D53
340
0
 70
     0
280
     1
281
     0
  0
BLOCK_RECORD
  5
1A774
330
1
100
AcDbSymbolTableRecord
100
AcDbBlockTableRecord
  2
*D54
340
0
 70
     0
280
     1
281
     0
  0
BLOCK_RECORD
  5
1A780
330
1
100
AcDbSymbolTableRecord
100
AcDbBlockTableRecord
  2
*D55
340
0
 70
     0
280
     1
281
     0
  0
BLOCK_RECORD
  5
1A78C
330
1
100
AcDbSymbolTableRecord
100
AcDbBlockTableRecord
  2
*D56
340
0
 70
     0
280
     1
281
     0
  0
BLOCK_RECORD
  5
1A798
330
1
100
AcDbSymbolTableRecord
100
AcDbBlockTableRecord
  2
*D57
340
0
 70
     0
280
     1
281
     0
  0
BLOCK_RECORD
  5
1A7A7
330
1
100
AcDbSymbolTableRecord
100
AcDbBlockTableRecord
  2
*D58
340
0
 70
     0
280
     1
281
     0
  0
BLOCK_RECORD
  5
1A7B3
330
1
100
AcDbSymbolTableRecord
100
AcDbBlockTableRecord
  2
*D59
340
0
 70
     0
280
     1
281
     0
  0
BLOCK_RECORD
  5
1A7BF
330
1
100
AcDbSymbolTableRecord
100
AcDbBlockTableRecord
  2
*D60
340
0
 70
     0
280
     1
281
     0
  0
BLOCK_RECORD
  5
1A7CB
330
1
100
AcDbSymbolTableRecord
100
AcDbBlockTableRecord
  2
*D61
340
0
 70
     0
280
     1
281
     0
  0
BLOCK_RECORD
  5
1A7D9
330
1
100
AcDbSymbolTableRecord
100
AcDbBlockTableRecord
  2
*D62
340
0
 70
     0
280
     1
281
     0
  0
BLOCK_RECORD
  5
1A7E7
330
1
100
AcDbSymbolTableRecord
100
AcDbBlockTableRecord
  2
*D63
340
0
 70
     0
280
     1
281
     0
  0
BLOCK_RECORD
  5
1A7F3
330
1
100
AcDbSymbolTableRecord
100
AcDbBlockTableRecord
  2
*D64
340
0
 70
     0
280
     1
281
     0
  0
BLOCK_RECORD
  5
1A7FF
330
1
100
AcDbSymbolTableRecord
100
AcDbBlockTableRecord
  2
*D65
340
0
 70
     0
280
     1
281
     0
  0
BLOCK_RECORD
  5
1A80B
330
1
100
AcDbSymbolTableRecord
100
AcDbBlockTableRecord
  2
*D66
340
0
 70
     0
280
     1
281
     0
  0
BLOCK_RECORD
  5
1A817
330
1
100
AcDbSymbolTableRecord
100
AcDbBlockTableRecord
  2
*D67
340
0
 70
     0
280
     1
281
     0
  0
BLOCK_RECORD
  5
1A823
330
1
100
AcDbSymbolTableRecord
100
AcDbBlockTableRecord
  2
*D68
340
0
 70
     0
280
     1
281
     0
  0
BLOCK_RECORD
  5
1A82F
330
1
100
AcDbSymbolTableRecord
100
AcDbBlockTableRecord
  2
*D69
340
0
 70
     0
280
     1
281
     0
  0
BLOCK_RECORD
  5
1A83B
330
1
100
AcDbSymbolTableRecord
100
AcDbBlockTableRecord
  2
*D70
340
0
 70
     0
280
     1
281
     0
  0
BLOCK_RECORD
  5
1A847
330
1
100
AcDbSymbolTableRecord
100
AcDbBlockTableRecord
  2
*D71
340
0
 70
     0
280
     1
281
     0
  0
BLOCK_RECORD
  5
1A853
330
1
100
AcDbSymbolTableRecord
100
AcDbBlockTableRecord
  2
*D72
340
0
 70
     0
280
     1
281
     0
  0
BLOCK_RECORD
  5
1B726
330
1
100
AcDbSymbolTableRecord
100
AcDbBlockTableRecord
  2
*D73
340
0
 70
     0
280
     1
281
     0
  0
BLOCK_RECORD
  5
1B732
330
1
100
AcDbSymbolTableRecord
100
AcDbBlockTableRecord
  2
*D74
340
0
 70
     0
280
     1
281
     0
  0
BLOCK_RECORD
  5
1B73E
330
1
100
AcDbSymbolTableRecord
100
AcDbBlockTableRecord
  2
*D75
340
0
 70
     0
280
     1
281
     0
  0
BLOCK_RECORD
  5
1B74A
330
1
100
AcDbSymbolTableRecord
100
AcDbBlockTableRecord
  2
*D76
340
0
 70
     0
280
     1
281
     0
  0
BLOCK_RECORD
  5
1B759
330
1
100
AcDbSymbolTableRecord
100
AcDbBlockTableRecord
  2
*D77
340
0
 70
     0
280
     1
281
     0
  0
BLOCK_RECORD
  5
1B765
330
1
100
AcDbSymbolTableRecord
100
AcDbBlockTableRecord
  2
*D78
340
0
 70
     0
280
     1
281
     0
  0
BLOCK_RECORD
  5
1B771
330
1
100
AcDbSymbolTableRecord
100
AcDbBlockTableRecord
  2
*D79
340
0
 70
     0
280
     1
281
     0
  0
BLOCK_RECORD
  5
1B77D
330
1
100
AcDbSymbolTableRecord
100
AcDbBlockTableRecord
  2
*D80
340
0
 70
     0
280
     1
281
     0
  0
BLOCK_RECORD
  5
1B78B
330
1
100
AcDbSymbolTableRecord
100
AcDbBlockTableRecord
  2
*D81
340
0
 70
     0
280
     1
281
     0
  0
BLOCK_RECORD
  5
1B799
330
1
100
AcDbSymbolTableRecord
100
AcDbBlockTableRecord
  2
*D82
340
0
 70
     0
280
     1
281
     0
  0
BLOCK_RECORD
  5
1B7A5
330
1
100
AcDbSymbolTableRecord
100
AcDbBlockTableRecord
  2
*D83
340
0
 70
     0
280
     1
281
     0
  0
BLOCK_RECORD
  5
1B7B1
330
1
100
AcDbSymbolTableRecord
100
AcDbBlockTableRecord
  2
*D84
340
0
 70
     0
280
     1
281
     0
  0
BLOCK_RECORD
  5
1B7BD
330
1
100
AcDbSymbolTableRecord
100
AcDbBlockTableRecord
  2
*D85
340
0
 70
     0
280
     1
281
     0
  0
BLOCK_RECORD
  5
1B7C9
330
1
100
AcDbSymbolTableRecord
100
AcDbBlockTableRecord
  2
*D86
340
0
 70
     0
280
     1
281
     0
  0
BLOCK_RECORD
  5
1B7D5
330
1
100
AcDbSymbolTableRecord
100
AcDbBlockTableRecord
  2
*D87
340
0
 70
     0
280
     1
281
     0
  0
BLOCK_RECORD
  5
1B7E1
330
1
100
AcDbSymbolTableRecord
100
AcDbBlockTableRecord
  2
*D88
340
0
 70
     0
280
     1
281
     0
  0
BLOCK_RECORD
  5
1B7ED
330
1
100
AcDbSymbolTableRecord
100
AcDbBlockTableRecord
  2
*D89
340
0
 70
     0
280
     1
281
     0
  0
BLOCK_RECORD
  5
1B7F9
330
1
100
AcDbSymbolTableRecord
100
AcDbBlockTableRecord
  2
*D90
340
0
 70
     0
280
     1
281
     0
  0
BLOCK_RECORD
  5
1B805
330
1
100
AcDbSymbolTableRecord
100
AcDbBlockTableRecord
  2
*D91
340
0
 70
     0
280
     1
281
     0
  0
BLOCK_RECORD
  5
1BBD8
330
1
100
AcDbSymbolTableRecord
100
AcDbBlockTableRecord
  2
*D92
340
0
 70
     0
280
     1
281
     0
  0
BLOCK_RECORD
  5
1BBE4
330
1
100
AcDbSymbolTableRecord
100
AcDbBlockTableRecord
  2
*D93
340
0
 70
     0
280
     1
281
     0
  0
BLOCK_RECORD
  5
1BBF0
330
1
100
AcDbSymbolTableRecord
100
AcDbBlockTableRecord
  2
*D94
340
0
 70
     0
280
     1
281
     0
  0
BLOCK_RECORD
  5
1BBFE
330
1
100
AcDbSymbolTableRecord
100
AcDbBlockTableRecord
  2
*D95
340
0
 70
     0
280
     1
281
     0
  0
BLOCK_RECORD
  5
1BC0A
330
1
100
AcDbSymbolTableRecord
100
AcDbBlockTableRecord
  2
*D96
340
0
 70
     0
280
     1
281
     0
  0
BLOCK_RECORD
  5
1BC16
330
1
100
AcDbSymbolTableRecord
100
AcDbBlockTableRecord
  2
*D97
340
0
 70
     0
280
     1
281
     0
  0
BLOCK_RECORD
  5
1BC66
330
1
100
AcDbSymbolTableRecord
100
AcDbBlockTableRecord
  2
*D98
340
0
 70
     0
280
     1
281
     0
  0
BLOCK_RECORD
  5
1BC73
330
1
100
AcDbSymbolTableRecord
100
AcDbBlockTableRecord
  2
*D99
340
0
 70
     0
280
     1
281
     0
  0
BLOCK_RECORD
  5
1BC80
330
1
100
AcDbSymbolTableRecord
100
AcDbBlockTableRecord
  2
*D100
340
0
 70
     0
280
     1
281
     0
  0
BLOCK_RECORD
  5
1BC8D
330
1
100
AcDbSymbolTableRecord
100
AcDbBlockTableRecord
  2
*D101
340
0
 70
     0
280
     1
281
     0
  0
BLOCK_RECORD
  5
1BC9A
330
1
100
AcDbSymbolTableRecord
100
AcDbBlockTableRecord
  2
*D102
340
0
 70
     0
280
     1
281
     0
  0
BLOCK_RECORD
  5
1BDA3
330
1
100
AcDbSymbolTableRecord
100
AcDbBlockTableRecord
  2
*D103
340
0
 70
     0
280
     1
281
     0
  0
BLOCK_RECORD
  5
1BDB2
330
1
100
AcDbSymbolTableRecord
100
AcDbBlockTableRecord
  2
*D104
340
0
 70
     0
280
     1
281
     0
  0
BLOCK_RECORD
  5
1BEE0
330
1
100
AcDbSymbolTableRecord
100
AcDbBlockTableRecord
  2
*D105
340
0
 70
     0
280
     1
281
     0
  0
BLOCK_RECORD
  5
1BEEC
330
1
100
AcDbSymbolTableRecord
100
AcDbBlockTableRecord
  2
*D106
340
0
 70
     0
280
     1
281
     0
  0
BLOCK_RECORD
  5
1BEF8
330
1
100
AcDbSymbolTableRecord
100
AcDbBlockTableRecord
  2
*D107
340
0
 70
     0
280
     1
281
     0
  0
BLOCK_RECORD
  5
1BF04
330
1
100
AcDbSymbolTableRecord
100
AcDbBlockTableRecord
  2
*D108
340
0
 70
     0
280
     1
281
     0
  0
BLOCK_RECORD
  5
1BF10
330
1
100
AcDbSymbolTableRecord
100
AcDbBlockTableRecord
  2
*D109
340
0
 70
     0
280
     1
281
     0
  0
BLOCK_RECORD
  5
1BF1E
330
1
100
AcDbSymbolTableRecord
100
AcDbBlockTableRecord
  2
*D110
340
0
 70
     0
280
     1
281
     0
  0
BLOCK_RECORD
  5
1BF2A
330
1
100
AcDbSymbolTableRecord
100
AcDbBlockTableRecord
  2
*D111
340
0
 70
     0
280
     1
281
     0
  0
BLOCK_RECORD
  5
1BF39
330
1
100
AcDbSymbolTableRecord
100
AcDbBlockTableRecord
  2
*D112
340
0
 70
     0
280
     1
281
     0
  0
BLOCK_RECORD
  5
1BF53
330
1
100
AcDbSymbolTableRecord
100
AcDbBlockTableRecord
  2
*D113
340
0
 70
     0
280
     1
281
     0
  0
ENDTAB
  0
ENDSEC
  0
SECTION
  2
BLOCKS
  0
BLOCK
  5
D
330
A
100
AcDbEntity
  8
0
390
1D
100
AcDbBlockBegin
  2
*MODEL_SPACE
 70
     0
 10
0.0
 20
0.0
 30
0.0
  3
*MODEL_SPACE
  1
*MODEL_SPACE
  0
ENDBLK
  5
E
330
A
100
AcDbEntity
  8
0
390
1D
100
AcDbBlockEnd
  0
BLOCK
  5
F
330
B
100
AcDbEntity
 67
     1
  8
0
390
1D
100
AcDbBlockBegin
  2
*PAPER_SPACE
 70
     0
 10
0.0
 20
0.0
 30
0.0
  3
*PAPER_SPACE
  1
*PAPER_SPACE
  0
ENDBLK
  5
10
330
B
100
AcDbEntity
 67
     1
  8
0
390
1D
100
AcDbBlockEnd
  0
BLOCK
  5
369F
330
4E
100
AcDbEntity
  8
0
390
1D
100
AcDbBlockBegin
  2
_DOT
 70
     0
 10
0.0
 20
0.0
 30
0.0
  3
_DOT
  1
_DOT
  0
POLYLINE
  5
36A1
330
4E
100
AcDbEntity
  8
0
  6
ByBlock
 62
     0
370
    -2
390
1D
100
AcDb2dPolyline
 66
     1
 10
0.0
 20
0.0
 30
0.0
 70
     1
 40
0.5
 41
0.5
  0
VERTEX
  5
36A2
330
36A1
100
AcDbEntity
  8
0
  6
ByBlock
 62
     0
370
    -2
390
1D
100
AcDbVertex
100
AcDb2dVertex
 10
-0.25
 20
0.0
 30
0.0
 42
1.0
  0
VERTEX
  5
36A3
330
36A1
100
AcDbEntity
  8
0
  6
ByBlock
 62
     0
370
    -2
390
1D
100
AcDbVertex
100
AcDb2dVertex
 10
0.25
 20
0.0
 30
0.0
 42
1.0
  0
SEQEND
  5
36A4
330
36A1
100
AcDbEntity
  8
0
390
1D
  0
LINE
  5
36A5
330
4E
100
AcDbEntity
  8
0
  6
ByBlock
 62
     0
370
    -2
390
1D
100
AcDbLine
 10
-0.5
 20
0.0
 30
0.0
 11
-1.0
 21
0.0
 31
0.0
  0
ENDBLK
  5
36A6
330
4E
100
AcDbEntity
  8
0
390
1D
100
AcDbBlockEnd
  0
BLOCK
  5
68B
330
68A
100
AcDbEntity
  8
0
100
AcDbBlockBegin
  2
名称未設定-1
 70
     0
 10
0.0
 20
0.0
 30
0.0
  3
名称未設定-1
  1
名称未設定-1
  0
INSERT
  5
68F
330
68A
100
AcDbEntity
  8
LOGO
100
AcDbBlockReference
  2
block 3
 10
0.0
 20
0.0
 30
0.0
  0
ENDBLK
  5
6B1
330
68A
100
AcDbEntity
  8
0
100
AcDbBlockEnd
  0
BLOCK
  5
68E
330
68D
100
AcDbEntity
  8
0
100
AcDbBlockBegin
  2
block 2
 70
     0
 10
0.0
 20
0.0
 30
0.0
  3
block 2
  1
block 2
  0
ENDBLK
  5
6B0
330
68D
100
AcDbEntity
  8
0
100
AcDbBlockEnd
  0
BLOCK
  5
691
330
690
100
AcDbEntity
  8
0
100
AcDbBlockBegin
  2
block 3
 70
     0
 10
0.0
 20
0.0
 30
0.0
  3
block 3
  1
block 3
  0
INSERT
  5
692
330
690
100
AcDbEntity
  8
LOGO
100
AcDbBlockReference
  2
block 4
 10
0.0
 20
0.0
 30
0.0
  0
INSERT
  5
6A1
330
690
100
AcDbEntity
  8
LOGO
100
AcDbBlockReference
  2
block 5
 10
0.0
 20
0.0
 30
0.0
  0
ENDBLK
  5
6AF
330
690
100
AcDbEntity
  8
0
100
AcDbBlockEnd
  0
BLOCK
  5
694
330
693
100
AcDbEntity
  8
0
100
AcDbBlockBegin
  2
block 4
 70
     0
 10
0.0
 20
0.0
 30
0.0
  3
block 4
  1
block 4
  0
POLYLINE
  5
695
330
693
100
AcDbEntity
  8
LOGO
370
     0
100
AcDb2dPolyline
 66
     1
 10
0.0
 20
0.0
 30
0.0
  0
VERTEX
  5
696
330
695
100
AcDbEntity
  8
LOGO
370
     0
100
AcDbVertex
100
AcDb2dVertex
 10
83.79545727667795
 20
167.6444858234922
 30
0.0
  0
VERTEX
  5
697
330
695
100
AcDbEntity
  8
LOGO
370
     0
100
AcDbVertex
100
AcDb2dVertex
 10
83.79545727667795
 20
159.7968976406313
 30
0.0
  0
VERTEX
  5
698
330
695
100
AcDbEntity
  8
LOGO
370
     0
100
AcDbVertex
100
AcDb2dVertex
 10
71.3631329975216
 20
159.7968976406313
 30
0.0
  0
VERTEX
  5
699
330
695
100
AcDbEntity
  8
LOGO
370
     0
100
AcDbVertex
100
AcDb2dVertex
 10
71.3631329975216
 20
127.8027915271048
 30
0.0
  0
VERTEX
  5
69A
330
695
100
AcDbEntity
  8
LOGO
370
     0
100
AcDbVertex
100
AcDb2dVertex
 10
60.43011526263018
 20
127.8027915271048
 30
0.0
  0
VERTEX
  5
69B
330
695
100
AcDbEntity
  8
LOGO
370
     0
100
AcDbVertex
100
AcDb2dVertex
 10
60.43011526263018
 20
159.7968976406313
 30
0.0
  0
VERTEX
  5
69C
330
695
100
AcDbEntity
  8
LOGO
370
     0
100
AcDbVertex
100
AcDb2dVertex
 10
48.21793273020759
 20
159.7968976406313
 30
0.0
  0
VERTEX
  5
69D
330
695
100
AcDbEntity
  8
LOGO
370
     0
100
AcDbVertex
100
AcDb2dVertex
 10
48.21793273020759
 20
167.6444858234922
 30
0.0
  0
VERTEX
  5
69E
330
695
100
AcDbEntity
  8
LOGO
370
     0
100
AcDbVertex
100
AcDb2dVertex
 10
83.79545727667795
 20
167.6444858234922
 30
0.0
  0
SEQEND
  5
69F
330
695
100
AcDbEntity
  8
LOGO
370
     0
  0
HATCH
  5
6A0
330
693
100
AcDbEntity
  8
LOGO
 62
   250
420
  2234388
100
AcDbHatch
 10
0.0
 20
0.0
 30
0.0
210
0.0
220
0.0
230
1.0
  2
SOLID
 70
     1
 71
     0
 91
        1
 92
        1
 93
        8
 72
     1
 10
83.79545727667795
 20
167.6444858234922
 11
83.79545727667795
 21
159.7968976406313
 72
     1
 10
83.79545727667795
 20
159.7968976406313
 11
71.3631329975216
 21
159.7968976406313
 72
     1
 10
71.3631329975216
 20
159.7968976406313
 11
71.3631329975216
 21
127.8027915271048
 72
     1
 10
71.3631329975216
 20
127.8027915271048
 11
60.43011526263018
 21
127.8027915271048
 72
     1
 10
60.43011526263018
 20
127.8027915271048
 11
60.43011526263018
 21
159.7968976406313
 72
     1
 10
60.43011526263018
 20
159.7968976406313
 11
48.21793273020759
 21
159.7968976406313
 72
     1
 10
48.21793273020759
 20
159.7968976406313
 11
48.21793273020759
 21
167.6444858234922
 72
     1
 10
48.21793273020759
 20
167.6444858234922
 11
83.79545727667795
 21
167.6444858234922
 97
        0
 75
     2
 76
     1
 98
        0
  0
ENDBLK
  5
6AE
330
693
100
AcDbEntity
  8
0
100
AcDbBlockEnd
  0
BLOCK
  5
6A3
330
6A2
100
AcDbEntity
  8
0
100
AcDbBlockBegin
  2
block 5
 70
     0
 10
0.0
 20
0.0
 30
0.0
  3
block 5
  1
block 5
  0
SPLINE
  5
6A4
330
6A2
100
AcDbEntity
  8
LOGO
370
     0
100
AcDbSpline
210
0.0
220
0.0
230
1.0
 70
    11
 71
     3
 72
    56
 73
    52
 74
     0
 42
0.000000001
 43
0.0000000001
 40
0.0
 40
0.0
 40
0.0
 40
0.0
 40
1.0
 40
1.0
 40
1.0
 40
2.0
 40
2.0
 40
2.0
 40
3.0
 40
3.0
 40
3.0
 40
4.0
 40
4.0
 40
4.0
 40
5.0
 40
5.0
 40
5.0
 40
6.0
 40
6.0
 40
6.0
 40
7.0
 40
7.0
 40
7.0
 40
8.0
 40
8.0
 40
8.0
 40
9.0
 40
9.0
 40
9.0
 40
10.0
 40
10.0
 40
10.0
 40
11.0
 40
11.0
 40
11.0
 40
12.0
 40
12.0
 40
12.0
 40
13.0
 40
13.0
 40
13.0
 40
14.0
 40
14.0
 40
14.0
 40
15.0
 40
15.0
 40
15.0
 40
16.0
 40
16.0
 40
16.0
 40
17.0
 40
17.0
 40
17.0
 40
17.0
 10
100.4504378777679
 20
166.69157178364
 30
0.0
 10
101.9848844191641
 20
167.1313385124438
 30
0.0
 10
103.9637485713373
 20
166.7649523658846
 30
0.0
 10
103.9637485713373
 20
166.7649523658846
 30
0.0
 10
103.9637485713373
 20
166.7649523658846
 30
0.0
 10
103.0132460999156
 20
163.911205638077
 30
0.0
 10
103.0132460999156
 20
163.911205638077
 30
0.0
 10
103.0132460999156
 20
163.911205638077
 30
0.0
 10
101.0674548862189
 20
164.3601018759394
 30
0.0
 10
99.57090442016032
 20
163.1805004036133
 30
0.0
 10
98.40508333886608
 20
162.258247733807
 30
0.0
 10
97.65301849830304
 20
159.804132345923
 30
0.0
 10
97.3598406791005
 20
158.8699940888517
 30
0.0
 10
97.3598406791005
 20
158.8699940888517
 30
0.0
 10
96.07137411762282
 20
154.9119212747295
 30
0.0
 10
96.07137411762282
 20
154.9119212747295
 30
0.0
 10
96.07137411762282
 20
154.9119212747295
 30
0.0
 10
100.3012651448482
 20
154.9119212747295
 30
0.0
 10
100.3012651448482
 20
154.9119212747295
 30
0.0
 10
100.3012651448482
 20
154.9119212747295
 30
0.0
 10
99.64152892419852
 20
152.4199098115079
 30
0.0
 10
99.64152892419852
 20
152.4199098115079
 30
0.0
 10
99.64152892419852
 20
152.4199098115079
 30
0.0
 10
95.38097652692731
 20
152.4199098115079
 30
0.0
 10
95.38097652692731
 20
152.4199098115079
 30
0.0
 10
95.38097652692731
 20
152.4199098115079
 30
0.0
 10
87.75353009080013
 20
127.8027915271048
 30
0.0
 10
87.75353009080013
 20
127.8027915271048
 30
0.0
 10
87.75353009080013
 20
127.8027915271048
 30
0.0
 10
85.36538832498108
 20
127.8027915271048
 30
0.0
 10
85.36538832498108
 20
127.8027915271048
 30
0.0
 10
85.36538832498108
 20
127.8027915271048
 30
0.0
 10
93.00006946639998
 20
152.4199098115079
 30
0.0
 10
93.00006946639998
 20
152.4199098115079
 30
0.0
 10
93.00006946639998
 20
152.4199098115079
 30
0.0
 10
89.85297266450198
 20
152.4199098115079
 30
0.0
 10
89.85297266450198
 20
152.4199098115079
 30
0.0
 10
89.85297266450198
 20
152.4199098115079
 30
0.0
 10
90.51270888515164
 20
154.9119212747295
 30
0.0
 10
90.51270888515164
 20
154.9119212747295
 30
0.0
 10
90.51270888515164
 20
154.9119212747295
 30
0.0
 10
93.6904670570955
 20
154.9119212747295
 30
0.0
 10
93.6904670570955
 20
154.9119212747295
 30
0.0
 10
93.6904670570955
 20
154.9119212747295
 30
0.0
 10
94.81598049462158
 20
158.3616699146644
 30
0.0
 10
94.81598049462158
 20
158.3616699146644
 30
0.0
 10
95.7237637538445
 20
161.2605474231013
 30
0.0
 10
96.4968436907311
 20
162.8139420021662
 30
0.0
 10
97.15657991138076
 20
163.9844139654337
 30
0.0
 10
97.81183750494507
 20
165.1523021053827
 30
0.0
 10
99.1047826935081
 20
166.3084769129547
 30
0.0
 10
100.4504378777679
 20
166.69157178364
 30
0.0
  0
HATCH
  5
6A5
330
6A2
100
AcDbEntity
  8
LOGO
 62
   250
420
  2234388
100
AcDbHatch
 10
0.0
 20
0.0
 30
0.0
210
0.0
220
0.0
230
1.0
  2
SOLID
 70
     1
 71
     0
 91
        1
 92
        1
 93
        1
 72
     4
 94
        3
 73
     0
 74
     1
 95
       56
 96
       52
 40
0.0
 40
0.0
 40
0.0
 40
0.0
 40
1.0
 40
1.0
 40
1.0
 40
2.0
 40
2.0
 40
2.0
 40
3.0
 40
3.0
 40
3.0
 40
4.0
 40
4.0
 40
4.0
 40
5.0
 40
5.0
 40
5.0
 40
6.0
 40
6.0
 40
6.0
 40
7.0
 40
7.0
 40
7.0
 40
8.0
 40
8.0
 40
8.0
 40
9.0
 40
9.0
 40
9.0
 40
10.0
 40
10.0
 40
10.0
 40
11.0
 40
11.0
 40
11.0
 40
12.0
 40
12.0
 40
12.0
 40
13.0
 40
13.0
 40
13.0
 40
14.0
 40
14.0
 40
14.0
 40
15.0
 40
15.0
 40
15.0
 40
16.0
 40
16.0
 40
16.0
 40
17.0
 40
17.0
 40
17.0
 40
17.0
 10
100.4504378777679
 20
166.69157178364
 10
101.9848844191641
 20
167.1313385124438
 10
103.9637485713373
 20
166.7649523658846
 10
103.9637485713373
 20
166.7649523658846
 10
103.9637485713373
 20
166.7649523658846
 10
103.0132460999156
 20
163.911205638077
 10
103.0132460999156
 20
163.911205638077
 10
103.0132460999156
 20
163.911205638077
 10
101.0674548862189
 20
164.3601018759394
 10
99.57090442016032
 20
163.1805004036133
 10
98.40508333886608
 20
162.258247733807
 10
97.65301849830304
 20
159.804132345923
 10
97.3598406791005
 20
158.8699940888517
 10
97.3598406791005
 20
158.8699940888517
 10
96.07137411762282
 20
154.9119212747295
 10
96.07137411762282
 20
154.9119212747295
 10
96.07137411762282
 20
154.9119212747295
 10
100.3012651448482
 20
154.9119212747295
 10
100.3012651448482
 20
154.9119212747295
 10
100.3012651448482
 20
154.9119212747295
 10
99.64152892419852
 20
152.4199098115079
 10
99.64152892419852
 20
152.4199098115079
 10
99.64152892419852
 20
152.4199098115079
 10
95.38097652692731
 20
152.4199098115079
 10
95.38097652692731
 20
152.4199098115079
 10
95.38097652692731
 20
152.4199098115079
 10
87.75353009080013
 20
127.8027915271048
 10
87.75353009080013
 20
127.8027915271048
 10
87.75353009080013
 20
127.8027915271048
 10
85.36538832498108
 20
127.8027915271048
 10
85.36538832498108
 20
127.8027915271048
 10
85.36538832498108
 20
127.8027915271048
 10
93.00006946639998
 20
152.4199098115079
 10
93.00006946639998
 20
152.4199098115079
 10
93.00006946639998
 20
152.4199098115079
 10
89.85297266450198
 20
152.4199098115079
 10
89.85297266450198
 20
152.4199098115079
 10
89.85297266450198
 20
152.4199098115079
 10
90.51270888515164
 20
154.9119212747295
 10
90.51270888515164
 20
154.9119212747295
 10
90.51270888515164
 20
154.9119212747295
 10
93.6904670570955
 20
154.9119212747295
 10
93.6904670570955
 20
154.9119212747295
 10
93.6904670570955
 20
154.9119212747295
 10
94.81598049462158
 20
158.3616699146644
 10
94.81598049462158
 20
158.3616699146644
 10
95.7237637538445
 20
161.2605474231013
 10
96.4968436907311
 20
162.8139420021662
 10
97.15657991138076
 20
163.9844139654337
 10
97.81183750494507
 20
165.1523021053827
 10
99.1047826935081
 20
166.3084769129547
 10
100.4504378777679
 20
166.69157178364
 97
        0
 75
     2
 76
     1
 98
        0
  0
SPLINE
  5
6A6
330
6A2
100
AcDbEntity
  8
LOGO
370
     0
100
AcDbSpline
210
0.0
220
0.0
230
1.0
 70
    11
 71
     3
 72
    38
 73
    34
 74
     0
 42
0.000000001
 43
0.0000000001
 40
0.0
 40
0.0
 40
0.0
 40
0.0
 40
1.0
 40
1.0
 40
1.0
 40
2.0
 40
2.0
 40
2.0
 40
3.0
 40
3.0
 40
3.0
 40
4.0
 40
4.0
 40
4.0
 40
5.0
 40
5.0
 40
5.0
 40
6.0
 40
6.0
 40
6.0
 40
7.0
 40
7.0
 40
7.0
 40
8.0
 40
8.0
 40
8.0
 40
9.0
 40
9.0
 40
9.0
 40
10.0
 40
10.0
 40
10.0
 40
11.0
 40
11.0
 40
11.0
 40
11.0
 10
126.377554584636
 20
154.8151140277308
 30
0.0
 10
126.377554584636
 20
154.8151140277308
 30
0.0
 10
128.8311532078563
 20
154.8151140277308
 30
0.0
 10
128.8311532078563
 20
154.8151140277308
 30
0.0
 10
128.8311532078563
 20
154.8151140277308
 30
0.0
 10
127.7345785914971
 20
151.3062819612468
 30
0.0
 10
127.7345785914971
 20
151.3062819612468
 30
0.0
 10
128.571392836906
 20
152.2922689395754
 30
0.0
 10
129.8860421413442
 20
153.604506675583
 30
0.0
 10
131.0163787157314
 20
154.2664822097754
 30
0.0
 10
132.7044766171327
 20
155.2500576196734
 30
0.0
 10
133.6642808525008
 20
155.3847609420097
 30
0.0
 10
134.7284715499351
 20
155.3565111403944
 30
0.0
 10
134.7284715499351
 20
155.3565111403944
 30
0.0
 10
133.6877075172549
 20
152.0345756272799
 30
0.0
 10
133.6877075172549
 20
152.0345756272799
 30
0.0
 10
133.011434827367
 20
152.3184516825359
 30
0.0
 10
130.930940291334
 20
151.7768823149844
 30
0.0
 10
129.739280976855
 20
150.9162968950455
 30
0.0
 10
128.66613302525
 20
150.1454562717016
 30
0.0
 10
127.9192358313239
 20
149.4857200510519
 30
0.0
 10
127.0393578639405
 20
147.8282835196966
 30
0.0
 10
126.164647543194
 20
146.1699857139017
 30
0.0
 10
125.4742499524985
 20
143.5262176944419
 30
0.0
 10
124.2822461282437
 20
139.6959580071401
 30
0.0
 10
124.2822461282437
 20
139.6959580071401
 30
0.0
 10
120.5753209406769
 20
127.8027915271048
 30
0.0
 10
120.5753209406769
 20
127.8027915271048
 30
0.0
 10
120.5753209406769
 20
127.8027915271048
 30
0.0
 10
118.1964809388044
 20
127.8027915271048
 30
0.0
 10
118.1964809388044
 20
127.8027915271048
 30
0.0
 10
118.1964809388044
 20
127.8027915271048
 30
0.0
 10
126.377554584636
 20
154.8151140277308
 30
0.0
 10
126.377554584636
 20
154.8151140277308
 30
0.0
  0
HATCH
  5
6A7
330
6A2
100
AcDbEntity
  8
LOGO
 62
   250
420
  2234388
100
AcDbHatch
 10
0.0
 20
0.0
 30
0.0
210
0.0
220
0.0
230
1.0
  2
SOLID
 70
     1
 71
     0
 91
        1
 92
        1
 93
        1
 72
     4
 94
        3
 73
     0
 74
     1
 95
       38
 96
       34
 40
0.0
 40
0.0
 40
0.0
 40
0.0
 40
1.0
 40
1.0
 40
1.0
 40
2.0
 40
2.0
 40
2.0
 40
3.0
 40
3.0
 40
3.0
 40
4.0
 40
4.0
 40
4.0
 40
5.0
 40
5.0
 40
5.0
 40
6.0
 40
6.0
 40
6.0
 40
7.0
 40
7.0
 40
7.0
 40
8.0
 40
8.0
 40
8.0
 40
9.0
 40
9.0
 40
9.0
 40
10.0
 40
10.0
 40
10.0
 40
11.0
 40
11.0
 40
11.0
 40
11.0
 10
126.377554584636
 20
154.8151140277308
 10
126.377554584636
 20
154.8151140277308
 10
128.8311532078563
 20
154.8151140277308
 10
128.8311532078563
 20
154.8151140277308
 10
128.8311532078563
 20
154.8151140277308
 10
127.7345785914971
 20
151.3062819612468
 10
127.7345785914971
 20
151.3062819612468
 10
128.571392836906
 20
152.2922689395754
 10
129.8860421413442
 20
153.604506675583
 10
131.0163787157314
 20
154.2664822097754
 10
132.7044766171327
 20
155.2500576196734
 10
133.6642808525008
 20
155.3847609420097
 10
134.7284715499351
 20
155.3565111403944
 10
134.7284715499351
 20
155.3565111403944
 10
133.6877075172549
 20
152.0345756272799
 10
133.6877075172549
 20
152.0345756272799
 10
133.011434827367
 20
152.3184516825359
 10
130.930940291334
 20
151.7768823149844
 10
129.739280976855
 20
150.9162968950455
 10
128.66613302525
 20
150.1454562717016
 10
127.9192358313239
 20
149.4857200510519
 10
127.0393578639405
 20
147.8282835196966
 10
126.164647543194
 20
146.1699857139017
 10
125.4742499524985
 20
143.5262176944419
 10
124.2822461282437
 20
139.6959580071401
 10
124.2822461282437
 20
139.6959580071401
 10
120.5753209406769
 20
127.8027915271048
 10
120.5753209406769
 20
127.8027915271048
 10
120.5753209406769
 20
127.8027915271048
 10
118.1964809388044
 20
127.8027915271048
 10
118.1964809388044
 20
127.8027915271048
 10
118.1964809388044
 20
127.8027915271048
 10
126.377554584636
 20
154.8151140277308
 10
126.377554584636
 20
154.8151140277308
 97
        0
 75
     2
 76
     1
 98
        0
  0
SPLINE
  5
6A8
330
6A2
100
AcDbEntity
  8
LOGO
370
     0
100
AcDbSpline
210
0.0
220
0.0
230
1.0
 70
    11
 71
     3
 72
   104
 73
   100
 74
     0
 42
0.000000001
 43
0.0000000001
 40
0.0
 40
0.0
 40
0.0
 40
0.0
 40
1.0
 40
1.0
 40
1.0
 40
2.0
 40
2.0
 40
2.0
 40
3.0
 40
3.0
 40
3.0
 40
4.0
 40
4.0
 40
4.0
 40
5.0
 40
5.0
 40
5.0
 40
6.0
 40
6.0
 40
6.0
 40
7.0
 40
7.0
 40
7.0
 40
8.0
 40
8.0
 40
8.0
 40
9.0
 40
9.0
 40
9.0
 40
10.0
 40
10.0
 40
10.0
 40
11.0
 40
11.0
 40
11.0
 40
12.0
 40
12.0
 40
12.0
 40
13.0
 40
13.0
 40
13.0
 40
14.0
 40
14.0
 40
14.0
 40
15.0
 40
15.0
 40
15.0
 40
16.0
 40
16.0
 40
16.0
 40
17.0
 40
17.0
 40
17.0
 40
18.0
 40
18.0
 40
18.0
 40
19.0
 40
19.0
 40
19.0
 40
20.0
 40
20.0
 40
20.0
 40
21.0
 40
21.0
 40
21.0
 40
22.0
 40
22.0
 40
22.0
 40
23.0
 40
23.0
 40
23.0
 40
24.0
 40
24.0
 40
24.0
 40
25.0
 40
25.0
 40
25.0
 40
26.0
 40
26.0
 40
26.0
 40
27.0
 40
27.0
 40
27.0
 40
28.0
 40
28.0
 40
28.0
 40
29.0
 40
29.0
 40
29.0
 40
30.0
 40
30.0
 40
30.0
 40
31.0
 40
31.0
 40
31.0
 40
32.0
 40
32.0
 40
32.0
 40
33.0
 40
33.0
 40
33.0
 40
33.0
 10
139.8926730891197
 20
154.8294111834263
 30
0.0
 10
139.8926730891197
 20
154.8294111834263
 30
0.0
 10
142.0344903652445
 20
154.8294111834263
 30
0.0
 10
142.0344903652445
 20
154.8294111834263
 30
0.0
 10
142.0344903652445
 20
154.8294111834263
 30
0.0
 10
140.9516961399171
 20
151.3157559800812
 30
0.0
 10
140.9516961399171
 20
151.3157559800812
 30
0.0
 10
141.8928968473923
 20
152.7887075264977
 30
0.0
 10
142.7341897198865
 20
153.4484437471474
 30
0.0
 10
143.8552245303272
 20
154.2926649527359
 30
0.0
 10
144.9803934580775
 20
155.1296514530327
 30
0.0
 10
146.3139908001845
 20
155.3044901642492
 30
0.0
 10
147.241066606852
 20
155.3044901642492
 30
0.0
 10
148.3855280820469
 20
155.3044901642492
 30
0.0
 10
149.4969166187653
 20
155.0752189084569
 30
0.0
 10
150.0784491203092
 20
153.8172414621372
 30
0.0
 10
150.5228667310863
 20
152.833838307127
 30
0.0
 10
150.5414702589793
 20
152.7201500811143
 30
0.0
 10
150.4140016419347
 20
150.7765981809602
 30
0.0
 10
151.5818897818837
 20
152.7699317437168
 30
0.0
 10
152.4424752018226
 20
153.6256940267945
 30
0.0
 10
153.9038856707499
 20
154.4507949398263
 30
0.0
 10
155.4455669174378
 20
155.3044901642492
 30
0.0
 10
156.339225275853
 20
155.3659851592288
 30
0.0
 10
157.3748216618963
 20
155.2147453676543
 30
0.0
 10
158.911679771723
 20
154.9877134254046
 30
0.0
 10
159.8859534176746
 20
154.4390816074493
 30
0.0
 10
160.3965169054045
 20
152.7816450760939
 30
0.0
 10
160.9070803931344
 20
151.1219692311958
 30
0.0
 10
160.6328506116007
 20
150.2303779314354
 30
0.0
 10
159.9992971339115
 20
147.597634224801
 30
0.0
 10
159.7105979417943
 20
146.4014962832367
 30
0.0
 10
159.2947746424084
 20
144.9400858143094
 30
0.0
 10
158.7463150793409
 20
143.2092687007094
 30
0.0
 10
158.7463150793409
 20
143.2092687007094
 30
0.0
 10
153.9038856707499
 20
127.8027915271048
 30
0.0
 10
153.9038856707499
 20
127.8027915271048
 30
0.0
 10
153.9038856707499
 20
127.8027915271048
 30
0.0
 10
151.3882752878863
 20
127.8027915271048
 30
0.0
 10
151.3882752878863
 20
127.8027915271048
 30
0.0
 10
151.3882752878863
 20
127.8027915271048
 30
0.0
 10
155.6250565106276
 20
141.2751908193897
 30
0.0
 10
155.6250565106276
 20
141.2751908193897
 30
0.0
 10
156.5094131050963
 20
144.0936252951782
 30
0.0
 10
157.109893644309
 20
146.1506931664571
 30
0.0
 10
157.4220195011804
 20
147.4415712963654
 30
0.0
 10
157.8095929989511
 20
149.0530157726519
 30
0.0
 10
157.9656559273867
 20
149.5826995529385
 30
0.0
 10
157.7816877071116
 20
150.7529992613181
 30
0.0
 10
157.6111553680925
 20
151.8430281919372
 30
0.0
 10
157.0582171779396
 20
152.5547853887321
 30
0.0
 10
156.1170164704645
 20
152.5547853887321
 30
0.0
 10
155.1096698860365
 20
152.5547853887321
 30
0.0
 10
154.2962823053817
 20
152.4412694176073
 30
0.0
 10
153.156643967048
 20
151.2945686288697
 30
0.0
 10
152.0170056287143
 20
150.1476955852443
 30
0.0
 10
151.076149431015
 20
148.7930831468137
 30
0.0
 10
150.3337308641742
 20
147.2290087646991
 30
0.0
 10
149.5957909244188
 20
145.6683794803425
 30
0.0
 10
148.8530278478023
 20
143.6822806228776
 30
0.0
 10
148.0964843801539
 20
141.2751908193897
 30
0.0
 10
148.0964843801539
 20
141.2751908193897
 30
0.0
 10
143.8552245303272
 20
127.8027915271048
 30
0.0
 10
143.8552245303272
 20
127.8027915271048
 30
0.0
 10
143.8552245303272
 20
127.8027915271048
 30
0.0
 10
141.486030802177
 20
127.8027915271048
 30
0.0
 10
141.486030802177
 20
127.8027915271048
 30
0.0
 10
141.486030802177
 20
127.8027915271048
 30
0.0
 10
146.3329388378533
 20
143.2092687007094
 30
0.0
 10
146.3329388378533
 20
143.2092687007094
 30
0.0
 10
146.8483254624444
 20
144.8408669988801
 30
0.0
 10
147.2314203331297
 20
146.1837661049335
 30
0.0
 10
147.4867020769946
 20
147.224185627838
 30
0.0
 10
147.9169947869641
 20
149.0197705792876
 30
0.0
 10
148.0306830129768
 20
150.2400242051577
 30
0.0
 10
147.709255392159
 20
151.3157559800812
 30
0.0
 10
147.3874832615654
 20
152.3916600098926
 30
0.0
 10
146.8245542879144
 20
152.6683013598569
 30
0.0
 10
145.8840425999909
 20
152.6683013598569
 30
0.0
 10
145.0989048209514
 20
152.6683013598569
 30
0.0
 10
144.3282364524954
 20
152.3275811915945
 30
0.0
 10
143.4531816219731
 20
151.6538923250251
 30
0.0
 10
142.34627171234
 20
150.8074318058939
 30
0.0
 10
141.901854101563
 20
150.1097995099067
 30
0.0
 10
141.3578731655808
 20
149.289521733736
 30
0.0
 10
140.6299240093235
 20
148.192602607601
 30
0.0
 10
140.2850697237515
 20
147.455696197173
 30
0.0
 10
139.6652966370942
 20
145.8385673095858
 30
0.0
 10
139.0506911970739
 20
144.2214384219986
 30
0.0
 10
138.463991048893
 20
142.3252566160164
 30
0.0
 10
138.0571250036777
 20
141.0154304484394
 30
0.0
 10
138.0571250036777
 20
141.0154304484394
 30
0.0
 10
133.9009590684727
 20
127.8027915271048
 30
0.0
 10
133.9009590684727
 20
127.8027915271048
 30
0.0
 10
133.9009590684727
 20
127.8027915271048
 30
0.0
 10
131.4180771143097
 20
127.8027915271048
 30
0.0
 10
131.4180771143097
 20
127.8027915271048
 30
0.0
 10
131.4180771143097
 20
127.8027915271048
 30
0.0
 10
139.8926730891197
 20
154.8294111834263
 30
0.0
 10
139.8926730891197
 20
154.8294111834263
 30
0.0
  0
HATCH
  5
6A9
330
6A2
100
AcDbEntity
  8
LOGO
 62
   250
420
  2234388
100
AcDbHatch
 10
0.0
 20
0.0
 30
0.0
210
0.0
220
0.0
230
1.0
  2
SOLID
 70
     1
 71
     0
 91
        1
 92
        1
 93
        1
 72
     4
 94
        3
 73
     0
 74
     1
 95
      104
 96
      100
 40
0.0
 40
0.0
 40
0.0
 40
0.0
 40
1.0
 40
1.0
 40
1.0
 40
2.0
 40
2.0
 40
2.0
 40
3.0
 40
3.0
 40
3.0
 40
4.0
 40
4.0
 40
4.0
 40
5.0
 40
5.0
 40
5.0
 40
6.0
 40
6.0
 40
6.0
 40
7.0
 40
7.0
 40
7.0
 40
8.0
 40
8.0
 40
8.0
 40
9.0
 40
9.0
 40
9.0
 40
10.0
 40
10.0
 40
10.0
 40
11.0
 40
11.0
 40
11.0
 40
12.0
 40
12.0
 40
12.0
 40
13.0
 40
13.0
 40
13.0
 40
14.0
 40
14.0
 40
14.0
 40
15.0
 40
15.0
 40
15.0
 40
16.0
 40
16.0
 40
16.0
 40
17.0
 40
17.0
 40
17.0
 40
18.0
 40
18.0
 40
18.0
 40
19.0
 40
19.0
 40
19.0
 40
20.0
 40
20.0
 40
20.0
 40
21.0
 40
21.0
 40
21.0
 40
22.0
 40
22.0
 40
22.0
 40
23.0
 40
23.0
 40
23.0
 40
24.0
 40
24.0
 40
24.0
 40
25.0
 40
25.0
 40
25.0
 40
26.0
 40
26.0
 40
26.0
 40
27.0
 40
27.0
 40
27.0
 40
28.0
 40
28.0
 40
28.0
 40
29.0
 40
29.0
 40
29.0
 40
30.0
 40
30.0
 40
30.0
 40
31.0
 40
31.0
 40
31.0
 40
32.0
 40
32.0
 40
32.0
 40
33.0
 40
33.0
 40
33.0
 40
33.0
 10
139.8926730891197
 20
154.8294111834263
 10
139.8926730891197
 20
154.8294111834263
 10
142.0344903652445
 20
154.8294111834263
 10
142.0344903652445
 20
154.8294111834263
 10
142.0344903652445
 20
154.8294111834263
 10
140.9516961399171
 20
151.3157559800812
 10
140.9516961399171
 20
151.3157559800812
 10
141.8928968473923
 20
152.7887075264977
 10
142.7341897198865
 20
153.4484437471474
 10
143.8552245303272
 20
154.2926649527359
 10
144.9803934580775
 20
155.1296514530327
 10
146.3139908001845
 20
155.3044901642492
 10
147.241066606852
 20
155.3044901642492
 10
148.3855280820469
 20
155.3044901642492
 10
149.4969166187653
 20
155.0752189084569
 10
150.0784491203092
 20
153.8172414621372
 10
150.5228667310863
 20
152.833838307127
 10
150.5414702589793
 20
152.7201500811143
 10
150.4140016419347
 20
150.7765981809602
 10
151.5818897818837
 20
152.7699317437168
 10
152.4424752018226
 20
153.6256940267945
 10
153.9038856707499
 20
154.4507949398263
 10
155.4455669174378
 20
155.3044901642492
 10
156.339225275853
 20
155.3659851592288
 10
157.3748216618963
 20
155.2147453676543
 10
158.911679771723
 20
154.9877134254046
 10
159.8859534176746
 20
154.4390816074493
 10
160.3965169054045
 20
152.7816450760939
 10
160.9070803931344
 20
151.1219692311958
 10
160.6328506116007
 20
150.2303779314354
 10
159.9992971339115
 20
147.597634224801
 10
159.7105979417943
 20
146.4014962832367
 10
159.2947746424084
 20
144.9400858143094
 10
158.7463150793409
 20
143.2092687007094
 10
158.7463150793409
 20
143.2092687007094
 10
153.9038856707499
 20
127.8027915271048
 10
153.9038856707499
 20
127.8027915271048
 10
153.9038856707499
 20
127.8027915271048
 10
151.3882752878863
 20
127.8027915271048
 10
151.3882752878863
 20
127.8027915271048
 10
151.3882752878863
 20
127.8027915271048
 10
155.6250565106276
 20
141.2751908193897
 10
155.6250565106276
 20
141.2751908193897
 10
156.5094131050963
 20
144.0936252951782
 10
157.109893644309
 20
146.1506931664571
 10
157.4220195011804
 20
147.4415712963654
 10
157.8095929989511
 20
149.0530157726519
 10
157.9656559273867
 20
149.5826995529385
 10
157.7816877071116
 20
150.7529992613181
 10
157.6111553680925
 20
151.8430281919372
 10
157.0582171779396
 20
152.5547853887321
 10
156.1170164704645
 20
152.5547853887321
 10
155.1096698860365
 20
152.5547853887321
 10
154.2962823053817
 20
152.4412694176073
 10
153.156643967048
 20
151.2945686288697
 10
152.0170056287143
 20
150.1476955852443
 10
151.076149431015
 20
148.7930831468137
 10
150.3337308641742
 20
147.2290087646991
 10
149.5957909244188
 20
145.6683794803425
 10
148.8530278478023
 20
143.6822806228776
 10
148.0964843801539
 20
141.2751908193897
 10
148.0964843801539
 20
141.2751908193897
 10
143.8552245303272
 20
127.8027915271048
 10
143.8552245303272
 20
127.8027915271048
 10
143.8552245303272
 20
127.8027915271048
 10
141.486030802177
 20
127.8027915271048
 10
141.486030802177
 20
127.8027915271048
 10
141.486030802177
 20
127.8027915271048
 10
146.3329388378533
 20
143.2092687007094
 10
146.3329388378533
 20
143.2092687007094
 10
146.8483254624444
 20
144.8408669988801
 10
147.2314203331297
 20
146.1837661049335
 10
147.4867020769946
 20
147.224185627838
 10
147.9169947869641
 20
149.0197705792876
 10
148.0306830129768
 20
150.2400242051577
 10
147.709255392159
 20
151.3157559800812
 10
147.3874832615654
 20
152.3916600098926
 10
146.8245542879144
 20
152.6683013598569
 10
145.8840425999909
 20
152.6683013598569
 10
145.0989048209514
 20
152.6683013598569
 10
144.3282364524954
 20
152.3275811915945
 10
143.4531816219731
 20
151.6538923250251
 10
142.34627171234
 20
150.8074318058939
 10
141.901854101563
 20
150.1097995099067
 10
141.3578731655808
 20
149.289521733736
 10
140.6299240093235
 20
148.192602607601
 10
140.2850697237515
 20
147.455696197173
 10
139.6652966370942
 20
145.8385673095858
 10
139.0506911970739
 20
144.2214384219986
 10
138.463991048893
 20
142.3252566160164
 10
138.0571250036777
 20
141.0154304484394
 10
138.0571250036777
 20
141.0154304484394
 10
133.9009590684727
 20
127.8027915271048
 10
133.9009590684727
 20
127.8027915271048
 10
133.9009590684727
 20
127.8027915271048
 10
131.4180771143097
 20
127.8027915271048
 10
131.4180771143097
 20
127.8027915271048
 10
131.4180771143097
 20
127.8027915271048
 10
139.8926730891197
 20
154.8294111834263
 10
139.8926730891197
 20
154.8294111834263
 97
        0
 75
     2
 76
     1
 98
        0
  0
SPLINE
  5
6AA
330
6A2
100
AcDbEntity
  8
LOGO
370
     0
100
AcDbSpline
210
0.0
220
0.0
230
1.0
 70
    11
 71
     3
 72
    29
 73
    25
 74
     0
 42
0.000000001
 43
0.0000000001
 40
0.0
 40
0.0
 40
0.0
 40
0.0
 40
1.0
 40
1.0
 40
1.0
 40
2.0
 40
2.0
 40
2.0
 40
3.0
 40
3.0
 40
3.0
 40
4.0
 40
4.0
 40
4.0
 40
5.0
 40
5.0
 40
5.0
 40
6.0
 40
6.0
 40
6.0
 40
7.0
 40
7.0
 40
7.0
 40
8.0
 40
8.0
 40
8.0
 40
8.0
 10
101.6420971922469
 20
132.8388354296931
 30
0.0
 10
101.630039350094
 20
134.7164137077823
 30
0.0
 10
102.2236296937908
 20
138.0598810818841
 30
0.0
 10
103.7487744712405
 20
142.5378191476827
 30
0.0
 10
105.819967243327
 20
148.5896501242061
 30
0.0
 10
107.0602024361932
 20
150.8074318058939
 30
0.0
 10
108.1522984254671
 20
151.8833358357054
 30
0.0
 10
109.741177511439
 20
153.4532668840085
 30
0.0
 10
111.8740375333931
 20
153.5290590346837
 30
0.0
 10
112.5075910110823
 20
153.4532668840085
 30
0.0
 10
113.4012493694975
 20
153.3490526768302
 30
0.0
 10
114.6683563248758
 20
152.7580461564518
 30
0.0
 10
114.7493161221879
 20
150.7838328862519
 30
0.0
 10
114.8106388622796
 20
149.0909118479895
 30
0.0
 10
114.3186789024427
 20
145.9191825971221
 30
0.0
 10
112.6164561002338
 20
140.9489400617108
 30
0.0
 10
110.6444821435766
 20
135.1746117095912
 30
0.0
 10
109.4669477299053
 20
132.8960240524753
 30
0.0
 10
108.5212683953448
 20
131.9072809959403
 30
0.0
 10
106.7346406980658
 20
130.0538184021569
 30
0.0
 10
104.8222669326213
 20
130.2336525051225
 30
0.0
 10
104.5408024457958
 20
130.2336525051225
 30
0.0
 10
104.1721769856939
 20
130.2336525051225
 30
0.0
 10
101.6465758193322
 20
130.6305277668397
 30
0.0
 10
101.6420971922469
 20
132.8388354296931
 30
0.0
  0
SPLINE
  5
6AB
330
6A2
100
AcDbEntity
  8
LOGO
370
     0
100
AcDbSpline
210
0.0
220
0.0
230
1.0
 70
    11
 71
     3
 72
    32
 73
    28
 74
     0
 42
0.000000001
 43
0.0000000001
 40
0.0
 40
0.0
 40
0.0
 40
0.0
 40
1.0
 40
1.0
 40
1.0
 40
2.0
 40
2.0
 40
2.0
 40
3.0
 40
3.0
 40
3.0
 40
4.0
 40
4.0
 40
4.0
 40
5.0
 40
5.0
 40
5.0
 40
6.0
 40
6.0
 40
6.0
 40
7.0
 40
7.0
 40
7.0
 40
8.0
 40
8.0
 40
8.0
 40
9.0
 40
9.0
 40
9.0
 40
9.0
 10
106.2595617172429
 20
153.4105476718098
 30
0.0
 10
104.8222669326213
 20
151.5474388043041
 30
0.0
 10
103.7177685914188
 20
149.8758773721411
 30
0.0
 10
101.9232171692965
 20
144.6141795664062
 30
0.0
 10
100.2754269116635
 20
139.7999999594306
 30
0.0
 10
99.22777268346732
 20
136.3052927937542
 30
0.0
 10
99.06964269637689
 20
132.039572749846
 30
0.0
 10
98.94665270641765
 20
128.8673267343149
 30
0.0
 10
100.8807305877373
 20
127.8027915271048
 30
0.0
 10
103.7129454545577
 20
127.8027915271048
 30
0.0
 10
104.9352661390825
 20
127.8027915271048
 30
0.0
 10
108.0151835347002
 20
127.8827177950895
 30
0.0
 10
110.2045431598849
 20
130.5926316915021
 30
0.0
 10
111.7417457794874
 20
132.4984597712065
 30
0.0
 10
113.155269389579
 20
134.475256864725
 30
0.0
 10
115.0562743324223
 20
140.9489400617108
 30
0.0
 10
116.6361961642235
 20
146.3680788349845
 30
0.0
 10
117.7282921534974
 20
149.8639917848761
 30
0.0
 10
117.6480213757369
 20
151.8595646611754
 30
0.0
 10
117.6480213757369
 20
151.8595646611754
 30
0.0
 10
117.6480213757369
 20
151.8595646611754
 30
0.0
 10
117.6480213757369
 20
151.8595646611754
 30
0.0
 10
117.13229024137
 20
155.18150017429
 30
0.0
 10
114.7162431837115
 20
155.886194920681
 30
0.0
 10
113.3351034925446
 20
155.886194920681
 30
0.0
 10
111.9829026225447
 20
155.886194920681
 30
0.0
 10
108.3414342923792
 20
156.1251124501957
 30
0.0
 10
106.2595617172429
 20
153.4105476718098
 30
0.0
  0
HATCH
  5
6AC
330
6A2
100
AcDbEntity
  8
LOGO
 62
   250
420
  2234388
100
AcDbHatch
 10
0.0
 20
0.0
 30
0.0
210
0.0
220
0.0
230
1.0
  2
SOLID
 70
     1
 71
     0
 91
        2
 92
        1
 93
        1
 72
     4
 94
        3
 73
     0
 74
     1
 95
       29
 96
       25
 40
0.0
 40
0.0
 40
0.0
 40
0.0
 40
1.0
 40
1.0
 40
1.0
 40
2.0
 40
2.0
 40
2.0
 40
3.0
 40
3.0
 40
3.0
 40
4.0
 40
4.0
 40
4.0
 40
5.0
 40
5.0
 40
5.0
 40
6.0
 40
6.0
 40
6.0
 40
7.0
 40
7.0
 40
7.0
 40
8.0
 40
8.0
 40
8.0
 40
8.0
 10
101.6420971922469
 20
132.8388354296931
 10
101.630039350094
 20
134.7164137077823
 10
102.2236296937908
 20
138.0598810818841
 10
103.7487744712405
 20
142.5378191476827
 10
105.819967243327
 20
148.5896501242061
 10
107.0602024361932
 20
150.8074318058939
 10
108.1522984254671
 20
151.8833358357054
 10
109.741177511439
 20
153.4532668840085
 10
111.8740375333931
 20
153.5290590346837
 10
112.5075910110823
 20
153.4532668840085
 10
113.4012493694975
 20
153.3490526768302
 10
114.6683563248758
 20
152.7580461564518
 10
114.7493161221879
 20
150.7838328862519
 10
114.8106388622796
 20
149.0909118479895
 10
114.3186789024427
 20
145.9191825971221
 10
112.6164561002338
 20
140.9489400617108
 10
110.6444821435766
 20
135.1746117095912
 10
109.4669477299053
 20
132.8960240524753
 10
108.5212683953448
 20
131.9072809959403
 10
106.7346406980658
 20
130.0538184021569
 10
104.8222669326213
 20
130.2336525051225
 10
104.5408024457958
 20
130.2336525051225
 10
104.1721769856939
 20
130.2336525051225
 10
101.6465758193322
 20
130.6305277668397
 10
101.6420971922469
 20
132.8388354296931
 97
        0
 92
        1
 93
        1
 72
     4
 94
        3
 73
     0
 74
     1
 95
       32
 96
       28
 40
0.0
 40
0.0
 40
0.0
 40
0.0
 40
1.0
 40
1.0
 40
1.0
 40
2.0
 40
2.0
 40
2.0
 40
3.0
 40
3.0
 40
3.0
 40
4.0
 40
4.0
 40
4.0
 40
5.0
 40
5.0
 40
5.0
 40
6.0
 40
6.0
 40
6.0
 40
7.0
 40
7.0
 40
7.0
 40
8.0
 40
8.0
 40
8.0
 40
9.0
 40
9.0
 40
9.0
 40
9.0
 10
106.2595617172429
 20
153.4105476718098
 10
104.8222669326213
 20
151.5474388043041
 10
103.7177685914188
 20
149.8758773721411
 10
101.9232171692965
 20
144.6141795664062
 10
100.2754269116635
 20
139.7999999594306
 10
99.22777268346732
 20
136.3052927937542
 10
99.06964269637689
 20
132.039572749846
 10
98.94665270641765
 20
128.8673267343149
 10
100.8807305877373
 20
127.8027915271048
 10
103.7129454545577
 20
127.8027915271048
 10
104.9352661390825
 20
127.8027915271048
 10
108.0151835347002
 20
127.8827177950895
 10
110.2045431598849
 20
130.5926316915021
 10
111.7417457794874
 20
132.4984597712065
 10
113.155269389579
 20
134.475256864725
 10
115.0562743324223
 20
140.9489400617108
 10
116.6361961642235
 20
146.3680788349845
 10
117.7282921534974
 20
149.8639917848761
 10
117.6480213757369
 20
151.8595646611754
 10
117.6480213757369
 20
151.8595646611754
 10
117.6480213757369
 20
151.8595646611754
 10
117.6480213757369
 20
151.8595646611754
 10
117.13229024137
 20
155.18150017429
 10
114.7162431837115
 20
155.886194920681
 10
113.3351034925446
 20
155.886194920681
 10
111.9829026225447
 20
155.886194920681
 10
108.3414342923792
 20
156.1251124501957
 10
106.2595617172429
 20
153.4105476718098
 97
        0
 75
     2
 76
     1
 98
        0
  0
ENDBLK
  5
6AD
330
6A2
100
AcDbEntity
  8
0
100
AcDbBlockEnd
  0
BLOCK
  5
19318
330
19317
100
AcDbEntity
  8
0
100
AcDbBlockBegin
  2
*D6
 70
     1
 10
0.0
 20
0.0
 30
0.0
  3
*D6
  1

  0
LINE
  5
1931A
330
19317
100
AcDbEntity
  8
MODEL
 62
     0
 48
0.05
370
    -2
100
AcDbLine
 10
829.5461415357162
 20
251.9992100715971
 30
0.0
 11
829.5461415357162
 21
176.9203645019768
 31
0.0
  0
LINE
  5
1931B
330
19317
100
AcDbEntity
  8
MODEL
 62
     0
 48
0.05
370
    -2
100
AcDbLine
 10
764.430328201501
 20
251.9992100715971
 30
0.0
 11
764.430328201501
 21
176.9203645019768
 31
0.0
  0
LINE
  5
1931C
330
19317
100
AcDbEntity
  8
MODEL
 62
     0
 48
0.05
370
    -2
100
AcDbLine
 10
826.5461415357162
 20
176.9203645019768
 30
0.0
 11
767.430328201501
 21
176.9203645019768
 31
0.0
  0
INSERT
  5
1931D
330
19317
100
AcDbEntity
  8
MODEL
 62
     0
370
    -2
100
AcDbBlockReference
  2
_DOT
 10
829.5461415357162
 20
176.9203645019768
 30
0.0
 41
3.0
 42
3.0
 43
3.0
  0
INSERT
  5
1931E
330
19317
100
AcDbEntity
  8
MODEL
 62
     0
370
    -2
100
AcDbBlockReference
  2
_DOT
 10
764.430328201501
 20
176.9203645019768
 30
0.0
 41
3.0
 42
3.0
 43
3.0
 50
180.0
  0
MTEXT
  5
1931F
330
19317
100
AcDbEntity
  8
MODEL
 62
     0
 48
0.05
100
AcDbMText
 10
796.9882348686085
 20
186.9203645019768
 30
0.0
 40
8.0
 41
0.0
 46
0.0
 71
     5
 72
     1
  1
\A1;65
  7
ＭＳ ゴシック
 73
     1
 44
1.0
  0
POINT
  5
19320
330
19317
100
AcDbEntity
  8
Defpoints
 62
     0
100
AcDbPoint
 10
829.5461415357162
 20
261.9992100715971
 30
0.0
  0
POINT
  5
19321
330
19317
100
AcDbEntity
  8
Defpoints
 62
     0
100
AcDbPoint
 10
764.430328201501
 20
261.9992100715971
 30
0.0
  0
POINT
  5
19322
330
19317
100
AcDbEntity
  8
Defpoints
 62
     0
100
AcDbPoint
 10
764.430328201501
 20
176.9203645019768
 30
0.0
  0
ENDBLK
  5
19319
330
19317
100
AcDbEntity
  8
0
100
AcDbBlockEnd
  0
BLOCK
  5
19329
330
19328
100
AcDbEntity
  8
0
100
AcDbBlockBegin
  2
*D7
 70
     1
 10
0.0
 20
0.0
 30
0.0
  3
*D7
  1

  0
LINE
  5
1932B
330
19328
100
AcDbEntity
  8
MODEL
 62
     0
 48
0.05
370
    -2
100
AcDbLine
 10
1144.652508428048
 20
251.8211989485591
 30
0.0
 11
1144.652508428048
 21
214.7923784136628
 31
0.0
  0
LINE
  5
1932C
330
19328
100
AcDbEntity
  8
MODEL
 62
     0
 48
0.05
370
    -2
100
AcDbLine
 10
944.6525084280478
 20
256.4268366269512
 30
0.0
 11
944.6525084280478
 21
214.7923784136628
 31
0.0
  0
LINE
  5
1932D
330
19328
100
AcDbEntity
  8
MODEL
 62
     0
 48
0.05
370
    -2
100
AcDbLine
 10
1141.652508428048
 20
214.7923784136628
 30
0.0
 11
947.6525084280478
 21
214.7923784136628
 31
0.0
  0
INSERT
  5
1932E
330
19328
100
AcDbEntity
  8
MODEL
 62
     0
370
    -2
100
AcDbBlockReference
  2
_DOT
 10
1144.652508428048
 20
214.7923784136628
 30
0.0
 41
3.0
 42
3.0
 43
3.0
  0
INSERT
  5
1932F
330
19328
100
AcDbEntity
  8
MODEL
 62
     0
370
    -2
100
AcDbBlockReference
  2
_DOT
 10
944.6525084280478
 20
214.7923784136628
 30
0.0
 41
3.0
 42
3.0
 43
3.0
 50
180.0
  0
MTEXT
  5
19330
330
19328
100
AcDbEntity
  8
MODEL
 62
     0
 48
0.05
100
AcDbMText
 10
1044.652508428048
 20
224.7923784136628
 30
0.0
 40
8.0
 41
0.0
 46
0.0
 71
     5
 72
     1
  1
\A1;200
  7
ＭＳ ゴシック
 73
     1
 44
1.0
  0
POINT
  5
19331
330
19328
100
AcDbEntity
  8
Defpoints
 62
     0
100
AcDbPoint
 10
1144.652508428048
 20
261.8211989485591
 30
0.0
  0
POINT
  5
19332
330
19328
100
AcDbEntity
  8
Defpoints
 62
     0
100
AcDbPoint
 10
944.6525084280478
 20
266.4268366269512
 30
0.0
  0
POINT
  5
19333
330
19328
100
AcDbEntity
  8
Defpoints
 62
     0
100
AcDbPoint
 10
944.6525084280478
 20
214.7923784136628
 30
0.0
  0
ENDBLK
  5
1932A
330
19328
100
AcDbEntity
  8
0
100
AcDbBlockEnd
  0
BLOCK
  5
193E4
330
193E3
100
AcDbEntity
  8
0
100
AcDbBlockBegin
  2
*D8
 70
     1
 10
0.0
 20
0.0
 30
0.0
  3
*D8
  1

  0
LINE
  5
193E6
330
193E3
100
AcDbEntity
  8
MODEL
 62
     0
 48
0.05
370
    -2
100
AcDbLine
 10
1034.264418077893
 20
-718.2088670303688
 30
0.0
 11
992.6504952839377
 21
-718.2088670303688
 31
0.0
  0
LINE
  5
193E7
330
193E3
100
AcDbEntity
  8
MODEL
 62
     0
 48
0.05
370
    -2
100
AcDbLine
 10
1034.264418077893
 20
-768.2088670303688
 30
0.0
 11
992.6504952839377
 21
-768.2088670303688
 31
0.0
  0
LINE
  5
193E8
330
193E3
100
AcDbEntity
  8
MODEL
 62
     0
 48
0.05
370
    -2
100
AcDbLine
 10
992.6504952839377
 20
-721.2088670303688
 30
0.0
 11
992.6504952839377
 21
-765.2088670303688
 31
0.0
  0
INSERT
  5
193E9
330
193E3
100
AcDbEntity
  8
MODEL
 62
     0
370
    -2
100
AcDbBlockReference
  2
_DOT
 10
992.6504952839377
 20
-718.2088670303688
 30
0.0
 41
3.0
 42
3.0
 43
3.0
 50
90.0
  0
INSERT
  5
193EA
330
193E3
100
AcDbEntity
  8
MODEL
 62
     0
370
    -2
100
AcDbBlockReference
  2
_DOT
 10
992.6504952839377
 20
-768.2088670303688
 30
0.0
 41
3.0
 42
3.0
 43
3.0
 50
270.0
  0
MTEXT
  5
193EB
330
193E3
100
AcDbEntity
  8
MODEL
 62
     0
 48
0.05
100
AcDbMText
 10
982.6504952839377
 20
-743.2088670303688
 30
0.0
 40
8.0
 41
0.0
 46
0.0
 71
     5
 72
     1
  1
\A1;50
  7
ＭＳ ゴシック
 11
0.0
 21
1.0
 31
0.0
 73
     1
 44
1.0
  0
POINT
  5
193EC
330
193E3
100
AcDbEntity
  8
Defpoints
 62
     0
100
AcDbPoint
 10
1044.264418077893
 20
-718.2088670303688
 30
0.0
  0
POINT
  5
193ED
330
193E3
100
AcDbEntity
  8
Defpoints
 62
     0
100
AcDbPoint
 10
1044.264418077893
 20
-768.2088670303688
 30
0.0
  0
POINT
  5
193EE
330
193E3
100
AcDbEntity
  8
Defpoints
 62
     0
100
AcDbPoint
 10
992.6504952839377
 20
-768.2088670303688
 30
0.0
  0
ENDBLK
  5
193E5
330
193E3
100
AcDbEntity
  8
0
100
AcDbBlockEnd
  0
BLOCK
  5
19417
330
19416
100
AcDbEntity
  8
0
100
AcDbBlockBegin
  2
*D9
 70
     1
 10
0.0
 20
0.0
 30
0.0
  3
*D9
  1

  0
LINE
  5
19419
330
19416
100
AcDbEntity
  8
MODEL
 62
     0
 48
0.05
370
    -2
100
AcDbLine
 10
1562.374871696361
 20
-710.6267646075562
 30
0.0
 11
1519.981394412904
 21
-710.6267646075562
 31
0.0
  0
LINE
  5
1941A
330
19416
100
AcDbEntity
  8
MODEL
 62
     0
 48
0.05
370
    -2
100
AcDbLine
 10
1562.374871696361
 20
-902.6267646048016
 30
0.0
 11
1519.981394412904
 21
-902.6267646048016
 31
0.0
  0
LINE
  5
1941B
330
19416
100
AcDbEntity
  8
MODEL
 62
     0
 48
0.05
370
    -2
100
AcDbLine
 10
1519.981394412904
 20
-713.6267646075562
 30
0.0
 11
1519.981394412904
 21
-899.6267646048016
 31
0.0
  0
INSERT
  5
1941C
330
19416
100
AcDbEntity
  8
MODEL
 62
     0
370
    -2
100
AcDbBlockReference
  2
_DOT
 10
1519.981394412904
 20
-710.6267646075562
 30
0.0
 41
3.0
 42
3.0
 43
3.0
 50
90.0
  0
INSERT
  5
1941D
330
19416
100
AcDbEntity
  8
MODEL
 62
     0
370
    -2
100
AcDbBlockReference
  2
_DOT
 10
1519.981394412904
 20
-902.6267646048016
 30
0.0
 41
3.0
 42
3.0
 43
3.0
 50
270.0
  0
MTEXT
  5
1941E
330
19416
100
AcDbEntity
  8
MODEL
 62
     0
 48
0.05
100
AcDbMText
 10
1509.981394412904
 20
-806.6267646061789
 30
0.0
 40
8.0
 41
0.0
 46
0.0
 71
     5
 72
     1
  1
\A1;192
  7
ＭＳ ゴシック
 11
0.0
 21
1.0
 31
0.0
 73
     1
 44
1.0
  0
POINT
  5
1941F
330
19416
100
AcDbEntity
  8
Defpoints
 62
     0
100
AcDbPoint
 10
1572.374871696361
 20
-710.6267646075562
 30
0.0
  0
POINT
  5
19420
330
19416
100
AcDbEntity
  8
Defpoints
 62
     0
100
AcDbPoint
 10
1572.374871696361
 20
-902.6267646048016
 30
0.0
  0
POINT
  5
19421
330
19416
100
AcDbEntity
  8
Defpoints
 62
     0
100
AcDbPoint
 10
1519.981394412904
 20
-902.6267646048016
 30
0.0
  0
ENDBLK
  5
19418
330
19416
100
AcDbEntity
  8
0
100
AcDbBlockEnd
  0
BLOCK
  5
19426
330
19425
100
AcDbEntity
  8
0
100
AcDbBlockBegin
  2
*D10
 70
     1
 10
0.0
 20
0.0
 30
0.0
  3
*D10
  1

  0
LINE
  5
19428
330
19425
100
AcDbEntity
  8
MODEL
 62
     0
 48
0.05
370
    -2
100
AcDbLine
 10
1584.735721630214
 20
-808.1449254846134
 30
0.0
 11
1584.735721630214
 21
-823.0571998311458
 31
0.0
  0
LINE
  5
19429
330
19425
100
AcDbEntity
  8
MODEL
 62
     0
 48
0.05
370
    -2
100
AcDbLine
 10
1607.557329740494
 20
-803.1985514868102
 30
0.0
 11
1607.557329740494
 21
-823.0571998311458
 31
0.0
  0
LINE
  5
1942A
330
19425
100
AcDbEntity
  8
MODEL
 62
     0
 48
0.05
370
    -2
100
AcDbLine
 10
1587.735721630214
 20
-823.0571998311458
 30
0.0
 11
1604.557329740494
 21
-823.0571998311458
 31
0.0
  0
INSERT
  5
1942B
330
19425
100
AcDbEntity
  8
MODEL
 62
     0
370
    -2
100
AcDbBlockReference
  2
_DOT
 10
1584.735721630214
 20
-823.0571998311458
 30
0.0
 41
3.0
 42
3.0
 43
3.0
 50
180.0
  0
INSERT
  5
1942C
330
19425
100
AcDbEntity
  8
MODEL
 62
     0
370
    -2
100
AcDbBlockReference
  2
_DOT
 10
1607.557329740494
 20
-823.0571998311458
 30
0.0
 41
3.0
 42
3.0
 43
3.0
  0
MTEXT
  5
1942D
330
19425
100
AcDbEntity
  8
MODEL
 62
     0
 48
0.05
100
AcDbMText
 10
1596.146525685353
 20
-813.0571998311458
 30
0.0
 40
8.0
 41
0.0
 46
0.0
 71
     5
 72
     1
  1
\A1;23
  7
ＭＳ ゴシック
 73
     1
 44
1.0
  0
POINT
  5
1942E
330
19425
100
AcDbEntity
  8
Defpoints
 62
     0
100
AcDbPoint
 10
1584.735721630214
 20
-798.1449254846134
 30
0.0
  0
POINT
  5
1942F
330
19425
100
AcDbEntity
  8
Defpoints
 62
     0
100
AcDbPoint
 10
1607.557329740494
 20
-793.1985514868102
 30
0.0
  0
POINT
  5
19430
330
19425
100
AcDbEntity
  8
Defpoints
 62
     0
100
AcDbPoint
 10
1607.557329740494
 20
-823.0571998311458
 30
0.0
  0
ENDBLK
  5
19427
330
19425
100
AcDbEntity
  8
0
100
AcDbBlockEnd
  0
BLOCK
  5
19435
330
19434
100
AcDbEntity
  8
0
100
AcDbBlockBegin
  2
*D11
 70
     1
 10
0.0
 20
0.0
 30
0.0
  3
*D11
  1

  0
LINE
  5
19437
330
19434
100
AcDbEntity
  8
MODEL
 62
     0
 48
0.05
370
    -2
100
AcDbLine
 10
1707.379070514259
 20
-195.3943266265312
 30
0.0
 11
1707.379070514259
 21
-222.8274765488594
 31
0.0
  0
LINE
  5
19438
330
19434
100
AcDbEntity
  8
MODEL
 62
     0
 48
0.05
370
    -2
100
AcDbLine
 10
1779.392962276836
 20
-195.3943266265312
 30
0.0
 11
1779.392962276836
 21
-222.8274765488594
 31
0.0
  0
LINE
  5
19439
330
19434
100
AcDbEntity
  8
MODEL
 62
     0
 48
0.05
370
    -2
100
AcDbLine
 10
1710.379070514259
 20
-222.8274765488594
 30
0.0
 11
1776.392962276836
 21
-222.8274765488594
 31
0.0
  0
INSERT
  5
1943A
330
19434
100
AcDbEntity
  8
MODEL
 62
     0
370
    -2
100
AcDbBlockReference
  2
_DOT
 10
1707.379070514259
 20
-222.8274765488594
 30
0.0
 41
3.0
 42
3.0
 43
3.0
 50
180.0
  0
INSERT
  5
1943B
330
19434
100
AcDbEntity
  8
MODEL
 62
     0
370
    -2
100
AcDbBlockReference
  2
_DOT
 10
1779.392962276836
 20
-222.8274765488594
 30
0.0
 41
3.0
 42
3.0
 43
3.0
  0
MTEXT
  5
1943C
330
19434
100
AcDbEntity
  8
MODEL
 62
     0
 48
0.05
100
AcDbMText
 10
1743.386016395548
 20
-212.8274765488594
 30
0.0
 40
8.0
 41
0.0
 46
0.0
 71
     5
 72
     1
  1
\A1;72
  7
ＭＳ ゴシック
 73
     1
 44
1.0
  0
POINT
  5
1943D
330
19434
100
AcDbEntity
  8
Defpoints
 62
     0
100
AcDbPoint
 10
1707.379070514259
 20
-185.3943266265312
 30
0.0
  0
POINT
  5
1943E
330
19434
100
AcDbEntity
  8
Defpoints
 62
     0
100
AcDbPoint
 10
1779.392962276836
 20
-185.3943266265312
 30
0.0
  0
POINT
  5
1943F
330
19434
100
AcDbEntity
  8
Defpoints
 62
     0
100
AcDbPoint
 10
1779.392962276836
 20
-222.8274765488594
 30
0.0
  0
ENDBLK
  5
19436
330
19434
100
AcDbEntity
  8
0
100
AcDbBlockEnd
  0
BLOCK
  5
19444
330
19443
100
AcDbEntity
  8
0
100
AcDbBlockBegin
  2
*D12
 70
     1
 10
0.0
 20
0.0
 30
0.0
  3
*D12
  1

  0
LINE
  5
19446
330
19443
100
AcDbEntity
  8
MODEL
 62
     0
 48
0.05
370
    -2
100
AcDbLine
 10
1660.25255308874
 20
-39.67072854528844
 30
0.0
 11
1630.985393595069
 21
-39.67072854528844
 31
0.0
  0
LINE
  5
19447
330
19443
100
AcDbEntity
  8
MODEL
 62
     0
 48
0.05
370
    -2
100
AcDbLine
 10
1665.985828964661
 20
-89.67072854705246
 30
0.0
 11
1630.985393595069
 21
-89.67072854705246
 31
0.0
  0
LINE
  5
19448
330
19443
100
AcDbEntity
  8
MODEL
 62
     0
 48
0.05
370
    -2
100
AcDbLine
 10
1630.985393595069
 20
-42.67072854528844
 30
0.0
 11
1630.985393595069
 21
-86.67072854705246
 31
0.0
  0
INSERT
  5
19449
330
19443
100
AcDbEntity
  8
MODEL
 62
     0
370
    -2
100
AcDbBlockReference
  2
_DOT
 10
1630.985393595069
 20
-39.67072854528844
 30
0.0
 41
3.0
 42
3.0
 43
3.0
 50
90.0
  0
INSERT
  5
1944A
330
19443
100
AcDbEntity
  8
MODEL
 62
     0
370
    -2
100
AcDbBlockReference
  2
_DOT
 10
1630.985393595069
 20
-89.67072854705246
 30
0.0
 41
3.0
 42
3.0
 43
3.0
 50
270.0
  0
MTEXT
  5
1944B
330
19443
100
AcDbEntity
  8
MODEL
 62
     0
 48
0.05
100
AcDbMText
 10
1620.985393595069
 20
-64.67072854617045
 30
0.0
 40
8.0
 41
0.0
 46
0.0
 71
     5
 72
     1
  1
\A1;50
  7
ＭＳ ゴシック
 11
0.0
 21
1.0
 31
0.0
 73
     1
 44
1.0
  0
POINT
  5
1944C
330
19443
100
AcDbEntity
  8
Defpoints
 62
     0
100
AcDbPoint
 10
1670.25255308874
 20
-39.67072854528844
 30
0.0
  0
POINT
  5
1944D
330
19443
100
AcDbEntity
  8
Defpoints
 62
     0
100
AcDbPoint
 10
1675.985828964661
 20
-89.67072854705246
 30
0.0
  0
POINT
  5
1944E
330
19443
100
AcDbEntity
  8
Defpoints
 62
     0
100
AcDbPoint
 10
1630.985393595069
 20
-89.67072854705246
 30
0.0
  0
ENDBLK
  5
19445
330
19443
100
AcDbEntity
  8
0
100
AcDbBlockEnd
  0
BLOCK
  5
1947D
330
1947C
100
AcDbEntity
  8
0
100
AcDbBlockBegin
  2
*D13
 70
     1
 10
0.0
 20
0.0
 30
0.0
  3
*D13
  1

  0
LINE
  5
1947F
330
1947C
100
AcDbEntity
  8
DIM
 62
     0
 48
0.05
370
    -2
100
AcDbLine
 10
2420.856540585757
 20
767.134598584054
 30
0.0
 11
2463.747000996713
 21
767.134598584054
 31
0.0
  0
LINE
  5
19480
330
1947C
100
AcDbEntity
  8
DIM
 62
     0
 48
0.05
370
    -2
100
AcDbLine
 10
2397.862457181476
 20
517.1722400112459
 30
0.0
 11
2463.747000996713
 21
517.1722400112459
 31
0.0
  0
LINE
  5
19481
330
1947C
100
AcDbEntity
  8
DIM
 62
     0
 48
0.05
370
    -2
100
AcDbLine
 10
2463.747000996713
 20
764.134598584054
 30
0.0
 11
2463.747000996713
 21
520.1722400112459
 31
0.0
  0
INSERT
  5
19482
330
1947C
100
AcDbEntity
  8
DIM
 62
     0
370
    -2
100
AcDbBlockReference
  2
_DOT
 10
2463.747000996713
 20
767.134598584054
 30
0.0
 41
3.0
 42
3.0
 43
3.0
 50
90.0
  0
INSERT
  5
19483
330
1947C
100
AcDbEntity
  8
DIM
 62
     0
370
    -2
100
AcDbBlockReference
  2
_DOT
 10
2463.747000996713
 20
517.1722400112459
 30
0.0
 41
3.0
 42
3.0
 43
3.0
 50
270.0
  0
MTEXT
  5
19484
330
1947C
100
AcDbEntity
  8
DIM
 62
     0
 48
0.05
100
AcDbMText
 10
2453.747000996713
 20
642.1534192976499
 30
0.0
 40
8.0
 41
0.0
 46
0.0
 71
     5
 72
     1
  1
\A1;250
  7
ＭＳ ゴシック
 11
0.0
 21
1.0
 31
0.0
 73
     1
 44
1.0
  0
POINT
  5
19485
330
1947C
100
AcDbEntity
  8
Defpoints
 62
     0
100
AcDbPoint
 10
2410.856540585757
 20
767.134598584054
 30
0.0
  0
POINT
  5
19486
330
1947C
100
AcDbEntity
  8
Defpoints
 62
     0
100
AcDbPoint
 10
2387.862457181476
 20
517.1722400112459
 30
0.0
  0
POINT
  5
19487
330
1947C
100
AcDbEntity
  8
Defpoints
 62
     0
100
AcDbPoint
 10
2463.747000996713
 20
517.1722400112459
 30
0.0
  0
ENDBLK
  5
1947E
330
1947C
100
AcDbEntity
  8
0
100
AcDbBlockEnd
  0
BLOCK
  5
1948C
330
1948B
100
AcDbEntity
  8
0
100
AcDbBlockBegin
  2
*D14
 70
     1
 10
0.0
 20
0.0
 30
0.0
  3
*D14
  1

  0
LINE
  5
1948E
330
1948B
100
AcDbEntity
  8
DIM
 62
     0
 48
0.05
370
    -2
100
AcDbLine
 10
2380.367308153464
 20
587.6059713225781
 30
0.0
 11
2380.367308153464
 21
594.4645985630843
 31
0.0
  0
LINE
  5
1948F
330
1948B
100
AcDbEntity
  8
DIM
 62
     0
 48
0.05
370
    -2
100
AcDbLine
 10
2356.35801973601
 20
587.6059713225781
 30
0.0
 11
2356.35801973601
 21
594.4645985630843
 31
0.0
  0
LINE
  5
19490
330
1948B
100
AcDbEntity
  8
DIM
 62
     0
 48
0.05
370
    -2
100
AcDbLine
 10
2380.367308153464
 20
594.4645985630843
 30
0.0
 11
2323.32601973601
 21
594.4645985630843
 31
0.0
  0
LINE
  5
19491
330
1948B
100
AcDbEntity
  8
DIM
 62
     0
 48
0.05
370
    -2
100
AcDbLine
 10
2383.367308153464
 20
594.4645985630843
 30
0.0
 11
2386.367308153464
 21
594.4645985630843
 31
0.0
  0
LINE
  5
19492
330
1948B
100
AcDbEntity
  8
DIM
 62
     0
 48
0.05
370
    -2
100
AcDbLine
 10
2353.35801973601
 20
594.4645985630843
 30
0.0
 11
2350.35801973601
 21
594.4645985630843
 31
0.0
  0
INSERT
  5
19493
330
1948B
100
AcDbEntity
  8
DIM
 62
     0
370
    -2
100
AcDbBlockReference
  2
_DOT
 10
2380.367308153464
 20
594.4645985630843
 30
0.0
 41
3.0
 42
3.0
 43
3.0
 50
180.0
  0
INSERT
  5
19494
330
1948B
100
AcDbEntity
  8
DIM
 62
     0
370
    -2
100
AcDbBlockReference
  2
_DOT
 10
2356.35801973601
 20
594.4645985630843
 30
0.0
 41
3.0
 42
3.0
 43
3.0
  0
MTEXT
  5
19495
330
1948B
100
AcDbEntity
  8
DIM
 62
     0
 48
0.05
100
AcDbMText
 10
2336.84201973601
 20
604.4645985630843
 30
0.0
 40
8.0
 41
0.0
 46
0.0
 71
     5
 72
     1
  1
\A1;%%c24
  7
ＭＳ ゴシック
 73
     1
 44
1.0
  0
POINT
  5
19496
330
1948B
100
AcDbEntity
  8
Defpoints
 62
     0
100
AcDbPoint
 10
2380.367308153464
 20
597.6059713225781
 30
0.0
  0
POINT
  5
19497
330
1948B
100
AcDbEntity
  8
Defpoints
 62
     0
100
AcDbPoint
 10
2356.35801973601
 20
597.6059713225781
 30
0.0
  0
POINT
  5
19498
330
1948B
100
AcDbEntity
  8
Defpoints
 62
     0
100
AcDbPoint
 10
2356.35801973601
 20
594.4645985630843
 30
0.0
  0
ENDBLK
  5
1948D
330
1948B
100
AcDbEntity
  8
0
100
AcDbBlockEnd
  0
BLOCK
  5
194A0
330
1949F
100
AcDbEntity
  8
0
100
AcDbBlockBegin
  2
*D15
 70
     1
 10
0.0
 20
0.0
 30
0.0
  3
*D15
  1

  0
LINE
  5
194A2
330
1949F
100
AcDbEntity
  8
DIM
 62
     0
 48
0.05
370
    -2
100
AcDbLine
 10
2400.863008548408
 20
777.134598584054
 30
0.0
 11
2400.863008548408
 21
821.3364149136576
 31
0.0
  0
LINE
  5
194A3
330
1949F
100
AcDbEntity
  8
DIM
 62
     0
 48
0.05
370
    -2
100
AcDbLine
 10
2335.863008550173
 20
777.134598584054
 30
0.0
 11
2335.863008550173
 21
821.3364149136576
 31
0.0
  0
LINE
  5
194A4
330
1949F
100
AcDbEntity
  8
DIM
 62
     0
 48
0.05
370
    -2
100
AcDbLine
 10
2397.863008548408
 20
821.3364149136576
 30
0.0
 11
2338.863008550173
 21
821.3364149136576
 31
0.0
  0
INSERT
  5
194A5
330
1949F
100
AcDbEntity
  8
DIM
 62
     0
370
    -2
100
AcDbBlockReference
  2
_DOT
 10
2400.863008548408
 20
821.3364149136576
 30
0.0
 41
3.0
 42
3.0
 43
3.0
  0
INSERT
  5
194A6
330
1949F
100
AcDbEntity
  8
DIM
 62
     0
370
    -2
100
AcDbBlockReference
  2
_DOT
 10
2335.863008550173
 20
821.3364149136576
 30
0.0
 41
3.0
 42
3.0
 43
3.0
 50
180.0
  0
MTEXT
  5
194A7
330
1949F
100
AcDbEntity
  8
DIM
 62
     0
 48
0.05
100
AcDbMText
 10
2368.36300854929
 20
831.3364149136576
 30
0.0
 40
8.0
 41
0.0
 46
0.0
 71
     5
 72
     1
  1
\A1;%%c65
  7
ＭＳ ゴシック
 73
     1
 44
1.0
  0
POINT
  5
194A8
330
1949F
100
AcDbEntity
  8
Defpoints
 62
     0
100
AcDbPoint
 10
2400.863008548408
 20
767.134598584054
 30
0.0
  0
POINT
  5
194A9
330
1949F
100
AcDbEntity
  8
Defpoints
 62
     0
100
AcDbPoint
 10
2335.863008550173
 20
767.134598584054
 30
0.0
  0
POINT
  5
194AA
330
1949F
100
AcDbEntity
  8
Defpoints
 62
     0
100
AcDbPoint
 10
2335.863008550173
 20
821.3364149136576
 30
0.0
  0
ENDBLK
  5
194A1
330
1949F
100
AcDbEntity
  8
0
100
AcDbBlockEnd
  0
BLOCK
  5
194E6
330
194E5
100
AcDbEntity
  8
0
100
AcDbBlockBegin
  2
*D16
 70
     1
 10
0.0
 20
0.0
 30
0.0
  3
*D16
  1

  0
LINE
  5
194E8
330
194E5
100
AcDbEntity
  8
DIM
 62
     0
 48
0.05
370
    -2
100
AcDbLine
 10
2378.843466820045
 20
498.152560440709
 30
0.0
 11
2378.843466820045
 21
497.185175936548
 31
0.0
  0
LINE
  5
194E9
330
194E5
100
AcDbEntity
  8
DIM
 62
     0
 48
0.05
370
    -2
100
AcDbLine
 10
2357.840163918515
 20
498.152560440709
 30
0.0
 11
2357.840163918515
 21
497.185175936548
 31
0.0
  0
LINE
  5
194EA
330
194E5
100
AcDbEntity
  8
DIM
 62
     0
 48
0.05
370
    -2
100
AcDbLine
 10
2375.843466820045
 20
497.185175936548
 30
0.0
 11
2360.840163918515
 21
497.185175936548
 31
0.0
  0
INSERT
  5
194EB
330
194E5
100
AcDbEntity
  8
DIM
 62
     0
370
    -2
100
AcDbBlockReference
  2
_DOT
 10
2378.843466820045
 20
497.185175936548
 30
0.0
 41
3.0
 42
3.0
 43
3.0
  0
INSERT
  5
194EC
330
194E5
100
AcDbEntity
  8
DIM
 62
     0
370
    -2
100
AcDbBlockReference
  2
_DOT
 10
2357.840163918515
 20
497.185175936548
 30
0.0
 41
3.0
 42
3.0
 43
3.0
 50
180.0
  0
MTEXT
  5
194ED
330
194E5
100
AcDbEntity
  8
DIM
 62
     0
 48
0.05
100
AcDbMText
 10
2368.341470764727
 20
486.3331759365481
 30
0.0
 40
8.0
 41
0.0
 46
0.0
 71
     5
 72
     1
  1
\A1;G1/2"
  7
ＭＳ ゴシック
 73
     1
 44
1.0
  0
POINT
  5
194EE
330
194E5
100
AcDbEntity
  8
Defpoints
 62
     0
100
AcDbPoint
 10
2378.843466820045
 20
508.152560440709
 30
0.0
  0
POINT
  5
194EF
330
194E5
100
AcDbEntity
  8
Defpoints
 62
     0
100
AcDbPoint
 10
2357.840163918515
 20
508.152560440709
 30
0.0
  0
POINT
  5
194F0
330
194E5
100
AcDbEntity
  8
Defpoints
 62
     0
100
AcDbPoint
 10
2357.840163918515
 20
497.185175936548
 30
0.0
  0
ENDBLK
  5
194E7
330
194E5
100
AcDbEntity
  8
0
100
AcDbBlockEnd
  0
BLOCK
  5
194FC
330
194FB
100
AcDbEntity
  8
0
100
AcDbBlockBegin
  2
*D17
 70
     1
 10
0.0
 20
0.0
 30
0.0
  3
*D17
  1

  0
LINE
  5
194FE
330
194FB
100
AcDbEntity
  8
DIM
 62
     0
 48
0.05
370
    -2
100
AcDbLine
 10
1734.525749916663
 20
468.2188766267828
 30
0.0
 11
1696.027562195969
 21
468.2188766267828
 31
0.0
  0
LINE
  5
194FF
330
194FB
100
AcDbEntity
  8
DIM
 62
     0
 48
0.05
370
    -2
100
AcDbLine
 10
1734.525749916663
 20
418.2188766250188
 30
0.0
 11
1696.027562195969
 21
418.2188766250188
 31
0.0
  0
LINE
  5
19500
330
194FB
100
AcDbEntity
  8
DIM
 62
     0
 48
0.05
370
    -2
100
AcDbLine
 10
1696.027562195969
 20
465.2188766267828
 30
0.0
 11
1696.027562195969
 21
421.2188766250188
 31
0.0
  0
INSERT
  5
19501
330
194FB
100
AcDbEntity
  8
DIM
 62
     0
370
    -2
100
AcDbBlockReference
  2
_DOT
 10
1696.027562195969
 20
468.2188766267828
 30
0.0
 41
3.0
 42
3.0
 43
3.0
 50
90.0
  0
INSERT
  5
19502
330
194FB
100
AcDbEntity
  8
DIM
 62
     0
370
    -2
100
AcDbBlockReference
  2
_DOT
 10
1696.027562195969
 20
418.2188766250188
 30
0.0
 41
3.0
 42
3.0
 43
3.0
 50
270.0
  0
MTEXT
  5
19503
330
194FB
100
AcDbEntity
  8
DIM
 62
     0
 48
0.05
100
AcDbMText
 10
1686.027562195969
 20
443.2188766259008
 30
0.0
 40
8.0
 41
0.0
 46
0.0
 71
     5
 72
     1
  1
\A1;50
  7
ＭＳ ゴシック
 11
0.0
 21
1.0
 31
0.0
 73
     1
 44
1.0
  0
POINT
  5
19504
330
194FB
100
AcDbEntity
  8
Defpoints
 62
     0
100
AcDbPoint
 10
1744.525749916663
 20
468.2188766267828
 30
0.0
  0
POINT
  5
19505
330
194FB
100
AcDbEntity
  8
Defpoints
 62
     0
100
AcDbPoint
 10
1744.525749916663
 20
418.2188766250188
 30
0.0
  0
POINT
  5
19506
330
194FB
100
AcDbEntity
  8
Defpoints
 62
     0
100
AcDbPoint
 10
1696.027562195969
 20
418.2188766250188
 30
0.0
  0
ENDBLK
  5
194FD
330
194FB
100
AcDbEntity
  8
0
100
AcDbBlockEnd
  0
BLOCK
  5
1950B
330
1950A
100
AcDbEntity
  8
0
100
AcDbBlockBegin
  2
*D18
 70
     1
 10
0.0
 20
0.0
 30
0.0
  3
*D18
  1

  0
LINE
  5
1950D
330
1950A
100
AcDbEntity
  8
DIM
 62
     0
 48
0.05
370
    -2
100
AcDbLine
 10
1779.495637322977
 20
363.9774797298098
 30
0.0
 11
1779.495637322977
 21
356.0568328227539
 31
0.0
  0
LINE
  5
1950E
330
1950A
100
AcDbEntity
  8
DIM
 62
     0
 48
0.05
370
    -2
100
AcDbLine
 10
1754.516654121754
 20
365.7342774586793
 30
0.0
 11
1754.516654121754
 21
356.0568328227539
 31
0.0
  0
LINE
  5
1950F
330
1950A
100
AcDbEntity
  8
DIM
 62
     0
 48
0.05
370
    -2
100
AcDbLine
 10
1776.495637322977
 20
356.0568328227539
 30
0.0
 11
1757.516654121754
 21
356.0568328227539
 31
0.0
  0
INSERT
  5
19510
330
1950A
100
AcDbEntity
  8
DIM
 62
     0
370
    -2
100
AcDbBlockReference
  2
_DOT
 10
1779.495637322977
 20
356.0568328227539
 30
0.0
 41
3.0
 42
3.0
 43
3.0
  0
INSERT
  5
19511
330
1950A
100
AcDbEntity
  8
DIM
 62
     0
370
    -2
100
AcDbBlockReference
  2
_DOT
 10
1754.516654121754
 20
356.0568328227539
 30
0.0
 41
3.0
 42
3.0
 43
3.0
 50
180.0
  0
MTEXT
  5
19512
330
1950A
100
AcDbEntity
  8
DIM
 62
     0
 48
0.05
100
AcDbMText
 10
1767.006145722366
 20
366.0568328227539
 30
0.0
 40
8.0
 41
0.0
 46
0.0
 71
     5
 72
     1
  1
\A1;25
  7
ＭＳ ゴシック
 73
     1
 44
1.0
  0
POINT
  5
19513
330
1950A
100
AcDbEntity
  8
Defpoints
 62
     0
100
AcDbPoint
 10
1779.495637322977
 20
373.9774797298098
 30
0.0
  0
POINT
  5
19514
330
1950A
100
AcDbEntity
  8
Defpoints
 62
     0
100
AcDbPoint
 10
1754.516654121754
 20
375.7342774586793
 30
0.0
  0
POINT
  5
19515
330
1950A
100
AcDbEntity
  8
Defpoints
 62
     0
100
AcDbPoint
 10
1754.516654121754
 20
356.0568328227539
 30
0.0
  0
ENDBLK
  5
1950C
330
1950A
100
AcDbEntity
  8
0
100
AcDbBlockEnd
  0
BLOCK
  5
1951A
330
19519
100
AcDbEntity
  8
0
100
AcDbBlockBegin
  2
*D19
 70
     1
 10
0.0
 20
0.0
 30
0.0
  3
*D19
  1

  0
LINE
  5
1951C
330
19519
100
AcDbEntity
  8
DIM
 62
     0
 48
0.05
370
    -2
100
AcDbLine
 10
1754.516654121754
 20
322.4868718260293
 30
0.0
 11
1754.516654121754
 21
312.9274666352233
 31
0.0
  0
LINE
  5
1951D
330
19519
100
AcDbEntity
  8
DIM
 62
     0
 48
0.05
370
    -2
100
AcDbLine
 10
1826.489201360411
 20
322.4868718260293
 30
0.0
 11
1826.489201360411
 21
312.9274666352233
 31
0.0
  0
LINE
  5
1951E
330
19519
100
AcDbEntity
  8
DIM
 62
     0
 48
0.05
370
    -2
100
AcDbLine
 10
1757.516654121754
 20
312.9274666352233
 30
0.0
 11
1823.489201360411
 21
312.9274666352233
 31
0.0
  0
INSERT
  5
1951F
330
19519
100
AcDbEntity
  8
DIM
 62
     0
370
    -2
100
AcDbBlockReference
  2
_DOT
 10
1754.516654121754
 20
312.9274666352233
 30
0.0
 41
3.0
 42
3.0
 43
3.0
 50
180.0
  0
INSERT
  5
19520
330
19519
100
AcDbEntity
  8
DIM
 62
     0
370
    -2
100
AcDbBlockReference
  2
_DOT
 10
1826.489201360411
 20
312.9274666352233
 30
0.0
 41
3.0
 42
3.0
 43
3.0
  0
MTEXT
  5
19521
330
19519
100
AcDbEntity
  8
DIM
 62
     0
 48
0.05
100
AcDbMText
 10
1790.502927741083
 20
322.9274666352233
 30
0.0
 40
8.0
 41
0.0
 46
0.0
 71
     5
 72
     1
  1
\A1;72
  7
ＭＳ ゴシック
 73
     1
 44
1.0
  0
POINT
  5
19522
330
19519
100
AcDbEntity
  8
Defpoints
 62
     0
100
AcDbPoint
 10
1754.516654121754
 20
332.4868718260293
 30
0.0
  0
POINT
  5
19523
330
19519
100
AcDbEntity
  8
Defpoints
 62
     0
100
AcDbPoint
 10
1826.489201360411
 20
332.4868718260293
 30
0.0
  0
POINT
  5
19524
330
19519
100
AcDbEntity
  8
Defpoints
 62
     0
100
AcDbPoint
 10
1826.489201360411
 20
312.9274666352233
 30
0.0
  0
ENDBLK
  5
1951B
330
19519
100
AcDbEntity
  8
0
100
AcDbBlockEnd
  0
BLOCK
  5
19591
330
19590
100
AcDbEntity
  8
0
100
AcDbBlockBegin
  2
*D20
 70
     1
 10
0.0
 20
0.0
 30
0.0
  3
*D20
  1

  0
LINE
  5
19593
330
19590
100
AcDbEntity
  8
DIM
 62
     0
 48
0.05
370
    -2
100
AcDbLine
 10
3057.676624572641
 20
558.4256713310467
 30
0.0
 11
3057.676624572641
 21
548.4256713310467
 31
0.0
  0
LINE
  5
19594
330
19590
100
AcDbEntity
  8
DIM
 62
     0
 48
0.05
370
    -2
100
AcDbLine
 10
3080.498232682921
 20
558.4256713310467
 30
0.0
 11
3080.498232682921
 21
548.4256713310467
 31
0.0
  0
LINE
  5
19595
330
19590
100
AcDbEntity
  8
DIM
 62
     0
 48
0.05
370
    -2
100
AcDbLine
 10
3057.676624572641
 20
548.4256713310467
 30
0.0
 11
3116.892475435488
 21
548.4256713310467
 31
0.0
  0
LINE
  5
19596
330
19590
100
AcDbEntity
  8
DIM
 62
     0
 48
0.05
370
    -2
100
AcDbLine
 10
3057.676624572641
 20
548.4256713310467
 30
0.0
 11
3054.676624572641
 21
548.4256713310467
 31
0.0
  0
LINE
  5
19597
330
19590
100
AcDbEntity
  8
DIM
 62
     0
 48
0.05
370
    -2
100
AcDbLine
 10
3077.498232682921
 20
548.4256713310467
 30
0.0
 11
3074.498232682921
 21
548.4256713310467
 31
0.0
  0
INSERT
  5
19598
330
19590
100
AcDbEntity
  8
DIM
 62
     0
370
    -2
100
AcDbBlockReference
  2
_DOT
 10
3057.676624572641
 20
548.4256713310467
 30
0.0
 41
3.0
 42
3.0
 43
3.0
 50
180.0
  0
INSERT
  5
19599
330
19590
100
AcDbEntity
  8
DIM
 62
     0
370
    -2
100
AcDbBlockReference
  2
_DOT
 10
3080.498232682921
 20
548.4256713310467
 30
0.0
 41
3.0
 42
3.0
 43
3.0
  0
MTEXT
  5
1959A
330
19590
100
AcDbEntity
  8
DIM
 62
     0
 48
0.05
100
AcDbMText
 10
3103.500475435488
 20
558.4256713310467
 30
0.0
 40
8.0
 41
0.0
 46
0.0
 71
     5
 72
     1
  1
\A1;%%c23
  7
ＭＳ ゴシック
 73
     1
 44
1.0
  0
POINT
  5
1959B
330
19590
100
AcDbEntity
  8
Defpoints
 62
     0
100
AcDbPoint
 10
3057.676624572641
 20
548.4256713310467
 30
0.0
  0
POINT
  5
1959C
330
19590
100
AcDbEntity
  8
Defpoints
 62
     0
100
AcDbPoint
 10
3080.498232682921
 20
548.4256713310467
 30
0.0
  0
POINT
  5
1959D
330
19590
100
AcDbEntity
  8
Defpoints
 62
     0
100
AcDbPoint
 10
3080.498232682921
 20
548.4256713310467
 30
0.0
  0
ENDBLK
  5
19592
330
19590
100
AcDbEntity
  8
0
100
AcDbBlockEnd
  0
BLOCK
  5
195A5
330
195A4
100
AcDbEntity
  8
0
100
AcDbBlockBegin
  2
*D21
 70
     1
 10
0.0
 20
0.0
 30
0.0
  3
*D21
  1

  0
LINE
  5
195A7
330
195A4
100
AcDbEntity
  8
DIM
 62
     0
 48
0.05
370
    -2
100
AcDbLine
 10
3058.724950835145
 20
432.0618484971105
 30
0.0
 11
3058.724950835145
 21
415.2605281139338
 31
0.0
  0
LINE
  5
195A8
330
195A4
100
AcDbEntity
  8
DIM
 62
     0
 48
0.05
370
    -2
100
AcDbLine
 10
3079.451251463095
 20
432.0618484971105
 30
0.0
 11
3079.451251463095
 21
415.2605281139338
 31
0.0
  0
LINE
  5
195A9
330
195A4
100
AcDbEntity
  8
DIM
 62
     0
 48
0.05
370
    -2
100
AcDbLine
 10
3061.724950835145
 20
415.2605281139338
 30
0.0
 11
3076.451251463095
 21
415.2605281139338
 31
0.0
  0
INSERT
  5
195AA
330
195A4
100
AcDbEntity
  8
DIM
 62
     0
370
    -2
100
AcDbBlockReference
  2
_DOT
 10
3058.724950835145
 20
415.2605281139338
 30
0.0
 41
3.0
 42
3.0
 43
3.0
 50
180.0
  0
INSERT
  5
195AB
330
195A4
100
AcDbEntity
  8
DIM
 62
     0
370
    -2
100
AcDbBlockReference
  2
_DOT
 10
3079.451251463095
 20
415.2605281139338
 30
0.0
 41
3.0
 42
3.0
 43
3.0
  0
MTEXT
  5
195AC
330
195A4
100
AcDbEntity
  8
DIM
 62
     0
 48
0.05
100
AcDbMText
 10
3069.087832140584
 20
404.4085281139338
 30
0.0
 40
8.0
 41
0.0
 46
0.0
 71
     5
 72
     1
  1
\A1;G1/2"
  7
ＭＳ ゴシック
 73
     1
 44
1.0
  0
POINT
  5
195AD
330
195A4
100
AcDbEntity
  8
Defpoints
 62
     0
100
AcDbPoint
 10
3058.724950835145
 20
442.0618484971105
 30
0.0
  0
POINT
  5
195AE
330
195A4
100
AcDbEntity
  8
Defpoints
 62
     0
100
AcDbPoint
 10
3079.451251463095
 20
442.0618484971105
 30
0.0
  0
POINT
  5
195AF
330
195A4
100
AcDbEntity
  8
Defpoints
 62
     0
100
AcDbPoint
 10
3079.451251463095
 20
415.2605281139338
 30
0.0
  0
ENDBLK
  5
195A6
330
195A4
100
AcDbEntity
  8
0
100
AcDbBlockEnd
  0
BLOCK
  5
195B5
330
195B4
100
AcDbEntity
  8
0
100
AcDbBlockBegin
  2
*D22
 70
     1
 10
0.0
 20
0.0
 30
0.0
  3
*D22
  1

  0
LINE
  5
195B7
330
195B4
100
AcDbEntity
  8
DIM
 62
     0
 48
0.05
370
    -2
100
AcDbLine
 10
3044.743893519571
 20
635.9438322081039
 30
0.0
 11
3029.828591978173
 21
635.9438322081039
 31
0.0
  0
LINE
  5
195B8
330
195B4
100
AcDbEntity
  8
DIM
 62
     0
 48
0.05
370
    -2
100
AcDbLine
 10
3046.627760293067
 20
443.9438322108585
 30
0.0
 11
3029.828591978173
 21
443.9438322108585
 31
0.0
  0
LINE
  5
195B9
330
195B4
100
AcDbEntity
  8
DIM
 62
     0
 48
0.05
370
    -2
100
AcDbLine
 10
3029.828591978173
 20
632.9438322081039
 30
0.0
 11
3029.828591978173
 21
446.9438322108585
 31
0.0
  0
INSERT
  5
195BA
330
195B4
100
AcDbEntity
  8
DIM
 62
     0
370
    -2
100
AcDbBlockReference
  2
_DOT
 10
3029.828591978173
 20
635.9438322081039
 30
0.0
 41
3.0
 42
3.0
 43
3.0
 50
90.0
  0
INSERT
  5
195BB
330
195B4
100
AcDbEntity
  8
DIM
 62
     0
370
    -2
100
AcDbBlockReference
  2
_DOT
 10
3029.828591978173
 20
443.9438322108585
 30
0.0
 41
3.0
 42
3.0
 43
3.0
 50
270.0
  0
MTEXT
  5
195BC
330
195B4
100
AcDbEntity
  8
DIM
 62
     0
 48
0.05
100
AcDbMText
 10
3019.828591978173
 20
539.9438322094812
 30
0.0
 40
8.0
 41
0.0
 46
0.0
 71
     5
 72
     1
  1
\A1;192
  7
ＭＳ ゴシック
 11
0.0
 21
1.0
 31
0.0
 73
     1
 44
1.0
  0
POINT
  5
195BD
330
195B4
100
AcDbEntity
  8
Defpoints
 62
     0
100
AcDbPoint
 10
3054.743893519571
 20
635.9438322081039
 30
0.0
  0
POINT
  5
195BE
330
195B4
100
AcDbEntity
  8
Defpoints
 62
     0
100
AcDbPoint
 10
3056.627760293067
 20
443.9438322108585
 30
0.0
  0
POINT
  5
195BF
330
195B4
100
AcDbEntity
  8
Defpoints
 62
     0
100
AcDbPoint
 10
3029.828591978173
 20
443.9438322108585
 30
0.0
  0
ENDBLK
  5
195B6
330
195B4
100
AcDbEntity
  8
0
100
AcDbBlockEnd
  0
BLOCK
  5
195C4
330
195C3
100
AcDbEntity
  8
0
100
AcDbBlockBegin
  2
*D23
 70
     1
 10
0.0
 20
0.0
 30
0.0
  3
*D23
  1

  0
LINE
  5
195C6
330
195C3
100
AcDbEntity
  8
DIM
 62
     0
 48
0.05
370
    -2
100
AcDbLine
 10
1024.264418077893
 20
-718.2088670303688
 30
0.0
 11
996.1145372665214
 21
-718.2088670303688
 31
0.0
  0
LINE
  5
195C7
330
195C3
100
AcDbEntity
  8
DIM
 62
     0
 48
0.05
370
    -2
100
AcDbLine
 10
1024.264418077893
 20
-768.2088670303688
 30
0.0
 11
996.1145372665214
 21
-768.2088670303688
 31
0.0
  0
LINE
  5
195C8
330
195C3
100
AcDbEntity
  8
DIM
 62
     0
 48
0.05
370
    -2
100
AcDbLine
 10
996.1145372665214
 20
-721.2088670303688
 30
0.0
 11
996.1145372665214
 21
-765.2088670303688
 31
0.0
  0
INSERT
  5
195C9
330
195C3
100
AcDbEntity
  8
DIM
 62
     0
370
    -2
100
AcDbBlockReference
  2
_DOT
 10
996.1145372665214
 20
-718.2088670303688
 30
0.0
 41
3.0
 42
3.0
 43
3.0
 50
90.0
  0
INSERT
  5
195CA
330
195C3
100
AcDbEntity
  8
DIM
 62
     0
370
    -2
100
AcDbBlockReference
  2
_DOT
 10
996.1145372665214
 20
-768.2088670303688
 30
0.0
 41
3.0
 42
3.0
 43
3.0
 50
270.0
  0
MTEXT
  5
195CB
330
195C3
100
AcDbEntity
  8
DIM
 62
     0
 48
0.05
100
AcDbMText
 10
986.1145372665214
 20
-743.2088670303688
 30
0.0
 40
8.0
 41
0.0
 46
0.0
 71
     5
 72
     1
  1
\A1;50
  7
ＭＳ ゴシック
 11
0.0
 21
1.0
 31
0.0
 73
     1
 44
1.0
  0
POINT
  5
195CC
330
195C3
100
AcDbEntity
  8
Defpoints
 62
     0
100
AcDbPoint
 10
1034.264418077893
 20
-718.2088670303688
 30
0.0
  0
POINT
  5
195CD
330
195C3
100
AcDbEntity
  8
Defpoints
 62
     0
100
AcDbPoint
 10
1034.264418077893
 20
-768.2088670303688
 30
0.0
  0
POINT
  5
195CE
330
195C3
100
AcDbEntity
  8
Defpoints
 62
     0
100
AcDbPoint
 10
996.1145372665214
 20
-768.2088670303688
 30
0.0
  0
ENDBLK
  5
195C5
330
195C3
100
AcDbEntity
  8
0
100
AcDbBlockEnd
  0
BLOCK
  5
195D3
330
195D2
100
AcDbEntity
  8
0
100
AcDbBlockBegin
  2
*D24
 70
     1
 10
0.0
 20
0.0
 30
0.0
  3
*D24
  1

  0
LINE
  5
195D5
330
195D2
100
AcDbEntity
  8
DIM
 62
     0
 48
0.05
370
    -2
100
AcDbLine
 10
1041.748978587012
 20
-803.6123894582609
 30
0.0
 11
1041.748978587012
 21
-816.8013472247846
 31
0.0
  0
LINE
  5
195D6
330
195D2
100
AcDbEntity
  8
DIM
 62
     0
 48
0.05
370
    -2
100
AcDbLine
 10
1075.710940129421
 20
-809.0662506140415
 30
0.0
 11
1075.710940129421
 21
-816.8013472247846
 31
0.0
  0
LINE
  5
195D7
330
195D2
100
AcDbEntity
  8
DIM
 62
     0
 48
0.05
370
    -2
100
AcDbLine
 10
1044.748978587012
 20
-816.8013472247846
 30
0.0
 11
1072.710940129421
 21
-816.8013472247846
 31
0.0
  0
INSERT
  5
195D8
330
195D2
100
AcDbEntity
  8
DIM
 62
     0
370
    -2
100
AcDbBlockReference
  2
_DOT
 10
1041.748978587012
 20
-816.8013472247846
 30
0.0
 41
3.0
 42
3.0
 43
3.0
 50
180.0
  0
INSERT
  5
195D9
330
195D2
100
AcDbEntity
  8
DIM
 62
     0
370
    -2
100
AcDbBlockReference
  2
_DOT
 10
1075.710940129421
 20
-816.8013472247846
 30
0.0
 41
3.0
 42
3.0
 43
3.0
  0
MTEXT
  5
195DA
330
195D2
100
AcDbEntity
  8
DIM
 62
     0
 48
0.05
100
AcDbMText
 10
1058.729959358216
 20
-806.8013472247846
 30
0.0
 40
8.0
 41
0.0
 46
0.0
 71
     5
 72
     1
  1
\A1;34
  7
ＭＳ ゴシック
 73
     1
 44
1.0
  0
POINT
  5
195DB
330
195D2
100
AcDbEntity
  8
Defpoints
 62
     0
100
AcDbPoint
 10
1041.748978587012
 20
-793.6123894582609
 30
0.0
  0
POINT
  5
195DC
330
195D2
100
AcDbEntity
  8
Defpoints
 62
     0
100
AcDbPoint
 10
1075.710940129421
 20
-799.0662506140415
 30
0.0
  0
POINT
  5
195DD
330
195D2
100
AcDbEntity
  8
Defpoints
 62
     0
100
AcDbPoint
 10
1075.710940129421
 20
-816.8013472247846
 30
0.0
  0
ENDBLK
  5
195D4
330
195D2
100
AcDbEntity
  8
0
100
AcDbBlockEnd
  0
BLOCK
  5
195E2
330
195E1
100
AcDbEntity
  8
0
100
AcDbBlockBegin
  2
*D25
 70
     1
 10
0.0
 20
0.0
 30
0.0
  3
*D25
  1

  0
LINE
  5
195E4
330
195E1
100
AcDbEntity
  8
DIM
 62
     0
 48
0.05
370
    -2
100
AcDbLine
 10
3708.970781358666
 20
441.5363199958488
 30
0.0
 11
3708.970781358666
 21
425.9495368325747
 31
0.0
  0
LINE
  5
195E5
330
195E1
100
AcDbEntity
  8
DIM
 62
     0
 48
0.05
370
    -2
100
AcDbLine
 10
3741.970768679992
 20
436.5368373491924
 30
0.0
 11
3741.970768679992
 21
425.9495368325747
 31
0.0
  0
LINE
  5
195E6
330
195E1
100
AcDbEntity
  8
DIM
 62
     0
 48
0.05
370
    -2
100
AcDbLine
 10
3711.970781358666
 20
425.9495368325747
 30
0.0
 11
3738.970768679992
 21
425.9495368325747
 31
0.0
  0
INSERT
  5
195E7
330
195E1
100
AcDbEntity
  8
DIM
 62
     0
370
    -2
100
AcDbBlockReference
  2
_DOT
 10
3708.970781358666
 20
425.9495368325747
 30
0.0
 41
3.0
 42
3.0
 43
3.0
 50
180.0
  0
INSERT
  5
195E8
330
195E1
100
AcDbEntity
  8
DIM
 62
     0
370
    -2
100
AcDbBlockReference
  2
_DOT
 10
3741.970768679992
 20
425.9495368325747
 30
0.0
 41
3.0
 42
3.0
 43
3.0
  0
MTEXT
  5
195E9
330
195E1
100
AcDbEntity
  8
DIM
 62
     0
 48
0.05
100
AcDbMText
 10
3725.470775019329
 20
435.9495368325747
 30
0.0
 40
8.0
 41
0.0
 46
0.0
 71
     5
 72
     1
  1
\A1;33
  7
ＭＳ ゴシック
 73
     1
 44
1.0
  0
POINT
  5
195EA
330
195E1
100
AcDbEntity
  8
Defpoints
 62
     0
100
AcDbPoint
 10
3708.970781358666
 20
451.5363199958488
 30
0.0
  0
POINT
  5
195EB
330
195E1
100
AcDbEntity
  8
Defpoints
 62
     0
100
AcDbPoint
 10
3741.970768679992
 20
446.5368373491924
 30
0.0
  0
POINT
  5
195EC
330
195E1
100
AcDbEntity
  8
Defpoints
 62
     0
100
AcDbPoint
 10
3741.970768679992
 20
425.9495368325747
 30
0.0
  0
ENDBLK
  5
195E3
330
195E1
100
AcDbEntity
  8
0
100
AcDbBlockEnd
  0
BLOCK
  5
1965E
330
1965D
100
AcDbEntity
  8
0
100
AcDbBlockBegin
  2
*D26
 70
     1
 10
0.0
 20
0.0
 30
0.0
  3
*D26
  1

  0
LINE
  5
19660
330
1965D
100
AcDbEntity
  8
DIM
 62
     0
 48
0.05
370
    -2
100
AcDbLine
 10
2383.921366105923
 20
290.4359008183758
 30
0.0
 11
2376.016723912443
 21
290.4359008183758
 31
0.0
  0
LINE
  5
19661
330
1965D
100
AcDbEntity
  8
DIM
 62
     0
 48
0.05
370
    -2
100
AcDbLine
 10
2382.368616249861
 20
264.7056456546975
 30
0.0
 11
2376.016723912443
 21
264.7056456546975
 31
0.0
  0
LINE
  5
19662
330
1965D
100
AcDbEntity
  8
DIM
 62
     0
 48
0.05
370
    -2
100
AcDbLine
 10
2376.016723912443
 20
287.4359008183758
 30
0.0
 11
2376.016723912443
 21
267.7056456546975
 31
0.0
  0
INSERT
  5
19663
330
1965D
100
AcDbEntity
  8
DIM
 62
     0
370
    -2
100
AcDbBlockReference
  2
_DOT
 10
2376.016723912443
 20
290.4359008183758
 30
0.0
 41
3.0
 42
3.0
 43
3.0
 50
90.0
  0
INSERT
  5
19664
330
1965D
100
AcDbEntity
  8
DIM
 62
     0
370
    -2
100
AcDbBlockReference
  2
_DOT
 10
2376.016723912443
 20
264.7056456546975
 30
0.0
 41
3.0
 42
3.0
 43
3.0
 50
270.0
  0
MTEXT
  5
19665
330
1965D
100
AcDbEntity
  8
DIM
 62
     0
 48
0.05
100
AcDbMText
 10
2366.016723912443
 20
277.5707732365366
 30
0.0
 40
8.0
 41
0.0
 46
0.0
 71
     5
 72
     1
  1
\A1;26
  7
ＭＳ ゴシック
 11
0.0
 21
1.0
 31
0.0
 73
     1
 44
1.0
  0
POINT
  5
19666
330
1965D
100
AcDbEntity
  8
Defpoints
 62
     0
100
AcDbPoint
 10
2393.921366105923
 20
290.4359008183758
 30
0.0
  0
POINT
  5
19667
330
1965D
100
AcDbEntity
  8
Defpoints
 62
     0
100
AcDbPoint
 10
2392.368616249861
 20
264.7056456546975
 30
0.0
  0
POINT
  5
19668
330
1965D
100
AcDbEntity
  8
Defpoints
 62
     0
100
AcDbPoint
 10
2376.016723912443
 20
264.7056456546975
 30
0.0
  0
ENDBLK
  5
1965F
330
1965D
100
AcDbEntity
  8
0
100
AcDbBlockEnd
  0
BLOCK
  5
1966D
330
1966C
100
AcDbEntity
  8
0
100
AcDbBlockBegin
  2
*D27
 70
     1
 10
0.0
 20
0.0
 30
0.0
  3
*D27
  1

  0
LINE
  5
1966F
330
1966C
100
AcDbEntity
  8
DIM
 62
     0
 48
0.05
370
    -2
100
AcDbLine
 10
2506.533111750377
 20
320.2567189630997
 30
0.0
 11
2506.533111750377
 21
328.0390410830915
 31
0.0
  0
LINE
  5
19670
330
1966C
100
AcDbEntity
  8
DIM
 62
     0
 48
0.05
370
    -2
100
AcDbLine
 10
2527.201560514773
 20
320.2567189630997
 30
0.0
 11
2527.201560514773
 21
328.0390410830915
 31
0.0
  0
LINE
  5
19671
330
1966C
100
AcDbEntity
  8
DIM
 62
     0
 48
0.05
370
    -2
100
AcDbLine
 10
2509.533111750377
 20
328.0390410830915
 30
0.0
 11
2524.201560514773
 21
328.0390410830915
 31
0.0
  0
INSERT
  5
19672
330
1966C
100
AcDbEntity
  8
DIM
 62
     0
370
    -2
100
AcDbBlockReference
  2
_DOT
 10
2506.533111750377
 20
328.0390410830915
 30
0.0
 41
3.0
 42
3.0
 43
3.0
 50
180.0
  0
INSERT
  5
19673
330
1966C
100
AcDbEntity
  8
DIM
 62
     0
370
    -2
100
AcDbBlockReference
  2
_DOT
 10
2527.201560514773
 20
328.0390410830915
 30
0.0
 41
3.0
 42
3.0
 43
3.0
  0
MTEXT
  5
19674
330
1966C
100
AcDbEntity
  8
DIM
 62
     0
 48
0.05
100
AcDbMText
 10
2516.867336132575
 20
338.8910410830915
 30
0.0
 40
8.0
 41
0.0
 46
0.0
 71
     5
 72
     1
  1
\A1;G1/2"
  7
ＭＳ ゴシック
 73
     1
 44
1.0
  0
POINT
  5
19675
330
1966C
100
AcDbEntity
  8
Defpoints
 62
     0
100
AcDbPoint
 10
2506.533111750377
 20
310.2567189630997
 30
0.0
  0
POINT
  5
19676
330
1966C
100
AcDbEntity
  8
Defpoints
 62
     0
100
AcDbPoint
 10
2527.201560514773
 20
310.2567189630997
 30
0.0
  0
POINT
  5
19677
330
1966C
100
AcDbEntity
  8
Defpoints
 62
     0
100
AcDbPoint
 10
2527.201560514773
 20
328.0390410830915
 30
0.0
  0
ENDBLK
  5
1966E
330
1966C
100
AcDbEntity
  8
0
100
AcDbBlockEnd
  0
BLOCK
  5
1967C
330
1967B
100
AcDbEntity
  8
0
100
AcDbBlockBegin
  2
*D28
 70
     1
 10
0.0
 20
0.0
 30
0.0
  3
*D28
  1

  0
LINE
  5
1967E
330
1967B
100
AcDbEntity
  8
DIM
 62
     0
 48
0.05
370
    -2
100
AcDbLine
 10
2396.869928276802
 20
252.5995298183556
 30
0.0
 11
2396.869928276802
 21
229.9276870585853
 31
0.0
  0
LINE
  5
1967F
330
1967B
100
AcDbEntity
  8
DIM
 62
     0
 48
0.05
370
    -2
100
AcDbLine
 10
2636.869928273483
 20
252.5995298183556
 30
0.0
 11
2636.869928273483
 21
229.9276870585853
 31
0.0
  0
LINE
  5
19680
330
1967B
100
AcDbEntity
  8
DIM
 62
     0
 48
0.05
370
    -2
100
AcDbLine
 10
2399.869928276802
 20
229.9276870585853
 30
0.0
 11
2633.869928273483
 21
229.9276870585853
 31
0.0
  0
INSERT
  5
19681
330
1967B
100
AcDbEntity
  8
DIM
 62
     0
370
    -2
100
AcDbBlockReference
  2
_DOT
 10
2396.869928276802
 20
229.9276870585853
 30
0.0
 41
3.0
 42
3.0
 43
3.0
 50
180.0
  0
INSERT
  5
19682
330
1967B
100
AcDbEntity
  8
DIM
 62
     0
370
    -2
100
AcDbBlockReference
  2
_DOT
 10
2636.869928273483
 20
229.9276870585853
 30
0.0
 41
3.0
 42
3.0
 43
3.0
  0
MTEXT
  5
19683
330
1967B
100
AcDbEntity
  8
DIM
 62
     0
 48
0.05
100
AcDbMText
 10
2516.869928275143
 20
239.9276870585853
 30
0.0
 40
8.0
 41
0.0
 46
0.0
 71
     5
 72
     1
  1
\A1;%%c240
  7
ＭＳ ゴシック
 73
     1
 44
1.0
  0
POINT
  5
19684
330
1967B
100
AcDbEntity
  8
Defpoints
 62
     0
100
AcDbPoint
 10
2396.869928276802
 20
262.5995298183556
 30
0.0
  0
POINT
  5
19685
330
1967B
100
AcDbEntity
  8
Defpoints
 62
     0
100
AcDbPoint
 10
2636.869928273483
 20
262.5995298183556
 30
0.0
  0
POINT
  5
19686
330
1967B
100
AcDbEntity
  8
Defpoints
 62
     0
100
AcDbPoint
 10
2636.869928273483
 20
229.9276870585853
 30
0.0
  0
ENDBLK
  5
1967D
330
1967B
100
AcDbEntity
  8
0
100
AcDbBlockEnd
  0
BLOCK
  5
19695
330
19694
100
AcDbEntity
  8
0
100
AcDbBlockBegin
  2
*D29
 70
     1
 10
0.0
 20
0.0
 30
0.0
  3
*D29
  1

  0
LINE
  5
19697
330
19694
100
AcDbEntity
  8
DIM
 62
     0
 48
0.05
370
    -2
100
AcDbLine
 10
1000.82463065906
 20
450.1563861915806
 30
0.0
 11
1000.82463065906
 21
376.2171616873546
 31
0.0
  0
LINE
  5
19698
330
19694
100
AcDbEntity
  8
DIM
 62
     0
 48
0.05
370
    -2
100
AcDbLine
 10
1200.82463065906
 20
394.7341983552043
 30
0.0
 11
1200.82463065906
 21
376.2171616873546
 31
0.0
  0
LINE
  5
19699
330
19694
100
AcDbEntity
  8
DIM
 62
     0
 48
0.05
370
    -2
100
AcDbLine
 10
1003.82463065906
 20
376.2171616873546
 30
0.0
 11
1197.82463065906
 21
376.2171616873546
 31
0.0
  0
INSERT
  5
1969A
330
19694
100
AcDbEntity
  8
DIM
 62
     0
370
    -2
100
AcDbBlockReference
  2
_DOT
 10
1000.82463065906
 20
376.2171616873546
 30
0.0
 41
3.0
 42
3.0
 43
3.0
 50
180.0
  0
INSERT
  5
1969B
330
19694
100
AcDbEntity
  8
DIM
 62
     0
370
    -2
100
AcDbBlockReference
  2
_DOT
 10
1200.82463065906
 20
376.2171616873546
 30
0.0
 41
3.0
 42
3.0
 43
3.0
  0
MTEXT
  5
1969C
330
19694
100
AcDbEntity
  8
DIM
 62
     0
 48
0.05
100
AcDbMText
 10
1100.82463065906
 20
386.2171616873546
 30
0.0
 40
8.0
 41
0.0
 46
0.0
 71
     5
 72
     1
  1
\A1;200
  7
ＭＳ ゴシック
 73
     1
 44
1.0
  0
POINT
  5
1969D
330
19694
100
AcDbEntity
  8
Defpoints
 62
     0
100
AcDbPoint
 10
1000.82463065906
 20
460.1563861915806
 30
0.0
  0
POINT
  5
1969E
330
19694
100
AcDbEntity
  8
Defpoints
 62
     0
100
AcDbPoint
 10
1200.82463065906
 20
404.7341983552043
 30
0.0
  0
POINT
  5
1969F
330
19694
100
AcDbEntity
  8
Defpoints
 62
     0
100
AcDbPoint
 10
1200.82463065906
 20
376.2171616873546
 30
0.0
  0
ENDBLK
  5
19696
330
19694
100
AcDbEntity
  8
0
100
AcDbBlockEnd
  0
BLOCK
  5
196A4
330
196A3
100
AcDbEntity
  8
0
100
AcDbBlockBegin
  2
*D30
 70
     1
 10
0.0
 20
0.0
 30
0.0
  3
*D30
  1

  0
LINE
  5
196A6
330
196A3
100
AcDbEntity
  8
DIM
 62
     0
 48
0.05
370
    -2
100
AcDbLine
 10
1000.82463065906
 20
539.830996799884
 30
0.0
 11
1000.82463065906
 21
549.8561243255282
 31
0.0
  0
LINE
  5
196A7
330
196A3
100
AcDbEntity
  8
DIM
 62
     0
 48
0.05
370
    -2
100
AcDbLine
 10
1006.786655975135
 20
539.3701995204877
 30
0.0
 11
1006.786655975135
 21
549.8561243255282
 31
0.0
  0
LINE
  5
196A8
330
196A3
100
AcDbEntity
  8
DIM
 62
     0
 48
0.05
370
    -2
100
AcDbLine
 10
1003.82463065906
 20
549.8561243255282
 30
0.0
 11
1003.786655975135
 21
549.8561243255282
 31
0.0
  0
INSERT
  5
196A9
330
196A3
100
AcDbEntity
  8
DIM
 62
     0
370
    -2
100
AcDbBlockReference
  2
_DOT
 10
1000.82463065906
 20
549.8561243255282
 30
0.0
 41
3.0
 42
3.0
 43
3.0
 50
180.0
  0
INSERT
  5
196AA
330
196A3
100
AcDbEntity
  8
DIM
 62
     0
370
    -2
100
AcDbBlockReference
  2
_DOT
 10
1006.786655975135
 20
549.8561243255282
 30
0.0
 41
3.0
 42
3.0
 43
3.0
  0
MTEXT
  5
196AB
330
196A3
100
AcDbEntity
  8
DIM
 62
     0
 48
0.05
100
AcDbMText
 10
1003.786655975135
 20
559.8561243255282
 30
0.0
 40
8.0
 41
0.0
 46
0.0
 71
     5
 72
     1
  1
\A1;6
  7
ＭＳ ゴシック
 73
     1
 44
1.0
  0
POINT
  5
196AC
330
196A3
100
AcDbEntity
  8
Defpoints
 62
     0
100
AcDbPoint
 10
1000.82463065906
 20
529.830996799884
 30
0.0
  0
POINT
  5
196AD
330
196A3
100
AcDbEntity
  8
Defpoints
 62
     0
100
AcDbPoint
 10
1006.786655975135
 20
529.3701995204877
 30
0.0
  0
POINT
  5
196AE
330
196A3
100
AcDbEntity
  8
Defpoints
 62
     0
100
AcDbPoint
 10
1006.786655975135
 20
549.8561243255282
 30
0.0
  0
ENDBLK
  5
196A5
330
196A3
100
AcDbEntity
  8
0
100
AcDbBlockEnd
  0
BLOCK
  5
196B4
330
196B3
100
AcDbEntity
  8
0
100
AcDbBlockBegin
  2
*D31
 70
     1
 10
0.0
 20
0.0
 30
0.0
  3
*D31
  1

  0
LINE
  5
196B6
330
196B3
100
AcDbEntity
  8
DIM
 62
     0
 48
0.05
370
    -2
100
AcDbLine
 10
1102.385484198438
 20
508.3048842047552
 30
0.0
 11
1090.940379493628
 21
508.3048842047552
 31
0.0
  0
LINE
  5
196B7
330
196B3
100
AcDbEntity
  8
DIM
 62
     0
 48
0.05
370
    -2
100
AcDbLine
 10
1102.385484198438
 20
484.3048842062872
 30
0.0
 11
1090.940379493628
 21
484.3048842062872
 31
0.0
  0
LINE
  5
196B8
330
196B3
100
AcDbEntity
  8
DIM
 62
     0
 48
0.05
370
    -2
100
AcDbLine
 10
1090.940379493628
 20
508.3048842047552
 30
0.0
 11
1090.940379493628
 21
541.3368842047554
 31
0.0
  0
LINE
  5
196B9
330
196B3
100
AcDbEntity
  8
DIM
 62
     0
 48
0.05
370
    -2
100
AcDbLine
 10
1090.940379493628
 20
505.3048842047552
 30
0.0
 11
1090.940379493628
 21
487.3048842062872
 31
0.0
  0
LINE
  5
196BA
330
196B3
100
AcDbEntity
  8
DIM
 62
     0
 48
0.05
370
    -2
100
AcDbLine
 10
1090.940379493628
 20
505.3048842047552
 30
0.0
 11
1090.940379493628
 21
502.3048842047552
 31
0.0
  0
INSERT
  5
196BB
330
196B3
100
AcDbEntity
  8
DIM
 62
     0
370
    -2
100
AcDbBlockReference
  2
_DOT
 10
1090.940379493628
 20
508.3048842047552
 30
0.0
 41
3.0
 42
3.0
 43
3.0
 50
90.0
  0
INSERT
  5
196BC
330
196B3
100
AcDbEntity
  8
DIM
 62
     0
370
    -2
100
AcDbBlockReference
  2
_DOT
 10
1090.940379493628
 20
484.3048842062872
 30
0.0
 41
3.0
 42
3.0
 43
3.0
 50
270.0
  0
MTEXT
  5
196BD
330
196B3
100
AcDbEntity
  8
DIM
 62
     0
 48
0.05
100
AcDbMText
 10
1080.940379493628
 20
527.8208842047553
 30
0.0
 40
8.0
 41
0.0
 46
0.0
 71
     5
 72
     1
  1
\A1;%%c24
  7
ＭＳ ゴシック
 11
0.0
 21
1.0
 31
0.0
 73
     1
 44
1.0
  0
POINT
  5
196BE
330
196B3
100
AcDbEntity
  8
Defpoints
 62
     0
100
AcDbPoint
 10
1112.385484198438
 20
508.3048842047552
 30
0.0
  0
POINT
  5
196BF
330
196B3
100
AcDbEntity
  8
Defpoints
 62
     0
100
AcDbPoint
 10
1112.385484198438
 20
484.3048842062872
 30
0.0
  0
POINT
  5
196C0
330
196B3
100
AcDbEntity
  8
Defpoints
 62
     0
100
AcDbPoint
 10
1090.940379493628
 20
484.3048842062872
 30
0.0
  0
ENDBLK
  5
196B5
330
196B3
100
AcDbEntity
  8
0
100
AcDbBlockEnd
  0
BLOCK
  5
196C8
330
196C7
100
AcDbEntity
  8
0
100
AcDbBlockBegin
  2
*D32
 70
     1
 10
0.0
 20
0.0
 30
0.0
  3
*D32
  1

  0
ARC
  5
196CA
330
196C7
100
AcDbEntity
  8
DIM
 62
     0
 48
0.05
370
    -2
100
AcDbCircle
 10
1200.82463065906
 20
457.5411405221303
 30
0.0
 40
39.93875508865501
100
AcDbArc
 50
274.3047855040609
 51
295.6927612022703
  0
INSERT
  5
196CB
330
196C7
100
AcDbEntity
  8
DIM
 62
     0
370
    -2
100
AcDbBlockReference
  2
_DOT
 10
1200.82463065906
 20
417.6023854334753
 30
0.0
 41
3.0
 42
3.0
 43
3.0
 50
182.1523927520304
  0
INSERT
  5
196CC
330
196C7
100
AcDbEntity
  8
DIM
 62
     0
370
    -2
100
AcDbBlockReference
  2
_DOT
 10
1220.792527195305
 20
422.95230900169
 30
0.0
 41
3.0
 42
3.0
 43
3.0
 50
27.8451539543007
  0
MTEXT
  5
196CD
330
196C7
100
AcDbEntity
  8
DIM
 62
     0
 48
0.05
100
AcDbMText
 10
1208.536499770298
 20
428.7575882805327
 30
0.0
 40
8.0
 41
0.0
 46
0.0
 71
     5
 72
     1
  1
\A1;30%%d
  7
ＭＳ ゴシック
 11
0.9659313671313753
 21
0.2587983655120573
 31
0.0
 73
     1
 44
1.0
  0
POINT
  5
196CE
330
196C7
100
AcDbEntity
  8
Defpoints
 62
     0
100
AcDbPoint
 10
1207.759361324639
 20
418.2090458839415
 30
0.0
  0
POINT
  5
196CF
330
196C7
100
AcDbEntity
  8
Defpoints
 62
     0
100
AcDbPoint
 10
1200.82463065906
 20
414.7341983552043
 30
0.0
  0
POINT
  5
196D0
330
196C7
100
AcDbEntity
  8
Defpoints
 62
     0
100
AcDbPoint
 10
1203.731110915818
 20
452.5064712100171
 30
0.0
  0
POINT
  5
196D1
330
196C7
100
AcDbEntity
  8
Defpoints
 62
     0
100
AcDbPoint
 10
1223.146943145827
 20
418.8739376773066
 30
0.0
  0
POINT
  5
196D2
330
196C7
100
AcDbEntity
  8
Defpoints
 62
     0
100
AcDbPoint
 10
1200.82463065906
 20
539.865546608369
 30
0.0
  0
ENDBLK
  5
196C9
330
196C7
100
AcDbEntity
  8
0
100
AcDbBlockEnd
  0
BLOCK
  5
196D7
330
196D6
100
AcDbEntity
  8
0
100
AcDbBlockBegin
  2
*D33
 70
     1
 10
0.0
 20
0.0
 30
0.0
  3
*D33
  1

  0
LINE
  5
196D9
330
196D6
100
AcDbEntity
  8
DIM
 62
     0
 48
0.05
370
    -2
100
AcDbLine
 10
820.6024504325133
 20
467.7595209455314
 30
0.0
 11
820.6024504325133
 21
423.2889549953138
 31
0.0
  0
LINE
  5
196DA
330
196D6
100
AcDbEntity
  8
DIM
 62
     0
 48
0.05
370
    -2
100
AcDbLine
 10
885.7182637667285
 20
467.7595209455314
 30
0.0
 11
885.7182637667285
 21
423.2889549953138
 31
0.0
  0
LINE
  5
196DB
330
196D6
100
AcDbEntity
  8
DIM
 62
     0
 48
0.05
370
    -2
100
AcDbLine
 10
823.6024504325133
 20
423.2889549953138
 30
0.0
 11
882.7182637667285
 21
423.2889549953138
 31
0.0
  0
INSERT
  5
196DC
330
196D6
100
AcDbEntity
  8
DIM
 62
     0
370
    -2
100
AcDbBlockReference
  2
_DOT
 10
820.6024504325133
 20
423.2889549953138
 30
0.0
 41
3.0
 42
3.0
 43
3.0
 50
180.0
  0
INSERT
  5
196DD
330
196D6
100
AcDbEntity
  8
DIM
 62
     0
370
    -2
100
AcDbBlockReference
  2
_DOT
 10
885.7182637667285
 20
423.2889549953138
 30
0.0
 41
3.0
 42
3.0
 43
3.0
  0
MTEXT
  5
196DE
330
196D6
100
AcDbEntity
  8
DIM
 62
     0
 48
0.05
100
AcDbMText
 10
853.1603570996208
 20
433.2889549953138
 30
0.0
 40
8.0
 41
0.0
 46
0.0
 71
     5
 72
     1
  1
\A1;%%c65
  7
ＭＳ ゴシック
 73
     1
 44
1.0
  0
POINT
  5
196DF
330
196D6
100
AcDbEntity
  8
Defpoints
 62
     0
100
AcDbPoint
 10
820.6024504325133
 20
477.7595209455314
 30
0.0
  0
POINT
  5
196E0
330
196D6
100
AcDbEntity
  8
Defpoints
 62
     0
100
AcDbPoint
 10
885.7182637667285
 20
477.7595209455314
 30
0.0
  0
POINT
  5
196E1
330
196D6
100
AcDbEntity
  8
Defpoints
 62
     0
100
AcDbPoint
 10
885.7182637667285
 20
423.2889549953138
 30
0.0
  0
ENDBLK
  5
196D8
330
196D6
100
AcDbEntity
  8
0
100
AcDbBlockEnd
  0
BLOCK
  5
196E9
330
196E8
100
AcDbEntity
  8
0
100
AcDbBlockBegin
  2
*D34
 70
     1
 10
0.0
 20
0.0
 30
0.0
  3
*D34
  1

  0
LINE
  5
196EB
330
196E8
100
AcDbEntity
  8
DIM
 62
     0
 48
0.05
370
    -2
100
AcDbLine
 10
827.9080393376794
 20
452.5064712100171
 30
0.0
 11
794.4523828313504
 21
452.5064712100171
 31
0.0
  0
LINE
  5
196EC
330
196E8
100
AcDbEntity
  8
DIM
 62
     0
 48
0.05
370
    -2
100
AcDbLine
 10
827.9080393376794
 20
529.8569340805758
 30
0.0
 11
794.4523828313504
 21
529.8569340805758
 31
0.0
  0
LINE
  5
196ED
330
196E8
100
AcDbEntity
  8
DIM
 62
     0
 48
0.05
370
    -2
100
AcDbLine
 10
794.4523828313504
 20
455.5064712100171
 30
0.0
 11
794.4523828313504
 21
526.8569340805758
 31
0.0
  0
INSERT
  5
196EE
330
196E8
100
AcDbEntity
  8
DIM
 62
     0
370
    -2
100
AcDbBlockReference
  2
_DOT
 10
794.4523828313504
 20
452.5064712100171
 30
0.0
 41
3.0
 42
3.0
 43
3.0
 50
270.0
  0
INSERT
  5
196EF
330
196E8
100
AcDbEntity
  8
DIM
 62
     0
370
    -2
100
AcDbBlockReference
  2
_DOT
 10
794.4523828313504
 20
529.8569340805758
 30
0.0
 41
3.0
 42
3.0
 43
3.0
 50
90.0
  0
MTEXT
  5
196F0
330
196E8
100
AcDbEntity
  8
DIM
 62
     0
 48
0.05
100
AcDbMText
 10
784.4523828313504
 20
491.1817026452965
 30
0.0
 40
8.0
 41
0.0
 46
0.0
 71
     5
 72
     1
  1
\A1;77
  7
ＭＳ ゴシック
 11
0.0
 21
1.0
 31
0.0
 73
     1
 44
1.0
  0
POINT
  5
196F1
330
196E8
100
AcDbEntity
  8
Defpoints
 62
     0
100
AcDbPoint
 10
837.9080393376794
 20
452.5064712100171
 30
0.0
  0
POINT
  5
196F2
330
196E8
100
AcDbEntity
  8
Defpoints
 62
     0
100
AcDbPoint
 10
837.9080393376794
 20
529.8569340805758
 30
0.0
  0
POINT
  5
196F3
330
196E8
100
AcDbEntity
  8
Defpoints
 62
     0
100
AcDbPoint
 10
794.4523828313504
 20
529.8569340805758
 30
0.0
  0
ENDBLK
  5
196EA
330
196E8
100
AcDbEntity
  8
0
100
AcDbBlockEnd
  0
BLOCK
  5
196FB
330
196FA
100
AcDbEntity
  8
0
100
AcDbBlockBegin
  2
*D35
 70
     1
 10
0.0
 20
0.0
 30
0.0
  3
*D35
  1

  0
LINE
  5
196FD
330
196FA
100
AcDbEntity
  8
DIM
 62
     0
 48
0.05
370
    -2
100
AcDbLine
 10
110.9571386908655
 20
576.443487310709
 30
0.0
 11
101.3604556424525
 21
576.443487310709
 31
0.0
  0
LINE
  5
196FE
330
196FA
100
AcDbEntity
  8
DIM
 62
     0
 48
0.05
370
    -2
100
AcDbLine
 10
110.9571386908655
 20
511.4972262578772
 30
0.0
 11
101.3604556424525
 21
511.4972262578772
 31
0.0
  0
LINE
  5
196FF
330
196FA
100
AcDbEntity
  8
DIM
 62
     0
 48
0.05
370
    -2
100
AcDbLine
 10
101.3604556424525
 20
573.443487310709
 30
0.0
 11
101.3604556424525
 21
514.4972262578772
 31
0.0
  0
INSERT
  5
19700
330
196FA
100
AcDbEntity
  8
DIM
 62
     0
370
    -2
100
AcDbBlockReference
  2
_DOT
 10
101.3604556424525
 20
576.443487310709
 30
0.0
 41
3.0
 42
3.0
 43
3.0
 50
90.0
  0
INSERT
  5
19701
330
196FA
100
AcDbEntity
  8
DIM
 62
     0
370
    -2
100
AcDbBlockReference
  2
_DOT
 10
101.3604556424525
 20
511.4972262578772
 30
0.0
 41
3.0
 42
3.0
 43
3.0
 50
270.0
  0
MTEXT
  5
19702
330
196FA
100
AcDbEntity
  8
DIM
 62
     0
 48
0.05
100
AcDbMText
 10
91.36045564245251
 20
543.970356784293
 30
0.0
 40
8.0
 41
0.0
 46
0.0
 71
     5
 72
     1
  1
\A1;%%c65
  7
ＭＳ ゴシック
 11
0.0
 21
1.0
 31
0.0
 73
     1
 44
1.0
  0
POINT
  5
19703
330
196FA
100
AcDbEntity
  8
Defpoints
 62
     0
100
AcDbPoint
 10
120.9571386908655
 20
576.443487310709
 30
0.0
  0
POINT
  5
19704
330
196FA
100
AcDbEntity
  8
Defpoints
 62
     0
100
AcDbPoint
 10
120.9571386908655
 20
511.4972262578772
 30
0.0
  0
POINT
  5
19705
330
196FA
100
AcDbEntity
  8
Defpoints
 62
     0
100
AcDbPoint
 10
101.3604556424525
 20
511.4972262578772
 30
0.0
  0
ENDBLK
  5
196FC
330
196FA
100
AcDbEntity
  8
0
100
AcDbBlockEnd
  0
BLOCK
  5
1970A
330
19709
100
AcDbEntity
  8
0
100
AcDbBlockBegin
  2
*D36
 70
     1
 10
0.0
 20
0.0
 30
0.0
  3
*D36
  1

  0
LINE
  5
1970C
330
19709
100
AcDbEntity
  8
DIM
 62
     0
 48
0.05
370
    -2
100
AcDbLine
 10
110.8755009238297
 20
581.3905208732862
 30
0.0
 11
72.62401533800698
 21
581.3905208732862
 31
0.0
  0
LINE
  5
1970D
330
19709
100
AcDbEntity
  8
DIM
 62
     0
 48
0.05
370
    -2
100
AcDbLine
 10
110.9571386908655
 20
511.4972262578772
 30
0.0
 11
72.62401533800698
 21
511.4972262578772
 31
0.0
  0
LINE
  5
1970E
330
19709
100
AcDbEntity
  8
DIM
 62
     0
 48
0.05
370
    -2
100
AcDbLine
 10
72.62401533800698
 20
578.3905208732862
 30
0.0
 11
72.62401533800698
 21
514.4972262578772
 31
0.0
  0
INSERT
  5
1970F
330
19709
100
AcDbEntity
  8
DIM
 62
     0
370
    -2
100
AcDbBlockReference
  2
_DOT
 10
72.62401533800698
 20
581.3905208732862
 30
0.0
 41
3.0
 42
3.0
 43
3.0
 50
90.0
  0
INSERT
  5
19710
330
19709
100
AcDbEntity
  8
DIM
 62
     0
370
    -2
100
AcDbBlockReference
  2
_DOT
 10
72.62401533800698
 20
511.4972262578772
 30
0.0
 41
3.0
 42
3.0
 43
3.0
 50
270.0
  0
MTEXT
  5
19711
330
19709
100
AcDbEntity
  8
DIM
 62
     0
 48
0.05
100
AcDbMText
 10
62.62401533800698
 20
546.4438735655817
 30
0.0
 40
8.0
 41
0.0
 46
0.0
 71
     5
 72
     1
  1
\A1;70
  7
ＭＳ ゴシック
 11
0.0
 21
1.0
 31
0.0
 73
     1
 44
1.0
  0
POINT
  5
19712
330
19709
100
AcDbEntity
  8
Defpoints
 62
     0
100
AcDbPoint
 10
120.8755009238297
 20
581.3905208732862
 30
0.0
  0
POINT
  5
19713
330
19709
100
AcDbEntity
  8
Defpoints
 62
     0
100
AcDbPoint
 10
120.9571386908655
 20
511.4972262578772
 30
0.0
  0
POINT
  5
19714
330
19709
100
AcDbEntity
  8
Defpoints
 62
     0
100
AcDbPoint
 10
72.62401533800698
 20
511.4972262578772
 30
0.0
  0
ENDBLK
  5
1970B
330
19709
100
AcDbEntity
  8
0
100
AcDbBlockEnd
  0
BLOCK
  5
1971C
330
1971B
100
AcDbEntity
  8
0
100
AcDbBlockBegin
  2
*D37
 70
     1
 10
0.0
 20
0.0
 30
0.0
  3
*D37
  1

  0
LINE
  5
1971E
330
1971B
100
AcDbEntity
  8
DIM
 62
     0
 48
0.05
370
    -2
100
AcDbLine
 10
123.5108776380337
 20
588.9961566289988
 30
0.0
 11
123.5108776380337
 21
595.6945745750709
 31
0.0
  0
LINE
  5
1971F
330
1971B
100
AcDbEntity
  8
DIM
 62
     0
 48
0.05
370
    -2
100
AcDbLine
 10
183.3512652398465
 20
594.2635440406553
 30
0.0
 11
183.3512652398465
 21
595.6945745750709
 31
0.0
  0
LINE
  5
19720
330
1971B
100
AcDbEntity
  8
DIM
 62
     0
 48
0.05
370
    -2
100
AcDbLine
 10
126.5108776380337
 20
595.6945745750709
 30
0.0
 11
180.3512652398465
 21
595.6945745750709
 31
0.0
  0
INSERT
  5
19721
330
1971B
100
AcDbEntity
  8
DIM
 62
     0
370
    -2
100
AcDbBlockReference
  2
_DOT
 10
123.5108776380337
 20
595.6945745750709
 30
0.0
 41
3.0
 42
3.0
 43
3.0
 50
180.0
  0
INSERT
  5
19722
330
1971B
100
AcDbEntity
  8
DIM
 62
     0
370
    -2
100
AcDbBlockReference
  2
_DOT
 10
183.3512652398465
 20
595.6945745750709
 30
0.0
 41
3.0
 42
3.0
 43
3.0
  0
MTEXT
  5
19723
330
1971B
100
AcDbEntity
  8
DIM
 62
     0
 48
0.05
100
AcDbMText
 10
153.4310714389401
 20
605.6945745750709
 30
0.0
 40
8.0
 41
0.0
 46
0.0
 71
     5
 72
     1
  1
\A1;46-60
  7
ＭＳ ゴシック
 73
     1
 44
1.0
  0
POINT
  5
19724
330
1971B
100
AcDbEntity
  8
Defpoints
 62
     0
100
AcDbPoint
 10
123.5108776380337
 20
578.9961566289988
 30
0.0
  0
POINT
  5
19725
330
1971B
100
AcDbEntity
  8
Defpoints
 62
     0
100
AcDbPoint
 10
183.3512652398465
 20
584.2635440406553
 30
0.0
  0
POINT
  5
19726
330
1971B
100
AcDbEntity
  8
Defpoints
 62
     0
100
AcDbPoint
 10
183.3512652398465
 20
595.6945745750709
 30
0.0
  0
ENDBLK
  5
1971D
330
1971B
100
AcDbEntity
  8
0
100
AcDbBlockEnd
  0
BLOCK
  5
1972E
330
1972D
100
AcDbEntity
  8
0
100
AcDbBlockBegin
  2
*D38
 70
     1
 10
0.0
 20
0.0
 30
0.0
  3
*D38
  1

  0
LINE
  5
19730
330
1972D
100
AcDbEntity
  8
DIM
 62
     0
 48
0.05
370
    -2
100
AcDbLine
 10
152.5513016864601
 20
498.9440221251481
 30
0.0
 11
152.5513016864601
 21
491.5491824902481
 31
0.0
  0
LINE
  5
19731
330
1972D
100
AcDbEntity
  8
DIM
 62
     0
 48
0.05
370
    -2
100
AcDbLine
 10
177.2859346849071
 20
496.5507275097391
 30
0.0
 11
177.2859346849071
 21
491.5491824902481
 31
0.0
  0
LINE
  5
19732
330
1972D
100
AcDbEntity
  8
DIM
 62
     0
 48
0.05
370
    -2
100
AcDbLine
 10
152.5513016864601
 20
491.5491824902481
 30
0.0
 11
110.1833016864601
 21
491.5491824902481
 31
0.0
  0
LINE
  5
19733
330
1972D
100
AcDbEntity
  8
DIM
 62
     0
 48
0.05
370
    -2
100
AcDbLine
 10
152.5513016864601
 20
491.5491824902481
 30
0.0
 11
177.2859346849071
 21
491.5491824902481
 31
0.0
  0
LINE
  5
19734
330
1972D
100
AcDbEntity
  8
DIM
 62
     0
 48
0.05
370
    -2
100
AcDbLine
 10
149.5513016864601
 20
491.5491824902481
 30
0.0
 11
146.5513016864601
 21
491.5491824902481
 31
0.0
  0
LINE
  5
19735
330
1972D
100
AcDbEntity
  8
DIM
 62
     0
 48
0.05
370
    -2
100
AcDbLine
 10
180.2859346849071
 20
491.5491824902481
 30
0.0
 11
183.2859346849071
 21
491.5491824902481
 31
0.0
  0
INSERT
  5
19736
330
1972D
100
AcDbEntity
  8
DIM
 62
     0
370
    -2
100
AcDbBlockReference
  2
_DOT
 10
152.5513016864601
 20
491.5491824902481
 30
0.0
 41
3.0
 42
3.0
 43
3.0
  0
INSERT
  5
19737
330
1972D
100
AcDbEntity
  8
DIM
 62
     0
370
    -2
100
AcDbBlockReference
  2
_DOT
 10
177.2859346849071
 20
491.5491824902481
 30
0.0
 41
3.0
 42
3.0
 43
3.0
 50
180.0
  0
MTEXT
  5
19738
330
1972D
100
AcDbEntity
  8
DIM
 62
     0
 48
0.05
100
AcDbMText
 10
128.3673016864601
 20
501.5491824902481
 30
0.0
 40
8.0
 41
0.0
 46
0.0
 71
     5
 72
     1
  1
\A1;11-25
  7
ＭＳ ゴシック
 73
     1
 44
1.0
  0
POINT
  5
19739
330
1972D
100
AcDbEntity
  8
Defpoints
 62
     0
100
AcDbPoint
 10
152.5513016864601
 20
508.9440221251481
 30
0.0
  0
POINT
  5
1973A
330
1972D
100
AcDbEntity
  8
Defpoints
 62
     0
100
AcDbPoint
 10
177.2859346849071
 20
506.5507275097391
 30
0.0
  0
POINT
  5
1973B
330
1972D
100
AcDbEntity
  8
Defpoints
 62
     0
100
AcDbPoint
 10
177.2859346849071
 20
491.5491824902481
 30
0.0
  0
ENDBLK
  5
1972F
330
1972D
100
AcDbEntity
  8
0
100
AcDbBlockEnd
  0
BLOCK
  5
19740
330
1973F
100
AcDbEntity
  8
0
100
AcDbBlockBegin
  2
*D39
 70
     1
 10
0.0
 20
0.0
 30
0.0
  3
*D39
  1

  0
LINE
  5
19742
330
1973F
100
AcDbEntity
  8
DIM
 62
     0
 48
0.05
370
    -2
100
AcDbLine
 10
206.3284979910904
 20
460.728610334647
 30
0.0
 11
206.3284979910904
 21
467.4557920043989
 31
0.0
  0
LINE
  5
19743
330
1973F
100
AcDbEntity
  8
DIM
 62
     0
 48
0.05
370
    -2
100
AcDbLine
 10
164.360539318381
 20
460.728610334647
 30
0.0
 11
164.360539318381
 21
467.4557920043989
 31
0.0
  0
LINE
  5
19744
330
1973F
100
AcDbEntity
  8
DIM
 62
     0
 48
0.05
370
    -2
100
AcDbLine
 10
203.3284979910904
 20
467.4557920043989
 30
0.0
 11
167.360539318381
 21
467.4557920043989
 31
0.0
  0
INSERT
  5
19745
330
1973F
100
AcDbEntity
  8
DIM
 62
     0
370
    -2
100
AcDbBlockReference
  2
_DOT
 10
206.3284979910904
 20
467.4557920043989
 30
0.0
 41
3.0
 42
3.0
 43
3.0
  0
INSERT
  5
19746
330
1973F
100
AcDbEntity
  8
DIM
 62
     0
370
    -2
100
AcDbBlockReference
  2
_DOT
 10
164.360539318381
 20
467.4557920043989
 30
0.0
 41
3.0
 42
3.0
 43
3.0
 50
180.0
  0
MTEXT
  5
19747
330
1973F
100
AcDbEntity
  8
DIM
 62
     0
 48
0.05
100
AcDbMText
 10
185.3445186547357
 20
477.4557920043989
 30
0.0
 40
8.0
 41
0.0
 46
0.0
 71
     5
 72
     1
  1
\A1;42
  7
ＭＳ ゴシック
 73
     1
 44
1.0
  0
POINT
  5
19748
330
1973F
100
AcDbEntity
  8
Defpoints
 62
     0
100
AcDbPoint
 10
206.3284979910904
 20
450.728610334647
 30
0.0
  0
POINT
  5
19749
330
1973F
100
AcDbEntity
  8
Defpoints
 62
     0
100
AcDbPoint
 10
164.360539318381
 20
450.728610334647
 30
0.0
  0
POINT
  5
1974A
330
1973F
100
AcDbEntity
  8
Defpoints
 62
     0
100
AcDbPoint
 10
164.360539318381
 20
467.4557920043989
 30
0.0
  0
ENDBLK
  5
19741
330
1973F
100
AcDbEntity
  8
0
100
AcDbBlockEnd
  0
BLOCK
  5
1974E
330
1974D
100
AcDbEntity
  8
0
100
AcDbBlockBegin
  2
*D40
 70
     1
 10
0.0
 20
0.0
 30
0.0
  3
*D40
  1

  0
LINE
  5
19750
330
1974D
100
AcDbEntity
  8
DIM
 62
     0
 48
0.05
370
    -2
100
AcDbLine
 10
122.3925806456716
 20
460.728610334647
 30
0.0
 11
122.3925806456716
 21
467.4557920043989
 31
0.0
  0
LINE
  5
19751
330
1974D
100
AcDbEntity
  8
DIM
 62
     0
 48
0.05
370
    -2
100
AcDbLine
 10
164.360539318381
 20
460.728610334647
 30
0.0
 11
164.360539318381
 21
467.4557920043989
 31
0.0
  0
LINE
  5
19752
330
1974D
100
AcDbEntity
  8
DIM
 62
     0
 48
0.05
370
    -2
100
AcDbLine
 10
125.3925806456716
 20
467.4557920043989
 30
0.0
 11
161.360539318381
 21
467.4557920043989
 31
0.0
  0
INSERT
  5
19753
330
1974D
100
AcDbEntity
  8
DIM
 62
     0
370
    -2
100
AcDbBlockReference
  2
_DOT
 10
122.3925806456716
 20
467.4557920043989
 30
0.0
 41
3.0
 42
3.0
 43
3.0
 50
180.0
  0
INSERT
  5
19754
330
1974D
100
AcDbEntity
  8
DIM
 62
     0
370
    -2
100
AcDbBlockReference
  2
_DOT
 10
164.360539318381
 20
467.4557920043989
 30
0.0
 41
3.0
 42
3.0
 43
3.0
  0
MTEXT
  5
19755
330
1974D
100
AcDbEntity
  8
DIM
 62
     0
 48
0.05
100
AcDbMText
 10
143.3765599820263
 20
477.4557920043989
 30
0.0
 40
8.0
 41
0.0
 46
0.0
 71
     5
 72
     1
  1
\A1;42
  7
ＭＳ ゴシック
 73
     1
 44
1.0
  0
POINT
  5
19756
330
1974D
100
AcDbEntity
  8
Defpoints
 62
     0
100
AcDbPoint
 10
122.3925806456716
 20
450.728610334647
 30
0.0
  0
POINT
  5
19757
330
1974D
100
AcDbEntity
  8
Defpoints
 62
     0
100
AcDbPoint
 10
164.360539318381
 20
450.728610334647
 30
0.0
  0
POINT
  5
19758
330
1974D
100
AcDbEntity
  8
Defpoints
 62
     0
100
AcDbPoint
 10
164.360539318381
 20
467.4557920043989
 30
0.0
  0
ENDBLK
  5
1974F
330
1974D
100
AcDbEntity
  8
0
100
AcDbBlockEnd
  0
BLOCK
  5
1975D
330
1975C
100
AcDbEntity
  8
0
100
AcDbBlockBegin
  2
*D41
 70
     1
 10
0.0
 20
0.0
 30
0.0
  3
*D41
  1

  0
LINE
  5
1975F
330
1975C
100
AcDbEntity
  8
DIM
 62
     0
 48
0.05
370
    -2
100
AcDbLine
 10
122.3920458312324
 20
439.3160350874655
 30
0.0
 11
122.3920458312324
 21
467.4557920043989
 31
0.0
  0
LINE
  5
19760
330
1975C
100
AcDbEntity
  8
DIM
 62
     0
 48
0.05
370
    -2
100
AcDbLine
 10
108.3510275445402
 20
439.6358541221056
 30
0.0
 11
108.3510275445402
 21
467.4557920043989
 31
0.0
  0
LINE
  5
19761
330
1975C
100
AcDbEntity
  8
DIM
 62
     0
 48
0.05
370
    -2
100
AcDbLine
 10
119.3920458312324
 20
467.4557920043989
 30
0.0
 11
111.3510275445402
 21
467.4557920043989
 31
0.0
  0
INSERT
  5
19762
330
1975C
100
AcDbEntity
  8
DIM
 62
     0
370
    -2
100
AcDbBlockReference
  2
_DOT
 10
122.3920458312324
 20
467.4557920043989
 30
0.0
 41
3.0
 42
3.0
 43
3.0
  0
INSERT
  5
19763
330
1975C
100
AcDbEntity
  8
DIM
 62
     0
370
    -2
100
AcDbBlockReference
  2
_DOT
 10
108.3510275445402
 20
467.4557920043989
 30
0.0
 41
3.0
 42
3.0
 43
3.0
 50
180.0
  0
MTEXT
  5
19764
330
1975C
100
AcDbEntity
  8
DIM
 62
     0
 48
0.05
100
AcDbMText
 10
115.3720715023255
 20
477.4557920043989
 30
0.0
 40
8.0
 41
0.0
 46
0.0
 71
     5
 72
     1
  1
\A1;14
  7
ＭＳ ゴシック
 73
     1
 44
1.0
  0
POINT
  5
19765
330
1975C
100
AcDbEntity
  8
Defpoints
 62
     0
100
AcDbPoint
 10
122.3920458312324
 20
429.3160350874655
 30
0.0
  0
POINT
  5
19766
330
1975C
100
AcDbEntity
  8
Defpoints
 62
     0
100
AcDbPoint
 10
108.3510275445402
 20
429.6358541221056
 30
0.0
  0
POINT
  5
19767
330
1975C
100
AcDbEntity
  8
Defpoints
 62
     0
100
AcDbPoint
 10
108.3510275445402
 20
467.4557920043989
 30
0.0
  0
ENDBLK
  5
1975E
330
1975C
100
AcDbEntity
  8
0
100
AcDbBlockEnd
  0
BLOCK
  5
197A6
330
197A5
100
AcDbEntity
  8
0
100
AcDbBlockBegin
  2
*D42
 70
     1
 10
0.0
 20
0.0
 30
0.0
  3
*D42
  1

  0
LINE
  5
197A8
330
197A5
100
AcDbEntity
  8
DIM
 62
     0
 48
0.05
370
    -2
100
AcDbLine
 10
285.9570198432123
 20
358.4151894849371
 30
0.0
 11
285.9570198432123
 21
350.3890866004245
 31
0.0
  0
LINE
  5
197A9
330
197A5
100
AcDbEntity
  8
DIM
 62
     0
 48
0.05
370
    -2
100
AcDbLine
 10
313.0844126426292
 20
358.4151894849371
 30
0.0
 11
313.0844126426292
 21
350.3890866004245
 31
0.0
  0
LINE
  5
197AA
330
197A5
100
AcDbEntity
  8
DIM
 62
     0
 48
0.05
370
    -2
100
AcDbLine
 10
285.9570198432123
 20
350.3890866004245
 30
0.0
 11
221.4384230257511
 21
350.3890866004245
 31
0.0
  0
LINE
  5
197AB
330
197A5
100
AcDbEntity
  8
DIM
 62
     0
 48
0.05
370
    -2
100
AcDbLine
 10
288.9570198432123
 20
350.3890866004245
 30
0.0
 11
310.0844126426292
 21
350.3890866004245
 31
0.0
  0
LINE
  5
197AC
330
197A5
100
AcDbEntity
  8
DIM
 62
     0
 48
0.05
370
    -2
100
AcDbLine
 10
288.9570198432123
 20
350.3890866004245
 30
0.0
 11
291.9570198432123
 21
350.3890866004245
 31
0.0
  0
INSERT
  5
197AD
330
197A5
100
AcDbEntity
  8
DIM
 62
     0
370
    -2
100
AcDbBlockReference
  2
_DOT
 10
285.9570198432123
 20
350.3890866004245
 30
0.0
 41
3.0
 42
3.0
 43
3.0
 50
180.0
  0
INSERT
  5
197AE
330
197A5
100
AcDbEntity
  8
DIM
 62
     0
370
    -2
100
AcDbBlockReference
  2
_DOT
 10
313.0844126426292
 20
350.3890866004245
 30
0.0
 41
3.0
 42
3.0
 43
3.0
  0
MTEXT
  5
197AF
330
197A5
100
AcDbEntity
  8
DIM
 62
     0
 48
0.05
100
AcDbMText
 10
239.9464230257512
 20
361.2410866004245
 30
0.0
 40
8.0
 41
0.0
 46
0.0
 71
     5
 72
     1
  1
\A1;G1/2"
  7
ＭＳ ゴシック
 73
     1
 44
1.0
  0
POINT
  5
197B0
330
197A5
100
AcDbEntity
  8
Defpoints
 62
     0
100
AcDbPoint
 10
285.9570198432123
 20
368.4151894849371
 30
0.0
  0
POINT
  5
197B1
330
197A5
100
AcDbEntity
  8
Defpoints
 62
     0
100
AcDbPoint
 10
313.0844126426292
 20
368.4151894849371
 30
0.0
  0
POINT
  5
197B2
330
197A5
100
AcDbEntity
  8
Defpoints
 62
     0
100
AcDbPoint
 10
313.0844126426292
 20
350.3890866004245
 30
0.0
  0
ENDBLK
  5
197A7
330
197A5
100
AcDbEntity
  8
0
100
AcDbBlockEnd
  0
BLOCK
  5
197BB
330
197BA
100
AcDbEntity
  8
0
100
AcDbBlockBegin
  2
*D43
 70
     1
 10
0.0
 20
0.0
 30
0.0
  3
*D43
  1

  0
LINE
  5
197BD
330
197BA
100
AcDbEntity
  8
DIM
 62
     0
 48
0.05
370
    -2
100
AcDbLine
 10
285.9570198432123
 20
444.5812832413653
 30
0.0
 11
285.9570198432123
 21
462.0284950754223
 31
0.0
  0
LINE
  5
197BE
330
197BA
100
AcDbEntity
  8
DIM
 62
     0
 48
0.05
370
    -2
100
AcDbLine
 10
313.0844126426292
 20
444.5812832413653
 30
0.0
 11
313.0844126426292
 21
462.0284950754223
 31
0.0
  0
LINE
  5
197BF
330
197BA
100
AcDbEntity
  8
DIM
 62
     0
 48
0.05
370
    -2
100
AcDbLine
 10
285.9570198432123
 20
462.0284950754223
 30
0.0
 11
360.0506065647889
 21
462.0284950754223
 31
0.0
  0
LINE
  5
197C0
330
197BA
100
AcDbEntity
  8
DIM
 62
     0
 48
0.05
370
    -2
100
AcDbLine
 10
282.9570198432123
 20
462.0284950754223
 30
0.0
 11
279.9570198432123
 21
462.0284950754223
 31
0.0
  0
LINE
  5
197C1
330
197BA
100
AcDbEntity
  8
DIM
 62
     0
 48
0.05
370
    -2
100
AcDbLine
 10
316.0844126426292
 20
462.0284950754223
 30
0.0
 11
319.0844126426292
 21
462.0284950754223
 31
0.0
  0
INSERT
  5
197C2
330
197BA
100
AcDbEntity
  8
DIM
 62
     0
370
    -2
100
AcDbBlockReference
  2
_DOT
 10
285.9570198432123
 20
462.0284950754223
 30
0.0
 41
3.0
 42
3.0
 43
3.0
  0
INSERT
  5
197C3
330
197BA
100
AcDbEntity
  8
DIM
 62
     0
370
    -2
100
AcDbBlockReference
  2
_DOT
 10
313.0844126426292
 20
462.0284950754223
 30
0.0
 41
3.0
 42
3.0
 43
3.0
 50
180.0
  0
MTEXT
  5
197C4
330
197BA
100
AcDbEntity
  8
DIM
 62
     0
 48
0.05
100
AcDbMText
 10
341.5426065647889
 20
472.8804950754222
 30
0.0
 40
8.0
 41
0.0
 46
0.0
 71
     5
 72
     1
  1
\A1;G1/2"
  7
ＭＳ ゴシック
 73
     1
 44
1.0
  0
POINT
  5
197C5
330
197BA
100
AcDbEntity
  8
Defpoints
 62
     0
100
AcDbPoint
 10
285.9570198432123
 20
434.5812832413653
 30
0.0
  0
POINT
  5
197C6
330
197BA
100
AcDbEntity
  8
Defpoints
 62
     0
100
AcDbPoint
 10
313.0844126426292
 20
434.5812832413653
 30
0.0
  0
POINT
  5
197C7
330
197BA
100
AcDbEntity
  8
Defpoints
 62
     0
100
AcDbPoint
 10
313.0844126426292
 20
462.0284950754223
 30
0.0
  0
ENDBLK
  5
197BC
330
197BA
100
AcDbEntity
  8
0
100
AcDbBlockEnd
  0
BLOCK
  5
197CC
330
197CB
100
AcDbEntity
  8
0
100
AcDbBlockBegin
  2
*D44
 70
     1
 10
0.0
 20
0.0
 30
0.0
  3
*D44
  1

  0
LINE
  5
197CE
330
197CB
100
AcDbEntity
  8
DIM
 62
     0
 48
0.05
370
    -2
100
AcDbLine
 10
511.912376703099
 20
466.2742910804244
 30
0.0
 11
511.912376703099
 21
479.7426189305232
 31
0.0
  0
LINE
  5
197CF
330
197CB
100
AcDbEntity
  8
DIM
 62
     0
 48
0.05
370
    -2
100
AcDbLine
 10
262.0197951736087
 20
466.2742910804244
 30
0.0
 11
262.0197951736087
 21
479.7426189305232
 31
0.0
  0
LINE
  5
197D0
330
197CB
100
AcDbEntity
  8
DIM
 62
     0
 48
0.05
370
    -2
100
AcDbLine
 10
508.912376703099
 20
479.7426189305232
 30
0.0
 11
265.0197951736087
 21
479.7426189305232
 31
0.0
  0
INSERT
  5
197D1
330
197CB
100
AcDbEntity
  8
DIM
 62
     0
370
    -2
100
AcDbBlockReference
  2
_DOT
 10
511.912376703099
 20
479.7426189305232
 30
0.0
 41
3.0
 42
3.0
 43
3.0
  0
INSERT
  5
197D2
330
197CB
100
AcDbEntity
  8
DIM
 62
     0
370
    -2
100
AcDbBlockReference
  2
_DOT
 10
262.0197951736087
 20
479.7426189305232
 30
0.0
 41
3.0
 42
3.0
 43
3.0
 50
180.0
  0
MTEXT
  5
197D3
330
197CB
100
AcDbEntity
  8
DIM
 62
     0
 48
0.05
100
AcDbMText
 10
386.9660859383538
 20
489.7426189305232
 30
0.0
 40
8.0
 41
0.0
 46
0.0
 71
     5
 72
     1
  1
\A1;250
  7
ＭＳ ゴシック
 73
     1
 44
1.0
  0
POINT
  5
197D4
330
197CB
100
AcDbEntity
  8
Defpoints
 62
     0
100
AcDbPoint
 10
511.912376703099
 20
456.2742910804244
 30
0.0
  0
POINT
  5
197D5
330
197CB
100
AcDbEntity
  8
Defpoints
 62
     0
100
AcDbPoint
 10
262.0197951736087
 20
456.2742910804244
 30
0.0
  0
POINT
  5
197D6
330
197CB
100
AcDbEntity
  8
Defpoints
 62
     0
100
AcDbPoint
 10
262.0197951736087
 20
479.7426189305232
 30
0.0
  0
ENDBLK
  5
197CD
330
197CB
100
AcDbEntity
  8
0
100
AcDbBlockEnd
  0
BLOCK
  5
197DB
330
197DA
100
AcDbEntity
  8
0
100
AcDbBlockBegin
  2
*D45
 70
     1
 10
0.0
 20
0.0
 30
0.0
  3
*D45
  1

  0
LINE
  5
197DD
330
197DA
100
AcDbEntity
  8
DIM
 62
     0
 48
0.05
370
    -2
100
AcDbLine
 10
523.9076356296998
 20
453.8918281974709
 30
0.0
 11
569.6649078622061
 21
453.8918281974709
 31
0.0
  0
LINE
  5
197DE
330
197DA
100
AcDbEntity
  8
DIM
 62
     0
 48
0.05
370
    -2
100
AcDbLine
 10
523.9076356296998
 20
341.8706653920324
 30
0.0
 11
569.6649078622061
 21
341.8706653920324
 31
0.0
  0
LINE
  5
197DF
330
197DA
100
AcDbEntity
  8
DIM
 62
     0
 48
0.05
370
    -2
100
AcDbLine
 10
569.6649078622061
 20
450.8918281974709
 30
0.0
 11
569.6649078622061
 21
344.8706653920324
 31
0.0
  0
INSERT
  5
197E0
330
197DA
100
AcDbEntity
  8
DIM
 62
     0
370
    -2
100
AcDbBlockReference
  2
_DOT
 10
569.6649078622061
 20
453.8918281974709
 30
0.0
 41
3.0
 42
3.0
 43
3.0
 50
90.0
  0
INSERT
  5
197E1
330
197DA
100
AcDbEntity
  8
DIM
 62
     0
370
    -2
100
AcDbBlockReference
  2
_DOT
 10
569.6649078622061
 20
341.8706653920324
 30
0.0
 41
3.0
 42
3.0
 43
3.0
 50
270.0
  0
MTEXT
  5
197E2
330
197DA
100
AcDbEntity
  8
DIM
 62
     0
 48
0.05
100
AcDbMText
 10
559.6649078622061
 20
397.8812467947516
 30
0.0
 40
8.0
 41
0.0
 46
0.0
 71
     5
 72
     1
  1
\A1;112
  7
ＭＳ ゴシック
 11
0.0
 21
1.0
 31
0.0
 73
     1
 44
1.0
  0
POINT
  5
197E3
330
197DA
100
AcDbEntity
  8
Defpoints
 62
     0
100
AcDbPoint
 10
513.9076356296998
 20
453.8918281974709
 30
0.0
  0
POINT
  5
197E4
330
197DA
100
AcDbEntity
  8
Defpoints
 62
     0
100
AcDbPoint
 10
513.9076356296998
 20
341.8706653920324
 30
0.0
  0
POINT
  5
197E5
330
197DA
100
AcDbEntity
  8
Defpoints
 62
     0
100
AcDbPoint
 10
569.6649078622061
 20
341.8706653920324
 30
0.0
  0
ENDBLK
  5
197DC
330
197DA
100
AcDbEntity
  8
0
100
AcDbBlockEnd
  0
BLOCK
  5
197EA
330
197E9
100
AcDbEntity
  8
0
100
AcDbBlockBegin
  2
*D46
 70
     1
 10
0.0
 20
0.0
 30
0.0
  3
*D46
  1

  0
LINE
  5
197EC
330
197E9
100
AcDbEntity
  8
DIM
 62
     0
 48
0.05
370
    -2
100
AcDbLine
 10
462.521023412181
 20
421.4981176152759
 30
0.0
 11
544.7349736428644
 21
421.4981176152759
 31
0.0
  0
LINE
  5
197ED
330
197E9
100
AcDbEntity
  8
DIM
 62
     0
 48
0.05
370
    -2
100
AcDbLine
 10
462.521023412181
 20
374.4216114193515
 30
0.0
 11
544.7349736428644
 21
374.4216114193515
 31
0.0
  0
LINE
  5
197EE
330
197E9
100
AcDbEntity
  8
DIM
 62
     0
 48
0.05
370
    -2
100
AcDbLine
 10
544.7349736428644
 20
418.4981176152759
 30
0.0
 11
544.7349736428644
 21
377.4216114193515
 31
0.0
  0
INSERT
  5
197EF
330
197E9
100
AcDbEntity
  8
DIM
 62
     0
370
    -2
100
AcDbBlockReference
  2
_DOT
 10
544.7349736428644
 20
421.4981176152759
 30
0.0
 41
3.0
 42
3.0
 43
3.0
 50
90.0
  0
INSERT
  5
197F0
330
197E9
100
AcDbEntity
  8
DIM
 62
     0
370
    -2
100
AcDbBlockReference
  2
_DOT
 10
544.7349736428644
 20
374.4216114193515
 30
0.0
 41
3.0
 42
3.0
 43
3.0
 50
270.0
  0
MTEXT
  5
197F1
330
197E9
100
AcDbEntity
  8
DIM
 62
     0
 48
0.05
100
AcDbMText
 10
534.7349736428644
 20
397.9598645173137
 30
0.0
 40
8.0
 41
0.0
 46
0.0
 71
     5
 72
     1
  1
\A1;47
  7
ＭＳ ゴシック
 11
0.0
 21
1.0
 31
0.0
 73
     1
 44
1.0
  0
POINT
  5
197F2
330
197E9
100
AcDbEntity
  8
Defpoints
 62
     0
100
AcDbPoint
 10
452.521023412181
 20
421.4981176152759
 30
0.0
  0
POINT
  5
197F3
330
197E9
100
AcDbEntity
  8
Defpoints
 62
     0
100
AcDbPoint
 10
452.521023412181
 20
374.4216114193515
 30
0.0
  0
POINT
  5
197F4
330
197E9
100
AcDbEntity
  8
Defpoints
 62
     0
100
AcDbPoint
 10
544.7349736428644
 20
374.4216114193515
 30
0.0
  0
ENDBLK
  5
197EB
330
197E9
100
AcDbEntity
  8
0
100
AcDbBlockEnd
  0
BLOCK
  5
197F9
330
197F8
100
AcDbEntity
  8
0
100
AcDbBlockBegin
  2
*D47
 70
     1
 10
0.0
 20
0.0
 30
0.0
  3
*D47
  1

  0
LINE
  5
197FB
330
197F8
100
AcDbEntity
  8
DIM
 62
     0
 48
0.05
370
    -2
100
AcDbLine
 10
299.5204488357011
 20
354.669272503177
 30
0.0
 11
299.5204488357011
 21
299.9492448394736
 31
0.0
  0
LINE
  5
197FC
330
197F8
100
AcDbEntity
  8
DIM
 62
     0
 48
0.05
370
    -2
100
AcDbLine
 10
429.5734152731241
 20
362.3264732182076
 30
0.0
 11
429.5734152731241
 21
299.9492448394736
 31
0.0
  0
LINE
  5
197FD
330
197F8
100
AcDbEntity
  8
DIM
 62
     0
 48
0.05
370
    -2
100
AcDbLine
 10
302.5204488357011
 20
299.9492448394736
 30
0.0
 11
426.5734152731241
 21
299.9492448394736
 31
0.0
  0
INSERT
  5
197FE
330
197F8
100
AcDbEntity
  8
DIM
 62
     0
370
    -2
100
AcDbBlockReference
  2
_DOT
 10
299.5204488357011
 20
299.9492448394736
 30
0.0
 41
3.0
 42
3.0
 43
3.0
 50
180.0
  0
INSERT
  5
197FF
330
197F8
100
AcDbEntity
  8
DIM
 62
     0
370
    -2
100
AcDbBlockReference
  2
_DOT
 10
429.5734152731241
 20
299.9492448394736
 30
0.0
 41
3.0
 42
3.0
 43
3.0
  0
MTEXT
  5
19800
330
197F8
100
AcDbEntity
  8
DIM
 62
     0
 48
0.05
100
AcDbMText
 10
364.5469320544126
 20
309.9492448394736
 30
0.0
 40
8.0
 41
0.0
 46
0.0
 71
     5
 72
     1
  1
\A1;130
  7
ＭＳ ゴシック
 73
     1
 44
1.0
  0
POINT
  5
19801
330
197F8
100
AcDbEntity
  8
Defpoints
 62
     0
100
AcDbPoint
 10
299.5204488357011
 20
364.669272503177
 30
0.0
  0
POINT
  5
19802
330
197F8
100
AcDbEntity
  8
Defpoints
 62
     0
100
AcDbPoint
 10
429.5734152731241
 20
372.3264732182076
 30
0.0
  0
POINT
  5
19803
330
197F8
100
AcDbEntity
  8
Defpoints
 62
     0
100
AcDbPoint
 10
429.5734152731241
 20
299.9492448394736
 30
0.0
  0
ENDBLK
  5
197FA
330
197F8
100
AcDbEntity
  8
0
100
AcDbBlockEnd
  0
BLOCK
  5
19808
330
19807
100
AcDbEntity
  8
0
100
AcDbBlockBegin
  2
*D48
 70
     1
 10
0.0
 20
0.0
 30
0.0
  3
*D48
  1

  0
LINE
  5
1980A
330
19807
100
AcDbEntity
  8
DIM
 62
     0
 48
0.05
370
    -2
100
AcDbLine
 10
372.4445368780426
 20
351.1774666470636
 30
0.0
 11
372.4445368780426
 21
324.9544846802141
 31
0.0
  0
LINE
  5
1980B
330
19807
100
AcDbEntity
  8
DIM
 62
     0
 48
0.05
370
    -2
100
AcDbLine
 10
406.4352033756816
 20
351.1774666470636
 30
0.0
 11
406.4352033756816
 21
324.9544846802141
 31
0.0
  0
LINE
  5
1980C
330
19807
100
AcDbEntity
  8
DIM
 62
     0
 48
0.05
370
    -2
100
AcDbLine
 10
375.4445368780426
 20
324.9544846802141
 30
0.0
 11
403.4352033756816
 21
324.9544846802141
 31
0.0
  0
INSERT
  5
1980D
330
19807
100
AcDbEntity
  8
DIM
 62
     0
370
    -2
100
AcDbBlockReference
  2
_DOT
 10
372.4445368780426
 20
324.9544846802141
 30
0.0
 41
3.0
 42
3.0
 43
3.0
 50
180.0
  0
INSERT
  5
1980E
330
19807
100
AcDbEntity
  8
DIM
 62
     0
370
    -2
100
AcDbBlockReference
  2
_DOT
 10
406.4352033756816
 20
324.9544846802141
 30
0.0
 41
3.0
 42
3.0
 43
3.0
  0
MTEXT
  5
1980F
330
19807
100
AcDbEntity
  8
DIM
 62
     0
 48
0.05
100
AcDbMText
 10
389.4398701268622
 20
335.8064846802141
 30
0.0
 40
8.0
 41
0.0
 46
0.0
 71
     5
 72
     1
  1
\A1;G3/4"
  7
ＭＳ ゴシック
 73
     1
 44
1.0
  0
POINT
  5
19810
330
19807
100
AcDbEntity
  8
Defpoints
 62
     0
100
AcDbPoint
 10
372.4445368780426
 20
361.1774666470636
 30
0.0
  0
POINT
  5
19811
330
19807
100
AcDbEntity
  8
Defpoints
 62
     0
100
AcDbPoint
 10
406.4352033756816
 20
361.1774666470636
 30
0.0
  0
POINT
  5
19812
330
19807
100
AcDbEntity
  8
Defpoints
 62
     0
100
AcDbPoint
 10
406.4352033756816
 20
324.9544846802141
 30
0.0
  0
ENDBLK
  5
19809
330
19807
100
AcDbEntity
  8
0
100
AcDbBlockEnd
  0
BLOCK
  5
19818
330
19817
100
AcDbEntity
  8
0
100
AcDbBlockBegin
  2
*D49
 70
     1
 10
0.0
 20
0.0
 30
0.0
  3
*D49
  1

  0
LINE
  5
1981A
330
19817
100
AcDbEntity
  8
DIM
 62
     0
 48
0.05
370
    -2
100
AcDbLine
 10
486.7022936682054
 20
351.1774666470636
 30
0.0
 11
486.7022936682054
 21
324.9544846802141
 31
0.0
  0
LINE
  5
1981B
330
19817
100
AcDbEntity
  8
DIM
 62
     0
 48
0.05
370
    -2
100
AcDbLine
 10
452.7116271705665
 20
351.1774666470636
 30
0.0
 11
452.7116271705665
 21
324.9544846802141
 31
0.0
  0
LINE
  5
1981C
330
19817
100
AcDbEntity
  8
DIM
 62
     0
 48
0.05
370
    -2
100
AcDbLine
 10
483.7022936682054
 20
324.9544846802141
 30
0.0
 11
455.7116271705665
 21
324.9544846802141
 31
0.0
  0
INSERT
  5
1981D
330
19817
100
AcDbEntity
  8
DIM
 62
     0
370
    -2
100
AcDbBlockReference
  2
_DOT
 10
486.7022936682054
 20
324.9544846802141
 30
0.0
 41
3.0
 42
3.0
 43
3.0
  0
INSERT
  5
1981E
330
19817
100
AcDbEntity
  8
DIM
 62
     0
370
    -2
100
AcDbBlockReference
  2
_DOT
 10
452.7116271705665
 20
324.9544846802141
 30
0.0
 41
3.0
 42
3.0
 43
3.0
 50
180.0
  0
MTEXT
  5
1981F
330
19817
100
AcDbEntity
  8
DIM
 62
     0
 48
0.05
100
AcDbMText
 10
469.5465160876263
 20
335.8064846802141
 30
0.0
 40
8.0
 41
0.0
 46
0.0
 71
     5
 72
     1
  1
\A1;G3/4"
  7
ＭＳ ゴシック
 73
     1
 44
1.0
  0
POINT
  5
19820
330
19817
100
AcDbEntity
  8
Defpoints
 62
     0
100
AcDbPoint
 10
486.7022936682054
 20
361.1774666470636
 30
0.0
  0
POINT
  5
19821
330
19817
100
AcDbEntity
  8
Defpoints
 62
     0
100
AcDbPoint
 10
452.7116271705665
 20
361.1774666470636
 30
0.0
  0
POINT
  5
19822
330
19817
100
AcDbEntity
  8
Defpoints
 62
     0
100
AcDbPoint
 10
452.7116271705665
 20
324.9544846802141
 30
0.0
  0
ENDBLK
  5
19819
330
19817
100
AcDbEntity
  8
0
100
AcDbBlockEnd
  0
BLOCK
  5
19827
330
19826
100
AcDbEntity
  8
0
100
AcDbBlockBegin
  2
*D50
 70
     1
 10
0.0
 20
0.0
 30
0.0
  3
*D50
  1

  0
LINE
  5
19829
330
19826
100
AcDbEntity
  8
DIM
 62
     0
 48
0.05
370
    -2
100
AcDbLine
 10
371.0101645521147
 20
417.2186140681716
 30
0.0
 11
371.0101645521147
 21
462.0284950754223
 31
0.0
  0
LINE
  5
1982A
330
19826
100
AcDbEntity
  8
DIM
 62
     0
 48
0.05
370
    -2
100
AcDbLine
 10
487.9762216623737
 20
417.2186140681716
 30
0.0
 11
487.9762216623737
 21
462.0284950754223
 31
0.0
  0
LINE
  5
1982B
330
19826
100
AcDbEntity
  8
DIM
 62
     0
 48
0.05
370
    -2
100
AcDbLine
 10
374.0101645521147
 20
462.0284950754223
 30
0.0
 11
484.9762216623737
 21
462.0284950754223
 31
0.0
  0
INSERT
  5
1982C
330
19826
100
AcDbEntity
  8
DIM
 62
     0
370
    -2
100
AcDbBlockReference
  2
_DOT
 10
371.0101645521147
 20
462.0284950754223
 30
0.0
 41
3.0
 42
3.0
 43
3.0
 50
180.0
  0
INSERT
  5
1982D
330
19826
100
AcDbEntity
  8
DIM
 62
     0
370
    -2
100
AcDbBlockReference
  2
_DOT
 10
487.9762216623737
 20
462.0284950754223
 30
0.0
 41
3.0
 42
3.0
 43
3.0
  0
MTEXT
  5
1982E
330
19826
100
AcDbEntity
  8
DIM
 62
     0
 48
0.05
100
AcDbMText
 10
429.4931931072442
 20
472.0284950754223
 30
0.0
 40
8.0
 41
0.0
 46
0.0
 71
     5
 72
     1
  1
\A1;117
  7
ＭＳ ゴシック
 73
     1
 44
1.0
  0
POINT
  5
1982F
330
19826
100
AcDbEntity
  8
Defpoints
 62
     0
100
AcDbPoint
 10
371.0101645521147
 20
407.2186140681716
 30
0.0
  0
POINT
  5
19830
330
19826
100
AcDbEntity
  8
Defpoints
 62
     0
100
AcDbPoint
 10
487.9762216623737
 20
407.2186140681716
 30
0.0
  0
POINT
  5
19831
330
19826
100
AcDbEntity
  8
Defpoints
 62
     0
100
AcDbPoint
 10
487.9762216623737
 20
462.0284950754223
 30
0.0
  0
ENDBLK
  5
19828
330
19826
100
AcDbEntity
  8
0
100
AcDbBlockEnd
  0
BLOCK
  5
19836
330
19835
100
AcDbEntity
  8
0
100
AcDbBlockBegin
  2
*D51
 70
     1
 10
0.0
 20
0.0
 30
0.0
  3
*D51
  1

  0
LINE
  5
19838
330
19835
100
AcDbEntity
  8
DIM
 62
     0
 48
0.05
370
    -2
100
AcDbLine
 10
267.1267382535061
 20
594.2635440406553
 30
0.0
 11
267.1267382535061
 21
617.9297626049126
 31
0.0
  0
LINE
  5
19839
330
19835
100
AcDbEntity
  8
DIM
 62
     0
 48
0.05
370
    -2
100
AcDbLine
 10
537.1267382535063
 20
594.2635440406553
 30
0.0
 11
537.1267382535063
 21
617.9297626049126
 31
0.0
  0
LINE
  5
1983A
330
19835
100
AcDbEntity
  8
DIM
 62
     0
 48
0.05
370
    -2
100
AcDbLine
 10
270.1267382535061
 20
617.9297626049126
 30
0.0
 11
534.1267382535063
 21
617.9297626049126
 31
0.0
  0
INSERT
  5
1983B
330
19835
100
AcDbEntity
  8
DIM
 62
     0
370
    -2
100
AcDbBlockReference
  2
_DOT
 10
267.1267382535061
 20
617.9297626049126
 30
0.0
 41
3.0
 42
3.0
 43
3.0
 50
180.0
  0
INSERT
  5
1983C
330
19835
100
AcDbEntity
  8
DIM
 62
     0
370
    -2
100
AcDbBlockReference
  2
_DOT
 10
537.1267382535063
 20
617.9297626049126
 30
0.0
 41
3.0
 42
3.0
 43
3.0
  0
MTEXT
  5
1983D
330
19835
100
AcDbEntity
  8
DIM
 62
     0
 48
0.05
100
AcDbMText
 10
402.1267382535062
 20
627.9297626049126
 30
0.0
 40
8.0
 41
0.0
 46
0.0
 71
     5
 72
     1
  1
\A1;270
  7
ＭＳ ゴシック
 73
     1
 44
1.0
  0
POINT
  5
1983E
330
19835
100
AcDbEntity
  8
Defpoints
 62
     0
100
AcDbPoint
 10
267.1267382535061
 20
584.2635440406553
 30
0.0
  0
POINT
  5
1983F
330
19835
100
AcDbEntity
  8
Defpoints
 62
     0
100
AcDbPoint
 10
537.1267382535063
 20
584.2635440406553
 30
0.0
  0
POINT
  5
19840
330
19835
100
AcDbEntity
  8
Defpoints
 62
     0
100
AcDbPoint
 10
537.1267382535063
 20
617.9297626049126
 30
0.0
  0
ENDBLK
  5
19837
330
19835
100
AcDbEntity
  8
0
100
AcDbBlockEnd
  0
BLOCK
  5
19845
330
19844
100
AcDbEntity
  8
0
100
AcDbBlockBegin
  2
*D52
 70
     1
 10
0.0
 20
0.0
 30
0.0
  3
*D52
  1

  0
LINE
  5
19847
330
19844
100
AcDbEntity
  8
DIM
 62
     0
 48
0.05
370
    -2
100
AcDbLine
 10
337.0205676833543
 20
589.8647017538747
 30
0.0
 11
337.0205676833543
 21
598.3611045617733
 31
0.0
  0
LINE
  5
19848
330
19844
100
AcDbEntity
  8
DIM
 62
     0
 48
0.05
370
    -2
100
AcDbLine
 10
467.0724644918985
 20
591.5630914742328
 30
0.0
 11
467.0724644918985
 21
598.3611045617733
 31
0.0
  0
LINE
  5
19849
330
19844
100
AcDbEntity
  8
DIM
 62
     0
 48
0.05
370
    -2
100
AcDbLine
 10
340.0205676833543
 20
598.3611045617733
 30
0.0
 11
464.0724644918985
 21
598.3611045617733
 31
0.0
  0
INSERT
  5
1984A
330
19844
100
AcDbEntity
  8
DIM
 62
     0
370
    -2
100
AcDbBlockReference
  2
_DOT
 10
337.0205676833543
 20
598.3611045617733
 30
0.0
 41
3.0
 42
3.0
 43
3.0
 50
180.0
  0
INSERT
  5
1984B
330
19844
100
AcDbEntity
  8
DIM
 62
     0
370
    -2
100
AcDbBlockReference
  2
_DOT
 10
467.0724644918985
 20
598.3611045617733
 30
0.0
 41
3.0
 42
3.0
 43
3.0
  0
MTEXT
  5
1984C
330
19844
100
AcDbEntity
  8
DIM
 62
     0
 48
0.05
100
AcDbMText
 10
402.0465160876264
 20
608.3611045617733
 30
0.0
 40
8.0
 41
0.0
 46
0.0
 71
     5
 72
     1
  1
\A1;130
  7
ＭＳ ゴシック
 73
     1
 44
1.0
  0
POINT
  5
1984D
330
19844
100
AcDbEntity
  8
Defpoints
 62
     0
100
AcDbPoint
 10
337.0205676833543
 20
579.8647017538747
 30
0.0
  0
POINT
  5
1984E
330
19844
100
AcDbEntity
  8
Defpoints
 62
     0
100
AcDbPoint
 10
467.0724644918985
 20
581.5630914742328
 30
0.0
  0
POINT
  5
1984F
330
19844
100
AcDbEntity
  8
Defpoints
 62
     0
100
AcDbPoint
 10
467.0724644918985
 20
598.3611045617733
 30
0.0
  0
ENDBLK
  5
19846
330
19844
100
AcDbEntity
  8
0
100
AcDbBlockEnd
  0
BLOCK
  5
19854
330
19853
100
AcDbEntity
  8
0
100
AcDbBlockBegin
  2
*D53
 70
     1
 10
0.0
 20
0.0
 30
0.0
  3
*D53
  1

  0
LINE
  5
19856
330
19853
100
AcDbEntity
  8
DIM
 62
     0
 48
0.05
370
    -2
100
AcDbLine
 10
549.3579840938385
 20
581.5488259472887
 30
0.0
 11
576.5123989046526
 21
581.5488259472887
 31
0.0
  0
LINE
  5
19857
330
19853
100
AcDbEntity
  8
DIM
 62
     0
 48
0.05
370
    -2
100
AcDbLine
 10
549.3579840938385
 20
506.5507275097391
 30
0.0
 11
576.5123989046526
 21
506.5507275097391
 31
0.0
  0
LINE
  5
19858
330
19853
100
AcDbEntity
  8
DIM
 62
     0
 48
0.05
370
    -2
100
AcDbLine
 10
576.5123989046526
 20
578.5488259472887
 30
0.0
 11
576.5123989046526
 21
509.5507275097391
 31
0.0
  0
INSERT
  5
19859
330
19853
100
AcDbEntity
  8
DIM
 62
     0
370
    -2
100
AcDbBlockReference
  2
_DOT
 10
576.5123989046526
 20
581.5488259472887
 30
0.0
 41
3.0
 42
3.0
 43
3.0
 50
90.0
  0
INSERT
  5
1985A
330
19853
100
AcDbEntity
  8
DIM
 62
     0
370
    -2
100
AcDbBlockReference
  2
_DOT
 10
576.5123989046526
 20
506.5507275097391
 30
0.0
 41
3.0
 42
3.0
 43
3.0
 50
270.0
  0
MTEXT
  5
1985B
330
19853
100
AcDbEntity
  8
DIM
 62
     0
 48
0.05
100
AcDbMText
 10
566.5123989046526
 20
544.049776728514
 30
0.0
 40
8.0
 41
0.0
 46
0.0
 71
     5
 72
     1
  1
\A1;75
  7
ＭＳ ゴシック
 11
0.0
 21
1.0
 31
0.0
 73
     1
 44
1.0
  0
POINT
  5
1985C
330
19853
100
AcDbEntity
  8
Defpoints
 62
     0
100
AcDbPoint
 10
539.3579840938385
 20
581.5488259472887
 30
0.0
  0
POINT
  5
1985D
330
19853
100
AcDbEntity
  8
Defpoints
 62
     0
100
AcDbPoint
 10
539.3579840938385
 20
506.5507275097391
 30
0.0
  0
POINT
  5
1985E
330
19853
100
AcDbEntity
  8
Defpoints
 62
     0
100
AcDbPoint
 10
576.5123989046526
 20
506.5507275097391
 30
0.0
  0
ENDBLK
  5
19855
330
19853
100
AcDbEntity
  8
0
100
AcDbBlockEnd
  0
BLOCK
  5
1A775
330
1A774
100
AcDbEntity
  8
0
100
AcDbBlockBegin
  2
*D54
 70
     1
 10
0.0
 20
0.0
 30
0.0
  3
*D54
  1

  0
LINE
  5
1A777
330
1A774
100
AcDbEntity
  8
DIM
 62
     0
 48
0.05
370
    -2
100
AcDbLine
 10
805.8340342773164
 20
576.443487310709
 30
0.0
 11
796.2373512289034
 21
576.443487310709
 31
0.0
  0
LINE
  5
1A778
330
1A774
100
AcDbEntity
  8
DIM
 62
     0
 48
0.05
370
    -2
100
AcDbLine
 10
805.8340342773164
 20
511.4972262578772
 30
0.0
 11
796.2373512289034
 21
511.4972262578772
 31
0.0
  0
LINE
  5
1A779
330
1A774
100
AcDbEntity
  8
DIM
 62
     0
 48
0.05
370
    -2
100
AcDbLine
 10
796.2373512289034
 20
573.443487310709
 30
0.0
 11
796.2373512289034
 21
514.4972262578772
 31
0.0
  0
INSERT
  5
1A77A
330
1A774
100
AcDbEntity
  8
DIM
 62
     0
370
    -2
100
AcDbBlockReference
  2
_DOT
 10
796.2373512289034
 20
576.443487310709
 30
0.0
 41
3.0
 42
3.0
 43
3.0
 50
90.0
  0
INSERT
  5
1A77B
330
1A774
100
AcDbEntity
  8
DIM
 62
     0
370
    -2
100
AcDbBlockReference
  2
_DOT
 10
796.2373512289034
 20
511.4972262578772
 30
0.0
 41
3.0
 42
3.0
 43
3.0
 50
270.0
  0
MTEXT
  5
1A77C
330
1A774
100
AcDbEntity
  8
DIM
 62
     0
 48
0.05
100
AcDbMText
 10
786.2373512289034
 20
543.970356784293
 30
0.0
 40
8.0
 41
0.0
 46
0.0
 71
     5
 72
     1
  1
\A1;%%c65
  7
ＭＳ ゴシック
 11
0.0
 21
1.0
 31
0.0
 73
     1
 44
1.0
  0
POINT
  5
1A77D
330
1A774
100
AcDbEntity
  8
Defpoints
 62
     0
100
AcDbPoint
 10
815.8340342773164
 20
576.443487310709
 30
0.0
  0
POINT
  5
1A77E
330
1A774
100
AcDbEntity
  8
Defpoints
 62
     0
100
AcDbPoint
 10
815.8340342773164
 20
511.4972262578772
 30
0.0
  0
POINT
  5
1A77F
330
1A774
100
AcDbEntity
  8
Defpoints
 62
     0
100
AcDbPoint
 10
796.2373512289034
 20
511.4972262578772
 30
0.0
  0
ENDBLK
  5
1A776
330
1A774
100
AcDbEntity
  8
0
100
AcDbBlockEnd
  0
BLOCK
  5
1A781
330
1A780
100
AcDbEntity
  8
0
100
AcDbBlockBegin
  2
*D55
 70
     1
 10
0.0
 20
0.0
 30
0.0
  3
*D55
  1

  0
LINE
  5
1A783
330
1A780
100
AcDbEntity
  8
DIM
 62
     0
 48
0.05
370
    -2
100
AcDbLine
 10
805.7523965102806
 20
581.3905208732862
 30
0.0
 11
767.5009109244579
 21
581.3905208732862
 31
0.0
  0
LINE
  5
1A784
330
1A780
100
AcDbEntity
  8
DIM
 62
     0
 48
0.05
370
    -2
100
AcDbLine
 10
805.8340342773164
 20
511.4972262578772
 30
0.0
 11
767.5009109244579
 21
511.4972262578772
 31
0.0
  0
LINE
  5
1A785
330
1A780
100
AcDbEntity
  8
DIM
 62
     0
 48
0.05
370
    -2
100
AcDbLine
 10
767.5009109244579
 20
578.3905208732862
 30
0.0
 11
767.5009109244579
 21
514.4972262578772
 31
0.0
  0
INSERT
  5
1A786
330
1A780
100
AcDbEntity
  8
DIM
 62
     0
370
    -2
100
AcDbBlockReference
  2
_DOT
 10
767.5009109244579
 20
581.3905208732862
 30
0.0
 41
3.0
 42
3.0
 43
3.0
 50
90.0
  0
INSERT
  5
1A787
330
1A780
100
AcDbEntity
  8
DIM
 62
     0
370
    -2
100
AcDbBlockReference
  2
_DOT
 10
767.5009109244579
 20
511.4972262578772
 30
0.0
 41
3.0
 42
3.0
 43
3.0
 50
270.0
  0
MTEXT
  5
1A788
330
1A780
100
AcDbEntity
  8
DIM
 62
     0
 48
0.05
100
AcDbMText
 10
757.5009109244579
 20
546.4438735655817
 30
0.0
 40
8.0
 41
0.0
 46
0.0
 71
     5
 72
     1
  1
\A1;70
  7
ＭＳ ゴシック
 11
0.0
 21
1.0
 31
0.0
 73
     1
 44
1.0
  0
POINT
  5
1A789
330
1A780
100
AcDbEntity
  8
Defpoints
 62
     0
100
AcDbPoint
 10
815.7523965102806
 20
581.3905208732862
 30
0.0
  0
POINT
  5
1A78A
330
1A780
100
AcDbEntity
  8
Defpoints
 62
     0
100
AcDbPoint
 10
815.8340342773164
 20
511.4972262578772
 30
0.0
  0
POINT
  5
1A78B
330
1A780
100
AcDbEntity
  8
Defpoints
 62
     0
100
AcDbPoint
 10
767.5009109244579
 20
511.4972262578772
 30
0.0
  0
ENDBLK
  5
1A782
330
1A780
100
AcDbEntity
  8
0
100
AcDbBlockEnd
  0
BLOCK
  5
1A78D
330
1A78C
100
AcDbEntity
  8
0
100
AcDbBlockBegin
  2
*D56
 70
     1
 10
0.0
 20
0.0
 30
0.0
  3
*D56
  1

  0
LINE
  5
1A78F
330
1A78C
100
AcDbEntity
  8
DIM
 62
     0
 48
0.05
370
    -2
100
AcDbLine
 10
818.3877732244846
 20
588.9961566289988
 30
0.0
 11
818.3877732244846
 21
595.6945745750709
 31
0.0
  0
LINE
  5
1A790
330
1A78C
100
AcDbEntity
  8
DIM
 62
     0
 48
0.05
370
    -2
100
AcDbLine
 10
878.2281608262974
 20
594.2635440406553
 30
0.0
 11
878.2281608262974
 21
595.6945745750709
 31
0.0
  0
LINE
  5
1A791
330
1A78C
100
AcDbEntity
  8
DIM
 62
     0
 48
0.05
370
    -2
100
AcDbLine
 10
821.3877732244846
 20
595.6945745750709
 30
0.0
 11
875.2281608262974
 21
595.6945745750709
 31
0.0
  0
INSERT
  5
1A792
330
1A78C
100
AcDbEntity
  8
DIM
 62
     0
370
    -2
100
AcDbBlockReference
  2
_DOT
 10
818.3877732244846
 20
595.6945745750709
 30
0.0
 41
3.0
 42
3.0
 43
3.0
 50
180.0
  0
INSERT
  5
1A793
330
1A78C
100
AcDbEntity
  8
DIM
 62
     0
370
    -2
100
AcDbBlockReference
  2
_DOT
 10
878.2281608262974
 20
595.6945745750709
 30
0.0
 41
3.0
 42
3.0
 43
3.0
  0
MTEXT
  5
1A794
330
1A78C
100
AcDbEntity
  8
DIM
 62
     0
 48
0.05
100
AcDbMText
 10
848.307967025391
 20
605.6945745750709
 30
0.0
 40
8.0
 41
0.0
 46
0.0
 71
     5
 72
     1
  1
\A1;46-60
  7
ＭＳ ゴシック
 73
     1
 44
1.0
  0
POINT
  5
1A795
330
1A78C
100
AcDbEntity
  8
Defpoints
 62
     0
100
AcDbPoint
 10
818.3877732244846
 20
578.9961566289988
 30
0.0
  0
POINT
  5
1A796
330
1A78C
100
AcDbEntity
  8
Defpoints
 62
     0
100
AcDbPoint
 10
878.2281608262974
 20
584.2635440406553
 30
0.0
  0
POINT
  5
1A797
330
1A78C
100
AcDbEntity
  8
Defpoints
 62
     0
100
AcDbPoint
 10
878.2281608262974
 20
595.6945745750709
 30
0.0
  0
ENDBLK
  5
1A78E
330
1A78C
100
AcDbEntity
  8
0
100
AcDbBlockEnd
  0
BLOCK
  5
1A799
330
1A798
100
AcDbEntity
  8
0
100
AcDbBlockBegin
  2
*D57
 70
     1
 10
0.0
 20
0.0
 30
0.0
  3
*D57
  1

  0
LINE
  5
1A79B
330
1A798
100
AcDbEntity
  8
DIM
 62
     0
 48
0.05
370
    -2
100
AcDbLine
 10
847.428197272911
 20
498.9440221251481
 30
0.0
 11
847.428197272911
 21
491.5491824902481
 31
0.0
  0
LINE
  5
1A79C
330
1A798
100
AcDbEntity
  8
DIM
 62
     0
 48
0.05
370
    -2
100
AcDbLine
 10
872.1628302713581
 20
496.5507275097391
 30
0.0
 11
872.1628302713581
 21
491.5491824902481
 31
0.0
  0
LINE
  5
1A79D
330
1A798
100
AcDbEntity
  8
DIM
 62
     0
 48
0.05
370
    -2
100
AcDbLine
 10
847.428197272911
 20
491.5491824902481
 30
0.0
 11
805.0601972729111
 21
491.5491824902481
 31
0.0
  0
LINE
  5
1A79E
330
1A798
100
AcDbEntity
  8
DIM
 62
     0
 48
0.05
370
    -2
100
AcDbLine
 10
847.428197272911
 20
491.5491824902481
 30
0.0
 11
872.1628302713581
 21
491.5491824902481
 31
0.0
  0
LINE
  5
1A79F
330
1A798
100
AcDbEntity
  8
DIM
 62
     0
 48
0.05
370
    -2
100
AcDbLine
 10
844.428197272911
 20
491.5491824902481
 30
0.0
 11
841.428197272911
 21
491.5491824902481
 31
0.0
  0
LINE
  5
1A7A0
330
1A798
100
AcDbEntity
  8
DIM
 62
     0
 48
0.05
370
    -2
100
AcDbLine
 10
875.1628302713581
 20
491.5491824902481
 30
0.0
 11
878.1628302713581
 21
491.5491824902481
 31
0.0
  0
INSERT
  5
1A7A1
330
1A798
100
AcDbEntity
  8
DIM
 62
     0
370
    -2
100
AcDbBlockReference
  2
_DOT
 10
847.428197272911
 20
491.5491824902481
 30
0.0
 41
3.0
 42
3.0
 43
3.0
  0
INSERT
  5
1A7A2
330
1A798
100
AcDbEntity
  8
DIM
 62
     0
370
    -2
100
AcDbBlockReference
  2
_DOT
 10
872.1628302713581
 20
491.5491824902481
 30
0.0
 41
3.0
 42
3.0
 43
3.0
 50
180.0
  0
MTEXT
  5
1A7A3
330
1A798
100
AcDbEntity
  8
DIM
 62
     0
 48
0.05
100
AcDbMText
 10
823.244197272911
 20
501.5491824902481
 30
0.0
 40
8.0
 41
0.0
 46
0.0
 71
     5
 72
     1
  1
\A1;11-25
  7
ＭＳ ゴシック
 73
     1
 44
1.0
  0
POINT
  5
1A7A4
330
1A798
100
AcDbEntity
  8
Defpoints
 62
     0
100
AcDbPoint
 10
847.428197272911
 20
508.9440221251481
 30
0.0
  0
POINT
  5
1A7A5
330
1A798
100
AcDbEntity
  8
Defpoints
 62
     0
100
AcDbPoint
 10
872.1628302713581
 20
506.5507275097391
 30
0.0
  0
POINT
  5
1A7A6
330
1A798
100
AcDbEntity
  8
Defpoints
 62
     0
100
AcDbPoint
 10
872.1628302713581
 20
491.5491824902481
 30
0.0
  0
ENDBLK
  5
1A79A
330
1A798
100
AcDbEntity
  8
0
100
AcDbBlockEnd
  0
BLOCK
  5
1A7A8
330
1A7A7
100
AcDbEntity
  8
0
100
AcDbBlockBegin
  2
*D58
 70
     1
 10
0.0
 20
0.0
 30
0.0
  3
*D58
  1

  0
LINE
  5
1A7AA
330
1A7A7
100
AcDbEntity
  8
DIM
 62
     0
 48
0.05
370
    -2
100
AcDbLine
 10
901.2053935775414
 20
460.728610334647
 30
0.0
 11
901.2053935775414
 21
467.4557920043989
 31
0.0
  0
LINE
  5
1A7AB
330
1A7A7
100
AcDbEntity
  8
DIM
 62
     0
 48
0.05
370
    -2
100
AcDbLine
 10
859.237434904832
 20
460.728610334647
 30
0.0
 11
859.237434904832
 21
467.4557920043989
 31
0.0
  0
LINE
  5
1A7AC
330
1A7A7
100
AcDbEntity
  8
DIM
 62
     0
 48
0.05
370
    -2
100
AcDbLine
 10
898.2053935775414
 20
467.4557920043989
 30
0.0
 11
862.237434904832
 21
467.4557920043989
 31
0.0
  0
INSERT
  5
1A7AD
330
1A7A7
100
AcDbEntity
  8
DIM
 62
     0
370
    -2
100
AcDbBlockReference
  2
_DOT
 10
901.2053935775414
 20
467.4557920043989
 30
0.0
 41
3.0
 42
3.0
 43
3.0
  0
INSERT
  5
1A7AE
330
1A7A7
100
AcDbEntity
  8
DIM
 62
     0
370
    -2
100
AcDbBlockReference
  2
_DOT
 10
859.237434904832
 20
467.4557920043989
 30
0.0
 41
3.0
 42
3.0
 43
3.0
 50
180.0
  0
MTEXT
  5
1A7AF
330
1A7A7
100
AcDbEntity
  8
DIM
 62
     0
 48
0.05
100
AcDbMText
 10
880.2214142411867
 20
477.4557920043989
 30
0.0
 40
8.0
 41
0.0
 46
0.0
 71
     5
 72
     1
  1
\A1;42
  7
ＭＳ ゴシック
 73
     1
 44
1.0
  0
POINT
  5
1A7B0
330
1A7A7
100
AcDbEntity
  8
Defpoints
 62
     0
100
AcDbPoint
 10
901.2053935775414
 20
450.728610334647
 30
0.0
  0
POINT
  5
1A7B1
330
1A7A7
100
AcDbEntity
  8
Defpoints
 62
     0
100
AcDbPoint
 10
859.237434904832
 20
450.728610334647
 30
0.0
  0
POINT
  5
1A7B2
330
1A7A7
100
AcDbEntity
  8
Defpoints
 62
     0
100
AcDbPoint
 10
859.237434904832
 20
467.4557920043989
 30
0.0
  0
ENDBLK
  5
1A7A9
330
1A7A7
100
AcDbEntity
  8
0
100
AcDbBlockEnd
  0
BLOCK
  5
1A7B4
330
1A7B3
100
AcDbEntity
  8
0
100
AcDbBlockBegin
  2
*D59
 70
     1
 10
0.0
 20
0.0
 30
0.0
  3
*D59
  1

  0
LINE
  5
1A7B6
330
1A7B3
100
AcDbEntity
  8
DIM
 62
     0
 48
0.05
370
    -2
100
AcDbLine
 10
817.2694762321225
 20
460.728610334647
 30
0.0
 11
817.2694762321225
 21
467.4557920043989
 31
0.0
  0
LINE
  5
1A7B7
330
1A7B3
100
AcDbEntity
  8
DIM
 62
     0
 48
0.05
370
    -2
100
AcDbLine
 10
859.237434904832
 20
460.728610334647
 30
0.0
 11
859.237434904832
 21
467.4557920043989
 31
0.0
  0
LINE
  5
1A7B8
330
1A7B3
100
AcDbEntity
  8
DIM
 62
     0
 48
0.05
370
    -2
100
AcDbLine
 10
820.2694762321225
 20
467.4557920043989
 30
0.0
 11
856.237434904832
 21
467.4557920043989
 31
0.0
  0
INSERT
  5
1A7B9
330
1A7B3
100
AcDbEntity
  8
DIM
 62
     0
370
    -2
100
AcDbBlockReference
  2
_DOT
 10
817.2694762321225
 20
467.4557920043989
 30
0.0
 41
3.0
 42
3.0
 43
3.0
 50
180.0
  0
INSERT
  5
1A7BA
330
1A7B3
100
AcDbEntity
  8
DIM
 62
     0
370
    -2
100
AcDbBlockReference
  2
_DOT
 10
859.237434904832
 20
467.4557920043989
 30
0.0
 41
3.0
 42
3.0
 43
3.0
  0
MTEXT
  5
1A7BB
330
1A7B3
100
AcDbEntity
  8
DIM
 62
     0
 48
0.05
100
AcDbMText
 10
838.2534555684772
 20
477.4557920043989
 30
0.0
 40
8.0
 41
0.0
 46
0.0
 71
     5
 72
     1
  1
\A1;42
  7
ＭＳ ゴシック
 73
     1
 44
1.0
  0
POINT
  5
1A7BC
330
1A7B3
100
AcDbEntity
  8
Defpoints
 62
     0
100
AcDbPoint
 10
817.2694762321225
 20
450.728610334647
 30
0.0
  0
POINT
  5
1A7BD
330
1A7B3
100
AcDbEntity
  8
Defpoints
 62
     0
100
AcDbPoint
 10
859.237434904832
 20
450.728610334647
 30
0.0
  0
POINT
  5
1A7BE
330
1A7B3
100
AcDbEntity
  8
Defpoints
 62
     0
100
AcDbPoint
 10
859.237434904832
 20
467.4557920043989
 30
0.0
  0
ENDBLK
  5
1A7B5
330
1A7B3
100
AcDbEntity
  8
0
100
AcDbBlockEnd
  0
BLOCK
  5
1A7C0
330
1A7BF
100
AcDbEntity
  8
0
100
AcDbBlockBegin
  2
*D60
 70
     1
 10
0.0
 20
0.0
 30
0.0
  3
*D60
  1

  0
LINE
  5
1A7C2
330
1A7BF
100
AcDbEntity
  8
DIM
 62
     0
 48
0.05
370
    -2
100
AcDbLine
 10
817.2689414176833
 20
439.3160350874655
 30
0.0
 11
817.2689414176833
 21
467.4557920043989
 31
0.0
  0
LINE
  5
1A7C3
330
1A7BF
100
AcDbEntity
  8
DIM
 62
     0
 48
0.05
370
    -2
100
AcDbLine
 10
803.2279231309911
 20
439.6358541221056
 30
0.0
 11
803.2279231309911
 21
467.4557920043989
 31
0.0
  0
LINE
  5
1A7C4
330
1A7BF
100
AcDbEntity
  8
DIM
 62
     0
 48
0.05
370
    -2
100
AcDbLine
 10
814.2689414176833
 20
467.4557920043989
 30
0.0
 11
806.2279231309911
 21
467.4557920043989
 31
0.0
  0
INSERT
  5
1A7C5
330
1A7BF
100
AcDbEntity
  8
DIM
 62
     0
370
    -2
100
AcDbBlockReference
  2
_DOT
 10
817.2689414176833
 20
467.4557920043989
 30
0.0
 41
3.0
 42
3.0
 43
3.0
  0
INSERT
  5
1A7C6
330
1A7BF
100
AcDbEntity
  8
DIM
 62
     0
370
    -2
100
AcDbBlockReference
  2
_DOT
 10
803.2279231309911
 20
467.4557920043989
 30
0.0
 41
3.0
 42
3.0
 43
3.0
 50
180.0
  0
MTEXT
  5
1A7C7
330
1A7BF
100
AcDbEntity
  8
DIM
 62
     0
 48
0.05
100
AcDbMText
 10
810.2489670887765
 20
477.4557920043989
 30
0.0
 40
8.0
 41
0.0
 46
0.0
 71
     5
 72
     1
  1
\A1;14
  7
ＭＳ ゴシック
 73
     1
 44
1.0
  0
POINT
  5
1A7C8
330
1A7BF
100
AcDbEntity
  8
Defpoints
 62
     0
100
AcDbPoint
 10
817.2689414176833
 20
429.3160350874655
 30
0.0
  0
POINT
  5
1A7C9
330
1A7BF
100
AcDbEntity
  8
Defpoints
 62
     0
100
AcDbPoint
 10
803.2279231309911
 20
429.6358541221056
 30
0.0
  0
POINT
  5
1A7CA
330
1A7BF
100
AcDbEntity
  8
Defpoints
 62
     0
100
AcDbPoint
 10
803.2279231309911
 20
467.4557920043989
 30
0.0
  0
ENDBLK
  5
1A7C1
330
1A7BF
100
AcDbEntity
  8
0
100
AcDbBlockEnd
  0
BLOCK
  5
1A7CC
330
1A7CB
100
AcDbEntity
  8
0
100
AcDbBlockBegin
  2
*D61
 70
     1
 10
0.0
 20
0.0
 30
0.0
  3
*D61
  1

  0
LINE
  5
1A7CE
330
1A7CB
100
AcDbEntity
  8
DIM
 62
     0
 48
0.05
370
    -2
100
AcDbLine
 10
980.8339154296632
 20
358.4151894849371
 30
0.0
 11
980.8339154296632
 21
350.3890866004245
 31
0.0
  0
LINE
  5
1A7CF
330
1A7CB
100
AcDbEntity
  8
DIM
 62
     0
 48
0.05
370
    -2
100
AcDbLine
 10
1007.96130822908
 20
358.4151894849371
 30
0.0
 11
1007.96130822908
 21
350.3890866004245
 31
0.0
  0
LINE
  5
1A7D0
330
1A7CB
100
AcDbEntity
  8
DIM
 62
     0
 48
0.05
370
    -2
100
AcDbLine
 10
980.8339154296632
 20
350.3890866004245
 30
0.0
 11
916.3153186122021
 21
350.3890866004245
 31
0.0
  0
LINE
  5
1A7D1
330
1A7CB
100
AcDbEntity
  8
DIM
 62
     0
 48
0.05
370
    -2
100
AcDbLine
 10
983.8339154296632
 20
350.3890866004245
 30
0.0
 11
1004.96130822908
 21
350.3890866004245
 31
0.0
  0
LINE
  5
1A7D2
330
1A7CB
100
AcDbEntity
  8
DIM
 62
     0
 48
0.05
370
    -2
100
AcDbLine
 10
983.8339154296632
 20
350.3890866004245
 30
0.0
 11
986.8339154296632
 21
350.3890866004245
 31
0.0
  0
INSERT
  5
1A7D3
330
1A7CB
100
AcDbEntity
  8
DIM
 62
     0
370
    -2
100
AcDbBlockReference
  2
_DOT
 10
980.8339154296632
 20
350.3890866004245
 30
0.0
 41
3.0
 42
3.0
 43
3.0
 50
180.0
  0
INSERT
  5
1A7D4
330
1A7CB
100
AcDbEntity
  8
DIM
 62
     0
370
    -2
100
AcDbBlockReference
  2
_DOT
 10
1007.96130822908
 20
350.3890866004245
 30
0.0
 41
3.0
 42
3.0
 43
3.0
  0
MTEXT
  5
1A7D5
330
1A7CB
100
AcDbEntity
  8
DIM
 62
     0
 48
0.05
100
AcDbMText
 10
934.8233186122021
 20
361.2410866004245
 30
0.0
 40
8.0
 41
0.0
 46
0.0
 71
     5
 72
     1
  1
\A1;G1/2"
  7
ＭＳ ゴシック
 73
     1
 44
1.0
  0
POINT
  5
1A7D6
330
1A7CB
100
AcDbEntity
  8
Defpoints
 62
     0
100
AcDbPoint
 10
980.8339154296632
 20
368.4151894849371
 30
0.0
  0
POINT
  5
1A7D7
330
1A7CB
100
AcDbEntity
  8
Defpoints
 62
     0
100
AcDbPoint
 10
1007.96130822908
 20
368.4151894849371
 30
0.0
  0
POINT
  5
1A7D8
330
1A7CB
100
AcDbEntity
  8
Defpoints
 62
     0
100
AcDbPoint
 10
1007.96130822908
 20
350.3890866004245
 30
0.0
  0
ENDBLK
  5
1A7CD
330
1A7CB
100
AcDbEntity
  8
0
100
AcDbBlockEnd
  0
BLOCK
  5
1A7DA
330
1A7D9
100
AcDbEntity
  8
0
100
AcDbBlockBegin
  2
*D62
 70
     1
 10
0.0
 20
0.0
 30
0.0
  3
*D62
  1

  0
LINE
  5
1A7DC
330
1A7D9
100
AcDbEntity
  8
DIM
 62
     0
 48
0.05
370
    -2
100
AcDbLine
 10
980.8339154296632
 20
444.5812832413653
 30
0.0
 11
980.8339154296632
 21
462.0284950754223
 31
0.0
  0
LINE
  5
1A7DD
330
1A7D9
100
AcDbEntity
  8
DIM
 62
     0
 48
0.05
370
    -2
100
AcDbLine
 10
1007.96130822908
 20
444.5812832413653
 30
0.0
 11
1007.96130822908
 21
462.0284950754223
 31
0.0
  0
LINE
  5
1A7DE
330
1A7D9
100
AcDbEntity
  8
DIM
 62
     0
 48
0.05
370
    -2
100
AcDbLine
 10
980.8339154296632
 20
462.0284950754223
 30
0.0
 11
1054.92750215124
 21
462.0284950754223
 31
0.0
  0
LINE
  5
1A7DF
330
1A7D9
100
AcDbEntity
  8
DIM
 62
     0
 48
0.05
370
    -2
100
AcDbLine
 10
977.8339154296632
 20
462.0284950754223
 30
0.0
 11
974.8339154296632
 21
462.0284950754223
 31
0.0
  0
LINE
  5
1A7E0
330
1A7D9
100
AcDbEntity
  8
DIM
 62
     0
 48
0.05
370
    -2
100
AcDbLine
 10
1010.96130822908
 20
462.0284950754223
 30
0.0
 11
1013.96130822908
 21
462.0284950754223
 31
0.0
  0
INSERT
  5
1A7E1
330
1A7D9
100
AcDbEntity
  8
DIM
 62
     0
370
    -2
100
AcDbBlockReference
  2
_DOT
 10
980.8339154296632
 20
462.0284950754223
 30
0.0
 41
3.0
 42
3.0
 43
3.0
  0
INSERT
  5
1A7E2
330
1A7D9
100
AcDbEntity
  8
DIM
 62
     0
370
    -2
100
AcDbBlockReference
  2
_DOT
 10
1007.96130822908
 20
462.0284950754223
 30
0.0
 41
3.0
 42
3.0
 43
3.0
 50
180.0
  0
MTEXT
  5
1A7E3
330
1A7D9
100
AcDbEntity
  8
DIM
 62
     0
 48
0.05
100
AcDbMText
 10
1036.41950215124
 20
472.8804950754222
 30
0.0
 40
8.0
 41
0.0
 46
0.0
 71
     5
 72
     1
  1
\A1;G1/2"
  7
ＭＳ ゴシック
 73
     1
 44
1.0
  0
POINT
  5
1A7E4
330
1A7D9
100
AcDbEntity
  8
Defpoints
 62
     0
100
AcDbPoint
 10
980.8339154296632
 20
434.5812832413653
 30
0.0
  0
POINT
  5
1A7E5
330
1A7D9
100
AcDbEntity
  8
Defpoints
 62
     0
100
AcDbPoint
 10
1007.96130822908
 20
434.5812832413653
 30
0.0
  0
POINT
  5
1A7E6
330
1A7D9
100
AcDbEntity
  8
Defpoints
 62
     0
100
AcDbPoint
 10
1007.96130822908
 20
462.0284950754223
 30
0.0
  0
ENDBLK
  5
1A7DB
330
1A7D9
100
AcDbEntity
  8
0
100
AcDbBlockEnd
  0
BLOCK
  5
1A7E8
330
1A7E7
100
AcDbEntity
  8
0
100
AcDbBlockBegin
  2
*D63
 70
     1
 10
0.0
 20
0.0
 30
0.0
  3
*D63
  1

  0
LINE
  5
1A7EA
330
1A7E7
100
AcDbEntity
  8
DIM
 62
     0
 48
0.05
370
    -2
100
AcDbLine
 10
1206.78927228955
 20
466.2742910804244
 30
0.0
 11
1206.78927228955
 21
479.7426189305232
 31
0.0
  0
LINE
  5
1A7EB
330
1A7E7
100
AcDbEntity
  8
DIM
 62
     0
 48
0.05
370
    -2
100
AcDbLine
 10
956.8966907600596
 20
466.2742910804244
 30
0.0
 11
956.8966907600596
 21
479.7426189305232
 31
0.0
  0
LINE
  5
1A7EC
330
1A7E7
100
AcDbEntity
  8
DIM
 62
     0
 48
0.05
370
    -2
100
AcDbLine
 10
1203.78927228955
 20
479.7426189305232
 30
0.0
 11
959.8966907600596
 21
479.7426189305232
 31
0.0
  0
INSERT
  5
1A7ED
330
1A7E7
100
AcDbEntity
  8
DIM
 62
     0
370
    -2
100
AcDbBlockReference
  2
_DOT
 10
1206.78927228955
 20
479.7426189305232
 30
0.0
 41
3.0
 42
3.0
 43
3.0
  0
INSERT
  5
1A7EE
330
1A7E7
100
AcDbEntity
  8
DIM
 62
     0
370
    -2
100
AcDbBlockReference
  2
_DOT
 10
956.8966907600596
 20
479.7426189305232
 30
0.0
 41
3.0
 42
3.0
 43
3.0
 50
180.0
  0
MTEXT
  5
1A7EF
330
1A7E7
100
AcDbEntity
  8
DIM
 62
     0
 48
0.05
100
AcDbMText
 10
1081.842981524805
 20
489.7426189305232
 30
0.0
 40
8.0
 41
0.0
 46
0.0
 71
     5
 72
     1
  1
\A1;250
  7
ＭＳ ゴシック
 73
     1
 44
1.0
  0
POINT
  5
1A7F0
330
1A7E7
100
AcDbEntity
  8
Defpoints
 62
     0
100
AcDbPoint
 10
1206.78927228955
 20
456.2742910804244
 30
0.0
  0
POINT
  5
1A7F1
330
1A7E7
100
AcDbEntity
  8
Defpoints
 62
     0
100
AcDbPoint
 10
956.8966907600596
 20
456.2742910804244
 30
0.0
  0
POINT
  5
1A7F2
330
1A7E7
100
AcDbEntity
  8
Defpoints
 62
     0
100
AcDbPoint
 10
956.8966907600596
 20
479.7426189305232
 30
0.0
  0
ENDBLK
  5
1A7E9
330
1A7E7
100
AcDbEntity
  8
0
100
AcDbBlockEnd
  0
BLOCK
  5
1A7F4
330
1A7F3
100
AcDbEntity
  8
0
100
AcDbBlockBegin
  2
*D64
 70
     1
 10
0.0
 20
0.0
 30
0.0
  3
*D64
  1

  0
LINE
  5
1A7F6
330
1A7F3
100
AcDbEntity
  8
DIM
 62
     0
 48
0.05
370
    -2
100
AcDbLine
 10
1218.784531216151
 20
453.8918281974709
 30
0.0
 11
1264.541803448657
 21
453.8918281974709
 31
0.0
  0
LINE
  5
1A7F7
330
1A7F3
100
AcDbEntity
  8
DIM
 62
     0
 48
0.05
370
    -2
100
AcDbLine
 10
1218.784531216151
 20
341.8706653920324
 30
0.0
 11
1264.541803448657
 21
341.8706653920324
 31
0.0
  0
LINE
  5
1A7F8
330
1A7F3
100
AcDbEntity
  8
DIM
 62
     0
 48
0.05
370
    -2
100
AcDbLine
 10
1264.541803448657
 20
450.8918281974709
 30
0.0
 11
1264.541803448657
 21
344.8706653920324
 31
0.0
  0
INSERT
  5
1A7F9
330
1A7F3
100
AcDbEntity
  8
DIM
 62
     0
370
    -2
100
AcDbBlockReference
  2
_DOT
 10
1264.541803448657
 20
453.8918281974709
 30
0.0
 41
3.0
 42
3.0
 43
3.0
 50
90.0
  0
INSERT
  5
1A7FA
330
1A7F3
100
AcDbEntity
  8
DIM
 62
     0
370
    -2
100
AcDbBlockReference
  2
_DOT
 10
1264.541803448657
 20
341.8706653920324
 30
0.0
 41
3.0
 42
3.0
 43
3.0
 50
270.0
  0
MTEXT
  5
1A7FB
330
1A7F3
100
AcDbEntity
  8
DIM
 62
     0
 48
0.05
100
AcDbMText
 10
1254.541803448657
 20
397.8812467947516
 30
0.0
 40
8.0
 41
0.0
 46
0.0
 71
     5
 72
     1
  1
\A1;112
  7
ＭＳ ゴシック
 11
0.0
 21
1.0
 31
0.0
 73
     1
 44
1.0
  0
POINT
  5
1A7FC
330
1A7F3
100
AcDbEntity
  8
Defpoints
 62
     0
100
AcDbPoint
 10
1208.784531216151
 20
453.8918281974709
 30
0.0
  0
POINT
  5
1A7FD
330
1A7F3
100
AcDbEntity
  8
Defpoints
 62
     0
100
AcDbPoint
 10
1208.784531216151
 20
341.8706653920324
 30
0.0
  0
POINT
  5
1A7FE
330
1A7F3
100
AcDbEntity
  8
Defpoints
 62
     0
100
AcDbPoint
 10
1264.541803448657
 20
341.8706653920324
 30
0.0
  0
ENDBLK
  5
1A7F5
330
1A7F3
100
AcDbEntity
  8
0
100
AcDbBlockEnd
  0
BLOCK
  5
1A800
330
1A7FF
100
AcDbEntity
  8
0
100
AcDbBlockBegin
  2
*D65
 70
     1
 10
0.0
 20
0.0
 30
0.0
  3
*D65
  1

  0
LINE
  5
1A802
330
1A7FF
100
AcDbEntity
  8
DIM
 62
     0
 48
0.05
370
    -2
100
AcDbLine
 10
1157.397918998632
 20
421.4981176152759
 30
0.0
 11
1239.611869229315
 21
421.4981176152759
 31
0.0
  0
LINE
  5
1A803
330
1A7FF
100
AcDbEntity
  8
DIM
 62
     0
 48
0.05
370
    -2
100
AcDbLine
 10
1157.397918998632
 20
374.4216114193515
 30
0.0
 11
1239.611869229315
 21
374.4216114193515
 31
0.0
  0
LINE
  5
1A804
330
1A7FF
100
AcDbEntity
  8
DIM
 62
     0
 48
0.05
370
    -2
100
AcDbLine
 10
1239.611869229315
 20
418.4981176152759
 30
0.0
 11
1239.611869229315
 21
377.4216114193515
 31
0.0
  0
INSERT
  5
1A805
330
1A7FF
100
AcDbEntity
  8
DIM
 62
     0
370
    -2
100
AcDbBlockReference
  2
_DOT
 10
1239.611869229315
 20
421.4981176152759
 30
0.0
 41
3.0
 42
3.0
 43
3.0
 50
90.0
  0
INSERT
  5
1A806
330
1A7FF
100
AcDbEntity
  8
DIM
 62
     0
370
    -2
100
AcDbBlockReference
  2
_DOT
 10
1239.611869229315
 20
374.4216114193515
 30
0.0
 41
3.0
 42
3.0
 43
3.0
 50
270.0
  0
MTEXT
  5
1A807
330
1A7FF
100
AcDbEntity
  8
DIM
 62
     0
 48
0.05
100
AcDbMText
 10
1229.611869229315
 20
397.9598645173137
 30
0.0
 40
8.0
 41
0.0
 46
0.0
 71
     5
 72
     1
  1
\A1;47
  7
ＭＳ ゴシック
 11
0.0
 21
1.0
 31
0.0
 73
     1
 44
1.0
  0
POINT
  5
1A808
330
1A7FF
100
AcDbEntity
  8
Defpoints
 62
     0
100
AcDbPoint
 10
1147.397918998632
 20
421.4981176152759
 30
0.0
  0
POINT
  5
1A809
330
1A7FF
100
AcDbEntity
  8
Defpoints
 62
     0
100
AcDbPoint
 10
1147.397918998632
 20
374.4216114193515
 30
0.0
  0
POINT
  5
1A80A
330
1A7FF
100
AcDbEntity
  8
Defpoints
 62
     0
100
AcDbPoint
 10
1239.611869229315
 20
374.4216114193515
 30
0.0
  0
ENDBLK
  5
1A801
330
1A7FF
100
AcDbEntity
  8
0
100
AcDbBlockEnd
  0
BLOCK
  5
1A80C
330
1A80B
100
AcDbEntity
  8
0
100
AcDbBlockBegin
  2
*D66
 70
     1
 10
0.0
 20
0.0
 30
0.0
  3
*D66
  1

  0
LINE
  5
1A80E
330
1A80B
100
AcDbEntity
  8
DIM
 62
     0
 48
0.05
370
    -2
100
AcDbLine
 10
994.3973444221521
 20
354.669272503177
 30
0.0
 11
994.3973444221521
 21
299.9492448394736
 31
0.0
  0
LINE
  5
1A80F
330
1A80B
100
AcDbEntity
  8
DIM
 62
     0
 48
0.05
370
    -2
100
AcDbLine
 10
1124.450310859575
 20
362.3264732182076
 30
0.0
 11
1124.450310859575
 21
299.9492448394736
 31
0.0
  0
LINE
  5
1A810
330
1A80B
100
AcDbEntity
  8
DIM
 62
     0
 48
0.05
370
    -2
100
AcDbLine
 10
997.3973444221521
 20
299.9492448394736
 30
0.0
 11
1121.450310859575
 21
299.9492448394736
 31
0.0
  0
INSERT
  5
1A811
330
1A80B
100
AcDbEntity
  8
DIM
 62
     0
370
    -2
100
AcDbBlockReference
  2
_DOT
 10
994.3973444221521
 20
299.9492448394736
 30
0.0
 41
3.0
 42
3.0
 43
3.0
 50
180.0
  0
INSERT
  5
1A812
330
1A80B
100
AcDbEntity
  8
DIM
 62
     0
370
    -2
100
AcDbBlockReference
  2
_DOT
 10
1124.450310859575
 20
299.9492448394736
 30
0.0
 41
3.0
 42
3.0
 43
3.0
  0
MTEXT
  5
1A813
330
1A80B
100
AcDbEntity
  8
DIM
 62
     0
 48
0.05
100
AcDbMText
 10
1059.423827640863
 20
309.9492448394736
 30
0.0
 40
8.0
 41
0.0
 46
0.0
 71
     5
 72
     1
  1
\A1;130
  7
ＭＳ ゴシック
 73
     1
 44
1.0
  0
POINT
  5
1A814
330
1A80B
100
AcDbEntity
  8
Defpoints
 62
     0
100
AcDbPoint
 10
994.3973444221521
 20
364.669272503177
 30
0.0
  0
POINT
  5
1A815
330
1A80B
100
AcDbEntity
  8
Defpoints
 62
     0
100
AcDbPoint
 10
1124.450310859575
 20
372.3264732182076
 30
0.0
  0
POINT
  5
1A816
330
1A80B
100
AcDbEntity
  8
Defpoints
 62
     0
100
AcDbPoint
 10
1124.450310859575
 20
299.9492448394736
 30
0.0
  0
ENDBLK
  5
1A80D
330
1A80B
100
AcDbEntity
  8
0
100
AcDbBlockEnd
  0
BLOCK
  5
1A818
330
1A817
100
AcDbEntity
  8
0
100
AcDbBlockBegin
  2
*D67
 70
     1
 10
0.0
 20
0.0
 30
0.0
  3
*D67
  1

  0
LINE
  5
1A81A
330
1A817
100
AcDbEntity
  8
DIM
 62
     0
 48
0.05
370
    -2
100
AcDbLine
 10
1067.321432464494
 20
351.1774666470636
 30
0.0
 11
1067.321432464494
 21
324.9544846802141
 31
0.0
  0
LINE
  5
1A81B
330
1A817
100
AcDbEntity
  8
DIM
 62
     0
 48
0.05
370
    -2
100
AcDbLine
 10
1101.312098962132
 20
351.1774666470636
 30
0.0
 11
1101.312098962132
 21
324.9544846802141
 31
0.0
  0
LINE
  5
1A81C
330
1A817
100
AcDbEntity
  8
DIM
 62
     0
 48
0.05
370
    -2
100
AcDbLine
 10
1070.321432464494
 20
324.9544846802141
 30
0.0
 11
1098.312098962132
 21
324.9544846802141
 31
0.0
  0
INSERT
  5
1A81D
330
1A817
100
AcDbEntity
  8
DIM
 62
     0
370
    -2
100
AcDbBlockReference
  2
_DOT
 10
1067.321432464494
 20
324.9544846802141
 30
0.0
 41
3.0
 42
3.0
 43
3.0
 50
180.0
  0
INSERT
  5
1A81E
330
1A817
100
AcDbEntity
  8
DIM
 62
     0
370
    -2
100
AcDbBlockReference
  2
_DOT
 10
1101.312098962132
 20
324.9544846802141
 30
0.0
 41
3.0
 42
3.0
 43
3.0
  0
MTEXT
  5
1A81F
330
1A817
100
AcDbEntity
  8
DIM
 62
     0
 48
0.05
100
AcDbMText
 10
1084.316765713313
 20
335.8064846802141
 30
0.0
 40
8.0
 41
0.0
 46
0.0
 71
     5
 72
     1
  1
\A1;G3/4"
  7
ＭＳ ゴシック
 73
     1
 44
1.0
  0
POINT
  5
1A820
330
1A817
100
AcDbEntity
  8
Defpoints
 62
     0
100
AcDbPoint
 10
1067.321432464494
 20
361.1774666470636
 30
0.0
  0
POINT
  5
1A821
330
1A817
100
AcDbEntity
  8
Defpoints
 62
     0
100
AcDbPoint
 10
1101.312098962132
 20
361.1774666470636
 30
0.0
  0
POINT
  5
1A822
330
1A817
100
AcDbEntity
  8
Defpoints
 62
     0
100
AcDbPoint
 10
1101.312098962132
 20
324.9544846802141
 30
0.0
  0
ENDBLK
  5
1A819
330
1A817
100
AcDbEntity
  8
0
100
AcDbBlockEnd
  0
BLOCK
  5
1A824
330
1A823
100
AcDbEntity
  8
0
100
AcDbBlockBegin
  2
*D68
 70
     1
 10
0.0
 20
0.0
 30
0.0
  3
*D68
  1

  0
LINE
  5
1A826
330
1A823
100
AcDbEntity
  8
DIM
 62
     0
 48
0.05
370
    -2
100
AcDbLine
 10
1181.579189254656
 20
351.1774666470636
 30
0.0
 11
1181.579189254656
 21
324.9544846802141
 31
0.0
  0
LINE
  5
1A827
330
1A823
100
AcDbEntity
  8
DIM
 62
     0
 48
0.05
370
    -2
100
AcDbLine
 10
1147.588522757017
 20
351.1774666470636
 30
0.0
 11
1147.588522757017
 21
324.9544846802141
 31
0.0
  0
LINE
  5
1A828
330
1A823
100
AcDbEntity
  8
DIM
 62
     0
 48
0.05
370
    -2
100
AcDbLine
 10
1178.579189254656
 20
324.9544846802141
 30
0.0
 11
1150.588522757017
 21
324.9544846802141
 31
0.0
  0
INSERT
  5
1A829
330
1A823
100
AcDbEntity
  8
DIM
 62
     0
370
    -2
100
AcDbBlockReference
  2
_DOT
 10
1181.579189254656
 20
324.9544846802141
 30
0.0
 41
3.0
 42
3.0
 43
3.0
  0
INSERT
  5
1A82A
330
1A823
100
AcDbEntity
  8
DIM
 62
     0
370
    -2
100
AcDbBlockReference
  2
_DOT
 10
1147.588522757017
 20
324.9544846802141
 30
0.0
 41
3.0
 42
3.0
 43
3.0
 50
180.0
  0
MTEXT
  5
1A82B
330
1A823
100
AcDbEntity
  8
DIM
 62
     0
 48
0.05
100
AcDbMText
 10
1164.423411674077
 20
335.8064846802141
 30
0.0
 40
8.0
 41
0.0
 46
0.0
 71
     5
 72
     1
  1
\A1;G3/4"
  7
ＭＳ ゴシック
 73
     1
 44
1.0
  0
POINT
  5
1A82C
330
1A823
100
AcDbEntity
  8
Defpoints
 62
     0
100
AcDbPoint
 10
1181.579189254656
 20
361.1774666470636
 30
0.0
  0
POINT
  5
1A82D
330
1A823
100
AcDbEntity
  8
Defpoints
 62
     0
100
AcDbPoint
 10
1147.588522757017
 20
361.1774666470636
 30
0.0
  0
POINT
  5
1A82E
330
1A823
100
AcDbEntity
  8
Defpoints
 62
     0
100
AcDbPoint
 10
1147.588522757017
 20
324.9544846802141
 30
0.0
  0
ENDBLK
  5
1A825
330
1A823
100
AcDbEntity
  8
0
100
AcDbBlockEnd
  0
BLOCK
  5
1A830
330
1A82F
100
AcDbEntity
  8
0
100
AcDbBlockBegin
  2
*D69
 70
     1
 10
0.0
 20
0.0
 30
0.0
  3
*D69
  1

  0
LINE
  5
1A832
330
1A82F
100
AcDbEntity
  8
DIM
 62
     0
 48
0.05
370
    -2
100
AcDbLine
 10
1065.887060138566
 20
417.2186140681716
 30
0.0
 11
1065.887060138566
 21
462.0284950754223
 31
0.0
  0
LINE
  5
1A833
330
1A82F
100
AcDbEntity
  8
DIM
 62
     0
 48
0.05
370
    -2
100
AcDbLine
 10
1182.853117248825
 20
417.2186140681716
 30
0.0
 11
1182.853117248825
 21
462.0284950754223
 31
0.0
  0
LINE
  5
1A834
330
1A82F
100
AcDbEntity
  8
DIM
 62
     0
 48
0.05
370
    -2
100
AcDbLine
 10
1068.887060138566
 20
462.0284950754223
 30
0.0
 11
1179.853117248825
 21
462.0284950754223
 31
0.0
  0
INSERT
  5
1A835
330
1A82F
100
AcDbEntity
  8
DIM
 62
     0
370
    -2
100
AcDbBlockReference
  2
_DOT
 10
1065.887060138566
 20
462.0284950754223
 30
0.0
 41
3.0
 42
3.0
 43
3.0
 50
180.0
  0
INSERT
  5
1A836
330
1A82F
100
AcDbEntity
  8
DIM
 62
     0
370
    -2
100
AcDbBlockReference
  2
_DOT
 10
1182.853117248825
 20
462.0284950754223
 30
0.0
 41
3.0
 42
3.0
 43
3.0
  0
MTEXT
  5
1A837
330
1A82F
100
AcDbEntity
  8
DIM
 62
     0
 48
0.05
100
AcDbMText
 10
1124.370088693695
 20
472.0284950754223
 30
0.0
 40
8.0
 41
0.0
 46
0.0
 71
     5
 72
     1
  1
\A1;117
  7
ＭＳ ゴシック
 73
     1
 44
1.0
  0
POINT
  5
1A838
330
1A82F
100
AcDbEntity
  8
Defpoints
 62
     0
100
AcDbPoint
 10
1065.887060138566
 20
407.2186140681716
 30
0.0
  0
POINT
  5
1A839
330
1A82F
100
AcDbEntity
  8
Defpoints
 62
     0
100
AcDbPoint
 10
1182.853117248825
 20
407.2186140681716
 30
0.0
  0
POINT
  5
1A83A
330
1A82F
100
AcDbEntity
  8
Defpoints
 62
     0
100
AcDbPoint
 10
1182.853117248825
 20
462.0284950754223
 30
0.0
  0
ENDBLK
  5
1A831
330
1A82F
100
AcDbEntity
  8
0
100
AcDbBlockEnd
  0
BLOCK
  5
1A83C
330
1A83B
100
AcDbEntity
  8
0
100
AcDbBlockBegin
  2
*D70
 70
     1
 10
0.0
 20
0.0
 30
0.0
  3
*D70
  1

  0
LINE
  5
1A83E
330
1A83B
100
AcDbEntity
  8
DIM
 62
     0
 48
0.05
370
    -2
100
AcDbLine
 10
962.003633839957
 20
594.2635440406553
 30
0.0
 11
962.003633839957
 21
617.9297626049126
 31
0.0
  0
LINE
  5
1A83F
330
1A83B
100
AcDbEntity
  8
DIM
 62
     0
 48
0.05
370
    -2
100
AcDbLine
 10
1232.003633839957
 20
594.2635440406553
 30
0.0
 11
1232.003633839957
 21
617.9297626049126
 31
0.0
  0
LINE
  5
1A840
330
1A83B
100
AcDbEntity
  8
DIM
 62
     0
 48
0.05
370
    -2
100
AcDbLine
 10
965.003633839957
 20
617.9297626049126
 30
0.0
 11
1229.003633839957
 21
617.9297626049126
 31
0.0
  0
INSERT
  5
1A841
330
1A83B
100
AcDbEntity
  8
DIM
 62
     0
370
    -2
100
AcDbBlockReference
  2
_DOT
 10
962.003633839957
 20
617.9297626049126
 30
0.0
 41
3.0
 42
3.0
 43
3.0
 50
180.0
  0
INSERT
  5
1A842
330
1A83B
100
AcDbEntity
  8
DIM
 62
     0
370
    -2
100
AcDbBlockReference
  2
_DOT
 10
1232.003633839957
 20
617.9297626049126
 30
0.0
 41
3.0
 42
3.0
 43
3.0
  0
MTEXT
  5
1A843
330
1A83B
100
AcDbEntity
  8
DIM
 62
     0
 48
0.05
100
AcDbMText
 10
1097.003633839957
 20
627.9297626049126
 30
0.0
 40
8.0
 41
0.0
 46
0.0
 71
     5
 72
     1
  1
\A1;270
  7
ＭＳ ゴシック
 73
     1
 44
1.0
  0
POINT
  5
1A844
330
1A83B
100
AcDbEntity
  8
Defpoints
 62
     0
100
AcDbPoint
 10
962.003633839957
 20
584.2635440406553
 30
0.0
  0
POINT
  5
1A845
330
1A83B
100
AcDbEntity
  8
Defpoints
 62
     0
100
AcDbPoint
 10
1232.003633839957
 20
584.2635440406553
 30
0.0
  0
POINT
  5
1A846
330
1A83B
100
AcDbEntity
  8
Defpoints
 62
     0
100
AcDbPoint
 10
1232.003633839957
 20
617.9297626049126
 30
0.0
  0
ENDBLK
  5
1A83D
330
1A83B
100
AcDbEntity
  8
0
100
AcDbBlockEnd
  0
BLOCK
  5
1A848
330
1A847
100
AcDbEntity
  8
0
100
AcDbBlockBegin
  2
*D71
 70
     1
 10
0.0
 20
0.0
 30
0.0
  3
*D71
  1

  0
LINE
  5
1A84A
330
1A847
100
AcDbEntity
  8
DIM
 62
     0
 48
0.05
370
    -2
100
AcDbLine
 10
1031.897463269805
 20
589.8647017538747
 30
0.0
 11
1031.897463269805
 21
598.3611045617733
 31
0.0
  0
LINE
  5
1A84B
330
1A847
100
AcDbEntity
  8
DIM
 62
     0
 48
0.05
370
    -2
100
AcDbLine
 10
1161.949360078349
 20
591.5630914742328
 30
0.0
 11
1161.949360078349
 21
598.3611045617733
 31
0.0
  0
LINE
  5
1A84C
330
1A847
100
AcDbEntity
  8
DIM
 62
     0
 48
0.05
370
    -2
100
AcDbLine
 10
1034.897463269805
 20
598.3611045617733
 30
0.0
 11
1158.949360078349
 21
598.3611045617733
 31
0.0
  0
INSERT
  5
1A84D
330
1A847
100
AcDbEntity
  8
DIM
 62
     0
370
    -2
100
AcDbBlockReference
  2
_DOT
 10
1031.897463269805
 20
598.3611045617733
 30
0.0
 41
3.0
 42
3.0
 43
3.0
 50
180.0
  0
INSERT
  5
1A84E
330
1A847
100
AcDbEntity
  8
DIM
 62
     0
370
    -2
100
AcDbBlockReference
  2
_DOT
 10
1161.949360078349
 20
598.3611045617733
 30
0.0
 41
3.0
 42
3.0
 43
3.0
  0
MTEXT
  5
1A84F
330
1A847
100
AcDbEntity
  8
DIM
 62
     0
 48
0.05
100
AcDbMText
 10
1096.923411674077
 20
608.3611045617733
 30
0.0
 40
8.0
 41
0.0
 46
0.0
 71
     5
 72
     1
  1
\A1;130
  7
ＭＳ ゴシック
 73
     1
 44
1.0
  0
POINT
  5
1A850
330
1A847
100
AcDbEntity
  8
Defpoints
 62
     0
100
AcDbPoint
 10
1031.897463269805
 20
579.8647017538747
 30
0.0
  0
POINT
  5
1A851
330
1A847
100
AcDbEntity
  8
Defpoints
 62
     0
100
AcDbPoint
 10
1161.949360078349
 20
581.5630914742328
 30
0.0
  0
POINT
  5
1A852
330
1A847
100
AcDbEntity
  8
Defpoints
 62
     0
100
AcDbPoint
 10
1161.949360078349
 20
598.3611045617733
 30
0.0
  0
ENDBLK
  5
1A849
330
1A847
100
AcDbEntity
  8
0
100
AcDbBlockEnd
  0
BLOCK
  5
1A854
330
1A853
100
AcDbEntity
  8
0
100
AcDbBlockBegin
  2
*D72
 70
     1
 10
0.0
 20
0.0
 30
0.0
  3
*D72
  1

  0
LINE
  5
1A856
330
1A853
100
AcDbEntity
  8
DIM
 62
     0
 48
0.05
370
    -2
100
AcDbLine
 10
1244.234879680289
 20
581.5488259472887
 30
0.0
 11
1271.389294491104
 21
581.5488259472887
 31
0.0
  0
LINE
  5
1A857
330
1A853
100
AcDbEntity
  8
DIM
 62
     0
 48
0.05
370
    -2
100
AcDbLine
 10
1244.234879680289
 20
506.5507275097391
 30
0.0
 11
1271.389294491104
 21
506.5507275097391
 31
0.0
  0
LINE
  5
1A858
330
1A853
100
AcDbEntity
  8
DIM
 62
     0
 48
0.05
370
    -2
100
AcDbLine
 10
1271.389294491104
 20
578.5488259472887
 30
0.0
 11
1271.389294491104
 21
509.5507275097391
 31
0.0
  0
INSERT
  5
1A859
330
1A853
100
AcDbEntity
  8
DIM
 62
     0
370
    -2
100
AcDbBlockReference
  2
_DOT
 10
1271.389294491104
 20
581.5488259472887
 30
0.0
 41
3.0
 42
3.0
 43
3.0
 50
90.0
  0
INSERT
  5
1A85A
330
1A853
100
AcDbEntity
  8
DIM
 62
     0
370
    -2
100
AcDbBlockReference
  2
_DOT
 10
1271.389294491104
 20
506.5507275097391
 30
0.0
 41
3.0
 42
3.0
 43
3.0
 50
270.0
  0
MTEXT
  5
1A85B
330
1A853
100
AcDbEntity
  8
DIM
 62
     0
 48
0.05
100
AcDbMText
 10
1261.389294491104
 20
544.049776728514
 30
0.0
 40
8.0
 41
0.0
 46
0.0
 71
     5
 72
     1
  1
\A1;75
  7
ＭＳ ゴシック
 11
0.0
 21
1.0
 31
0.0
 73
     1
 44
1.0
  0
POINT
  5
1A85C
330
1A853
100
AcDbEntity
  8
Defpoints
 62
     0
100
AcDbPoint
 10
1234.234879680289
 20
581.5488259472887
 30
0.0
  0
POINT
  5
1A85D
330
1A853
100
AcDbEntity
  8
Defpoints
 62
     0
100
AcDbPoint
 10
1234.234879680289
 20
506.5507275097391
 30
0.0
  0
POINT
  5
1A85E
330
1A853
100
AcDbEntity
  8
Defpoints
 62
     0
100
AcDbPoint
 10
1271.389294491104
 20
506.5507275097391
 30
0.0
  0
ENDBLK
  5
1A855
330
1A853
100
AcDbEntity
  8
0
100
AcDbBlockEnd
  0
BLOCK
  5
1B727
330
1B726
100
AcDbEntity
  8
0
100
AcDbBlockBegin
  2
*D73
 70
     1
 10
0.0
 20
0.0
 30
0.0
  3
*D73
  1

  0
LINE
  5
1B729
330
1B726
100
AcDbEntity
  8
DIM
 62
     0
 48
0.05
370
    -2
100
AcDbLine
 10
1514.226909079529
 20
576.443487310709
 30
0.0
 11
1504.630226031116
 21
576.443487310709
 31
0.0
  0
LINE
  5
1B72A
330
1B726
100
AcDbEntity
  8
DIM
 62
     0
 48
0.05
370
    -2
100
AcDbLine
 10
1514.226909079529
 20
511.4972262578772
 30
0.0
 11
1504.630226031116
 21
511.4972262578772
 31
0.0
  0
LINE
  5
1B72B
330
1B726
100
AcDbEntity
  8
DIM
 62
     0
 48
0.05
370
    -2
100
AcDbLine
 10
1504.630226031116
 20
573.443487310709
 30
0.0
 11
1504.630226031116
 21
514.4972262578772
 31
0.0
  0
INSERT
  5
1B72C
330
1B726
100
AcDbEntity
  8
DIM
 62
     0
370
    -2
100
AcDbBlockReference
  2
_DOT
 10
1504.630226031116
 20
576.443487310709
 30
0.0
 41
3.0
 42
3.0
 43
3.0
 50
90.0
  0
INSERT
  5
1B72D
330
1B726
100
AcDbEntity
  8
DIM
 62
     0
370
    -2
100
AcDbBlockReference
  2
_DOT
 10
1504.630226031116
 20
511.4972262578772
 30
0.0
 41
3.0
 42
3.0
 43
3.0
 50
270.0
  0
MTEXT
  5
1B72E
330
1B726
100
AcDbEntity
  8
DIM
 62
     0
 48
0.05
100
AcDbMText
 10
1494.630226031116
 20
543.970356784293
 30
0.0
 40
8.0
 41
0.0
 46
0.0
 71
     5
 72
     1
  1
\A1;%%c65
  7
ＭＳ ゴシック
 11
0.0
 21
1.0
 31
0.0
 73
     1
 44
1.0
  0
POINT
  5
1B72F
330
1B726
100
AcDbEntity
  8
Defpoints
 62
     0
100
AcDbPoint
 10
1524.226909079529
 20
576.443487310709
 30
0.0
  0
POINT
  5
1B730
330
1B726
100
AcDbEntity
  8
Defpoints
 62
     0
100
AcDbPoint
 10
1524.226909079529
 20
511.4972262578772
 30
0.0
  0
POINT
  5
1B731
330
1B726
100
AcDbEntity
  8
Defpoints
 62
     0
100
AcDbPoint
 10
1504.630226031116
 20
511.4972262578772
 30
0.0
  0
ENDBLK
  5
1B728
330
1B726
100
AcDbEntity
  8
0
100
AcDbBlockEnd
  0
BLOCK
  5
1B733
330
1B732
100
AcDbEntity
  8
0
100
AcDbBlockBegin
  2
*D74
 70
     1
 10
0.0
 20
0.0
 30
0.0
  3
*D74
  1

  0
LINE
  5
1B735
330
1B732
100
AcDbEntity
  8
DIM
 62
     0
 48
0.05
370
    -2
100
AcDbLine
 10
1514.145271312494
 20
581.3905208732862
 30
0.0
 11
1475.893785726671
 21
581.3905208732862
 31
0.0
  0
LINE
  5
1B736
330
1B732
100
AcDbEntity
  8
DIM
 62
     0
 48
0.05
370
    -2
100
AcDbLine
 10
1514.226909079529
 20
511.4972262578772
 30
0.0
 11
1475.893785726671
 21
511.4972262578772
 31
0.0
  0
LINE
  5
1B737
330
1B732
100
AcDbEntity
  8
DIM
 62
     0
 48
0.05
370
    -2
100
AcDbLine
 10
1475.893785726671
 20
578.3905208732862
 30
0.0
 11
1475.893785726671
 21
514.4972262578772
 31
0.0
  0
INSERT
  5
1B738
330
1B732
100
AcDbEntity
  8
DIM
 62
     0
370
    -2
100
AcDbBlockReference
  2
_DOT
 10
1475.893785726671
 20
581.3905208732862
 30
0.0
 41
3.0
 42
3.0
 43
3.0
 50
90.0
  0
INSERT
  5
1B739
330
1B732
100
AcDbEntity
  8
DIM
 62
     0
370
    -2
100
AcDbBlockReference
  2
_DOT
 10
1475.893785726671
 20
511.4972262578772
 30
0.0
 41
3.0
 42
3.0
 43
3.0
 50
270.0
  0
MTEXT
  5
1B73A
330
1B732
100
AcDbEntity
  8
DIM
 62
     0
 48
0.05
100
AcDbMText
 10
1465.893785726671
 20
546.4438735655817
 30
0.0
 40
8.0
 41
0.0
 46
0.0
 71
     5
 72
     1
  1
\A1;70
  7
ＭＳ ゴシック
 11
0.0
 21
1.0
 31
0.0
 73
     1
 44
1.0
  0
POINT
  5
1B73B
330
1B732
100
AcDbEntity
  8
Defpoints
 62
     0
100
AcDbPoint
 10
1524.145271312494
 20
581.3905208732862
 30
0.0
  0
POINT
  5
1B73C
330
1B732
100
AcDbEntity
  8
Defpoints
 62
     0
100
AcDbPoint
 10
1524.226909079529
 20
511.4972262578772
 30
0.0
  0
POINT
  5
1B73D
330
1B732
100
AcDbEntity
  8
Defpoints
 62
     0
100
AcDbPoint
 10
1475.893785726671
 20
511.4972262578772
 30
0.0
  0
ENDBLK
  5
1B734
330
1B732
100
AcDbEntity
  8
0
100
AcDbBlockEnd
  0
BLOCK
  5
1B73F
330
1B73E
100
AcDbEntity
  8
0
100
AcDbBlockBegin
  2
*D75
 70
     1
 10
0.0
 20
0.0
 30
0.0
  3
*D75
  1

  0
LINE
  5
1B741
330
1B73E
100
AcDbEntity
  8
DIM
 62
     0
 48
0.05
370
    -2
100
AcDbLine
 10
1526.780648026697
 20
588.9961566289988
 30
0.0
 11
1526.780648026697
 21
595.6945745750709
 31
0.0
  0
LINE
  5
1B742
330
1B73E
100
AcDbEntity
  8
DIM
 62
     0
 48
0.05
370
    -2
100
AcDbLine
 10
1586.62103562851
 20
594.2635440406553
 30
0.0
 11
1586.62103562851
 21
595.6945745750709
 31
0.0
  0
LINE
  5
1B743
330
1B73E
100
AcDbEntity
  8
DIM
 62
     0
 48
0.05
370
    -2
100
AcDbLine
 10
1529.780648026697
 20
595.6945745750709
 30
0.0
 11
1583.62103562851
 21
595.6945745750709
 31
0.0
  0
INSERT
  5
1B744
330
1B73E
100
AcDbEntity
  8
DIM
 62
     0
370
    -2
100
AcDbBlockReference
  2
_DOT
 10
1526.780648026697
 20
595.6945745750709
 30
0.0
 41
3.0
 42
3.0
 43
3.0
 50
180.0
  0
INSERT
  5
1B745
330
1B73E
100
AcDbEntity
  8
DIM
 62
     0
370
    -2
100
AcDbBlockReference
  2
_DOT
 10
1586.62103562851
 20
595.6945745750709
 30
0.0
 41
3.0
 42
3.0
 43
3.0
  0
MTEXT
  5
1B746
330
1B73E
100
AcDbEntity
  8
DIM
 62
     0
 48
0.05
100
AcDbMText
 10
1556.700841827604
 20
605.6945745750709
 30
0.0
 40
8.0
 41
0.0
 46
0.0
 71
     5
 72
     1
  1
\A1;46-60
  7
ＭＳ ゴシック
 73
     1
 44
1.0
  0
POINT
  5
1B747
330
1B73E
100
AcDbEntity
  8
Defpoints
 62
     0
100
AcDbPoint
 10
1526.780648026697
 20
578.9961566289988
 30
0.0
  0
POINT
  5
1B748
330
1B73E
100
AcDbEntity
  8
Defpoints
 62
     0
100
AcDbPoint
 10
1586.62103562851
 20
584.2635440406553
 30
0.0
  0
POINT
  5
1B749
330
1B73E
100
AcDbEntity
  8
Defpoints
 62
     0
100
AcDbPoint
 10
1586.62103562851
 20
595.6945745750709
 30
0.0
  0
ENDBLK
  5
1B740
330
1B73E
100
AcDbEntity
  8
0
100
AcDbBlockEnd
  0
BLOCK
  5
1B74B
330
1B74A
100
AcDbEntity
  8
0
100
AcDbBlockBegin
  2
*D76
 70
     1
 10
0.0
 20
0.0
 30
0.0
  3
*D76
  1

  0
LINE
  5
1B74D
330
1B74A
100
AcDbEntity
  8
DIM
 62
     0
 48
0.05
370
    -2
100
AcDbLine
 10
1555.821072075124
 20
498.9440221251481
 30
0.0
 11
1555.821072075124
 21
491.5491824902481
 31
0.0
  0
LINE
  5
1B74E
330
1B74A
100
AcDbEntity
  8
DIM
 62
     0
 48
0.05
370
    -2
100
AcDbLine
 10
1580.555705073571
 20
496.5507275097391
 30
0.0
 11
1580.555705073571
 21
491.5491824902481
 31
0.0
  0
LINE
  5
1B74F
330
1B74A
100
AcDbEntity
  8
DIM
 62
     0
 48
0.05
370
    -2
100
AcDbLine
 10
1555.821072075124
 20
491.5491824902481
 30
0.0
 11
1513.453072075124
 21
491.5491824902481
 31
0.0
  0
LINE
  5
1B750
330
1B74A
100
AcDbEntity
  8
DIM
 62
     0
 48
0.05
370
    -2
100
AcDbLine
 10
1555.821072075124
 20
491.5491824902481
 30
0.0
 11
1580.555705073571
 21
491.5491824902481
 31
0.0
  0
LINE
  5
1B751
330
1B74A
100
AcDbEntity
  8
DIM
 62
     0
 48
0.05
370
    -2
100
AcDbLine
 10
1552.821072075124
 20
491.5491824902481
 30
0.0
 11
1549.821072075124
 21
491.5491824902481
 31
0.0
  0
LINE
  5
1B752
330
1B74A
100
AcDbEntity
  8
DIM
 62
     0
 48
0.05
370
    -2
100
AcDbLine
 10
1583.555705073571
 20
491.5491824902481
 30
0.0
 11
1586.555705073571
 21
491.5491824902481
 31
0.0
  0
INSERT
  5
1B753
330
1B74A
100
AcDbEntity
  8
DIM
 62
     0
370
    -2
100
AcDbBlockReference
  2
_DOT
 10
1555.821072075124
 20
491.5491824902481
 30
0.0
 41
3.0
 42
3.0
 43
3.0
  0
INSERT
  5
1B754
330
1B74A
100
AcDbEntity
  8
DIM
 62
     0
370
    -2
100
AcDbBlockReference
  2
_DOT
 10
1580.555705073571
 20
491.5491824902481
 30
0.0
 41
3.0
 42
3.0
 43
3.0
 50
180.0
  0
MTEXT
  5
1B755
330
1B74A
100
AcDbEntity
  8
DIM
 62
     0
 48
0.05
100
AcDbMText
 10
1531.637072075124
 20
501.5491824902481
 30
0.0
 40
8.0
 41
0.0
 46
0.0
 71
     5
 72
     1
  1
\A1;11-25
  7
ＭＳ ゴシック
 73
     1
 44
1.0
  0
POINT
  5
1B756
330
1B74A
100
AcDbEntity
  8
Defpoints
 62
     0
100
AcDbPoint
 10
1555.821072075124
 20
508.9440221251481
 30
0.0
  0
POINT
  5
1B757
330
1B74A
100
AcDbEntity
  8
Defpoints
 62
     0
100
AcDbPoint
 10
1580.555705073571
 20
506.5507275097391
 30
0.0
  0
POINT
  5
1B758
330
1B74A
100
AcDbEntity
  8
Defpoints
 62
     0
100
AcDbPoint
 10
1580.555705073571
 20
491.5491824902481
 30
0.0
  0
ENDBLK
  5
1B74C
330
1B74A
100
AcDbEntity
  8
0
100
AcDbBlockEnd
  0
BLOCK
  5
1B75A
330
1B759
100
AcDbEntity
  8
0
100
AcDbBlockBegin
  2
*D77
 70
     1
 10
0.0
 20
0.0
 30
0.0
  3
*D77
  1

  0
LINE
  5
1B75C
330
1B759
100
AcDbEntity
  8
DIM
 62
     0
 48
0.05
370
    -2
100
AcDbLine
 10
1609.598268379754
 20
460.728610334647
 30
0.0
 11
1609.598268379754
 21
467.4557920043989
 31
0.0
  0
LINE
  5
1B75D
330
1B759
100
AcDbEntity
  8
DIM
 62
     0
 48
0.05
370
    -2
100
AcDbLine
 10
1567.630309707045
 20
460.728610334647
 30
0.0
 11
1567.630309707045
 21
467.4557920043989
 31
0.0
  0
LINE
  5
1B75E
330
1B759
100
AcDbEntity
  8
DIM
 62
     0
 48
0.05
370
    -2
100
AcDbLine
 10
1606.598268379754
 20
467.4557920043989
 30
0.0
 11
1570.630309707045
 21
467.4557920043989
 31
0.0
  0
INSERT
  5
1B75F
330
1B759
100
AcDbEntity
  8
DIM
 62
     0
370
    -2
100
AcDbBlockReference
  2
_DOT
 10
1609.598268379754
 20
467.4557920043989
 30
0.0
 41
3.0
 42
3.0
 43
3.0
  0
INSERT
  5
1B760
330
1B759
100
AcDbEntity
  8
DIM
 62
     0
370
    -2
100
AcDbBlockReference
  2
_DOT
 10
1567.630309707045
 20
467.4557920043989
 30
0.0
 41
3.0
 42
3.0
 43
3.0
 50
180.0
  0
MTEXT
  5
1B761
330
1B759
100
AcDbEntity
  8
DIM
 62
     0
 48
0.05
100
AcDbMText
 10
1588.6142890434
 20
477.4557920043989
 30
0.0
 40
8.0
 41
0.0
 46
0.0
 71
     5
 72
     1
  1
\A1;42
  7
ＭＳ ゴシック
 73
     1
 44
1.0
  0
POINT
  5
1B762
330
1B759
100
AcDbEntity
  8
Defpoints
 62
     0
100
AcDbPoint
 10
1609.598268379754
 20
450.728610334647
 30
0.0
  0
POINT
  5
1B763
330
1B759
100
AcDbEntity
  8
Defpoints
 62
     0
100
AcDbPoint
 10
1567.630309707045
 20
450.728610334647
 30
0.0
  0
POINT
  5
1B764
330
1B759
100
AcDbEntity
  8
Defpoints
 62
     0
100
AcDbPoint
 10
1567.630309707045
 20
467.4557920043989
 30
0.0
  0
ENDBLK
  5
1B75B
330
1B759
100
AcDbEntity
  8
0
100
AcDbBlockEnd
  0
BLOCK
  5
1B766
330
1B765
100
AcDbEntity
  8
0
100
AcDbBlockBegin
  2
*D78
 70
     1
 10
0.0
 20
0.0
 30
0.0
  3
*D78
  1

  0
LINE
  5
1B768
330
1B765
100
AcDbEntity
  8
DIM
 62
     0
 48
0.05
370
    -2
100
AcDbLine
 10
1525.662351034335
 20
460.728610334647
 30
0.0
 11
1525.662351034335
 21
467.4557920043989
 31
0.0
  0
LINE
  5
1B769
330
1B765
100
AcDbEntity
  8
DIM
 62
     0
 48
0.05
370
    -2
100
AcDbLine
 10
1567.630309707045
 20
460.728610334647
 30
0.0
 11
1567.630309707045
 21
467.4557920043989
 31
0.0
  0
LINE
  5
1B76A
330
1B765
100
AcDbEntity
  8
DIM
 62
     0
 48
0.05
370
    -2
100
AcDbLine
 10
1528.662351034335
 20
467.4557920043989
 30
0.0
 11
1564.630309707045
 21
467.4557920043989
 31
0.0
  0
INSERT
  5
1B76B
330
1B765
100
AcDbEntity
  8
DIM
 62
     0
370
    -2
100
AcDbBlockReference
  2
_DOT
 10
1525.662351034335
 20
467.4557920043989
 30
0.0
 41
3.0
 42
3.0
 43
3.0
 50
180.0
  0
INSERT
  5
1B76C
330
1B765
100
AcDbEntity
  8
DIM
 62
     0
370
    -2
100
AcDbBlockReference
  2
_DOT
 10
1567.630309707045
 20
467.4557920043989
 30
0.0
 41
3.0
 42
3.0
 43
3.0
  0
MTEXT
  5
1B76D
330
1B765
100
AcDbEntity
  8
DIM
 62
     0
 48
0.05
100
AcDbMText
 10
1546.64633037069
 20
477.4557920043989
 30
0.0
 40
8.0
 41
0.0
 46
0.0
 71
     5
 72
     1
  1
\A1;42
  7
ＭＳ ゴシック
 73
     1
 44
1.0
  0
POINT
  5
1B76E
330
1B765
100
AcDbEntity
  8
Defpoints
 62
     0
100
AcDbPoint
 10
1525.662351034335
 20
450.728610334647
 30
0.0
  0
POINT
  5
1B76F
330
1B765
100
AcDbEntity
  8
Defpoints
 62
     0
100
AcDbPoint
 10
1567.630309707045
 20
450.728610334647
 30
0.0
  0
POINT
  5
1B770
330
1B765
100
AcDbEntity
  8
Defpoints
 62
     0
100
AcDbPoint
 10
1567.630309707045
 20
467.4557920043989
 30
0.0
  0
ENDBLK
  5
1B767
330
1B765
100
AcDbEntity
  8
0
100
AcDbBlockEnd
  0
BLOCK
  5
1B772
330
1B771
100
AcDbEntity
  8
0
100
AcDbBlockBegin
  2
*D79
 70
     1
 10
0.0
 20
0.0
 30
0.0
  3
*D79
  1

  0
LINE
  5
1B774
330
1B771
100
AcDbEntity
  8
DIM
 62
     0
 48
0.05
370
    -2
100
AcDbLine
 10
1525.661816219896
 20
439.3160350874655
 30
0.0
 11
1525.661816219896
 21
467.4557920043989
 31
0.0
  0
LINE
  5
1B775
330
1B771
100
AcDbEntity
  8
DIM
 62
     0
 48
0.05
370
    -2
100
AcDbLine
 10
1511.620797933204
 20
439.6358541221056
 30
0.0
 11
1511.620797933204
 21
467.4557920043989
 31
0.0
  0
LINE
  5
1B776
330
1B771
100
AcDbEntity
  8
DIM
 62
     0
 48
0.05
370
    -2
100
AcDbLine
 10
1522.661816219896
 20
467.4557920043989
 30
0.0
 11
1514.620797933204
 21
467.4557920043989
 31
0.0
  0
INSERT
  5
1B777
330
1B771
100
AcDbEntity
  8
DIM
 62
     0
370
    -2
100
AcDbBlockReference
  2
_DOT
 10
1525.661816219896
 20
467.4557920043989
 30
0.0
 41
3.0
 42
3.0
 43
3.0
  0
INSERT
  5
1B778
330
1B771
100
AcDbEntity
  8
DIM
 62
     0
370
    -2
100
AcDbBlockReference
  2
_DOT
 10
1511.620797933204
 20
467.4557920043989
 30
0.0
 41
3.0
 42
3.0
 43
3.0
 50
180.0
  0
MTEXT
  5
1B779
330
1B771
100
AcDbEntity
  8
DIM
 62
     0
 48
0.05
100
AcDbMText
 10
1518.641841890989
 20
477.4557920043989
 30
0.0
 40
8.0
 41
0.0
 46
0.0
 71
     5
 72
     1
  1
\A1;14
  7
ＭＳ ゴシック
 73
     1
 44
1.0
  0
POINT
  5
1B77A
330
1B771
100
AcDbEntity
  8
Defpoints
 62
     0
100
AcDbPoint
 10
1525.661816219896
 20
429.3160350874655
 30
0.0
  0
POINT
  5
1B77B
330
1B771
100
AcDbEntity
  8
Defpoints
 62
     0
100
AcDbPoint
 10
1511.620797933204
 20
429.6358541221056
 30
0.0
  0
POINT
  5
1B77C
330
1B771
100
AcDbEntity
  8
Defpoints
 62
     0
100
AcDbPoint
 10
1511.620797933204
 20
467.4557920043989
 30
0.0
  0
ENDBLK
  5
1B773
330
1B771
100
AcDbEntity
  8
0
100
AcDbBlockEnd
  0
BLOCK
  5
1B77E
330
1B77D
100
AcDbEntity
  8
0
100
AcDbBlockBegin
  2
*D80
 70
     1
 10
0.0
 20
0.0
 30
0.0
  3
*D80
  1

  0
LINE
  5
1B780
330
1B77D
100
AcDbEntity
  8
DIM
 62
     0
 48
0.05
370
    -2
100
AcDbLine
 10
1689.226790231876
 20
358.4151894849371
 30
0.0
 11
1689.226790231876
 21
350.3890866004245
 31
0.0
  0
LINE
  5
1B781
330
1B77D
100
AcDbEntity
  8
DIM
 62
     0
 48
0.05
370
    -2
100
AcDbLine
 10
1716.354183031293
 20
358.4151894849371
 30
0.0
 11
1716.354183031293
 21
350.3890866004245
 31
0.0
  0
LINE
  5
1B782
330
1B77D
100
AcDbEntity
  8
DIM
 62
     0
 48
0.05
370
    -2
100
AcDbLine
 10
1689.226790231876
 20
350.3890866004245
 30
0.0
 11
1624.708193414415
 21
350.3890866004245
 31
0.0
  0
LINE
  5
1B783
330
1B77D
100
AcDbEntity
  8
DIM
 62
     0
 48
0.05
370
    -2
100
AcDbLine
 10
1692.226790231876
 20
350.3890866004245
 30
0.0
 11
1713.354183031293
 21
350.3890866004245
 31
0.0
  0
LINE
  5
1B784
330
1B77D
100
AcDbEntity
  8
DIM
 62
     0
 48
0.05
370
    -2
100
AcDbLine
 10
1692.226790231876
 20
350.3890866004245
 30
0.0
 11
1695.226790231876
 21
350.3890866004245
 31
0.0
  0
INSERT
  5
1B785
330
1B77D
100
AcDbEntity
  8
DIM
 62
     0
370
    -2
100
AcDbBlockReference
  2
_DOT
 10
1689.226790231876
 20
350.3890866004245
 30
0.0
 41
3.0
 42
3.0
 43
3.0
 50
180.0
  0
INSERT
  5
1B786
330
1B77D
100
AcDbEntity
  8
DIM
 62
     0
370
    -2
100
AcDbBlockReference
  2
_DOT
 10
1716.354183031293
 20
350.3890866004245
 30
0.0
 41
3.0
 42
3.0
 43
3.0
  0
MTEXT
  5
1B787
330
1B77D
100
AcDbEntity
  8
DIM
 62
     0
 48
0.05
100
AcDbMText
 10
1643.216193414415
 20
361.2410866004245
 30
0.0
 40
8.0
 41
0.0
 46
0.0
 71
     5
 72
     1
  1
\A1;G1/2"
  7
ＭＳ ゴシック
 73
     1
 44
1.0
  0
POINT
  5
1B788
330
1B77D
100
AcDbEntity
  8
Defpoints
 62
     0
100
AcDbPoint
 10
1689.226790231876
 20
368.4151894849371
 30
0.0
  0
POINT
  5
1B789
330
1B77D
100
AcDbEntity
  8
Defpoints
 62
     0
100
AcDbPoint
 10
1716.354183031293
 20
368.4151894849371
 30
0.0
  0
POINT
  5
1B78A
330
1B77D
100
AcDbEntity
  8
Defpoints
 62
     0
100
AcDbPoint
 10
1716.354183031293
 20
350.3890866004245
 30
0.0
  0
ENDBLK
  5
1B77F
330
1B77D
100
AcDbEntity
  8
0
100
AcDbBlockEnd
  0
BLOCK
  5
1B78C
330
1B78B
100
AcDbEntity
  8
0
100
AcDbBlockBegin
  2
*D81
 70
     1
 10
0.0
 20
0.0
 30
0.0
  3
*D81
  1

  0
LINE
  5
1B78E
330
1B78B
100
AcDbEntity
  8
DIM
 62
     0
 48
0.05
370
    -2
100
AcDbLine
 10
1689.226790231876
 20
444.5812832413653
 30
0.0
 11
1689.226790231876
 21
462.0284950754223
 31
0.0
  0
LINE
  5
1B78F
330
1B78B
100
AcDbEntity
  8
DIM
 62
     0
 48
0.05
370
    -2
100
AcDbLine
 10
1716.354183031293
 20
444.5812832413653
 30
0.0
 11
1716.354183031293
 21
462.0284950754223
 31
0.0
  0
LINE
  5
1B790
330
1B78B
100
AcDbEntity
  8
DIM
 62
     0
 48
0.05
370
    -2
100
AcDbLine
 10
1689.226790231876
 20
462.0284950754223
 30
0.0
 11
1763.320376953453
 21
462.0284950754223
 31
0.0
  0
LINE
  5
1B791
330
1B78B
100
AcDbEntity
  8
DIM
 62
     0
 48
0.05
370
    -2
100
AcDbLine
 10
1686.226790231876
 20
462.0284950754223
 30
0.0
 11
1683.226790231876
 21
462.0284950754223
 31
0.0
  0
LINE
  5
1B792
330
1B78B
100
AcDbEntity
  8
DIM
 62
     0
 48
0.05
370
    -2
100
AcDbLine
 10
1719.354183031293
 20
462.0284950754223
 30
0.0
 11
1722.354183031293
 21
462.0284950754223
 31
0.0
  0
INSERT
  5
1B793
330
1B78B
100
AcDbEntity
  8
DIM
 62
     0
370
    -2
100
AcDbBlockReference
  2
_DOT
 10
1689.226790231876
 20
462.0284950754223
 30
0.0
 41
3.0
 42
3.0
 43
3.0
  0
INSERT
  5
1B794
330
1B78B
100
AcDbEntity
  8
DIM
 62
     0
370
    -2
100
AcDbBlockReference
  2
_DOT
 10
1716.354183031293
 20
462.0284950754223
 30
0.0
 41
3.0
 42
3.0
 43
3.0
 50
180.0
  0
MTEXT
  5
1B795
330
1B78B
100
AcDbEntity
  8
DIM
 62
     0
 48
0.05
100
AcDbMText
 10
1744.812376953453
 20
472.8804950754222
 30
0.0
 40
8.0
 41
0.0
 46
0.0
 71
     5
 72
     1
  1
\A1;G1/2"
  7
ＭＳ ゴシック
 73
     1
 44
1.0
  0
POINT
  5
1B796
330
1B78B
100
AcDbEntity
  8
Defpoints
 62
     0
100
AcDbPoint
 10
1689.226790231876
 20
434.5812832413653
 30
0.0
  0
POINT
  5
1B797
330
1B78B
100
AcDbEntity
  8
Defpoints
 62
     0
100
AcDbPoint
 10
1716.354183031293
 20
434.5812832413653
 30
0.0
  0
POINT
  5
1B798
330
1B78B
100
AcDbEntity
  8
Defpoints
 62
     0
100
AcDbPoint
 10
1716.354183031293
 20
462.0284950754223
 30
0.0
  0
ENDBLK
  5
1B78D
330
1B78B
100
AcDbEntity
  8
0
100
AcDbBlockEnd
  0
BLOCK
  5
1B79A
330
1B799
100
AcDbEntity
  8
0
100
AcDbBlockBegin
  2
*D82
 70
     1
 10
0.0
 20
0.0
 30
0.0
  3
*D82
  1

  0
LINE
  5
1B79C
330
1B799
100
AcDbEntity
  8
DIM
 62
     0
 48
0.05
370
    -2
100
AcDbLine
 10
1915.182147091763
 20
466.2742910804244
 30
0.0
 11
1915.182147091763
 21
479.7426189305232
 31
0.0
  0
LINE
  5
1B79D
330
1B799
100
AcDbEntity
  8
DIM
 62
     0
 48
0.05
370
    -2
100
AcDbLine
 10
1665.289565562272
 20
466.2742910804244
 30
0.0
 11
1665.289565562272
 21
479.7426189305232
 31
0.0
  0
LINE
  5
1B79E
330
1B799
100
AcDbEntity
  8
DIM
 62
     0
 48
0.05
370
    -2
100
AcDbLine
 10
1912.182147091763
 20
479.7426189305232
 30
0.0
 11
1668.289565562272
 21
479.7426189305232
 31
0.0
  0
INSERT
  5
1B79F
330
1B799
100
AcDbEntity
  8
DIM
 62
     0
370
    -2
100
AcDbBlockReference
  2
_DOT
 10
1915.182147091763
 20
479.7426189305232
 30
0.0
 41
3.0
 42
3.0
 43
3.0
  0
INSERT
  5
1B7A0
330
1B799
100
AcDbEntity
  8
DIM
 62
     0
370
    -2
100
AcDbBlockReference
  2
_DOT
 10
1665.289565562272
 20
479.7426189305232
 30
0.0
 41
3.0
 42
3.0
 43
3.0
 50
180.0
  0
MTEXT
  5
1B7A1
330
1B799
100
AcDbEntity
  8
DIM
 62
     0
 48
0.05
100
AcDbMText
 10
1790.235856327018
 20
489.7426189305232
 30
0.0
 40
8.0
 41
0.0
 46
0.0
 71
     5
 72
     1
  1
\A1;250
  7
ＭＳ ゴシック
 73
     1
 44
1.0
  0
POINT
  5
1B7A2
330
1B799
100
AcDbEntity
  8
Defpoints
 62
     0
100
AcDbPoint
 10
1915.182147091763
 20
456.2742910804244
 30
0.0
  0
POINT
  5
1B7A3
330
1B799
100
AcDbEntity
  8
Defpoints
 62
     0
100
AcDbPoint
 10
1665.289565562272
 20
456.2742910804244
 30
0.0
  0
POINT
  5
1B7A4
330
1B799
100
AcDbEntity
  8
Defpoints
 62
     0
100
AcDbPoint
 10
1665.289565562272
 20
479.7426189305232
 30
0.0
  0
ENDBLK
  5
1B79B
330
1B799
100
AcDbEntity
  8
0
100
AcDbBlockEnd
  0
BLOCK
  5
1B7A6
330
1B7A5
100
AcDbEntity
  8
0
100
AcDbBlockBegin
  2
*D83
 70
     1
 10
0.0
 20
0.0
 30
0.0
  3
*D83
  1

  0
LINE
  5
1B7A8
330
1B7A5
100
AcDbEntity
  8
DIM
 62
     0
 48
0.05
370
    -2
100
AcDbLine
 10
1927.177406018364
 20
453.8918281974709
 30
0.0
 11
1972.93467825087
 21
453.8918281974709
 31
0.0
  0
LINE
  5
1B7A9
330
1B7A5
100
AcDbEntity
  8
DIM
 62
     0
 48
0.05
370
    -2
100
AcDbLine
 10
1927.177406018364
 20
341.8706653920324
 30
0.0
 11
1972.93467825087
 21
341.8706653920324
 31
0.0
  0
LINE
  5
1B7AA
330
1B7A5
100
AcDbEntity
  8
DIM
 62
     0
 48
0.05
370
    -2
100
AcDbLine
 10
1972.93467825087
 20
450.8918281974709
 30
0.0
 11
1972.93467825087
 21
344.8706653920324
 31
0.0
  0
INSERT
  5
1B7AB
330
1B7A5
100
AcDbEntity
  8
DIM
 62
     0
370
    -2
100
AcDbBlockReference
  2
_DOT
 10
1972.93467825087
 20
453.8918281974709
 30
0.0
 41
3.0
 42
3.0
 43
3.0
 50
90.0
  0
INSERT
  5
1B7AC
330
1B7A5
100
AcDbEntity
  8
DIM
 62
     0
370
    -2
100
AcDbBlockReference
  2
_DOT
 10
1972.93467825087
 20
341.8706653920324
 30
0.0
 41
3.0
 42
3.0
 43
3.0
 50
270.0
  0
MTEXT
  5
1B7AD
330
1B7A5
100
AcDbEntity
  8
DIM
 62
     0
 48
0.05
100
AcDbMText
 10
1962.93467825087
 20
397.8812467947516
 30
0.0
 40
8.0
 41
0.0
 46
0.0
 71
     5
 72
     1
  1
\A1;112
  7
ＭＳ ゴシック
 11
0.0
 21
1.0
 31
0.0
 73
     1
 44
1.0
  0
POINT
  5
1B7AE
330
1B7A5
100
AcDbEntity
  8
Defpoints
 62
     0
100
AcDbPoint
 10
1917.177406018364
 20
453.8918281974709
 30
0.0
  0
POINT
  5
1B7AF
330
1B7A5
100
AcDbEntity
  8
Defpoints
 62
     0
100
AcDbPoint
 10
1917.177406018364
 20
341.8706653920324
 30
0.0
  0
POINT
  5
1B7B0
330
1B7A5
100
AcDbEntity
  8
Defpoints
 62
     0
100
AcDbPoint
 10
1972.93467825087
 20
341.8706653920324
 30
0.0
  0
ENDBLK
  5
1B7A7
330
1B7A5
100
AcDbEntity
  8
0
100
AcDbBlockEnd
  0
BLOCK
  5
1B7B2
330
1B7B1
100
AcDbEntity
  8
0
100
AcDbBlockBegin
  2
*D84
 70
     1
 10
0.0
 20
0.0
 30
0.0
  3
*D84
  1

  0
LINE
  5
1B7B4
330
1B7B1
100
AcDbEntity
  8
DIM
 62
     0
 48
0.05
370
    -2
100
AcDbLine
 10
1865.790793800845
 20
421.4981176152759
 30
0.0
 11
1948.004744031528
 21
421.4981176152759
 31
0.0
  0
LINE
  5
1B7B5
330
1B7B1
100
AcDbEntity
  8
DIM
 62
     0
 48
0.05
370
    -2
100
AcDbLine
 10
1865.790793800845
 20
374.4216114193515
 30
0.0
 11
1948.004744031528
 21
374.4216114193515
 31
0.0
  0
LINE
  5
1B7B6
330
1B7B1
100
AcDbEntity
  8
DIM
 62
     0
 48
0.05
370
    -2
100
AcDbLine
 10
1948.004744031528
 20
418.4981176152759
 30
0.0
 11
1948.004744031528
 21
377.4216114193515
 31
0.0
  0
INSERT
  5
1B7B7
330
1B7B1
100
AcDbEntity
  8
DIM
 62
     0
370
    -2
100
AcDbBlockReference
  2
_DOT
 10
1948.004744031528
 20
421.4981176152759
 30
0.0
 41
3.0
 42
3.0
 43
3.0
 50
90.0
  0
INSERT
  5
1B7B8
330
1B7B1
100
AcDbEntity
  8
DIM
 62
     0
370
    -2
100
AcDbBlockReference
  2
_DOT
 10
1948.004744031528
 20
374.4216114193515
 30
0.0
 41
3.0
 42
3.0
 43
3.0
 50
270.0
  0
MTEXT
  5
1B7B9
330
1B7B1
100
AcDbEntity
  8
DIM
 62
     0
 48
0.05
100
AcDbMText
 10
1938.004744031528
 20
397.9598645173137
 30
0.0
 40
8.0
 41
0.0
 46
0.0
 71
     5
 72
     1
  1
\A1;47
  7
ＭＳ ゴシック
 11
0.0
 21
1.0
 31
0.0
 73
     1
 44
1.0
  0
POINT
  5
1B7BA
330
1B7B1
100
AcDbEntity
  8
Defpoints
 62
     0
100
AcDbPoint
 10
1855.790793800845
 20
421.4981176152759
 30
0.0
  0
POINT
  5
1B7BB
330
1B7B1
100
AcDbEntity
  8
Defpoints
 62
     0
100
AcDbPoint
 10
1855.790793800845
 20
374.4216114193515
 30
0.0
  0
POINT
  5
1B7BC
330
1B7B1
100
AcDbEntity
  8
Defpoints
 62
     0
100
AcDbPoint
 10
1948.004744031528
 20
374.4216114193515
 30
0.0
  0
ENDBLK
  5
1B7B3
330
1B7B1
100
AcDbEntity
  8
0
100
AcDbBlockEnd
  0
BLOCK
  5
1B7BE
330
1B7BD
100
AcDbEntity
  8
0
100
AcDbBlockBegin
  2
*D85
 70
     1
 10
0.0
 20
0.0
 30
0.0
  3
*D85
  1

  0
LINE
  5
1B7C0
330
1B7BD
100
AcDbEntity
  8
DIM
 62
     0
 48
0.05
370
    -2
100
AcDbLine
 10
1702.790219224365
 20
354.669272503177
 30
0.0
 11
1702.790219224365
 21
299.9492448394736
 31
0.0
  0
LINE
  5
1B7C1
330
1B7BD
100
AcDbEntity
  8
DIM
 62
     0
 48
0.05
370
    -2
100
AcDbLine
 10
1832.843185661788
 20
362.3264732182076
 30
0.0
 11
1832.843185661788
 21
299.9492448394736
 31
0.0
  0
LINE
  5
1B7C2
330
1B7BD
100
AcDbEntity
  8
DIM
 62
     0
 48
0.05
370
    -2
100
AcDbLine
 10
1705.790219224365
 20
299.9492448394736
 30
0.0
 11
1829.843185661788
 21
299.9492448394736
 31
0.0
  0
INSERT
  5
1B7C3
330
1B7BD
100
AcDbEntity
  8
DIM
 62
     0
370
    -2
100
AcDbBlockReference
  2
_DOT
 10
1702.790219224365
 20
299.9492448394736
 30
0.0
 41
3.0
 42
3.0
 43
3.0
 50
180.0
  0
INSERT
  5
1B7C4
330
1B7BD
100
AcDbEntity
  8
DIM
 62
     0
370
    -2
100
AcDbBlockReference
  2
_DOT
 10
1832.843185661788
 20
299.9492448394736
 30
0.0
 41
3.0
 42
3.0
 43
3.0
  0
MTEXT
  5
1B7C5
330
1B7BD
100
AcDbEntity
  8
DIM
 62
     0
 48
0.05
100
AcDbMText
 10
1767.816702443076
 20
309.9492448394736
 30
0.0
 40
8.0
 41
0.0
 46
0.0
 71
     5
 72
     1
  1
\A1;130
  7
ＭＳ ゴシック
 73
     1
 44
1.0
  0
POINT
  5
1B7C6
330
1B7BD
100
AcDbEntity
  8
Defpoints
 62
     0
100
AcDbPoint
 10
1702.790219224365
 20
364.669272503177
 30
0.0
  0
POINT
  5
1B7C7
330
1B7BD
100
AcDbEntity
  8
Defpoints
 62
     0
100
AcDbPoint
 10
1832.843185661788
 20
372.3264732182076
 30
0.0
  0
POINT
  5
1B7C8
330
1B7BD
100
AcDbEntity
  8
Defpoints
 62
     0
100
AcDbPoint
 10
1832.843185661788
 20
299.9492448394736
 30
0.0
  0
ENDBLK
  5
1B7BF
330
1B7BD
100
AcDbEntity
  8
0
100
AcDbBlockEnd
  0
BLOCK
  5
1B7CA
330
1B7C9
100
AcDbEntity
  8
0
100
AcDbBlockBegin
  2
*D86
 70
     1
 10
0.0
 20
0.0
 30
0.0
  3
*D86
  1

  0
LINE
  5
1B7CC
330
1B7C9
100
AcDbEntity
  8
DIM
 62
     0
 48
0.05
370
    -2
100
AcDbLine
 10
1775.714307266706
 20
351.1774666470636
 30
0.0
 11
1775.714307266706
 21
324.9544846802141
 31
0.0
  0
LINE
  5
1B7CD
330
1B7C9
100
AcDbEntity
  8
DIM
 62
     0
 48
0.05
370
    -2
100
AcDbLine
 10
1809.704973764345
 20
351.1774666470636
 30
0.0
 11
1809.704973764345
 21
324.9544846802141
 31
0.0
  0
LINE
  5
1B7CE
330
1B7C9
100
AcDbEntity
  8
DIM
 62
     0
 48
0.05
370
    -2
100
AcDbLine
 10
1778.714307266706
 20
324.9544846802141
 30
0.0
 11
1806.704973764345
 21
324.9544846802141
 31
0.0
  0
INSERT
  5
1B7CF
330
1B7C9
100
AcDbEntity
  8
DIM
 62
     0
370
    -2
100
AcDbBlockReference
  2
_DOT
 10
1775.714307266706
 20
324.9544846802141
 30
0.0
 41
3.0
 42
3.0
 43
3.0
 50
180.0
  0
INSERT
  5
1B7D0
330
1B7C9
100
AcDbEntity
  8
DIM
 62
     0
370
    -2
100
AcDbBlockReference
  2
_DOT
 10
1809.704973764345
 20
324.9544846802141
 30
0.0
 41
3.0
 42
3.0
 43
3.0
  0
MTEXT
  5
1B7D1
330
1B7C9
100
AcDbEntity
  8
DIM
 62
     0
 48
0.05
100
AcDbMText
 10
1792.709640515526
 20
335.8064846802141
 30
0.0
 40
8.0
 41
0.0
 46
0.0
 71
     5
 72
     1
  1
\A1;G3/4"
  7
ＭＳ ゴシック
 73
     1
 44
1.0
  0
POINT
  5
1B7D2
330
1B7C9
100
AcDbEntity
  8
Defpoints
 62
     0
100
AcDbPoint
 10
1775.714307266706
 20
361.1774666470636
 30
0.0
  0
POINT
  5
1B7D3
330
1B7C9
100
AcDbEntity
  8
Defpoints
 62
     0
100
AcDbPoint
 10
1809.704973764345
 20
361.1774666470636
 30
0.0
  0
POINT
  5
1B7D4
330
1B7C9
100
AcDbEntity
  8
Defpoints
 62
     0
100
AcDbPoint
 10
1809.704973764345
 20
324.9544846802141
 30
0.0
  0
ENDBLK
  5
1B7CB
330
1B7C9
100
AcDbEntity
  8
0
100
AcDbBlockEnd
  0
BLOCK
  5
1B7D6
330
1B7D5
100
AcDbEntity
  8
0
100
AcDbBlockBegin
  2
*D87
 70
     1
 10
0.0
 20
0.0
 30
0.0
  3
*D87
  1

  0
LINE
  5
1B7D8
330
1B7D5
100
AcDbEntity
  8
DIM
 62
     0
 48
0.05
370
    -2
100
AcDbLine
 10
1889.972064056869
 20
351.1774666470636
 30
0.0
 11
1889.972064056869
 21
324.9544846802141
 31
0.0
  0
LINE
  5
1B7D9
330
1B7D5
100
AcDbEntity
  8
DIM
 62
     0
 48
0.05
370
    -2
100
AcDbLine
 10
1855.98139755923
 20
351.1774666470636
 30
0.0
 11
1855.98139755923
 21
324.9544846802141
 31
0.0
  0
LINE
  5
1B7DA
330
1B7D5
100
AcDbEntity
  8
DIM
 62
     0
 48
0.05
370
    -2
100
AcDbLine
 10
1886.972064056869
 20
324.9544846802141
 30
0.0
 11
1858.98139755923
 21
324.9544846802141
 31
0.0
  0
INSERT
  5
1B7DB
330
1B7D5
100
AcDbEntity
  8
DIM
 62
     0
370
    -2
100
AcDbBlockReference
  2
_DOT
 10
1889.972064056869
 20
324.9544846802141
 30
0.0
 41
3.0
 42
3.0
 43
3.0
  0
INSERT
  5
1B7DC
330
1B7D5
100
AcDbEntity
  8
DIM
 62
     0
370
    -2
100
AcDbBlockReference
  2
_DOT
 10
1855.98139755923
 20
324.9544846802141
 30
0.0
 41
3.0
 42
3.0
 43
3.0
 50
180.0
  0
MTEXT
  5
1B7DD
330
1B7D5
100
AcDbEntity
  8
DIM
 62
     0
 48
0.05
100
AcDbMText
 10
1872.81628647629
 20
335.8064846802141
 30
0.0
 40
8.0
 41
0.0
 46
0.0
 71
     5
 72
     1
  1
\A1;G3/4"
  7
ＭＳ ゴシック
 73
     1
 44
1.0
  0
POINT
  5
1B7DE
330
1B7D5
100
AcDbEntity
  8
Defpoints
 62
     0
100
AcDbPoint
 10
1889.972064056869
 20
361.1774666470636
 30
0.0
  0
POINT
  5
1B7DF
330
1B7D5
100
AcDbEntity
  8
Defpoints
 62
     0
100
AcDbPoint
 10
1855.98139755923
 20
361.1774666470636
 30
0.0
  0
POINT
  5
1B7E0
330
1B7D5
100
AcDbEntity
  8
Defpoints
 62
     0
100
AcDbPoint
 10
1855.98139755923
 20
324.9544846802141
 30
0.0
  0
ENDBLK
  5
1B7D7
330
1B7D5
100
AcDbEntity
  8
0
100
AcDbBlockEnd
  0
BLOCK
  5
1B7E2
330
1B7E1
100
AcDbEntity
  8
0
100
AcDbBlockBegin
  2
*D88
 70
     1
 10
0.0
 20
0.0
 30
0.0
  3
*D88
  1

  0
LINE
  5
1B7E4
330
1B7E1
100
AcDbEntity
  8
DIM
 62
     0
 48
0.05
370
    -2
100
AcDbLine
 10
1774.279934940779
 20
417.2186140681716
 30
0.0
 11
1774.279934940779
 21
462.0284950754223
 31
0.0
  0
LINE
  5
1B7E5
330
1B7E1
100
AcDbEntity
  8
DIM
 62
     0
 48
0.05
370
    -2
100
AcDbLine
 10
1891.245992051038
 20
417.2186140681716
 30
0.0
 11
1891.245992051038
 21
462.0284950754223
 31
0.0
  0
LINE
  5
1B7E6
330
1B7E1
100
AcDbEntity
  8
DIM
 62
     0
 48
0.05
370
    -2
100
AcDbLine
 10
1777.279934940779
 20
462.0284950754223
 30
0.0
 11
1888.245992051038
 21
462.0284950754223
 31
0.0
  0
INSERT
  5
1B7E7
330
1B7E1
100
AcDbEntity
  8
DIM
 62
     0
370
    -2
100
AcDbBlockReference
  2
_DOT
 10
1774.279934940779
 20
462.0284950754223
 30
0.0
 41
3.0
 42
3.0
 43
3.0
 50
180.0
  0
INSERT
  5
1B7E8
330
1B7E1
100
AcDbEntity
  8
DIM
 62
     0
370
    -2
100
AcDbBlockReference
  2
_DOT
 10
1891.245992051038
 20
462.0284950754223
 30
0.0
 41
3.0
 42
3.0
 43
3.0
  0
MTEXT
  5
1B7E9
330
1B7E1
100
AcDbEntity
  8
DIM
 62
     0
 48
0.05
100
AcDbMText
 10
1832.762963495908
 20
472.0284950754223
 30
0.0
 40
8.0
 41
0.0
 46
0.0
 71
     5
 72
     1
  1
\A1;117
  7
ＭＳ ゴシック
 73
     1
 44
1.0
  0
POINT
  5
1B7EA
330
1B7E1
100
AcDbEntity
  8
Defpoints
 62
     0
100
AcDbPoint
 10
1774.279934940779
 20
407.2186140681716
 30
0.0
  0
POINT
  5
1B7EB
330
1B7E1
100
AcDbEntity
  8
Defpoints
 62
     0
100
AcDbPoint
 10
1891.245992051038
 20
407.2186140681716
 30
0.0
  0
POINT
  5
1B7EC
330
1B7E1
100
AcDbEntity
  8
Defpoints
 62
     0
100
AcDbPoint
 10
1891.245992051038
 20
462.0284950754223
 30
0.0
  0
ENDBLK
  5
1B7E3
330
1B7E1
100
AcDbEntity
  8
0
100
AcDbBlockEnd
  0
BLOCK
  5
1B7EE
330
1B7ED
100
AcDbEntity
  8
0
100
AcDbBlockBegin
  2
*D89
 70
     1
 10
0.0
 20
0.0
 30
0.0
  3
*D89
  1

  0
LINE
  5
1B7F0
330
1B7ED
100
AcDbEntity
  8
DIM
 62
     0
 48
0.05
370
    -2
100
AcDbLine
 10
1670.39650864217
 20
594.2635440406553
 30
0.0
 11
1670.39650864217
 21
617.9297626049126
 31
0.0
  0
LINE
  5
1B7F1
330
1B7ED
100
AcDbEntity
  8
DIM
 62
     0
 48
0.05
370
    -2
100
AcDbLine
 10
1940.39650864217
 20
594.2635440406553
 30
0.0
 11
1940.39650864217
 21
617.9297626049126
 31
0.0
  0
LINE
  5
1B7F2
330
1B7ED
100
AcDbEntity
  8
DIM
 62
     0
 48
0.05
370
    -2
100
AcDbLine
 10
1673.39650864217
 20
617.9297626049126
 30
0.0
 11
1937.39650864217
 21
617.9297626049126
 31
0.0
  0
INSERT
  5
1B7F3
330
1B7ED
100
AcDbEntity
  8
DIM
 62
     0
370
    -2
100
AcDbBlockReference
  2
_DOT
 10
1670.39650864217
 20
617.9297626049126
 30
0.0
 41
3.0
 42
3.0
 43
3.0
 50
180.0
  0
INSERT
  5
1B7F4
330
1B7ED
100
AcDbEntity
  8
DIM
 62
     0
370
    -2
100
AcDbBlockReference
  2
_DOT
 10
1940.39650864217
 20
617.9297626049126
 30
0.0
 41
3.0
 42
3.0
 43
3.0
  0
MTEXT
  5
1B7F5
330
1B7ED
100
AcDbEntity
  8
DIM
 62
     0
 48
0.05
100
AcDbMText
 10
1805.39650864217
 20
627.9297626049126
 30
0.0
 40
8.0
 41
0.0
 46
0.0
 71
     5
 72
     1
  1
\A1;270
  7
ＭＳ ゴシック
 73
     1
 44
1.0
  0
POINT
  5
1B7F6
330
1B7ED
100
AcDbEntity
  8
Defpoints
 62
     0
100
AcDbPoint
 10
1670.39650864217
 20
584.2635440406553
 30
0.0
  0
POINT
  5
1B7F7
330
1B7ED
100
AcDbEntity
  8
Defpoints
 62
     0
100
AcDbPoint
 10
1940.39650864217
 20
584.2635440406553
 30
0.0
  0
POINT
  5
1B7F8
330
1B7ED
100
AcDbEntity
  8
Defpoints
 62
     0
100
AcDbPoint
 10
1940.39650864217
 20
617.9297626049126
 30
0.0
  0
ENDBLK
  5
1B7EF
330
1B7ED
100
AcDbEntity
  8
0
100
AcDbBlockEnd
  0
BLOCK
  5
1B7FA
330
1B7F9
100
AcDbEntity
  8
0
100
AcDbBlockBegin
  2
*D90
 70
     1
 10
0.0
 20
0.0
 30
0.0
  3
*D90
  1

  0
LINE
  5
1B7FC
330
1B7F9
100
AcDbEntity
  8
DIM
 62
     0
 48
0.05
370
    -2
100
AcDbLine
 10
1740.290338072018
 20
589.8647017538747
 30
0.0
 11
1740.290338072018
 21
598.3611045617733
 31
0.0
  0
LINE
  5
1B7FD
330
1B7F9
100
AcDbEntity
  8
DIM
 62
     0
 48
0.05
370
    -2
100
AcDbLine
 10
1870.342234880562
 20
591.5630914742328
 30
0.0
 11
1870.342234880562
 21
598.3611045617733
 31
0.0
  0
LINE
  5
1B7FE
330
1B7F9
100
AcDbEntity
  8
DIM
 62
     0
 48
0.05
370
    -2
100
AcDbLine
 10
1743.290338072018
 20
598.3611045617733
 30
0.0
 11
1867.342234880562
 21
598.3611045617733
 31
0.0
  0
INSERT
  5
1B7FF
330
1B7F9
100
AcDbEntity
  8
DIM
 62
     0
370
    -2
100
AcDbBlockReference
  2
_DOT
 10
1740.290338072018
 20
598.3611045617733
 30
0.0
 41
3.0
 42
3.0
 43
3.0
 50
180.0
  0
INSERT
  5
1B800
330
1B7F9
100
AcDbEntity
  8
DIM
 62
     0
370
    -2
100
AcDbBlockReference
  2
_DOT
 10
1870.342234880562
 20
598.3611045617733
 30
0.0
 41
3.0
 42
3.0
 43
3.0
  0
MTEXT
  5
1B801
330
1B7F9
100
AcDbEntity
  8
DIM
 62
     0
 48
0.05
100
AcDbMText
 10
1805.31628647629
 20
608.3611045617733
 30
0.0
 40
8.0
 41
0.0
 46
0.0
 71
     5
 72
     1
  1
\A1;130
  7
ＭＳ ゴシック
 73
     1
 44
1.0
  0
POINT
  5
1B802
330
1B7F9
100
AcDbEntity
  8
Defpoints
 62
     0
100
AcDbPoint
 10
1740.290338072018
 20
579.8647017538747
 30
0.0
  0
POINT
  5
1B803
330
1B7F9
100
AcDbEntity
  8
Defpoints
 62
     0
100
AcDbPoint
 10
1870.342234880562
 20
581.5630914742328
 30
0.0
  0
POINT
  5
1B804
330
1B7F9
100
AcDbEntity
  8
Defpoints
 62
     0
100
AcDbPoint
 10
1870.342234880562
 20
598.3611045617733
 30
0.0
  0
ENDBLK
  5
1B7FB
330
1B7F9
100
AcDbEntity
  8
0
100
AcDbBlockEnd
  0
BLOCK
  5
1B806
330
1B805
100
AcDbEntity
  8
0
100
AcDbBlockBegin
  2
*D91
 70
     1
 10
0.0
 20
0.0
 30
0.0
  3
*D91
  1

  0
LINE
  5
1B808
330
1B805
100
AcDbEntity
  8
DIM
 62
     0
 48
0.05
370
    -2
100
AcDbLine
 10
1952.627754482502
 20
581.5488259472887
 30
0.0
 11
1979.782169293316
 21
581.5488259472887
 31
0.0
  0
LINE
  5
1B809
330
1B805
100
AcDbEntity
  8
DIM
 62
     0
 48
0.05
370
    -2
100
AcDbLine
 10
1952.627754482502
 20
506.5507275097391
 30
0.0
 11
1979.782169293316
 21
506.5507275097391
 31
0.0
  0
LINE
  5
1B80A
330
1B805
100
AcDbEntity
  8
DIM
 62
     0
 48
0.05
370
    -2
100
AcDbLine
 10
1979.782169293316
 20
578.5488259472887
 30
0.0
 11
1979.782169293316
 21
509.5507275097391
 31
0.0
  0
INSERT
  5
1B80B
330
1B805
100
AcDbEntity
  8
DIM
 62
     0
370
    -2
100
AcDbBlockReference
  2
_DOT
 10
1979.782169293316
 20
581.5488259472887
 30
0.0
 41
3.0
 42
3.0
 43
3.0
 50
90.0
  0
INSERT
  5
1B80C
330
1B805
100
AcDbEntity
  8
DIM
 62
     0
370
    -2
100
AcDbBlockReference
  2
_DOT
 10
1979.782169293316
 20
506.5507275097391
 30
0.0
 41
3.0
 42
3.0
 43
3.0
 50
270.0
  0
MTEXT
  5
1B80D
330
1B805
100
AcDbEntity
  8
DIM
 62
     0
 48
0.05
100
AcDbMText
 10
1969.782169293316
 20
544.049776728514
 30
0.0
 40
8.0
 41
0.0
 46
0.0
 71
     5
 72
     1
  1
\A1;75
  7
ＭＳ ゴシック
 11
0.0
 21
1.0
 31
0.0
 73
     1
 44
1.0
  0
POINT
  5
1B80E
330
1B805
100
AcDbEntity
  8
Defpoints
 62
     0
100
AcDbPoint
 10
1942.627754482502
 20
581.5488259472887
 30
0.0
  0
POINT
  5
1B80F
330
1B805
100
AcDbEntity
  8
Defpoints
 62
     0
100
AcDbPoint
 10
1942.627754482502
 20
506.5507275097391
 30
0.0
  0
POINT
  5
1B810
330
1B805
100
AcDbEntity
  8
Defpoints
 62
     0
100
AcDbPoint
 10
1979.782169293316
 20
506.5507275097391
 30
0.0
  0
ENDBLK
  5
1B807
330
1B805
100
AcDbEntity
  8
0
100
AcDbBlockEnd
  0
BLOCK
  5
1BBD9
330
1BBD8
100
AcDbEntity
  8
0
100
AcDbBlockBegin
  2
*D92
 70
     1
 10
0.0
 20
0.0
 30
0.0
  3
*D92
  1

  0
LINE
  5
1BBDB
330
1BBD8
100
AcDbEntity
  8
DIM
 62
     0
 48
0.05
370
    -2
100
AcDbLine
 10
1000.82463065906
 20
-490.7149572138451
 30
0.0
 11
1000.82463065906
 21
-564.6541817180711
 31
0.0
  0
LINE
  5
1BBDC
330
1BBD8
100
AcDbEntity
  8
DIM
 62
     0
 48
0.05
370
    -2
100
AcDbLine
 10
1200.82463065906
 20
-546.1371450502214
 30
0.0
 11
1200.82463065906
 21
-564.6541817180711
 31
0.0
  0
LINE
  5
1BBDD
330
1BBD8
100
AcDbEntity
  8
DIM
 62
     0
 48
0.05
370
    -2
100
AcDbLine
 10
1003.82463065906
 20
-564.6541817180711
 30
0.0
 11
1197.82463065906
 21
-564.6541817180711
 31
0.0
  0
INSERT
  5
1BBDE
330
1BBD8
100
AcDbEntity
  8
DIM
 62
     0
370
    -2
100
AcDbBlockReference
  2
_DOT
 10
1000.82463065906
 20
-564.6541817180711
 30
0.0
 41
3.0
 42
3.0
 43
3.0
 50
180.0
  0
INSERT
  5
1BBDF
330
1BBD8
100
AcDbEntity
  8
DIM
 62
     0
370
    -2
100
AcDbBlockReference
  2
_DOT
 10
1200.82463065906
 20
-564.6541817180711
 30
0.0
 41
3.0
 42
3.0
 43
3.0
  0
MTEXT
  5
1BBE0
330
1BBD8
100
AcDbEntity
  8
DIM
 62
     0
 48
0.05
100
AcDbMText
 10
1100.82463065906
 20
-554.6541817180711
 30
0.0
 40
8.0
 41
0.0
 46
0.0
 71
     5
 72
     1
  1
\A1;200
  7
ＭＳ ゴシック
 73
     1
 44
1.0
  0
POINT
  5
1BBE1
330
1BBD8
100
AcDbEntity
  8
Defpoints
 62
     0
100
AcDbPoint
 10
1000.82463065906
 20
-480.7149572138451
 30
0.0
  0
POINT
  5
1BBE2
330
1BBD8
100
AcDbEntity
  8
Defpoints
 62
     0
100
AcDbPoint
 10
1200.82463065906
 20
-536.1371450502214
 30
0.0
  0
POINT
  5
1BBE3
330
1BBD8
100
AcDbEntity
  8
Defpoints
 62
     0
100
AcDbPoint
 10
1200.82463065906
 20
-564.6541817180711
 30
0.0
  0
ENDBLK
  5
1BBDA
330
1BBD8
100
AcDbEntity
  8
0
100
AcDbBlockEnd
  0
BLOCK
  5
1BBE5
330
1BBE4
100
AcDbEntity
  8
0
100
AcDbBlockBegin
  2
*D93
 70
     1
 10
0.0
 20
0.0
 30
0.0
  3
*D93
  1

  0
LINE
  5
1BBE7
330
1BBE4
100
AcDbEntity
  8
DIM
 62
     0
 48
0.05
370
    -2
100
AcDbLine
 10
1000.82463065906
 20
-401.0403466055417
 30
0.0
 11
1000.82463065906
 21
-391.0152190798975
 31
0.0
  0
LINE
  5
1BBE8
330
1BBE4
100
AcDbEntity
  8
DIM
 62
     0
 48
0.05
370
    -2
100
AcDbLine
 10
1006.786655975135
 20
-401.501143884938
 30
0.0
 11
1006.786655975135
 21
-391.0152190798975
 31
0.0
  0
LINE
  5
1BBE9
330
1BBE4
100
AcDbEntity
  8
DIM
 62
     0
 48
0.05
370
    -2
100
AcDbLine
 10
1003.82463065906
 20
-391.0152190798975
 30
0.0
 11
1003.786655975135
 21
-391.0152190798975
 31
0.0
  0
INSERT
  5
1BBEA
330
1BBE4
100
AcDbEntity
  8
DIM
 62
     0
370
    -2
100
AcDbBlockReference
  2
_DOT
 10
1000.82463065906
 20
-391.0152190798975
 30
0.0
 41
3.0
 42
3.0
 43
3.0
 50
180.0
  0
INSERT
  5
1BBEB
330
1BBE4
100
AcDbEntity
  8
DIM
 62
     0
370
    -2
100
AcDbBlockReference
  2
_DOT
 10
1006.786655975135
 20
-391.0152190798975
 30
0.0
 41
3.0
 42
3.0
 43
3.0
  0
MTEXT
  5
1BBEC
330
1BBE4
100
AcDbEntity
  8
DIM
 62
     0
 48
0.05
100
AcDbMText
 10
1003.786655975135
 20
-381.0152190798975
 30
0.0
 40
8.0
 41
0.0
 46
0.0
 71
     5
 72
     1
  1
\A1;6
  7
ＭＳ ゴシック
 73
     1
 44
1.0
  0
POINT
  5
1BBED
330
1BBE4
100
AcDbEntity
  8
Defpoints
 62
     0
100
AcDbPoint
 10
1000.82463065906
 20
-411.0403466055417
 30
0.0
  0
POINT
  5
1BBEE
330
1BBE4
100
AcDbEntity
  8
Defpoints
 62
     0
100
AcDbPoint
 10
1006.786655975135
 20
-411.501143884938
 30
0.0
  0
POINT
  5
1BBEF
330
1BBE4
100
AcDbEntity
  8
Defpoints
 62
     0
100
AcDbPoint
 10
1006.786655975135
 20
-391.0152190798975
 30
0.0
  0
ENDBLK
  5
1BBE6
330
1BBE4
100
AcDbEntity
  8
0
100
AcDbBlockEnd
  0
BLOCK
  5
1BBF1
330
1BBF0
100
AcDbEntity
  8
0
100
AcDbBlockBegin
  2
*D94
 70
     1
 10
0.0
 20
0.0
 30
0.0
  3
*D94
  1

  0
LINE
  5
1BBF3
330
1BBF0
100
AcDbEntity
  8
DIM
 62
     0
 48
0.05
370
    -2
100
AcDbLine
 10
1102.385484198438
 20
-432.5664592006705
 30
0.0
 11
1090.940379493628
 21
-432.5664592006705
 31
0.0
  0
LINE
  5
1BBF4
330
1BBF0
100
AcDbEntity
  8
DIM
 62
     0
 48
0.05
370
    -2
100
AcDbLine
 10
1102.385484198438
 20
-456.5664591991385
 30
0.0
 11
1090.940379493628
 21
-456.5664591991385
 31
0.0
  0
LINE
  5
1BBF5
330
1BBF0
100
AcDbEntity
  8
DIM
 62
     0
 48
0.05
370
    -2
100
AcDbLine
 10
1090.940379493628
 20
-432.5664592006705
 30
0.0
 11
1090.940379493628
 21
-399.5344592006703
 31
0.0
  0
LINE
  5
1BBF6
330
1BBF0
100
AcDbEntity
  8
DIM
 62
     0
 48
0.05
370
    -2
100
AcDbLine
 10
1090.940379493628
 20
-435.5664592006705
 30
0.0
 11
1090.940379493628
 21
-453.5664591991385
 31
0.0
  0
LINE
  5
1BBF7
330
1BBF0
100
AcDbEntity
  8
DIM
 62
     0
 48
0.05
370
    -2
100
AcDbLine
 10
1090.940379493628
 20
-435.5664592006705
 30
0.0
 11
1090.940379493628
 21
-438.5664592006705
 31
0.0
  0
INSERT
  5
1BBF8
330
1BBF0
100
AcDbEntity
  8
DIM
 62
     0
370
    -2
100
AcDbBlockReference
  2
_DOT
 10
1090.940379493628
 20
-432.5664592006705
 30
0.0
 41
3.0
 42
3.0
 43
3.0
 50
90.0
  0
INSERT
  5
1BBF9
330
1BBF0
100
AcDbEntity
  8
DIM
 62
     0
370
    -2
100
AcDbBlockReference
  2
_DOT
 10
1090.940379493628
 20
-456.5664591991385
 30
0.0
 41
3.0
 42
3.0
 43
3.0
 50
270.0
  0
MTEXT
  5
1BBFA
330
1BBF0
100
AcDbEntity
  8
DIM
 62
     0
 48
0.05
100
AcDbMText
 10
1080.940379493628
 20
-413.0504592006704
 30
0.0
 40
8.0
 41
0.0
 46
0.0
 71
     5
 72
     1
  1
\A1;%%c24
  7
ＭＳ ゴシック
 11
0.0
 21
1.0
 31
0.0
 73
     1
 44
1.0
  0
POINT
  5
1BBFB
330
1BBF0
100
AcDbEntity
  8
Defpoints
 62
     0
100
AcDbPoint
 10
1112.385484198438
 20
-432.5664592006705
 30
0.0
  0
POINT
  5
1BBFC
330
1BBF0
100
AcDbEntity
  8
Defpoints
 62
     0
100
AcDbPoint
 10
1112.385484198438
 20
-456.5664591991385
 30
0.0
  0
POINT
  5
1BBFD
330
1BBF0
100
AcDbEntity
  8
Defpoints
 62
     0
100
AcDbPoint
 10
1090.940379493628
 20
-456.5664591991385
 30
0.0
  0
ENDBLK
  5
1BBF2
330
1BBF0
100
AcDbEntity
  8
0
100
AcDbBlockEnd
  0
BLOCK
  5
1BBFF
330
1BBFE
100
AcDbEntity
  8
0
100
AcDbBlockBegin
  2
*D95
 70
     1
 10
0.0
 20
0.0
 30
0.0
  3
*D95
  1

  0
ARC
  5
1BC01
330
1BBFE
100
AcDbEntity
  8
DIM
 62
     0
 48
0.05
370
    -2
100
AcDbCircle
 10
1200.82463065906
 20
-483.3302028832954
 30
0.0
 40
39.93875508865491
100
AcDbArc
 50
274.3047855040609
 51
295.6927612022703
  0
INSERT
  5
1BC02
330
1BBFE
100
AcDbEntity
  8
DIM
 62
     0
370
    -2
100
AcDbBlockReference
  2
_DOT
 10
1200.82463065906
 20
-523.2689579719504
 30
0.0
 41
3.0
 42
3.0
 43
3.0
 50
182.1523927520304
  0
INSERT
  5
1BC03
330
1BBFE
100
AcDbEntity
  8
DIM
 62
     0
370
    -2
100
AcDbBlockReference
  2
_DOT
 10
1220.792527195305
 20
-517.9190344037356
 30
0.0
 41
3.0
 42
3.0
 43
3.0
 50
27.8451539543007
  0
MTEXT
  5
1BC04
330
1BBFE
100
AcDbEntity
  8
DIM
 62
     0
 48
0.05
100
AcDbMText
 10
1208.536499770298
 20
-512.1137551248929
 30
0.0
 40
8.0
 41
0.0
 46
0.0
 71
     5
 72
     1
  1
\A1;30%%d
  7
ＭＳ ゴシック
 11
0.9659313671313751
 21
0.2587983655120576
 31
0.0
 73
     1
 44
1.0
  0
POINT
  5
1BC05
330
1BBFE
100
AcDbEntity
  8
Defpoints
 62
     0
100
AcDbPoint
 10
1207.759361324639
 20
-522.6622975214842
 30
0.0
  0
POINT
  5
1BC06
330
1BBFE
100
AcDbEntity
  8
Defpoints
 62
     0
100
AcDbPoint
 10
1200.82463065906
 20
-526.1371450502214
 30
0.0
  0
POINT
  5
1BC07
330
1BBFE
100
AcDbEntity
  8
Defpoints
 62
     0
100
AcDbPoint
 10
1203.731110915818
 20
-488.3648721954086
 30
0.0
  0
POINT
  5
1BC08
330
1BBFE
100
AcDbEntity
  8
Defpoints
 62
     0
100
AcDbPoint
 10
1223.146943145827
 20
-521.9974057281191
 30
0.0
  0
POINT
  5
1BC09
330
1BBFE
100
AcDbEntity
  8
Defpoints
 62
     0
100
AcDbPoint
 10
1200.82463065906
 20
-401.0057967970567
 30
0.0
  0
ENDBLK
  5
1BC00
330
1BBFE
100
AcDbEntity
  8
0
100
AcDbBlockEnd
  0
BLOCK
  5
1BC0B
330
1BC0A
100
AcDbEntity
  8
0
100
AcDbBlockBegin
  2
*D96
 70
     1
 10
0.0
 20
0.0
 30
0.0
  3
*D96
  1

  0
LINE
  5
1BC0D
330
1BC0A
100
AcDbEntity
  8
DIM
 62
     0
 48
0.05
370
    -2
100
AcDbLine
 10
820.6024504325133
 20
-473.1118224598943
 30
0.0
 11
820.6024504325133
 21
-517.5823884101119
 31
0.0
  0
LINE
  5
1BC0E
330
1BC0A
100
AcDbEntity
  8
DIM
 62
     0
 48
0.05
370
    -2
100
AcDbLine
 10
885.7182637667285
 20
-473.1118224598943
 30
0.0
 11
885.7182637667285
 21
-517.5823884101119
 31
0.0
  0
LINE
  5
1BC0F
330
1BC0A
100
AcDbEntity
  8
DIM
 62
     0
 48
0.05
370
    -2
100
AcDbLine
 10
823.6024504325133
 20
-517.5823884101119
 30
0.0
 11
882.7182637667285
 21
-517.5823884101119
 31
0.0
  0
INSERT
  5
1BC10
330
1BC0A
100
AcDbEntity
  8
DIM
 62
     0
370
    -2
100
AcDbBlockReference
  2
_DOT
 10
820.6024504325133
 20
-517.5823884101119
 30
0.0
 41
3.0
 42
3.0
 43
3.0
 50
180.0
  0
INSERT
  5
1BC11
330
1BC0A
100
AcDbEntity
  8
DIM
 62
     0
370
    -2
100
AcDbBlockReference
  2
_DOT
 10
885.7182637667285
 20
-517.5823884101119
 30
0.0
 41
3.0
 42
3.0
 43
3.0
  0
MTEXT
  5
1BC12
330
1BC0A
100
AcDbEntity
  8
DIM
 62
     0
 48
0.05
100
AcDbMText
 10
853.1603570996208
 20
-507.5823884101119
 30
0.0
 40
8.0
 41
0.0
 46
0.0
 71
     5
 72
     1
  1
\A1;%%c65
  7
ＭＳ ゴシック
 73
     1
 44
1.0
  0
POINT
  5
1BC13
330
1BC0A
100
AcDbEntity
  8
Defpoints
 62
     0
100
AcDbPoint
 10
820.6024504325133
 20
-463.1118224598943
 30
0.0
  0
POINT
  5
1BC14
330
1BC0A
100
AcDbEntity
  8
Defpoints
 62
     0
100
AcDbPoint
 10
885.7182637667285
 20
-463.1118224598943
 30
0.0
  0
POINT
  5
1BC15
330
1BC0A
100
AcDbEntity
  8
Defpoints
 62
     0
100
AcDbPoint
 10
885.7182637667285
 20
-517.5823884101119
 30
0.0
  0
ENDBLK
  5
1BC0C
330
1BC0A
100
AcDbEntity
  8
0
100
AcDbBlockEnd
  0
BLOCK
  5
1BC17
330
1BC16
100
AcDbEntity
  8
0
100
AcDbBlockBegin
  2
*D97
 70
     1
 10
0.0
 20
0.0
 30
0.0
  3
*D97
  1

  0
LINE
  5
1BC19
330
1BC16
100
AcDbEntity
  8
DIM
 62
     0
 48
0.05
370
    -2
100
AcDbLine
 10
827.9080393376794
 20
-488.3648721954086
 30
0.0
 11
794.4523828313504
 21
-488.3648721954086
 31
0.0
  0
LINE
  5
1BC1A
330
1BC16
100
AcDbEntity
  8
DIM
 62
     0
 48
0.05
370
    -2
100
AcDbLine
 10
827.9080393376794
 20
-411.0144093248499
 30
0.0
 11
794.4523828313504
 21
-411.0144093248499
 31
0.0
  0
LINE
  5
1BC1B
330
1BC16
100
AcDbEntity
  8
DIM
 62
     0
 48
0.05
370
    -2
100
AcDbLine
 10
794.4523828313504
 20
-485.3648721954086
 30
0.0
 11
794.4523828313504
 21
-414.0144093248499
 31
0.0
  0
INSERT
  5
1BC1C
330
1BC16
100
AcDbEntity
  8
DIM
 62
     0
370
    -2
100
AcDbBlockReference
  2
_DOT
 10
794.4523828313504
 20
-488.3648721954086
 30
0.0
 41
3.0
 42
3.0
 43
3.0
 50
270.0
  0
INSERT
  5
1BC1D
330
1BC16
100
AcDbEntity
  8
DIM
 62
     0
370
    -2
100
AcDbBlockReference
  2
_DOT
 10
794.4523828313504
 20
-411.0144093248499
 30
0.0
 41
3.0
 42
3.0
 43
3.0
 50
90.0
  0
MTEXT
  5
1BC1E
330
1BC16
100
AcDbEntity
  8
DIM
 62
     0
 48
0.05
100
AcDbMText
 10
784.4523828313504
 20
-449.6896407601292
 30
0.0
 40
8.0
 41
0.0
 46
0.0
 71
     5
 72
     1
  1
\A1;77
  7
ＭＳ ゴシック
 11
0.0
 21
1.0
 31
0.0
 73
     1
 44
1.0
  0
POINT
  5
1BC1F
330
1BC16
100
AcDbEntity
  8
Defpoints
 62
     0
100
AcDbPoint
 10
837.9080393376794
 20
-488.3648721954086
 30
0.0
  0
POINT
  5
1BC20
330
1BC16
100
AcDbEntity
  8
Defpoints
 62
     0
100
AcDbPoint
 10
837.9080393376794
 20
-411.0144093248499
 30
0.0
  0
POINT
  5
1BC21
330
1BC16
100
AcDbEntity
  8
Defpoints
 62
     0
100
AcDbPoint
 10
794.4523828313504
 20
-411.0144093248499
 30
0.0
  0
ENDBLK
  5
1BC18
330
1BC16
100
AcDbEntity
  8
0
100
AcDbBlockEnd
  0
BLOCK
  5
1BC67
330
1BC66
100
AcDbEntity
  8
0
100
AcDbBlockBegin
  2
*D98
 70
     1
 10
0.0
 20
0.0
 30
0.0
  3
*D98
  1
*D25
  0
LINE
  5
1BC68
330
1BC66
100
AcDbEntity
  8
DIM
 62
     0
370
    -2
100
AcDbLine
 10
455.3107153068461
 20
70.2978639354069
 30
0.0
 11
455.3107153068461
 21
57.34885477290879
 31
0.0
  0
LINE
  5
1BC69
330
1BC66
100
AcDbEntity
  8
DIM
 62
     0
370
    -2
100
AcDbLine
 10
468.3107153068461
 20
70.29786305673474
 30
0.0
 11
468.3107153068461
 21
57.34885477290879
 31
0.0
  0
LINE
  5
1BC6A
330
1BC66
100
AcDbEntity
  8
DIM
 62
     0
370
    -2
100
AcDbLine
 10
458.3107153068461
 20
57.34885477290879
 30
0.0
 11
465.3107153068461
 21
57.34885477290879
 31
0.0
  0
INSERT
  5
1BC6B
330
1BC66
100
AcDbEntity
  8
DIM
 62
     0
370
    -2
100
AcDbBlockReference
  2
_DOT
 10
455.3107153068461
 20
57.34885477290879
 30
0.0
 41
3.0
 42
3.0
 43
3.0
 50
180.0
  0
INSERT
  5
1BC6C
330
1BC66
100
AcDbEntity
  8
DIM
 62
     0
370
    -2
100
AcDbBlockReference
  2
_DOT
 10
468.3107153068461
 20
57.34885477290879
 30
0.0
 41
3.0
 42
3.0
 43
3.0
  0
MTEXT
  5
1BC6D
330
1BC66
100
AcDbEntity
  8
DIM
 62
     0
 48
0.05
100
AcDbMText
 10
461.8107153068461
 20
47.34885477290879
 30
0.0
 40
12.0
 41
0.0
 46
0.0
 71
     5
 72
     1
  1
\A1;13
  7
ＭＳ ゴシック
 73
     1
 44
1.0
  0
POINT
  5
1BC6E
330
1BC66
100
AcDbEntity
  8
Defpoints
 62
     0
100
AcDbPoint
 10
455.3107153068461
 20
73.2978639354069
 30
0.0
  0
POINT
  5
1BC6F
330
1BC66
100
AcDbEntity
  8
Defpoints
 62
     0
100
AcDbPoint
 10
468.3107153068461
 20
73.29786305673474
 30
0.0
  0
POINT
  5
1BC70
330
1BC66
100
AcDbEntity
  8
Defpoints
 62
     0
100
AcDbPoint
 10
468.3107153068461
 20
57.34885477290879
 30
0.0
  0
ENDBLK
  5
1BC71
330
1BC66
100
AcDbEntity
  8
0
100
AcDbBlockEnd
  0
BLOCK
  5
1BC74
330
1BC73
100
AcDbEntity
  8
0
100
AcDbBlockBegin
  2
*D99
 70
     1
 10
0.0
 20
0.0
 30
0.0
  3
*D99
  1
*D27
  0
LINE
  5
1BC75
330
1BC73
100
AcDbEntity
  8
DIM
 62
     0
370
    -2
100
AcDbLine
 10
475.7450841794096
 20
93.06382877265969
 30
0.0
 11
511.3101862673072
 21
93.0638287726597
 31
0.0
  0
LINE
  5
1BC76
330
1BC73
100
AcDbEntity
  8
DIM
 62
     0
370
    -2
100
AcDbLine
 10
471.1107152903485
 20
73.09786306727256
 30
0.0
 11
511.3101862673072
 21
73.09786306727257
 31
0.0
  0
LINE
  5
1BC77
330
1BC73
100
AcDbEntity
  8
DIM
 62
     0
370
    -2
100
AcDbLine
 10
511.3101862673072
 20
90.0638287726597
 30
0.0
 11
511.3101862673072
 21
76.09786306727257
 31
0.0
  0
INSERT
  5
1BC78
330
1BC73
100
AcDbEntity
  8
DIM
 62
     0
370
    -2
100
AcDbBlockReference
  2
_DOT
 10
511.3101862673072
 20
93.0638287726597
 30
0.0
 41
3.0
 42
3.0
 43
3.0
 50
90.0
  0
INSERT
  5
1BC79
330
1BC73
100
AcDbEntity
  8
DIM
 62
     0
370
    -2
100
AcDbBlockReference
  2
_DOT
 10
511.3101862673072
 20
73.09786306727257
 30
0.0
 41
3.0
 42
3.0
 43
3.0
 50
270.0
  0
MTEXT
  5
1BC7A
330
1BC73
100
AcDbEntity
  8
DIM
 62
     0
 48
0.05
100
AcDbMText
 10
501.3101862673072
 20
83.08084591996612
 30
0.0
 40
12.0
 41
0.0
 46
0.0
 71
     5
 72
     1
  1
\A1;20
  7
ＭＳ ゴシック
 11
0.0
 21
1.0
 31
0.0
 73
     1
 44
1.0
  0
POINT
  5
1BC7B
330
1BC73
100
AcDbEntity
  8
Defpoints
 62
     0
100
AcDbPoint
 10
472.7450841794096
 20
93.06382877265969
 30
0.0
  0
POINT
  5
1BC7C
330
1BC73
100
AcDbEntity
  8
Defpoints
 62
     0
100
AcDbPoint
 10
468.1107152903485
 20
73.09786306727256
 30
0.0
  0
POINT
  5
1BC7D
330
1BC73
100
AcDbEntity
  8
Defpoints
 62
     0
100
AcDbPoint
 10
511.3101862673072
 20
73.09786306727258
 30
0.0
  0
ENDBLK
  5
1BC7E
330
1BC73
100
AcDbEntity
  8
0
100
AcDbBlockEnd
  0
BLOCK
  5
1BC81
330
1BC80
100
AcDbEntity
  8
0
100
AcDbBlockBegin
  2
*D100
 70
     1
 10
0.0
 20
0.0
 30
0.0
  3
*D100
  1
*D28
  0
LINE
  5
1BC82
330
1BC80
100
AcDbEntity
  8
DIM
 62
     0
370
    -2
100
AcDbLine
 10
648.5294621394773
 20
59.84795206421427
 30
0.0
 11
648.5294621394773
 21
1.499999999999987
 31
0.0
  0
LINE
  5
1BC83
330
1BC80
100
AcDbEntity
  8
DIM
 62
     0
370
    -2
100
AcDbLine
 10
441.1437345412805
 20
96.56383166717296
 30
0.0
 11
441.1437345412805
 21
1.500000000000013
 31
0.0
  0
LINE
  5
1BC84
330
1BC80
100
AcDbEntity
  8
DIM
 62
     0
370
    -2
100
AcDbLine
 10
645.5294621394773
 20
1.499999999999988
 30
0.0
 11
444.1437345412805
 21
1.500000000000012
 31
0.0
  0
INSERT
  5
1BC85
330
1BC80
100
AcDbEntity
  8
DIM
 62
     0
370
    -2
100
AcDbBlockReference
  2
_DOT
 10
648.5294621394773
 20
1.499999999999987
 30
0.0
 41
3.0
 42
3.0
 43
3.0
 50
360.0
  0
INSERT
  5
1BC86
330
1BC80
100
AcDbEntity
  8
DIM
 62
     0
370
    -2
100
AcDbBlockReference
  2
_DOT
 10
441.1437345412805
 20
1.500000000000013
 30
0.0
 41
3.0
 42
3.0
 43
3.0
 50
180.0
  0
MTEXT
  5
1BC87
330
1BC80
100
AcDbEntity
  8
DIM
 62
     0
 48
0.05
100
AcDbMText
 10
544.8366085941595
 20
11.5
 30
0.0
 40
12.0
 41
0.0
 46
0.0
 71
     5
 72
     1
  1
\A1;208
  7
ＭＳ ゴシック
 73
     1
 44
1.0
  0
POINT
  5
1BC88
330
1BC80
100
AcDbEntity
  8
Defpoints
 62
     0
100
AcDbPoint
 10
648.5294621394773
 20
62.84795206421427
 30
0.0
  0
POINT
  5
1BC89
330
1BC80
100
AcDbEntity
  8
Defpoints
 62
     0
100
AcDbPoint
 10
441.1437345412805
 20
99.56383166717296
 30
0.0
  0
POINT
  5
1BC8A
330
1BC80
100
AcDbEntity
  8
Defpoints
 62
     0
100
AcDbPoint
 10
441.1437345412805
 20
1.5
 30
0.0
  0
ENDBLK
  5
1BC8B
330
1BC80
100
AcDbEntity
  8
0
100
AcDbBlockEnd
  0
BLOCK
  5
1BC8E
330
1BC8D
100
AcDbEntity
  8
0
100
AcDbBlockBegin
  2
*D101
 70
     1
 10
0.0
 20
0.0
 30
0.0
  3
*D101
  1
*D31
  0
LINE
  5
1BC8F
330
1BC8D
100
AcDbEntity
  8
DIM
 62
     0
370
    -2
100
AcDbLine
 10
32.49999245224276
 20
163.7341248263347
 30
0.0
 11
32.49999245224276
 21
187.6021560575833
 31
0.0
  0
LINE
  5
1BC90
330
1BC8D
100
AcDbEntity
  8
DIM
 62
     0
370
    -2
100
AcDbLine
 10
162.4912498412598
 20
167.3508260338831
 30
0.0
 11
162.4912498412598
 21
187.6021560575833
 31
0.0
  0
LINE
  5
1BC91
330
1BC8D
100
AcDbEntity
  8
DIM
 62
     0
370
    -2
100
AcDbLine
 10
35.49999245224276
 20
187.6021560575833
 30
0.0
 11
159.4912498412598
 21
187.6021560575833
 31
0.0
  0
INSERT
  5
1BC92
330
1BC8D
100
AcDbEntity
  8
DIM
 62
     0
370
    -2
100
AcDbBlockReference
  2
_DOT
 10
32.49999245224276
 20
187.6021560575833
 30
0.0
 41
3.0
 42
3.0
 43
3.0
 50
180.0
  0
INSERT
  5
1BC93
330
1BC8D
100
AcDbEntity
  8
DIM
 62
     0
370
    -2
100
AcDbBlockReference
  2
_DOT
 10
162.4912498412598
 20
187.6021560575833
 30
0.0
 41
3.0
 42
3.0
 43
3.0
  0
MTEXT
  5
1BC94
330
1BC8D
100
AcDbEntity
  8
DIM
 62
     0
 48
0.05
100
AcDbMText
 10
97.49562114675128
 20
197.6021560575833
 30
0.0
 40
12.0
 41
0.0
 46
0.0
 71
     5
 72
     1
  1
\A1;130
  7
ＭＳ ゴシック
 73
     1
 44
1.0
  0
POINT
  5
1BC95
330
1BC8D
100
AcDbEntity
  8
Defpoints
 62
     0
100
AcDbPoint
 10
32.49999245224276
 20
160.7341248263347
 30
0.0
  0
POINT
  5
1BC96
330
1BC8D
100
AcDbEntity
  8
Defpoints
 62
     0
100
AcDbPoint
 10
162.4912498412598
 20
164.3508260338831
 30
0.0
  0
POINT
  5
1BC97
330
1BC8D
100
AcDbEntity
  8
Defpoints
 62
     0
100
AcDbPoint
 10
162.4912498412598
 20
187.6021560575833
 30
0.0
  0
ENDBLK
  5
1BC98
330
1BC8D
100
AcDbEntity
  8
0
100
AcDbBlockEnd
  0
BLOCK
  5
1BC9B
330
1BC9A
100
AcDbEntity
  8
0
100
AcDbBlockBegin
  2
*D102
 70
     1
 10
0.0
 20
0.0
 30
0.0
  3
*D102
  1
*D38
  0
LINE
  5
1BC9C
330
1BC9A
100
AcDbEntity
  8
DIM
 62
     0
370
    -2
100
AcDbLine
 10
160.4911523572105
 20
71.04643429883595
 30
0.0
 11
160.4911523572105
 21
52.3489999506088
 31
0.0
  0
LINE
  5
1BC9D
330
1BC9A
100
AcDbEntity
  8
DIM
 62
     0
370
    -2
100
AcDbLine
 10
164.4911523572107
 20
71.04643419559739
 30
0.0
 11
164.4911523572107
 21
52.3489999506088
 31
0.0
  0
LINE
  5
1BC9E
330
1BC9A
100
AcDbEntity
  8
DIM
 62
     0
370
    -2
100
AcDbLine
 10
160.4911523572105
 20
52.3489999506088
 30
0.0
 11
186.3840838753031
 21
52.3489999506088
 31
0.0
  0
LINE
  5
1BC9F
330
1BC9A
100
AcDbEntity
  8
DIM
 62
     0
370
    -2
100
AcDbLine
 10
163.4911523572105
 20
52.3489999506088
 30
0.0
 11
161.4911523572107
 21
52.3489999506088
 31
0.0
  0
LINE
  5
1BCA0
330
1BC9A
100
AcDbEntity
  8
DIM
 62
     0
370
    -2
100
AcDbLine
 10
161.4911523572107
 20
52.3489999506088
 30
0.0
 11
158.4911523572107
 21
52.3489999506088
 31
0.0
  0
INSERT
  5
1BCA1
330
1BC9A
100
AcDbEntity
  8
DIM
 62
     0
370
    -2
100
AcDbBlockReference
  2
_DOT
 10
160.4911523572105
 20
52.3489999506088
 30
0.0
 41
3.0
 42
3.0
 43
3.0
 50
180.0
  0
INSERT
  5
1BCA2
330
1BC9A
100
AcDbEntity
  8
DIM
 62
     0
370
    -2
100
AcDbBlockReference
  2
_DOT
 10
164.4911523572107
 20
52.3489999506088
 30
0.0
 41
3.0
 42
3.0
 43
3.0
  0
MTEXT
  5
1BCA3
330
1BC9A
100
AcDbEntity
  8
DIM
 62
     0
 48
0.05
100
AcDbMText
 10
179.0060838753031
 20
62.3489999506088
 30
0.0
 40
12.0
 41
0.0
 46
0.0
 71
     5
 72
     1
  1
\A1;4
  7
ＭＳ ゴシック
 73
     1
 44
1.0
  0
POINT
  5
1BCA4
330
1BC9A
100
AcDbEntity
  8
Defpoints
 62
     0
100
AcDbPoint
 10
160.4911523572105
 20
74.04643429883595
 30
0.0
  0
POINT
  5
1BCA5
330
1BC9A
100
AcDbEntity
  8
Defpoints
 62
     0
100
AcDbPoint
 10
164.4911523572107
 20
74.04643419559739
 30
0.0
  0
POINT
  5
1BDCD
330
1BC9A
100
AcDbEntity
  8
Defpoints
 62
     0
100
AcDbPoint
 10
164.4911523572107
 20
52.3489999506088
 30
0.0
  0
ENDBLK
  5
1BCA6
330
1BC9A
100
AcDbEntity
  8
0
100
AcDbBlockEnd
  0
BLOCK
  5
1BDA4
330
1BDA3
100
AcDbEntity
  8
0
100
AcDbBlockBegin
  2
*D103
 70
     1
 10
0.0
 20
0.0
 30
0.0
  3
*D103
  1
*D43
  0
LINE
  5
1BDA5
330
1BDA3
100
AcDbEntity
  8
DIM
 62
     0
370
    -2
100
AcDbLine
 10
441.1437178068647
 20
157.5638316671739
 30
0.0
 11
441.1437178068647
 21
191.8925159246531
 31
0.0
  0
LINE
  5
1BDA6
330
1BDA3
100
AcDbEntity
  8
DIM
 62
     0
370
    -2
100
AcDbLine
 10
472.9450885004871
 20
159.9503020132379
 30
0.0
 11
472.9450885004871
 21
191.8925159246531
 31
0.0
  0
LINE
  5
1BDA7
330
1BDA3
100
AcDbEntity
  8
DIM
 62
     0
370
    -2
100
AcDbLine
 10
444.1437178068647
 20
191.8925159246531
 30
0.0
 11
469.9450885004871
 21
191.8925159246531
 31
0.0
  0
INSERT
  5
1BDA8
330
1BDA3
100
AcDbEntity
  8
DIM
 62
     0
370
    -2
100
AcDbBlockReference
  2
_DOT
 10
441.1437178068647
 20
191.8925159246531
 30
0.0
 41
3.0
 42
3.0
 43
3.0
 50
180.0
  0
INSERT
  5
1BDA9
330
1BDA3
100
AcDbEntity
  8
DIM
 62
     0
370
    -2
100
AcDbBlockReference
  2
_DOT
 10
472.9450885004871
 20
191.8925159246531
 30
0.0
 41
3.0
 42
3.0
 43
3.0
  0
MTEXT
  5
1BDAA
330
1BDA3
100
AcDbEntity
  8
DIM
 62
     0
 48
0.05
100
AcDbMText
 10
458.7432244883189
 20
201.8925159246531
 30
0.0
 40
12.0
 41
0.0
 46
0.0
 71
     5
 72
     1
  1
\A1;32
  7
ＭＳ ゴシック
 73
     1
 44
1.0
  0
POINT
  5
1BDAB
330
1BDA3
100
AcDbEntity
  8
Defpoints
 62
     0
100
AcDbPoint
 10
441.1437178068647
 20
154.5638316671739
 30
0.0
  0
POINT
  5
1BDAC
330
1BDA3
100
AcDbEntity
  8
Defpoints
 62
     0
100
AcDbPoint
 10
472.9450885004871
 20
156.9503020132379
 30
0.0
  0
POINT
  5
1BDAD
330
1BDA3
100
AcDbEntity
  8
Defpoints
 62
     0
100
AcDbPoint
 10
472.9450885004871
 20
191.8925159246531
 30
0.0
  0
ENDBLK
  5
1BDAE
330
1BDA3
100
AcDbEntity
  8
0
100
AcDbBlockEnd
  0
BLOCK
  5
1BDB3
330
1BDB2
100
AcDbEntity
  8
0
100
AcDbBlockBegin
  2
*D104
 70
     1
 10
0.0
 20
0.0
 30
0.0
  3
*D104
  1
*D44
  0
LINE
  5
1BDB4
330
1BDB2
100
AcDbEntity
  8
DIM
  6
Continuous
 62
     0
370
    -2
100
AcDbLine
 10
658.5294619923931
 20
63.0638178159852
 30
0.0
 11
698.4919631117251
 21
63.0638178159852
 31
0.0
  0
LINE
  5
1BDB5
330
1BDB2
100
AcDbEntity
  8
DIM
  6
Continuous
 62
     0
370
    -2
100
AcDbLine
 10
654.7497674426938
 20
125.5638287591419
 30
0.0
 11
698.4919631117251
 21
125.5638287591419
 31
0.0
  0
LINE
  5
1BDB6
330
1BDB2
100
AcDbEntity
  8
DIM
  6
Continuous
 62
     0
370
    -2
100
AcDbLine
 10
698.4919631117251
 20
66.0638178159852
 30
0.0
 11
698.4919631117251
 21
122.5638287591419
 31
0.0
  0
INSERT
  5
1BDB7
330
1BDB2
100
AcDbEntity
  8
DIM
 62
     0
370
    -2
100
AcDbBlockReference
  2
_DOT
 10
698.4919631117251
 20
63.0638178159852
 30
0.0
 41
3.0
 42
3.0
 43
3.0
 50
270.0
  0
INSERT
  5
1BDB8
330
1BDB2
100
AcDbEntity
  8
DIM
 62
     0
370
    -2
100
AcDbBlockReference
  2
_DOT
 10
698.4919631117251
 20
125.5638287591419
 30
0.0
 41
3.0
 42
3.0
 43
3.0
 50
90.0
  0
MTEXT
  5
1BDB9
330
1BDB2
100
AcDbEntity
  8
DIM
 62
     0
 48
0.05
100
AcDbMText
 10
688.4919631117251
 20
94.31382328756354
 30
0.0
 40
8.0
 41
0.0
 46
0.0
 71
     5
 72
     1
  1
\A1;62.5
  7
ＭＳ ゴシック
 11
0.0
 21
1.0
 31
0.0
 73
     1
 44
1.0
  0
POINT
  5
1BDBA
330
1BDB2
100
AcDbEntity
  8
Defpoints
 62
     0
100
AcDbPoint
 10
648.5294619923931
 20
63.0638178159852
 30
0.0
  0
POINT
  5
1BDBB
330
1BDB2
100
AcDbEntity
  8
Defpoints
 62
     0
100
AcDbPoint
 10
644.7497674426938
 20
125.5638287591419
 30
0.0
  0
POINT
  5
1BDBC
330
1BDB2
100
AcDbEntity
  8
Defpoints
 62
     0
100
AcDbPoint
 10
698.4919631117251
 20
125.5638287591419
 30
0.0
  0
ENDBLK
  5
1BDBD
330
1BDB2
100
AcDbEntity
  8
0
100
AcDbBlockEnd
  0
BLOCK
  5
1BEE1
330
1BEE0
100
AcDbEntity
  8
0
100
AcDbBlockBegin
  2
*D105
 70
     1
 10
0.0
 20
0.0
 30
0.0
  3
*D105
  1

  0
LINE
  5
1BEE3
330
1BEE0
100
AcDbEntity
  8
DIM
 62
     0
370
    -2
100
AcDbLine
 10
1888.91364602386
 20
-513.2284289879814
 30
0.0
 11
1888.91364602386
 21
-526.1774381504795
 31
0.0
  0
LINE
  5
1BEE4
330
1BEE0
100
AcDbEntity
  8
DIM
 62
     0
370
    -2
100
AcDbLine
 10
1901.91364602386
 20
-513.2284298666535
 30
0.0
 11
1901.91364602386
 21
-526.1774381504795
 31
0.0
  0
LINE
  5
1BEE5
330
1BEE0
100
AcDbEntity
  8
DIM
 62
     0
370
    -2
100
AcDbLine
 10
1891.91364602386
 20
-526.1774381504795
 30
0.0
 11
1898.91364602386
 21
-526.1774381504795
 31
0.0
  0
INSERT
  5
1BEE6
330
1BEE0
100
AcDbEntity
  8
DIM
 62
     0
370
    -2
100
AcDbBlockReference
  2
_DOT
 10
1888.91364602386
 20
-526.1774381504795
 30
0.0
 41
3.0
 42
3.0
 43
3.0
 50
180.0
  0
INSERT
  5
1BEE7
330
1BEE0
100
AcDbEntity
  8
DIM
 62
     0
370
    -2
100
AcDbBlockReference
  2
_DOT
 10
1901.91364602386
 20
-526.1774381504795
 30
0.0
 41
3.0
 42
3.0
 43
3.0
  0
MTEXT
  5
1BEE8
330
1BEE0
100
AcDbEntity
  8
DIM
 62
     0
 48
0.05
100
AcDbMText
 10
1895.41364602386
 20
-536.1774381504795
 30
0.0
 40
12.0
 41
0.0
 46
0.0
 71
     5
 72
     1
  1
\A1;13
  7
ＭＳ ゴシック
 73
     1
 44
1.0
  0
POINT
  5
1BEE9
330
1BEE0
100
AcDbEntity
  8
Defpoints
 62
     0
100
AcDbPoint
 10
1888.91364602386
 20
-510.2284289879814
 30
0.0
  0
POINT
  5
1BEEA
330
1BEE0
100
AcDbEntity
  8
Defpoints
 62
     0
100
AcDbPoint
 10
1901.91364602386
 20
-510.2284298666535
 30
0.0
  0
POINT
  5
1BEEB
330
1BEE0
100
AcDbEntity
  8
Defpoints
 62
     0
100
AcDbPoint
 10
1901.91364602386
 20
-526.1774381504795
 30
0.0
  0
ENDBLK
  5
1BEE2
330
1BEE0
100
AcDbEntity
  8
0
100
AcDbBlockEnd
  0
BLOCK
  5
1BEED
330
1BEEC
100
AcDbEntity
  8
0
100
AcDbBlockBegin
  2
*D106
 70
     1
 10
0.0
 20
0.0
 30
0.0
  3
*D106
  1

  0
LINE
  5
1BEEF
330
1BEEC
100
AcDbEntity
  8
DIM
 62
     0
370
    -2
100
AcDbLine
 10
1909.348014896423
 20
-490.4624641507286
 30
0.0
 11
1944.913116984321
 21
-490.4624641507286
 31
0.0
  0
LINE
  5
1BEF0
330
1BEEC
100
AcDbEntity
  8
DIM
 62
     0
370
    -2
100
AcDbLine
 10
1904.713646007362
 20
-510.4284298561157
 30
0.0
 11
1944.913116984321
 21
-510.4284298561157
 31
0.0
  0
LINE
  5
1BEF1
330
1BEEC
100
AcDbEntity
  8
DIM
 62
     0
370
    -2
100
AcDbLine
 10
1944.913116984321
 20
-493.4624641507286
 30
0.0
 11
1944.913116984321
 21
-507.4284298561157
 31
0.0
  0
INSERT
  5
1BEF2
330
1BEEC
100
AcDbEntity
  8
DIM
 62
     0
370
    -2
100
AcDbBlockReference
  2
_DOT
 10
1944.913116984321
 20
-490.4624641507286
 30
0.0
 41
3.0
 42
3.0
 43
3.0
 50
90.0
  0
INSERT
  5
1BEF3
330
1BEEC
100
AcDbEntity
  8
DIM
 62
     0
370
    -2
100
AcDbBlockReference
  2
_DOT
 10
1944.913116984321
 20
-510.4284298561157
 30
0.0
 41
3.0
 42
3.0
 43
3.0
 50
270.0
  0
MTEXT
  5
1BEF4
330
1BEEC
100
AcDbEntity
  8
DIM
 62
     0
 48
0.05
100
AcDbMText
 10
1934.913116984321
 20
-500.4454470034221
 30
0.0
 40
12.0
 41
0.0
 46
0.0
 71
     5
 72
     1
  1
\A1;20
  7
ＭＳ ゴシック
 11
0.0
 21
1.0
 31
0.0
 73
     1
 44
1.0
  0
POINT
  5
1BEF5
330
1BEEC
100
AcDbEntity
  8
Defpoints
 62
     0
100
AcDbPoint
 10
1906.348014896423
 20
-490.4624641507286
 30
0.0
  0
POINT
  5
1BEF6
330
1BEEC
100
AcDbEntity
  8
Defpoints
 62
     0
100
AcDbPoint
 10
1901.713646007362
 20
-510.4284298561157
 30
0.0
  0
POINT
  5
1BEF7
330
1BEEC
100
AcDbEntity
  8
Defpoints
 62
     0
100
AcDbPoint
 10
1944.913116984321
 20
-510.4284298561157
 30
0.0
  0
ENDBLK
  5
1BEEE
330
1BEEC
100
AcDbEntity
  8
0
100
AcDbBlockEnd
  0
BLOCK
  5
1BEF9
330
1BEF8
100
AcDbEntity
  8
0
100
AcDbBlockBegin
  2
*D107
 70
     1
 10
0.0
 20
0.0
 30
0.0
  3
*D107
  1

  0
LINE
  5
1BEFB
330
1BEF8
100
AcDbEntity
  8
DIM
 62
     0
370
    -2
100
AcDbLine
 10
2082.132392856491
 20
-523.678340859174
 30
0.0
 11
2082.132392856491
 21
-582.0262929233883
 31
0.0
  0
LINE
  5
1BEFC
330
1BEF8
100
AcDbEntity
  8
DIM
 62
     0
370
    -2
100
AcDbLine
 10
1874.746665258294
 20
-493.4624625893956
 30
0.0
 11
1874.746665258294
 21
-582.0262929233883
 31
0.0
  0
LINE
  5
1BEFD
330
1BEF8
100
AcDbEntity
  8
DIM
 62
     0
370
    -2
100
AcDbLine
 10
2079.132392856491
 20
-582.0262929233883
 30
0.0
 11
1877.746665258294
 21
-582.0262929233883
 31
0.0
  0
INSERT
  5
1BEFE
330
1BEF8
100
AcDbEntity
  8
DIM
 62
     0
370
    -2
100
AcDbBlockReference
  2
_DOT
 10
2082.132392856491
 20
-582.0262929233883
 30
0.0
 41
3.0
 42
3.0
 43
3.0
  0
INSERT
  5
1BEFF
330
1BEF8
100
AcDbEntity
  8
DIM
 62
     0
370
    -2
100
AcDbBlockReference
  2
_DOT
 10
1874.746665258294
 20
-582.0262929233883
 30
0.0
 41
3.0
 42
3.0
 43
3.0
 50
180.0
  0
MTEXT
  5
1BF00
330
1BEF8
100
AcDbEntity
  8
DIM
 62
     0
 48
0.05
100
AcDbMText
 10
1978.439539311173
 20
-572.0262929233883
 30
0.0
 40
12.0
 41
0.0
 46
0.0
 71
     5
 72
     1
  1
\A1;208
  7
ＭＳ ゴシック
 73
     1
 44
1.0
  0
POINT
  5
1BF01
330
1BEF8
100
AcDbEntity
  8
Defpoints
 62
     0
100
AcDbPoint
 10
2082.132392856491
 20
-520.678340859174
 30
0.0
  0
POINT
  5
1BF02
330
1BEF8
100
AcDbEntity
  8
Defpoints
 62
     0
100
AcDbPoint
 10
1874.746665258294
 20
-490.4624625893956
 30
0.0
  0
POINT
  5
1BF03
330
1BEF8
100
AcDbEntity
  8
Defpoints
 62
     0
100
AcDbPoint
 10
1874.746665258294
 20
-582.0262929233883
 30
0.0
  0
ENDBLK
  5
1BEFA
330
1BEF8
100
AcDbEntity
  8
0
100
AcDbBlockEnd
  0
BLOCK
  5
1BF05
330
1BF04
100
AcDbEntity
  8
0
100
AcDbBlockBegin
  2
*D108
 70
     1
 10
0.0
 20
0.0
 30
0.0
  3
*D108
  1

  0
LINE
  5
1BF07
330
1BF04
100
AcDbEntity
  8
DIM
 62
     0
370
    -2
100
AcDbLine
 10
1466.102923169257
 20
-419.7921680970536
 30
0.0
 11
1466.102923169257
 21
-395.9241368658049
 31
0.0
  0
LINE
  5
1BF08
330
1BF04
100
AcDbEntity
  8
DIM
 62
     0
370
    -2
100
AcDbLine
 10
1596.094180558274
 20
-416.1754668895052
 30
0.0
 11
1596.094180558274
 21
-395.9241368658049
 31
0.0
  0
LINE
  5
1BF09
330
1BF04
100
AcDbEntity
  8
DIM
 62
     0
370
    -2
100
AcDbLine
 10
1469.102923169257
 20
-395.9241368658049
 30
0.0
 11
1593.094180558274
 21
-395.9241368658049
 31
0.0
  0
INSERT
  5
1BF0A
330
1BF04
100
AcDbEntity
  8
DIM
 62
     0
370
    -2
100
AcDbBlockReference
  2
_DOT
 10
1466.102923169257
 20
-395.9241368658049
 30
0.0
 41
3.0
 42
3.0
 43
3.0
 50
180.0
  0
INSERT
  5
1BF0B
330
1BF04
100
AcDbEntity
  8
DIM
 62
     0
370
    -2
100
AcDbBlockReference
  2
_DOT
 10
1596.094180558274
 20
-395.9241368658049
 30
0.0
 41
3.0
 42
3.0
 43
3.0
  0
MTEXT
  5
1BF0C
330
1BF04
100
AcDbEntity
  8
DIM
 62
     0
 48
0.05
100
AcDbMText
 10
1531.098551863765
 20
-385.9241368658049
 30
0.0
 40
12.0
 41
0.0
 46
0.0
 71
     5
 72
     1
  1
\A1;130
  7
ＭＳ ゴシック
 73
     1
 44
1.0
  0
POINT
  5
1BF0D
330
1BF04
100
AcDbEntity
  8
Defpoints
 62
     0
100
AcDbPoint
 10
1466.102923169257
 20
-422.7921680970536
 30
0.0
  0
POINT
  5
1BF0E
330
1BF04
100
AcDbEntity
  8
Defpoints
 62
     0
100
AcDbPoint
 10
1596.094180558274
 20
-419.1754668895052
 30
0.0
  0
POINT
  5
1BF0F
330
1BF04
100
AcDbEntity
  8
Defpoints
 62
     0
100
AcDbPoint
 10
1596.094180558274
 20
-395.9241368658049
 30
0.0
  0
ENDBLK
  5
1BF06
330
1BF04
100
AcDbEntity
  8
0
100
AcDbBlockEnd
  0
BLOCK
  5
1BF11
330
1BF10
100
AcDbEntity
  8
0
100
AcDbBlockBegin
  2
*D109
 70
     1
 10
0.0
 20
0.0
 30
0.0
  3
*D109
  1

  0
LINE
  5
1BF13
330
1BF10
100
AcDbEntity
  8
DIM
 62
     0
370
    -2
100
AcDbLine
 10
1594.094083074224
 20
-512.4798586245523
 30
0.0
 11
1594.094083074224
 21
-531.1772929727795
 31
0.0
  0
LINE
  5
1BF14
330
1BF10
100
AcDbEntity
  8
DIM
 62
     0
370
    -2
100
AcDbLine
 10
1598.094083074224
 20
-512.4798587277909
 30
0.0
 11
1598.094083074224
 21
-531.1772929727795
 31
0.0
  0
LINE
  5
1BF15
330
1BF10
100
AcDbEntity
  8
DIM
 62
     0
370
    -2
100
AcDbLine
 10
1594.094083074224
 20
-531.1772929727795
 30
0.0
 11
1619.987014592317
 21
-531.1772929727795
 31
0.0
  0
LINE
  5
1BF16
330
1BF10
100
AcDbEntity
  8
DIM
 62
     0
370
    -2
100
AcDbLine
 10
1597.094083074224
 20
-531.1772929727795
 30
0.0
 11
1595.094083074224
 21
-531.1772929727795
 31
0.0
  0
LINE
  5
1BF17
330
1BF10
100
AcDbEntity
  8
DIM
 62
     0
370
    -2
100
AcDbLine
 10
1595.094083074224
 20
-531.1772929727795
 30
0.0
 11
1592.094083074224
 21
-531.1772929727795
 31
0.0
  0
INSERT
  5
1BF18
330
1BF10
100
AcDbEntity
  8
DIM
 62
     0
370
    -2
100
AcDbBlockReference
  2
_DOT
 10
1594.094083074224
 20
-531.1772929727795
 30
0.0
 41
3.0
 42
3.0
 43
3.0
 50
180.0
  0
INSERT
  5
1BF19
330
1BF10
100
AcDbEntity
  8
DIM
 62
     0
370
    -2
100
AcDbBlockReference
  2
_DOT
 10
1598.094083074224
 20
-531.1772929727795
 30
0.0
 41
3.0
 42
3.0
 43
3.0
  0
MTEXT
  5
1BF1A
330
1BF10
100
AcDbEntity
  8
DIM
 62
     0
 48
0.05
100
AcDbMText
 10
1612.609014592317
 20
-521.1772929727795
 30
0.0
 40
12.0
 41
0.0
 46
0.0
 71
     5
 72
     1
  1
\A1;4
  7
ＭＳ ゴシック
 73
     1
 44
1.0
  0
POINT
  5
1BF1B
330
1BF10
100
AcDbEntity
  8
Defpoints
 62
     0
100
AcDbPoint
 10
1594.094083074224
 20
-509.4798586245523
 30
0.0
  0
POINT
  5
1BF1C
330
1BF10
100
AcDbEntity
  8
Defpoints
 62
     0
100
AcDbPoint
 10
1598.094083074224
 20
-509.4798587277909
 30
0.0
  0
POINT
  5
1BF1D
330
1BF10
100
AcDbEntity
  8
Defpoints
 62
     0
100
AcDbPoint
 10
1598.094083074224
 20
-531.1772929727795
 30
0.0
  0
ENDBLK
  5
1BF12
330
1BF10
100
AcDbEntity
  8
0
100
AcDbBlockEnd
  0
BLOCK
  5
1BF1F
330
1BF1E
100
AcDbEntity
  8
0
100
AcDbBlockBegin
  2
*D110
 70
     1
 10
0.0
 20
0.0
 30
0.0
  3
*D110
  1

  0
LINE
  5
1BF21
330
1BF1E
100
AcDbEntity
  8
DIM
 62
     0
370
    -2
100
AcDbLine
 10
1874.746648523879
 20
-425.9624612562144
 30
0.0
 11
1874.746648523879
 21
-391.6337769987351
 31
0.0
  0
LINE
  5
1BF22
330
1BF1E
100
AcDbEntity
  8
DIM
 62
     0
370
    -2
100
AcDbLine
 10
1906.548019217501
 20
-423.5759909101504
 30
0.0
 11
1906.548019217501
 21
-391.6337769987351
 31
0.0
  0
LINE
  5
1BF23
330
1BF1E
100
AcDbEntity
  8
DIM
 62
     0
370
    -2
100
AcDbLine
 10
1877.746648523879
 20
-391.6337769987351
 30
0.0
 11
1903.548019217501
 21
-391.6337769987351
 31
0.0
  0
INSERT
  5
1BF24
330
1BF1E
100
AcDbEntity
  8
DIM
 62
     0
370
    -2
100
AcDbBlockReference
  2
_DOT
 10
1874.746648523879
 20
-391.6337769987351
 30
0.0
 41
3.0
 42
3.0
 43
3.0
 50
180.0
  0
INSERT
  5
1BF25
330
1BF1E
100
AcDbEntity
  8
DIM
 62
     0
370
    -2
100
AcDbBlockReference
  2
_DOT
 10
1906.548019217501
 20
-391.6337769987351
 30
0.0
 41
3.0
 42
3.0
 43
3.0
  0
MTEXT
  5
1BF26
330
1BF1E
100
AcDbEntity
  8
DIM
 62
     0
 48
0.05
100
AcDbMText
 10
1892.346155205333
 20
-381.6337769987351
 30
0.0
 40
12.0
 41
0.0
 46
0.0
 71
     5
 72
     1
  1
\A1;32
  7
ＭＳ ゴシック
 73
     1
 44
1.0
  0
POINT
  5
1BF27
330
1BF1E
100
AcDbEntity
  8
Defpoints
 62
     0
100
AcDbPoint
 10
1874.746648523879
 20
-428.9624612562144
 30
0.0
  0
POINT
  5
1BF28
330
1BF1E
100
AcDbEntity
  8
Defpoints
 62
     0
100
AcDbPoint
 10
1906.548019217501
 20
-426.5759909101504
 30
0.0
  0
POINT
  5
1BF29
330
1BF1E
100
AcDbEntity
  8
Defpoints
 62
     0
100
AcDbPoint
 10
1906.548019217501
 20
-391.6337769987351
 30
0.0
  0
ENDBLK
  5
1BF20
330
1BF1E
100
AcDbEntity
  8
0
100
AcDbBlockEnd
  0
BLOCK
  5
1BF2B
330
1BF2A
100
AcDbEntity
  8
0
100
AcDbBlockBegin
  2
*D111
 70
     1
 10
0.0
 20
0.0
 30
0.0
  3
*D111
  1

  0
LINE
  5
1BF2D
330
1BF2A
100
AcDbEntity
  8
DIM
 62
     0
370
    -2
100
AcDbLine
 10
492.2214319250731
 20
432.252277906833
 30
0.0
 11
532.183933044405
 21
432.252277906833
 31
0.0
  0
LINE
  5
1BF2E
330
1BF2A
100
AcDbEntity
  8
DIM
 62
     0
370
    -2
100
AcDbLine
 10
488.441737375374
 20
494.7522888499897
 30
0.0
 11
532.183933044405
 21
494.7522888499897
 31
0.0
  0
LINE
  5
1BF2F
330
1BF2A
100
AcDbEntity
  8
DIM
 62
     0
370
    -2
100
AcDbLine
 10
532.183933044405
 20
435.252277906833
 30
0.0
 11
532.183933044405
 21
491.7522888499897
 31
0.0
  0
INSERT
  5
1BF30
330
1BF2A
100
AcDbEntity
  8
DIM
 62
     0
370
    -2
100
AcDbBlockReference
  2
_DOT
 10
532.183933044405
 20
432.252277906833
 30
0.0
 41
3.0
 42
3.0
 43
3.0
 50
270.0
  0
INSERT
  5
1BF31
330
1BF2A
100
AcDbEntity
  8
DIM
 62
     0
370
    -2
100
AcDbBlockReference
  2
_DOT
 10
532.183933044405
 20
494.7522888499897
 30
0.0
 41
3.0
 42
3.0
 43
3.0
 50
90.0
  0
MTEXT
  5
1BF32
330
1BF2A
100
AcDbEntity
  8
DIM
 62
     0
 48
0.05
100
AcDbMText
 10
522.183933044405
 20
463.5022833784113
 30
0.0
 40
8.0
 41
0.0
 46
0.0
 71
     5
 72
     1
  1
\A1;62.5
  7
ＭＳ ゴシック
 11
0.0
 21
1.0
 31
0.0
 73
     1
 44
1.0
  0
POINT
  5
1BF33
330
1BF2A
100
AcDbEntity
  8
Defpoints
 62
     0
100
AcDbPoint
 10
482.2214319250731
 20
432.252277906833
 30
0.0
  0
POINT
  5
1BF34
330
1BF2A
100
AcDbEntity
  8
Defpoints
 62
     0
100
AcDbPoint
 10
478.441737375374
 20
494.7522888499897
 30
0.0
  0
POINT
  5
1BF35
330
1BF2A
100
AcDbEntity
  8
Defpoints
 62
     0
100
AcDbPoint
 10
532.183933044405
 20
494.7522888499897
 30
0.0
  0
ENDBLK
  5
1BF2C
330
1BF2A
100
AcDbEntity
  8
0
100
AcDbBlockEnd
  0
BLOCK
  5
1BF3A
330
1BF39
100
AcDbEntity
  8
0
100
AcDbBlockBegin
  2
*D112
 70
     1
 10
0.0
 20
0.0
 30
0.0
  3
*D112
  1

  0
LINE
  5
1BF3C
330
1BF39
100
AcDbEntity
  8
DIM
 62
     0
 48
0.05
370
    -2
100
AcDbLine
 10
1433.602930717014
 20
-448.3316219388337
 30
0.0
 11
1433.602930717014
 21
-402.6272489540488
 31
0.0
  0
LINE
  5
1BF3D
330
1BF39
100
AcDbEntity
  8
DIM
 62
     0
 48
0.05
370
    -2
100
AcDbLine
 10
1498.602930717014
 20
-448.3316219388337
 30
0.0
 11
1498.602930717014
 21
-402.6272489540488
 31
0.0
  0
LINE
  5
1BF3E
330
1BF39
100
AcDbEntity
  8
DIM
 62
     0
 48
0.05
370
    -2
100
AcDbLine
 10
1436.602930717014
 20
-402.6272489540488
 30
0.0
 11
1495.602930717014
 21
-402.6272489540488
 31
0.0
  0
INSERT
  5
1BF3F
330
1BF39
100
AcDbEntity
  8
DIM
 62
     0
370
    -2
100
AcDbBlockReference
  2
_DOT
 10
1433.602930717014
 20
-402.6272489540488
 30
0.0
 41
3.0
 42
3.0
 43
3.0
 50
180.0
  0
INSERT
  5
1BF40
330
1BF39
100
AcDbEntity
  8
DIM
 62
     0
370
    -2
100
AcDbBlockReference
  2
_DOT
 10
1498.602930717014
 20
-402.6272489540488
 30
0.0
 41
3.0
 42
3.0
 43
3.0
  0
MTEXT
  5
1BF41
330
1BF39
100
AcDbEntity
  8
DIM
 62
     0
 48
0.05
100
AcDbMText
 10
1466.102930717014
 20
-392.6272489540488
 30
0.0
 40
8.0
 41
0.0
 46
0.0
 71
     5
 72
     1
  1
\A1;65
  7
ＭＳ ゴシック
 73
     1
 44
1.0
  0
POINT
  5
1BF42
330
1BF39
100
AcDbEntity
  8
Defpoints
 62
     0
100
AcDbPoint
 10
1433.602930717014
 20
-458.3316219388337
 30
0.0
  0
POINT
  5
1BF43
330
1BF39
100
AcDbEntity
  8
Defpoints
 62
     0
100
AcDbPoint
 10
1498.602930717014
 20
-458.3316219388337
 30
0.0
  0
POINT
  5
1BF44
330
1BF39
100
AcDbEntity
  8
Defpoints
 62
     0
100
AcDbPoint
 10
1498.602930717014
 20
-402.6272489540488
 30
0.0
  0
ENDBLK
  5
1BF3B
330
1BF39
100
AcDbEntity
  8
0
100
AcDbBlockEnd
  0
BLOCK
  5
1BF54
330
1BF53
100
AcDbEntity
  8
0
100
AcDbBlockBegin
  2
*D113
 70
     1
 10
0.0
 20
0.0
 30
0.0
  3
*D113
  1

  0
LINE
  5
1BF56
330
1BF53
100
AcDbEntity
  8
DIM
 62
     0
 48
0.05
370
    -2
100
AcDbLine
 10
267.2214320721571
 20
450.9526407736002
 30
0.0
 11
267.2214320721571
 21
385.1380959685343
 31
0.0
  0
LINE
  5
1BF57
330
1BF53
100
AcDbEntity
  8
DIM
 62
     0
 48
0.05
370
    -2
100
AcDbLine
 10
482.2214320721571
 20
415.4556573677601
 30
0.0
 11
482.2214320721571
 21
385.1380959685343
 31
0.0
  0
LINE
  5
1BF58
330
1BF53
100
AcDbEntity
  8
DIM
 62
     0
 48
0.05
370
    -2
100
AcDbLine
 10
270.2214320721571
 20
385.1380959685343
 30
0.0
 11
479.2214320721571
 21
385.1380959685343
 31
0.0
  0
INSERT
  5
1BF59
330
1BF53
100
AcDbEntity
  8
DIM
 62
     0
370
    -2
100
AcDbBlockReference
  2
_DOT
 10
267.2214320721571
 20
385.1380959685343
 30
0.0
 41
3.0
 42
3.0
 43
3.0
 50
180.0
  0
INSERT
  5
1BF5A
330
1BF53
100
AcDbEntity
  8
DIM
 62
     0
370
    -2
100
AcDbBlockReference
  2
_DOT
 10
482.2214320721571
 20
385.1380959685343
 30
0.0
 41
3.0
 42
3.0
 43
3.0
  0
MTEXT
  5
1BF5B
330
1BF53
100
AcDbEntity
  8
DIM
 62
     0
 48
0.05
100
AcDbMText
 10
374.7214320721571
 20
395.1380959685343
 30
0.0
 40
8.0
 41
0.0
 46
0.0
 71
     5
 72
     1
  1
\A1;215
  7
ＭＳ ゴシック
 73
     1
 44
1.0
  0
POINT
  5
1BF5C
330
1BF53
100
AcDbEntity
  8
Defpoints
 62
     0
100
AcDbPoint
 10
267.2214320721571
 20
460.9526407736002
 30
0.0
  0
POINT
  5
1BF5D
330
1BF53
100
AcDbEntity
  8
Defpoints
 62
     0
100
AcDbPoint
 10
482.2214320721571
 20
425.4556573677601
 30
0.0
  0
POINT
  5
1BF5E
330
1BF53
100
AcDbEntity
  8
Defpoints
 62
     0
100
AcDbPoint
 10
482.2214320721571
 20
385.1380959685343
 30
0.0
  0
ENDBLK
  5
1BF55
330
1BF53
100
AcDbEntity
  8
0
100
AcDbBlockEnd
  0
ENDSEC
  0
SECTION
  2
ENTITIES
  0
INSERT
  5
68C
330
A
100
AcDbEntity
  8
TEMPLATE
100
AcDbBlockReference
  2
block 2
 10
367.7097207081031
 20
3.349230605734547
 30
0.0
 41
0.1524
 42
0.1524
 43
0.1524
  0
INSERT
  5
1343
330
A
100
AcDbEntity
  8
TEMPLATE
100
AcDbBlockReference
  2
block 2
 10
838.6973883465873
 20
9.774128564918277
 30
0.0
 41
0.1524
 42
0.1524
 43
0.1524
  0
MTEXT
  5
1BBC0
330
A
100
AcDbEntity
  8
TEMPLATE
390
1D
100
AcDbMText
 10
23.76064336431921
 20
103.1195254894285
 30
0.0
 40
4.886523437499998
 41
0.0
 46
0.0
 71
     1
 72
     1
  1
品名
  7
ＭＳ ゴシック
 73
     1
 44
0.7828267384257843
  0
MTEXT
  5
1BBC1
330
A
100
AcDbEntity
  8
TEMPLATE
390
1D
100
AcDbMText
 10
23.76064336431921
 20
77.61952548942838
 30
0.0
 40
4.886523437499998
 41
0.0
 46
0.0
 71
     1
 72
     1
  1
仕様
  7
ＭＳ ゴシック
 73
     1
 44
0.7828267384257843
  0
LINE
  5
1BBC2
330
A
100
AcDbEntity
  8
TEMPLATE
390
1D
100
AcDbLine
 10
606.6606433641741
 20
80.14400205192851
 30
0.0
 11
21.66064336417458
 21
80.14400205192851
 31
0.0
  0
LWPOLYLINE
  5
1BBC3
330
A
100
AcDbEntity
  8
TEMPLATE
390
1D
100
AcDbPolyline
 90
        5
 70
   128
 43
0.0
 10
606.6606433641741
 20
869.1440020519278
 10
21.66064336417458
 20
869.1440020519278
 10
21.66064336417458
 20
29.14400205192851
 10
606.6606433641741
 20
29.14400205192851
 10
606.6606433641741
 20
869.1440020519278
  0
LINE
  5
1BBC4
330
A
100
AcDbEntity
  8
TEMPLATE
390
1D
100
AcDbLine
 10
606.6606433641741
 20
105.6440020519285
 30
0.0
 11
21.66064336417458
 21
105.6440020519285
 31
0.0
  0
LINE
  5
1BBC5
330
A
100
AcDbEntity
  8
TEMPLATE
390
1D
100
AcDbLine
 10
606.6606433643201
 20
54.64400205192851
 30
0.0
 11
380.7606433643191
 21
54.64400205192851
 31
0.0
  0
MTEXT
  5
1BBC6
330
A
100
AcDbEntity
  8
TEMPLATE
390
1D
100
AcDbMText
 10
389.7220652399972
 20
45.67088370993611
 30
0.0
 40
7.329785156250001
 41
0.0
 46
0.0
 71
     1
 72
     1
  1
大洋金物株式会社 ティーフォルム事業部
  7
ＭＳ ゴシック
 73
     1
 44
0.7828267384257843
  0
MTEXT
  5
1BBC7
330
A
100
AcDbEntity
  8
TEMPLATE
390
1D
100
AcDbMText
 10
549.360643364397
 20
69.04478720817849
 30
0.0
 40
7.329785156250001
 41
0.0
 46
7.329785156250001
 71
     1
 72
     1
  1
{1:3}
  7
ＭＳ ゴシック
 73
     1
 44
0.7828267384257843
1001
ACAD
1000
ACAD_MTEXT_DEFINED_HEIGHT_BEGIN
1070
    46
1040
7.329785156250001
1000
ACAD_MTEXT_DEFINED_HEIGHT_END
  0
MTEXT
  5
1BBC8
330
A
100
AcDbEntity
  8
TEMPLATE
390
1D
100
AcDbMText
 10
533.4606433643971
 20
77.61952548942838
 30
0.0
 40
4.886523437499998
 41
0.0
 46
0.0
 71
     1
 72
     1
  1
縮尺
  7
ＭＳ ゴシック
 73
     1
 44
0.7828267384257843
  0
LINE
  5
1BBC9
330
A
100
AcDbEntity
  8
TEMPLATE
390
1D
100
AcDbLine
 10
531.360643364397
 20
54.64400205192851
 30
0.0
 11
531.360643364397
 21
80.14400205192851
 31
0.0
  0
MTEXT
  5
1BBCA
330
A
100
AcDbEntity
  8
TEMPLATE
390
1D
100
AcDbMText
 10
458.1606433643972
 20
77.61952548942838
 30
0.0
 40
4.886523437499998
 41
0.0
 46
0.0
 71
     1
 72
     1
  1
容量
  7
ＭＳ ゴシック
 73
     1
 44
0.7828267384257843
  0
LINE
  5
1BBCB
330
A
100
AcDbEntity
  8
TEMPLATE
390
1D
100
AcDbLine
 10
456.060643364397
 20
54.64400205192851
 30
0.0
 11
456.060643364397
 21
80.14400205192851
 31
0.0
  0
MTEXT
  5
1BBCC
330
A
100
AcDbEntity
  8
TEMPLATE
390
1D
100
AcDbMText
 10
382.860643364397
 20
103.1195254894285
 30
0.0
 40
4.886523437499998
 41
0.0
 46
0.0
 71
     1
 72
     1
  1
品番
  7
ＭＳ ゴシック
 73
     1
 44
0.7828267384257843
  0
MTEXT
  5
1BBCD
330
A
100
AcDbEntity
  8
TEMPLATE
390
1D
100
AcDbMText
 10
382.860643364397
 20
77.61952548942838
 30
0.0
 40
4.886523437499998
 41
0.0
 46
0.0
 71
     1
 72
     1
  1
重量
  7
ＭＳ ゴシック
 73
     1
 44
0.7828267384257843
  0
MTEXT
  5
1BBCE
330
A
100
AcDbEntity
  8
TEMPLATE
390
1D
100
AcDbMText
 10
398.7606433643971
 20
94.54478720817849
 30
0.0
 40
7.329785156250001
 41
0.0
 46
8.18737001953125
 71
     1
 72
     1
  1
{AGN73-3664(91028307)}
  7
ＭＳ ゴシック
 73
     1
 44
0.7828267384257843
1001
ACAD
1000
ACAD_MTEXT_DEFINED_HEIGHT_BEGIN
1070
    46
1040
8.18737001953125
1000
ACAD_MTEXT_DEFINED_HEIGHT_END
  0
LINE
  5
1BBCF
330
A
100
AcDbEntity
  8
TEMPLATE
390
1D
100
AcDbLine
 10
380.7606433643971
 20
29.14400205192851
 30
0.0
 11
380.7606433643971
 21
105.6440020519285
 31
0.0
  0
MTEXT
  5
1BBD0
330
A
100
AcDbEntity
  8
TEMPLATE
390
1D
100
AcDbMText
 10
39.66064336431918
 20
94.54478720817849
 30
0.0
 40
7.329785156250001
 41
0.0
 46
8.260667871093752
 71
     1
 72
     1
  1
{吐水口　-FANTINI,ABOUTWATER-}
  7
ＭＳ ゴシック
 73
     1
 44
0.7828267384257843
1001
ACAD
1000
ACAD_MTEXT_DEFINED_HEIGHT_BEGIN
1070
    46
1040
8.260667871093752
1000
ACAD_MTEXT_DEFINED_HEIGHT_END
  0
INSERT
  5
1BBD1
330
A
100
AcDbEntity
  8
TEMPLATE
100
AcDbBlockReference
  2
名称未設定-1
 10
561.2252244265351
 20
7.784029726996096
 30
0.0
 41
0.2286
 42
0.2286
 43
0.2286
  0
LWPOLYLINE
  5
1BBD2
330
A
100
AcDbEntity
  8
BORDER
 48
0.5
100
AcDbPolyline
 90
        4
 70
     1
 43
0.0
 10
0.0
 20
0.0
 10
0.0
 20
891.0
 10
630.0
 20
891.0
 10
630.0
 20
0.0
  0
MTEXT
  5
1BBD3
102
{ACAD_XDICTIONARY
360
1BBD4
102
}
330
A
100
AcDbEntity
  8
TEMPLATE
 48
0.05
100
AcDbMText
 10
22.06848147481185
 20
25.15049698669361
 30
0.0
 40
7.0
 41
0.0
 46
7.0
 71
     1
 72
     1
  1
{20180125N}
  7
ＭＳ ゴシック
 73
     1
 44
1.0
1001
ACAD
1000
ACAD_MTEXT_DEFINED_HEIGHT_BEGIN
1070
    46
1040
7.0
1000
ACAD_MTEXT_DEFINED_HEIGHT_END
  0
ARC
  5
1BDD8
330
A
100
AcDbEntity
  8
MODEL
100
AcDbCircle
 10
444.721433614827
 20
457.2522804414642
 30
0.0
 40
25.0
100
AcDbArc
 50
359.9999961275992
 51
89.99999612737051
  0
ARC
  5
1BDD9
330
A
100
AcDbEntity
  8
MODEL
100
AcDbCircle
 10
444.721433614827
 20
457.2522804414642
 30
0.0
 40
50.0
100
AcDbArc
 50
359.9999961275989
 51
89.99999612737102
  0
LINE
  5
1BDDA
330
A
100
AcDbEntity
  8
MODEL
100
AcDbLine
 10
491.47143191501
 20
432.1033988279609
 30
0.0
 11
472.97143191501
 21
432.1034000783787
 31
0.0
  0
LINE
  5
1BDDB
330
A
100
AcDbEntity
  8
MODEL
100
AcDbLine
 10
477.249625725271
 20
432.0364124911074
 30
0.0
 11
474.421198549891
 21
432.0364126822809
 31
0.0
  0
LINE
  5
1BDDC
102
{ACAD_REACTORS
330
1BED2
102
}
330
A
100
AcDbEntity
  8
MODEL
100
AcDbLine
 10
494.7214319250731
 20
432.2522770619561
 30
0.0
 11
469.7214319250731
 21
432.2522787517099
 31
0.0
  0
LINE
  5
1BDDE
330
A
100
AcDbEntity
  8
MODEL
100
AcDbLine
 10
494.721433614827
 20
457.2522770619561
 30
0.0
 11
494.7214319250731
 21
432.2522770619561
 31
0.0
  0
LINE
  5
1BDDF
330
A
100
AcDbEntity
  8
MODEL
100
AcDbLine
 10
487.1932383073802
 20
431.0364118190167
 30
0.0
 11
484.2214320045671
 21
431.0364120198818
 31
0.0
  0
LINE
  5
1BDE0
330
A
100
AcDbEntity
  8
MODEL
100
AcDbLine
 10
491.4714319104821
 20
432.0364115298529
 30
0.0
 11
491.47143191501
 21
432.1033988279609
 31
0.0
  0
ARC
  5
1BDE1
330
A
100
AcDbEntity
  8
MODEL
100
AcDbCircle
 10
491.2214319442771
 20
432.5364115467504
 30
0.0
 40
0.4999999999999982
100
AcDbArc
 50
299.9999961266305
 51
325.3704253312989
  0
LINE
  5
1BDE2
330
A
100
AcDbEntity
  8
MODEL
100
AcDbLine
 10
490.0216654490821
 20
432.0364116278432
 30
0.0
 11
487.1932383749702
 21
432.0364118190167
 31
0.0
  0
LINE
  5
1BDE3
330
A
100
AcDbEntity
  8
MODEL
100
AcDbLine
 10
491.4714319104821
 20
432.0364115298529
 30
0.0
 11
491.25262788038
 21
432.0364115446422
 31
0.0
  0
LINE
  5
1BDE4
330
A
100
AcDbEntity
  8
MODEL
100
AcDbLine
 10
491.25262788038
 20
432.0364115446422
 30
0.0
 11
491.25262781279
 21
431.036411544642
 31
0.0
  0
LINE
  5
1BDE5
330
A
100
AcDbEntity
  8
MODEL
100
AcDbLine
 10
490.0216653814921
 20
431.036411627843
 30
0.0
 11
490.0216654490821
 21
432.0364116278432
 31
0.0
  0
LINE
  5
1BDE6
330
A
100
AcDbEntity
  8
MODEL
100
AcDbLine
 10
487.1932383749702
 20
432.0364118190167
 30
0.0
 11
487.1932383073802
 21
431.0364118190167
 31
0.0
  0
LINE
  5
1BDE7
330
A
100
AcDbEntity
  8
MODEL
100
AcDbLine
 10
491.25262781279
 20
431.036411544642
 30
0.0
 11
490.0216653814921
 21
431.036411627843
 31
0.0
  0
LINE
  5
1BDE8
330
A
100
AcDbEntity
  8
MODEL
100
AcDbLine
 10
490.0216653814921
 20
431.036411627843
 30
0.0
 11
489.4773062072991
 21
431.0364116646364
 31
0.0
  0
LINE
  5
1BDE9
330
A
100
AcDbEntity
  8
MODEL
100
AcDbLine
 10
489.4773062072991
 20
431.0364116646364
 30
0.0
 11
489.4773062748891
 21
432.0364116646364
 31
0.0
  0
LINE
  5
1BDEA
330
A
100
AcDbEntity
  8
MODEL
100
AcDbLine
 10
484.2214320721571
 20
432.0364120198818
 30
0.0
 11
480.2214320721571
 21
432.0364122902423
 31
0.0
  0
LINE
  5
1BDEB
330
A
100
AcDbEntity
  8
MODEL
100
AcDbLine
 10
484.2214320045671
 20
431.0364120198818
 30
0.0
 11
484.2214320721571
 21
432.0364120198818
 31
0.0
  0
LINE
  5
1BDEC
330
A
100
AcDbEntity
  8
MODEL
100
AcDbLine
 10
480.2214320721571
 20
432.0364122902423
 30
0.0
 11
480.2214320045671
 21
431.0364122902423
 31
0.0
  0
LINE
  5
1BDED
330
A
100
AcDbEntity
  8
MODEL
100
AcDbLine
 10
477.249625657681
 20
431.0364124911072
 30
0.0
 11
477.249625725271
 21
432.0364124911074
 31
0.0
  0
LINE
  5
1BDEE
330
A
100
AcDbEntity
  8
MODEL
100
AcDbLine
 10
480.2214320045671
 20
431.0364122902423
 30
0.0
 11
477.249625657681
 21
431.0364124911072
 31
0.0
  0
LINE
  5
1BDEF
330
A
100
AcDbEntity
  8
MODEL
100
AcDbLine
 10
469.721433614827
 20
457.2522787517099
 30
0.0
 11
469.7214319250731
 21
432.2522787517099
 31
0.0
  0
LINE
  5
1BDF0
330
A
100
AcDbEntity
  8
MODEL
100
AcDbLine
 10
472.9714319104821
 20
432.0364127802712
 30
0.0
 11
472.97143191501
 21
432.1034000783787
 31
0.0
  0
ARC
  5
1BDF1
330
A
100
AcDbEntity
  8
MODEL
100
AcDbCircle
 10
473.2214319442771
 20
432.5364127633737
 30
0.0
 40
0.4999999999999982
100
AcDbArc
 50
214.6295669235184
 51
239.9999961281937
  0
LINE
  5
1BDF2
330
A
100
AcDbEntity
  8
MODEL
100
AcDbLine
 10
473.1902360121921
 20
432.0364127654819
 30
0.0
 11
472.9714319104821
 21
432.0364127802712
 31
0.0
  0
LINE
  5
1BDF3
330
A
100
AcDbEntity
  8
MODEL
100
AcDbLine
 10
473.1902359446021
 20
431.0364127654819
 30
0.0
 11
473.1902360121921
 21
432.0364127654819
 31
0.0
  0
LINE
  5
1BDF4
330
A
100
AcDbEntity
  8
MODEL
100
AcDbLine
 10
474.421198549891
 20
432.0364126822809
 30
0.0
 11
474.4211984823012
 21
431.0364126822811
 31
0.0
  0
LINE
  5
1BDF5
330
A
100
AcDbEntity
  8
MODEL
100
AcDbLine
 10
474.4211984823012
 20
431.0364126822811
 30
0.0
 11
473.1902359446021
 21
431.0364127654822
 31
0.0
  0
LINE
  5
1BDF6
330
A
100
AcDbEntity
  8
MODEL
100
AcDbLine
 10
474.9655576370042
 20
431.0364126454878
 30
0.0
 11
474.4211984823012
 21
431.0364126822811
 31
0.0
  0
LINE
  5
1BDF7
330
A
100
AcDbEntity
  8
MODEL
100
AcDbLine
 10
474.9655576370042
 20
431.0364126454878
 30
0.0
 11
474.9655577045951
 21
432.0364126454878
 31
0.0
  0
LINE
  5
1BE02
330
A
100
AcDbEntity
  8
MODEL
100
AcDbLine
 10
272.9214276734349
 20
482.2522920534548
 30
0.0
 11
444.7214353045811
 21
482.2522804414642
 31
0.0
  0
LINE
  5
1BE03
330
A
100
AcDbEntity
  8
MODEL
100
AcDbLine
 10
272.9214276734349
 20
507.2522920534549
 30
0.0
 11
444.7214369943351
 21
507.2522804414642
 31
0.0
  0
LINE
  5
1BE99
330
A
100
AcDbEntity
  8
MODEL
  6
ByBlock
100
AcDbLine
 10
115.0159740921736
 20
431.734250087108
 30
0.0
 11
133.5159740921736
 21
431.734250087108
 31
0.0
  0
LINE
  5
1BE9A
330
A
100
AcDbEntity
  8
MODEL
  6
ByBlock
100
AcDbLine
 10
132.0662076700892
 20
430.6672627890002
 30
0.0
 11
133.2971700778867
 21
430.6672627890002
 31
0.0
  0
LINE
  5
1BE9B
330
A
100
AcDbEntity
  8
MODEL
  6
ByBlock
100
AcDbLine
 10
111.7659740921595
 20
431.8831285407712
 30
0.0
 11
136.7659740921595
 21
431.8831285407712
 31
0.0
  0
LINE
  5
1BE9C
330
A
100
AcDbEntity
  8
MODEL
  6
ByBlock
100
AcDbLine
 10
111.7659740921595
 20
456.8831285407712
 30
0.0
 11
111.7659740921595
 21
431.8831285407712
 31
0.0
  0
LINE
  5
1BE9D
330
A
100
AcDbEntity
  8
MODEL
  6
ByBlock
100
AcDbLine
 10
119.2941679686451
 20
430.6672627890002
 30
0.0
 11
122.2659743252648
 21
430.6672627890002
 31
0.0
  0
LINE
  5
1BE9E
330
A
100
AcDbEntity
  8
MODEL
  6
ByBlock
100
AcDbLine
 10
115.2347782096986
 20
430.6672627890002
 30
0.0
 11
116.4657407708983
 21
430.6672627890002
 31
0.0
  0
ARC
  5
1BE9F
330
A
100
AcDbEntity
  8
MODEL
  6
ByBlock
100
AcDbCircle
 10
115.2659740921736
 20
432.167262789
 30
0.0
 40
0.4999999999999982
100
AcDbArc
 50
214.6295707961044
 51
240.0000000007526
  0
LINE
  5
1BEA0
330
A
100
AcDbEntity
  8
MODEL
  6
ByBlock
100
AcDbLine
 10
115.0159740921736
 20
431.667262789
 30
0.0
 11
115.0159740921736
 21
431.734250087108
 31
0.0
  0
LINE
  5
1BEA1
330
A
100
AcDbEntity
  8
MODEL
  6
ByBlock
100
AcDbLine
 10
115.0159740921736
 20
431.667262789
 30
0.0
 11
115.2347782096986
 21
431.667262789
 31
0.0
  0
LINE
  5
1BEA2
330
A
100
AcDbEntity
  8
MODEL
  6
ByBlock
100
AcDbLine
 10
115.2347782096986
 20
431.66726265382
 30
0.0
 11
115.2347782096986
 21
430.66726265382
 31
0.0
  0
LINE
  5
1BEA3
330
A
100
AcDbEntity
  8
MODEL
  6
ByBlock
100
AcDbLine
 10
116.4657407708983
 20
431.667262789
 30
0.0
 11
119.2941679686451
 21
431.667262789
 31
0.0
  0
LINE
  5
1BEA4
330
A
100
AcDbEntity
  8
MODEL
  6
ByBlock
100
AcDbLine
 10
116.4657407708983
 20
430.6672624529549
 30
0.0
 11
116.4657407708983
 21
431.6672624529549
 31
0.0
  0
LINE
  5
1BEA5
330
A
100
AcDbEntity
  8
MODEL
  6
ByBlock
100
AcDbLine
 10
119.2941679686451
 20
431.6672622617814
 30
0.0
 11
119.2941679686451
 21
430.6672622617812
 31
0.0
  0
LINE
  5
1BEA6
330
A
100
AcDbEntity
  8
MODEL
  6
ByBlock
100
AcDbLine
 10
116.4657407708983
 20
430.6672624529549
 30
0.0
 11
117.0100999212968
 21
430.6672624897483
 31
0.0
  0
LINE
  5
1BEA7
330
A
100
AcDbEntity
  8
MODEL
  6
ByBlock
100
AcDbLine
 10
117.0100999212968
 20
430.6672624897483
 30
0.0
 11
117.0100999212968
 21
431.6672624897485
 31
0.0
  0
LINE
  5
1BEA8
330
A
100
AcDbEntity
  8
MODEL
  6
ByBlock
100
AcDbLine
 10
126.2659743252648
 20
430.6672627890002
 30
0.0
 11
129.2377806183435
 21
430.6672627890002
 31
0.0
  0
LINE
  5
1BEA9
330
A
100
AcDbEntity
  8
MODEL
  6
ByBlock
100
AcDbLine
 10
122.2659743252648
 20
431.667262789
 30
0.0
 11
126.2659743252648
 21
431.667262789
 31
0.0
  0
LINE
  5
1BEAA
330
A
100
AcDbEntity
  8
MODEL
  6
ByBlock
100
AcDbLine
 10
122.2659743252648
 20
430.6672621785801
 30
0.0
 11
122.2659743252648
 21
431.6672621785804
 31
0.0
  0
LINE
  5
1BEAB
330
A
100
AcDbEntity
  8
MODEL
  6
ByBlock
100
AcDbLine
 10
126.2659743252648
 20
431.6672621785804
 30
0.0
 11
126.2659743252648
 21
430.6672621785801
 31
0.0
  0
LINE
  5
1BEAC
330
A
100
AcDbEntity
  8
MODEL
  6
ByBlock
100
AcDbLine
 10
129.2377806183435
 20
431.667262789
 30
0.0
 11
132.0662076700892
 21
431.667262789
 31
0.0
  0
LINE
  5
1BEAD
330
A
100
AcDbEntity
  8
MODEL
  6
ByBlock
100
AcDbLine
 10
129.2377806183435
 20
430.6672622617812
 30
0.0
 11
129.2377806183435
 21
431.6672622617814
 31
0.0
  0
LINE
  5
1BEAE
330
A
100
AcDbEntity
  8
MODEL
  6
ByBlock
100
AcDbLine
 10
132.0662076700892
 20
431.6672624529549
 30
0.0
 11
132.0662076700892
 21
430.6672624529549
 31
0.0
  0
LINE
  5
1BEAF
330
A
100
AcDbEntity
  8
MODEL
  6
ByBlock
100
AcDbLine
 10
131.5218484915908
 20
430.6672624897483
 30
0.0
 11
132.0662076700892
 21
430.6672624529549
 31
0.0
  0
LINE
  5
1BEB0
330
A
100
AcDbEntity
  8
MODEL
  6
ByBlock
100
AcDbLine
 10
131.5218484915908
 20
430.6672624897483
 30
0.0
 11
131.5218484915908
 21
431.6672624897485
 31
0.0
  0
LINE
  5
1BEB1
330
A
100
AcDbEntity
  8
MODEL
  6
ByBlock
100
AcDbLine
 10
136.7659740921595
 20
456.8831285407712
 30
0.0
 11
136.7659740921595
 21
431.8831285407712
 31
0.0
  0
LINE
  5
1BEB2
330
A
100
AcDbEntity
  8
MODEL
  6
ByBlock
100
AcDbLine
 10
133.5159740921736
 20
431.667262789
 30
0.0
 11
133.5159740921736
 21
431.734250087108
 31
0.0
  0
ARC
  5
1BEB3
330
A
100
AcDbEntity
  8
MODEL
  6
ByBlock
100
AcDbCircle
 10
133.2659740921736
 20
432.167262789
 30
0.0
 40
0.4999999999999982
100
AcDbArc
 50
299.9999999992799
 51
325.3704292039083
  0
LINE
  5
1BEB4
330
A
100
AcDbEntity
  8
MODEL
  6
ByBlock
100
AcDbLine
 10
133.2971700778867
 20
431.667262789
 30
0.0
 11
133.5159740921736
 21
431.667262789
 31
0.0
  0
LINE
  5
1BEB5
330
A
100
AcDbEntity
  8
MODEL
  6
ByBlock
100
AcDbLine
 10
133.2971700778867
 20
430.66726265382
 30
0.0
 11
133.2971700778867
 21
431.66726265382
 31
0.0
  0
ARC
  5
1BEB6
330
A
100
AcDbEntity
  8
MODEL
  6
ByBlock
100
AcDbCircle
 10
124.2659731243007
 20
494.3831310754024
 30
0.0
 40
32.5
100
AcDbArc
 50
89.99999852121653
 51
247.3801350519595
  0
LINE
  5
1BEB8
330
A
100
AcDbEntity
  8
MODEL
  6
ByBlock
100
AcDbLine
 10
111.7659731243007
 20
494.3831310754024
 30
0.0
 11
111.7659731243007
 21
456.8831285407712
 31
0.0
  0
ARC
  5
1BEB9
330
A
100
AcDbEntity
  8
MODEL
  6
ByBlock
100
AcDbCircle
 10
124.2659731243007
 20
494.3831310754024
 30
0.0
 40
12.5
100
AcDbArc
 50
0.0000000004429368
 51
180.0
  0
LINE
  5
1BEBA
330
A
100
AcDbEntity
  8
MODEL
  6
ByBlock
100
AcDbLine
 10
136.7659731243007
 20
494.3831310754024
 30
0.0
 11
136.7659731243007
 21
456.8831285407712
 31
0.0
  0
ARC
  5
1BEBB
330
A
100
AcDbEntity
  8
MODEL
  6
ByBlock
100
AcDbCircle
 10
119.4060750516153
 20
442.9831314605104
 30
0.0
 40
10.0
100
AcDbArc
 50
139.8190059885026
 51
139.9999985211891
  0
ARC
  5
1BEBC
330
A
100
AcDbEntity
  8
MODEL
  6
ByBlock
100
AcDbCircle
 10
124.2659731243007
 20
494.3831310754024
 30
0.0
 40
32.5
100
AcDbArc
 50
292.6198649480405
 51
89.99999852032425
  0
ARC
  5
1BEBD
330
A
100
AcDbEntity
  8
MODEL
  6
ByBlock
100
AcDbCircle
 10
119.4060705738129
 20
442.983125095811
 30
0.0
 40
10.0
100
AcDbArc
 50
139.8189662244968
 51
139.9999985211981
  0
LEADER
  5
1BEC6
102
{ACAD_XDICTIONARY
360
1BEC7
102
}
330
A
100
AcDbEntity
  8
DIM
100
AcDbLeader
  3
tfrom線あり
 76
     3
 10
358.209967488373
 20
507.0177465675173
 30
0.0
 10
381.4271782680901
 20
518.4822317036645
 30
0.0
 10
407.955727607633
 20
518.4822281175266
 30
0.0
211
-0.9999999999999909
221
1.351803263922892E-7
231
0.0
1001
ACAD
1000
DSTYLE
1002
{
1070
    41
1040
3.0
1002
}
  0
MTEXT
  5
1BEC8
330
A
100
AcDbEntity
  8
DIM
390
1D
100
AcDbMText
 10
385.715662839865
 20
531.4375109283486
 30
0.0
 40
8.0
 41
0.0
 46
12.21630859375
 71
     1
 72
     1
  1
{{\C3;Ø24}}
  7
ＭＳ ゴシック
 73
     1
 44
0.7828267384257843
1001
ACAD
1000
ACAD_MTEXT_DEFINED_HEIGHT_BEGIN
1070
    46
1040
12.21630859375
1000
ACAD_MTEXT_DEFINED_HEIGHT_END
  0
MTEXT
  5
1BEC9
330
A
100
AcDbEntity
  8
DIM
390
1D
100
AcDbMText
 10
183.8205163122743
 20
534.5438603158673
 30
0.0
 40
8.0
 41
0.0
 46
12.21630859375
 71
     1
 72
     1
  1
{{\C256;Ø65}}
  7
ＭＳ ゴシック
 73
     1
 44
0.7828267384257843
1001
ACAD
1000
ACAD_MTEXT_DEFINED_HEIGHT_BEGIN
1070
    46
1040
12.21630859375
1000
ACAD_MTEXT_DEFINED_HEIGHT_END
  0
LEADER
  5
1BECA
102
{ACAD_XDICTIONARY
360
1BECB
102
}
330
A
100
AcDbEntity
  8
DIM
100
AcDbLeader
  3
tfrom線あり
 76
     3
 10
152.5875276629895
 20
510.5936337777439
 30
0.0
 10
176.4989167151564
 20
519.5581068448465
 30
0.0
 10
207.5498807945576
 20
519.5581068448465
 30
0.0
211
-1.0
221
0.0
231
0.0
1001
ACAD
1000
DSTYLE
1002
{
1070
    41
1040
3.0
1002
}
  0
DIMENSION
  5
1BED0
102
{ACAD_REACTORS
330
1BED2
102
}
102
{ACAD_XDICTIONARY
360
1BED1
102
}
330
A
100
AcDbEntity
  8
DIM
100
AcDbDimension
  2
*D111
 10
532.183933044405
 20
494.7522888499897
 30
0.0
 11
522.183933044405
 21
463.5022833784113
 31
0.0
 70
    32
 71
     5
 42
62.50001094315672
 73
     0
 74
     0
 75
     0
  3
tfrom線あり
100
AcDbAlignedDimension
 13
482.2214319250731
 23
432.252277906833
 33
0.0
 14
478.441737375374
 24
494.7522888499897
 34
0.0
 50
90.0
100
AcDbRotatedDimension
1001
ACAD
1000
DSTYLE
1002
{
1070
    41
1040
3.0
1070
   271
1070
     1
1002
}
  0
LWPOLYLINE
  5
1BEDF
330
A
100
AcDbEntity
  8
MODEL
  6
Continuous
100
AcDbPolyline
 90
        4
 70
     1
 43
0.0
 10
267.2214320721571
 20
527.252290810104
 10
267.2214320721571
 20
462.2522904248404
 10
272.9214276734349
 20
462.2522904248404
 10
272.9214276734349
 20
527.252290810104
  0
DIMENSION
  5
1BF50
330
A
100
AcDbEntity
  8
DIM
 48
0.05
100
AcDbDimension
  2
*D113
 10
482.2214320721571
 20
385.1380959685343
 30
0.0
 11
374.7214320721571
 21
395.1380959685343
 31
0.0
 70
    32
 71
     5
 42
215.0
 73
     0
 74
     0
 75
     0
  3
tfrom線あり
100
AcDbAlignedDimension
 13
267.2214320721571
 23
460.9526407736002
 33
0.0
 14
482.2214320721571
 24
425.4556573677601
 34
0.0
100
AcDbRotatedDimension
1001
ACAD
1000
DSTYLE
1002
{
1070
   144
1040
1.0
1002
}
  0
LINE
  5
1BFD4
330
A
100
AcDbEntity
  8
MODEL
100
AcDbLine
 10
243.2117990501497
 20
505.2539420682371
 30
0.0
 11
267.2214320721571
 21
505.2539420682371
 31
0.0
  0
LINE
  5
1BFD5
330
A
100
AcDbEntity
  8
MODEL
100
AcDbLine
 10
243.2117990501497
 20
484.2506391667073
 30
0.0
 11
267.2214320721571
 21
484.2506391667073
 31
0.0
  0
LINE
  5
1BFD6
330
A
100
AcDbEntity
  8
MODEL
100
AcDbLine
 10
242.1955602233172
 20
504.2800896014253
 30
0.0
 11
242.1955602233172
 21
485.2668779935404
 31
0.0
  0
LINE
  5
1BFD7
330
A
100
AcDbEntity
  8
MODEL
100
AcDbLine
 10
242.1955602233172
 20
504.2800896014253
 30
0.0
 11
267.2214320721571
 21
504.2800896014253
 31
0.0
  0
LINE
  5
1BFD8
330
A
100
AcDbEntity
  8
MODEL
100
AcDbLine
 10
243.2117990501497
 20
505.2539420682371
 30
0.0
 11
243.2117990501497
 21
484.2506391667073
 31
0.0
  0
LINE
  5
1BFD9
330
A
100
AcDbEntity
  8
MODEL
100
AcDbLine
 10
242.1955602233172
 20
485.2668779935404
 30
0.0
 11
267.2214320721571
 21
485.2668779935404
 31
0.0
  0
LINE
  5
1BFDA
330
A
100
AcDbEntity
  8
MODEL
100
AcDbLine
 10
243.2117990501497
 20
505.2539420682371
 30
0.0
 11
242.1955602233172
 21
504.2794003923193
 31
0.0
  0
LINE
  5
1BFDB
330
A
100
AcDbEntity
  8
MODEL
100
AcDbLine
 10
242.1955602233172
 20
485.2668779935404
 30
0.0
 11
243.2117990501497
 21
484.2506391667073
 31
0.0
  0
MTEXT
  5
1BFDC
330
A
100
AcDbEntity
  8
DIM
390
1D
100
AcDbMText
 10
205.0207032332091
 20
498.6930651195386
 30
0.0
 40
7.329785156250001
 41
0.0
 46
8.3706146484375
 71
     1
 72
     1
  1
{G1/2"}
  7
ＭＳ ゴシック
 73
     1
 44
0.7828267384257843
1001
ACAD
1000
ACAD_MTEXT_DEFINED_HEIGHT_BEGIN
1070
    46
1040
8.3706146484375
1000
ACAD_MTEXT_DEFINED_HEIGHT_END
  0
MTEXT
  5
1BFDD
330
A
100
AcDbEntity
  8
DIM
390
1D
100
AcDbMText
 10
231.3677360080319
 20
490.9753381972903
 30
0.0
 40
7.329785156250001
 41
0.0
 46
7.549678710937501
 71
     1
 72
     1
  1
{▼}
  7
ＭＳ ゴシック
 11
6.123233995736766E-17
 21
1.0
 31
0.0
 73
     1
 44
0.7828267384257843
1001
ACAD
1000
ACAD_MTEXT_DEFINED_HEIGHT_BEGIN
1070
    46
1040
7.549678710937501
1000
ACAD_MTEXT_DEFINED_HEIGHT_END
  0
VIEWPORT
  5
349
330
B
100
AcDbEntity
 67
     1
  8
0
100
AcDbViewport
 10
202.5
 20
128.5
 30
0.0
 40
486.0
 41
308.4
 68
     1
 69
     1
 12
202.5
 22
128.5
 13
0.0
 23
0.0
 14
0.5
 24
0.5
 15
0.0
 25
0.0
 16
0.0
 26
0.0
 36
1.0
 17
0.0
 27
0.0
 37
0.0
 42
50.0
 43
0.0
 44
0.0
 45
308.4
 50
0.0
 51
0.0
 72
   100
 90
   557152
  1

281
     0
 71
     1
 74
     0
110
0.0
120
0.0
130
0.0
111
1.0
121
0.0
131
0.0
112
0.0
122
1.0
132
0.0
 79
     0
146
0.0
170
     0
 61
     5
348
26C
292
     1
282
     1
141
0.0
142
0.0
 63
   256
  0
VIEWPORT
  5
34A
330
B
100
AcDbEntity
 67
     1
  8
0
100
AcDbViewport
 10
202.5
 20
128.5
 30
0.0
 40
324.0
 41
205.6
 68
     2
 69
     2
 12
986.6781359294573
 22
1427.077061889956
 13
0.0
 23
0.0
 14
0.5
 24
0.5
 15
0.0
 25
0.0
 16
0.0
 26
0.0
 36
1.0
 17
0.0
 27
0.0
 37
0.0
 42
50.0
 43
0.0
 44
0.0
 45
2890.021615685494
 50
0.0
 51
0.0
 72
   100
 90
   557152
  1

281
     0
 71
     1
 74
     0
110
0.0
120
0.0
130
0.0
111
1.0
121
0.0
131
0.0
112
0.0
122
1.0
132
0.0
 79
     0
146
0.0
170
     0
 61
     5
348
26C
292
     1
282
     1
141
0.0
142
0.0
 63
   256
  0
ENDSEC
  0
SECTION
  2
OBJECTS
  0
DICTIONARY
  5
19
330
0
100
AcDbDictionary
281
     1
  3
ACAD_COLOR
350
674
  3
ACAD_DETAILVIEWSTYLE
350
BBF
  3
ACAD_FIELDLIST
350
36B0
  3
ACAD_GROUP
350
1A
  3
ACAD_IMAGE_VARS
350
27B
  3
ACAD_LAYOUT
350
1E
  3
ACAD_MATERIAL
350
263
  3
ACAD_MLEADERSTYLE
350
336
  3
ACAD_MLINESTYLE
350
1B
  3
ACAD_PLOTSETTINGS
350
22
  3
ACAD_PLOTSTYLENAME
350
1F
  3
ACAD_SCALELIST
350
241
  3
ACAD_SECTIONVIEWSTYLE
350
BC0
  3
ACAD_TABLESTYLE
350
278
  3
ACAD_VISUALSTYLE
350
267
  3
ACDB_RECOMPOSE_DATA
350
1BFEA
  3
AcDbVariableDictionary
350
330
  3
APPDATA
350
27A
  3
CENTERLINE
350
366B
  3
DimOffsetDictionary
350
E38
  0
SUN
  5
904
330
15
100
AcDbSun
 90
        1
290
     0
 63
     7
421
 16777215
 40
1.0
291
     1
 91
  2455826
 92
 54000000
292
     0
 70
     2
 71
   256
280
     1
  0
DICTIONARY
  5
2E1
330
2
100
AcDbDictionary
280
     1
281
     1
  3
ACAD_LAYERSTATES
360
2E2
  3
ACLYDICTIONARY
360
DDE
  0
DICTIONARY
  5
1BBD4
330
1BBD3
100
AcDbDictionary
280
     1
281
     1
  3
ACAD_FIELD
360
1BBD5
  0
DICTIONARY
  5
1BEC7
330
1BEC6
100
AcDbDictionary
280
     1
281
     1
  0
DICTIONARY
  5
1BECB
330
1BECA
100
AcDbDictionary
280
     1
281
     1
  0
DICTIONARY
  5
1BED1
330
1BED0
100
AcDbDictionary
280
     1
281
     1
  3
ACAD_DIMASSOC
360
1BED2
  0
DICTIONARY
  5
674
102
{ACAD_REACTORS
330
19
102
}
330
19
100
AcDbDictionary
281
     1
  0
DICTIONARY
  5
BBF
102
{ACAD_REACTORS
330
19
102
}
330
19
100
AcDbDictionary
281
     1
  0
FIELDLIST
  5
36B0
102
{ACAD_REACTORS
330
19
102
}
330
19
100
AcDbIdSet
 90
        1
330
1BBD6
100
AcDbFieldList
  0
DICTIONARY
  5
1A
102
{ACAD_REACTORS
330
19
102
}
330
19
100
AcDbDictionary
281
     1
  0
RASTERVARIABLES
  5
27B
102
{ACAD_REACTORS
330
19
102
}
330
19
100
AcDbRasterVariables
 90
        0
 70
     1
 71
     1
 72
     1
  0
DICTIONARY
  5
1E
102
{ACAD_REACTORS
330
19
102
}
330
19
100
AcDbDictionary
281
     1
  3
Layout1
350
21
  3
Model
350
20
  0
DICTIONARY
  5
263
102
{ACAD_REACTORS
330
19
102
}
330
19
100
AcDbDictionary
281
     1
  3
ByBlock
350
265
  3
ByLayer
350
264
  3
Global
350
266
  0
DICTIONARY
  5
336
102
{ACAD_REACTORS
330
19
102
}
330
19
100
AcDbDictionary
281
     1
  3
Standard
350
D59
  0
DICTIONARY
  5
1B
102
{ACAD_REACTORS
330
19
102
}
330
19
100
AcDbDictionary
281
     1
  3
Standard
350
1C
  0
DICTIONARY
  5
22
102
{ACAD_REACTORS
330
19
102
}
330
19
100
AcDbDictionary
281
     1
  0
ACDBDICTIONARYWDFLT
  5
1F
102
{ACAD_REACTORS
330
19
102
}
330
19
100
AcDbDictionary
281
     1
  3
Normal
350
1D
100
AcDbDictionaryWithDefault
340
1D
  0
DICTIONARY
  5
241
102
{ACAD_REACTORS
330
19
102
}
330
19
100
AcDbDictionary
281
     1
  3
A0
350
242
  3
A1
350
243
  3
A2
350
244
  3
A3
350
245
  3
A4
350
246
  3
A5
350
247
  3
A6
350
248
  3
A7
350
249
  3
A8
350
24A
  3
A9
350
24B
  3
B0
350
24C
  3
B1
350
24D
  3
B2
350
24E
  3
B3
350
24F
  3
B4
350
250
  3
B5
350
251
  3
B6
350
252
  3
B7
350
253
  3
B8
350
254
  3
B9
350
255
  3
C0
350
256
  3
C1
350
257
  3
C2
350
258
  3
C3
350
259
  3
C4
350
25A
  3
C5
350
25B
  3
C6
350
25C
  3
C7
350
25D
  3
C8
350
25E
  3
C9
350
25F
  3
D0
350
260
  3
D1
350
261
  3
D2
350
262
  0
DICTIONARY
  5
BC0
102
{ACAD_REACTORS
330
19
102
}
330
19
100
AcDbDictionary
281
     1
  0
DICTIONARY
  5
278
102
{ACAD_REACTORS
330
19
102
}
330
19
100
AcDbDictionary
281
     1
  3
Standard
350
279
  0
DICTIONARY
  5
267
102
{ACAD_REACTORS
330
19
102
}
330
19
100
AcDbDictionary
281
     1
  3
*A1
350
3666
  3
2dWireframe
350
26C
  3
3D Hidden
350
26E
  3
3dWireframe
350
26D
  3
Basic
350
26F
  3
Brighten
350
273
  3
ColorChange
350
277
  3
Conceptual
350
271
  3
Dim
350
272
  3
EdgeColorOff
350
8FE
  3
Facepattern
350
276
  3
Flat
350
268
  3
FlatWithEdges
350
269
  3
Gouraud
350
26A
  3
GouraudWithEdges
350
26B
  3
Hidden
350
8FB
  3
JitterOff
350
8FC
  3
Linepattern
350
275
  3
OverhangOff
350
8FD
  3
Realistic
350
270
  3
Shaded
350
903
  3
Shaded with edges
350
902
  3
Shades of Gray
350
8FF
  3
Sketchy
350
900
  3
Thicken
350
274
  3
Wireframe
350
8FA
  3
X-Ray
350
901
  0
XRECORD
  5
1BFEA
102
{ACAD_REACTORS
330
19
102
}
330
19
100
AcDbXrecord
280
     1
 90
        1
330
279
  0
DICTIONARY
  5
330
102
{ACAD_REACTORS
330
19
102
}
330
19
100
AcDbDictionary
281
     1
  3
CANNOSCALE
350
331
  3
CMLEADERSTYLE
350
D5E
  3
CTABLESTYLE
350
335
  3
HPTRANSPARENCY
350
D52
  3
XCLIPFRAME
350
896
  0
DICTIONARY
  5
27A
102
{ACAD_REACTORS
330
19
102
}
330
19
100
AcDbDictionary
281
     1
  0
DICTIONARY
  5
366B
102
{ACAD_REACTORS
330
19
102
}
330
19
100
AcDbDictionary
281
     1
  3
CLEXTENSION
350
36AB
  0
DICTIONARY
  5
E38
102
{ACAD_REACTORS
330
19
102
}
330
19
100
AcDbDictionary
281
     1
  3
DIMRAILANGLE
350
36A9
  3
DIMRAILFIRSTOFFSET
350
36A7
  3
DIMRAILOFFSET
350
36A8
  3
DIMRAILSENABLED
350
36AA
  0
DICTIONARY
  5
2E2
102
{ACAD_REACTORS
330
2E1
102
}
330
2E1
100
AcDbDictionary
281
     1
  0
DICTIONARY
  5
DDE
102
{ACAD_REACTORS
330
2E1
102
}
330
2E1
100
AcDbDictionary
281
     1
1001
ACAD
1000
<All
  0
DICTIONARY
  5
1BBD5
102
{ACAD_REACTORS
330
1BBD4
102
}
330
1BBD4
100
AcDbDictionary
280
     1
281
     1
  3
TEXT
360
1BBD6
  0
DIMASSOC
  5
1BED2
102
{ACAD_REACTORS
330
1BED1
102
}
330
1BED1
100
AcDbDimAssoc
330
1BED0
 90
        1
 70
     0
 71
     1
  1
AcDbOsnapPointRef
 72
     2
331
1BDDC
 73
     0
 91
        0
 40
0.5
 10
0.0
 20
0.0
 30
0.0
 75
     0
  0
LAYOUT
  5
21
102
{ACAD_REACTORS
330
1E
102
}
330
1E
100
AcDbPlotSettings
  1

  2
none_device
  4
ISO_A3_(420.00_x_297.00_MM)
  6

 40
7.5
 41
20.0
 42
7.5
 43
20.0
 44
420.0
 45
297.0
 46
0.0
 47
0.0
 48
0.0
 49
0.0
140
0.0
141
0.0
142
1.0
143
1.0
 70
     0
 72
     1
 73
     0
 74
     0
  7

 75
     0
 76
     0
 77
     2
 78
   300
147
1.0
148
0.0
149
0.0
100
AcDbLayout
  1
Layout1
 70
     0
 71
     0
 10
-7.5
 20
-20.0
 11
412.5
 21
277.0
 12
0.0
 22
0.0
 32
0.0
 14
0.0
 24
0.0
 34
0.0
 15
0.0
 25
0.0
 35
0.0
146
0.0
 13
0.0
 23
0.0
 33
0.0
 16
0.0
 26
0.0
 36
0.0
 17
0.0
 27
0.0
 37
0.0
 76
     0
330
B
331
349
  0
LAYOUT
  5
20
102
{ACAD_REACTORS
330
1E
102
}
330
1E
100
AcDbPlotSettings
  1

  2
none_device
  4
ISO_A3_(420.00_x_297.00_MM)
  6

 40
7.5
 41
20.0
 42
7.5
 43
20.0
 44
420.0
 45
297.0
 46
0.0
 47
0.0
 48
0.0
 49
0.0
140
0.0
141
0.0
142
1.0
143
1.0
 70
  1024
 72
     1
 73
     0
 74
     0
  7

 75
     0
 76
     0
 77
     2
 78
   300
147
1.0
148
0.0
149
0.0
100
AcDbLayout
  1
Model
 70
     0
 71
     1
 10
0.0
 20
0.0
 11
630.0
 21
891.0
 12
0.0
 22
0.0
 32
0.0
 14
0.0
 24
0.0
 34
0.0
 15
630.0
 25
891.0
 35
0.0
146
0.0
 13
0.0
 23
0.0
 33
0.0
 16
0.0
 26
0.0
 36
0.0
 17
0.0
 27
0.0
 37
0.0
 76
     0
330
A
331
15
  0
MATERIAL
  5
265
102
{ACAD_REACTORS
330
263
102
}
330
263
100
AcDbMaterial
  1
ByBlock
 72
     1
 94
      127
  0
MATERIAL
  5
264
102
{ACAD_REACTORS
330
263
102
}
330
263
100
AcDbMaterial
  1
ByLayer
 72
     1
 94
      127
  0
MATERIAL
  5
266
102
{ACAD_REACTORS
330
263
102
}
330
263
100
AcDbMaterial
  1
Global
 72
     1
 94
      127
  0
MLEADERSTYLE
  5
D59
102
{ACAD_REACTORS
330
336
102
}
330
336
100
AcDbMLeaderStyle
170
     2
171
     1
172
     0
 90
        2
 40
0.0
 41
0.0
173
     1
 91
-1056964608
340
11
 92
       -2
290
     1
 42
2.0
291
     1
 43
8.0
  3
Standard
341
0
 44
4.0
300

342
17
174
     1
178
     6
175
     1
176
     0
 93
-1056964608
 45
4.0
292
     0
297
     0
 46
4.0
343
0
 94
-1056964608
 47
1.0
 49
1.0
140
1.0
293
     1
141
0.0
294
     1
177
     0
142
1.0
295
     0
296
     0
143
3.75
1001
ACAD_MLEADERVER
1070
     2
  0
MLINESTYLE
  5
1C
102
{ACAD_REACTORS
330
1B
102
}
330
1B
100
AcDbMlineStyle
  2
Standard
 70
     0
  3

 62
     0
 51
90.0
 52
90.0
 71
     2
 49
0.5
 62
   256
  6
BYLAYER
 49
-0.5
 62
   256
  6
BYLAYER
  0
ACDBPLACEHOLDER
  5
1D
102
{ACAD_REACTORS
330
1F
102
}
330
1F
  0
SCALE
  5
242
102
{ACAD_REACTORS
330
241
102
}
330
241
100
AcDbScale
 70
     0
300
1:1
140
1.0
141
1.0
290
     1
  0
SCALE
  5
243
102
{ACAD_REACTORS
330
241
102
}
330
241
100
AcDbScale
 70
     0
300
1:2
140
1.0
141
2.0
290
     0
  0
SCALE
  5
244
102
{ACAD_REACTORS
330
241
102
}
330
241
100
AcDbScale
 70
     0
300
1:4
140
1.0
141
4.0
290
     0
  0
SCALE
  5
245
102
{ACAD_REACTORS
330
241
102
}
330
241
100
AcDbScale
 70
     0
300
1:5
140
1.0
141
5.0
290
     0
  0
SCALE
  5
246
102
{ACAD_REACTORS
330
241
102
}
330
241
100
AcDbScale
 70
     0
300
1:8
140
1.0
141
8.0
290
     0
  0
SCALE
  5
247
102
{ACAD_REACTORS
330
241
102
}
330
241
100
AcDbScale
 70
     0
300
1:10
140
1.0
141
10.0
290
     0
  0
SCALE
  5
248
102
{ACAD_REACTORS
330
241
102
}
330
241
100
AcDbScale
 70
     0
300
1:16
140
1.0
141
16.0
290
     0
  0
SCALE
  5
249
102
{ACAD_REACTORS
330
241
102
}
330
241
100
AcDbScale
 70
     0
300
1:20
140
1.0
141
20.0
290
     0
  0
SCALE
  5
24A
102
{ACAD_REACTORS
330
241
102
}
330
241
100
AcDbScale
 70
     0
300
1:30
140
1.0
141
30.0
290
     0
  0
SCALE
  5
24B
102
{ACAD_REACTORS
330
241
102
}
330
241
100
AcDbScale
 70
     0
300
1:40
140
1.0
141
40.0
290
     0
  0
SCALE
  5
24C
102
{ACAD_REACTORS
330
241
102
}
330
241
100
AcDbScale
 70
     0
300
1:50
140
1.0
141
50.0
290
     0
  0
SCALE
  5
24D
102
{ACAD_REACTORS
330
241
102
}
330
241
100
AcDbScale
 70
     0
300
1:100
140
1.0
141
100.0
290
     0
  0
SCALE
  5
24E
102
{ACAD_REACTORS
330
241
102
}
330
241
100
AcDbScale
 70
     0
300
2:1
140
2.0
141
1.0
290
     0
  0
SCALE
  5
24F
102
{ACAD_REACTORS
330
241
102
}
330
241
100
AcDbScale
 70
     0
300
4:1
140
4.0
141
1.0
290
     0
  0
SCALE
  5
250
102
{ACAD_REACTORS
330
241
102
}
330
241
100
AcDbScale
 70
     0
300
8:1
140
8.0
141
1.0
290
     0
  0
SCALE
  5
251
102
{ACAD_REACTORS
330
241
102
}
330
241
100
AcDbScale
 70
     0
300
10:1
140
10.0
141
1.0
290
     0
  0
SCALE
  5
252
102
{ACAD_REACTORS
330
241
102
}
330
241
100
AcDbScale
 70
     0
300
100:1
140
100.0
141
1.0
290
     0
  0
SCALE
  5
253
102
{ACAD_REACTORS
330
241
102
}
330
241
100
AcDbScale
 70
     0
300
1/128" = 1'-0"
140
0.0078125
141
12.0
290
     0
  0
SCALE
  5
254
102
{ACAD_REACTORS
330
241
102
}
330
241
100
AcDbScale
 70
     0
300
1/64" = 1'-0"
140
0.015625
141
12.0
290
     0
  0
SCALE
  5
255
102
{ACAD_REACTORS
330
241
102
}
330
241
100
AcDbScale
 70
     0
300
1/32" = 1'-0"
140
0.03125
141
12.0
290
     0
  0
SCALE
  5
256
102
{ACAD_REACTORS
330
241
102
}
330
241
100
AcDbScale
 70
     0
300
1/16" = 1'-0"
140
0.0625
141
12.0
290
     0
  0
SCALE
  5
257
102
{ACAD_REACTORS
330
241
102
}
330
241
100
AcDbScale
 70
     0
300
3/32" = 1'-0"
140
0.09375
141
12.0
290
     0
  0
SCALE
  5
258
102
{ACAD_REACTORS
330
241
102
}
330
241
100
AcDbScale
 70
     0
300
1/8" = 1'-0"
140
0.125
141
12.0
290
     0
  0
SCALE
  5
259
102
{ACAD_REACTORS
330
241
102
}
330
241
100
AcDbScale
 70
     0
300
3/16" = 1'-0"
140
0.1875
141
12.0
290
     0
  0
SCALE
  5
25A
102
{ACAD_REACTORS
330
241
102
}
330
241
100
AcDbScale
 70
     0
300
1/4" = 1'-0"
140
0.25
141
12.0
290
     0
  0
SCALE
  5
25B
102
{ACAD_REACTORS
330
241
102
}
330
241
100
AcDbScale
 70
     0
300
3/8" = 1'-0"
140
0.375
141
12.0
290
     0
  0
SCALE
  5
25C
102
{ACAD_REACTORS
330
241
102
}
330
241
100
AcDbScale
 70
     0
300
1/2" = 1'-0"
140
0.5
141
12.0
290
     0
  0
SCALE
  5
25D
102
{ACAD_REACTORS
330
241
102
}
330
241
100
AcDbScale
 70
     0
300
3/4" = 1'-0"
140
0.75
141
12.0
290
     0
  0
SCALE
  5
25E
102
{ACAD_REACTORS
330
241
102
}
330
241
100
AcDbScale
 70
     0
300
1" = 1'-0"
140
1.0
141
12.0
290
     0
  0
SCALE
  5
25F
102
{ACAD_REACTORS
330
241
102
}
330
241
100
AcDbScale
 70
     0
300
1-1/2" = 1'-0"
140
1.5
141
12.0
290
     0
  0
SCALE
  5
260
102
{ACAD_REACTORS
330
241
102
}
330
241
100
AcDbScale
 70
     0
300
3" = 1'-0"
140
3.0
141
12.0
290
     0
  0
SCALE
  5
261
102
{ACAD_REACTORS
330
241
102
}
330
241
100
AcDbScale
 70
     0
300
6" = 1'-0"
140
6.0
141
12.0
290
     0
  0
SCALE
  5
262
102
{ACAD_REACTORS
330
241
102
}
330
241
100
AcDbScale
 70
     0
300
1'-0" = 1'-0"
140
12.0
141
12.0
290
     0
  0
TABLESTYLE
  5
279
102
{ACAD_REACTORS
330
278
102
}
102
{ACAD_XDICTIONARY
360
1BFE8
102
}
330
278
100
AcDbTableStyle
  3
Standard
 70
     0
 71
     0
 40
0.06
 41
0.06
280
     0
281
     0
  7
Standard
140
4.5
170
     2
 62
     0
 63
   257
283
     0
 90
        4
 91
        0
  1

274
    -2
284
     1
 64
     0
275
    -2
285
     1
 65
     0
276
    -2
286
     1
 66
     0
277
    -2
287
     1
 67
     0
278
    -2
288
     1
 68
     0
279
    -2
289
     1
 69
     0
  7
Standard
140
6.0
170
     5
 62
     0
 63
   257
283
     0
 90
        4
 91
        0
  1

274
    -2
284
     1
 64
     0
275
    -2
285
     1
 65
     0
276
    -2
286
     1
 66
     0
277
    -2
287
     1
 67
     0
278
    -2
288
     1
 68
     0
279
    -2
289
     1
 69
     0
  7
Standard
140
4.5
170
     5
 62
     0
 63
   257
283
     0
 90
        4
 91
        0
  1

274
    -2
284
     1
 64
     0
275
    -2
285
     1
 65
     0
276
    -2
286
     1
 66
     0
277
    -2
287
     1
 67
     0
278
    -2
288
     1
 68
     0
279
    -2
289
     1
 69
     0
  0
VISUALSTYLE
  5
3666
102
{ACAD_REACTORS
330
267
102
}
330
267
100
AcDbVisualStyle
  2
*
 70
    10
 71
     0
 72
     2
 73
     0
 90
        0
 40
-0.6
 41
-30.0
 62
     5
 63
     7
421
 16777215
 74
     1
 91
        4
 64
     7
 65
   257
 75
     1
175
     1
 42
1.0
 92
        8
 66
     7
 43
1.0
 76
     1
 77
     6
 78
     2
 67
     7
 79
     5
170
     0
171
     0
290
     0
174
     0
 93
        1
 44
0.0
173
     0
291
     0
 45
0.0
  0
VISUALSTYLE
  5
26C
102
{ACAD_REACTORS
330
267
102
}
330
267
100
AcDbVisualStyle
  2
2dWireframe
 70
     4
 71
     0
 72
     2
 73
     0
 90
        0
 40
-0.6
 41
-30.0
 62
     5
 63
     7
421
 16777215
 74
     1
 91
        4
 64
     7
 65
   257
 75
     1
175
     1
 42
1.0
 92
        0
 66
   257
 43
1.0
 76
     1
 77
     6
 78
     2
 67
     7
 79
     5
170
     0
171
     0
290
     0
174
     0
 93
        1
 44
0.0
173
     0
291
     0
 45
0.0
  0
VISUALSTYLE
  5
26E
102
{ACAD_REACTORS
330
267
102
}
330
267
100
AcDbVisualStyle
  2
3D Hidden
 70
     6
 71
     1
 72
     2
 73
     2
 90
        0
 40
-0.6
 41
-30.0
 62
     5
 63
     7
421
 16777215
 74
     2
 91
        2
 64
     7
 65
   257
 75
     2
175
     1
 42
40.0
 92
        0
 66
   257
 43
1.0
 76
     1
 77
     6
 78
     2
 67
     7
 79
     3
170
     0
171
     0
290
     0
174
     0
 93
        1
 44
0.0
173
     0
291
     0
 45
0.0
  0
VISUALSTYLE
  5
26D
102
{ACAD_REACTORS
330
267
102
}
330
267
100
AcDbVisualStyle
  2
3dWireframe
 70
     5
 71
     0
 72
     2
 73
     0
 90
        0
 40
-0.6
 41
-30.0
 62
     5
 63
     7
421
 16777215
 74
     1
 91
        4
 64
     7
 65
   257
 75
     1
175
     1
 42
1.0
 92
        0
 66
   257
 43
1.0
 76
     1
 77
     6
 78
     2
 67
     7
 79
     5
170
     0
171
     0
290
     0
174
     0
 93
        1
 44
0.0
173
     0
291
     0
 45
0.0
  0
VISUALSTYLE
  5
26F
102
{ACAD_REACTORS
330
267
102
}
330
267
100
AcDbVisualStyle
  2
Basic
 70
     7
 71
     1
 72
     0
 73
     1
 90
        0
 40
-0.6
 41
-30.0
 62
     5
 63
     7
421
 16777215
 74
     0
 91
        4
 64
     7
 65
   257
 75
     1
175
     1
 42
1.0
 92
        8
 66
     7
 43
1.0
 76
     1
 77
     6
 78
     2
 67
     7
 79
     5
170
     0
171
     0
290
     0
174
     0
 93
        1
 44
0.0
173
     0
291
     1
 45
0.0
  0
VISUALSTYLE
  5
273
102
{ACAD_REACTORS
330
267
102
}
330
267
100
AcDbVisualStyle
  2
Brighten
 70
    12
 71
     2
 72
     2
 73
     0
 90
        0
 40
-0.6
 41
-30.0
 62
     5
 63
     7
421
 16777215
 74
     1
 91
        4
 64
     7
 65
   257
 75
     1
175
     1
 42
1.0
 92
        8
 66
     7
 43
1.0
 76
     1
 77
     6
 78
     2
 67
     7
 79
     5
170
     0
171
     0
290
     0
174
     0
 93
        1
 44
50.0
173
     0
291
     1
 45
0.0
  0
VISUALSTYLE
  5
277
102
{ACAD_REACTORS
330
267
102
}
330
267
100
AcDbVisualStyle
  2
ColorChange
 70
    16
 71
     2
 72
     2
 73
     3
 90
        0
 40
-0.6
 41
-30.0
 62
     5
 63
     8
421
  8421504
 74
     1
 91
        4
 64
     7
 65
   257
 75
     1
175
     1
 42
1.0
 92
        8
 66
     8
424
  8421504
 43
1.0
 76
     1
 77
     6
 78
     2
 67
     7
 79
     5
170
     0
171
     0
290
     0
174
     0
 93
        1
 44
0.0
173
     0
291
     1
 45
0.0
  0
VISUALSTYLE
  5
271
102
{ACAD_REACTORS
330
267
102
}
330
267
100
AcDbVisualStyle
  2
Conceptual
 70
     9
 71
     3
 72
     2
 73
     0
 90
        0
 40
-0.6
 41
-30.0
 62
     5
 63
     7
421
 16777215
 74
     2
 91
        2
 64
     7
 65
   257
 75
     1
175
     1
 42
40.0
 92
        8
 66
     7
 43
1.0
 76
     1
 77
     6
 78
     2
 67
     7
 79
     3
170
     0
171
     0
290
     0
174
     0
 93
        1
 44
0.0
173
     0
291
     0
 45
0.0
  0
VISUALSTYLE
  5
272
102
{ACAD_REACTORS
330
267
102
}
330
267
100
AcDbVisualStyle
  2
Dim
 70
    11
 71
     2
 72
     2
 73
     0
 90
        0
 40
-0.6
 41
-30.0
 62
     5
 63
     7
421
 16777215
 74
     1
 91
        4
 64
     7
 65
   257
 75
     1
175
     1
 42
1.0
 92
        8
 66
     7
 43
1.0
 76
     1
 77
     6
 78
     2
 67
     7
 79
     5
170
     0
171
     0
290
     0
174
     0
 93
        1
 44
-50.0
173
     0
291
     1
 45
0.0
  0
VISUALSTYLE
  5
8FE
102
{ACAD_REACTORS
330
267
102
}
330
267
100
AcDbVisualStyle
  2
EdgeColorOff
 70
    22
 71
     2
 72
     2
 73
     0
 90
        0
 40
0.6
 41
30.0
 62
     5
 63
     7
421
 16777215
 74
     1
 91
        4
 64
     7
 65
   257
 75
     1
175
     1
 42
1.0
 92
        8
 66
     7
 43
1.0
 76
     1
 77
     6
 78
     2
 67
     7
 79
     5
170
     0
171
     0
290
     0
174
     0
 93
        1
 44
0.0
173
     0
291
     1
 45
0.0
  0
VISUALSTYLE
  5
276
102
{ACAD_REACTORS
330
267
102
}
330
267
100
AcDbVisualStyle
  2
Facepattern
 70
    15
 71
     2
 72
     2
 73
     0
 90
        0
 40
-0.6
 41
-30.0
 62
     5
 63
     7
421
 16777215
 74
     1
 91
        4
 64
     7
 65
   257
 75
     1
175
     1
 42
1.0
 92
        8
 66
     7
 43
1.0
 76
     1
 77
     6
 78
     2
 67
     7
 79
     5
170
     0
171
     0
290
     0
174
     0
 93
        1
 44
0.0
173
     0
291
     1
 45
0.0
  0
VISUALSTYLE
  5
268
102
{ACAD_REACTORS
330
267
102
}
330
267
100
AcDbVisualStyle
  2
Flat
 70
     0
 71
     2
 72
     1
 73
     1
 90
        2
 40
-0.6
 41
30.0
 62
     5
 63
     7
421
 16777215
 74
     0
 91
        4
 64
     7
 65
   257
 75
     1
175
     1
 42
1.0
 92
        8
 66
     7
 43
1.0
 76
     1
 77
     6
 78
     2
 67
     7
 79
     5
170
     0
171
     0
290
     0
174
     0
 93
       13
 44
0.0
173
     0
291
     1
 45
0.0
  0
VISUALSTYLE
  5
269
102
{ACAD_REACTORS
330
267
102
}
330
267
100
AcDbVisualStyle
  2
FlatWithEdges
 70
     1
 71
     2
 72
     1
 73
     1
 90
        2
 40
-0.6
 41
30.0
 62
     5
 63
     7
421
 16777215
 74
     1
 91
        4
 64
     7
 65
   257
 75
     1
175
     1
 42
1.0
 92
        0
 66
   257
 43
1.0
 76
     1
 77
     6
 78
     2
 67
     7
 79
     5
170
     0
171
     0
290
     0
174
     0
 93
       13
 44
0.0
173
     0
291
     1
 45
0.0
  0
VISUALSTYLE
  5
26A
102
{ACAD_REACTORS
330
267
102
}
330
267
100
AcDbVisualStyle
  2
Gouraud
 70
     2
 71
     2
 72
     2
 73
     1
 90
        2
 40
-0.6
 41
30.0
 62
     5
 63
     7
421
 16777215
 74
     0
 91
        4
 64
     7
 65
   257
 75
     1
175
     1
 42
1.0
 92
        0
 66
     7
 43
1.0
 76
     1
 77
     6
 78
     2
 67
     7
 79
     5
170
     0
171
     0
290
     0
174
     0
 93
       13
 44
0.0
173
     0
291
     1
 45
0.0
  0
VISUALSTYLE
  5
26B
102
{ACAD_REACTORS
330
267
102
}
330
267
100
AcDbVisualStyle
  2
GouraudWithEdges
 70
     3
 71
     2
 72
     2
 73
     1
 90
        2
 40
-0.6
 41
30.0
 62
     5
 63
     7
421
 16777215
 74
     1
 91
        4
 64
     7
 65
   257
 75
     1
175
     1
 42
1.0
 92
        0
 66
   257
 43
1.0
 76
     1
 77
     6
 78
     2
 67
     7
 79
     5
170
     0
171
     0
290
     0
174
     0
 93
       13
 44
0.0
173
     0
291
     1
 45
0.0
  0
VISUALSTYLE
  5
8FB
102
{ACAD_REACTORS
330
267
102
}
330
267
100
AcDbVisualStyle
  2
Hidden
 70
     6
 71
     1
 72
     2
 73
     2
 90
        0
 40
0.6
 41
30.0
 62
     5
 63
     7
421
 16777215
 74
     2
 91
        2
 64
     7
 65
   257
 75
     2
175
     1
 42
40.0
 92
        0
 66
   257
 43
1.0
 76
     1
 77
     6
 78
     2
 67
     7
 79
     3
170
     0
171
     0
290
     0
174
     0
 93
        1
 44
0.0
173
     0
291
     0
 45
0.0
  0
VISUALSTYLE
  5
8FC
102
{ACAD_REACTORS
330
267
102
}
330
267
100
AcDbVisualStyle
  2
JitterOff
 70
    20
 71
     2
 72
     2
 73
     0
 90
        0
 40
0.6
 41
30.0
 62
     5
 63
     7
421
 16777215
 74
     1
 91
        4
 64
     7
 65
   257
 75
     1
175
     1
 42
1.0
 92
       10
 66
     7
 43
1.0
 76
     1
 77
     6
 78
     2
 67
     7
 79
     5
170
     0
171
     0
290
     0
174
     0
 93
        1
 44
0.0
173
     0
291
     1
 45
0.0
  0
VISUALSTYLE
  5
275
102
{ACAD_REACTORS
330
267
102
}
330
267
100
AcDbVisualStyle
  2
Linepattern
 70
    14
 71
     2
 72
     2
 73
     0
 90
        0
 40
-0.6
 41
-30.0
 62
     5
 63
     7
421
 16777215
 74
     1
 91
        4
 64
     7
 65
   257
 75
     7
175
     7
 42
1.0
 92
        8
 66
     7
 43
1.0
 76
     1
 77
     6
 78
     2
 67
     7
 79
     5
170
     0
171
     0
290
     0
174
     0
 93
        1
 44
0.0
173
     0
291
     1
 45
0.0
  0
VISUALSTYLE
  5
8FD
102
{ACAD_REACTORS
330
267
102
}
330
267
100
AcDbVisualStyle
  2
OverhangOff
 70
    21
 71
     2
 72
     2
 73
     0
 90
        0
 40
0.6
 41
30.0
 62
     5
 63
     7
421
 16777215
 74
     1
 91
        4
 64
     7
 65
   257
 75
     1
175
     1
 42
1.0
 92
        9
 66
     7
 43
1.0
 76
     1
 77
     6
 78
     2
 67
     7
 79
     5
170
     0
171
     0
290
     0
174
     0
 93
        1
 44
0.0
173
     0
291
     1
 45
0.0
  0
VISUALSTYLE
  5
270
102
{ACAD_REACTORS
330
267
102
}
330
267
100
AcDbVisualStyle
  2
Realistic
 70
     8
 71
     2
 72
     2
 73
     0
 90
        0
 40
-0.6
 41
-30.0
 62
     5
 63
     7
421
 16777215
 74
     1
 91
        0
 64
     7
 65
   257
 75
     1
175
     1
 42
1.0
 92
        8
 66
     8
424
  7895160
 43
1.0
 76
     1
 77
     6
 78
     2
 67
     7
 79
     5
170
     0
171
     0
290
     0
174
     0
 93
       13
 44
0.0
173
     0
291
     0
 45
0.0
  0
VISUALSTYLE
  5
903
102
{ACAD_REACTORS
330
267
102
}
330
267
100
AcDbVisualStyle
  2
Shaded
 70
    27
 71
     2
 72
     2
 73
     1
 90
        2
 40
0.6
 41
30.0
 62
     5
 63
     7
421
 16777215
 74
     0
 91
        4
 64
     7
 65
   257
 75
     1
175
     1
 42
1.0
 92
        8
 66
   257
 43
1.0
 76
     1
 77
     6
 78
     2
 67
     8
425
  7895160
 79
     3
170
     0
171
     0
290
     0
174
     0
 93
        5
 44
0.0
173
     0
291
     0
 45
0.0
  0
VISUALSTYLE
  5
902
102
{ACAD_REACTORS
330
267
102
}
330
267
100
AcDbVisualStyle
  2
Shaded with edges
 70
    26
 71
     2
 72
     2
 73
     1
 90
        2
 40
0.6
 41
30.0
 62
     5
 63
     7
421
 16777215
 74
     1
 91
       10
 64
     7
 65
   257
 75
     2
175
     1
 42
1.0
 92
        8
 66
   257
 43
1.0
 76
     1
 77
     6
 78
     2
 67
     7
 79
     3
170
     0
171
     0
290
     0
174
     0
 93
        5
 44
0.0
173
     0
291
     0
 45
0.0
  0
VISUALSTYLE
  5
8FF
102
{ACAD_REACTORS
330
267
102
}
330
267
100
AcDbVisualStyle
  2
Shades of Gray
 70
    23
 71
     2
 72
     2
 73
     3
 90
        0
 40
0.6
 41
30.0
 62
     5
 63
     7
421
 16777215
 74
     2
 91
        2
 64
     7
 65
     7
 75
     1
175
     1
 42
40.0
 92
        8
 66
     7
 43
1.0
 76
     1
 77
     6
 78
     2
 67
     7
 79
     3
170
     0
171
     0
290
     0
174
     0
 93
        1
 44
0.0
173
     0
291
     0
 45
0.0
  0
VISUALSTYLE
  5
900
102
{ACAD_REACTORS
330
267
102
}
330
267
100
AcDbVisualStyle
  2
Sketchy
 70
    24
 71
     1
 72
     2
 73
     2
 90
        0
 40
0.6
 41
30.0
 62
     5
 63
     7
421
 16777215
 74
     2
 91
        2
 64
     7
 65
     7
 75
     1
175
     1
 42
40.0
 92
       11
 66
     7
 43
1.0
 76
     1
 77
     6
 78
     2
 67
     7
 79
     6
170
     0
171
     0
290
     0
174
     0
 93
        1
 44
0.0
173
     0
291
     0
 45
0.0
  0
VISUALSTYLE
  5
274
102
{ACAD_REACTORS
330
267
102
}
330
267
100
AcDbVisualStyle
  2
Thicken
 70
    13
 71
     2
 72
     2
 73
     0
 90
        0
 40
-0.6
 41
-30.0
 62
     5
 63
     7
421
 16777215
 74
     1
 91
        4
 64
     7
 65
   257
 75
     1
175
     1
 42
1.0
 92
       12
 66
     7
 43
1.0
 76
     1
 77
     6
 78
     2
 67
     7
 79
     5
170
     0
171
     0
290
     0
174
     0
 93
        1
 44
0.0
173
     0
291
     1
 45
0.0
  0
VISUALSTYLE
  5
8FA
102
{ACAD_REACTORS
330
267
102
}
330
267
100
AcDbVisualStyle
  2
Wireframe
 70
     5
 71
     0
 72
     2
 73
     0
 90
        0
 40
0.6
 41
30.0
 62
     5
 63
     7
421
 16777215
 74
     1
 91
        4
 64
     7
 65
   257
 75
     1
175
     1
 42
1.0
 92
        0
 66
   257
 43
1.0
 76
     1
 77
     6
 78
     2
 67
     7
 79
     3
170
     0
171
     0
290
     0
174
     0
 93
        1
 44
0.0
173
     0
291
     0
 45
0.0
  0
VISUALSTYLE
  5
901
102
{ACAD_REACTORS
330
267
102
}
330
267
100
AcDbVisualStyle
  2
X-Ray
 70
    25
 71
     2
 72
     2
 73
     1
 90
        1
 40
0.5
 41
30.0
 62
     5
 63
     7
421
 16777215
 74
     1
 91
        0
 64
     7
 65
   257
 75
     1
175
     1
 42
1.0
 92
        8
 66
     7
 43
1.0
 76
     1
 77
     6
 78
     2
 67
     7
 79
     3
170
     0
171
     0
290
     0
174
     0
 93
       13
 44
0.0
173
     0
291
     0
 45
0.0
  0
DICTIONARYVAR
  5
331
102
{ACAD_REACTORS
330
330
102
}
330
330
100
DictionaryVariables
280
     0
  1
1:1
  0
DICTIONARYVAR
  5
D5E
102
{ACAD_REACTORS
330
330
102
}
330
330
100
DictionaryVariables
280
     0
  1
Standard
  0
DICTIONARYVAR
  5
335
102
{ACAD_REACTORS
330
330
102
}
330
330
100
DictionaryVariables
280
     0
  1
Standard
  0
DICTIONARYVAR
  5
D52
102
{ACAD_REACTORS
330
330
102
}
330
330
100
DictionaryVariables
280
     0
  1
ByLayer
  0
DICTIONARYVAR
  5
896
102
{ACAD_REACTORS
330
330
102
}
330
330
100
DictionaryVariables
280
     0
  1
0
  0
DICTIONARYVAR
  5
36AB
102
{ACAD_REACTORS
330
366B
102
}
330
366B
100
DictionaryVariables
280
     0
  1
0.250000
  0
DICTIONARYVAR
  5
36A9
102
{ACAD_REACTORS
330
E38
102
}
330
E38
100
DictionaryVariables
280
     0
  1
0.261799
  0
DICTIONARYVAR
  5
36A7
102
{ACAD_REACTORS
330
E38
102
}
330
E38
100
DictionaryVariables
280
     0
  1
0.400000
  0
DICTIONARYVAR
  5
36A8
102
{ACAD_REACTORS
330
E38
102
}
330
E38
100
DictionaryVariables
280
     0
  1
0.250000
  0
DICTIONARYVAR
  5
36AA
102
{ACAD_REACTORS
330
E38
102
}
330
E38
100
DictionaryVariables
280
     0
  1
1
  0
FIELD
  5
1BBD6
102
{ACAD_REACTORS
330
1BBD5
102
}
330
1BBD5
100
AcDbField
  1
_text
  2
{%<\_FldIdx 0>%N}
 90
        1
360
1BBD7
 97
        0
 91
       63
 92
        0
 94
        8
 95
        2
 96
        0
300

 93
        1
  6
ACFD_FIELDTEXT_CHECKSUM
 93
        2
 90
        2
140
4506.0
 94
        0
300

302

304
ACVALUE_END
  7
ACFD_FIELD_VALUE
 93
        6
 90
        4
  1
{20180125N}
 94
        0
300

302

304
ACVALUE_END
301
{20180125N}
 98
       11
  0
DICTIONARY
  5
1BFE8
330
279
100
AcDbDictionary
280
     1
281
     1
  3
ACAD_ROUNDTRIP_2008_TABLESTYLE_CELLSTYLEMAP
360
1BFE9
  0
FIELD
  5
1BBD7
330
1BBD6
100
AcDbField
  1
AcVar
  2
\AcVar Date \f "yyyyMMdd"
 90
        0
 97
        0
 91
       63
 92
        0
 94
        8
 95
        2
 96
        0
300

 93
        1
  6
Variable
 93
        2
 90
        4
  1
Date
 94
        0
300

302

304
ACVALUE_END
  7
ACFD_FIELD_VALUE
 93
        6
 90
        8
 92
       16
310
E2070100000019000E00270021000000
 94
        0
300
yyyyMMdd
302

304
ACVALUE_END
301
20180125
 98
        8
  0
CELLSTYLEMAP
  5
1BFE9
102
{ACAD_REACTORS
330
1BFE8
102
}
330
1BFE8
100
AcDbCellStyleMap
 90
        3
300
CELLSTYLE
  1
TABLEFORMAT_BEGIN
 90
        5
170
     1
 91
        0
 92
    32768
 62
   257
 93
        1
300
CONTENTFORMAT
  1
CONTENTFORMAT_BEGIN
 90
        0
 91
        0
 92
        4
 93
        0
300

 40
0.0
140
1.0
 94
        5
 62
     0
340
17
144
6.0
309
CONTENTFORMAT_END
171
     1
301
MARGIN
  1
CELLMARGIN_BEGIN
 40
0.06
 40
0.06
 40
0.06
 40
0.06
 40
0.18
 40
0.18
309
CELLMARGIN_END
 94
        6
 95
        1
302
GRIDFORMAT
  1
GRIDFORMAT_BEGIN
 90
        0
 91
        1
 62
     0
 92
       -2
340
0
 93
        0
 40
0.045
309
GRIDFORMAT_END
 95
        2
302
GRIDFORMAT
  1
GRIDFORMAT_BEGIN
 90
        0
 91
        1
 62
     0
 92
       -2
340
0
 93
        0
 40
0.045
309
GRIDFORMAT_END
 95
        4
302
GRIDFORMAT
  1
GRIDFORMAT_BEGIN
 90
        0
 91
        1
 62
     0
 92
       -2
340
0
 93
        0
 40
0.045
309
GRIDFORMAT_END
 95
        8
302
GRIDFORMAT
  1
GRIDFORMAT_BEGIN
 90
        0
 91
        1
 62
     0
 92
       -2
340
0
 93
        0
 40
0.045
309
GRIDFORMAT_END
 95
       16
302
GRIDFORMAT
  1
GRIDFORMAT_BEGIN
 90
        0
 91
        1
 62
     0
 92
       -2
340
0
 93
        0
 40
0.045
309
GRIDFORMAT_END
 95
       32
302
GRIDFORMAT
  1
GRIDFORMAT_BEGIN
 90
        0
 91
        1
 62
     0
 92
       -2
340
0
 93
        0
 40
0.045
309
GRIDFORMAT_END
309
TABLEFORMAT_END
  1
CELLSTYLE_BEGIN
 90
        1
 91
        1
300
_TITLE
309
CELLSTYLE_END
300
CELLSTYLE
  1
TABLEFORMAT_BEGIN
 90
        5
170
     1
 91
        0
 92
        0
 62
   257
 93
        1
300
CONTENTFORMAT
  1
CONTENTFORMAT_BEGIN
 90
        0
 91
        0
 92
        4
 93
        0
300

 40
0.0
140
1.0
 94
        5
 62
     0
340
17
144
4.5
309
CONTENTFORMAT_END
171
     1
301
MARGIN
  1
CELLMARGIN_BEGIN
 40
0.06
 40
0.06
 40
0.06
 40
0.06
 40
0.18
 40
0.18
309
CELLMARGIN_END
 94
        6
 95
        1
302
GRIDFORMAT
  1
GRIDFORMAT_BEGIN
 90
        0
 91
        1
 62
     0
 92
       -2
340
0
 93
        0
 40
0.045
309
GRIDFORMAT_END
 95
        2
302
GRIDFORMAT
  1
GRIDFORMAT_BEGIN
 90
        0
 91
        1
 62
     0
 92
       -2
340
0
 93
        0
 40
0.045
309
GRIDFORMAT_END
 95
        4
302
GRIDFORMAT
  1
GRIDFORMAT_BEGIN
 90
        0
 91
        1
 62
     0
 92
       -2
340
0
 93
        0
 40
0.045
309
GRIDFORMAT_END
 95
        8
302
GRIDFORMAT
  1
GRIDFORMAT_BEGIN
 90
        0
 91
        1
 62
     0
 92
       -2
340
0
 93
        0
 40
0.045
309
GRIDFORMAT_END
 95
       16
302
GRIDFORMAT
  1
GRIDFORMAT_BEGIN
 90
        0
 91
        1
 62
     0
 92
       -2
340
0
 93
        0
 40
0.045
309
GRIDFORMAT_END
 95
       32
302
GRIDFORMAT
  1
GRIDFORMAT_BEGIN
 90
        0
 91
        1
 62
     0
 92
       -2
340
0
 93
        0
 40
0.045
309
GRIDFORMAT_END
309
TABLEFORMAT_END
  1
CELLSTYLE_BEGIN
 90
        2
 91
        1
300
_HEADER
309
CELLSTYLE_END
300
CELLSTYLE
  1
TABLEFORMAT_BEGIN
 90
        5
170
     1
 91
        0
 92
        0
 62
   257
 93
        1
300
CONTENTFORMAT
  1
CONTENTFORMAT_BEGIN
 90
        0
 91
        0
 92
        4
 93
        0
300

 40
0.0
140
1.0
 94
        2
 62
     0
340
17
144
4.5
309
CONTENTFORMAT_END
171
     1
301
MARGIN
  1
CELLMARGIN_BEGIN
 40
0.06
 40
0.06
 40
0.06
 40
0.06
 40
0.18
 40
0.18
309
CELLMARGIN_END
 94
        6
 95
        1
302
GRIDFORMAT
  1
GRIDFORMAT_BEGIN
 90
        0
 91
        1
 62
     0
 92
       -2
340
0
 93
        0
 40
0.045
309
GRIDFORMAT_END
 95
        2
302
GRIDFORMAT
  1
GRIDFORMAT_BEGIN
 90
        0
 91
        1
 62
     0
 92
       -2
340
0
 93
        0
 40
0.045
309
GRIDFORMAT_END
 95
        4
302
GRIDFORMAT
  1
GRIDFORMAT_BEGIN
 90
        0
 91
        1
 62
     0
 92
       -2
340
0
 93
        0
 40
0.045
309
GRIDFORMAT_END
 95
        8
302
GRIDFORMAT
  1
GRIDFORMAT_BEGIN
 90
        0
 91
        1
 62
     0
 92
       -2
340
0
 93
        0
 40
0.045
309
GRIDFORMAT_END
 95
       16
302
GRIDFORMAT
  1
GRIDFORMAT_BEGIN
 90
        0
 91
        1
 62
     0
 92
       -2
340
0
 93
        0
 40
0.045
309
GRIDFORMAT_END
 95
       32
302
GRIDFORMAT
  1
GRIDFORMAT_BEGIN
 90
        0
 91
        1
 62
     0
 92
       -2
340
0
 93
        0
 40
0.045
309
GRIDFORMAT_END
309
TABLEFORMAT_END
  1
CELLSTYLE_BEGIN
 90
        3
 91
        2
300
_DATA
309
CELLSTYLE_END
  0
ENDSEC
  0
EOF
