  0
SECTION
  2
HEADER
  9
$ACADVER
  1
AC1021
  9
$ACADMAINTVER
 70
    25
  9
$DWGCODEPAGE
  3
ANSI_932
  9
$LASTSAVEDBY
  1
T-HOWE-PC
  9
$INSBASE
 10
0.0
 20
0.0
 30
0.0
  9
$EXTMIN
 10
0.0
 20
0.0
 30
-0.0000000000000071
  9
$EXTMAX
 10
420.0
 20
594.0
 30
0.0000000000000071
  9
$LIMMIN
 10
0.0
 20
0.0
  9
$LIMMAX
 10
420.0
 20
594.0
  9
$ORTHOMODE
 70
     0
  9
$REGENMODE
 70
     1
  9
$FILLMODE
 70
     1
  9
$QTEXTMODE
 70
     0
  9
$MIRRTEXT
 70
     1
  9
$LTSCALE
 40
1.0
  9
$ATTMODE
 70
     1
  9
$TEXTSIZE
 40
2.5
  9
$TRACEWID
 40
1.0
  9
$TEXTSTYLE
  7
ＭＳ ゴシック
  9
$CLAYER
  8
DIM
  9
$CELTYPE
  6
ByLayer
  9
$CECOLOR
 62
   256
  9
$CELTSCALE
 40
1.0
  9
$DISPSILH
 70
     0
  9
$DIMSCALE
 40
1.0
  9
$DIMASZ
 40
2.0
  9
$DIMEXO
 40
5.0
  9
$DIMDLI
 40
0.9999999999999999
  9
$DIMRND
 40
0.0
  9
$DIMDLE
 40
0.0
  9
$DIMEXE
 40
0.0
  9
$DIMTP
 40
0.0
  9
$DIMTM
 40
0.0
  9
$DIMTXT
 40
5.0
  9
$DIMCEN
 40
0.0
  9
$DIMTSZ
 40
0.0
  9
$DIMTOL
 70
     0
  9
$DIMLIM
 70
     0
  9
$DIMTIH
 70
     0
  9
$DIMTOH
 70
     0
  9
$DIMSE1
 70
     0
  9
$DIMSE2
 70
     0
  9
$DIMTAD
 70
     1
  9
$DIMZIN
 70
    11
  9
$DIMBLK
  1
DOT
  9
$DIMASO
 70
     1
  9
$DIMSHO
 70
     1
  9
$DIMPOST
  1
<>
  9
$DIMAPOST
  1
[]
  9
$DIMALT
 70
     0
  9
$DIMALTD
 70
     1
  9
$DIMALTF
 40
1.0
  9
$DIMLFAC
 40
1.0
  9
$DIMTOFL
 70
     0
  9
$DIMTVP
 40
0.0
  9
$DIMTIX
 70
     1
  9
$DIMSOXD
 70
     0
  9
$DIMSAH
 70
     0
  9
$DIMBLK1
  1

  9
$DIMBLK2
  1

  9
$DIMSTYLE
  2
tfrom線あり
  9
$DIMCLRD
 70
     0
  9
$DIMCLRE
 70
     0
  9
$DIMCLRT
 70
     0
  9
$DIMTFAC
 40
1.0
  9
$DIMGAP
 40
3.0
  9
$DIMJUST
 70
     0
  9
$DIMSD1
 70
     0
  9
$DIMSD2
 70
     0
  9
$DIMTOLJ
 70
     1
  9
$DIMTZIN
 70
    11
  9
$DIMALTZ
 70
    11
  9
$DIMALTTZ
 70
    11
  9
$DIMUPT
 70
     0
  9
$DIMDEC
 70
     0
  9
$DIMTDEC
 70
     1
  9
$DIMALTU
 70
     2
  9
$DIMALTTD
 70
     2
  9
$DIMTXSTY
  7
ＭＳ ゴシック
  9
$DIMAUNIT
 70
     0
  9
$DIMADEC
 70
     2
  9
$DIMALTRND
 40
0.0
  9
$DIMAZIN
 70
     0
  9
$DIMDSEP
 70
    46
  9
$DIMATFIT
 70
     0
  9
$DIMFRAC
 70
     2
  9
$DIMLDRBLK
  1
DOT
  9
$DIMLUNIT
 70
     2
  9
$DIMLWD
 70
    -2
  9
$DIMLWE
 70
    -2
  9
$DIMTMOVE
 70
     0
  9
$DIMFXL
 40
1.0
  9
$DIMFXLON
 70
     0
  9
$DIMJOGANG
 40
0.7853981633974483
  9
$DIMTFILL
 70
     0
  9
$DIMTFILLCLR
 70
     0
  9
$DIMARCSYM
 70
     0
  9
$DIMLTYPE
  6

  9
$DIMLTEX1
  6

  9
$DIMLTEX2
  6

  9
$LUNITS
 70
     2
  9
$LUPREC
 70
     0
  9
$SKETCHINC
 40
0.1
  9
$FILLETRAD
 40
0.0
  9
$AUNITS
 70
     0
  9
$AUPREC
 70
     0
  9
$MENU
  1
acad
  9
$ELEVATION
 40
0.0
  9
$PELEVATION
 40
0.0
  9
$THICKNESS
 40
0.0
  9
$LIMCHECK
 70
     0
  9
$CHAMFERA
 40
0.0
  9
$CHAMFERB
 40
0.0
  9
$CHAMFERC
 40
0.0
  9
$CHAMFERD
 40
0.0
  9
$SKPOLY
 70
     0
  9
$TDCREATE
 40
2447893.375
  9
$TDUCREATE
 40
0.0
  9
$TDUPDATE
 40
2459198.393775313
  9
$TDUUPDATE
 40
2459198.018775313
  9
$TDINDWG
 40
0.1551959606
  9
$TDUSRTIMER
 40
0.0164363773
  9
$USRTIMER
 70
     1
  9
$ANGBASE
 50
0.0
  9
$ANGDIR
 70
     0
  9
$PDMODE
 70
     1
  9
$PDSIZE
 40
-2.0
  9
$PLINEWID
 40
0.0
  9
$SPLFRAME
 70
     0
  9
$SPLINETYPE
 70
     6
  9
$SPLINESEGS
 70
     8
  9
$HANDSEED
  5
3F56
  9
$SURFTAB1
 70
     6
  9
$SURFTAB2
 70
     6
  9
$SURFTYPE
 70
     6
  9
$SURFU
 70
     6
  9
$SURFV
 70
     6
  9
$UCSBASE
  2

  9
$UCSNAME
  2

  9
$UCSORG
 10
0.0
 20
0.0
 30
0.0
  9
$UCSXDIR
 10
1.0
 20
0.0
 30
0.0
  9
$UCSYDIR
 10
0.0
 20
1.0
 30
0.0
  9
$UCSORTHOREF
  2

  9
$UCSORTHOVIEW
 70
     0
  9
$UCSORGTOP
 10
0.0
 20
0.0
 30
0.0
  9
$UCSORGBOTTOM
 10
0.0
 20
0.0
 30
0.0
  9
$UCSORGLEFT
 10
0.0
 20
0.0
 30
0.0
  9
$UCSORGRIGHT
 10
0.0
 20
0.0
 30
0.0
  9
$UCSORGFRONT
 10
0.0
 20
0.0
 30
0.0
  9
$UCSORGBACK
 10
0.0
 20
0.0
 30
0.0
  9
$PUCSBASE
  2

  9
$PUCSNAME
  2

  9
$PUCSORG
 10
0.0
 20
0.0
 30
0.0
  9
$PUCSXDIR
 10
1.0
 20
0.0
 30
0.0
  9
$PUCSYDIR
 10
0.0
 20
1.0
 30
0.0
  9
$PUCSORTHOREF
  2

  9
$PUCSORTHOVIEW
 70
     0
  9
$PUCSORGTOP
 10
0.0
 20
0.0
 30
0.0
  9
$PUCSORGBOTTOM
 10
0.0
 20
0.0
 30
0.0
  9
$PUCSORGLEFT
 10
0.0
 20
0.0
 30
0.0
  9
$PUCSORGRIGHT
 10
0.0
 20
0.0
 30
0.0
  9
$PUCSORGFRONT
 10
0.0
 20
0.0
 30
0.0
  9
$PUCSORGBACK
 10
0.0
 20
0.0
 30
0.0
  9
$USERI1
 70
     0
  9
$USERI2
 70
     0
  9
$USERI3
 70
     0
  9
$USERI4
 70
     0
  9
$USERI5
 70
     0
  9
$USERR1
 40
0.0
  9
$USERR2
 40
0.0
  9
$USERR3
 40
0.0
  9
$USERR4
 40
0.0
  9
$USERR5
 40
0.0
  9
$WORLDVIEW
 70
     1
  9
$SHADEDGE
 70
     3
  9
$SHADEDIF
 70
    70
  9
$TILEMODE
 70
     1
  9
$MAXACTVP
 70
    64
  9
$PINSBASE
 10
0.0
 20
0.0
 30
0.0
  9
$PLIMCHECK
 70
     0
  9
$PEXTMIN
 10
0.0
 20
0.0
 30
0.0
  9
$PEXTMAX
 10
0.0
 20
0.0
 30
0.0
  9
$PLIMMIN
 10
-7.5
 20
-20.0
  9
$PLIMMAX
 10
412.5
 20
277.0
  9
$UNITMODE
 70
     0
  9
$VISRETAIN
 70
     0
  9
$PLINEGEN
 70
     1
  9
$PSLTSCALE
 70
     0
  9
$TREEDEPTH
 70
  3020
  9
$CMLSTYLE
  2
Standard
  9
$CMLJUST
 70
     0
  9
$CMLSCALE
 40
1.0
  9
$PROXYGRAPHICS
 70
     0
  9
$MEASUREMENT
 70
     1
  9
$CELWEIGHT
370
    -1
  9
$ENDCAPS
280
     0
  9
$JOINSTYLE
280
     0
  9
$LWDISPLAY
290
     1
  9
$INSUNITS
 70
     4
  9
$HYPERLINKBASE
  1

  9
$STYLESHEET
  1

  9
$XEDIT
290
     1
  9
$CEPSNTYPE
380
     0
  9
$PSTYLEMODE
290
     1
  9
$FINGERPRINTGUID
  2

  9
$VERSIONGUID
  2

  9
$EXTNAMES
290
     1
  9
$PSVPSCALE
 40
0.0
  9
$OLESTARTUP
290
     0
  9
$SORTENTS
280
   127
  9
$INDEXCTL
280
     0
  9
$HIDETEXT
280
     1
  9
$XCLIPFRAME
290
     0
  9
$HALOGAP
280
     0
  9
$OBSCOLOR
 70
   257
  9
$OBSLTYPE
280
     0
  9
$INTERSECTIONDISPLAY
280
     0
  9
$INTERSECTIONCOLOR
 70
   257
  9
$DIMASSOC
280
     2
  9
$PROJECTNAME
  1

  9
$CAMERADISPLAY
290
     0
  9
$LENSLENGTH
 40
50.0
  9
$CAMERAHEIGHT
 40
0.0
  9
$STEPSPERSEC
 40
2.0
  9
$STEPSIZE
 40
6.0
  9
$3DDWFPREC
 40
2.0
  9
$PSOLWIDTH
 40
0.25
  9
$PSOLHEIGHT
 40
4.0
  9
$LOFTANG1
 40
1.570796326794897
  9
$LOFTANG2
 40
1.570796326794897
  9
$LOFTMAG1
 40
0.0
  9
$LOFTMAG2
 40
0.0
  9
$LOFTPARAM
 70
     7
  9
$LOFTNORMALS
280
     1
  9
$LATITUDE
 40
37.795
  9
$LONGITUDE
 40
-122.394
  9
$NORTHDIRECTION
 40
0.0
  9
$TIMEZONE
 70
 -8000
  9
$LIGHTGLYPHDISPLAY
280
     1
  9
$TILEMODELIGHTSYNCH
280
     1
  9
$SOLIDHIST
280
     1
  9
$SHOWHIST
280
     1
  9
$DWFFRAME
280
     2
  9
$DGNFRAME
280
     2
  9
$REALWORLDSCALE
290
     1
  9
$INTERFERECOLOR
 62
   256
  9
$CSHADOW
280
     0
  9
$SHADOWPLANELOCATION
 40
0.0
  0
ENDSEC
  0
SECTION
  2
CLASSES
  0
CLASS
  1
LWPOLYLINE
  2
AcDbPolyline
  3
ObjectDBX Classes
 90
        0
 91
        1
280
     0
281
     1
  0
CLASS
  1
IMAGE
  2
AcDbRasterImage
  3
ISM
 90
      127
 91
        4
280
     0
281
     1
  0
CLASS
  1
OLE2FRAME
  2
AcDbOle2Frame
  3
ObjectDBX Classes
 90
        0
 91
        1
280
     0
281
     1
  0
CLASS
  1
HATCH
  2
AcDbHatch
  3
ObjectDBX Classes
 90
        0
 91
        1
280
     0
281
     1
  0
CLASS
  1
DICTIONARYVAR
  2
AcDbDictionaryVar
  3
ObjectDBX Classes
 90
        0
 91
        3
280
     0
281
     0
  0
CLASS
  1
RASTERVARIABLES
  2
AcDbRasterVariables
  3
ISM
 90
        0
 91
        3
280
     0
281
     0
  0
CLASS
  1
IMAGEDEF
  2
AcDbRasterImageDef
  3
ISM
 90
        0
 91
        3
280
     0
281
     0
  0
CLASS
  1
IMAGEDEF_REACTOR
  2
AcDbRasterImageDefReactor
  3
ISM
 90
        1
 91
        3
280
     0
281
     0
  0
CLASS
  1
IDBUFFER
  2
AcDbIdBuffer
  3
ObjectDBX Classes
 90
        0
 91
        3
280
     0
281
     0
  0
CLASS
  1
SPATIAL_FILTER
  2
AcDbSpatialFilter
  3
ObjectDBX Classes
 90
        0
 91
        3
280
     0
281
     0
  0
CLASS
  1
XRECORD
  2
AcDbXrecord
  3
ObjectDBX Classes
 90
        0
 91
        1
280
     0
281
     0
  0
CLASS
  1
SORTENTSTABLE
  2
AcDbSortentsTable
  3
ObjectDBX Classes
 90
        0
 91
        3
280
     0
281
     0
  0
CLASS
  1
LAYER_INDEX
  2
AcDbLayerIndex
  3
ObjectDBX Classes
 90
        0
 91
        3
280
     0
281
     0
  0
CLASS
  1
SPATIAL_INDEX
  2
AcDbSpatialIndex
  3
AutoCAD 2000
 90
        0
 91
        3
280
     0
281
     0
  0
CLASS
  1
OBJECT_PTR
  2
CAseDLPNTableRecord
  3
ASE-LPNTableRecord
 90
        1
 91
        3
280
     0
281
     0
  0
CLASS
  1
LAYOUT
  2
AcDbLayout
  3
ObjectDBX Classes
 90
        0
 91
        1
280
     0
281
     0
  0
CLASS
  1
PLOTSETTINGS
  2
AcDbPlotSettings
  3
ObjectDBX Classes
 90
        0
 91
        3
280
     0
281
     0
  0
CLASS
  1
ACDBDICTIONARYWDFLT
  2
AcDbDictionaryWithDefault
  3
ObjectDBX Classes
 90
        0
 91
        3
280
     0
281
     0
  0
CLASS
  1
ACDBPLACEHOLDER
  2
AcDbPlaceHolder
  3
ObjectDBX Classes
 90
        0
 91
        1
280
     0
281
     0
  0
CLASS
  1
SCALE
  2
AcDbScale
  3
ObjectDBX Classes
 90
     1153
 91
        3
280
     0
281
     0
  0
CLASS
  1
MATERIAL
  2
AcDbMaterial
  3
ObjectDBX Classes
 90
     1153
 91
        3
280
     0
281
     0
  0
CLASS
  1
VISUALSTYLE
  2
AcDbVisualStyle
  3
ObjectDBX Classes
 90
     4095
 91
        3
280
     0
281
     0
  0
CLASS
  1
TABLESTYLE
  2
AcDbTableStyle
  3
ObjectDBX Classes
 90
     4095
 91
        3
280
     0
281
     0
  0
CLASS
  1
DIMASSOC
  2
AcDbDimAssoc
  3
"AcDbDimAssoc|Product Desc:     AcDim ARX App For Dimension|Company:          Autodesk, Inc.|WEB Address:      www.autodesk.com"
 90
        0
 91
        3
280
     0
281
     0
  0
CLASS
  1
CELLSTYLEMAP
  2
AcDbCellStyleMap
  3
ObjectDBX Classes
 90
     1152
 91
        3
280
     0
281
     0
  0
CLASS
  1
SUN
  2
AcDbSun
  3
SCENEOE
 90
     1153
 91
        3
280
     0
281
     0
  0
CLASS
  1
MLEADERSTYLE
  2
AcDbMLeaderStyle
  3
ACDB_MLEADERSTYLE_CLASS
 90
     4095
 91
        3
280
     0
281
     0
  0
CLASS
  1
FIELD
  2
AcDbField
  3
ObjectDBX Classes
 90
     1152
 91
        3
280
     0
281
     0
  0
CLASS
  1
FIELDLIST
  2
AcDbFieldList
  3
ObjectDBX Classes
 90
     1152
 91
        3
280
     0
281
     0
  0
ENDSEC
  0
SECTION
  2
TABLES
  0
TABLE
  2
VPORT
  5
7
330
0
100
AcDbSymbolTable
 70
     1
  0
VPORT
  5
15
330
7
100
AcDbSymbolTableRecord
100
AcDbViewportTableRecord
  2
*ACTIVE
 70
     0
 10
0.0
 20
0.0
 11
1.0
 21
1.0
 12
301.0201356709003
 22
223.401285469834
 13
0.0
 23
0.0
 14
1.0
 24
1.0
 15
0.0
 25
0.0
 16
0.0
 26
0.0
 36
1.0
 17
-91.02013567090034
 27
73.59871453016603
 37
-46.86809886248109
 40
605.88
 41
2.333333333333333
 42
50.0
 43
0.0
 44
0.0
 50
0.0
 51
0.0
 71
    16
 72
  2000
 73
     1
 74
     1
 75
     0
 76
     0
 77
     0
 78
     0
281
     0
 65
     1
110
0.0
120
0.0
130
0.0
111
1.0
121
0.0
131
0.0
112
0.0
122
1.0
132
0.0
 79
     0
146
0.0
348
26C
 60
     3
 61
     5
292
     1
282
     1
141
0.0
142
0.0
 63
   256
361
904
  0
ENDTAB
  0
TABLE
  2
LTYPE
  5
4
330
0
100
AcDbSymbolTable
 70
     3
  0
LTYPE
  5
11
330
4
100
AcDbSymbolTableRecord
100
AcDbLinetypeTableRecord
  2
ByBlock
 70
     0
  3

 72
    65
 73
     0
 40
0.0
  0
LTYPE
  5
12
330
4
100
AcDbSymbolTableRecord
100
AcDbLinetypeTableRecord
  2
ByLayer
 70
     0
  3

 72
    65
 73
     0
 40
0.0
  0
LTYPE
  5
13
330
4
100
AcDbSymbolTableRecord
100
AcDbLinetypeTableRecord
  2
Continuous
 70
     0
  3
Solid line
 72
    65
 73
     0
 40
0.0
  0
LTYPE
  5
D6C
330
4
100
AcDbSymbolTableRecord
100
AcDbLinetypeTableRecord
  2
BORDER
 70
     0
  3
Border __  __  . __  __  . __  __  . __  __  . 
 72
    65
 73
     6
 40
44.45
 49
12.7
 74
     0
 49
-6.35
 74
     0
 49
12.7
 74
     0
 49
-6.35
 74
     0
 49
0.0
 74
     0
 49
-6.35
 74
     0
  0
LTYPE
  5
D6D
330
4
100
AcDbSymbolTableRecord
100
AcDbLinetypeTableRecord
  2
HIDDEN
 70
     0
  3
Hidden _ _ _ _ _ _ _ _ _ _ _ _ _ _ _ _ _ _ _ _ 
 72
    65
 73
     2
 40
9.524999999999999
 49
6.35
 74
     0
 49
-3.175
 74
     0
  0
ENDTAB
  0
TABLE
  2
LAYER
  5
2
102
{ACAD_XDICTIONARY
360
2E1
102
}
330
0
100
AcDbSymbolTable
 70
     8
  0
LAYER
  5
14
330
2
100
AcDbSymbolTableRecord
100
AcDbLayerTableRecord
  2
0
 70
     0
 62
     7
  6
Continuous
370
    -3
390
1D
347
266
  0
LAYER
  5
4B
330
2
100
AcDbSymbolTableRecord
100
AcDbLayerTableRecord
  2
TEMPLATE
 70
     0
 62
     7
  6
Continuous
370
    20
390
1D
347
266
  0
LAYER
  5
4C
330
2
100
AcDbSymbolTableRecord
100
AcDbLayerTableRecord
  2
DIM
 70
     0
 62
     3
  6
Continuous
370
    13
390
1D
347
266
  0
LAYER
  5
4D
330
2
100
AcDbSymbolTableRecord
100
AcDbLayerTableRecord
  2
MODEL
 70
     0
 62
     7
  6
Continuous
370
    20
390
1D
347
266
  0
LAYER
  5
88C
330
2
100
AcDbSymbolTableRecord
100
AcDbLayerTableRecord
  2
HIDDEN
 70
     0
 62
     8
  6
HIDDEN
370
    20
390
1D
347
266
1001
AcAecLayerStandard
1000

1000

  0
LAYER
  5
D6B
330
2
100
AcDbSymbolTableRecord
100
AcDbLayerTableRecord
  2
BORDER
 70
     0
 62
     4
  6
BORDER
290
     0
370
    20
390
1D
347
266
1001
AcAecLayerStandard
1000

1000

  0
LAYER
  5
D8C
330
2
100
AcDbSymbolTableRecord
100
AcDbLayerTableRecord
  2
Defpoints
 70
     0
 62
     7
  6
Continuous
290
     0
370
    -3
390
1D
347
266
  0
LAYER
  5
3653
330
2
100
AcDbSymbolTableRecord
100
AcDbLayerTableRecord
  2
Standard
 70
     0
 62
     7
  6
Continuous
370
    -3
390
1D
347
266
  0
ENDTAB
  0
TABLE
  2
STYLE
  5
3
330
0
100
AcDbSymbolTable
 70
     2
  0
STYLE
  5
17
330
3
100
AcDbSymbolTableRecord
100
AcDbTextStyleTableRecord
  2
Standard
 70
     0
 40
0.0
 41
1.0
 50
0.0
 71
     0
 42
2.5
  3
txt
  4
BIGFONT.SHX
  0
STYLE
  5
39
330
3
100
AcDbSymbolTableRecord
100
AcDbTextStyleTableRecord
  2
ＭＳ ゴシック
 70
     0
 40
0.0
 41
1.0
 50
0.0
 71
     0
 42
2.5
  3
msgothic.ttc
  4
ＭＳ ゴシック
1001
ACAD
1000
ＭＳ ゴシック
1071
        0
  0
ENDTAB
  0
TABLE
  2
VIEW
  5
5
330
0
100
AcDbSymbolTable
 70
     0
  0
ENDTAB
  0
TABLE
  2
UCS
  5
6
330
0
100
AcDbSymbolTable
 70
     0
  0
ENDTAB
  0
TABLE
  2
APPID
  5
8
330
0
100
AcDbSymbolTable
 70
     4
  0
APPID
  5
16
330
8
100
AcDbSymbolTableRecord
100
AcDbRegAppTableRecord
  2
ACAD
 70
     0
  0
APPID
  5
7AC
330
8
100
AcDbSymbolTableRecord
100
AcDbRegAppTableRecord
  2
AcAecLayerStandard
 70
     0
  0
APPID
  5
E29
330
8
100
AcDbSymbolTableRecord
100
AcDbRegAppTableRecord
  2
ACAD_MLEADERVER
 70
     0
  0
APPID
  5
3F18
330
8
100
AcDbSymbolTableRecord
100
AcDbRegAppTableRecord
  2
PLOTTRANSPARENCY
 70
     0
  0
ENDTAB
  0
TABLE
  2
DIMSTYLE
  5
9
330
0
100
AcDbSymbolTable
 70
     3
100
AcDbDimStyleTable
  0
DIMSTYLE
105
18
330
9
100
AcDbSymbolTableRecord
100
AcDbDimStyleTableRecord
  2
Standard
 70
     0
178
     0
340
17
  0
DIMSTYLE
105
57
102
{ACAD_REACTORS
330
3E64
330
3F1C
102
}
330
9
100
AcDbSymbolTableRecord
100
AcDbDimStyleTableRecord
  2
tfrom線あり
 70
     0
  3
<>
  4
[]
 41
2.0
 42
5.0
 43
0.9999999999999999
 44
0.0
 73
     0
 74
     0
 77
     1
 78
    11
140
5.0
141
0.0
143
1.0
147
3.0
171
     1
174
     1
178
     0
179
     2
271
     0
272
     1
276
     2
284
    11
285
    11
286
    11
289
     0
340
39
341
4E
342
4E
  0
DIMSTYLE
105
3D4C
330
9
100
AcDbSymbolTableRecord
100
AcDbDimStyleTableRecord
  2
ISO-25
 70
     0
 41
2.5
 42
0.625
 43
3.75
 44
1.25
 73
     0
 74
     0
 77
     1
 78
     8
140
2.5
141
2.5
143
0.03937007874016
147
0.625
171
     3
172
     1
178
     0
271
     2
272
     2
274
     3
278
    44
283
     0
284
     8
340
17
  0
ENDTAB
  0
TABLE
  2
BLOCK_RECORD
  5
1
330
0
100
AcDbSymbolTable
 70
    23
  0
BLOCK_RECORD
  5
A
102
{ACAD_XDICTIONARY
360
3D3D
102
}
330
1
100
AcDbSymbolTableRecord
100
AcDbBlockTableRecord
  2
*MODEL_SPACE
340
20
 70
     0
280
     1
281
     0
  0
BLOCK_RECORD
  5
B
330
1
100
AcDbSymbolTableRecord
100
AcDbBlockTableRecord
  2
*PAPER_SPACE
340
21
 70
     0
280
     1
281
     0
  0
BLOCK_RECORD
  5
4E
330
1
100
AcDbSymbolTableRecord
100
AcDbBlockTableRecord
  2
_DOT
340
0
102
{BLKREFS
331
3B8C
331
3B8D
331
3B98
331
3B99
331
3BA4
331
3BA5
331
3BB0
331
3BB1
331
3BBC
331
3BBD
331
3BC8
331
3BC9
331
3BD4
331
3BD5
331
3CFD
331
3CFE
331
3D0C
331
3D0D
331
3D2A
331
3D2B
331
3D36
331
3D37
331
3E4F
331
3E50
331
3E5E
331
3E5F
331
3E6B
331
3E6C
331
3E7A
331
3E7B
331
3E8A
331
3E8B
331
3EFD
331
3EFE
331
3F0C
331
3F0D
331
3F25
331
3F26
331
3F3A
331
3F39
331
3F48
331
3F47
102
}
 70
     0
280
     1
281
     0
  0
BLOCK_RECORD
  5
68D
330
1
100
AcDbSymbolTableRecord
100
AcDbBlockTableRecord
  2
block 2
340
0
102
{BLKREFS
331
68C
331
1343
102
}
 70
     0
280
     1
281
     0
  0
BLOCK_RECORD
  5
3B86
330
1
100
AcDbSymbolTableRecord
100
AcDbBlockTableRecord
  2
*D2
340
0
 70
     0
280
     1
281
     0
  0
BLOCK_RECORD
  5
3B92
330
1
100
AcDbSymbolTableRecord
100
AcDbBlockTableRecord
  2
*D3
340
0
 70
     0
280
     1
281
     0
  0
BLOCK_RECORD
  5
3B9E
330
1
100
AcDbSymbolTableRecord
100
AcDbBlockTableRecord
  2
*D4
340
0
 70
     0
280
     1
281
     0
  0
BLOCK_RECORD
  5
3BAA
330
1
100
AcDbSymbolTableRecord
100
AcDbBlockTableRecord
  2
*D5
340
0
 70
     0
280
     1
281
     0
  0
BLOCK_RECORD
  5
3BB6
330
1
100
AcDbSymbolTableRecord
100
AcDbBlockTableRecord
  2
*D6
340
0
 70
     0
280
     1
281
     0
  0
BLOCK_RECORD
  5
3BC2
330
1
100
AcDbSymbolTableRecord
100
AcDbBlockTableRecord
  2
*D7
340
0
 70
     0
280
     1
281
     0
  0
BLOCK_RECORD
  5
3BCE
330
1
100
AcDbSymbolTableRecord
100
AcDbBlockTableRecord
  2
*D8
340
0
 70
     0
280
     1
281
     0
  0
BLOCK_RECORD
  5
3CF8
330
1
100
AcDbSymbolTableRecord
100
AcDbBlockTableRecord
  2
*D9
340
0
 70
     0
280
     1
281
     0
  0
BLOCK_RECORD
  5
3D07
330
1
100
AcDbSymbolTableRecord
100
AcDbBlockTableRecord
  2
*D10
340
0
 70
     0
280
     1
281
     0
  0
BLOCK_RECORD
  5
3D24
330
1
100
AcDbSymbolTableRecord
100
AcDbBlockTableRecord
  2
*D11
340
0
 70
     0
280
     1
281
     0
  0
BLOCK_RECORD
  5
3D30
330
1
100
AcDbSymbolTableRecord
100
AcDbBlockTableRecord
  2
*D12
340
0
 70
     0
280
     1
281
     0
  0
BLOCK_RECORD
  5
3E49
330
1
100
AcDbSymbolTableRecord
100
AcDbBlockTableRecord
  2
*D13
340
0
 70
     0
280
     1
281
     0
  0
BLOCK_RECORD
  5
3E58
330
1
100
AcDbSymbolTableRecord
100
AcDbBlockTableRecord
  2
*D14
340
0
 70
     0
280
     1
281
     0
  0
BLOCK_RECORD
  5
3E65
330
1
100
AcDbSymbolTableRecord
100
AcDbBlockTableRecord
  2
*D15
340
0
 70
     0
280
     1
281
     0
  0
BLOCK_RECORD
  5
3E74
330
1
100
AcDbSymbolTableRecord
100
AcDbBlockTableRecord
  2
*D16
340
0
 70
     0
280
     1
281
     0
  0
BLOCK_RECORD
  5
3E84
330
1
100
AcDbSymbolTableRecord
100
AcDbBlockTableRecord
  2
*D17
340
0
 70
     0
280
     1
281
     0
  0
BLOCK_RECORD
  5
3EF7
330
1
100
AcDbSymbolTableRecord
100
AcDbBlockTableRecord
  2
*D18
340
0
 70
     0
280
     1
281
     0
  0
BLOCK_RECORD
  5
3F06
330
1
100
AcDbSymbolTableRecord
100
AcDbBlockTableRecord
  2
*D19
340
0
 70
     0
280
     1
281
     0
  0
BLOCK_RECORD
  5
3F1F
330
1
100
AcDbSymbolTableRecord
100
AcDbBlockTableRecord
  2
*D20
340
0
 70
     0
280
     1
281
     0
  0
BLOCK_RECORD
  5
3F33
330
1
100
AcDbSymbolTableRecord
100
AcDbBlockTableRecord
  2
*D21
340
0
 70
     0
280
     1
281
     0
  0
BLOCK_RECORD
  5
3F41
330
1
100
AcDbSymbolTableRecord
100
AcDbBlockTableRecord
  2
*D22
340
0
 70
     0
280
     1
281
     0
  0
ENDTAB
  0
ENDSEC
  0
SECTION
  2
BLOCKS
  0
BLOCK
  5
D
330
A
100
AcDbEntity
  8
0
390
1D
100
AcDbBlockBegin
  2
*MODEL_SPACE
 70
     0
 10
0.0
 20
0.0
 30
0.0
  3
*MODEL_SPACE
  1
*MODEL_SPACE
  0
ENDBLK
  5
E
330
A
100
AcDbEntity
  8
0
390
1D
100
AcDbBlockEnd
  0
BLOCK
  5
F
330
B
100
AcDbEntity
 67
     1
  8
0
390
1D
100
AcDbBlockBegin
  2
*PAPER_SPACE
 70
     0
 10
0.0
 20
0.0
 30
0.0
  3
*PAPER_SPACE
  1
*PAPER_SPACE
  0
ENDBLK
  5
10
330
B
100
AcDbEntity
 67
     1
  8
0
390
1D
100
AcDbBlockEnd
  0
BLOCK
  5
2462
330
4E
100
AcDbEntity
  8
0
390
1D
100
AcDbBlockBegin
  2
_DOT
 70
     0
 10
0.0
 20
0.0
 30
0.0
  3
_DOT
  1
_DOT
  0
POLYLINE
  5
2464
330
4E
100
AcDbEntity
  8
0
  6
ByBlock
 62
     0
370
    -2
390
1D
100
AcDb2dPolyline
 66
     1
 10
0.0
 20
0.0
 30
0.0
 70
     1
 40
0.5
 41
0.5
  0
VERTEX
  5
2465
330
2464
100
AcDbEntity
  8
0
  6
ByBlock
 62
     0
370
    -2
390
1D
100
AcDbVertex
100
AcDb2dVertex
 10
-0.25
 20
0.0
 30
0.0
 42
1.0
  0
VERTEX
  5
2466
330
2464
100
AcDbEntity
  8
0
  6
ByBlock
 62
     0
370
    -2
390
1D
100
AcDbVertex
100
AcDb2dVertex
 10
0.25
 20
0.0
 30
0.0
 42
1.0
  0
SEQEND
  5
2467
330
2464
100
AcDbEntity
  8
0
390
1D
  0
LINE
  5
2468
330
4E
100
AcDbEntity
  8
0
  6
ByBlock
 62
     0
370
    -2
390
1D
100
AcDbLine
 10
-0.5
 20
0.0
 30
0.0
 11
-1.0
 21
0.0
 31
0.0
  0
ENDBLK
  5
2469
330
4E
100
AcDbEntity
  8
0
390
1D
100
AcDbBlockEnd
  0
BLOCK
  5
68E
330
68D
100
AcDbEntity
  8
0
100
AcDbBlockBegin
  2
block 2
 70
     0
 10
0.0
 20
0.0
 30
0.0
  3
block 2
  1
block 2
  0
ENDBLK
  5
6B0
330
68D
100
AcDbEntity
  8
0
100
AcDbBlockEnd
  0
BLOCK
  5
3B87
330
3B86
100
AcDbEntity
  8
0
100
AcDbBlockBegin
  2
*D2
 70
     1
 10
0.0
 20
0.0
 30
0.0
  3
*D2
  1

  0
LINE
  5
3B89
330
3B86
100
AcDbEntity
  8
DIM
 62
     0
370
    -2
100
AcDbLine
 10
120.4165303244005
 20
319.2077009873063
 30
0.0
 11
80.41653032440028
 21
319.2077009873061
 31
0.0
  0
LINE
  5
3B8A
330
3B86
100
AcDbEntity
  8
DIM
 62
     0
370
    -2
100
AcDbLine
 10
95.2823248987792
 20
182.2077009873063
 30
0.0
 11
80.41653032440077
 21
182.2077009873062
 31
0.0
  0
LINE
  5
3B8B
330
3B86
100
AcDbEntity
  8
DIM
 62
     0
370
    -2
100
AcDbLine
 10
80.41653032440028
 20
317.2077009873061
 30
0.0
 11
80.41653032440077
 21
184.2077009873062
 31
0.0
  0
INSERT
  5
3B8C
330
3B86
100
AcDbEntity
  8
DIM
 62
     0
370
    -2
100
AcDbBlockReference
  2
_DOT
 10
80.41653032440028
 20
319.2077009873061
 30
0.0
 41
2.0
 42
2.0
 43
2.0
 50
90.0000000000002
  0
INSERT
  5
3B8D
330
3B86
100
AcDbEntity
  8
DIM
 62
     0
370
    -2
100
AcDbBlockReference
  2
_DOT
 10
80.41653032440077
 20
182.2077009873062
 30
0.0
 41
2.0
 42
2.0
 43
2.0
 50
270.0000000000002
  0
MTEXT
  5
3B8E
330
3B86
100
AcDbEntity
  8
DIM
 62
     0
 48
0.05
100
AcDbMText
 10
72.41653032440053
 20
250.7077009873063
 30
0.0
 40
5.0
 41
0.0
 46
0.0
 71
     2
 72
     1
  1
\A1;137
  7
ＭＳ ゴシック
 11
-3.526781462166923E-15
 21
1.0
 31
0.0
 73
     1
 44
1.0
  0
POINT
  5
3B8F
330
3B86
100
AcDbEntity
  8
Defpoints
 62
     0
100
AcDbPoint
 10
125.4165303244005
 20
319.2077009873063
 30
0.0
  0
POINT
  5
3B90
330
3B86
100
AcDbEntity
  8
Defpoints
 62
     0
100
AcDbPoint
 10
100.2823248987792
 20
182.2077009873063
 30
0.0
  0
POINT
  5
3B91
330
3B86
100
AcDbEntity
  8
Defpoints
 62
     0
100
AcDbPoint
 10
80.41653032440077
 20
182.2077009873062
 30
0.0
  0
ENDBLK
  5
3B88
330
3B86
100
AcDbEntity
  8
0
100
AcDbBlockEnd
  0
BLOCK
  5
3B93
330
3B92
100
AcDbEntity
  8
0
100
AcDbBlockBegin
  2
*D3
 70
     1
 10
0.0
 20
0.0
 30
0.0
  3
*D3
  1

  0
LINE
  5
3B95
330
3B92
100
AcDbEntity
  8
DIM
 62
     0
370
    -2
100
AcDbLine
 10
100.4165303244005
 20
456.7854077805792
 30
0.0
 11
100.4165303244005
 21
469.9574301222169
 31
0.0
  0
LINE
  5
3B96
330
3B92
100
AcDbEntity
  8
DIM
 62
     0
370
    -2
100
AcDbLine
 10
172.4165303244005
 20
456.7854077805792
 30
0.0
 11
172.4165303244005
 21
469.9574301222169
 31
0.0
  0
LINE
  5
3B97
330
3B92
100
AcDbEntity
  8
DIM
 62
     0
370
    -2
100
AcDbLine
 10
102.4165303244005
 20
469.9574301222169
 30
0.0
 11
170.4165303244005
 21
469.9574301222169
 31
0.0
  0
INSERT
  5
3B98
330
3B92
100
AcDbEntity
  8
DIM
 62
     0
370
    -2
100
AcDbBlockReference
  2
_DOT
 10
100.4165303244005
 20
469.9574301222169
 30
0.0
 41
2.0
 42
2.0
 43
2.0
 50
180.0
  0
INSERT
  5
3B99
330
3B92
100
AcDbEntity
  8
DIM
 62
     0
370
    -2
100
AcDbBlockReference
  2
_DOT
 10
172.4165303244005
 20
469.9574301222169
 30
0.0
 41
2.0
 42
2.0
 43
2.0
  0
MTEXT
  5
3B9A
330
3B92
100
AcDbEntity
  8
DIM
 62
     0
 48
0.05
100
AcDbMText
 10
136.4165303244005
 20
477.9574301222169
 30
0.0
 40
5.0
 41
0.0
 46
0.0
 71
     2
 72
     1
  1
\A1;72
  7
ＭＳ ゴシック
 73
     1
 44
1.0
  0
POINT
  5
3B9B
330
3B92
100
AcDbEntity
  8
Defpoints
 62
     0
100
AcDbPoint
 10
100.4165303244005
 20
451.7854077805792
 30
0.0
  0
POINT
  5
3B9C
330
3B92
100
AcDbEntity
  8
Defpoints
 62
     0
100
AcDbPoint
 10
172.4165303244005
 20
451.7854077805792
 30
0.0
  0
POINT
  5
3B9D
330
3B92
100
AcDbEntity
  8
Defpoints
 62
     0
100
AcDbPoint
 10
172.4165303244005
 20
469.9574301222169
 30
0.0
  0
ENDBLK
  5
3B94
330
3B92
100
AcDbEntity
  8
0
100
AcDbBlockEnd
  0
BLOCK
  5
3B9F
330
3B9E
100
AcDbEntity
  8
0
100
AcDbBlockBegin
  2
*D4
 70
     1
 10
0.0
 20
0.0
 30
0.0
  3
*D4
  1

  0
LINE
  5
3BA1
330
3B9E
100
AcDbEntity
  8
DIM
 62
     0
370
    -2
100
AcDbLine
 10
95.4165303244005
 20
448.3104475998533
 30
0.0
 11
80.41653032440041
 21
448.3104475998533
 31
0.0
  0
LINE
  5
3BA2
330
3B9E
100
AcDbEntity
  8
DIM
 62
     0
370
    -2
100
AcDbLine
 10
120.4165303244005
 20
380.0604475998529
 30
0.0
 11
80.41653032440065
 21
380.0604475998528
 31
0.0
  0
LINE
  5
3BA3
330
3B9E
100
AcDbEntity
  8
DIM
 62
     0
370
    -2
100
AcDbLine
 10
80.41653032440041
 20
446.3104475998533
 30
0.0
 11
80.41653032440065
 21
382.0604475998528
 31
0.0
  0
INSERT
  5
3BA4
330
3B9E
100
AcDbEntity
  8
DIM
 62
     0
370
    -2
100
AcDbBlockReference
  2
_DOT
 10
80.41653032440041
 20
448.3104475998533
 30
0.0
 41
2.0
 42
2.0
 43
2.0
 50
90.0000000000002
  0
INSERT
  5
3BA5
330
3B9E
100
AcDbEntity
  8
DIM
 62
     0
370
    -2
100
AcDbBlockReference
  2
_DOT
 10
80.41653032440065
 20
380.0604475998528
 30
0.0
 41
2.0
 42
2.0
 43
2.0
 50
270.0000000000002
  0
MTEXT
  5
3BA6
330
3B9E
100
AcDbEntity
  8
DIM
 62
     0
 48
0.05
100
AcDbMText
 10
72.41653032440053
 20
414.1854475998531
 30
0.0
 40
5.0
 41
0.0
 46
0.0
 71
     2
 72
     1
  1
\A1;68
  7
ＭＳ ゴシック
 11
-3.539700075581425E-15
 21
1.0
 31
0.0
 73
     1
 44
1.0
  0
POINT
  5
3BA7
330
3B9E
100
AcDbEntity
  8
Defpoints
 62
     0
100
AcDbPoint
 10
100.4165303244005
 20
448.3104475998533
 30
0.0
  0
POINT
  5
3BA8
330
3B9E
100
AcDbEntity
  8
Defpoints
 62
     0
100
AcDbPoint
 10
125.4165303244005
 20
380.0604475998529
 30
0.0
  0
POINT
  5
3BA9
330
3B9E
100
AcDbEntity
  8
Defpoints
 62
     0
100
AcDbPoint
 10
80.41653032440065
 20
380.0604475998528
 30
0.0
  0
ENDBLK
  5
3BA0
330
3B9E
100
AcDbEntity
  8
0
100
AcDbBlockEnd
  0
BLOCK
  5
3BAB
330
3BAA
100
AcDbEntity
  8
0
100
AcDbBlockBegin
  2
*D5
 70
     1
 10
0.0
 20
0.0
 30
0.0
  3
*D5
  1

  0
LINE
  5
3BAD
330
3BAA
100
AcDbEntity
  8
DIM
 62
     0
370
    -2
100
AcDbLine
 10
125.4165303244005
 20
375.0604475998529
 30
0.0
 11
125.4165303244005
 21
361.7949884833052
 31
0.0
  0
LINE
  5
3BAE
330
3BAA
100
AcDbEntity
  8
DIM
 62
     0
370
    -2
100
AcDbLine
 10
147.4165303244005
 20
375.0604475998529
 30
0.0
 11
147.4165303244005
 21
361.7949884833052
 31
0.0
  0
LINE
  5
3BAF
330
3BAA
100
AcDbEntity
  8
DIM
 62
     0
370
    -2
100
AcDbLine
 10
127.4165303244005
 20
361.7949884833052
 30
0.0
 11
145.4165303244005
 21
361.7949884833052
 31
0.0
  0
INSERT
  5
3BB0
330
3BAA
100
AcDbEntity
  8
DIM
 62
     0
370
    -2
100
AcDbBlockReference
  2
_DOT
 10
125.4165303244005
 20
361.7949884833052
 30
0.0
 41
2.0
 42
2.0
 43
2.0
 50
180.0
  0
INSERT
  5
3BB1
330
3BAA
100
AcDbEntity
  8
DIM
 62
     0
370
    -2
100
AcDbBlockReference
  2
_DOT
 10
147.4165303244005
 20
361.7949884833052
 30
0.0
 41
2.0
 42
2.0
 43
2.0
  0
MTEXT
  5
3BB2
330
3BAA
100
AcDbEntity
  8
DIM
 62
     0
 48
0.05
100
AcDbMText
 10
136.4165303244005
 20
369.7949884833052
 30
0.0
 40
5.0
 41
0.0
 46
0.0
 71
     2
 72
     1
  1
\A1;22
  7
ＭＳ ゴシック
 73
     1
 44
1.0
  0
POINT
  5
3BB3
330
3BAA
100
AcDbEntity
  8
Defpoints
 62
     0
100
AcDbPoint
 10
125.4165303244005
 20
380.0604475998529
 30
0.0
  0
POINT
  5
3BB4
330
3BAA
100
AcDbEntity
  8
Defpoints
 62
     0
100
AcDbPoint
 10
147.4165303244005
 20
380.0604475998529
 30
0.0
  0
POINT
  5
3BB5
330
3BAA
100
AcDbEntity
  8
Defpoints
 62
     0
100
AcDbPoint
 10
147.4165303244005
 20
361.7949884833052
 30
0.0
  0
ENDBLK
  5
3BAC
330
3BAA
100
AcDbEntity
  8
0
100
AcDbBlockEnd
  0
BLOCK
  5
3BB7
330
3BB6
100
AcDbEntity
  8
0
100
AcDbBlockBegin
  2
*D6
 70
     1
 10
0.0
 20
0.0
 30
0.0
  3
*D6
  1

  0
LINE
  5
3BB9
330
3BB6
100
AcDbEntity
  8
DIM
 62
     0
370
    -2
100
AcDbLine
 10
176.6454837165862
 20
212.2077009873064
 30
0.0
 11
193.3903881603889
 21
212.2077009873063
 31
0.0
  0
LINE
  5
3BBA
330
3BB6
100
AcDbEntity
  8
DIM
 62
     0
370
    -2
100
AcDbLine
 10
176.6454837165862
 20
182.2077009873063
 30
0.0
 11
193.3903881603889
 21
182.2077009873062
 31
0.0
  0
LINE
  5
3BBB
330
3BB6
100
AcDbEntity
  8
DIM
 62
     0
370
    -2
100
AcDbLine
 10
193.3903881603889
 20
210.2077009873063
 30
0.0
 11
193.3903881603889
 21
184.2077009873062
 31
0.0
  0
INSERT
  5
3BBC
330
3BB6
100
AcDbEntity
  8
DIM
 62
     0
370
    -2
100
AcDbBlockReference
  2
_DOT
 10
193.3903881603889
 20
212.2077009873063
 30
0.0
 41
2.0
 42
2.0
 43
2.0
 50
89.99999999999982
  0
INSERT
  5
3BBD
330
3BB6
100
AcDbEntity
  8
DIM
 62
     0
370
    -2
100
AcDbBlockReference
  2
_DOT
 10
193.3903881603889
 20
182.2077009873062
 30
0.0
 41
2.0
 42
2.0
 43
2.0
 50
269.9999999999998
  0
MTEXT
  5
3BBE
330
3BB6
100
AcDbEntity
  8
DIM
 62
     0
 48
0.05
100
AcDbMText
 10
185.3903881603889
 20
197.2077009873064
 30
0.0
 40
5.0
 41
0.0
 46
0.0
 71
     2
 72
     1
  1
\A1;30
  7
ＭＳ ゴシック
 11
2.842170943040393E-15
 21
1.0
 31
0.0
 73
     1
 44
1.0
  0
POINT
  5
3BBF
330
3BB6
100
AcDbEntity
  8
Defpoints
 62
     0
100
AcDbPoint
 10
171.6454837165862
 20
212.2077009873064
 30
0.0
  0
POINT
  5
3BC0
330
3BB6
100
AcDbEntity
  8
Defpoints
 62
     0
100
AcDbPoint
 10
171.6454837165862
 20
182.2077009873063
 30
0.0
  0
POINT
  5
3BC1
330
3BB6
100
AcDbEntity
  8
Defpoints
 62
     0
100
AcDbPoint
 10
193.3903881603888
 20
182.2077009873062
 30
0.0
  0
ENDBLK
  5
3BB8
330
3BB6
100
AcDbEntity
  8
0
100
AcDbBlockEnd
  0
BLOCK
  5
3BC3
330
3BC2
100
AcDbEntity
  8
0
100
AcDbBlockBegin
  2
*D7
 70
     1
 10
0.0
 20
0.0
 30
0.0
  3
*D7
  1

  0
LINE
  5
3BC5
330
3BC2
100
AcDbEntity
  8
DIM
 62
     0
370
    -2
100
AcDbLine
 10
177.9901558885232
 20
438.06044758632
 30
0.0
 11
190.3107608583836
 21
438.06044758632
 31
0.0
  0
LINE
  5
3BC6
330
3BC2
100
AcDbEntity
  8
DIM
 62
     0
370
    -2
100
AcDbLine
 10
177.4165317216699
 20
448.31044758632
 30
0.0
 11
190.3107608583836
 21
448.31044758632
 31
0.0
  0
LINE
  5
3BC7
330
3BC2
100
AcDbEntity
  8
DIM
 62
     0
370
    -2
100
AcDbLine
 10
190.3107608583836
 20
440.06044758632
 30
0.0
 11
190.3107608583836
 21
446.31044758632
 31
0.0
  0
INSERT
  5
3BC8
330
3BC2
100
AcDbEntity
  8
DIM
 62
     0
370
    -2
100
AcDbBlockReference
  2
_DOT
 10
190.3107608583836
 20
438.06044758632
 30
0.0
 41
2.0
 42
2.0
 43
2.0
 50
270.0
  0
INSERT
  5
3BC9
330
3BC2
100
AcDbEntity
  8
DIM
 62
     0
370
    -2
100
AcDbBlockReference
  2
_DOT
 10
190.3107608583836
 20
448.31044758632
 30
0.0
 41
2.0
 42
2.0
 43
2.0
 50
90.0
  0
MTEXT
  5
3BCA
330
3BC2
100
AcDbEntity
  8
DIM
 62
     0
 48
0.05
100
AcDbMText
 10
182.3107608583836
 20
443.18544758632
 30
0.0
 40
5.0
 41
0.0
 46
0.0
 71
     2
 72
     1
  1
\A1;10
  7
ＭＳ ゴシック
 11
0.0
 21
1.0
 31
0.0
 73
     1
 44
1.0
  0
POINT
  5
3BCB
330
3BC2
100
AcDbEntity
  8
Defpoints
 62
     0
100
AcDbPoint
 10
172.9901558885232
 20
438.06044758632
 30
0.0
  0
POINT
  5
3BCC
330
3BC2
100
AcDbEntity
  8
Defpoints
 62
     0
100
AcDbPoint
 10
172.4165317216699
 20
448.31044758632
 30
0.0
  0
POINT
  5
3BCD
330
3BC2
100
AcDbEntity
  8
Defpoints
 62
     0
100
AcDbPoint
 10
190.3107608583836
 20
448.31044758632
 30
0.0
  0
ENDBLK
  5
3BC4
330
3BC2
100
AcDbEntity
  8
0
100
AcDbBlockEnd
  0
BLOCK
  5
3BCF
330
3BCE
100
AcDbEntity
  8
0
100
AcDbBlockBegin
  2
*D8
 70
     1
 10
0.0
 20
0.0
 30
0.0
  3
*D8
  1

  0
LINE
  5
3BD1
330
3BCE
100
AcDbEntity
  8
DIM
 62
     0
370
    -2
100
AcDbLine
 10
182.9901558885232
 20
438.06044758632
 30
0.0
 11
190.3107608583836
 21
438.06044758632
 31
0.0
  0
LINE
  5
3BD2
330
3BCE
100
AcDbEntity
  8
DIM
 62
     0
370
    -2
100
AcDbLine
 10
150.8011504144714
 20
380.0604500198659
 30
0.0
 11
190.3107608583836
 21
380.0604500198659
 31
0.0
  0
LINE
  5
3BD3
330
3BCE
100
AcDbEntity
  8
DIM
 62
     0
370
    -2
100
AcDbLine
 10
190.3107608583836
 20
436.06044758632
 30
0.0
 11
190.3107608583836
 21
382.0604500198659
 31
0.0
  0
INSERT
  5
3BD4
330
3BCE
100
AcDbEntity
  8
DIM
 62
     0
370
    -2
100
AcDbBlockReference
  2
_DOT
 10
190.3107608583836
 20
438.06044758632
 30
0.0
 41
2.0
 42
2.0
 43
2.0
 50
90.0
  0
INSERT
  5
3BD5
330
3BCE
100
AcDbEntity
  8
DIM
 62
     0
370
    -2
100
AcDbBlockReference
  2
_DOT
 10
190.3107608583836
 20
380.0604500198659
 30
0.0
 41
2.0
 42
2.0
 43
2.0
 50
270.0
  0
MTEXT
  5
3BD6
330
3BCE
100
AcDbEntity
  8
DIM
 62
     0
 48
0.05
100
AcDbMText
 10
184.8107608583836
 20
409.060448803093
 30
0.0
 40
5.0
 41
0.0
 46
0.0
 71
     5
 72
     1
  1
\A1;58
  7
ＭＳ ゴシック
 11
0.0
 21
1.0
 31
0.0
 73
     1
 44
1.0
  0
POINT
  5
3BD7
330
3BCE
100
AcDbEntity
  8
Defpoints
 62
     0
100
AcDbPoint
 10
177.9901558885232
 20
438.06044758632
 30
0.0
  0
POINT
  5
3BD8
330
3BCE
100
AcDbEntity
  8
Defpoints
 62
     0
100
AcDbPoint
 10
145.8011504144714
 20
380.0604500198659
 30
0.0
  0
POINT
  5
3BD9
330
3BCE
100
AcDbEntity
  8
Defpoints
 62
     0
100
AcDbPoint
 10
190.3107608583836
 20
380.0604500198659
 30
0.0
  0
ENDBLK
  5
3BD0
330
3BCE
100
AcDbEntity
  8
0
100
AcDbBlockEnd
  0
BLOCK
  5
3CF9
330
3CF8
100
AcDbEntity
  8
0
100
AcDbBlockBegin
  2
*D9
 70
     1
 10
0.0
 20
0.0
 30
0.0
  3
*D9
  1

  0
LINE
  5
3CFA
330
3CF8
100
AcDbEntity
  8
DIM
 62
     0
370
    -2
100
AcDbLine
 10
0.5
 20
67.50177050455927
 30
0.0
 11
0.5
 21
97.57489301398171
 31
0.0
  0
LINE
  5
3CFB
330
3CF8
100
AcDbEntity
  8
DIM
 62
     0
370
    -2
100
AcDbLine
 10
57.58899696048613
 20
67.50177050455927
 30
0.0
 11
57.58899696048613
 21
97.57489301398171
 31
0.0
  0
LINE
  5
3CFC
330
3CF8
100
AcDbEntity
  8
DIM
 62
     0
370
    -2
100
AcDbLine
 10
2.5
 20
97.57489301398171
 30
0.0
 11
55.58899696048613
 21
97.57489301398171
 31
0.0
  0
INSERT
  5
3CFD
330
3CF8
100
AcDbEntity
  8
DIM
 62
     0
370
    -2
100
AcDbBlockReference
  2
_DOT
 10
0.5
 20
97.57489301398171
 30
0.0
 41
2.0
 42
2.0
 43
2.0
 50
180.0
  0
INSERT
  5
3CFE
330
3CF8
100
AcDbEntity
  8
DIM
 62
     0
370
    -2
100
AcDbBlockReference
  2
_DOT
 10
57.58899696048613
 20
97.57489301398171
 30
0.0
 41
2.0
 42
2.0
 43
2.0
  0
MTEXT
  5
3CFF
330
3CF8
100
AcDbEntity
  8
DIM
 62
     0
100
AcDbMText
 10
29.04449848024305
 20
103.0748930139817
 30
0.0
 40
5.0
 41
0.0
 46
0.0
 71
     5
 72
     1
  1
\A1;57
  7
ＭＳ ゴシック
 73
     1
 44
1.0
  0
POINT
  5
3D00
330
3CF8
100
AcDbEntity
  8
Defpoints
 62
     0
100
AcDbPoint
 10
0.5
 20
62.50177050455927
 30
0.0
  0
POINT
  5
3D01
330
3CF8
100
AcDbEntity
  8
Defpoints
 62
     0
100
AcDbPoint
 10
57.58899696048613
 20
62.50177050455927
 30
0.0
  0
POINT
  5
3D02
330
3CF8
100
AcDbEntity
  8
Defpoints
 62
     0
100
AcDbPoint
 10
57.58899696048613
 20
97.57489301398171
 30
0.0
  0
ENDBLK
  5
3D03
330
3CF8
100
AcDbEntity
  8
0
100
AcDbBlockEnd
  0
BLOCK
  5
3D08
330
3D07
100
AcDbEntity
  8
0
100
AcDbBlockBegin
  2
*D10
 70
     1
 10
0.0
 20
0.0
 30
0.0
  3
*D10
  1

  0
LINE
  5
3D09
330
3D07
100
AcDbEntity
  8
DIM
 62
     0
370
    -2
100
AcDbLine
 10
10.10104278775087
 20
57.50177050455927
 30
0.0
 11
10.10104278775087
 21
19.15243768996962
 31
0.0
  0
LINE
  5
3D0A
330
3D07
100
AcDbEntity
  8
DIM
 62
     0
370
    -2
100
AcDbLine
 10
47.98795417273527
 20
57.50177050455927
 30
0.0
 11
47.98795417273527
 21
19.15243768996962
 31
0.0
  0
LINE
  5
3D0B
330
3D07
100
AcDbEntity
  8
DIM
 62
     0
370
    -2
100
AcDbLine
 10
12.10104278775087
 20
19.15243768996962
 30
0.0
 11
45.98795417273527
 21
19.15243768996962
 31
0.0
  0
INSERT
  5
3D0C
330
3D07
100
AcDbEntity
  8
DIM
 62
     0
370
    -2
100
AcDbBlockReference
  2
_DOT
 10
10.10104278775087
 20
19.15243768996962
 30
0.0
 41
2.0
 42
2.0
 43
2.0
 50
180.0
  0
INSERT
  5
3D0D
330
3D07
100
AcDbEntity
  8
DIM
 62
     0
370
    -2
100
AcDbBlockReference
  2
_DOT
 10
47.98795417273527
 20
19.15243768996962
 30
0.0
 41
2.0
 42
2.0
 43
2.0
  0
MTEXT
  5
3D0E
330
3D07
100
AcDbEntity
  8
DIM
 62
     0
100
AcDbMText
 10
29.04449848024307
 20
24.65243768996962
 30
0.0
 40
5.0
 41
0.0
 46
0.0
 71
     5
 72
     1
  1
\A1;38
  7
ＭＳ ゴシック
 73
     1
 44
1.0
  0
POINT
  5
3D0F
330
3D07
100
AcDbEntity
  8
Defpoints
 62
     0
100
AcDbPoint
 10
10.10104278775087
 20
62.50177050455927
 30
0.0
  0
POINT
  5
3D10
330
3D07
100
AcDbEntity
  8
Defpoints
 62
     0
100
AcDbPoint
 10
47.98795417273527
 20
62.50177050455927
 30
0.0
  0
POINT
  5
3D11
330
3D07
100
AcDbEntity
  8
Defpoints
 62
     0
100
AcDbPoint
 10
47.98795417273527
 20
19.15243768996962
 30
0.0
  0
ENDBLK
  5
3D12
330
3D07
100
AcDbEntity
  8
0
100
AcDbBlockEnd
  0
BLOCK
  5
3D25
330
3D24
100
AcDbEntity
  8
0
100
AcDbBlockBegin
  2
*D11
 70
     1
 10
0.0
 20
0.0
 30
0.0
  3
*D11
  1

  0
LINE
  5
3D27
330
3D24
100
AcDbEntity
  8
DIM
 62
     0
370
    -2
100
AcDbLine
 10
164.9604863221886
 20
338.6076747477204
 30
0.0
 11
164.9604863221886
 21
403.7539197665653
 31
0.0
  0
LINE
  5
3D28
330
3D24
100
AcDbEntity
  8
DIM
 62
     0
370
    -2
100
AcDbLine
 10
279.1384802431609
 20
338.6076747477204
 30
0.0
 11
279.1384802431609
 21
403.7539197665653
 31
0.0
  0
LINE
  5
3D29
330
3D24
100
AcDbEntity
  8
DIM
 62
     0
370
    -2
100
AcDbLine
 10
166.9604863221886
 20
403.7539197665653
 30
0.0
 11
277.1384802431609
 21
403.7539197665653
 31
0.0
  0
INSERT
  5
3D2A
330
3D24
100
AcDbEntity
  8
DIM
 62
     0
370
    -2
100
AcDbBlockReference
  2
_DOT
 10
164.9604863221886
 20
403.7539197665653
 30
0.0
 41
2.0
 42
2.0
 43
2.0
 50
180.0
  0
INSERT
  5
3D2B
330
3D24
100
AcDbEntity
  8
DIM
 62
     0
370
    -2
100
AcDbBlockReference
  2
_DOT
 10
279.1384802431609
 20
403.7539197665653
 30
0.0
 41
2.0
 42
2.0
 43
2.0
  0
MTEXT
  5
3D2C
330
3D24
100
AcDbEntity
  8
DIM
 62
     0
100
AcDbMText
 10
222.0494832826747
 20
409.2539197665653
 30
0.0
 40
5.0
 41
0.0
 46
0.0
 71
     5
 72
     1
  1
\A1;114
  7
ＭＳ ゴシック
 73
     1
 44
1.0
  0
POINT
  5
3D2D
330
3D24
100
AcDbEntity
  8
Defpoints
 62
     0
100
AcDbPoint
 10
164.9604863221886
 20
333.6076747477204
 30
0.0
  0
POINT
  5
3D2E
330
3D24
100
AcDbEntity
  8
Defpoints
 62
     0
100
AcDbPoint
 10
279.1384802431609
 20
333.6076747477204
 30
0.0
  0
POINT
  5
3D2F
330
3D24
100
AcDbEntity
  8
Defpoints
 62
     0
100
AcDbPoint
 10
279.1384802431609
 20
403.7539197665653
 30
0.0
  0
ENDBLK
  5
3D26
330
3D24
100
AcDbEntity
  8
0
100
AcDbBlockEnd
  0
BLOCK
  5
3D31
330
3D30
100
AcDbEntity
  8
0
100
AcDbBlockBegin
  2
*D12
 70
     1
 10
0.0
 20
0.0
 30
0.0
  3
*D12
  1

  0
LINE
  5
3D33
330
3D30
100
AcDbEntity
  8
DIM
 62
     0
370
    -2
100
AcDbLine
 10
184.1625718976903
 20
328.6076747477204
 30
0.0
 11
184.1625718976903
 21
246.9090091185411
 31
0.0
  0
LINE
  5
3D34
330
3D30
100
AcDbEntity
  8
DIM
 62
     0
370
    -2
100
AcDbLine
 10
259.9363946676591
 20
328.6076747477204
 30
0.0
 11
259.9363946676591
 21
246.9090091185411
 31
0.0
  0
LINE
  5
3D35
330
3D30
100
AcDbEntity
  8
DIM
 62
     0
370
    -2
100
AcDbLine
 10
186.1625718976903
 20
246.9090091185411
 30
0.0
 11
257.9363946676591
 21
246.9090091185411
 31
0.0
  0
INSERT
  5
3D36
330
3D30
100
AcDbEntity
  8
DIM
 62
     0
370
    -2
100
AcDbBlockReference
  2
_DOT
 10
184.1625718976903
 20
246.9090091185411
 30
0.0
 41
2.0
 42
2.0
 43
2.0
 50
180.0
  0
INSERT
  5
3D37
330
3D30
100
AcDbEntity
  8
DIM
 62
     0
370
    -2
100
AcDbBlockReference
  2
_DOT
 10
259.9363946676591
 20
246.9090091185411
 30
0.0
 41
2.0
 42
2.0
 43
2.0
  0
MTEXT
  5
3D38
330
3D30
100
AcDbEntity
  8
DIM
 62
     0
100
AcDbMText
 10
222.0494832826747
 20
252.4090091185411
 30
0.0
 40
5.0
 41
0.0
 46
0.0
 71
     5
 72
     1
  1
\A1;76
  7
ＭＳ ゴシック
 73
     1
 44
1.0
  0
POINT
  5
3D39
330
3D30
100
AcDbEntity
  8
Defpoints
 62
     0
100
AcDbPoint
 10
184.1625718976903
 20
333.6076747477204
 30
0.0
  0
POINT
  5
3D3A
330
3D30
100
AcDbEntity
  8
Defpoints
 62
     0
100
AcDbPoint
 10
259.9363946676591
 20
333.6076747477204
 30
0.0
  0
POINT
  5
3D3B
330
3D30
100
AcDbEntity
  8
Defpoints
 62
     0
100
AcDbPoint
 10
259.9363946676591
 20
246.9090091185411
 30
0.0
  0
ENDBLK
  5
3D32
330
3D30
100
AcDbEntity
  8
0
100
AcDbBlockEnd
  0
BLOCK
  5
3E4A
330
3E49
100
AcDbEntity
  8
0
100
AcDbBlockBegin
  2
*D13
 70
     1
 10
0.0
 20
0.0
 30
0.0
  3
*D13
  1

  0
LINE
  5
3E4C
330
3E49
100
AcDbEntity
  8
DIM
 62
     0
370
    -2
100
AcDbLine
 10
162.6871645232694
 20
269.9637620162968
 30
0.0
 11
162.6871645232694
 21
235.0020619325822
 31
0.0
  0
LINE
  5
3E4D
330
3E49
100
AcDbEntity
  8
DIM
 62
     0
370
    -2
100
AcDbLine
 10
362.6871645232694
 20
269.9637620162968
 30
0.0
 11
362.6871645232694
 21
235.0020619325822
 31
0.0
  0
LINE
  5
3E4E
330
3E49
100
AcDbEntity
  8
DIM
 62
     0
370
    -2
100
AcDbLine
 10
164.6871645232694
 20
235.0020619325822
 30
0.0
 11
360.6871645232694
 21
235.0020619325822
 31
0.0
  0
INSERT
  5
3E4F
330
3E49
100
AcDbEntity
  8
DIM
 62
     0
370
    -2
100
AcDbBlockReference
  2
_DOT
 10
162.6871645232694
 20
235.0020619325822
 30
0.0
 41
2.0
 42
2.0
 43
2.0
 50
180.0
  0
INSERT
  5
3E50
330
3E49
100
AcDbEntity
  8
DIM
 62
     0
370
    -2
100
AcDbBlockReference
  2
_DOT
 10
362.6871645232694
 20
235.0020619325822
 30
0.0
 41
2.0
 42
2.0
 43
2.0
  0
MTEXT
  5
3E51
330
3E49
100
AcDbEntity
  8
DIM
 62
     0
100
AcDbMText
 10
262.6871645232694
 20
240.5029997842766
 30
0.0
 40
5.0
 41
0.0
 46
0.0
 71
     5
 72
     1
  1
\A1;200
  7
ＭＳ ゴシック
 73
     1
 44
1.0
  0
POINT
  5
3E52
330
3E49
100
AcDbEntity
  8
Defpoints
 62
     0
100
AcDbPoint
 10
162.6871645232694
 20
274.9637620162968
 30
0.0
  0
POINT
  5
3E53
330
3E49
100
AcDbEntity
  8
Defpoints
 62
     0
100
AcDbPoint
 10
362.6871645232694
 20
274.9637620162968
 30
0.0
  0
POINT
  5
3E54
330
3E49
100
AcDbEntity
  8
Defpoints
 62
     0
100
AcDbPoint
 10
362.6871645232694
 20
235.0020619325822
 30
0.0
  0
ENDBLK
  5
3E4B
330
3E49
100
AcDbEntity
  8
0
100
AcDbBlockEnd
  0
BLOCK
  5
3E59
330
3E58
100
AcDbEntity
  8
0
100
AcDbBlockBegin
  2
*D14
 70
     1
 10
0.0
 20
0.0
 30
0.0
  3
*D14
  1

  0
LINE
  5
3E5B
330
3E58
100
AcDbEntity
  8
DIM
 62
     0
370
    -2
100
AcDbLine
 10
154.2733360073258
 20
339.9637618727352
 30
0.0
 11
123.1207255114673
 21
339.9637618727352
 31
0.0
  0
LINE
  5
3E5C
330
3E58
100
AcDbEntity
  8
DIM
 62
     0
370
    -2
100
AcDbLine
 10
154.2733326140558
 20
274.9637618727353
 30
0.0
 11
123.1207255114673
 21
274.9637618727353
 31
0.0
  0
LINE
  5
3E5D
330
3E58
100
AcDbEntity
  8
DIM
 62
     0
370
    -2
100
AcDbLine
 10
123.1207255114673
 20
337.9637618727352
 30
0.0
 11
123.1207255114673
 21
276.9637618727353
 31
0.0
  0
INSERT
  5
3E5E
330
3E58
100
AcDbEntity
  8
DIM
 62
     0
370
    -2
100
AcDbBlockReference
  2
_DOT
 10
123.1207255114673
 20
339.9637618727352
 30
0.0
 41
2.0
 42
2.0
 43
2.0
 50
90.0
  0
INSERT
  5
3E5F
330
3E58
100
AcDbEntity
  8
DIM
 62
     0
370
    -2
100
AcDbBlockReference
  2
_DOT
 10
123.1207255114673
 20
274.9637618727353
 30
0.0
 41
2.0
 42
2.0
 43
2.0
 50
270.0
  0
MTEXT
  5
3E60
330
3E58
100
AcDbEntity
  8
DIM
 62
     0
100
AcDbMText
 10
117.6197876597729
 20
307.4637618727353
 30
0.0
 40
5.0
 41
0.0
 46
0.0
 71
     5
 72
     1
  1
\A1;65
  7
ＭＳ ゴシック
 11
0.0
 21
1.0
 31
0.0
 73
     1
 44
1.0
  0
POINT
  5
3E61
330
3E58
100
AcDbEntity
  8
Defpoints
 62
     0
100
AcDbPoint
 10
159.2733360073258
 20
339.9637618727352
 30
0.0
  0
POINT
  5
3E62
330
3E58
100
AcDbEntity
  8
Defpoints
 62
     0
100
AcDbPoint
 10
159.2733326140558
 20
274.9637618727353
 30
0.0
  0
POINT
  5
3E63
330
3E58
100
AcDbEntity
  8
Defpoints
 62
     0
100
AcDbPoint
 10
123.1207255114673
 20
274.9637618727353
 30
0.0
  0
ENDBLK
  5
3E5A
330
3E58
100
AcDbEntity
  8
0
100
AcDbBlockEnd
  0
BLOCK
  5
3E66
330
3E65
100
AcDbEntity
  8
0
100
AcDbBlockBegin
  2
*D15
 70
     1
 10
0.0
 20
0.0
 30
0.0
  3
*D15
  1

  0
LINE
  5
3E68
330
3E65
100
AcDbEntity
  8
DIM
 62
     0
370
    -2
100
AcDbLine
 10
177.0424631015697
 20
284.5679309174511
 30
0.0
 11
177.0424631015697
 21
246.8497177757127
 31
0.0
  0
LINE
  5
3E69
330
3E65
100
AcDbEntity
  8
DIM
 62
     0
370
    -2
100
AcDbLine
 10
377.0424631015697
 20
284.5679309174511
 30
0.0
 11
377.0424631015697
 21
246.8497177757127
 31
0.0
  0
LINE
  5
3E6A
330
3E65
100
AcDbEntity
  8
DIM
 62
     0
370
    -2
100
AcDbLine
 10
179.0424631015697
 20
246.8497177757127
 30
0.0
 11
375.0424631015697
 21
246.8497177757127
 31
0.0
  0
INSERT
  5
3E6B
330
3E65
100
AcDbEntity
  8
DIM
 62
     0
370
    -2
100
AcDbBlockReference
  2
_DOT
 10
177.0424631015697
 20
246.8497177757127
 30
0.0
 41
2.0
 42
2.0
 43
2.0
 50
180.0
  0
INSERT
  5
3E6C
330
3E65
100
AcDbEntity
  8
DIM
 62
     0
370
    -2
100
AcDbBlockReference
  2
_DOT
 10
377.0424631015697
 20
246.8497177757127
 30
0.0
 41
2.0
 42
2.0
 43
2.0
  0
MTEXT
  5
3E6D
330
3E65
100
AcDbEntity
  8
DIM
 62
     0
100
AcDbMText
 10
277.0424631015697
 20
252.3506556274071
 30
0.0
 40
5.0
 41
0.0
 46
0.0
 71
     5
 72
     1
  1
\A1;200
  7
ＭＳ ゴシック
 73
     1
 44
1.0
  0
POINT
  5
3E6E
330
3E65
100
AcDbEntity
  8
Defpoints
 62
     0
100
AcDbPoint
 10
177.0424631015697
 20
289.5679309174511
 30
0.0
  0
POINT
  5
3E6F
330
3E65
100
AcDbEntity
  8
Defpoints
 62
     0
100
AcDbPoint
 10
377.0424631015697
 20
289.5679309174511
 30
0.0
  0
POINT
  5
3E70
330
3E65
100
AcDbEntity
  8
Defpoints
 62
     0
100
AcDbPoint
 10
377.0424631015697
 20
246.8497177757127
 30
0.0
  0
ENDBLK
  5
3E67
330
3E65
100
AcDbEntity
  8
0
100
AcDbBlockEnd
  0
BLOCK
  5
3E75
330
3E74
100
AcDbEntity
  8
0
100
AcDbBlockBegin
  2
*D16
 70
     1
 10
0.0
 20
0.0
 30
0.0
  3
*D16
  1

  0
LINE
  5
3E77
330
3E74
100
AcDbEntity
  8
DIM
 62
     0
370
    -2
100
AcDbLine
 10
170.6059788910433
 20
284.5679309174512
 30
0.0
 11
170.6059788910433
 21
246.8497177757128
 31
0.0
  0
LINE
  5
3E78
330
3E74
100
AcDbEntity
  8
DIM
 62
     0
370
    -2
100
AcDbLine
 10
164.6059788910433
 20
284.5679309174512
 30
0.0
 11
164.6059788910433
 21
246.8497177757128
 31
0.0
  0
LINE
  5
3E79
330
3E74
100
AcDbEntity
  8
DIM
 62
     0
370
    -2
100
AcDbLine
 10
168.6059788910433
 20
246.8497177757128
 30
0.0
 11
166.6059788910433
 21
246.8497177757128
 31
0.0
  0
INSERT
  5
3E7A
330
3E74
100
AcDbEntity
  8
DIM
 62
     0
370
    -2
100
AcDbBlockReference
  2
_DOT
 10
170.6059788910433
 20
246.8497177757128
 30
0.0
 41
2.0
 42
2.0
 43
2.0
  0
INSERT
  5
3E7B
330
3E74
100
AcDbEntity
  8
DIM
 62
     0
370
    -2
100
AcDbBlockReference
  2
_DOT
 10
164.6059788910433
 20
246.8497177757128
 30
0.0
 41
2.0
 42
2.0
 43
2.0
 50
180.0
  0
MTEXT
  5
3E7C
330
3E74
100
AcDbEntity
  8
DIM
 62
     0
100
AcDbMText
 10
167.6059788910433
 20
252.3497177757128
 30
0.0
 40
5.0
 41
0.0
 46
0.0
 71
     5
 72
     1
  1
\A1;6
  7
ＭＳ ゴシック
 73
     1
 44
1.0
  0
POINT
  5
3E7D
330
3E74
100
AcDbEntity
  8
Defpoints
 62
     0
100
AcDbPoint
 10
170.6059788910433
 20
289.5679309174512
 30
0.0
  0
POINT
  5
3E7E
330
3E74
100
AcDbEntity
  8
Defpoints
 62
     0
100
AcDbPoint
 10
164.6059788910433
 20
289.5679309174512
 30
0.0
  0
POINT
  5
3E7F
330
3E74
100
AcDbEntity
  8
Defpoints
 62
     0
100
AcDbPoint
 10
164.6059788910433
 20
246.8497177757128
 30
0.0
  0
ENDBLK
  5
3E76
330
3E74
100
AcDbEntity
  8
0
100
AcDbBlockEnd
  0
BLOCK
  5
3E85
330
3E84
100
AcDbEntity
  8
0
100
AcDbBlockBegin
  2
*D17
 70
     1
 10
0.0
 20
0.0
 30
0.0
  3
*D17
  1

  0
LINE
  5
3E87
330
3E84
100
AcDbEntity
  8
DIM
 62
     0
370
    -2
100
AcDbLine
 10
108.8346658419036
 20
312.4264174958471
 30
0.0
 11
108.8346658419036
 21
349.1264908400984
 31
0.0
  0
LINE
  5
3E88
330
3E84
100
AcDbEntity
  8
DIM
 62
     0
370
    -2
100
AcDbLine
 10
43.83466584190356
 20
312.4264174958471
 30
0.0
 11
43.83466584190356
 21
349.1264908400984
 31
0.0
  0
LINE
  5
3E89
330
3E84
100
AcDbEntity
  8
DIM
 62
     0
370
    -2
100
AcDbLine
 10
106.8346658419036
 20
349.1264908400984
 30
0.0
 11
45.83466584190356
 21
349.1264908400984
 31
0.0
  0
INSERT
  5
3E8A
330
3E84
100
AcDbEntity
  8
DIM
 62
     0
370
    -2
100
AcDbBlockReference
  2
_DOT
 10
108.8346658419036
 20
349.1264908400984
 30
0.0
 41
2.0
 42
2.0
 43
2.0
  0
INSERT
  5
3E8B
330
3E84
100
AcDbEntity
  8
DIM
 62
     0
370
    -2
100
AcDbBlockReference
  2
_DOT
 10
43.83466584190356
 20
349.1264908400984
 30
0.0
 41
2.0
 42
2.0
 43
2.0
 50
180.0
  0
MTEXT
  5
3E8C
330
3E84
100
AcDbEntity
  8
DIM
 62
     0
100
AcDbMText
 10
76.33466584190356
 20
354.6274286917928
 30
0.0
 40
5.0
 41
0.0
 46
0.0
 71
     5
 72
     1
  1
\A1;65
  7
ＭＳ ゴシック
 73
     1
 44
1.0
  0
POINT
  5
3E8D
330
3E84
100
AcDbEntity
  8
Defpoints
 62
     0
100
AcDbPoint
 10
108.8346658419036
 20
307.4264174958471
 30
0.0
  0
POINT
  5
3E8E
330
3E84
100
AcDbEntity
  8
Defpoints
 62
     0
100
AcDbPoint
 10
43.83466584190356
 20
307.4264174958471
 30
0.0
  0
POINT
  5
3E8F
330
3E84
100
AcDbEntity
  8
Defpoints
 62
     0
100
AcDbPoint
 10
43.83466584190356
 20
349.1264908400984
 30
0.0
  0
ENDBLK
  5
3E86
330
3E84
100
AcDbEntity
  8
0
100
AcDbBlockEnd
  0
BLOCK
  5
3EF8
330
3EF7
100
AcDbEntity
  8
0
100
AcDbBlockBegin
  2
*D18
 70
     1
 10
0.0
 20
0.0
 30
0.0
  3
*D18
  1

  0
LINE
  5
3EFA
330
3EF7
100
AcDbEntity
  8
DIM
 62
     0
370
    -2
100
AcDbLine
 10
239.0431563654572
 20
320.1422069695324
 30
0.0
 11
239.0431563654572
 21
321.9849322105263
 31
0.0
  0
LINE
  5
3EFB
330
3EF7
100
AcDbEntity
  8
DIM
 62
     0
370
    -2
100
AcDbLine
 10
170.6059806789139
 20
322.4272227534773
 30
0.0
 11
170.6059806789139
 21
321.9849322105263
 31
0.0
  0
LINE
  5
3EFC
330
3EF7
100
AcDbEntity
  8
DIM
 62
     0
370
    -2
100
AcDbLine
 10
237.0431563654572
 20
321.9849322105263
 30
0.0
 11
172.6059806789139
 21
321.9849322105263
 31
0.0
  0
INSERT
  5
3EFD
330
3EF7
100
AcDbEntity
  8
DIM
 62
     0
370
    -2
100
AcDbBlockReference
  2
_DOT
 10
239.0431563654572
 20
321.9849322105263
 30
0.0
 41
2.0
 42
2.0
 43
2.0
  0
INSERT
  5
3EFE
330
3EF7
100
AcDbEntity
  8
DIM
 62
     0
370
    -2
100
AcDbBlockReference
  2
_DOT
 10
170.6059806789139
 20
321.9849322105263
 30
0.0
 41
2.0
 42
2.0
 43
2.0
 50
180.0
  0
MTEXT
  5
3EFF
330
3EF7
100
AcDbEntity
  8
DIM
 62
     0
100
AcDbMText
 10
204.8245685221855
 20
327.4849322105263
 30
0.0
 40
5.0
 41
0.0
 46
0.0
 71
     5
 72
     1
  1
\A1;68
  7
ＭＳ ゴシック
 73
     1
 44
1.0
  0
POINT
  5
3F00
330
3EF7
100
AcDbEntity
  8
Defpoints
 62
     0
100
AcDbPoint
 10
239.0431563654572
 20
325.1422069695324
 30
0.0
  0
POINT
  5
3F01
330
3EF7
100
AcDbEntity
  8
Defpoints
 62
     0
100
AcDbPoint
 10
170.6059806789139
 20
327.4272227534773
 30
0.0
  0
POINT
  5
3F02
330
3EF7
100
AcDbEntity
  8
Defpoints
 62
     0
100
AcDbPoint
 10
170.6059806789139
 20
321.9849322105263
 30
0.0
  0
ENDBLK
  5
3EF9
330
3EF7
100
AcDbEntity
  8
0
100
AcDbBlockEnd
  0
BLOCK
  5
3F07
330
3F06
100
AcDbEntity
  8
0
100
AcDbBlockBegin
  2
*D19
 70
     1
 10
0.0
 20
0.0
 30
0.0
  3
*D19
  1

  0
LINE
  5
3F09
330
3F06
100
AcDbEntity
  8
DIM
 62
     0
370
    -2
100
AcDbLine
 10
164.6059788910433
 20
284.5679309174512
 30
0.0
 11
164.6059788910433
 21
246.8497177757128
 31
0.0
  0
LINE
  5
3F0A
330
3F06
100
AcDbEntity
  8
DIM
 62
     0
370
    -2
100
AcDbLine
 10
124.6059788910433
 20
284.5679309174512
 30
0.0
 11
124.6059788910433
 21
246.8497177757128
 31
0.0
  0
LINE
  5
3F0B
330
3F06
100
AcDbEntity
  8
DIM
 62
     0
370
    -2
100
AcDbLine
 10
162.6059788910433
 20
246.8497177757128
 30
0.0
 11
126.6059788910433
 21
246.8497177757128
 31
0.0
  0
INSERT
  5
3F0C
330
3F06
100
AcDbEntity
  8
DIM
 62
     0
370
    -2
100
AcDbBlockReference
  2
_DOT
 10
164.6059788910433
 20
246.8497177757128
 30
0.0
 41
2.0
 42
2.0
 43
2.0
  0
INSERT
  5
3F0D
330
3F06
100
AcDbEntity
  8
DIM
 62
     0
370
    -2
100
AcDbBlockReference
  2
_DOT
 10
124.6059788910433
 20
246.8497177757128
 30
0.0
 41
2.0
 42
2.0
 43
2.0
 50
180.0
  0
MTEXT
  5
3F0E
330
3F06
100
AcDbEntity
  8
DIM
 62
     0
100
AcDbMText
 10
144.6059788910433
 20
252.3497177757128
 30
0.0
 40
5.0
 41
0.0
 46
0.0
 71
     5
 72
     1
  1
\A1;40
  7
ＭＳ ゴシック
 73
     1
 44
1.0
  0
POINT
  5
3F0F
330
3F06
100
AcDbEntity
  8
Defpoints
 62
     0
100
AcDbPoint
 10
164.6059788910433
 20
289.5679309174512
 30
0.0
  0
POINT
  5
3F10
330
3F06
100
AcDbEntity
  8
Defpoints
 62
     0
100
AcDbPoint
 10
124.6059788910433
 20
289.5679309174512
 30
0.0
  0
POINT
  5
3F11
330
3F06
100
AcDbEntity
  8
Defpoints
 62
     0
100
AcDbPoint
 10
124.6059788910433
 20
246.8497177757128
 30
0.0
  0
ENDBLK
  5
3F08
330
3F06
100
AcDbEntity
  8
0
100
AcDbBlockEnd
  0
BLOCK
  5
3F20
330
3F1F
100
AcDbEntity
  8
0
100
AcDbBlockBegin
  2
*D20
 70
     1
 10
0.0
 20
0.0
 30
0.0
  3
*D20
  1

  0
LINE
  5
3F22
330
3F1F
100
AcDbEntity
  8
DIM
 62
     0
370
    -2
100
AcDbLine
 10
183.0424631015697
 20
362.521734169795
 30
0.0
 11
183.0424631015697
 21
376.4231216386803
 31
0.0
  0
LINE
  5
3F23
330
3F1F
100
AcDbEntity
  8
DIM
 62
     0
370
    -2
100
AcDbLine
 10
177.0424631015697
 20
362.521734169795
 30
0.0
 11
177.0424631015697
 21
376.4231216386803
 31
0.0
  0
LINE
  5
3F24
330
3F1F
100
AcDbEntity
  8
DIM
 62
     0
370
    -2
100
AcDbLine
 10
181.0424631015697
 20
376.4231216386803
 30
0.0
 11
179.0424631015697
 21
376.4231216386803
 31
0.0
  0
INSERT
  5
3F25
330
3F1F
100
AcDbEntity
  8
DIM
 62
     0
370
    -2
100
AcDbBlockReference
  2
_DOT
 10
183.0424631015697
 20
376.4231216386803
 30
0.0
 41
2.0
 42
2.0
 43
2.0
  0
INSERT
  5
3F26
330
3F1F
100
AcDbEntity
  8
DIM
 62
     0
370
    -2
100
AcDbBlockReference
  2
_DOT
 10
177.0424631015697
 20
376.4231216386803
 30
0.0
 41
2.0
 42
2.0
 43
2.0
 50
180.0
  0
MTEXT
  5
3F27
330
3F1F
100
AcDbEntity
  8
DIM
 62
     0
100
AcDbMText
 10
180.0873401397853
 20
381.9231216386803
 30
0.0
 40
5.0
 41
0.0
 46
0.0
 71
     5
 72
     1
  1
\A1;6
  7
ＭＳ ゴシック
 73
     1
 44
1.0
  0
POINT
  5
3F28
330
3F1F
100
AcDbEntity
  8
Defpoints
 62
     0
100
AcDbPoint
 10
183.0424631015697
 20
357.521734169795
 30
0.0
  0
POINT
  5
3F29
330
3F1F
100
AcDbEntity
  8
Defpoints
 62
     0
100
AcDbPoint
 10
177.0424631015697
 20
357.521734169795
 30
0.0
  0
POINT
  5
3F2A
330
3F1F
100
AcDbEntity
  8
Defpoints
 62
     0
100
AcDbPoint
 10
177.0424631015697
 20
376.4231216386803
 30
0.0
  0
ENDBLK
  5
3F21
330
3F1F
100
AcDbEntity
  8
0
100
AcDbBlockEnd
  0
BLOCK
  5
3F34
330
3F33
100
AcDbEntity
  8
0
100
AcDbBlockBegin
  2
*D21
 70
     1
 10
0.0
 20
0.0
 30
0.0
  3
*D21
  1

  0
LINE
  5
3F36
330
3F33
100
AcDbEntity
  8
DIM
 62
     0
370
    -2
100
AcDbLine
 10
176.8419367857801
 20
288.1795511767559
 30
0.0
 11
176.8419367857801
 21
269.6555416810098
 31
0.0
  0
LINE
  5
3F37
330
3F33
100
AcDbEntity
  8
DIM
 62
     0
370
    -2
100
AcDbLine
 10
226.8419367857801
 20
288.1795511767559
 30
0.0
 11
226.8419367857801
 21
269.6555416810098
 31
0.0
  0
LINE
  5
3F38
330
3F33
100
AcDbEntity
  8
DIM
 62
     0
370
    -2
100
AcDbLine
 10
178.8419367857801
 20
269.6555416810098
 30
0.0
 11
224.8419367857801
 21
269.6555416810098
 31
0.0
  0
INSERT
  5
3F39
330
3F33
100
AcDbEntity
  8
DIM
 62
     0
370
    -2
100
AcDbBlockReference
  2
_DOT
 10
176.8419367857801
 20
269.6555416810098
 30
0.0
 41
2.0
 42
2.0
 43
2.0
 50
180.0
  0
INSERT
  5
3F3A
330
3F33
100
AcDbEntity
  8
DIM
 62
     0
370
    -2
100
AcDbBlockReference
  2
_DOT
 10
226.8419367857801
 20
269.6555416810098
 30
0.0
 41
2.0
 42
2.0
 43
2.0
  0
MTEXT
  5
3F3B
330
3F33
100
AcDbEntity
  8
DIM
 62
     0
100
AcDbMText
 10
201.8419367857801
 20
275.1564795327042
 30
0.0
 40
5.0
 41
0.0
 46
0.0
 71
     5
 72
     1
  1
\A1;50
  7
ＭＳ ゴシック
 73
     1
 44
1.0
  0
POINT
  5
3F3C
330
3F33
100
AcDbEntity
  8
Defpoints
 62
     0
100
AcDbPoint
 10
176.8419367857801
 20
293.1795511767559
 30
0.0
  0
POINT
  5
3F3D
330
3F33
100
AcDbEntity
  8
Defpoints
 62
     0
100
AcDbPoint
 10
226.8419367857801
 20
293.1795511767559
 30
0.0
  0
POINT
  5
3F3E
330
3F33
100
AcDbEntity
  8
Defpoints
 62
     0
100
AcDbPoint
 10
226.8419367857801
 20
269.6555416810098
 30
0.0
  0
ENDBLK
  5
3F35
330
3F33
100
AcDbEntity
  8
0
100
AcDbBlockEnd
  0
BLOCK
  5
3F42
330
3F41
100
AcDbEntity
  8
0
100
AcDbBlockBegin
  2
*D22
 70
     1
 10
0.0
 20
0.0
 30
0.0
  3
*D22
  1

  0
LINE
  5
3F44
330
3F41
100
AcDbEntity
  8
DIM
 62
     0
370
    -2
100
AcDbLine
 10
170.1519373173636
 20
298.3623291521957
 30
0.0
 11
170.1519373173636
 21
279.909687799073
 31
0.0
  0
LINE
  5
3F45
330
3F41
100
AcDbEntity
  8
DIM
 62
     0
370
    -2
100
AcDbLine
 10
120.1519373173636
 20
298.3623291521957
 30
0.0
 11
120.1519373173636
 21
279.909687799073
 31
0.0
  0
LINE
  5
3F46
330
3F41
100
AcDbEntity
  8
DIM
 62
     0
370
    -2
100
AcDbLine
 10
168.1519373173636
 20
279.909687799073
 30
0.0
 11
122.1519373173636
 21
279.909687799073
 31
0.0
  0
INSERT
  5
3F47
330
3F41
100
AcDbEntity
  8
DIM
 62
     0
370
    -2
100
AcDbBlockReference
  2
_DOT
 10
170.1519373173636
 20
279.909687799073
 30
0.0
 41
2.0
 42
2.0
 43
2.0
  0
INSERT
  5
3F48
330
3F41
100
AcDbEntity
  8
DIM
 62
     0
370
    -2
100
AcDbBlockReference
  2
_DOT
 10
120.1519373173636
 20
279.909687799073
 30
0.0
 41
2.0
 42
2.0
 43
2.0
 50
180.0
  0
MTEXT
  5
3F49
330
3F41
100
AcDbEntity
  8
DIM
 62
     0
100
AcDbMText
 10
145.1519373173636
 20
285.4106256507674
 30
0.0
 40
5.0
 41
0.0
 46
0.0
 71
     5
 72
     1
  1
\A1;50
  7
ＭＳ ゴシック
 73
     1
 44
1.0
  0
POINT
  5
3F4A
330
3F41
100
AcDbEntity
  8
Defpoints
 62
     0
100
AcDbPoint
 10
170.1519373173636
 20
303.3623291521957
 30
0.0
  0
POINT
  5
3F4B
330
3F41
100
AcDbEntity
  8
Defpoints
 62
     0
100
AcDbPoint
 10
120.1519373173636
 20
303.3623291521957
 30
0.0
  0
POINT
  5
3F4C
330
3F41
100
AcDbEntity
  8
Defpoints
 62
     0
100
AcDbPoint
 10
120.1519373173636
 20
279.909687799073
 30
0.0
  0
ENDBLK
  5
3F43
330
3F41
100
AcDbEntity
  8
0
100
AcDbBlockEnd
  0
ENDSEC
  0
SECTION
  2
ENTITIES
  0
MTEXT
  5
177
330
A
100
AcDbEntity
  8
TEMPLATE
390
1D
100
AcDbMText
 10
15.84042890954615
 20
68.74635032628565
 30
0.0
 40
3.257682291666665
 41
0.0
 46
0.0
 71
     1
 72
     1
  1
品名
  7
ＭＳ ゴシック
 73
     1
 44
0.7828267384257843
  0
MTEXT
  5
178
330
A
100
AcDbEntity
  8
TEMPLATE
390
1D
100
AcDbMText
 10
15.84042890954615
 20
51.7463503262856
 30
0.0
 40
3.257682291666665
 41
0.0
 46
0.0
 71
     1
 72
     1
  1
仕様
  7
ＭＳ ゴシック
 73
     1
 44
0.7828267384257843
  0
LINE
  5
179
330
A
100
AcDbEntity
  8
TEMPLATE
390
1D
100
AcDbLine
 10
404.4404289094496
 20
53.42933470128568
 30
0.0
 11
14.44042890944975
 21
53.42933470128568
 31
0.0
  0
LWPOLYLINE
  5
17A
330
A
100
AcDbEntity
  8
TEMPLATE
390
1D
100
AcDbPolyline
 90
        5
 70
   128
 43
0.0
 10
404.4404289094496
 20
579.4293347012853
 10
14.44042890944975
 20
579.4293347012853
 10
14.44042890944975
 20
19.42933470128565
 10
404.4404289094496
 20
19.42933470128565
 10
404.4404289094496
 20
579.4293347012853
  0
LINE
  5
17B
330
A
100
AcDbEntity
  8
TEMPLATE
390
1D
100
AcDbLine
 10
404.4404289094496
 20
70.42933470128564
 30
0.0
 11
14.44042890944975
 21
70.42933470128564
 31
0.0
  0
LINE
  5
17C
330
A
100
AcDbEntity
  8
TEMPLATE
390
1D
100
AcDbLine
 10
404.4404289095464
 20
36.42933470128565
 30
0.0
 11
253.840428909546
 21
36.42933470128565
 31
0.0
  0
MTEXT
  5
17E
330
A
100
AcDbEntity
  8
TEMPLATE
390
1D
100
AcDbMText
 10
259.8147101599982
 20
30.44725580662403
 30
0.0
 40
4.8865234375
 41
0.0
 46
0.0
 71
     1
 72
     1
  1
大洋金物株式会社 ティーフォルム事業部
  7
ＭＳ ゴシック
 73
     1
 44
0.7828267384257843
  0
MTEXT
  5
180
330
A
100
AcDbEntity
  8
TEMPLATE
390
1D
100
AcDbMText
 10
366.240428909598
 20
46.02985813878564
 30
0.0
 40
4.8865234375
 41
0.0
 46
4.8865234375
 71
     1
 72
     1
  1
{1:2}
  7
ＭＳ ゴシック
 73
     1
 44
0.7828267384257843
1001
ACAD
1000
ACAD_MTEXT_DEFINED_HEIGHT_BEGIN
1070
    46
1040
4.8865234375
1000
ACAD_MTEXT_DEFINED_HEIGHT_END
  0
MTEXT
  5
181
330
A
100
AcDbEntity
  8
TEMPLATE
390
1D
100
AcDbMText
 10
355.640428909598
 20
51.7463503262856
 30
0.0
 40
3.257682291666665
 41
0.0
 46
0.0
 71
     1
 72
     1
  1
縮尺
  7
ＭＳ ゴシック
 73
     1
 44
0.7828267384257843
  0
LINE
  5
182
330
A
100
AcDbEntity
  8
TEMPLATE
390
1D
100
AcDbLine
 10
354.240428909598
 20
36.42933470128565
 30
0.0
 11
354.240428909598
 21
53.42933470128568
 31
0.0
  0
MTEXT
  5
183
330
A
100
AcDbEntity
  8
TEMPLATE
390
1D
100
AcDbMText
 10
305.440428909598
 20
51.7463503262856
 30
0.0
 40
3.257682291666665
 41
0.0
 46
0.0
 71
     1
 72
     1
  1
容量
  7
ＭＳ ゴシック
 73
     1
 44
0.7828267384257843
  0
LINE
  5
184
330
A
100
AcDbEntity
  8
TEMPLATE
390
1D
100
AcDbLine
 10
304.040428909598
 20
36.42933470128565
 30
0.0
 11
304.040428909598
 21
53.42933470128568
 31
0.0
  0
MTEXT
  5
185
330
A
100
AcDbEntity
  8
TEMPLATE
390
1D
100
AcDbMText
 10
255.240428909598
 20
68.74635032628565
 30
0.0
 40
3.257682291666665
 41
0.0
 46
0.0
 71
     1
 72
     1
  1
品番
  7
ＭＳ ゴシック
 73
     1
 44
0.7828267384257843
  0
MTEXT
  5
186
330
A
100
AcDbEntity
  8
TEMPLATE
390
1D
100
AcDbMText
 10
255.240428909598
 20
51.7463503262856
 30
0.0
 40
3.257682291666665
 41
0.0
 46
0.0
 71
     1
 72
     1
  1
重量
  7
ＭＳ ゴシック
 73
     1
 44
0.7828267384257843
  0
MTEXT
  5
187
330
A
100
AcDbEntity
  8
TEMPLATE
390
1D
100
AcDbMText
 10
265.840428909598
 20
63.02985813878564
 30
0.0
 40
4.8865234375
 41
0.0
 46
4.8865234375
 71
     1
 72
     1
  1
{AGN73-3811}
  7
ＭＳ ゴシック
 73
     1
 44
0.7828267384257843
1001
ACAD
1000
ACAD_MTEXT_DEFINED_HEIGHT_BEGIN
1070
    46
1040
4.8865234375
1000
ACAD_MTEXT_DEFINED_HEIGHT_END
  0
LINE
  5
188
330
A
100
AcDbEntity
  8
TEMPLATE
390
1D
100
AcDbLine
 10
253.840428909598
 20
19.42933470128565
 30
0.0
 11
253.840428909598
 21
70.42933470128564
 31
0.0
  0
MTEXT
  5
189
330
A
100
AcDbEntity
  8
TEMPLATE
390
1D
100
AcDbMText
 10
26.44042890954615
 20
63.02985813878564
 30
0.0
 40
4.8865234375
 41
0.0
 46
5.507344722044204
 71
     1
 72
     1
  1
{吐水口　-FANTINI, Icona-}
  7
ＭＳ ゴシック
 73
     1
 44
0.7828267384257843
1001
ACAD
1000
ACAD_MTEXT_DEFINED_HEIGHT_BEGIN
1070
    46
1040
5.507344722044204
1000
ACAD_MTEXT_DEFINED_HEIGHT_END
  0
INSERT
  5
68C
330
A
100
AcDbEntity
  8
TEMPLATE
100
AcDbBlockReference
  2
block 2
 10
367.7097207081031
 20
3.349230605734547
 30
0.0
 41
0.1524
 42
0.1524
 43
0.1524
  0
LWPOLYLINE
  5
D69
330
A
100
AcDbEntity
  8
BORDER
100
AcDbPolyline
 90
        4
 70
     1
 43
0.0
 10
0.0
 20
0.0
 10
0.0
 20
594.0
 10
420.0
 20
594.0
 10
420.0
 20
0.0
  0
INSERT
  5
1343
330
A
100
AcDbEntity
  8
TEMPLATE
100
AcDbBlockReference
  2
block 2
 10
838.6973883465873
 20
9.774128564918277
 30
0.0
 41
0.1524
 42
0.1524
 43
0.1524
  0
HATCH
  5
3C64
102
{ACAD_REACTORS
330
3C75
102
}
330
A
100
AcDbEntity
  8
TEMPLATE
100
AcDbHatch
 10
0.0
 20
0.0
 30
0.0
210
0.0
220
0.0
230
1.0
  2
SOLID
 70
     1
 71
     1
 91
        6
 92
        1
 93
        8
 72
     1
 10
386.9584116981973
 20
30.78695932253559
 11
386.9584116981973
 21
29.60507779640349
 72
     1
 10
386.9584116981973
 20
29.60507779640349
 11
385.086293388135
 21
29.60507779640349
 72
     1
 10
385.086293388135
 20
29.60507779640349
 11
385.086293388135
 21
24.78695932282479
 72
     1
 10
385.086293388135
 20
24.78695932282479
 11
383.4397707574798
 21
24.78695932282479
 72
     1
 10
383.4397707574798
 20
24.78695932282479
 11
383.4397707574798
 21
29.60507779640349
 72
     1
 10
383.4397707574798
 20
29.60507779640349
 11
381.6008304705712
 21
29.60507779640349
 72
     1
 10
381.6008304705712
 20
29.60507779640349
 11
381.6008304705712
 21
30.78695932253559
 72
     1
 10
381.6008304705712
 20
30.78695932253559
 11
386.9584116981973
 21
30.78695932253559
 97
        1
330
3C65
 92
        1
 93
        1
 72
     4
 94
        3
 73
     0
 74
     1
 95
       56
 96
       52
 40
0.0
 40
0.0
 40
0.0
 40
0.0
 40
1.0
 40
1.0
 40
1.0
 40
2.0
 40
2.0
 40
2.0
 40
3.0
 40
3.0
 40
3.0
 40
4.0
 40
4.0
 40
4.0
 40
5.0
 40
5.0
 40
5.0
 40
6.0
 40
6.0
 40
6.0
 40
7.0
 40
7.0
 40
7.0
 40
8.0
 40
8.0
 40
8.0
 40
9.0
 40
9.0
 40
9.0
 40
10.0
 40
10.0
 40
10.0
 40
11.0
 40
11.0
 40
11.0
 40
12.0
 40
12.0
 40
12.0
 40
13.0
 40
13.0
 40
13.0
 40
14.0
 40
14.0
 40
14.0
 40
15.0
 40
15.0
 40
15.0
 40
16.0
 40
16.0
 40
16.0
 40
17.0
 40
17.0
 40
17.0
 40
17.0
 10
389.4668487850558
 20
30.64408553045313
 10
389.6976220214394
 20
30.70904304125516
 10
389.9955398401064
 20
30.65470844907718
 10
389.9955398401064
 20
30.65470844907718
 10
389.9955398401064
 20
30.65470844907718
 10
389.85241312139
 20
30.22519439059248
 10
389.85241312139
 20
30.22519439059248
 10
389.85241312139
 20
30.22519439059248
 10
389.5599406643706
 20
30.29287458221835
 10
389.3343598630008
 20
30.1149927683958
 10
389.1590668276665
 20
29.97588311974736
 10
389.0455027690426
 20
29.60625316134929
 10
389.0019398758616
 20
29.46571522112114
 10
389.0019398758616
 20
29.46571522112114
 10
388.8077219770962
 20
28.86958202304137
 10
388.8077219770962
 20
28.86958202304137
 10
388.8077219770962
 20
28.86958202304137
 10
389.4445466071603
 20
28.86958202304137
 10
389.4445466071603
 20
28.86958202304137
 10
389.4445466071603
 20
28.86958202304137
 10
389.34550351293
 20
28.49438767869736
 10
389.34550351293
 20
28.49438767869736
 10
389.34550351293
 20
28.49438767869736
 10
388.7034864478522
 20
28.49438767869736
 10
388.7034864478522
 20
28.49438767869736
 10
388.7034864478522
 20
28.49438767869736
 10
387.5547978229109
 20
24.78695932282479
 10
387.5547978229109
 20
24.78695932282479
 10
387.5547978229109
 20
24.78695932282479
 10
387.1951510275336
 20
24.78695932282479
 10
387.1951510275336
 20
24.78695932282479
 10
387.1951510275336
 20
24.78695932282479
 10
388.3448811150849
 20
28.49438767869736
 10
388.3448811150849
 20
28.49438767869736
 10
388.3448811150849
 20
28.49438767869736
 10
387.8711346517413
 20
28.49438767869736
 10
387.8711346517413
 20
28.49438767869736
 10
387.8711346517413
 20
28.49438767869736
 10
387.9704455506427
 20
28.86958202304137
 10
387.9704455506427
 20
28.86958202304137
 10
387.9704455506427
 20
28.86958202304137
 10
388.4491166443289
 20
28.86958202304137
 10
388.4491166443289
 20
28.86958202304137
 10
388.4491166443289
 20
28.86958202304137
 10
388.6184287086733
 20
29.38948015805433
 10
388.6184287086733
 20
29.38948015805433
 10
388.7553364078029
 20
29.82536201649855
 10
388.8715041229524
 20
30.059378665011
 10
388.971082826525
 20
30.23581730921654
 10
389.0696051894502
 20
30.41240473379499
 10
389.2645967461546
 20
30.58586777054282
 10
389.4668487850558
 20
30.64408553045313
 97
        1
330
3C70
 92
        1
 93
        1
 72
     4
 94
        3
 73
     0
 74
     1
 95
       32
 96
       28
 40
0.0
 40
0.0
 40
0.0
 40
0.0
 40
1.0
 40
1.0
 40
1.0
 40
2.0
 40
2.0
 40
2.0
 40
3.0
 40
3.0
 40
3.0
 40
4.0
 40
4.0
 40
4.0
 40
5.0
 40
5.0
 40
5.0
 40
6.0
 40
6.0
 40
6.0
 40
7.0
 40
7.0
 40
7.0
 40
8.0
 40
8.0
 40
8.0
 40
9.0
 40
9.0
 40
9.0
 40
9.0
 10
390.3419600603343
 20
28.64284073476305
 10
390.1254548617105
 20
28.36279143887966
 10
389.9587315758544
 20
28.11075748721071
 10
389.6888142233646
 20
27.31860614785359
 10
389.4406634394279
 20
26.59401597582401
 10
389.2827479516467
 20
26.06685735861421
 10
389.2588984578731
 20
25.42484029353638
 10
389.240747252381
 20
24.94707676012474
 10
389.5316723935223
 20
24.78695932282479
 10
389.9582257225866
 20
24.78695932282479
 10
390.1420587513246
 20
24.78695932282479
 10
390.6059559539832
 20
24.79865346013363
 10
390.9363078939394
 20
25.20702582763122
 10
391.1675721055534
 20
25.49393389870466
 10
391.38071486775
 20
25.79134586410385
 10
391.6664624519149
 20
26.76695828126675
 10
391.9042432438614
 20
27.58257228542799
 10
392.068883604497
 20
28.10971602460051
 10
392.056713369995
 20
28.40985067082352
 10
392.056713369995
 20
28.40985067082352
 10
392.056713369995
 20
28.40985067082352
 10
392.056713369995
 20
28.40985067082352
 10
391.9791690396468
 20
28.91055613773418
 10
391.615639076537
 20
29.01635386089345
 10
391.4079416759881
 20
29.01635386089345
 10
391.2033686632698
 20
29.01635386089345
 10
390.6552022574085
 20
29.05174871160303
 10
390.3419600603343
 20
28.64284073476305
 97
        1
330
3C73
 92
        1
 93
        1
 72
     4
 94
        3
 73
     0
 74
     1
 95
       38
 96
       34
 40
0.0
 40
0.0
 40
0.0
 40
0.0
 40
1.0
 40
1.0
 40
1.0
 40
2.0
 40
2.0
 40
2.0
 40
3.0
 40
3.0
 40
3.0
 40
4.0
 40
4.0
 40
4.0
 40
5.0
 40
5.0
 40
5.0
 40
6.0
 40
6.0
 40
6.0
 40
7.0
 40
7.0
 40
7.0
 40
8.0
 40
8.0
 40
8.0
 40
9.0
 40
9.0
 40
9.0
 40
10.0
 40
10.0
 40
10.0
 40
11.0
 40
11.0
 40
11.0
 40
11.0
 10
393.3716045494872
 20
28.85519496098328
 10
393.3716045494872
 20
28.85519496098328
 10
393.7413535321836
 20
28.85519496098328
 10
393.7413535321836
 20
28.85519496098328
 10
393.7413535321836
 20
28.85519496098328
 10
393.5761775622055
 20
28.32635512555987
 10
393.5761775622055
 20
28.32635512555987
 10
393.7016886847722
 20
28.47480818162555
 10
393.8997748732327
 20
28.67252241915381
 10
394.0698903515905
 20
28.77222014702475
 10
394.3240072284799
 20
28.92067320309043
 10
394.4692168724166
 20
28.94025270016223
 10
394.6289177246725
 20
28.93635465439262
 10
394.6289177246725
 20
28.93635465439262
 10
394.4728471135151
 20
28.43630382112264
 10
394.4728471135151
 20
28.43630382112264
 10
394.3712003627593
 20
28.47934598299858
 10
394.057958165685
 20
28.39741263165024
 10
393.8782612313133
 20
28.26815224368685
 10
393.7162096491659
 20
28.15159769956793
 10
393.6041780283826
 20
28.0524207030021
 10
393.4714361796937
 20
27.80309455411968
 10
393.3397060375404
 20
27.55339645430504
 10
393.2357383129677
 20
27.15524529842472
 10
393.0568150365349
 20
26.57765013480655
 10
393.0568150365349
 20
26.57765013480655
 10
392.4980257120495
 20
24.78695932282479
 10
392.4980257120495
 20
24.78695932282479
 10
392.4980257120495
 20
24.78695932282479
 10
392.1391674526484
 20
24.78695932282479
 10
392.1391674526484
 20
24.78695932282479
 10
392.1391674526484
 20
24.78695932282479
 10
393.3716045494872
 20
28.85519496098328
 10
393.3716045494872
 20
28.85519496098328
 97
        1
330
3C71
 92
        1
 93
        1
 72
     4
 94
        3
 73
     0
 74
     1
 95
      104
 96
      100
 40
0.0
 40
0.0
 40
0.0
 40
0.0
 40
1.0
 40
1.0
 40
1.0
 40
2.0
 40
2.0
 40
2.0
 40
3.0
 40
3.0
 40
3.0
 40
4.0
 40
4.0
 40
4.0
 40
5.0
 40
5.0
 40
5.0
 40
6.0
 40
6.0
 40
6.0
 40
7.0
 40
7.0
 40
7.0
 40
8.0
 40
8.0
 40
8.0
 40
9.0
 40
9.0
 40
9.0
 40
10.0
 40
10.0
 40
10.0
 40
11.0
 40
11.0
 40
11.0
 40
12.0
 40
12.0
 40
12.0
 40
13.0
 40
13.0
 40
13.0
 40
14.0
 40
14.0
 40
14.0
 40
15.0
 40
15.0
 40
15.0
 40
16.0
 40
16.0
 40
16.0
 40
17.0
 40
17.0
 40
17.0
 40
18.0
 40
18.0
 40
18.0
 40
19.0
 40
19.0
 40
19.0
 40
20.0
 40
20.0
 40
20.0
 40
21.0
 40
21.0
 40
21.0
 40
22.0
 40
22.0
 40
22.0
 40
23.0
 40
23.0
 40
23.0
 40
24.0
 40
24.0
 40
24.0
 40
25.0
 40
25.0
 40
25.0
 40
26.0
 40
26.0
 40
26.0
 40
27.0
 40
27.0
 40
27.0
 40
28.0
 40
28.0
 40
28.0
 40
29.0
 40
29.0
 40
29.0
 40
30.0
 40
30.0
 40
30.0
 40
31.0
 40
31.0
 40
31.0
 40
32.0
 40
32.0
 40
32.0
 40
33.0
 40
33.0
 40
33.0
 40
33.0
 10
395.4068307823444
 20
28.857396910502
 10
395.4068307823444
 20
28.857396910502
 10
395.7296544354325
 20
28.857396910502
 10
395.7296544354325
 20
28.857396910502
 10
395.7296544354325
 20
28.857396910502
 10
395.5665613906749
 20
28.32805122181077
 10
395.5665613906749
 20
28.32805122181077
 10
395.7081110374387
 20
28.55000178208216
 10
395.8351694758834
 20
28.64892585201409
 10
396.0039756869598
 20
28.77675794839777
 10
396.1732877513042
 20
28.90277492423224
 10
396.3742602789986
 20
28.92845441659237
 10
396.5137567566165
 20
28.92845441659237
 10
396.6864610134627
 20
28.92845441659237
 10
396.8531842993187
 20
28.8943539551269
 10
396.9408159389486
 20
28.70506068670399
 10
397.0079753992694
 20
28.55662250867558
 10
397.0110997871
 20
28.5391110587869
 10
396.9919071189977
 20
28.24610299242514
 10
397.1674382029287
 20
28.54650544331934
 10
397.2970854198616
 20
28.67589973361832
 10
397.5174886642549
 20
28.80022061320189
 10
397.7487826319435
 20
28.92845441659237
 10
397.8836074058529
 20
28.93805075064353
 10
398.0402433824273
 20
28.9149600367716
 10
398.2710017407735
 20
28.88087445334342
 10
398.4182943099307
 20
28.79853939498828
 10
398.4953030309365
 20
28.54832056386854
 10
398.5725795566135
 20
28.29887539068781
 10
398.5308317839817
 20
28.16507720135141
 10
398.4354040528126
 20
27.76796750808128
 10
398.3918411596316
 20
27.58711008680102
 10
398.3288177936771
 20
27.36812025595006
 10
398.2463637110236
 20
27.10754631087745
 10
398.2463637110236
 20
27.10754631087745
 10
397.5174886642549
 20
24.78695932282479
 10
397.5174886642549
 20
24.78695932282479
 10
397.5174886642549
 20
24.78695932282479
 10
397.1383962741413
 20
24.78695932282479
 10
397.1383962741413
 20
24.78695932282479
 10
397.1383962741413
 20
24.78695932282479
 10
397.7765450495241
 20
26.81569873142421
 10
397.7765450495241
 20
26.81569873142421
 10
397.9098225075554
 20
27.24016913526807
 10
398.0000429256735
 20
27.55015304217612
 10
398.0467302066851
 20
27.74450484327716
 10
398.1053199175276
 20
27.98694246089495
 10
398.1286486799962
 20
28.06694166739577
 10
398.1009160184902
 20
28.24339518963862
 10
398.0755043308013
 20
28.4076487213048
 10
397.9925146388055
 20
28.51460693137258
 10
397.8504293826993
 20
28.51460693137258
 10
397.6990007191758
 20
28.51460693137258
 10
397.5763461797686
 20
28.49775011512458
 10
397.4047131416073
 20
28.32532854098695
 10
397.2330503473714
 20
28.15159769956793
 10
397.0912031398618
 20
27.94766444245305
 10
396.9799749330922
 20
27.71312706263549
 10
396.8689847749192
 20
27.47716139123824
 10
396.7564473008682
 20
27.17806820762544
 10
396.6423625109393
 20
26.81569873142421
 10
396.6423625109393
 20
26.81569873142421
 10
396.0039756869598
 20
24.78695932282479
 10
396.0039756869598
 20
24.78695932282479
 10
396.0039756869598
 20
24.78695932282479
 10
395.6474384013758
 20
24.78695932282479
 10
395.6474384013758
 20
24.78695932282479
 10
395.6474384013758
 20
24.78695932282479
 10
396.3773549107547
 20
27.10650484826726
 10
396.3773549107547
 20
27.10650484826726
 10
396.4543636317604
 20
27.35336124295977
 10
396.5122094407385
 20
27.55457181925085
 10
396.5503269722719
 20
27.71183267339138
 10
396.6151357027011
 20
27.98253856185753
 10
396.6332869081932
 20
28.1655979326565
 10
396.5842786533645
 20
28.32805122181077
 10
396.5360440564749
 20
28.48998377965993
 10
396.4512690000045
 20
28.53134472332225
 10
396.3096895971661
 20
28.53134472332225
 10
396.1909331035284
 20
28.53134472332225
 10
396.0750331930502
 20
28.48038744560878
 10
395.9427971976291
 20
28.37899362148695
 10
395.7763119603696
 20
28.25142932977446
 10
395.7096881093912
 20
28.1466730692254
 10
395.6280076846768
 20
28.02220340926895
 10
395.5177911844429
 20
27.85754817059597
 10
395.4661941511259
 20
27.74670679279587
 10
395.3731171498484
 20
27.50348063920177
 10
395.2800103924964
 20
27.25882619402798
 10
395.1918728995987
 20
26.97412007247326
 10
395.1303968495222
 20
26.77719437092129
 10
395.1303968495222
 20
26.77719437092129
 10
394.5042100161195
 20
24.78695932282479
 10
394.5042100161195
 20
24.78695932282479
 10
394.5042100161195
 20
24.78695932282479
 10
394.1308307923247
 20
24.78695932282479
 10
394.1308307923247
 20
24.78695932282479
 10
394.1308307923247
 20
24.78695932282479
 10
395.4068307823444
 20
28.857396910502
 10
395.4068307823444
 20
28.857396910502
 97
        1
330
3C72
 92
       16
 93
        1
 72
     4
 94
        3
 73
     0
 74
     1
 95
       29
 96
       25
 40
0.0
 40
0.0
 40
0.0
 40
0.0
 40
1.0
 40
1.0
 40
1.0
 40
2.0
 40
2.0
 40
2.0
 40
3.0
 40
3.0
 40
3.0
 40
4.0
 40
4.0
 40
4.0
 40
5.0
 40
5.0
 40
5.0
 40
6.0
 40
6.0
 40
6.0
 40
7.0
 40
7.0
 40
7.0
 40
8.0
 40
8.0
 40
8.0
 40
8.0
 10
389.6462927927937
 20
25.54487629838084
 10
389.6447157208412
 20
25.82830290872873
 10
389.7341922370948
 20
26.33186495879882
 10
389.9634032795631
 20
27.00563175545052
 10
390.2756040140271
 20
27.91796788002499
 10
390.4628292352669
 20
28.25142932977446
 10
390.6266661818889
 20
28.41374871659313
 10
390.866024045788
 20
28.65010121695988
 10
391.1878062362659
 20
28.66188462249246
 10
391.2827281141673
 20
28.65010121695988
 10
391.4178206927478
 20
28.6338841563153
 10
391.6086463990114
 20
28.54546398070914
 10
391.6200429755745
 20
28.24779908867604
 10
391.629148334395
 20
27.99304245618328
 10
391.5557400984131
 20
27.51593355641234
 10
391.2987963944389
 20
26.76695828126675
 10
391.0026639402465
 20
25.896622855958
 10
390.824782126424
 20
25.55448751046927
 10
390.6821910170501
 20
25.40537982076289
 10
390.413553175767
 20
25.1258512561846
 10
390.1254548617105
 20
25.15269123545324
 10
390.0829334311396
 20
25.15269123545324
 10
390.0277061567243
 20
25.15269123545324
 10
389.6470664507327
 20
25.21261996965174
 10
389.6462927927937
 20
25.54487629838084
 97
        1
330
3C74
 75
     0
 76
     1
 98
        1
 10
371.9300318427923
 20
14.61939790801677
1001
ACAD
1010
0.0
1020
0.0
1030
0.0
  0
POLYLINE
  5
3C65
102
{ACAD_REACTORS
330
3C64
330
3C75
102
}
330
A
100
AcDbEntity
  8
TEMPLATE
100
AcDb2dPolyline
 66
     1
 10
0.0
 20
0.0
 30
0.0
  0
VERTEX
  5
3C66
330
3C65
100
AcDbEntity
  8
TEMPLATE
100
AcDbVertex
100
AcDb2dVertex
 10
386.9584116981973
 20
30.78695932253559
 30
0.0
  0
VERTEX
  5
3C67
330
3C65
100
AcDbEntity
  8
TEMPLATE
100
AcDbVertex
100
AcDb2dVertex
 10
386.9584116981973
 20
29.60507779640349
 30
0.0
  0
VERTEX
  5
3C68
330
3C65
100
AcDbEntity
  8
TEMPLATE
100
AcDbVertex
100
AcDb2dVertex
 10
385.086293388135
 20
29.60507779640349
 30
0.0
  0
VERTEX
  5
3C69
330
3C65
100
AcDbEntity
  8
TEMPLATE
100
AcDbVertex
100
AcDb2dVertex
 10
385.086293388135
 20
24.78695932282479
 30
0.0
  0
VERTEX
  5
3C6A
330
3C65
100
AcDbEntity
  8
TEMPLATE
100
AcDbVertex
100
AcDb2dVertex
 10
383.4397707574798
 20
24.78695932282479
 30
0.0
  0
VERTEX
  5
3C6B
330
3C65
100
AcDbEntity
  8
TEMPLATE
100
AcDbVertex
100
AcDb2dVertex
 10
383.4397707574798
 20
29.60507779640349
 30
0.0
  0
VERTEX
  5
3C6C
330
3C65
100
AcDbEntity
  8
TEMPLATE
100
AcDbVertex
100
AcDb2dVertex
 10
381.6008304705712
 20
29.60507779640349
 30
0.0
  0
VERTEX
  5
3C6D
330
3C65
100
AcDbEntity
  8
TEMPLATE
100
AcDbVertex
100
AcDb2dVertex
 10
381.6008304705712
 20
30.78695932253559
 30
0.0
  0
VERTEX
  5
3C6E
330
3C65
100
AcDbEntity
  8
TEMPLATE
100
AcDbVertex
100
AcDb2dVertex
 10
386.9584116981973
 20
30.78695932253559
 30
0.0
  0
SEQEND
  5
3C6F
330
3C65
100
AcDbEntity
  8
TEMPLATE
  0
SPLINE
  5
3C70
102
{ACAD_REACTORS
330
3C64
330
3C75
102
}
330
A
100
AcDbEntity
  8
TEMPLATE
100
AcDbSpline
210
0.0
220
0.0
230
1.0
 70
    11
 71
     3
 72
    56
 73
    52
 74
     0
 42
0.000000001
 43
0.0000000001
 40
0.0
 40
0.0
 40
0.0
 40
0.0
 40
1.0
 40
1.0
 40
1.0
 40
2.0
 40
2.0
 40
2.0
 40
3.0
 40
3.0
 40
3.0
 40
4.0
 40
4.0
 40
4.0
 40
5.0
 40
5.0
 40
5.0
 40
6.0
 40
6.0
 40
6.0
 40
7.0
 40
7.0
 40
7.0
 40
8.0
 40
8.0
 40
8.0
 40
9.0
 40
9.0
 40
9.0
 40
10.0
 40
10.0
 40
10.0
 40
11.0
 40
11.0
 40
11.0
 40
12.0
 40
12.0
 40
12.0
 40
13.0
 40
13.0
 40
13.0
 40
14.0
 40
14.0
 40
14.0
 40
15.0
 40
15.0
 40
15.0
 40
16.0
 40
16.0
 40
16.0
 40
17.0
 40
17.0
 40
17.0
 40
17.0
 10
389.4668487850558
 20
30.64408553045313
 30
0.0
 10
389.6976220214394
 20
30.70904304125516
 30
0.0
 10
389.9955398401064
 20
30.65470844907718
 30
0.0
 10
389.9955398401064
 20
30.65470844907718
 30
0.0
 10
389.9955398401064
 20
30.65470844907718
 30
0.0
 10
389.85241312139
 20
30.22519439059248
 30
0.0
 10
389.85241312139
 20
30.22519439059248
 30
0.0
 10
389.85241312139
 20
30.22519439059248
 30
0.0
 10
389.5599406643706
 20
30.29287458221835
 30
0.0
 10
389.3343598630008
 20
30.1149927683958
 30
0.0
 10
389.1590668276665
 20
29.97588311974736
 30
0.0
 10
389.0455027690426
 20
29.60625316134929
 30
0.0
 10
389.0019398758616
 20
29.46571522112114
 30
0.0
 10
389.0019398758616
 20
29.46571522112114
 30
0.0
 10
388.8077219770962
 20
28.86958202304137
 30
0.0
 10
388.8077219770962
 20
28.86958202304137
 30
0.0
 10
388.8077219770962
 20
28.86958202304137
 30
0.0
 10
389.4445466071603
 20
28.86958202304137
 30
0.0
 10
389.4445466071603
 20
28.86958202304137
 30
0.0
 10
389.4445466071603
 20
28.86958202304137
 30
0.0
 10
389.34550351293
 20
28.49438767869736
 30
0.0
 10
389.34550351293
 20
28.49438767869736
 30
0.0
 10
389.34550351293
 20
28.49438767869736
 30
0.0
 10
388.7034864478522
 20
28.49438767869736
 30
0.0
 10
388.7034864478522
 20
28.49438767869736
 30
0.0
 10
388.7034864478522
 20
28.49438767869736
 30
0.0
 10
387.5547978229109
 20
24.78695932282479
 30
0.0
 10
387.5547978229109
 20
24.78695932282479
 30
0.0
 10
387.5547978229109
 20
24.78695932282479
 30
0.0
 10
387.1951510275336
 20
24.78695932282479
 30
0.0
 10
387.1951510275336
 20
24.78695932282479
 30
0.0
 10
387.1951510275336
 20
24.78695932282479
 30
0.0
 10
388.3448811150849
 20
28.49438767869736
 30
0.0
 10
388.3448811150849
 20
28.49438767869736
 30
0.0
 10
388.3448811150849
 20
28.49438767869736
 30
0.0
 10
387.8711346517413
 20
28.49438767869736
 30
0.0
 10
387.8711346517413
 20
28.49438767869736
 30
0.0
 10
387.8711346517413
 20
28.49438767869736
 30
0.0
 10
387.9704455506427
 20
28.86958202304137
 30
0.0
 10
387.9704455506427
 20
28.86958202304137
 30
0.0
 10
387.9704455506427
 20
28.86958202304137
 30
0.0
 10
388.4491166443289
 20
28.86958202304137
 30
0.0
 10
388.4491166443289
 20
28.86958202304137
 30
0.0
 10
388.4491166443289
 20
28.86958202304137
 30
0.0
 10
388.6184287086733
 20
29.38948015805433
 30
0.0
 10
388.6184287086733
 20
29.38948015805433
 30
0.0
 10
388.7553364078029
 20
29.82536201649855
 30
0.0
 10
388.8715041229524
 20
30.059378665011
 30
0.0
 10
388.971082826525
 20
30.23581730921654
 30
0.0
 10
389.0696051894502
 20
30.41240473379499
 30
0.0
 10
389.2645967461546
 20
30.58586777054282
 30
0.0
 10
389.4668487850558
 20
30.64408553045313
 30
0.0
  0
SPLINE
  5
3C71
102
{ACAD_REACTORS
330
3C64
330
3C75
102
}
330
A
100
AcDbEntity
  8
TEMPLATE
100
AcDbSpline
210
0.0
220
0.0
230
1.0
 70
    11
 71
     3
 72
    38
 73
    34
 74
     0
 42
0.000000001
 43
0.0000000001
 40
0.0
 40
0.0
 40
0.0
 40
0.0
 40
1.0
 40
1.0
 40
1.0
 40
2.0
 40
2.0
 40
2.0
 40
3.0
 40
3.0
 40
3.0
 40
4.0
 40
4.0
 40
4.0
 40
5.0
 40
5.0
 40
5.0
 40
6.0
 40
6.0
 40
6.0
 40
7.0
 40
7.0
 40
7.0
 40
8.0
 40
8.0
 40
8.0
 40
9.0
 40
9.0
 40
9.0
 40
10.0
 40
10.0
 40
10.0
 40
11.0
 40
11.0
 40
11.0
 40
11.0
 10
393.3716045494872
 20
28.85519496098328
 30
0.0
 10
393.3716045494872
 20
28.85519496098328
 30
0.0
 10
393.7413535321836
 20
28.85519496098328
 30
0.0
 10
393.7413535321836
 20
28.85519496098328
 30
0.0
 10
393.7413535321836
 20
28.85519496098328
 30
0.0
 10
393.5761775622055
 20
28.32635512555987
 30
0.0
 10
393.5761775622055
 20
28.32635512555987
 30
0.0
 10
393.7016886847722
 20
28.47480818162555
 30
0.0
 10
393.8997748732327
 20
28.67252241915381
 30
0.0
 10
394.0698903515905
 20
28.77222014702475
 30
0.0
 10
394.3240072284799
 20
28.92067320309043
 30
0.0
 10
394.4692168724166
 20
28.94025270016223
 30
0.0
 10
394.6289177246725
 20
28.93635465439262
 30
0.0
 10
394.6289177246725
 20
28.93635465439262
 30
0.0
 10
394.4728471135151
 20
28.43630382112264
 30
0.0
 10
394.4728471135151
 20
28.43630382112264
 30
0.0
 10
394.3712003627593
 20
28.47934598299858
 30
0.0
 10
394.057958165685
 20
28.39741263165024
 30
0.0
 10
393.8782612313133
 20
28.26815224368685
 30
0.0
 10
393.7162096491659
 20
28.15159769956793
 30
0.0
 10
393.6041780283826
 20
28.0524207030021
 30
0.0
 10
393.4714361796937
 20
27.80309455411968
 30
0.0
 10
393.3397060375404
 20
27.55339645430504
 30
0.0
 10
393.2357383129677
 20
27.15524529842472
 30
0.0
 10
393.0568150365349
 20
26.57765013480655
 30
0.0
 10
393.0568150365349
 20
26.57765013480655
 30
0.0
 10
392.4980257120495
 20
24.78695932282479
 30
0.0
 10
392.4980257120495
 20
24.78695932282479
 30
0.0
 10
392.4980257120495
 20
24.78695932282479
 30
0.0
 10
392.1391674526484
 20
24.78695932282479
 30
0.0
 10
392.1391674526484
 20
24.78695932282479
 30
0.0
 10
392.1391674526484
 20
24.78695932282479
 30
0.0
 10
393.3716045494872
 20
28.85519496098328
 30
0.0
 10
393.3716045494872
 20
28.85519496098328
 30
0.0
  0
SPLINE
  5
3C72
102
{ACAD_REACTORS
330
3C64
330
3C75
102
}
330
A
100
AcDbEntity
  8
TEMPLATE
100
AcDbSpline
210
0.0
220
0.0
230
1.0
 70
    11
 71
     3
 72
   104
 73
   100
 74
     0
 42
0.000000001
 43
0.0000000001
 40
0.0
 40
0.0
 40
0.0
 40
0.0
 40
1.0
 40
1.0
 40
1.0
 40
2.0
 40
2.0
 40
2.0
 40
3.0
 40
3.0
 40
3.0
 40
4.0
 40
4.0
 40
4.0
 40
5.0
 40
5.0
 40
5.0
 40
6.0
 40
6.0
 40
6.0
 40
7.0
 40
7.0
 40
7.0
 40
8.0
 40
8.0
 40
8.0
 40
9.0
 40
9.0
 40
9.0
 40
10.0
 40
10.0
 40
10.0
 40
11.0
 40
11.0
 40
11.0
 40
12.0
 40
12.0
 40
12.0
 40
13.0
 40
13.0
 40
13.0
 40
14.0
 40
14.0
 40
14.0
 40
15.0
 40
15.0
 40
15.0
 40
16.0
 40
16.0
 40
16.0
 40
17.0
 40
17.0
 40
17.0
 40
18.0
 40
18.0
 40
18.0
 40
19.0
 40
19.0
 40
19.0
 40
20.0
 40
20.0
 40
20.0
 40
21.0
 40
21.0
 40
21.0
 40
22.0
 40
22.0
 40
22.0
 40
23.0
 40
23.0
 40
23.0
 40
24.0
 40
24.0
 40
24.0
 40
25.0
 40
25.0
 40
25.0
 40
26.0
 40
26.0
 40
26.0
 40
27.0
 40
27.0
 40
27.0
 40
28.0
 40
28.0
 40
28.0
 40
29.0
 40
29.0
 40
29.0
 40
30.0
 40
30.0
 40
30.0
 40
31.0
 40
31.0
 40
31.0
 40
32.0
 40
32.0
 40
32.0
 40
33.0
 40
33.0
 40
33.0
 40
33.0
 10
395.4068307823444
 20
28.857396910502
 30
0.0
 10
395.4068307823444
 20
28.857396910502
 30
0.0
 10
395.7296544354325
 20
28.857396910502
 30
0.0
 10
395.7296544354325
 20
28.857396910502
 30
0.0
 10
395.7296544354325
 20
28.857396910502
 30
0.0
 10
395.5665613906749
 20
28.32805122181077
 30
0.0
 10
395.5665613906749
 20
28.32805122181077
 30
0.0
 10
395.7081110374387
 20
28.55000178208216
 30
0.0
 10
395.8351694758834
 20
28.64892585201409
 30
0.0
 10
396.0039756869598
 20
28.77675794839777
 30
0.0
 10
396.1732877513042
 20
28.90277492423224
 30
0.0
 10
396.3742602789986
 20
28.92845441659237
 30
0.0
 10
396.5137567566165
 20
28.92845441659237
 30
0.0
 10
396.6864610134627
 20
28.92845441659237
 30
0.0
 10
396.8531842993187
 20
28.8943539551269
 30
0.0
 10
396.9408159389486
 20
28.70506068670399
 30
0.0
 10
397.0079753992694
 20
28.55662250867558
 30
0.0
 10
397.0110997871
 20
28.5391110587869
 30
0.0
 10
396.9919071189977
 20
28.24610299242514
 30
0.0
 10
397.1674382029287
 20
28.54650544331934
 30
0.0
 10
397.2970854198616
 20
28.67589973361832
 30
0.0
 10
397.5174886642549
 20
28.80022061320189
 30
0.0
 10
397.7487826319435
 20
28.92845441659237
 30
0.0
 10
397.8836074058529
 20
28.93805075064353
 30
0.0
 10
398.0402433824273
 20
28.9149600367716
 30
0.0
 10
398.2710017407735
 20
28.88087445334342
 30
0.0
 10
398.4182943099307
 20
28.79853939498828
 30
0.0
 10
398.4953030309365
 20
28.54832056386854
 30
0.0
 10
398.5725795566135
 20
28.29887539068781
 30
0.0
 10
398.5308317839817
 20
28.16507720135141
 30
0.0
 10
398.4354040528126
 20
27.76796750808128
 30
0.0
 10
398.3918411596316
 20
27.58711008680102
 30
0.0
 10
398.3288177936771
 20
27.36812025595006
 30
0.0
 10
398.2463637110236
 20
27.10754631087745
 30
0.0
 10
398.2463637110236
 20
27.10754631087745
 30
0.0
 10
397.5174886642549
 20
24.78695932282479
 30
0.0
 10
397.5174886642549
 20
24.78695932282479
 30
0.0
 10
397.5174886642549
 20
24.78695932282479
 30
0.0
 10
397.1383962741413
 20
24.78695932282479
 30
0.0
 10
397.1383962741413
 20
24.78695932282479
 30
0.0
 10
397.1383962741413
 20
24.78695932282479
 30
0.0
 10
397.7765450495241
 20
26.81569873142421
 30
0.0
 10
397.7765450495241
 20
26.81569873142421
 30
0.0
 10
397.9098225075554
 20
27.24016913526807
 30
0.0
 10
398.0000429256735
 20
27.55015304217612
 30
0.0
 10
398.0467302066851
 20
27.74450484327716
 30
0.0
 10
398.1053199175276
 20
27.98694246089495
 30
0.0
 10
398.1286486799962
 20
28.06694166739577
 30
0.0
 10
398.1009160184902
 20
28.24339518963862
 30
0.0
 10
398.0755043308013
 20
28.4076487213048
 30
0.0
 10
397.9925146388055
 20
28.51460693137258
 30
0.0
 10
397.8504293826993
 20
28.51460693137258
 30
0.0
 10
397.6990007191758
 20
28.51460693137258
 30
0.0
 10
397.5763461797686
 20
28.49775011512458
 30
0.0
 10
397.4047131416073
 20
28.32532854098695
 30
0.0
 10
397.2330503473714
 20
28.15159769956793
 30
0.0
 10
397.0912031398618
 20
27.94766444245305
 30
0.0
 10
396.9799749330922
 20
27.71312706263549
 30
0.0
 10
396.8689847749192
 20
27.47716139123824
 30
0.0
 10
396.7564473008682
 20
27.17806820762544
 30
0.0
 10
396.6423625109393
 20
26.81569873142421
 30
0.0
 10
396.6423625109393
 20
26.81569873142421
 30
0.0
 10
396.0039756869598
 20
24.78695932282479
 30
0.0
 10
396.0039756869598
 20
24.78695932282479
 30
0.0
 10
396.0039756869598
 20
24.78695932282479
 30
0.0
 10
395.6474384013758
 20
24.78695932282479
 30
0.0
 10
395.6474384013758
 20
24.78695932282479
 30
0.0
 10
395.6474384013758
 20
24.78695932282479
 30
0.0
 10
396.3773549107547
 20
27.10650484826726
 30
0.0
 10
396.3773549107547
 20
27.10650484826726
 30
0.0
 10
396.4543636317604
 20
27.35336124295977
 30
0.0
 10
396.5122094407385
 20
27.55457181925085
 30
0.0
 10
396.5503269722719
 20
27.71183267339138
 30
0.0
 10
396.6151357027011
 20
27.98253856185753
 30
0.0
 10
396.6332869081932
 20
28.1655979326565
 30
0.0
 10
396.5842786533645
 20
28.32805122181077
 30
0.0
 10
396.5360440564749
 20
28.48998377965993
 30
0.0
 10
396.4512690000045
 20
28.53134472332225
 30
0.0
 10
396.3096895971661
 20
28.53134472332225
 30
0.0
 10
396.1909331035284
 20
28.53134472332225
 30
0.0
 10
396.0750331930502
 20
28.48038744560878
 30
0.0
 10
395.9427971976291
 20
28.37899362148695
 30
0.0
 10
395.7763119603696
 20
28.25142932977446
 30
0.0
 10
395.7096881093912
 20
28.1466730692254
 30
0.0
 10
395.6280076846768
 20
28.02220340926895
 30
0.0
 10
395.5177911844429
 20
27.85754817059597
 30
0.0
 10
395.4661941511259
 20
27.74670679279587
 30
0.0
 10
395.3731171498484
 20
27.50348063920177
 30
0.0
 10
395.2800103924964
 20
27.25882619402798
 30
0.0
 10
395.1918728995987
 20
26.97412007247326
 30
0.0
 10
395.1303968495222
 20
26.77719437092129
 30
0.0
 10
395.1303968495222
 20
26.77719437092129
 30
0.0
 10
394.5042100161195
 20
24.78695932282479
 30
0.0
 10
394.5042100161195
 20
24.78695932282479
 30
0.0
 10
394.5042100161195
 20
24.78695932282479
 30
0.0
 10
394.1308307923247
 20
24.78695932282479
 30
0.0
 10
394.1308307923247
 20
24.78695932282479
 30
0.0
 10
394.1308307923247
 20
24.78695932282479
 30
0.0
 10
395.4068307823444
 20
28.857396910502
 30
0.0
 10
395.4068307823444
 20
28.857396910502
 30
0.0
  0
SPLINE
  5
3C73
102
{ACAD_REACTORS
330
3C64
330
3C75
102
}
330
A
100
AcDbEntity
  8
TEMPLATE
100
AcDbSpline
210
0.0
220
0.0
230
1.0
 70
    11
 71
     3
 72
    32
 73
    28
 74
     0
 42
0.000000001
 43
0.0000000001
 40
0.0
 40
0.0
 40
0.0
 40
0.0
 40
1.0
 40
1.0
 40
1.0
 40
2.0
 40
2.0
 40
2.0
 40
3.0
 40
3.0
 40
3.0
 40
4.0
 40
4.0
 40
4.0
 40
5.0
 40
5.0
 40
5.0
 40
6.0
 40
6.0
 40
6.0
 40
7.0
 40
7.0
 40
7.0
 40
8.0
 40
8.0
 40
8.0
 40
9.0
 40
9.0
 40
9.0
 40
9.0
 10
390.3419600603343
 20
28.64284073476305
 30
0.0
 10
390.1254548617105
 20
28.36279143887966
 30
0.0
 10
389.9587315758544
 20
28.11075748721071
 30
0.0
 10
389.6888142233646
 20
27.31860614785359
 30
0.0
 10
389.4406634394279
 20
26.59401597582401
 30
0.0
 10
389.2827479516467
 20
26.06685735861421
 30
0.0
 10
389.2588984578731
 20
25.42484029353638
 30
0.0
 10
389.240747252381
 20
24.94707676012474
 30
0.0
 10
389.5316723935223
 20
24.78695932282479
 30
0.0
 10
389.9582257225866
 20
24.78695932282479
 30
0.0
 10
390.1420587513246
 20
24.78695932282479
 30
0.0
 10
390.6059559539832
 20
24.79865346013363
 30
0.0
 10
390.9363078939394
 20
25.20702582763122
 30
0.0
 10
391.1675721055534
 20
25.49393389870466
 30
0.0
 10
391.38071486775
 20
25.79134586410385
 30
0.0
 10
391.6664624519149
 20
26.76695828126675
 30
0.0
 10
391.9042432438614
 20
27.58257228542799
 30
0.0
 10
392.068883604497
 20
28.10971602460051
 30
0.0
 10
392.056713369995
 20
28.40985067082352
 30
0.0
 10
392.056713369995
 20
28.40985067082352
 30
0.0
 10
392.056713369995
 20
28.40985067082352
 30
0.0
 10
392.056713369995
 20
28.40985067082352
 30
0.0
 10
391.9791690396468
 20
28.91055613773418
 30
0.0
 10
391.615639076537
 20
29.01635386089345
 30
0.0
 10
391.4079416759881
 20
29.01635386089345
 30
0.0
 10
391.2033686632698
 20
29.01635386089345
 30
0.0
 10
390.6552022574085
 20
29.05174871160303
 30
0.0
 10
390.3419600603343
 20
28.64284073476305
 30
0.0
  0
SPLINE
  5
3C74
102
{ACAD_REACTORS
330
3C64
330
3C75
102
}
330
A
100
AcDbEntity
  8
TEMPLATE
100
AcDbSpline
210
0.0
220
0.0
230
1.0
 70
    11
 71
     3
 72
    29
 73
    25
 74
     0
 42
0.000000001
 43
0.0000000001
 40
0.0
 40
0.0
 40
0.0
 40
0.0
 40
1.0
 40
1.0
 40
1.0
 40
2.0
 40
2.0
 40
2.0
 40
3.0
 40
3.0
 40
3.0
 40
4.0
 40
4.0
 40
4.0
 40
5.0
 40
5.0
 40
5.0
 40
6.0
 40
6.0
 40
6.0
 40
7.0
 40
7.0
 40
7.0
 40
8.0
 40
8.0
 40
8.0
 40
8.0
 10
389.6462927927937
 20
25.54487629838084
 30
0.0
 10
389.6447157208412
 20
25.82830290872873
 30
0.0
 10
389.7341922370948
 20
26.33186495879882
 30
0.0
 10
389.9634032795631
 20
27.00563175545052
 30
0.0
 10
390.2756040140271
 20
27.91796788002499
 30
0.0
 10
390.4628292352669
 20
28.25142932977446
 30
0.0
 10
390.6266661818889
 20
28.41374871659313
 30
0.0
 10
390.866024045788
 20
28.65010121695988
 30
0.0
 10
391.1878062362659
 20
28.66188462249246
 30
0.0
 10
391.2827281141673
 20
28.65010121695988
 30
0.0
 10
391.4178206927478
 20
28.6338841563153
 30
0.0
 10
391.6086463990114
 20
28.54546398070914
 30
0.0
 10
391.6200429755745
 20
28.24779908867604
 30
0.0
 10
391.629148334395
 20
27.99304245618328
 30
0.0
 10
391.5557400984131
 20
27.51593355641234
 30
0.0
 10
391.2987963944389
 20
26.76695828126675
 30
0.0
 10
391.0026639402465
 20
25.896622855958
 30
0.0
 10
390.824782126424
 20
25.55448751046927
 30
0.0
 10
390.6821910170501
 20
25.40537982076289
 30
0.0
 10
390.413553175767
 20
25.1258512561846
 30
0.0
 10
390.1254548617105
 20
25.15269123545324
 30
0.0
 10
390.0829334311396
 20
25.15269123545324
 30
0.0
 10
390.0277061567243
 20
25.15269123545324
 30
0.0
 10
389.6470664507327
 20
25.21261996965174
 30
0.0
 10
389.6462927927937
 20
25.54487629838084
 30
0.0
  0
MTEXT
  5
3C9A
330
A
100
AcDbEntity
  8
TEMPLATE
390
1D
100
AcDbMText
 10
26.44042890954615
 20
46.02985813878568
 30
0.0
 40
4.8865234375
 41
0.0
 46
5.407438934620014
 71
     1
 72
     1
  1
{バス用}
  7
ＭＳ ゴシック
 73
     1
 44
0.7828267384257843
1001
ACAD
1000
ACAD_MTEXT_DEFINED_HEIGHT_BEGIN
1070
    46
1040
5.407438934620014
1000
ACAD_MTEXT_DEFINED_HEIGHT_END
  0
MTEXT
  5
3CB5
102
{ACAD_XDICTIONARY
360
3CB7
102
}
330
A
100
AcDbEntity
  8
TEMPLATE
100
AcDbMText
 10
15.00779663219942
 20
17.57619761830519
 30
0.0
 40
4.0
 41
0.0
 46
4.0
 71
     1
 72
     1
  1
{20201211N}
  7
ＭＳ ゴシック
 73
     1
 44
1.0
1001
ACAD
1000
ACAD_MTEXT_DEFINED_HEIGHT_BEGIN
1070
    46
1040
4.0
1000
ACAD_MTEXT_DEFINED_HEIGHT_END
  0
ARC
  5
3DCE
330
A
100
AcDbEntity
  8
MODEL
100
AcDbCircle
 10
60.80994430956437
 20
325.1422047090916
 30
0.0
 40
14.5
100
AcDbArc
 50
27.77551298658305
 51
214.1483336416062
  0
ARC
  5
3DCF
330
A
100
AcDbEntity
  8
MODEL
100
AcDbCircle
 10
60.80994430956437
 20
325.1422047090916
 30
0.0
 40
14.5
100
AcDbArc
 50
325.8514176985643
 51
27.77551298568996
  0
ARC
  5
3DD0
330
A
100
AcDbEntity
  8
MODEL
100
AcDbCircle
 10
60.80994429667558
 20
325.1422046986507
 30
0.0
 40
14.3
100
AcDbArc
 50
27.77551298658288
 51
212.9482931224925
  0
ARC
  5
3DD1
330
A
100
AcDbEntity
  8
MODEL
100
AcDbCircle
 10
60.80994429667558
 20
325.1422046986507
 30
0.0
 40
14.3
100
AcDbArc
 50
327.0514469650328
 51
27.77551298569043
  0
ARC
  5
3DD2
330
A
100
AcDbEntity
  8
MODEL
100
AcDbCircle
 10
60.80993148747362
 20
325.142202978557
 30
0.0
 40
11.99999522301824
100
AcDbArc
 50
359.9999488075872
 51
180.0000194451913
  0
LINE
  5
3DD3
330
A
100
AcDbEntity
  8
MODEL
100
AcDbLine
 10
48.8099238633429
 20
325.1421989058745
 30
0.0
 11
48.80992067248454
 21
302.8983303236801
 31
0.0
  0
LWPOLYLINE
  5
3DD4
330
A
100
AcDbEntity
  8
MODEL
100
AcDbPolyline
 90
       29
 70
     0
 43
0.0
 10
72.80992197986157
 20
302.8983030562703
 10
72.73445200915845
 20
303.2457151656453
 10
72.5090491771272
 20
303.5886717086141
 10
72.13652110095532
 20
303.9230222945516
 10
71.62156748767407
 20
304.2444334273641
 10
70.97062754626782
 20
304.5489378218953
 10
70.1919105052522
 20
304.8326902633016
 10
69.29521250720532
 20
305.0920896773641
 10
68.29179453845532
 20
305.3239012008016
 10
67.19429087634595
 20
305.5252561812703
 10
66.01652598376782
 20
305.6935301070516
 10
64.77327036853345
 20
305.8266477828328
 10
63.48017954822095
 20
305.9229612593953
 10
62.15348887439282
 20
305.9812498336141
 10
60.80992197986157
 20
306.0007810836141
 10
59.46635508533032
 20
305.9812498336141
 10
58.1396644115022
 20
305.9229612593953
 10
56.8465735911897
 20
305.8266477828328
 10
55.60331797595532
 20
305.6935301070516
 10
54.42552256579907
 20
305.5252561812703
 10
53.32804942126782
 20
305.3239012008016
 10
52.32463145251782
 20
305.0920896773641
 10
51.427933454471
 20
304.8326902633016
 10
50.64921641345538
 20
304.5489378218953
 10
49.99830698962725
 20
304.2444334273641
 10
49.48332285876788
 20
303.9230222945516
 10
49.110794782596
 20
303.5886717086141
 10
48.88536143298663
 20
303.2457151656453
 10
48.80992197986163
 20
302.8983030562703
  0
LINE
  5
3DD5
330
A
100
AcDbEntity
  8
MODEL
100
AcDbLine
 10
48.80992067248454
 20
302.8983303236794
 30
0.0
 11
48.80991970294954
 21
290.263754684071
 31
0.0
  0
ELLIPSE
  5
3DD6
330
A
100
AcDbEntity
  8
MODEL
100
AcDbEllipse
 10
60.80991970294954
 20
290.2637539702021
 30
0.0
 11
-11.99999999999996
 21
9.208397648277206E-7
 31
0.0
210
0.0
220
0.0
230
-1.0
 40
0.2585366959841325
 41
0.0
 42
6.283185307179586
  0
ELLIPSE
  5
3DD7
330
A
100
AcDbEntity
  8
MODEL
100
AcDbEllipse
 10
60.80991972518783
 20
290.5535544129021
 30
0.0
 11
9.37499999999997
 21
-7.194060616003040E-7
 31
0.0
210
0.0
220
0.0
230
1.0
 40
0.2585366959841331
 41
4.588848892705482
 42
4.712389047096921
  0
ELLIPSE
  5
3DD8
330
A
100
AcDbEntity
  8
MODEL
100
AcDbEllipse
 10
60.80991972518783
 20
290.5535544129021
 30
0.0
 11
9.37499999999997
 21
-7.194060616003040E-7
 31
0.0
210
0.0
220
0.0
230
1.0
 40
0.2585366959841331
 41
3.882298652063036
 42
4.244487856828906
  0
ELLIPSE
  5
3DD9
330
A
100
AcDbEntity
  8
MODEL
100
AcDbEllipse
 10
60.80991972518783
 20
290.5535544129021
 30
0.0
 11
9.37499999999997
 21
-7.194060616003040E-7
 31
0.0
210
0.0
220
0.0
230
1.0
 40
0.2585366959841331
 41
3.141591529004121
 42
3.491402022492073
  0
ELLIPSE
  5
3DDA
330
A
100
AcDbEntity
  8
MODEL
100
AcDbEllipse
 10
60.80991972518783
 20
290.5535544129021
 30
0.0
 11
9.37499999999997
 21
-7.194060616003040E-7
 31
0.0
210
0.0
220
0.0
230
1.0
 40
0.2585366959841331
 41
6.077598838098968
 42
6.283186536868143
  0
ELLIPSE
  5
3DDB
330
A
100
AcDbEntity
  8
MODEL
100
AcDbEllipse
 10
60.80991972518783
 20
290.5535544129021
 30
0.0
 11
9.37499999999997
 21
-7.194060616003040E-7
 31
0.0
210
0.0
220
0.0
230
1.0
 40
0.2585366959841331
 41
5.362258033314776
 42
5.712129686037922
  0
ELLIPSE
  5
3DDC
330
A
100
AcDbEntity
  8
MODEL
100
AcDbEllipse
 10
60.80991972518783
 20
290.5535544129021
 30
0.0
 11
9.37499999999997
 21
-7.194060616003040E-7
 31
0.0
210
0.0
220
0.0
230
1.0
 40
0.2585366959841331
 41
4.712389047096921
 42
5.010803393301716
  0
ELLIPSE
  5
3DDD
330
A
100
AcDbEntity
  8
MODEL
100
AcDbEllipse
 10
60.80991970294954
 20
290.2637539702021
 30
0.0
 11
9.675000011920897
 21
-7.424270568357958E-7
 31
0.0
210
0.0
220
0.0
230
1.0
 40
0.2585366959841326
 41
0.0
 42
6.283185307179586
  0
LWPOLYLINE
  5
3DDE
330
A
100
AcDbEntity
  8
MODEL
100
AcDbPolyline
 90
       27
 70
     0
 43
0.0
 10
51.43492197986163
 20
290.5535764937703
 10
51.47779917712725
 20
290.7308836226766
 10
51.63810801501788
 20
290.9493894820516
 10
51.942337751346
 20
291.1993894820516
 10
52.39079356189282
 20
291.4542722945516
 10
52.97212290759595
 20
291.7006712203328
 10
53.67424082751782
 20
291.9307127242391
 10
54.4846351146272
 20
292.1385984664266
 10
55.3894202708772
 20
292.3207273726766
 10
56.3745276927522
 20
292.4738645797078
 10
57.42552256579907
 20
292.5951414351766
 10
58.52635264392407
 20
292.6829710250203
 10
59.6602942943147
 20
292.7364988570516
 10
60.81062388415845
 20
292.7547483687703
 10
61.96064829822095
 20
292.7369261031453
 10
63.0938880443147
 20
292.6830320601766
 10
64.1941077708772
 20
292.5946531539266
 10
65.2451331615022
 20
292.4733762984578
 10
66.23078989978345
 20
292.3207884078328
 10
67.13545298572095
 20
292.1389036422078
 10
67.9454505443147
 20
291.9308958297078
 10
68.64756846423657
 20
291.7003050093953
 10
69.22905039783032
 20
291.4536619429891
 10
69.67744517322095
 20
291.1993894820516
 10
69.98185801501782
 20
290.9492063765828
 10
70.14189219470532
 20
290.7317381148641
 10
70.18492197986157
 20
290.5535764937703
  0
LINE
  5
3DDF
330
A
100
AcDbEntity
  8
MODEL
100
AcDbLine
 10
72.80992067248431
 20
302.8983288959415
 30
0.0
 11
72.80991970294943
 21
290.263753256333
 31
0.0
  0
LINE
  5
3DE0
330
A
100
AcDbEntity
  8
MODEL
100
AcDbLine
 10
72.80991430823443
 20
325.1421922559296
 30
0.0
 11
72.80991111851691
 21
302.8983288959427
 31
0.0
  0
ELLIPSE
  5
3DE1
330
A
100
AcDbEntity
  8
MODEL
100
AcDbEllipse
 10
60.80991898615949
 20
290.2637558230318
 30
0.0
 11
8.499999999999975
 21
-6.672706476776325E-7
 31
0.0
210
0.0
220
0.0
230
1.0
 40
0.2585366959228508
 41
5.042629300026322
 42
5.352985121860883
  0
ELLIPSE
  5
3DE2
330
A
100
AcDbEntity
  8
MODEL
100
AcDbEllipse
 10
60.80991898615949
 20
290.2637558230318
 30
0.0
 11
8.499999999999975
 21
-6.672706476776325E-7
 31
0.0
210
0.0
220
0.0
230
1.0
 40
0.2585366959228508
 41
5.828027463423803
 42
6.138383285258288
  0
ELLIPSE
  5
3DE3
330
A
100
AcDbEntity
  8
MODEL
100
AcDbEllipse
 10
60.80991898615949
 20
290.2637558230318
 30
0.0
 11
8.499999999999975
 21
-6.672706476776325E-7
 31
0.0
210
0.0
220
0.0
230
1.0
 40
0.2585366959228508
 41
0.3302403196416132
 42
0.6405961414762037
  0
ELLIPSE
  5
3DE4
330
A
100
AcDbEntity
  8
MODEL
100
AcDbEllipse
 10
60.80991898615949
 20
290.2637558230318
 30
0.0
 11
8.499999999999975
 21
-6.672706476776325E-7
 31
0.0
210
0.0
220
0.0
230
1.0
 40
0.2585366959228508
 41
1.1156384830391
 42
1.425994304873616
  0
ELLIPSE
  5
3DE5
330
A
100
AcDbEntity
  8
MODEL
100
AcDbEllipse
 10
60.80991898615949
 20
290.2637558230318
 30
0.0
 11
8.499999999999975
 21
-6.672706476776325E-7
 31
0.0
210
0.0
220
0.0
230
1.0
 40
0.2585366959228508
 41
1.901036646436529
 42
2.211392468271091
  0
ELLIPSE
  5
3DE6
330
A
100
AcDbEntity
  8
MODEL
100
AcDbEllipse
 10
60.80991898615949
 20
290.2637558230318
 30
0.0
 11
8.499999999999975
 21
-6.672706476776325E-7
 31
0.0
210
0.0
220
0.0
230
1.0
 40
0.2585366959228508
 41
2.68643480983401
 42
2.996790631668497
  0
ELLIPSE
  5
3DE7
330
A
100
AcDbEntity
  8
MODEL
100
AcDbEllipse
 10
60.80991898615949
 20
290.2637558230318
 30
0.0
 11
8.499999999999975
 21
-6.672706476776325E-7
 31
0.0
210
0.0
220
0.0
230
1.0
 40
0.2585366959228508
 41
3.471832973231352
 42
3.782188795065995
  0
ELLIPSE
  5
3DE8
330
A
100
AcDbEntity
  8
MODEL
100
AcDbEllipse
 10
60.80991898615949
 20
290.2637558230318
 30
0.0
 11
8.499999999999975
 21
-6.672706476776325E-7
 31
0.0
210
0.0
220
0.0
230
1.0
 40
0.2585366959228508
 41
4.257231136628892
 42
4.567586958463422
  0
ELLIPSE
  5
3DE9
330
A
100
AcDbEntity
  8
MODEL
100
AcDbEllipse
 10
60.80991906199293
 20
291.2297572603296
 30
0.0
 11
8.499999999999975
 21
-6.672706476776325E-7
 31
0.0
210
0.0
220
0.0
230
1.0
 40
0.2585366959228508
 41
5.04262930002633
 42
5.352985121860883
  0
ELLIPSE
  5
3DEA
330
A
100
AcDbEntity
  8
MODEL
100
AcDbEllipse
 10
60.80991906199293
 20
291.2297572603296
 30
0.0
 11
8.499999999999975
 21
-6.672706476776325E-7
 31
0.0
210
0.0
220
0.0
230
1.0
 40
0.2585366959228508
 41
5.828027463423803
 42
6.138383285258288
  0
ELLIPSE
  5
3DEB
330
A
100
AcDbEntity
  8
MODEL
100
AcDbEllipse
 10
60.80991906199293
 20
291.2297572603296
 30
0.0
 11
8.499999999999975
 21
-6.672706476776325E-7
 31
0.0
210
0.0
220
0.0
230
1.0
 40
0.2585366959228508
 41
3.471832973231352
 42
3.782188795065995
  0
ELLIPSE
  5
3DEC
330
A
100
AcDbEntity
  8
MODEL
100
AcDbEllipse
 10
60.80991906199293
 20
291.2297572603296
 30
0.0
 11
8.499999999999975
 21
-6.672706476776325E-7
 31
0.0
210
0.0
220
0.0
230
1.0
 40
0.2585366959228508
 41
4.257231136628892
 42
4.567586958463422
  0
LINE
  5
3DED
330
A
100
AcDbEntity
  8
MODEL
100
AcDbLine
 10
63.56621698150221
 20
288.1849401749741
 30
0.0
 11
63.56621705733565
 21
289.1509416122718
 31
0.0
  0
LINE
  5
3DEE
330
A
100
AcDbEntity
  8
MODEL
100
AcDbLine
 10
65.89014357886074
 20
288.5018830079487
 30
0.0
 11
65.89014365469419
 21
289.4678844452463
 31
0.0
  0
LINE
  5
3DEF
330
A
100
AcDbEntity
  8
MODEL
100
AcDbLine
 10
68.44454794047923
 20
289.2976980105938
 30
0.0
 11
68.44454801631267
 21
290.2636994478916
 31
0.0
  0
LINE
  5
3DF0
330
A
100
AcDbEntity
  8
MODEL
100
AcDbLine
 10
69.22096215018385
 20
289.946654611807
 30
0.0
 11
69.22096222601729
 21
290.9126560491047
 31
0.0
  0
LINE
  5
3DF1
330
A
100
AcDbEntity
  8
MODEL
100
AcDbLine
 10
67.62470570972712
 20
291.577179804556
 30
0.0
 11
67.62470574444129
 21
292.0193836151191
 31
0.0
  0
LINE
  5
3DF2
330
A
100
AcDbEntity
  8
MODEL
100
AcDbLine
 10
58.05362099081677
 20
292.3425714710896
 30
0.0
 11
58.05362101493407
 21
292.6497901915656
 31
0.0
  0
LINE
  5
3DF3
330
A
100
AcDbEntity
  8
MODEL
100
AcDbLine
 10
53.17529003183986
 20
291.2298136354697
 30
0.0
 11
53.17529007450402
 21
291.7732890395343
 31
0.0
  0
LINE
  5
3DF4
330
A
100
AcDbEntity
  8
MODEL
100
AcDbLine
 10
52.76922117061703
 20
289.5511522353602
 30
0.0
 11
52.76922124645048
 21
290.517153672658
 31
0.0
  0
LINE
  5
3DF5
330
A
100
AcDbEntity
  8
MODEL
100
AcDbLine
 10
53.99513226259185
 20
288.9503318415075
 30
0.0
 11
53.9951323384254
 21
289.9163332788053
 31
0.0
  0
LINE
  5
3DF6
330
A
100
AcDbEntity
  8
MODEL
100
AcDbLine
 10
57.07328403879538
 20
288.2899243523132
 30
0.0
 11
57.07328411462882
 21
289.2559257896108
 31
0.0
  0
LINE
  5
3DF7
330
A
100
AcDbEntity
  8
MODEL
100
AcDbLine
 10
59.5833983410345
 20
288.0891926039894
 30
0.0
 11
59.58339841686794
 21
289.0551940412872
 31
0.0
  0
LINE
  5
3DF8
330
A
100
AcDbEntity
  8
MODEL
100
AcDbLine
 10
65.89014357886074
 20
288.5018830079487
 30
0.0
 11
66.48256475679366
 21
288.3747809638945
 31
0.0
  0
LINE
  5
3DF9
330
A
100
AcDbEntity
  8
MODEL
100
AcDbLine
 10
69.03696911841215
 20
289.1705959665397
 30
0.0
 11
68.44454794047923
 21
289.2976980105938
 31
0.0
  0
ELLIPSE
  5
3DFA
330
A
100
AcDbEntity
  8
MODEL
100
AcDbEllipse
 10
60.80991898615949
 20
290.2637558230318
 30
0.0
 11
-9.249999999999972
 21
7.261474695647630E-7
 31
0.0
210
0.0
220
0.0
230
-1.0
 40
0.2585366959228508
 41
3.26681084532041
 42
3.616334327536257
  0
LINE
  5
3DFB
330
A
100
AcDbEntity
  8
MODEL
100
AcDbLine
 10
69.22096215018385
 20
289.946654611807
 30
0.0
 11
69.98749553840722
 21
289.9650821920275
 31
0.0
  0
LINE
  5
3DFC
330
A
100
AcDbEntity
  8
MODEL
100
AcDbLine
 10
69.6171501899253
 20
290.9947869909237
 30
0.0
 11
68.85061680170193
 21
290.9763594107033
 31
0.0
  0
ELLIPSE
  5
3DFD
330
A
100
AcDbEntity
  8
MODEL
100
AcDbEllipse
 10
60.80991898615949
 20
290.2637558230318
 30
0.0
 11
-9.249999999999972
 21
7.261474695647630E-7
 31
0.0
210
0.0
220
0.0
230
-1.0
 40
0.2585366959228508
 41
2.481412681922978
 42
2.830936164138771
  0
LINE
  5
3DFE
330
A
100
AcDbEntity
  8
MODEL
100
AcDbLine
 10
67.62470570972712
 20
291.577179804556
 30
0.0
 11
68.11632644543161
 21
291.7303423824796
 31
0.0
  0
LINE
  5
3DFF
330
A
100
AcDbEntity
  8
MODEL
100
AcDbLine
 10
65.03817466922808
 20
292.3907498716741
 30
0.0
 11
64.54655393352371
 21
292.2375872937506
 31
0.0
  0
ELLIPSE
  5
3E00
330
A
100
AcDbEntity
  8
MODEL
100
AcDbEllipse
 10
60.80991898615949
 20
290.2637558230318
 30
0.0
 11
-9.249999999999972
 21
7.261474695647630E-7
 31
0.0
210
0.0
220
0.0
230
-1.0
 40
0.2585366959228508
 41
1.696014518525553
 42
2.045538000741328
  0
LINE
  5
3E01
330
A
100
AcDbEntity
  8
MODEL
100
AcDbLine
 10
62.03643963128448
 20
292.4383190420742
 30
0.0
 11
61.96516295503821
 21
292.6364960568013
 31
0.0
  0
LINE
  5
3E02
330
A
100
AcDbEntity
  8
MODEL
100
AcDbLine
 10
57.98234431457038
 20
292.5407484858167
 30
0.0
 11
58.05362099081677
 21
292.3425714710896
 31
0.0
  0
ELLIPSE
  5
3E03
330
A
100
AcDbEntity
  8
MODEL
100
AcDbEllipse
 10
60.80991898615949
 20
290.2637558230318
 30
0.0
 11
-9.249999999999972
 21
7.261474695647630E-7
 31
0.0
210
0.0
220
0.0
230
-1.0
 40
0.2585366959228508
 41
0.9106163551280461
 42
1.260139837343869
  0
LINE
  5
3E04
330
A
100
AcDbEntity
  8
MODEL
100
AcDbLine
 10
55.72969439345835
 20
292.0256286381148
 30
0.0
 11
55.13727321552543
 21
292.152730682169
 31
0.0
  0
LINE
  5
3E05
330
A
100
AcDbEntity
  8
MODEL
100
AcDbLine
 10
52.58286885390694
 20
291.3569156795239
 30
0.0
 11
53.17529003183986
 21
291.2298136354697
 31
0.0
  0
ELLIPSE
  5
3E06
330
A
100
AcDbEntity
  8
MODEL
100
AcDbEllipse
 10
60.80991898615949
 20
290.2637558230318
 30
0.0
 11
-9.249999999999972
 21
7.261474695647630E-7
 31
0.0
210
0.0
220
0.0
230
-1.0
 40
0.2585366959228508
 41
0.1252181917306187
 42
0.4747416739464643
  0
LINE
  5
3E07
330
A
100
AcDbEntity
  8
MODEL
100
AcDbLine
 10
52.39887582213525
 20
290.5808570342566
 30
0.0
 11
51.63234243391176
 21
290.562429454036
 31
0.0
  0
LINE
  5
3E08
330
A
100
AcDbEntity
  8
MODEL
100
AcDbLine
 10
52.00268778239362
 20
289.5327246551398
 30
0.0
 11
52.76922117061703
 21
289.5511522353602
 31
0.0
  0
ELLIPSE
  5
3E09
330
A
100
AcDbEntity
  8
MODEL
100
AcDbEllipse
 10
60.80991898615949
 20
290.2637558230318
 30
0.0
 11
-9.249999999999972
 21
7.261474695647630E-7
 31
0.0
210
0.0
220
0.0
230
-1.0
 40
0.2585366959228508
 41
5.62300533551277
 42
5.972528817728564
  0
LINE
  5
3E0A
330
A
100
AcDbEntity
  8
MODEL
100
AcDbLine
 10
53.99513226259185
 20
288.9503318415075
 30
0.0
 11
53.50351152688737
 21
288.797169263584
 31
0.0
  0
LINE
  5
3E0B
330
A
100
AcDbEntity
  8
MODEL
100
AcDbLine
 10
56.58166330309089
 20
288.1367617743894
 30
0.0
 11
57.07328403879526
 21
288.2899243523131
 31
0.0
  0
ELLIPSE
  5
3E0C
330
A
100
AcDbEntity
  8
MODEL
100
AcDbEllipse
 10
60.80991898615949
 20
290.2637558230318
 30
0.0
 11
-9.249999999999972
 21
7.261474695647630E-7
 31
0.0
210
0.0
220
0.0
230
-1.0
 40
0.2585366959228508
 41
4.837607172115344
 42
5.187130654331114
  0
LINE
  5
3E0D
330
A
100
AcDbEntity
  8
MODEL
100
AcDbLine
 10
59.5833983410345
 20
288.0891926039894
 30
0.0
 11
59.65467501728077
 21
287.8910155892622
 31
0.0
  0
ELLIPSE
  5
3E0E
330
A
100
AcDbEntity
  8
MODEL
100
AcDbEllipse
 10
60.80991898615949
 20
290.2637558230318
 30
0.0
 11
-9.249999999999972
 21
7.261474695647630E-7
 31
0.0
210
0.0
220
0.0
230
-1.0
 40
0.2585366959228508
 41
4.052209008717837
 42
4.401732490933659
  0
LINE
  5
3E0F
330
A
100
AcDbEntity
  8
MODEL
100
AcDbLine
 10
63.63749365774848
 20
287.9867631602469
 30
0.0
 11
63.56621698150221
 21
288.1849401749741
 31
0.0
  0
LINE
  5
3E10
330
A
100
AcDbEntity
  8
MODEL
100
AcDbLine
 10
66.4825648326271
 20
289.3407824011924
 30
0.0
 11
66.48256475679366
 21
288.3747809638946
 31
0.0
  0
LINE
  5
3E11
330
A
100
AcDbEntity
  8
MODEL
100
AcDbLine
 10
69.98749561424066
 20
290.9310836293254
 30
0.0
 11
69.98749553840722
 21
289.9650821920278
 31
0.0
  0
LINE
  5
3E12
330
A
100
AcDbEntity
  8
MODEL
100
AcDbLine
 10
69.6171501899253
 20
290.9947869909237
 30
0.0
 11
69.6171502090921
 21
291.2389436169722
 31
0.0
  0
LINE
  5
3E13
330
A
100
AcDbEntity
  8
MODEL
100
AcDbLine
 10
68.11632645717182
 20
291.8798947608485
 30
0.0
 11
68.11632644543161
 21
291.7303423824798
 31
0.0
  0
LINE
  5
3E14
330
A
100
AcDbEntity
  8
MODEL
100
AcDbLine
 10
65.03817466922808
 20
292.3907498716741
 30
0.0
 11
65.03817467783225
 21
292.5003524633739
 31
0.0
  0
LINE
  5
3E15
330
A
100
AcDbEntity
  8
MODEL
100
AcDbLine
 10
61.96516296290989
 20
292.7367700909018
 30
0.0
 11
61.96516295503821
 21
292.6364960568013
 31
0.0
  0
LINE
  5
3E16
330
A
100
AcDbEntity
  8
MODEL
100
AcDbLine
 10
57.98234431457027
 20
292.5407484858167
 30
0.0
 11
57.98234432269206
 21
292.6442063278739
 31
0.0
  0
LINE
  5
3E17
330
A
100
AcDbEntity
  8
MODEL
100
AcDbLine
 10
55.13727322507512
 20
292.2743790950379
 30
0.0
 11
55.13727321552543
 21
292.152730682169
 31
0.0
  0
LINE
  5
3E18
330
A
100
AcDbEntity
  8
MODEL
100
AcDbLine
 10
52.58286885390694
 20
291.3569156795239
 30
0.0
 11
52.58286886854003
 21
291.5433191375959
 31
0.0
  0
LINE
  5
3E19
330
A
100
AcDbEntity
  8
MODEL
100
AcDbLine
 10
51.63234246381828
 20
290.9433932907215
 30
0.0
 11
51.6323424339117
 21
290.562429454036
 31
0.0
  0
LINE
  5
3E1A
330
A
100
AcDbEntity
  8
MODEL
100
AcDbLine
 10
52.00268778239362
 20
289.5327246551398
 30
0.0
 11
52.00268785822712
 21
290.4987260924374
 31
0.0
  0
LINE
  5
3E1B
330
A
100
AcDbEntity
  8
MODEL
100
AcDbLine
 10
56.58166330309089
 20
288.1367617743894
 30
0.0
 11
56.58166337892433
 21
289.102763211687
 31
0.0
  0
LINE
  5
3E1C
330
A
100
AcDbEntity
  8
MODEL
100
AcDbLine
 10
59.65467509311432
 20
288.85701702656
 30
0.0
 11
59.65467501728077
 21
287.8910155892623
 31
0.0
  0
ELLIPSE
  5
3E1D
330
A
100
AcDbEntity
  8
MODEL
100
AcDbEllipse
 10
60.80991906199293
 20
291.2297572603296
 30
0.0
 11
-9.249999999999972
 21
7.261474695647630E-7
 31
0.0
210
0.0
220
0.0
230
-1.0
 40
0.2585366959228508
 41
3.741540058350476
 42
4.052209008717837
  0
ELLIPSE
  5
3E1E
330
A
100
AcDbEntity
  8
MODEL
100
AcDbEllipse
 10
60.80991906199293
 20
291.2297572603296
 30
0.0
 11
-9.249999999999972
 21
7.261474695647630E-7
 31
0.0
210
0.0
220
0.0
230
-1.0
 40
0.2585366959228508
 41
4.409815060102398
 42
4.837607172115334
  0
ELLIPSE
  5
3E1F
330
A
100
AcDbEntity
  8
MODEL
100
AcDbEllipse
 10
60.80991906199293
 20
291.2297572603296
 30
0.0
 11
-9.249999999999972
 21
7.261474695647630E-7
 31
0.0
210
0.0
220
0.0
230
-1.0
 40
0.2585366959228508
 41
5.187130654331114
 42
5.540616014499389
  0
ELLIPSE
  5
3E20
330
A
100
AcDbEntity
  8
MODEL
100
AcDbEllipse
 10
60.80991906199293
 20
291.2297572603296
 30
0.0
 11
-9.249999999999972
 21
7.261474695647630E-7
 31
0.0
210
0.0
220
0.0
230
-1.0
 40
0.2585366959228508
 41
5.972528817728564
 42
6.003391035827973
  0
LINE
  5
3E21
330
A
100
AcDbEntity
  8
MODEL
100
AcDbLine
 10
65.89014365469407
 20
289.4678844452465
 30
0.0
 11
66.48256483262699
 21
289.3407824011924
 31
0.0
  0
LINE
  5
3E22
330
A
100
AcDbEntity
  8
MODEL
100
AcDbLine
 10
69.22096222601729
 20
290.9126560491048
 30
0.0
 11
69.98749561424066
 21
290.9310836293254
 31
0.0
  0
LINE
  5
3E23
330
A
100
AcDbEntity
  8
MODEL
100
AcDbLine
 10
52.00268785822712
 20
290.4987260924374
 30
0.0
 11
52.76922124645048
 21
290.517153672658
 31
0.0
  0
LINE
  5
3E24
330
A
100
AcDbEntity
  8
MODEL
100
AcDbLine
 10
56.58166337892422
 20
289.1027632116871
 30
0.0
 11
57.07328411462871
 21
289.2559257896108
 31
0.0
  0
LINE
  5
3E25
330
A
100
AcDbEntity
  8
MODEL
100
AcDbLine
 10
59.58339841686794
 20
289.0551940412872
 30
0.0
 11
59.65467509311421
 21
288.85701702656
 31
0.0
  0
LINE
  5
3E26
330
A
100
AcDbEntity
  8
MODEL
100
AcDbLine
 10
70.00776915761506
 20
290.9216139217395
 30
0.0
 11
69.98749566752704
 21
290.8970364547483
 31
0.0
  0
LINE
  5
3E27
330
A
100
AcDbEntity
  8
MODEL
100
AcDbLine
 10
51.63234267028034
 20
290.8969566467135
 30
0.0
 11
51.61206710304126
 21
290.9215448347994
 31
0.0
  0
ARC
  5
3E28
330
A
100
AcDbEntity
  8
MODEL
100
AcDbCircle
 10
60.80994709999518
 20
325.1422069695313
 30
0.0
 40
32.5
100
AcDbArc
 50
309.3911722453822
 51
248.331788411084
  0
ARC
  5
3E29
330
A
100
AcDbEntity
  8
MODEL
100
AcDbCircle
 10
60.80994709999518
 20
325.1422069695313
 30
0.0
 40
32.5
100
AcDbArc
 50
291.6681577225187
 51
309.3911722444893
  0
ARC
  5
3E2A
330
A
100
AcDbEntity
  8
MODEL
100
AcDbCircle
 10
60.80994706777315
 20
325.1422069434294
 30
0.0
 40
32.0
100
AcDbArc
 50
309.3911722453823
 51
247.9756598026246
  0
ARC
  5
3E2B
330
A
100
AcDbEntity
  8
MODEL
100
AcDbCircle
 10
60.80994706777315
 20
325.1422069434294
 30
0.0
 40
32.0
100
AcDbArc
 50
292.0242854766039
 51
309.3911722444892
  0
LINE
  5
3E2C
330
A
100
AcDbEntity
  8
MODEL
100
AcDbLine
 10
182.5424630754678
 20
292.679551202858
 30
0.0
 11
182.5424664687377
 21
357.679551202858
 31
0.0
  0
LINE
  5
3E2D
330
A
100
AcDbEntity
  8
MODEL
100
AcDbLine
 10
183.0424631015697
 20
293.1795511767559
 30
0.0
 11
183.0424664426353
 21
357.1795511767559
 31
0.0
  0
ARC
  5
3E2E
330
A
100
AcDbEntity
  8
MODEL
100
AcDbCircle
 10
182.5424631015697
 20
293.1795512028581
 30
0.0
 40
0.5
100
AcDbArc
 50
269.9999970089262
 51
359.9999970087047
  0
ARC
  5
3E2F
330
A
100
AcDbEntity
  8
MODEL
100
AcDbCircle
 10
182.5424664426356
 20
357.179551202858
 30
0.0
 40
0.5
100
AcDbArc
 50
359.9999970091346
 51
89.99999700892619
  0
LINE
  5
3E30
330
A
100
AcDbEntity
  8
MODEL
100
AcDbLine
 10
182.5424630754677
 20
292.6795512028581
 30
0.0
 11
177.0424630754677
 21
292.6795514899811
 31
0.0
  0
LINE
  5
3E31
330
A
100
AcDbEntity
  8
MODEL
100
AcDbLine
 10
182.5424664687376
 20
357.679551202858
 30
0.0
 11
177.0424664687376
 21
357.679551489981
 31
0.0
  0
LINE
  5
3E32
330
A
100
AcDbEntity
  8
MODEL
100
AcDbLine
 10
365.7504055484328
 20
287.1986518752288
 30
0.0
 11
377.342422741932
 21
290.3010922126192
 31
0.0
  0
LINE
  5
3E33
330
A
100
AcDbEntity
  8
MODEL
100
AcDbLine
 10
377.342422741932
 20
290.3010922126192
 30
0.0
 11
388.9344400431848
 21
293.4035325788481
 31
0.0
  0
LINE
  5
3E34
330
A
100
AcDbEntity
  8
MODEL
100
AcDbLine
 10
344.9809552163065
 20
337.1795364584091
 30
0.0
 11
233.0424631015696
 21
337.1795423020628
 31
0.0
  0
LINE
  5
3E35
330
A
100
AcDbEntity
  8
MODEL
100
AcDbLine
 10
385.552973603322
 20
306.0381082184563
 30
0.0
 11
388.9344400431848
 21
293.4035325788479
 31
0.0
  0
LINE
  5
3E36
330
A
100
AcDbEntity
  8
MODEL
100
AcDbLine
 10
362.3689391085702
 20
299.8332275148371
 30
0.0
 11
365.7504055484328
 21
287.1986518752287
 31
0.0
  0
ARC
  5
3E37
330
A
100
AcDbEntity
  8
MODEL
100
AcDbCircle
 10
344.9799673658601
 20
295.1782934897099
 30
0.0
 40
42.00124298031702
100
AcDbArc
 50
14.98459714563685
 51
89.99865242889666
  0
ARC
  5
3E38
330
A
100
AcDbEntity
  8
MODEL
100
AcDbCircle
 10
344.9808197630167
 20
295.1794040191588
 30
0.0
 40
18.00013242061526
100
AcDbArc
 50
14.98367674448946
 51
89.99957283003391
  0
LINE
  5
3E39
330
A
100
AcDbEntity
  8
MODEL
100
AcDbLine
 10
177.0424681705866
 20
357.6795396845052
 30
0.0
 11
177.0424681725228
 21
357.7166288601517
 31
0.0
  0
LINE
  5
3E3A
330
A
100
AcDbEntity
  8
MODEL
100
AcDbLine
 10
176.3524678700303
 20
351.9222136859511
 30
0.0
 11
176.3524678719665
 21
351.9593028701801
 31
0.0
  0
ARC
  5
3E3B
330
A
100
AcDbEntity
  8
MODEL
100
AcDbCircle
 10
177.6474678616472
 20
351.7616288285681
 30
0.0
 40
1.31
100
AcDbArc
 50
117.5053873887689
 51
171.3211329115081
  0
LINE
  5
3E3C
330
A
100
AcDbEntity
  8
MODEL
100
AcDbLine
 10
176.3524633760242
 20
298.436877551994
 30
0.0
 11
176.3524647721027
 21
325.1795515229113
 31
0.0
  0
LINE
  5
3E3D
330
A
100
AcDbEntity
  8
MODEL
100
AcDbLine
 10
176.3524647721027
 20
325.1795515229113
 30
0.0
 11
176.3524661681812
 21
351.9222255000092
 31
0.0
  0
ARC
  5
3E3E
330
A
100
AcDbEntity
  8
MODEL
100
AcDbCircle
 10
177.6474633863434
 20
298.6345514583974
 30
0.0
 40
1.31
100
AcDbArc
 50
188.6788611063406
 51
242.4946066290694
  0
ARC
  5
3E3F
330
A
100
AcDbEntity
  8
MODEL
100
AcDbCircle
 10
177.6474661578619
 20
351.7245514583975
 30
0.0
 40
1.31
100
AcDbArc
 50
117.505387388751
 51
171.3211329115081
  0
LINE
  5
3E40
330
A
100
AcDbEntity
  8
MODEL
100
AcDbLine
 10
233.0424631015697
 20
310.6422092299729
 30
0.0
 11
233.0424631015697
 21
339.6422047090916
 31
0.0
  0
LINE
  5
3E41
330
A
100
AcDbEntity
  8
MODEL
100
AcDbLine
 10
344.9809539634068
 20
313.1795364392729
 30
0.0
 11
233.0424631015697
 21
313.1795422829263
 31
0.0
  0
LINE
  5
3E42
330
A
100
AcDbEntity
  8
MODEL
100
AcDbLine
 10
177.0424630754678
 20
292.679551489981
 30
0.0
 11
177.0424664687377
 21
357.679551489981
 31
0.0
  0
LINE
  5
3E43
330
A
100
AcDbEntity
  8
MODEL
100
AcDbLine
 10
183.042465527113
 20
339.6422047090916
 30
0.0
 11
233.0424631015697
 21
339.6422047090916
 31
0.0
  0
LINE
  5
3E44
330
A
100
AcDbEntity
  8
MODEL
100
AcDbLine
 10
183.0424640131929
 20
310.6422092299728
 30
0.0
 11
233.0424631015697
 21
310.6422092299729
 31
0.0
  0
DIMENSION
  5
3E64
330
A
100
AcDbEntity
  8
DIM
100
AcDbDimension
  2
*D15
 10
377.0424631015697
 20
246.8497177757127
 30
0.0
 11
277.0424631015697
 21
252.3506556274071
 31
0.0
 70
    32
 71
     5
 42
200.0
 73
     0
 74
     0
 75
     0
  3
tfrom線あり
100
AcDbAlignedDimension
 13
177.0424631015697
 23
289.5679309174511
 33
0.0
 14
377.0424631015697
 24
289.5679309174511
 34
0.0
100
AcDbRotatedDimension
  0
LINE
  5
3E90
330
A
100
AcDbEntity
  8
DIM
100
AcDbLine
 10
63.06980944523818
 20
357.5635428794002
 30
0.0
 11
78.31475789620083
 21
382.4926347707702
 31
0.0
  0
LINE
  5
3E91
330
A
100
AcDbEntity
  8
DIM
100
AcDbLine
 10
78.31475789620083
 20
382.4926347707702
 30
0.0
 11
95.6656682059609
 21
382.4926347707702
 31
0.0
  0
MTEXT
  5
3EAE
330
A
100
AcDbEntity
  8
DIM
390
1D
100
AcDbMText
 10
81.02656742157873
 20
388.5208949899344
 30
0.0
 40
4.8865234375
 41
0.0
 46
4.8865234375
 71
     1
 72
     1
  1
{%%c65}
  7
ＭＳ ゴシック
 73
     1
 44
0.7828267384257843
1001
ACAD
1000
ACAD_MTEXT_DEFINED_HEIGHT_BEGIN
1070
    46
1040
4.8865234375
1000
ACAD_MTEXT_DEFINED_HEIGHT_END
  0
LINE
  5
3EB0
330
A
100
AcDbEntity
  8
MODEL
100
AcDbLine
 10
176.3524653377274
 20
336.0144123008255
 30
0.0
 11
126.3524636331532
 21
336.0144123008255
 31
0.0
  0
LINE
  5
3EB2
330
A
100
AcDbEntity
  8
MODEL
100
AcDbLine
 10
125.3361247992228
 20
334.8790244025651
 30
0.0
 11
125.3361247992228
 21
325.1795515229111
 31
0.0
  0
LINE
  5
3EB3
330
A
100
AcDbEntity
  8
MODEL
100
AcDbLine
 10
176.3524652784554
 20
334.8790244025651
 30
0.0
 11
125.3361247992228
 21
334.8790244025651
 31
0.0
  0
LINE
  5
3EB4
330
A
100
AcDbEntity
  8
MODEL
100
AcDbLine
 10
126.3524636331532
 20
336.0144123008255
 30
0.0
 11
126.3524636331532
 21
325.1795515229111
 31
0.0
  0
LINE
  5
3EB5
330
A
100
AcDbEntity
  8
MODEL
100
AcDbLine
 10
125.3361247992228
 20
334.8790244025651
 30
0.0
 11
126.3524636331532
 21
336.0144123008255
 31
0.0
  0
LINE
  5
3EB7
330
A
100
AcDbEntity
  8
MODEL
100
AcDbLine
 10
176.35246426575
 20
315.4800786432569
 30
0.0
 11
125.3361247992227
 21
315.4800786432575
 31
0.0
  0
LINE
  5
3EB8
330
A
100
AcDbEntity
  8
MODEL
100
AcDbLine
 10
125.3361247992227
 20
315.4800786432575
 30
0.0
 11
126.3524636331532
 21
314.344690744997
 31
0.0
  0
LINE
  5
3EB9
330
A
100
AcDbEntity
  8
MODEL
100
AcDbLine
 10
126.3524636331532
 20
314.344690744997
 30
0.0
 11
126.3524636331532
 21
325.1795515229114
 31
0.0
  0
LINE
  5
3EBA
330
A
100
AcDbEntity
  8
MODEL
100
AcDbLine
 10
176.352464206478
 20
314.3446907449969
 30
0.0
 11
126.3524636331532
 21
314.344690744997
 31
0.0
  0
LINE
  5
3EBB
330
A
100
AcDbEntity
  8
MODEL
100
AcDbLine
 10
125.3361247992227
 20
315.4800786432575
 30
0.0
 11
125.3361247992228
 21
325.1795515229114
 31
0.0
  0
MTEXT
  5
3ED7
330
A
100
AcDbEntity
  8
DIM
390
1D
100
AcDbMText
 10
102.997965807296
 20
327.5621170138675
 30
0.0
 40
4.8865234375
 41
0.0
 46
5.580670070612417
 71
     1
 72
     1
  1
{G1/2"}
  7
ＭＳ ゴシック
 73
     1
 44
0.7828267384257843
1001
ACAD
1000
ACAD_MTEXT_DEFINED_HEIGHT_BEGIN
1070
    46
1040
5.580670070612417
1000
ACAD_MTEXT_DEFINED_HEIGHT_END
  0
MTEXT
  5
3EF3
330
A
100
AcDbEntity
  8
DIM
390
1D
100
AcDbMText
 10
119.4980338936049
 20
322.3267201374391
 30
0.0
 40
4.8865234375
 41
0.0
 46
5.033174134636426
 71
     1
 72
     1
  1
{▼}
  7
ＭＳ ゴシック
 11
1.837589179357618E-15
 21
1.0
 31
0.0
 73
     1
 44
0.7828267384257843
1001
ACAD
1000
ACAD_MTEXT_DEFINED_HEIGHT_BEGIN
1070
    46
1040
5.033174134636426
1000
ACAD_MTEXT_DEFINED_HEIGHT_END
  0
DIMENSION
  5
3F1C
102
{ACAD_XDICTIONARY
360
3F1D
102
}
330
A
100
AcDbEntity
  8
DIM
100
AcDbDimension
  2
*D20
 10
177.0424631015697
 20
376.4231216386803
 30
0.0
 11
180.0873401397853
 21
376.4231216386803
 31
0.0
 70
   160
 71
     5
 42
6.0
 73
     0
 74
     0
 75
     0
 52
-90.0
  3
tfrom線あり
100
AcDbAlignedDimension
 13
183.0424631015697
 23
357.521734169795
 33
0.0
 14
177.0424631015697
 24
357.521734169795
 34
0.0
100
AcDbRotatedDimension
  0
MTEXT
  5
3F4E
330
A
100
AcDbEntity
  8
TEMPLATE
390
1D
100
AcDbMText
 10
265.840428909598
 20
79.356729717733
 30
0.0
 40
4.8865234375
 41
0.0
 46
5.458461156332062
 71
     1
 72
     1
  1
{AGN73-3811-083(マットコッパー)}
  7
ＭＳ ゴシック
 73
     1
 44
0.7828267384257843
1001
ACAD
1000
ACAD_MTEXT_DEFINED_HEIGHT_BEGIN
1070
    46
1040
5.458461156332062
1000
ACAD_MTEXT_DEFINED_HEIGHT_END
  0
MTEXT
  5
3F4F
330
A
100
AcDbEntity
  8
TEMPLATE
390
1D
100
AcDbMText
 10
265.840428909598
 20
87.23310282291195
 30
0.0
 40
4.8865234375
 41
0.0
 46
5.458461156332062
 71
     1
 72
     1
  1
{AGN73-3811-082(マットゴールド)}
  7
ＭＳ ゴシック
 73
     1
 44
0.7828267384257843
1001
ACAD
1000
ACAD_MTEXT_DEFINED_HEIGHT_BEGIN
1070
    46
1040
5.458461156332062
1000
ACAD_MTEXT_DEFINED_HEIGHT_END
  0
MTEXT
  5
3F50
330
A
100
AcDbEntity
  8
TEMPLATE
390
1D
100
AcDbMText
 10
265.840428909598
 20
95.10947592809087
 30
0.0
 40
4.8865234375
 41
0.0
 46
5.458461156332062
 71
     1
 72
     1
  1
{AGN73-3811-081(マットガンメタル)}
  7
ＭＳ ゴシック
 73
     1
 44
0.7828267384257843
1001
ACAD
1000
ACAD_MTEXT_DEFINED_HEIGHT_BEGIN
1070
    46
1040
5.458461156332062
1000
ACAD_MTEXT_DEFINED_HEIGHT_END
  0
MTEXT
  5
3F51
330
A
100
AcDbEntity
  8
TEMPLATE
390
1D
100
AcDbMText
 10
265.840428909598
 20
102.3914057800488
 30
0.0
 40
4.8865234375
 41
0.0
 46
5.458461156332062
 71
     1
 72
     1
  1
{AGN73-3811-001(クローム)}
  7
ＭＳ ゴシック
 73
     1
 44
0.7828267384257843
1001
ACAD
1000
ACAD_MTEXT_DEFINED_HEIGHT_BEGIN
1070
    46
1040
5.458461156332062
1000
ACAD_MTEXT_DEFINED_HEIGHT_END
  0
VIEWPORT
  5
349
330
B
100
AcDbEntity
 67
     1
  8
0
100
AcDbViewport
 10
202.5
 20
128.5
 30
0.0
 40
486.0
 41
308.4
 68
     1
 69
     1
 12
202.5
 22
128.5
 13
0.0
 23
0.0
 14
0.5
 24
0.5
 15
0.0
 25
0.0
 16
0.0
 26
0.0
 36
1.0
 17
0.0
 27
0.0
 37
0.0
 42
50.0
 43
0.0
 44
0.0
 45
308.4
 50
0.0
 51
0.0
 72
   100
 90
   557152
  1

281
     0
 71
     1
 74
     0
110
0.0
120
0.0
130
0.0
111
1.0
121
0.0
131
0.0
112
0.0
122
1.0
132
0.0
 79
     0
146
0.0
170
     0
 61
     5
348
26C
292
     1
282
     1
141
0.0
142
0.0
 63
   256
  0
VIEWPORT
  5
34A
330
B
100
AcDbEntity
 67
     1
  8
0
100
AcDbViewport
 10
202.5
 20
128.5
 30
0.0
 40
324.0
 41
205.6
 68
     2
 69
     2
 12
986.6781359294573
 22
1427.077061889956
 13
0.0
 23
0.0
 14
0.5
 24
0.5
 15
0.0
 25
0.0
 16
0.0
 26
0.0
 36
1.0
 17
0.0
 27
0.0
 37
0.0
 42
50.0
 43
0.0
 44
0.0
 45
2890.021615685494
 50
0.0
 51
0.0
 72
   100
 90
   557152
  1

281
     0
 71
     1
 74
     0
110
0.0
120
0.0
130
0.0
111
1.0
121
0.0
131
0.0
112
0.0
122
1.0
132
0.0
 79
     0
146
0.0
170
     0
 61
     5
348
26C
292
     1
282
     1
141
0.0
142
0.0
 63
   256
  0
ENDSEC
  0
SECTION
  2
OBJECTS
  0
DICTIONARY
  5
19
330
0
100
AcDbDictionary
281
     1
  3
ACAD_COLOR
350
674
  3
ACAD_DETAILVIEWSTYLE
350
BBF
  3
ACAD_FIELDLIST
350
3BE4
  3
ACAD_GROUP
350
1A
  3
ACAD_IMAGE_VARS
350
27B
  3
ACAD_LAYOUT
350
1E
  3
ACAD_MATERIAL
350
263
  3
ACAD_MLEADERSTYLE
350
336
  3
ACAD_MLINESTYLE
350
1B
  3
ACAD_PLOTSETTINGS
350
22
  3
ACAD_PLOTSTYLENAME
350
1F
  3
ACAD_SCALELIST
350
241
  3
ACAD_SECTIONVIEWSTYLE
350
BC0
  3
ACAD_TABLESTYLE
350
278
  3
ACAD_VISUALSTYLE
350
267
  3
ACDB_RECOMPOSE_DATA
350
3F55
  3
AcDbVariableDictionary
350
330
  3
APPDATA
350
27A
  3
DimOffsetDictionary
350
E38
  0
SUN
  5
904
330
15
100
AcDbSun
 90
        1
290
     0
 63
     7
421
 16777215
 40
1.0
291
     1
 91
  2455826
 92
 54000000
292
     0
 70
     2
 71
   256
280
     1
  0
DICTIONARY
  5
2E1
330
2
100
AcDbDictionary
280
     1
281
     1
  3
ACAD_LAYERSTATES
360
2E2
  3
ACLYDICTIONARY
360
DDE
  0
DICTIONARY
  5
3D3D
330
A
100
AcDbDictionary
280
     1
281
     1
  3
ACAD_SORTENTS
360
3D3E
  0
DICTIONARY
  5
3CB7
330
3CB5
100
AcDbDictionary
280
     1
281
     1
  3
ACAD_FIELD
360
3F52
  0
DICTIONARY
  5
3F1D
330
3F1C
100
AcDbDictionary
280
     1
281
     1
  3
ACAD_DIMASSOC
360
3F1E
  0
DICTIONARY
  5
674
102
{ACAD_REACTORS
330
19
102
}
330
19
100
AcDbDictionary
281
     1
  0
DICTIONARY
  5
BBF
102
{ACAD_REACTORS
330
19
102
}
330
19
100
AcDbDictionary
281
     1
  0
FIELDLIST
  5
3BE4
102
{ACAD_REACTORS
330
19
102
}
330
19
100
AcDbIdSet
 90
        2
330
3CB9
330
3CB6
100
AcDbFieldList
  0
DICTIONARY
  5
1A
102
{ACAD_REACTORS
330
19
102
}
330
19
100
AcDbDictionary
281
     1
  3
*A1
350
3C75
  0
RASTERVARIABLES
  5
27B
102
{ACAD_REACTORS
330
19
102
}
330
19
100
AcDbRasterVariables
 90
        0
 70
     1
 71
     1
 72
     1
  0
DICTIONARY
  5
1E
102
{ACAD_REACTORS
330
19
102
}
330
19
100
AcDbDictionary
281
     1
  3
Layout1
350
21
  3
Model
350
20
  0
DICTIONARY
  5
263
102
{ACAD_REACTORS
330
19
102
}
330
19
100
AcDbDictionary
281
     1
  3
ByBlock
350
265
  3
ByLayer
350
264
  3
Global
350
266
  0
DICTIONARY
  5
336
102
{ACAD_REACTORS
330
19
102
}
330
19
100
AcDbDictionary
281
     1
  3
Standard
350
D59
  0
DICTIONARY
  5
1B
102
{ACAD_REACTORS
330
19
102
}
330
19
100
AcDbDictionary
281
     1
  3
Standard
350
1C
  0
DICTIONARY
  5
22
102
{ACAD_REACTORS
330
19
102
}
330
19
100
AcDbDictionary
281
     1
  0
ACDBDICTIONARYWDFLT
  5
1F
102
{ACAD_REACTORS
330
19
102
}
330
19
100
AcDbDictionary
281
     1
  3
Normal
350
1D
100
AcDbDictionaryWithDefault
340
1D
  0
DICTIONARY
  5
241
102
{ACAD_REACTORS
330
19
102
}
330
19
100
AcDbDictionary
281
     1
  3
A0
350
242
  3
A1
350
243
  3
A2
350
244
  3
A3
350
245
  3
A4
350
246
  3
A5
350
247
  3
A6
350
248
  3
A7
350
249
  3
A8
350
24A
  3
A9
350
24B
  3
B0
350
24C
  3
B1
350
24D
  3
B2
350
24E
  3
B3
350
24F
  3
B4
350
250
  3
B5
350
251
  3
B6
350
252
  3
B7
350
253
  3
B8
350
254
  3
B9
350
255
  3
C0
350
256
  3
C1
350
257
  3
C2
350
258
  3
C3
350
259
  3
C4
350
25A
  3
C5
350
25B
  3
C6
350
25C
  3
C7
350
25D
  3
C8
350
25E
  3
C9
350
25F
  3
D0
350
260
  3
D1
350
261
  3
D2
350
262
  0
DICTIONARY
  5
BC0
102
{ACAD_REACTORS
330
19
102
}
330
19
100
AcDbDictionary
281
     1
  0
DICTIONARY
  5
278
102
{ACAD_REACTORS
330
19
102
}
330
19
100
AcDbDictionary
281
     1
  3
Standard
350
279
  0
DICTIONARY
  5
267
102
{ACAD_REACTORS
330
19
102
}
330
19
100
AcDbDictionary
281
     1
  3
2dWireframe
350
26C
  3
3D Hidden
350
26E
  3
3dWireframe
350
26D
  3
Basic
350
26F
  3
Brighten
350
273
  3
ColorChange
350
277
  3
Conceptual
350
271
  3
Dim
350
272
  3
EdgeColorOff
350
8FE
  3
Facepattern
350
276
  3
Flat
350
268
  3
FlatWithEdges
350
269
  3
Gouraud
350
26A
  3
GouraudWithEdges
350
26B
  3
Hidden
350
8FB
  3
JitterOff
350
8FC
  3
Linepattern
350
275
  3
OverhangOff
350
8FD
  3
Realistic
350
270
  3
Shaded
350
903
  3
Shaded with edges
350
902
  3
Shades of Gray
350
8FF
  3
Sketchy
350
900
  3
Thicken
350
274
  3
Wireframe
350
8FA
  3
X-Ray
350
901
  0
XRECORD
  5
3F55
102
{ACAD_REACTORS
330
19
102
}
330
19
100
AcDbXrecord
280
     1
 90
        1
330
279
  0
DICTIONARY
  5
330
102
{ACAD_REACTORS
330
19
102
}
330
19
100
AcDbDictionary
281
     1
  3
CANNOSCALE
350
331
  3
CMLEADERSTYLE
350
D5E
  3
CTABLESTYLE
350
335
  3
HPTRANSPARENCY
350
D52
  3
XCLIPFRAME
350
896
  0
DICTIONARY
  5
27A
102
{ACAD_REACTORS
330
19
102
}
330
19
100
AcDbDictionary
281
     1
  0
DICTIONARY
  5
E38
102
{ACAD_REACTORS
330
19
102
}
330
19
100
AcDbDictionary
281
     1
  3
DIMRAILANGLE
350
246C
  3
DIMRAILFIRSTOFFSET
350
246A
  3
DIMRAILOFFSET
350
246B
  3
DIMRAILSENABLED
350
246D
  0
DICTIONARY
  5
2E2
102
{ACAD_REACTORS
330
2E1
102
}
330
2E1
100
AcDbDictionary
281
     1
  0
DICTIONARY
  5
DDE
102
{ACAD_REACTORS
330
2E1
102
}
330
2E1
100
AcDbDictionary
281
     1
1001
ACAD
1000
<All
  0
SORTENTSTABLE
  5
3D3E
102
{ACAD_REACTORS
330
3D3D
102
}
330
3D3D
100
AcDbSortentsTable
330
A
331
0
  5
3C1E
331
3C64
  5
3C1F
331
3C65
  5
3C63
331
3C70
  5
3C64
331
3C71
  5
3C65
331
3C72
  5
3C70
331
3C73
  5
3C71
331
3C74
  5
3C72
331
3C9A
  5
3C74
331
3CB5
  5
3C92
  0
DICTIONARY
  5
3F52
102
{ACAD_REACTORS
330
3CB7
102
}
330
3CB7
100
AcDbDictionary
280
     1
281
     1
  3
TEXT
360
3CB6
  0
DIMASSOC
  5
3F1E
102
{ACAD_REACTORS
330
3F1D
102
}
330
3F1D
100
AcDbDimAssoc
330
3F1C
 90
        0
 70
     0
 71
     1
  0
GROUP
  5
3C75
102
{ACAD_REACTORS
330
1A
102
}
330
1A
100
AcDbGroup
300

 70
     1
 71
     1
340
3C64
340
3C65
340
3C70
340
3C71
340
3C72
340
3C73
340
3C74
  0
LAYOUT
  5
21
102
{ACAD_REACTORS
330
1E
102
}
330
1E
100
AcDbPlotSettings
  1

  2
none_device
  4
ISO_A3_(420.00_x_297.00_MM)
  6

 40
7.5
 41
20.0
 42
7.5
 43
20.0
 44
420.0
 45
297.0
 46
0.0
 47
0.0
 48
0.0
 49
0.0
140
0.0
141
0.0
142
1.0
143
1.0
 70
     0
 72
     1
 73
     0
 74
     0
  7

 75
     0
 76
     0
 77
     2
 78
   300
147
1.0
148
0.0
149
0.0
100
AcDbLayout
  1
Layout1
 70
     0
 71
     0
 10
-7.5
 20
-20.0
 11
412.5
 21
277.0
 12
0.0
 22
0.0
 32
0.0
 14
0.0
 24
0.0
 34
0.0
 15
0.0
 25
0.0
 35
0.0
146
0.0
 13
0.0
 23
0.0
 33
0.0
 16
0.0
 26
0.0
 36
0.0
 17
0.0
 27
0.0
 37
0.0
 76
     0
330
B
331
349
  0
LAYOUT
  5
20
102
{ACAD_REACTORS
330
1E
102
}
330
1E
100
AcDbPlotSettings
  1

  2
none_device
  4
ISO_A3_(420.00_x_297.00_MM)
  6

 40
7.5
 41
20.0
 42
7.5
 43
20.0
 44
420.0
 45
297.0
 46
0.0
 47
0.0
 48
0.0
 49
0.0
140
0.0
141
0.0
142
1.0
143
1.0
 70
  1024
 72
     1
 73
     0
 74
     0
  7

 75
     0
 76
     0
 77
     2
 78
   300
147
1.0
148
0.0
149
0.0
100
AcDbLayout
  1
Model
 70
     0
 71
     1
 10
0.0
 20
0.0
 11
420.0
 21
594.0
 12
0.0
 22
0.0
 32
0.0
 14
0.0
 24
0.0
 34
-0.0000000000000071
 15
420.0
 25
594.0
 35
0.0000000000000071
146
0.0
 13
0.0
 23
0.0
 33
0.0
 16
0.0
 26
0.0
 36
0.0
 17
0.0
 27
0.0
 37
0.0
 76
     0
330
A
331
15
  0
MATERIAL
  5
265
102
{ACAD_REACTORS
330
263
102
}
330
263
100
AcDbMaterial
  1
ByBlock
 72
     1
 94
      127
  0
MATERIAL
  5
264
102
{ACAD_REACTORS
330
263
102
}
330
263
100
AcDbMaterial
  1
ByLayer
 72
     1
 94
      127
  0
MATERIAL
  5
266
102
{ACAD_REACTORS
330
263
102
}
330
263
100
AcDbMaterial
  1
Global
 72
     1
 94
      127
  0
MLEADERSTYLE
  5
D59
102
{ACAD_REACTORS
330
336
102
}
330
336
100
AcDbMLeaderStyle
170
     2
171
     1
172
     0
 90
        2
 40
0.0
 41
0.0
173
     1
 91
-1056964608
340
11
 92
       -2
290
     1
 42
2.0
291
     1
 43
8.0
  3
Standard
341
0
 44
4.0
300

342
17
174
     1
178
     6
175
     1
176
     0
 93
-1056964608
 45
4.0
292
     0
297
     0
 46
4.0
343
0
 94
-1056964608
 47
1.0
 49
1.0
140
1.0
293
     1
141
0.0
294
     1
177
     0
142
1.0
295
     0
296
     0
143
3.75
1001
ACAD_MLEADERVER
1070
     2
  0
MLINESTYLE
  5
1C
102
{ACAD_REACTORS
330
1B
102
}
330
1B
100
AcDbMlineStyle
  2
Standard
 70
     0
  3

 62
     0
 51
90.0
 52
90.0
 71
     2
 49
0.5
 62
   256
  6
BYLAYER
 49
-0.5
 62
   256
  6
BYLAYER
  0
ACDBPLACEHOLDER
  5
1D
102
{ACAD_REACTORS
330
1F
102
}
330
1F
  0
SCALE
  5
242
102
{ACAD_REACTORS
330
241
102
}
330
241
100
AcDbScale
 70
     0
300
1:1
140
1.0
141
1.0
290
     1
  0
SCALE
  5
243
102
{ACAD_REACTORS
330
241
102
}
330
241
100
AcDbScale
 70
     0
300
1:2
140
1.0
141
2.0
290
     0
  0
SCALE
  5
244
102
{ACAD_REACTORS
330
241
102
}
330
241
100
AcDbScale
 70
     0
300
1:4
140
1.0
141
4.0
290
     0
  0
SCALE
  5
245
102
{ACAD_REACTORS
330
241
102
}
330
241
100
AcDbScale
 70
     0
300
1:5
140
1.0
141
5.0
290
     0
  0
SCALE
  5
246
102
{ACAD_REACTORS
330
241
102
}
330
241
100
AcDbScale
 70
     0
300
1:8
140
1.0
141
8.0
290
     0
  0
SCALE
  5
247
102
{ACAD_REACTORS
330
241
102
}
330
241
100
AcDbScale
 70
     0
300
1:10
140
1.0
141
10.0
290
     0
  0
SCALE
  5
248
102
{ACAD_REACTORS
330
241
102
}
330
241
100
AcDbScale
 70
     0
300
1:16
140
1.0
141
16.0
290
     0
  0
SCALE
  5
249
102
{ACAD_REACTORS
330
241
102
}
330
241
100
AcDbScale
 70
     0
300
1:20
140
1.0
141
20.0
290
     0
  0
SCALE
  5
24A
102
{ACAD_REACTORS
330
241
102
}
330
241
100
AcDbScale
 70
     0
300
1:30
140
1.0
141
30.0
290
     0
  0
SCALE
  5
24B
102
{ACAD_REACTORS
330
241
102
}
330
241
100
AcDbScale
 70
     0
300
1:40
140
1.0
141
40.0
290
     0
  0
SCALE
  5
24C
102
{ACAD_REACTORS
330
241
102
}
330
241
100
AcDbScale
 70
     0
300
1:50
140
1.0
141
50.0
290
     0
  0
SCALE
  5
24D
102
{ACAD_REACTORS
330
241
102
}
330
241
100
AcDbScale
 70
     0
300
1:100
140
1.0
141
100.0
290
     0
  0
SCALE
  5
24E
102
{ACAD_REACTORS
330
241
102
}
330
241
100
AcDbScale
 70
     0
300
2:1
140
2.0
141
1.0
290
     0
  0
SCALE
  5
24F
102
{ACAD_REACTORS
330
241
102
}
330
241
100
AcDbScale
 70
     0
300
4:1
140
4.0
141
1.0
290
     0
  0
SCALE
  5
250
102
{ACAD_REACTORS
330
241
102
}
330
241
100
AcDbScale
 70
     0
300
8:1
140
8.0
141
1.0
290
     0
  0
SCALE
  5
251
102
{ACAD_REACTORS
330
241
102
}
330
241
100
AcDbScale
 70
     0
300
10:1
140
10.0
141
1.0
290
     0
  0
SCALE
  5
252
102
{ACAD_REACTORS
330
241
102
}
330
241
100
AcDbScale
 70
     0
300
100:1
140
100.0
141
1.0
290
     0
  0
SCALE
  5
253
102
{ACAD_REACTORS
330
241
102
}
330
241
100
AcDbScale
 70
     0
300
1/128" = 1'-0"
140
0.0078125
141
12.0
290
     0
  0
SCALE
  5
254
102
{ACAD_REACTORS
330
241
102
}
330
241
100
AcDbScale
 70
     0
300
1/64" = 1'-0"
140
0.015625
141
12.0
290
     0
  0
SCALE
  5
255
102
{ACAD_REACTORS
330
241
102
}
330
241
100
AcDbScale
 70
     0
300
1/32" = 1'-0"
140
0.03125
141
12.0
290
     0
  0
SCALE
  5
256
102
{ACAD_REACTORS
330
241
102
}
330
241
100
AcDbScale
 70
     0
300
1/16" = 1'-0"
140
0.0625
141
12.0
290
     0
  0
SCALE
  5
257
102
{ACAD_REACTORS
330
241
102
}
330
241
100
AcDbScale
 70
     0
300
3/32" = 1'-0"
140
0.09375
141
12.0
290
     0
  0
SCALE
  5
258
102
{ACAD_REACTORS
330
241
102
}
330
241
100
AcDbScale
 70
     0
300
1/8" = 1'-0"
140
0.125
141
12.0
290
     0
  0
SCALE
  5
259
102
{ACAD_REACTORS
330
241
102
}
330
241
100
AcDbScale
 70
     0
300
3/16" = 1'-0"
140
0.1875
141
12.0
290
     0
  0
SCALE
  5
25A
102
{ACAD_REACTORS
330
241
102
}
330
241
100
AcDbScale
 70
     0
300
1/4" = 1'-0"
140
0.25
141
12.0
290
     0
  0
SCALE
  5
25B
102
{ACAD_REACTORS
330
241
102
}
330
241
100
AcDbScale
 70
     0
300
3/8" = 1'-0"
140
0.375
141
12.0
290
     0
  0
SCALE
  5
25C
102
{ACAD_REACTORS
330
241
102
}
330
241
100
AcDbScale
 70
     0
300
1/2" = 1'-0"
140
0.5
141
12.0
290
     0
  0
SCALE
  5
25D
102
{ACAD_REACTORS
330
241
102
}
330
241
100
AcDbScale
 70
     0
300
3/4" = 1'-0"
140
0.75
141
12.0
290
     0
  0
SCALE
  5
25E
102
{ACAD_REACTORS
330
241
102
}
330
241
100
AcDbScale
 70
     0
300
1" = 1'-0"
140
1.0
141
12.0
290
     0
  0
SCALE
  5
25F
102
{ACAD_REACTORS
330
241
102
}
330
241
100
AcDbScale
 70
     0
300
1-1/2" = 1'-0"
140
1.5
141
12.0
290
     0
  0
SCALE
  5
260
102
{ACAD_REACTORS
330
241
102
}
330
241
100
AcDbScale
 70
     0
300
3" = 1'-0"
140
3.0
141
12.0
290
     0
  0
SCALE
  5
261
102
{ACAD_REACTORS
330
241
102
}
330
241
100
AcDbScale
 70
     0
300
6" = 1'-0"
140
6.0
141
12.0
290
     0
  0
SCALE
  5
262
102
{ACAD_REACTORS
330
241
102
}
330
241
100
AcDbScale
 70
     0
300
1'-0" = 1'-0"
140
12.0
141
12.0
290
     0
  0
TABLESTYLE
  5
279
102
{ACAD_REACTORS
330
278
102
}
102
{ACAD_XDICTIONARY
360
3F53
102
}
330
278
100
AcDbTableStyle
  3
Standard
 70
     0
 71
     0
 40
0.06
 41
0.06
280
     0
281
     0
  7
Standard
140
4.5
170
     2
 62
     0
 63
   257
283
     0
 90
        4
 91
        0
  1

274
    -2
284
     1
 64
     0
275
    -2
285
     1
 65
     0
276
    -2
286
     1
 66
     0
277
    -2
287
     1
 67
     0
278
    -2
288
     1
 68
     0
279
    -2
289
     1
 69
     0
  7
Standard
140
6.0
170
     5
 62
     0
 63
   257
283
     0
 90
        4
 91
        0
  1

274
    -2
284
     1
 64
     0
275
    -2
285
     1
 65
     0
276
    -2
286
     1
 66
     0
277
    -2
287
     1
 67
     0
278
    -2
288
     1
 68
     0
279
    -2
289
     1
 69
     0
  7
Standard
140
4.5
170
     5
 62
     0
 63
   257
283
     0
 90
        4
 91
        0
  1

274
    -2
284
     1
 64
     0
275
    -2
285
     1
 65
     0
276
    -2
286
     1
 66
     0
277
    -2
287
     1
 67
     0
278
    -2
288
     1
 68
     0
279
    -2
289
     1
 69
     0
  0
VISUALSTYLE
  5
26C
102
{ACAD_REACTORS
330
267
102
}
330
267
100
AcDbVisualStyle
  2
2dWireframe
 70
     4
 71
     0
 72
     2
 73
     0
 90
        0
 40
-0.6
 41
-30.0
 62
     5
 63
     7
421
 16777215
 74
     1
 91
        4
 64
     7
 65
   257
 75
     1
175
     1
 42
1.0
 92
        0
 66
   257
 43
1.0
 76
     1
 77
     6
 78
     2
 67
     7
 79
     5
170
     0
171
     0
290
     0
174
     0
 93
        1
 44
0.0
173
     0
291
     0
 45
0.0
  0
VISUALSTYLE
  5
26E
102
{ACAD_REACTORS
330
267
102
}
330
267
100
AcDbVisualStyle
  2
3D Hidden
 70
     6
 71
     1
 72
     2
 73
     2
 90
        0
 40
-0.6
 41
-30.0
 62
     5
 63
     7
421
 16777215
 74
     2
 91
        2
 64
     7
 65
   257
 75
     2
175
     1
 42
40.0
 92
        0
 66
   257
 43
1.0
 76
     1
 77
     6
 78
     2
 67
     7
 79
     3
170
     0
171
     0
290
     0
174
     0
 93
        1
 44
0.0
173
     0
291
     0
 45
0.0
  0
VISUALSTYLE
  5
26D
102
{ACAD_REACTORS
330
267
102
}
330
267
100
AcDbVisualStyle
  2
3dWireframe
 70
     5
 71
     0
 72
     2
 73
     0
 90
        0
 40
-0.6
 41
-30.0
 62
     5
 63
     7
421
 16777215
 74
     1
 91
        4
 64
     7
 65
   257
 75
     1
175
     1
 42
1.0
 92
        0
 66
   257
 43
1.0
 76
     1
 77
     6
 78
     2
 67
     7
 79
     5
170
     0
171
     0
290
     0
174
     0
 93
        1
 44
0.0
173
     0
291
     0
 45
0.0
  0
VISUALSTYLE
  5
26F
102
{ACAD_REACTORS
330
267
102
}
330
267
100
AcDbVisualStyle
  2
Basic
 70
     7
 71
     1
 72
     0
 73
     1
 90
        0
 40
-0.6
 41
-30.0
 62
     5
 63
     7
421
 16777215
 74
     0
 91
        4
 64
     7
 65
   257
 75
     1
175
     1
 42
1.0
 92
        8
 66
     7
 43
1.0
 76
     1
 77
     6
 78
     2
 67
     7
 79
     5
170
     0
171
     0
290
     0
174
     0
 93
        1
 44
0.0
173
     0
291
     1
 45
0.0
  0
VISUALSTYLE
  5
273
102
{ACAD_REACTORS
330
267
102
}
330
267
100
AcDbVisualStyle
  2
Brighten
 70
    12
 71
     2
 72
     2
 73
     0
 90
        0
 40
-0.6
 41
-30.0
 62
     5
 63
     7
421
 16777215
 74
     1
 91
        4
 64
     7
 65
   257
 75
     1
175
     1
 42
1.0
 92
        8
 66
     7
 43
1.0
 76
     1
 77
     6
 78
     2
 67
     7
 79
     5
170
     0
171
     0
290
     0
174
     0
 93
        1
 44
50.0
173
     0
291
     1
 45
0.0
  0
VISUALSTYLE
  5
277
102
{ACAD_REACTORS
330
267
102
}
330
267
100
AcDbVisualStyle
  2
ColorChange
 70
    16
 71
     2
 72
     2
 73
     3
 90
        0
 40
-0.6
 41
-30.0
 62
     5
 63
     8
421
  8421504
 74
     1
 91
        4
 64
     7
 65
   257
 75
     1
175
     1
 42
1.0
 92
        8
 66
     8
424
  8421504
 43
1.0
 76
     1
 77
     6
 78
     2
 67
     7
 79
     5
170
     0
171
     0
290
     0
174
     0
 93
        1
 44
0.0
173
     0
291
     1
 45
0.0
  0
VISUALSTYLE
  5
271
102
{ACAD_REACTORS
330
267
102
}
330
267
100
AcDbVisualStyle
  2
Conceptual
 70
     9
 71
     3
 72
     2
 73
     0
 90
        0
 40
-0.6
 41
-30.0
 62
     5
 63
     7
421
 16777215
 74
     2
 91
        2
 64
     7
 65
   257
 75
     1
175
     1
 42
40.0
 92
        8
 66
     7
 43
1.0
 76
     1
 77
     6
 78
     2
 67
     7
 79
     3
170
     0
171
     0
290
     0
174
     0
 93
        1
 44
0.0
173
     0
291
     0
 45
0.0
  0
VISUALSTYLE
  5
272
102
{ACAD_REACTORS
330
267
102
}
330
267
100
AcDbVisualStyle
  2
Dim
 70
    11
 71
     2
 72
     2
 73
     0
 90
        0
 40
-0.6
 41
-30.0
 62
     5
 63
     7
421
 16777215
 74
     1
 91
        4
 64
     7
 65
   257
 75
     1
175
     1
 42
1.0
 92
        8
 66
     7
 43
1.0
 76
     1
 77
     6
 78
     2
 67
     7
 79
     5
170
     0
171
     0
290
     0
174
     0
 93
        1
 44
-50.0
173
     0
291
     1
 45
0.0
  0
VISUALSTYLE
  5
8FE
102
{ACAD_REACTORS
330
267
102
}
330
267
100
AcDbVisualStyle
  2
EdgeColorOff
 70
    22
 71
     2
 72
     2
 73
     0
 90
        0
 40
0.6
 41
30.0
 62
     5
 63
     7
421
 16777215
 74
     1
 91
        4
 64
     7
 65
   257
 75
     1
175
     1
 42
1.0
 92
        8
 66
     7
 43
1.0
 76
     1
 77
     6
 78
     2
 67
     7
 79
     5
170
     0
171
     0
290
     0
174
     0
 93
        1
 44
0.0
173
     0
291
     1
 45
0.0
  0
VISUALSTYLE
  5
276
102
{ACAD_REACTORS
330
267
102
}
330
267
100
AcDbVisualStyle
  2
Facepattern
 70
    15
 71
     2
 72
     2
 73
     0
 90
        0
 40
-0.6
 41
-30.0
 62
     5
 63
     7
421
 16777215
 74
     1
 91
        4
 64
     7
 65
   257
 75
     1
175
     1
 42
1.0
 92
        8
 66
     7
 43
1.0
 76
     1
 77
     6
 78
     2
 67
     7
 79
     5
170
     0
171
     0
290
     0
174
     0
 93
        1
 44
0.0
173
     0
291
     1
 45
0.0
  0
VISUALSTYLE
  5
268
102
{ACAD_REACTORS
330
267
102
}
330
267
100
AcDbVisualStyle
  2
Flat
 70
     0
 71
     2
 72
     1
 73
     1
 90
        2
 40
-0.6
 41
30.0
 62
     5
 63
     7
421
 16777215
 74
     0
 91
        4
 64
     7
 65
   257
 75
     1
175
     1
 42
1.0
 92
        8
 66
     7
 43
1.0
 76
     1
 77
     6
 78
     2
 67
     7
 79
     5
170
     0
171
     0
290
     0
174
     0
 93
       13
 44
0.0
173
     0
291
     1
 45
0.0
  0
VISUALSTYLE
  5
269
102
{ACAD_REACTORS
330
267
102
}
330
267
100
AcDbVisualStyle
  2
FlatWithEdges
 70
     1
 71
     2
 72
     1
 73
     1
 90
        2
 40
-0.6
 41
30.0
 62
     5
 63
     7
421
 16777215
 74
     1
 91
        4
 64
     7
 65
   257
 75
     1
175
     1
 42
1.0
 92
        0
 66
   257
 43
1.0
 76
     1
 77
     6
 78
     2
 67
     7
 79
     5
170
     0
171
     0
290
     0
174
     0
 93
       13
 44
0.0
173
     0
291
     1
 45
0.0
  0
VISUALSTYLE
  5
26A
102
{ACAD_REACTORS
330
267
102
}
330
267
100
AcDbVisualStyle
  2
Gouraud
 70
     2
 71
     2
 72
     2
 73
     1
 90
        2
 40
-0.6
 41
30.0
 62
     5
 63
     7
421
 16777215
 74
     0
 91
        4
 64
     7
 65
   257
 75
     1
175
     1
 42
1.0
 92
        0
 66
     7
 43
1.0
 76
     1
 77
     6
 78
     2
 67
     7
 79
     5
170
     0
171
     0
290
     0
174
     0
 93
       13
 44
0.0
173
     0
291
     1
 45
0.0
  0
VISUALSTYLE
  5
26B
102
{ACAD_REACTORS
330
267
102
}
330
267
100
AcDbVisualStyle
  2
GouraudWithEdges
 70
     3
 71
     2
 72
     2
 73
     1
 90
        2
 40
-0.6
 41
30.0
 62
     5
 63
     7
421
 16777215
 74
     1
 91
        4
 64
     7
 65
   257
 75
     1
175
     1
 42
1.0
 92
        0
 66
   257
 43
1.0
 76
     1
 77
     6
 78
     2
 67
     7
 79
     5
170
     0
171
     0
290
     0
174
     0
 93
       13
 44
0.0
173
     0
291
     1
 45
0.0
  0
VISUALSTYLE
  5
8FB
102
{ACAD_REACTORS
330
267
102
}
330
267
100
AcDbVisualStyle
  2
Hidden
 70
     6
 71
     1
 72
     2
 73
     2
 90
        0
 40
0.6
 41
30.0
 62
     5
 63
     7
421
 16777215
 74
     2
 91
        2
 64
     7
 65
   257
 75
     2
175
     1
 42
40.0
 92
        0
 66
   257
 43
1.0
 76
     1
 77
     6
 78
     2
 67
     7
 79
     3
170
     0
171
     0
290
     0
174
     0
 93
        1
 44
0.0
173
     0
291
     0
 45
0.0
  0
VISUALSTYLE
  5
8FC
102
{ACAD_REACTORS
330
267
102
}
330
267
100
AcDbVisualStyle
  2
JitterOff
 70
    20
 71
     2
 72
     2
 73
     0
 90
        0
 40
0.6
 41
30.0
 62
     5
 63
     7
421
 16777215
 74
     1
 91
        4
 64
     7
 65
   257
 75
     1
175
     1
 42
1.0
 92
       10
 66
     7
 43
1.0
 76
     1
 77
     6
 78
     2
 67
     7
 79
     5
170
     0
171
     0
290
     0
174
     0
 93
        1
 44
0.0
173
     0
291
     1
 45
0.0
  0
VISUALSTYLE
  5
275
102
{ACAD_REACTORS
330
267
102
}
330
267
100
AcDbVisualStyle
  2
Linepattern
 70
    14
 71
     2
 72
     2
 73
     0
 90
        0
 40
-0.6
 41
-30.0
 62
     5
 63
     7
421
 16777215
 74
     1
 91
        4
 64
     7
 65
   257
 75
     7
175
     7
 42
1.0
 92
        8
 66
     7
 43
1.0
 76
     1
 77
     6
 78
     2
 67
     7
 79
     5
170
     0
171
     0
290
     0
174
     0
 93
        1
 44
0.0
173
     0
291
     1
 45
0.0
  0
VISUALSTYLE
  5
8FD
102
{ACAD_REACTORS
330
267
102
}
330
267
100
AcDbVisualStyle
  2
OverhangOff
 70
    21
 71
     2
 72
     2
 73
     0
 90
        0
 40
0.6
 41
30.0
 62
     5
 63
     7
421
 16777215
 74
     1
 91
        4
 64
     7
 65
   257
 75
     1
175
     1
 42
1.0
 92
        9
 66
     7
 43
1.0
 76
     1
 77
     6
 78
     2
 67
     7
 79
     5
170
     0
171
     0
290
     0
174
     0
 93
        1
 44
0.0
173
     0
291
     1
 45
0.0
  0
VISUALSTYLE
  5
270
102
{ACAD_REACTORS
330
267
102
}
330
267
100
AcDbVisualStyle
  2
Realistic
 70
     8
 71
     2
 72
     2
 73
     0
 90
        0
 40
-0.6
 41
-30.0
 62
     5
 63
     7
421
 16777215
 74
     1
 91
        0
 64
     7
 65
   257
 75
     1
175
     1
 42
1.0
 92
        8
 66
     8
424
  7895160
 43
1.0
 76
     1
 77
     6
 78
     2
 67
     7
 79
     5
170
     0
171
     0
290
     0
174
     0
 93
       13
 44
0.0
173
     0
291
     0
 45
0.0
  0
VISUALSTYLE
  5
903
102
{ACAD_REACTORS
330
267
102
}
330
267
100
AcDbVisualStyle
  2
Shaded
 70
    27
 71
     2
 72
     2
 73
     1
 90
        2
 40
0.6
 41
30.0
 62
     5
 63
     7
421
 16777215
 74
     0
 91
        4
 64
     7
 65
   257
 75
     1
175
     1
 42
1.0
 92
        8
 66
   257
 43
1.0
 76
     1
 77
     6
 78
     2
 67
     8
425
  7895160
 79
     3
170
     0
171
     0
290
     0
174
     0
 93
        5
 44
0.0
173
     0
291
     0
 45
0.0
  0
VISUALSTYLE
  5
902
102
{ACAD_REACTORS
330
267
102
}
330
267
100
AcDbVisualStyle
  2
Shaded with edges
 70
    26
 71
     2
 72
     2
 73
     1
 90
        2
 40
0.6
 41
30.0
 62
     5
 63
     7
421
 16777215
 74
     1
 91
       10
 64
     7
 65
   257
 75
     2
175
     1
 42
1.0
 92
        8
 66
   257
 43
1.0
 76
     1
 77
     6
 78
     2
 67
     7
 79
     3
170
     0
171
     0
290
     0
174
     0
 93
        5
 44
0.0
173
     0
291
     0
 45
0.0
  0
VISUALSTYLE
  5
8FF
102
{ACAD_REACTORS
330
267
102
}
330
267
100
AcDbVisualStyle
  2
Shades of Gray
 70
    23
 71
     2
 72
     2
 73
     3
 90
        0
 40
0.6
 41
30.0
 62
     5
 63
     7
421
 16777215
 74
     2
 91
        2
 64
     7
 65
     7
 75
     1
175
     1
 42
40.0
 92
        8
 66
     7
 43
1.0
 76
     1
 77
     6
 78
     2
 67
     7
 79
     3
170
     0
171
     0
290
     0
174
     0
 93
        1
 44
0.0
173
     0
291
     0
 45
0.0
  0
VISUALSTYLE
  5
900
102
{ACAD_REACTORS
330
267
102
}
330
267
100
AcDbVisualStyle
  2
Sketchy
 70
    24
 71
     1
 72
     2
 73
     2
 90
        0
 40
0.6
 41
30.0
 62
     5
 63
     7
421
 16777215
 74
     2
 91
        2
 64
     7
 65
     7
 75
     1
175
     1
 42
40.0
 92
       11
 66
     7
 43
1.0
 76
     1
 77
     6
 78
     2
 67
     7
 79
     6
170
     0
171
     0
290
     0
174
     0
 93
        1
 44
0.0
173
     0
291
     0
 45
0.0
  0
VISUALSTYLE
  5
274
102
{ACAD_REACTORS
330
267
102
}
330
267
100
AcDbVisualStyle
  2
Thicken
 70
    13
 71
     2
 72
     2
 73
     0
 90
        0
 40
-0.6
 41
-30.0
 62
     5
 63
     7
421
 16777215
 74
     1
 91
        4
 64
     7
 65
   257
 75
     1
175
     1
 42
1.0
 92
       12
 66
     7
 43
1.0
 76
     1
 77
     6
 78
     2
 67
     7
 79
     5
170
     0
171
     0
290
     0
174
     0
 93
        1
 44
0.0
173
     0
291
     1
 45
0.0
  0
VISUALSTYLE
  5
8FA
102
{ACAD_REACTORS
330
267
102
}
330
267
100
AcDbVisualStyle
  2
Wireframe
 70
     5
 71
     0
 72
     2
 73
     0
 90
        0
 40
0.6
 41
30.0
 62
     5
 63
     7
421
 16777215
 74
     1
 91
        4
 64
     7
 65
   257
 75
     1
175
     1
 42
1.0
 92
        0
 66
   257
 43
1.0
 76
     1
 77
     6
 78
     2
 67
     7
 79
     3
170
     0
171
     0
290
     0
174
     0
 93
        1
 44
0.0
173
     0
291
     0
 45
0.0
  0
VISUALSTYLE
  5
901
102
{ACAD_REACTORS
330
267
102
}
330
267
100
AcDbVisualStyle
  2
X-Ray
 70
    25
 71
     2
 72
     2
 73
     1
 90
        1
 40
0.5
 41
30.0
 62
     5
 63
     7
421
 16777215
 74
     1
 91
        0
 64
     7
 65
   257
 75
     1
175
     1
 42
1.0
 92
        8
 66
     7
 43
1.0
 76
     1
 77
     6
 78
     2
 67
     7
 79
     3
170
     0
171
     0
290
     0
174
     0
 93
       13
 44
0.0
173
     0
291
     0
 45
0.0
  0
DICTIONARYVAR
  5
331
102
{ACAD_REACTORS
330
330
102
}
330
330
100
DictionaryVariables
280
     0
  1
1:1
  0
DICTIONARYVAR
  5
D5E
102
{ACAD_REACTORS
330
330
102
}
330
330
100
DictionaryVariables
280
     0
  1
Standard
  0
DICTIONARYVAR
  5
335
102
{ACAD_REACTORS
330
330
102
}
330
330
100
DictionaryVariables
280
     0
  1
Standard
  0
DICTIONARYVAR
  5
D52
102
{ACAD_REACTORS
330
330
102
}
330
330
100
DictionaryVariables
280
     0
  1
ByLayer
  0
DICTIONARYVAR
  5
896
102
{ACAD_REACTORS
330
330
102
}
330
330
100
DictionaryVariables
280
     0
  1
0
  0
DICTIONARYVAR
  5
246C
102
{ACAD_REACTORS
330
E38
102
}
330
E38
100
DictionaryVariables
280
     0
  1
0.261799
  0
DICTIONARYVAR
  5
246A
102
{ACAD_REACTORS
330
E38
102
}
330
E38
100
DictionaryVariables
280
     0
  1
0.400000
  0
DICTIONARYVAR
  5
246B
102
{ACAD_REACTORS
330
E38
102
}
330
E38
100
DictionaryVariables
280
     0
  1
0.250000
  0
DICTIONARYVAR
  5
246D
102
{ACAD_REACTORS
330
E38
102
}
330
E38
100
DictionaryVariables
280
     0
  1
1
  0
FIELD
  5
3CB6
102
{ACAD_REACTORS
330
3F2B
330
3F52
102
}
330
3F52
100
AcDbField
  1
_text
  2
{%<\_FldIdx 0>%N}
 90
        1
360
3CB9
 97
        0
 91
       63
 92
        0
 94
       11
 95
        2
 96
        0
300

 93
        1
  6
ACFD_FIELDTEXT_CHECKSUM
 93
        2
 90
        2
140
4439.0
 94
        0
300

302

304
ACVALUE_END
  7
ACFD_FIELD_VALUE
 93
        6
 90
        4
  1
{20201211N}
 94
        0
300

302

304
ACVALUE_END
301
{20201211N}
 98
       11
  0
DICTIONARY
  5
3F53
330
279
100
AcDbDictionary
280
     1
281
     1
  3
ACAD_ROUNDTRIP_2008_TABLESTYLE_CELLSTYLEMAP
360
3F54
  0
FIELD
  5
3CB9
330
3CB6
100
AcDbField
  1
AcVar
  2
\AcVar CreateDate \f "yyyyMMdd"
 90
        0
 97
        0
 91
       63
 92
        0
 94
       11
 95
        2
 96
        0
300

 93
        1
  6
Variable
 93
        2
 90
        4
  1
CreateDate
 94
        0
300

302

304
ACVALUE_END
  7
ACFD_FIELD_VALUE
 93
        6
 90
        8
 92
       16
310
E4070C0000000B0008001F002F000000
 94
        0
300
yyyyMMdd
302

304
ACVALUE_END
301
20201211
 98
        8
  0
CELLSTYLEMAP
  5
3F54
102
{ACAD_REACTORS
330
3F53
102
}
330
3F53
100
AcDbCellStyleMap
 90
        3
300
CELLSTYLE
  1
TABLEFORMAT_BEGIN
 90
        5
170
     1
 91
        0
 92
    32768
 62
   257
 93
        1
300
CONTENTFORMAT
  1
CONTENTFORMAT_BEGIN
 90
        0
 91
        0
 92
        4
 93
        0
300

 40
0.0
140
1.0
 94
        5
 62
     0
340
17
144
6.0
309
CONTENTFORMAT_END
171
     1
301
MARGIN
  1
CELLMARGIN_BEGIN
 40
0.06
 40
0.06
 40
0.06
 40
0.06
 40
0.18
 40
0.18
309
CELLMARGIN_END
 94
        6
 95
        1
302
GRIDFORMAT
  1
GRIDFORMAT_BEGIN
 90
        0
 91
        1
 62
     0
 92
       -2
340
0
 93
        0
 40
0.045
309
GRIDFORMAT_END
 95
        2
302
GRIDFORMAT
  1
GRIDFORMAT_BEGIN
 90
        0
 91
        1
 62
     0
 92
       -2
340
0
 93
        0
 40
0.045
309
GRIDFORMAT_END
 95
        4
302
GRIDFORMAT
  1
GRIDFORMAT_BEGIN
 90
        0
 91
        1
 62
     0
 92
       -2
340
0
 93
        0
 40
0.045
309
GRIDFORMAT_END
 95
        8
302
GRIDFORMAT
  1
GRIDFORMAT_BEGIN
 90
        0
 91
        1
 62
     0
 92
       -2
340
0
 93
        0
 40
0.045
309
GRIDFORMAT_END
 95
       16
302
GRIDFORMAT
  1
GRIDFORMAT_BEGIN
 90
        0
 91
        1
 62
     0
 92
       -2
340
0
 93
        0
 40
0.045
309
GRIDFORMAT_END
 95
       32
302
GRIDFORMAT
  1
GRIDFORMAT_BEGIN
 90
        0
 91
        1
 62
     0
 92
       -2
340
0
 93
        0
 40
0.045
309
GRIDFORMAT_END
309
TABLEFORMAT_END
  1
CELLSTYLE_BEGIN
 90
        1
 91
        1
300
_TITLE
309
CELLSTYLE_END
300
CELLSTYLE
  1
TABLEFORMAT_BEGIN
 90
        5
170
     1
 91
        0
 92
        0
 62
   257
 93
        1
300
CONTENTFORMAT
  1
CONTENTFORMAT_BEGIN
 90
        0
 91
        0
 92
        4
 93
        0
300

 40
0.0
140
1.0
 94
        5
 62
     0
340
17
144
4.5
309
CONTENTFORMAT_END
171
     1
301
MARGIN
  1
CELLMARGIN_BEGIN
 40
0.06
 40
0.06
 40
0.06
 40
0.06
 40
0.18
 40
0.18
309
CELLMARGIN_END
 94
        6
 95
        1
302
GRIDFORMAT
  1
GRIDFORMAT_BEGIN
 90
        0
 91
        1
 62
     0
 92
       -2
340
0
 93
        0
 40
0.045
309
GRIDFORMAT_END
 95
        2
302
GRIDFORMAT
  1
GRIDFORMAT_BEGIN
 90
        0
 91
        1
 62
     0
 92
       -2
340
0
 93
        0
 40
0.045
309
GRIDFORMAT_END
 95
        4
302
GRIDFORMAT
  1
GRIDFORMAT_BEGIN
 90
        0
 91
        1
 62
     0
 92
       -2
340
0
 93
        0
 40
0.045
309
GRIDFORMAT_END
 95
        8
302
GRIDFORMAT
  1
GRIDFORMAT_BEGIN
 90
        0
 91
        1
 62
     0
 92
       -2
340
0
 93
        0
 40
0.045
309
GRIDFORMAT_END
 95
       16
302
GRIDFORMAT
  1
GRIDFORMAT_BEGIN
 90
        0
 91
        1
 62
     0
 92
       -2
340
0
 93
        0
 40
0.045
309
GRIDFORMAT_END
 95
       32
302
GRIDFORMAT
  1
GRIDFORMAT_BEGIN
 90
        0
 91
        1
 62
     0
 92
       -2
340
0
 93
        0
 40
0.045
309
GRIDFORMAT_END
309
TABLEFORMAT_END
  1
CELLSTYLE_BEGIN
 90
        2
 91
        1
300
_HEADER
309
CELLSTYLE_END
300
CELLSTYLE
  1
TABLEFORMAT_BEGIN
 90
        5
170
     1
 91
        0
 92
        0
 62
   257
 93
        1
300
CONTENTFORMAT
  1
CONTENTFORMAT_BEGIN
 90
        0
 91
        0
 92
        4
 93
        0
300

 40
0.0
140
1.0
 94
        2
 62
     0
340
17
144
4.5
309
CONTENTFORMAT_END
171
     1
301
MARGIN
  1
CELLMARGIN_BEGIN
 40
0.06
 40
0.06
 40
0.06
 40
0.06
 40
0.18
 40
0.18
309
CELLMARGIN_END
 94
        6
 95
        1
302
GRIDFORMAT
  1
GRIDFORMAT_BEGIN
 90
        0
 91
        1
 62
     0
 92
       -2
340
0
 93
        0
 40
0.045
309
GRIDFORMAT_END
 95
        2
302
GRIDFORMAT
  1
GRIDFORMAT_BEGIN
 90
        0
 91
        1
 62
     0
 92
       -2
340
0
 93
        0
 40
0.045
309
GRIDFORMAT_END
 95
        4
302
GRIDFORMAT
  1
GRIDFORMAT_BEGIN
 90
        0
 91
        1
 62
     0
 92
       -2
340
0
 93
        0
 40
0.045
309
GRIDFORMAT_END
 95
        8
302
GRIDFORMAT
  1
GRIDFORMAT_BEGIN
 90
        0
 91
        1
 62
     0
 92
       -2
340
0
 93
        0
 40
0.045
309
GRIDFORMAT_END
 95
       16
302
GRIDFORMAT
  1
GRIDFORMAT_BEGIN
 90
        0
 91
        1
 62
     0
 92
       -2
340
0
 93
        0
 40
0.045
309
GRIDFORMAT_END
 95
       32
302
GRIDFORMAT
  1
GRIDFORMAT_BEGIN
 90
        0
 91
        1
 62
     0
 92
       -2
340
0
 93
        0
 40
0.045
309
GRIDFORMAT_END
309
TABLEFORMAT_END
  1
CELLSTYLE_BEGIN
 90
        3
 91
        2
300
_DATA
309
CELLSTYLE_END
  0
ENDSEC
  0
EOF
