  0
SECTION
  2
HEADER
  9
$ACADVER
  1
AC1021
  9
$ACADMAINTVER
 70
    25
  9
$DWGCODEPAGE
  3
ANSI_932
  9
$LASTSAVEDBY
  1
T-HOWE-PC
  9
$INSBASE
 10
0.0
 20
0.0
 30
0.0
  9
$EXTMIN
 10
0.0
 20
0.0
 30
-0.0000000000000071
  9
$EXTMAX
 10
1050.0
 20
1485.0
 30
0.0000000000000071
  9
$LIMMIN
 10
0.0
 20
0.0
  9
$LIMMAX
 10
1050.0
 20
1485.0
  9
$ORTHOMODE
 70
     0
  9
$REGENMODE
 70
     1
  9
$FILLMODE
 70
     1
  9
$QTEXTMODE
 70
     0
  9
$MIRRTEXT
 70
     1
  9
$LTSCALE
 40
2.5
  9
$ATTMODE
 70
     1
  9
$TEXTSIZE
 40
2.5
  9
$TRACEWID
 40
1.0
  9
$TEXTSTYLE
  7
ＭＳ ゴシック
  9
$CLAYER
  8
DIM
  9
$CELTYPE
  6
ByLayer
  9
$CECOLOR
 62
   256
  9
$CELTSCALE
 40
1.0
  9
$DISPSILH
 70
     0
  9
$DIMSCALE
 40
1.0
  9
$DIMASZ
 40
3.0
  9
$DIMEXO
 40
10.0
  9
$DIMDLI
 40
0.9999999999999999
  9
$DIMRND
 40
0.0
  9
$DIMDLE
 40
0.0
  9
$DIMEXE
 40
0.0
  9
$DIMTP
 40
0.0
  9
$DIMTM
 40
0.0
  9
$DIMTXT
 40
12.0
  9
$DIMCEN
 40
0.0
  9
$DIMTSZ
 40
0.0
  9
$DIMTOL
 70
     0
  9
$DIMLIM
 70
     0
  9
$DIMTIH
 70
     0
  9
$DIMTOH
 70
     0
  9
$DIMSE1
 70
     0
  9
$DIMSE2
 70
     0
  9
$DIMTAD
 70
     1
  9
$DIMZIN
 70
    11
  9
$DIMBLK
  1
DOT
  9
$DIMASO
 70
     1
  9
$DIMSHO
 70
     1
  9
$DIMPOST
  1
<>
  9
$DIMAPOST
  1
[]
  9
$DIMALT
 70
     0
  9
$DIMALTD
 70
     1
  9
$DIMALTF
 40
1.0
  9
$DIMLFAC
 40
1.0
  9
$DIMTOFL
 70
     0
  9
$DIMTVP
 40
0.0
  9
$DIMTIX
 70
     1
  9
$DIMSOXD
 70
     0
  9
$DIMSAH
 70
     0
  9
$DIMBLK1
  1

  9
$DIMBLK2
  1

  9
$DIMSTYLE
  2
tfrom線あり
  9
$DIMCLRD
 70
     0
  9
$DIMCLRE
 70
     0
  9
$DIMCLRT
 70
     0
  9
$DIMTFAC
 40
1.0
  9
$DIMGAP
 40
10.0
  9
$DIMJUST
 70
     0
  9
$DIMSD1
 70
     0
  9
$DIMSD2
 70
     0
  9
$DIMTOLJ
 70
     1
  9
$DIMTZIN
 70
    11
  9
$DIMALTZ
 70
    11
  9
$DIMALTTZ
 70
    11
  9
$DIMUPT
 70
     0
  9
$DIMDEC
 70
     0
  9
$DIMTDEC
 70
     1
  9
$DIMALTU
 70
     2
  9
$DIMALTTD
 70
     2
  9
$DIMTXSTY
  7
ＭＳ ゴシック
  9
$DIMAUNIT
 70
     0
  9
$DIMADEC
 70
     2
  9
$DIMALTRND
 40
0.0
  9
$DIMAZIN
 70
     0
  9
$DIMDSEP
 70
    46
  9
$DIMATFIT
 70
     0
  9
$DIMFRAC
 70
     2
  9
$DIMLDRBLK
  1
DOT
  9
$DIMLUNIT
 70
     2
  9
$DIMLWD
 70
    -2
  9
$DIMLWE
 70
    -2
  9
$DIMTMOVE
 70
     0
  9
$DIMFXL
 40
1.0
  9
$DIMFXLON
 70
     0
  9
$DIMJOGANG
 40
0.7853981633974483
  9
$DIMTFILL
 70
     0
  9
$DIMTFILLCLR
 70
     0
  9
$DIMARCSYM
 70
     0
  9
$DIMLTYPE
  6

  9
$DIMLTEX1
  6

  9
$DIMLTEX2
  6

  9
$LUNITS
 70
     2
  9
$LUPREC
 70
     0
  9
$SKETCHINC
 40
0.1
  9
$FILLETRAD
 40
0.0
  9
$AUNITS
 70
     0
  9
$AUPREC
 70
     0
  9
$MENU
  1
acad
  9
$ELEVATION
 40
0.0
  9
$PELEVATION
 40
0.0
  9
$THICKNESS
 40
0.0
  9
$LIMCHECK
 70
     0
  9
$CHAMFERA
 40
0.0
  9
$CHAMFERB
 40
0.0
  9
$CHAMFERC
 40
0.0
  9
$CHAMFERD
 40
0.0
  9
$SKPOLY
 70
     0
  9
$TDCREATE
 40
2447893.375
  9
$TDUCREATE
 40
0.0
  9
$TDUPDATE
 40
2459313.62449684
  9
$TDUUPDATE
 40
2459313.24949684
  9
$TDINDWG
 40
0.2675847685
  9
$TDUSRTIMER
 40
0.0020592477
  9
$USRTIMER
 70
     1
  9
$ANGBASE
 50
0.0
  9
$ANGDIR
 70
     0
  9
$PDMODE
 70
     1
  9
$PDSIZE
 40
-2.0
  9
$PLINEWID
 40
0.0
  9
$SPLFRAME
 70
     0
  9
$SPLINETYPE
 70
     6
  9
$SPLINESEGS
 70
     8
  9
$HANDSEED
  5
39A6
  9
$SURFTAB1
 70
     6
  9
$SURFTAB2
 70
     6
  9
$SURFTYPE
 70
     6
  9
$SURFU
 70
     6
  9
$SURFV
 70
     6
  9
$UCSBASE
  2

  9
$UCSNAME
  2

  9
$UCSORG
 10
0.0
 20
0.0
 30
0.0
  9
$UCSXDIR
 10
1.0
 20
0.0
 30
0.0
  9
$UCSYDIR
 10
0.0
 20
1.0
 30
0.0
  9
$UCSORTHOREF
  2

  9
$UCSORTHOVIEW
 70
     0
  9
$UCSORGTOP
 10
0.0
 20
0.0
 30
0.0
  9
$UCSORGBOTTOM
 10
0.0
 20
0.0
 30
0.0
  9
$UCSORGLEFT
 10
0.0
 20
0.0
 30
0.0
  9
$UCSORGRIGHT
 10
0.0
 20
0.0
 30
0.0
  9
$UCSORGFRONT
 10
0.0
 20
0.0
 30
0.0
  9
$UCSORGBACK
 10
0.0
 20
0.0
 30
0.0
  9
$PUCSBASE
  2

  9
$PUCSNAME
  2

  9
$PUCSORG
 10
0.0
 20
0.0
 30
0.0
  9
$PUCSXDIR
 10
1.0
 20
0.0
 30
0.0
  9
$PUCSYDIR
 10
0.0
 20
1.0
 30
0.0
  9
$PUCSORTHOREF
  2

  9
$PUCSORTHOVIEW
 70
     0
  9
$PUCSORGTOP
 10
0.0
 20
0.0
 30
0.0
  9
$PUCSORGBOTTOM
 10
0.0
 20
0.0
 30
0.0
  9
$PUCSORGLEFT
 10
0.0
 20
0.0
 30
0.0
  9
$PUCSORGRIGHT
 10
0.0
 20
0.0
 30
0.0
  9
$PUCSORGFRONT
 10
0.0
 20
0.0
 30
0.0
  9
$PUCSORGBACK
 10
0.0
 20
0.0
 30
0.0
  9
$USERI1
 70
     0
  9
$USERI2
 70
     0
  9
$USERI3
 70
     0
  9
$USERI4
 70
     0
  9
$USERI5
 70
     0
  9
$USERR1
 40
0.0
  9
$USERR2
 40
0.0
  9
$USERR3
 40
0.0
  9
$USERR4
 40
0.0
  9
$USERR5
 40
0.0
  9
$WORLDVIEW
 70
     1
  9
$SHADEDGE
 70
     3
  9
$SHADEDIF
 70
    70
  9
$TILEMODE
 70
     1
  9
$MAXACTVP
 70
    64
  9
$PINSBASE
 10
0.0
 20
0.0
 30
0.0
  9
$PLIMCHECK
 70
     0
  9
$PEXTMIN
 10
0.0
 20
0.0
 30
0.0
  9
$PEXTMAX
 10
0.0
 20
0.0
 30
0.0
  9
$PLIMMIN
 10
-7.5
 20
-20.0
  9
$PLIMMAX
 10
412.5
 20
277.0
  9
$UNITMODE
 70
     0
  9
$VISRETAIN
 70
     0
  9
$PLINEGEN
 70
     1
  9
$PSLTSCALE
 70
     0
  9
$TREEDEPTH
 70
  3020
  9
$CMLSTYLE
  2
Standard
  9
$CMLJUST
 70
     0
  9
$CMLSCALE
 40
1.0
  9
$PROXYGRAPHICS
 70
     0
  9
$MEASUREMENT
 70
     1
  9
$CELWEIGHT
370
    -1
  9
$ENDCAPS
280
     0
  9
$JOINSTYLE
280
     0
  9
$LWDISPLAY
290
     1
  9
$INSUNITS
 70
     4
  9
$HYPERLINKBASE
  1

  9
$STYLESHEET
  1

  9
$XEDIT
290
     1
  9
$CEPSNTYPE
380
     0
  9
$PSTYLEMODE
290
     1
  9
$FINGERPRINTGUID
  2

  9
$VERSIONGUID
  2

  9
$EXTNAMES
290
     1
  9
$PSVPSCALE
 40
0.0
  9
$OLESTARTUP
290
     0
  9
$SORTENTS
280
   127
  9
$INDEXCTL
280
     0
  9
$HIDETEXT
280
     1
  9
$XCLIPFRAME
290
     0
  9
$HALOGAP
280
     0
  9
$OBSCOLOR
 70
   257
  9
$OBSLTYPE
280
     0
  9
$INTERSECTIONDISPLAY
280
     0
  9
$INTERSECTIONCOLOR
 70
   257
  9
$DIMASSOC
280
     2
  9
$PROJECTNAME
  1

  9
$CAMERADISPLAY
290
     0
  9
$LENSLENGTH
 40
50.0
  9
$CAMERAHEIGHT
 40
0.0
  9
$STEPSPERSEC
 40
2.0
  9
$STEPSIZE
 40
6.0
  9
$3DDWFPREC
 40
2.0
  9
$PSOLWIDTH
 40
0.25
  9
$PSOLHEIGHT
 40
4.0
  9
$LOFTANG1
 40
1.570796326794897
  9
$LOFTANG2
 40
1.570796326794897
  9
$LOFTMAG1
 40
0.0
  9
$LOFTMAG2
 40
0.0
  9
$LOFTPARAM
 70
     7
  9
$LOFTNORMALS
280
     1
  9
$LATITUDE
 40
37.795
  9
$LONGITUDE
 40
-122.394
  9
$NORTHDIRECTION
 40
0.0
  9
$TIMEZONE
 70
 -8000
  9
$LIGHTGLYPHDISPLAY
280
     1
  9
$TILEMODELIGHTSYNCH
280
     1
  9
$SOLIDHIST
280
     1
  9
$SHOWHIST
280
     1
  9
$DWFFRAME
280
     2
  9
$DGNFRAME
280
     2
  9
$REALWORLDSCALE
290
     1
  9
$INTERFERECOLOR
 62
   256
  9
$CSHADOW
280
     0
  9
$SHADOWPLANELOCATION
 40
0.0
  0
ENDSEC
  0
SECTION
  2
CLASSES
  0
CLASS
  1
LWPOLYLINE
  2
AcDbPolyline
  3
ObjectDBX Classes
 90
        0
 91
        1
280
     0
281
     1
  0
CLASS
  1
IMAGE
  2
AcDbRasterImage
  3
ISM
 90
      127
 91
        4
280
     0
281
     1
  0
CLASS
  1
OLE2FRAME
  2
AcDbOle2Frame
  3
ObjectDBX Classes
 90
        0
 91
        1
280
     0
281
     1
  0
CLASS
  1
HATCH
  2
AcDbHatch
  3
ObjectDBX Classes
 90
        0
 91
        1
280
     0
281
     1
  0
CLASS
  1
DICTIONARYVAR
  2
AcDbDictionaryVar
  3
ObjectDBX Classes
 90
        0
 91
        3
280
     0
281
     0
  0
CLASS
  1
RASTERVARIABLES
  2
AcDbRasterVariables
  3
ISM
 90
        0
 91
        3
280
     0
281
     0
  0
CLASS
  1
IMAGEDEF
  2
AcDbRasterImageDef
  3
ISM
 90
        0
 91
        3
280
     0
281
     0
  0
CLASS
  1
IMAGEDEF_REACTOR
  2
AcDbRasterImageDefReactor
  3
ISM
 90
        1
 91
        3
280
     0
281
     0
  0
CLASS
  1
IDBUFFER
  2
AcDbIdBuffer
  3
ObjectDBX Classes
 90
        0
 91
        3
280
     0
281
     0
  0
CLASS
  1
SPATIAL_FILTER
  2
AcDbSpatialFilter
  3
ObjectDBX Classes
 90
        0
 91
        3
280
     0
281
     0
  0
CLASS
  1
XRECORD
  2
AcDbXrecord
  3
ObjectDBX Classes
 90
        0
 91
        1
280
     0
281
     0
  0
CLASS
  1
SORTENTSTABLE
  2
AcDbSortentsTable
  3
ObjectDBX Classes
 90
        0
 91
        3
280
     0
281
     0
  0
CLASS
  1
LAYER_INDEX
  2
AcDbLayerIndex
  3
ObjectDBX Classes
 90
        0
 91
        3
280
     0
281
     0
  0
CLASS
  1
SPATIAL_INDEX
  2
AcDbSpatialIndex
  3
AutoCAD 2000
 90
        0
 91
        3
280
     0
281
     0
  0
CLASS
  1
OBJECT_PTR
  2
CAseDLPNTableRecord
  3
ASE-LPNTableRecord
 90
        1
 91
        3
280
     0
281
     0
  0
CLASS
  1
LAYOUT
  2
AcDbLayout
  3
ObjectDBX Classes
 90
        0
 91
        1
280
     0
281
     0
  0
CLASS
  1
PLOTSETTINGS
  2
AcDbPlotSettings
  3
ObjectDBX Classes
 90
        0
 91
        3
280
     0
281
     0
  0
CLASS
  1
ACDBDICTIONARYWDFLT
  2
AcDbDictionaryWithDefault
  3
ObjectDBX Classes
 90
        0
 91
        3
280
     0
281
     0
  0
CLASS
  1
ACDBPLACEHOLDER
  2
AcDbPlaceHolder
  3
ObjectDBX Classes
 90
        0
 91
        1
280
     0
281
     0
  0
CLASS
  1
SCALE
  2
AcDbScale
  3
ObjectDBX Classes
 90
     1153
 91
        3
280
     0
281
     0
  0
CLASS
  1
MATERIAL
  2
AcDbMaterial
  3
ObjectDBX Classes
 90
     1153
 91
        3
280
     0
281
     0
  0
CLASS
  1
VISUALSTYLE
  2
AcDbVisualStyle
  3
ObjectDBX Classes
 90
     4095
 91
        3
280
     0
281
     0
  0
CLASS
  1
TABLESTYLE
  2
AcDbTableStyle
  3
ObjectDBX Classes
 90
     4095
 91
        3
280
     0
281
     0
  0
CLASS
  1
DIMASSOC
  2
AcDbDimAssoc
  3
"AcDbDimAssoc|Product Desc:     AcDim ARX App For Dimension|Company:          Autodesk, Inc.|WEB Address:      www.autodesk.com"
 90
        0
 91
        3
280
     0
281
     0
  0
CLASS
  1
CELLSTYLEMAP
  2
AcDbCellStyleMap
  3
ObjectDBX Classes
 90
     1152
 91
        3
280
     0
281
     0
  0
CLASS
  1
SUN
  2
AcDbSun
  3
SCENEOE
 90
     1153
 91
        3
280
     0
281
     0
  0
CLASS
  1
MLEADERSTYLE
  2
AcDbMLeaderStyle
  3
ACDB_MLEADERSTYLE_CLASS
 90
     4095
 91
        3
280
     0
281
     0
  0
CLASS
  1
FIELD
  2
AcDbField
  3
ObjectDBX Classes
 90
     1152
 91
        3
280
     0
281
     0
  0
CLASS
  1
FIELDLIST
  2
AcDbFieldList
  3
ObjectDBX Classes
 90
     1152
 91
        3
280
     0
281
     0
  0
ENDSEC
  0
SECTION
  2
TABLES
  0
TABLE
  2
VPORT
  5
7
330
0
100
AcDbSymbolTable
 70
     1
  0
VPORT
  5
15
330
7
100
AcDbSymbolTableRecord
100
AcDbViewportTableRecord
  2
*ACTIVE
 70
     0
 10
0.0
 20
0.0
 11
1.0
 21
1.0
 12
616.0201356708997
 22
668.901285469834
 13
0.0
 23
0.0
 14
1.0
 24
1.0
 15
0.0
 25
0.0
 16
0.0
 26
0.0
 36
1.0
 17
-91.02013567089966
 27
73.59871453016603
 37
-46.86809886248109
 40
1514.7
 41
2.227596017069701
 42
50.0
 43
0.0
 44
0.0
 50
0.0
 51
0.0
 71
    16
 72
  2000
 73
     1
 74
     1
 75
     0
 76
     0
 77
     0
 78
     0
281
     0
 65
     1
110
0.0
120
0.0
130
0.0
111
1.0
121
0.0
131
0.0
112
0.0
122
1.0
132
0.0
 79
     0
146
0.0
348
26C
 60
     3
 61
     5
292
     1
282
     1
141
0.0
142
0.0
 63
   256
361
904
  0
ENDTAB
  0
TABLE
  2
LTYPE
  5
4
330
0
100
AcDbSymbolTable
 70
     4
  0
LTYPE
  5
11
330
4
100
AcDbSymbolTableRecord
100
AcDbLinetypeTableRecord
  2
ByBlock
 70
     0
  3

 72
    65
 73
     0
 40
0.0
  0
LTYPE
  5
12
330
4
100
AcDbSymbolTableRecord
100
AcDbLinetypeTableRecord
  2
ByLayer
 70
     0
  3

 72
    65
 73
     0
 40
0.0
  0
LTYPE
  5
13
330
4
100
AcDbSymbolTableRecord
100
AcDbLinetypeTableRecord
  2
Continuous
 70
     0
  3
Solid line
 72
    65
 73
     0
 40
0.0
  0
LTYPE
  5
D6C
330
4
100
AcDbSymbolTableRecord
100
AcDbLinetypeTableRecord
  2
BORDER
 70
     0
  3
Border __  __  . __  __  . __  __  . __  __  . 
 72
    65
 73
     6
 40
44.45
 49
12.7
 74
     0
 49
-6.35
 74
     0
 49
12.7
 74
     0
 49
-6.35
 74
     0
 49
0.0
 74
     0
 49
-6.35
 74
     0
  0
LTYPE
  5
D6D
330
4
100
AcDbSymbolTableRecord
100
AcDbLinetypeTableRecord
  2
HIDDEN
 70
     0
  3
Hidden _ _ _ _ _ _ _ _ _ _ _ _ _ _ _ _ _ _ _ _ 
 72
    65
 73
     2
 40
9.524999999999999
 49
6.35
 74
     0
 49
-3.175
 74
     0
  0
LTYPE
  5
32FF
330
4
100
AcDbSymbolTableRecord
100
AcDbLinetypeTableRecord
  2
CENTER2
 70
     0
  3
Center (.5x) ___ _ ___ _ ___ _ ___ _ ___ _ ___
 72
    65
 73
     4
 40
28.575
 49
19.05
 74
     0
 49
-3.175
 74
     0
 49
3.175
 74
     0
 49
-3.175
 74
     0
  0
ENDTAB
  0
TABLE
  2
LAYER
  5
2
102
{ACAD_XDICTIONARY
360
2E1
102
}
330
0
100
AcDbSymbolTable
 70
     8
  0
LAYER
  5
14
330
2
100
AcDbSymbolTableRecord
100
AcDbLayerTableRecord
  2
0
 70
     0
 62
     7
  6
Continuous
370
    -3
390
1D
347
266
  0
LAYER
  5
4B
330
2
100
AcDbSymbolTableRecord
100
AcDbLayerTableRecord
  2
TEMPLATE
 70
     0
 62
     7
  6
Continuous
370
    20
390
1D
347
266
  0
LAYER
  5
4C
330
2
100
AcDbSymbolTableRecord
100
AcDbLayerTableRecord
  2
DIM
 70
     0
 62
     3
  6
Continuous
370
    13
390
1D
347
266
  0
LAYER
  5
4D
330
2
100
AcDbSymbolTableRecord
100
AcDbLayerTableRecord
  2
MODEL
 70
     0
 62
     7
  6
Continuous
370
    20
390
1D
347
266
  0
LAYER
  5
88C
330
2
100
AcDbSymbolTableRecord
100
AcDbLayerTableRecord
  2
HIDDEN
 70
     0
 62
     8
  6
HIDDEN
370
    20
390
1D
347
266
1001
AcAecLayerStandard
1000

1000

  0
LAYER
  5
D6B
330
2
100
AcDbSymbolTableRecord
100
AcDbLayerTableRecord
  2
BORDER
 70
     0
 62
     4
  6
BORDER
290
     0
370
    20
390
1D
347
266
1001
AcAecLayerStandard
1000

1000

  0
LAYER
  5
D8C
330
2
100
AcDbSymbolTableRecord
100
AcDbLayerTableRecord
  2
Defpoints
 70
     0
 62
     7
  6
Continuous
290
     0
370
    -3
390
1D
347
266
  0
LAYER
  5
1793
330
2
100
AcDbSymbolTableRecord
100
AcDbLayerTableRecord
  2
Standard
 70
     0
 62
     7
  6
Continuous
370
    -3
390
1D
347
266
  0
ENDTAB
  0
TABLE
  2
STYLE
  5
3
330
0
100
AcDbSymbolTable
 70
     3
  0
STYLE
  5
17
330
3
100
AcDbSymbolTableRecord
100
AcDbTextStyleTableRecord
  2
Standard
 70
     0
 40
0.0
 41
1.0
 50
0.0
 71
     0
 42
2.5
  3
txt
  4
BIGFONT.SHX
  0
STYLE
  5
39
330
3
100
AcDbSymbolTableRecord
100
AcDbTextStyleTableRecord
  2
ＭＳ ゴシック
 70
     0
 40
0.0
 41
1.0
 50
0.0
 71
     0
 42
2.5
  3
msgothic.ttc
  4
ＭＳ ゴシック
1001
ACAD
1000
ＭＳ ゴシック
1071
        0
  0
STYLE
  5
3302
330
3
100
AcDbSymbolTableRecord
100
AcDbTextStyleTableRecord
  2
FANTINI
 70
     0
 40
0.0
 41
1.0
 50
0.0
 71
     0
 42
2.5
  3

  4

1001
ACAD
1000
txt
1071
        0
  0
ENDTAB
  0
TABLE
  2
VIEW
  5
5
330
0
100
AcDbSymbolTable
 70
     0
  0
ENDTAB
  0
TABLE
  2
UCS
  5
6
330
0
100
AcDbSymbolTable
 70
     0
  0
ENDTAB
  0
TABLE
  2
APPID
  5
8
330
0
100
AcDbSymbolTable
 70
     4
  0
APPID
  5
16
330
8
100
AcDbSymbolTableRecord
100
AcDbRegAppTableRecord
  2
ACAD
 70
     0
  0
APPID
  5
7AC
330
8
100
AcDbSymbolTableRecord
100
AcDbRegAppTableRecord
  2
AcAecLayerStandard
 70
     0
  0
APPID
  5
E29
330
8
100
AcDbSymbolTableRecord
100
AcDbRegAppTableRecord
  2
ACAD_MLEADERVER
 70
     0
  0
APPID
  5
3996
330
8
100
AcDbSymbolTableRecord
100
AcDbRegAppTableRecord
  2
PLOTTRANSPARENCY
 70
     0
  0
ENDTAB
  0
TABLE
  2
DIMSTYLE
  5
9
330
0
100
AcDbSymbolTable
 70
     4
100
AcDbDimStyleTable
  0
DIMSTYLE
105
18
330
9
100
AcDbSymbolTableRecord
100
AcDbDimStyleTableRecord
  2
Standard
 70
     0
178
     0
340
17
  0
DIMSTYLE
105
57
102
{ACAD_REACTORS
330
3882
330
3891
330
38A3
330
38B2
330
38C2
330
38D4
330
38E5
330
3906
330
3936
330
3948
330
395A
330
3977
102
}
330
9
100
AcDbSymbolTableRecord
100
AcDbDimStyleTableRecord
  2
tfrom線あり
 70
     0
  3
<>
  4
[]
 41
3.0
 42
10.0
 43
0.9999999999999999
 44
0.0
 73
     0
 74
     0
 77
     1
 78
    11
140
12.0
141
0.0
143
1.0
147
10.0
171
     1
174
     1
178
     0
179
     2
271
     0
272
     1
276
     2
284
    11
285
    11
286
    11
289
     0
340
39
341
4E
342
4E
  0
DIMSTYLE
105
313D
330
9
100
AcDbSymbolTableRecord
100
AcDbDimStyleTableRecord
  2
tform線あり
 70
     0
  3
<>
  4
[]
 41
9.999389648437498
 42
25.0
 43
0.9999999999999999
 44
0.0
 73
     0
 74
     0
 77
     1
 78
    11
140
24.4326171875
141
0.0
143
1.0
146
0.8
147
10.0
171
     1
172
     1
174
     1
178
     0
179
     2
271
     1
272
     1
276
     2
284
    11
285
    11
286
    11
289
     0
340
39
341
4E
342
4E
  0
DIMSTYLE
105
3300
330
9
100
AcDbSymbolTableRecord
100
AcDbDimStyleTableRecord
  2
ISO-25
 70
     0
 41
2.5
 42
0.625
 43
3.75
 44
1.25
 73
     0
 74
     0
 77
     1
 78
     8
140
2.5
141
2.5
143
0.03937007874016
147
0.625
171
     3
172
     1
178
     0
271
     2
272
     2
274
     3
278
    44
283
     0
284
     8
340
17
  0
ENDTAB
  0
TABLE
  2
BLOCK_RECORD
  5
1
330
0
100
AcDbSymbolTable
 70
    52
  0
BLOCK_RECORD
  5
A
102
{ACAD_XDICTIONARY
360
24B4
102
}
330
1
100
AcDbSymbolTableRecord
100
AcDbBlockTableRecord
  2
*MODEL_SPACE
340
20
 70
     0
280
     1
281
     0
  0
BLOCK_RECORD
  5
B
330
1
100
AcDbSymbolTableRecord
100
AcDbBlockTableRecord
  2
*PAPER_SPACE
340
21
 70
     0
280
     1
281
     0
  0
BLOCK_RECORD
  5
4E
330
1
100
AcDbSymbolTableRecord
100
AcDbBlockTableRecord
  2
_DOT
340
0
102
{BLKREFS
331
251F
331
2520
331
252B
331
252C
331
30DC
331
30DD
331
310A
331
310B
331
3118
331
3119
331
312B
331
312C
331
3162
331
3163
331
3174
331
3175
331
318A
331
318B
331
319C
331
319D
331
31AB
331
31AC
331
31B8
331
31B9
331
31C7
331
31C8
331
31DE
331
31DF
331
31ED
331
31EE
331
31FA
331
31FB
331
3207
331
3208
331
321A
331
321B
331
3229
331
322A
331
3239
331
323A
331
3250
331
3251
331
3262
331
3263
331
327A
331
327B
331
328B
331
328C
331
329A
331
329B
331
388B
331
388C
331
389A
331
389B
331
38AC
331
38AD
331
38BD
331
38BE
331
38CB
331
38CC
331
38DF
331
38E0
331
38F0
331
38F1
331
3900
331
3901
331
390F
331
3910
331
3941
331
3942
331
3953
331
3954
331
3965
331
3966
331
3980
331
3981
102
}
 70
     0
280
     1
281
     0
  0
BLOCK_RECORD
  5
68D
330
1
100
AcDbSymbolTableRecord
100
AcDbBlockTableRecord
  2
block 2
340
0
102
{BLKREFS
331
68C
331
1343
102
}
 70
     0
280
     1
281
     0
  0
BLOCK_RECORD
  5
2519
330
1
100
AcDbSymbolTableRecord
100
AcDbBlockTableRecord
  2
*D2
340
0
 70
     0
280
     1
281
     0
  0
BLOCK_RECORD
  5
2525
330
1
100
AcDbSymbolTableRecord
100
AcDbBlockTableRecord
  2
*D3
340
0
 70
     0
280
     1
281
     0
  0
BLOCK_RECORD
  5
30D6
330
1
100
AcDbSymbolTableRecord
100
AcDbBlockTableRecord
  2
*D4
340
0
 70
     0
280
     1
281
     0
  0
BLOCK_RECORD
  5
3103
330
1
100
AcDbSymbolTableRecord
100
AcDbBlockTableRecord
  2
*D5
340
0
 70
     0
280
     1
281
     0
  0
BLOCK_RECORD
  5
3112
330
1
100
AcDbSymbolTableRecord
100
AcDbBlockTableRecord
  2
*D6
340
0
 70
     0
280
     1
281
     0
  0
BLOCK_RECORD
  5
3125
330
1
100
AcDbSymbolTableRecord
100
AcDbBlockTableRecord
  2
*D7
340
0
 70
     0
280
     1
281
     0
  0
BLOCK_RECORD
  5
315D
330
1
100
AcDbSymbolTableRecord
100
AcDbBlockTableRecord
  2
*D8
340
0
 70
     0
280
     1
281
     0
  0
BLOCK_RECORD
  5
316C
330
1
100
AcDbSymbolTableRecord
100
AcDbBlockTableRecord
  2
*D9
340
0
 70
     0
280
     1
281
     0
  0
BLOCK_RECORD
  5
3185
330
1
100
AcDbSymbolTableRecord
100
AcDbBlockTableRecord
  2
*D10
340
0
 70
     0
280
     1
281
     0
  0
BLOCK_RECORD
  5
3194
330
1
100
AcDbSymbolTableRecord
100
AcDbBlockTableRecord
  2
*D11
340
0
 70
     0
280
     1
281
     0
  0
BLOCK_RECORD
  5
31A6
330
1
100
AcDbSymbolTableRecord
100
AcDbBlockTableRecord
  2
*D12
340
0
 70
     0
280
     1
281
     0
  0
BLOCK_RECORD
  5
31B3
330
1
100
AcDbSymbolTableRecord
100
AcDbBlockTableRecord
  2
*D13
340
0
 70
     0
280
     1
281
     0
  0
BLOCK_RECORD
  5
31C2
330
1
100
AcDbSymbolTableRecord
100
AcDbBlockTableRecord
  2
*D14
340
0
 70
     0
280
     1
281
     0
  0
BLOCK_RECORD
  5
31D9
330
1
100
AcDbSymbolTableRecord
100
AcDbBlockTableRecord
  2
*D15
340
0
 70
     0
280
     1
281
     0
  0
BLOCK_RECORD
  5
31E8
330
1
100
AcDbSymbolTableRecord
100
AcDbBlockTableRecord
  2
*D16
340
0
 70
     0
280
     1
281
     0
  0
BLOCK_RECORD
  5
31F5
330
1
100
AcDbSymbolTableRecord
100
AcDbBlockTableRecord
  2
*D17
340
0
 70
     0
280
     1
281
     0
  0
BLOCK_RECORD
  5
3202
330
1
100
AcDbSymbolTableRecord
100
AcDbBlockTableRecord
  2
*D18
340
0
 70
     0
280
     1
281
     0
  0
BLOCK_RECORD
  5
3212
330
1
100
AcDbSymbolTableRecord
100
AcDbBlockTableRecord
  2
*D19
340
0
 70
     0
280
     1
281
     0
  0
BLOCK_RECORD
  5
3224
330
1
100
AcDbSymbolTableRecord
100
AcDbBlockTableRecord
  2
*D20
340
0
 70
     0
280
     1
281
     0
  0
BLOCK_RECORD
  5
3233
330
1
100
AcDbSymbolTableRecord
100
AcDbBlockTableRecord
  2
*D21
340
0
 70
     0
280
     1
281
     0
  0
BLOCK_RECORD
  5
324B
330
1
100
AcDbSymbolTableRecord
100
AcDbBlockTableRecord
  2
*D22
340
0
 70
     0
280
     1
281
     0
  0
BLOCK_RECORD
  5
325A
330
1
100
AcDbSymbolTableRecord
100
AcDbBlockTableRecord
  2
*D23
340
0
 70
     0
280
     1
281
     0
  0
BLOCK_RECORD
  5
3275
330
1
100
AcDbSymbolTableRecord
100
AcDbBlockTableRecord
  2
*D24
340
0
 70
     0
280
     1
281
     0
  0
BLOCK_RECORD
  5
3286
330
1
100
AcDbSymbolTableRecord
100
AcDbBlockTableRecord
  2
*D25
340
0
 70
     0
280
     1
281
     0
  0
BLOCK_RECORD
  5
3295
330
1
100
AcDbSymbolTableRecord
100
AcDbBlockTableRecord
  2
*D26
340
0
 70
     0
280
     1
281
     0
  0
BLOCK_RECORD
  5
3579
330
1
100
AcDbSymbolTableRecord
100
AcDbBlockTableRecord
  2
.TD_DIMENSION_1
340
0
 70
     0
280
     1
281
     0
  0
BLOCK_RECORD
  5
3583
330
1
100
AcDbSymbolTableRecord
100
AcDbBlockTableRecord
  2
.TD_DIMENSION_2
340
0
 70
     0
280
     1
281
     0
  0
BLOCK_RECORD
  5
358F
330
1
100
AcDbSymbolTableRecord
100
AcDbBlockTableRecord
  2
.TD_DIMENSION_3
340
0
 70
     0
280
     1
281
     0
  0
BLOCK_RECORD
  5
3599
330
1
100
AcDbSymbolTableRecord
100
AcDbBlockTableRecord
  2
.TD_DIMENSION_4
340
0
 70
     0
280
     1
281
     0
  0
BLOCK_RECORD
  5
35A5
330
1
100
AcDbSymbolTableRecord
100
AcDbBlockTableRecord
  2
.TD_DIMENSION_5
340
0
 70
     0
280
     1
281
     0
  0
BLOCK_RECORD
  5
35B1
330
1
100
AcDbSymbolTableRecord
100
AcDbBlockTableRecord
  2
.TD_DIMENSION_6
340
0
 70
     0
280
     1
281
     0
  0
BLOCK_RECORD
  5
35BD
330
1
100
AcDbSymbolTableRecord
100
AcDbBlockTableRecord
  2
.TD_DIMENSION_7
340
0
 70
     0
280
     1
281
     0
  0
BLOCK_RECORD
  5
35C9
330
1
100
AcDbSymbolTableRecord
100
AcDbBlockTableRecord
  2
.TD_DIMENSION_8
340
0
 70
     0
280
     1
281
     0
  0
BLOCK_RECORD
  5
35D3
330
1
100
AcDbSymbolTableRecord
100
AcDbBlockTableRecord
  2
.TD_DIMENSION_9
340
0
 70
     0
280
     1
281
     0
  0
BLOCK_RECORD
  5
35E1
330
1
100
AcDbSymbolTableRecord
100
AcDbBlockTableRecord
  2
.TD_DIMENSION_10
340
0
 70
     0
280
     1
281
     0
  0
BLOCK_RECORD
  5
35EB
330
1
100
AcDbSymbolTableRecord
100
AcDbBlockTableRecord
  2
.TD_DIMENSION_11
340
0
 70
     0
280
     1
281
     0
  0
BLOCK_RECORD
  5
35F7
330
1
100
AcDbSymbolTableRecord
100
AcDbBlockTableRecord
  2
.TD_DIMENSION_12
340
0
 70
     0
280
     1
281
     0
  0
BLOCK_RECORD
  5
3885
330
1
100
AcDbSymbolTableRecord
100
AcDbBlockTableRecord
  2
*D39
340
0
 70
     0
280
     1
281
     0
  0
BLOCK_RECORD
  5
3894
330
1
100
AcDbSymbolTableRecord
100
AcDbBlockTableRecord
  2
*D40
340
0
 70
     0
280
     1
281
     0
  0
BLOCK_RECORD
  5
38A6
330
1
100
AcDbSymbolTableRecord
100
AcDbBlockTableRecord
  2
*D41
340
0
 70
     0
280
     1
281
     0
  0
BLOCK_RECORD
  5
38B5
330
1
100
AcDbSymbolTableRecord
100
AcDbBlockTableRecord
  2
*D42
340
0
 70
     0
280
     1
281
     0
  0
BLOCK_RECORD
  5
38C5
330
1
100
AcDbSymbolTableRecord
100
AcDbBlockTableRecord
  2
*D43
340
0
 70
     0
280
     1
281
     0
  0
BLOCK_RECORD
  5
38D7
330
1
100
AcDbSymbolTableRecord
100
AcDbBlockTableRecord
  2
*D44
340
0
 70
     0
280
     1
281
     0
  0
BLOCK_RECORD
  5
38E8
330
1
100
AcDbSymbolTableRecord
100
AcDbBlockTableRecord
  2
*D45
340
0
 70
     0
280
     1
281
     0
  0
BLOCK_RECORD
  5
38FA
330
1
100
AcDbSymbolTableRecord
100
AcDbBlockTableRecord
  2
*D46
340
0
 70
     0
280
     1
281
     0
  0
BLOCK_RECORD
  5
3909
330
1
100
AcDbSymbolTableRecord
100
AcDbBlockTableRecord
  2
*D47
340
0
 70
     0
280
     1
281
     0
  0
BLOCK_RECORD
  5
3939
330
1
100
AcDbSymbolTableRecord
100
AcDbBlockTableRecord
  2
*D48
340
0
 70
     0
280
     1
281
     0
  0
BLOCK_RECORD
  5
394B
330
1
100
AcDbSymbolTableRecord
100
AcDbBlockTableRecord
  2
*D49
340
0
 70
     0
280
     1
281
     0
  0
BLOCK_RECORD
  5
395D
330
1
100
AcDbSymbolTableRecord
100
AcDbBlockTableRecord
  2
*D50
340
0
 70
     0
280
     1
281
     0
  0
BLOCK_RECORD
  5
3978
330
1
100
AcDbSymbolTableRecord
100
AcDbBlockTableRecord
  2
*D51
340
0
 70
     0
280
     1
281
     0
  0
ENDTAB
  0
ENDSEC
  0
SECTION
  2
BLOCKS
  0
BLOCK
  5
D
330
A
100
AcDbEntity
  8
0
390
1D
100
AcDbBlockBegin
  2
*MODEL_SPACE
 70
     0
 10
0.0
 20
0.0
 30
0.0
  3
*MODEL_SPACE
  1
*MODEL_SPACE
  0
ENDBLK
  5
E
330
A
100
AcDbEntity
  8
0
390
1D
100
AcDbBlockEnd
  0
BLOCK
  5
F
330
B
100
AcDbEntity
 67
     1
  8
0
390
1D
100
AcDbBlockBegin
  2
*PAPER_SPACE
 70
     0
 10
0.0
 20
0.0
 30
0.0
  3
*PAPER_SPACE
  1
*PAPER_SPACE
  0
ENDBLK
  5
10
330
B
100
AcDbEntity
 67
     1
  8
0
390
1D
100
AcDbBlockEnd
  0
BLOCK
  5
E30
330
4E
100
AcDbEntity
  8
0
390
1D
100
AcDbBlockBegin
  2
_DOT
 70
     0
 10
0.0
 20
0.0
 30
0.0
  3
_DOT
  1
_DOT
  0
POLYLINE
  5
E32
330
4E
100
AcDbEntity
  8
0
  6
ByBlock
 62
     0
370
    -2
390
1D
100
AcDb2dPolyline
 66
     1
 10
0.0
 20
0.0
 30
0.0
 70
     1
 40
0.5
 41
0.5
  0
VERTEX
  5
E33
330
E32
100
AcDbEntity
  8
0
  6
ByBlock
 62
     0
370
    -2
390
1D
100
AcDbVertex
100
AcDb2dVertex
 10
-0.25
 20
0.0
 30
0.0
 42
1.0
  0
VERTEX
  5
E34
330
E32
100
AcDbEntity
  8
0
  6
ByBlock
 62
     0
370
    -2
390
1D
100
AcDbVertex
100
AcDb2dVertex
 10
0.25
 20
0.0
 30
0.0
 42
1.0
  0
SEQEND
  5
E35
330
E32
100
AcDbEntity
  8
0
390
1D
  0
LINE
  5
E36
330
4E
100
AcDbEntity
  8
0
  6
ByBlock
 62
     0
370
    -2
390
1D
100
AcDbLine
 10
-0.5
 20
0.0
 30
0.0
 11
-1.0
 21
0.0
 31
0.0
  0
ENDBLK
  5
E37
330
4E
100
AcDbEntity
  8
0
390
1D
100
AcDbBlockEnd
  0
BLOCK
  5
68E
330
68D
100
AcDbEntity
  8
0
100
AcDbBlockBegin
  2
block 2
 70
     0
 10
0.0
 20
0.0
 30
0.0
  3
block 2
  1
block 2
  0
ENDBLK
  5
6B0
330
68D
100
AcDbEntity
  8
0
100
AcDbBlockEnd
  0
BLOCK
  5
251A
330
2519
100
AcDbEntity
  8
0
100
AcDbBlockBegin
  2
*D2
 70
     1
 10
0.0
 20
0.0
 30
0.0
  3
*D2
  1

  0
LINE
  5
251C
330
2519
100
AcDbEntity
  8
DIM
 62
     0
370
    -2
100
AcDbLine
 10
-702.0201857474074
 20
798.5395136778117
 30
0.0
 11
-702.0201857474074
 21
963.9051262249237
 31
0.0
  0
LINE
  5
251D
330
2519
100
AcDbEntity
  8
DIM
 62
     0
370
    -2
100
AcDbLine
 10
-416.5752009449768
 20
798.5395136778117
 30
0.0
 11
-416.5752009449768
 21
963.9051262249237
 31
0.0
  0
LINE
  5
251E
330
2519
100
AcDbEntity
  8
DIM
 62
     0
370
    -2
100
AcDbLine
 10
-699.0201857474074
 20
963.9051262249237
 30
0.0
 11
-419.5752009449768
 21
963.9051262249237
 31
0.0
  0
INSERT
  5
251F
330
2519
100
AcDbEntity
  8
DIM
 62
     0
370
    -2
100
AcDbBlockReference
  2
_DOT
 10
-702.0201857474074
 20
963.9051262249237
 30
0.0
 41
3.0
 42
3.0
 43
3.0
 50
180.0
  0
INSERT
  5
2520
330
2519
100
AcDbEntity
  8
DIM
 62
     0
370
    -2
100
AcDbBlockReference
  2
_DOT
 10
-416.5752009449768
 20
963.9051262249237
 30
0.0
 41
3.0
 42
3.0
 43
3.0
  0
MTEXT
  5
2521
330
2519
100
AcDbEntity
  8
DIM
 62
     0
100
AcDbMText
 10
-559.297693346193
 20
979.9073770689903
 30
0.0
 40
12.0
 41
0.0
 46
0.0
 71
     5
 72
     1
  1
\A1;285
  7
ＭＳ ゴシック
 73
     1
 44
1.0
  0
POINT
  5
2522
330
2519
100
AcDbEntity
  8
Defpoints
 62
     0
100
AcDbPoint
 10
-702.0201857474074
 20
788.5395136778117
 30
0.0
  0
POINT
  5
2523
330
2519
100
AcDbEntity
  8
Defpoints
 62
     0
100
AcDbPoint
 10
-416.5752009449768
 20
788.5395136778117
 30
0.0
  0
POINT
  5
2524
330
2519
100
AcDbEntity
  8
Defpoints
 62
     0
100
AcDbPoint
 10
-416.5752009449768
 20
963.9051262249237
 30
0.0
  0
ENDBLK
  5
251B
330
2519
100
AcDbEntity
  8
0
100
AcDbBlockEnd
  0
BLOCK
  5
2526
330
2525
100
AcDbEntity
  8
0
100
AcDbBlockBegin
  2
*D3
 70
     1
 10
0.0
 20
0.0
 30
0.0
  3
*D3
  1

  0
LINE
  5
2528
330
2525
100
AcDbEntity
  8
DIM
 62
     0
370
    -2
100
AcDbLine
 10
-654.0149718086539
 20
778.5395136778117
 30
0.0
 11
-654.0149718086539
 21
571.7928496048631
 31
0.0
  0
LINE
  5
2529
330
2525
100
AcDbEntity
  8
DIM
 62
     0
370
    -2
100
AcDbLine
 10
-464.5804148837312
 20
778.5395136778117
 30
0.0
 11
-464.5804148837312
 21
571.7928496048631
 31
0.0
  0
LINE
  5
252A
330
2525
100
AcDbEntity
  8
DIM
 62
     0
370
    -2
100
AcDbLine
 10
-651.0149718086539
 20
571.7928496048631
 30
0.0
 11
-467.5804148837312
 21
571.7928496048631
 31
0.0
  0
INSERT
  5
252B
330
2525
100
AcDbEntity
  8
DIM
 62
     0
370
    -2
100
AcDbBlockReference
  2
_DOT
 10
-654.0149718086539
 20
571.7928496048631
 30
0.0
 41
3.0
 42
3.0
 43
3.0
 50
180.0
  0
INSERT
  5
252C
330
2525
100
AcDbEntity
  8
DIM
 62
     0
370
    -2
100
AcDbBlockReference
  2
_DOT
 10
-464.5804148837312
 20
571.7928496048631
 30
0.0
 41
3.0
 42
3.0
 43
3.0
  0
MTEXT
  5
252D
330
2525
100
AcDbEntity
  8
DIM
 62
     0
100
AcDbMText
 10
-559.2976933461925
 20
587.7951004489297
 30
0.0
 40
12.0
 41
0.0
 46
0.0
 71
     5
 72
     1
  1
\A1;189
  7
ＭＳ ゴシック
 73
     1
 44
1.0
  0
POINT
  5
252E
330
2525
100
AcDbEntity
  8
Defpoints
 62
     0
100
AcDbPoint
 10
-654.0149718086539
 20
788.5395136778117
 30
0.0
  0
POINT
  5
252F
330
2525
100
AcDbEntity
  8
Defpoints
 62
     0
100
AcDbPoint
 10
-464.5804148837312
 20
788.5395136778117
 30
0.0
  0
POINT
  5
2530
330
2525
100
AcDbEntity
  8
Defpoints
 62
     0
100
AcDbPoint
 10
-464.5804148837312
 20
571.7928496048631
 30
0.0
  0
ENDBLK
  5
2527
330
2525
100
AcDbEntity
  8
0
100
AcDbBlockEnd
  0
BLOCK
  5
30D7
330
30D6
100
AcDbEntity
  8
0
100
AcDbBlockBegin
  2
*D4
 70
     1
 10
0.0
 20
0.0
 30
0.0
  3
*D4
  1

  0
LINE
  5
30D9
330
30D6
100
AcDbEntity
  8
DIM
 62
     0
370
    -2
100
AcDbLine
 10
147.0662751128732
 20
1084.028452388392
 30
0.0
 11
147.0662751128732
 21
1141.941990061633
 31
0.0
  0
LINE
  5
30DA
330
30D6
100
AcDbEntity
  8
DIM
 62
     0
370
    -2
100
AcDbLine
 10
596.5669665115358
 20
1084.52776099934
 30
0.0
 11
596.5669665115358
 21
1141.941990061633
 31
0.0
  0
LINE
  5
30DB
330
30D6
100
AcDbEntity
  8
DIM
 62
     0
370
    -2
100
AcDbLine
 10
150.0662751128732
 20
1141.941990061633
 30
0.0
 11
593.5669665115358
 21
1141.941990061633
 31
0.0
  0
INSERT
  5
30DC
330
30D6
100
AcDbEntity
  8
DIM
 62
     0
370
    -2
100
AcDbBlockReference
  2
_DOT
 10
147.0662751128732
 20
1141.941990061633
 30
0.0
 41
3.0
 42
3.0
 43
3.0
 50
180.0
  0
INSERT
  5
30DD
330
30D6
100
AcDbEntity
  8
DIM
 62
     0
370
    -2
100
AcDbBlockReference
  2
_DOT
 10
596.5669665115358
 20
1141.941990061633
 30
0.0
 41
3.0
 42
3.0
 43
3.0
  0
MTEXT
  5
30DE
330
30D6
100
AcDbEntity
  8
DIM
 62
     0
100
AcDbMText
 10
371.8166208122045
 20
1157.941990061633
 30
0.0
 40
12.0
 41
0.0
 46
0.0
 71
     5
 72
     1
  1
\A1;450
  7
ＭＳ ゴシック
 73
     1
 44
1.0
  0
POINT
  5
30DF
330
30D6
100
AcDbEntity
  8
Defpoints
 62
     0
100
AcDbPoint
 10
147.0662751128732
 20
1074.028452388392
 30
0.0
  0
POINT
  5
30E0
330
30D6
100
AcDbEntity
  8
Defpoints
 62
     0
100
AcDbPoint
 10
596.5669665115358
 20
1074.52776099934
 30
0.0
  0
POINT
  5
30E1
330
30D6
100
AcDbEntity
  8
Defpoints
 62
     0
100
AcDbPoint
 10
596.5669665115358
 20
1141.941990061633
 30
0.0
  0
ENDBLK
  5
30D8
330
30D6
100
AcDbEntity
  8
0
100
AcDbBlockEnd
  0
BLOCK
  5
3104
330
3103
100
AcDbEntity
  8
0
100
AcDbBlockBegin
  2
*D5
 70
     1
 10
0.0
 20
0.0
 30
0.0
  3
*D5
  1

  0
LINE
  5
3106
330
3103
100
AcDbEntity
  8
DIM
 62
     0
370
    -2
100
AcDbLine
 10
607.0662751224838
 20
964.3256488546513
 30
0.0
 11
656.2148230745822
 21
964.3256488546513
 31
0.0
  0
LINE
  5
3107
330
3103
100
AcDbEntity
  8
DIM
 62
     0
370
    -2
100
AcDbLine
 10
607.0662751224838
 20
964.3256488546513
 30
0.0
 11
656.2148230745822
 21
964.3256488546513
 31
0.0
  0
LINE
  5
3108
330
3103
100
AcDbEntity
  8
DIM
 62
     0
370
    -2
100
AcDbLine
 10
656.2148230745822
 20
961.3256488546513
 30
0.0
 11
656.2148230745822
 21
958.3256488546513
 31
0.0
  0
LINE
  5
3109
330
3103
100
AcDbEntity
  8
DIM
 62
     0
370
    -2
100
AcDbLine
 10
656.2148230745822
 20
967.3256488546513
 30
0.0
 11
656.2148230745822
 21
970.3256488546513
 31
0.0
  0
INSERT
  5
310A
330
3103
100
AcDbEntity
  8
DIM
 62
     0
370
    -2
100
AcDbBlockReference
  2
_DOT
 10
656.2148230745822
 20
964.3256488546513
 30
0.0
 41
3.0
 42
3.0
 43
3.0
 50
90.0
  0
INSERT
  5
310B
330
3103
100
AcDbEntity
  8
DIM
 62
     0
370
    -2
100
AcDbBlockReference
  2
_DOT
 10
656.2148230745822
 20
964.3256488546513
 30
0.0
 41
3.0
 42
3.0
 43
3.0
 50
270.0
  0
MTEXT
  5
310C
330
3103
100
AcDbEntity
  8
DIM
 62
     0
100
AcDbMText
 10
640.2148230745822
 20
964.3256488546513
 30
0.0
 40
12.0
 41
0.0
 46
0.0
 71
     5
 72
     1
  1
\A1;0
  7
ＭＳ ゴシック
 11
6.123233995736766E-17
 21
1.0
 31
0.0
 73
     1
 44
1.0
  0
POINT
  5
310D
330
3103
100
AcDbEntity
  8
Defpoints
 62
     0
100
AcDbPoint
 10
597.0662751224838
 20
964.3256488546513
 30
0.0
  0
POINT
  5
310E
330
3103
100
AcDbEntity
  8
Defpoints
 62
     0
100
AcDbPoint
 10
597.0662751224838
 20
964.3256488546513
 30
0.0
  0
POINT
  5
311E
330
3103
100
AcDbEntity
  8
Defpoints
 62
     0
100
AcDbPoint
 10
656.2148230745822
 20
964.3256488546513
 30
0.0
  0
ENDBLK
  5
3105
330
3103
100
AcDbEntity
  8
0
100
AcDbBlockEnd
  0
BLOCK
  5
3113
330
3112
100
AcDbEntity
  8
0
100
AcDbBlockBegin
  2
*D6
 70
     1
 10
0.0
 20
0.0
 30
0.0
  3
*D6
  1

  0
LINE
  5
3115
330
3112
100
AcDbEntity
  8
DIM
 62
     0
370
    -2
100
AcDbLine
 10
607.0662751224838
 20
631.2732379989609
 30
0.0
 11
656.2148230745822
 21
631.2732379989609
 31
0.0
  0
LINE
  5
3116
330
3112
100
AcDbEntity
  8
DIM
 62
     0
370
    -2
100
AcDbLine
 10
606.5669665115358
 20
690.7739293892953
 30
0.0
 11
656.2148230745822
 21
690.7739293892953
 31
0.0
  0
LINE
  5
3117
330
3112
100
AcDbEntity
  8
DIM
 62
     0
370
    -2
100
AcDbLine
 10
656.2148230745822
 20
634.2732379989609
 30
0.0
 11
656.2148230745822
 21
687.7739293892953
 31
0.0
  0
INSERT
  5
3118
330
3112
100
AcDbEntity
  8
DIM
 62
     0
370
    -2
100
AcDbBlockReference
  2
_DOT
 10
656.2148230745822
 20
631.2732379989609
 30
0.0
 41
3.0
 42
3.0
 43
3.0
 50
270.0
  0
INSERT
  5
3119
330
3112
100
AcDbEntity
  8
DIM
 62
     0
370
    -2
100
AcDbBlockReference
  2
_DOT
 10
656.2148230745822
 20
690.7739293892953
 30
0.0
 41
3.0
 42
3.0
 43
3.0
 50
90.0
  0
MTEXT
  5
311A
330
3112
100
AcDbEntity
  8
DIM
 62
     0
100
AcDbMText
 10
640.2148230745822
 20
661.0235836941281
 30
0.0
 40
12.0
 41
0.0
 46
0.0
 71
     5
 72
     1
  1
\A1;60
  7
ＭＳ ゴシック
 11
0.0
 21
1.0
 31
0.0
 73
     1
 44
1.0
  0
POINT
  5
311B
330
3112
100
AcDbEntity
  8
Defpoints
 62
     0
100
AcDbPoint
 10
597.0662751224838
 20
631.2732379989609
 30
0.0
  0
POINT
  5
311C
330
3112
100
AcDbEntity
  8
Defpoints
 62
     0
100
AcDbPoint
 10
596.5669665115358
 20
690.7739293892953
 30
0.0
  0
POINT
  5
311D
330
3112
100
AcDbEntity
  8
Defpoints
 62
     0
100
AcDbPoint
 10
656.2148230745822
 20
690.7739293892953
 30
0.0
  0
ENDBLK
  5
3114
330
3112
100
AcDbEntity
  8
0
100
AcDbBlockEnd
  0
BLOCK
  5
3126
330
3125
100
AcDbEntity
  8
0
100
AcDbBlockBegin
  2
*D7
 70
     1
 10
0.0
 20
0.0
 30
0.0
  3
*D7
  1

  0
LINE
  5
3128
330
3125
100
AcDbEntity
  8
DIM
 62
     0
370
    -2
100
AcDbLine
 10
607.0662751224838
 20
964.3256488546513
 30
0.0
 11
656.2148230745822
 21
964.3256488546513
 31
0.0
  0
LINE
  5
3129
330
3125
100
AcDbEntity
  8
DIM
 62
     0
370
    -2
100
AcDbLine
 10
607.0662751224838
 20
1064.325648854651
 30
0.0
 11
656.2148230745822
 21
1064.325648854651
 31
0.0
  0
LINE
  5
312A
330
3125
100
AcDbEntity
  8
DIM
 62
     0
370
    -2
100
AcDbLine
 10
656.2148230745822
 20
967.3256488546513
 30
0.0
 11
656.2148230745822
 21
1061.325648854651
 31
0.0
  0
INSERT
  5
312B
330
3125
100
AcDbEntity
  8
DIM
 62
     0
370
    -2
100
AcDbBlockReference
  2
_DOT
 10
656.2148230745822
 20
964.3256488546513
 30
0.0
 41
3.0
 42
3.0
 43
3.0
 50
270.0
  0
INSERT
  5
312C
330
3125
100
AcDbEntity
  8
DIM
 62
     0
370
    -2
100
AcDbBlockReference
  2
_DOT
 10
656.2148230745822
 20
1064.325648854651
 30
0.0
 41
3.0
 42
3.0
 43
3.0
 50
90.0
  0
MTEXT
  5
312D
330
3125
100
AcDbEntity
  8
DIM
 62
     0
100
AcDbMText
 10
640.2148230745822
 20
1014.325648854651
 30
0.0
 40
12.0
 41
0.0
 46
0.0
 71
     5
 72
     1
  1
\A1;100
  7
ＭＳ ゴシック
 11
0.0
 21
1.0
 31
0.0
 73
     1
 44
1.0
  0
POINT
  5
312E
330
3125
100
AcDbEntity
  8
Defpoints
 62
     0
100
AcDbPoint
 10
597.0662751224838
 20
964.3256488546513
 30
0.0
  0
POINT
  5
312F
330
3125
100
AcDbEntity
  8
Defpoints
 62
     0
100
AcDbPoint
 10
597.0662751224838
 20
1064.325648854651
 30
0.0
  0
POINT
  5
3130
330
3125
100
AcDbEntity
  8
Defpoints
 62
     0
100
AcDbPoint
 10
656.2148230745822
 20
1064.325648854651
 30
0.0
  0
ENDBLK
  5
3127
330
3125
100
AcDbEntity
  8
0
100
AcDbBlockEnd
  0
BLOCK
  5
315E
330
315D
100
AcDbEntity
  8
0
100
AcDbBlockBegin
  2
*D8
 70
     1
 10
0.0
 20
0.0
 30
0.0
  3
*D8
  1

  0
LINE
  5
315F
330
315D
100
AcDbEntity
  8
MODEL
 62
     0
370
    -2
100
AcDbLine
 10
77.46863124430365
 20
82.92988067839394
 30
0.0
 11
34.44636569035583
 21
82.92988067839394
 31
0.0
  0
LINE
  5
3160
330
315D
100
AcDbEntity
  8
MODEL
 62
     0
370
    -2
100
AcDbLine
 10
77.46863124430365
 20
182.9298806783939
 30
0.0
 11
34.44636569035583
 21
182.9298806783939
 31
0.0
  0
LINE
  5
3161
330
315D
100
AcDbEntity
  8
MODEL
 62
     0
370
    -2
100
AcDbLine
 10
34.44636569035583
 20
92.92927032683144
 30
0.0
 11
34.44636569035583
 21
172.9304910299564
 31
0.0
  0
INSERT
  5
3162
330
315D
100
AcDbEntity
  8
MODEL
 62
     0
370
    -2
100
AcDbBlockReference
  2
_DOT
 10
34.44636569035583
 20
82.92988067839394
 30
0.0
 41
9.999389648437498
 42
9.999389648437498
 43
9.999389648437498
 50
270.0
  0
INSERT
  5
3163
330
315D
100
AcDbEntity
  8
MODEL
 62
     0
370
    -2
100
AcDbBlockReference
  2
_DOT
 10
34.44636569035583
 20
182.9298806783939
 30
0.0
 41
9.999389648437498
 42
9.999389648437498
 43
9.999389648437498
 50
90.0
  0
MTEXT
  5
3164
330
315D
100
AcDbEntity
  8
MODEL
 62
     0
100
AcDbMText
 10
12.22547426232032
 20
132.9298806783939
 30
0.0
 40
24.4326171875
 41
0.0
 46
0.0
 71
     5
 72
     1
  1
\A1;100
  7
ＭＳ ゴシック
 11
7.105427357601002E-17
 21
1.0
 31
0.0
 73
     1
 44
1.0
  0
POINT
  5
3165
330
315D
100
AcDbEntity
  8
Defpoints
 62
     0
100
AcDbPoint
 10
102.4686312443037
 20
82.92988067839394
 30
0.0
  0
POINT
  5
3166
330
315D
100
AcDbEntity
  8
Defpoints
 62
     0
100
AcDbPoint
 10
102.4686312443037
 20
182.9298806783939
 30
0.0
  0
POINT
  5
3167
330
315D
100
AcDbEntity
  8
Defpoints
 62
     0
100
AcDbPoint
 10
34.44636569035583
 20
182.9298806783939
 30
0.0
  0
ENDBLK
  5
3168
330
315D
100
AcDbEntity
  8
0
100
AcDbBlockEnd
  0
BLOCK
  5
316D
330
316C
100
AcDbEntity
  8
0
100
AcDbBlockBegin
  2
*D9
 70
     1
 10
0.0
 20
0.0
 30
0.0
  3
*D9
  1

  0
LINE
  5
316E
330
316C
100
AcDbEntity
  8
MODEL
 62
     0
370
    -2
100
AcDbLine
 10
75.46863124430365
 20
184.9298806783939
 30
0.0
 11
34.44636569035583
 21
184.9298806783939
 31
0.0
  0
LINE
  5
316F
330
316C
100
AcDbEntity
  8
MODEL
 62
     0
370
    -2
100
AcDbLine
 10
77.46863124430365
 20
182.9298806783939
 30
0.0
 11
34.44636569035583
 21
182.9298806783939
 31
0.0
  0
LINE
  5
3170
330
316C
100
AcDbEntity
  8
MODEL
 62
     0
370
    -2
100
AcDbLine
 10
34.44636569035583
 20
184.9298806783939
 30
0.0
 11
34.44636569035583
 21
237.5650617118577
 31
0.0
  0
LINE
  5
3171
330
316C
100
AcDbEntity
  8
MODEL
 62
     0
370
    -2
100
AcDbLine
 10
34.44636569035583
 20
184.9298806783939
 30
0.0
 11
34.44636569035583
 21
182.9298806783939
 31
0.0
  0
LINE
  5
3172
330
316C
100
AcDbEntity
  8
MODEL
 62
     0
370
    -2
100
AcDbLine
 10
34.44636569035583
 20
194.9292703268314
 30
0.0
 11
34.44636569035583
 21
204.9286599752689
 31
0.0
  0
LINE
  5
3173
330
316C
100
AcDbEntity
  8
MODEL
 62
     0
370
    -2
100
AcDbLine
 10
34.44636569035583
 20
172.9304910299564
 30
0.0
 11
34.44636569035583
 21
162.9311013815189
 31
0.0
  0
INSERT
  5
3174
330
316C
100
AcDbEntity
  8
MODEL
 62
     0
370
    -2
100
AcDbBlockReference
  2
_DOT
 10
34.44636569035583
 20
184.9298806783939
 30
0.0
 41
9.999389648437498
 42
9.999389648437498
 43
9.999389648437498
 50
270.0
  0
INSERT
  5
3175
330
316C
100
AcDbEntity
  8
MODEL
 62
     0
370
    -2
100
AcDbBlockReference
  2
_DOT
 10
34.44636569035583
 20
182.9298806783939
 30
0.0
 41
9.999389648437498
 42
9.999389648437498
 43
9.999389648437498
 50
90.0
  0
MTEXT
  5
3176
330
316C
100
AcDbEntity
  8
MODEL
 62
     0
100
AcDbMText
 10
12.22547426232032
 20
221.2468608435633
 30
0.0
 40
24.4326171875
 41
0.0
 46
0.0
 71
     5
 72
     1
  1
\A1;2
  7
ＭＳ ゴシック
 11
0.0
 21
1.0
 31
0.0
 73
     1
 44
1.0
  0
POINT
  5
3177
330
316C
100
AcDbEntity
  8
Defpoints
 62
     0
100
AcDbPoint
 10
100.4686312443037
 20
184.9298806783939
 30
0.0
  0
POINT
  5
3178
330
316C
100
AcDbEntity
  8
Defpoints
 62
     0
100
AcDbPoint
 10
102.4686312443037
 20
182.9298806783939
 30
0.0
  0
POINT
  5
3179
330
316C
100
AcDbEntity
  8
Defpoints
 62
     0
100
AcDbPoint
 10
34.44636569035583
 20
182.9298806783939
 30
0.0
  0
ENDBLK
  5
317A
330
316C
100
AcDbEntity
  8
0
100
AcDbBlockEnd
  0
BLOCK
  5
3186
330
3185
100
AcDbEntity
  8
0
100
AcDbBlockBegin
  2
*D10
 70
     1
 10
0.0
 20
0.0
 30
0.0
  3
*D10
  1

  0
LINE
  5
3187
330
3185
100
AcDbEntity
  8
MODEL
 62
     0
370
    -2
100
AcDbLine
 10
102.4686312443037
 20
57.92988067839394
 30
0.0
 11
102.4686312443037
 21
4.99969482421875
 31
0.0
  0
LINE
  5
3188
330
3185
100
AcDbEntity
  8
MODEL
 62
     0
370
    -2
100
AcDbLine
 10
402.4686312443055
 20
57.92988067839633
 30
0.0
 11
402.4686312443055
 21
4.99969482421875
 31
0.0
  0
LINE
  5
3189
330
3185
100
AcDbEntity
  8
MODEL
 62
     0
370
    -2
100
AcDbLine
 10
112.4680208927412
 20
4.99969482421875
 30
0.0
 11
392.469241595868
 21
4.99969482421875
 31
0.0
  0
INSERT
  5
318A
330
3185
100
AcDbEntity
  8
MODEL
 62
     0
370
    -2
100
AcDbBlockReference
  2
_DOT
 10
102.4686312443037
 20
4.99969482421875
 30
0.0
 41
9.999389648437498
 42
9.999389648437498
 43
9.999389648437498
 50
180.0
  0
INSERT
  5
318B
330
3185
100
AcDbEntity
  8
MODEL
 62
     0
370
    -2
100
AcDbBlockReference
  2
_DOT
 10
402.4686312443055
 20
4.99969482421875
 30
0.0
 41
9.999389648437498
 42
9.999389648437498
 43
9.999389648437498
  0
MTEXT
  5
318C
330
3185
100
AcDbEntity
  8
MODEL
 62
     0
100
AcDbMText
 10
252.4686312443046
 20
27.22058625225426
 30
0.0
 40
24.4326171875
 41
0.0
 46
0.0
 71
     5
 72
     1
  1
\A1;300
  7
ＭＳ ゴシック
 73
     1
 44
1.0
  0
POINT
  5
318D
330
3185
100
AcDbEntity
  8
Defpoints
 62
     0
100
AcDbPoint
 10
102.4686312443037
 20
82.92988067839394
 30
0.0
  0
POINT
  5
318E
330
3185
100
AcDbEntity
  8
Defpoints
 62
     0
100
AcDbPoint
 10
402.4686312443055
 20
82.92988067839633
 30
0.0
  0
POINT
  5
318F
330
3185
100
AcDbEntity
  8
Defpoints
 62
     0
100
AcDbPoint
 10
402.4686312443055
 20
4.99969482421875
 30
0.0
  0
ENDBLK
  5
3190
330
3185
100
AcDbEntity
  8
0
100
AcDbBlockEnd
  0
BLOCK
  5
3195
330
3194
100
AcDbEntity
  8
0
100
AcDbBlockBegin
  2
*D11
 70
     1
 10
0.0
 20
0.0
 30
0.0
  3
*D11
  1

  0
LINE
  5
3196
330
3194
100
AcDbEntity
  8
MODEL
 62
     0
370
    -2
100
AcDbLine
 10
102.4686312443037
 20
57.92988067839394
 30
0.0
 11
102.4686312443037
 21
4.99969482421875
 31
0.0
  0
LINE
  5
3197
330
3194
100
AcDbEntity
  8
MODEL
 62
     0
370
    -2
100
AcDbLine
 10
100.4686312443037
 20
57.92988067839394
 30
0.0
 11
100.4686312443037
 21
4.99969482421875
 31
0.0
  0
LINE
  5
3198
330
3194
100
AcDbEntity
  8
MODEL
 62
     0
370
    -2
100
AcDbLine
 10
100.4686312443037
 20
4.99969482421875
 30
0.0
 11
47.83345021083994
 21
4.99969482421875
 31
0.0
  0
LINE
  5
3199
330
3194
100
AcDbEntity
  8
MODEL
 62
     0
370
    -2
100
AcDbLine
 10
102.4686312443037
 20
4.99969482421875
 30
0.0
 11
100.4686312443037
 21
4.99969482421875
 31
0.0
  0
LINE
  5
319A
330
3194
100
AcDbEntity
  8
MODEL
 62
     0
370
    -2
100
AcDbLine
 10
112.4680208927412
 20
4.99969482421875
 30
0.0
 11
122.4674105411787
 21
4.99969482421875
 31
0.0
  0
LINE
  5
319B
330
3194
100
AcDbEntity
  8
MODEL
 62
     0
370
    -2
100
AcDbLine
 10
90.46924159586615
 20
4.99969482421875
 30
0.0
 11
80.46985194742865
 21
4.99969482421875
 31
0.0
  0
INSERT
  5
319C
330
3194
100
AcDbEntity
  8
MODEL
 62
     0
370
    -2
100
AcDbBlockReference
  2
_DOT
 10
102.4686312443037
 20
4.99969482421875
 30
0.0
 41
9.999389648437498
 42
9.999389648437498
 43
9.999389648437498
 50
180.0
  0
INSERT
  5
319D
330
3194
100
AcDbEntity
  8
MODEL
 62
     0
370
    -2
100
AcDbBlockReference
  2
_DOT
 10
100.4686312443037
 20
4.99969482421875
 30
0.0
 41
9.999389648437498
 42
9.999389648437498
 43
9.999389648437498
  0
MTEXT
  5
319E
330
3194
100
AcDbEntity
  8
MODEL
 62
     0
100
AcDbMText
 10
64.1516510791343
 20
27.22058625225426
 30
0.0
 40
24.4326171875
 41
0.0
 46
0.0
 71
     5
 72
     1
  1
\A1;2
  7
ＭＳ ゴシック
 73
     1
 44
1.0
  0
POINT
  5
319F
330
3194
100
AcDbEntity
  8
Defpoints
 62
     0
100
AcDbPoint
 10
102.4686312443037
 20
82.92988067839394
 30
0.0
  0
POINT
  5
31A0
330
3194
100
AcDbEntity
  8
Defpoints
 62
     0
100
AcDbPoint
 10
100.4686312443037
 20
82.92988067839394
 30
0.0
  0
POINT
  5
31A1
330
3194
100
AcDbEntity
  8
Defpoints
 62
     0
100
AcDbPoint
 10
100.4686312443037
 20
4.99969482421875
 30
0.0
  0
ENDBLK
  5
31A2
330
3194
100
AcDbEntity
  8
0
100
AcDbBlockEnd
  0
BLOCK
  5
31A7
330
31A6
100
AcDbEntity
  8
0
100
AcDbBlockBegin
  2
*D12
 70
     1
 10
0.0
 20
0.0
 30
0.0
  3
*D12
  1

  0
LINE
  5
31A8
330
31A6
100
AcDbEntity
  8
MODEL
 62
     0
370
    -2
100
AcDbLine
 10
439.4686312443046
 20
70.92988067839883
 30
0.0
 11
490.4721213719877
 21
70.92988067839883
 31
0.0
  0
LINE
  5
31A9
330
31A6
100
AcDbEntity
  8
MODEL
 62
     0
370
    -2
100
AcDbLine
 10
439.4686312443037
 20
194.9298806783964
 30
0.0
 11
490.4721213719877
 21
194.9298806783964
 31
0.0
  0
LINE
  5
31AA
330
31A6
100
AcDbEntity
  8
MODEL
 62
     0
370
    -2
100
AcDbLine
 10
490.4721213719877
 20
80.92927032683633
 30
0.0
 11
490.4721213719877
 21
184.9304910299589
 31
0.0
  0
INSERT
  5
31AB
330
31A6
100
AcDbEntity
  8
MODEL
 62
     0
370
    -2
100
AcDbBlockReference
  2
_DOT
 10
490.4721213719877
 20
70.92988067839883
 30
0.0
 41
9.999389648437498
 42
9.999389648437498
 43
9.999389648437498
 50
270.0
  0
INSERT
  5
31AC
330
31A6
100
AcDbEntity
  8
MODEL
 62
     0
370
    -2
100
AcDbBlockReference
  2
_DOT
 10
490.4721213719877
 20
194.9298806783964
 30
0.0
 41
9.999389648437498
 42
9.999389648437498
 43
9.999389648437498
 50
90.0
  0
MTEXT
  5
31AD
330
31A6
100
AcDbEntity
  8
MODEL
 62
     0
100
AcDbMText
 10
468.2512299439521
 20
132.9298806783976
 30
0.0
 40
24.4326171875
 41
0.0
 46
0.0
 71
     5
 72
     1
  1
\A1;124
  7
ＭＳ ゴシック
 11
0.0
 21
1.0
 31
0.0
 73
     1
 44
1.0
  0
POINT
  5
31AE
330
31A6
100
AcDbEntity
  8
Defpoints
 62
     0
100
AcDbPoint
 10
414.4686312443046
 20
70.92988067839883
 30
0.0
  0
POINT
  5
31AF
330
31A6
100
AcDbEntity
  8
Defpoints
 62
     0
100
AcDbPoint
 10
414.4686312443037
 20
194.9298806783964
 30
0.0
  0
POINT
  5
31B0
330
31A6
100
AcDbEntity
  8
Defpoints
 62
     0
100
AcDbPoint
 10
490.4721213719877
 20
194.9298806783964
 30
0.0
  0
ENDBLK
  5
31B1
330
31A6
100
AcDbEntity
  8
0
100
AcDbBlockEnd
  0
BLOCK
  5
31B4
330
31B3
100
AcDbEntity
  8
0
100
AcDbBlockBegin
  2
*D13
 70
     1
 10
0.0
 20
0.0
 30
0.0
  3
*D13
  1

  0
LINE
  5
31B5
330
31B3
100
AcDbEntity
  8
MODEL
 62
     0
370
    -2
100
AcDbLine
 10
414.4686312443037
 20
219.9298806783964
 30
0.0
 11
414.4686312443037
 21
246.5755122777377
 31
0.0
  0
LINE
  5
31B6
330
31B3
100
AcDbEntity
  8
MODEL
 62
     0
370
    -2
100
AcDbLine
 10
404.4686312443037
 20
219.9298806783963
 30
0.0
 11
404.4686312443037
 21
246.5755122777377
 31
0.0
  0
LINE
  5
31B7
330
31B3
100
AcDbEntity
  8
MODEL
 62
     0
370
    -2
100
AcDbLine
 10
404.4692415958662
 20
246.5755122777377
 30
0.0
 11
414.4680208927412
 21
246.5755122777377
 31
0.0
  0
INSERT
  5
31B8
330
31B3
100
AcDbEntity
  8
MODEL
 62
     0
370
    -2
100
AcDbBlockReference
  2
_DOT
 10
414.4686312443037
 20
246.5755122777377
 30
0.0
 41
9.999389648437498
 42
9.999389648437498
 43
9.999389648437498
  0
INSERT
  5
31B9
330
31B3
100
AcDbEntity
  8
MODEL
 62
     0
370
    -2
100
AcDbBlockReference
  2
_DOT
 10
404.4686312443037
 20
246.5755122777377
 30
0.0
 41
9.999389648437498
 42
9.999389648437498
 43
9.999389648437498
 50
180.0
  0
MTEXT
  5
31BA
330
31B3
100
AcDbEntity
  8
MODEL
 62
     0
100
AcDbMText
 10
409.4686312443037
 20
268.7964037057732
 30
0.0
 40
24.4326171875
 41
0.0
 46
0.0
 71
     5
 72
     1
  1
\A1;10
  7
ＭＳ ゴシック
 73
     1
 44
1.0
  0
POINT
  5
31BB
330
31B3
100
AcDbEntity
  8
Defpoints
 62
     0
100
AcDbPoint
 10
414.4686312443037
 20
194.9298806783964
 30
0.0
  0
POINT
  5
31BC
330
31B3
100
AcDbEntity
  8
Defpoints
 62
     0
100
AcDbPoint
 10
404.4686312443037
 20
194.9298806783963
 30
0.0
  0
POINT
  5
31BD
330
31B3
100
AcDbEntity
  8
Defpoints
 62
     0
100
AcDbPoint
 10
404.4686312443037
 20
246.5755122777377
 30
0.0
  0
ENDBLK
  5
31BE
330
31B3
100
AcDbEntity
  8
0
100
AcDbBlockEnd
  0
BLOCK
  5
31C3
330
31C2
100
AcDbEntity
  8
0
100
AcDbBlockBegin
  2
*D14
 70
     1
 10
0.0
 20
0.0
 30
0.0
  3
*D14
  1

  0
LINE
  5
31C4
330
31C2
100
AcDbEntity
  8
MODEL
 62
     0
370
    -2
100
AcDbLine
 10
100.4686312443037
 20
219.9298806783939
 30
0.0
 11
100.4686312443037
 21
246.5755122777377
 31
0.0
  0
LINE
  5
31C5
330
31C2
100
AcDbEntity
  8
MODEL
 62
     0
370
    -2
100
AcDbLine
 10
404.4686312443037
 20
219.9298806783963
 30
0.0
 11
404.4686312443037
 21
246.5755122777377
 31
0.0
  0
LINE
  5
31C6
330
31C2
100
AcDbEntity
  8
MODEL
 62
     0
370
    -2
100
AcDbLine
 10
110.4680208927412
 20
246.5755122777377
 30
0.0
 11
394.4692415958662
 21
246.5755122777377
 31
0.0
  0
INSERT
  5
31C7
330
31C2
100
AcDbEntity
  8
MODEL
 62
     0
370
    -2
100
AcDbBlockReference
  2
_DOT
 10
100.4686312443037
 20
246.5755122777377
 30
0.0
 41
9.999389648437498
 42
9.999389648437498
 43
9.999389648437498
 50
180.0
  0
INSERT
  5
31C8
330
31C2
100
AcDbEntity
  8
MODEL
 62
     0
370
    -2
100
AcDbBlockReference
  2
_DOT
 10
404.4686312443037
 20
246.5755122777377
 30
0.0
 41
9.999389648437498
 42
9.999389648437498
 43
9.999389648437498
  0
MTEXT
  5
31C9
330
31C2
100
AcDbEntity
  8
MODEL
 62
     0
100
AcDbMText
 10
252.4686312443037
 20
268.7964037057732
 30
0.0
 40
24.4326171875
 41
0.0
 46
0.0
 71
     5
 72
     1
  1
\A1;304
  7
ＭＳ ゴシック
 73
     1
 44
1.0
  0
POINT
  5
31CA
330
31C2
100
AcDbEntity
  8
Defpoints
 62
     0
100
AcDbPoint
 10
100.4686312443037
 20
194.9298806783939
 30
0.0
  0
POINT
  5
31CB
330
31C2
100
AcDbEntity
  8
Defpoints
 62
     0
100
AcDbPoint
 10
404.4686312443037
 20
194.9298806783963
 30
0.0
  0
POINT
  5
31CC
330
31C2
100
AcDbEntity
  8
Defpoints
 62
     0
100
AcDbPoint
 10
404.4686312443037
 20
246.5755122777377
 30
0.0
  0
ENDBLK
  5
31CD
330
31C2
100
AcDbEntity
  8
0
100
AcDbBlockEnd
  0
BLOCK
  5
31DA
330
31D9
100
AcDbEntity
  8
0
100
AcDbBlockBegin
  2
*D15
 70
     1
 10
0.0
 20
0.0
 30
0.0
  3
*D15
  1

  0
LINE
  5
31DB
330
31D9
100
AcDbEntity
  8
MODEL
 62
     0
370
    -2
100
AcDbLine
 10
606.4389341413166
 20
55.92988067839633
 30
0.0
 11
606.4389341413166
 21
4.99969482421875
 31
0.0
  0
LINE
  5
31DC
330
31D9
100
AcDbEntity
  8
MODEL
 62
     0
370
    -2
100
AcDbLine
 10
836.4389341413216
 20
55.92988067839633
 30
0.0
 11
836.4389341413216
 21
4.99969482421875
 31
0.0
  0
LINE
  5
31DD
330
31D9
100
AcDbEntity
  8
MODEL
 62
     0
370
    -2
100
AcDbLine
 10
616.4383237897541
 20
4.99969482421875
 30
0.0
 11
826.4395444928841
 21
4.99969482421875
 31
0.0
  0
INSERT
  5
31DE
330
31D9
100
AcDbEntity
  8
MODEL
 62
     0
370
    -2
100
AcDbBlockReference
  2
_DOT
 10
606.4389341413166
 20
4.99969482421875
 30
0.0
 41
9.999389648437498
 42
9.999389648437498
 43
9.999389648437498
 50
180.0
  0
INSERT
  5
31DF
330
31D9
100
AcDbEntity
  8
MODEL
 62
     0
370
    -2
100
AcDbBlockReference
  2
_DOT
 10
836.4389341413216
 20
4.99969482421875
 30
0.0
 41
9.999389648437498
 42
9.999389648437498
 43
9.999389648437498
  0
MTEXT
  5
31E0
330
31D9
100
AcDbEntity
  8
MODEL
 62
     0
100
AcDbMText
 10
721.4389341413191
 20
27.22058625225426
 30
0.0
 40
24.4326171875
 41
0.0
 46
0.0
 71
     5
 72
     1
  1
\A1;230
  7
ＭＳ ゴシック
 73
     1
 44
1.0
  0
POINT
  5
31E1
330
31D9
100
AcDbEntity
  8
Defpoints
 62
     0
100
AcDbPoint
 10
606.4389341413166
 20
80.92988067839633
 30
0.0
  0
POINT
  5
31E2
330
31D9
100
AcDbEntity
  8
Defpoints
 62
     0
100
AcDbPoint
 10
836.4389341413216
 20
80.92988067839633
 30
0.0
  0
POINT
  5
31E3
330
31D9
100
AcDbEntity
  8
Defpoints
 62
     0
100
AcDbPoint
 10
836.4389341413216
 20
4.99969482421875
 30
0.0
  0
ENDBLK
  5
31E4
330
31D9
100
AcDbEntity
  8
0
100
AcDbBlockEnd
  0
BLOCK
  5
31E9
330
31E8
100
AcDbEntity
  8
0
100
AcDbBlockBegin
  2
*D16
 70
     1
 10
0.0
 20
0.0
 30
0.0
  3
*D16
  1

  0
LINE
  5
31EA
330
31E8
100
AcDbEntity
  8
MODEL
 62
     0
370
    -2
100
AcDbLine
 10
414.4686312443037
 20
219.9298806783964
 30
0.0
 11
414.4686312443037
 21
304.2571218851058
 31
0.0
  0
LINE
  5
31EB
330
31E8
100
AcDbEntity
  8
MODEL
 62
     0
370
    -2
100
AcDbLine
 10
90.46863124430365
 20
219.9298806783939
 30
0.0
 11
90.46863124430365
 21
304.2571218851058
 31
0.0
  0
LINE
  5
31EC
330
31E8
100
AcDbEntity
  8
MODEL
 62
     0
370
    -2
100
AcDbLine
 10
404.4692415958662
 20
304.2571218851058
 30
0.0
 11
100.4680208927412
 21
304.2571218851058
 31
0.0
  0
INSERT
  5
31ED
330
31E8
100
AcDbEntity
  8
MODEL
 62
     0
370
    -2
100
AcDbBlockReference
  2
_DOT
 10
414.4686312443037
 20
304.2571218851058
 30
0.0
 41
9.999389648437498
 42
9.999389648437498
 43
9.999389648437498
  0
INSERT
  5
31EE
330
31E8
100
AcDbEntity
  8
MODEL
 62
     0
370
    -2
100
AcDbBlockReference
  2
_DOT
 10
90.46863124430365
 20
304.2571218851058
 30
0.0
 41
9.999389648437498
 42
9.999389648437498
 43
9.999389648437498
 50
180.0
  0
MTEXT
  5
31EF
330
31E8
100
AcDbEntity
  8
MODEL
 62
     0
100
AcDbMText
 10
252.4686312443037
 20
326.4780133131413
 30
0.0
 40
24.4326171875
 41
0.0
 46
0.0
 71
     5
 72
     1
  1
\A1;324
  7
ＭＳ ゴシック
 73
     1
 44
1.0
  0
POINT
  5
31F0
330
31E8
100
AcDbEntity
  8
Defpoints
 62
     0
100
AcDbPoint
 10
414.4686312443037
 20
194.9298806783964
 30
0.0
  0
POINT
  5
31F1
330
31E8
100
AcDbEntity
  8
Defpoints
 62
     0
100
AcDbPoint
 10
90.46863124430365
 20
194.9298806783939
 30
0.0
  0
POINT
  5
31F2
330
31E8
100
AcDbEntity
  8
Defpoints
 62
     0
100
AcDbPoint
 10
90.46863124430365
 20
304.2571218851058
 30
0.0
  0
ENDBLK
  5
31F3
330
31E8
100
AcDbEntity
  8
0
100
AcDbBlockEnd
  0
BLOCK
  5
31F6
330
31F5
100
AcDbEntity
  8
0
100
AcDbBlockBegin
  2
*D17
 70
     1
 10
0.0
 20
0.0
 30
0.0
  3
*D17
  1

  0
LINE
  5
31F7
330
31F5
100
AcDbEntity
  8
MODEL
 62
     0
370
    -2
100
AcDbLine
 10
848.4389341413166
 20
219.9298806783963
 30
0.0
 11
848.4389341413166
 21
246.5755122777377
 31
0.0
  0
LINE
  5
31F8
330
31F5
100
AcDbEntity
  8
MODEL
 62
     0
370
    -2
100
AcDbLine
 10
838.4389341413166
 20
219.9298806783963
 30
0.0
 11
838.4389341413166
 21
246.5755122777377
 31
0.0
  0
LINE
  5
31F9
330
31F5
100
AcDbEntity
  8
MODEL
 62
     0
370
    -2
100
AcDbLine
 10
838.4395444928791
 20
246.5755122777377
 30
0.0
 11
848.4383237897541
 21
246.5755122777377
 31
0.0
  0
INSERT
  5
31FA
330
31F5
100
AcDbEntity
  8
MODEL
 62
     0
370
    -2
100
AcDbBlockReference
  2
_DOT
 10
848.4389341413166
 20
246.5755122777377
 30
0.0
 41
9.999389648437498
 42
9.999389648437498
 43
9.999389648437498
  0
INSERT
  5
31FB
330
31F5
100
AcDbEntity
  8
MODEL
 62
     0
370
    -2
100
AcDbBlockReference
  2
_DOT
 10
838.4389341413166
 20
246.5755122777377
 30
0.0
 41
9.999389648437498
 42
9.999389648437498
 43
9.999389648437498
 50
180.0
  0
MTEXT
  5
31FC
330
31F5
100
AcDbEntity
  8
MODEL
 62
     0
100
AcDbMText
 10
843.4389341413166
 20
268.7964037057732
 30
0.0
 40
24.4326171875
 41
0.0
 46
0.0
 71
     5
 72
     1
  1
\A1;10
  7
ＭＳ ゴシック
 73
     1
 44
1.0
  0
POINT
  5
31FD
330
31F5
100
AcDbEntity
  8
Defpoints
 62
     0
100
AcDbPoint
 10
848.4389341413166
 20
194.9298806783963
 30
0.0
  0
POINT
  5
31FE
330
31F5
100
AcDbEntity
  8
Defpoints
 62
     0
100
AcDbPoint
 10
838.4389341413166
 20
194.9298806783963
 30
0.0
  0
POINT
  5
31FF
330
31F5
100
AcDbEntity
  8
Defpoints
 62
     0
100
AcDbPoint
 10
838.4389341413166
 20
246.5755122777377
 30
0.0
  0
ENDBLK
  5
3200
330
31F5
100
AcDbEntity
  8
0
100
AcDbBlockEnd
  0
BLOCK
  5
3203
330
3202
100
AcDbEntity
  8
0
100
AcDbBlockBegin
  2
*D18
 70
     1
 10
0.0
 20
0.0
 30
0.0
  3
*D18
  1

  0
LINE
  5
3204
330
3202
100
AcDbEntity
  8
MODEL
 62
     0
370
    -2
100
AcDbLine
 10
838.4389341413166
 20
219.9298806783963
 30
0.0
 11
838.4389341413166
 21
246.5755122777377
 31
0.0
  0
LINE
  5
3205
330
3202
100
AcDbEntity
  8
MODEL
 62
     0
370
    -2
100
AcDbLine
 10
606.4389341413166
 20
219.9298806783964
 30
0.0
 11
606.4389341413166
 21
246.5755122777377
 31
0.0
  0
LINE
  5
3206
330
3202
100
AcDbEntity
  8
MODEL
 62
     0
370
    -2
100
AcDbLine
 10
828.4395444928791
 20
246.5755122777377
 30
0.0
 11
616.4383237897541
 21
246.5755122777377
 31
0.0
  0
INSERT
  5
3207
330
3202
100
AcDbEntity
  8
MODEL
 62
     0
370
    -2
100
AcDbBlockReference
  2
_DOT
 10
838.4389341413166
 20
246.5755122777377
 30
0.0
 41
9.999389648437498
 42
9.999389648437498
 43
9.999389648437498
  0
INSERT
  5
3208
330
3202
100
AcDbEntity
  8
MODEL
 62
     0
370
    -2
100
AcDbBlockReference
  2
_DOT
 10
606.4389341413166
 20
246.5755122777377
 30
0.0
 41
9.999389648437498
 42
9.999389648437498
 43
9.999389648437498
 50
180.0
  0
MTEXT
  5
3209
330
3202
100
AcDbEntity
  8
MODEL
 62
     0
100
AcDbMText
 10
722.4389341413166
 20
268.7964037057732
 30
0.0
 40
24.4326171875
 41
0.0
 46
0.0
 71
     5
 72
     1
  1
\A1;232
  7
ＭＳ ゴシック
 73
     1
 44
1.0
  0
POINT
  5
320A
330
3202
100
AcDbEntity
  8
Defpoints
 62
     0
100
AcDbPoint
 10
838.4389341413166
 20
194.9298806783963
 30
0.0
  0
POINT
  5
320B
330
3202
100
AcDbEntity
  8
Defpoints
 62
     0
100
AcDbPoint
 10
606.4389341413166
 20
194.9298806783964
 30
0.0
  0
POINT
  5
320C
330
3202
100
AcDbEntity
  8
Defpoints
 62
     0
100
AcDbPoint
 10
606.4389341413166
 20
246.5755122777377
 30
0.0
  0
ENDBLK
  5
320D
330
3202
100
AcDbEntity
  8
0
100
AcDbBlockEnd
  0
BLOCK
  5
3213
330
3212
100
AcDbEntity
  8
0
100
AcDbBlockBegin
  2
*D19
 70
     1
 10
0.0
 20
0.0
 30
0.0
  3
*D19
  1

  0
LINE
  5
3214
330
3212
100
AcDbEntity
  8
MODEL
 62
     0
370
    -2
100
AcDbLine
 10
838.4389341413216
 20
55.92988067839633
 30
0.0
 11
838.4389341413216
 21
4.99969482421875
 31
0.0
  0
LINE
  5
3215
330
3212
100
AcDbEntity
  8
MODEL
 62
     0
370
    -2
100
AcDbLine
 10
836.4389341413216
 20
57.92988067839633
 30
0.0
 11
836.4389341413216
 21
4.99969482421875
 31
0.0
  0
LINE
  5
3216
330
3212
100
AcDbEntity
  8
MODEL
 62
     0
370
    -2
100
AcDbLine
 10
838.4389341413216
 20
4.99969482421875
 30
0.0
 11
891.0741151747854
 21
4.99969482421875
 31
0.0
  0
LINE
  5
3217
330
3212
100
AcDbEntity
  8
MODEL
 62
     0
370
    -2
100
AcDbLine
 10
838.4389341413216
 20
4.99969482421875
 30
0.0
 11
836.4389341413216
 21
4.99969482421875
 31
0.0
  0
LINE
  5
3218
330
3212
100
AcDbEntity
  8
MODEL
 62
     0
370
    -2
100
AcDbLine
 10
848.4383237897591
 20
4.99969482421875
 30
0.0
 11
858.4377134381966
 21
4.99969482421875
 31
0.0
  0
LINE
  5
3219
330
3212
100
AcDbEntity
  8
MODEL
 62
     0
370
    -2
100
AcDbLine
 10
826.4395444928841
 20
4.99969482421875
 30
0.0
 11
816.4401548444466
 21
4.99969482421875
 31
0.0
  0
INSERT
  5
321A
330
3212
100
AcDbEntity
  8
MODEL
 62
     0
370
    -2
100
AcDbBlockReference
  2
_DOT
 10
838.4389341413216
 20
4.99969482421875
 30
0.0
 41
9.999389648437498
 42
9.999389648437498
 43
9.999389648437498
 50
180.0
  0
INSERT
  5
321B
330
3212
100
AcDbEntity
  8
MODEL
 62
     0
370
    -2
100
AcDbBlockReference
  2
_DOT
 10
836.4389341413216
 20
4.99969482421875
 30
0.0
 41
9.999389648437498
 42
9.999389648437498
 43
9.999389648437498
  0
MTEXT
  5
321C
330
3212
100
AcDbEntity
  8
MODEL
 62
     0
100
AcDbMText
 10
874.755914306491
 20
27.22058625225426
 30
0.0
 40
24.4326171875
 41
0.0
 46
0.0
 71
     5
 72
     1
  1
\A1;2
  7
ＭＳ ゴシック
 73
     1
 44
1.0
  0
POINT
  5
321D
330
3212
100
AcDbEntity
  8
Defpoints
 62
     0
100
AcDbPoint
 10
838.4389341413216
 20
80.92988067839633
 30
0.0
  0
POINT
  5
321E
330
3212
100
AcDbEntity
  8
Defpoints
 62
     0
100
AcDbPoint
 10
836.4389341413216
 20
82.92988067839633
 30
0.0
  0
POINT
  5
321F
330
3212
100
AcDbEntity
  8
Defpoints
 62
     0
100
AcDbPoint
 10
836.4389341413216
 20
4.99969482421875
 30
0.0
  0
ENDBLK
  5
3220
330
3212
100
AcDbEntity
  8
0
100
AcDbBlockEnd
  0
BLOCK
  5
3225
330
3224
100
AcDbEntity
  8
0
100
AcDbBlockBegin
  2
*D20
 70
     1
 10
0.0
 20
0.0
 30
0.0
  3
*D20
  1

  0
LINE
  5
3226
330
3224
100
AcDbEntity
  8
MODEL
 62
     0
370
    -2
100
AcDbLine
 10
596.4389341413166
 20
219.9298806783964
 30
0.0
 11
596.4389341413166
 21
304.2571218851058
 31
0.0
  0
LINE
  5
3227
330
3224
100
AcDbEntity
  8
MODEL
 62
     0
370
    -2
100
AcDbLine
 10
848.4389341413166
 20
219.9298806783963
 30
0.0
 11
848.4389341413166
 21
304.2571218851058
 31
0.0
  0
LINE
  5
3228
330
3224
100
AcDbEntity
  8
MODEL
 62
     0
370
    -2
100
AcDbLine
 10
606.4383237897541
 20
304.2571218851058
 30
0.0
 11
838.4395444928791
 21
304.2571218851058
 31
0.0
  0
INSERT
  5
3229
330
3224
100
AcDbEntity
  8
MODEL
 62
     0
370
    -2
100
AcDbBlockReference
  2
_DOT
 10
596.4389341413166
 20
304.2571218851058
 30
0.0
 41
9.999389648437498
 42
9.999389648437498
 43
9.999389648437498
 50
180.0
  0
INSERT
  5
322A
330
3224
100
AcDbEntity
  8
MODEL
 62
     0
370
    -2
100
AcDbBlockReference
  2
_DOT
 10
848.4389341413166
 20
304.2571218851058
 30
0.0
 41
9.999389648437498
 42
9.999389648437498
 43
9.999389648437498
  0
MTEXT
  5
322B
330
3224
100
AcDbEntity
  8
MODEL
 62
     0
100
AcDbMText
 10
722.4389341413166
 20
326.4780133131413
 30
0.0
 40
24.4326171875
 41
0.0
 46
0.0
 71
     5
 72
     1
  1
\A1;252
  7
ＭＳ ゴシック
 73
     1
 44
1.0
  0
POINT
  5
322C
330
3224
100
AcDbEntity
  8
Defpoints
 62
     0
100
AcDbPoint
 10
596.4389341413166
 20
194.9298806783964
 30
0.0
  0
POINT
  5
322D
330
3224
100
AcDbEntity
  8
Defpoints
 62
     0
100
AcDbPoint
 10
848.4389341413166
 20
194.9298806783963
 30
0.0
  0
POINT
  5
322E
330
3224
100
AcDbEntity
  8
Defpoints
 62
     0
100
AcDbPoint
 10
848.4389341413166
 20
304.2571218851058
 30
0.0
  0
ENDBLK
  5
322F
330
3224
100
AcDbEntity
  8
0
100
AcDbBlockEnd
  0
BLOCK
  5
3234
330
3233
100
AcDbEntity
  8
0
100
AcDbBlockBegin
  2
*D21
 70
     1
 10
0.0
 20
0.0
 30
0.0
  3
*D21
  1

  0
LINE
  5
3235
330
3233
100
AcDbEntity
  8
MODEL
 62
     0
370
    -2
100
AcDbLine
 10
873.4389341413166
 20
80.92988067839633
 30
0.0
 11
913.9885058499835
 21
80.92988067839633
 31
0.0
  0
LINE
  5
3236
330
3233
100
AcDbEntity
  8
MODEL
 62
     0
370
    -2
100
AcDbLine
 10
873.4389341413166
 20
70.92988067839883
 30
0.0
 11
913.9885058499835
 21
70.92988067839883
 31
0.0
  0
LINE
  5
3237
330
3233
100
AcDbEntity
  8
MODEL
 62
     0
370
    -2
100
AcDbLine
 10
913.9885058499835
 20
80.92988067839633
 30
0.0
 11
913.9885058499835
 21
148.3466117969263
 31
0.0
  0
LINE
  5
3238
330
3233
100
AcDbEntity
  8
MODEL
 62
     0
370
    -2
100
AcDbLine
 10
913.9885058499835
 20
70.93049102995883
 30
0.0
 11
913.9885058499835
 21
60.93110138152133
 31
0.0
  0
INSERT
  5
3239
330
3233
100
AcDbEntity
  8
MODEL
 62
     0
370
    -2
100
AcDbBlockReference
  2
_DOT
 10
913.9885058499835
 20
80.92988067839633
 30
0.0
 41
9.999389648437498
 42
9.999389648437498
 43
9.999389648437498
 50
90.0
  0
INSERT
  5
323A
330
3233
100
AcDbEntity
  8
MODEL
 62
     0
370
    -2
100
AcDbBlockReference
  2
_DOT
 10
913.9885058499835
 20
70.92988067839883
 30
0.0
 41
9.999389648437498
 42
9.999389648437498
 43
9.999389648437498
 50
270.0
  0
MTEXT
  5
323B
330
3233
100
AcDbEntity
  8
MODEL
 62
     0
100
AcDbMText
 10
891.767614421948
 20
124.6376358860989
 30
0.0
 40
24.4326171875
 41
0.0
 46
0.0
 71
     5
 72
     1
  1
\A1;10
  7
ＭＳ ゴシック
 11
0.0
 21
1.0
 31
0.0
 73
     1
 44
1.0
  0
POINT
  5
323C
330
3233
100
AcDbEntity
  8
Defpoints
 62
     0
100
AcDbPoint
 10
848.4389341413166
 20
80.92988067839633
 30
0.0
  0
POINT
  5
323D
330
3233
100
AcDbEntity
  8
Defpoints
 62
     0
100
AcDbPoint
 10
848.4389341413166
 20
70.92988067839883
 30
0.0
  0
POINT
  5
323E
330
3233
100
AcDbEntity
  8
Defpoints
 62
     0
100
AcDbPoint
 10
913.9885058499835
 20
70.92988067839883
 30
0.0
  0
ENDBLK
  5
323F
330
3233
100
AcDbEntity
  8
0
100
AcDbBlockEnd
  0
BLOCK
  5
324C
330
324B
100
AcDbEntity
  8
0
100
AcDbBlockBegin
  2
*D22
 70
     1
 10
0.0
 20
0.0
 30
0.0
  3
*D22
  1

  0
LINE
  5
324D
330
324B
100
AcDbEntity
  8
MODEL
 62
     0
370
    -2
100
AcDbLine
 10
873.4389341413162
 20
451.5960059905728
 30
0.0
 11
923.0961142228703
 21
451.5960059905728
 31
0.0
  0
LINE
  5
324E
330
324B
100
AcDbEntity
  8
MODEL
 62
     0
370
    -2
100
AcDbLine
 10
873.4389341413162
 20
651.5960059905728
 30
0.0
 11
923.0961142228703
 21
651.5960059905728
 31
0.0
  0
LINE
  5
324F
330
324B
100
AcDbEntity
  8
MODEL
 62
     0
370
    -2
100
AcDbLine
 10
923.0961142228703
 20
461.5953956390103
 30
0.0
 11
923.0961142228703
 21
641.5966163421353
 31
0.0
  0
INSERT
  5
3250
330
324B
100
AcDbEntity
  8
MODEL
 62
     0
370
    -2
100
AcDbBlockReference
  2
_DOT
 10
923.0961142228703
 20
451.5960059905728
 30
0.0
 41
9.999389648437498
 42
9.999389648437498
 43
9.999389648437498
 50
270.0
  0
INSERT
  5
3251
330
324B
100
AcDbEntity
  8
MODEL
 62
     0
370
    -2
100
AcDbBlockReference
  2
_DOT
 10
923.0961142228703
 20
651.5960059905728
 30
0.0
 41
9.999389648437498
 42
9.999389648437498
 43
9.999389648437498
 50
90.0
  0
MTEXT
  5
3252
330
324B
100
AcDbEntity
  8
MODEL
 62
     0
100
AcDbMText
 10
900.8752227948347
 20
551.5960059905728
 30
0.0
 40
24.4326171875
 41
0.0
 46
0.0
 71
     5
 72
     1
  1
\A1;200
  7
ＭＳ ゴシック
 11
0.0
 21
1.0
 31
0.0
 73
     1
 44
1.0
  0
POINT
  5
3253
330
324B
100
AcDbEntity
  8
Defpoints
 62
     0
100
AcDbPoint
 10
848.4389341413162
 20
451.5960059905728
 30
0.0
  0
POINT
  5
3254
330
324B
100
AcDbEntity
  8
Defpoints
 62
     0
100
AcDbPoint
 10
848.4389341413162
 20
651.5960059905728
 30
0.0
  0
POINT
  5
3255
330
324B
100
AcDbEntity
  8
Defpoints
 62
     0
100
AcDbPoint
 10
923.0961142228703
 20
651.5960059905728
 30
0.0
  0
ENDBLK
  5
3256
330
324B
100
AcDbEntity
  8
0
100
AcDbBlockEnd
  0
BLOCK
  5
325B
330
325A
100
AcDbEntity
  8
0
100
AcDbBlockBegin
  2
*D23
 70
     1
 10
0.0
 20
0.0
 30
0.0
  3
*D23
  1

  0
LINE
  5
325C
330
325A
100
AcDbEntity
  8
MODEL
 62
     0
370
    -2
100
AcDbLine
 10
873.4389341413162
 20
651.5960059905728
 30
0.0
 11
923.0961142228703
 21
651.5960059905728
 31
0.0
  0
LINE
  5
325D
330
325A
100
AcDbEntity
  8
MODEL
 62
     0
370
    -2
100
AcDbLine
 10
873.4389341413162
 20
661.5960059905728
 30
0.0
 11
923.0961142228703
 21
661.5960059905728
 31
0.0
  0
LINE
  5
325E
330
325A
100
AcDbEntity
  8
MODEL
 62
     0
370
    -2
100
AcDbLine
 10
923.0961142228703
 20
661.5960059905728
 30
0.0
 11
923.0961142228703
 21
731.5125845212121
 31
0.0
  0
LINE
  5
325F
330
325A
100
AcDbEntity
  8
MODEL
 62
     0
370
    -2
100
AcDbLine
 10
923.0961142228703
 20
651.5960059905728
 30
0.0
 11
923.0961142228703
 21
661.5960059905728
 31
0.0
  0
LINE
  5
3260
330
325A
100
AcDbEntity
  8
MODEL
 62
     0
370
    -2
100
AcDbLine
 10
923.0961142228703
 20
641.5966163421353
 30
0.0
 11
923.0961142228703
 21
631.5972266936978
 31
0.0
  0
LINE
  5
3261
330
325A
100
AcDbEntity
  8
MODEL
 62
     0
370
    -2
100
AcDbLine
 10
923.0961142228703
 20
671.5953956390103
 30
0.0
 11
923.0961142228703
 21
681.5947852874478
 31
0.0
  0
INSERT
  5
3262
330
325A
100
AcDbEntity
  8
MODEL
 62
     0
370
    -2
100
AcDbBlockReference
  2
_DOT
 10
923.0961142228703
 20
651.5960059905728
 30
0.0
 41
9.999389648437498
 42
9.999389648437498
 43
9.999389648437498
 50
90.0
  0
INSERT
  5
3263
330
325A
100
AcDbEntity
  8
MODEL
 62
     0
370
    -2
100
AcDbBlockReference
  2
_DOT
 10
923.0961142228703
 20
661.5960059905728
 30
0.0
 41
9.999389648437498
 42
9.999389648437498
 43
9.999389648437498
 50
270.0
  0
MTEXT
  5
3264
330
325A
100
AcDbEntity
  8
MODEL
 62
     0
100
AcDbMText
 10
900.8752227948347
 20
707.8036086103848
 30
0.0
 40
24.4326171875
 41
0.0
 46
0.0
 71
     5
 72
     1
  1
\A1;10
  7
ＭＳ ゴシック
 11
0.0
 21
1.0
 31
0.0
 73
     1
 44
1.0
  0
POINT
  5
3265
330
325A
100
AcDbEntity
  8
Defpoints
 62
     0
100
AcDbPoint
 10
848.4389341413162
 20
651.5960059905728
 30
0.0
  0
POINT
  5
3266
330
325A
100
AcDbEntity
  8
Defpoints
 62
     0
100
AcDbPoint
 10
848.4389341413162
 20
661.5960059905728
 30
0.0
  0
POINT
  5
3267
330
325A
100
AcDbEntity
  8
Defpoints
 62
     0
100
AcDbPoint
 10
923.0961142228703
 20
661.5960059905728
 30
0.0
  0
ENDBLK
  5
3268
330
325A
100
AcDbEntity
  8
0
100
AcDbBlockEnd
  0
BLOCK
  5
3276
330
3275
100
AcDbEntity
  8
0
100
AcDbBlockBegin
  2
*D24
 70
     1
 10
0.0
 20
0.0
 30
0.0
  3
*D24
  1

  0
LINE
  5
3277
330
3275
100
AcDbEntity
  8
MODEL
 62
     0
370
    -2
100
AcDbLine
 10
404.4686312443032
 20
676.5960059905726
 30
0.0
 11
404.4686312443032
 21
718.692882178668
 31
0.0
  0
LINE
  5
3278
330
3275
100
AcDbEntity
  8
MODEL
 62
     0
370
    -2
100
AcDbLine
 10
394.4686312443037
 20
686.5960059905726
 30
0.0
 11
394.4686312443037
 21
718.692882178668
 31
0.0
  0
LINE
  5
3279
330
3275
100
AcDbEntity
  8
MODEL
 62
     0
370
    -2
100
AcDbLine
 10
394.4692415958657
 20
718.692882178668
 30
0.0
 11
404.4680208927412
 21
718.692882178668
 31
0.0
  0
INSERT
  5
327A
330
3275
100
AcDbEntity
  8
MODEL
 62
     0
370
    -2
100
AcDbBlockReference
  2
_DOT
 10
404.4686312443032
 20
718.692882178668
 30
0.0
 41
9.999389648437498
 42
9.999389648437498
 43
9.999389648437498
  0
INSERT
  5
327B
330
3275
100
AcDbEntity
  8
MODEL
 62
     0
370
    -2
100
AcDbBlockReference
  2
_DOT
 10
394.4686312443037
 20
718.692882178668
 30
0.0
 41
9.999389648437498
 42
9.999389648437498
 43
9.999389648437498
 50
180.0
  0
MTEXT
  5
327C
330
3275
100
AcDbEntity
  8
MODEL
 62
     0
100
AcDbMText
 10
399.4686312443034
 20
740.9137736067036
 30
0.0
 40
24.4326171875
 41
0.0
 46
0.0
 71
     5
 72
     1
  1
\A1;10
  7
ＭＳ ゴシック
 73
     1
 44
1.0
  0
POINT
  5
327D
330
3275
100
AcDbEntity
  8
Defpoints
 62
     0
100
AcDbPoint
 10
404.4686312443032
 20
651.5960059905726
 30
0.0
  0
POINT
  5
327E
330
3275
100
AcDbEntity
  8
Defpoints
 62
     0
100
AcDbPoint
 10
394.4686312443037
 20
661.5960059905726
 30
0.0
  0
POINT
  5
327F
330
3275
100
AcDbEntity
  8
Defpoints
 62
     0
100
AcDbPoint
 10
394.4686312443037
 20
718.692882178668
 30
0.0
  0
ENDBLK
  5
3280
330
3275
100
AcDbEntity
  8
0
100
AcDbBlockEnd
  0
BLOCK
  5
3287
330
3286
100
AcDbEntity
  8
0
100
AcDbBlockBegin
  2
*D25
 70
     1
 10
0.0
 20
0.0
 30
0.0
  3
*D25
  1

  0
LINE
  5
3288
330
3286
100
AcDbEntity
  8
MODEL
 62
     0
370
    -2
100
AcDbLine
 10
255.4686312443037
 20
676.4206752899072
 30
0.0
 11
255.4686312443037
 21
718.692882178668
 31
0.0
  0
LINE
  5
3289
330
3286
100
AcDbEntity
  8
MODEL
 62
     0
370
    -2
100
AcDbLine
 10
249.4686312443032
 20
676.4206752899072
 30
0.0
 11
249.4686312443032
 21
718.692882178668
 31
0.0
  0
LINE
  5
328A
330
3286
100
AcDbEntity
  8
MODEL
 62
     0
370
    -2
100
AcDbLine
 10
245.4692415958662
 20
718.692882178668
 30
0.0
 11
259.4680208927407
 21
718.692882178668
 31
0.0
  0
INSERT
  5
328B
330
3286
100
AcDbEntity
  8
MODEL
 62
     0
370
    -2
100
AcDbBlockReference
  2
_DOT
 10
255.4686312443037
 20
718.692882178668
 30
0.0
 41
9.999389648437498
 42
9.999389648437498
 43
9.999389648437498
  0
INSERT
  5
328C
330
3286
100
AcDbEntity
  8
MODEL
 62
     0
370
    -2
100
AcDbBlockReference
  2
_DOT
 10
249.4686312443032
 20
718.692882178668
 30
0.0
 41
9.999389648437498
 42
9.999389648437498
 43
9.999389648437498
 50
180.0
  0
MTEXT
  5
328D
330
3286
100
AcDbEntity
  8
MODEL
 62
     0
100
AcDbMText
 10
252.4686312443034
 20
740.909190772418
 30
0.0
 40
24.4326171875
 41
0.0
 46
0.0
 71
     5
 72
     1
  1
\A1;6
  7
ＭＳ ゴシック
 73
     1
 44
1.0
  0
POINT
  5
328E
330
3286
100
AcDbEntity
  8
Defpoints
 62
     0
100
AcDbPoint
 10
255.4686312443037
 20
651.4206752899072
 30
0.0
  0
POINT
  5
328F
330
3286
100
AcDbEntity
  8
Defpoints
 62
     0
100
AcDbPoint
 10
249.4686312443032
 20
651.4206752899072
 30
0.0
  0
POINT
  5
3290
330
3286
100
AcDbEntity
  8
Defpoints
 62
     0
100
AcDbPoint
 10
249.4686312443032
 20
718.692882178668
 30
0.0
  0
ENDBLK
  5
3291
330
3286
100
AcDbEntity
  8
0
100
AcDbBlockEnd
  0
BLOCK
  5
3296
330
3295
100
AcDbEntity
  8
0
100
AcDbBlockBegin
  2
*D26
 70
     1
 10
0.0
 20
0.0
 30
0.0
  3
*D26
  1

  0
LINE
  5
3297
330
3295
100
AcDbEntity
  8
MODEL
 62
     0
370
    -2
100
AcDbLine
 10
255.4686312443041
 20
426.4206752899076
 30
0.0
 11
255.4686312443041
 21
391.1728870272543
 31
0.0
  0
LINE
  5
3298
330
3295
100
AcDbEntity
  8
MODEL
 62
     0
370
    -2
100
AcDbLine
 10
100.4686312443037
 20
426.5960059905726
 30
0.0
 11
100.4686312443037
 21
391.1728870272543
 31
0.0
  0
LINE
  5
3299
330
3295
100
AcDbEntity
  8
MODEL
 62
     0
370
    -2
100
AcDbLine
 10
245.4692415958666
 20
391.1728870272543
 30
0.0
 11
110.4680208927412
 21
391.1728870272543
 31
0.0
  0
INSERT
  5
329A
330
3295
100
AcDbEntity
  8
MODEL
 62
     0
370
    -2
100
AcDbBlockReference
  2
_DOT
 10
255.4686312443041
 20
391.1728870272543
 30
0.0
 41
9.999389648437498
 42
9.999389648437498
 43
9.999389648437498
  0
INSERT
  5
329B
330
3295
100
AcDbEntity
  8
MODEL
 62
     0
370
    -2
100
AcDbBlockReference
  2
_DOT
 10
100.4686312443037
 20
391.1728870272543
 30
0.0
 41
9.999389648437498
 42
9.999389648437498
 43
9.999389648437498
 50
180.0
  0
MTEXT
  5
329C
330
3295
100
AcDbEntity
  8
MODEL
 62
     0
100
AcDbMText
 10
177.9686312443039
 20
413.3937784552898
 30
0.0
 40
24.4326171875
 41
0.0
 46
0.0
 71
     5
 72
     1
  1
\A1;155
  7
ＭＳ ゴシック
 73
     1
 44
1.0
  0
POINT
  5
329D
330
3295
100
AcDbEntity
  8
Defpoints
 62
     0
100
AcDbPoint
 10
255.4686312443041
 20
451.4206752899076
 30
0.0
  0
POINT
  5
329E
330
3295
100
AcDbEntity
  8
Defpoints
 62
     0
100
AcDbPoint
 10
100.4686312443037
 20
451.5960059905726
 30
0.0
  0
POINT
  5
329F
330
3295
100
AcDbEntity
  8
Defpoints
 62
     0
100
AcDbPoint
 10
100.4686312443037
 20
391.1728870272543
 30
0.0
  0
ENDBLK
  5
32A0
330
3295
100
AcDbEntity
  8
0
100
AcDbBlockEnd
  0
BLOCK
  5
357A
330
3579
100
AcDbEntity
  8
0
100
AcDbBlockBegin
  2
.TD_DIMENSION_1
 70
     0
 10
-867.2890625
 20
233.6000518798828
 30
0.0
  3
.TD_DIMENSION_1
  1

  0
LINE
  5
357B
330
3579
100
AcDbEntity
  8
0
  6
Continuous
 62
     1
420
 16711680
100
AcDbLine
 10
-856.0390625
 20
250.9905090332031
 30
0.0
 11
-788.5390625
 21
250.9905090332031
 31
0.0
  0
LINE
  5
357C
330
3579
100
AcDbEntity
  8
0
  6
Continuous
 62
     1
420
 16711680
100
AcDbLine
 10
-859.7890625
 20
252.7905120849609
 30
0.0
 11
-859.7890625
 21
233.6000518798828
 31
0.0
  0
LINE
  5
357D
330
3579
100
AcDbEntity
  8
0
  6
Continuous
 62
     1
420
 16711680
100
AcDbLine
 10
-784.7890625
 20
252.7905120849609
 30
0.0
 11
-784.7890625
 21
233.6000518798828
 31
0.0
  0
MTEXT
  5
357E
330
3579
100
AcDbEntity
  8
0
  6
Continuous
 62
     2
420
 16776960
100
AcDbMText
 10
-825.7240600585938
 20
255.4905090332031
 30
0.0
 40
3.0
 41
0.0
 46
0.0
 71
     1
 72
     1
  1
{\W1.03;{\fArial|b0|i0;300}}
  7
FANTINI
 73
     1
 44
1.0
  0
LWPOLYLINE
  5
357F
330
3579
100
AcDbEntity
  8
0
  6
Continuous
 62
     2
420
 16776960
100
AcDbPolyline
 90
        2
 70
     0
 10
-859.7890625
 20
250.9905090332031
 40
0.0
 41
1.455
 10
-856.0390625
 20
250.9905090332031
 40
0.0
 41
0.0
  0
LWPOLYLINE
  5
3580
330
3579
100
AcDbEntity
  8
0
  6
Continuous
 62
     2
420
 16776960
100
AcDbPolyline
 90
        2
 70
     0
 10
-784.7890625
 20
250.9905090332031
 40
0.0
 41
1.455
 10
-788.5390625
 20
250.9905090332031
 40
0.0
 41
0.0
  0
ENDBLK
  5
3581
330
3579
100
AcDbEntity
  8
0
100
AcDbBlockEnd
  0
BLOCK
  5
3584
330
3583
100
AcDbEntity
  8
0
100
AcDbBlockBegin
  2
.TD_DIMENSION_2
 70
     0
 10
-737.016357421875
 20
233.6000518798828
 30
0.0
  3
.TD_DIMENSION_2
  1

  0
LINE
  5
3585
330
3583
100
AcDbEntity
  8
0
  6
Continuous
 62
     1
420
 16711680
100
AcDbLine
 10
-735.141357421875
 20
250.9905090332031
 30
0.0
 11
-729.516357421875
 21
250.9905090332031
 31
0.0
  0
LINE
  5
3586
330
3583
100
AcDbEntity
  8
0
  6
Continuous
 62
     1
420
 16711680
100
AcDbLine
 10
-725.766357421875
 20
250.9905090332031
 30
0.0
 11
-713.266357421875
 21
250.9905090332031
 31
0.0
  0
LINE
  5
3587
330
3583
100
AcDbEntity
  8
0
  6
Continuous
 62
     1
420
 16711680
100
AcDbLine
 10
-709.516357421875
 20
250.9905090332031
 30
0.0
 11
-702.4513549804688
 21
250.9905090332031
 31
0.0
  0
LINE
  5
3588
330
3583
100
AcDbEntity
  8
0
  6
Continuous
 62
     1
420
 16711680
100
AcDbLine
 10
-725.766357421875
 20
252.7905120849609
 30
0.0
 11
-725.766357421875
 21
233.6000518798828
 31
0.0
  0
LINE
  5
3589
330
3583
100
AcDbEntity
  8
0
  6
Continuous
 62
     1
420
 16711680
100
AcDbLine
 10
-713.266357421875
 20
252.7905120849609
 30
0.0
 11
-713.266357421875
 21
233.6000518798828
 31
0.0
  0
MTEXT
  5
358A
330
3583
100
AcDbEntity
  8
0
  6
Continuous
 62
     2
420
 16776960
100
AcDbMText
 10
-707.3413696289062
 20
255.4905090332031
 30
0.0
 40
3.0
 41
0.0
 46
0.0
 71
     1
 72
     1
  1
{\fArial|b0|i0|c0|p0;50}
  7
FANTINI
 73
     1
 44
1.0
  0
LWPOLYLINE
  5
358B
330
3583
100
AcDbEntity
  8
0
  6
Continuous
 62
     2
420
 16776960
100
AcDbPolyline
 90
        2
 70
     0
 10
-725.766357421875
 20
250.9905090332031
 40
0.0
 41
1.455
 10
-729.516357421875
 20
250.9905091971208
 40
0.0
 41
0.0
  0
LWPOLYLINE
  5
358C
330
3583
100
AcDbEntity
  8
0
  6
Continuous
 62
     2
420
 16776960
100
AcDbPolyline
 90
        2
 70
     0
 10
-713.266357421875
 20
250.9905090332031
 40
0.0
 41
1.455
 10
-709.516357421875
 20
250.9905088692854
 40
0.0
 41
0.0
  0
ENDBLK
  5
358D
330
3583
100
AcDbEntity
  8
0
100
AcDbBlockEnd
  0
BLOCK
  5
3590
330
358F
100
AcDbEntity
  8
0
100
AcDbBlockBegin
  2
.TD_DIMENSION_3
 70
     0
 10
-756.99267578125
 20
43.27505493164062
 30
0.0
  3
.TD_DIMENSION_3
  1

  0
LINE
  5
3591
330
358F
100
AcDbEntity
  8
0
  6
Continuous
 62
     1
420
 16711680
100
AcDbLine
 10
-745.74267578125
 20
54.52505493164062
 30
0.0
 11
-745.74267578125
 21
229.7750549316406
 31
0.0
  0
LINE
  5
3592
330
358F
100
AcDbEntity
  8
0
  6
Continuous
 62
     1
420
 16711680
100
AcDbLine
 10
-747.5426635742188
 20
50.77505493164062
 30
0.0
 11
-731.6663818359375
 21
50.77505493164062
 31
0.0
  0
LINE
  5
3593
330
358F
100
AcDbEntity
  8
0
  6
Continuous
 62
     1
420
 16711680
100
AcDbLine
 10
-747.5426635742188
 20
233.5250549316406
 30
0.0
 11
-726.6663818359375
 21
233.5250549316406
 31
0.0
  0
MTEXT
  5
3594
330
358F
100
AcDbEntity
  8
0
  6
Continuous
 62
     1
420
 16711680
100
AcDbMText
 10
-750.24267578125
 20
138.7150577725327
 30
0.0
 40
3.0
 41
0.0
 46
0.0
 71
     1
 72
     1
  1
{\W1.14;{\fArial|b0|i0;731}}
  7
FANTINI
 11
1.331619510826530E-7
 21
0.9999999999999911
 31
0.0
 73
     1
 44
1.0
  0
LWPOLYLINE
  5
3595
330
358F
100
AcDbEntity
  8
0
  6
Continuous
 62
     2
420
 16776960
100
AcDbPolyline
 90
        2
 70
     0
 10
-745.74267578125
 20
50.77505493164062
 40
0.0
 41
1.455
 10
-745.7426756173323
 20
54.52505493164062
 40
0.0
 41
0.0
  0
LWPOLYLINE
  5
3596
330
358F
100
AcDbEntity
  8
0
  6
Continuous
 62
     2
420
 16776960
100
AcDbPolyline
 90
        2
 70
     0
 10
-745.74267578125
 20
233.5250549316406
 40
0.0
 41
1.455
 10
-745.7426759451677
 20
229.7750549316406
 40
0.0
 41
0.0
  0
ENDBLK
  5
3597
330
358F
100
AcDbEntity
  8
0
100
AcDbBlockEnd
  0
BLOCK
  5
359A
330
3599
100
AcDbEntity
  8
0
100
AcDbBlockBegin
  2
.TD_DIMENSION_4
 70
     0
 10
-702.3663940429688
 20
39.52504730224609
 30
0.0
  3
.TD_DIMENSION_4
  1

  0
LINE
  5
359B
330
3599
100
AcDbEntity
  8
0
  6
Continuous
 62
     1
420
 16711680
100
AcDbLine
 10
-690.603759765625
 20
41.40004730224609
 30
0.0
 11
-690.603759765625
 21
47.02504730224609
 31
0.0
  0
LINE
  5
359C
330
3599
100
AcDbEntity
  8
0
  6
Continuous
 62
     1
420
 16711680
100
AcDbLine
 10
-690.603759765625
 20
50.77504730224609
 30
0.0
 11
-690.603759765625
 21
54.27504730224609
 31
0.0
  0
LINE
  5
359D
330
3599
100
AcDbEntity
  8
0
  6
Continuous
 62
     1
420
 16711680
100
AcDbLine
 10
-690.603759765625
 20
58.02504730224609
 30
0.0
 11
-690.603759765625
 21
65.09004974365234
 31
0.0
  0
LINE
  5
359E
330
3599
100
AcDbEntity
  8
0
  6
Continuous
 62
     1
420
 16711680
100
AcDbLine
 10
-688.8037719726562
 20
50.77504730224609
 30
0.0
 11
-702.3663940429688
 21
50.77504730224609
 31
0.0
  0
LINE
  5
359F
330
3599
100
AcDbEntity
  8
0
  6
Continuous
 62
     1
420
 16711680
100
AcDbLine
 10
-688.8037719726562
 20
54.27504730224609
 30
0.0
 11
-702.3663940429688
 21
54.27504730224609
 31
0.0
  0
MTEXT
  5
35A0
330
3599
100
AcDbEntity
  8
0
  6
Continuous
 62
     2
420
 16776960
100
AcDbMText
 10
-695.103759765625
 20
60.20004653931833
 30
0.0
 40
3.0
 41
0.0
 46
0.0
 71
     1
 72
     1
  1
{\fArial|b0|i0|c0|p0;14}
  7
FANTINI
 11
3.896499959564406E-12
 21
1.0
 31
0.0
 73
     1
 44
1.0
  0
LWPOLYLINE
  5
35A1
330
3599
100
AcDbEntity
  8
0
  6
Continuous
 62
     2
420
 16776960
100
AcDbPolyline
 90
        2
 70
     0
 10
-690.603759765625
 20
50.77504730224609
 40
0.0
 41
1.455
 10
-690.6037599295427
 20
47.02504730224609
 40
0.0
 41
0.0
  0
LWPOLYLINE
  5
35A2
330
3599
100
AcDbEntity
  8
0
  6
Continuous
 62
     2
420
 16776960
100
AcDbPolyline
 90
        2
 70
     0
 10
-690.603759765625
 20
54.27504730224609
 40
0.0
 41
1.455
 10
-690.6037596017073
 20
58.02504730224609
 40
0.0
 41
0.0
  0
ENDBLK
  5
35A3
330
3599
100
AcDbEntity
  8
0
100
AcDbBlockEnd
  0
BLOCK
  5
35A6
330
35A5
100
AcDbEntity
  8
0
100
AcDbBlockBegin
  2
.TD_DIMENSION_5
 70
     0
 10
-812.4134521484375
 20
23.25246238708496
 30
0.0
  3
.TD_DIMENSION_5
  1

  0
LINE
  5
35A7
330
35A5
100
AcDbEntity
  8
0
  6
Continuous
 62
     1
420
 16711680
100
AcDbLine
 10
-810.5384521484375
 20
30.75246238708496
 30
0.0
 11
-804.9134521484375
 21
30.75246238708496
 31
0.0
  0
LINE
  5
35A8
330
35A5
100
AcDbEntity
  8
0
  6
Continuous
 62
     1
420
 16711680
100
AcDbLine
 10
-801.1634521484375
 20
30.75246238708496
 30
0.0
 11
-795.9146728515625
 21
30.75246238708496
 31
0.0
  0
LINE
  5
35A9
330
35A5
100
AcDbEntity
  8
0
  6
Continuous
 62
     1
420
 16711680
100
AcDbLine
 10
-792.1646728515625
 20
30.75246238708496
 30
0.0
 11
-779.2796630859375
 21
30.75246238708496
 31
0.0
  0
LINE
  5
35AA
330
35A5
100
AcDbEntity
  8
0
  6
Continuous
 62
     1
420
 16711680
100
AcDbLine
 10
-801.1634521484375
 20
28.95246315002441
 30
0.0
 11
-801.1634521484375
 21
46.37505340576172
 31
0.0
  0
LINE
  5
35AB
330
35A5
100
AcDbEntity
  8
0
  6
Continuous
 62
     1
420
 16711680
100
AcDbLine
 10
-795.9146728515625
 20
28.95246315002441
 30
0.0
 11
-795.9146728515625
 21
46.37505340576172
 31
0.0
  0
MTEXT
  5
35AC
330
35A5
100
AcDbEntity
  8
0
  6
Continuous
 62
     1
420
 16711680
100
AcDbMText
 10
-789.9896850585938
 20
35.25246429443359
 30
0.0
 40
3.0
 41
0.0
 46
0.0
 71
     1
 72
     1
  1
{\fArial|b0|i0|c0|p0;G1/2"}
  7
FANTINI
 73
     1
 44
1.0
  0
LWPOLYLINE
  5
35AD
330
35A5
100
AcDbEntity
  8
0
  6
Continuous
 62
     2
420
 16776960
100
AcDbPolyline
 90
        2
 70
     0
 10
-801.1634521484375
 20
30.75246238708496
 40
0.0
 41
1.455
 10
-804.9134521484375
 20
30.75246238641353
 40
0.0
 41
0.0
  0
LWPOLYLINE
  5
35AE
330
35A5
100
AcDbEntity
  8
0
  6
Continuous
 62
     2
420
 16776960
100
AcDbPolyline
 90
        2
 70
     0
 10
-795.9146728515625
 20
30.75246238708496
 40
0.0
 41
1.455
 10
-792.1646728515625
 20
30.75246238775639
 40
0.0
 41
0.0
  0
ENDBLK
  5
35AF
330
35A5
100
AcDbEntity
  8
0
100
AcDbBlockEnd
  0
BLOCK
  5
35B2
330
35B1
100
AcDbEntity
  8
0
100
AcDbBlockBegin
  2
.TD_DIMENSION_6
 70
     0
 10
-791.2750854492188
 20
29.20005416870117
 30
0.0
  3
.TD_DIMENSION_6
  1

  0
LINE
  5
35B3
330
35B1
100
AcDbEntity
  8
0
  6
Continuous
 62
     1
420
 16711680
100
AcDbLine
 10
-769.2723388671875
 20
29.63505554199219
 30
0.0
 11
-769.2723388671875
 21
36.70005416870117
 31
0.0
  0
LINE
  5
35B4
330
35B1
100
AcDbEntity
  8
0
  6
Continuous
 62
     1
420
 16711680
100
AcDbLine
 10
-769.2723388671875
 20
40.45005416870117
 30
0.0
 11
-769.2723388671875
 21
50.77505493164062
 31
0.0
  0
LINE
  5
35B5
330
35B1
100
AcDbEntity
  8
0
  6
Continuous
 62
     1
420
 16711680
100
AcDbLine
 10
-769.2723388671875
 20
54.52505493164062
 30
0.0
 11
-769.2723388671875
 21
60.15005493164062
 31
0.0
  0
LINE
  5
35B6
330
35B1
100
AcDbEntity
  8
0
  6
Continuous
 62
     1
420
 16711680
100
AcDbLine
 10
-767.4723510742188
 20
40.45005416870117
 30
0.0
 11
-791.2750854492188
 21
40.45005416870117
 31
0.0
  0
LINE
  5
35B7
330
35B1
100
AcDbEntity
  8
0
  6
Continuous
 62
     1
420
 16711680
100
AcDbLine
 10
-767.4723510742188
 20
50.77505493164062
 30
0.0
 11
-783.8890380859375
 21
50.77505493164062
 31
0.0
  0
MTEXT
  5
35B8
330
35B1
100
AcDbEntity
  8
0
  6
Continuous
 62
     1
420
 16711680
100
AcDbMText
 10
-773.7723388671875
 20
29.93505477906442
 30
0.0
 40
3.0
 41
0.0
 46
0.0
 71
     1
 72
     1
  1
{\fArial|b0|i0|c0|p0;42}
  7
FANTINI
 11
3.896499959564406E-12
 21
1.0
 31
0.0
 73
     1
 44
1.0
  0
LWPOLYLINE
  5
35B9
330
35B1
100
AcDbEntity
  8
0
  6
Continuous
 62
     2
420
 16776960
100
AcDbPolyline
 90
        2
 70
     0
 10
-769.2723388671875
 20
40.45005416870117
 40
0.0
 41
1.455
 10
-769.2723388671875
 20
36.70005416870117
 40
0.0
 41
0.0
  0
LWPOLYLINE
  5
35BA
330
35B1
100
AcDbEntity
  8
0
  6
Continuous
 62
     2
420
 16776960
100
AcDbPolyline
 90
        2
 70
     0
 10
-769.2723388671875
 20
50.77505493164062
 40
0.0
 41
1.455
 10
-769.2723388671875
 20
54.52505493164062
 40
0.0
 41
0.0
  0
ENDBLK
  5
35BB
330
35B1
100
AcDbEntity
  8
0
100
AcDbBlockEnd
  0
BLOCK
  5
35BE
330
35BD
100
AcDbEntity
  8
0
100
AcDbBlockBegin
  2
.TD_DIMENSION_7
 70
     0
 10
-823.5390625
 20
54.35005569458008
 30
0.0
  3
.TD_DIMENSION_7
  1

  0
LINE
  5
35BF
330
35BD
100
AcDbEntity
  8
0
  6
Continuous
 62
     1
420
 16711680
100
AcDbLine
 10
-821.6640625
 20
65.26919555664062
 30
0.0
 11
-816.0390625
 21
65.26919555664062
 31
0.0
  0
LINE
  5
35C0
330
35BD
100
AcDbEntity
  8
0
  6
Continuous
 62
     1
420
 16711680
100
AcDbLine
 10
-812.2890625
 20
65.26919555664062
 30
0.0
 11
-784.7890625
 21
65.26919555664062
 31
0.0
  0
LINE
  5
35C1
330
35BD
100
AcDbEntity
  8
0
  6
Continuous
 62
     1
420
 16711680
100
AcDbLine
 10
-781.0390625
 20
65.26919555664062
 30
0.0
 11
-771.694091796875
 21
65.26919555664062
 31
0.0
  0
LINE
  5
35C2
330
35BD
100
AcDbEntity
  8
0
  6
Continuous
 62
     1
420
 16711680
100
AcDbLine
 10
-812.2890625
 20
67.06919860839844
 30
0.0
 11
-812.2890625
 21
54.35005569458008
 31
0.0
  0
LINE
  5
35C3
330
35BD
100
AcDbEntity
  8
0
  6
Continuous
 62
     1
420
 16711680
100
AcDbLine
 10
-784.7890625
 20
67.06919860839844
 30
0.0
 11
-784.7890625
 21
54.35005569458008
 31
0.0
  0
MTEXT
  5
35C4
330
35BD
100
AcDbEntity
  8
0
  6
Continuous
 62
     2
420
 16776960
100
AcDbMText
 10
-778.8640747070312
 20
69.76919555664062
 30
0.0
 40
3.0
 41
0.0
 46
0.0
 71
     1
 72
     1
  1
{\W1.08;{\fArial|b0|i0;110}}
  7
FANTINI
 73
     1
 44
1.0
  0
LWPOLYLINE
  5
35C5
330
35BD
100
AcDbEntity
  8
0
  6
Continuous
 62
     2
420
 16776960
100
AcDbPolyline
 90
        2
 70
     0
 10
-812.2890625
 20
65.26919555664062
 40
0.0
 41
1.455
 10
-816.0390625
 20
65.26919555664062
 40
0.0
 41
0.0
  0
LWPOLYLINE
  5
35C6
330
35BD
100
AcDbEntity
  8
0
  6
Continuous
 62
     2
420
 16776960
100
AcDbPolyline
 90
        2
 70
     0
 10
-784.7890625
 20
65.26919555664062
 40
0.0
 41
1.455
 10
-781.0390625
 20
65.26919555664062
 40
0.0
 41
0.0
  0
ENDBLK
  5
35C7
330
35BD
100
AcDbEntity
  8
0
100
AcDbBlockEnd
  0
BLOCK
  5
35CA
330
35C9
100
AcDbEntity
  8
0
100
AcDbBlockBegin
  2
.TD_DIMENSION_8
 70
     0
 10
-867.2890625
 20
231.175048828125
 30
0.0
  3
.TD_DIMENSION_8
  1

  0
LINE
  5
35CB
330
35C9
100
AcDbEntity
  8
0
  6
Continuous
 62
     1
420
 16711680
100
AcDbLine
 10
-856.0390625
 20
242.0766296386719
 30
0.0
 11
-802.2890625
 21
242.0766296386719
 31
0.0
  0
LINE
  5
35CC
330
35C9
100
AcDbEntity
  8
0
  6
Continuous
 62
     1
420
 16711680
100
AcDbLine
 10
-859.7890625
 20
243.8766326904297
 30
0.0
 11
-859.7890625
 21
233.6000518798828
 31
0.0
  0
LINE
  5
35CD
330
35C9
100
AcDbEntity
  8
0
  6
Continuous
 62
     1
420
 16711680
100
AcDbLine
 10
-798.5390625
 20
243.8766326904297
 30
0.0
 11
-798.5390625
 21
231.175048828125
 31
0.0
  0
MTEXT
  5
35CE
330
35C9
100
AcDbEntity
  8
0
  6
Continuous
 62
     2
420
 16776960
100
AcDbMText
 10
-832.5990600585938
 20
246.5766296386719
 30
0.0
 40
3.0
 41
0.0
 46
0.0
 71
     1
 72
     1
  1
{\fArial|b0|i0|c0|p0;245}
  7
FANTINI
 73
     1
 44
1.0
  0
LWPOLYLINE
  5
35CF
330
35C9
100
AcDbEntity
  8
0
  6
Continuous
 62
     2
420
 16776960
100
AcDbPolyline
 90
        2
 70
     0
 10
-859.7890625
 20
242.0766296386719
 40
0.0
 41
1.455
 10
-856.0390625
 20
242.0766296386719
 40
0.0
 41
0.0
  0
LWPOLYLINE
  5
35D0
330
35C9
100
AcDbEntity
  8
0
  6
Continuous
 62
     2
420
 16776960
100
AcDbPolyline
 90
        2
 70
     0
 10
-798.5390625
 20
242.0766296386719
 40
0.0
 41
1.455
 10
-802.2890625
 20
242.0766296386719
 40
0.0
 41
0.0
  0
ENDBLK
  5
35D1
330
35C9
100
AcDbEntity
  8
0
100
AcDbBlockEnd
  0
BLOCK
  5
35D4
330
35D3
100
AcDbEntity
  8
0
100
AcDbBlockBegin
  2
.TD_DIMENSION_9
 70
     0
 10
-722.8961791992188
 20
23.2524585723877
 30
0.0
  3
.TD_DIMENSION_9
  1

  0
LINE
  5
35D5
330
35D3
100
AcDbEntity
  8
0
  6
Continuous
 62
     1
420
 16711680
100
AcDbLine
 10
-721.0211791992188
 20
30.7524585723877
 30
0.0
 11
-715.3961791992188
 21
30.7524585723877
 31
0.0
  0
LINE
  5
35D6
330
35D3
100
AcDbEntity
  8
0
  6
Continuous
 62
     1
420
 16711680
100
AcDbLine
 10
-711.6461791992188
 20
30.7524585723877
 30
0.0
 11
-709.65869140625
 21
30.7524585723877
 31
0.0
  0
LINE
  5
35D7
330
35D3
100
AcDbEntity
  8
0
  6
Continuous
 62
     1
420
 16711680
100
AcDbLine
 10
-705.90869140625
 20
30.7524585723877
 30
0.0
 11
-698.1237182617188
 21
30.7524585723877
 31
0.0
  0
LINE
  5
35D8
330
35D3
100
AcDbEntity
  8
0
  6
Continuous
 62
     1
420
 16711680
100
AcDbLine
 10
-711.6461791992188
 20
28.95245933532715
 30
0.0
 11
-711.6461791992188
 21
41.85879135131836
 31
0.0
  0
LINE
  5
35D9
330
35D3
100
AcDbEntity
  8
0
  6
Continuous
 62
     1
420
 16711680
100
AcDbLine
 10
-709.65869140625
 20
28.95245933532715
 30
0.0
 11
-709.65869140625
 21
41.85879135131836
 31
0.0
  0
LWPOLYLINE
  5
35DA
330
35D3
100
AcDbEntity
  8
0
  6
Continuous
 62
     2
420
 16776960
100
AcDbPolyline
 90
        2
 70
     0
 43
0.0
 10
-703.4337158203125
 20
32.25246047973633
 10
-701.03369140625
 20
35.25246047973633
  0
LWPOLYLINE
  5
35DB
330
35D3
100
AcDbEntity
  8
0
  6
Continuous
 62
     2
420
 16776960
100
AcDbPolyline
 90
       17
 70
     0
 43
0.0
 10
-703.4337158203125
 20
33.75246047973633
 10
-703.3436889648438
 20
33.29346084594727
 10
-703.0827026367188
 20
32.90346145629883
 10
-702.6926879882812
 20
32.64245986938477
 10
-702.2337036132812
 20
32.55245971679688
 10
-701.7747192382812
 20
32.64245986938477
 10
-701.3847045898438
 20
32.90346145629883
 10
-701.126708984375
 20
33.29346084594727
 10
-701.03369140625
 20
33.75246047973633
 10
-701.126708984375
 20
34.21146011352539
 10
-701.3847045898438
 20
34.60145950317383
 10
-701.7747192382812
 20
34.85945892333984
 10
-702.2337036132812
 20
34.95246124267578
 10
-702.6926879882812
 20
34.85945892333984
 10
-703.0827026367188
 20
34.60145950317383
 10
-703.3436889648438
 20
34.21146011352539
 10
-703.4337158203125
 20
33.75246047973633
  0
MTEXT
  5
35DC
330
35D3
100
AcDbEntity
  8
0
  6
Continuous
 62
     2
420
 16776960
100
AcDbMText
 10
-700.7337036132812
 20
35.25246047973633
 30
0.0
 40
3.0
 41
0.0
 46
0.0
 71
     1
 72
     1
  1
{\fArial|b0|i0|c0|p0;8}
  7
FANTINI
 73
     1
 44
1.0
  0
LWPOLYLINE
  5
35DD
330
35D3
100
AcDbEntity
  8
0
  6
Continuous
 62
     2
420
 16776960
100
AcDbPolyline
 90
        2
 70
     0
 10
-711.6461791992188
 20
30.7524585723877
 40
0.0
 41
1.455
 10
-715.3961791992188
 20
30.75245873630543
 40
0.0
 41
0.0
  0
LWPOLYLINE
  5
35DE
330
35D3
100
AcDbEntity
  8
0
  6
Continuous
 62
     2
420
 16776960
100
AcDbPolyline
 90
        2
 70
     0
 10
-709.65869140625
 20
30.7524585723877
 40
0.0
 41
1.455
 10
-705.90869140625
 20
30.75245840846996
 40
0.0
 41
0.0
  0
ENDBLK
  5
35DF
330
35D3
100
AcDbEntity
  8
0
100
AcDbBlockEnd
  0
BLOCK
  5
35E2
330
35E1
100
AcDbEntity
  8
0
100
AcDbBlockBegin
  2
.TD_DIMENSION_10
 70
     0
 10
-817.2890625
 20
72.62480926513672
 30
0.0
  3
.TD_DIMENSION_10
  1

  0
LINE
  5
35E3
330
35E1
100
AcDbEntity
  8
0
  6
Continuous
 62
     1
420
 16711680
100
AcDbLine
 10
-815.4140625
 20
80.12480926513672
 30
0.0
 11
-809.7890625
 21
80.12480926513672
 31
0.0
  0
LINE
  5
35E4
330
35E1
100
AcDbEntity
  8
0
  6
Continuous
 62
     1
420
 16711680
100
AcDbLine
 10
-806.0390625
 20
80.12480926513672
 30
0.0
 11
-791.0390625
 21
80.12480926513672
 31
0.0
  0
LINE
  5
35E5
330
35E1
100
AcDbEntity
  8
0
  6
Continuous
 62
     1
420
 16711680
100
AcDbLine
 10
-787.2890625
 20
80.12480926513672
 30
0.0
 11
-780.2240600585938
 21
80.12480926513672
 31
0.0
  0
MTEXT
  5
35E6
330
35E1
100
AcDbEntity
  8
0
  6
Continuous
 62
     2
420
 16776960
100
AcDbMText
 10
-785.1140747070312
 20
84.62480926513672
 30
0.0
 40
3.0
 41
0.0
 46
0.0
 71
     1
 72
     1
  1
{\fArial|b0|i0|c0|p0;60}
  7
FANTINI
 73
     1
 44
1.0
  0
LWPOLYLINE
  5
35E7
330
35E1
100
AcDbEntity
  8
0
  6
Continuous
 62
     2
420
 16776960
100
AcDbPolyline
 90
        2
 70
     0
 10
-806.0390625
 20
80.12480926513672
 40
0.0
 41
1.455
 10
-809.7890625
 20
80.12480926513672
 40
0.0
 41
0.0
  0
LWPOLYLINE
  5
35E8
330
35E1
100
AcDbEntity
  8
0
  6
Continuous
 62
     2
420
 16776960
100
AcDbPolyline
 90
        2
 70
     0
 10
-791.0390625
 20
80.12480926513672
 40
0.0
 41
1.455
 10
-787.2890625
 20
80.12480926513672
 40
0.0
 41
0.0
  0
ENDBLK
  5
35E9
330
35E1
100
AcDbEntity
  8
0
100
AcDbBlockEnd
  0
BLOCK
  5
35EC
330
35EB
100
AcDbEntity
  8
0
100
AcDbBlockBegin
  2
.TD_DIMENSION_11
 70
     0
 10
-730.7664184570312
 20
72.62480163574219
 30
0.0
  3
.TD_DIMENSION_11
  1

  0
LINE
  5
35ED
330
35EB
100
AcDbEntity
  8
0
  6
Continuous
 62
     1
420
 16711680
100
AcDbLine
 10
-728.8914184570312
 20
80.12480163574219
 30
0.0
 11
-723.2664184570312
 21
80.12480163574219
 31
0.0
  0
LINE
  5
35EE
330
35EB
100
AcDbEntity
  8
0
  6
Continuous
 62
     1
420
 16711680
100
AcDbLine
 10
-719.5164184570312
 20
80.12480163574219
 30
0.0
 11
-714.5164184570312
 21
80.12480163574219
 31
0.0
  0
LINE
  5
35EF
330
35EB
100
AcDbEntity
  8
0
  6
Continuous
 62
     1
420
 16711680
100
AcDbLine
 10
-710.7664184570312
 20
80.12480163574219
 30
0.0
 11
-703.701416015625
 21
80.12480163574219
 31
0.0
  0
MTEXT
  5
35F0
330
35EB
100
AcDbEntity
  8
0
  6
Continuous
 62
     2
420
 16776960
100
AcDbMText
 10
-708.5914306640625
 20
84.62480163574219
 30
0.0
 40
3.0
 41
0.0
 46
0.0
 71
     1
 72
     1
  1
{\fArial|b0|i0|c0|p0;20}
  7
FANTINI
 73
     1
 44
1.0
  0
LWPOLYLINE
  5
35F1
330
35EB
100
AcDbEntity
  8
0
  6
Continuous
 62
     2
420
 16776960
100
AcDbPolyline
 90
        2
 70
     0
 10
-719.5164184570312
 20
80.12480163574219
 40
0.0
 41
1.455
 10
-723.2664184570312
 20
80.12480179965989
 40
0.0
 41
0.0
  0
LWPOLYLINE
  5
35F2
330
35EB
100
AcDbEntity
  8
0
  6
Continuous
 62
     2
420
 16776960
100
AcDbPolyline
 90
        2
 70
     0
 10
-714.5164184570312
 20
80.12480163574219
 40
0.0
 41
1.455
 10
-710.7664184570312
 20
80.12480147182448
 40
0.0
 41
0.0
  0
ENDBLK
  5
35F3
330
35EB
100
AcDbEntity
  8
0
100
AcDbBlockEnd
  0
BLOCK
  5
35F8
330
35F7
100
AcDbEntity
  8
0
100
AcDbBlockBegin
  2
.TD_DIMENSION_12
 70
     0
 10
-748.387451171875
 20
219.0250549316406
 30
0.0
  3
.TD_DIMENSION_12
  1

  0
LINE
  5
35F9
330
35F7
100
AcDbEntity
  8
0
  6
Continuous
 62
     1
420
 16711680
100
AcDbLine
 10
-737.137451171875
 20
219.4600524902344
 30
0.0
 11
-737.137451171875
 21
226.5250549316406
 31
0.0
  0
LINE
  5
35FA
330
35F7
100
AcDbEntity
  8
0
  6
Continuous
 62
     1
420
 16711680
100
AcDbLine
 10
-737.137451171875
 20
230.2750549316406
 30
0.0
 11
-737.137451171875
 21
233.5250549316406
 31
0.0
  0
LINE
  5
35FB
330
35F7
100
AcDbEntity
  8
0
  6
Continuous
 62
     1
420
 16711680
100
AcDbLine
 10
-737.137451171875
 20
237.2750549316406
 30
0.0
 11
-737.137451171875
 21
242.9000549316406
 31
0.0
  0
LINE
  5
35FC
330
35F7
100
AcDbEntity
  8
0
  6
Continuous
 62
     1
420
 16711680
100
AcDbLine
 10
-738.9374389648438
 20
230.2750549316406
 30
0.0
 11
-725.8413696289062
 21
230.2750549316406
 31
0.0
  0
LINE
  5
35FD
330
35F7
100
AcDbEntity
  8
0
  6
Continuous
 62
     1
420
 16711680
100
AcDbLine
 10
-738.9374389648438
 20
233.5250549316406
 30
0.0
 11
-725.8413696289062
 21
233.5250549316406
 31
0.0
  0
MTEXT
  5
35FE
330
35F7
100
AcDbEntity
  8
0
  6
Continuous
 62
     2
420
 16776960
100
AcDbMText
 10
-741.637451171875
 20
219.7600555420039
 30
0.0
 40
3.0
 41
0.0
 46
0.0
 71
     1
 72
     1
  1
{\fArial|b0|i0|c0|p0;13}
  7
FANTINI
 11
3.896499959564406E-12
 21
1.0
 31
0.0
 73
     1
 44
1.0
  0
LWPOLYLINE
  5
35FF
330
35F7
100
AcDbEntity
  8
0
  6
Continuous
 62
     2
420
 16776960
100
AcDbPolyline
 90
        2
 70
     0
 10
-737.137451171875
 20
230.2750549316406
 40
0.0
 41
1.455
 10
-737.1374513357927
 20
226.5250549316406
 40
0.0
 41
0.0
  0
LWPOLYLINE
  5
3600
330
35F7
100
AcDbEntity
  8
0
  6
Continuous
 62
     2
420
 16776960
100
AcDbPolyline
 90
        2
 70
     0
 10
-737.137451171875
 20
233.5250549316406
 40
0.0
 41
1.455
 10
-737.1374510079573
 20
237.2750549316406
 40
0.0
 41
0.0
  0
ENDBLK
  5
3601
330
35F7
100
AcDbEntity
  8
0
100
AcDbBlockEnd
  0
BLOCK
  5
3886
330
3885
100
AcDbEntity
  8
0
100
AcDbBlockBegin
  2
*D39
 70
     1
 10
0.0
 20
0.0
 30
0.0
  3
*D39
  1

  0
LINE
  5
3888
330
3885
100
AcDbEntity
  8
DIM
 62
     0
370
    -2
100
AcDbLine
 10
161.4447680363069
 20
1148.861807734246
 30
0.0
 11
161.4447680363069
 21
1205.981173721311
 31
0.0
  0
LINE
  5
3889
330
3885
100
AcDbEntity
  8
DIM
 62
     0
370
    -2
100
AcDbLine
 10
461.4447680363069
 20
1148.861807734246
 30
0.0
 11
461.4447680363069
 21
1205.981173721311
 31
0.0
  0
LINE
  5
388A
330
3885
100
AcDbEntity
  8
DIM
 62
     0
370
    -2
100
AcDbLine
 10
164.4447680363069
 20
1205.981173721311
 30
0.0
 11
458.4447680363069
 21
1205.981173721311
 31
0.0
  0
INSERT
  5
388B
330
3885
100
AcDbEntity
  8
DIM
 62
     0
370
    -2
100
AcDbBlockReference
  2
_DOT
 10
161.4447680363069
 20
1205.981173721311
 30
0.0
 41
3.0
 42
3.0
 43
3.0
 50
180.0
  0
INSERT
  5
388C
330
3885
100
AcDbEntity
  8
DIM
 62
     0
370
    -2
100
AcDbBlockReference
  2
_DOT
 10
461.4447680363069
 20
1205.981173721311
 30
0.0
 41
3.0
 42
3.0
 43
3.0
  0
MTEXT
  5
388D
330
3885
100
AcDbEntity
  8
DIM
 62
     0
100
AcDbMText
 10
311.4447680363069
 20
1221.983424565377
 30
0.0
 40
12.0
 41
0.0
 46
0.0
 71
     5
 72
     1
  1
\A1;300
  7
ＭＳ ゴシック
 73
     1
 44
1.0
  0
POINT
  5
388E
330
3885
100
AcDbEntity
  8
Defpoints
 62
     0
100
AcDbPoint
 10
161.4447680363069
 20
1138.861807734246
 30
0.0
  0
POINT
  5
388F
330
3885
100
AcDbEntity
  8
Defpoints
 62
     0
100
AcDbPoint
 10
461.4447680363069
 20
1138.861807734246
 30
0.0
  0
POINT
  5
3890
330
3885
100
AcDbEntity
  8
Defpoints
 62
     0
100
AcDbPoint
 10
461.4447680363069
 20
1205.981173721311
 30
0.0
  0
ENDBLK
  5
3887
330
3885
100
AcDbEntity
  8
0
100
AcDbBlockEnd
  0
BLOCK
  5
3895
330
3894
100
AcDbEntity
  8
0
100
AcDbBlockBegin
  2
*D40
 70
     1
 10
0.0
 20
0.0
 30
0.0
  3
*D40
  1

  0
LINE
  5
3897
330
3894
100
AcDbEntity
  8
DIM
 62
     0
370
    -2
100
AcDbLine
 10
161.4447680363073
 20
1176.104890738165
 30
0.0
 11
161.4447680363073
 21
1173.474108230876
 31
0.0
  0
LINE
  5
3898
330
3894
100
AcDbEntity
  8
DIM
 62
     0
370
    -2
100
AcDbLine
 10
406.4447680363073
 20
1150.312629513674
 30
0.0
 11
406.4447680363073
 21
1173.474108230876
 31
0.0
  0
LINE
  5
3899
330
3894
100
AcDbEntity
  8
DIM
 62
     0
370
    -2
100
AcDbLine
 10
164.4447680363073
 20
1173.474108230876
 30
0.0
 11
403.4447680363073
 21
1173.474108230876
 31
0.0
  0
INSERT
  5
389A
330
3894
100
AcDbEntity
  8
DIM
 62
     0
370
    -2
100
AcDbBlockReference
  2
_DOT
 10
161.4447680363073
 20
1173.474108230876
 30
0.0
 41
3.0
 42
3.0
 43
3.0
 50
180.0
  0
INSERT
  5
389B
330
3894
100
AcDbEntity
  8
DIM
 62
     0
370
    -2
100
AcDbBlockReference
  2
_DOT
 10
406.4447680363073
 20
1173.474108230876
 30
0.0
 41
3.0
 42
3.0
 43
3.0
  0
MTEXT
  5
389C
330
3894
100
AcDbEntity
  8
DIM
 62
     0
100
AcDbMText
 10
283.9447680363073
 20
1189.476359074942
 30
0.0
 40
12.0
 41
0.0
 46
0.0
 71
     5
 72
     1
  1
\A1;245
  7
ＭＳ ゴシック
 73
     1
 44
1.0
  0
POINT
  5
389D
330
3894
100
AcDbEntity
  8
Defpoints
 62
     0
100
AcDbPoint
 10
161.4447680363073
 20
1166.104890738165
 30
0.0
  0
POINT
  5
389E
330
3894
100
AcDbEntity
  8
Defpoints
 62
     0
100
AcDbPoint
 10
406.4447680363073
 20
1140.312629513674
 30
0.0
  0
POINT
  5
389F
330
3894
100
AcDbEntity
  8
Defpoints
 62
     0
100
AcDbPoint
 10
406.4447680363073
 20
1173.474108230876
 30
0.0
  0
ENDBLK
  5
3896
330
3894
100
AcDbEntity
  8
0
100
AcDbBlockEnd
  0
BLOCK
  5
38A7
330
38A6
100
AcDbEntity
  8
0
100
AcDbBlockBegin
  2
*D41
 70
     1
 10
0.0
 20
0.0
 30
0.0
  3
*D41
  1

  0
LINE
  5
38A9
330
38A6
100
AcDbEntity
  8
DIM
 62
     0
370
    -2
100
AcDbLine
 10
697.5355883488069
 20
1150.046259648019
 30
0.0
 11
697.5355883488069
 21
1174.828966213616
 31
0.0
  0
LINE
  5
38AA
330
38A6
100
AcDbEntity
  8
DIM
 62
     0
370
    -2
100
AcDbLine
 10
747.5355883488069
 20
1150.046259648019
 30
0.0
 11
747.5355883488069
 21
1174.828966213616
 31
0.0
  0
LINE
  5
38AB
330
38A6
100
AcDbEntity
  8
DIM
 62
     0
370
    -2
100
AcDbLine
 10
700.5355883488069
 20
1174.828966213616
 30
0.0
 11
744.5355883488069
 21
1174.828966213616
 31
0.0
  0
INSERT
  5
38AC
330
38A6
100
AcDbEntity
  8
DIM
 62
     0
370
    -2
100
AcDbBlockReference
  2
_DOT
 10
697.5355883488069
 20
1174.828966213616
 30
0.0
 41
3.0
 42
3.0
 43
3.0
 50
180.0
  0
INSERT
  5
38AD
330
38A6
100
AcDbEntity
  8
DIM
 62
     0
370
    -2
100
AcDbBlockReference
  2
_DOT
 10
747.5355883488069
 20
1174.828966213616
 30
0.0
 41
3.0
 42
3.0
 43
3.0
  0
MTEXT
  5
38AE
330
38A6
100
AcDbEntity
  8
DIM
 62
     0
100
AcDbMText
 10
722.5355883488069
 20
1190.831217057683
 30
0.0
 40
12.0
 41
0.0
 46
0.0
 71
     5
 72
     1
  1
\A1;50
  7
ＭＳ ゴシック
 73
     1
 44
1.0
  0
POINT
  5
38AF
330
38A6
100
AcDbEntity
  8
Defpoints
 62
     0
100
AcDbPoint
 10
697.5355883488069
 20
1140.046259648019
 30
0.0
  0
POINT
  5
38B0
330
38A6
100
AcDbEntity
  8
Defpoints
 62
     0
100
AcDbPoint
 10
747.5355883488069
 20
1140.046259648019
 30
0.0
  0
POINT
  5
38B1
330
38A6
100
AcDbEntity
  8
Defpoints
 62
     0
100
AcDbPoint
 10
747.5355883488069
 20
1174.828966213616
 30
0.0
  0
ENDBLK
  5
38A8
330
38A6
100
AcDbEntity
  8
0
100
AcDbBlockEnd
  0
BLOCK
  5
38B6
330
38B5
100
AcDbEntity
  8
0
100
AcDbBlockBegin
  2
*D42
 70
     1
 10
0.0
 20
0.0
 30
0.0
  3
*D42
  1

  0
LINE
  5
38B8
330
38B5
100
AcDbEntity
  8
DIM
 62
     0
370
    -2
100
AcDbLine
 10
683.9354906925569
 20
1139.52458986009
 30
0.0
 11
664.5156545605665
 21
1139.52458986009
 31
0.0
  0
LINE
  5
38B9
330
38B5
100
AcDbEntity
  8
DIM
 62
     0
370
    -2
100
AcDbLine
 10
683.9354906925569
 20
1126.52458986009
 30
0.0
 11
664.5156545605665
 21
1126.52458986009
 31
0.0
  0
LINE
  5
38BA
330
38B5
100
AcDbEntity
  8
DIM
 62
     0
370
    -2
100
AcDbLine
 10
664.5156545605665
 20
1126.52458986009
 30
0.0
 11
664.5156545605665
 21
1087.367656009896
 31
0.0
  0
LINE
  5
38BB
330
38B5
100
AcDbEntity
  8
DIM
 62
     0
370
    -2
100
AcDbLine
 10
664.5156545605665
 20
1136.52458986009
 30
0.0
 11
664.5156545605665
 21
1129.52458986009
 31
0.0
  0
LINE
  5
38BC
330
38B5
100
AcDbEntity
  8
DIM
 62
     0
370
    -2
100
AcDbLine
 10
664.5156545605665
 20
1129.52458986009
 30
0.0
 11
664.5156545605665
 21
1132.52458986009
 31
0.0
  0
INSERT
  5
38BD
330
38B5
100
AcDbEntity
  8
DIM
 62
     0
370
    -2
100
AcDbBlockReference
  2
_DOT
 10
664.5156545605665
 20
1139.52458986009
 30
0.0
 41
3.0
 42
3.0
 43
3.0
 50
90.0
  0
INSERT
  5
38BE
330
38B5
100
AcDbEntity
  8
DIM
 62
     0
370
    -2
100
AcDbBlockReference
  2
_DOT
 10
664.5156545605665
 20
1126.52458986009
 30
0.0
 41
3.0
 42
3.0
 43
3.0
 50
270.0
  0
MTEXT
  5
38BF
330
38B5
100
AcDbEntity
  8
DIM
 62
     0
100
AcDbMText
 10
648.5134037165
 20
1103.946122934993
 30
0.0
 40
12.0
 41
0.0
 46
0.0
 71
     5
 72
     1
  1
\A1;13
  7
ＭＳ ゴシック
 11
0.0
 21
1.0
 31
0.0
 73
     1
 44
1.0
  0
POINT
  5
38C0
330
38B5
100
AcDbEntity
  8
Defpoints
 62
     0
100
AcDbPoint
 10
693.9354906925569
 20
1139.52458986009
 30
0.0
  0
POINT
  5
3971
330
38B5
100
AcDbEntity
  8
Defpoints
 62
     0
100
AcDbPoint
 10
693.9354906925569
 20
1126.52458986009
 30
0.0
  0
POINT
  5
3972
330
38B5
100
AcDbEntity
  8
Defpoints
 62
     0
100
AcDbPoint
 10
664.5156545605665
 20
1126.52458986009
 30
0.0
  0
ENDBLK
  5
38B7
330
38B5
100
AcDbEntity
  8
0
100
AcDbBlockEnd
  0
BLOCK
  5
38C6
330
38C5
100
AcDbEntity
  8
0
100
AcDbBlockBegin
  2
*D43
 70
     1
 10
0.0
 20
0.0
 30
0.0
  3
*D43
  1

  0
LINE
  5
38C8
330
38C5
100
AcDbEntity
  8
DIM
 62
     0
370
    -2
100
AcDbLine
 10
683.9354906925569
 20
1139.52458986009
 30
0.0
 11
609.6580285416206
 21
1139.52458986009
 31
0.0
  0
LINE
  5
38C9
330
38C5
100
AcDbEntity
  8
DIM
 62
     0
370
    -2
100
AcDbLine
 10
649.768707492058
 20
408.5245898600896
 30
0.0
 11
609.6580285416206
 21
408.5245898600896
 31
0.0
  0
LINE
  5
38CA
330
38C5
100
AcDbEntity
  8
DIM
 62
     0
370
    -2
100
AcDbLine
 10
609.6580285416206
 20
1136.52458986009
 30
0.0
 11
609.6580285416206
 21
411.5245898600896
 31
0.0
  0
INSERT
  5
38CB
330
38C5
100
AcDbEntity
  8
DIM
 62
     0
370
    -2
100
AcDbBlockReference
  2
_DOT
 10
609.6580285416206
 20
1139.52458986009
 30
0.0
 41
3.0
 42
3.0
 43
3.0
 50
90.0
  0
INSERT
  5
38CC
330
38C5
100
AcDbEntity
  8
DIM
 62
     0
370
    -2
100
AcDbBlockReference
  2
_DOT
 10
609.6580285416206
 20
408.5245898600896
 30
0.0
 41
3.0
 42
3.0
 43
3.0
 50
270.0
  0
MTEXT
  5
38CD
330
38C5
100
AcDbEntity
  8
DIM
 62
     0
100
AcDbMText
 10
593.6557776975541
 20
774.0245898600897
 30
0.0
 40
12.0
 41
0.0
 46
0.0
 71
     5
 72
     1
  1
\A1;731
  7
ＭＳ ゴシック
 11
0.0
 21
1.0
 31
0.0
 73
     1
 44
1.0
  0
POINT
  5
38CE
330
38C5
100
AcDbEntity
  8
Defpoints
 62
     0
100
AcDbPoint
 10
693.9354906925569
 20
1139.52458986009
 30
0.0
  0
POINT
  5
38CF
330
38C5
100
AcDbEntity
  8
Defpoints
 62
     0
100
AcDbPoint
 10
659.768707492058
 20
408.5245898600896
 30
0.0
  0
POINT
  5
38D0
330
38C5
100
AcDbEntity
  8
Defpoints
 62
     0
100
AcDbPoint
 10
609.6580285416206
 20
408.5245898600896
 30
0.0
  0
ENDBLK
  5
38C7
330
38C5
100
AcDbEntity
  8
0
100
AcDbBlockEnd
  0
BLOCK
  5
38D8
330
38D7
100
AcDbEntity
  8
0
100
AcDbBlockBegin
  2
*D44
 70
     1
 10
0.0
 20
0.0
 30
0.0
  3
*D44
  1

  0
LINE
  5
38DA
330
38D7
100
AcDbEntity
  8
DIM
 62
     0
370
    -2
100
AcDbLine
 10
376.4447463779366
 20
543.6504582567643
 30
0.0
 11
376.4447463779366
 21
548.9784306416038
 31
0.0
  0
LINE
  5
38DB
330
38D7
100
AcDbEntity
  8
DIM
 62
     0
370
    -2
100
AcDbLine
 10
436.4447463779366
 20
543.6504582567643
 30
0.0
 11
436.4447463779366
 21
548.9784306416038
 31
0.0
  0
LINE
  5
38DC
330
38D7
100
AcDbEntity
  8
DIM
 62
     0
370
    -2
100
AcDbLine
 10
436.4447463779366
 20
548.9784306416038
 30
0.0
 11
476.5826731004574
 21
548.9784306416038
 31
0.0
  0
LINE
  5
38DD
330
38D7
100
AcDbEntity
  8
DIM
 62
     0
370
    -2
100
AcDbLine
 10
379.4447463779366
 20
548.9784306416038
 30
0.0
 11
433.4447463779366
 21
548.9784306416038
 31
0.0
  0
LINE
  5
38DE
330
38D7
100
AcDbEntity
  8
DIM
 62
     0
370
    -2
100
AcDbLine
 10
433.4447463779366
 20
548.9784306416038
 30
0.0
 11
430.4447463779366
 21
548.9784306416038
 31
0.0
  0
INSERT
  5
38DF
330
38D7
100
AcDbEntity
  8
DIM
 62
     0
370
    -2
100
AcDbBlockReference
  2
_DOT
 10
376.4447463779366
 20
548.9784306416038
 30
0.0
 41
3.0
 42
3.0
 43
3.0
 50
180.0
  0
INSERT
  5
38E0
330
38D7
100
AcDbEntity
  8
DIM
 62
     0
370
    -2
100
AcDbBlockReference
  2
_DOT
 10
436.4447463779366
 20
548.9784306416038
 30
0.0
 41
3.0
 42
3.0
 43
3.0
  0
MTEXT
  5
38E1
330
38D7
100
AcDbEntity
  8
DIM
 62
     0
100
AcDbMText
 10
459.513709739197
 20
564.9784306416038
 30
0.0
 40
12.0
 41
0.0
 46
0.0
 71
     5
 72
     1
  1
\A1;60
  7
ＭＳ ゴシック
 73
     1
 44
1.0
  0
POINT
  5
38E2
330
38D7
100
AcDbEntity
  8
Defpoints
 62
     0
100
AcDbPoint
 10
376.4447463779366
 20
533.6504582567643
 30
0.0
  0
POINT
  5
38E3
330
38D7
100
AcDbEntity
  8
Defpoints
 62
     0
100
AcDbPoint
 10
436.4447463779366
 20
533.6504582567643
 30
0.0
  0
POINT
  5
38E4
330
38D7
100
AcDbEntity
  8
Defpoints
 62
     0
100
AcDbPoint
 10
436.4447463779366
 20
548.9784306416038
 30
0.0
  0
ENDBLK
  5
38D9
330
38D7
100
AcDbEntity
  8
0
100
AcDbBlockEnd
  0
BLOCK
  5
38E9
330
38E8
100
AcDbEntity
  8
0
100
AcDbBlockBegin
  2
*D45
 70
     1
 10
0.0
 20
0.0
 30
0.0
  3
*D45
  1

  0
LINE
  5
38EB
330
38E8
100
AcDbEntity
  8
DIM
 62
     0
370
    -2
100
AcDbLine
 10
351.4447680363069
 20
436.6376295146069
 30
0.0
 11
351.4447680363069
 21
482.5034032041561
 31
0.0
  0
LINE
  5
38EC
330
38E8
100
AcDbEntity
  8
DIM
 62
     0
370
    -2
100
AcDbLine
 10
461.4447680363069
 20
436.6376295146069
 30
0.0
 11
461.4447680363069
 21
482.5034032041561
 31
0.0
  0
LINE
  5
38ED
330
38E8
100
AcDbEntity
  8
DIM
 62
     0
370
    -2
100
AcDbLine
 10
461.4447680363069
 20
482.5034032041561
 30
0.0
 11
508.7139314725955
 21
482.5034032041561
 31
0.0
  0
LINE
  5
38EE
330
38E8
100
AcDbEntity
  8
DIM
 62
     0
370
    -2
100
AcDbLine
 10
354.4447680363069
 20
482.5034032041561
 30
0.0
 11
458.4447680363069
 21
482.5034032041561
 31
0.0
  0
LINE
  5
38EF
330
38E8
100
AcDbEntity
  8
DIM
 62
     0
370
    -2
100
AcDbLine
 10
458.4447680363069
 20
482.5034032041561
 30
0.0
 11
455.4447680363069
 21
482.5034032041561
 31
0.0
  0
INSERT
  5
38F0
330
38E8
100
AcDbEntity
  8
DIM
 62
     0
370
    -2
100
AcDbBlockReference
  2
_DOT
 10
351.4447680363069
 20
482.5034032041561
 30
0.0
 41
3.0
 42
3.0
 43
3.0
 50
180.0
  0
INSERT
  5
38F1
330
38E8
100
AcDbEntity
  8
DIM
 62
     0
370
    -2
100
AcDbBlockReference
  2
_DOT
 10
461.4447680363069
 20
482.5034032041561
 30
0.0
 41
3.0
 42
3.0
 43
3.0
  0
MTEXT
  5
38F2
330
38E8
100
AcDbEntity
  8
DIM
 62
     0
100
AcDbMText
 10
488.0793497544512
 20
498.5056540482227
 30
0.0
 40
12.0
 41
0.0
 46
0.0
 71
     5
 72
     1
  1
\A1;110
  7
ＭＳ ゴシック
 73
     1
 44
1.0
  0
POINT
  5
38F3
330
38E8
100
AcDbEntity
  8
Defpoints
 62
     0
100
AcDbPoint
 10
351.4447680363069
 20
426.6376295146069
 30
0.0
  0
POINT
  5
38F4
330
38E8
100
AcDbEntity
  8
Defpoints
 62
     0
100
AcDbPoint
 10
461.4447680363069
 20
426.6376295146069
 30
0.0
  0
POINT
  5
38F5
330
38E8
100
AcDbEntity
  8
Defpoints
 62
     0
100
AcDbPoint
 10
461.4447680363069
 20
482.5034032041561
 30
0.0
  0
ENDBLK
  5
38EA
330
38E8
100
AcDbEntity
  8
0
100
AcDbBlockEnd
  0
BLOCK
  5
38FB
330
38FA
100
AcDbEntity
  8
0
100
AcDbBlockBegin
  2
*D46
 70
     1
 10
0.0
 20
0.0
 30
0.0
  3
*D46
  1

  0
LINE
  5
38FD
330
38FA
100
AcDbEntity
  8
DIM
 62
     0
370
    -2
100
AcDbLine
 10
481.4447463779366
 20
408.5245856064972
 30
0.0
 11
532.3708715366057
 21
408.5245856064972
 31
0.0
  0
LINE
  5
38FE
330
38FA
100
AcDbEntity
  8
DIM
 62
     0
370
    -2
100
AcDbLine
 10
448.5165175494337
 20
367.2245868083318
 30
0.0
 11
532.3708715366057
 21
367.2245868083318
 31
0.0
  0
LINE
  5
38FF
330
38FA
100
AcDbEntity
  8
DIM
 62
     0
370
    -2
100
AcDbLine
 10
532.3708715366057
 20
405.5245856064972
 30
0.0
 11
532.3708715366057
 21
370.2245868083318
 31
0.0
  0
INSERT
  5
3900
330
38FA
100
AcDbEntity
  8
DIM
 62
     0
370
    -2
100
AcDbBlockReference
  2
_DOT
 10
532.3708715366057
 20
408.5245856064972
 30
0.0
 41
3.0
 42
3.0
 43
3.0
 50
90.0
  0
INSERT
  5
3901
330
38FA
100
AcDbEntity
  8
DIM
 62
     0
370
    -2
100
AcDbBlockReference
  2
_DOT
 10
532.3708715366057
 20
367.2245868083318
 30
0.0
 41
3.0
 42
3.0
 43
3.0
 50
270.0
  0
MTEXT
  5
3902
330
38FA
100
AcDbEntity
  8
DIM
 62
     0
100
AcDbMText
 10
516.3686206925393
 20
387.8745862074145
 30
0.0
 40
12.0
 41
0.0
 46
0.0
 71
     5
 72
     1
  1
\A1;41
  7
ＭＳ ゴシック
 11
0.0
 21
1.0
 31
0.0
 73
     1
 44
1.0
  0
POINT
  5
3903
330
38FA
100
AcDbEntity
  8
Defpoints
 62
     0
100
AcDbPoint
 10
471.4447463779366
 20
408.5245856064972
 30
0.0
  0
POINT
  5
3904
330
38FA
100
AcDbEntity
  8
Defpoints
 62
     0
100
AcDbPoint
 10
438.5165175494337
 20
367.2245868083318
 30
0.0
  0
POINT
  5
3905
330
38FA
100
AcDbEntity
  8
Defpoints
 62
     0
100
AcDbPoint
 10
532.3708715366057
 20
367.2245868083318
 30
0.0
  0
ENDBLK
  5
38FC
330
38FA
100
AcDbEntity
  8
0
100
AcDbBlockEnd
  0
BLOCK
  5
390A
330
3909
100
AcDbEntity
  8
0
100
AcDbBlockBegin
  2
*D47
 70
     1
 10
0.0
 20
0.0
 30
0.0
  3
*D47
  1

  0
LINE
  5
390C
330
3909
100
AcDbEntity
  8
DIM
 62
     0
370
    -2
100
AcDbLine
 10
479.7867131263134
 20
408.5245898600896
 30
0.0
 11
512.959338656477
 21
408.5245898600896
 31
0.0
  0
LINE
  5
390D
330
3909
100
AcDbEntity
  8
DIM
 62
     0
370
    -2
100
AcDbLine
 10
448.5851868657178
 20
366.5245898600896
 30
0.0
 11
512.959338656477
 21
366.5245898600896
 31
0.0
  0
LINE
  5
390E
330
3909
100
AcDbEntity
  8
DIM
 62
     0
370
    -2
100
AcDbLine
 10
512.959338656477
 20
405.5245898600896
 30
0.0
 11
512.959338656477
 21
369.5245898600896
 31
0.0
  0
INSERT
  5
390F
330
3909
100
AcDbEntity
  8
DIM
 62
     0
370
    -2
100
AcDbBlockReference
  2
_DOT
 10
512.959338656477
 20
408.5245898600896
 30
0.0
 41
3.0
 42
3.0
 43
3.0
 50
90.0
  0
INSERT
  5
3910
330
3909
100
AcDbEntity
  8
DIM
 62
     0
370
    -2
100
AcDbBlockReference
  2
_DOT
 10
512.959338656477
 20
366.5245898600896
 30
0.0
 41
3.0
 42
3.0
 43
3.0
 50
270.0
  0
MTEXT
  5
3911
330
3909
100
AcDbEntity
  8
DIM
 62
     0
100
AcDbMText
 10
496.9570878124105
 20
387.5245898600896
 30
0.0
 40
12.0
 41
0.0
 46
0.0
 71
     5
 72
     1
  1
\A1;42
  7
ＭＳ ゴシック
 11
0.0
 21
1.0
 31
0.0
 73
     1
 44
1.0
  0
POINT
  5
3912
330
3909
100
AcDbEntity
  8
Defpoints
 62
     0
100
AcDbPoint
 10
469.7867131263134
 20
408.5245898600896
 30
0.0
  0
POINT
  5
3913
330
3909
100
AcDbEntity
  8
Defpoints
 62
     0
100
AcDbPoint
 10
438.5851868657178
 20
366.5245898600896
 30
0.0
  0
POINT
  5
3914
330
3909
100
AcDbEntity
  8
Defpoints
 62
     0
100
AcDbPoint
 10
512.959338656477
 20
366.5245898600896
 30
0.0
  0
ENDBLK
  5
390B
330
3909
100
AcDbEntity
  8
0
100
AcDbBlockEnd
  0
BLOCK
  5
393A
330
3939
100
AcDbEntity
  8
0
100
AcDbBlockBegin
  2
*D48
 70
     1
 10
0.0
 20
0.0
 30
0.0
  3
*D48
  1

  0
LINE
  5
393C
330
3939
100
AcDbEntity
  8
DIM
 62
     0
370
    -2
100
AcDbLine
 10
677.5354447151462
 20
432.5245637118691
 30
0.0
 11
677.5354447151462
 21
481.4292324687277
 31
0.0
  0
LINE
  5
393D
330
3939
100
AcDbEntity
  8
DIM
 62
     0
370
    -2
100
AcDbLine
 10
787.5354447151462
 20
432.5245589036164
 30
0.0
 11
787.5354447151462
 21
481.4292324687277
 31
0.0
  0
LINE
  5
393E
330
3939
100
AcDbEntity
  8
DIM
 62
     0
370
    -2
100
AcDbLine
 10
787.5354447151462
 20
481.4292324687277
 30
0.0
 11
834.8046081514349
 21
481.4292324687277
 31
0.0
  0
LINE
  5
393F
330
3939
100
AcDbEntity
  8
DIM
 62
     0
370
    -2
100
AcDbLine
 10
680.5354447151462
 20
481.4292324687277
 30
0.0
 11
784.5354447151462
 21
481.4292324687277
 31
0.0
  0
LINE
  5
3940
330
3939
100
AcDbEntity
  8
DIM
 62
     0
370
    -2
100
AcDbLine
 10
784.5354447151462
 20
481.4292324687277
 30
0.0
 11
781.5354447151462
 21
481.4292324687277
 31
0.0
  0
INSERT
  5
3941
330
3939
100
AcDbEntity
  8
DIM
 62
     0
370
    -2
100
AcDbBlockReference
  2
_DOT
 10
677.5354447151462
 20
481.4292324687277
 30
0.0
 41
3.0
 42
3.0
 43
3.0
 50
180.0
  0
INSERT
  5
3942
330
3939
100
AcDbEntity
  8
DIM
 62
     0
370
    -2
100
AcDbBlockReference
  2
_DOT
 10
787.5354447151462
 20
481.4292324687277
 30
0.0
 41
3.0
 42
3.0
 43
3.0
  0
MTEXT
  5
3943
330
3939
100
AcDbEntity
  8
DIM
 62
     0
100
AcDbMText
 10
814.1700264332906
 20
497.4314833127942
 30
0.0
 40
12.0
 41
0.0
 46
0.0
 71
     5
 72
     1
  1
\A1;110
  7
ＭＳ ゴシック
 73
     1
 44
1.0
  0
POINT
  5
3944
330
3939
100
AcDbEntity
  8
Defpoints
 62
     0
100
AcDbPoint
 10
677.5354447151462
 20
422.5245637118691
 30
0.0
  0
POINT
  5
3945
330
3939
100
AcDbEntity
  8
Defpoints
 62
     0
100
AcDbPoint
 10
787.5354447151462
 20
422.5245589036164
 30
0.0
  0
POINT
  5
3946
330
3939
100
AcDbEntity
  8
Defpoints
 62
     0
100
AcDbPoint
 10
787.5354447151462
 20
481.4292324687277
 30
0.0
  0
ENDBLK
  5
393B
330
3939
100
AcDbEntity
  8
0
100
AcDbBlockEnd
  0
BLOCK
  5
394C
330
394B
100
AcDbEntity
  8
0
100
AcDbBlockBegin
  2
*D49
 70
     1
 10
0.0
 20
0.0
 30
0.0
  3
*D49
  1

  0
LINE
  5
394E
330
394B
100
AcDbEntity
  8
DIM
 62
     0
370
    -2
100
AcDbLine
 10
801.1354418644319
 20
422.5245593425115
 30
0.0
 11
831.619109273103
 21
422.5245593425115
 31
0.0
  0
LINE
  5
394F
330
394B
100
AcDbEntity
  8
DIM
 62
     0
370
    -2
100
AcDbLine
 10
807.5354441031864
 20
408.5245613077426
 30
0.0
 11
831.619109273103
 21
408.5245613077426
 31
0.0
  0
LINE
  5
3950
330
394B
100
AcDbEntity
  8
DIM
 62
     0
370
    -2
100
AcDbLine
 10
831.619109273103
 20
422.5245593425115
 30
0.0
 11
831.619109273103
 21
462.0515694713098
 31
0.0
  0
LINE
  5
3951
330
394B
100
AcDbEntity
  8
DIM
 62
     0
370
    -2
100
AcDbLine
 10
831.619109273103
 20
419.5245593425115
 30
0.0
 11
831.619109273103
 21
411.5245613077426
 31
0.0
  0
LINE
  5
3952
330
394B
100
AcDbEntity
  8
DIM
 62
     0
370
    -2
100
AcDbLine
 10
831.619109273103
 20
419.5245593425115
 30
0.0
 11
831.619109273103
 21
416.5245593425115
 31
0.0
  0
INSERT
  5
3953
330
394B
100
AcDbEntity
  8
DIM
 62
     0
370
    -2
100
AcDbBlockReference
  2
_DOT
 10
831.619109273103
 20
422.5245593425115
 30
0.0
 41
3.0
 42
3.0
 43
3.0
 50
90.0
  0
INSERT
  5
3954
330
394B
100
AcDbEntity
  8
DIM
 62
     0
370
    -2
100
AcDbBlockReference
  2
_DOT
 10
831.619109273103
 20
408.5245613077426
 30
0.0
 41
3.0
 42
3.0
 43
3.0
 50
270.0
  0
MTEXT
  5
3955
330
394B
100
AcDbEntity
  8
DIM
 62
     0
100
AcDbMText
 10
815.6168584290365
 20
445.2880644069106
 30
0.0
 40
12.0
 41
0.0
 46
0.0
 71
     5
 72
     1
  1
\A1;14
  7
ＭＳ ゴシック
 11
0.0
 21
1.0
 31
0.0
 73
     1
 44
1.0
  0
POINT
  5
3956
330
394B
100
AcDbEntity
  8
Defpoints
 62
     0
100
AcDbPoint
 10
791.1354418644319
 20
422.5245593425115
 30
0.0
  0
POINT
  5
3957
330
394B
100
AcDbEntity
  8
Defpoints
 62
     0
100
AcDbPoint
 10
797.5354441031864
 20
408.5245613077426
 30
0.0
  0
POINT
  5
3958
330
394B
100
AcDbEntity
  8
Defpoints
 62
     0
100
AcDbPoint
 10
831.619109273103
 20
408.5245613077426
 30
0.0
  0
ENDBLK
  5
394D
330
394B
100
AcDbEntity
  8
0
100
AcDbBlockEnd
  0
BLOCK
  5
395E
330
395D
100
AcDbEntity
  8
0
100
AcDbBlockBegin
  2
*D50
 70
     1
 10
0.0
 20
0.0
 30
0.0
  3
*D50
  1

  0
LINE
  5
3960
330
395D
100
AcDbEntity
  8
DIM
 62
     0
370
    -2
100
AcDbLine
 10
722.5354491061231
 20
551.2712201428304
 30
0.0
 11
722.5354491061231
 21
548.9784306416038
 31
0.0
  0
LINE
  5
3961
330
395D
100
AcDbEntity
  8
DIM
 62
     0
370
    -2
100
AcDbLine
 10
742.5354491061232
 20
551.2712192686026
 30
0.0
 11
742.5354491061232
 21
548.9784306416038
 31
0.0
  0
LINE
  5
3962
330
395D
100
AcDbEntity
  8
DIM
 62
     0
370
    -2
100
AcDbLine
 10
742.5354491061232
 20
548.9784306416038
 30
0.0
 11
782.7939835565421
 21
548.9784306416038
 31
0.0
  0
LINE
  5
3963
330
395D
100
AcDbEntity
  8
DIM
 62
     0
370
    -2
100
AcDbLine
 10
725.5354491061231
 20
548.9784306416038
 30
0.0
 11
739.5354491061232
 21
548.9784306416038
 31
0.0
  0
LINE
  5
3964
330
395D
100
AcDbEntity
  8
DIM
 62
     0
370
    -2
100
AcDbLine
 10
739.5354491061232
 20
548.9784306416038
 30
0.0
 11
736.5354491061232
 21
548.9784306416038
 31
0.0
  0
INSERT
  5
3965
330
395D
100
AcDbEntity
  8
DIM
 62
     0
370
    -2
100
AcDbBlockReference
  2
_DOT
 10
722.5354491061231
 20
548.9784306416038
 30
0.0
 41
3.0
 42
3.0
 43
3.0
 50
180.0
  0
INSERT
  5
3966
330
395D
100
AcDbEntity
  8
DIM
 62
     0
370
    -2
100
AcDbBlockReference
  2
_DOT
 10
742.5354491061232
 20
548.9784306416038
 30
0.0
 41
3.0
 42
3.0
 43
3.0
  0
MTEXT
  5
3967
330
395D
100
AcDbEntity
  8
DIM
 62
     0
100
AcDbMText
 10
765.6647163313327
 20
564.9806814856704
 30
0.0
 40
12.0
 41
0.0
 46
0.0
 71
     5
 72
     1
  1
\A1;20
  7
ＭＳ ゴシック
 73
     1
 44
1.0
  0
POINT
  5
3968
330
395D
100
AcDbEntity
  8
Defpoints
 62
     0
100
AcDbPoint
 10
722.5354491061231
 20
541.2712201428304
 30
0.0
  0
POINT
  5
3969
330
395D
100
AcDbEntity
  8
Defpoints
 62
     0
100
AcDbPoint
 10
742.5354491061232
 20
541.2712192686026
 30
0.0
  0
POINT
  5
396C
330
395D
100
AcDbEntity
  8
Defpoints
 62
     0
100
AcDbPoint
 10
742.5354491061232
 20
548.9784306416038
 30
0.0
  0
ENDBLK
  5
395F
330
395D
100
AcDbEntity
  8
0
100
AcDbBlockEnd
  0
BLOCK
  5
3979
330
3978
100
AcDbEntity
  8
0
100
AcDbBlockBegin
  2
*D51
 70
     1
 10
0.0
 20
0.0
 30
0.0
  3
*D51
  1

  0
LINE
  5
397B
330
3978
100
AcDbEntity
  8
DIM
 62
     0
370
    -2
100
AcDbLine
 10
754.0162855328831
 20
366.4595345849052
 30
0.0
 11
754.0162855328831
 21
333.2706468324548
 31
0.0
  0
LINE
  5
397C
330
3978
100
AcDbEntity
  8
DIM
 62
     0
370
    -2
100
AcDbLine
 10
762.0162855328831
 20
366.4595345849052
 30
0.0
 11
762.0162855328831
 21
333.2706468324548
 31
0.0
  0
LINE
  5
397D
330
3978
100
AcDbEntity
  8
DIM
 62
     0
370
    -2
100
AcDbLine
 10
762.0162855328831
 20
333.2706468324548
 30
0.0
 11
802.5195992755366
 21
333.2706468324548
 31
0.0
  0
LINE
  5
397E
330
3978
100
AcDbEntity
  8
DIM
 62
     0
370
    -2
100
AcDbLine
 10
757.0162855328831
 20
333.2706468324548
 30
0.0
 11
759.0162855328831
 21
333.2706468324548
 31
0.0
  0
LINE
  5
397F
330
3978
100
AcDbEntity
  8
DIM
 62
     0
370
    -2
100
AcDbLine
 10
759.0162855328831
 20
333.2706468324548
 30
0.0
 11
756.0162855328831
 21
333.2706468324548
 31
0.0
  0
INSERT
  5
3980
330
3978
100
AcDbEntity
  8
DIM
 62
     0
370
    -2
100
AcDbBlockReference
  2
_DOT
 10
754.0162855328831
 20
333.2706468324548
 30
0.0
 41
3.0
 42
3.0
 43
3.0
 50
180.0
  0
INSERT
  5
3981
330
3978
100
AcDbEntity
  8
DIM
 62
     0
370
    -2
100
AcDbBlockReference
  2
_DOT
 10
762.0162855328831
 20
333.2706468324548
 30
0.0
 41
3.0
 42
3.0
 43
3.0
  0
MTEXT
  5
3982
330
3978
100
AcDbEntity
  8
DIM
 62
     0
100
AcDbMText
 10
785.2679424042099
 20
349.2706468324548
 30
0.0
 40
12.0
 41
0.0
 46
0.0
 71
     5
 72
     1
  1
\A1;%%c8
  7
ＭＳ ゴシック
 73
     1
 44
1.0
  0
POINT
  5
3983
330
3978
100
AcDbEntity
  8
Defpoints
 62
     0
100
AcDbPoint
 10
754.0162855328831
 20
376.4595345849052
 30
0.0
  0
POINT
  5
3984
330
3978
100
AcDbEntity
  8
Defpoints
 62
     0
100
AcDbPoint
 10
762.0162855328831
 20
376.4595345849052
 30
0.0
  0
POINT
  5
3985
330
3978
100
AcDbEntity
  8
Defpoints
 62
     0
100
AcDbPoint
 10
762.0162855328831
 20
333.2706468324548
 30
0.0
  0
ENDBLK
  5
397A
330
3978
100
AcDbEntity
  8
0
100
AcDbBlockEnd
  0
ENDSEC
  0
SECTION
  2
ENTITIES
  0
MTEXT
  5
177
330
A
100
AcDbEntity
  8
TEMPLATE
390
1D
100
AcDbMText
 10
39.60107227386538
 20
171.8658758157141
 30
0.0
 40
8.144205729166663
 41
0.0
 46
0.0
 71
     1
 72
     1
  1
品名
  7
ＭＳ ゴシック
 73
     1
 44
0.7828267384257843
  0
MTEXT
  5
178
330
A
100
AcDbEntity
  8
TEMPLATE
390
1D
100
AcDbMText
 10
39.60107227386538
 20
129.365875815714
 30
0.0
 40
8.144205729166663
 41
0.0
 46
0.0
 71
     1
 72
     1
  1
仕様
  7
ＭＳ ゴシック
 73
     1
 44
0.7828267384257843
  0
LINE
  5
179
330
A
100
AcDbEntity
  8
TEMPLATE
390
1D
100
AcDbLine
 10
1011.101072273624
 20
133.5733367532142
 30
0.0
 11
36.10107227362437
 21
133.5733367532142
 31
0.0
  0
LWPOLYLINE
  5
17A
330
A
100
AcDbEntity
  8
TEMPLATE
390
1D
100
AcDbPolyline
 90
        5
 70
   128
 43
0.0
 10
1011.101072273624
 20
1448.573336753213
 10
36.10107227362437
 20
1448.573336753213
 10
36.10107227362437
 20
48.57333675321413
 10
1011.101072273624
 20
48.57333675321413
 10
1011.101072273624
 20
1448.573336753213
  0
LINE
  5
17B
330
A
100
AcDbEntity
  8
TEMPLATE
390
1D
100
AcDbLine
 10
1011.101072273624
 20
176.0733367532141
 30
0.0
 11
36.10107227362437
 21
176.0733367532141
 31
0.0
  0
LINE
  5
17C
330
A
100
AcDbEntity
  8
TEMPLATE
390
1D
100
AcDbLine
 10
1011.101072273866
 20
91.07333675321412
 30
0.0
 11
634.601072273865
 21
91.07333675321412
 31
0.0
  0
MTEXT
  5
17E
330
A
100
AcDbEntity
  8
TEMPLATE
390
1D
100
AcDbMText
 10
649.5367753999956
 20
76.11813951656006
 30
0.0
 40
12.21630859375
 41
0.0
 46
0.0
 71
     1
 72
     1
  1
大洋金物株式会社 ティーフォルム事業部
  7
ＭＳ ゴシック
 73
     1
 44
0.7828267384257843
  0
MTEXT
  5
180
330
A
100
AcDbEntity
  8
TEMPLATE
390
1D
100
AcDbMText
 10
915.601072273995
 20
115.0746453469641
 30
0.0
 40
12.21630859375
 41
0.0
 46
12.21630859375
 71
     1
 72
     1
  1
{1:5}
  7
ＭＳ ゴシック
 73
     1
 44
0.7828267384257843
1001
ACAD
1000
ACAD_MTEXT_DEFINED_HEIGHT_BEGIN
1070
    46
1040
12.21630859375
1000
ACAD_MTEXT_DEFINED_HEIGHT_END
  0
MTEXT
  5
181
330
A
100
AcDbEntity
  8
TEMPLATE
390
1D
100
AcDbMText
 10
889.101072273995
 20
129.365875815714
 30
0.0
 40
8.144205729166663
 41
0.0
 46
0.0
 71
     1
 72
     1
  1
縮尺
  7
ＭＳ ゴシック
 73
     1
 44
0.7828267384257843
  0
LINE
  5
182
330
A
100
AcDbEntity
  8
TEMPLATE
390
1D
100
AcDbLine
 10
885.601072273995
 20
91.07333675321412
 30
0.0
 11
885.601072273995
 21
133.5733367532142
 31
0.0
  0
MTEXT
  5
183
330
A
100
AcDbEntity
  8
TEMPLATE
390
1D
100
AcDbMText
 10
763.601072273995
 20
129.365875815714
 30
0.0
 40
8.144205729166663
 41
0.0
 46
0.0
 71
     1
 72
     1
  1
容量
  7
ＭＳ ゴシック
 73
     1
 44
0.7828267384257843
  0
LINE
  5
184
330
A
100
AcDbEntity
  8
TEMPLATE
390
1D
100
AcDbLine
 10
760.101072273995
 20
91.07333675321412
 30
0.0
 11
760.101072273995
 21
133.5733367532142
 31
0.0
  0
MTEXT
  5
185
330
A
100
AcDbEntity
  8
TEMPLATE
390
1D
100
AcDbMText
 10
638.101072273995
 20
171.8658758157141
 30
0.0
 40
8.144205729166663
 41
0.0
 46
0.0
 71
     1
 72
     1
  1
品番
  7
ＭＳ ゴシック
 73
     1
 44
0.7828267384257843
  0
MTEXT
  5
186
330
A
100
AcDbEntity
  8
TEMPLATE
390
1D
100
AcDbMText
 10
638.101072273995
 20
129.365875815714
 30
0.0
 40
8.144205729166663
 41
0.0
 46
0.0
 71
     1
 72
     1
  1
重量
  7
ＭＳ ゴシック
 73
     1
 44
0.7828267384257843
  0
LINE
  5
188
330
A
100
AcDbEntity
  8
TEMPLATE
390
1D
100
AcDbLine
 10
634.601072273995
 20
48.57333675321413
 30
0.0
 11
634.601072273995
 21
176.0733367532141
 31
0.0
  0
INSERT
  5
68C
330
A
100
AcDbEntity
  8
TEMPLATE
100
AcDbBlockReference
  2
block 2
 10
919.2743017702577
 20
8.373076514336368
 30
0.0
 41
0.3809999999999999
 42
0.3809999999999999
 43
0.3809999999999999
  0
LWPOLYLINE
  5
D69
330
A
100
AcDbEntity
  8
BORDER
100
AcDbPolyline
 90
        4
 70
     1
 43
0.0
 10
0.0
 20
0.0
 10
0.0
 20
1485.0
 10
1050.0
 20
1485.0
 10
1050.0
 20
0.0
  0
INSERT
  5
1343
330
A
100
AcDbEntity
  8
TEMPLATE
100
AcDbBlockReference
  2
block 2
 10
2096.743470866468
 20
24.43532141229569
 30
0.0
 41
0.3809999999999999
 42
0.3809999999999999
 43
0.3809999999999999
  0
MTEXT
  5
16ED
330
A
100
AcDbEntity
  8
TEMPLATE
390
1D
100
AcDbMText
 10
664.601072273995
 20
157.5746453469641
 30
0.0
 40
12.21630859375
 41
0.0
 46
12.21630859375
 71
     1
 72
     1
  1
{AGN73-4201-081}
  7
ＭＳ ゴシック
 73
     1
 44
0.7828267384257843
1001
ACAD
1000
ACAD_MTEXT_DEFINED_HEIGHT_BEGIN
1070
    46
1040
12.21630859375
1000
ACAD_MTEXT_DEFINED_HEIGHT_END
  0
MTEXT
  5
16EE
330
A
100
AcDbEntity
  8
TEMPLATE
390
1D
100
AcDbMText
 10
66.10107227386538
 20
157.5746453469641
 30
0.0
 40
12.21630859375
 41
0.0
 46
13.95167517653104
 71
     1
 72
     1
  1
{バス・シャワー混合栓　-FANTINI, AK/25-}
  7
ＭＳ ゴシック
 73
     1
 44
0.7828267384257843
1001
ACAD
1000
ACAD_MTEXT_DEFINED_HEIGHT_BEGIN
1070
    46
1040
13.95167517653104
1000
ACAD_MTEXT_DEFINED_HEIGHT_END
  0
MTEXT
  5
16F0
102
{ACAD_XDICTIONARY
360
16F1
102
}
330
A
100
AcDbEntity
  8
TEMPLATE
100
AcDbMText
 10
37.3643282742853
 20
41.93086052571419
 30
0.0
 40
11.0
 41
0.0
 46
11.0
 71
     1
 72
     1
  1
{20210408N}
  7
ＭＳ ゴシック
 73
     1
 44
1.0
1001
ACAD
1000
ACAD_MTEXT_DEFINED_HEIGHT_BEGIN
1070
    46
1040
11.0
1000
ACAD_MTEXT_DEFINED_HEIGHT_END
  0
HATCH
  5
2492
102
{ACAD_REACTORS
330
24A3
102
}
330
A
100
AcDbEntity
  8
TEMPLATE
100
AcDbHatch
 10
0.0
 20
0.0
 30
0.0
210
0.0
220
0.0
230
1.0
  2
SOLID
 70
     1
 71
     1
 91
        6
 92
        1
 93
        8
 72
     1
 10
967.3017148351717
 20
76.58153313569332
 11
967.3017148351717
 21
73.6268293203631
 72
     1
 10
967.3017148351717
 20
73.6268293203631
 11
962.6214190600165
 21
73.6268293203631
 72
     1
 10
962.6214190600165
 20
73.6268293203631
 11
962.6214190600165
 21
61.58153313641628
 72
     1
 10
962.6214190600165
 20
61.58153313641628
 11
958.5051124833788
 21
61.58153313641628
 72
     1
 10
958.5051124833788
 20
61.58153313641628
 11
958.5051124833788
 21
73.6268293203631
 72
     1
 10
958.5051124833788
 20
73.6268293203631
 11
953.9077617661067
 21
73.6268293203631
 72
     1
 10
953.9077617661067
 20
73.6268293203631
 11
953.9077617661067
 21
76.58153313569332
 72
     1
 10
953.9077617661067
 20
76.58153313569332
 11
967.3017148351717
 21
76.58153313569332
 97
        1
330
2493
 92
        1
 93
        1
 72
     4
 94
        3
 73
     0
 74
     1
 95
       56
 96
       52
 40
0.0
 40
0.0
 40
0.0
 40
0.0
 40
1.0
 40
1.0
 40
1.0
 40
2.0
 40
2.0
 40
2.0
 40
3.0
 40
3.0
 40
3.0
 40
4.0
 40
4.0
 40
4.0
 40
5.0
 40
5.0
 40
5.0
 40
6.0
 40
6.0
 40
6.0
 40
7.0
 40
7.0
 40
7.0
 40
8.0
 40
8.0
 40
8.0
 40
9.0
 40
9.0
 40
9.0
 40
10.0
 40
10.0
 40
10.0
 40
11.0
 40
11.0
 40
11.0
 40
12.0
 40
12.0
 40
12.0
 40
13.0
 40
13.0
 40
13.0
 40
14.0
 40
14.0
 40
14.0
 40
15.0
 40
15.0
 40
15.0
 40
16.0
 40
16.0
 40
16.0
 40
17.0
 40
17.0
 40
17.0
 40
17.0
 10
973.5728075523182
 20
76.22434865548715
 10
974.1497406432779
 20
76.38674243249227
 10
974.8945351899454
 20
76.2509059520473
 10
974.8945351899454
 20
76.2509059520473
 10
974.8945351899454
 20
76.2509059520473
 10
974.5367183931537
 20
75.17712080583556
 10
974.5367183931537
 20
75.17712080583556
 10
974.5367183931537
 20
75.17712080583556
 10
973.8055372506058
 20
75.3463212849002
 10
973.2415852471802
 20
74.90161675034386
 10
972.8033526588458
 20
74.55384262872275
 10
972.5194425122852
 20
73.6297677327276
 10
972.4105352793329
 20
73.2784228821572
 10
972.4105352793329
 20
73.2784228821572
 10
971.9249905324193
 20
71.78808988695778
 10
971.9249905324193
 20
71.78808988695778
 10
971.9249905324193
 20
71.78808988695778
 10
973.5170521075795
 20
71.78808988695778
 10
973.5170521075795
 20
71.78808988695778
 10
973.5170521075795
 20
71.78808988695778
 10
973.2694443720036
 20
70.85010402609774
 10
973.2694443720036
 20
70.85010402609774
 10
973.2694443720036
 20
70.85010402609774
 10
971.6644017093092
 20
70.85010402609774
 10
971.6644017093092
 20
70.85010402609774
 10
971.6644017093092
 20
70.85010402609774
 10
968.7926801469564
 20
61.58153313641628
 10
968.7926801469564
 20
61.58153313641628
 10
968.7926801469564
 20
61.58153313641628
 10
967.8935631585125
 20
61.58153313641628
 10
967.8935631585125
 20
61.58153313641628
 10
967.8935631585125
 20
61.58153313641628
 10
970.7678883773913
 20
70.85010402609774
 10
970.7678883773913
 20
70.85010402609774
 10
970.7678883773913
 20
70.85010402609774
 10
969.5835222190324
 20
70.85010402609774
 10
969.5835222190324
 20
70.85010402609774
 10
969.5835222190324
 20
70.85010402609774
 10
969.8317994662855
 20
71.78808988695778
 10
969.8317994662855
 20
71.78808988695778
 10
969.8317994662855
 20
71.78808988695778
 10
971.0284772005014
 20
71.78808988695778
 10
971.0284772005014
 20
71.78808988695778
 10
971.0284772005014
 20
71.78808988695778
 10
971.4517573613628
 20
73.08783522449019
 10
971.4517573613628
 20
73.08783522449019
 10
971.7940266091862
 20
74.17753987060073
 10
972.0844458970603
 20
74.76258149188186
 10
972.3333926559915
 20
75.20367810239571
 10
972.579698563304
 20
75.64514666384179
 10
973.0671774550653
 20
76.07880425571142
 10
973.5728075523182
 20
76.22434865548715
 97
        1
330
249E
 92
        1
 93
        1
 72
     4
 94
        3
 73
     0
 74
     1
 95
       32
 96
       28
 40
0.0
 40
0.0
 40
0.0
 40
0.0
 40
1.0
 40
1.0
 40
1.0
 40
2.0
 40
2.0
 40
2.0
 40
3.0
 40
3.0
 40
3.0
 40
4.0
 40
4.0
 40
4.0
 40
5.0
 40
5.0
 40
5.0
 40
6.0
 40
6.0
 40
6.0
 40
7.0
 40
7.0
 40
7.0
 40
8.0
 40
8.0
 40
8.0
 40
9.0
 40
9.0
 40
9.0
 40
9.0
 10
975.760585740514
 20
71.22123666626197
 10
975.2193227439554
 20
70.52111342655351
 10
974.8025145293147
 20
69.89102854738113
 10
974.1277211480899
 20
67.91065019898832
 10
973.5073441882485
 20
66.09917476891434
 10
973.1125554687958
 20
64.78127822588988
 10
973.0529317343623
 20
63.17623556319532
 10
973.007553720631
 20
61.98182672966618
 10
973.7348665734851
 20
61.58153313641628
 10
974.801249896145
 20
61.58153313641628
 10
975.2608324679911
 20
61.58153313641628
 10
976.420575474637
 20
61.61076847968843
 10
977.2464553245279
 20
62.6316993984324
 10
977.8246158535619
 20
63.34896957611602
 10
978.3574727590537
 20
64.092499489614
 10
979.0718417194655
 20
66.53153053252123
 10
979.6662936993323
 20
68.57056554292433
 10
980.0778946009211
 20
69.88842489085562
 10
980.0474690146664
 20
70.63876150641318
 10
980.0474690146664
 20
70.63876150641318
 10
980.0474690146664
 20
70.63876150641318
 10
980.0474690146664
 20
70.63876150641318
 10
979.8536081887958
 20
71.89052517368981
 10
978.9447832810217
 20
72.155019481588
 10
978.4255397796494
 20
72.155019481588
 10
977.914107247853
 20
72.155019481588
 10
976.5436912332004
 20
72.24350660836194
 10
975.760585740514
 20
71.22123666626197
 97
        1
330
24A1
 92
        1
 93
        1
 72
     4
 94
        3
 73
     0
 74
     1
 95
       38
 96
       34
 40
0.0
 40
0.0
 40
0.0
 40
0.0
 40
1.0
 40
1.0
 40
1.0
 40
2.0
 40
2.0
 40
2.0
 40
3.0
 40
3.0
 40
3.0
 40
4.0
 40
4.0
 40
4.0
 40
5.0
 40
5.0
 40
5.0
 40
6.0
 40
6.0
 40
6.0
 40
7.0
 40
7.0
 40
7.0
 40
8.0
 40
8.0
 40
8.0
 40
9.0
 40
9.0
 40
9.0
 40
10.0
 40
10.0
 40
10.0
 40
11.0
 40
11.0
 40
11.0
 40
11.0
 10
983.3346969633965
 20
71.75212223181256
 10
983.3346969633965
 20
71.75212223181256
 10
984.2590694201378
 20
71.75212223181256
 10
984.2590694201378
 20
71.75212223181256
 10
984.2590694201378
 20
71.75212223181256
 10
983.8461294951928
 20
70.43002264325406
 10
983.8461294951928
 20
70.43002264325406
 10
984.1599073016093
 20
70.80115528341824
 10
984.6551227727603
 20
71.29544087723889
 10
985.080411468655
 20
71.54468519691622
 10
985.7157036608785
 20
71.9158178370804
 10
986.0787277707202
 20
71.96476657975995
 10
986.4779799013602
 20
71.9550214653359
 10
986.4779799013602
 20
71.9550214653359
 10
986.0878033734668
 20
70.70489438216094
 10
986.0878033734668
 20
70.70489438216094
 10
985.8336864965765
 20
70.81249978685082
 10
985.0505810038919
 20
70.60766640847999
 10
984.6013386679622
 20
70.28451543857147
 10
984.196209712594
 20
69.9931290782742
 10
983.9161306606354
 20
69.74518658685963
 10
983.584276038913
 20
69.12187121465354
 10
983.2549506835301
 20
68.49762596511695
 10
982.9950313720981
 20
67.50224807541616
 10
982.5477231810162
 20
66.05826016637073
 10
982.5477231810162
 20
66.05826016637073
 10
981.1507498698027
 20
61.58153313641628
 10
981.1507498698027
 20
61.58153313641628
 10
981.1507498698027
 20
61.58153313641628
 10
980.2536042212994
 20
61.58153313641628
 10
980.2536042212994
 20
61.58153313641628
 10
980.2536042212994
 20
61.58153313641628
 10
983.3346969633965
 20
71.75212223181256
 10
983.3346969633965
 20
71.75212223181256
 97
        1
330
249F
 92
        1
 93
        1
 72
     4
 94
        3
 73
     0
 74
     1
 95
      104
 96
      100
 40
0.0
 40
0.0
 40
0.0
 40
0.0
 40
1.0
 40
1.0
 40
1.0
 40
2.0
 40
2.0
 40
2.0
 40
3.0
 40
3.0
 40
3.0
 40
4.0
 40
4.0
 40
4.0
 40
5.0
 40
5.0
 40
5.0
 40
6.0
 40
6.0
 40
6.0
 40
7.0
 40
7.0
 40
7.0
 40
8.0
 40
8.0
 40
8.0
 40
9.0
 40
9.0
 40
9.0
 40
10.0
 40
10.0
 40
10.0
 40
11.0
 40
11.0
 40
11.0
 40
12.0
 40
12.0
 40
12.0
 40
13.0
 40
13.0
 40
13.0
 40
14.0
 40
14.0
 40
14.0
 40
15.0
 40
15.0
 40
15.0
 40
16.0
 40
16.0
 40
16.0
 40
17.0
 40
17.0
 40
17.0
 40
18.0
 40
18.0
 40
18.0
 40
19.0
 40
19.0
 40
19.0
 40
20.0
 40
20.0
 40
20.0
 40
21.0
 40
21.0
 40
21.0
 40
22.0
 40
22.0
 40
22.0
 40
23.0
 40
23.0
 40
23.0
 40
24.0
 40
24.0
 40
24.0
 40
25.0
 40
25.0
 40
25.0
 40
26.0
 40
26.0
 40
26.0
 40
27.0
 40
27.0
 40
27.0
 40
28.0
 40
28.0
 40
28.0
 40
29.0
 40
29.0
 40
29.0
 40
30.0
 40
30.0
 40
30.0
 40
31.0
 40
31.0
 40
31.0
 40
32.0
 40
32.0
 40
32.0
 40
33.0
 40
33.0
 40
33.0
 40
33.0
 10
988.4227625455403
 20
71.75762710560934
 10
988.4227625455403
 20
71.75762710560934
 10
989.2298216782599
 20
71.75762710560934
 10
989.2298216782599
 20
71.75762710560934
 10
989.2298216782599
 20
71.75762710560934
 10
988.8220890663658
 20
70.43426288388127
 10
988.8220890663658
 20
70.43426288388127
 10
989.1759631832754
 20
70.98913928455974
 10
989.4936092793876
 20
71.23644945938958
 10
989.9156248070792
 20
71.55602970034877
 10
990.3389049679397
 20
71.87107213993494
 10
990.841336287175
 20
71.93527087083527
 10
991.19007748122
 20
71.93527087083527
 10
991.6218381233355
 20
71.93527087083527
 10
992.0386463379762
 20
71.85001971717159
 10
992.2577254370497
 20
71.37678654611435
 10
992.4256240878528
 20
71.00569110104331
 10
992.4334350574288
 20
70.96191247632157
 10
992.3854533871734
 20
70.22939231041721
 10
992.8242810970003
 20
70.9803984376527
 10
993.1483991393322
 20
71.30388416340014
 10
993.6994072503155
 20
71.6146863623591
 10
994.2776421695378
 20
71.93527087083527
 10
994.6147041043112
 20
71.95926170596317
 10
995.0062940457472
 20
71.90153492128334
 10
995.5831899416123
 20
71.8163209627129
 10
995.9514213645059
 20
71.61048331682503
 10
996.1439431670203
 20
70.98493623902573
 10
996.3371344812128
 20
70.3613233060739
 10
996.2327650496334
 20
70.02682783273289
 10
995.9941957217104
 20
69.03405359955758
 10
995.8852884887581
 20
68.58191004635688
 10
995.7277300738713
 20
68.03443546922952
 10
995.5215948672374
 20
67.38300060654797
 10
995.5215948672374
 20
67.38300060654797
 10
993.6994072503155
 20
61.58153313641628
 10
993.6994072503155
 20
61.58153313641628
 10
993.6994072503155
 20
61.58153313641628
 10
992.7516762750327
 20
61.58153313641628
 10
992.7516762750327
 20
61.58153313641628
 10
992.7516762750327
 20
61.58153313641628
 10
994.3470482134887
 20
66.65338165791485
 10
994.3470482134887
 20
66.65338165791485
 10
994.6802418585673
 20
67.71455766752453
 10
994.9057929038624
 20
68.48951743479464
 10
995.0225111063917
 20
68.97539693754726
 10
995.1689853834976
 20
69.58149098159171
 10
995.2273072896694
 20
69.78148899784378
 10
995.157975635904
 20
70.22262280345092
 10
995.0944464166821
 20
70.63325663261634
 10
994.886972186692
 20
70.9006521577858
 10
994.5317590464272
 20
70.9006521577858
 10
994.1531873876181
 20
70.9006521577858
 10
993.8465510391004
 20
70.85851011716579
 10
993.4174684436964
 20
70.42745618182173
 10
992.9883114581078
 20
69.9931290782742
 10
992.6336934393337
 20
69.48329593548695
 10
992.3556229224093
 20
68.8969524859431
 10
992.0781475269766
 20
68.30703830744997
 10
991.7968038418492
 20
67.55930534841795
 10
991.5115918670269
 20
66.65338165791485
 10
991.5115918670269
 20
66.65338165791485
 10
989.9156248070792
 20
61.58153313641628
 10
989.9156248070792
 20
61.58153313641628
 10
989.9156248070792
 20
61.58153313641628
 10
989.0242815931185
 20
61.58153313641628
 10
989.0242815931185
 20
61.58153313641628
 10
989.0242815931185
 20
61.58153313641628
 10
990.8490728665654
 20
67.38039695002249
 10
990.8490728665654
 20
67.38039695002249
 10
991.0415946690798
 20
67.99753793675379
 10
991.1862091915252
 20
68.50056437748145
 10
991.281503020359
 20
68.89371651283278
 10
991.4435248464313
 20
69.57048123399818
 10
991.4889028601626
 20
70.0281296609956
 10
991.3663822230899
 20
70.43426288388127
 10
991.2457957308659
 20
70.83909427850418
 10
991.0338580896903
 20
70.94249663765996
 10
990.6799095825943
 20
70.94249663765996
 10
990.3830183485004
 20
70.94249663765996
 10
990.0932685723044
 20
70.81510344337633
 10
989.7626785837517
 20
70.56161888307173
 10
989.3464654906027
 20
70.24270815379049
 10
989.1799058631566
 20
69.98081750241784
 10
988.9757048013705
 20
69.66964335252672
 10
988.7001635507856
 20
69.25800525584427
 10
988.571170967494
 20
68.98090181134404
 10
988.3384784643001
 20
68.37283642735878
 10
988.1057115709198
 20
67.76120031442431
 10
987.8853678386756
 20
67.04943501053751
 10
987.7316777134836
 20
66.55712075665758
 10
987.7316777134836
 20
66.55712075665758
 10
986.1662106299771
 20
61.58153313641628
 10
986.1662106299771
 20
61.58153313641628
 10
986.1662106299771
 20
61.58153313641628
 10
985.2327625704909
 20
61.58153313641628
 10
985.2327625704909
 20
61.58153313641628
 10
985.2327625704909
 20
61.58153313641628
 10
988.4227625455403
 20
71.75762710560934
 10
988.4227625455403
 20
71.75762710560934
 97
        1
330
24A0
 92
       16
 93
        1
 72
     4
 94
        3
 73
     0
 74
     1
 95
       29
 96
       25
 40
0.0
 40
0.0
 40
0.0
 40
0.0
 40
1.0
 40
1.0
 40
1.0
 40
2.0
 40
2.0
 40
2.0
 40
3.0
 40
3.0
 40
3.0
 40
4.0
 40
4.0
 40
4.0
 40
5.0
 40
5.0
 40
5.0
 40
6.0
 40
6.0
 40
6.0
 40
7.0
 40
7.0
 40
7.0
 40
8.0
 40
8.0
 40
8.0
 40
8.0
 10
974.0214175716626
 20
63.47632557530645
 10
974.0174748917814
 20
64.18489210117616
 10
974.241166182416
 20
65.44379722635136
 10
974.8141937885864
 20
67.12821421798066
 10
975.594695624746
 20
69.4090545294168
 10
976.0627586778462
 20
70.24270815379049
 10
976.4723510444016
 20
70.64850662083717
 10
977.0707457041487
 20
71.23938787175408
 10
977.8752011803442
 20
71.2688463855855
 10
978.1125058750974
 20
71.23938787175408
 10
978.450237321548
 20
71.19884522014263
 10
978.9273015872075
 20
70.97779478112719
 10
978.9557930286153
 20
70.23363255104445
 10
978.978556425667
 20
69.59674096981257
 10
978.7950358357118
 20
68.4039687203852
 10
978.152676575776
 20
66.53153053252123
 10
977.4123454402959
 20
64.35569196924934
 10
976.967640905739
 20
63.50035360552755
 10
976.6111631323035
 20
63.12758438126156
 10
975.9395685290963
 20
62.42876296981586
 10
975.2193227439554
 20
62.49586291798744
 10
975.1130191675281
 20
62.49586291798744
 10
974.9749509814899
 20
62.49586291798744
 10
974.0233517165104
 20
62.64568475348372
 10
974.0214175716626
 20
63.47632557530645
 97
        1
330
24A2
 75
     0
 76
     1
 98
        1
 10
929.7307651966601
 20
36.16262959939627
1001
ACAD
1010
0.0
1020
0.0
1030
0.0
  0
POLYLINE
  5
2493
102
{ACAD_REACTORS
330
2492
330
24A3
102
}
330
A
100
AcDbEntity
  8
TEMPLATE
100
AcDb2dPolyline
 66
     1
 10
0.0
 20
0.0
 30
0.0
  0
VERTEX
  5
2494
330
2493
100
AcDbEntity
  8
TEMPLATE
100
AcDbVertex
100
AcDb2dVertex
 10
967.3017148351717
 20
76.58153313569332
 30
0.0
  0
VERTEX
  5
2495
330
2493
100
AcDbEntity
  8
TEMPLATE
100
AcDbVertex
100
AcDb2dVertex
 10
967.3017148351717
 20
73.6268293203631
 30
0.0
  0
VERTEX
  5
2496
330
2493
100
AcDbEntity
  8
TEMPLATE
100
AcDbVertex
100
AcDb2dVertex
 10
962.6214190600165
 20
73.6268293203631
 30
0.0
  0
VERTEX
  5
2497
330
2493
100
AcDbEntity
  8
TEMPLATE
100
AcDbVertex
100
AcDb2dVertex
 10
962.6214190600165
 20
61.58153313641628
 30
0.0
  0
VERTEX
  5
2498
330
2493
100
AcDbEntity
  8
TEMPLATE
100
AcDbVertex
100
AcDb2dVertex
 10
958.5051124833788
 20
61.58153313641628
 30
0.0
  0
VERTEX
  5
2499
330
2493
100
AcDbEntity
  8
TEMPLATE
100
AcDbVertex
100
AcDb2dVertex
 10
958.5051124833788
 20
73.6268293203631
 30
0.0
  0
VERTEX
  5
249A
330
2493
100
AcDbEntity
  8
TEMPLATE
100
AcDbVertex
100
AcDb2dVertex
 10
953.9077617661067
 20
73.6268293203631
 30
0.0
  0
VERTEX
  5
249B
330
2493
100
AcDbEntity
  8
TEMPLATE
100
AcDbVertex
100
AcDb2dVertex
 10
953.9077617661067
 20
76.58153313569332
 30
0.0
  0
VERTEX
  5
249C
330
2493
100
AcDbEntity
  8
TEMPLATE
100
AcDbVertex
100
AcDb2dVertex
 10
967.3017148351717
 20
76.58153313569332
 30
0.0
  0
SEQEND
  5
249D
330
2493
100
AcDbEntity
  8
TEMPLATE
  0
SPLINE
  5
249E
102
{ACAD_REACTORS
330
2492
330
24A3
102
}
330
A
100
AcDbEntity
  8
TEMPLATE
100
AcDbSpline
210
0.0
220
0.0
230
1.0
 70
    11
 71
     3
 72
    56
 73
    52
 74
     0
 42
0.000000001
 43
0.0000000001
 40
0.0
 40
0.0
 40
0.0
 40
0.0
 40
1.0
 40
1.0
 40
1.0
 40
2.0
 40
2.0
 40
2.0
 40
3.0
 40
3.0
 40
3.0
 40
4.0
 40
4.0
 40
4.0
 40
5.0
 40
5.0
 40
5.0
 40
6.0
 40
6.0
 40
6.0
 40
7.0
 40
7.0
 40
7.0
 40
8.0
 40
8.0
 40
8.0
 40
9.0
 40
9.0
 40
9.0
 40
10.0
 40
10.0
 40
10.0
 40
11.0
 40
11.0
 40
11.0
 40
12.0
 40
12.0
 40
12.0
 40
13.0
 40
13.0
 40
13.0
 40
14.0
 40
14.0
 40
14.0
 40
15.0
 40
15.0
 40
15.0
 40
16.0
 40
16.0
 40
16.0
 40
17.0
 40
17.0
 40
17.0
 40
17.0
 10
973.5728075523182
 20
76.22434865548715
 30
0.0
 10
974.1497406432779
 20
76.38674243249227
 30
0.0
 10
974.8945351899454
 20
76.2509059520473
 30
0.0
 10
974.8945351899454
 20
76.2509059520473
 30
0.0
 10
974.8945351899454
 20
76.2509059520473
 30
0.0
 10
974.5367183931537
 20
75.17712080583556
 30
0.0
 10
974.5367183931537
 20
75.17712080583556
 30
0.0
 10
974.5367183931537
 20
75.17712080583556
 30
0.0
 10
973.8055372506058
 20
75.3463212849002
 30
0.0
 10
973.2415852471802
 20
74.90161675034386
 30
0.0
 10
972.8033526588458
 20
74.55384262872275
 30
0.0
 10
972.5194425122852
 20
73.6297677327276
 30
0.0
 10
972.4105352793329
 20
73.2784228821572
 30
0.0
 10
972.4105352793329
 20
73.2784228821572
 30
0.0
 10
971.9249905324193
 20
71.78808988695778
 30
0.0
 10
971.9249905324193
 20
71.78808988695778
 30
0.0
 10
971.9249905324193
 20
71.78808988695778
 30
0.0
 10
973.5170521075795
 20
71.78808988695778
 30
0.0
 10
973.5170521075795
 20
71.78808988695778
 30
0.0
 10
973.5170521075795
 20
71.78808988695778
 30
0.0
 10
973.2694443720036
 20
70.85010402609774
 30
0.0
 10
973.2694443720036
 20
70.85010402609774
 30
0.0
 10
973.2694443720036
 20
70.85010402609774
 30
0.0
 10
971.6644017093092
 20
70.85010402609774
 30
0.0
 10
971.6644017093092
 20
70.85010402609774
 30
0.0
 10
971.6644017093092
 20
70.85010402609774
 30
0.0
 10
968.7926801469564
 20
61.58153313641628
 30
0.0
 10
968.7926801469564
 20
61.58153313641628
 30
0.0
 10
968.7926801469564
 20
61.58153313641628
 30
0.0
 10
967.8935631585125
 20
61.58153313641628
 30
0.0
 10
967.8935631585125
 20
61.58153313641628
 30
0.0
 10
967.8935631585125
 20
61.58153313641628
 30
0.0
 10
970.7678883773913
 20
70.85010402609774
 30
0.0
 10
970.7678883773913
 20
70.85010402609774
 30
0.0
 10
970.7678883773913
 20
70.85010402609774
 30
0.0
 10
969.5835222190324
 20
70.85010402609774
 30
0.0
 10
969.5835222190324
 20
70.85010402609774
 30
0.0
 10
969.5835222190324
 20
70.85010402609774
 30
0.0
 10
969.8317994662855
 20
71.78808988695778
 30
0.0
 10
969.8317994662855
 20
71.78808988695778
 30
0.0
 10
969.8317994662855
 20
71.78808988695778
 30
0.0
 10
971.0284772005014
 20
71.78808988695778
 30
0.0
 10
971.0284772005014
 20
71.78808988695778
 30
0.0
 10
971.0284772005014
 20
71.78808988695778
 30
0.0
 10
971.4517573613628
 20
73.08783522449019
 30
0.0
 10
971.4517573613628
 20
73.08783522449019
 30
0.0
 10
971.7940266091862
 20
74.17753987060073
 30
0.0
 10
972.0844458970603
 20
74.76258149188186
 30
0.0
 10
972.3333926559915
 20
75.20367810239571
 30
0.0
 10
972.579698563304
 20
75.64514666384179
 30
0.0
 10
973.0671774550653
 20
76.07880425571142
 30
0.0
 10
973.5728075523182
 20
76.22434865548715
 30
0.0
  0
SPLINE
  5
249F
102
{ACAD_REACTORS
330
2492
330
24A3
102
}
330
A
100
AcDbEntity
  8
TEMPLATE
100
AcDbSpline
210
0.0
220
0.0
230
1.0
 70
    11
 71
     3
 72
    38
 73
    34
 74
     0
 42
0.000000001
 43
0.0000000001
 40
0.0
 40
0.0
 40
0.0
 40
0.0
 40
1.0
 40
1.0
 40
1.0
 40
2.0
 40
2.0
 40
2.0
 40
3.0
 40
3.0
 40
3.0
 40
4.0
 40
4.0
 40
4.0
 40
5.0
 40
5.0
 40
5.0
 40
6.0
 40
6.0
 40
6.0
 40
7.0
 40
7.0
 40
7.0
 40
8.0
 40
8.0
 40
8.0
 40
9.0
 40
9.0
 40
9.0
 40
10.0
 40
10.0
 40
10.0
 40
11.0
 40
11.0
 40
11.0
 40
11.0
 10
983.3346969633965
 20
71.75212223181256
 30
0.0
 10
983.3346969633965
 20
71.75212223181256
 30
0.0
 10
984.2590694201378
 20
71.75212223181256
 30
0.0
 10
984.2590694201378
 20
71.75212223181256
 30
0.0
 10
984.2590694201378
 20
71.75212223181256
 30
0.0
 10
983.8461294951928
 20
70.43002264325406
 30
0.0
 10
983.8461294951928
 20
70.43002264325406
 30
0.0
 10
984.1599073016093
 20
70.80115528341824
 30
0.0
 10
984.6551227727603
 20
71.29544087723889
 30
0.0
 10
985.080411468655
 20
71.54468519691622
 30
0.0
 10
985.7157036608785
 20
71.9158178370804
 30
0.0
 10
986.0787277707202
 20
71.96476657975995
 30
0.0
 10
986.4779799013602
 20
71.9550214653359
 30
0.0
 10
986.4779799013602
 20
71.9550214653359
 30
0.0
 10
986.0878033734668
 20
70.70489438216094
 30
0.0
 10
986.0878033734668
 20
70.70489438216094
 30
0.0
 10
985.8336864965765
 20
70.81249978685082
 30
0.0
 10
985.0505810038919
 20
70.60766640847999
 30
0.0
 10
984.6013386679622
 20
70.28451543857147
 30
0.0
 10
984.196209712594
 20
69.9931290782742
 30
0.0
 10
983.9161306606354
 20
69.74518658685963
 30
0.0
 10
983.584276038913
 20
69.12187121465354
 30
0.0
 10
983.2549506835301
 20
68.49762596511695
 30
0.0
 10
982.9950313720981
 20
67.50224807541616
 30
0.0
 10
982.5477231810162
 20
66.05826016637073
 30
0.0
 10
982.5477231810162
 20
66.05826016637073
 30
0.0
 10
981.1507498698027
 20
61.58153313641628
 30
0.0
 10
981.1507498698027
 20
61.58153313641628
 30
0.0
 10
981.1507498698027
 20
61.58153313641628
 30
0.0
 10
980.2536042212994
 20
61.58153313641628
 30
0.0
 10
980.2536042212994
 20
61.58153313641628
 30
0.0
 10
980.2536042212994
 20
61.58153313641628
 30
0.0
 10
983.3346969633965
 20
71.75212223181256
 30
0.0
 10
983.3346969633965
 20
71.75212223181256
 30
0.0
  0
SPLINE
  5
24A0
102
{ACAD_REACTORS
330
2492
330
24A3
102
}
330
A
100
AcDbEntity
  8
TEMPLATE
100
AcDbSpline
210
0.0
220
0.0
230
1.0
 70
    11
 71
     3
 72
   104
 73
   100
 74
     0
 42
0.000000001
 43
0.0000000001
 40
0.0
 40
0.0
 40
0.0
 40
0.0
 40
1.0
 40
1.0
 40
1.0
 40
2.0
 40
2.0
 40
2.0
 40
3.0
 40
3.0
 40
3.0
 40
4.0
 40
4.0
 40
4.0
 40
5.0
 40
5.0
 40
5.0
 40
6.0
 40
6.0
 40
6.0
 40
7.0
 40
7.0
 40
7.0
 40
8.0
 40
8.0
 40
8.0
 40
9.0
 40
9.0
 40
9.0
 40
10.0
 40
10.0
 40
10.0
 40
11.0
 40
11.0
 40
11.0
 40
12.0
 40
12.0
 40
12.0
 40
13.0
 40
13.0
 40
13.0
 40
14.0
 40
14.0
 40
14.0
 40
15.0
 40
15.0
 40
15.0
 40
16.0
 40
16.0
 40
16.0
 40
17.0
 40
17.0
 40
17.0
 40
18.0
 40
18.0
 40
18.0
 40
19.0
 40
19.0
 40
19.0
 40
20.0
 40
20.0
 40
20.0
 40
21.0
 40
21.0
 40
21.0
 40
22.0
 40
22.0
 40
22.0
 40
23.0
 40
23.0
 40
23.0
 40
24.0
 40
24.0
 40
24.0
 40
25.0
 40
25.0
 40
25.0
 40
26.0
 40
26.0
 40
26.0
 40
27.0
 40
27.0
 40
27.0
 40
28.0
 40
28.0
 40
28.0
 40
29.0
 40
29.0
 40
29.0
 40
30.0
 40
30.0
 40
30.0
 40
31.0
 40
31.0
 40
31.0
 40
32.0
 40
32.0
 40
32.0
 40
33.0
 40
33.0
 40
33.0
 40
33.0
 10
988.4227625455403
 20
71.75762710560934
 30
0.0
 10
988.4227625455403
 20
71.75762710560934
 30
0.0
 10
989.2298216782599
 20
71.75762710560934
 30
0.0
 10
989.2298216782599
 20
71.75762710560934
 30
0.0
 10
989.2298216782599
 20
71.75762710560934
 30
0.0
 10
988.8220890663658
 20
70.43426288388127
 30
0.0
 10
988.8220890663658
 20
70.43426288388127
 30
0.0
 10
989.1759631832754
 20
70.98913928455974
 30
0.0
 10
989.4936092793876
 20
71.23644945938958
 30
0.0
 10
989.9156248070792
 20
71.55602970034877
 30
0.0
 10
990.3389049679397
 20
71.87107213993494
 30
0.0
 10
990.841336287175
 20
71.93527087083527
 30
0.0
 10
991.19007748122
 20
71.93527087083527
 30
0.0
 10
991.6218381233355
 20
71.93527087083527
 30
0.0
 10
992.0386463379762
 20
71.85001971717159
 30
0.0
 10
992.2577254370497
 20
71.37678654611435
 30
0.0
 10
992.4256240878528
 20
71.00569110104331
 30
0.0
 10
992.4334350574288
 20
70.96191247632157
 30
0.0
 10
992.3854533871734
 20
70.22939231041721
 30
0.0
 10
992.8242810970003
 20
70.9803984376527
 30
0.0
 10
993.1483991393322
 20
71.30388416340014
 30
0.0
 10
993.6994072503155
 20
71.6146863623591
 30
0.0
 10
994.2776421695378
 20
71.93527087083527
 30
0.0
 10
994.6147041043112
 20
71.95926170596317
 30
0.0
 10
995.0062940457472
 20
71.90153492128334
 30
0.0
 10
995.5831899416123
 20
71.8163209627129
 30
0.0
 10
995.9514213645059
 20
71.61048331682503
 30
0.0
 10
996.1439431670203
 20
70.98493623902573
 30
0.0
 10
996.3371344812128
 20
70.3613233060739
 30
0.0
 10
996.2327650496334
 20
70.02682783273289
 30
0.0
 10
995.9941957217104
 20
69.03405359955758
 30
0.0
 10
995.8852884887581
 20
68.58191004635688
 30
0.0
 10
995.7277300738713
 20
68.03443546922952
 30
0.0
 10
995.5215948672374
 20
67.38300060654797
 30
0.0
 10
995.5215948672374
 20
67.38300060654797
 30
0.0
 10
993.6994072503155
 20
61.58153313641628
 30
0.0
 10
993.6994072503155
 20
61.58153313641628
 30
0.0
 10
993.6994072503155
 20
61.58153313641628
 30
0.0
 10
992.7516762750327
 20
61.58153313641628
 30
0.0
 10
992.7516762750327
 20
61.58153313641628
 30
0.0
 10
992.7516762750327
 20
61.58153313641628
 30
0.0
 10
994.3470482134887
 20
66.65338165791485
 30
0.0
 10
994.3470482134887
 20
66.65338165791485
 30
0.0
 10
994.6802418585673
 20
67.71455766752453
 30
0.0
 10
994.9057929038624
 20
68.48951743479464
 30
0.0
 10
995.0225111063917
 20
68.97539693754726
 30
0.0
 10
995.1689853834976
 20
69.58149098159171
 30
0.0
 10
995.2273072896694
 20
69.78148899784378
 30
0.0
 10
995.157975635904
 20
70.22262280345092
 30
0.0
 10
995.0944464166821
 20
70.63325663261634
 30
0.0
 10
994.886972186692
 20
70.9006521577858
 30
0.0
 10
994.5317590464272
 20
70.9006521577858
 30
0.0
 10
994.1531873876181
 20
70.9006521577858
 30
0.0
 10
993.8465510391004
 20
70.85851011716579
 30
0.0
 10
993.4174684436964
 20
70.42745618182173
 30
0.0
 10
992.9883114581078
 20
69.9931290782742
 30
0.0
 10
992.6336934393337
 20
69.48329593548695
 30
0.0
 10
992.3556229224093
 20
68.8969524859431
 30
0.0
 10
992.0781475269766
 20
68.30703830744997
 30
0.0
 10
991.7968038418492
 20
67.55930534841795
 30
0.0
 10
991.5115918670269
 20
66.65338165791485
 30
0.0
 10
991.5115918670269
 20
66.65338165791485
 30
0.0
 10
989.9156248070792
 20
61.58153313641628
 30
0.0
 10
989.9156248070792
 20
61.58153313641628
 30
0.0
 10
989.9156248070792
 20
61.58153313641628
 30
0.0
 10
989.0242815931185
 20
61.58153313641628
 30
0.0
 10
989.0242815931185
 20
61.58153313641628
 30
0.0
 10
989.0242815931185
 20
61.58153313641628
 30
0.0
 10
990.8490728665654
 20
67.38039695002249
 30
0.0
 10
990.8490728665654
 20
67.38039695002249
 30
0.0
 10
991.0415946690798
 20
67.99753793675379
 30
0.0
 10
991.1862091915252
 20
68.50056437748145
 30
0.0
 10
991.281503020359
 20
68.89371651283278
 30
0.0
 10
991.4435248464313
 20
69.57048123399818
 30
0.0
 10
991.4889028601626
 20
70.0281296609956
 30
0.0
 10
991.3663822230899
 20
70.43426288388127
 30
0.0
 10
991.2457957308659
 20
70.83909427850418
 30
0.0
 10
991.0338580896903
 20
70.94249663765996
 30
0.0
 10
990.6799095825943
 20
70.94249663765996
 30
0.0
 10
990.3830183485004
 20
70.94249663765996
 30
0.0
 10
990.0932685723044
 20
70.81510344337633
 30
0.0
 10
989.7626785837517
 20
70.56161888307173
 30
0.0
 10
989.3464654906027
 20
70.24270815379049
 30
0.0
 10
989.1799058631566
 20
69.98081750241784
 30
0.0
 10
988.9757048013705
 20
69.66964335252672
 30
0.0
 10
988.7001635507856
 20
69.25800525584427
 30
0.0
 10
988.571170967494
 20
68.98090181134404
 30
0.0
 10
988.3384784643001
 20
68.37283642735878
 30
0.0
 10
988.1057115709198
 20
67.76120031442431
 30
0.0
 10
987.8853678386756
 20
67.04943501053751
 30
0.0
 10
987.7316777134836
 20
66.55712075665758
 30
0.0
 10
987.7316777134836
 20
66.55712075665758
 30
0.0
 10
986.1662106299771
 20
61.58153313641628
 30
0.0
 10
986.1662106299771
 20
61.58153313641628
 30
0.0
 10
986.1662106299771
 20
61.58153313641628
 30
0.0
 10
985.2327625704909
 20
61.58153313641628
 30
0.0
 10
985.2327625704909
 20
61.58153313641628
 30
0.0
 10
985.2327625704909
 20
61.58153313641628
 30
0.0
 10
988.4227625455403
 20
71.75762710560934
 30
0.0
 10
988.4227625455403
 20
71.75762710560934
 30
0.0
  0
SPLINE
  5
24A1
102
{ACAD_REACTORS
330
2492
330
24A3
102
}
330
A
100
AcDbEntity
  8
TEMPLATE
100
AcDbSpline
210
0.0
220
0.0
230
1.0
 70
    11
 71
     3
 72
    32
 73
    28
 74
     0
 42
0.000000001
 43
0.0000000001
 40
0.0
 40
0.0
 40
0.0
 40
0.0
 40
1.0
 40
1.0
 40
1.0
 40
2.0
 40
2.0
 40
2.0
 40
3.0
 40
3.0
 40
3.0
 40
4.0
 40
4.0
 40
4.0
 40
5.0
 40
5.0
 40
5.0
 40
6.0
 40
6.0
 40
6.0
 40
7.0
 40
7.0
 40
7.0
 40
8.0
 40
8.0
 40
8.0
 40
9.0
 40
9.0
 40
9.0
 40
9.0
 10
975.760585740514
 20
71.22123666626197
 30
0.0
 10
975.2193227439554
 20
70.52111342655351
 30
0.0
 10
974.8025145293147
 20
69.89102854738113
 30
0.0
 10
974.1277211480899
 20
67.91065019898832
 30
0.0
 10
973.5073441882485
 20
66.09917476891434
 30
0.0
 10
973.1125554687958
 20
64.78127822588988
 30
0.0
 10
973.0529317343623
 20
63.17623556319532
 30
0.0
 10
973.007553720631
 20
61.98182672966618
 30
0.0
 10
973.7348665734851
 20
61.58153313641628
 30
0.0
 10
974.801249896145
 20
61.58153313641628
 30
0.0
 10
975.2608324679911
 20
61.58153313641628
 30
0.0
 10
976.420575474637
 20
61.61076847968843
 30
0.0
 10
977.2464553245279
 20
62.6316993984324
 30
0.0
 10
977.8246158535619
 20
63.34896957611602
 30
0.0
 10
978.3574727590537
 20
64.092499489614
 30
0.0
 10
979.0718417194655
 20
66.53153053252123
 30
0.0
 10
979.6662936993323
 20
68.57056554292433
 30
0.0
 10
980.0778946009211
 20
69.88842489085562
 30
0.0
 10
980.0474690146664
 20
70.63876150641318
 30
0.0
 10
980.0474690146664
 20
70.63876150641318
 30
0.0
 10
980.0474690146664
 20
70.63876150641318
 30
0.0
 10
980.0474690146664
 20
70.63876150641318
 30
0.0
 10
979.8536081887958
 20
71.89052517368981
 30
0.0
 10
978.9447832810217
 20
72.155019481588
 30
0.0
 10
978.4255397796494
 20
72.155019481588
 30
0.0
 10
977.914107247853
 20
72.155019481588
 30
0.0
 10
976.5436912332004
 20
72.24350660836194
 30
0.0
 10
975.760585740514
 20
71.22123666626197
 30
0.0
  0
SPLINE
  5
24A2
102
{ACAD_REACTORS
330
2492
330
24A3
102
}
330
A
100
AcDbEntity
  8
TEMPLATE
100
AcDbSpline
210
0.0
220
0.0
230
1.0
 70
    11
 71
     3
 72
    29
 73
    25
 74
     0
 42
0.000000001
 43
0.0000000001
 40
0.0
 40
0.0
 40
0.0
 40
0.0
 40
1.0
 40
1.0
 40
1.0
 40
2.0
 40
2.0
 40
2.0
 40
3.0
 40
3.0
 40
3.0
 40
4.0
 40
4.0
 40
4.0
 40
5.0
 40
5.0
 40
5.0
 40
6.0
 40
6.0
 40
6.0
 40
7.0
 40
7.0
 40
7.0
 40
8.0
 40
8.0
 40
8.0
 40
8.0
 10
974.0214175716626
 20
63.47632557530645
 30
0.0
 10
974.0174748917814
 20
64.18489210117616
 30
0.0
 10
974.241166182416
 20
65.44379722635136
 30
0.0
 10
974.8141937885864
 20
67.12821421798066
 30
0.0
 10
975.594695624746
 20
69.4090545294168
 30
0.0
 10
976.0627586778462
 20
70.24270815379049
 30
0.0
 10
976.4723510444016
 20
70.64850662083717
 30
0.0
 10
977.0707457041487
 20
71.23938787175408
 30
0.0
 10
977.8752011803442
 20
71.2688463855855
 30
0.0
 10
978.1125058750974
 20
71.23938787175408
 30
0.0
 10
978.450237321548
 20
71.19884522014263
 30
0.0
 10
978.9273015872075
 20
70.97779478112719
 30
0.0
 10
978.9557930286153
 20
70.23363255104445
 30
0.0
 10
978.978556425667
 20
69.59674096981257
 30
0.0
 10
978.7950358357118
 20
68.4039687203852
 30
0.0
 10
978.152676575776
 20
66.53153053252123
 30
0.0
 10
977.4123454402959
 20
64.35569196924934
 30
0.0
 10
976.967640905739
 20
63.50035360552755
 30
0.0
 10
976.6111631323035
 20
63.12758438126156
 30
0.0
 10
975.9395685290963
 20
62.42876296981586
 30
0.0
 10
975.2193227439554
 20
62.49586291798744
 30
0.0
 10
975.1130191675281
 20
62.49586291798744
 30
0.0
 10
974.9749509814899
 20
62.49586291798744
 30
0.0
 10
974.0233517165104
 20
62.64568475348372
 30
0.0
 10
974.0214175716626
 20
63.47632557530645
 30
0.0
  0
LINE
  5
3605
330
A
100
AcDbEntity
  8
MODEL
  6
Continuous
100
AcDbLine
 10
396.9447463779366
 20
393.5270880106276
 30
0.0
 11
395.9472463779389
 21
394.5245880106256
 31
0.0
  0
LINE
  5
3606
330
A
100
AcDbEntity
  8
MODEL
  6
Continuous
100
AcDbLine
 10
416.942246377936
 20
394.5245880106236
 30
0.0
 11
395.9472463779371
 21
394.5245880106236
 31
0.0
  0
LINE
  5
3607
330
A
100
AcDbEntity
  8
MODEL
  6
Continuous
100
AcDbLine
 10
415.9447463779366
 20
393.5270880106276
 30
0.0
 11
416.9422463779342
 21
394.5245880106256
 31
0.0
  0
LINE
  5
3608
330
A
100
AcDbEntity
  8
MODEL
  6
Continuous
100
AcDbLine
 10
416.9422463778287
 20
407.9245880106236
 30
0.0
 11
416.9422463754295
 21
394.5245880106236
 31
0.0
  0
LINE
  5
3609
330
A
100
AcDbEntity
  8
MODEL
  6
Continuous
100
AcDbLine
 10
395.9472463780444
 20
407.9245880106236
 30
0.0
 11
395.9472463804436
 21
394.5245880106236
 31
0.0
  0
LINE
  5
360A
330
A
100
AcDbEntity
  8
MODEL
  6
Continuous
100
AcDbLine
 10
415.9447463779366
 20
393.5245880106236
 30
0.0
 11
396.9447463779366
 21
393.5245880106236
 31
0.0
  0
LINE
  5
360B
330
A
100
AcDbEntity
  8
MODEL
  6
Continuous
100
AcDbLine
 10
395.9472463779371
 20
407.5245880106235
 30
0.0
 11
416.942246377936
 21
407.5245880106235
 31
0.0
  0
LINE
  5
360C
330
A
100
AcDbEntity
  8
MODEL
  6
Continuous
100
AcDbLine
 10
431.9005905006566
 20
380.2245868979134
 30
0.0
 11
433.5315411436864
 21
380.2245868979134
 31
0.0
  0
LWPOLYLINE
  5
360D
330
A
100
AcDbEntity
  8
MODEL
  6
Continuous
100
AcDbPolyline
 90
        8
 70
     0
 43
0.0
 10
431.9005785831819
 20
382.3245929118474
 10
432.2684985050569
 20
382.2219775554021
 10
432.5531664738069
 20
382.0014727946599
 10
432.7924242863069
 20
381.7174151774724
 10
433.0016528019319
 20
381.390907609113
 10
433.1901293644319
 20
381.0347674723943
 10
433.3617602238069
 20
380.6550982829411
 10
433.5314379581819
 20
380.2245868083318
  0
LINE
  5
360E
330
A
100
AcDbEntity
  8
MODEL
  6
Continuous
100
AcDbLine
 10
431.9005905006566
 20
384.2245868979134
 30
0.0
 11
433.5315411436864
 21
384.2245868979134
 31
0.0
  0
LWPOLYLINE
  5
360F
330
A
100
AcDbEntity
  8
MODEL
  6
Continuous
100
AcDbPolyline
 90
        8
 70
     0
 43
0.0
 10
431.9005785831819
 20
386.3245929118474
 10
432.2684985050569
 20
386.2219775554021
 10
432.5531664738069
 20
386.0014727946599
 10
432.7924242863069
 20
385.7174151774724
 10
433.0016528019319
 20
385.390907609113
 10
433.1901293644319
 20
385.0347674723943
 10
433.3617602238069
 20
384.6550982829411
 10
433.5314379581819
 20
384.2245868083318
  0
LINE
  5
3610
330
A
100
AcDbEntity
  8
MODEL
  6
Continuous
100
AcDbLine
 10
431.9005905006566
 20
388.2245868979134
 30
0.0
 11
433.5315411436864
 21
388.2245868979134
 31
0.0
  0
LWPOLYLINE
  5
3611
330
A
100
AcDbEntity
  8
MODEL
  6
Continuous
100
AcDbPolyline
 90
        8
 70
     0
 43
0.0
 10
431.9005785831819
 20
390.3245929118474
 10
432.2684985050569
 20
390.2219775554021
 10
432.5531664738069
 20
390.0014727946599
 10
432.7924242863069
 20
389.7174151774724
 10
433.0016528019319
 20
389.390907609113
 10
433.1901293644319
 20
389.0347674723943
 10
433.3617602238069
 20
388.6550982829411
 10
433.5314379581819
 20
388.2245868083318
  0
LINE
  5
3612
330
A
100
AcDbEntity
  8
MODEL
  6
Continuous
100
AcDbLine
 10
431.9005905006566
 20
392.2245868979134
 30
0.0
 11
433.5315411436864
 21
392.2245868979134
 31
0.0
  0
LWPOLYLINE
  5
3613
330
A
100
AcDbEntity
  8
MODEL
  6
Continuous
100
AcDbPolyline
 90
        8
 70
     0
 43
0.0
 10
431.9005785831819
 20
394.3245929118474
 10
432.2684985050569
 20
394.2219775554021
 10
432.5531664738069
 20
394.0014727946599
 10
432.7924242863069
 20
393.7174151774724
 10
433.0016528019319
 20
393.390907609113
 10
433.1901293644319
 20
393.0347674723943
 10
433.3617602238069
 20
392.6550982829411
 10
433.5314379581819
 20
392.2245868083318
  0
LINE
  5
3614
330
A
100
AcDbEntity
  8
MODEL
  6
Continuous
100
AcDbLine
 10
431.9005905006566
 20
396.2245868979134
 30
0.0
 11
433.5315411436864
 21
396.2245868979134
 31
0.0
  0
LWPOLYLINE
  5
3615
330
A
100
AcDbEntity
  8
MODEL
  6
Continuous
100
AcDbPolyline
 90
        8
 70
     0
 43
0.0
 10
431.9005785831819
 20
398.3245929118474
 10
432.2684985050569
 20
398.2219775554021
 10
432.5531664738069
 20
398.0014727946599
 10
432.7924242863069
 20
397.7174151774724
 10
433.0016528019319
 20
397.390907609113
 10
433.1901293644319
 20
397.0347674723943
 10
433.3617602238069
 20
396.6550982829411
 10
433.5314379581819
 20
396.2245868083318
  0
LINE
  5
3616
330
A
100
AcDbEntity
  8
MODEL
  6
Continuous
100
AcDbLine
 10
431.9005905006566
 20
400.2245868979134
 30
0.0
 11
433.5315411436864
 21
400.2245868979134
 31
0.0
  0
LWPOLYLINE
  5
3617
330
A
100
AcDbEntity
  8
MODEL
  6
Continuous
100
AcDbPolyline
 90
        8
 70
     0
 43
0.0
 10
431.9005785831819
 20
402.3245929118474
 10
432.2684985050569
 20
402.2219775554021
 10
432.5531664738069
 20
402.0014727946599
 10
432.7924242863069
 20
401.7174151774724
 10
433.0016528019319
 20
401.390907609113
 10
433.1901293644319
 20
401.0347674723943
 10
433.3617602238069
 20
400.6550982829411
 10
433.5314379581819
 20
400.2245868083318
  0
LINE
  5
3618
330
A
100
AcDbEntity
  8
MODEL
  6
Continuous
100
AcDbLine
 10
431.9005905006566
 20
404.2245868979134
 30
0.0
 11
433.5315411436864
 21
404.2245868979134
 31
0.0
  0
LWPOLYLINE
  5
3619
330
A
100
AcDbEntity
  8
MODEL
  6
Continuous
100
AcDbPolyline
 90
        8
 70
     0
 43
0.0
 10
431.9005785831819
 20
406.3245929118474
 10
432.2684985050569
 20
406.2219775554021
 10
432.5531664738069
 20
406.0014727946599
 10
432.7924242863069
 20
405.7174151774724
 10
433.0016528019319
 20
405.390907609113
 10
433.1901293644319
 20
405.0347674723943
 10
433.3617602238069
 20
404.6550982829411
 10
433.5314379581819
 20
404.2245868083318
  0
LINE
  5
361A
330
A
100
AcDbEntity
  8
MODEL
  6
Continuous
100
AcDbLine
 10
435.469641494969
 20
377.1745868214184
 30
0.0
 11
435.469641494969
 21
405.7345868214185
 31
0.0
  0
LINE
  5
361B
330
A
100
AcDbEntity
  8
MODEL
  6
Continuous
100
AcDbLine
 10
435.469641494969
 20
377.1745868979133
 30
0.0
 11
435.6932841344737
 21
377.1745868979133
 31
0.0
  0
LINE
  5
361C
330
A
100
AcDbEntity
  8
MODEL
  6
Continuous
100
AcDbLine
 10
435.6932841344747
 20
377.1745868458968
 30
0.0
 11
435.6932841344747
 21
402.3745868458967
 31
0.0
  0
LINE
  5
361D
330
A
100
AcDbEntity
  8
MODEL
  6
Continuous
100
AcDbLine
 10
435.469641494969
 20
405.7345868979133
 30
0.0
 11
435.8755905006569
 21
405.7345868979133
 31
0.0
  0
LINE
  5
361E
330
A
100
AcDbEntity
  8
MODEL
  6
Continuous
100
AcDbLine
 10
428.3315395063441
 20
405.7345868214182
 30
0.0
 11
428.3315395063441
 21
377.1745868214184
 31
0.0
  0
LINE
  5
361F
330
A
100
AcDbEntity
  8
MODEL
  6
Continuous
100
AcDbLine
 10
435.2455894271084
 20
373.1745868979133
 30
0.0
 11
431.9005905006566
 21
373.1745868979133
 31
0.0
  0
LINE
  5
3620
330
A
100
AcDbEntity
  8
MODEL
  6
Continuous
100
AcDbLine
 10
431.9005905006566
 20
373.1745868979133
 30
0.0
 11
428.5555915742048
 21
373.1745868979133
 31
0.0
  0
LINE
  5
3621
330
A
100
AcDbEntity
  8
MODEL
  6
Continuous
100
AcDbLine
 10
428.2055905006569
 20
375.9745868979134
 30
0.0
 11
431.9005905006566
 21
375.9745868979134
 31
0.0
  0
LINE
  5
3622
330
A
100
AcDbEntity
  8
MODEL
  6
Continuous
100
AcDbLine
 10
435.5955905006563
 20
375.9745868979134
 30
0.0
 11
431.9005905006566
 21
375.9745868979134
 31
0.0
  0
LWPOLYLINE
  5
3623
330
A
100
AcDbEntity
  8
MODEL
  6
Continuous
100
AcDbPolyline
 90
        8
 70
     0
 43
0.0
 10
430.2697192081819
 20
404.2245868083318
 10
430.4267016300569
 20
404.6247180339177
 10
430.5971117863069
 20
405.0060046550115
 10
430.7841235050569
 20
405.3641742106755
 10
430.9913988956819
 20
405.6933062907536
 10
431.2282153019319
 20
405.9813159343083
 10
431.5082445988069
 20
406.2078936930974
 10
431.9005785831819
 20
406.3245929118474
  0
LINE
  5
3624
330
A
100
AcDbEntity
  8
MODEL
  6
Continuous
100
AcDbLine
 10
430.2696398576268
 20
404.2245868979134
 30
0.0
 11
431.9005905006566
 21
404.2245868979134
 31
0.0
  0
LWPOLYLINE
  5
3625
330
A
100
AcDbEntity
  8
MODEL
  6
Continuous
100
AcDbPolyline
 90
        8
 70
     0
 43
0.0
 10
430.2697192081819
 20
400.2245868083318
 10
430.4267016300569
 20
400.6247180339177
 10
430.5971117863069
 20
401.0060046550115
 10
430.7841235050569
 20
401.3641742106755
 10
430.9913988956819
 20
401.6933062907536
 10
431.2282153019319
 20
401.9813159343083
 10
431.5082445988069
 20
402.2078936930974
 10
431.9005785831819
 20
402.3245929118474
  0
LINE
  5
3626
330
A
100
AcDbEntity
  8
MODEL
  6
Continuous
100
AcDbLine
 10
430.2696398576268
 20
400.2245868979134
 30
0.0
 11
431.9005905006566
 21
400.2245868979134
 31
0.0
  0
LWPOLYLINE
  5
3627
330
A
100
AcDbEntity
  8
MODEL
  6
Continuous
100
AcDbPolyline
 90
        8
 70
     0
 43
0.0
 10
430.2697192081819
 20
396.2245868083318
 10
430.4267016300569
 20
396.6247180339177
 10
430.5971117863069
 20
397.0060046550115
 10
430.7841235050569
 20
397.3641742106755
 10
430.9913988956819
 20
397.6933062907536
 10
431.2282153019319
 20
397.9813159343083
 10
431.5082445988069
 20
398.2078936930974
 10
431.9005785831819
 20
398.3245929118474
  0
LINE
  5
3628
330
A
100
AcDbEntity
  8
MODEL
  6
Continuous
100
AcDbLine
 10
430.2696398576268
 20
396.2245868979134
 30
0.0
 11
431.9005905006566
 21
396.2245868979134
 31
0.0
  0
LWPOLYLINE
  5
3629
330
A
100
AcDbEntity
  8
MODEL
  6
Continuous
100
AcDbPolyline
 90
        8
 70
     0
 43
0.0
 10
430.2697192081819
 20
392.2245868083318
 10
430.4267016300569
 20
392.6247180339177
 10
430.5971117863069
 20
393.0060046550115
 10
430.7841235050569
 20
393.3641742106755
 10
430.9913988956819
 20
393.6933062907536
 10
431.2282153019319
 20
393.9813159343083
 10
431.5082445988069
 20
394.2078936930974
 10
431.9005785831819
 20
394.3245929118474
  0
LINE
  5
362A
330
A
100
AcDbEntity
  8
MODEL
  6
Continuous
100
AcDbLine
 10
430.2696398576268
 20
392.2245868979134
 30
0.0
 11
431.9005905006566
 21
392.2245868979134
 31
0.0
  0
LWPOLYLINE
  5
362B
330
A
100
AcDbEntity
  8
MODEL
  6
Continuous
100
AcDbPolyline
 90
        8
 70
     0
 43
0.0
 10
430.2697192081819
 20
388.2245868083318
 10
430.4267016300569
 20
388.6247180339177
 10
430.5971117863069
 20
389.0060046550115
 10
430.7841235050569
 20
389.3641742106755
 10
430.9913988956819
 20
389.6933062907536
 10
431.2282153019319
 20
389.9813159343083
 10
431.5082445988069
 20
390.2078936930974
 10
431.9005785831819
 20
390.3245929118474
  0
LINE
  5
362C
330
A
100
AcDbEntity
  8
MODEL
  6
Continuous
100
AcDbLine
 10
430.2696398576268
 20
388.2245868979134
 30
0.0
 11
431.9005905006566
 21
388.2245868979134
 31
0.0
  0
LWPOLYLINE
  5
362D
330
A
100
AcDbEntity
  8
MODEL
  6
Continuous
100
AcDbPolyline
 90
        8
 70
     0
 43
0.0
 10
430.2697192081819
 20
384.2245868083318
 10
430.4267016300569
 20
384.6247180339177
 10
430.5971117863069
 20
385.0060046550115
 10
430.7841235050569
 20
385.3641742106755
 10
430.9913988956819
 20
385.6933062907536
 10
431.2282153019319
 20
385.9813159343083
 10
431.5082445988069
 20
386.2078936930974
 10
431.9005785831819
 20
386.3245929118474
  0
LINE
  5
362E
330
A
100
AcDbEntity
  8
MODEL
  6
Continuous
100
AcDbLine
 10
430.2696398576268
 20
384.2245868979134
 30
0.0
 11
431.9005905006566
 21
384.2245868979134
 31
0.0
  0
LWPOLYLINE
  5
362F
330
A
100
AcDbEntity
  8
MODEL
  6
Continuous
100
AcDbPolyline
 90
        8
 70
     0
 43
0.0
 10
430.2697192081819
 20
380.2245868083318
 10
430.4267016300569
 20
380.6247180339177
 10
430.5971117863069
 20
381.0060046550115
 10
430.7841235050569
 20
381.3641742106755
 10
430.9913988956819
 20
381.6933062907536
 10
431.2282153019319
 20
381.9813159343083
 10
431.5082445988069
 20
382.2078936930974
 10
431.9005785831819
 20
382.3245929118474
  0
LINE
  5
3630
330
A
100
AcDbEntity
  8
MODEL
  6
Continuous
100
AcDbLine
 10
430.2696398576268
 20
380.2245868979134
 30
0.0
 11
431.9005905006566
 21
380.2245868979134
 31
0.0
  0
LINE
  5
3631
330
A
100
AcDbEntity
  8
MODEL
  6
Continuous
100
AcDbLine
 10
427.9255905006562
 20
405.7345868979133
 30
0.0
 11
428.3315395063441
 21
405.7345868979133
 31
0.0
  0
LINE
  5
3632
330
A
100
AcDbEntity
  8
MODEL
  6
Continuous
100
AcDbLine
 10
428.1078968668385
 20
377.1745868458968
 30
0.0
 11
428.1078968668385
 21
402.3745868458967
 31
0.0
  0
LINE
  5
3633
330
A
100
AcDbEntity
  8
MODEL
  6
Continuous
100
AcDbLine
 10
428.1078968668394
 20
377.1745868979133
 30
0.0
 11
428.3315395063441
 21
377.1745868979133
 31
0.0
  0
LINE
  5
3634
330
A
100
AcDbEntity
  8
MODEL
  6
Continuous
100
AcDbLine
 10
436.540590500656
 20
405.1745868458967
 30
0.0
 11
435.4696414949681
 21
405.1745868458967
 31
0.0
  0
LINE
  5
3635
330
A
100
AcDbEntity
  8
MODEL
  6
Continuous
100
AcDbLine
 10
428.3315395063441
 20
405.1745868458967
 30
0.0
 11
427.2605905006562
 21
405.1745868458967
 31
0.0
  0
LINE
  5
3636
330
A
100
AcDbEntity
  8
MODEL
  6
Continuous
100
AcDbLine
 10
436.540590500656
 20
405.1745868458967
 30
0.0
 11
435.6932841344737
 21
402.3745868458968
 31
0.0
  0
LINE
  5
3637
330
A
100
AcDbEntity
  8
MODEL
  6
Continuous
100
AcDbLine
 10
427.2605905006571
 20
405.1745868458967
 30
0.0
 11
428.1078968668394
 21
402.3745868458968
 31
0.0
  0
LINE
  5
3638
330
A
100
AcDbEntity
  8
MODEL
  6
Continuous
100
AcDbLine
 10
427.9255905006562
 20
376.4595611140334
 30
0.0
 11
427.9255905006562
 21
402.9771025108288
 31
0.0
  0
LINE
  5
3639
330
A
100
AcDbEntity
  8
MODEL
  6
Continuous
100
AcDbLine
 10
427.9255905006562
 20
405.7345868979133
 30
0.0
 11
427.9255905006562
 21
407.9245868979132
 31
0.0
  0
LINE
  5
363A
330
A
100
AcDbEntity
  8
MODEL
  6
Continuous
100
AcDbLine
 10
428.2055905006569
 20
375.9745868979134
 30
0.0
 11
427.9255905006562
 21
376.4595611240333
 31
0.0
  0
LINE
  5
363B
330
A
100
AcDbEntity
  8
MODEL
  6
Continuous
100
AcDbLine
 10
435.8755905006569
 20
376.4595611240333
 30
0.0
 11
435.5955905006563
 21
375.9745868979135
 31
0.0
  0
LINE
  5
363C
330
A
100
AcDbEntity
  8
MODEL
  6
Continuous
100
AcDbLine
 10
435.5955905006563
 20
373.5245868879133
 30
0.0
 11
435.5955905006563
 21
375.9745868979134
 31
0.0
  0
LINE
  5
363D
330
A
100
AcDbEntity
  8
MODEL
  6
Continuous
100
AcDbLine
 10
428.2055905006569
 20
373.5245868879133
 30
0.0
 11
428.2055905006569
 21
375.9745868979134
 31
0.0
  0
ARC
  5
363E
330
A
100
AcDbEntity
  8
MODEL
  6
Continuous
100
AcDbCircle
 10
428.5556543925309
 20
373.5246507899833
 30
0.0
 40
0.3500638977046805
100
AcDbArc
 50
180.0104573650669
 51
269.9897183768176
  0
ARC
  5
363F
330
A
100
AcDbEntity
  8
MODEL
  6
Continuous
100
AcDbCircle
 10
435.2455266087823
 20
373.5246507899839
 30
0.0
 40
0.3500638977051993
100
AcDbArc
 50
270.0102816231824
 51
359.9895426348402
  0
LINE
  5
3640
330
A
100
AcDbEntity
  8
MODEL
  6
Continuous
100
AcDbLine
 10
435.8755905006569
 20
376.4595611140334
 30
0.0
 11
435.8755905006569
 21
402.9771025108288
 31
0.0
  0
LINE
  5
3641
330
A
100
AcDbEntity
  8
MODEL
  6
Continuous
100
AcDbLine
 10
435.8755905006569
 20
405.7345868979133
 30
0.0
 11
435.8755905006569
 21
407.9245868979132
 31
0.0
  0
ARC
  5
3642
330
A
100
AcDbEntity
  8
MODEL
  6
Continuous
100
AcDbCircle
 10
353.4889022552165
 20
379.2141657061933
 30
0.0
 40
30.0
100
AcDbArc
 50
336.44353569096
 51
348.3858816631733
  0
ARC
  5
3643
330
A
100
AcDbEntity
  8
MODEL
  6
Continuous
100
AcDbCircle
 10
408.4889022552165
 20
379.2141657061933
 30
0.0
 40
30.0
100
AcDbArc
 50
191.6141183368265
 51
203.5564643090399
  0
LINE
  5
3644
330
A
100
AcDbEntity
  8
MODEL
  6
Continuous
100
AcDbLine
 10
384.6139022552165
 20
380.2245868266222
 30
0.0
 11
384.9639022552169
 21
382.3245868979134
 31
0.0
  0
LINE
  5
3645
330
A
100
AcDbEntity
  8
MODEL
  6
Continuous
100
AcDbLine
 10
384.6139022552165
 20
380.2245868979134
 30
0.0
 11
384.9639022552169
 21
380.2245868979134
 31
0.0
  0
LINE
  5
3646
330
A
100
AcDbEntity
  8
MODEL
  6
Continuous
100
AcDbLine
 10
384.9639022552169
 20
380.2245868979134
 30
0.0
 11
384.9639022552169
 21
376.4595611240333
 31
0.0
  0
LINE
  5
3647
330
A
100
AcDbEntity
  8
MODEL
  6
Continuous
100
AcDbLine
 10
377.0139022552162
 20
380.2245868979134
 30
0.0
 11
377.0139022552162
 21
376.4595611240333
 31
0.0
  0
LINE
  5
3648
330
A
100
AcDbEntity
  8
MODEL
  6
Continuous
100
AcDbLine
 10
377.0139022552162
 20
380.2245868979134
 30
0.0
 11
377.3639022552165
 21
380.2245868979134
 31
0.0
  0
LINE
  5
3649
330
A
100
AcDbEntity
  8
MODEL
  6
Continuous
100
AcDbLine
 10
377.0139022552162
 20
382.3245868979133
 30
0.0
 11
377.3639022552165
 21
380.2245868266222
 31
0.0
  0
LINE
  5
364A
330
A
100
AcDbEntity
  8
MODEL
  6
Continuous
100
AcDbLine
 10
377.0139022552162
 20
384.2245868979134
 30
0.0
 11
377.0139022552162
 21
382.3245868979133
 31
0.0
  0
LINE
  5
364B
330
A
100
AcDbEntity
  8
MODEL
  6
Continuous
100
AcDbLine
 10
377.0139022552162
 20
384.2245868979134
 30
0.0
 11
377.3639022552165
 21
384.2245868979134
 31
0.0
  0
LINE
  5
364C
330
A
100
AcDbEntity
  8
MODEL
  6
Continuous
100
AcDbLine
 10
377.0139022552162
 20
386.3245868979133
 30
0.0
 11
377.3639022552165
 21
384.2245868266222
 31
0.0
  0
LINE
  5
364D
330
A
100
AcDbEntity
  8
MODEL
  6
Continuous
100
AcDbLine
 10
377.0139022552162
 20
388.2245868979134
 30
0.0
 11
377.0139022552162
 21
386.3245868979133
 31
0.0
  0
LINE
  5
364E
330
A
100
AcDbEntity
  8
MODEL
  6
Continuous
100
AcDbLine
 10
377.0139022552162
 20
388.2245868979134
 30
0.0
 11
377.3639022552165
 21
388.2245868979134
 31
0.0
  0
LINE
  5
364F
330
A
100
AcDbEntity
  8
MODEL
  6
Continuous
100
AcDbLine
 10
377.0139022552162
 20
390.3245868979133
 30
0.0
 11
377.3639022552165
 21
388.2245868266222
 31
0.0
  0
LINE
  5
3650
330
A
100
AcDbEntity
  8
MODEL
  6
Continuous
100
AcDbLine
 10
377.0139022552162
 20
392.2245868979134
 30
0.0
 11
377.0139022552162
 21
390.3245868979133
 31
0.0
  0
LINE
  5
3651
330
A
100
AcDbEntity
  8
MODEL
  6
Continuous
100
AcDbLine
 10
377.0139022552162
 20
392.2245868979134
 30
0.0
 11
377.3639022552165
 21
392.2245868979134
 31
0.0
  0
LINE
  5
3652
330
A
100
AcDbEntity
  8
MODEL
  6
Continuous
100
AcDbLine
 10
377.0139022552162
 20
394.3245868979133
 30
0.0
 11
377.3639022552165
 21
392.2245868266222
 31
0.0
  0
LINE
  5
3653
330
A
100
AcDbEntity
  8
MODEL
  6
Continuous
100
AcDbLine
 10
377.0139022552162
 20
396.2245868979134
 30
0.0
 11
377.0139022552162
 21
394.3245868979133
 31
0.0
  0
LINE
  5
3654
330
A
100
AcDbEntity
  8
MODEL
  6
Continuous
100
AcDbLine
 10
377.0139022552162
 20
396.2245868979134
 30
0.0
 11
377.3639022552165
 21
396.2245868979134
 31
0.0
  0
LINE
  5
3655
330
A
100
AcDbEntity
  8
MODEL
  6
Continuous
100
AcDbLine
 10
377.0139022552162
 20
398.3245868979133
 30
0.0
 11
377.3639022552165
 21
396.2245868266222
 31
0.0
  0
LINE
  5
3656
330
A
100
AcDbEntity
  8
MODEL
  6
Continuous
100
AcDbLine
 10
377.0139022552162
 20
400.2245868979134
 30
0.0
 11
377.0139022552162
 21
398.3245868979133
 31
0.0
  0
LINE
  5
3657
330
A
100
AcDbEntity
  8
MODEL
  6
Continuous
100
AcDbLine
 10
377.0139022552162
 20
400.2245868979134
 30
0.0
 11
377.3639022552165
 21
400.2245868979134
 31
0.0
  0
LINE
  5
3658
330
A
100
AcDbEntity
  8
MODEL
  6
Continuous
100
AcDbLine
 10
377.0139022552162
 20
402.3245868979133
 30
0.0
 11
377.3639022552165
 21
400.2245868266222
 31
0.0
  0
LINE
  5
3659
330
A
100
AcDbEntity
  8
MODEL
  6
Continuous
100
AcDbLine
 10
377.0139022552162
 20
404.2245868979134
 30
0.0
 11
377.0139022552162
 21
402.3245868979133
 31
0.0
  0
LINE
  5
365A
330
A
100
AcDbEntity
  8
MODEL
  6
Continuous
100
AcDbLine
 10
377.0139022552162
 20
404.2245868979134
 30
0.0
 11
377.3639022552165
 21
404.2245868979134
 31
0.0
  0
LINE
  5
365B
330
A
100
AcDbEntity
  8
MODEL
  6
Continuous
100
AcDbLine
 10
377.0139022552162
 20
406.3245868979133
 30
0.0
 11
377.3639022552165
 21
404.2245868266222
 31
0.0
  0
LINE
  5
365C
330
A
100
AcDbEntity
  8
MODEL
  6
Continuous
100
AcDbLine
 10
377.0139022552162
 20
407.9245868979132
 30
0.0
 11
377.0139022552162
 21
406.3245868979133
 31
0.0
  0
LINE
  5
365D
330
A
100
AcDbEntity
  8
MODEL
  6
Continuous
100
AcDbLine
 10
384.9639022552169
 20
407.9245868979132
 30
0.0
 11
384.9639022552169
 21
406.3245868979133
 31
0.0
  0
LINE
  5
365E
330
A
100
AcDbEntity
  8
MODEL
  6
Continuous
100
AcDbLine
 10
384.6139022552165
 20
404.2245868266222
 30
0.0
 11
384.9639022552169
 21
406.3245868979133
 31
0.0
  0
LINE
  5
365F
330
A
100
AcDbEntity
  8
MODEL
  6
Continuous
100
AcDbLine
 10
384.6139022552165
 20
404.2245868979134
 30
0.0
 11
384.9639022552169
 21
404.2245868979134
 31
0.0
  0
LINE
  5
3660
330
A
100
AcDbEntity
  8
MODEL
  6
Continuous
100
AcDbLine
 10
384.9639022552169
 20
404.2245868979134
 30
0.0
 11
384.9639022552169
 21
402.3245868979133
 31
0.0
  0
LINE
  5
3661
330
A
100
AcDbEntity
  8
MODEL
  6
Continuous
100
AcDbLine
 10
384.6139022552165
 20
400.2245868266222
 30
0.0
 11
384.9639022552169
 21
402.3245868979133
 31
0.0
  0
LINE
  5
3662
330
A
100
AcDbEntity
  8
MODEL
  6
Continuous
100
AcDbLine
 10
384.6139022552165
 20
400.2245868979134
 30
0.0
 11
384.9639022552169
 21
400.2245868979134
 31
0.0
  0
LINE
  5
3663
330
A
100
AcDbEntity
  8
MODEL
  6
Continuous
100
AcDbLine
 10
384.9639022552169
 20
400.2245868979134
 30
0.0
 11
384.9639022552169
 21
398.3245868979133
 31
0.0
  0
LINE
  5
3664
330
A
100
AcDbEntity
  8
MODEL
  6
Continuous
100
AcDbLine
 10
384.6139022552165
 20
396.2245868266222
 30
0.0
 11
384.9639022552169
 21
398.3245868979133
 31
0.0
  0
LINE
  5
3665
330
A
100
AcDbEntity
  8
MODEL
  6
Continuous
100
AcDbLine
 10
384.6139022552165
 20
396.2245868979134
 30
0.0
 11
384.9639022552169
 21
396.2245868979134
 31
0.0
  0
LINE
  5
3666
330
A
100
AcDbEntity
  8
MODEL
  6
Continuous
100
AcDbLine
 10
384.9639022552169
 20
396.2245868979134
 30
0.0
 11
384.9639022552169
 21
394.3245868979133
 31
0.0
  0
LINE
  5
3667
330
A
100
AcDbEntity
  8
MODEL
  6
Continuous
100
AcDbLine
 10
384.6139022552165
 20
392.2245868266222
 30
0.0
 11
384.9639022552169
 21
394.3245868979133
 31
0.0
  0
LINE
  5
3668
330
A
100
AcDbEntity
  8
MODEL
  6
Continuous
100
AcDbLine
 10
384.6139022552165
 20
392.2245868979134
 30
0.0
 11
384.9639022552169
 21
392.2245868979134
 31
0.0
  0
LINE
  5
3669
330
A
100
AcDbEntity
  8
MODEL
  6
Continuous
100
AcDbLine
 10
384.9639022552169
 20
392.2245868979134
 30
0.0
 11
384.9639022552169
 21
390.3245868979133
 31
0.0
  0
LINE
  5
366A
330
A
100
AcDbEntity
  8
MODEL
  6
Continuous
100
AcDbLine
 10
384.6139022552165
 20
388.2245868266222
 30
0.0
 11
384.9639022552169
 21
390.3245868979133
 31
0.0
  0
LINE
  5
366B
330
A
100
AcDbEntity
  8
MODEL
  6
Continuous
100
AcDbLine
 10
384.6139022552165
 20
388.2245868979134
 30
0.0
 11
384.9639022552169
 21
388.2245868979134
 31
0.0
  0
LINE
  5
366C
330
A
100
AcDbEntity
  8
MODEL
  6
Continuous
100
AcDbLine
 10
384.9639022552169
 20
388.2245868979134
 30
0.0
 11
384.9639022552169
 21
386.3245868979133
 31
0.0
  0
LINE
  5
366D
330
A
100
AcDbEntity
  8
MODEL
  6
Continuous
100
AcDbLine
 10
384.6139022552165
 20
384.2245868266222
 30
0.0
 11
384.9639022552169
 21
386.3245868979133
 31
0.0
  0
LINE
  5
366E
330
A
100
AcDbEntity
  8
MODEL
  6
Continuous
100
AcDbLine
 10
384.6139022552165
 20
384.2245868979134
 30
0.0
 11
384.9639022552169
 21
384.2245868979134
 31
0.0
  0
LINE
  5
366F
330
A
100
AcDbEntity
  8
MODEL
  6
Continuous
100
AcDbLine
 10
384.9639022552169
 20
384.2245868979134
 30
0.0
 11
384.9639022552169
 21
382.3245868979133
 31
0.0
  0
LINE
  5
3670
330
A
100
AcDbEntity
  8
MODEL
  6
Continuous
100
AcDbLine
 10
379.2389022552165
 20
377.1745867419052
 30
0.0
 11
379.2389022552165
 21
405.7345867419052
 31
0.0
  0
LINE
  5
3671
330
A
100
AcDbEntity
  8
MODEL
  6
Continuous
100
AcDbLine
 10
379.2389022552165
 20
377.1745868979133
 30
0.0
 11
379.798902255216
 21
377.1745868979133
 31
0.0
  0
LINE
  5
3672
330
A
100
AcDbEntity
  8
MODEL
  6
Continuous
100
AcDbLine
 10
379.798902255216
 20
377.1745867321293
 30
0.0
 11
379.798902255216
 21
402.3745867321294
 31
0.0
  0
LWPOLYLINE
  5
3673
330
A
100
AcDbEntity
  8
MODEL
  6
Continuous
100
AcDbPolyline
 90
        6
 70
     0
 43
0.0
 10
379.7990160831819
 20
402.3745807048161
 10
380.2467699894319
 20
402.7470172282536
 10
380.6947680363069
 20
402.9415667888005
 10
381.1427660831819
 20
402.9673846598943
 10
381.5907641300569
 20
402.8266070720036
 10
382.1788988956819
 20
402.3745807048161
  0
LINE
  5
3674
330
A
100
AcDbEntity
  8
MODEL
  6
Continuous
100
AcDbLine
 10
382.1789022552171
 20
377.1745867321293
 30
0.0
 11
382.1789022552171
 21
402.3745867321294
 31
0.0
  0
LINE
  5
3675
330
A
100
AcDbEntity
  8
MODEL
  6
Continuous
100
AcDbLine
 10
382.1789022552171
 20
377.1745868979133
 30
0.0
 11
382.7389022552165
 21
377.1745868979133
 31
0.0
  0
LINE
  5
3676
330
A
100
AcDbEntity
  8
MODEL
  6
Continuous
100
AcDbLine
 10
382.7389022552165
 20
405.7345867419052
 30
0.0
 11
382.7389022552165
 21
377.1745867419052
 31
0.0
  0
LINE
  5
3677
330
A
100
AcDbEntity
  8
MODEL
  6
Continuous
100
AcDbLine
 10
379.2389022552165
 20
405.7345868979133
 30
0.0
 11
382.7389022552165
 21
405.7345868979133
 31
0.0
  0
LINE
  5
3678
330
A
100
AcDbEntity
  8
MODEL
  6
Continuous
100
AcDbLine
 10
384.3339011816684
 20
373.1745868979133
 30
0.0
 11
377.6439033287647
 21
373.1745868979133
 31
0.0
  0
ARC
  5
3679
330
A
100
AcDbEntity
  8
MODEL
  6
Continuous
100
AcDbCircle
 10
377.6439022552163
 20
373.5245868979133
 30
0.0
 40
0.35
100
AcDbArc
 50
180.0000000002233
 51
270.0001757422717
  0
ARC
  5
367A
330
A
100
AcDbEntity
  8
MODEL
  6
Continuous
100
AcDbCircle
 10
384.3339022552168
 20
373.5245868979133
 30
0.0
 40
0.35
100
AcDbArc
 50
269.9998242577283
 51
359.9999999997767
  0
LINE
  5
367B
330
A
100
AcDbEntity
  8
MODEL
  6
Continuous
100
AcDbLine
 10
384.6839022552163
 20
375.9745868979134
 30
0.0
 11
384.6839022552163
 21
373.5245868979133
 31
0.0
  0
LINE
  5
367C
330
A
100
AcDbEntity
  8
MODEL
  6
Continuous
100
AcDbLine
 10
377.2939022552168
 20
375.9745868979134
 30
0.0
 11
377.2939022552168
 21
373.5245868979133
 31
0.0
  0
LINE
  5
367D
330
A
100
AcDbEntity
  8
MODEL
  6
Continuous
100
AcDbLine
 10
384.6839022552163
 20
375.9745868979134
 30
0.0
 11
377.2939022552168
 21
375.9745868979134
 31
0.0
  0
LINE
  5
367E
330
A
100
AcDbEntity
  8
MODEL
  6
Continuous
100
AcDbLine
 10
384.9639022552169
 20
376.4595611240333
 30
0.0
 11
384.6839022552163
 21
375.9745868979135
 31
0.0
  0
LINE
  5
367F
330
A
100
AcDbEntity
  8
MODEL
  6
Continuous
100
AcDbLine
 10
377.0139022552162
 20
376.4595611240333
 30
0.0
 11
377.2939022552168
 21
375.9745868979135
 31
0.0
  0
LINE
  5
3680
330
A
100
AcDbEntity
  8
MODEL
  6
Continuous
100
AcDbLine
 10
379.798902255216
 20
405.1745866950924
 30
0.0
 11
382.1789022552161
 21
405.1745866950924
 31
0.0
  0
LINE
  5
3681
330
A
100
AcDbEntity
  8
MODEL
  6
Continuous
100
AcDbLine
 10
379.798902255216
 20
405.1745866950924
 30
0.0
 11
379.798902255216
 21
402.3745867321295
 31
0.0
  0
LINE
  5
3682
330
A
100
AcDbEntity
  8
MODEL
  6
Continuous
100
AcDbLine
 10
382.1789022552171
 20
405.1745866950924
 30
0.0
 11
382.1789022552171
 21
402.3745867321295
 31
0.0
  0
LINE
  5
3683
330
A
100
AcDbEntity
  8
MODEL
  6
Continuous
100
AcDbLine
 10
377.2055689218837
 20
405.1745890713172
 30
0.0
 11
376.3489022552171
 21
405.1745890713172
 31
0.0
  0
LINE
  5
3684
330
A
100
AcDbEntity
  8
MODEL
  6
Continuous
100
AcDbLine
 10
385.6289022552169
 20
405.1745890713172
 30
0.0
 11
384.7722355885503
 21
405.1745890713172
 31
0.0
  0
LINE
  5
3685
330
A
100
AcDbEntity
  8
MODEL
  6
Continuous
100
AcDbLine
 10
376.3489022552162
 20
405.1745890713172
 30
0.0
 11
377.0139022552162
 21
402.977036834823
 31
0.0
  0
LINE
  5
3686
330
A
100
AcDbEntity
  8
MODEL
  6
Continuous
100
AcDbLine
 10
385.6289022552169
 20
405.1745890713172
 30
0.0
 11
384.9639022552169
 21
402.977036834823
 31
0.0
  0
LINE
  5
3687
330
A
100
AcDbEntity
  8
MODEL
  6
Continuous
100
AcDbLine
 10
384.9639022552169
 20
400.2245891233339
 30
0.0
 11
384.9639022552169
 21
402.3245891233339
 31
0.0
  0
LINE
  5
3688
330
A
100
AcDbEntity
  8
MODEL
  6
Continuous
100
AcDbLine
 10
384.9639022552169
 20
396.2245891233339
 30
0.0
 11
384.9639022552169
 21
398.3245891233339
 31
0.0
  0
LINE
  5
3689
330
A
100
AcDbEntity
  8
MODEL
  6
Continuous
100
AcDbLine
 10
384.9639022552169
 20
392.2245891233339
 30
0.0
 11
384.9639022552169
 21
394.3245891233339
 31
0.0
  0
LINE
  5
368A
330
A
100
AcDbEntity
  8
MODEL
  6
Continuous
100
AcDbLine
 10
384.9639022552169
 20
388.2245891233339
 30
0.0
 11
384.9639022552169
 21
390.3245891233339
 31
0.0
  0
LINE
  5
368B
330
A
100
AcDbEntity
  8
MODEL
  6
Continuous
100
AcDbLine
 10
384.9639022552169
 20
384.2245891233339
 30
0.0
 11
384.9639022552169
 21
386.3245891233339
 31
0.0
  0
LINE
  5
368C
330
A
100
AcDbEntity
  8
MODEL
  6
Continuous
100
AcDbLine
 10
384.9639022552169
 20
380.2245891233339
 30
0.0
 11
384.9639022552169
 21
382.3245891233339
 31
0.0
  0
LINE
  5
368D
330
A
100
AcDbEntity
  8
MODEL
  6
Continuous
100
AcDbLine
 10
377.0139022552162
 20
400.2245891233339
 30
0.0
 11
377.0139022552162
 21
402.3245891233339
 31
0.0
  0
LINE
  5
368E
330
A
100
AcDbEntity
  8
MODEL
  6
Continuous
100
AcDbLine
 10
377.0139022552162
 20
396.2245891233339
 30
0.0
 11
377.0139022552162
 21
398.3245891233339
 31
0.0
  0
LINE
  5
368F
330
A
100
AcDbEntity
  8
MODEL
  6
Continuous
100
AcDbLine
 10
377.0139022552162
 20
392.2245891233339
 30
0.0
 11
377.0139022552162
 21
394.3245891233339
 31
0.0
  0
LINE
  5
3690
330
A
100
AcDbEntity
  8
MODEL
  6
Continuous
100
AcDbLine
 10
377.0139022552162
 20
388.2245891233339
 30
0.0
 11
377.0139022552162
 21
390.3245891233339
 31
0.0
  0
LINE
  5
3691
330
A
100
AcDbEntity
  8
MODEL
  6
Continuous
100
AcDbLine
 10
377.0139022552162
 20
384.2245891233339
 30
0.0
 11
377.0139022552162
 21
386.3245891233339
 31
0.0
  0
LINE
  5
3692
330
A
100
AcDbEntity
  8
MODEL
  6
Continuous
100
AcDbLine
 10
377.0139022552162
 20
380.2245891233339
 30
0.0
 11
377.0139022552162
 21
382.3245891233339
 31
0.0
  0
LINE
  5
3693
330
A
100
AcDbEntity
  8
MODEL
  6
Continuous
100
AcDbLine
 10
351.4447463779366
 20
408.5245856064972
 30
0.0
 11
461.4447463779366
 21
408.5245856064972
 31
0.0
  0
LINE
  5
3694
330
A
100
AcDbEntity
  8
MODEL
  6
Continuous
100
AcDbLine
 10
461.4447463779366
 20
408.5245856064972
 30
0.0
 11
461.4447463779366
 21
422.5245856064972
 31
0.0
  0
LINE
  5
3695
330
A
100
AcDbEntity
  8
MODEL
  6
Continuous
100
AcDbLine
 10
351.4447463779366
 20
408.5245856064972
 30
0.0
 11
351.4447463779366
 21
422.5245856064972
 31
0.0
  0
LINE
  5
3696
330
A
100
AcDbEntity
  8
MODEL
  6
Continuous
100
AcDbLine
 10
351.4447463779366
 20
422.5245856064972
 30
0.0
 11
461.4447463779366
 21
422.5245856064972
 31
0.0
  0
ARC
  5
3697
330
A
100
AcDbEntity
  8
MODEL
  6
Continuous
100
AcDbCircle
 10
406.4447463779366
 20
412.5245856064972
 30
0.0
 40
2.5
100
AcDbArc
 50
90.00000000045857
 51
270.0
  0
ARC
  5
3698
330
A
100
AcDbEntity
  8
MODEL
  6
Continuous
100
AcDbCircle
 10
406.4447463779366
 20
412.5245856064972
 30
0.0
 40
2.5
100
AcDbArc
 50
270.0000000004586
 51
90.0
  0
LINE
  5
3699
102
{ACAD_REACTORS
330
38D6
102
}
330
A
100
AcDbEntity
  8
MODEL
  6
Continuous
100
AcDbLine
 10
376.4447463779366
 20
1126.52458761722
 30
0.0
 11
376.4447463779366
 21
422.5245876172211
 31
0.0
  0
LINE
  5
369A
102
{ACAD_REACTORS
330
38D6
102
}
330
A
100
AcDbEntity
  8
MODEL
  6
Continuous
100
AcDbLine
 10
436.4447463779366
 20
1126.52458761722
 30
0.0
 11
436.4447463779366
 21
422.5245876172211
 31
0.0
  0
ARC
  5
369B
330
A
100
AcDbEntity
  8
MODEL
  6
Continuous
100
AcDbCircle
 10
450.9447463779366
 20
409.9245880106236
 30
0.0
 40
2.0
100
AcDbArc
 50
269.9999999997916
 51
315.5729959988741
  0
ARC
  5
369C
330
A
100
AcDbEntity
  8
MODEL
  6
Continuous
100
AcDbCircle
 10
361.9447463779366
 20
409.9245880106236
 30
0.0
 40
2.0
100
AcDbArc
 50
224.4270040011328
 51
270.0002040210001
  0
LINE
  5
369D
330
A
100
AcDbEntity
  8
MODEL
  6
Continuous
100
AcDbLine
 10
361.9447534996048
 20
407.9245880095231
 30
0.0
 11
450.9447463779366
 21
407.9245880106236
 31
0.0
  0
LINE
  5
369E
330
A
100
AcDbEntity
  8
MODEL
  6
Continuous
100
AcDbLine
 10
161.4447463779366
 20
1126.524587354952
 30
0.0
 11
461.4447463779366
 21
1126.524587354952
 31
0.0
  0
LINE
  5
369F
330
A
100
AcDbEntity
  8
MODEL
  6
Continuous
100
AcDbLine
 10
461.4447463779366
 20
1126.524587354952
 30
0.0
 11
461.4447463779366
 21
1139.524587354952
 31
0.0
  0
LINE
  5
36A0
330
A
100
AcDbEntity
  8
MODEL
  6
Continuous
100
AcDbLine
 10
161.4447463779366
 20
1126.524587354952
 30
0.0
 11
161.4447463779366
 21
1139.524587354952
 31
0.0
  0
LINE
  5
36A1
330
A
100
AcDbEntity
  8
MODEL
  6
Continuous
100
AcDbLine
 10
161.4447463779366
 20
1139.524587354952
 30
0.0
 11
461.4447463779366
 21
1139.524587354952
 31
0.0
  0
ARC
  5
36A2
330
A
100
AcDbEntity
  8
MODEL
  6
Continuous
100
AcDbCircle
 10
406.4447463779366
 20
412.5245856064972
 30
0.0
 40
2.0
100
AcDbArc
 50
0.0
 51
179.9999999995505
  0
ARC
  5
36A3
330
A
100
AcDbEntity
  8
MODEL
  6
Continuous
100
AcDbCircle
 10
406.4447463779366
 20
412.5245856064972
 30
0.0
 40
2.0
100
AcDbArc
 50
180.0
 51
359.9999999995505
  0
LINE
  5
36A4
330
A
100
AcDbEntity
  8
MODEL
  6
Continuous
100
AcDbLine
 10
407.8881220509106
 20
412.5245856064972
 30
0.0
 11
407.1664342144236
 21
413.7745856064972
 31
0.0
  0
LINE
  5
36A5
330
A
100
AcDbEntity
  8
MODEL
  6
Continuous
100
AcDbLine
 10
407.1664342144236
 20
413.7745856064972
 30
0.0
 11
405.7230585414495
 21
413.7745856064972
 31
0.0
  0
LINE
  5
36A6
330
A
100
AcDbEntity
  8
MODEL
  6
Continuous
100
AcDbLine
 10
405.7230585414495
 20
413.7745856064972
 30
0.0
 11
405.0013707049625
 21
412.5245856064972
 31
0.0
  0
LINE
  5
36A7
330
A
100
AcDbEntity
  8
MODEL
  6
Continuous
100
AcDbLine
 10
405.0013707049625
 20
412.5245856064972
 30
0.0
 11
405.7230585414495
 21
411.2745856064972
 31
0.0
  0
LINE
  5
36A8
330
A
100
AcDbEntity
  8
MODEL
  6
Continuous
100
AcDbLine
 10
405.7230585414495
 20
411.2745856064972
 30
0.0
 11
407.1664342144236
 21
411.2745856064972
 31
0.0
  0
LINE
  5
36A9
330
A
100
AcDbEntity
  8
MODEL
  6
Continuous
100
AcDbLine
 10
407.1664342144236
 20
411.2745856064972
 30
0.0
 11
407.8881220509106
 21
412.5245856064972
 31
0.0
  0
LINE
  5
36AA
330
A
100
AcDbEntity
  8
MODEL
  6
Continuous
100
AcDbLine
 10
732.5354427918442
 20
427.6245613077427
 30
0.0
 11
730.7493949750756
 21
427.6245613858133
 31
0.0
  0
LINE
  5
36AB
330
A
100
AcDbEntity
  8
MODEL
  6
Continuous
100
AcDbLine
 10
732.5354427918442
 20
427.6245613077427
 30
0.0
 11
734.3214898209867
 21
427.6245612296722
 31
0.0
  0
LINE
  5
36AC
330
A
100
AcDbEntity
  8
MODEL
  6
Continuous
100
AcDbLine
 10
732.5354428705245
 20
429.4245613077427
 30
0.0
 11
730.7493951040492
 21
429.4245613858133
 31
0.0
  0
LINE
  5
36AD
330
A
100
AcDbEntity
  8
MODEL
  6
Continuous
100
AcDbLine
 10
732.5354428705245
 20
429.4245613077427
 30
0.0
 11
734.3214899707568
 21
429.4245612296721
 31
0.0
  0
LINE
  5
36AE
330
A
100
AcDbEntity
  8
MODEL
  6
Continuous
100
AcDbLine
 10
743.0329410871004
 20
394.5245608488824
 30
0.0
 11
732.535441545961
 21
394.5245613077427
 31
0.0
  0
LINE
  5
36AF
330
A
100
AcDbEntity
  8
MODEL
  6
Continuous
100
AcDbLine
 10
732.535441545961
 20
394.5245613077427
 30
0.0
 11
722.0379410871014
 21
394.524561766603
 31
0.0
  0
LINE
  5
36B0
330
A
100
AcDbEntity
  8
MODEL
  6
Continuous
100
AcDbLine
 10
743.0329416728332
 20
407.9245608488824
 30
0.0
 11
743.0329410871004
 21
394.5245608488824
 31
0.0
  0
LINE
  5
36B1
330
A
100
AcDbEntity
  8
MODEL
  6
Continuous
100
AcDbLine
 10
722.0379416728333
 20
407.924561766603
 30
0.0
 11
722.0379410871005
 21
394.524561766603
 31
0.0
  0
LINE
  5
36B2
330
A
100
AcDbEntity
  8
MODEL
  6
Continuous
100
AcDbLine
 10
722.0379410871014
 20
394.5245617666041
 30
0.0
 11
723.0354410434979
 21
393.5270617230029
 31
0.0
  0
LINE
  5
36B3
330
A
100
AcDbEntity
  8
MODEL
  6
Continuous
100
AcDbLine
 10
743.0329410870995
 20
394.5245608488834
 30
0.0
 11
742.0354410434979
 21
393.5270608924865
 31
0.0
  0
LINE
  5
36B4
330
A
100
AcDbEntity
  8
MODEL
  6
Continuous
100
AcDbLine
 10
732.5354414586468
 20
393.5245613077427
 30
0.0
 11
723.0354410433888
 21
393.5245617230009
 31
0.0
  0
LINE
  5
36B5
330
A
100
AcDbEntity
  8
MODEL
  6
Continuous
100
AcDbLine
 10
742.0354410433888
 20
393.5245608924845
 30
0.0
 11
732.5354414586468
 21
393.5245613077427
 31
0.0
  0
LINE
  5
36B6
330
A
100
AcDbEntity
  8
MODEL
  6
Continuous
100
AcDbLine
 10
732.5354421142088
 20
407.5245613077426
 30
0.0
 11
743.0329416553491
 21
407.5245608488825
 31
0.0
  0
LINE
  5
36B7
330
A
100
AcDbEntity
  8
MODEL
  6
Continuous
100
AcDbLine
 10
722.0379416553483
 20
407.5245617666029
 30
0.0
 11
732.5354421142088
 21
407.5245613077426
 31
0.0
  0
LINE
  5
36B8
330
A
100
AcDbEntity
  8
MODEL
  6
Continuous
100
AcDbLine
 10
703.2962630358802
 20
405.1745625858279
 30
0.0
 11
702.4395963692136
 21
405.1745626232738
 31
0.0
  0
LINE
  5
36B9
330
A
100
AcDbEntity
  8
MODEL
  6
Continuous
100
AcDbLine
 10
711.7195963692125
 20
405.1745622176321
 30
0.0
 11
710.8629297025459
 21
405.1745622550783
 31
0.0
  0
LINE
  5
36BA
330
A
100
AcDbEntity
  8
MODEL
  6
Continuous
100
AcDbLine
 10
702.4395963692136
 20
405.1745626232738
 30
0.0
 11
703.1045962731555
 21
402.9770103577115
 31
0.0
  0
LINE
  5
36BB
330
A
100
AcDbEntity
  8
MODEL
  6
Continuous
100
AcDbLine
 10
711.7195963692125
 20
405.1745622176321
 30
0.0
 11
711.0545962731544
 21
402.9770100102061
 31
0.0
  0
LINE
  5
36BC
330
A
100
AcDbEntity
  8
MODEL
  6
Continuous
100
AcDbLine
 10
711.0545961008252
 20
400.2245622467002
 30
0.0
 11
711.0545961926186
 21
402.3245622467002
 31
0.0
  0
LINE
  5
36BD
330
A
100
AcDbEntity
  8
MODEL
  6
Continuous
100
AcDbLine
 10
711.0545959259794
 20
396.2245622467002
 30
0.0
 11
711.0545960177737
 21
398.3245622467002
 31
0.0
  0
LINE
  5
36BE
330
A
100
AcDbEntity
  8
MODEL
  6
Continuous
100
AcDbLine
 10
711.0545957511335
 20
392.2245622467002
 30
0.0
 11
711.054595842927
 21
394.3245622467002
 31
0.0
  0
LINE
  5
36BF
330
A
100
AcDbEntity
  8
MODEL
  6
Continuous
100
AcDbLine
 10
711.0545955762886
 20
388.2245622467002
 30
0.0
 11
711.0545956680821
 21
390.3245622467002
 31
0.0
  0
LINE
  5
36C0
330
A
100
AcDbEntity
  8
MODEL
  6
Continuous
100
AcDbLine
 10
711.0545954014428
 20
384.2245622467002
 30
0.0
 11
711.0545954932372
 21
386.3245622467002
 31
0.0
  0
LINE
  5
36C1
330
A
100
AcDbEntity
  8
MODEL
  6
Continuous
100
AcDbLine
 10
711.054595226597
 20
380.2245622467002
 30
0.0
 11
711.0545953183905
 21
382.3245622467002
 31
0.0
  0
LINE
  5
36C2
330
A
100
AcDbEntity
  8
MODEL
  6
Continuous
100
AcDbLine
 10
703.1045961008253
 20
400.2245625942057
 30
0.0
 11
703.1045961926197
 21
402.3245625942058
 31
0.0
  0
LINE
  5
36C3
330
A
100
AcDbEntity
  8
MODEL
  6
Continuous
100
AcDbLine
 10
703.1045959259795
 20
396.2245625942058
 30
0.0
 11
703.104596017773
 21
398.3245625942058
 31
0.0
  0
LINE
  5
36C4
330
A
100
AcDbEntity
  8
MODEL
  6
Continuous
100
AcDbLine
 10
703.1045957511346
 20
392.2245625942058
 30
0.0
 11
703.1045958429281
 21
394.3245625942058
 31
0.0
  0
LINE
  5
36C5
330
A
100
AcDbEntity
  8
MODEL
  6
Continuous
100
AcDbLine
 10
703.1045955762879
 20
388.2245625942058
 30
0.0
 11
703.1045956680814
 21
390.3245625942058
 31
0.0
  0
LINE
  5
36C6
330
A
100
AcDbEntity
  8
MODEL
  6
Continuous
100
AcDbLine
 10
703.104595401443
 20
384.2245625942058
 30
0.0
 11
703.1045954932365
 21
386.3245625942058
 31
0.0
  0
LINE
  5
36C7
330
A
100
AcDbEntity
  8
MODEL
  6
Continuous
100
AcDbLine
 10
703.1045952265972
 20
380.2245625942058
 30
0.0
 11
703.1045953183916
 21
382.3245625942058
 31
0.0
  0
ARC
  5
36C8
330
A
100
AcDbEntity
  8
MODEL
  6
Continuous
100
AcDbCircle
 10
785.4937278320781
 20
379.2148817084451
 30
0.0
 40
30.00253716083458
100
AcDbArc
 50
191.614570342319
 51
203.3196736397719
  0
ARC
  5
36C9
330
A
100
AcDbEntity
  8
MODEL
  6
Continuous
100
AcDbCircle
 10
730.4888434745785
 20
379.2148841127813
 30
0.0
 40
30.00253716082472
100
AcDbArc
 50
336.6803213512715
 51
348.3854246487282
  0
LINE
  5
36CA
330
A
100
AcDbEntity
  8
MODEL
  6
Continuous
100
AcDbLine
 10
761.9662855328829
 20
376.4595342473997
 30
0.0
 11
757.9912857066361
 21
376.4595344211524
 31
0.0
  0
LINE
  5
36CB
330
A
100
AcDbEntity
  8
MODEL
  6
Continuous
100
AcDbLine
 10
757.99128587121
 20
380.2245601950325
 30
0.0
 11
759.6222364989412
 21
380.2245601237413
 31
0.0
  0
LWPOLYLINE
  5
36CC
330
A
100
AcDbEntity
  8
MODEL
  6
Continuous
100
AcDbPolyline
 90
        8
 70
     0
 43
0.0
 10
757.9913988956819
 20
382.3245623942693
 10
758.3593188175569
 20
382.221947037824
 10
758.6437426456819
 20
382.0014422770818
 10
758.8832445988069
 20
381.7173999186833
 10
759.0924731144319
 20
381.3908770915349
 10
759.2807055363069
 20
381.0347369548161
 10
759.4523363956819
 20
380.6550830241521
 10
759.6222582706819
 20
380.2245562907536
  0
LINE
  5
36CD
330
A
100
AcDbEntity
  8
MODEL
  6
Continuous
100
AcDbLine
 10
757.9912860460558
 20
384.2245601950325
 30
0.0
 11
759.622236673787
 21
384.2245601237413
 31
0.0
  0
LWPOLYLINE
  5
36CE
330
A
100
AcDbEntity
  8
MODEL
  6
Continuous
100
AcDbPolyline
 90
        8
 70
     0
 43
0.0
 10
757.9913988956819
 20
386.3245623942693
 10
758.3593188175569
 20
386.221947037824
 10
758.6437426456819
 20
386.0014422770818
 10
758.8832445988069
 20
385.7173999186833
 10
759.0924731144319
 20
385.3908770915349
 10
759.2807055363069
 20
385.0347369548161
 10
759.4523363956819
 20
384.6550830241521
 10
759.6222582706819
 20
384.2245562907536
  0
LINE
  5
36CF
330
A
100
AcDbEntity
  8
MODEL
  6
Continuous
100
AcDbLine
 10
757.9912862209017
 20
388.2245601950325
 30
0.0
 11
759.6222368486328
 21
388.2245601237413
 31
0.0
  0
LWPOLYLINE
  5
36D0
330
A
100
AcDbEntity
  8
MODEL
  6
Continuous
100
AcDbPolyline
 90
        8
 70
     0
 43
0.0
 10
757.9913988956819
 20
390.3245623942693
 10
758.3593188175569
 20
390.221947037824
 10
758.6437426456819
 20
390.0014422770818
 10
758.8832445988069
 20
389.7173999186833
 10
759.0924731144319
 20
389.3908770915349
 10
759.2807055363069
 20
389.0347369548161
 10
759.4523363956819
 20
388.6550830241521
 10
759.6222582706819
 20
388.2245562907536
  0
LINE
  5
36D1
330
A
100
AcDbEntity
  8
MODEL
  6
Continuous
100
AcDbLine
 10
757.9912863957466
 20
392.2245601950325
 30
0.0
 11
759.6222370234777
 21
392.2245601237413
 31
0.0
  0
LWPOLYLINE
  5
36D2
330
A
100
AcDbEntity
  8
MODEL
  6
Continuous
100
AcDbPolyline
 90
        8
 70
     0
 43
0.0
 10
757.9913988956819
 20
394.3245623942693
 10
758.3593188175569
 20
394.221947037824
 10
758.6437426456819
 20
394.0014422770818
 10
758.8832445988069
 20
393.7173999186833
 10
759.0924731144319
 20
393.3908770915349
 10
759.2807055363069
 20
393.0347369548161
 10
759.4523363956819
 20
392.6550830241521
 10
759.6222582706819
 20
392.2245562907536
  0
LINE
  5
36D3
330
A
100
AcDbEntity
  8
MODEL
  6
Continuous
100
AcDbLine
 10
757.9912865705924
 20
396.2245601950325
 30
0.0
 11
759.6222371983235
 21
396.2245601237413
 31
0.0
  0
LWPOLYLINE
  5
36D4
330
A
100
AcDbEntity
  8
MODEL
  6
Continuous
100
AcDbPolyline
 90
        8
 70
     0
 43
0.0
 10
757.9913988956819
 20
398.3245623942693
 10
758.3593188175569
 20
398.221947037824
 10
758.6437426456819
 20
398.0014422770818
 10
758.8832445988069
 20
397.7173999186833
 10
759.0924731144319
 20
397.3908770915349
 10
759.2807055363069
 20
397.0347369548161
 10
759.4523363956819
 20
396.6550830241521
 10
759.6222582706819
 20
396.2245562907536
  0
LINE
  5
36D5
330
A
100
AcDbEntity
  8
MODEL
  6
Continuous
100
AcDbLine
 10
757.9912867454382
 20
400.2245601950325
 30
0.0
 11
759.6222373731694
 21
400.2245601237413
 31
0.0
  0
LWPOLYLINE
  5
36D6
330
A
100
AcDbEntity
  8
MODEL
  6
Continuous
100
AcDbPolyline
 90
        8
 70
     0
 43
0.0
 10
757.9913988956819
 20
402.3245623942693
 10
758.3593188175569
 20
402.221947037824
 10
758.6437426456819
 20
402.0014422770818
 10
758.8832445988069
 20
401.7173999186833
 10
759.0924731144319
 20
401.3908770915349
 10
759.2807055363069
 20
401.0347369548161
 10
759.4523363956819
 20
400.6550830241521
 10
759.6222582706819
 20
400.2245562907536
  0
LINE
  5
36D7
330
A
100
AcDbEntity
  8
MODEL
  6
Continuous
100
AcDbLine
 10
757.991286920284
 20
404.2245601950325
 30
0.0
 11
759.6222375480152
 21
404.2245601237413
 31
0.0
  0
LWPOLYLINE
  5
36D8
330
A
100
AcDbEntity
  8
MODEL
  6
Continuous
100
AcDbPolyline
 90
        8
 70
     0
 43
0.0
 10
757.9913988956819
 20
406.3245623942693
 10
758.3593188175569
 20
406.221947037824
 10
758.6437426456819
 20
406.0014422770818
 10
758.8832445988069
 20
405.7173999186833
 10
759.0924731144319
 20
405.3908770915349
 10
759.2807055363069
 20
405.0347369548161
 10
759.4523363956819
 20
404.6550830241521
 10
759.6222582706819
 20
404.2245562907536
  0
LINE
  5
36D9
330
A
100
AcDbEntity
  8
MODEL
  6
Continuous
100
AcDbLine
 10
761.5603366349446
 20
377.1745600390243
 30
0.0
 11
761.5603378833425
 21
405.7345600390244
 31
0.0
  0
LINE
  5
36DA
330
A
100
AcDbEntity
  8
MODEL
  6
Continuous
100
AcDbLine
 10
761.5603366349455
 20
377.1745600390242
 30
0.0
 11
761.7839792499722
 21
377.1745600292485
 31
0.0
  0
LINE
  5
36DB
330
A
100
AcDbEntity
  8
MODEL
  6
Continuous
100
AcDbLine
 10
761.7839792499731
 20
377.1745600292485
 30
0.0
 11
761.7839803515003
 21
402.3745600292485
 31
0.0
  0
LINE
  5
36DC
330
A
100
AcDbEntity
  8
MODEL
  6
Continuous
100
AcDbLine
 10
761.5603378833425
 20
405.7345600390244
 30
0.0
 11
761.9662868125347
 21
405.7345600212797
 31
0.0
  0
LINE
  5
36DD
330
A
100
AcDbEntity
  8
MODEL
  6
Continuous
100
AcDbLine
 10
754.4222358947186
 20
405.7345603510406
 30
0.0
 11
754.4222346463216
 21
377.1745603510407
 31
0.0
  0
LINE
  5
36DE
330
A
100
AcDbEntity
  8
MODEL
  6
Continuous
100
AcDbLine
 10
761.3362843157443
 20
373.1745600488179
 30
0.0
 11
757.9912855355074
 21
373.1745601950324
 31
0.0
  0
LINE
  5
36DF
330
A
100
AcDbEntity
  8
MODEL
  6
Continuous
100
AcDbLine
 10
757.9912855355074
 20
373.1745601950324
 30
0.0
 11
754.6462864628406
 21
373.174560341247
 31
0.0
  0
LINE
  5
36E0
330
A
100
AcDbEntity
  8
MODEL
  6
Continuous
100
AcDbLine
 10
754.2962855116843
 20
375.974560356546
 30
0.0
 11
757.9912856731976
 21
375.9745601950325
 31
0.0
  0
LINE
  5
36E1
330
A
100
AcDbEntity
  8
MODEL
  6
Continuous
100
AcDbLine
 10
761.6862855116838
 20
375.974560033519
 30
0.0
 11
757.9912856731976
 21
375.9745601950325
 31
0.0
  0
LINE
  5
36E2
330
A
100
AcDbEntity
  8
MODEL
  6
Continuous
100
AcDbLine
 10
754.016285532884
 20
376.4595345949052
 30
0.0
 11
757.9912857066361
 21
376.4595344211524
 31
0.0
  0
LWPOLYLINE
  5
36E3
330
A
100
AcDbEntity
  8
MODEL
  6
Continuous
100
AcDbPolyline
 90
        8
 70
     0
 43
0.0
 10
756.3602953800569
 20
404.2245562907536
 10
756.5175219425569
 20
404.6246875163396
 10
756.6879320988069
 20
405.0059741374333
 10
756.8746996769319
 20
405.3641436930974
 10
757.0822192081819
 20
405.6932757731755
 10
757.3187914738069
 20
405.9813006755193
 10
757.5990649113069
 20
406.2078631755193
 10
757.9913988956819
 20
406.3245623942693
  0
LINE
  5
36E4
330
A
100
AcDbEntity
  8
MODEL
  6
Continuous
100
AcDbLine
 10
756.3603362619547
 20
404.2245602663235
 30
0.0
 11
757.991286920284
 21
404.2245601950325
 31
0.0
  0
LWPOLYLINE
  5
36E5
330
A
100
AcDbEntity
  8
MODEL
  6
Continuous
100
AcDbPolyline
 90
        8
 70
     0
 43
0.0
 10
756.3602953800569
 20
400.2245562907536
 10
756.5175219425569
 20
400.6246875163396
 10
756.6879320988069
 20
401.0059741374333
 10
756.8746996769319
 20
401.3641436930974
 10
757.0822192081819
 20
401.6932757731755
 10
757.3187914738069
 20
401.9813006755193
 10
757.5990649113069
 20
402.2078631755193
 10
757.9913988956819
 20
402.3245623942693
  0
LINE
  5
36E6
330
A
100
AcDbEntity
  8
MODEL
  6
Continuous
100
AcDbLine
 10
756.3603360871098
 20
400.2245602663236
 30
0.0
 11
757.9912867454382
 21
400.2245601950325
 31
0.0
  0
LWPOLYLINE
  5
36E7
330
A
100
AcDbEntity
  8
MODEL
  6
Continuous
100
AcDbPolyline
 90
        8
 70
     0
 43
0.0
 10
756.3602953800569
 20
396.2245562907536
 10
756.5175219425569
 20
396.6246875163396
 10
756.6879320988069
 20
397.0059741374333
 10
756.8746996769319
 20
397.3641436930974
 10
757.0822192081819
 20
397.6932757731755
 10
757.3187914738069
 20
397.9813006755193
 10
757.5990649113069
 20
398.2078631755193
 10
757.9913988956819
 20
398.3245623942693
  0
LINE
  5
36E8
330
A
100
AcDbEntity
  8
MODEL
  6
Continuous
100
AcDbLine
 10
756.360335912263
 20
396.2245602663236
 30
0.0
 11
757.9912865705924
 21
396.2245601950325
 31
0.0
  0
LWPOLYLINE
  5
36E9
330
A
100
AcDbEntity
  8
MODEL
  6
Continuous
100
AcDbPolyline
 90
        8
 70
     0
 43
0.0
 10
756.3602953800569
 20
392.2245562907536
 10
756.5175219425569
 20
392.6246875163396
 10
756.6879320988069
 20
393.0059741374333
 10
756.8746996769319
 20
393.3641436930974
 10
757.0822192081819
 20
393.6932757731755
 10
757.3187914738069
 20
393.9813006755193
 10
757.5990649113069
 20
394.2078631755193
 10
757.9913988956819
 20
394.3245623942693
  0
LINE
  5
36EA
330
A
100
AcDbEntity
  8
MODEL
  6
Continuous
100
AcDbLine
 10
756.3603357374182
 20
392.2245602663236
 30
0.0
 11
757.9912863957466
 21
392.2245601950325
 31
0.0
  0
LWPOLYLINE
  5
36EB
330
A
100
AcDbEntity
  8
MODEL
  6
Continuous
100
AcDbPolyline
 90
        8
 70
     0
 43
0.0
 10
756.3602953800569
 20
388.2245562907536
 10
756.5175219425569
 20
388.6246875163396
 10
756.6879320988069
 20
389.0059741374333
 10
756.8746996769319
 20
389.3641436930974
 10
757.0822192081819
 20
389.6932757731755
 10
757.3187914738069
 20
389.9813006755193
 10
757.5990649113069
 20
390.2078631755193
 10
757.9913988956819
 20
390.3245623942693
  0
LINE
  5
36EC
330
A
100
AcDbEntity
  8
MODEL
  6
Continuous
100
AcDbLine
 10
756.3603355625733
 20
388.2245602663236
 30
0.0
 11
757.9912862209017
 21
388.2245601950325
 31
0.0
  0
LWPOLYLINE
  5
36ED
330
A
100
AcDbEntity
  8
MODEL
  6
Continuous
100
AcDbPolyline
 90
        8
 70
     0
 43
0.0
 10
756.3602953800569
 20
384.2245562907536
 10
756.5175219425569
 20
384.6246875163396
 10
756.6879320988069
 20
385.0059741374333
 10
756.8746996769319
 20
385.3641436930974
 10
757.0822192081819
 20
385.6932757731755
 10
757.3187914738069
 20
385.9813006755193
 10
757.5990649113069
 20
386.2078631755193
 10
757.9913988956819
 20
386.3245623942693
  0
LINE
  5
36EE
330
A
100
AcDbEntity
  8
MODEL
  6
Continuous
100
AcDbLine
 10
756.3603353877265
 20
384.2245602663236
 30
0.0
 11
757.9912860460558
 21
384.2245601950325
 31
0.0
  0
LWPOLYLINE
  5
36EF
330
A
100
AcDbEntity
  8
MODEL
  6
Continuous
100
AcDbPolyline
 90
        8
 70
     0
 43
0.0
 10
756.3602953800569
 20
380.2245562907536
 10
756.5175219425569
 20
380.6246875163396
 10
756.6879320988069
 20
381.0059741374333
 10
756.8746996769319
 20
381.3641436930974
 10
757.0822192081819
 20
381.6932757731755
 10
757.3187914738069
 20
381.9813006755193
 10
757.5990649113069
 20
382.2078631755193
 10
757.9913988956819
 20
382.3245623942693
  0
LINE
  5
36F0
330
A
100
AcDbEntity
  8
MODEL
  6
Continuous
100
AcDbLine
 10
756.3603352128816
 20
380.2245602663236
 30
0.0
 11
757.99128587121
 21
380.2245601950325
 31
0.0
  0
LINE
  5
36F1
330
A
100
AcDbEntity
  8
MODEL
  6
Continuous
100
AcDbLine
 10
754.0162868125358
 20
405.7345603687853
 30
0.0
 11
754.4222358947177
 21
405.7345603510406
 31
0.0
  0
LINE
  5
36F2
330
A
100
AcDbEntity
  8
MODEL
  6
Continuous
100
AcDbLine
 10
754.1985919823369
 20
377.1745603608164
 30
0.0
 11
754.1985930838641
 21
402.3745603608163
 31
0.0
  0
LINE
  5
36F3
330
A
100
AcDbEntity
  8
MODEL
  6
Continuous
100
AcDbLine
 10
754.1985919823369
 20
377.1745603608164
 30
0.0
 11
754.4222346463216
 21
377.1745603510407
 31
0.0
  0
LINE
  5
36F4
330
A
100
AcDbEntity
  8
MODEL
  6
Continuous
100
AcDbLine
 10
762.6312868400732
 20
405.1745599922116
 30
0.0
 11
761.5603378343853
 21
405.1745600390242
 31
0.0
  0
LINE
  5
36F5
330
A
100
AcDbEntity
  8
MODEL
  6
Continuous
100
AcDbLine
 10
754.4222358457614
 20
405.1745603510407
 30
0.0
 11
753.3512868400735
 21
405.1745603978533
 31
0.0
  0
LINE
  5
36F6
330
A
100
AcDbEntity
  8
MODEL
  6
Continuous
100
AcDbLine
 10
762.6312868400732
 20
405.1745599922116
 30
0.0
 11
761.7839803514985
 21
402.3745600292486
 31
0.0
  0
LINE
  5
36F7
330
A
100
AcDbEntity
  8
MODEL
  6
Continuous
100
AcDbLine
 10
753.3512868400735
 20
405.1745603978533
 30
0.0
 11
754.1985930838641
 21
402.3745603608164
 31
0.0
  0
LINE
  5
36F8
330
A
100
AcDbEntity
  8
MODEL
  6
Continuous
100
AcDbLine
 10
754.0162855328831
 20
376.4595345849052
 30
0.0
 11
754.0162866920023
 21
402.9770759817008
 31
0.0
  0
LINE
  5
36F9
330
A
100
AcDbEntity
  8
MODEL
  6
Continuous
100
AcDbLine
 10
754.0162868125358
 20
405.7345603687853
 30
0.0
 11
754.0162869082637
 21
407.9245603687851
 31
0.0
  0
LINE
  5
36FA
330
A
100
AcDbEntity
  8
MODEL
  6
Continuous
100
AcDbLine
 10
754.2962855116843
 20
375.9745603565461
 30
0.0
 11
754.0162855328831
 21
376.4595345949052
 31
0.0
  0
LINE
  5
36FB
330
A
100
AcDbEntity
  8
MODEL
  6
Continuous
100
AcDbLine
 10
761.9662855328829
 20
376.4595342473996
 30
0.0
 11
761.6862855116838
 21
375.974560033519
 31
0.0
  0
LINE
  5
36FC
330
A
100
AcDbEntity
  8
MODEL
  6
Continuous
100
AcDbLine
 10
761.6862854045917
 20
373.5245600235189
 30
0.0
 11
761.6862855116847
 21
375.974560033519
 31
0.0
  0
LINE
  5
36FD
330
A
100
AcDbEntity
  8
MODEL
  6
Continuous
100
AcDbLine
 10
754.2962854045913
 20
373.5245603465461
 30
0.0
 11
754.2962855116843
 21
375.974560356546
 31
0.0
  0
ARC
  5
36FE
330
A
100
AcDbEntity
  8
MODEL
  6
Continuous
100
AcDbCircle
 10
754.646349296469
 20
373.5246242333145
 30
0.0
 40
0.3500638977051282
100
AcDbArc
 50
180.0104548606235
 51
269.9897158724116
  0
ARC
  5
36FF
330
A
100
AcDbEntity
  8
MODEL
  6
Continuous
100
AcDbCircle
 10
761.3362215127213
 20
373.5246239408893
 30
0.0
 40
0.3500638977034749
100
AcDbArc
 50
270.0102791183298
 51
359.9895401306759
  0
LINE
  5
3700
330
A
100
AcDbEntity
  8
MODEL
  6
Continuous
100
AcDbLine
 10
761.9662855328829
 20
376.4595342373997
 30
0.0
 11
761.9662866920012
 21
402.9770756341952
 31
0.0
  0
LINE
  5
3701
330
A
100
AcDbEntity
  8
MODEL
  6
Continuous
100
AcDbLine
 10
761.9662868125356
 20
405.7345600212797
 30
0.0
 11
761.9662869082636
 21
407.9245600212797
 31
0.0
  0
ARC
  5
3702
330
A
100
AcDbEntity
  8
MODEL
  6
Continuous
100
AcDbCircle
 10
679.5795974078505
 20
379.2141424307962
 30
0.0
 40
30.0
100
AcDbArc
 50
336.4435331864826
 51
348.3858791586957
  0
ARC
  5
3703
330
A
100
AcDbEntity
  8
MODEL
  6
Continuous
100
AcDbCircle
 10
734.5795974078505
 20
379.2141400266698
 30
0.0
 40
30.0
100
AcDbArc
 50
191.6141158323478
 51
203.5564618045609
  0
LINE
  5
3704
330
A
100
AcDbEntity
  8
MODEL
  6
Continuous
100
AcDbLine
 10
710.7045975233091
 20
380.2245622619993
 30
0.0
 11
711.0545975438113
 21
382.3245622467003
 31
0.0
  0
LINE
  5
3705
330
A
100
AcDbEntity
  8
MODEL
  6
Continuous
100
AcDbLine
 10
710.7045975233091
 20
380.2245622619993
 30
0.0
 11
711.0545974520178
 21
380.2245622467002
 31
0.0
  0
LINE
  5
3706
330
A
100
AcDbEntity
  8
MODEL
  6
Continuous
100
AcDbLine
 10
711.0545974520178
 20
380.2245622467002
 30
0.0
 11
711.0545972874429
 21
376.4595364728203
 31
0.0
  0
LINE
  5
3707
330
A
100
AcDbEntity
  8
MODEL
  6
Continuous
100
AcDbLine
 10
703.104597452018
 20
380.2245625942058
 30
0.0
 11
703.104597287444
 21
376.4595368203258
 31
0.0
  0
LINE
  5
3708
330
A
100
AcDbEntity
  8
MODEL
  6
Continuous
100
AcDbLine
 10
703.1045974520171
 20
380.2245625942058
 30
0.0
 11
703.4545975233091
 21
380.2245625789068
 31
0.0
  0
LINE
  5
3709
330
A
100
AcDbEntity
  8
MODEL
  6
Continuous
100
AcDbLine
 10
703.1045975438124
 20
382.3245625942058
 30
0.0
 11
703.4545975233091
 21
380.2245625789068
 31
0.0
  0
LINE
  5
370A
330
A
100
AcDbEntity
  8
MODEL
  6
Continuous
100
AcDbLine
 10
703.1045976268638
 20
384.2245625942058
 30
0.0
 11
703.1045975438124
 21
382.3245625942058
 31
0.0
  0
LINE
  5
370B
330
A
100
AcDbEntity
  8
MODEL
  6
Continuous
100
AcDbLine
 10
703.1045976268638
 20
384.2245625942058
 30
0.0
 11
703.454597698154
 21
384.2245625789068
 31
0.0
  0
LINE
  5
370C
330
A
100
AcDbEntity
  8
MODEL
  6
Continuous
100
AcDbLine
 10
703.1045977186573
 20
386.3245625942058
 30
0.0
 11
703.454597698154
 21
384.2245625789068
 31
0.0
  0
LINE
  5
370D
330
A
100
AcDbEntity
  8
MODEL
  6
Continuous
100
AcDbLine
 10
703.1045978017087
 20
388.2245625942058
 30
0.0
 11
703.1045977186573
 21
386.3245625942058
 31
0.0
  0
LINE
  5
370E
330
A
100
AcDbEntity
  8
MODEL
  6
Continuous
100
AcDbLine
 10
703.1045978017087
 20
388.2245625942058
 30
0.0
 11
703.4545978730007
 21
388.2245625789068
 31
0.0
  0
LINE
  5
370F
330
A
100
AcDbEntity
  8
MODEL
  6
Continuous
100
AcDbLine
 10
703.1045978935031
 20
390.3245625942058
 30
0.0
 11
703.4545978730007
 21
388.2245625789068
 31
0.0
  0
LINE
  5
3710
330
A
100
AcDbEntity
  8
MODEL
  6
Continuous
100
AcDbLine
 10
703.1045979765545
 20
392.2245625942058
 30
0.0
 11
703.1045978935031
 21
390.3245625942058
 31
0.0
  0
LINE
  5
3711
330
A
100
AcDbEntity
  8
MODEL
  6
Continuous
100
AcDbLine
 10
703.1045979765554
 20
392.2245625942058
 30
0.0
 11
703.4545980478456
 21
392.2245625789068
 31
0.0
  0
LINE
  5
3712
330
A
100
AcDbEntity
  8
MODEL
  6
Continuous
100
AcDbLine
 10
703.1045980683489
 20
394.3245625942058
 30
0.0
 11
703.4545980478456
 21
392.2245625789068
 31
0.0
  0
LINE
  5
3713
330
A
100
AcDbEntity
  8
MODEL
  6
Continuous
100
AcDbLine
 10
703.1045981514003
 20
396.2245625942058
 30
0.0
 11
703.1045980683489
 21
394.3245625942058
 31
0.0
  0
LINE
  5
3714
330
A
100
AcDbEntity
  8
MODEL
  6
Continuous
100
AcDbLine
 10
703.1045981514003
 20
396.2245625942058
 30
0.0
 11
703.4545982226923
 21
396.2245625789068
 31
0.0
  0
LINE
  5
3715
330
A
100
AcDbEntity
  8
MODEL
  6
Continuous
100
AcDbLine
 10
703.1045982431938
 20
398.3245625942058
 30
0.0
 11
703.4545982226905
 21
396.2245625789068
 31
0.0
  0
LINE
  5
3716
330
A
100
AcDbEntity
  8
MODEL
  6
Continuous
100
AcDbLine
 10
703.1045983262452
 20
400.2245625942057
 30
0.0
 11
703.1045982431938
 21
398.3245625942058
 31
0.0
  0
LINE
  5
3717
330
A
100
AcDbEntity
  8
MODEL
  6
Continuous
100
AcDbLine
 10
703.1045983262452
 20
400.2245625942058
 30
0.0
 11
703.4545983975372
 21
400.2245625789068
 31
0.0
  0
LINE
  5
3718
330
A
100
AcDbEntity
  8
MODEL
  6
Continuous
100
AcDbLine
 10
703.1045984180396
 20
402.3245625942058
 30
0.0
 11
703.4545983975372
 21
400.2245625789068
 31
0.0
  0
LINE
  5
3719
330
A
100
AcDbEntity
  8
MODEL
  6
Continuous
100
AcDbLine
 10
703.104598501091
 20
404.2245625942058
 30
0.0
 11
703.1045984180396
 21
402.3245625942058
 31
0.0
  0
LINE
  5
371A
330
A
100
AcDbEntity
  8
MODEL
  6
Continuous
100
AcDbLine
 10
703.1045985010919
 20
404.2245625942058
 30
0.0
 11
703.4545985723821
 21
404.2245625789068
 31
0.0
  0
LINE
  5
371B
330
A
100
AcDbEntity
  8
MODEL
  6
Continuous
100
AcDbLine
 10
703.1045985928854
 20
406.3245625942058
 30
0.0
 11
703.4545985723821
 21
404.2245625789068
 31
0.0
  0
LINE
  5
371C
330
A
100
AcDbEntity
  8
MODEL
  6
Continuous
100
AcDbLine
 10
703.1045986628237
 20
407.9245625942057
 30
0.0
 11
703.1045985928854
 21
406.3245625942058
 31
0.0
  0
LINE
  5
371D
330
A
100
AcDbEntity
  8
MODEL
  6
Continuous
100
AcDbLine
 10
711.0545986628235
 20
407.9245622467002
 30
0.0
 11
711.0545985928852
 21
406.3245622467003
 31
0.0
  0
LINE
  5
371E
330
A
100
AcDbEntity
  8
MODEL
  6
Continuous
100
AcDbLine
 10
710.7045985723821
 20
404.2245622619993
 30
0.0
 11
711.0545985928843
 21
406.3245622467001
 31
0.0
  0
LINE
  5
371F
330
A
100
AcDbEntity
  8
MODEL
  6
Continuous
100
AcDbLine
 10
710.7045985723821
 20
404.2245622619993
 30
0.0
 11
711.0545985010908
 21
404.2245622467002
 31
0.0
  0
LINE
  5
3720
330
A
100
AcDbEntity
  8
MODEL
  6
Continuous
100
AcDbLine
 10
711.0545985010908
 20
404.2245622467002
 30
0.0
 11
711.0545984180394
 21
402.3245622467002
 31
0.0
  0
LINE
  5
3721
330
A
100
AcDbEntity
  8
MODEL
  6
Continuous
100
AcDbLine
 10
710.7045983975372
 20
400.2245622619993
 30
0.0
 11
711.0545984180394
 21
402.3245622467002
 31
0.0
  0
LINE
  5
3722
330
A
100
AcDbEntity
  8
MODEL
  6
Continuous
100
AcDbLine
 10
710.7045983975372
 20
400.2245622619993
 30
0.0
 11
711.0545983262459
 21
400.2245622467002
 31
0.0
  0
LINE
  5
3723
330
A
100
AcDbEntity
  8
MODEL
  6
Continuous
100
AcDbLine
 10
711.0545983262459
 20
400.2245622467002
 30
0.0
 11
711.0545982431945
 21
398.3245622467002
 31
0.0
  0
LINE
  5
3724
330
A
100
AcDbEntity
  8
MODEL
  6
Continuous
100
AcDbLine
 10
710.7045982226914
 20
396.2245622619993
 30
0.0
 11
711.0545982431945
 21
398.3245622467003
 31
0.0
  0
LINE
  5
3725
330
A
100
AcDbEntity
  8
MODEL
  6
Continuous
100
AcDbLine
 10
710.7045982226923
 20
396.2245622619993
 30
0.0
 11
711.054598151401
 21
396.2245622467002
 31
0.0
  0
LINE
  5
3726
330
A
100
AcDbEntity
  8
MODEL
  6
Continuous
100
AcDbLine
 10
711.0545981514001
 20
396.2245622467002
 30
0.0
 11
711.0545980683487
 21
394.3245622467002
 31
0.0
  0
LINE
  5
3727
330
A
100
AcDbEntity
  8
MODEL
  6
Continuous
100
AcDbLine
 10
710.7045980478456
 20
392.2245622619993
 30
0.0
 11
711.0545980683478
 21
394.3245622467003
 31
0.0
  0
LINE
  5
3728
330
A
100
AcDbEntity
  8
MODEL
  6
Continuous
100
AcDbLine
 10
710.7045980478456
 20
392.2245622619993
 30
0.0
 11
711.0545979765543
 21
392.2245622467002
 31
0.0
  0
LINE
  5
3729
330
A
100
AcDbEntity
  8
MODEL
  6
Continuous
100
AcDbLine
 10
711.0545979765543
 20
392.2245622467002
 30
0.0
 11
711.0545978935029
 21
390.3245622467002
 31
0.0
  0
LINE
  5
372A
330
A
100
AcDbEntity
  8
MODEL
  6
Continuous
100
AcDbLine
 10
710.7045978730007
 20
388.2245622619993
 30
0.0
 11
711.0545978935029
 21
390.3245622467003
 31
0.0
  0
LINE
  5
372B
330
A
100
AcDbEntity
  8
MODEL
  6
Continuous
100
AcDbLine
 10
710.7045978730007
 20
388.2245622619993
 30
0.0
 11
711.0545978017094
 21
388.2245622467002
 31
0.0
  0
LINE
  5
372C
330
A
100
AcDbEntity
  8
MODEL
  6
Continuous
100
AcDbLine
 10
711.0545978017094
 20
388.2245622467002
 30
0.0
 11
711.054597718658
 21
386.3245622467002
 31
0.0
  0
LINE
  5
372D
330
A
100
AcDbEntity
  8
MODEL
  6
Continuous
100
AcDbLine
 10
710.7045976981549
 20
384.2245622619993
 30
0.0
 11
711.054597718658
 21
386.3245622467003
 31
0.0
  0
LINE
  5
372E
330
A
100
AcDbEntity
  8
MODEL
  6
Continuous
100
AcDbLine
 10
710.704597698154
 20
384.2245622619993
 30
0.0
 11
711.0545976268627
 21
384.2245622467002
 31
0.0
  0
LINE
  5
372F
330
A
100
AcDbEntity
  8
MODEL
  6
Continuous
100
AcDbLine
 10
711.0545976268636
 20
384.2245622467002
 30
0.0
 11
711.0545975438122
 21
382.3245622467002
 31
0.0
  0
LINE
  5
3730
330
A
100
AcDbEntity
  8
MODEL
  6
Continuous
100
AcDbLine
 10
705.3295974747066
 20
377.1745624969479
 30
0.0
 11
705.3295987231036
 21
405.7345624969479
 31
0.0
  0
LINE
  5
3731
330
A
100
AcDbEntity
  8
MODEL
  6
Continuous
100
AcDbLine
 10
705.3295974747066
 20
377.1745624969479
 30
0.0
 11
705.8895974844822
 21
377.1745624724696
 31
0.0
  0
LINE
  5
3732
330
A
100
AcDbEntity
  8
MODEL
  6
Continuous
100
AcDbLine
 10
705.8895974844822
 20
377.1745624724696
 30
0.0
 11
705.8895985860095
 21
402.3745624724695
 31
0.0
  0
LWPOLYLINE
  5
3733
330
A
100
AcDbEntity
  8
MODEL
  6
Continuous
100
AcDbPolyline
 90
        6
 70
     0
 43
0.0
 10
705.8895922550569
 20
402.3745654460271
 10
706.3375903019319
 20
402.7470019694646
 10
706.7855883488069
 20
402.9415515300115
 10
707.2335863956819
 20
402.9673541423161
 10
707.6813403019319
 20
402.8265918132146
 10
708.2697192081819
 20
402.3745654460271
  0
LINE
  5
3734
330
A
100
AcDbEntity
  8
MODEL
  6
Continuous
100
AcDbLine
 10
708.2695974844823
 20
377.1745623684365
 30
0.0
 11
708.2695985860087
 21
402.3745623684364
 31
0.0
  0
LINE
  5
3735
330
A
100
AcDbEntity
  8
MODEL
  6
Continuous
100
AcDbLine
 10
708.2695974844823
 20
377.1745623684365
 30
0.0
 11
708.8295974747066
 21
377.1745623439581
 31
0.0
  0
LINE
  5
3736
330
A
100
AcDbEntity
  8
MODEL
  6
Continuous
100
AcDbLine
 10
708.8295987231036
 20
405.7345623439581
 30
0.0
 11
708.8295974747057
 21
377.1745623439581
 31
0.0
  0
LINE
  5
3737
330
A
100
AcDbEntity
  8
MODEL
  6
Continuous
100
AcDbLine
 10
705.3295987231036
 20
405.7345624969479
 30
0.0
 11
708.8295987231036
 21
405.7345623439581
 31
0.0
  0
LINE
  5
3738
330
A
100
AcDbEntity
  8
MODEL
  6
Continuous
100
AcDbLine
 10
710.4245960703042
 20
373.1745622742385
 30
0.0
 11
703.7345982174006
 21
373.1745625666676
 31
0.0
  0
ARC
  5
3739
330
A
100
AcDbEntity
  8
MODEL
  6
Continuous
100
AcDbCircle
 10
703.7345971591517
 20
373.5245625666677
 30
0.0
 40
0.35
100
AcDbArc
 50
179.9999974957509
 51
270.0001732377061
  0
ARC
  5
373A
330
A
100
AcDbEntity
  8
MODEL
  6
Continuous
100
AcDbCircle
 10
710.4245971591522
 20
373.5245622742384
 30
0.0
 40
0.35
100
AcDbArc
 50
269.9998217533117
 51
359.9999974953042
  0
LINE
  5
373B
330
A
100
AcDbEntity
  8
MODEL
  6
Continuous
100
AcDbLine
 10
710.7745972662447
 20
375.9745622589395
 30
0.0
 11
710.7745971591517
 21
373.5245622589395
 31
0.0
  0
LINE
  5
373C
330
A
100
AcDbEntity
  8
MODEL
  6
Continuous
100
AcDbLine
 10
703.3845972662443
 20
375.9745625819666
 30
0.0
 11
703.3845971591513
 21
373.5245625819666
 31
0.0
  0
LINE
  5
373D
330
A
100
AcDbEntity
  8
MODEL
  6
Continuous
100
AcDbLine
 10
710.7745972662437
 20
375.9745622589395
 30
0.0
 11
703.3845972662443
 21
375.9745625819666
 31
0.0
  0
LINE
  5
373E
330
A
100
AcDbEntity
  8
MODEL
  6
Continuous
100
AcDbLine
 10
711.0545972874429
 20
376.4595364728203
 30
0.0
 11
710.7745972662437
 21
375.9745622589396
 31
0.0
  0
LINE
  5
373F
330
A
100
AcDbEntity
  8
MODEL
  6
Continuous
100
AcDbLine
 10
703.104597287444
 20
376.4595368203258
 30
0.0
 11
703.3845972662452
 21
375.9745625819668
 31
0.0
  0
LINE
  5
3740
330
A
100
AcDbEntity
  8
MODEL
  6
Continuous
100
AcDbLine
 10
705.8895987454384
 20
405.1745624724696
 30
0.0
 11
708.2695987454385
 21
405.1745623684366
 31
0.0
  0
LINE
  5
3741
330
A
100
AcDbEntity
  8
MODEL
  6
Continuous
100
AcDbLine
 10
705.8895987454384
 20
405.1745624724696
 30
0.0
 11
705.8895985860095
 21
402.3745624724697
 31
0.0
  0
LINE
  5
3742
330
A
100
AcDbEntity
  8
MODEL
  6
Continuous
100
AcDbLine
 10
708.2695987454376
 20
405.1745623684363
 30
0.0
 11
708.2695985860087
 21
402.3745623684366
 31
0.0
  0
LINE
  5
3743
330
A
100
AcDbEntity
  8
MODEL
  6
Continuous
100
AcDbLine
 10
677.5354441031864
 20
408.5245637118691
 30
0.0
 11
787.5354441031864
 21
408.5245589036164
 31
0.0
  0
LINE
  5
3744
102
{ACAD_REACTORS
330
3938
102
}
330
A
100
AcDbEntity
  8
MODEL
  6
Continuous
100
AcDbLine
 10
677.5354441031864
 20
408.5245637118691
 30
0.0
 11
677.5354447151462
 21
422.5245637118691
 31
0.0
  0
LINE
  5
3745
102
{ACAD_REACTORS
330
3938
102
}
330
A
100
AcDbEntity
  8
MODEL
  6
Continuous
100
AcDbLine
 10
787.5354441031864
 20
408.5245589036164
 30
0.0
 11
787.5354447151462
 21
422.5245589036164
 31
0.0
  0
LINE
  5
3746
330
A
100
AcDbEntity
  8
MODEL
  6
Continuous
100
AcDbLine
 10
677.5354447151462
 20
422.5245637118691
 30
0.0
 11
787.5354447151462
 21
422.5245589036164
 31
0.0
  0
ARC
  5
3747
330
A
100
AcDbEntity
  8
MODEL
  6
Continuous
100
AcDbCircle
 10
732.5354442780322
 20
412.5245613077426
 30
0.0
 40
2.5
100
AcDbArc
 50
269.9999974959586
 51
89.99999749552087
  0
ARC
  5
3748
330
A
100
AcDbEntity
  8
MODEL
  6
Continuous
100
AcDbCircle
 10
732.5354442780322
 20
412.5245613077426
 30
0.0
 40
2.5
100
AcDbArc
 50
89.9999974959586
 51
269.9999974955209
  0
LINE
  5
3749
330
A
100
AcDbEntity
  8
MODEL
  6
Continuous
100
AcDbLine
 10
742.5354743514667
 20
1126.524560870628
 30
0.0
 11
742.5354435786489
 21
422.5245608706288
 31
0.0
  0
ARC
  5
374A
330
A
100
AcDbEntity
  8
MODEL
  6
Continuous
100
AcDbCircle
 10
732.5354438846293
 20
428.5245613077426
 30
0.0
 40
2.65
100
AcDbArc
 50
359.9999974955244
 51
179.9999974950722
  0
ARC
  5
374B
330
A
100
AcDbEntity
  8
MODEL
  6
Continuous
100
AcDbCircle
 10
732.5354438846293
 20
428.5245613077426
 30
0.0
 40
2.65
100
AcDbArc
 50
179.9999974955195
 51
359.999997495077
  0
LINE
  5
374C
330
A
100
AcDbEntity
  8
MODEL
  6
Continuous
100
AcDbLine
 10
722.5354743514667
 20
1126.524561744856
 30
0.0
 11
722.5354435786489
 21
422.5245617448567
 31
0.0
  0
ARC
  5
374D
330
A
100
AcDbEntity
  8
MODEL
  6
Continuous
100
AcDbCircle
 10
777.0354279782246
 20
409.9242743308859
 30
0.0
 40
1.999709097244156
100
AcDbArc
 50
269.9952258689634
 51
315.576259235994
  0
LINE
  5
374E
330
A
100
AcDbEntity
  8
MODEL
  6
Continuous
100
AcDbLine
 10
732.53544361799
 20
407.9245613077427
 30
0.0
 11
777.0352808696266
 21
407.924559362593
 31
0.0
  0
ARC
  5
374F
330
A
100
AcDbEntity
  8
MODEL
  6
Continuous
100
AcDbCircle
 10
688.0352439807962
 20
409.9237517855648
 30
0.0
 40
1.999182611983633
100
AcDbArc
 50
224.4173989954303
 51
270.0102742922613
  0
LINE
  5
3750
330
A
100
AcDbEntity
  8
MODEL
  6
Continuous
100
AcDbLine
 10
732.53544361799
 20
407.9245613077427
 30
0.0
 11
688.035602476039
 21
407.9245632528924
 31
0.0
  0
LINE
  5
3751
330
A
100
AcDbEntity
  8
MODEL
  6
Continuous
100
AcDbLine
 10
697.5354837931268
 20
1126.524562837641
 30
0.0
 11
747.5354837931268
 21
1126.524560652071
 31
0.0
  0
LINE
  5
3752
330
A
100
AcDbEntity
  8
MODEL
  6
Continuous
100
AcDbLine
 10
697.5354837931268
 20
1126.524562837641
 30
0.0
 11
697.5354843613754
 21
1139.524562837641
 31
0.0
  0
LINE
  5
3753
330
A
100
AcDbEntity
  8
MODEL
  6
Continuous
100
AcDbLine
 10
747.5354837931268
 20
1126.524560652071
 30
0.0
 11
747.5354843613754
 21
1139.524560652071
 31
0.0
  0
LINE
  5
3754
330
A
100
AcDbEntity
  8
MODEL
  6
Continuous
100
AcDbLine
 10
697.5354843613754
 20
1139.524562837641
 30
0.0
 11
747.5354843613754
 21
1139.524560652071
 31
0.0
  0
ARC
  5
3755
330
A
100
AcDbEntity
  8
MODEL
  6
Continuous
100
AcDbCircle
 10
735.5354841209623
 20
1134.024561176608
 30
0.0
 40
3.6
100
AcDbArc
 50
359.9999974957427
 51
89.9999974955255
  0
LINE
  5
3756
330
A
100
AcDbEntity
  8
MODEL
  6
Continuous
100
AcDbLine
 10
709.5354842783231
 20
1137.624562312794
 30
0.0
 11
735.5354842783231
 21
1137.624561175677
 31
0.0
  0
ARC
  5
3757
330
A
100
AcDbEntity
  8
MODEL
  6
Continuous
100
AcDbCircle
 10
709.5354841209623
 20
1134.024562313104
 30
0.0
 40
3.6
100
AcDbArc
 50
89.99999749574263
 51
179.9999973745792
  0
LINE
  5
3758
330
A
100
AcDbEntity
  8
MODEL
  6
Continuous
100
AcDbLine
 10
705.9354840338497
 20
1132.024562470465
 30
0.0
 11
705.9354841218942
 21
1134.024562478064
 31
0.0
  0
ARC
  5
3759
330
A
100
AcDbEntity
  8
MODEL
  6
Continuous
100
AcDbCircle
 10
709.535484033539
 20
1132.024562313104
 30
0.0
 40
3.6
100
AcDbArc
 50
179.9999974957426
 51
269.9999973745719
  0
LINE
  5
375A
330
A
100
AcDbEntity
  8
MODEL
  6
Continuous
100
AcDbLine
 10
735.5354838761782
 20
1128.424561176918
 30
0.0
 11
709.5354838685785
 21
1128.424562314035
 31
0.0
  0
ARC
  5
375B
330
A
100
AcDbEntity
  8
MODEL
  6
Continuous
100
AcDbCircle
 10
735.535484033539
 20
1132.024561176608
 30
0.0
 40
3.6
100
AcDbArc
 50
269.9999974957428
 51
359.9999973745793
  0
LINE
  5
375C
330
A
100
AcDbEntity
  8
MODEL
  6
Continuous
100
AcDbLine
 10
739.1354841206526
 20
1134.024561019247
 30
0.0
 11
739.135484032608
 21
1132.024561011648
 31
0.0
  0
ARC
  5
375D
330
A
100
AcDbEntity
  8
MODEL
  6
Continuous
100
AcDbCircle
 10
735.5354840947352
 20
1134.024561176608
 30
0.0
 40
3.0
100
AcDbArc
 50
359.9999974957397
 51
89.99999749551394
  0
LINE
  5
375E
330
A
100
AcDbEntity
  8
MODEL
  6
Continuous
100
AcDbLine
 10
738.5354840945452
 20
1134.024561045474
 30
0.0
 11
738.5354840067344
 21
1132.024561040725
 31
0.0
  0
ARC
  5
375F
330
A
100
AcDbEntity
  8
MODEL
  6
Continuous
100
AcDbCircle
 10
735.5354840073128
 20
1132.024561176608
 30
0.0
 40
3.0
100
AcDbArc
 50
269.9999974957571
 51
359.9999974048162
  0
LINE
  5
3760
330
A
100
AcDbEntity
  8
MODEL
  6
Continuous
100
AcDbLine
 10
735.5354838761782
 20
1129.024561176801
 30
0.0
 11
709.5354838714288
 21
1129.024562313685
 31
0.0
  0
ARC
  5
3761
330
A
100
AcDbEntity
  8
MODEL
  6
Continuous
100
AcDbCircle
 10
709.5354840073128
 20
1132.024562313104
 30
0.0
 40
3.0
100
AcDbArc
 50
179.9999974957484
 51
269.9999974048074
  0
LINE
  5
3762
330
A
100
AcDbEntity
  8
MODEL
  6
Continuous
100
AcDbLine
 10
706.5354840075029
 20
1132.024562444238
 30
0.0
 11
706.5354840953137
 21
1134.024562448987
 31
0.0
  0
ARC
  5
3763
330
A
100
AcDbEntity
  8
MODEL
  6
Continuous
100
AcDbCircle
 10
709.5354840947352
 20
1134.024562313104
 30
0.0
 40
3.0
100
AcDbArc
 50
89.99999749575711
 51
179.9999974048248
  0
LINE
  5
3764
330
A
100
AcDbEntity
  8
MODEL
  6
Continuous
100
AcDbLine
 10
709.5354842258698
 20
1137.024562312914
 30
0.0
 11
735.5354842258698
 21
1137.02456117603
 31
0.0
  0
ARC
  5
3765
330
A
100
AcDbEntity
  8
MODEL
  6
Continuous
100
AcDbCircle
 10
735.385484070694
 20
1133.874561183165
 30
0.0
 40
3.0
100
AcDbArc
 50
359.9999974955227
 51
89.9999974953055
  0
LINE
  5
3766
330
A
100
AcDbEntity
  8
MODEL
  6
Continuous
100
AcDbLine
 10
735.3854842018286
 20
1136.874561183165
 30
0.0
 11
709.6854842018288
 21
1136.874562306547
 31
0.0
  0
LINE
  5
3767
330
A
100
AcDbEntity
  8
MODEL
  6
Continuous
100
AcDbLine
 10
738.3854839963847
 20
1132.174561052031
 30
0.0
 11
738.385484070694
 21
1133.87456105203
 31
0.0
  0
ARC
  5
3768
330
A
100
AcDbEntity
  8
MODEL
  6
Continuous
100
AcDbCircle
 10
735.3854839963847
 20
1132.174561183165
 30
0.0
 40
3.0
100
AcDbArc
 50
269.9999974955139
 51
359.9999974952968
  0
LINE
  5
3769
330
A
100
AcDbEntity
  8
MODEL
  6
Continuous
100
AcDbLine
 10
709.6854838652512
 20
1129.174562306547
 30
0.0
 11
735.385483865251
 21
1129.174561183165
 31
0.0
  0
ARC
  5
376A
330
A
100
AcDbEntity
  8
MODEL
  6
Continuous
100
AcDbCircle
 10
709.6854839963848
 20
1132.174562306547
 30
0.0
 40
3.0
100
AcDbArc
 50
179.9999974955226
 51
269.999997495288
  0
LINE
  5
376B
330
A
100
AcDbEntity
  8
MODEL
  6
Continuous
100
AcDbLine
 10
706.6854840706942
 20
1133.874562437682
 30
0.0
 11
706.6854839963848
 21
1132.174562437681
 31
0.0
  0
ARC
  5
376C
330
A
100
AcDbEntity
  8
MODEL
  6
Continuous
100
AcDbCircle
 10
709.6854840706942
 20
1133.874562306547
 30
0.0
 40
3.0
100
AcDbArc
 50
89.9999974955313
 51
179.9999974952968
  0
LINE
  5
376D
330
A
100
AcDbEntity
  8
MODEL
  6
Continuous
100
AcDbLine
 10
707.2854840706937
 20
1133.874562411454
 30
0.0
 11
707.2854839963843
 21
1132.174562411455
 31
0.0
  0
ARC
  5
376E
330
A
100
AcDbEntity
  8
MODEL
  6
Continuous
100
AcDbCircle
 10
709.6854839963848
 20
1132.174562306547
 30
0.0
 40
2.4
100
AcDbArc
 50
179.9999974955183
 51
269.999997495301
  0
LINE
  5
376F
330
A
100
AcDbEntity
  8
MODEL
  6
Continuous
100
AcDbLine
 10
709.6854838914774
 20
1129.774562306548
 30
0.0
 11
735.3854838914772
 21
1129.774561183165
 31
0.0
  0
ARC
  5
3770
330
A
100
AcDbEntity
  8
MODEL
  6
Continuous
100
AcDbCircle
 10
735.3854839963847
 20
1132.174561183165
 30
0.0
 40
2.4
100
AcDbArc
 50
269.9999974955182
 51
359.9999974952903
  0
LINE
  5
3771
330
A
100
AcDbEntity
  8
MODEL
  6
Continuous
100
AcDbLine
 10
737.7854839963843
 20
1132.174561078257
 30
0.0
 11
737.7854840706937
 21
1133.874561078257
 31
0.0
  0
ARC
  5
3772
330
A
100
AcDbEntity
  8
MODEL
  6
Continuous
100
AcDbCircle
 10
735.385484070694
 20
1133.874561183165
 30
0.0
 40
2.4
100
AcDbArc
 50
359.9999974955182
 51
89.99999749530116
  0
LINE
  5
3773
330
A
100
AcDbEntity
  8
MODEL
  6
Continuous
100
AcDbLine
 10
735.3854841756015
 20
1136.274561183165
 30
0.0
 11
709.6854841756017
 21
1136.274562306548
 31
0.0
  0
ARC
  5
3774
330
A
100
AcDbEntity
  8
MODEL
  6
Continuous
100
AcDbCircle
 10
709.6854840706942
 20
1133.874562306547
 30
0.0
 40
2.4
100
AcDbArc
 50
89.99999749551827
 51
179.9999974953012
  0
ARC
  5
3775
330
A
100
AcDbEntity
  8
MODEL
  6
Continuous
100
AcDbCircle
 10
708.2354841253332
 20
1135.624562369929
 30
0.0
 40
0.5
100
AcDbArc
 50
359.9999974955313
 51
48.37567247141178
  0
ARC
  5
3776
330
A
100
AcDbEntity
  8
MODEL
  6
Continuous
100
AcDbCircle
 10
708.2354838980341
 20
1130.424562369929
 30
0.0
 40
0.5
100
AcDbArc
 50
359.9999974954792
 51
149.0873225567055
  0
ARC
  5
3777
330
A
100
AcDbEntity
  8
MODEL
  6
Continuous
100
AcDbCircle
 10
708.2354841253332
 20
1135.624562369929
 30
0.0
 40
0.5
100
AcDbArc
 50
210.9126724340491
 51
359.9999974951666
  0
ARC
  5
3778
330
A
100
AcDbEntity
  8
MODEL
  6
Continuous
100
AcDbCircle
 10
736.8354841253336
 20
1135.624561119783
 30
0.0
 40
0.5
100
AcDbArc
 50
131.6243225198418
 51
179.9999974954271
  0
ARC
  5
3779
330
A
100
AcDbEntity
  8
MODEL
  6
Continuous
100
AcDbCircle
 10
736.8354841253336
 20
1135.624561119783
 30
0.0
 40
0.5
100
AcDbArc
 50
179.9999974955313
 51
329.087322556683
  0
ARC
  5
377A
330
A
100
AcDbEntity
  8
MODEL
  6
Continuous
100
AcDbCircle
 10
736.8354838980345
 20
1130.424561119783
 30
0.0
 40
0.5
100
AcDbArc
 50
30.91267243407152
 51
179.9999974951665
  0
ARC
  5
377B
330
A
100
AcDbEntity
  8
MODEL
  6
Continuous
100
AcDbCircle
 10
736.8354838980345
 20
1130.424561119783
 30
0.0
 40
0.5
100
AcDbArc
 50
179.9999974955313
 51
228.3756724714118
  0
ARC
  5
377C
330
A
100
AcDbEntity
  8
MODEL
  6
Continuous
100
AcDbCircle
 10
708.2354838980341
 20
1130.424562369929
 30
0.0
 40
0.5
100
AcDbArc
 50
311.6243225198418
 51
359.999997495375
  0
ARC
  5
377D
330
A
100
AcDbEntity
  8
MODEL
  6
Continuous
100
AcDbCircle
 10
723.835484011684
 20
1133.024561688031
 30
0.0
 40
0.5
100
AcDbArc
 50
359.9999974955313
 51
179.9999974950623
  0
ARC
  5
377E
330
A
100
AcDbEntity
  8
MODEL
  6
Continuous
100
AcDbCircle
 10
723.835484011684
 20
1133.024561688031
 30
0.0
 40
0.5
100
AcDbArc
 50
179.9999974955313
 51
359.9999974950623
  0
ARC
  5
377F
330
A
100
AcDbEntity
  8
MODEL
  6
Continuous
100
AcDbCircle
 10
723.8354840685083
 20
1134.324561688031
 30
0.0
 40
0.5
100
AcDbArc
 50
359.9999974954792
 51
179.9999974951144
  0
ARC
  5
3780
330
A
100
AcDbEntity
  8
MODEL
  6
Continuous
100
AcDbCircle
 10
723.8354840685083
 20
1134.324561688031
 30
0.0
 40
0.5
100
AcDbArc
 50
179.9999974955313
 51
359.9999974950623
  0
ARC
  5
3781
330
A
100
AcDbEntity
  8
MODEL
  6
Continuous
100
AcDbCircle
 10
722.535484068509
 20
1134.324561744856
 30
0.0
 40
0.5
100
AcDbArc
 50
359.9999974954792
 51
179.9999974951144
  0
ARC
  5
3782
330
A
100
AcDbEntity
  8
MODEL
  6
Continuous
100
AcDbCircle
 10
722.535484068509
 20
1134.324561744856
 30
0.0
 40
0.5
100
AcDbArc
 50
179.9999974955313
 51
359.9999974950623
  0
ARC
  5
3783
330
A
100
AcDbEntity
  8
MODEL
  6
Continuous
100
AcDbCircle
 10
721.2354840685089
 20
1134.324561801681
 30
0.0
 40
0.5
100
AcDbArc
 50
359.9999974955313
 51
179.9999974950623
  0
ARC
  5
3784
330
A
100
AcDbEntity
  8
MODEL
  6
Continuous
100
AcDbCircle
 10
721.2354840685089
 20
1134.324561801681
 30
0.0
 40
0.5
100
AcDbArc
 50
179.9999974955313
 51
359.9999974950623
  0
ARC
  5
3785
330
A
100
AcDbEntity
  8
MODEL
  6
Continuous
100
AcDbCircle
 10
721.2354840116836
 20
1133.024561801681
 30
0.0
 40
0.5
100
AcDbArc
 50
359.9999974955313
 51
179.9999974950623
  0
ARC
  5
3786
330
A
100
AcDbEntity
  8
MODEL
  6
Continuous
100
AcDbCircle
 10
721.2354840116836
 20
1133.024561801681
 30
0.0
 40
0.5
100
AcDbArc
 50
179.9999974954792
 51
359.9999974951144
  0
ARC
  5
3787
330
A
100
AcDbEntity
  8
MODEL
  6
Continuous
100
AcDbCircle
 10
721.2354839548593
 20
1131.724561801681
 30
0.0
 40
0.5
100
AcDbArc
 50
359.9999974955313
 51
179.9999974950623
  0
ARC
  5
3788
330
A
100
AcDbEntity
  8
MODEL
  6
Continuous
100
AcDbCircle
 10
721.2354839548593
 20
1131.724561801681
 30
0.0
 40
0.5
100
AcDbArc
 50
179.9999974955313
 51
359.9999974950623
  0
ARC
  5
3789
330
A
100
AcDbEntity
  8
MODEL
  6
Continuous
100
AcDbCircle
 10
722.5354839548586
 20
1131.724561744856
 30
0.0
 40
0.5
100
AcDbArc
 50
359.9999974954792
 51
179.9999974951144
  0
ARC
  5
378A
330
A
100
AcDbEntity
  8
MODEL
  6
Continuous
100
AcDbCircle
 10
722.5354839548586
 20
1131.724561744856
 30
0.0
 40
0.5
100
AcDbArc
 50
179.9999974955313
 51
359.9999974950623
  0
ARC
  5
378B
330
A
100
AcDbEntity
  8
MODEL
  6
Continuous
100
AcDbCircle
 10
723.8354839548588
 20
1131.724561688031
 30
0.0
 40
0.5
100
AcDbArc
 50
359.9999974954792
 51
179.9999974951144
  0
ARC
  5
378C
330
A
100
AcDbEntity
  8
MODEL
  6
Continuous
100
AcDbCircle
 10
723.8354839548588
 20
1131.724561688031
 30
0.0
 40
0.5
100
AcDbArc
 50
179.9999974955313
 51
359.9999974950623
  0
ARC
  5
378D
330
A
100
AcDbEntity
  8
MODEL
  6
Continuous
100
AcDbCircle
 10
725.135483954859
 20
1131.724561631207
 30
0.0
 40
0.5
100
AcDbArc
 50
359.9999974954792
 51
179.9999974951144
  0
ARC
  5
378E
330
A
100
AcDbEntity
  8
MODEL
  6
Continuous
100
AcDbCircle
 10
725.135483954859
 20
1131.724561631207
 30
0.0
 40
0.5
100
AcDbArc
 50
179.9999974955313
 51
359.9999974950623
  0
ARC
  5
378F
330
A
100
AcDbEntity
  8
MODEL
  6
Continuous
100
AcDbCircle
 10
725.1354840116842
 20
1133.024561631206
 30
0.0
 40
0.5
100
AcDbArc
 50
359.9999974955313
 51
179.9999974950623
  0
ARC
  5
3790
330
A
100
AcDbEntity
  8
MODEL
  6
Continuous
100
AcDbCircle
 10
725.1354840116842
 20
1133.024561631206
 30
0.0
 40
0.5
100
AcDbArc
 50
179.9999974955313
 51
359.9999974950623
  0
ARC
  5
3791
330
A
100
AcDbEntity
  8
MODEL
  6
Continuous
100
AcDbCircle
 10
725.1354840685085
 20
1134.324561631207
 30
0.0
 40
0.5
100
AcDbArc
 50
359.9999974954792
 51
179.9999974951144
  0
ARC
  5
3792
330
A
100
AcDbEntity
  8
MODEL
  6
Continuous
100
AcDbCircle
 10
725.1354840685085
 20
1134.324561631207
 30
0.0
 40
0.5
100
AcDbArc
 50
179.9999974955313
 51
359.9999974950623
  0
ARC
  5
3793
330
A
100
AcDbEntity
  8
MODEL
  6
Continuous
100
AcDbCircle
 10
725.1354841253328
 20
1135.624561631206
 30
0.0
 40
0.5
100
AcDbArc
 50
359.9999974955313
 51
179.9999974950623
  0
ARC
  5
3794
330
A
100
AcDbEntity
  8
MODEL
  6
Continuous
100
AcDbCircle
 10
725.1354841253328
 20
1135.624561631206
 30
0.0
 40
0.5
100
AcDbArc
 50
179.9999974954792
 51
359.9999974951144
  0
ARC
  5
3795
330
A
100
AcDbEntity
  8
MODEL
  6
Continuous
100
AcDbCircle
 10
723.8354841253336
 20
1135.624561688031
 30
0.0
 40
0.5
100
AcDbArc
 50
359.9999974955313
 51
179.9999974950623
  0
ARC
  5
3796
330
A
100
AcDbEntity
  8
MODEL
  6
Continuous
100
AcDbCircle
 10
723.8354841253336
 20
1135.624561688031
 30
0.0
 40
0.5
100
AcDbArc
 50
179.9999974954792
 51
359.9999974951144
  0
ARC
  5
3797
330
A
100
AcDbEntity
  8
MODEL
  6
Continuous
100
AcDbCircle
 10
722.5354841253334
 20
1135.624561744856
 30
0.0
 40
0.5
100
AcDbArc
 50
359.9999974955313
 51
179.9999974950623
  0
ARC
  5
3798
330
A
100
AcDbEntity
  8
MODEL
  6
Continuous
100
AcDbCircle
 10
722.5354841253334
 20
1135.624561744856
 30
0.0
 40
0.5
100
AcDbArc
 50
179.9999974954792
 51
359.9999974951144
  0
ARC
  5
3799
330
A
100
AcDbEntity
  8
MODEL
  6
Continuous
100
AcDbCircle
 10
721.2354841253332
 20
1135.624561801681
 30
0.0
 40
0.5
100
AcDbArc
 50
359.9999974954792
 51
179.9999974951144
  0
ARC
  5
379A
330
A
100
AcDbEntity
  8
MODEL
  6
Continuous
100
AcDbCircle
 10
721.2354841253332
 20
1135.624561801681
 30
0.0
 40
0.5
100
AcDbArc
 50
179.9999974955313
 51
359.9999974950623
  0
ARC
  5
379B
330
A
100
AcDbEntity
  8
MODEL
  6
Continuous
100
AcDbCircle
 10
719.9354841253339
 20
1135.624561858506
 30
0.0
 40
0.5
100
AcDbArc
 50
359.9999974954792
 51
179.9999974951144
  0
ARC
  5
379C
330
A
100
AcDbEntity
  8
MODEL
  6
Continuous
100
AcDbCircle
 10
719.9354841253339
 20
1135.624561858506
 30
0.0
 40
0.5
100
AcDbArc
 50
179.9999974955313
 51
359.9999974950623
  0
ARC
  5
379D
330
A
100
AcDbEntity
  8
MODEL
  6
Continuous
100
AcDbCircle
 10
719.9354840685087
 20
1134.324561858506
 30
0.0
 40
0.5
100
AcDbArc
 50
359.9999974955313
 51
179.9999974950623
  0
ARC
  5
379E
330
A
100
AcDbEntity
  8
MODEL
  6
Continuous
100
AcDbCircle
 10
719.9354840685087
 20
1134.324561858506
 30
0.0
 40
0.5
100
AcDbArc
 50
179.9999974955313
 51
359.9999974950623
  0
ARC
  5
379F
330
A
100
AcDbEntity
  8
MODEL
  6
Continuous
100
AcDbCircle
 10
719.9354840116835
 20
1133.024561858505
 30
0.0
 40
0.5
100
AcDbArc
 50
359.9999974955313
 51
179.9999974950623
  0
ARC
  5
37A0
330
A
100
AcDbEntity
  8
MODEL
  6
Continuous
100
AcDbCircle
 10
719.9354840116835
 20
1133.024561858505
 30
0.0
 40
0.5
100
AcDbArc
 50
179.9999974954792
 51
359.9999974951144
  0
ARC
  5
37A1
330
A
100
AcDbEntity
  8
MODEL
  6
Continuous
100
AcDbCircle
 10
719.9354839548591
 20
1131.724561858506
 30
0.0
 40
0.5
100
AcDbArc
 50
359.9999974955313
 51
179.9999974950623
  0
ARC
  5
37A2
330
A
100
AcDbEntity
  8
MODEL
  6
Continuous
100
AcDbCircle
 10
719.9354839548591
 20
1131.724561858506
 30
0.0
 40
0.5
100
AcDbArc
 50
179.9999974955313
 51
359.9999974950623
  0
ARC
  5
37A3
330
A
100
AcDbEntity
  8
MODEL
  6
Continuous
100
AcDbCircle
 10
719.9354838980339
 20
1130.424561858506
 30
0.0
 40
0.5
100
AcDbArc
 50
359.9999974955313
 51
179.9999974950623
  0
ARC
  5
37A4
330
A
100
AcDbEntity
  8
MODEL
  6
Continuous
100
AcDbCircle
 10
719.9354838980339
 20
1130.424561858506
 30
0.0
 40
0.5
100
AcDbArc
 50
179.9999974955313
 51
359.9999974950623
  0
ARC
  5
37A5
330
A
100
AcDbEntity
  8
MODEL
  6
Continuous
100
AcDbCircle
 10
721.2354838980341
 20
1130.424561801681
 30
0.0
 40
0.5
100
AcDbArc
 50
359.9999974955313
 51
179.9999974950623
  0
ARC
  5
37A6
330
A
100
AcDbEntity
  8
MODEL
  6
Continuous
100
AcDbCircle
 10
721.2354838980341
 20
1130.424561801681
 30
0.0
 40
0.5
100
AcDbArc
 50
179.9999974955313
 51
359.9999974950623
  0
ARC
  5
37A7
330
A
100
AcDbEntity
  8
MODEL
  6
Continuous
100
AcDbCircle
 10
722.5354838980343
 20
1130.424561744856
 30
0.0
 40
0.5
100
AcDbArc
 50
359.9999974955313
 51
179.9999974950623
  0
ARC
  5
37A8
330
A
100
AcDbEntity
  8
MODEL
  6
Continuous
100
AcDbCircle
 10
722.5354838980343
 20
1130.424561744856
 30
0.0
 40
0.5
100
AcDbArc
 50
179.9999974955313
 51
359.9999974950623
  0
ARC
  5
37A9
330
A
100
AcDbEntity
  8
MODEL
  6
Continuous
100
AcDbCircle
 10
723.8354838980345
 20
1130.424561688031
 30
0.0
 40
0.5
100
AcDbArc
 50
359.9999974955313
 51
179.9999974950623
  0
ARC
  5
37AA
330
A
100
AcDbEntity
  8
MODEL
  6
Continuous
100
AcDbCircle
 10
723.8354838980345
 20
1130.424561688031
 30
0.0
 40
0.5
100
AcDbArc
 50
179.9999974955313
 51
359.9999974950623
  0
ARC
  5
37AB
330
A
100
AcDbEntity
  8
MODEL
  6
Continuous
100
AcDbCircle
 10
725.1354838980337
 20
1130.424561631206
 30
0.0
 40
0.5
100
AcDbArc
 50
359.9999974955313
 51
179.9999974950623
  0
ARC
  5
37AC
330
A
100
AcDbEntity
  8
MODEL
  6
Continuous
100
AcDbCircle
 10
725.1354838980337
 20
1130.424561631206
 30
0.0
 40
0.5
100
AcDbArc
 50
179.9999974955313
 51
359.9999974950623
  0
ARC
  5
37AD
330
A
100
AcDbEntity
  8
MODEL
  6
Continuous
100
AcDbCircle
 10
726.4354838980339
 20
1130.424561574382
 30
0.0
 40
0.5
100
AcDbArc
 50
359.9999974954792
 51
179.9999974951144
  0
ARC
  5
37AE
330
A
100
AcDbEntity
  8
MODEL
  6
Continuous
100
AcDbCircle
 10
726.4354838980339
 20
1130.424561574382
 30
0.0
 40
0.5
100
AcDbArc
 50
179.9999974955313
 51
359.9999974950623
  0
ARC
  5
37AF
330
A
100
AcDbEntity
  8
MODEL
  6
Continuous
100
AcDbCircle
 10
726.4354839548591
 20
1131.724561574381
 30
0.0
 40
0.5
100
AcDbArc
 50
359.9999974955313
 51
179.9999974950623
  0
ARC
  5
37B0
330
A
100
AcDbEntity
  8
MODEL
  6
Continuous
100
AcDbCircle
 10
726.4354839548591
 20
1131.724561574381
 30
0.0
 40
0.5
100
AcDbArc
 50
179.9999974954792
 51
359.9999974951144
  0
ARC
  5
37B1
330
A
100
AcDbEntity
  8
MODEL
  6
Continuous
100
AcDbCircle
 10
726.4354840116835
 20
1133.024561574382
 30
0.0
 40
0.5
100
AcDbArc
 50
359.9999974955313
 51
179.9999974950623
  0
ARC
  5
37B2
330
A
100
AcDbEntity
  8
MODEL
  6
Continuous
100
AcDbCircle
 10
726.4354840116835
 20
1133.024561574382
 30
0.0
 40
0.5
100
AcDbArc
 50
179.9999974955313
 51
359.9999974950623
  0
ARC
  5
37B3
330
A
100
AcDbEntity
  8
MODEL
  6
Continuous
100
AcDbCircle
 10
726.4354840685087
 20
1134.324561574381
 30
0.0
 40
0.5
100
AcDbArc
 50
359.9999974955313
 51
179.9999974950623
  0
ARC
  5
37B4
330
A
100
AcDbEntity
  8
MODEL
  6
Continuous
100
AcDbCircle
 10
726.4354840685087
 20
1134.324561574381
 30
0.0
 40
0.5
100
AcDbArc
 50
179.9999974954792
 51
359.9999974951144
  0
ARC
  5
37B5
330
A
100
AcDbEntity
  8
MODEL
  6
Continuous
100
AcDbCircle
 10
726.4354841253339
 20
1135.624561574381
 30
0.0
 40
0.5
100
AcDbArc
 50
359.9999974955313
 51
179.9999974950623
  0
ARC
  5
37B6
330
A
100
AcDbEntity
  8
MODEL
  6
Continuous
100
AcDbCircle
 10
726.4354841253339
 20
1135.624561574381
 30
0.0
 40
0.5
100
AcDbArc
 50
179.9999974955313
 51
359.9999974950623
  0
ARC
  5
37B7
330
A
100
AcDbEntity
  8
MODEL
  6
Continuous
100
AcDbCircle
 10
718.6354841253328
 20
1135.624561915331
 30
0.0
 40
0.5
100
AcDbArc
 50
359.9999974954792
 51
179.9999974951144
  0
ARC
  5
37B8
330
A
100
AcDbEntity
  8
MODEL
  6
Continuous
100
AcDbCircle
 10
718.6354841253328
 20
1135.624561915331
 30
0.0
 40
0.5
100
AcDbArc
 50
179.9999974955313
 51
359.9999974950623
  0
ARC
  5
37B9
330
A
100
AcDbEntity
  8
MODEL
  6
Continuous
100
AcDbCircle
 10
718.6354840685085
 20
1134.32456191533
 30
0.0
 40
0.5
100
AcDbArc
 50
359.9999974955313
 51
179.9999974950623
  0
ARC
  5
37BA
330
A
100
AcDbEntity
  8
MODEL
  6
Continuous
100
AcDbCircle
 10
718.6354840685085
 20
1134.32456191533
 30
0.0
 40
0.5
100
AcDbArc
 50
179.9999974955313
 51
359.9999974950623
  0
ARC
  5
37BB
330
A
100
AcDbEntity
  8
MODEL
  6
Continuous
100
AcDbCircle
 10
718.6354840116842
 20
1133.02456191533
 30
0.0
 40
0.5
100
AcDbArc
 50
359.9999974955313
 51
179.9999974950623
  0
ARC
  5
37BC
330
A
100
AcDbEntity
  8
MODEL
  6
Continuous
100
AcDbCircle
 10
718.6354840116842
 20
1133.02456191533
 30
0.0
 40
0.5
100
AcDbArc
 50
179.9999974954792
 51
359.9999974951144
  0
ARC
  5
37BD
330
A
100
AcDbEntity
  8
MODEL
  6
Continuous
100
AcDbCircle
 10
718.635483954859
 20
1131.72456191533
 30
0.0
 40
0.5
100
AcDbArc
 50
359.9999974955313
 51
179.9999974950623
  0
ARC
  5
37BE
330
A
100
AcDbEntity
  8
MODEL
  6
Continuous
100
AcDbCircle
 10
718.635483954859
 20
1131.72456191533
 30
0.0
 40
0.5
100
AcDbArc
 50
179.9999974955313
 51
359.9999974950623
  0
ARC
  5
37BF
330
A
100
AcDbEntity
  8
MODEL
  6
Continuous
100
AcDbCircle
 10
718.6354838980337
 20
1130.42456191533
 30
0.0
 40
0.5
100
AcDbArc
 50
359.9999974955313
 51
179.9999974950623
  0
ARC
  5
37C0
330
A
100
AcDbEntity
  8
MODEL
  6
Continuous
100
AcDbCircle
 10
718.6354838980337
 20
1130.42456191533
 30
0.0
 40
0.5
100
AcDbArc
 50
179.9999974955313
 51
359.9999974950623
  0
ARC
  5
37C1
330
A
100
AcDbEntity
  8
MODEL
  6
Continuous
100
AcDbCircle
 10
727.7354838980341
 20
1130.424561517557
 30
0.0
 40
0.5
100
AcDbArc
 50
359.9999974954792
 51
179.9999974951144
  0
ARC
  5
37C2
330
A
100
AcDbEntity
  8
MODEL
  6
Continuous
100
AcDbCircle
 10
727.7354838980341
 20
1130.424561517557
 30
0.0
 40
0.5
100
AcDbArc
 50
179.9999974955313
 51
359.9999974950623
  0
ARC
  5
37C3
330
A
100
AcDbEntity
  8
MODEL
  6
Continuous
100
AcDbCircle
 10
727.7354839548593
 20
1131.724561517557
 30
0.0
 40
0.5
100
AcDbArc
 50
359.9999974955313
 51
179.9999974950623
  0
ARC
  5
37C4
330
A
100
AcDbEntity
  8
MODEL
  6
Continuous
100
AcDbCircle
 10
727.7354839548593
 20
1131.724561517557
 30
0.0
 40
0.5
100
AcDbArc
 50
179.9999974954792
 51
359.9999974951144
  0
ARC
  5
37C5
330
A
100
AcDbEntity
  8
MODEL
  6
Continuous
100
AcDbCircle
 10
727.7354840116836
 20
1133.024561517557
 30
0.0
 40
0.5
100
AcDbArc
 50
359.9999974955313
 51
179.9999974950623
  0
ARC
  5
37C6
330
A
100
AcDbEntity
  8
MODEL
  6
Continuous
100
AcDbCircle
 10
727.7354840116836
 20
1133.024561517557
 30
0.0
 40
0.5
100
AcDbArc
 50
179.9999974955313
 51
359.9999974950623
  0
ARC
  5
37C7
330
A
100
AcDbEntity
  8
MODEL
  6
Continuous
100
AcDbCircle
 10
727.7354840685089
 20
1134.324561517557
 30
0.0
 40
0.5
100
AcDbArc
 50
359.9999974955313
 51
179.9999974950623
  0
ARC
  5
37C8
330
A
100
AcDbEntity
  8
MODEL
  6
Continuous
100
AcDbCircle
 10
727.7354840685089
 20
1134.324561517557
 30
0.0
 40
0.5
100
AcDbArc
 50
179.9999974954792
 51
359.9999974951144
  0
ARC
  5
37C9
330
A
100
AcDbEntity
  8
MODEL
  6
Continuous
100
AcDbCircle
 10
727.7354841253332
 20
1135.624561517557
 30
0.0
 40
0.5
100
AcDbArc
 50
359.9999974955313
 51
179.9999974950623
  0
ARC
  5
37CA
330
A
100
AcDbEntity
  8
MODEL
  6
Continuous
100
AcDbCircle
 10
727.7354841253332
 20
1135.624561517557
 30
0.0
 40
0.5
100
AcDbArc
 50
179.9999974955313
 51
359.9999974950623
  0
ARC
  5
37CB
330
A
100
AcDbEntity
  8
MODEL
  6
Continuous
100
AcDbCircle
 10
717.3354841253336
 20
1135.624561972155
 30
0.0
 40
0.5
100
AcDbArc
 50
359.9999974954792
 51
179.9999974951144
  0
ARC
  5
37CC
330
A
100
AcDbEntity
  8
MODEL
  6
Continuous
100
AcDbCircle
 10
717.3354841253336
 20
1135.624561972155
 30
0.0
 40
0.5
100
AcDbArc
 50
179.9999974955313
 51
359.9999974950623
  0
ARC
  5
37CD
330
A
100
AcDbEntity
  8
MODEL
  6
Continuous
100
AcDbCircle
 10
717.3354840685083
 20
1134.324561972155
 30
0.0
 40
0.5
100
AcDbArc
 50
359.9999974955313
 51
179.9999974950623
  0
ARC
  5
37CE
330
A
100
AcDbEntity
  8
MODEL
  6
Continuous
100
AcDbCircle
 10
717.3354840685083
 20
1134.324561972155
 30
0.0
 40
0.5
100
AcDbArc
 50
179.9999974955313
 51
359.9999974950623
  0
ARC
  5
37CF
330
A
100
AcDbEntity
  8
MODEL
  6
Continuous
100
AcDbCircle
 10
717.335484011684
 20
1133.024561972155
 30
0.0
 40
0.5
100
AcDbArc
 50
359.9999974955313
 51
179.9999974950623
  0
ARC
  5
37D0
330
A
100
AcDbEntity
  8
MODEL
  6
Continuous
100
AcDbCircle
 10
717.335484011684
 20
1133.024561972155
 30
0.0
 40
0.5
100
AcDbArc
 50
179.9999974954792
 51
359.9999974951144
  0
ARC
  5
37D1
330
A
100
AcDbEntity
  8
MODEL
  6
Continuous
100
AcDbCircle
 10
717.3354839548588
 20
1131.724561972155
 30
0.0
 40
0.5
100
AcDbArc
 50
359.9999974955313
 51
179.9999974950623
  0
ARC
  5
37D2
330
A
100
AcDbEntity
  8
MODEL
  6
Continuous
100
AcDbCircle
 10
717.3354839548588
 20
1131.724561972155
 30
0.0
 40
0.5
100
AcDbArc
 50
179.9999974955313
 51
359.9999974950623
  0
ARC
  5
37D3
330
A
100
AcDbEntity
  8
MODEL
  6
Continuous
100
AcDbCircle
 10
717.3354838980345
 20
1130.424561972155
 30
0.0
 40
0.5
100
AcDbArc
 50
359.9999974955313
 51
179.9999974950623
  0
ARC
  5
37D4
330
A
100
AcDbEntity
  8
MODEL
  6
Continuous
100
AcDbCircle
 10
717.3354838980345
 20
1130.424561972155
 30
0.0
 40
0.5
100
AcDbArc
 50
179.9999974955313
 51
359.9999974950623
  0
ARC
  5
37D5
330
A
100
AcDbEntity
  8
MODEL
  6
Continuous
100
AcDbCircle
 10
729.0354838980343
 20
1130.424561460732
 30
0.0
 40
0.5
100
AcDbArc
 50
359.9999974954792
 51
179.9999974951144
  0
ARC
  5
37D6
330
A
100
AcDbEntity
  8
MODEL
  6
Continuous
100
AcDbCircle
 10
729.0354838980343
 20
1130.424561460732
 30
0.0
 40
0.5
100
AcDbArc
 50
179.9999974955313
 51
359.9999974950623
  0
ARC
  5
37D7
330
A
100
AcDbEntity
  8
MODEL
  6
Continuous
100
AcDbCircle
 10
729.0354839548586
 20
1131.724561460732
 30
0.0
 40
0.5
100
AcDbArc
 50
359.9999974955313
 51
179.9999974950623
  0
ARC
  5
37D8
330
A
100
AcDbEntity
  8
MODEL
  6
Continuous
100
AcDbCircle
 10
729.0354839548586
 20
1131.724561460732
 30
0.0
 40
0.5
100
AcDbArc
 50
179.9999974954792
 51
359.9999974951144
  0
ARC
  5
37D9
330
A
100
AcDbEntity
  8
MODEL
  6
Continuous
100
AcDbCircle
 10
729.0354840116838
 20
1133.024561460732
 30
0.0
 40
0.5
100
AcDbArc
 50
359.9999974955313
 51
179.9999974950623
  0
ARC
  5
37DA
330
A
100
AcDbEntity
  8
MODEL
  6
Continuous
100
AcDbCircle
 10
729.0354840116838
 20
1133.024561460732
 30
0.0
 40
0.5
100
AcDbArc
 50
179.9999974955313
 51
359.9999974950623
  0
ARC
  5
37DB
330
A
100
AcDbEntity
  8
MODEL
  6
Continuous
100
AcDbCircle
 10
729.035484068509
 20
1134.324561460732
 30
0.0
 40
0.5
100
AcDbArc
 50
359.9999974955313
 51
179.9999974950623
  0
ARC
  5
37DC
330
A
100
AcDbEntity
  8
MODEL
  6
Continuous
100
AcDbCircle
 10
729.035484068509
 20
1134.324561460732
 30
0.0
 40
0.5
100
AcDbArc
 50
179.9999974954792
 51
359.9999974951144
  0
ARC
  5
37DD
330
A
100
AcDbEntity
  8
MODEL
  6
Continuous
100
AcDbCircle
 10
729.0354841253334
 20
1135.624561460732
 30
0.0
 40
0.5
100
AcDbArc
 50
359.9999974955313
 51
179.9999974950623
  0
ARC
  5
37DE
330
A
100
AcDbEntity
  8
MODEL
  6
Continuous
100
AcDbCircle
 10
729.0354841253334
 20
1135.624561460732
 30
0.0
 40
0.5
100
AcDbArc
 50
179.9999974955313
 51
359.9999974950623
  0
ARC
  5
37DF
330
A
100
AcDbEntity
  8
MODEL
  6
Continuous
100
AcDbCircle
 10
716.0354841253334
 20
1135.62456202898
 30
0.0
 40
0.5
100
AcDbArc
 50
359.9999974955313
 51
179.9999974950623
  0
ARC
  5
37E0
330
A
100
AcDbEntity
  8
MODEL
  6
Continuous
100
AcDbCircle
 10
716.0354841253334
 20
1135.62456202898
 30
0.0
 40
0.5
100
AcDbArc
 50
179.9999974955313
 51
359.9999974950623
  0
ARC
  5
37E1
330
A
100
AcDbEntity
  8
MODEL
  6
Continuous
100
AcDbCircle
 10
716.035484068509
 20
1134.32456202898
 30
0.0
 40
0.5
100
AcDbArc
 50
359.9999974955313
 51
179.9999974950623
  0
ARC
  5
37E2
330
A
100
AcDbEntity
  8
MODEL
  6
Continuous
100
AcDbCircle
 10
716.035484068509
 20
1134.32456202898
 30
0.0
 40
0.5
100
AcDbArc
 50
179.9999974955313
 51
359.9999974950623
  0
ARC
  5
37E3
330
A
100
AcDbEntity
  8
MODEL
  6
Continuous
100
AcDbCircle
 10
716.0354840116838
 20
1133.02456202898
 30
0.0
 40
0.5
100
AcDbArc
 50
359.9999974954792
 51
179.9999974951144
  0
ARC
  5
37E4
330
A
100
AcDbEntity
  8
MODEL
  6
Continuous
100
AcDbCircle
 10
716.0354840116838
 20
1133.02456202898
 30
0.0
 40
0.5
100
AcDbArc
 50
179.9999974955313
 51
359.9999974950623
  0
ARC
  5
37E5
330
A
100
AcDbEntity
  8
MODEL
  6
Continuous
100
AcDbCircle
 10
716.0354839548586
 20
1131.72456202898
 30
0.0
 40
0.5
100
AcDbArc
 50
359.9999974955313
 51
179.9999974950623
  0
ARC
  5
37E6
330
A
100
AcDbEntity
  8
MODEL
  6
Continuous
100
AcDbCircle
 10
716.0354839548586
 20
1131.72456202898
 30
0.0
 40
0.5
100
AcDbArc
 50
179.9999974955313
 51
359.9999974950623
  0
ARC
  5
37E7
330
A
100
AcDbEntity
  8
MODEL
  6
Continuous
100
AcDbCircle
 10
716.0354838980343
 20
1130.42456202898
 30
0.0
 40
0.5
100
AcDbArc
 50
359.9999974955313
 51
179.9999974950623
  0
ARC
  5
37E8
330
A
100
AcDbEntity
  8
MODEL
  6
Continuous
100
AcDbCircle
 10
716.0354838980343
 20
1130.42456202898
 30
0.0
 40
0.5
100
AcDbArc
 50
179.9999974954792
 51
359.9999974951144
  0
ARC
  5
37E9
330
A
100
AcDbEntity
  8
MODEL
  6
Continuous
100
AcDbCircle
 10
730.3354838980345
 20
1130.424561403907
 30
0.0
 40
0.5
100
AcDbArc
 50
359.9999974954792
 51
179.9999974951144
  0
ARC
  5
37EA
330
A
100
AcDbEntity
  8
MODEL
  6
Continuous
100
AcDbCircle
 10
730.3354838980345
 20
1130.424561403907
 30
0.0
 40
0.5
100
AcDbArc
 50
179.9999974955313
 51
359.9999974950623
  0
ARC
  5
37EB
330
A
100
AcDbEntity
  8
MODEL
  6
Continuous
100
AcDbCircle
 10
730.3354839548588
 20
1131.724561403907
 30
0.0
 40
0.5
100
AcDbArc
 50
359.9999974955313
 51
179.9999974950623
  0
ARC
  5
37EC
330
A
100
AcDbEntity
  8
MODEL
  6
Continuous
100
AcDbCircle
 10
730.3354839548588
 20
1131.724561403907
 30
0.0
 40
0.5
100
AcDbArc
 50
179.9999974954792
 51
359.9999974951144
  0
ARC
  5
37ED
330
A
100
AcDbEntity
  8
MODEL
  6
Continuous
100
AcDbCircle
 10
730.335484011684
 20
1133.024561403907
 30
0.0
 40
0.5
100
AcDbArc
 50
359.9999974955313
 51
179.9999974950623
  0
ARC
  5
37EE
330
A
100
AcDbEntity
  8
MODEL
  6
Continuous
100
AcDbCircle
 10
730.335484011684
 20
1133.024561403907
 30
0.0
 40
0.5
100
AcDbArc
 50
179.9999974955313
 51
359.9999974950623
  0
ARC
  5
37EF
330
A
100
AcDbEntity
  8
MODEL
  6
Continuous
100
AcDbCircle
 10
730.3354840685083
 20
1134.324561403907
 30
0.0
 40
0.5
100
AcDbArc
 50
359.9999974955313
 51
179.9999974950623
  0
ARC
  5
37F0
330
A
100
AcDbEntity
  8
MODEL
  6
Continuous
100
AcDbCircle
 10
730.3354840685083
 20
1134.324561403907
 30
0.0
 40
0.5
100
AcDbArc
 50
179.9999974954792
 51
359.9999974951144
  0
ARC
  5
37F1
330
A
100
AcDbEntity
  8
MODEL
  6
Continuous
100
AcDbCircle
 10
730.3354841253336
 20
1135.624561403907
 30
0.0
 40
0.5
100
AcDbArc
 50
359.9999974955313
 51
179.9999974950623
  0
ARC
  5
37F2
330
A
100
AcDbEntity
  8
MODEL
  6
Continuous
100
AcDbCircle
 10
730.3354841253336
 20
1135.624561403907
 30
0.0
 40
0.5
100
AcDbArc
 50
179.9999974955313
 51
359.9999974950623
  0
ARC
  5
37F3
330
A
100
AcDbEntity
  8
MODEL
  6
Continuous
100
AcDbCircle
 10
714.7354841253332
 20
1135.624562085805
 30
0.0
 40
0.5
100
AcDbArc
 50
359.9999974955313
 51
179.9999974950623
  0
ARC
  5
37F4
330
A
100
AcDbEntity
  8
MODEL
  6
Continuous
100
AcDbCircle
 10
714.7354841253332
 20
1135.624562085805
 30
0.0
 40
0.5
100
AcDbArc
 50
179.9999974955313
 51
359.9999974950623
  0
ARC
  5
37F5
330
A
100
AcDbEntity
  8
MODEL
  6
Continuous
100
AcDbCircle
 10
714.7354840685089
 20
1134.324562085805
 30
0.0
 40
0.5
100
AcDbArc
 50
359.9999974955313
 51
179.9999974950623
  0
ARC
  5
37F6
330
A
100
AcDbEntity
  8
MODEL
  6
Continuous
100
AcDbCircle
 10
714.7354840685089
 20
1134.324562085805
 30
0.0
 40
0.5
100
AcDbArc
 50
179.9999974955313
 51
359.9999974950623
  0
ARC
  5
37F7
330
A
100
AcDbEntity
  8
MODEL
  6
Continuous
100
AcDbCircle
 10
714.7354840116836
 20
1133.024562085805
 30
0.0
 40
0.5
100
AcDbArc
 50
359.9999974954792
 51
179.9999974951144
  0
ARC
  5
37F8
330
A
100
AcDbEntity
  8
MODEL
  6
Continuous
100
AcDbCircle
 10
714.7354840116836
 20
1133.024562085805
 30
0.0
 40
0.5
100
AcDbArc
 50
179.9999974955313
 51
359.9999974950623
  0
ARC
  5
37F9
330
A
100
AcDbEntity
  8
MODEL
  6
Continuous
100
AcDbCircle
 10
714.7354839548593
 20
1131.724562085805
 30
0.0
 40
0.5
100
AcDbArc
 50
359.9999974955313
 51
179.9999974950623
  0
ARC
  5
37FA
330
A
100
AcDbEntity
  8
MODEL
  6
Continuous
100
AcDbCircle
 10
714.7354839548593
 20
1131.724562085805
 30
0.0
 40
0.5
100
AcDbArc
 50
179.9999974955313
 51
359.9999974950623
  0
ARC
  5
37FB
330
A
100
AcDbEntity
  8
MODEL
  6
Continuous
100
AcDbCircle
 10
714.7354838980341
 20
1130.424562085805
 30
0.0
 40
0.5
100
AcDbArc
 50
359.9999974955313
 51
179.9999974950623
  0
ARC
  5
37FC
330
A
100
AcDbEntity
  8
MODEL
  6
Continuous
100
AcDbCircle
 10
714.7354838980341
 20
1130.424562085805
 30
0.0
 40
0.5
100
AcDbArc
 50
179.9999974954792
 51
359.9999974951144
  0
ARC
  5
37FD
330
A
100
AcDbEntity
  8
MODEL
  6
Continuous
100
AcDbCircle
 10
731.6354838980337
 20
1130.424561347082
 30
0.0
 40
0.5
100
AcDbArc
 50
359.9999974955313
 51
179.9999974950623
  0
ARC
  5
37FE
330
A
100
AcDbEntity
  8
MODEL
  6
Continuous
100
AcDbCircle
 10
731.6354838980337
 20
1130.424561347082
 30
0.0
 40
0.5
100
AcDbArc
 50
179.9999974954792
 51
359.9999974951144
  0
ARC
  5
37FF
330
A
100
AcDbEntity
  8
MODEL
  6
Continuous
100
AcDbCircle
 10
731.635483954859
 20
1131.724561347082
 30
0.0
 40
0.5
100
AcDbArc
 50
359.9999974955313
 51
179.9999974950623
  0
ARC
  5
3800
330
A
100
AcDbEntity
  8
MODEL
  6
Continuous
100
AcDbCircle
 10
731.635483954859
 20
1131.724561347082
 30
0.0
 40
0.5
100
AcDbArc
 50
179.9999974955313
 51
359.9999974950623
  0
ARC
  5
3801
330
A
100
AcDbEntity
  8
MODEL
  6
Continuous
100
AcDbCircle
 10
731.6354840116842
 20
1133.024561347082
 30
0.0
 40
0.5
100
AcDbArc
 50
359.9999974954792
 51
179.9999974951144
  0
ARC
  5
3802
330
A
100
AcDbEntity
  8
MODEL
  6
Continuous
100
AcDbCircle
 10
731.6354840116842
 20
1133.024561347082
 30
0.0
 40
0.5
100
AcDbArc
 50
179.9999974955313
 51
359.9999974950623
  0
ARC
  5
3803
330
A
100
AcDbEntity
  8
MODEL
  6
Continuous
100
AcDbCircle
 10
731.6354840685085
 20
1134.324561347082
 30
0.0
 40
0.5
100
AcDbArc
 50
359.9999974955313
 51
179.9999974950623
  0
ARC
  5
3804
330
A
100
AcDbEntity
  8
MODEL
  6
Continuous
100
AcDbCircle
 10
731.6354840685085
 20
1134.324561347082
 30
0.0
 40
0.5
100
AcDbArc
 50
179.9999974955313
 51
359.9999974950623
  0
ARC
  5
3805
330
A
100
AcDbEntity
  8
MODEL
  6
Continuous
100
AcDbCircle
 10
731.6354841253328
 20
1135.624561347082
 30
0.0
 40
0.5
100
AcDbArc
 50
359.9999974955313
 51
179.9999974950623
  0
ARC
  5
3806
330
A
100
AcDbEntity
  8
MODEL
  6
Continuous
100
AcDbCircle
 10
731.6354841253328
 20
1135.624561347082
 30
0.0
 40
0.5
100
AcDbArc
 50
179.9999974955313
 51
359.9999974950623
  0
ARC
  5
3807
330
A
100
AcDbEntity
  8
MODEL
  6
Continuous
100
AcDbCircle
 10
713.4354841253339
 20
1135.62456214263
 30
0.0
 40
0.5
100
AcDbArc
 50
359.9999974955313
 51
179.9999974950623
  0
ARC
  5
3808
330
A
100
AcDbEntity
  8
MODEL
  6
Continuous
100
AcDbCircle
 10
713.4354841253339
 20
1135.62456214263
 30
0.0
 40
0.5
100
AcDbArc
 50
179.9999974955313
 51
359.9999974950623
  0
ARC
  5
3809
330
A
100
AcDbEntity
  8
MODEL
  6
Continuous
100
AcDbCircle
 10
713.4354840685087
 20
1134.324562142629
 30
0.0
 40
0.5
100
AcDbArc
 50
359.9999974955313
 51
179.9999974950623
  0
ARC
  5
380A
330
A
100
AcDbEntity
  8
MODEL
  6
Continuous
100
AcDbCircle
 10
713.4354840685087
 20
1134.324562142629
 30
0.0
 40
0.5
100
AcDbArc
 50
179.9999974955313
 51
359.9999974950623
  0
ARC
  5
380B
330
A
100
AcDbEntity
  8
MODEL
  6
Continuous
100
AcDbCircle
 10
713.4354840116835
 20
1133.02456214263
 30
0.0
 40
0.5
100
AcDbArc
 50
359.9999974954792
 51
179.9999974951144
  0
ARC
  5
380C
330
A
100
AcDbEntity
  8
MODEL
  6
Continuous
100
AcDbCircle
 10
713.4354840116835
 20
1133.02456214263
 30
0.0
 40
0.5
100
AcDbArc
 50
179.9999974955313
 51
359.9999974950623
  0
ARC
  5
380D
330
A
100
AcDbEntity
  8
MODEL
  6
Continuous
100
AcDbCircle
 10
713.4354839548591
 20
1131.72456214263
 30
0.0
 40
0.5
100
AcDbArc
 50
359.9999974955313
 51
179.9999974950623
  0
ARC
  5
380E
330
A
100
AcDbEntity
  8
MODEL
  6
Continuous
100
AcDbCircle
 10
713.4354839548591
 20
1131.72456214263
 30
0.0
 40
0.5
100
AcDbArc
 50
179.9999974955313
 51
359.9999974950623
  0
ARC
  5
380F
330
A
100
AcDbEntity
  8
MODEL
  6
Continuous
100
AcDbCircle
 10
713.4354838980339
 20
1130.424562142629
 30
0.0
 40
0.5
100
AcDbArc
 50
359.9999974955313
 51
179.9999974950623
  0
ARC
  5
3810
330
A
100
AcDbEntity
  8
MODEL
  6
Continuous
100
AcDbCircle
 10
713.4354838980339
 20
1130.424562142629
 30
0.0
 40
0.5
100
AcDbArc
 50
179.9999974954792
 51
359.9999974951144
  0
ARC
  5
3811
330
A
100
AcDbEntity
  8
MODEL
  6
Continuous
100
AcDbCircle
 10
732.9354838980339
 20
1130.424561290257
 30
0.0
 40
0.5
100
AcDbArc
 50
359.9999974955313
 51
179.9999974950623
  0
ARC
  5
3812
330
A
100
AcDbEntity
  8
MODEL
  6
Continuous
100
AcDbCircle
 10
732.9354838980339
 20
1130.424561290257
 30
0.0
 40
0.5
100
AcDbArc
 50
179.9999974954792
 51
359.9999974951144
  0
ARC
  5
3813
330
A
100
AcDbEntity
  8
MODEL
  6
Continuous
100
AcDbCircle
 10
732.9354839548591
 20
1131.724561290257
 30
0.0
 40
0.5
100
AcDbArc
 50
359.9999974955313
 51
179.9999974950623
  0
ARC
  5
3814
330
A
100
AcDbEntity
  8
MODEL
  6
Continuous
100
AcDbCircle
 10
732.9354839548591
 20
1131.724561290257
 30
0.0
 40
0.5
100
AcDbArc
 50
179.9999974955313
 51
359.9999974950623
  0
ARC
  5
3815
330
A
100
AcDbEntity
  8
MODEL
  6
Continuous
100
AcDbCircle
 10
732.9354840116835
 20
1133.024561290258
 30
0.0
 40
0.5
100
AcDbArc
 50
359.9999974954792
 51
179.9999974951144
  0
ARC
  5
3816
330
A
100
AcDbEntity
  8
MODEL
  6
Continuous
100
AcDbCircle
 10
732.9354840116835
 20
1133.024561290258
 30
0.0
 40
0.5
100
AcDbArc
 50
179.9999974955313
 51
359.9999974950623
  0
ARC
  5
3817
330
A
100
AcDbEntity
  8
MODEL
  6
Continuous
100
AcDbCircle
 10
732.9354840685087
 20
1134.324561290257
 30
0.0
 40
0.5
100
AcDbArc
 50
359.9999974955313
 51
179.9999974950623
  0
ARC
  5
3818
330
A
100
AcDbEntity
  8
MODEL
  6
Continuous
100
AcDbCircle
 10
732.9354840685087
 20
1134.324561290257
 30
0.0
 40
0.5
100
AcDbArc
 50
179.9999974955313
 51
359.9999974950623
  0
ARC
  5
3819
330
A
100
AcDbEntity
  8
MODEL
  6
Continuous
100
AcDbCircle
 10
732.9354841253339
 20
1135.624561290258
 30
0.0
 40
0.5
100
AcDbArc
 50
359.9999974955313
 51
179.9999974950623
  0
ARC
  5
381A
330
A
100
AcDbEntity
  8
MODEL
  6
Continuous
100
AcDbCircle
 10
732.9354841253339
 20
1135.624561290258
 30
0.0
 40
0.5
100
AcDbArc
 50
179.9999974955313
 51
359.9999974950623
  0
ARC
  5
381B
330
A
100
AcDbEntity
  8
MODEL
  6
Continuous
100
AcDbCircle
 10
712.1354841253328
 20
1135.624562199454
 30
0.0
 40
0.5
100
AcDbArc
 50
359.9999974955313
 51
179.9999974950623
  0
ARC
  5
381C
330
A
100
AcDbEntity
  8
MODEL
  6
Continuous
100
AcDbCircle
 10
712.1354841253328
 20
1135.624562199454
 30
0.0
 40
0.5
100
AcDbArc
 50
179.9999974955313
 51
359.9999974950623
  0
ARC
  5
381D
330
A
100
AcDbEntity
  8
MODEL
  6
Continuous
100
AcDbCircle
 10
712.1354840685085
 20
1134.324562199454
 30
0.0
 40
0.5
100
AcDbArc
 50
359.9999974955313
 51
179.9999974950623
  0
ARC
  5
381E
330
A
100
AcDbEntity
  8
MODEL
  6
Continuous
100
AcDbCircle
 10
712.1354840685085
 20
1134.324562199454
 30
0.0
 40
0.5
100
AcDbArc
 50
179.9999974955313
 51
359.9999974950623
  0
ARC
  5
381F
330
A
100
AcDbEntity
  8
MODEL
  6
Continuous
100
AcDbCircle
 10
712.1354840116842
 20
1133.024562199455
 30
0.0
 40
0.5
100
AcDbArc
 50
359.9999974954792
 51
179.9999974951144
  0
ARC
  5
3820
330
A
100
AcDbEntity
  8
MODEL
  6
Continuous
100
AcDbCircle
 10
712.1354840116842
 20
1133.024562199455
 30
0.0
 40
0.5
100
AcDbArc
 50
179.9999974955313
 51
359.9999974950623
  0
ARC
  5
3821
330
A
100
AcDbEntity
  8
MODEL
  6
Continuous
100
AcDbCircle
 10
712.135483954859
 20
1131.724562199454
 30
0.0
 40
0.5
100
AcDbArc
 50
359.9999974955313
 51
179.9999974950623
  0
ARC
  5
3822
330
A
100
AcDbEntity
  8
MODEL
  6
Continuous
100
AcDbCircle
 10
712.135483954859
 20
1131.724562199454
 30
0.0
 40
0.5
100
AcDbArc
 50
179.9999974955313
 51
359.9999974950623
  0
ARC
  5
3823
330
A
100
AcDbEntity
  8
MODEL
  6
Continuous
100
AcDbCircle
 10
712.1354838980337
 20
1130.424562199454
 30
0.0
 40
0.5
100
AcDbArc
 50
359.9999974955313
 51
179.9999974950623
  0
ARC
  5
3824
330
A
100
AcDbEntity
  8
MODEL
  6
Continuous
100
AcDbCircle
 10
712.1354838980337
 20
1130.424562199454
 30
0.0
 40
0.5
100
AcDbArc
 50
179.9999974954792
 51
359.9999974951144
  0
ARC
  5
3825
330
A
100
AcDbEntity
  8
MODEL
  6
Continuous
100
AcDbCircle
 10
734.2354838980341
 20
1130.424561233433
 30
0.0
 40
0.5
100
AcDbArc
 50
359.9999974955313
 51
179.9999974950623
  0
ARC
  5
3826
330
A
100
AcDbEntity
  8
MODEL
  6
Continuous
100
AcDbCircle
 10
734.2354838980341
 20
1130.424561233433
 30
0.0
 40
0.5
100
AcDbArc
 50
179.9999974954792
 51
359.9999974951144
  0
ARC
  5
3827
330
A
100
AcDbEntity
  8
MODEL
  6
Continuous
100
AcDbCircle
 10
734.2354839548593
 20
1131.724561233433
 30
0.0
 40
0.5
100
AcDbArc
 50
359.9999974955313
 51
179.9999974950623
  0
ARC
  5
3828
330
A
100
AcDbEntity
  8
MODEL
  6
Continuous
100
AcDbCircle
 10
734.2354839548593
 20
1131.724561233433
 30
0.0
 40
0.5
100
AcDbArc
 50
179.9999974955313
 51
359.9999974950623
  0
ARC
  5
3829
330
A
100
AcDbEntity
  8
MODEL
  6
Continuous
100
AcDbCircle
 10
734.2354840116836
 20
1133.024561233433
 30
0.0
 40
0.5
100
AcDbArc
 50
359.9999974954792
 51
179.9999974951144
  0
ARC
  5
382A
330
A
100
AcDbEntity
  8
MODEL
  6
Continuous
100
AcDbCircle
 10
734.2354840116836
 20
1133.024561233433
 30
0.0
 40
0.5
100
AcDbArc
 50
179.9999974955313
 51
359.9999974950623
  0
ARC
  5
382B
330
A
100
AcDbEntity
  8
MODEL
  6
Continuous
100
AcDbCircle
 10
734.235484068508
 20
1134.324561233433
 30
0.0
 40
0.5
100
AcDbArc
 50
359.9999974955313
 51
179.9999974950623
  0
ARC
  5
382C
330
A
100
AcDbEntity
  8
MODEL
  6
Continuous
100
AcDbCircle
 10
734.235484068508
 20
1134.324561233433
 30
0.0
 40
0.5
100
AcDbArc
 50
179.9999974955313
 51
359.9999974950623
  0
ARC
  5
382D
330
A
100
AcDbEntity
  8
MODEL
  6
Continuous
100
AcDbCircle
 10
734.2354841253332
 20
1135.624561233433
 30
0.0
 40
0.5
100
AcDbArc
 50
359.9999974955313
 51
179.9999974950623
  0
ARC
  5
382E
330
A
100
AcDbEntity
  8
MODEL
  6
Continuous
100
AcDbCircle
 10
734.2354841253332
 20
1135.624561233433
 30
0.0
 40
0.5
100
AcDbArc
 50
179.9999974955313
 51
359.9999974950623
  0
ARC
  5
382F
330
A
100
AcDbEntity
  8
MODEL
  6
Continuous
100
AcDbCircle
 10
710.8354841253336
 20
1135.624562256279
 30
0.0
 40
0.5
100
AcDbArc
 50
359.9999974955313
 51
179.9999974950623
  0
ARC
  5
3830
330
A
100
AcDbEntity
  8
MODEL
  6
Continuous
100
AcDbCircle
 10
710.8354841253336
 20
1135.624562256279
 30
0.0
 40
0.5
100
AcDbArc
 50
179.9999974955313
 51
359.9999974950623
  0
ARC
  5
3831
330
A
100
AcDbEntity
  8
MODEL
  6
Continuous
100
AcDbCircle
 10
710.8354840685083
 20
1134.324562256279
 30
0.0
 40
0.5
100
AcDbArc
 50
359.9999974955313
 51
179.9999974950623
  0
ARC
  5
3832
330
A
100
AcDbEntity
  8
MODEL
  6
Continuous
100
AcDbCircle
 10
710.8354840685083
 20
1134.324562256279
 30
0.0
 40
0.5
100
AcDbArc
 50
179.9999974954792
 51
359.9999974951144
  0
ARC
  5
3833
330
A
100
AcDbEntity
  8
MODEL
  6
Continuous
100
AcDbCircle
 10
710.835484011684
 20
1133.024562256279
 30
0.0
 40
0.5
100
AcDbArc
 50
359.9999974955313
 51
179.9999974950623
  0
ARC
  5
3834
330
A
100
AcDbEntity
  8
MODEL
  6
Continuous
100
AcDbCircle
 10
710.835484011684
 20
1133.024562256279
 30
0.0
 40
0.5
100
AcDbArc
 50
179.9999974955313
 51
359.9999974950623
  0
ARC
  5
3835
330
A
100
AcDbEntity
  8
MODEL
  6
Continuous
100
AcDbCircle
 10
710.8354839548588
 20
1131.724562256279
 30
0.0
 40
0.5
100
AcDbArc
 50
359.9999974955313
 51
179.9999974950623
  0
ARC
  5
3836
330
A
100
AcDbEntity
  8
MODEL
  6
Continuous
100
AcDbCircle
 10
710.8354839548588
 20
1131.724562256279
 30
0.0
 40
0.5
100
AcDbArc
 50
179.9999974954792
 51
359.9999974951144
  0
ARC
  5
3837
330
A
100
AcDbEntity
  8
MODEL
  6
Continuous
100
AcDbCircle
 10
710.8354838980345
 20
1130.424562256279
 30
0.0
 40
0.5
100
AcDbArc
 50
359.9999974954792
 51
179.9999974951144
  0
ARC
  5
3838
330
A
100
AcDbEntity
  8
MODEL
  6
Continuous
100
AcDbCircle
 10
710.8354838980345
 20
1130.424562256279
 30
0.0
 40
0.5
100
AcDbArc
 50
179.9999974955313
 51
359.9999974950623
  0
ARC
  5
3839
330
A
100
AcDbEntity
  8
MODEL
  6
Continuous
100
AcDbCircle
 10
735.5354838980343
 20
1130.424561176608
 30
0.0
 40
0.5
100
AcDbArc
 50
359.9999974955313
 51
179.9999974950623
  0
ARC
  5
383A
330
A
100
AcDbEntity
  8
MODEL
  6
Continuous
100
AcDbCircle
 10
735.5354838980343
 20
1130.424561176608
 30
0.0
 40
0.5
100
AcDbArc
 50
179.9999974954792
 51
359.9999974951144
  0
ARC
  5
383B
330
A
100
AcDbEntity
  8
MODEL
  6
Continuous
100
AcDbCircle
 10
735.5354839548586
 20
1131.724561176608
 30
0.0
 40
0.5
100
AcDbArc
 50
359.9999974955313
 51
179.9999974950623
  0
ARC
  5
383C
330
A
100
AcDbEntity
  8
MODEL
  6
Continuous
100
AcDbCircle
 10
735.5354839548586
 20
1131.724561176608
 30
0.0
 40
0.5
100
AcDbArc
 50
179.9999974955313
 51
359.9999974950623
  0
ARC
  5
383D
330
A
100
AcDbEntity
  8
MODEL
  6
Continuous
100
AcDbCircle
 10
735.5354840116838
 20
1133.024561176608
 30
0.0
 40
0.5
100
AcDbArc
 50
359.9999974954792
 51
179.9999974951144
  0
ARC
  5
383E
330
A
100
AcDbEntity
  8
MODEL
  6
Continuous
100
AcDbCircle
 10
735.5354840116838
 20
1133.024561176608
 30
0.0
 40
0.5
100
AcDbArc
 50
179.9999974955313
 51
359.9999974950623
  0
ARC
  5
383F
330
A
100
AcDbEntity
  8
MODEL
  6
Continuous
100
AcDbCircle
 10
735.535484068509
 20
1134.324561176608
 30
0.0
 40
0.5
100
AcDbArc
 50
359.9999974955313
 51
179.9999974950623
  0
ARC
  5
3840
330
A
100
AcDbEntity
  8
MODEL
  6
Continuous
100
AcDbCircle
 10
735.535484068509
 20
1134.324561176608
 30
0.0
 40
0.5
100
AcDbArc
 50
179.9999974955313
 51
359.9999974950623
  0
ARC
  5
3841
330
A
100
AcDbEntity
  8
MODEL
  6
Continuous
100
AcDbCircle
 10
735.5354841253334
 20
1135.624561176608
 30
0.0
 40
0.5
100
AcDbArc
 50
359.9999974955313
 51
179.9999974950623
  0
ARC
  5
3842
330
A
100
AcDbEntity
  8
MODEL
  6
Continuous
100
AcDbCircle
 10
735.5354841253334
 20
1135.624561176608
 30
0.0
 40
0.5
100
AcDbArc
 50
179.9999974955313
 51
359.9999974950623
  0
ARC
  5
3843
330
A
100
AcDbEntity
  8
MODEL
  6
Continuous
100
AcDbCircle
 10
709.5354841253334
 20
1135.624562313104
 30
0.0
 40
0.5
100
AcDbArc
 50
359.9999974955313
 51
179.9999974950623
  0
ARC
  5
3844
330
A
100
AcDbEntity
  8
MODEL
  6
Continuous
100
AcDbCircle
 10
709.5354841253334
 20
1135.624562313104
 30
0.0
 40
0.5
100
AcDbArc
 50
179.9999974955313
 51
359.9999974950623
  0
ARC
  5
3845
330
A
100
AcDbEntity
  8
MODEL
  6
Continuous
100
AcDbCircle
 10
709.535484068509
 20
1134.324562313104
 30
0.0
 40
0.5
100
AcDbArc
 50
359.9999974955313
 51
179.9999974950623
  0
ARC
  5
3846
330
A
100
AcDbEntity
  8
MODEL
  6
Continuous
100
AcDbCircle
 10
709.535484068509
 20
1134.324562313104
 30
0.0
 40
0.5
100
AcDbArc
 50
179.9999974954792
 51
359.9999974951144
  0
ARC
  5
3847
330
A
100
AcDbEntity
  8
MODEL
  6
Continuous
100
AcDbCircle
 10
709.5354840116838
 20
1133.024562313104
 30
0.0
 40
0.5
100
AcDbArc
 50
359.9999974955313
 51
179.9999974950623
  0
ARC
  5
3848
330
A
100
AcDbEntity
  8
MODEL
  6
Continuous
100
AcDbCircle
 10
709.5354840116838
 20
1133.024562313104
 30
0.0
 40
0.5
100
AcDbArc
 50
179.9999974955313
 51
359.9999974950623
  0
ARC
  5
3849
330
A
100
AcDbEntity
  8
MODEL
  6
Continuous
100
AcDbCircle
 10
709.5354839548586
 20
1131.724562313104
 30
0.0
 40
0.5
100
AcDbArc
 50
359.9999974955313
 51
179.9999974950623
  0
ARC
  5
384A
330
A
100
AcDbEntity
  8
MODEL
  6
Continuous
100
AcDbCircle
 10
709.5354839548586
 20
1131.724562313104
 30
0.0
 40
0.5
100
AcDbArc
 50
179.9999974954792
 51
359.9999974951144
  0
ARC
  5
384B
330
A
100
AcDbEntity
  8
MODEL
  6
Continuous
100
AcDbCircle
 10
709.5354838980343
 20
1130.424562313104
 30
0.0
 40
0.5
100
AcDbArc
 50
359.9999974954792
 51
179.9999974951144
  0
ARC
  5
384C
330
A
100
AcDbEntity
  8
MODEL
  6
Continuous
100
AcDbCircle
 10
709.5354838980343
 20
1130.424562313104
 30
0.0
 40
0.5
100
AcDbArc
 50
179.9999974955313
 51
359.9999974950623
  0
ARC
  5
384D
330
A
100
AcDbEntity
  8
MODEL
  6
Continuous
100
AcDbCircle
 10
736.8354839548588
 20
1131.724561119783
 30
0.0
 40
0.5
100
AcDbArc
 50
359.9999974955313
 51
179.9999974950623
  0
ARC
  5
384E
330
A
100
AcDbEntity
  8
MODEL
  6
Continuous
100
AcDbCircle
 10
736.8354839548588
 20
1131.724561119783
 30
0.0
 40
0.5
100
AcDbArc
 50
179.9999974955313
 51
359.9999974950623
  0
ARC
  5
384F
330
A
100
AcDbEntity
  8
MODEL
  6
Continuous
100
AcDbCircle
 10
736.835484011684
 20
1133.024561119783
 30
0.0
 40
0.5
100
AcDbArc
 50
359.9999974955313
 51
179.9999974950623
  0
ARC
  5
3850
330
A
100
AcDbEntity
  8
MODEL
  6
Continuous
100
AcDbCircle
 10
736.835484011684
 20
1133.024561119783
 30
0.0
 40
0.5
100
AcDbArc
 50
179.9999974954792
 51
359.9999974951144
  0
ARC
  5
3851
330
A
100
AcDbEntity
  8
MODEL
  6
Continuous
100
AcDbCircle
 10
736.8354840685083
 20
1134.324561119783
 30
0.0
 40
0.5
100
AcDbArc
 50
359.9999974955313
 51
179.9999974950623
  0
ARC
  5
3852
330
A
100
AcDbEntity
  8
MODEL
  6
Continuous
100
AcDbCircle
 10
736.8354840685083
 20
1134.324561119783
 30
0.0
 40
0.5
100
AcDbArc
 50
179.9999974955313
 51
359.9999974950623
  0
ARC
  5
3853
330
A
100
AcDbEntity
  8
MODEL
  6
Continuous
100
AcDbCircle
 10
708.2354840685089
 20
1134.324562369929
 30
0.0
 40
0.5
100
AcDbArc
 50
359.9999974955313
 51
179.9999974950623
  0
ARC
  5
3854
330
A
100
AcDbEntity
  8
MODEL
  6
Continuous
100
AcDbCircle
 10
708.2354840685089
 20
1134.324562369929
 30
0.0
 40
0.5
100
AcDbArc
 50
179.9999974954792
 51
359.9999974951144
  0
ARC
  5
3855
330
A
100
AcDbEntity
  8
MODEL
  6
Continuous
100
AcDbCircle
 10
708.2354840116836
 20
1133.024562369929
 30
0.0
 40
0.5
100
AcDbArc
 50
359.9999974955313
 51
179.9999974950623
  0
ARC
  5
3856
330
A
100
AcDbEntity
  8
MODEL
  6
Continuous
100
AcDbCircle
 10
708.2354840116836
 20
1133.024562369929
 30
0.0
 40
0.5
100
AcDbArc
 50
179.9999974955313
 51
359.9999974950623
  0
ARC
  5
3857
330
A
100
AcDbEntity
  8
MODEL
  6
Continuous
100
AcDbCircle
 10
708.2354839548593
 20
1131.724562369929
 30
0.0
 40
0.5
100
AcDbArc
 50
359.9999974955313
 51
179.9999974950623
  0
ARC
  5
3858
330
A
100
AcDbEntity
  8
MODEL
  6
Continuous
100
AcDbCircle
 10
708.2354839548593
 20
1131.724562369929
 30
0.0
 40
0.5
100
AcDbArc
 50
179.9999974954792
 51
359.9999974951144
  0
ARC
  5
3859
330
A
100
AcDbEntity
  8
MODEL
  6
Continuous
100
AcDbCircle
 10
722.5354840116838
 20
1133.024561744856
 30
0.0
 40
0.5
100
AcDbArc
 50
359.9999974955313
 51
179.9999974950623
  0
ARC
  5
385A
330
A
100
AcDbEntity
  8
MODEL
  6
Continuous
100
AcDbCircle
 10
722.5354840116838
 20
1133.024561744856
 30
0.0
 40
0.5
100
AcDbArc
 50
179.9999974955313
 51
359.9999974950623
  0
ARC
  5
385B
330
A
100
AcDbEntity
  8
MODEL
  6
Continuous
100
AcDbCircle
 10
732.5354442780322
 20
412.5245613077426
 30
0.0
 40
2.0
100
AcDbArc
 50
269.9999974955313
 51
89.9999974950623
  0
ARC
  5
385C
330
A
100
AcDbEntity
  8
MODEL
  6
Continuous
100
AcDbCircle
 10
732.5354442780322
 20
412.5245613077426
 30
0.0
 40
2.0
100
AcDbArc
 50
89.9999974955313
 51
269.9999974950623
  0
LINE
  5
385D
330
A
100
AcDbEntity
  8
MODEL
  6
Continuous
100
AcDbLine
 10
732.5354442149396
 20
411.0811856347688
 30
0.0
 11
733.7854442464854
 21
411.8028734166165
 31
0.0
  0
LINE
  5
385E
330
A
100
AcDbEntity
  8
MODEL
  6
Continuous
100
AcDbLine
 10
733.7854442464854
 20
411.8028734166165
 30
0.0
 11
733.7854443095771
 21
413.2462490895904
 31
0.0
  0
LINE
  5
385F
330
A
100
AcDbEntity
  8
MODEL
  6
Continuous
100
AcDbLine
 10
733.785444309578
 20
413.2462490895904
 30
0.0
 11
732.5354443411238
 21
413.9679369807167
 31
0.0
  0
LINE
  5
3860
330
A
100
AcDbEntity
  8
MODEL
  6
Continuous
100
AcDbLine
 10
732.5354443411238
 20
413.9679369807167
 30
0.0
 11
731.285444309578
 21
413.2462491988689
 31
0.0
  0
LINE
  5
3861
330
A
100
AcDbEntity
  8
MODEL
  6
Continuous
100
AcDbLine
 10
731.285444309578
 20
413.2462491988689
 30
0.0
 11
731.2854442464854
 21
411.8028735258951
 31
0.0
  0
LINE
  5
3862
330
A
100
AcDbEntity
  8
MODEL
  6
Continuous
100
AcDbLine
 10
731.2854442464854
 20
411.8028735258948
 30
0.0
 11
732.5354442149396
 21
411.0811856347685
 31
0.0
  0
ARC
  5
3863
330
A
100
AcDbEntity
  8
MODEL
  6
Continuous
100
AcDbCircle
 10
732.5354437272686
 20
428.5245613077426
 30
0.0
 40
2.5
100
AcDbArc
 50
89.99999749552087
 51
269.9999974950623
  0
ARC
  5
3864
330
A
100
AcDbEntity
  8
MODEL
  6
Continuous
100
AcDbCircle
 10
732.5354437272686
 20
428.5245613077426
 30
0.0
 40
2.5
100
AcDbArc
 50
269.9999974955209
 51
89.9999974950623
  0
ARC
  5
3865
330
A
100
AcDbEntity
  8
MODEL
  6
Continuous
100
AcDbCircle
 10
732.5354437054125
 20
428.5245613077426
 30
0.0
 40
2.0
100
AcDbArc
 50
89.9999974955313
 51
269.9999974950623
  0
ARC
  5
3866
330
A
100
AcDbEntity
  8
MODEL
  6
Continuous
100
AcDbCircle
 10
732.5354437054125
 20
428.5245613077426
 30
0.0
 40
2.0
100
AcDbArc
 50
269.9999974955313
 51
89.9999974950623
  0
ARC
  5
3867
330
A
100
AcDbEntity
  8
MODEL
  6
Continuous
100
AcDbCircle
 10
404.4005905006566
 20
379.2141657061933
 30
0.0
 40
30.0
100
AcDbArc
 50
336.44353569096
 51
348.3858816631733
  0
ARC
  5
3868
330
A
100
AcDbEntity
  8
MODEL
  6
Continuous
100
AcDbCircle
 10
459.4005905006566
 20
379.2141657061933
 30
0.0
 40
30.0
100
AcDbArc
 50
191.6141183368265
 51
203.5564643090399
  0
LINE
  5
386D
330
A
100
AcDbEntity
  8
MODEL
  6
CENTER2
100
AcDbLine
 10
707.0795968837706
 20
412.2245624204528
 30
0.0
 11
707.0795968837706
 21
362.2245624204528
 31
0.0
  0
LINE
  5
386E
330
A
100
AcDbEntity
  8
MODEL
  6
CENTER2
100
AcDbLine
 10
758.0404876024936
 20
412.3380519621059
 30
0.0
 11
758.0404876024936
 21
362.3380519621057
 31
0.0
  0
LINE
  5
386F
330
A
100
AcDbEntity
  8
MODEL
  6
CENTER2
100
AcDbLine
 10
380.9889022552156
 20
412.2245868979161
 30
0.0
 11
380.9889022552156
 21
362.2245868979162
 31
0.0
  0
LINE
  5
3870
330
A
100
AcDbEntity
  8
MODEL
  6
CENTER2
100
AcDbLine
 10
431.9497929739387
 20
412.3380764395691
 30
0.0
 11
431.9497929739387
 21
362.3380764395691
 31
0.0
  0
LINE
  5
3871
330
A
100
AcDbEntity
  8
MODEL
  6
Continuous
100
AcDbLine
 10
376.4447463779366
 20
1126.52458761722
 30
0.0
 11
436.4447463779366
 21
1126.52458761722
 31
0.0
  0
LINE
  5
3872
102
{ACAD_REACTORS
330
394A
102
}
330
A
100
AcDbEntity
  8
MODEL
  6
Continuous
100
AcDbLine
 10
797.5354441031864
 20
408.5245613077426
 30
0.0
 11
667.5354441031864
 21
408.5245613077426
 31
0.0
  0
LINE
  5
3873
330
A
100
AcDbEntity
  8
MODEL
  6
Continuous
100
AcDbLine
 10
471.4447463779366
 20
408.5245856064972
 30
0.0
 11
341.4447463779366
 21
408.5245856064972
 31
0.0
  0
HATCH
  5
387F
330
A
100
AcDbEntity
  8
MODEL
  6
Continuous
100
AcDbHatch
 10
0.0
 20
0.0
 30
0.0
210
0.0
220
0.0
230
1.0
  2
_USER
 70
     0
 71
     0
 91
        4
 92
        1
 93
        4
 72
     1
 10
667.5354885882093
 20
398.5245833749636
 11
703.0354885882093
 21
398.5245833749636
 72
     1
 10
703.0354885882093
 20
398.5245833749636
 11
703.0354885882093
 21
408.5245833749635
 72
     1
 10
703.0354885882093
 20
408.5245833749635
 11
667.5354885882093
 21
408.5245833749635
 72
     1
 10
667.5354885882093
 20
408.5245833749635
 11
667.5354885882093
 21
398.5245833749635
 97
        0
 92
        1
 93
        4
 72
     1
 10
722.0354885882093
 20
398.5245833749636
 11
722.0354885882093
 21
408.5245833749635
 72
     1
 10
722.0354885882093
 20
408.5245833749635
 11
711.0354885882093
 21
408.5245833749635
 72
     1
 10
711.0354885882093
 20
408.5245833749635
 11
711.0354885882093
 21
398.5245833749635
 72
     1
 10
711.0354885882093
 20
398.5245833749636
 11
722.0354885882093
 21
398.5245833749636
 97
        0
 92
        1
 93
        4
 72
     1
 10
743.0354885882093
 20
398.5245833749636
 11
754.0354885882093
 21
398.5245833749636
 72
     1
 10
754.0354885882093
 20
398.5245833749636
 11
754.0354885882093
 21
408.5245833749635
 72
     1
 10
754.0354885882093
 20
408.5245833749635
 11
743.0354885882093
 21
408.5245833749635
 72
     1
 10
743.0354885882093
 20
408.5245833749635
 11
743.0354885882093
 21
398.5245833749635
 97
        0
 92
        1
 93
        4
 72
     1
 10
797.5354885882093
 20
398.5245833749636
 11
797.5354885882093
 21
408.5245833749635
 72
     1
 10
797.5354885882093
 20
408.5245833749635
 11
762.0354885882093
 21
408.5245833749635
 72
     1
 10
762.0354885882093
 20
408.5245833749635
 11
762.0354885882093
 21
398.5245833749635
 72
     1
 10
762.0354885882093
 20
398.5245833749636
 11
797.5354885882093
 21
398.5245833749636
 97
        0
 75
     0
 76
     0
 52
44.99999999988837
 41
5.0
 77
     0
 78
     1
 53
44.99999999988837
 43
3600.601018036307
 44
205.4243701335271
 45
-3.535533905925849
 46
3.535533905939626
 79
     0
 98
        0
  0
HATCH
  5
3880
330
A
100
AcDbEntity
  8
MODEL
  6
Continuous
100
AcDbHatch
 10
0.0
 20
0.0
 30
0.0
210
0.0
220
0.0
230
1.0
  2
_USER
 70
     0
 71
     0
 91
        4
 92
        1
 93
        4
 72
     1
 10
341.4447917565926
 20
398.5246076737182
 11
376.9447917565926
 21
398.5246076737182
 72
     1
 10
376.9447917565926
 20
398.5246076737182
 11
376.9447917565926
 21
408.5246076737182
 72
     1
 10
376.9447917565926
 20
408.5246076737182
 11
341.4447917565926
 21
408.5246076737182
 72
     1
 10
341.4447917565926
 20
408.5246076737182
 11
341.4447917565926
 21
398.5246076737182
 97
        0
 92
        1
 93
        4
 72
     1
 10
395.9447917565926
 20
398.5246076737182
 11
395.9447917565926
 21
408.5246076737182
 72
     1
 10
395.9447917565926
 20
408.5246076737182
 11
384.9447917565926
 21
408.5246076737182
 72
     1
 10
384.9447917565926
 20
408.5246076737182
 11
384.9447917565926
 21
398.5246076737182
 72
     1
 10
384.9447917565926
 20
398.5246076737182
 11
395.9447917565926
 21
398.5246076737182
 97
        0
 92
        1
 93
        4
 72
     1
 10
416.9447917565926
 20
398.5246076737182
 11
427.9447917565926
 21
398.5246076737182
 72
     1
 10
427.9447917565926
 20
398.5246076737182
 11
427.9447917565926
 21
408.5246076737182
 72
     1
 10
427.9447917565926
 20
408.5246076737182
 11
416.9447917565926
 21
408.5246076737182
 72
     1
 10
416.9447917565926
 20
408.5246076737182
 11
416.9447917565926
 21
398.5246076737182
 97
        0
 92
        1
 93
        4
 72
     1
 10
471.4447917565926
 20
398.5246076737182
 11
471.4447917565926
 21
408.5246076737182
 72
     1
 10
471.4447917565926
 20
408.5246076737182
 11
435.9447917565926
 21
408.5246076737182
 72
     1
 10
435.9447917565926
 20
408.5246076737182
 11
435.9447917565926
 21
398.5246076737182
 72
     1
 10
435.9447917565926
 20
398.5246076737182
 11
471.4447917565926
 21
398.5246076737182
 97
        0
 75
     0
 76
     0
 52
44.99999999988837
 41
5.0
 77
     0
 78
     1
 53
44.99999999988837
 43
3600.601018036307
 44
205.4243701335271
 45
-3.535533905925849
 46
3.535533905939626
 79
     0
 98
        0
  0
DIMENSION
  5
3882
330
A
100
AcDbEntity
  8
DIM
100
AcDbDimension
  2
*D39
 10
461.4447680363069
 20
1205.981173721311
 30
0.0
 11
311.4447680363069
 21
1221.983424565377
 31
0.0
 70
    32
 71
     5
 42
300.0
 73
     0
 74
     0
 75
     0
  3
tfrom線あり
100
AcDbAlignedDimension
 13
161.4447680363069
 23
1138.861807734246
 33
0.0
 14
461.4447680363069
 24
1138.861807734246
 34
0.0
100
AcDbRotatedDimension
  0
DIMENSION
  5
3891
330
A
100
AcDbEntity
  8
DIM
100
AcDbDimension
  2
*D40
 10
406.4447680363073
 20
1173.474108230876
 30
0.0
 11
283.9447680363073
 21
1189.476359074942
 31
0.0
 70
    32
 71
     5
 42
245.0
 73
     0
 74
     0
 75
     0
  3
tfrom線あり
100
AcDbAlignedDimension
 13
161.4447680363073
 23
1166.104890738165
 33
0.0
 14
406.4447680363073
 24
1140.312629513674
 34
0.0
100
AcDbRotatedDimension
  0
DIMENSION
  5
38A3
330
A
100
AcDbEntity
  8
DIM
100
AcDbDimension
  2
*D41
 10
747.5355883488069
 20
1174.828966213616
 30
0.0
 11
722.5355883488069
 21
1190.831217057683
 31
0.0
 70
    32
 71
     5
 42
50.0
 73
     0
 74
     0
 75
     0
  3
tfrom線あり
100
AcDbAlignedDimension
 13
697.5355883488069
 23
1140.046259648019
 33
0.0
 14
747.5355883488069
 24
1140.046259648019
 34
0.0
100
AcDbRotatedDimension
  0
DIMENSION
  5
38B2
330
A
100
AcDbEntity
  8
DIM
100
AcDbDimension
  2
*D42
 10
664.5156545605665
 20
1126.52458986009
 30
0.0
 11
664.5156545605665
 21
1103.946122934993
 31
0.0
 70
   160
 71
     5
 42
13.0
 73
     0
 74
     1
 75
     1
  3
tfrom線あり
100
AcDbAlignedDimension
 13
693.9354906925569
 23
1139.52458986009
 33
0.0
 14
693.9354906925569
 24
1126.52458986009
 34
0.0
 50
90.0
100
AcDbRotatedDimension
1001
ACAD
1000
DSTYLE
1002
{
1070
   172
1070
     1
1002
}
  0
DIMENSION
  5
38C2
330
A
100
AcDbEntity
  8
DIM
100
AcDbDimension
  2
*D43
 10
609.6580285416206
 20
408.5245898600896
 30
0.0
 11
593.6557776975541
 21
774.0245898600897
 31
0.0
 70
    32
 71
     5
 42
731.0000000000001
 73
     0
 74
     0
 75
     0
  3
tfrom線あり
100
AcDbAlignedDimension
 13
693.9354906925569
 23
1139.52458986009
 33
0.0
 14
659.768707492058
 24
408.5245898600896
 34
0.0
 50
90.0
100
AcDbRotatedDimension
  0
DIMENSION
  5
38D4
102
{ACAD_REACTORS
330
38D6
102
}
102
{ACAD_XDICTIONARY
360
38D5
102
}
330
A
100
AcDbEntity
  8
DIM
100
AcDbDimension
  2
*D44
 10
436.4447463779366
 20
548.9784306416038
 30
0.0
 11
459.513709739197
 21
548.9784306416038
 31
0.0
 70
   160
 71
     5
 42
60.0
 73
     0
 74
     1
 75
     1
  3
tfrom線あり
100
AcDbAlignedDimension
 13
376.4447463779366
 23
533.6504582567643
 33
0.0
 14
436.4447463779366
 24
533.6504582567643
 34
0.0
100
AcDbRotatedDimension
1001
ACAD
1000
DSTYLE
1002
{
1070
   172
1070
     1
1002
}
  0
DIMENSION
  5
38E5
330
A
100
AcDbEntity
  8
DIM
100
AcDbDimension
  2
*D45
 10
461.4447680363069
 20
482.5034032041561
 30
0.0
 11
488.0793497544512
 21
482.5034032041561
 31
0.0
 70
   160
 71
     5
 42
110.0
 73
     0
 74
     1
 75
     1
  3
tfrom線あり
100
AcDbAlignedDimension
 13
351.4447680363069
 23
426.6376295146069
 33
0.0
 14
461.4447680363069
 24
426.6376295146069
 34
0.0
100
AcDbRotatedDimension
1001
ACAD
1000
DSTYLE
1002
{
1070
   172
1070
     1
1002
}
  0
DIMENSION
  5
3906
330
A
100
AcDbEntity
  8
DIM
100
AcDbDimension
  2
*D47
 10
512.959338656477
 20
366.5245898600896
 30
0.0
 11
496.9570878124105
 21
387.5245898600896
 31
0.0
 70
    32
 71
     5
 42
42.0
 73
     0
 74
     0
 75
     0
  3
tfrom線あり
100
AcDbAlignedDimension
 13
469.7867131263134
 23
408.5245898600896
 33
0.0
 14
438.5851868657178
 24
366.5245898600896
 34
0.0
 50
90.0
100
AcDbRotatedDimension
  0
MTEXT
  5
3932
330
A
100
AcDbEntity
  8
DIM
390
1D
100
AcDbMText
 10
389.9597972824325
 20
364.7253781163467
 30
0.0
 40
12.21630859375
 41
0.0
 46
13.95167517653104
 71
     1
 72
     1
  1
{G1/2"}
  7
ＭＳ ゴシック
 73
     1
 44
0.7828267384257843
1001
ACAD
1000
ACAD_MTEXT_DEFINED_HEIGHT_BEGIN
1070
    46
1040
13.95167517653104
1000
ACAD_MTEXT_DEFINED_HEIGHT_END
  0
MTEXT
  5
3933
330
A
100
AcDbEntity
  8
DIM
390
1D
100
AcDbMText
 10
400.33565551217
 20
381.2324253000202
 30
0.0
 40
12.21630859375
 41
0.0
 46
12.21630859375
 71
     1
 72
     1
  1
{▲}
  7
ＭＳ ゴシック
 73
     1
 44
0.7828267384257843
1001
ACAD
1000
ACAD_MTEXT_DEFINED_HEIGHT_BEGIN
1070
    46
1040
12.21630859375
1000
ACAD_MTEXT_DEFINED_HEIGHT_END
  0
DIMENSION
  5
3936
102
{ACAD_REACTORS
330
3938
102
}
102
{ACAD_XDICTIONARY
360
3937
102
}
330
A
100
AcDbEntity
  8
DIM
100
AcDbDimension
  2
*D48
 10
787.5354447151462
 20
481.4292324687277
 30
0.0
 11
814.1700264332906
 21
481.4292324687277
 31
0.0
 70
   160
 71
     5
 42
110.0
 73
     0
 74
     1
 75
     1
  3
tfrom線あり
100
AcDbAlignedDimension
 13
677.5354447151462
 23
422.5245637118691
 33
0.0
 14
787.5354447151462
 24
422.5245589036164
 34
0.0
100
AcDbRotatedDimension
1001
ACAD
1000
DSTYLE
1002
{
1070
   172
1070
     1
1002
}
  0
DIMENSION
  5
3948
102
{ACAD_REACTORS
330
394A
102
}
102
{ACAD_XDICTIONARY
360
3949
102
}
330
A
100
AcDbEntity
  8
DIM
100
AcDbDimension
  2
*D49
 10
831.619109273103
 20
408.5245613077426
 30
0.0
 11
831.619109273103
 21
445.2880644069106
 31
0.0
 70
   160
 71
     5
 42
13.99999803476885
 73
     0
 74
     1
 75
     1
  3
tfrom線あり
100
AcDbAlignedDimension
 13
791.1354418644319
 23
422.5245593425115
 33
0.0
 14
797.5354441031864
 24
408.5245613077426
 34
0.0
 50
90.0
100
AcDbRotatedDimension
1001
ACAD
1000
DSTYLE
1002
{
1070
   172
1070
     1
1002
}
  0
DIMENSION
  5
395A
330
A
100
AcDbEntity
  8
DIM
100
AcDbDimension
  2
*D50
 10
742.5354491061232
 20
548.9784306416038
 30
0.0
 11
765.6647163313327
 21
548.9784306416038
 31
0.0
 70
   160
 71
     5
 42
20.00000000000011
 73
     0
 74
     1
 75
     1
  3
tfrom線あり
100
AcDbAlignedDimension
 13
722.5354491061231
 23
541.2712201428304
 33
0.0
 14
742.5354491061232
 24
541.2712192686026
 34
0.0
100
AcDbRotatedDimension
1001
ACAD
1000
DSTYLE
1002
{
1070
   172
1070
     1
1002
}
  0
DIMENSION
  5
3977
330
A
100
AcDbEntity
  8
DIM
100
AcDbDimension
  2
*D51
 10
762.0162855328831
 20
333.2706468324548
 30
0.0
 11
785.2679424042099
 21
333.2706468324548
 31
0.0
 70
   160
 71
     5
 42
8.0
 73
     0
 74
     1
 75
     1
  3
tfrom線あり
100
AcDbAlignedDimension
 13
754.0162855328831
 23
376.4595345849052
 33
0.0
 14
762.0162855328831
 24
376.4595345849052
 34
0.0
100
AcDbRotatedDimension
1001
ACAD
1000
DSTYLE
1002
{
1070
   172
1070
     1
1070
     3
1000
%%c<>
1002
}
  0
VIEWPORT
  5
349
330
B
100
AcDbEntity
 67
     1
  8
0
100
AcDbViewport
 10
202.5
 20
128.5
 30
0.0
 40
486.0
 41
308.4
 68
     1
 69
     1
 12
202.5
 22
128.5
 13
0.0
 23
0.0
 14
0.5
 24
0.5
 15
0.0
 25
0.0
 16
0.0
 26
0.0
 36
1.0
 17
0.0
 27
0.0
 37
0.0
 42
50.0
 43
0.0
 44
0.0
 45
308.4
 50
0.0
 51
0.0
 72
   100
 90
   557152
  1

281
     0
 71
     1
 74
     0
110
0.0
120
0.0
130
0.0
111
1.0
121
0.0
131
0.0
112
0.0
122
1.0
132
0.0
 79
     0
146
0.0
170
     0
 61
     5
348
26C
292
     1
282
     1
141
0.0
142
0.0
 63
   256
  0
VIEWPORT
  5
34A
330
B
100
AcDbEntity
 67
     1
  8
0
100
AcDbViewport
 10
202.5
 20
128.5
 30
0.0
 40
324.0
 41
205.6
 68
     2
 69
     2
 12
986.6781359294573
 22
1427.077061889956
 13
0.0
 23
0.0
 14
0.5
 24
0.5
 15
0.0
 25
0.0
 16
0.0
 26
0.0
 36
1.0
 17
0.0
 27
0.0
 37
0.0
 42
50.0
 43
0.0
 44
0.0
 45
2890.021615685494
 50
0.0
 51
0.0
 72
   100
 90
   557152
  1

281
     0
 71
     1
 74
     0
110
0.0
120
0.0
130
0.0
111
1.0
121
0.0
131
0.0
112
0.0
122
1.0
132
0.0
 79
     0
146
0.0
170
     0
 61
     5
348
26C
292
     1
282
     1
141
0.0
142
0.0
 63
   256
  0
ENDSEC
  0
SECTION
  2
OBJECTS
  0
DICTIONARY
  5
19
330
0
100
AcDbDictionary
281
     1
  3
ACAD_COLOR
350
674
  3
ACAD_DETAILVIEWSTYLE
350
BBF
  3
ACAD_FIELDLIST
350
16CE
  3
ACAD_GROUP
350
1A
  3
ACAD_IMAGE_VARS
350
27B
  3
ACAD_LAYOUT
350
1E
  3
ACAD_MATERIAL
350
263
  3
ACAD_MLEADERSTYLE
350
336
  3
ACAD_MLINESTYLE
350
1B
  3
ACAD_PLOTSETTINGS
350
22
  3
ACAD_PLOTSTYLENAME
350
1F
  3
ACAD_SCALELIST
350
241
  3
ACAD_SECTIONVIEWSTYLE
350
BC0
  3
ACAD_TABLESTYLE
350
278
  3
ACAD_VISUALSTYLE
350
267
  3
ACDB_RECOMPOSE_DATA
350
39A5
  3
AcDbVariableDictionary
350
330
  3
APPDATA
350
27A
  3
DimOffsetDictionary
350
E38
  0
SUN
  5
904
330
15
100
AcDbSun
 90
        1
290
     0
 63
     7
421
 16777215
 40
1.0
291
     1
 91
  2455826
 92
 54000000
292
     0
 70
     2
 71
   256
280
     1
  0
DICTIONARY
  5
2E1
330
2
100
AcDbDictionary
280
     1
281
     1
  3
ACAD_LAYERSTATES
360
2E2
  3
ACLYDICTIONARY
360
DDE
  0
DICTIONARY
  5
24B4
330
A
100
AcDbDictionary
280
     1
281
     1
  3
ACAD_SORTENTS
360
24B5
  0
DICTIONARY
  5
16F1
330
16F0
100
AcDbDictionary
280
     1
281
     1
  3
ACAD_FIELD
360
398C
  0
DICTIONARY
  5
38D5
330
38D4
100
AcDbDictionary
280
     1
281
     1
  3
ACAD_DIMASSOC
360
38D6
  0
DICTIONARY
  5
3937
330
3936
100
AcDbDictionary
280
     1
281
     1
  3
ACAD_DIMASSOC
360
3938
  0
DICTIONARY
  5
3949
330
3948
100
AcDbDictionary
280
     1
281
     1
  3
ACAD_DIMASSOC
360
394A
  0
DICTIONARY
  5
674
102
{ACAD_REACTORS
330
19
102
}
330
19
100
AcDbDictionary
281
     1
  0
DICTIONARY
  5
BBF
102
{ACAD_REACTORS
330
19
102
}
330
19
100
AcDbDictionary
281
     1
  0
FIELDLIST
  5
16CE
102
{ACAD_REACTORS
330
19
102
}
330
19
100
AcDbIdSet
 90
        2
330
16F4
330
16F3
100
AcDbFieldList
  0
DICTIONARY
  5
1A
102
{ACAD_REACTORS
330
19
102
}
330
19
100
AcDbDictionary
281
     1
  3
*A2
350
24A3
  0
RASTERVARIABLES
  5
27B
102
{ACAD_REACTORS
330
19
102
}
330
19
100
AcDbRasterVariables
 90
        0
 70
     1
 71
     1
 72
     1
  0
DICTIONARY
  5
1E
102
{ACAD_REACTORS
330
19
102
}
330
19
100
AcDbDictionary
281
     1
  3
Layout1
350
21
  3
Model
350
20
  0
DICTIONARY
  5
263
102
{ACAD_REACTORS
330
19
102
}
330
19
100
AcDbDictionary
281
     1
  3
ByBlock
350
265
  3
ByLayer
350
264
  3
Global
350
266
  0
DICTIONARY
  5
336
102
{ACAD_REACTORS
330
19
102
}
330
19
100
AcDbDictionary
281
     1
  3
Standard
350
D59
  0
DICTIONARY
  5
1B
102
{ACAD_REACTORS
330
19
102
}
330
19
100
AcDbDictionary
281
     1
  3
Standard
350
1C
  0
DICTIONARY
  5
22
102
{ACAD_REACTORS
330
19
102
}
330
19
100
AcDbDictionary
281
     1
  0
ACDBDICTIONARYWDFLT
  5
1F
102
{ACAD_REACTORS
330
19
102
}
330
19
100
AcDbDictionary
281
     1
  3
Normal
350
1D
100
AcDbDictionaryWithDefault
340
1D
  0
DICTIONARY
  5
241
102
{ACAD_REACTORS
330
19
102
}
330
19
100
AcDbDictionary
281
     1
  3
A0
350
242
  3
A1
350
243
  3
A2
350
244
  3
A3
350
245
  3
A4
350
246
  3
A5
350
247
  3
A6
350
248
  3
A7
350
249
  3
A8
350
24A
  3
A9
350
24B
  3
B0
350
24C
  3
B1
350
24D
  3
B2
350
24E
  3
B3
350
24F
  3
B4
350
250
  3
B5
350
251
  3
B6
350
252
  3
B7
350
253
  3
B8
350
254
  3
B9
350
255
  3
C0
350
256
  3
C1
350
257
  3
C2
350
258
  3
C3
350
259
  3
C4
350
25A
  3
C5
350
25B
  3
C6
350
25C
  3
C7
350
25D
  3
C8
350
25E
  3
C9
350
25F
  3
D0
350
260
  3
D1
350
261
  3
D2
350
262
  0
DICTIONARY
  5
BC0
102
{ACAD_REACTORS
330
19
102
}
330
19
100
AcDbDictionary
281
     1
  0
DICTIONARY
  5
278
102
{ACAD_REACTORS
330
19
102
}
330
19
100
AcDbDictionary
281
     1
  3
Standard
350
279
  0
DICTIONARY
  5
267
102
{ACAD_REACTORS
330
19
102
}
330
19
100
AcDbDictionary
281
     1
  3
2dWireframe
350
26C
  3
3D Hidden
350
26E
  3
3dWireframe
350
26D
  3
Basic
350
26F
  3
Brighten
350
273
  3
ColorChange
350
277
  3
Conceptual
350
271
  3
Dim
350
272
  3
EdgeColorOff
350
8FE
  3
Facepattern
350
276
  3
Flat
350
268
  3
FlatWithEdges
350
269
  3
Gouraud
350
26A
  3
GouraudWithEdges
350
26B
  3
Hidden
350
8FB
  3
JitterOff
350
8FC
  3
Linepattern
350
275
  3
OverhangOff
350
8FD
  3
Realistic
350
270
  3
Shaded
350
903
  3
Shaded with edges
350
902
  3
Shades of Gray
350
8FF
  3
Sketchy
350
900
  3
Thicken
350
274
  3
Wireframe
350
8FA
  3
X-Ray
350
901
  0
XRECORD
  5
39A5
102
{ACAD_REACTORS
330
19
102
}
330
19
100
AcDbXrecord
280
     1
 90
        1
330
279
  0
DICTIONARY
  5
330
102
{ACAD_REACTORS
330
19
102
}
330
19
100
AcDbDictionary
281
     1
  3
CANNOSCALE
350
331
  3
CMLEADERSTYLE
350
D5E
  3
CTABLESTYLE
350
335
  3
HPTRANSPARENCY
350
D52
  3
XCLIPFRAME
350
896
  0
DICTIONARY
  5
27A
102
{ACAD_REACTORS
330
19
102
}
330
19
100
AcDbDictionary
281
     1
  0
DICTIONARY
  5
E38
102
{ACAD_REACTORS
330
19
102
}
330
19
100
AcDbDictionary
281
     1
  3
DIMRAILANGLE
350
1614
  3
DIMRAILFIRSTOFFSET
350
1612
  3
DIMRAILOFFSET
350
1613
  3
DIMRAILSENABLED
350
1615
  0
DICTIONARY
  5
2E2
102
{ACAD_REACTORS
330
2E1
102
}
330
2E1
100
AcDbDictionary
281
     1
  0
DICTIONARY
  5
DDE
102
{ACAD_REACTORS
330
2E1
102
}
330
2E1
100
AcDbDictionary
281
     1
1001
ACAD
1000
<All
  0
SORTENTSTABLE
  5
24B5
102
{ACAD_REACTORS
330
24B4
102
}
330
24B4
100
AcDbSortentsTable
330
A
331
0
  5
1782
331
2492
  5
244D
331
2493
  5
2491
331
249E
  5
2492
331
249F
  5
2493
331
24A0
  5
249E
331
24A1
  5
249F
331
24A2
  5
24A0
  0
DICTIONARY
  5
398C
102
{ACAD_REACTORS
330
16F1
102
}
330
16F1
100
AcDbDictionary
280
     1
281
     1
  3
TEXT
360
16F3
  0
DIMASSOC
  5
38D6
102
{ACAD_REACTORS
330
38D5
102
}
330
38D5
100
AcDbDimAssoc
330
38D4
 90
        3
 70
     0
 71
     1
  1
AcDbOsnapPointRef
 72
    10
331
3699
 73
     0
 91
        0
 40
0.8421507519324668
 10
0.0
 20
0.0
 30
0.0
 75
     0
  1
AcDbOsnapPointRef
 72
     8
331
369A
 73
     0
 91
        0
 40
0.8421507519324668
 10
0.0
 20
0.0
 30
0.0
 75
     1
  1
AcDbOsnapPointRef
 72
    10
331
3699
 73
     0
 91
        0
 40
0.8421507519324668
 10
0.0
 20
0.0
 30
0.0
 75
     0
  0
DIMASSOC
  5
3938
102
{ACAD_REACTORS
330
3937
102
}
330
3937
100
AcDbDimAssoc
330
3936
 90
        3
 70
     0
 71
     1
  1
AcDbOsnapPointRef
 72
     1
331
3744
 73
     0
 91
        0
 40
0.0
 10
0.0
 20
0.0
 30
0.0
 75
     0
  1
AcDbOsnapPointRef
 72
     1
331
3745
 73
     0
 91
        0
 40
0.0
 10
0.0
 20
0.0
 30
0.0
 75
     0
  0
DIMASSOC
  5
394A
102
{ACAD_REACTORS
330
3949
102
}
330
3949
100
AcDbDimAssoc
330
3948
 90
        2
 70
     0
 71
     1
  1
AcDbOsnapPointRef
 72
    13
331
3872
 73
     0
 91
        0
 40
0.0
 10
0.0
 20
0.0
 30
0.0
 75
     0
  0
GROUP
  5
24A3
102
{ACAD_REACTORS
330
1A
102
}
330
1A
100
AcDbGroup
300

 70
     1
 71
     1
340
2492
340
2493
340
249E
340
249F
340
24A0
340
24A1
340
24A2
  0
LAYOUT
  5
21
102
{ACAD_REACTORS
330
1E
102
}
330
1E
100
AcDbPlotSettings
  1

  2
none_device
  4
ISO_A3_(420.00_x_297.00_MM)
  6

 40
7.5
 41
20.0
 42
7.5
 43
20.0
 44
420.0
 45
297.0
 46
0.0
 47
0.0
 48
0.0
 49
0.0
140
0.0
141
0.0
142
1.0
143
1.0
 70
     0
 72
     1
 73
     0
 74
     0
  7

 75
     0
 76
     0
 77
     2
 78
   300
147
1.0
148
0.0
149
0.0
100
AcDbLayout
  1
Layout1
 70
     0
 71
     0
 10
-7.5
 20
-20.0
 11
412.5
 21
277.0
 12
0.0
 22
0.0
 32
0.0
 14
0.0
 24
0.0
 34
0.0
 15
0.0
 25
0.0
 35
0.0
146
0.0
 13
0.0
 23
0.0
 33
0.0
 16
0.0
 26
0.0
 36
0.0
 17
0.0
 27
0.0
 37
0.0
 76
     0
330
B
331
349
  0
LAYOUT
  5
20
102
{ACAD_REACTORS
330
1E
102
}
330
1E
100
AcDbPlotSettings
  1

  2
none_device
  4
ISO_A3_(420.00_x_297.00_MM)
  6

 40
7.5
 41
20.0
 42
7.5
 43
20.0
 44
420.0
 45
297.0
 46
0.0
 47
0.0
 48
0.0
 49
0.0
140
0.0
141
0.0
142
1.0
143
1.0
 70
  1024
 72
     1
 73
     0
 74
     0
  7

 75
     0
 76
     0
 77
     2
 78
   300
147
1.0
148
0.0
149
0.0
100
AcDbLayout
  1
Model
 70
     0
 71
     1
 10
0.0
 20
0.0
 11
1050.0
 21
1485.0
 12
0.0
 22
0.0
 32
0.0
 14
0.0
 24
0.0
 34
-0.0000000000000071
 15
1050.0
 25
1485.0
 35
0.0000000000000071
146
0.0
 13
0.0
 23
0.0
 33
0.0
 16
0.0
 26
0.0
 36
0.0
 17
0.0
 27
0.0
 37
0.0
 76
     0
330
A
331
15
  0
MATERIAL
  5
265
102
{ACAD_REACTORS
330
263
102
}
330
263
100
AcDbMaterial
  1
ByBlock
 72
     1
 94
      127
  0
MATERIAL
  5
264
102
{ACAD_REACTORS
330
263
102
}
330
263
100
AcDbMaterial
  1
ByLayer
 72
     1
 94
      127
  0
MATERIAL
  5
266
102
{ACAD_REACTORS
330
263
102
}
330
263
100
AcDbMaterial
  1
Global
 72
     1
 94
      127
  0
MLEADERSTYLE
  5
D59
102
{ACAD_REACTORS
330
336
102
}
330
336
100
AcDbMLeaderStyle
170
     2
171
     1
172
     0
 90
        2
 40
0.0
 41
0.0
173
     1
 91
-1056964608
340
11
 92
       -2
290
     1
 42
2.0
291
     1
 43
8.0
  3
Standard
341
0
 44
4.0
300

342
17
174
     1
178
     6
175
     1
176
     0
 93
-1056964608
 45
4.0
292
     0
297
     0
 46
4.0
343
0
 94
-1056964608
 47
1.0
 49
1.0
140
1.0
293
     1
141
0.0
294
     1
177
     0
142
1.0
295
     0
296
     0
143
3.75
1001
ACAD_MLEADERVER
1070
     2
  0
MLINESTYLE
  5
1C
102
{ACAD_REACTORS
330
1B
102
}
330
1B
100
AcDbMlineStyle
  2
Standard
 70
     0
  3

 62
     0
 51
90.0
 52
90.0
 71
     2
 49
0.5
 62
   256
  6
BYLAYER
 49
-0.5
 62
   256
  6
BYLAYER
  0
ACDBPLACEHOLDER
  5
1D
102
{ACAD_REACTORS
330
1F
102
}
330
1F
  0
SCALE
  5
242
102
{ACAD_REACTORS
330
241
102
}
330
241
100
AcDbScale
 70
     0
300
1:1
140
1.0
141
1.0
290
     1
  0
SCALE
  5
243
102
{ACAD_REACTORS
330
241
102
}
330
241
100
AcDbScale
 70
     0
300
1:2
140
1.0
141
2.0
290
     0
  0
SCALE
  5
244
102
{ACAD_REACTORS
330
241
102
}
330
241
100
AcDbScale
 70
     0
300
1:4
140
1.0
141
4.0
290
     0
  0
SCALE
  5
245
102
{ACAD_REACTORS
330
241
102
}
330
241
100
AcDbScale
 70
     0
300
1:5
140
1.0
141
5.0
290
     0
  0
SCALE
  5
246
102
{ACAD_REACTORS
330
241
102
}
330
241
100
AcDbScale
 70
     0
300
1:8
140
1.0
141
8.0
290
     0
  0
SCALE
  5
247
102
{ACAD_REACTORS
330
241
102
}
330
241
100
AcDbScale
 70
     0
300
1:10
140
1.0
141
10.0
290
     0
  0
SCALE
  5
248
102
{ACAD_REACTORS
330
241
102
}
330
241
100
AcDbScale
 70
     0
300
1:16
140
1.0
141
16.0
290
     0
  0
SCALE
  5
249
102
{ACAD_REACTORS
330
241
102
}
330
241
100
AcDbScale
 70
     0
300
1:20
140
1.0
141
20.0
290
     0
  0
SCALE
  5
24A
102
{ACAD_REACTORS
330
241
102
}
330
241
100
AcDbScale
 70
     0
300
1:30
140
1.0
141
30.0
290
     0
  0
SCALE
  5
24B
102
{ACAD_REACTORS
330
241
102
}
330
241
100
AcDbScale
 70
     0
300
1:40
140
1.0
141
40.0
290
     0
  0
SCALE
  5
24C
102
{ACAD_REACTORS
330
241
102
}
330
241
100
AcDbScale
 70
     0
300
1:50
140
1.0
141
50.0
290
     0
  0
SCALE
  5
24D
102
{ACAD_REACTORS
330
241
102
}
330
241
100
AcDbScale
 70
     0
300
1:100
140
1.0
141
100.0
290
     0
  0
SCALE
  5
24E
102
{ACAD_REACTORS
330
241
102
}
330
241
100
AcDbScale
 70
     0
300
2:1
140
2.0
141
1.0
290
     0
  0
SCALE
  5
24F
102
{ACAD_REACTORS
330
241
102
}
330
241
100
AcDbScale
 70
     0
300
4:1
140
4.0
141
1.0
290
     0
  0
SCALE
  5
250
102
{ACAD_REACTORS
330
241
102
}
330
241
100
AcDbScale
 70
     0
300
8:1
140
8.0
141
1.0
290
     0
  0
SCALE
  5
251
102
{ACAD_REACTORS
330
241
102
}
330
241
100
AcDbScale
 70
     0
300
10:1
140
10.0
141
1.0
290
     0
  0
SCALE
  5
252
102
{ACAD_REACTORS
330
241
102
}
330
241
100
AcDbScale
 70
     0
300
100:1
140
100.0
141
1.0
290
     0
  0
SCALE
  5
253
102
{ACAD_REACTORS
330
241
102
}
330
241
100
AcDbScale
 70
     0
300
1/128" = 1'-0"
140
0.0078125
141
12.0
290
     0
  0
SCALE
  5
254
102
{ACAD_REACTORS
330
241
102
}
330
241
100
AcDbScale
 70
     0
300
1/64" = 1'-0"
140
0.015625
141
12.0
290
     0
  0
SCALE
  5
255
102
{ACAD_REACTORS
330
241
102
}
330
241
100
AcDbScale
 70
     0
300
1/32" = 1'-0"
140
0.03125
141
12.0
290
     0
  0
SCALE
  5
256
102
{ACAD_REACTORS
330
241
102
}
330
241
100
AcDbScale
 70
     0
300
1/16" = 1'-0"
140
0.0625
141
12.0
290
     0
  0
SCALE
  5
257
102
{ACAD_REACTORS
330
241
102
}
330
241
100
AcDbScale
 70
     0
300
3/32" = 1'-0"
140
0.09375
141
12.0
290
     0
  0
SCALE
  5
258
102
{ACAD_REACTORS
330
241
102
}
330
241
100
AcDbScale
 70
     0
300
1/8" = 1'-0"
140
0.125
141
12.0
290
     0
  0
SCALE
  5
259
102
{ACAD_REACTORS
330
241
102
}
330
241
100
AcDbScale
 70
     0
300
3/16" = 1'-0"
140
0.1875
141
12.0
290
     0
  0
SCALE
  5
25A
102
{ACAD_REACTORS
330
241
102
}
330
241
100
AcDbScale
 70
     0
300
1/4" = 1'-0"
140
0.25
141
12.0
290
     0
  0
SCALE
  5
25B
102
{ACAD_REACTORS
330
241
102
}
330
241
100
AcDbScale
 70
     0
300
3/8" = 1'-0"
140
0.375
141
12.0
290
     0
  0
SCALE
  5
25C
102
{ACAD_REACTORS
330
241
102
}
330
241
100
AcDbScale
 70
     0
300
1/2" = 1'-0"
140
0.5
141
12.0
290
     0
  0
SCALE
  5
25D
102
{ACAD_REACTORS
330
241
102
}
330
241
100
AcDbScale
 70
     0
300
3/4" = 1'-0"
140
0.75
141
12.0
290
     0
  0
SCALE
  5
25E
102
{ACAD_REACTORS
330
241
102
}
330
241
100
AcDbScale
 70
     0
300
1" = 1'-0"
140
1.0
141
12.0
290
     0
  0
SCALE
  5
25F
102
{ACAD_REACTORS
330
241
102
}
330
241
100
AcDbScale
 70
     0
300
1-1/2" = 1'-0"
140
1.5
141
12.0
290
     0
  0
SCALE
  5
260
102
{ACAD_REACTORS
330
241
102
}
330
241
100
AcDbScale
 70
     0
300
3" = 1'-0"
140
3.0
141
12.0
290
     0
  0
SCALE
  5
261
102
{ACAD_REACTORS
330
241
102
}
330
241
100
AcDbScale
 70
     0
300
6" = 1'-0"
140
6.0
141
12.0
290
     0
  0
SCALE
  5
262
102
{ACAD_REACTORS
330
241
102
}
330
241
100
AcDbScale
 70
     0
300
1'-0" = 1'-0"
140
12.0
141
12.0
290
     0
  0
TABLESTYLE
  5
279
102
{ACAD_REACTORS
330
278
102
}
102
{ACAD_XDICTIONARY
360
39A3
102
}
330
278
100
AcDbTableStyle
  3
Standard
 70
     0
 71
     0
 40
0.06
 41
0.06
280
     0
281
     0
  7
Standard
140
4.5
170
     2
 62
     0
 63
   257
283
     0
 90
        4
 91
        0
  1

274
    -2
284
     1
 64
     0
275
    -2
285
     1
 65
     0
276
    -2
286
     1
 66
     0
277
    -2
287
     1
 67
     0
278
    -2
288
     1
 68
     0
279
    -2
289
     1
 69
     0
  7
Standard
140
6.0
170
     5
 62
     0
 63
   257
283
     0
 90
        4
 91
        0
  1

274
    -2
284
     1
 64
     0
275
    -2
285
     1
 65
     0
276
    -2
286
     1
 66
     0
277
    -2
287
     1
 67
     0
278
    -2
288
     1
 68
     0
279
    -2
289
     1
 69
     0
  7
Standard
140
4.5
170
     5
 62
     0
 63
   257
283
     0
 90
        4
 91
        0
  1

274
    -2
284
     1
 64
     0
275
    -2
285
     1
 65
     0
276
    -2
286
     1
 66
     0
277
    -2
287
     1
 67
     0
278
    -2
288
     1
 68
     0
279
    -2
289
     1
 69
     0
  0
VISUALSTYLE
  5
26C
102
{ACAD_REACTORS
330
267
102
}
330
267
100
AcDbVisualStyle
  2
2dWireframe
 70
     4
 71
     0
 72
     2
 73
     0
 90
        0
 40
-0.6
 41
-30.0
 62
     5
 63
     7
421
 16777215
 74
     1
 91
        4
 64
     7
 65
   257
 75
     1
175
     1
 42
1.0
 92
        0
 66
   257
 43
1.0
 76
     1
 77
     6
 78
     2
 67
     7
 79
     5
170
     0
171
     0
290
     0
174
     0
 93
        1
 44
0.0
173
     0
291
     0
 45
0.0
  0
VISUALSTYLE
  5
26E
102
{ACAD_REACTORS
330
267
102
}
330
267
100
AcDbVisualStyle
  2
3D Hidden
 70
     6
 71
     1
 72
     2
 73
     2
 90
        0
 40
-0.6
 41
-30.0
 62
     5
 63
     7
421
 16777215
 74
     2
 91
        2
 64
     7
 65
   257
 75
     2
175
     1
 42
40.0
 92
        0
 66
   257
 43
1.0
 76
     1
 77
     6
 78
     2
 67
     7
 79
     3
170
     0
171
     0
290
     0
174
     0
 93
        1
 44
0.0
173
     0
291
     0
 45
0.0
  0
VISUALSTYLE
  5
26D
102
{ACAD_REACTORS
330
267
102
}
330
267
100
AcDbVisualStyle
  2
3dWireframe
 70
     5
 71
     0
 72
     2
 73
     0
 90
        0
 40
-0.6
 41
-30.0
 62
     5
 63
     7
421
 16777215
 74
     1
 91
        4
 64
     7
 65
   257
 75
     1
175
     1
 42
1.0
 92
        0
 66
   257
 43
1.0
 76
     1
 77
     6
 78
     2
 67
     7
 79
     5
170
     0
171
     0
290
     0
174
     0
 93
        1
 44
0.0
173
     0
291
     0
 45
0.0
  0
VISUALSTYLE
  5
26F
102
{ACAD_REACTORS
330
267
102
}
330
267
100
AcDbVisualStyle
  2
Basic
 70
     7
 71
     1
 72
     0
 73
     1
 90
        0
 40
-0.6
 41
-30.0
 62
     5
 63
     7
421
 16777215
 74
     0
 91
        4
 64
     7
 65
   257
 75
     1
175
     1
 42
1.0
 92
        8
 66
     7
 43
1.0
 76
     1
 77
     6
 78
     2
 67
     7
 79
     5
170
     0
171
     0
290
     0
174
     0
 93
        1
 44
0.0
173
     0
291
     1
 45
0.0
  0
VISUALSTYLE
  5
273
102
{ACAD_REACTORS
330
267
102
}
330
267
100
AcDbVisualStyle
  2
Brighten
 70
    12
 71
     2
 72
     2
 73
     0
 90
        0
 40
-0.6
 41
-30.0
 62
     5
 63
     7
421
 16777215
 74
     1
 91
        4
 64
     7
 65
   257
 75
     1
175
     1
 42
1.0
 92
        8
 66
     7
 43
1.0
 76
     1
 77
     6
 78
     2
 67
     7
 79
     5
170
     0
171
     0
290
     0
174
     0
 93
        1
 44
50.0
173
     0
291
     1
 45
0.0
  0
VISUALSTYLE
  5
277
102
{ACAD_REACTORS
330
267
102
}
330
267
100
AcDbVisualStyle
  2
ColorChange
 70
    16
 71
     2
 72
     2
 73
     3
 90
        0
 40
-0.6
 41
-30.0
 62
     5
 63
     8
421
  8421504
 74
     1
 91
        4
 64
     7
 65
   257
 75
     1
175
     1
 42
1.0
 92
        8
 66
     8
424
  8421504
 43
1.0
 76
     1
 77
     6
 78
     2
 67
     7
 79
     5
170
     0
171
     0
290
     0
174
     0
 93
        1
 44
0.0
173
     0
291
     1
 45
0.0
  0
VISUALSTYLE
  5
271
102
{ACAD_REACTORS
330
267
102
}
330
267
100
AcDbVisualStyle
  2
Conceptual
 70
     9
 71
     3
 72
     2
 73
     0
 90
        0
 40
-0.6
 41
-30.0
 62
     5
 63
     7
421
 16777215
 74
     2
 91
        2
 64
     7
 65
   257
 75
     1
175
     1
 42
40.0
 92
        8
 66
     7
 43
1.0
 76
     1
 77
     6
 78
     2
 67
     7
 79
     3
170
     0
171
     0
290
     0
174
     0
 93
        1
 44
0.0
173
     0
291
     0
 45
0.0
  0
VISUALSTYLE
  5
272
102
{ACAD_REACTORS
330
267
102
}
330
267
100
AcDbVisualStyle
  2
Dim
 70
    11
 71
     2
 72
     2
 73
     0
 90
        0
 40
-0.6
 41
-30.0
 62
     5
 63
     7
421
 16777215
 74
     1
 91
        4
 64
     7
 65
   257
 75
     1
175
     1
 42
1.0
 92
        8
 66
     7
 43
1.0
 76
     1
 77
     6
 78
     2
 67
     7
 79
     5
170
     0
171
     0
290
     0
174
     0
 93
        1
 44
-50.0
173
     0
291
     1
 45
0.0
  0
VISUALSTYLE
  5
8FE
102
{ACAD_REACTORS
330
267
102
}
330
267
100
AcDbVisualStyle
  2
EdgeColorOff
 70
    22
 71
     2
 72
     2
 73
     0
 90
        0
 40
0.6
 41
30.0
 62
     5
 63
     7
421
 16777215
 74
     1
 91
        4
 64
     7
 65
   257
 75
     1
175
     1
 42
1.0
 92
        8
 66
     7
 43
1.0
 76
     1
 77
     6
 78
     2
 67
     7
 79
     5
170
     0
171
     0
290
     0
174
     0
 93
        1
 44
0.0
173
     0
291
     1
 45
0.0
  0
VISUALSTYLE
  5
276
102
{ACAD_REACTORS
330
267
102
}
330
267
100
AcDbVisualStyle
  2
Facepattern
 70
    15
 71
     2
 72
     2
 73
     0
 90
        0
 40
-0.6
 41
-30.0
 62
     5
 63
     7
421
 16777215
 74
     1
 91
        4
 64
     7
 65
   257
 75
     1
175
     1
 42
1.0
 92
        8
 66
     7
 43
1.0
 76
     1
 77
     6
 78
     2
 67
     7
 79
     5
170
     0
171
     0
290
     0
174
     0
 93
        1
 44
0.0
173
     0
291
     1
 45
0.0
  0
VISUALSTYLE
  5
268
102
{ACAD_REACTORS
330
267
102
}
330
267
100
AcDbVisualStyle
  2
Flat
 70
     0
 71
     2
 72
     1
 73
     1
 90
        2
 40
-0.6
 41
30.0
 62
     5
 63
     7
421
 16777215
 74
     0
 91
        4
 64
     7
 65
   257
 75
     1
175
     1
 42
1.0
 92
        8
 66
     7
 43
1.0
 76
     1
 77
     6
 78
     2
 67
     7
 79
     5
170
     0
171
     0
290
     0
174
     0
 93
       13
 44
0.0
173
     0
291
     1
 45
0.0
  0
VISUALSTYLE
  5
269
102
{ACAD_REACTORS
330
267
102
}
330
267
100
AcDbVisualStyle
  2
FlatWithEdges
 70
     1
 71
     2
 72
     1
 73
     1
 90
        2
 40
-0.6
 41
30.0
 62
     5
 63
     7
421
 16777215
 74
     1
 91
        4
 64
     7
 65
   257
 75
     1
175
     1
 42
1.0
 92
        0
 66
   257
 43
1.0
 76
     1
 77
     6
 78
     2
 67
     7
 79
     5
170
     0
171
     0
290
     0
174
     0
 93
       13
 44
0.0
173
     0
291
     1
 45
0.0
  0
VISUALSTYLE
  5
26A
102
{ACAD_REACTORS
330
267
102
}
330
267
100
AcDbVisualStyle
  2
Gouraud
 70
     2
 71
     2
 72
     2
 73
     1
 90
        2
 40
-0.6
 41
30.0
 62
     5
 63
     7
421
 16777215
 74
     0
 91
        4
 64
     7
 65
   257
 75
     1
175
     1
 42
1.0
 92
        0
 66
     7
 43
1.0
 76
     1
 77
     6
 78
     2
 67
     7
 79
     5
170
     0
171
     0
290
     0
174
     0
 93
       13
 44
0.0
173
     0
291
     1
 45
0.0
  0
VISUALSTYLE
  5
26B
102
{ACAD_REACTORS
330
267
102
}
330
267
100
AcDbVisualStyle
  2
GouraudWithEdges
 70
     3
 71
     2
 72
     2
 73
     1
 90
        2
 40
-0.6
 41
30.0
 62
     5
 63
     7
421
 16777215
 74
     1
 91
        4
 64
     7
 65
   257
 75
     1
175
     1
 42
1.0
 92
        0
 66
   257
 43
1.0
 76
     1
 77
     6
 78
     2
 67
     7
 79
     5
170
     0
171
     0
290
     0
174
     0
 93
       13
 44
0.0
173
     0
291
     1
 45
0.0
  0
VISUALSTYLE
  5
8FB
102
{ACAD_REACTORS
330
267
102
}
330
267
100
AcDbVisualStyle
  2
Hidden
 70
     6
 71
     1
 72
     2
 73
     2
 90
        0
 40
0.6
 41
30.0
 62
     5
 63
     7
421
 16777215
 74
     2
 91
        2
 64
     7
 65
   257
 75
     2
175
     1
 42
40.0
 92
        0
 66
   257
 43
1.0
 76
     1
 77
     6
 78
     2
 67
     7
 79
     3
170
     0
171
     0
290
     0
174
     0
 93
        1
 44
0.0
173
     0
291
     0
 45
0.0
  0
VISUALSTYLE
  5
8FC
102
{ACAD_REACTORS
330
267
102
}
330
267
100
AcDbVisualStyle
  2
JitterOff
 70
    20
 71
     2
 72
     2
 73
     0
 90
        0
 40
0.6
 41
30.0
 62
     5
 63
     7
421
 16777215
 74
     1
 91
        4
 64
     7
 65
   257
 75
     1
175
     1
 42
1.0
 92
       10
 66
     7
 43
1.0
 76
     1
 77
     6
 78
     2
 67
     7
 79
     5
170
     0
171
     0
290
     0
174
     0
 93
        1
 44
0.0
173
     0
291
     1
 45
0.0
  0
VISUALSTYLE
  5
275
102
{ACAD_REACTORS
330
267
102
}
330
267
100
AcDbVisualStyle
  2
Linepattern
 70
    14
 71
     2
 72
     2
 73
     0
 90
        0
 40
-0.6
 41
-30.0
 62
     5
 63
     7
421
 16777215
 74
     1
 91
        4
 64
     7
 65
   257
 75
     7
175
     7
 42
1.0
 92
        8
 66
     7
 43
1.0
 76
     1
 77
     6
 78
     2
 67
     7
 79
     5
170
     0
171
     0
290
     0
174
     0
 93
        1
 44
0.0
173
     0
291
     1
 45
0.0
  0
VISUALSTYLE
  5
8FD
102
{ACAD_REACTORS
330
267
102
}
330
267
100
AcDbVisualStyle
  2
OverhangOff
 70
    21
 71
     2
 72
     2
 73
     0
 90
        0
 40
0.6
 41
30.0
 62
     5
 63
     7
421
 16777215
 74
     1
 91
        4
 64
     7
 65
   257
 75
     1
175
     1
 42
1.0
 92
        9
 66
     7
 43
1.0
 76
     1
 77
     6
 78
     2
 67
     7
 79
     5
170
     0
171
     0
290
     0
174
     0
 93
        1
 44
0.0
173
     0
291
     1
 45
0.0
  0
VISUALSTYLE
  5
270
102
{ACAD_REACTORS
330
267
102
}
330
267
100
AcDbVisualStyle
  2
Realistic
 70
     8
 71
     2
 72
     2
 73
     0
 90
        0
 40
-0.6
 41
-30.0
 62
     5
 63
     7
421
 16777215
 74
     1
 91
        0
 64
     7
 65
   257
 75
     1
175
     1
 42
1.0
 92
        8
 66
     8
424
  7895160
 43
1.0
 76
     1
 77
     6
 78
     2
 67
     7
 79
     5
170
     0
171
     0
290
     0
174
     0
 93
       13
 44
0.0
173
     0
291
     0
 45
0.0
  0
VISUALSTYLE
  5
903
102
{ACAD_REACTORS
330
267
102
}
330
267
100
AcDbVisualStyle
  2
Shaded
 70
    27
 71
     2
 72
     2
 73
     1
 90
        2
 40
0.6
 41
30.0
 62
     5
 63
     7
421
 16777215
 74
     0
 91
        4
 64
     7
 65
   257
 75
     1
175
     1
 42
1.0
 92
        8
 66
   257
 43
1.0
 76
     1
 77
     6
 78
     2
 67
     8
425
  7895160
 79
     3
170
     0
171
     0
290
     0
174
     0
 93
        5
 44
0.0
173
     0
291
     0
 45
0.0
  0
VISUALSTYLE
  5
902
102
{ACAD_REACTORS
330
267
102
}
330
267
100
AcDbVisualStyle
  2
Shaded with edges
 70
    26
 71
     2
 72
     2
 73
     1
 90
        2
 40
0.6
 41
30.0
 62
     5
 63
     7
421
 16777215
 74
     1
 91
       10
 64
     7
 65
   257
 75
     2
175
     1
 42
1.0
 92
        8
 66
   257
 43
1.0
 76
     1
 77
     6
 78
     2
 67
     7
 79
     3
170
     0
171
     0
290
     0
174
     0
 93
        5
 44
0.0
173
     0
291
     0
 45
0.0
  0
VISUALSTYLE
  5
8FF
102
{ACAD_REACTORS
330
267
102
}
330
267
100
AcDbVisualStyle
  2
Shades of Gray
 70
    23
 71
     2
 72
     2
 73
     3
 90
        0
 40
0.6
 41
30.0
 62
     5
 63
     7
421
 16777215
 74
     2
 91
        2
 64
     7
 65
     7
 75
     1
175
     1
 42
40.0
 92
        8
 66
     7
 43
1.0
 76
     1
 77
     6
 78
     2
 67
     7
 79
     3
170
     0
171
     0
290
     0
174
     0
 93
        1
 44
0.0
173
     0
291
     0
 45
0.0
  0
VISUALSTYLE
  5
900
102
{ACAD_REACTORS
330
267
102
}
330
267
100
AcDbVisualStyle
  2
Sketchy
 70
    24
 71
     1
 72
     2
 73
     2
 90
        0
 40
0.6
 41
30.0
 62
     5
 63
     7
421
 16777215
 74
     2
 91
        2
 64
     7
 65
     7
 75
     1
175
     1
 42
40.0
 92
       11
 66
     7
 43
1.0
 76
     1
 77
     6
 78
     2
 67
     7
 79
     6
170
     0
171
     0
290
     0
174
     0
 93
        1
 44
0.0
173
     0
291
     0
 45
0.0
  0
VISUALSTYLE
  5
274
102
{ACAD_REACTORS
330
267
102
}
330
267
100
AcDbVisualStyle
  2
Thicken
 70
    13
 71
     2
 72
     2
 73
     0
 90
        0
 40
-0.6
 41
-30.0
 62
     5
 63
     7
421
 16777215
 74
     1
 91
        4
 64
     7
 65
   257
 75
     1
175
     1
 42
1.0
 92
       12
 66
     7
 43
1.0
 76
     1
 77
     6
 78
     2
 67
     7
 79
     5
170
     0
171
     0
290
     0
174
     0
 93
        1
 44
0.0
173
     0
291
     1
 45
0.0
  0
VISUALSTYLE
  5
8FA
102
{ACAD_REACTORS
330
267
102
}
330
267
100
AcDbVisualStyle
  2
Wireframe
 70
     5
 71
     0
 72
     2
 73
     0
 90
        0
 40
0.6
 41
30.0
 62
     5
 63
     7
421
 16777215
 74
     1
 91
        4
 64
     7
 65
   257
 75
     1
175
     1
 42
1.0
 92
        0
 66
   257
 43
1.0
 76
     1
 77
     6
 78
     2
 67
     7
 79
     3
170
     0
171
     0
290
     0
174
     0
 93
        1
 44
0.0
173
     0
291
     0
 45
0.0
  0
VISUALSTYLE
  5
901
102
{ACAD_REACTORS
330
267
102
}
330
267
100
AcDbVisualStyle
  2
X-Ray
 70
    25
 71
     2
 72
     2
 73
     1
 90
        1
 40
0.5
 41
30.0
 62
     5
 63
     7
421
 16777215
 74
     1
 91
        0
 64
     7
 65
   257
 75
     1
175
     1
 42
1.0
 92
        8
 66
     7
 43
1.0
 76
     1
 77
     6
 78
     2
 67
     7
 79
     3
170
     0
171
     0
290
     0
174
     0
 93
       13
 44
0.0
173
     0
291
     0
 45
0.0
  0
DICTIONARYVAR
  5
331
102
{ACAD_REACTORS
330
330
102
}
330
330
100
DictionaryVariables
280
     0
  1
1:1
  0
DICTIONARYVAR
  5
D5E
102
{ACAD_REACTORS
330
330
102
}
330
330
100
DictionaryVariables
280
     0
  1
Standard
  0
DICTIONARYVAR
  5
335
102
{ACAD_REACTORS
330
330
102
}
330
330
100
DictionaryVariables
280
     0
  1
Standard
  0
DICTIONARYVAR
  5
D52
102
{ACAD_REACTORS
330
330
102
}
330
330
100
DictionaryVariables
280
     0
  1
ByLayer
  0
DICTIONARYVAR
  5
896
102
{ACAD_REACTORS
330
330
102
}
330
330
100
DictionaryVariables
280
     0
  1
0
  0
DICTIONARYVAR
  5
1614
102
{ACAD_REACTORS
330
E38
102
}
330
E38
100
DictionaryVariables
280
     0
  1
0.261799
  0
DICTIONARYVAR
  5
1612
102
{ACAD_REACTORS
330
E38
102
}
330
E38
100
DictionaryVariables
280
     0
  1
0.400000
  0
DICTIONARYVAR
  5
1613
102
{ACAD_REACTORS
330
E38
102
}
330
E38
100
DictionaryVariables
280
     0
  1
0.250000
  0
DICTIONARYVAR
  5
1615
102
{ACAD_REACTORS
330
E38
102
}
330
E38
100
DictionaryVariables
280
     0
  1
1
  0
FIELD
  5
16F3
102
{ACAD_REACTORS
330
398C
102
}
330
398C
100
AcDbField
  1
_text
  2
{%<\_FldIdx 0>%N}
 90
        1
360
16F4
 97
        0
 91
       63
 92
        0
 94
       11
 95
        2
 96
        0
300

 93
        1
  6
ACFD_FIELDTEXT_CHECKSUM
 93
        2
 90
        2
140
4507.0
 94
        0
300

302

304
ACVALUE_END
  7
ACFD_FIELD_VALUE
 93
        6
 90
        4
  1
{20210408N}
 94
        0
300

302

304
ACVALUE_END
301
{20210408N}
 98
       11
  0
DICTIONARY
  5
39A3
330
279
100
AcDbDictionary
280
     1
281
     1
  3
ACAD_ROUNDTRIP_2008_TABLESTYLE_CELLSTYLEMAP
360
39A4
  0
FIELD
  5
16F4
330
16F3
100
AcDbField
  1
AcVar
  2
\AcVar Date \f "yyyyMMdd"
 90
        0
 97
        0
 91
       63
 92
        0
 94
        8
 95
       64
 96
        0
300
Variable not supported
 93
        1
  6
Variable
 93
        2
 90
        4
  1
Date
 94
        0
300

302

304
ACVALUE_END
  7
ACFD_FIELD_VALUE
 93
        6
 90
        8
 92
       16
310
E5070400000008000200370003000000
 94
        0
300
yyyyMMdd
302

304
ACVALUE_END
301
20210408
 98
        8
  0
CELLSTYLEMAP
  5
39A4
102
{ACAD_REACTORS
330
39A3
102
}
330
39A3
100
AcDbCellStyleMap
 90
        3
300
CELLSTYLE
  1
TABLEFORMAT_BEGIN
 90
        5
170
     1
 91
        0
 92
    32768
 62
   257
 93
        1
300
CONTENTFORMAT
  1
CONTENTFORMAT_BEGIN
 90
        0
 91
        0
 92
        4
 93
        0
300

 40
0.0
140
1.0
 94
        5
 62
     0
340
17
144
6.0
309
CONTENTFORMAT_END
171
     1
301
MARGIN
  1
CELLMARGIN_BEGIN
 40
0.06
 40
0.06
 40
0.06
 40
0.06
 40
0.18
 40
0.18
309
CELLMARGIN_END
 94
        6
 95
        1
302
GRIDFORMAT
  1
GRIDFORMAT_BEGIN
 90
        0
 91
        1
 62
     0
 92
       -2
340
0
 93
        0
 40
0.045
309
GRIDFORMAT_END
 95
        2
302
GRIDFORMAT
  1
GRIDFORMAT_BEGIN
 90
        0
 91
        1
 62
     0
 92
       -2
340
0
 93
        0
 40
0.045
309
GRIDFORMAT_END
 95
        4
302
GRIDFORMAT
  1
GRIDFORMAT_BEGIN
 90
        0
 91
        1
 62
     0
 92
       -2
340
0
 93
        0
 40
0.045
309
GRIDFORMAT_END
 95
        8
302
GRIDFORMAT
  1
GRIDFORMAT_BEGIN
 90
        0
 91
        1
 62
     0
 92
       -2
340
0
 93
        0
 40
0.045
309
GRIDFORMAT_END
 95
       16
302
GRIDFORMAT
  1
GRIDFORMAT_BEGIN
 90
        0
 91
        1
 62
     0
 92
       -2
340
0
 93
        0
 40
0.045
309
GRIDFORMAT_END
 95
       32
302
GRIDFORMAT
  1
GRIDFORMAT_BEGIN
 90
        0
 91
        1
 62
     0
 92
       -2
340
0
 93
        0
 40
0.045
309
GRIDFORMAT_END
309
TABLEFORMAT_END
  1
CELLSTYLE_BEGIN
 90
        1
 91
        1
300
_TITLE
309
CELLSTYLE_END
300
CELLSTYLE
  1
TABLEFORMAT_BEGIN
 90
        5
170
     1
 91
        0
 92
        0
 62
   257
 93
        1
300
CONTENTFORMAT
  1
CONTENTFORMAT_BEGIN
 90
        0
 91
        0
 92
        4
 93
        0
300

 40
0.0
140
1.0
 94
        5
 62
     0
340
17
144
4.5
309
CONTENTFORMAT_END
171
     1
301
MARGIN
  1
CELLMARGIN_BEGIN
 40
0.06
 40
0.06
 40
0.06
 40
0.06
 40
0.18
 40
0.18
309
CELLMARGIN_END
 94
        6
 95
        1
302
GRIDFORMAT
  1
GRIDFORMAT_BEGIN
 90
        0
 91
        1
 62
     0
 92
       -2
340
0
 93
        0
 40
0.045
309
GRIDFORMAT_END
 95
        2
302
GRIDFORMAT
  1
GRIDFORMAT_BEGIN
 90
        0
 91
        1
 62
     0
 92
       -2
340
0
 93
        0
 40
0.045
309
GRIDFORMAT_END
 95
        4
302
GRIDFORMAT
  1
GRIDFORMAT_BEGIN
 90
        0
 91
        1
 62
     0
 92
       -2
340
0
 93
        0
 40
0.045
309
GRIDFORMAT_END
 95
        8
302
GRIDFORMAT
  1
GRIDFORMAT_BEGIN
 90
        0
 91
        1
 62
     0
 92
       -2
340
0
 93
        0
 40
0.045
309
GRIDFORMAT_END
 95
       16
302
GRIDFORMAT
  1
GRIDFORMAT_BEGIN
 90
        0
 91
        1
 62
     0
 92
       -2
340
0
 93
        0
 40
0.045
309
GRIDFORMAT_END
 95
       32
302
GRIDFORMAT
  1
GRIDFORMAT_BEGIN
 90
        0
 91
        1
 62
     0
 92
       -2
340
0
 93
        0
 40
0.045
309
GRIDFORMAT_END
309
TABLEFORMAT_END
  1
CELLSTYLE_BEGIN
 90
        2
 91
        1
300
_HEADER
309
CELLSTYLE_END
300
CELLSTYLE
  1
TABLEFORMAT_BEGIN
 90
        5
170
     1
 91
        0
 92
        0
 62
   257
 93
        1
300
CONTENTFORMAT
  1
CONTENTFORMAT_BEGIN
 90
        0
 91
        0
 92
        4
 93
        0
300

 40
0.0
140
1.0
 94
        2
 62
     0
340
17
144
4.5
309
CONTENTFORMAT_END
171
     1
301
MARGIN
  1
CELLMARGIN_BEGIN
 40
0.06
 40
0.06
 40
0.06
 40
0.06
 40
0.18
 40
0.18
309
CELLMARGIN_END
 94
        6
 95
        1
302
GRIDFORMAT
  1
GRIDFORMAT_BEGIN
 90
        0
 91
        1
 62
     0
 92
       -2
340
0
 93
        0
 40
0.045
309
GRIDFORMAT_END
 95
        2
302
GRIDFORMAT
  1
GRIDFORMAT_BEGIN
 90
        0
 91
        1
 62
     0
 92
       -2
340
0
 93
        0
 40
0.045
309
GRIDFORMAT_END
 95
        4
302
GRIDFORMAT
  1
GRIDFORMAT_BEGIN
 90
        0
 91
        1
 62
     0
 92
       -2
340
0
 93
        0
 40
0.045
309
GRIDFORMAT_END
 95
        8
302
GRIDFORMAT
  1
GRIDFORMAT_BEGIN
 90
        0
 91
        1
 62
     0
 92
       -2
340
0
 93
        0
 40
0.045
309
GRIDFORMAT_END
 95
       16
302
GRIDFORMAT
  1
GRIDFORMAT_BEGIN
 90
        0
 91
        1
 62
     0
 92
       -2
340
0
 93
        0
 40
0.045
309
GRIDFORMAT_END
 95
       32
302
GRIDFORMAT
  1
GRIDFORMAT_BEGIN
 90
        0
 91
        1
 62
     0
 92
       -2
340
0
 93
        0
 40
0.045
309
GRIDFORMAT_END
309
TABLEFORMAT_END
  1
CELLSTYLE_BEGIN
 90
        3
 91
        2
300
_DATA
309
CELLSTYLE_END
  0
ENDSEC
  0
EOF
