  0
SECTION
  2
HEADER
  9
$ACADVER
  1
AC1021
  9
$ACADMAINTVER
 70
    25
  9
$DWGCODEPAGE
  3
ANSI_932
  9
$LASTSAVEDBY
  1
T-HOWE-PC
  9
$INSBASE
 10
0.0
 20
0.0
 30
0.0
  9
$EXTMIN
 10
0.0
 20
0.0
 30
-0.0000000000000071
  9
$EXTMAX
 10
1050.0
 20
1485.0
 30
0.0000000000000071
  9
$LIMMIN
 10
0.0
 20
0.0
  9
$LIMMAX
 10
1050.0
 20
1485.0
  9
$ORTHOMODE
 70
     1
  9
$REGENMODE
 70
     1
  9
$FILLMODE
 70
     1
  9
$QTEXTMODE
 70
     0
  9
$MIRRTEXT
 70
     1
  9
$LTSCALE
 40
2.5
  9
$ATTMODE
 70
     1
  9
$TEXTSIZE
 40
2.5
  9
$TRACEWID
 40
1.0
  9
$TEXTSTYLE
  7
ＭＳ ゴシック
  9
$CLAYER
  8
DIM
  9
$CELTYPE
  6
ByLayer
  9
$CECOLOR
 62
   256
  9
$CELTSCALE
 40
1.0
  9
$DISPSILH
 70
     0
  9
$DIMSCALE
 40
1.0
  9
$DIMASZ
 40
3.0
  9
$DIMEXO
 40
10.0
  9
$DIMDLI
 40
0.9999999999999999
  9
$DIMRND
 40
0.0
  9
$DIMDLE
 40
0.0
  9
$DIMEXE
 40
0.0
  9
$DIMTP
 40
0.0
  9
$DIMTM
 40
0.0
  9
$DIMTXT
 40
12.0
  9
$DIMCEN
 40
0.0
  9
$DIMTSZ
 40
0.0
  9
$DIMTOL
 70
     0
  9
$DIMLIM
 70
     0
  9
$DIMTIH
 70
     0
  9
$DIMTOH
 70
     0
  9
$DIMSE1
 70
     0
  9
$DIMSE2
 70
     0
  9
$DIMTAD
 70
     1
  9
$DIMZIN
 70
    11
  9
$DIMBLK
  1
DOT
  9
$DIMASO
 70
     1
  9
$DIMSHO
 70
     1
  9
$DIMPOST
  1
<>
  9
$DIMAPOST
  1
[]
  9
$DIMALT
 70
     0
  9
$DIMALTD
 70
     1
  9
$DIMALTF
 40
1.0
  9
$DIMLFAC
 40
1.0
  9
$DIMTOFL
 70
     0
  9
$DIMTVP
 40
0.0
  9
$DIMTIX
 70
     1
  9
$DIMSOXD
 70
     0
  9
$DIMSAH
 70
     0
  9
$DIMBLK1
  1

  9
$DIMBLK2
  1

  9
$DIMSTYLE
  2
tfrom線あり
  9
$DIMCLRD
 70
     0
  9
$DIMCLRE
 70
     0
  9
$DIMCLRT
 70
     0
  9
$DIMTFAC
 40
1.0
  9
$DIMGAP
 40
10.0
  9
$DIMJUST
 70
     0
  9
$DIMSD1
 70
     0
  9
$DIMSD2
 70
     0
  9
$DIMTOLJ
 70
     1
  9
$DIMTZIN
 70
    11
  9
$DIMALTZ
 70
    11
  9
$DIMALTTZ
 70
    11
  9
$DIMUPT
 70
     0
  9
$DIMDEC
 70
     0
  9
$DIMTDEC
 70
     1
  9
$DIMALTU
 70
     2
  9
$DIMALTTD
 70
     2
  9
$DIMTXSTY
  7
ＭＳ ゴシック
  9
$DIMAUNIT
 70
     0
  9
$DIMADEC
 70
     2
  9
$DIMALTRND
 40
0.0
  9
$DIMAZIN
 70
     0
  9
$DIMDSEP
 70
    46
  9
$DIMATFIT
 70
     0
  9
$DIMFRAC
 70
     2
  9
$DIMLDRBLK
  1
DOT
  9
$DIMLUNIT
 70
     2
  9
$DIMLWD
 70
    -2
  9
$DIMLWE
 70
    -2
  9
$DIMTMOVE
 70
     0
  9
$DIMFXL
 40
1.0
  9
$DIMFXLON
 70
     0
  9
$DIMJOGANG
 40
0.7853981633974483
  9
$DIMTFILL
 70
     0
  9
$DIMTFILLCLR
 70
     0
  9
$DIMARCSYM
 70
     0
  9
$DIMLTYPE
  6

  9
$DIMLTEX1
  6

  9
$DIMLTEX2
  6

  9
$LUNITS
 70
     2
  9
$LUPREC
 70
     0
  9
$SKETCHINC
 40
0.1
  9
$FILLETRAD
 40
0.0
  9
$AUNITS
 70
     0
  9
$AUPREC
 70
     0
  9
$MENU
  1
acad
  9
$ELEVATION
 40
0.0
  9
$PELEVATION
 40
0.0
  9
$THICKNESS
 40
0.0
  9
$LIMCHECK
 70
     0
  9
$CHAMFERA
 40
0.0
  9
$CHAMFERB
 40
0.0
  9
$CHAMFERC
 40
0.0
  9
$CHAMFERD
 40
0.0
  9
$SKPOLY
 70
     0
  9
$TDCREATE
 40
2447893.375
  9
$TDUCREATE
 40
0.0
  9
$TDUPDATE
 40
2459663.466010718
  9
$TDUUPDATE
 40
2459663.091010718
  9
$TDINDWG
 40
0.1479576968
  9
$TDUSRTIMER
 40
0.0000852315
  9
$USRTIMER
 70
     1
  9
$ANGBASE
 50
0.0
  9
$ANGDIR
 70
     0
  9
$PDMODE
 70
     1
  9
$PDSIZE
 40
-2.0
  9
$PLINEWID
 40
0.0
  9
$SPLFRAME
 70
     0
  9
$SPLINETYPE
 70
     6
  9
$SPLINESEGS
 70
     8
  9
$HANDSEED
  5
3AB5
  9
$SURFTAB1
 70
     6
  9
$SURFTAB2
 70
     6
  9
$SURFTYPE
 70
     6
  9
$SURFU
 70
     6
  9
$SURFV
 70
     6
  9
$UCSBASE
  2

  9
$UCSNAME
  2

  9
$UCSORG
 10
0.0
 20
0.0
 30
0.0
  9
$UCSXDIR
 10
1.0
 20
0.0
 30
0.0
  9
$UCSYDIR
 10
0.0
 20
1.0
 30
0.0
  9
$UCSORTHOREF
  2

  9
$UCSORTHOVIEW
 70
     0
  9
$UCSORGTOP
 10
0.0
 20
0.0
 30
0.0
  9
$UCSORGBOTTOM
 10
0.0
 20
0.0
 30
0.0
  9
$UCSORGLEFT
 10
0.0
 20
0.0
 30
0.0
  9
$UCSORGRIGHT
 10
0.0
 20
0.0
 30
0.0
  9
$UCSORGFRONT
 10
0.0
 20
0.0
 30
0.0
  9
$UCSORGBACK
 10
0.0
 20
0.0
 30
0.0
  9
$PUCSBASE
  2

  9
$PUCSNAME
  2

  9
$PUCSORG
 10
0.0
 20
0.0
 30
0.0
  9
$PUCSXDIR
 10
1.0
 20
0.0
 30
0.0
  9
$PUCSYDIR
 10
0.0
 20
1.0
 30
0.0
  9
$PUCSORTHOREF
  2

  9
$PUCSORTHOVIEW
 70
     0
  9
$PUCSORGTOP
 10
0.0
 20
0.0
 30
0.0
  9
$PUCSORGBOTTOM
 10
0.0
 20
0.0
 30
0.0
  9
$PUCSORGLEFT
 10
0.0
 20
0.0
 30
0.0
  9
$PUCSORGRIGHT
 10
0.0
 20
0.0
 30
0.0
  9
$PUCSORGFRONT
 10
0.0
 20
0.0
 30
0.0
  9
$PUCSORGBACK
 10
0.0
 20
0.0
 30
0.0
  9
$USERI1
 70
     0
  9
$USERI2
 70
     0
  9
$USERI3
 70
     0
  9
$USERI4
 70
     0
  9
$USERI5
 70
     0
  9
$USERR1
 40
0.0
  9
$USERR2
 40
0.0
  9
$USERR3
 40
0.0
  9
$USERR4
 40
0.0
  9
$USERR5
 40
0.0
  9
$WORLDVIEW
 70
     1
  9
$SHADEDGE
 70
     3
  9
$SHADEDIF
 70
    70
  9
$TILEMODE
 70
     1
  9
$MAXACTVP
 70
    64
  9
$PINSBASE
 10
0.0
 20
0.0
 30
0.0
  9
$PLIMCHECK
 70
     0
  9
$PEXTMIN
 10
0.0
 20
0.0
 30
0.0
  9
$PEXTMAX
 10
0.0
 20
0.0
 30
0.0
  9
$PLIMMIN
 10
-7.5
 20
-20.0
  9
$PLIMMAX
 10
412.5
 20
277.0
  9
$UNITMODE
 70
     0
  9
$VISRETAIN
 70
     0
  9
$PLINEGEN
 70
     1
  9
$PSLTSCALE
 70
     0
  9
$TREEDEPTH
 70
  3020
  9
$CMLSTYLE
  2
Standard
  9
$CMLJUST
 70
     0
  9
$CMLSCALE
 40
1.0
  9
$PROXYGRAPHICS
 70
     0
  9
$MEASUREMENT
 70
     1
  9
$CELWEIGHT
370
    -1
  9
$ENDCAPS
280
     0
  9
$JOINSTYLE
280
     0
  9
$LWDISPLAY
290
     1
  9
$INSUNITS
 70
     4
  9
$HYPERLINKBASE
  1

  9
$STYLESHEET
  1

  9
$XEDIT
290
     1
  9
$CEPSNTYPE
380
     0
  9
$PSTYLEMODE
290
     1
  9
$FINGERPRINTGUID
  2

  9
$VERSIONGUID
  2

  9
$EXTNAMES
290
     1
  9
$PSVPSCALE
 40
0.0
  9
$OLESTARTUP
290
     0
  9
$SORTENTS
280
   127
  9
$INDEXCTL
280
     0
  9
$HIDETEXT
280
     1
  9
$XCLIPFRAME
290
     0
  9
$HALOGAP
280
     0
  9
$OBSCOLOR
 70
   257
  9
$OBSLTYPE
280
     0
  9
$INTERSECTIONDISPLAY
280
     0
  9
$INTERSECTIONCOLOR
 70
   257
  9
$DIMASSOC
280
     2
  9
$PROJECTNAME
  1

  9
$CAMERADISPLAY
290
     0
  9
$LENSLENGTH
 40
50.0
  9
$CAMERAHEIGHT
 40
0.0
  9
$STEPSPERSEC
 40
2.0
  9
$STEPSIZE
 40
6.0
  9
$3DDWFPREC
 40
2.0
  9
$PSOLWIDTH
 40
0.25
  9
$PSOLHEIGHT
 40
4.0
  9
$LOFTANG1
 40
1.570796326794897
  9
$LOFTANG2
 40
1.570796326794897
  9
$LOFTMAG1
 40
0.0
  9
$LOFTMAG2
 40
0.0
  9
$LOFTPARAM
 70
     7
  9
$LOFTNORMALS
280
     1
  9
$LATITUDE
 40
37.795
  9
$LONGITUDE
 40
-122.394
  9
$NORTHDIRECTION
 40
0.0
  9
$TIMEZONE
 70
 -8000
  9
$LIGHTGLYPHDISPLAY
280
     1
  9
$TILEMODELIGHTSYNCH
280
     1
  9
$SOLIDHIST
280
     1
  9
$SHOWHIST
280
     1
  9
$DWFFRAME
280
     2
  9
$DGNFRAME
280
     2
  9
$REALWORLDSCALE
290
     1
  9
$INTERFERECOLOR
 62
   256
  9
$CSHADOW
280
     0
  9
$SHADOWPLANELOCATION
 40
0.0
  0
ENDSEC
  0
SECTION
  2
CLASSES
  0
CLASS
  1
LWPOLYLINE
  2
AcDbPolyline
  3
ObjectDBX Classes
 90
        0
 91
        1
280
     0
281
     1
  0
CLASS
  1
IMAGE
  2
AcDbRasterImage
  3
ISM
 90
      127
 91
        4
280
     0
281
     1
  0
CLASS
  1
OLE2FRAME
  2
AcDbOle2Frame
  3
ObjectDBX Classes
 90
        0
 91
        1
280
     0
281
     1
  0
CLASS
  1
HATCH
  2
AcDbHatch
  3
ObjectDBX Classes
 90
        0
 91
        1
280
     0
281
     1
  0
CLASS
  1
DICTIONARYVAR
  2
AcDbDictionaryVar
  3
ObjectDBX Classes
 90
        0
 91
        3
280
     0
281
     0
  0
CLASS
  1
RASTERVARIABLES
  2
AcDbRasterVariables
  3
ISM
 90
        0
 91
        3
280
     0
281
     0
  0
CLASS
  1
IMAGEDEF
  2
AcDbRasterImageDef
  3
ISM
 90
        0
 91
        3
280
     0
281
     0
  0
CLASS
  1
IMAGEDEF_REACTOR
  2
AcDbRasterImageDefReactor
  3
ISM
 90
        1
 91
        3
280
     0
281
     0
  0
CLASS
  1
IDBUFFER
  2
AcDbIdBuffer
  3
ObjectDBX Classes
 90
        0
 91
        3
280
     0
281
     0
  0
CLASS
  1
SPATIAL_FILTER
  2
AcDbSpatialFilter
  3
ObjectDBX Classes
 90
        0
 91
        3
280
     0
281
     0
  0
CLASS
  1
XRECORD
  2
AcDbXrecord
  3
ObjectDBX Classes
 90
        0
 91
        1
280
     0
281
     0
  0
CLASS
  1
SORTENTSTABLE
  2
AcDbSortentsTable
  3
ObjectDBX Classes
 90
        0
 91
        3
280
     0
281
     0
  0
CLASS
  1
LAYER_INDEX
  2
AcDbLayerIndex
  3
ObjectDBX Classes
 90
        0
 91
        3
280
     0
281
     0
  0
CLASS
  1
SPATIAL_INDEX
  2
AcDbSpatialIndex
  3
AutoCAD 2000
 90
        0
 91
        3
280
     0
281
     0
  0
CLASS
  1
OBJECT_PTR
  2
CAseDLPNTableRecord
  3
ASE-LPNTableRecord
 90
        1
 91
        3
280
     0
281
     0
  0
CLASS
  1
LAYOUT
  2
AcDbLayout
  3
ObjectDBX Classes
 90
        0
 91
        1
280
     0
281
     0
  0
CLASS
  1
PLOTSETTINGS
  2
AcDbPlotSettings
  3
ObjectDBX Classes
 90
        0
 91
        3
280
     0
281
     0
  0
CLASS
  1
ACDBDICTIONARYWDFLT
  2
AcDbDictionaryWithDefault
  3
ObjectDBX Classes
 90
        0
 91
        3
280
     0
281
     0
  0
CLASS
  1
ACDBPLACEHOLDER
  2
AcDbPlaceHolder
  3
ObjectDBX Classes
 90
        0
 91
        1
280
     0
281
     0
  0
CLASS
  1
SCALE
  2
AcDbScale
  3
ObjectDBX Classes
 90
     1153
 91
        3
280
     0
281
     0
  0
CLASS
  1
MATERIAL
  2
AcDbMaterial
  3
ObjectDBX Classes
 90
     1153
 91
        3
280
     0
281
     0
  0
CLASS
  1
VISUALSTYLE
  2
AcDbVisualStyle
  3
ObjectDBX Classes
 90
     4095
 91
        3
280
     0
281
     0
  0
CLASS
  1
TABLESTYLE
  2
AcDbTableStyle
  3
ObjectDBX Classes
 90
     4095
 91
        3
280
     0
281
     0
  0
CLASS
  1
DIMASSOC
  2
AcDbDimAssoc
  3
"AcDbDimAssoc|Product Desc:     AcDim ARX App For Dimension|Company:          Autodesk, Inc.|WEB Address:      www.autodesk.com"
 90
        0
 91
        3
280
     0
281
     0
  0
CLASS
  1
CELLSTYLEMAP
  2
AcDbCellStyleMap
  3
ObjectDBX Classes
 90
     1152
 91
        3
280
     0
281
     0
  0
CLASS
  1
SUN
  2
AcDbSun
  3
SCENEOE
 90
     1153
 91
        3
280
     0
281
     0
  0
CLASS
  1
MLEADERSTYLE
  2
AcDbMLeaderStyle
  3
ACDB_MLEADERSTYLE_CLASS
 90
     4095
 91
        3
280
     0
281
     0
  0
CLASS
  1
FIELD
  2
AcDbField
  3
ObjectDBX Classes
 90
     1152
 91
        3
280
     0
281
     0
  0
CLASS
  1
FIELDLIST
  2
AcDbFieldList
  3
ObjectDBX Classes
 90
     1152
 91
        3
280
     0
281
     0
  0
ENDSEC
  0
SECTION
  2
TABLES
  0
TABLE
  2
VPORT
  5
7
330
0
100
AcDbSymbolTable
 70
     1
  0
VPORT
  5
15
330
7
100
AcDbSymbolTableRecord
100
AcDbViewportTableRecord
  2
*ACTIVE
 70
     0
 10
0.0
 20
0.0
 11
1.0
 21
1.0
 12
616.0201356709001
 22
668.901285469834
 13
0.0
 23
0.0
 14
1.0
 24
1.0
 15
0.0
 25
0.0
 16
0.0
 26
0.0
 36
1.0
 17
-91.02013567090012
 27
73.59871453016603
 37
-46.86809886248109
 40
1514.7
 41
2.246088193456615
 42
50.0
 43
0.0
 44
0.0
 50
0.0
 51
0.0
 71
    16
 72
  2000
 73
     1
 74
     1
 75
     0
 76
     0
 77
     0
 78
     0
281
     0
 65
     1
110
0.0
120
0.0
130
0.0
111
1.0
121
0.0
131
0.0
112
0.0
122
1.0
132
0.0
 79
     0
146
0.0
348
26C
 60
     3
 61
     5
292
     1
282
     1
141
0.0
142
0.0
 63
   256
361
904
  0
ENDTAB
  0
TABLE
  2
LTYPE
  5
4
330
0
100
AcDbSymbolTable
 70
     4
  0
LTYPE
  5
11
330
4
100
AcDbSymbolTableRecord
100
AcDbLinetypeTableRecord
  2
ByBlock
 70
     0
  3

 72
    65
 73
     0
 40
0.0
  0
LTYPE
  5
12
330
4
100
AcDbSymbolTableRecord
100
AcDbLinetypeTableRecord
  2
ByLayer
 70
     0
  3

 72
    65
 73
     0
 40
0.0
  0
LTYPE
  5
13
330
4
100
AcDbSymbolTableRecord
100
AcDbLinetypeTableRecord
  2
Continuous
 70
     0
  3
Solid line
 72
    65
 73
     0
 40
0.0
  0
LTYPE
  5
D6C
330
4
100
AcDbSymbolTableRecord
100
AcDbLinetypeTableRecord
  2
BORDER
 70
     0
  3
Border __  __  . __  __  . __  __  . __  __  . 
 72
    65
 73
     6
 40
44.45
 49
12.7
 74
     0
 49
-6.35
 74
     0
 49
12.7
 74
     0
 49
-6.35
 74
     0
 49
0.0
 74
     0
 49
-6.35
 74
     0
  0
LTYPE
  5
D6D
330
4
100
AcDbSymbolTableRecord
100
AcDbLinetypeTableRecord
  2
HIDDEN
 70
     0
  3
Hidden _ _ _ _ _ _ _ _ _ _ _ _ _ _ _ _ _ _ _ _ 
 72
    65
 73
     2
 40
9.524999999999999
 49
6.35
 74
     0
 49
-3.175
 74
     0
  0
LTYPE
  5
3306
330
4
100
AcDbSymbolTableRecord
100
AcDbLinetypeTableRecord
  2
CENTER
 70
     0
  3
 Center _____  _  _____  _  _____  _  _____  _ 
 72
    65
 73
     4
 40
50.8
 49
31.75
 74
     0
 49
-6.35
 74
     0
 49
6.35
 74
     0
 49
-6.35
 74
     0
  0
ENDTAB
  0
TABLE
  2
LAYER
  5
2
102
{ACAD_XDICTIONARY
360
2E1
102
}
330
0
100
AcDbSymbolTable
 70
    12
  0
LAYER
  5
14
330
2
100
AcDbSymbolTableRecord
100
AcDbLayerTableRecord
  2
0
 70
     0
 62
     7
  6
Continuous
370
    -3
390
1D
347
266
  0
LAYER
  5
4B
330
2
100
AcDbSymbolTableRecord
100
AcDbLayerTableRecord
  2
TEMPLATE
 70
     0
 62
     7
  6
Continuous
370
    20
390
1D
347
266
  0
LAYER
  5
4C
330
2
100
AcDbSymbolTableRecord
100
AcDbLayerTableRecord
  2
DIM
 70
     0
 62
     3
  6
Continuous
370
    13
390
1D
347
266
  0
LAYER
  5
4D
330
2
100
AcDbSymbolTableRecord
100
AcDbLayerTableRecord
  2
MODEL
 70
     0
 62
     7
  6
Continuous
370
    20
390
1D
347
266
  0
LAYER
  5
88C
330
2
100
AcDbSymbolTableRecord
100
AcDbLayerTableRecord
  2
HIDDEN
 70
     0
 62
     8
  6
HIDDEN
370
    20
390
1D
347
266
1001
AcAecLayerStandard
1000

1000

  0
LAYER
  5
D6B
330
2
100
AcDbSymbolTableRecord
100
AcDbLayerTableRecord
  2
BORDER
 70
     0
 62
     4
  6
BORDER
290
     0
370
    20
390
1D
347
266
1001
AcAecLayerStandard
1000

1000

  0
LAYER
  5
D8C
330
2
100
AcDbSymbolTableRecord
100
AcDbLayerTableRecord
  2
Defpoints
 70
     0
 62
     7
  6
Continuous
290
     0
370
    -3
390
1D
347
266
  0
LAYER
  5
1793
330
2
100
AcDbSymbolTableRecord
100
AcDbLayerTableRecord
  2
Standard
 70
     0
 62
     7
  6
Continuous
370
    -3
390
1D
347
266
  0
LAYER
  5
3303
330
2
100
AcDbSymbolTableRecord
100
AcDbLayerTableRecord
  2
_0-0_FRF74-0901
 70
     0
 62
     7
  6
Continuous
370
    -3
390
1D
347
266
  0
LAYER
  5
3304
330
2
100
AcDbSymbolTableRecord
100
AcDbLayerTableRecord
  2
_0-1_
 70
     0
 62
     7
  6
Continuous
370
    -3
390
1D
347
266
  0
LAYER
  5
3305
330
2
100
AcDbSymbolTableRecord
100
AcDbLayerTableRecord
  2
_0-2_
 70
     0
 62
     7
  6
Continuous
370
    -3
390
1D
347
266
  0
LAYER
  5
37EB
330
2
100
AcDbSymbolTableRecord
100
AcDbLayerTableRecord
  2
Livello 1
 70
     0
 62
     7
  6
Continuous
370
    -3
390
1D
347
266
  0
ENDTAB
  0
TABLE
  2
STYLE
  5
3
330
0
100
AcDbSymbolTable
 70
     2
  0
STYLE
  5
17
330
3
100
AcDbSymbolTableRecord
100
AcDbTextStyleTableRecord
  2
Standard
 70
     0
 40
0.0
 41
1.0
 50
0.0
 71
     0
 42
2.5
  3
txt
  4
BIGFONT.SHX
  0
STYLE
  5
39
330
3
100
AcDbSymbolTableRecord
100
AcDbTextStyleTableRecord
  2
ＭＳ ゴシック
 70
     0
 40
0.0
 41
1.0
 50
0.0
 71
     0
 42
2.5
  3
msgothic.ttc
  4
ＭＳ ゴシック
1001
ACAD
1000
ＭＳ ゴシック
1071
        0
  0
ENDTAB
  0
TABLE
  2
VIEW
  5
5
330
0
100
AcDbSymbolTable
 70
     0
  0
ENDTAB
  0
TABLE
  2
UCS
  5
6
330
0
100
AcDbSymbolTable
 70
     0
  0
ENDTAB
  0
TABLE
  2
APPID
  5
8
330
0
100
AcDbSymbolTable
 70
     4
  0
APPID
  5
16
330
8
100
AcDbSymbolTableRecord
100
AcDbRegAppTableRecord
  2
ACAD
 70
     0
  0
APPID
  5
7AC
330
8
100
AcDbSymbolTableRecord
100
AcDbRegAppTableRecord
  2
AcAecLayerStandard
 70
     0
  0
APPID
  5
E29
330
8
100
AcDbSymbolTableRecord
100
AcDbRegAppTableRecord
  2
ACAD_MLEADERVER
 70
     0
  0
APPID
  5
3A9A
330
8
100
AcDbSymbolTableRecord
100
AcDbRegAppTableRecord
  2
PLOTTRANSPARENCY
 70
     0
  0
ENDTAB
  0
TABLE
  2
DIMSTYLE
  5
9
330
0
100
AcDbSymbolTable
 70
     3
100
AcDbDimStyleTable
  0
DIMSTYLE
105
18
330
9
100
AcDbSymbolTableRecord
100
AcDbDimStyleTableRecord
  2
Standard
 70
     0
178
     0
340
17
  0
DIMSTYLE
105
57
102
{ACAD_REACTORS
330
39A1
330
39B0
330
39D5
330
3A6B
102
}
330
9
100
AcDbSymbolTableRecord
100
AcDbDimStyleTableRecord
  2
tfrom線あり
 70
     0
  3
<>
  4
[]
 41
3.0
 42
10.0
 43
0.9999999999999999
 44
0.0
 73
     0
 74
     0
 77
     1
 78
    11
140
12.0
141
0.0
143
1.0
147
10.0
171
     1
174
     1
178
     0
179
     2
271
     0
272
     1
276
     2
284
    11
285
    11
286
    11
289
     0
340
39
341
4E
342
4E
  0
DIMSTYLE
105
313D
330
9
100
AcDbSymbolTableRecord
100
AcDbDimStyleTableRecord
  2
tform線あり
 70
     0
  3
<>
  4
[]
 41
9.999389648437498
 42
25.0
 43
0.9999999999999999
 44
0.0
 73
     0
 74
     0
 77
     1
 78
    11
140
24.4326171875
141
0.0
143
1.0
146
0.8
147
10.0
171
     1
172
     1
174
     1
178
     0
179
     2
271
     1
272
     1
276
     2
284
    11
285
    11
286
    11
289
     0
340
39
341
4E
342
4E
  0
ENDTAB
  0
TABLE
  2
BLOCK_RECORD
  5
1
330
0
100
AcDbSymbolTable
 70
    58
  0
BLOCK_RECORD
  5
A
102
{ACAD_XDICTIONARY
360
24B4
102
}
330
1
100
AcDbSymbolTableRecord
100
AcDbBlockTableRecord
  2
*MODEL_SPACE
340
20
 70
     0
280
     1
281
     0
  0
BLOCK_RECORD
  5
B
330
1
100
AcDbSymbolTableRecord
100
AcDbBlockTableRecord
  2
*PAPER_SPACE
340
21
 70
     0
280
     1
281
     0
  0
BLOCK_RECORD
  5
4E
330
1
100
AcDbSymbolTableRecord
100
AcDbBlockTableRecord
  2
_DOT
340
0
102
{BLKREFS
331
251F
331
2520
331
252B
331
252C
331
30DC
331
30DD
331
310A
331
310B
331
3118
331
3119
331
312B
331
312C
331
3162
331
3163
331
3174
331
3175
331
318A
331
318B
331
319C
331
319D
331
31AB
331
31AC
331
31B8
331
31B9
331
31C7
331
31C8
331
31DE
331
31DF
331
31ED
331
31EE
331
31FA
331
31FB
331
3207
331
3208
331
321A
331
321B
331
3229
331
322A
331
3239
331
323A
331
3250
331
3251
331
3262
331
3263
331
327A
331
327B
331
328B
331
328C
331
329A
331
329B
331
337F
331
3380
331
338E
331
338F
331
339D
331
339E
331
33AC
331
33AD
331
33BD
331
33BE
331
33CA
331
33CB
331
33DA
331
33DB
331
33E8
331
33E9
331
36DE
331
36DF
331
36EA
331
36EB
331
36F6
331
36F7
331
3702
331
3703
331
370E
331
370F
331
371A
331
371B
331
3727
331
3728
331
3735
331
3736
331
3747
331
3748
331
3756
331
3757
331
376D
331
376E
331
3786
331
3787
331
379E
331
379F
331
37B9
331
37BA
331
37D2
331
37D3
331
3978
331
3979
331
3987
331
3988
331
39AA
331
39AB
331
39B9
331
39BA
331
39CA
331
39CB
331
39DC
331
39DD
331
3A75
331
3A76
331
3A85
331
3A86
102
}
 70
     0
280
     1
281
     0
  0
BLOCK_RECORD
  5
68D
330
1
100
AcDbSymbolTableRecord
100
AcDbBlockTableRecord
  2
block 2
340
0
102
{BLKREFS
331
68C
331
1343
331
353F
102
}
 70
     0
280
     1
281
     0
  0
BLOCK_RECORD
  5
2519
330
1
100
AcDbSymbolTableRecord
100
AcDbBlockTableRecord
  2
*D2
340
0
 70
     0
280
     1
281
     0
  0
BLOCK_RECORD
  5
2525
330
1
100
AcDbSymbolTableRecord
100
AcDbBlockTableRecord
  2
*D3
340
0
 70
     0
280
     1
281
     0
  0
BLOCK_RECORD
  5
30D6
330
1
100
AcDbSymbolTableRecord
100
AcDbBlockTableRecord
  2
*D4
340
0
 70
     0
280
     1
281
     0
  0
BLOCK_RECORD
  5
3103
330
1
100
AcDbSymbolTableRecord
100
AcDbBlockTableRecord
  2
*D5
340
0
 70
     0
280
     1
281
     0
  0
BLOCK_RECORD
  5
3112
330
1
100
AcDbSymbolTableRecord
100
AcDbBlockTableRecord
  2
*D6
340
0
 70
     0
280
     1
281
     0
  0
BLOCK_RECORD
  5
3125
330
1
100
AcDbSymbolTableRecord
100
AcDbBlockTableRecord
  2
*D7
340
0
 70
     0
280
     1
281
     0
  0
BLOCK_RECORD
  5
315D
330
1
100
AcDbSymbolTableRecord
100
AcDbBlockTableRecord
  2
*D8
340
0
 70
     0
280
     1
281
     0
  0
BLOCK_RECORD
  5
316C
330
1
100
AcDbSymbolTableRecord
100
AcDbBlockTableRecord
  2
*D9
340
0
 70
     0
280
     1
281
     0
  0
BLOCK_RECORD
  5
3185
330
1
100
AcDbSymbolTableRecord
100
AcDbBlockTableRecord
  2
*D10
340
0
 70
     0
280
     1
281
     0
  0
BLOCK_RECORD
  5
3194
330
1
100
AcDbSymbolTableRecord
100
AcDbBlockTableRecord
  2
*D11
340
0
 70
     0
280
     1
281
     0
  0
BLOCK_RECORD
  5
31A6
330
1
100
AcDbSymbolTableRecord
100
AcDbBlockTableRecord
  2
*D12
340
0
 70
     0
280
     1
281
     0
  0
BLOCK_RECORD
  5
31B3
330
1
100
AcDbSymbolTableRecord
100
AcDbBlockTableRecord
  2
*D13
340
0
 70
     0
280
     1
281
     0
  0
BLOCK_RECORD
  5
31C2
330
1
100
AcDbSymbolTableRecord
100
AcDbBlockTableRecord
  2
*D14
340
0
 70
     0
280
     1
281
     0
  0
BLOCK_RECORD
  5
31D9
330
1
100
AcDbSymbolTableRecord
100
AcDbBlockTableRecord
  2
*D15
340
0
 70
     0
280
     1
281
     0
  0
BLOCK_RECORD
  5
31E8
330
1
100
AcDbSymbolTableRecord
100
AcDbBlockTableRecord
  2
*D16
340
0
 70
     0
280
     1
281
     0
  0
BLOCK_RECORD
  5
31F5
330
1
100
AcDbSymbolTableRecord
100
AcDbBlockTableRecord
  2
*D17
340
0
 70
     0
280
     1
281
     0
  0
BLOCK_RECORD
  5
3202
330
1
100
AcDbSymbolTableRecord
100
AcDbBlockTableRecord
  2
*D18
340
0
 70
     0
280
     1
281
     0
  0
BLOCK_RECORD
  5
3212
330
1
100
AcDbSymbolTableRecord
100
AcDbBlockTableRecord
  2
*D19
340
0
 70
     0
280
     1
281
     0
  0
BLOCK_RECORD
  5
3224
330
1
100
AcDbSymbolTableRecord
100
AcDbBlockTableRecord
  2
*D20
340
0
 70
     0
280
     1
281
     0
  0
BLOCK_RECORD
  5
3233
330
1
100
AcDbSymbolTableRecord
100
AcDbBlockTableRecord
  2
*D21
340
0
 70
     0
280
     1
281
     0
  0
BLOCK_RECORD
  5
324B
330
1
100
AcDbSymbolTableRecord
100
AcDbBlockTableRecord
  2
*D22
340
0
 70
     0
280
     1
281
     0
  0
BLOCK_RECORD
  5
325A
330
1
100
AcDbSymbolTableRecord
100
AcDbBlockTableRecord
  2
*D23
340
0
 70
     0
280
     1
281
     0
  0
BLOCK_RECORD
  5
3275
330
1
100
AcDbSymbolTableRecord
100
AcDbBlockTableRecord
  2
*D24
340
0
 70
     0
280
     1
281
     0
  0
BLOCK_RECORD
  5
3286
330
1
100
AcDbSymbolTableRecord
100
AcDbBlockTableRecord
  2
*D25
340
0
 70
     0
280
     1
281
     0
  0
BLOCK_RECORD
  5
3295
330
1
100
AcDbSymbolTableRecord
100
AcDbBlockTableRecord
  2
*D26
340
0
 70
     0
280
     1
281
     0
  0
BLOCK_RECORD
  5
337A
330
1
100
AcDbSymbolTableRecord
100
AcDbBlockTableRecord
  2
*D27
340
0
 70
     0
280
     1
281
     0
  0
BLOCK_RECORD
  5
3389
330
1
100
AcDbSymbolTableRecord
100
AcDbBlockTableRecord
  2
*D28
340
0
 70
     0
280
     1
281
     0
  0
BLOCK_RECORD
  5
3398
330
1
100
AcDbSymbolTableRecord
100
AcDbBlockTableRecord
  2
*D29
340
0
 70
     0
280
     1
281
     0
  0
BLOCK_RECORD
  5
33A7
330
1
100
AcDbSymbolTableRecord
100
AcDbBlockTableRecord
  2
*D30
340
0
 70
     0
280
     1
281
     0
  0
BLOCK_RECORD
  5
33B8
330
1
100
AcDbSymbolTableRecord
100
AcDbBlockTableRecord
  2
*D31
340
0
 70
     0
280
     1
281
     0
  0
BLOCK_RECORD
  5
33C5
330
1
100
AcDbSymbolTableRecord
100
AcDbBlockTableRecord
  2
*D32
340
0
 70
     0
280
     1
281
     0
  0
BLOCK_RECORD
  5
33D4
330
1
100
AcDbSymbolTableRecord
100
AcDbBlockTableRecord
  2
*D33
340
0
 70
     0
280
     1
281
     0
  0
BLOCK_RECORD
  5
33E1
330
1
100
AcDbSymbolTableRecord
100
AcDbBlockTableRecord
  2
*D34
340
0
 70
     0
280
     1
281
     0
  0
BLOCK_RECORD
  5
36D8
330
1
100
AcDbSymbolTableRecord
100
AcDbBlockTableRecord
  2
*D35
340
0
 70
     0
280
     1
281
     0
  0
BLOCK_RECORD
  5
36E4
330
1
100
AcDbSymbolTableRecord
100
AcDbBlockTableRecord
  2
*D36
340
0
 70
     0
280
     1
281
     0
  0
BLOCK_RECORD
  5
36F0
330
1
100
AcDbSymbolTableRecord
100
AcDbBlockTableRecord
  2
*D37
340
0
 70
     0
280
     1
281
     0
  0
BLOCK_RECORD
  5
36FC
330
1
100
AcDbSymbolTableRecord
100
AcDbBlockTableRecord
  2
*D38
340
0
 70
     0
280
     1
281
     0
  0
BLOCK_RECORD
  5
3708
330
1
100
AcDbSymbolTableRecord
100
AcDbBlockTableRecord
  2
*D39
340
0
 70
     0
280
     1
281
     0
  0
BLOCK_RECORD
  5
3714
330
1
100
AcDbSymbolTableRecord
100
AcDbBlockTableRecord
  2
*D40
340
0
 70
     0
280
     1
281
     0
  0
BLOCK_RECORD
  5
3720
330
1
100
AcDbSymbolTableRecord
100
AcDbBlockTableRecord
  2
*D41
340
0
 70
     0
280
     1
281
     0
  0
BLOCK_RECORD
  5
372D
330
1
100
AcDbSymbolTableRecord
100
AcDbBlockTableRecord
  2
*D42
340
0
 70
     0
280
     1
281
     0
  0
BLOCK_RECORD
  5
3741
330
1
100
AcDbSymbolTableRecord
100
AcDbBlockTableRecord
  2
*D43
340
0
 70
     0
280
     1
281
     0
  0
BLOCK_RECORD
  5
3750
330
1
100
AcDbSymbolTableRecord
100
AcDbBlockTableRecord
  2
*D44
340
0
 70
     0
280
     1
281
     0
  0
BLOCK_RECORD
  5
3765
330
1
100
AcDbSymbolTableRecord
100
AcDbBlockTableRecord
  2
*D45
340
0
 70
     0
280
     1
281
     0
  0
BLOCK_RECORD
  5
3780
330
1
100
AcDbSymbolTableRecord
100
AcDbBlockTableRecord
  2
*D46
340
0
 70
     0
280
     1
281
     0
  0
BLOCK_RECORD
  5
3798
330
1
100
AcDbSymbolTableRecord
100
AcDbBlockTableRecord
  2
*D47
340
0
 70
     0
280
     1
281
     0
  0
BLOCK_RECORD
  5
37B1
330
1
100
AcDbSymbolTableRecord
100
AcDbBlockTableRecord
  2
*D48
340
0
 70
     0
280
     1
281
     0
  0
BLOCK_RECORD
  5
37CC
330
1
100
AcDbSymbolTableRecord
100
AcDbBlockTableRecord
  2
*D49
340
0
 70
     0
280
     1
281
     0
  0
BLOCK_RECORD
  5
3972
330
1
100
AcDbSymbolTableRecord
100
AcDbBlockTableRecord
  2
*D50
340
0
 70
     0
280
     1
281
     0
  0
BLOCK_RECORD
  5
3981
330
1
100
AcDbSymbolTableRecord
100
AcDbBlockTableRecord
  2
*D51
340
0
 70
     0
280
     1
281
     0
  0
BLOCK_RECORD
  5
39A4
330
1
100
AcDbSymbolTableRecord
100
AcDbBlockTableRecord
  2
*D52
340
0
 70
     0
280
     1
281
     0
  0
BLOCK_RECORD
  5
39B3
330
1
100
AcDbSymbolTableRecord
100
AcDbBlockTableRecord
  2
*D53
340
0
 70
     0
280
     1
281
     0
  0
BLOCK_RECORD
  5
39C2
330
1
100
AcDbSymbolTableRecord
100
AcDbBlockTableRecord
  2
*D54
340
0
 70
     0
280
     1
281
     0
  0
BLOCK_RECORD
  5
39D6
330
1
100
AcDbSymbolTableRecord
100
AcDbBlockTableRecord
  2
*D55
340
0
 70
     0
280
     1
281
     0
  0
BLOCK_RECORD
  5
3A6D
330
1
100
AcDbSymbolTableRecord
100
AcDbBlockTableRecord
  2
*D56
340
0
 70
     0
280
     1
281
     0
  0
BLOCK_RECORD
  5
3A7D
330
1
100
AcDbSymbolTableRecord
100
AcDbBlockTableRecord
  2
*D57
340
0
 70
     0
280
     1
281
     0
  0
ENDTAB
  0
ENDSEC
  0
SECTION
  2
BLOCKS
  0
BLOCK
  5
D
330
A
100
AcDbEntity
  8
0
390
1D
100
AcDbBlockBegin
  2
*MODEL_SPACE
 70
     0
 10
0.0
 20
0.0
 30
0.0
  3
*MODEL_SPACE
  1
*MODEL_SPACE
  0
ENDBLK
  5
E
330
A
100
AcDbEntity
  8
0
390
1D
100
AcDbBlockEnd
  0
BLOCK
  5
F
330
B
100
AcDbEntity
 67
     1
  8
0
390
1D
100
AcDbBlockBegin
  2
*PAPER_SPACE
 70
     0
 10
0.0
 20
0.0
 30
0.0
  3
*PAPER_SPACE
  1
*PAPER_SPACE
  0
ENDBLK
  5
10
330
B
100
AcDbEntity
 67
     1
  8
0
390
1D
100
AcDbBlockEnd
  0
BLOCK
  5
E30
330
4E
100
AcDbEntity
  8
0
390
1D
100
AcDbBlockBegin
  2
_DOT
 70
     0
 10
0.0
 20
0.0
 30
0.0
  3
_DOT
  1
_DOT
  0
POLYLINE
  5
E32
330
4E
100
AcDbEntity
  8
0
  6
ByBlock
 62
     0
370
    -2
390
1D
100
AcDb2dPolyline
 66
     1
 10
0.0
 20
0.0
 30
0.0
 70
     1
 40
0.5
 41
0.5
  0
VERTEX
  5
E33
330
E32
100
AcDbEntity
  8
0
  6
ByBlock
 62
     0
370
    -2
390
1D
100
AcDbVertex
100
AcDb2dVertex
 10
-0.25
 20
0.0
 30
0.0
 42
1.0
  0
VERTEX
  5
E34
330
E32
100
AcDbEntity
  8
0
  6
ByBlock
 62
     0
370
    -2
390
1D
100
AcDbVertex
100
AcDb2dVertex
 10
0.25
 20
0.0
 30
0.0
 42
1.0
  0
SEQEND
  5
E35
330
E32
100
AcDbEntity
  8
0
390
1D
  0
LINE
  5
E36
330
4E
100
AcDbEntity
  8
0
  6
ByBlock
 62
     0
370
    -2
390
1D
100
AcDbLine
 10
-0.5
 20
0.0
 30
0.0
 11
-1.0
 21
0.0
 31
0.0
  0
ENDBLK
  5
E37
330
4E
100
AcDbEntity
  8
0
390
1D
100
AcDbBlockEnd
  0
BLOCK
  5
68E
330
68D
100
AcDbEntity
  8
0
100
AcDbBlockBegin
  2
block 2
 70
     0
 10
0.0
 20
0.0
 30
0.0
  3
block 2
  1
block 2
  0
ENDBLK
  5
6B0
330
68D
100
AcDbEntity
  8
0
100
AcDbBlockEnd
  0
BLOCK
  5
251A
330
2519
100
AcDbEntity
  8
0
100
AcDbBlockBegin
  2
*D2
 70
     1
 10
0.0
 20
0.0
 30
0.0
  3
*D2
  1

  0
LINE
  5
251C
330
2519
100
AcDbEntity
  8
DIM
 62
     0
370
    -2
100
AcDbLine
 10
-624.5650636641553
 20
798.5395136778112
 30
0.0
 11
-624.5650636641553
 21
963.9051262249233
 31
0.0
  0
LINE
  5
251D
330
2519
100
AcDbEntity
  8
DIM
 62
     0
370
    -2
100
AcDbLine
 10
-339.1200788617248
 20
798.5395136778112
 30
0.0
 11
-339.1200788617248
 21
963.9051262249233
 31
0.0
  0
LINE
  5
251E
330
2519
100
AcDbEntity
  8
DIM
 62
     0
370
    -2
100
AcDbLine
 10
-621.5650636641553
 20
963.9051262249233
 30
0.0
 11
-342.1200788617248
 21
963.9051262249233
 31
0.0
  0
INSERT
  5
251F
330
2519
100
AcDbEntity
  8
DIM
 62
     0
370
    -2
100
AcDbBlockReference
  2
_DOT
 10
-624.5650636641553
 20
963.9051262249233
 30
0.0
 41
3.0
 42
3.0
 43
3.0
 50
180.0
  0
INSERT
  5
2520
330
2519
100
AcDbEntity
  8
DIM
 62
     0
370
    -2
100
AcDbBlockReference
  2
_DOT
 10
-339.1200788617248
 20
963.9051262249233
 30
0.0
 41
3.0
 42
3.0
 43
3.0
  0
MTEXT
  5
2521
330
2519
100
AcDbEntity
  8
DIM
 62
     0
100
AcDbMText
 10
-481.842571262941
 20
979.9073770689898
 30
0.0
 40
12.0
 41
0.0
 46
0.0
 71
     5
 72
     1
  1
\A1;285
  7
ＭＳ ゴシック
 73
     1
 44
1.0
  0
POINT
  5
2522
330
2519
100
AcDbEntity
  8
Defpoints
 62
     0
100
AcDbPoint
 10
-624.5650636641553
 20
788.5395136778112
 30
0.0
  0
POINT
  5
2523
330
2519
100
AcDbEntity
  8
Defpoints
 62
     0
100
AcDbPoint
 10
-339.1200788617248
 20
788.5395136778112
 30
0.0
  0
POINT
  5
2524
330
2519
100
AcDbEntity
  8
Defpoints
 62
     0
100
AcDbPoint
 10
-339.1200788617248
 20
963.9051262249233
 30
0.0
  0
ENDBLK
  5
251B
330
2519
100
AcDbEntity
  8
0
100
AcDbBlockEnd
  0
BLOCK
  5
2526
330
2525
100
AcDbEntity
  8
0
100
AcDbBlockBegin
  2
*D3
 70
     1
 10
0.0
 20
0.0
 30
0.0
  3
*D3
  1

  0
LINE
  5
2528
330
2525
100
AcDbEntity
  8
DIM
 62
     0
370
    -2
100
AcDbLine
 10
-576.5598497254018
 20
778.5395136778112
 30
0.0
 11
-576.5598497254018
 21
571.7928496048627
 31
0.0
  0
LINE
  5
2529
330
2525
100
AcDbEntity
  8
DIM
 62
     0
370
    -2
100
AcDbLine
 10
-387.1252928004792
 20
778.5395136778112
 30
0.0
 11
-387.1252928004792
 21
571.7928496048627
 31
0.0
  0
LINE
  5
252A
330
2525
100
AcDbEntity
  8
DIM
 62
     0
370
    -2
100
AcDbLine
 10
-573.5598497254018
 20
571.7928496048627
 30
0.0
 11
-390.1252928004792
 21
571.7928496048627
 31
0.0
  0
INSERT
  5
252B
330
2525
100
AcDbEntity
  8
DIM
 62
     0
370
    -2
100
AcDbBlockReference
  2
_DOT
 10
-576.5598497254018
 20
571.7928496048627
 30
0.0
 41
3.0
 42
3.0
 43
3.0
 50
180.0
  0
INSERT
  5
252C
330
2525
100
AcDbEntity
  8
DIM
 62
     0
370
    -2
100
AcDbBlockReference
  2
_DOT
 10
-387.1252928004792
 20
571.7928496048627
 30
0.0
 41
3.0
 42
3.0
 43
3.0
  0
MTEXT
  5
252D
330
2525
100
AcDbEntity
  8
DIM
 62
     0
100
AcDbMText
 10
-481.8425712629405
 20
587.7951004489292
 30
0.0
 40
12.0
 41
0.0
 46
0.0
 71
     5
 72
     1
  1
\A1;189
  7
ＭＳ ゴシック
 73
     1
 44
1.0
  0
POINT
  5
252E
330
2525
100
AcDbEntity
  8
Defpoints
 62
     0
100
AcDbPoint
 10
-576.5598497254018
 20
788.5395136778112
 30
0.0
  0
POINT
  5
252F
330
2525
100
AcDbEntity
  8
Defpoints
 62
     0
100
AcDbPoint
 10
-387.1252928004792
 20
788.5395136778112
 30
0.0
  0
POINT
  5
2530
330
2525
100
AcDbEntity
  8
Defpoints
 62
     0
100
AcDbPoint
 10
-387.1252928004792
 20
571.7928496048627
 30
0.0
  0
ENDBLK
  5
2527
330
2525
100
AcDbEntity
  8
0
100
AcDbBlockEnd
  0
BLOCK
  5
30D7
330
30D6
100
AcDbEntity
  8
0
100
AcDbBlockBegin
  2
*D4
 70
     1
 10
0.0
 20
0.0
 30
0.0
  3
*D4
  1

  0
LINE
  5
30D9
330
30D6
100
AcDbEntity
  8
DIM
 62
     0
370
    -2
100
AcDbLine
 10
147.0662751128732
 20
1084.028452388392
 30
0.0
 11
147.0662751128732
 21
1141.941990061633
 31
0.0
  0
LINE
  5
30DA
330
30D6
100
AcDbEntity
  8
DIM
 62
     0
370
    -2
100
AcDbLine
 10
596.5669665115358
 20
1084.52776099934
 30
0.0
 11
596.5669665115358
 21
1141.941990061633
 31
0.0
  0
LINE
  5
30DB
330
30D6
100
AcDbEntity
  8
DIM
 62
     0
370
    -2
100
AcDbLine
 10
150.0662751128732
 20
1141.941990061633
 30
0.0
 11
593.5669665115358
 21
1141.941990061633
 31
0.0
  0
INSERT
  5
30DC
330
30D6
100
AcDbEntity
  8
DIM
 62
     0
370
    -2
100
AcDbBlockReference
  2
_DOT
 10
147.0662751128732
 20
1141.941990061633
 30
0.0
 41
3.0
 42
3.0
 43
3.0
 50
180.0
  0
INSERT
  5
30DD
330
30D6
100
AcDbEntity
  8
DIM
 62
     0
370
    -2
100
AcDbBlockReference
  2
_DOT
 10
596.5669665115358
 20
1141.941990061633
 30
0.0
 41
3.0
 42
3.0
 43
3.0
  0
MTEXT
  5
30DE
330
30D6
100
AcDbEntity
  8
DIM
 62
     0
100
AcDbMText
 10
371.8166208122045
 20
1157.941990061633
 30
0.0
 40
12.0
 41
0.0
 46
0.0
 71
     5
 72
     1
  1
\A1;450
  7
ＭＳ ゴシック
 73
     1
 44
1.0
  0
POINT
  5
30DF
330
30D6
100
AcDbEntity
  8
Defpoints
 62
     0
100
AcDbPoint
 10
147.0662751128732
 20
1074.028452388392
 30
0.0
  0
POINT
  5
30E0
330
30D6
100
AcDbEntity
  8
Defpoints
 62
     0
100
AcDbPoint
 10
596.5669665115358
 20
1074.52776099934
 30
0.0
  0
POINT
  5
30E1
330
30D6
100
AcDbEntity
  8
Defpoints
 62
     0
100
AcDbPoint
 10
596.5669665115358
 20
1141.941990061633
 30
0.0
  0
ENDBLK
  5
30D8
330
30D6
100
AcDbEntity
  8
0
100
AcDbBlockEnd
  0
BLOCK
  5
3104
330
3103
100
AcDbEntity
  8
0
100
AcDbBlockBegin
  2
*D5
 70
     1
 10
0.0
 20
0.0
 30
0.0
  3
*D5
  1

  0
LINE
  5
3106
330
3103
100
AcDbEntity
  8
DIM
 62
     0
370
    -2
100
AcDbLine
 10
607.0662751224838
 20
964.3256488546513
 30
0.0
 11
656.2148230745822
 21
964.3256488546513
 31
0.0
  0
LINE
  5
3107
330
3103
100
AcDbEntity
  8
DIM
 62
     0
370
    -2
100
AcDbLine
 10
607.0662751224838
 20
964.3256488546513
 30
0.0
 11
656.2148230745822
 21
964.3256488546513
 31
0.0
  0
LINE
  5
3108
330
3103
100
AcDbEntity
  8
DIM
 62
     0
370
    -2
100
AcDbLine
 10
656.2148230745822
 20
961.3256488546513
 30
0.0
 11
656.2148230745822
 21
958.3256488546513
 31
0.0
  0
LINE
  5
3109
330
3103
100
AcDbEntity
  8
DIM
 62
     0
370
    -2
100
AcDbLine
 10
656.2148230745822
 20
967.3256488546513
 30
0.0
 11
656.2148230745822
 21
970.3256488546513
 31
0.0
  0
INSERT
  5
310A
330
3103
100
AcDbEntity
  8
DIM
 62
     0
370
    -2
100
AcDbBlockReference
  2
_DOT
 10
656.2148230745822
 20
964.3256488546513
 30
0.0
 41
3.0
 42
3.0
 43
3.0
 50
90.0
  0
INSERT
  5
310B
330
3103
100
AcDbEntity
  8
DIM
 62
     0
370
    -2
100
AcDbBlockReference
  2
_DOT
 10
656.2148230745822
 20
964.3256488546513
 30
0.0
 41
3.0
 42
3.0
 43
3.0
 50
270.0
  0
MTEXT
  5
310C
330
3103
100
AcDbEntity
  8
DIM
 62
     0
100
AcDbMText
 10
640.2148230745822
 20
964.3256488546513
 30
0.0
 40
12.0
 41
0.0
 46
0.0
 71
     5
 72
     1
  1
\A1;0
  7
ＭＳ ゴシック
 11
6.123233995736766E-17
 21
1.0
 31
0.0
 73
     1
 44
1.0
  0
POINT
  5
310D
330
3103
100
AcDbEntity
  8
Defpoints
 62
     0
100
AcDbPoint
 10
597.0662751224838
 20
964.3256488546513
 30
0.0
  0
POINT
  5
310E
330
3103
100
AcDbEntity
  8
Defpoints
 62
     0
100
AcDbPoint
 10
597.0662751224838
 20
964.3256488546513
 30
0.0
  0
POINT
  5
311E
330
3103
100
AcDbEntity
  8
Defpoints
 62
     0
100
AcDbPoint
 10
656.2148230745822
 20
964.3256488546513
 30
0.0
  0
ENDBLK
  5
3105
330
3103
100
AcDbEntity
  8
0
100
AcDbBlockEnd
  0
BLOCK
  5
3113
330
3112
100
AcDbEntity
  8
0
100
AcDbBlockBegin
  2
*D6
 70
     1
 10
0.0
 20
0.0
 30
0.0
  3
*D6
  1

  0
LINE
  5
3115
330
3112
100
AcDbEntity
  8
DIM
 62
     0
370
    -2
100
AcDbLine
 10
607.0662751224838
 20
631.2732379989609
 30
0.0
 11
656.2148230745822
 21
631.2732379989609
 31
0.0
  0
LINE
  5
3116
330
3112
100
AcDbEntity
  8
DIM
 62
     0
370
    -2
100
AcDbLine
 10
606.5669665115358
 20
690.7739293892953
 30
0.0
 11
656.2148230745822
 21
690.7739293892953
 31
0.0
  0
LINE
  5
3117
330
3112
100
AcDbEntity
  8
DIM
 62
     0
370
    -2
100
AcDbLine
 10
656.2148230745822
 20
634.2732379989609
 30
0.0
 11
656.2148230745822
 21
687.7739293892953
 31
0.0
  0
INSERT
  5
3118
330
3112
100
AcDbEntity
  8
DIM
 62
     0
370
    -2
100
AcDbBlockReference
  2
_DOT
 10
656.2148230745822
 20
631.2732379989609
 30
0.0
 41
3.0
 42
3.0
 43
3.0
 50
270.0
  0
INSERT
  5
3119
330
3112
100
AcDbEntity
  8
DIM
 62
     0
370
    -2
100
AcDbBlockReference
  2
_DOT
 10
656.2148230745822
 20
690.7739293892953
 30
0.0
 41
3.0
 42
3.0
 43
3.0
 50
90.0
  0
MTEXT
  5
311A
330
3112
100
AcDbEntity
  8
DIM
 62
     0
100
AcDbMText
 10
640.2148230745822
 20
661.0235836941281
 30
0.0
 40
12.0
 41
0.0
 46
0.0
 71
     5
 72
     1
  1
\A1;60
  7
ＭＳ ゴシック
 11
0.0
 21
1.0
 31
0.0
 73
     1
 44
1.0
  0
POINT
  5
311B
330
3112
100
AcDbEntity
  8
Defpoints
 62
     0
100
AcDbPoint
 10
597.0662751224838
 20
631.2732379989609
 30
0.0
  0
POINT
  5
311C
330
3112
100
AcDbEntity
  8
Defpoints
 62
     0
100
AcDbPoint
 10
596.5669665115358
 20
690.7739293892953
 30
0.0
  0
POINT
  5
311D
330
3112
100
AcDbEntity
  8
Defpoints
 62
     0
100
AcDbPoint
 10
656.2148230745822
 20
690.7739293892953
 30
0.0
  0
ENDBLK
  5
3114
330
3112
100
AcDbEntity
  8
0
100
AcDbBlockEnd
  0
BLOCK
  5
3126
330
3125
100
AcDbEntity
  8
0
100
AcDbBlockBegin
  2
*D7
 70
     1
 10
0.0
 20
0.0
 30
0.0
  3
*D7
  1

  0
LINE
  5
3128
330
3125
100
AcDbEntity
  8
DIM
 62
     0
370
    -2
100
AcDbLine
 10
607.0662751224838
 20
964.3256488546513
 30
0.0
 11
656.2148230745822
 21
964.3256488546513
 31
0.0
  0
LINE
  5
3129
330
3125
100
AcDbEntity
  8
DIM
 62
     0
370
    -2
100
AcDbLine
 10
607.0662751224838
 20
1064.325648854651
 30
0.0
 11
656.2148230745822
 21
1064.325648854651
 31
0.0
  0
LINE
  5
312A
330
3125
100
AcDbEntity
  8
DIM
 62
     0
370
    -2
100
AcDbLine
 10
656.2148230745822
 20
967.3256488546513
 30
0.0
 11
656.2148230745822
 21
1061.325648854651
 31
0.0
  0
INSERT
  5
312B
330
3125
100
AcDbEntity
  8
DIM
 62
     0
370
    -2
100
AcDbBlockReference
  2
_DOT
 10
656.2148230745822
 20
964.3256488546513
 30
0.0
 41
3.0
 42
3.0
 43
3.0
 50
270.0
  0
INSERT
  5
312C
330
3125
100
AcDbEntity
  8
DIM
 62
     0
370
    -2
100
AcDbBlockReference
  2
_DOT
 10
656.2148230745822
 20
1064.325648854651
 30
0.0
 41
3.0
 42
3.0
 43
3.0
 50
90.0
  0
MTEXT
  5
312D
330
3125
100
AcDbEntity
  8
DIM
 62
     0
100
AcDbMText
 10
640.2148230745822
 20
1014.325648854651
 30
0.0
 40
12.0
 41
0.0
 46
0.0
 71
     5
 72
     1
  1
\A1;100
  7
ＭＳ ゴシック
 11
0.0
 21
1.0
 31
0.0
 73
     1
 44
1.0
  0
POINT
  5
312E
330
3125
100
AcDbEntity
  8
Defpoints
 62
     0
100
AcDbPoint
 10
597.0662751224838
 20
964.3256488546513
 30
0.0
  0
POINT
  5
312F
330
3125
100
AcDbEntity
  8
Defpoints
 62
     0
100
AcDbPoint
 10
597.0662751224838
 20
1064.325648854651
 30
0.0
  0
POINT
  5
3130
330
3125
100
AcDbEntity
  8
Defpoints
 62
     0
100
AcDbPoint
 10
656.2148230745822
 20
1064.325648854651
 30
0.0
  0
ENDBLK
  5
3127
330
3125
100
AcDbEntity
  8
0
100
AcDbBlockEnd
  0
BLOCK
  5
315E
330
315D
100
AcDbEntity
  8
0
100
AcDbBlockBegin
  2
*D8
 70
     1
 10
0.0
 20
0.0
 30
0.0
  3
*D8
  1

  0
LINE
  5
315F
330
315D
100
AcDbEntity
  8
MODEL
 62
     0
370
    -2
100
AcDbLine
 10
77.46863124430365
 20
82.92988067839394
 30
0.0
 11
34.44636569035583
 21
82.92988067839394
 31
0.0
  0
LINE
  5
3160
330
315D
100
AcDbEntity
  8
MODEL
 62
     0
370
    -2
100
AcDbLine
 10
77.46863124430365
 20
182.9298806783939
 30
0.0
 11
34.44636569035583
 21
182.9298806783939
 31
0.0
  0
LINE
  5
3161
330
315D
100
AcDbEntity
  8
MODEL
 62
     0
370
    -2
100
AcDbLine
 10
34.44636569035583
 20
92.92927032683144
 30
0.0
 11
34.44636569035583
 21
172.9304910299564
 31
0.0
  0
INSERT
  5
3162
330
315D
100
AcDbEntity
  8
MODEL
 62
     0
370
    -2
100
AcDbBlockReference
  2
_DOT
 10
34.44636569035583
 20
82.92988067839394
 30
0.0
 41
9.999389648437498
 42
9.999389648437498
 43
9.999389648437498
 50
270.0
  0
INSERT
  5
3163
330
315D
100
AcDbEntity
  8
MODEL
 62
     0
370
    -2
100
AcDbBlockReference
  2
_DOT
 10
34.44636569035583
 20
182.9298806783939
 30
0.0
 41
9.999389648437498
 42
9.999389648437498
 43
9.999389648437498
 50
90.0
  0
MTEXT
  5
3164
330
315D
100
AcDbEntity
  8
MODEL
 62
     0
100
AcDbMText
 10
12.22547426232032
 20
132.9298806783939
 30
0.0
 40
24.4326171875
 41
0.0
 46
0.0
 71
     5
 72
     1
  1
\A1;100
  7
ＭＳ ゴシック
 11
7.105427357601002E-17
 21
1.0
 31
0.0
 73
     1
 44
1.0
  0
POINT
  5
3165
330
315D
100
AcDbEntity
  8
Defpoints
 62
     0
100
AcDbPoint
 10
102.4686312443037
 20
82.92988067839394
 30
0.0
  0
POINT
  5
3166
330
315D
100
AcDbEntity
  8
Defpoints
 62
     0
100
AcDbPoint
 10
102.4686312443037
 20
182.9298806783939
 30
0.0
  0
POINT
  5
3167
330
315D
100
AcDbEntity
  8
Defpoints
 62
     0
100
AcDbPoint
 10
34.44636569035583
 20
182.9298806783939
 30
0.0
  0
ENDBLK
  5
3168
330
315D
100
AcDbEntity
  8
0
100
AcDbBlockEnd
  0
BLOCK
  5
316D
330
316C
100
AcDbEntity
  8
0
100
AcDbBlockBegin
  2
*D9
 70
     1
 10
0.0
 20
0.0
 30
0.0
  3
*D9
  1

  0
LINE
  5
316E
330
316C
100
AcDbEntity
  8
MODEL
 62
     0
370
    -2
100
AcDbLine
 10
75.46863124430365
 20
184.9298806783939
 30
0.0
 11
34.44636569035583
 21
184.9298806783939
 31
0.0
  0
LINE
  5
316F
330
316C
100
AcDbEntity
  8
MODEL
 62
     0
370
    -2
100
AcDbLine
 10
77.46863124430365
 20
182.9298806783939
 30
0.0
 11
34.44636569035583
 21
182.9298806783939
 31
0.0
  0
LINE
  5
3170
330
316C
100
AcDbEntity
  8
MODEL
 62
     0
370
    -2
100
AcDbLine
 10
34.44636569035583
 20
184.9298806783939
 30
0.0
 11
34.44636569035583
 21
237.5650617118577
 31
0.0
  0
LINE
  5
3171
330
316C
100
AcDbEntity
  8
MODEL
 62
     0
370
    -2
100
AcDbLine
 10
34.44636569035583
 20
184.9298806783939
 30
0.0
 11
34.44636569035583
 21
182.9298806783939
 31
0.0
  0
LINE
  5
3172
330
316C
100
AcDbEntity
  8
MODEL
 62
     0
370
    -2
100
AcDbLine
 10
34.44636569035583
 20
194.9292703268314
 30
0.0
 11
34.44636569035583
 21
204.9286599752689
 31
0.0
  0
LINE
  5
3173
330
316C
100
AcDbEntity
  8
MODEL
 62
     0
370
    -2
100
AcDbLine
 10
34.44636569035583
 20
172.9304910299564
 30
0.0
 11
34.44636569035583
 21
162.9311013815189
 31
0.0
  0
INSERT
  5
3174
330
316C
100
AcDbEntity
  8
MODEL
 62
     0
370
    -2
100
AcDbBlockReference
  2
_DOT
 10
34.44636569035583
 20
184.9298806783939
 30
0.0
 41
9.999389648437498
 42
9.999389648437498
 43
9.999389648437498
 50
270.0
  0
INSERT
  5
3175
330
316C
100
AcDbEntity
  8
MODEL
 62
     0
370
    -2
100
AcDbBlockReference
  2
_DOT
 10
34.44636569035583
 20
182.9298806783939
 30
0.0
 41
9.999389648437498
 42
9.999389648437498
 43
9.999389648437498
 50
90.0
  0
MTEXT
  5
3176
330
316C
100
AcDbEntity
  8
MODEL
 62
     0
100
AcDbMText
 10
12.22547426232032
 20
221.2468608435633
 30
0.0
 40
24.4326171875
 41
0.0
 46
0.0
 71
     5
 72
     1
  1
\A1;2
  7
ＭＳ ゴシック
 11
0.0
 21
1.0
 31
0.0
 73
     1
 44
1.0
  0
POINT
  5
3177
330
316C
100
AcDbEntity
  8
Defpoints
 62
     0
100
AcDbPoint
 10
100.4686312443037
 20
184.9298806783939
 30
0.0
  0
POINT
  5
3178
330
316C
100
AcDbEntity
  8
Defpoints
 62
     0
100
AcDbPoint
 10
102.4686312443037
 20
182.9298806783939
 30
0.0
  0
POINT
  5
3179
330
316C
100
AcDbEntity
  8
Defpoints
 62
     0
100
AcDbPoint
 10
34.44636569035583
 20
182.9298806783939
 30
0.0
  0
ENDBLK
  5
317A
330
316C
100
AcDbEntity
  8
0
100
AcDbBlockEnd
  0
BLOCK
  5
3186
330
3185
100
AcDbEntity
  8
0
100
AcDbBlockBegin
  2
*D10
 70
     1
 10
0.0
 20
0.0
 30
0.0
  3
*D10
  1

  0
LINE
  5
3187
330
3185
100
AcDbEntity
  8
MODEL
 62
     0
370
    -2
100
AcDbLine
 10
102.4686312443037
 20
57.92988067839394
 30
0.0
 11
102.4686312443037
 21
4.99969482421875
 31
0.0
  0
LINE
  5
3188
330
3185
100
AcDbEntity
  8
MODEL
 62
     0
370
    -2
100
AcDbLine
 10
402.4686312443055
 20
57.92988067839633
 30
0.0
 11
402.4686312443055
 21
4.99969482421875
 31
0.0
  0
LINE
  5
3189
330
3185
100
AcDbEntity
  8
MODEL
 62
     0
370
    -2
100
AcDbLine
 10
112.4680208927412
 20
4.99969482421875
 30
0.0
 11
392.469241595868
 21
4.99969482421875
 31
0.0
  0
INSERT
  5
318A
330
3185
100
AcDbEntity
  8
MODEL
 62
     0
370
    -2
100
AcDbBlockReference
  2
_DOT
 10
102.4686312443037
 20
4.99969482421875
 30
0.0
 41
9.999389648437498
 42
9.999389648437498
 43
9.999389648437498
 50
180.0
  0
INSERT
  5
318B
330
3185
100
AcDbEntity
  8
MODEL
 62
     0
370
    -2
100
AcDbBlockReference
  2
_DOT
 10
402.4686312443055
 20
4.99969482421875
 30
0.0
 41
9.999389648437498
 42
9.999389648437498
 43
9.999389648437498
  0
MTEXT
  5
318C
330
3185
100
AcDbEntity
  8
MODEL
 62
     0
100
AcDbMText
 10
252.4686312443046
 20
27.22058625225426
 30
0.0
 40
24.4326171875
 41
0.0
 46
0.0
 71
     5
 72
     1
  1
\A1;300
  7
ＭＳ ゴシック
 73
     1
 44
1.0
  0
POINT
  5
318D
330
3185
100
AcDbEntity
  8
Defpoints
 62
     0
100
AcDbPoint
 10
102.4686312443037
 20
82.92988067839394
 30
0.0
  0
POINT
  5
318E
330
3185
100
AcDbEntity
  8
Defpoints
 62
     0
100
AcDbPoint
 10
402.4686312443055
 20
82.92988067839633
 30
0.0
  0
POINT
  5
318F
330
3185
100
AcDbEntity
  8
Defpoints
 62
     0
100
AcDbPoint
 10
402.4686312443055
 20
4.99969482421875
 30
0.0
  0
ENDBLK
  5
3190
330
3185
100
AcDbEntity
  8
0
100
AcDbBlockEnd
  0
BLOCK
  5
3195
330
3194
100
AcDbEntity
  8
0
100
AcDbBlockBegin
  2
*D11
 70
     1
 10
0.0
 20
0.0
 30
0.0
  3
*D11
  1

  0
LINE
  5
3196
330
3194
100
AcDbEntity
  8
MODEL
 62
     0
370
    -2
100
AcDbLine
 10
102.4686312443037
 20
57.92988067839394
 30
0.0
 11
102.4686312443037
 21
4.99969482421875
 31
0.0
  0
LINE
  5
3197
330
3194
100
AcDbEntity
  8
MODEL
 62
     0
370
    -2
100
AcDbLine
 10
100.4686312443037
 20
57.92988067839394
 30
0.0
 11
100.4686312443037
 21
4.99969482421875
 31
0.0
  0
LINE
  5
3198
330
3194
100
AcDbEntity
  8
MODEL
 62
     0
370
    -2
100
AcDbLine
 10
100.4686312443037
 20
4.99969482421875
 30
0.0
 11
47.83345021083994
 21
4.99969482421875
 31
0.0
  0
LINE
  5
3199
330
3194
100
AcDbEntity
  8
MODEL
 62
     0
370
    -2
100
AcDbLine
 10
102.4686312443037
 20
4.99969482421875
 30
0.0
 11
100.4686312443037
 21
4.99969482421875
 31
0.0
  0
LINE
  5
319A
330
3194
100
AcDbEntity
  8
MODEL
 62
     0
370
    -2
100
AcDbLine
 10
112.4680208927412
 20
4.99969482421875
 30
0.0
 11
122.4674105411787
 21
4.99969482421875
 31
0.0
  0
LINE
  5
319B
330
3194
100
AcDbEntity
  8
MODEL
 62
     0
370
    -2
100
AcDbLine
 10
90.46924159586615
 20
4.99969482421875
 30
0.0
 11
80.46985194742865
 21
4.99969482421875
 31
0.0
  0
INSERT
  5
319C
330
3194
100
AcDbEntity
  8
MODEL
 62
     0
370
    -2
100
AcDbBlockReference
  2
_DOT
 10
102.4686312443037
 20
4.99969482421875
 30
0.0
 41
9.999389648437498
 42
9.999389648437498
 43
9.999389648437498
 50
180.0
  0
INSERT
  5
319D
330
3194
100
AcDbEntity
  8
MODEL
 62
     0
370
    -2
100
AcDbBlockReference
  2
_DOT
 10
100.4686312443037
 20
4.99969482421875
 30
0.0
 41
9.999389648437498
 42
9.999389648437498
 43
9.999389648437498
  0
MTEXT
  5
319E
330
3194
100
AcDbEntity
  8
MODEL
 62
     0
100
AcDbMText
 10
64.1516510791343
 20
27.22058625225426
 30
0.0
 40
24.4326171875
 41
0.0
 46
0.0
 71
     5
 72
     1
  1
\A1;2
  7
ＭＳ ゴシック
 73
     1
 44
1.0
  0
POINT
  5
319F
330
3194
100
AcDbEntity
  8
Defpoints
 62
     0
100
AcDbPoint
 10
102.4686312443037
 20
82.92988067839394
 30
0.0
  0
POINT
  5
31A0
330
3194
100
AcDbEntity
  8
Defpoints
 62
     0
100
AcDbPoint
 10
100.4686312443037
 20
82.92988067839394
 30
0.0
  0
POINT
  5
31A1
330
3194
100
AcDbEntity
  8
Defpoints
 62
     0
100
AcDbPoint
 10
100.4686312443037
 20
4.99969482421875
 30
0.0
  0
ENDBLK
  5
31A2
330
3194
100
AcDbEntity
  8
0
100
AcDbBlockEnd
  0
BLOCK
  5
31A7
330
31A6
100
AcDbEntity
  8
0
100
AcDbBlockBegin
  2
*D12
 70
     1
 10
0.0
 20
0.0
 30
0.0
  3
*D12
  1

  0
LINE
  5
31A8
330
31A6
100
AcDbEntity
  8
MODEL
 62
     0
370
    -2
100
AcDbLine
 10
439.4686312443046
 20
70.92988067839883
 30
0.0
 11
490.4721213719877
 21
70.92988067839883
 31
0.0
  0
LINE
  5
31A9
330
31A6
100
AcDbEntity
  8
MODEL
 62
     0
370
    -2
100
AcDbLine
 10
439.4686312443037
 20
194.9298806783964
 30
0.0
 11
490.4721213719877
 21
194.9298806783964
 31
0.0
  0
LINE
  5
31AA
330
31A6
100
AcDbEntity
  8
MODEL
 62
     0
370
    -2
100
AcDbLine
 10
490.4721213719877
 20
80.92927032683633
 30
0.0
 11
490.4721213719877
 21
184.9304910299589
 31
0.0
  0
INSERT
  5
31AB
330
31A6
100
AcDbEntity
  8
MODEL
 62
     0
370
    -2
100
AcDbBlockReference
  2
_DOT
 10
490.4721213719877
 20
70.92988067839883
 30
0.0
 41
9.999389648437498
 42
9.999389648437498
 43
9.999389648437498
 50
270.0
  0
INSERT
  5
31AC
330
31A6
100
AcDbEntity
  8
MODEL
 62
     0
370
    -2
100
AcDbBlockReference
  2
_DOT
 10
490.4721213719877
 20
194.9298806783964
 30
0.0
 41
9.999389648437498
 42
9.999389648437498
 43
9.999389648437498
 50
90.0
  0
MTEXT
  5
31AD
330
31A6
100
AcDbEntity
  8
MODEL
 62
     0
100
AcDbMText
 10
468.2512299439521
 20
132.9298806783976
 30
0.0
 40
24.4326171875
 41
0.0
 46
0.0
 71
     5
 72
     1
  1
\A1;124
  7
ＭＳ ゴシック
 11
0.0
 21
1.0
 31
0.0
 73
     1
 44
1.0
  0
POINT
  5
31AE
330
31A6
100
AcDbEntity
  8
Defpoints
 62
     0
100
AcDbPoint
 10
414.4686312443046
 20
70.92988067839883
 30
0.0
  0
POINT
  5
31AF
330
31A6
100
AcDbEntity
  8
Defpoints
 62
     0
100
AcDbPoint
 10
414.4686312443037
 20
194.9298806783964
 30
0.0
  0
POINT
  5
31B0
330
31A6
100
AcDbEntity
  8
Defpoints
 62
     0
100
AcDbPoint
 10
490.4721213719877
 20
194.9298806783964
 30
0.0
  0
ENDBLK
  5
31B1
330
31A6
100
AcDbEntity
  8
0
100
AcDbBlockEnd
  0
BLOCK
  5
31B4
330
31B3
100
AcDbEntity
  8
0
100
AcDbBlockBegin
  2
*D13
 70
     1
 10
0.0
 20
0.0
 30
0.0
  3
*D13
  1

  0
LINE
  5
31B5
330
31B3
100
AcDbEntity
  8
MODEL
 62
     0
370
    -2
100
AcDbLine
 10
414.4686312443037
 20
219.9298806783964
 30
0.0
 11
414.4686312443037
 21
246.5755122777377
 31
0.0
  0
LINE
  5
31B6
330
31B3
100
AcDbEntity
  8
MODEL
 62
     0
370
    -2
100
AcDbLine
 10
404.4686312443037
 20
219.9298806783963
 30
0.0
 11
404.4686312443037
 21
246.5755122777377
 31
0.0
  0
LINE
  5
31B7
330
31B3
100
AcDbEntity
  8
MODEL
 62
     0
370
    -2
100
AcDbLine
 10
404.4692415958662
 20
246.5755122777377
 30
0.0
 11
414.4680208927412
 21
246.5755122777377
 31
0.0
  0
INSERT
  5
31B8
330
31B3
100
AcDbEntity
  8
MODEL
 62
     0
370
    -2
100
AcDbBlockReference
  2
_DOT
 10
414.4686312443037
 20
246.5755122777377
 30
0.0
 41
9.999389648437498
 42
9.999389648437498
 43
9.999389648437498
  0
INSERT
  5
31B9
330
31B3
100
AcDbEntity
  8
MODEL
 62
     0
370
    -2
100
AcDbBlockReference
  2
_DOT
 10
404.4686312443037
 20
246.5755122777377
 30
0.0
 41
9.999389648437498
 42
9.999389648437498
 43
9.999389648437498
 50
180.0
  0
MTEXT
  5
31BA
330
31B3
100
AcDbEntity
  8
MODEL
 62
     0
100
AcDbMText
 10
409.4686312443037
 20
268.7964037057732
 30
0.0
 40
24.4326171875
 41
0.0
 46
0.0
 71
     5
 72
     1
  1
\A1;10
  7
ＭＳ ゴシック
 73
     1
 44
1.0
  0
POINT
  5
31BB
330
31B3
100
AcDbEntity
  8
Defpoints
 62
     0
100
AcDbPoint
 10
414.4686312443037
 20
194.9298806783964
 30
0.0
  0
POINT
  5
31BC
330
31B3
100
AcDbEntity
  8
Defpoints
 62
     0
100
AcDbPoint
 10
404.4686312443037
 20
194.9298806783963
 30
0.0
  0
POINT
  5
31BD
330
31B3
100
AcDbEntity
  8
Defpoints
 62
     0
100
AcDbPoint
 10
404.4686312443037
 20
246.5755122777377
 30
0.0
  0
ENDBLK
  5
31BE
330
31B3
100
AcDbEntity
  8
0
100
AcDbBlockEnd
  0
BLOCK
  5
31C3
330
31C2
100
AcDbEntity
  8
0
100
AcDbBlockBegin
  2
*D14
 70
     1
 10
0.0
 20
0.0
 30
0.0
  3
*D14
  1

  0
LINE
  5
31C4
330
31C2
100
AcDbEntity
  8
MODEL
 62
     0
370
    -2
100
AcDbLine
 10
100.4686312443037
 20
219.9298806783939
 30
0.0
 11
100.4686312443037
 21
246.5755122777377
 31
0.0
  0
LINE
  5
31C5
330
31C2
100
AcDbEntity
  8
MODEL
 62
     0
370
    -2
100
AcDbLine
 10
404.4686312443037
 20
219.9298806783963
 30
0.0
 11
404.4686312443037
 21
246.5755122777377
 31
0.0
  0
LINE
  5
31C6
330
31C2
100
AcDbEntity
  8
MODEL
 62
     0
370
    -2
100
AcDbLine
 10
110.4680208927412
 20
246.5755122777377
 30
0.0
 11
394.4692415958662
 21
246.5755122777377
 31
0.0
  0
INSERT
  5
31C7
330
31C2
100
AcDbEntity
  8
MODEL
 62
     0
370
    -2
100
AcDbBlockReference
  2
_DOT
 10
100.4686312443037
 20
246.5755122777377
 30
0.0
 41
9.999389648437498
 42
9.999389648437498
 43
9.999389648437498
 50
180.0
  0
INSERT
  5
31C8
330
31C2
100
AcDbEntity
  8
MODEL
 62
     0
370
    -2
100
AcDbBlockReference
  2
_DOT
 10
404.4686312443037
 20
246.5755122777377
 30
0.0
 41
9.999389648437498
 42
9.999389648437498
 43
9.999389648437498
  0
MTEXT
  5
31C9
330
31C2
100
AcDbEntity
  8
MODEL
 62
     0
100
AcDbMText
 10
252.4686312443037
 20
268.7964037057732
 30
0.0
 40
24.4326171875
 41
0.0
 46
0.0
 71
     5
 72
     1
  1
\A1;304
  7
ＭＳ ゴシック
 73
     1
 44
1.0
  0
POINT
  5
31CA
330
31C2
100
AcDbEntity
  8
Defpoints
 62
     0
100
AcDbPoint
 10
100.4686312443037
 20
194.9298806783939
 30
0.0
  0
POINT
  5
31CB
330
31C2
100
AcDbEntity
  8
Defpoints
 62
     0
100
AcDbPoint
 10
404.4686312443037
 20
194.9298806783963
 30
0.0
  0
POINT
  5
31CC
330
31C2
100
AcDbEntity
  8
Defpoints
 62
     0
100
AcDbPoint
 10
404.4686312443037
 20
246.5755122777377
 30
0.0
  0
ENDBLK
  5
31CD
330
31C2
100
AcDbEntity
  8
0
100
AcDbBlockEnd
  0
BLOCK
  5
31DA
330
31D9
100
AcDbEntity
  8
0
100
AcDbBlockBegin
  2
*D15
 70
     1
 10
0.0
 20
0.0
 30
0.0
  3
*D15
  1

  0
LINE
  5
31DB
330
31D9
100
AcDbEntity
  8
MODEL
 62
     0
370
    -2
100
AcDbLine
 10
606.4389341413166
 20
55.92988067839633
 30
0.0
 11
606.4389341413166
 21
4.99969482421875
 31
0.0
  0
LINE
  5
31DC
330
31D9
100
AcDbEntity
  8
MODEL
 62
     0
370
    -2
100
AcDbLine
 10
836.4389341413216
 20
55.92988067839633
 30
0.0
 11
836.4389341413216
 21
4.99969482421875
 31
0.0
  0
LINE
  5
31DD
330
31D9
100
AcDbEntity
  8
MODEL
 62
     0
370
    -2
100
AcDbLine
 10
616.4383237897541
 20
4.99969482421875
 30
0.0
 11
826.4395444928841
 21
4.99969482421875
 31
0.0
  0
INSERT
  5
31DE
330
31D9
100
AcDbEntity
  8
MODEL
 62
     0
370
    -2
100
AcDbBlockReference
  2
_DOT
 10
606.4389341413166
 20
4.99969482421875
 30
0.0
 41
9.999389648437498
 42
9.999389648437498
 43
9.999389648437498
 50
180.0
  0
INSERT
  5
31DF
330
31D9
100
AcDbEntity
  8
MODEL
 62
     0
370
    -2
100
AcDbBlockReference
  2
_DOT
 10
836.4389341413216
 20
4.99969482421875
 30
0.0
 41
9.999389648437498
 42
9.999389648437498
 43
9.999389648437498
  0
MTEXT
  5
31E0
330
31D9
100
AcDbEntity
  8
MODEL
 62
     0
100
AcDbMText
 10
721.4389341413191
 20
27.22058625225426
 30
0.0
 40
24.4326171875
 41
0.0
 46
0.0
 71
     5
 72
     1
  1
\A1;230
  7
ＭＳ ゴシック
 73
     1
 44
1.0
  0
POINT
  5
31E1
330
31D9
100
AcDbEntity
  8
Defpoints
 62
     0
100
AcDbPoint
 10
606.4389341413166
 20
80.92988067839633
 30
0.0
  0
POINT
  5
31E2
330
31D9
100
AcDbEntity
  8
Defpoints
 62
     0
100
AcDbPoint
 10
836.4389341413216
 20
80.92988067839633
 30
0.0
  0
POINT
  5
31E3
330
31D9
100
AcDbEntity
  8
Defpoints
 62
     0
100
AcDbPoint
 10
836.4389341413216
 20
4.99969482421875
 30
0.0
  0
ENDBLK
  5
31E4
330
31D9
100
AcDbEntity
  8
0
100
AcDbBlockEnd
  0
BLOCK
  5
31E9
330
31E8
100
AcDbEntity
  8
0
100
AcDbBlockBegin
  2
*D16
 70
     1
 10
0.0
 20
0.0
 30
0.0
  3
*D16
  1

  0
LINE
  5
31EA
330
31E8
100
AcDbEntity
  8
MODEL
 62
     0
370
    -2
100
AcDbLine
 10
414.4686312443037
 20
219.9298806783964
 30
0.0
 11
414.4686312443037
 21
304.2571218851058
 31
0.0
  0
LINE
  5
31EB
330
31E8
100
AcDbEntity
  8
MODEL
 62
     0
370
    -2
100
AcDbLine
 10
90.46863124430365
 20
219.9298806783939
 30
0.0
 11
90.46863124430365
 21
304.2571218851058
 31
0.0
  0
LINE
  5
31EC
330
31E8
100
AcDbEntity
  8
MODEL
 62
     0
370
    -2
100
AcDbLine
 10
404.4692415958662
 20
304.2571218851058
 30
0.0
 11
100.4680208927412
 21
304.2571218851058
 31
0.0
  0
INSERT
  5
31ED
330
31E8
100
AcDbEntity
  8
MODEL
 62
     0
370
    -2
100
AcDbBlockReference
  2
_DOT
 10
414.4686312443037
 20
304.2571218851058
 30
0.0
 41
9.999389648437498
 42
9.999389648437498
 43
9.999389648437498
  0
INSERT
  5
31EE
330
31E8
100
AcDbEntity
  8
MODEL
 62
     0
370
    -2
100
AcDbBlockReference
  2
_DOT
 10
90.46863124430365
 20
304.2571218851058
 30
0.0
 41
9.999389648437498
 42
9.999389648437498
 43
9.999389648437498
 50
180.0
  0
MTEXT
  5
31EF
330
31E8
100
AcDbEntity
  8
MODEL
 62
     0
100
AcDbMText
 10
252.4686312443037
 20
326.4780133131413
 30
0.0
 40
24.4326171875
 41
0.0
 46
0.0
 71
     5
 72
     1
  1
\A1;324
  7
ＭＳ ゴシック
 73
     1
 44
1.0
  0
POINT
  5
31F0
330
31E8
100
AcDbEntity
  8
Defpoints
 62
     0
100
AcDbPoint
 10
414.4686312443037
 20
194.9298806783964
 30
0.0
  0
POINT
  5
31F1
330
31E8
100
AcDbEntity
  8
Defpoints
 62
     0
100
AcDbPoint
 10
90.46863124430365
 20
194.9298806783939
 30
0.0
  0
POINT
  5
31F2
330
31E8
100
AcDbEntity
  8
Defpoints
 62
     0
100
AcDbPoint
 10
90.46863124430365
 20
304.2571218851058
 30
0.0
  0
ENDBLK
  5
31F3
330
31E8
100
AcDbEntity
  8
0
100
AcDbBlockEnd
  0
BLOCK
  5
31F6
330
31F5
100
AcDbEntity
  8
0
100
AcDbBlockBegin
  2
*D17
 70
     1
 10
0.0
 20
0.0
 30
0.0
  3
*D17
  1

  0
LINE
  5
31F7
330
31F5
100
AcDbEntity
  8
MODEL
 62
     0
370
    -2
100
AcDbLine
 10
848.4389341413166
 20
219.9298806783963
 30
0.0
 11
848.4389341413166
 21
246.5755122777377
 31
0.0
  0
LINE
  5
31F8
330
31F5
100
AcDbEntity
  8
MODEL
 62
     0
370
    -2
100
AcDbLine
 10
838.4389341413166
 20
219.9298806783963
 30
0.0
 11
838.4389341413166
 21
246.5755122777377
 31
0.0
  0
LINE
  5
31F9
330
31F5
100
AcDbEntity
  8
MODEL
 62
     0
370
    -2
100
AcDbLine
 10
838.4395444928791
 20
246.5755122777377
 30
0.0
 11
848.4383237897541
 21
246.5755122777377
 31
0.0
  0
INSERT
  5
31FA
330
31F5
100
AcDbEntity
  8
MODEL
 62
     0
370
    -2
100
AcDbBlockReference
  2
_DOT
 10
848.4389341413166
 20
246.5755122777377
 30
0.0
 41
9.999389648437498
 42
9.999389648437498
 43
9.999389648437498
  0
INSERT
  5
31FB
330
31F5
100
AcDbEntity
  8
MODEL
 62
     0
370
    -2
100
AcDbBlockReference
  2
_DOT
 10
838.4389341413166
 20
246.5755122777377
 30
0.0
 41
9.999389648437498
 42
9.999389648437498
 43
9.999389648437498
 50
180.0
  0
MTEXT
  5
31FC
330
31F5
100
AcDbEntity
  8
MODEL
 62
     0
100
AcDbMText
 10
843.4389341413166
 20
268.7964037057732
 30
0.0
 40
24.4326171875
 41
0.0
 46
0.0
 71
     5
 72
     1
  1
\A1;10
  7
ＭＳ ゴシック
 73
     1
 44
1.0
  0
POINT
  5
31FD
330
31F5
100
AcDbEntity
  8
Defpoints
 62
     0
100
AcDbPoint
 10
848.4389341413166
 20
194.9298806783963
 30
0.0
  0
POINT
  5
31FE
330
31F5
100
AcDbEntity
  8
Defpoints
 62
     0
100
AcDbPoint
 10
838.4389341413166
 20
194.9298806783963
 30
0.0
  0
POINT
  5
31FF
330
31F5
100
AcDbEntity
  8
Defpoints
 62
     0
100
AcDbPoint
 10
838.4389341413166
 20
246.5755122777377
 30
0.0
  0
ENDBLK
  5
3200
330
31F5
100
AcDbEntity
  8
0
100
AcDbBlockEnd
  0
BLOCK
  5
3203
330
3202
100
AcDbEntity
  8
0
100
AcDbBlockBegin
  2
*D18
 70
     1
 10
0.0
 20
0.0
 30
0.0
  3
*D18
  1

  0
LINE
  5
3204
330
3202
100
AcDbEntity
  8
MODEL
 62
     0
370
    -2
100
AcDbLine
 10
838.4389341413166
 20
219.9298806783963
 30
0.0
 11
838.4389341413166
 21
246.5755122777377
 31
0.0
  0
LINE
  5
3205
330
3202
100
AcDbEntity
  8
MODEL
 62
     0
370
    -2
100
AcDbLine
 10
606.4389341413166
 20
219.9298806783964
 30
0.0
 11
606.4389341413166
 21
246.5755122777377
 31
0.0
  0
LINE
  5
3206
330
3202
100
AcDbEntity
  8
MODEL
 62
     0
370
    -2
100
AcDbLine
 10
828.4395444928791
 20
246.5755122777377
 30
0.0
 11
616.4383237897541
 21
246.5755122777377
 31
0.0
  0
INSERT
  5
3207
330
3202
100
AcDbEntity
  8
MODEL
 62
     0
370
    -2
100
AcDbBlockReference
  2
_DOT
 10
838.4389341413166
 20
246.5755122777377
 30
0.0
 41
9.999389648437498
 42
9.999389648437498
 43
9.999389648437498
  0
INSERT
  5
3208
330
3202
100
AcDbEntity
  8
MODEL
 62
     0
370
    -2
100
AcDbBlockReference
  2
_DOT
 10
606.4389341413166
 20
246.5755122777377
 30
0.0
 41
9.999389648437498
 42
9.999389648437498
 43
9.999389648437498
 50
180.0
  0
MTEXT
  5
3209
330
3202
100
AcDbEntity
  8
MODEL
 62
     0
100
AcDbMText
 10
722.4389341413166
 20
268.7964037057732
 30
0.0
 40
24.4326171875
 41
0.0
 46
0.0
 71
     5
 72
     1
  1
\A1;232
  7
ＭＳ ゴシック
 73
     1
 44
1.0
  0
POINT
  5
320A
330
3202
100
AcDbEntity
  8
Defpoints
 62
     0
100
AcDbPoint
 10
838.4389341413166
 20
194.9298806783963
 30
0.0
  0
POINT
  5
320B
330
3202
100
AcDbEntity
  8
Defpoints
 62
     0
100
AcDbPoint
 10
606.4389341413166
 20
194.9298806783964
 30
0.0
  0
POINT
  5
320C
330
3202
100
AcDbEntity
  8
Defpoints
 62
     0
100
AcDbPoint
 10
606.4389341413166
 20
246.5755122777377
 30
0.0
  0
ENDBLK
  5
320D
330
3202
100
AcDbEntity
  8
0
100
AcDbBlockEnd
  0
BLOCK
  5
3213
330
3212
100
AcDbEntity
  8
0
100
AcDbBlockBegin
  2
*D19
 70
     1
 10
0.0
 20
0.0
 30
0.0
  3
*D19
  1

  0
LINE
  5
3214
330
3212
100
AcDbEntity
  8
MODEL
 62
     0
370
    -2
100
AcDbLine
 10
838.4389341413216
 20
55.92988067839633
 30
0.0
 11
838.4389341413216
 21
4.99969482421875
 31
0.0
  0
LINE
  5
3215
330
3212
100
AcDbEntity
  8
MODEL
 62
     0
370
    -2
100
AcDbLine
 10
836.4389341413216
 20
57.92988067839633
 30
0.0
 11
836.4389341413216
 21
4.99969482421875
 31
0.0
  0
LINE
  5
3216
330
3212
100
AcDbEntity
  8
MODEL
 62
     0
370
    -2
100
AcDbLine
 10
838.4389341413216
 20
4.99969482421875
 30
0.0
 11
891.0741151747854
 21
4.99969482421875
 31
0.0
  0
LINE
  5
3217
330
3212
100
AcDbEntity
  8
MODEL
 62
     0
370
    -2
100
AcDbLine
 10
838.4389341413216
 20
4.99969482421875
 30
0.0
 11
836.4389341413216
 21
4.99969482421875
 31
0.0
  0
LINE
  5
3218
330
3212
100
AcDbEntity
  8
MODEL
 62
     0
370
    -2
100
AcDbLine
 10
848.4383237897591
 20
4.99969482421875
 30
0.0
 11
858.4377134381966
 21
4.99969482421875
 31
0.0
  0
LINE
  5
3219
330
3212
100
AcDbEntity
  8
MODEL
 62
     0
370
    -2
100
AcDbLine
 10
826.4395444928841
 20
4.99969482421875
 30
0.0
 11
816.4401548444466
 21
4.99969482421875
 31
0.0
  0
INSERT
  5
321A
330
3212
100
AcDbEntity
  8
MODEL
 62
     0
370
    -2
100
AcDbBlockReference
  2
_DOT
 10
838.4389341413216
 20
4.99969482421875
 30
0.0
 41
9.999389648437498
 42
9.999389648437498
 43
9.999389648437498
 50
180.0
  0
INSERT
  5
321B
330
3212
100
AcDbEntity
  8
MODEL
 62
     0
370
    -2
100
AcDbBlockReference
  2
_DOT
 10
836.4389341413216
 20
4.99969482421875
 30
0.0
 41
9.999389648437498
 42
9.999389648437498
 43
9.999389648437498
  0
MTEXT
  5
321C
330
3212
100
AcDbEntity
  8
MODEL
 62
     0
100
AcDbMText
 10
874.755914306491
 20
27.22058625225426
 30
0.0
 40
24.4326171875
 41
0.0
 46
0.0
 71
     5
 72
     1
  1
\A1;2
  7
ＭＳ ゴシック
 73
     1
 44
1.0
  0
POINT
  5
321D
330
3212
100
AcDbEntity
  8
Defpoints
 62
     0
100
AcDbPoint
 10
838.4389341413216
 20
80.92988067839633
 30
0.0
  0
POINT
  5
321E
330
3212
100
AcDbEntity
  8
Defpoints
 62
     0
100
AcDbPoint
 10
836.4389341413216
 20
82.92988067839633
 30
0.0
  0
POINT
  5
321F
330
3212
100
AcDbEntity
  8
Defpoints
 62
     0
100
AcDbPoint
 10
836.4389341413216
 20
4.99969482421875
 30
0.0
  0
ENDBLK
  5
3220
330
3212
100
AcDbEntity
  8
0
100
AcDbBlockEnd
  0
BLOCK
  5
3225
330
3224
100
AcDbEntity
  8
0
100
AcDbBlockBegin
  2
*D20
 70
     1
 10
0.0
 20
0.0
 30
0.0
  3
*D20
  1

  0
LINE
  5
3226
330
3224
100
AcDbEntity
  8
MODEL
 62
     0
370
    -2
100
AcDbLine
 10
596.4389341413166
 20
219.9298806783964
 30
0.0
 11
596.4389341413166
 21
304.2571218851058
 31
0.0
  0
LINE
  5
3227
330
3224
100
AcDbEntity
  8
MODEL
 62
     0
370
    -2
100
AcDbLine
 10
848.4389341413166
 20
219.9298806783963
 30
0.0
 11
848.4389341413166
 21
304.2571218851058
 31
0.0
  0
LINE
  5
3228
330
3224
100
AcDbEntity
  8
MODEL
 62
     0
370
    -2
100
AcDbLine
 10
606.4383237897541
 20
304.2571218851058
 30
0.0
 11
838.4395444928791
 21
304.2571218851058
 31
0.0
  0
INSERT
  5
3229
330
3224
100
AcDbEntity
  8
MODEL
 62
     0
370
    -2
100
AcDbBlockReference
  2
_DOT
 10
596.4389341413166
 20
304.2571218851058
 30
0.0
 41
9.999389648437498
 42
9.999389648437498
 43
9.999389648437498
 50
180.0
  0
INSERT
  5
322A
330
3224
100
AcDbEntity
  8
MODEL
 62
     0
370
    -2
100
AcDbBlockReference
  2
_DOT
 10
848.4389341413166
 20
304.2571218851058
 30
0.0
 41
9.999389648437498
 42
9.999389648437498
 43
9.999389648437498
  0
MTEXT
  5
322B
330
3224
100
AcDbEntity
  8
MODEL
 62
     0
100
AcDbMText
 10
722.4389341413166
 20
326.4780133131413
 30
0.0
 40
24.4326171875
 41
0.0
 46
0.0
 71
     5
 72
     1
  1
\A1;252
  7
ＭＳ ゴシック
 73
     1
 44
1.0
  0
POINT
  5
322C
330
3224
100
AcDbEntity
  8
Defpoints
 62
     0
100
AcDbPoint
 10
596.4389341413166
 20
194.9298806783964
 30
0.0
  0
POINT
  5
322D
330
3224
100
AcDbEntity
  8
Defpoints
 62
     0
100
AcDbPoint
 10
848.4389341413166
 20
194.9298806783963
 30
0.0
  0
POINT
  5
322E
330
3224
100
AcDbEntity
  8
Defpoints
 62
     0
100
AcDbPoint
 10
848.4389341413166
 20
304.2571218851058
 30
0.0
  0
ENDBLK
  5
322F
330
3224
100
AcDbEntity
  8
0
100
AcDbBlockEnd
  0
BLOCK
  5
3234
330
3233
100
AcDbEntity
  8
0
100
AcDbBlockBegin
  2
*D21
 70
     1
 10
0.0
 20
0.0
 30
0.0
  3
*D21
  1

  0
LINE
  5
3235
330
3233
100
AcDbEntity
  8
MODEL
 62
     0
370
    -2
100
AcDbLine
 10
873.4389341413166
 20
80.92988067839633
 30
0.0
 11
913.9885058499835
 21
80.92988067839633
 31
0.0
  0
LINE
  5
3236
330
3233
100
AcDbEntity
  8
MODEL
 62
     0
370
    -2
100
AcDbLine
 10
873.4389341413166
 20
70.92988067839883
 30
0.0
 11
913.9885058499835
 21
70.92988067839883
 31
0.0
  0
LINE
  5
3237
330
3233
100
AcDbEntity
  8
MODEL
 62
     0
370
    -2
100
AcDbLine
 10
913.9885058499835
 20
80.92988067839633
 30
0.0
 11
913.9885058499835
 21
148.3466117969263
 31
0.0
  0
LINE
  5
3238
330
3233
100
AcDbEntity
  8
MODEL
 62
     0
370
    -2
100
AcDbLine
 10
913.9885058499835
 20
70.93049102995883
 30
0.0
 11
913.9885058499835
 21
60.93110138152133
 31
0.0
  0
INSERT
  5
3239
330
3233
100
AcDbEntity
  8
MODEL
 62
     0
370
    -2
100
AcDbBlockReference
  2
_DOT
 10
913.9885058499835
 20
80.92988067839633
 30
0.0
 41
9.999389648437498
 42
9.999389648437498
 43
9.999389648437498
 50
90.0
  0
INSERT
  5
323A
330
3233
100
AcDbEntity
  8
MODEL
 62
     0
370
    -2
100
AcDbBlockReference
  2
_DOT
 10
913.9885058499835
 20
70.92988067839883
 30
0.0
 41
9.999389648437498
 42
9.999389648437498
 43
9.999389648437498
 50
270.0
  0
MTEXT
  5
323B
330
3233
100
AcDbEntity
  8
MODEL
 62
     0
100
AcDbMText
 10
891.767614421948
 20
124.6376358860989
 30
0.0
 40
24.4326171875
 41
0.0
 46
0.0
 71
     5
 72
     1
  1
\A1;10
  7
ＭＳ ゴシック
 11
0.0
 21
1.0
 31
0.0
 73
     1
 44
1.0
  0
POINT
  5
323C
330
3233
100
AcDbEntity
  8
Defpoints
 62
     0
100
AcDbPoint
 10
848.4389341413166
 20
80.92988067839633
 30
0.0
  0
POINT
  5
323D
330
3233
100
AcDbEntity
  8
Defpoints
 62
     0
100
AcDbPoint
 10
848.4389341413166
 20
70.92988067839883
 30
0.0
  0
POINT
  5
323E
330
3233
100
AcDbEntity
  8
Defpoints
 62
     0
100
AcDbPoint
 10
913.9885058499835
 20
70.92988067839883
 30
0.0
  0
ENDBLK
  5
323F
330
3233
100
AcDbEntity
  8
0
100
AcDbBlockEnd
  0
BLOCK
  5
324C
330
324B
100
AcDbEntity
  8
0
100
AcDbBlockBegin
  2
*D22
 70
     1
 10
0.0
 20
0.0
 30
0.0
  3
*D22
  1

  0
LINE
  5
324D
330
324B
100
AcDbEntity
  8
MODEL
 62
     0
370
    -2
100
AcDbLine
 10
873.4389341413162
 20
451.5960059905728
 30
0.0
 11
923.0961142228703
 21
451.5960059905728
 31
0.0
  0
LINE
  5
324E
330
324B
100
AcDbEntity
  8
MODEL
 62
     0
370
    -2
100
AcDbLine
 10
873.4389341413162
 20
651.5960059905728
 30
0.0
 11
923.0961142228703
 21
651.5960059905728
 31
0.0
  0
LINE
  5
324F
330
324B
100
AcDbEntity
  8
MODEL
 62
     0
370
    -2
100
AcDbLine
 10
923.0961142228703
 20
461.5953956390103
 30
0.0
 11
923.0961142228703
 21
641.5966163421353
 31
0.0
  0
INSERT
  5
3250
330
324B
100
AcDbEntity
  8
MODEL
 62
     0
370
    -2
100
AcDbBlockReference
  2
_DOT
 10
923.0961142228703
 20
451.5960059905728
 30
0.0
 41
9.999389648437498
 42
9.999389648437498
 43
9.999389648437498
 50
270.0
  0
INSERT
  5
3251
330
324B
100
AcDbEntity
  8
MODEL
 62
     0
370
    -2
100
AcDbBlockReference
  2
_DOT
 10
923.0961142228703
 20
651.5960059905728
 30
0.0
 41
9.999389648437498
 42
9.999389648437498
 43
9.999389648437498
 50
90.0
  0
MTEXT
  5
3252
330
324B
100
AcDbEntity
  8
MODEL
 62
     0
100
AcDbMText
 10
900.8752227948347
 20
551.5960059905728
 30
0.0
 40
24.4326171875
 41
0.0
 46
0.0
 71
     5
 72
     1
  1
\A1;200
  7
ＭＳ ゴシック
 11
0.0
 21
1.0
 31
0.0
 73
     1
 44
1.0
  0
POINT
  5
3253
330
324B
100
AcDbEntity
  8
Defpoints
 62
     0
100
AcDbPoint
 10
848.4389341413162
 20
451.5960059905728
 30
0.0
  0
POINT
  5
3254
330
324B
100
AcDbEntity
  8
Defpoints
 62
     0
100
AcDbPoint
 10
848.4389341413162
 20
651.5960059905728
 30
0.0
  0
POINT
  5
3255
330
324B
100
AcDbEntity
  8
Defpoints
 62
     0
100
AcDbPoint
 10
923.0961142228703
 20
651.5960059905728
 30
0.0
  0
ENDBLK
  5
3256
330
324B
100
AcDbEntity
  8
0
100
AcDbBlockEnd
  0
BLOCK
  5
325B
330
325A
100
AcDbEntity
  8
0
100
AcDbBlockBegin
  2
*D23
 70
     1
 10
0.0
 20
0.0
 30
0.0
  3
*D23
  1

  0
LINE
  5
325C
330
325A
100
AcDbEntity
  8
MODEL
 62
     0
370
    -2
100
AcDbLine
 10
873.4389341413162
 20
651.5960059905728
 30
0.0
 11
923.0961142228703
 21
651.5960059905728
 31
0.0
  0
LINE
  5
325D
330
325A
100
AcDbEntity
  8
MODEL
 62
     0
370
    -2
100
AcDbLine
 10
873.4389341413162
 20
661.5960059905728
 30
0.0
 11
923.0961142228703
 21
661.5960059905728
 31
0.0
  0
LINE
  5
325E
330
325A
100
AcDbEntity
  8
MODEL
 62
     0
370
    -2
100
AcDbLine
 10
923.0961142228703
 20
661.5960059905728
 30
0.0
 11
923.0961142228703
 21
731.5125845212121
 31
0.0
  0
LINE
  5
325F
330
325A
100
AcDbEntity
  8
MODEL
 62
     0
370
    -2
100
AcDbLine
 10
923.0961142228703
 20
651.5960059905728
 30
0.0
 11
923.0961142228703
 21
661.5960059905728
 31
0.0
  0
LINE
  5
3260
330
325A
100
AcDbEntity
  8
MODEL
 62
     0
370
    -2
100
AcDbLine
 10
923.0961142228703
 20
641.5966163421353
 30
0.0
 11
923.0961142228703
 21
631.5972266936978
 31
0.0
  0
LINE
  5
3261
330
325A
100
AcDbEntity
  8
MODEL
 62
     0
370
    -2
100
AcDbLine
 10
923.0961142228703
 20
671.5953956390103
 30
0.0
 11
923.0961142228703
 21
681.5947852874478
 31
0.0
  0
INSERT
  5
3262
330
325A
100
AcDbEntity
  8
MODEL
 62
     0
370
    -2
100
AcDbBlockReference
  2
_DOT
 10
923.0961142228703
 20
651.5960059905728
 30
0.0
 41
9.999389648437498
 42
9.999389648437498
 43
9.999389648437498
 50
90.0
  0
INSERT
  5
3263
330
325A
100
AcDbEntity
  8
MODEL
 62
     0
370
    -2
100
AcDbBlockReference
  2
_DOT
 10
923.0961142228703
 20
661.5960059905728
 30
0.0
 41
9.999389648437498
 42
9.999389648437498
 43
9.999389648437498
 50
270.0
  0
MTEXT
  5
3264
330
325A
100
AcDbEntity
  8
MODEL
 62
     0
100
AcDbMText
 10
900.8752227948347
 20
707.8036086103848
 30
0.0
 40
24.4326171875
 41
0.0
 46
0.0
 71
     5
 72
     1
  1
\A1;10
  7
ＭＳ ゴシック
 11
0.0
 21
1.0
 31
0.0
 73
     1
 44
1.0
  0
POINT
  5
3265
330
325A
100
AcDbEntity
  8
Defpoints
 62
     0
100
AcDbPoint
 10
848.4389341413162
 20
651.5960059905728
 30
0.0
  0
POINT
  5
3266
330
325A
100
AcDbEntity
  8
Defpoints
 62
     0
100
AcDbPoint
 10
848.4389341413162
 20
661.5960059905728
 30
0.0
  0
POINT
  5
3267
330
325A
100
AcDbEntity
  8
Defpoints
 62
     0
100
AcDbPoint
 10
923.0961142228703
 20
661.5960059905728
 30
0.0
  0
ENDBLK
  5
3268
330
325A
100
AcDbEntity
  8
0
100
AcDbBlockEnd
  0
BLOCK
  5
3276
330
3275
100
AcDbEntity
  8
0
100
AcDbBlockBegin
  2
*D24
 70
     1
 10
0.0
 20
0.0
 30
0.0
  3
*D24
  1

  0
LINE
  5
3277
330
3275
100
AcDbEntity
  8
MODEL
 62
     0
370
    -2
100
AcDbLine
 10
404.4686312443032
 20
676.5960059905726
 30
0.0
 11
404.4686312443032
 21
718.692882178668
 31
0.0
  0
LINE
  5
3278
330
3275
100
AcDbEntity
  8
MODEL
 62
     0
370
    -2
100
AcDbLine
 10
394.4686312443037
 20
686.5960059905726
 30
0.0
 11
394.4686312443037
 21
718.692882178668
 31
0.0
  0
LINE
  5
3279
330
3275
100
AcDbEntity
  8
MODEL
 62
     0
370
    -2
100
AcDbLine
 10
394.4692415958657
 20
718.692882178668
 30
0.0
 11
404.4680208927412
 21
718.692882178668
 31
0.0
  0
INSERT
  5
327A
330
3275
100
AcDbEntity
  8
MODEL
 62
     0
370
    -2
100
AcDbBlockReference
  2
_DOT
 10
404.4686312443032
 20
718.692882178668
 30
0.0
 41
9.999389648437498
 42
9.999389648437498
 43
9.999389648437498
  0
INSERT
  5
327B
330
3275
100
AcDbEntity
  8
MODEL
 62
     0
370
    -2
100
AcDbBlockReference
  2
_DOT
 10
394.4686312443037
 20
718.692882178668
 30
0.0
 41
9.999389648437498
 42
9.999389648437498
 43
9.999389648437498
 50
180.0
  0
MTEXT
  5
327C
330
3275
100
AcDbEntity
  8
MODEL
 62
     0
100
AcDbMText
 10
399.4686312443034
 20
740.9137736067036
 30
0.0
 40
24.4326171875
 41
0.0
 46
0.0
 71
     5
 72
     1
  1
\A1;10
  7
ＭＳ ゴシック
 73
     1
 44
1.0
  0
POINT
  5
327D
330
3275
100
AcDbEntity
  8
Defpoints
 62
     0
100
AcDbPoint
 10
404.4686312443032
 20
651.5960059905726
 30
0.0
  0
POINT
  5
327E
330
3275
100
AcDbEntity
  8
Defpoints
 62
     0
100
AcDbPoint
 10
394.4686312443037
 20
661.5960059905726
 30
0.0
  0
POINT
  5
327F
330
3275
100
AcDbEntity
  8
Defpoints
 62
     0
100
AcDbPoint
 10
394.4686312443037
 20
718.692882178668
 30
0.0
  0
ENDBLK
  5
3280
330
3275
100
AcDbEntity
  8
0
100
AcDbBlockEnd
  0
BLOCK
  5
3287
330
3286
100
AcDbEntity
  8
0
100
AcDbBlockBegin
  2
*D25
 70
     1
 10
0.0
 20
0.0
 30
0.0
  3
*D25
  1

  0
LINE
  5
3288
330
3286
100
AcDbEntity
  8
MODEL
 62
     0
370
    -2
100
AcDbLine
 10
255.4686312443037
 20
676.4206752899072
 30
0.0
 11
255.4686312443037
 21
718.692882178668
 31
0.0
  0
LINE
  5
3289
330
3286
100
AcDbEntity
  8
MODEL
 62
     0
370
    -2
100
AcDbLine
 10
249.4686312443032
 20
676.4206752899072
 30
0.0
 11
249.4686312443032
 21
718.692882178668
 31
0.0
  0
LINE
  5
328A
330
3286
100
AcDbEntity
  8
MODEL
 62
     0
370
    -2
100
AcDbLine
 10
245.4692415958662
 20
718.692882178668
 30
0.0
 11
259.4680208927407
 21
718.692882178668
 31
0.0
  0
INSERT
  5
328B
330
3286
100
AcDbEntity
  8
MODEL
 62
     0
370
    -2
100
AcDbBlockReference
  2
_DOT
 10
255.4686312443037
 20
718.692882178668
 30
0.0
 41
9.999389648437498
 42
9.999389648437498
 43
9.999389648437498
  0
INSERT
  5
328C
330
3286
100
AcDbEntity
  8
MODEL
 62
     0
370
    -2
100
AcDbBlockReference
  2
_DOT
 10
249.4686312443032
 20
718.692882178668
 30
0.0
 41
9.999389648437498
 42
9.999389648437498
 43
9.999389648437498
 50
180.0
  0
MTEXT
  5
328D
330
3286
100
AcDbEntity
  8
MODEL
 62
     0
100
AcDbMText
 10
252.4686312443034
 20
740.909190772418
 30
0.0
 40
24.4326171875
 41
0.0
 46
0.0
 71
     5
 72
     1
  1
\A1;6
  7
ＭＳ ゴシック
 73
     1
 44
1.0
  0
POINT
  5
328E
330
3286
100
AcDbEntity
  8
Defpoints
 62
     0
100
AcDbPoint
 10
255.4686312443037
 20
651.4206752899072
 30
0.0
  0
POINT
  5
328F
330
3286
100
AcDbEntity
  8
Defpoints
 62
     0
100
AcDbPoint
 10
249.4686312443032
 20
651.4206752899072
 30
0.0
  0
POINT
  5
3290
330
3286
100
AcDbEntity
  8
Defpoints
 62
     0
100
AcDbPoint
 10
249.4686312443032
 20
718.692882178668
 30
0.0
  0
ENDBLK
  5
3291
330
3286
100
AcDbEntity
  8
0
100
AcDbBlockEnd
  0
BLOCK
  5
3296
330
3295
100
AcDbEntity
  8
0
100
AcDbBlockBegin
  2
*D26
 70
     1
 10
0.0
 20
0.0
 30
0.0
  3
*D26
  1

  0
LINE
  5
3297
330
3295
100
AcDbEntity
  8
MODEL
 62
     0
370
    -2
100
AcDbLine
 10
255.4686312443041
 20
426.4206752899076
 30
0.0
 11
255.4686312443041
 21
391.1728870272543
 31
0.0
  0
LINE
  5
3298
330
3295
100
AcDbEntity
  8
MODEL
 62
     0
370
    -2
100
AcDbLine
 10
100.4686312443037
 20
426.5960059905726
 30
0.0
 11
100.4686312443037
 21
391.1728870272543
 31
0.0
  0
LINE
  5
3299
330
3295
100
AcDbEntity
  8
MODEL
 62
     0
370
    -2
100
AcDbLine
 10
245.4692415958666
 20
391.1728870272543
 30
0.0
 11
110.4680208927412
 21
391.1728870272543
 31
0.0
  0
INSERT
  5
329A
330
3295
100
AcDbEntity
  8
MODEL
 62
     0
370
    -2
100
AcDbBlockReference
  2
_DOT
 10
255.4686312443041
 20
391.1728870272543
 30
0.0
 41
9.999389648437498
 42
9.999389648437498
 43
9.999389648437498
  0
INSERT
  5
329B
330
3295
100
AcDbEntity
  8
MODEL
 62
     0
370
    -2
100
AcDbBlockReference
  2
_DOT
 10
100.4686312443037
 20
391.1728870272543
 30
0.0
 41
9.999389648437498
 42
9.999389648437498
 43
9.999389648437498
 50
180.0
  0
MTEXT
  5
329C
330
3295
100
AcDbEntity
  8
MODEL
 62
     0
100
AcDbMText
 10
177.9686312443039
 20
413.3937784552898
 30
0.0
 40
24.4326171875
 41
0.0
 46
0.0
 71
     5
 72
     1
  1
\A1;155
  7
ＭＳ ゴシック
 73
     1
 44
1.0
  0
POINT
  5
329D
330
3295
100
AcDbEntity
  8
Defpoints
 62
     0
100
AcDbPoint
 10
255.4686312443041
 20
451.4206752899076
 30
0.0
  0
POINT
  5
329E
330
3295
100
AcDbEntity
  8
Defpoints
 62
     0
100
AcDbPoint
 10
100.4686312443037
 20
451.5960059905726
 30
0.0
  0
POINT
  5
329F
330
3295
100
AcDbEntity
  8
Defpoints
 62
     0
100
AcDbPoint
 10
100.4686312443037
 20
391.1728870272543
 30
0.0
  0
ENDBLK
  5
32A0
330
3295
100
AcDbEntity
  8
0
100
AcDbBlockEnd
  0
BLOCK
  5
337B
330
337A
100
AcDbEntity
  8
0
100
AcDbBlockBegin
  2
*D27
 70
     1
 10
0.0
 20
0.0
 30
0.0
  3
*D27
  1
*D10
  0
LINE
  5
337C
330
337A
100
AcDbEntity
  8
DIM
 62
     0
370
    -2
100
AcDbLine
 10
478.7027820698986
 20
557.2797391469912
 30
0.0
 11
478.7027820698986
 21
543.7325970844594
 31
0.0
  0
LINE
  5
337D
330
337A
100
AcDbEntity
  8
DIM
 62
     0
370
    -2
100
AcDbLine
 10
542.202783165134
 20
557.2797391469912
 30
0.0
 11
542.202783165134
 21
543.7325970844594
 31
0.0
  0
LINE
  5
337E
330
337A
100
AcDbEntity
  8
DIM
 62
     0
370
    -2
100
AcDbLine
 10
481.7027820698986
 20
543.7325970844594
 30
0.0
 11
539.202783165134
 21
543.7325970844594
 31
0.0
  0
INSERT
  5
337F
330
337A
100
AcDbEntity
  8
DIM
 62
     0
370
    -2
100
AcDbBlockReference
  2
_DOT
 10
478.7027820698986
 20
543.7325970844594
 30
0.0
 41
3.0
 42
3.0
 43
3.0
 50
180.0
  0
INSERT
  5
3380
330
337A
100
AcDbEntity
  8
DIM
 62
     0
370
    -2
100
AcDbBlockReference
  2
_DOT
 10
542.202783165134
 20
543.7325970844594
 30
0.0
 41
3.0
 42
3.0
 43
3.0
  0
MTEXT
  5
3381
330
337A
100
AcDbEntity
  8
DIM
 62
     0
100
AcDbMText
 10
510.4527826175163
 20
559.7325970844594
 30
0.0
 40
12.0
 41
0.0
 46
0.0
 71
     5
 72
     1
  1
\A1;64
  7
ＭＳ ゴシック
 73
     1
 44
1.0
  0
POINT
  5
3382
330
337A
100
AcDbEntity
  8
Defpoints
 62
     0
100
AcDbPoint
 10
478.7027820698986
 20
567.2797391469912
 30
0.0
  0
POINT
  5
3383
330
337A
100
AcDbEntity
  8
Defpoints
 62
     0
100
AcDbPoint
 10
542.202783165134
 20
567.2797391469912
 30
0.0
  0
POINT
  5
3384
330
337A
100
AcDbEntity
  8
Defpoints
 62
     0
100
AcDbPoint
 10
542.202783165134
 20
543.7325970844594
 30
0.0
  0
ENDBLK
  5
3385
330
337A
100
AcDbEntity
  8
0
100
AcDbBlockEnd
  0
BLOCK
  5
338A
330
3389
100
AcDbEntity
  8
0
100
AcDbBlockBegin
  2
*D28
 70
     1
 10
0.0
 20
0.0
 30
0.0
  3
*D28
  1
*D11
  0
LINE
  5
338B
330
3389
100
AcDbEntity
  8
DIM
 62
     0
370
    -2
100
AcDbLine
 10
352.0422941896623
 20
559.2797393332556
 30
0.0
 11
352.0422941896623
 21
543.7325970844593
 31
0.0
  0
LINE
  5
338C
330
3389
100
AcDbEntity
  8
DIM
 62
     0
370
    -2
100
AcDbLine
 10
57.04229418966236
 20
559.2797393332556
 30
0.0
 11
57.04229418966236
 21
543.7325970844593
 31
0.0
  0
LINE
  5
338D
330
3389
100
AcDbEntity
  8
DIM
 62
     0
370
    -2
100
AcDbLine
 10
349.0422941896623
 20
543.7325970844593
 30
0.0
 11
60.04229418966236
 21
543.7325970844593
 31
0.0
  0
INSERT
  5
338E
330
3389
100
AcDbEntity
  8
DIM
 62
     0
370
    -2
100
AcDbBlockReference
  2
_DOT
 10
352.0422941896623
 20
543.7325970844593
 30
0.0
 41
3.0
 42
3.0
 43
3.0
  0
INSERT
  5
338F
330
3389
100
AcDbEntity
  8
DIM
 62
     0
370
    -2
100
AcDbBlockReference
  2
_DOT
 10
57.04229418966236
 20
543.7325970844593
 30
0.0
 41
3.0
 42
3.0
 43
3.0
 50
180.0
  0
MTEXT
  5
3390
330
3389
100
AcDbEntity
  8
DIM
 62
     0
100
AcDbMText
 10
204.5422941896623
 20
559.7348479285258
 30
0.0
 40
12.0
 41
0.0
 46
0.0
 71
     5
 72
     1
  1
\A1;295
  7
ＭＳ ゴシック
 73
     1
 44
1.0
  0
POINT
  5
3391
330
3389
100
AcDbEntity
  8
Defpoints
 62
     0
100
AcDbPoint
 10
352.0422941896623
 20
569.2797393332556
 30
0.0
  0
POINT
  5
3392
330
3389
100
AcDbEntity
  8
Defpoints
 62
     0
100
AcDbPoint
 10
57.04229418966236
 20
569.2797393332556
 30
0.0
  0
POINT
  5
3393
330
3389
100
AcDbEntity
  8
Defpoints
 62
     0
100
AcDbPoint
 10
57.04229418966236
 20
543.7325970844593
 30
0.0
  0
ENDBLK
  5
3394
330
3389
100
AcDbEntity
  8
0
100
AcDbBlockEnd
  0
BLOCK
  5
3399
330
3398
100
AcDbEntity
  8
0
100
AcDbBlockBegin
  2
*D29
 70
     1
 10
0.0
 20
0.0
 30
0.0
  3
*D29
  1
*D12
  0
LINE
  5
339A
330
3398
100
AcDbEntity
  8
DIM
 62
     0
370
    -2
100
AcDbLine
 10
468.7027820698986
 20
592.2797395195205
 30
0.0
 11
411.1179012829069
 21
592.2797395195205
 31
0.0
  0
LINE
  5
339B
330
3398
100
AcDbEntity
  8
DIM
 62
     0
370
    -2
100
AcDbLine
 10
468.7027820698986
 20
567.2797391469912
 30
0.0
 11
411.1179012829069
 21
567.2797391469912
 31
0.0
  0
LINE
  5
339C
330
3398
100
AcDbEntity
  8
DIM
 62
     0
370
    -2
100
AcDbLine
 10
411.1179012829069
 20
589.2797395195205
 30
0.0
 11
411.1179012829069
 21
570.2797391469912
 31
0.0
  0
INSERT
  5
339D
330
3398
100
AcDbEntity
  8
DIM
 62
     0
370
    -2
100
AcDbBlockReference
  2
_DOT
 10
411.1179012829069
 20
592.2797395195205
 30
0.0
 41
3.0
 42
3.0
 43
3.0
 50
90.0
  0
INSERT
  5
339E
330
3398
100
AcDbEntity
  8
DIM
 62
     0
370
    -2
100
AcDbBlockReference
  2
_DOT
 10
411.1179012829069
 20
567.2797391469912
 30
0.0
 41
3.0
 42
3.0
 43
3.0
 50
270.0
  0
MTEXT
  5
339F
330
3398
100
AcDbEntity
  8
DIM
 62
     0
100
AcDbMText
 10
395.1156504388403
 20
579.7797393332556
 30
0.0
 40
12.0
 41
0.0
 46
0.0
 71
     5
 72
     1
  1
\A1;25
  7
ＭＳ ゴシック
 11
0.0
 21
1.0
 31
0.0
 73
     1
 44
1.0
  0
POINT
  5
33A0
330
3398
100
AcDbEntity
  8
Defpoints
 62
     0
100
AcDbPoint
 10
478.7027820698986
 20
592.2797395195205
 30
0.0
  0
POINT
  5
33A1
330
3398
100
AcDbEntity
  8
Defpoints
 62
     0
100
AcDbPoint
 10
478.7027820698986
 20
567.2797391469912
 30
0.0
  0
POINT
  5
33A2
330
3398
100
AcDbEntity
  8
Defpoints
 62
     0
100
AcDbPoint
 10
411.1179012829069
 20
567.2797391469912
 30
0.0
  0
ENDBLK
  5
33A3
330
3398
100
AcDbEntity
  8
0
100
AcDbBlockEnd
  0
BLOCK
  5
33A8
330
33A7
100
AcDbEntity
  8
0
100
AcDbBlockBegin
  2
*D30
 70
     1
 10
0.0
 20
0.0
 30
0.0
  3
*D30
  1
*D13
  0
LINE
  5
33A9
330
33A7
100
AcDbEntity
  8
DIM
 62
     0
370
    -2
100
AcDbLine
 10
329.5422941896623
 20
374.7769023987335
 30
0.0
 11
329.5422941896623
 21
423.6490358977292
 31
0.0
  0
LINE
  5
33AA
330
33A7
100
AcDbEntity
  8
DIM
 62
     0
370
    -2
100
AcDbLine
 10
79.54229418966239
 20
374.7769023987335
 30
0.0
 11
79.54229418966239
 21
423.6490358977292
 31
0.0
  0
LINE
  5
33AB
330
33A7
100
AcDbEntity
  8
DIM
 62
     0
370
    -2
100
AcDbLine
 10
326.5422941896623
 20
423.6490358977292
 30
0.0
 11
82.54229418966239
 21
423.6490358977292
 31
0.0
  0
INSERT
  5
33AC
330
33A7
100
AcDbEntity
  8
DIM
 62
     0
370
    -2
100
AcDbBlockReference
  2
_DOT
 10
329.5422941896623
 20
423.6490358977292
 30
0.0
 41
3.0
 42
3.0
 43
3.0
  0
INSERT
  5
33AD
330
33A7
100
AcDbEntity
  8
DIM
 62
     0
370
    -2
100
AcDbBlockReference
  2
_DOT
 10
79.54229418966239
 20
423.6490358977292
 30
0.0
 41
3.0
 42
3.0
 43
3.0
 50
180.0
  0
MTEXT
  5
33AE
330
33A7
100
AcDbEntity
  8
DIM
 62
     0
100
AcDbMText
 10
204.5422941896623
 20
439.6512867417957
 30
0.0
 40
12.0
 41
0.0
 46
0.0
 71
     5
 72
     1
  1
\A1;250
  7
ＭＳ ゴシック
 73
     1
 44
1.0
  0
POINT
  5
33AF
330
33A7
100
AcDbEntity
  8
Defpoints
 62
     0
100
AcDbPoint
 10
329.5422941896623
 20
364.7769023987335
 30
0.0
  0
POINT
  5
33B0
330
33A7
100
AcDbEntity
  8
Defpoints
 62
     0
100
AcDbPoint
 10
79.54229418966239
 20
364.7769023987335
 30
0.0
  0
POINT
  5
33B1
330
33A7
100
AcDbEntity
  8
Defpoints
 62
     0
100
AcDbPoint
 10
79.54229418966239
 20
423.6490358977292
 30
0.0
  0
ENDBLK
  5
33B2
330
33A7
100
AcDbEntity
  8
0
100
AcDbBlockEnd
  0
BLOCK
  5
33B9
330
33B8
100
AcDbEntity
  8
0
100
AcDbBlockBegin
  2
*D31
 70
     1
 10
0.0
 20
0.0
 30
0.0
  3
*D31
  1

  0
LINE
  5
33BA
330
33B8
100
AcDbEntity
  8
DIM
 62
     0
370
    -2
100
AcDbLine
 10
46.88797933207438
 20
360.7769034418146
 30
0.0
 11
36.80301136233147
 21
360.7769034418146
 31
0.0
  0
LINE
  5
33BB
330
33B8
100
AcDbEntity
  8
DIM
 62
     0
370
    -2
100
AcDbLine
 10
52.70838898090351
 20
407.7769034418146
 30
0.0
 11
36.80301136233147
 21
407.7769034418146
 31
0.0
  0
LINE
  5
33BC
330
33B8
100
AcDbEntity
  8
DIM
 62
     0
370
    -2
100
AcDbLine
 10
36.80301136233147
 20
363.7769034418146
 30
0.0
 11
36.80301136233147
 21
404.7769034418146
 31
0.0
  0
INSERT
  5
33BD
330
33B8
100
AcDbEntity
  8
DIM
 62
     0
370
    -2
100
AcDbBlockReference
  2
_DOT
 10
36.80301136233147
 20
360.7769034418146
 30
0.0
 41
3.0
 42
3.0
 43
3.0
 50
270.0
  0
INSERT
  5
33BE
330
33B8
100
AcDbEntity
  8
DIM
 62
     0
370
    -2
100
AcDbBlockReference
  2
_DOT
 10
36.80301136233147
 20
407.7769034418146
 30
0.0
 41
3.0
 42
3.0
 43
3.0
 50
90.0
  0
MTEXT
  5
33BF
330
33B8
100
AcDbEntity
  8
DIM
 62
     0
100
AcDbMText
 10
20.80076051826497
 20
384.2769034418146
 30
0.0
 40
12.0
 41
0.0
 46
0.0
 71
     5
 72
     1
  1
\A1;47
  7
ＭＳ ゴシック
 11
0.0
 21
1.0
 31
0.0
 73
     1
 44
1.0
  0
POINT
  5
33C0
330
33B8
100
AcDbEntity
  8
Defpoints
 62
     0
100
AcDbPoint
 10
56.88797933207438
 20
360.7769034418146
 30
0.0
  0
POINT
  5
33C1
330
33B8
100
AcDbEntity
  8
Defpoints
 62
     0
100
AcDbPoint
 10
62.70838898090351
 20
407.7769034418146
 30
0.0
  0
POINT
  5
33C2
330
33B8
100
AcDbEntity
  8
Defpoints
 62
     0
100
AcDbPoint
 10
36.80301136233147
 20
407.7769034418146
 30
0.0
  0
ENDBLK
  5
33C3
330
33B8
100
AcDbEntity
  8
0
100
AcDbBlockEnd
  0
BLOCK
  5
33C6
330
33C5
100
AcDbEntity
  8
0
100
AcDbBlockBegin
  2
*D32
 70
     1
 10
0.0
 20
0.0
 30
0.0
  3
*D32
  1

  0
LINE
  5
33C7
330
33C5
100
AcDbEntity
  8
DIM
 62
     0
370
    -2
100
AcDbLine
 10
57.04230074617327
 20
374.3617515882332
 30
0.0
 11
57.04230074617327
 21
431.9799075852275
 31
0.0
  0
LINE
  5
33C8
330
33C5
100
AcDbEntity
  8
DIM
 62
     0
370
    -2
100
AcDbLine
 10
69.04230074617328
 20
422.1788163409922
 30
0.0
 11
69.04230074617328
 21
431.9799075852275
 31
0.0
  0
LINE
  5
33C9
330
33C5
100
AcDbEntity
  8
DIM
 62
     0
370
    -2
100
AcDbLine
 10
60.04230074617327
 20
431.9799075852275
 30
0.0
 11
66.04230074617328
 21
431.9799075852275
 31
0.0
  0
INSERT
  5
33CA
330
33C5
100
AcDbEntity
  8
DIM
 62
     0
370
    -2
100
AcDbBlockReference
  2
_DOT
 10
57.04230074617327
 20
431.9799075852275
 30
0.0
 41
3.0
 42
3.0
 43
3.0
 50
180.0
  0
INSERT
  5
33CB
330
33C5
100
AcDbEntity
  8
DIM
 62
     0
370
    -2
100
AcDbBlockReference
  2
_DOT
 10
69.04230074617328
 20
431.9799075852275
 30
0.0
 41
3.0
 42
3.0
 43
3.0
  0
MTEXT
  5
33CC
330
33C5
100
AcDbEntity
  8
DIM
 62
     0
100
AcDbMText
 10
63.04230074617328
 20
447.982158429294
 30
0.0
 40
12.0
 41
0.0
 46
0.0
 71
     5
 72
     1
  1
\A1;12
  7
ＭＳ ゴシック
 73
     1
 44
1.0
  0
POINT
  5
33CD
330
33C5
100
AcDbEntity
  8
Defpoints
 62
     0
100
AcDbPoint
 10
57.04230074617327
 20
364.3617515882332
 30
0.0
  0
POINT
  5
33CE
330
33C5
100
AcDbEntity
  8
Defpoints
 62
     0
100
AcDbPoint
 10
69.04230074617328
 20
412.1788163409922
 30
0.0
  0
POINT
  5
33CF
330
33C5
100
AcDbEntity
  8
Defpoints
 62
     0
100
AcDbPoint
 10
69.04230074617328
 20
431.9799075852275
 30
0.0
  0
ENDBLK
  5
33D0
330
33C5
100
AcDbEntity
  8
0
100
AcDbBlockEnd
  0
BLOCK
  5
33D5
330
33D4
100
AcDbEntity
  8
0
100
AcDbBlockBegin
  2
*D33
 70
     1
 10
0.0
 20
0.0
 30
0.0
  3
*D33
  1

  0
LINE
  5
33D6
330
33D4
100
AcDbEntity
  8
DIM
 62
     0
370
    -2
100
AcDbLine
 10
69.04230074617328
 20
422.1788163409922
 30
0.0
 11
69.04230074617328
 21
431.9799075852275
 31
0.0
  0
LINE
  5
33D7
330
33D4
100
AcDbEntity
  8
DIM
 62
     0
370
    -2
100
AcDbLine
 10
90.04230074617328
 20
422.1788163409922
 30
0.0
 11
90.04230074617328
 21
431.9799075852275
 31
0.0
  0
LINE
  5
33D8
330
33D4
100
AcDbEntity
  8
DIM
 62
     0
370
    -2
100
AcDbLine
 10
66.04230074617328
 20
431.9799075852275
 30
0.0
 11
63.04230074617328
 21
431.9799075852275
 31
0.0
  0
LINE
  5
33D9
330
33D4
100
AcDbEntity
  8
DIM
 62
     0
370
    -2
100
AcDbLine
 10
93.04230074617328
 20
431.9799075852275
 30
0.0
 11
96.04230074617328
 21
431.9799075852275
 31
0.0
  0
INSERT
  5
33DA
330
33D4
100
AcDbEntity
  8
DIM
 62
     0
370
    -2
100
AcDbBlockReference
  2
_DOT
 10
69.04230074617328
 20
431.9799075852275
 30
0.0
 41
3.0
 42
3.0
 43
3.0
  0
INSERT
  5
33DB
330
33D4
100
AcDbEntity
  8
DIM
 62
     0
370
    -2
100
AcDbBlockReference
  2
_DOT
 10
90.04230074617328
 20
431.9799075852275
 30
0.0
 41
3.0
 42
3.0
 43
3.0
 50
180.0
  0
MTEXT
  5
33DC
330
33D4
100
AcDbEntity
  8
DIM
 62
     0
100
AcDbMText
 10
79.54230074617328
 20
447.982158429294
 30
0.0
 40
12.0
 41
0.0
 46
0.0
 71
     5
 72
     1
  1
\A1;21
  7
ＭＳ ゴシック
 73
     1
 44
1.0
  0
POINT
  5
33DD
330
33D4
100
AcDbEntity
  8
Defpoints
 62
     0
100
AcDbPoint
 10
69.04230074617328
 20
412.1788163409922
 30
0.0
  0
POINT
  5
33DE
330
33D4
100
AcDbEntity
  8
Defpoints
 62
     0
100
AcDbPoint
 10
90.04230074617328
 20
412.1788163409922
 30
0.0
  0
POINT
  5
352B
330
33D4
100
AcDbEntity
  8
Defpoints
 62
     0
100
AcDbPoint
 10
90.04230074617328
 20
431.9799075852275
 30
0.0
  0
ENDBLK
  5
33DF
330
33D4
100
AcDbEntity
  8
0
100
AcDbBlockEnd
  0
BLOCK
  5
33E2
330
33E1
100
AcDbEntity
  8
0
100
AcDbBlockBegin
  2
*D34
 70
     1
 10
0.0
 20
0.0
 30
0.0
  3
*D34
  1

  0
LINE
  5
33E3
330
33E1
100
AcDbEntity
  8
DIM
 62
     0
370
    -2
100
AcDbLine
 10
468.7027820698986
 20
592.2797395195205
 30
0.0
 11
427.579780330526
 21
592.2797395195205
 31
0.0
  0
LINE
  5
33E4
330
33E1
100
AcDbEntity
  8
DIM
 62
     0
370
    -2
100
AcDbLine
 10
468.7027820698986
 20
579.7797395195205
 30
0.0
 11
427.579780330526
 21
579.7797395195205
 31
0.0
  0
LINE
  5
33E5
330
33E1
100
AcDbEntity
  8
DIM
 62
     0
370
    -2
100
AcDbLine
 10
427.579780330526
 20
592.2797395195205
 30
0.0
 11
427.579780330526
 21
647.0425255642874
 31
0.0
  0
LINE
  5
33E6
330
33E1
100
AcDbEntity
  8
DIM
 62
     0
370
    -2
100
AcDbLine
 10
427.579780330526
 20
589.2797395195205
 30
0.0
 11
427.579780330526
 21
582.7797395195205
 31
0.0
  0
LINE
  5
33E7
330
33E1
100
AcDbEntity
  8
DIM
 62
     0
370
    -2
100
AcDbLine
 10
427.579780330526
 20
589.2797395195205
 30
0.0
 11
427.579780330526
 21
586.2797395195205
 31
0.0
  0
INSERT
  5
33E8
330
33E1
100
AcDbEntity
  8
DIM
 62
     0
370
    -2
100
AcDbBlockReference
  2
_DOT
 10
427.579780330526
 20
592.2797395195205
 30
0.0
 41
3.0
 42
3.0
 43
3.0
 50
90.0
  0
INSERT
  5
33E9
330
33E1
100
AcDbEntity
  8
DIM
 62
     0
370
    -2
100
AcDbBlockReference
  2
_DOT
 10
427.579780330526
 20
579.7797395195205
 30
0.0
 41
3.0
 42
3.0
 43
3.0
 50
270.0
  0
MTEXT
  5
33EA
330
33E1
100
AcDbEntity
  8
DIM
 62
     0
100
AcDbMText
 10
411.5775294864594
 20
622.661132541904
 30
0.0
 40
12.0
 41
0.0
 46
0.0
 71
     5
 72
     1
  1
\A1;12.5
  7
ＭＳ ゴシック
 11
0.0
 21
1.0
 31
0.0
 73
     1
 44
1.0
  0
POINT
  5
33EB
330
33E1
100
AcDbEntity
  8
Defpoints
 62
     0
100
AcDbPoint
 10
478.7027820698986
 20
592.2797395195205
 30
0.0
  0
POINT
  5
33EC
330
33E1
100
AcDbEntity
  8
Defpoints
 62
     0
100
AcDbPoint
 10
478.7027820698986
 20
579.7797395195205
 30
0.0
  0
POINT
  5
33ED
330
33E1
100
AcDbEntity
  8
Defpoints
 62
     0
100
AcDbPoint
 10
427.579780330526
 20
579.7797395195205
 30
0.0
  0
ENDBLK
  5
33EE
330
33E1
100
AcDbEntity
  8
0
100
AcDbBlockEnd
  0
BLOCK
  5
36D9
330
36D8
100
AcDbEntity
  8
0
100
AcDbBlockBegin
  2
*D35
 70
     1
 10
0.0
 20
0.0
 30
0.0
  3
*D35
  1

  0
LINE
  5
36DB
330
36D8
100
AcDbEntity
  8
DIM
 62
     0
370
    -2
100
AcDbLine
 10
1664.88135349847
 20
691.4504752985948
 30
0.0
 11
1664.88135349847
 21
677.903333236063
 31
0.0
  0
LINE
  5
36DC
330
36D8
100
AcDbEntity
  8
DIM
 62
     0
370
    -2
100
AcDbLine
 10
1728.381354593706
 20
691.4504752985948
 30
0.0
 11
1728.381354593706
 21
677.903333236063
 31
0.0
  0
LINE
  5
36DD
330
36D8
100
AcDbEntity
  8
DIM
 62
     0
370
    -2
100
AcDbLine
 10
1667.88135349847
 20
677.903333236063
 30
0.0
 11
1725.381354593706
 21
677.903333236063
 31
0.0
  0
INSERT
  5
36DE
330
36D8
100
AcDbEntity
  8
DIM
 62
     0
370
    -2
100
AcDbBlockReference
  2
_DOT
 10
1664.88135349847
 20
677.903333236063
 30
0.0
 41
3.0
 42
3.0
 43
3.0
 50
180.0
  0
INSERT
  5
36DF
330
36D8
100
AcDbEntity
  8
DIM
 62
     0
370
    -2
100
AcDbBlockReference
  2
_DOT
 10
1728.381354593706
 20
677.903333236063
 30
0.0
 41
3.0
 42
3.0
 43
3.0
  0
MTEXT
  5
36E0
330
36D8
100
AcDbEntity
  8
DIM
 62
     0
100
AcDbMText
 10
1696.631354046088
 20
693.903333236063
 30
0.0
 40
12.0
 41
0.0
 46
0.0
 71
     5
 72
     1
  1
\A1;64
  7
ＭＳ ゴシック
 73
     1
 44
1.0
  0
POINT
  5
36E1
330
36D8
100
AcDbEntity
  8
Defpoints
 62
     0
100
AcDbPoint
 10
1664.88135349847
 20
701.4504752985948
 30
0.0
  0
POINT
  5
36E2
330
36D8
100
AcDbEntity
  8
Defpoints
 62
     0
100
AcDbPoint
 10
1728.381354593706
 20
701.4504752985948
 30
0.0
  0
POINT
  5
36E3
330
36D8
100
AcDbEntity
  8
Defpoints
 62
     0
100
AcDbPoint
 10
1728.381354593706
 20
677.903333236063
 30
0.0
  0
ENDBLK
  5
36DA
330
36D8
100
AcDbEntity
  8
0
100
AcDbBlockEnd
  0
BLOCK
  5
36E5
330
36E4
100
AcDbEntity
  8
0
100
AcDbBlockBegin
  2
*D36
 70
     1
 10
0.0
 20
0.0
 30
0.0
  3
*D36
  1

  0
LINE
  5
36E7
330
36E4
100
AcDbEntity
  8
DIM
 62
     0
370
    -2
100
AcDbLine
 10
1538.220865618234
 20
693.4504754848592
 30
0.0
 11
1538.220865618234
 21
677.9033332360628
 31
0.0
  0
LINE
  5
36E8
330
36E4
100
AcDbEntity
  8
DIM
 62
     0
370
    -2
100
AcDbLine
 10
1243.220865618234
 20
693.4504754848592
 30
0.0
 11
1243.220865618234
 21
677.9033332360628
 31
0.0
  0
LINE
  5
36E9
330
36E4
100
AcDbEntity
  8
DIM
 62
     0
370
    -2
100
AcDbLine
 10
1535.220865618234
 20
677.9033332360628
 30
0.0
 11
1246.220865618234
 21
677.9033332360628
 31
0.0
  0
INSERT
  5
36EA
330
36E4
100
AcDbEntity
  8
DIM
 62
     0
370
    -2
100
AcDbBlockReference
  2
_DOT
 10
1538.220865618234
 20
677.9033332360628
 30
0.0
 41
3.0
 42
3.0
 43
3.0
  0
INSERT
  5
36EB
330
36E4
100
AcDbEntity
  8
DIM
 62
     0
370
    -2
100
AcDbBlockReference
  2
_DOT
 10
1243.220865618234
 20
677.9033332360628
 30
0.0
 41
3.0
 42
3.0
 43
3.0
 50
180.0
  0
MTEXT
  5
36EC
330
36E4
100
AcDbEntity
  8
DIM
 62
     0
100
AcDbMText
 10
1390.720865618234
 20
693.9055840801294
 30
0.0
 40
12.0
 41
0.0
 46
0.0
 71
     5
 72
     1
  1
\A1;295
  7
ＭＳ ゴシック
 73
     1
 44
1.0
  0
POINT
  5
36ED
330
36E4
100
AcDbEntity
  8
Defpoints
 62
     0
100
AcDbPoint
 10
1538.220865618234
 20
703.4504754848592
 30
0.0
  0
POINT
  5
36EE
330
36E4
100
AcDbEntity
  8
Defpoints
 62
     0
100
AcDbPoint
 10
1243.220865618234
 20
703.4504754848592
 30
0.0
  0
POINT
  5
36EF
330
36E4
100
AcDbEntity
  8
Defpoints
 62
     0
100
AcDbPoint
 10
1243.220865618234
 20
677.9033332360628
 30
0.0
  0
ENDBLK
  5
36E6
330
36E4
100
AcDbEntity
  8
0
100
AcDbBlockEnd
  0
BLOCK
  5
36F1
330
36F0
100
AcDbEntity
  8
0
100
AcDbBlockBegin
  2
*D37
 70
     1
 10
0.0
 20
0.0
 30
0.0
  3
*D37
  1

  0
LINE
  5
36F3
330
36F0
100
AcDbEntity
  8
DIM
 62
     0
370
    -2
100
AcDbLine
 10
1654.88135349847
 20
726.4504756711241
 30
0.0
 11
1597.296472711478
 21
726.4504756711241
 31
0.0
  0
LINE
  5
36F4
330
36F0
100
AcDbEntity
  8
DIM
 62
     0
370
    -2
100
AcDbLine
 10
1654.88135349847
 20
701.4504752985948
 30
0.0
 11
1597.296472711478
 21
701.4504752985948
 31
0.0
  0
LINE
  5
36F5
330
36F0
100
AcDbEntity
  8
DIM
 62
     0
370
    -2
100
AcDbLine
 10
1597.296472711478
 20
723.4504756711241
 30
0.0
 11
1597.296472711478
 21
704.4504752985948
 31
0.0
  0
INSERT
  5
36F6
330
36F0
100
AcDbEntity
  8
DIM
 62
     0
370
    -2
100
AcDbBlockReference
  2
_DOT
 10
1597.296472711478
 20
726.4504756711241
 30
0.0
 41
3.0
 42
3.0
 43
3.0
 50
90.0
  0
INSERT
  5
36F7
330
36F0
100
AcDbEntity
  8
DIM
 62
     0
370
    -2
100
AcDbBlockReference
  2
_DOT
 10
1597.296472711478
 20
701.4504752985948
 30
0.0
 41
3.0
 42
3.0
 43
3.0
 50
270.0
  0
MTEXT
  5
36F8
330
36F0
100
AcDbEntity
  8
DIM
 62
     0
100
AcDbMText
 10
1581.294221867412
 20
713.9504754848592
 30
0.0
 40
12.0
 41
0.0
 46
0.0
 71
     5
 72
     1
  1
\A1;25
  7
ＭＳ ゴシック
 11
0.0
 21
1.0
 31
0.0
 73
     1
 44
1.0
  0
POINT
  5
36F9
330
36F0
100
AcDbEntity
  8
Defpoints
 62
     0
100
AcDbPoint
 10
1664.88135349847
 20
726.4504756711241
 30
0.0
  0
POINT
  5
36FA
330
36F0
100
AcDbEntity
  8
Defpoints
 62
     0
100
AcDbPoint
 10
1664.88135349847
 20
701.4504752985948
 30
0.0
  0
POINT
  5
36FB
330
36F0
100
AcDbEntity
  8
Defpoints
 62
     0
100
AcDbPoint
 10
1597.296472711478
 20
701.4504752985948
 30
0.0
  0
ENDBLK
  5
36F2
330
36F0
100
AcDbEntity
  8
0
100
AcDbBlockEnd
  0
BLOCK
  5
36FD
330
36FC
100
AcDbEntity
  8
0
100
AcDbBlockBegin
  2
*D38
 70
     1
 10
0.0
 20
0.0
 30
0.0
  3
*D38
  1

  0
LINE
  5
36FF
330
36FC
100
AcDbEntity
  8
DIM
 62
     0
370
    -2
100
AcDbLine
 10
1515.720865618234
 20
508.947638550337
 30
0.0
 11
1515.720865618234
 21
557.8197720493329
 31
0.0
  0
LINE
  5
3700
330
36FC
100
AcDbEntity
  8
DIM
 62
     0
370
    -2
100
AcDbLine
 10
1265.720865618234
 20
508.947638550337
 30
0.0
 11
1265.720865618234
 21
557.8197720493329
 31
0.0
  0
LINE
  5
3701
330
36FC
100
AcDbEntity
  8
DIM
 62
     0
370
    -2
100
AcDbLine
 10
1512.720865618234
 20
557.8197720493329
 30
0.0
 11
1268.720865618234
 21
557.8197720493329
 31
0.0
  0
INSERT
  5
3702
330
36FC
100
AcDbEntity
  8
DIM
 62
     0
370
    -2
100
AcDbBlockReference
  2
_DOT
 10
1515.720865618234
 20
557.8197720493329
 30
0.0
 41
3.0
 42
3.0
 43
3.0
  0
INSERT
  5
3703
330
36FC
100
AcDbEntity
  8
DIM
 62
     0
370
    -2
100
AcDbBlockReference
  2
_DOT
 10
1265.720865618234
 20
557.8197720493329
 30
0.0
 41
3.0
 42
3.0
 43
3.0
 50
180.0
  0
MTEXT
  5
3704
330
36FC
100
AcDbEntity
  8
DIM
 62
     0
100
AcDbMText
 10
1390.720865618234
 20
573.8220228933994
 30
0.0
 40
12.0
 41
0.0
 46
0.0
 71
     5
 72
     1
  1
\A1;250
  7
ＭＳ ゴシック
 73
     1
 44
1.0
  0
POINT
  5
3705
330
36FC
100
AcDbEntity
  8
Defpoints
 62
     0
100
AcDbPoint
 10
1515.720865618234
 20
498.947638550337
 30
0.0
  0
POINT
  5
3706
330
36FC
100
AcDbEntity
  8
Defpoints
 62
     0
100
AcDbPoint
 10
1265.720865618234
 20
498.947638550337
 30
0.0
  0
POINT
  5
3707
330
36FC
100
AcDbEntity
  8
Defpoints
 62
     0
100
AcDbPoint
 10
1265.720865618234
 20
557.8197720493329
 30
0.0
  0
ENDBLK
  5
36FE
330
36FC
100
AcDbEntity
  8
0
100
AcDbBlockEnd
  0
BLOCK
  5
3709
330
3708
100
AcDbEntity
  8
0
100
AcDbBlockBegin
  2
*D39
 70
     1
 10
0.0
 20
0.0
 30
0.0
  3
*D39
  1

  0
LINE
  5
370B
330
3708
100
AcDbEntity
  8
DIM
 62
     0
370
    -2
100
AcDbLine
 10
1233.066550760646
 20
494.9476395934182
 30
0.0
 11
1222.981582790903
 21
494.9476395934182
 31
0.0
  0
LINE
  5
370C
330
3708
100
AcDbEntity
  8
DIM
 62
     0
370
    -2
100
AcDbLine
 10
1238.886960409475
 20
541.9476395934182
 30
0.0
 11
1222.981582790903
 21
541.9476395934182
 31
0.0
  0
LINE
  5
370D
330
3708
100
AcDbEntity
  8
DIM
 62
     0
370
    -2
100
AcDbLine
 10
1222.981582790903
 20
497.9476395934182
 30
0.0
 11
1222.981582790903
 21
538.9476395934182
 31
0.0
  0
INSERT
  5
370E
330
3708
100
AcDbEntity
  8
DIM
 62
     0
370
    -2
100
AcDbBlockReference
  2
_DOT
 10
1222.981582790903
 20
494.9476395934182
 30
0.0
 41
3.0
 42
3.0
 43
3.0
 50
270.0
  0
INSERT
  5
370F
330
3708
100
AcDbEntity
  8
DIM
 62
     0
370
    -2
100
AcDbBlockReference
  2
_DOT
 10
1222.981582790903
 20
541.9476395934182
 30
0.0
 41
3.0
 42
3.0
 43
3.0
 50
90.0
  0
MTEXT
  5
3710
330
3708
100
AcDbEntity
  8
DIM
 62
     0
100
AcDbMText
 10
1206.979331946837
 20
518.4476395934182
 30
0.0
 40
12.0
 41
0.0
 46
0.0
 71
     5
 72
     1
  1
\A1;47
  7
ＭＳ ゴシック
 11
0.0
 21
1.0
 31
0.0
 73
     1
 44
1.0
  0
POINT
  5
3711
330
3708
100
AcDbEntity
  8
Defpoints
 62
     0
100
AcDbPoint
 10
1243.066550760646
 20
494.9476395934182
 30
0.0
  0
POINT
  5
3712
330
3708
100
AcDbEntity
  8
Defpoints
 62
     0
100
AcDbPoint
 10
1248.886960409475
 20
541.9476395934182
 30
0.0
  0
POINT
  5
3713
330
3708
100
AcDbEntity
  8
Defpoints
 62
     0
100
AcDbPoint
 10
1222.981582790903
 20
541.9476395934182
 30
0.0
  0
ENDBLK
  5
370A
330
3708
100
AcDbEntity
  8
0
100
AcDbBlockEnd
  0
BLOCK
  5
3715
330
3714
100
AcDbEntity
  8
0
100
AcDbBlockBegin
  2
*D40
 70
     1
 10
0.0
 20
0.0
 30
0.0
  3
*D40
  1

  0
LINE
  5
3717
330
3714
100
AcDbEntity
  8
DIM
 62
     0
370
    -2
100
AcDbLine
 10
1243.220872174745
 20
508.5324877398368
 30
0.0
 11
1243.220872174745
 21
566.1506437368311
 31
0.0
  0
LINE
  5
3718
330
3714
100
AcDbEntity
  8
DIM
 62
     0
370
    -2
100
AcDbLine
 10
1255.220872174745
 20
556.3495524925958
 30
0.0
 11
1255.220872174745
 21
566.1506437368311
 31
0.0
  0
LINE
  5
3719
330
3714
100
AcDbEntity
  8
DIM
 62
     0
370
    -2
100
AcDbLine
 10
1246.220872174745
 20
566.1506437368311
 30
0.0
 11
1252.220872174745
 21
566.1506437368311
 31
0.0
  0
INSERT
  5
371A
330
3714
100
AcDbEntity
  8
DIM
 62
     0
370
    -2
100
AcDbBlockReference
  2
_DOT
 10
1243.220872174745
 20
566.1506437368311
 30
0.0
 41
3.0
 42
3.0
 43
3.0
 50
180.0
  0
INSERT
  5
371B
330
3714
100
AcDbEntity
  8
DIM
 62
     0
370
    -2
100
AcDbBlockReference
  2
_DOT
 10
1255.220872174745
 20
566.1506437368311
 30
0.0
 41
3.0
 42
3.0
 43
3.0
  0
MTEXT
  5
371C
330
3714
100
AcDbEntity
  8
DIM
 62
     0
100
AcDbMText
 10
1249.220872174745
 20
582.1528945808976
 30
0.0
 40
12.0
 41
0.0
 46
0.0
 71
     5
 72
     1
  1
\A1;12
  7
ＭＳ ゴシック
 73
     1
 44
1.0
  0
POINT
  5
371D
330
3714
100
AcDbEntity
  8
Defpoints
 62
     0
100
AcDbPoint
 10
1243.220872174745
 20
498.5324877398368
 30
0.0
  0
POINT
  5
371E
330
3714
100
AcDbEntity
  8
Defpoints
 62
     0
100
AcDbPoint
 10
1255.220872174745
 20
546.3495524925958
 30
0.0
  0
POINT
  5
371F
330
3714
100
AcDbEntity
  8
Defpoints
 62
     0
100
AcDbPoint
 10
1255.220872174745
 20
566.1506437368311
 30
0.0
  0
ENDBLK
  5
3716
330
3714
100
AcDbEntity
  8
0
100
AcDbBlockEnd
  0
BLOCK
  5
3721
330
3720
100
AcDbEntity
  8
0
100
AcDbBlockBegin
  2
*D41
 70
     1
 10
0.0
 20
0.0
 30
0.0
  3
*D41
  1

  0
LINE
  5
3723
330
3720
100
AcDbEntity
  8
DIM
 62
     0
370
    -2
100
AcDbLine
 10
1255.220872174745
 20
556.3495524925958
 30
0.0
 11
1255.220872174745
 21
566.1506437368311
 31
0.0
  0
LINE
  5
3724
330
3720
100
AcDbEntity
  8
DIM
 62
     0
370
    -2
100
AcDbLine
 10
1276.220872174745
 20
556.3495524925958
 30
0.0
 11
1276.220872174745
 21
566.1506437368311
 31
0.0
  0
LINE
  5
3725
330
3720
100
AcDbEntity
  8
DIM
 62
     0
370
    -2
100
AcDbLine
 10
1252.220872174745
 20
566.1506437368311
 30
0.0
 11
1249.220872174745
 21
566.1506437368311
 31
0.0
  0
LINE
  5
3726
330
3720
100
AcDbEntity
  8
DIM
 62
     0
370
    -2
100
AcDbLine
 10
1279.220872174745
 20
566.1506437368311
 30
0.0
 11
1282.220872174745
 21
566.1506437368311
 31
0.0
  0
INSERT
  5
3727
330
3720
100
AcDbEntity
  8
DIM
 62
     0
370
    -2
100
AcDbBlockReference
  2
_DOT
 10
1255.220872174745
 20
566.1506437368311
 30
0.0
 41
3.0
 42
3.0
 43
3.0
  0
INSERT
  5
3728
330
3720
100
AcDbEntity
  8
DIM
 62
     0
370
    -2
100
AcDbBlockReference
  2
_DOT
 10
1276.220872174745
 20
566.1506437368311
 30
0.0
 41
3.0
 42
3.0
 43
3.0
 50
180.0
  0
MTEXT
  5
3729
330
3720
100
AcDbEntity
  8
DIM
 62
     0
100
AcDbMText
 10
1265.720872174745
 20
582.1528945808976
 30
0.0
 40
12.0
 41
0.0
 46
0.0
 71
     5
 72
     1
  1
\A1;21
  7
ＭＳ ゴシック
 73
     1
 44
1.0
  0
POINT
  5
372A
330
3720
100
AcDbEntity
  8
Defpoints
 62
     0
100
AcDbPoint
 10
1255.220872174745
 20
546.3495524925958
 30
0.0
  0
POINT
  5
372B
330
3720
100
AcDbEntity
  8
Defpoints
 62
     0
100
AcDbPoint
 10
1276.220872174745
 20
546.3495524925958
 30
0.0
  0
POINT
  5
372C
330
3720
100
AcDbEntity
  8
Defpoints
 62
     0
100
AcDbPoint
 10
1276.220872174745
 20
566.1506437368311
 30
0.0
  0
ENDBLK
  5
3722
330
3720
100
AcDbEntity
  8
0
100
AcDbBlockEnd
  0
BLOCK
  5
372E
330
372D
100
AcDbEntity
  8
0
100
AcDbBlockBegin
  2
*D42
 70
     1
 10
0.0
 20
0.0
 30
0.0
  3
*D42
  1

  0
LINE
  5
3730
330
372D
100
AcDbEntity
  8
DIM
 62
     0
370
    -2
100
AcDbLine
 10
1654.88135349847
 20
726.4504756711241
 30
0.0
 11
1613.758351759097
 21
726.4504756711241
 31
0.0
  0
LINE
  5
3731
330
372D
100
AcDbEntity
  8
DIM
 62
     0
370
    -2
100
AcDbLine
 10
1654.88135349847
 20
713.9504756711241
 30
0.0
 11
1613.758351759097
 21
713.9504756711241
 31
0.0
  0
LINE
  5
3732
330
372D
100
AcDbEntity
  8
DIM
 62
     0
370
    -2
100
AcDbLine
 10
1613.758351759097
 20
726.4504756711241
 30
0.0
 11
1613.758351759097
 21
781.213261715891
 31
0.0
  0
LINE
  5
3733
330
372D
100
AcDbEntity
  8
DIM
 62
     0
370
    -2
100
AcDbLine
 10
1613.758351759097
 20
723.4504756711241
 30
0.0
 11
1613.758351759097
 21
716.9504756711241
 31
0.0
  0
LINE
  5
3734
330
372D
100
AcDbEntity
  8
DIM
 62
     0
370
    -2
100
AcDbLine
 10
1613.758351759097
 20
723.4504756711241
 30
0.0
 11
1613.758351759097
 21
720.4504756711241
 31
0.0
  0
INSERT
  5
3735
330
372D
100
AcDbEntity
  8
DIM
 62
     0
370
    -2
100
AcDbBlockReference
  2
_DOT
 10
1613.758351759097
 20
726.4504756711241
 30
0.0
 41
3.0
 42
3.0
 43
3.0
 50
90.0
  0
INSERT
  5
3736
330
372D
100
AcDbEntity
  8
DIM
 62
     0
370
    -2
100
AcDbBlockReference
  2
_DOT
 10
1613.758351759097
 20
713.9504756711241
 30
0.0
 41
3.0
 42
3.0
 43
3.0
 50
270.0
  0
MTEXT
  5
3737
330
372D
100
AcDbEntity
  8
DIM
 62
     0
100
AcDbMText
 10
1597.756100915031
 20
756.8318686935075
 30
0.0
 40
12.0
 41
0.0
 46
0.0
 71
     5
 72
     1
  1
\A1;12.5
  7
ＭＳ ゴシック
 11
0.0
 21
1.0
 31
0.0
 73
     1
 44
1.0
  0
POINT
  5
3738
330
372D
100
AcDbEntity
  8
Defpoints
 62
     0
100
AcDbPoint
 10
1664.88135349847
 20
726.4504756711241
 30
0.0
  0
POINT
  5
3739
330
372D
100
AcDbEntity
  8
Defpoints
 62
     0
100
AcDbPoint
 10
1664.88135349847
 20
713.9504756711241
 30
0.0
  0
POINT
  5
373A
330
372D
100
AcDbEntity
  8
Defpoints
 62
     0
100
AcDbPoint
 10
1613.758351759097
 20
713.9504756711241
 30
0.0
  0
ENDBLK
  5
372F
330
372D
100
AcDbEntity
  8
0
100
AcDbBlockEnd
  0
BLOCK
  5
3742
330
3741
100
AcDbEntity
  8
0
100
AcDbBlockBegin
  2
*D43
 70
     1
 10
0.0
 20
0.0
 30
0.0
  3
*D43
  1

  0
LINE
  5
3744
330
3741
100
AcDbEntity
  8
DIM
 62
     0
370
    -2
100
AcDbLine
 10
729.2853962745387
 20
941.0362390743442
 30
0.0
 11
729.2853962745387
 21
1040.296402806122
 31
0.0
  0
LINE
  5
3745
330
3741
100
AcDbEntity
  8
DIM
 62
     0
370
    -2
100
AcDbLine
 10
119.2853962745385
 20
941.0362390743442
 30
0.0
 11
119.2853962745385
 21
1040.296402806122
 31
0.0
  0
LINE
  5
3746
330
3741
100
AcDbEntity
  8
DIM
 62
     0
370
    -2
100
AcDbLine
 10
726.2853962745387
 20
1040.296402806122
 30
0.0
 11
122.2853962745385
 21
1040.296402806122
 31
0.0
  0
INSERT
  5
3747
330
3741
100
AcDbEntity
  8
DIM
 62
     0
370
    -2
100
AcDbBlockReference
  2
_DOT
 10
729.2853962745387
 20
1040.296402806122
 30
0.0
 41
3.0
 42
3.0
 43
3.0
  0
INSERT
  5
3748
330
3741
100
AcDbEntity
  8
DIM
 62
     0
370
    -2
100
AcDbBlockReference
  2
_DOT
 10
119.2853962745385
 20
1040.296402806122
 30
0.0
 41
3.0
 42
3.0
 43
3.0
 50
180.0
  0
MTEXT
  5
3749
330
3741
100
AcDbEntity
  8
DIM
 62
     0
100
AcDbMText
 10
424.2853962745386
 20
1056.298653650189
 30
0.0
 40
12.0
 41
0.0
 46
0.0
 71
     5
 72
     1
  1
\A1;610
  7
ＭＳ ゴシック
 73
     1
 44
1.0
  0
POINT
  5
374A
330
3741
100
AcDbEntity
  8
Defpoints
 62
     0
100
AcDbPoint
 10
729.2853962745387
 20
931.0362390743442
 30
0.0
  0
POINT
  5
374B
330
3741
100
AcDbEntity
  8
Defpoints
 62
     0
100
AcDbPoint
 10
119.2853962745385
 20
931.0362390743442
 30
0.0
  0
POINT
  5
374C
330
3741
100
AcDbEntity
  8
Defpoints
 62
     0
100
AcDbPoint
 10
119.2853962745385
 20
1040.296402806122
 30
0.0
  0
ENDBLK
  5
3743
330
3741
100
AcDbEntity
  8
0
100
AcDbBlockEnd
  0
BLOCK
  5
3751
330
3750
100
AcDbEntity
  8
0
100
AcDbBlockBegin
  2
*D44
 70
     1
 10
0.0
 20
0.0
 30
0.0
  3
*D44
  1

  0
LINE
  5
3753
330
3750
100
AcDbEntity
  8
DIM
 62
     0
370
    -2
100
AcDbLine
 10
144.2853962745385
 20
950.1043440015635
 30
0.0
 11
144.2853962745385
 21
993.1334108527697
 31
0.0
  0
LINE
  5
3754
330
3750
100
AcDbEntity
  8
DIM
 62
     0
370
    -2
100
AcDbLine
 10
704.2853962745387
 20
951.8651528231478
 30
0.0
 11
704.2853962745387
 21
993.1334108527697
 31
0.0
  0
LINE
  5
3755
330
3750
100
AcDbEntity
  8
DIM
 62
     0
370
    -2
100
AcDbLine
 10
147.2853962745385
 20
993.1334108527697
 30
0.0
 11
701.2853962745387
 21
993.1334108527697
 31
0.0
  0
INSERT
  5
3756
330
3750
100
AcDbEntity
  8
DIM
 62
     0
370
    -2
100
AcDbBlockReference
  2
_DOT
 10
144.2853962745385
 20
993.1334108527697
 30
0.0
 41
3.0
 42
3.0
 43
3.0
 50
180.0
  0
INSERT
  5
3757
330
3750
100
AcDbEntity
  8
DIM
 62
     0
370
    -2
100
AcDbBlockReference
  2
_DOT
 10
704.2853962745387
 20
993.1334108527697
 30
0.0
 41
3.0
 42
3.0
 43
3.0
  0
MTEXT
  5
3758
330
3750
100
AcDbEntity
  8
DIM
 62
     0
100
AcDbMText
 10
424.2853962745386
 20
1009.135661696836
 30
0.0
 40
12.0
 41
0.0
 46
0.0
 71
     5
 72
     1
  1
\A1;560
  7
ＭＳ ゴシック
 73
     1
 44
1.0
  0
POINT
  5
3759
330
3750
100
AcDbEntity
  8
Defpoints
 62
     0
100
AcDbPoint
 10
144.2853962745385
 20
940.1043440015635
 30
0.0
  0
POINT
  5
375A
330
3750
100
AcDbEntity
  8
Defpoints
 62
     0
100
AcDbPoint
 10
704.2853962745387
 20
941.8651528231478
 30
0.0
  0
POINT
  5
375B
330
3750
100
AcDbEntity
  8
Defpoints
 62
     0
100
AcDbPoint
 10
704.2853962745387
 20
993.1334108527697
 30
0.0
  0
ENDBLK
  5
3752
330
3750
100
AcDbEntity
  8
0
100
AcDbBlockEnd
  0
BLOCK
  5
3766
330
3765
100
AcDbEntity
  8
0
100
AcDbBlockBegin
  2
*D45
 70
     1
 10
0.0
 20
0.0
 30
0.0
  3
*D45
  1

  0
LINE
  5
3768
330
3765
100
AcDbEntity
  8
DIM
 62
     0
370
    -2
100
AcDbLine
 10
582.2889918991259
 20
573.9931564234433
 30
0.0
 11
587.3811493241988
 21
573.9931564234433
 31
0.0
  0
LINE
  5
3769
330
3765
100
AcDbEntity
  8
DIM
 62
     0
370
    -2
100
AcDbLine
 10
582.2889918991259
 20
586.9931568662872
 30
0.0
 11
587.3811493241988
 21
586.9931568662872
 31
0.0
  0
LINE
  5
376A
330
3765
100
AcDbEntity
  8
DIM
 62
     0
370
    -2
100
AcDbLine
 10
587.3811493241988
 20
573.9931564234433
 30
0.0
 11
587.3811493241988
 21
518.0712794695856
 31
0.0
  0
LINE
  5
376B
330
3765
100
AcDbEntity
  8
DIM
 62
     0
370
    -2
100
AcDbLine
 10
587.3811493241988
 20
576.9931564234433
 30
0.0
 11
587.3811493241988
 21
583.9931568662872
 31
0.0
  0
LINE
  5
376C
330
3765
100
AcDbEntity
  8
DIM
 62
     0
370
    -2
100
AcDbLine
 10
587.3811493241988
 20
576.9931564234433
 30
0.0
 11
587.3811493241988
 21
579.9931564234433
 31
0.0
  0
INSERT
  5
376D
330
3765
100
AcDbEntity
  8
DIM
 62
     0
370
    -2
100
AcDbBlockReference
  2
_DOT
 10
587.3811493241988
 20
573.9931564234433
 30
0.0
 41
3.0
 42
3.0
 43
3.0
 50
270.0
  0
INSERT
  5
376E
330
3765
100
AcDbEntity
  8
DIM
 62
     0
370
    -2
100
AcDbBlockReference
  2
_DOT
 10
587.3811493241988
 20
586.9931568662872
 30
0.0
 41
3.0
 42
3.0
 43
3.0
 50
90.0
  0
MTEXT
  5
376F
330
3765
100
AcDbEntity
  8
DIM
 62
     0
100
AcDbMText
 10
571.3788984801322
 20
539.161188185354
 30
0.0
 40
12.0
 41
0.0
 46
0.0
 71
     5
 72
     1
  1
\A1;%%c13
  7
ＭＳ ゴシック
 11
0.0
 21
1.0
 31
0.0
 73
     1
 44
1.0
  0
POINT
  5
3770
330
3765
100
AcDbEntity
  8
Defpoints
 62
     0
100
AcDbPoint
 10
572.2889918991259
 20
573.9931564234433
 30
0.0
  0
POINT
  5
3772
330
3765
100
AcDbEntity
  8
Defpoints
 62
     0
100
AcDbPoint
 10
572.2889918991259
 20
586.9931568662872
 30
0.0
  0
POINT
  5
3773
330
3765
100
AcDbEntity
  8
Defpoints
 62
     0
100
AcDbPoint
 10
587.3811493241988
 20
586.9931568662872
 30
0.0
  0
ENDBLK
  5
3767
330
3765
100
AcDbEntity
  8
0
100
AcDbBlockEnd
  0
BLOCK
  5
3781
330
3780
100
AcDbEntity
  8
0
100
AcDbBlockBegin
  2
*D46
 70
     1
 10
0.0
 20
0.0
 30
0.0
  3
*D46
  1

  0
LINE
  5
3783
330
3780
100
AcDbEntity
  8
DIM
 62
     0
370
    -2
100
AcDbLine
 10
738.8159265854324
 20
646.7931575529514
 30
0.0
 11
776.7153982025533
 21
646.7931575529514
 31
0.0
  0
LINE
  5
3784
330
3780
100
AcDbEntity
  8
DIM
 62
     0
370
    -2
100
AcDbLine
 10
722.8159349138391
 20
572.4931568721253
 30
0.0
 11
776.7153982025533
 21
572.4931568721253
 31
0.0
  0
LINE
  5
3785
330
3780
100
AcDbEntity
  8
DIM
 62
     0
370
    -2
100
AcDbLine
 10
776.7153982025533
 20
643.7931575529514
 30
0.0
 11
776.7153982025533
 21
575.4931568721253
 31
0.0
  0
INSERT
  5
3786
330
3780
100
AcDbEntity
  8
DIM
 62
     0
370
    -2
100
AcDbBlockReference
  2
_DOT
 10
776.7153982025533
 20
646.7931575529514
 30
0.0
 41
3.0
 42
3.0
 43
3.0
 50
90.0
  0
INSERT
  5
3787
330
3780
100
AcDbEntity
  8
DIM
 62
     0
370
    -2
100
AcDbBlockReference
  2
_DOT
 10
776.7153982025533
 20
572.4931568721253
 30
0.0
 41
3.0
 42
3.0
 43
3.0
 50
270.0
  0
MTEXT
  5
3788
330
3780
100
AcDbEntity
  8
DIM
 62
     0
100
AcDbMText
 10
760.7131473584867
 20
609.6431572125383
 30
0.0
 40
12.0
 41
0.0
 46
0.0
 71
     5
 72
     1
  1
\A1;74.3
  7
ＭＳ ゴシック
 11
0.0
 21
1.0
 31
0.0
 73
     1
 44
1.0
  0
POINT
  5
3789
330
3780
100
AcDbEntity
  8
Defpoints
 62
     0
100
AcDbPoint
 10
728.8159265854324
 20
646.7931575529514
 30
0.0
  0
POINT
  5
378A
330
3780
100
AcDbEntity
  8
Defpoints
 62
     0
100
AcDbPoint
 10
712.8159349138391
 20
572.4931568721253
 30
0.0
  0
POINT
  5
378B
330
3780
100
AcDbEntity
  8
Defpoints
 62
     0
100
AcDbPoint
 10
776.7153982025533
 20
572.4931568721253
 30
0.0
  0
ENDBLK
  5
3782
330
3780
100
AcDbEntity
  8
0
100
AcDbBlockEnd
  0
BLOCK
  5
3799
330
3798
100
AcDbEntity
  8
0
100
AcDbBlockBegin
  2
*D47
 70
     1
 10
0.0
 20
0.0
 30
0.0
  3
*D47
  1

  0
LINE
  5
379B
330
3798
100
AcDbEntity
  8
DIM
 62
     0
370
    -2
100
AcDbLine
 10
829.0322721466976
 20
921.395112732318
 30
0.0
 11
815.6092438229844
 21
921.395112732318
 31
0.0
  0
LINE
  5
379C
330
3798
100
AcDbEntity
  8
DIM
 62
     0
370
    -2
100
AcDbLine
 10
829.0322721466976
 20
902.3951040300399
 30
0.0
 11
815.6092438229844
 21
902.3951040300399
 31
0.0
  0
LINE
  5
379D
330
3798
100
AcDbEntity
  8
DIM
 62
     0
370
    -2
100
AcDbLine
 10
815.6092438229844
 20
918.395112732318
 30
0.0
 11
815.6092438229844
 21
905.3951040300399
 31
0.0
  0
INSERT
  5
379E
330
3798
100
AcDbEntity
  8
DIM
 62
     0
370
    -2
100
AcDbBlockReference
  2
_DOT
 10
815.6092438229844
 20
921.395112732318
 30
0.0
 41
3.0
 42
3.0
 43
3.0
 50
90.0
  0
INSERT
  5
379F
330
3798
100
AcDbEntity
  8
DIM
 62
     0
370
    -2
100
AcDbBlockReference
  2
_DOT
 10
815.6092438229844
 20
902.3951040300399
 30
0.0
 41
3.0
 42
3.0
 43
3.0
 50
270.0
  0
MTEXT
  5
37A0
330
3798
100
AcDbEntity
  8
DIM
 62
     0
100
AcDbMText
 10
799.6069929789178
 20
911.8951083811789
 30
0.0
 40
12.0
 41
0.0
 46
0.0
 71
     5
 72
     1
  1
\A1;%%c19
  7
ＭＳ ゴシック
 11
0.0
 21
1.0
 31
0.0
 73
     1
 44
1.0
  0
POINT
  5
37A1
330
3798
100
AcDbEntity
  8
Defpoints
 62
     0
100
AcDbPoint
 10
839.0322721466976
 20
921.395112732318
 30
0.0
  0
POINT
  5
37A2
330
3798
100
AcDbEntity
  8
Defpoints
 62
     0
100
AcDbPoint
 10
839.0322721466976
 20
902.3951040300399
 30
0.0
  0
POINT
  5
37A3
330
3798
100
AcDbEntity
  8
Defpoints
 62
     0
100
AcDbPoint
 10
815.6092438229844
 20
902.3951040300399
 30
0.0
  0
ENDBLK
  5
379A
330
3798
100
AcDbEntity
  8
0
100
AcDbBlockEnd
  0
BLOCK
  5
37B2
330
37B1
100
AcDbEntity
  8
0
100
AcDbBlockBegin
  2
*D48
 70
     1
 10
0.0
 20
0.0
 30
0.0
  3
*D48
  1

  0
LINE
  5
37B4
330
37B1
100
AcDbEntity
  8
DIM
 62
     0
370
    -2
100
AcDbLine
 10
897.7442715014201
 20
943.4731633760343
 30
0.0
 11
897.7442715014201
 21
968.3305787163404
 31
0.0
  0
LINE
  5
37B5
330
37B1
100
AcDbEntity
  8
DIM
 62
     0
370
    -2
100
AcDbLine
 10
911.2442721822465
 20
943.9731550476276
 30
0.0
 11
911.2442721822465
 21
968.3305787163404
 31
0.0
  0
LINE
  5
37B6
330
37B1
100
AcDbEntity
  8
DIM
 62
     0
370
    -2
100
AcDbLine
 10
911.2442721822465
 20
968.3305787163404
 30
0.0
 11
966.0070582270132
 21
968.3305787163404
 31
0.0
  0
LINE
  5
37B7
330
37B1
100
AcDbEntity
  8
DIM
 62
     0
370
    -2
100
AcDbLine
 10
900.7442715014201
 20
968.3305787163404
 30
0.0
 11
908.2442721822465
 21
968.3305787163404
 31
0.0
  0
LINE
  5
37B8
330
37B1
100
AcDbEntity
  8
DIM
 62
     0
370
    -2
100
AcDbLine
 10
908.2442721822465
 20
968.3305787163404
 30
0.0
 11
905.2442721822465
 21
968.3305787163404
 31
0.0
  0
INSERT
  5
37B9
330
37B1
100
AcDbEntity
  8
DIM
 62
     0
370
    -2
100
AcDbBlockReference
  2
_DOT
 10
897.7442715014201
 20
968.3305787163404
 30
0.0
 41
3.0
 42
3.0
 43
3.0
 50
180.0
  0
INSERT
  5
37BA
330
37B1
100
AcDbEntity
  8
DIM
 62
     0
370
    -2
100
AcDbBlockReference
  2
_DOT
 10
911.2442721822465
 20
968.3305787163404
 30
0.0
 41
3.0
 42
3.0
 43
3.0
  0
MTEXT
  5
37BB
330
37B1
100
AcDbEntity
  8
DIM
 62
     0
100
AcDbMText
 10
941.6256652046299
 20
984.3328295604069
 30
0.0
 40
12.0
 41
0.0
 46
0.0
 71
     5
 72
     1
  1
\A1;13.5
  7
ＭＳ ゴシック
 73
     1
 44
1.0
  0
POINT
  5
37BC
330
37B1
100
AcDbEntity
  8
Defpoints
 62
     0
100
AcDbPoint
 10
897.7442715014201
 20
933.4731633760343
 30
0.0
  0
POINT
  5
37BD
330
37B1
100
AcDbEntity
  8
Defpoints
 62
     0
100
AcDbPoint
 10
911.2442721822465
 20
933.9731550476276
 30
0.0
  0
POINT
  5
37BE
330
37B1
100
AcDbEntity
  8
Defpoints
 62
     0
100
AcDbPoint
 10
911.2442721822465
 20
968.3305787163404
 30
0.0
  0
ENDBLK
  5
37B3
330
37B1
100
AcDbEntity
  8
0
100
AcDbBlockEnd
  0
BLOCK
  5
37CD
330
37CC
100
AcDbEntity
  8
0
100
AcDbBlockBegin
  2
*D49
 70
     1
 10
0.0
 20
0.0
 30
0.0
  3
*D49
  1

  0
LINE
  5
37CF
330
37CC
100
AcDbEntity
  8
DIM
 62
     0
370
    -2
100
AcDbLine
 10
936.2442721822465
 20
936.8950919899016
 30
0.0
 11
983.2189711464875
 21
936.8950919899016
 31
0.0
  0
LINE
  5
37D0
330
37CC
100
AcDbEntity
  8
DIM
 62
     0
370
    -2
100
AcDbLine
 10
936.2442721822465
 20
886.8950949701339
 30
0.0
 11
983.2189711464875
 21
886.8950949701339
 31
0.0
  0
LINE
  5
37D1
330
37CC
100
AcDbEntity
  8
DIM
 62
     0
370
    -2
100
AcDbLine
 10
983.2189711464875
 20
933.8950919899016
 30
0.0
 11
983.2189711464875
 21
889.8950949701339
 31
0.0
  0
INSERT
  5
37D2
330
37CC
100
AcDbEntity
  8
DIM
 62
     0
370
    -2
100
AcDbBlockReference
  2
_DOT
 10
983.2189711464875
 20
936.8950919899016
 30
0.0
 41
3.0
 42
3.0
 43
3.0
 50
90.0
  0
INSERT
  5
37D3
330
37CC
100
AcDbEntity
  8
DIM
 62
     0
370
    -2
100
AcDbBlockReference
  2
_DOT
 10
983.2189711464875
 20
886.8950949701339
 30
0.0
 41
3.0
 42
3.0
 43
3.0
 50
270.0
  0
MTEXT
  5
37D4
330
37CC
100
AcDbEntity
  8
DIM
 62
     0
100
AcDbMText
 10
967.216720302421
 20
911.8950934800177
 30
0.0
 40
12.0
 41
0.0
 46
0.0
 71
     5
 72
     1
  1
\A1;%%c50
  7
ＭＳ ゴシック
 11
0.0
 21
1.0
 31
0.0
 73
     1
 44
1.0
  0
POINT
  5
37D5
330
37CC
100
AcDbEntity
  8
Defpoints
 62
     0
100
AcDbPoint
 10
926.2442721822465
 20
936.8950919899016
 30
0.0
  0
POINT
  5
37D6
330
37CC
100
AcDbEntity
  8
Defpoints
 62
     0
100
AcDbPoint
 10
926.2442721822465
 20
886.8950949701339
 30
0.0
  0
POINT
  5
37D7
330
37CC
100
AcDbEntity
  8
Defpoints
 62
     0
100
AcDbPoint
 10
983.2189711464875
 20
886.8950949701339
 30
0.0
  0
ENDBLK
  5
37CE
330
37CC
100
AcDbEntity
  8
0
100
AcDbBlockEnd
  0
BLOCK
  5
3973
330
3972
100
AcDbEntity
  8
0
100
AcDbBlockBegin
  2
*D50
 70
     1
 10
0.0
 20
0.0
 30
0.0
  3
*D50
  1

  0
LINE
  5
3975
330
3972
100
AcDbEntity
  8
DIM
 62
     0
370
    -2
100
AcDbLine
 10
1230.007058056678
 20
634.4542354239329
 30
0.0
 11
1230.007058056678
 21
725.0887076781771
 31
0.0
  0
LINE
  5
3976
330
3972
100
AcDbEntity
  8
DIM
 62
     0
370
    -2
100
AcDbLine
 10
1696.007058050123
 20
634.4542354239329
 30
0.0
 11
1696.007058050123
 21
725.0887076781771
 31
0.0
  0
LINE
  5
3977
330
3972
100
AcDbEntity
  8
DIM
 62
     0
370
    -2
100
AcDbLine
 10
1233.007058056678
 20
725.0887076781771
 30
0.0
 11
1693.007058050123
 21
725.0887076781771
 31
0.0
  0
INSERT
  5
3978
330
3972
100
AcDbEntity
  8
DIM
 62
     0
370
    -2
100
AcDbBlockReference
  2
_DOT
 10
1230.007058056678
 20
725.0887076781771
 30
0.0
 41
3.0
 42
3.0
 43
3.0
 50
180.0
  0
INSERT
  5
3979
330
3972
100
AcDbEntity
  8
DIM
 62
     0
370
    -2
100
AcDbBlockReference
  2
_DOT
 10
1696.007058050123
 20
725.0887076781771
 30
0.0
 41
3.0
 42
3.0
 43
3.0
  0
MTEXT
  5
397A
330
3972
100
AcDbEntity
  8
DIM
 62
     0
100
AcDbMText
 10
1463.007058053401
 20
741.0909585222437
 30
0.0
 40
12.0
 41
0.0
 46
0.0
 71
     5
 72
     1
  1
\A1;465.99999999
  7
ＭＳ ゴシック
 73
     1
 44
1.0
  0
POINT
  5
397B
330
3972
100
AcDbEntity
  8
Defpoints
 62
     0
100
AcDbPoint
 10
1230.007058056678
 20
624.4542354239329
 30
0.0
  0
POINT
  5
397C
330
3972
100
AcDbEntity
  8
Defpoints
 62
     0
100
AcDbPoint
 10
1696.007058050123
 20
624.4542354239329
 30
0.0
  0
POINT
  5
397D
330
3972
100
AcDbEntity
  8
Defpoints
 62
     0
100
AcDbPoint
 10
1696.007058050123
 20
725.0887076781771
 30
0.0
  0
ENDBLK
  5
3974
330
3972
100
AcDbEntity
  8
0
100
AcDbBlockEnd
  0
BLOCK
  5
3982
330
3981
100
AcDbEntity
  8
0
100
AcDbBlockBegin
  2
*D51
 70
     1
 10
0.0
 20
0.0
 30
0.0
  3
*D51
  1

  0
LINE
  5
3984
330
3981
100
AcDbEntity
  8
DIM
 62
     0
370
    -2
100
AcDbLine
 10
1237.987897811714
 20
522.992996261758
 30
0.0
 11
1237.987897811714
 21
553.4877728673362
 31
0.0
  0
LINE
  5
3985
330
3981
100
AcDbEntity
  8
DIM
 62
     0
370
    -2
100
AcDbLine
 10
1688.026231195298
 20
522.992996261758
 30
0.0
 11
1688.026231195298
 21
553.4877728673362
 31
0.0
  0
LINE
  5
3986
330
3981
100
AcDbEntity
  8
DIM
 62
     0
370
    -2
100
AcDbLine
 10
1240.987897811714
 20
553.4877728673362
 30
0.0
 11
1685.026231195298
 21
553.4877728673362
 31
0.0
  0
INSERT
  5
3987
330
3981
100
AcDbEntity
  8
DIM
 62
     0
370
    -2
100
AcDbBlockReference
  2
_DOT
 10
1237.987897811714
 20
553.4877728673362
 30
0.0
 41
3.0
 42
3.0
 43
3.0
 50
180.0
  0
INSERT
  5
3988
330
3981
100
AcDbEntity
  8
DIM
 62
     0
370
    -2
100
AcDbBlockReference
  2
_DOT
 10
1688.026231195298
 20
553.4877728673362
 30
0.0
 41
3.0
 42
3.0
 43
3.0
  0
MTEXT
  5
3989
330
3981
100
AcDbEntity
  8
DIM
 62
     0
100
AcDbMText
 10
1463.007064503506
 20
569.4900237114027
 30
0.0
 40
12.0
 41
0.0
 46
0.0
 71
     5
 72
     1
  1
\A1;450
  7
ＭＳ ゴシック
 73
     1
 44
1.0
  0
POINT
  5
398A
330
3981
100
AcDbEntity
  8
Defpoints
 62
     0
100
AcDbPoint
 10
1237.987897811714
 20
512.992996261758
 30
0.0
  0
POINT
  5
398B
330
3981
100
AcDbEntity
  8
Defpoints
 62
     0
100
AcDbPoint
 10
1688.026231195298
 20
512.992996261758
 30
0.0
  0
POINT
  5
398C
330
3981
100
AcDbEntity
  8
Defpoints
 62
     0
100
AcDbPoint
 10
1688.026231195298
 20
553.4877728673362
 30
0.0
  0
ENDBLK
  5
3983
330
3981
100
AcDbEntity
  8
0
100
AcDbBlockEnd
  0
BLOCK
  5
39A5
330
39A4
100
AcDbEntity
  8
0
100
AcDbBlockBegin
  2
*D52
 70
     1
 10
0.0
 20
0.0
 30
0.0
  3
*D52
  1

  0
LINE
  5
39A7
330
39A4
100
AcDbEntity
  8
DIM
 62
     0
370
    -2
100
AcDbLine
 10
148.6104867164092
 20
595.3046299456004
 30
0.0
 11
148.6104867164092
 21
621.4339719601702
 31
0.0
  0
LINE
  5
39A8
330
39A4
100
AcDbEntity
  8
DIM
 62
     0
370
    -2
100
AcDbLine
 10
598.6488200999936
 20
595.3046299456004
 30
0.0
 11
598.6488200999936
 21
621.4339719601702
 31
0.0
  0
LINE
  5
39A9
330
39A4
100
AcDbEntity
  8
DIM
 62
     0
370
    -2
100
AcDbLine
 10
151.6104867164092
 20
621.4339719601702
 30
0.0
 11
595.6488200999936
 21
621.4339719601702
 31
0.0
  0
INSERT
  5
39AA
330
39A4
100
AcDbEntity
  8
DIM
 62
     0
370
    -2
100
AcDbBlockReference
  2
_DOT
 10
148.6104867164092
 20
621.4339719601702
 30
0.0
 41
3.0
 42
3.0
 43
3.0
 50
180.0
  0
INSERT
  5
39AB
330
39A4
100
AcDbEntity
  8
DIM
 62
     0
370
    -2
100
AcDbBlockReference
  2
_DOT
 10
598.6488200999936
 20
621.4339719601702
 30
0.0
 41
3.0
 42
3.0
 43
3.0
  0
MTEXT
  5
39AC
330
39A4
100
AcDbEntity
  8
DIM
 62
     0
100
AcDbMText
 10
373.6296534082014
 20
637.4362228042368
 30
0.0
 40
12.0
 41
0.0
 46
0.0
 71
     5
 72
     1
  1
\A1;450
  7
ＭＳ ゴシック
 73
     1
 44
1.0
  0
POINT
  5
39AD
330
39A4
100
AcDbEntity
  8
Defpoints
 62
     0
100
AcDbPoint
 10
148.6104867164092
 20
585.3046299456004
 30
0.0
  0
POINT
  5
39AE
330
39A4
100
AcDbEntity
  8
Defpoints
 62
     0
100
AcDbPoint
 10
598.6488200999936
 20
585.3046299456004
 30
0.0
  0
POINT
  5
39AF
330
39A4
100
AcDbEntity
  8
Defpoints
 62
     0
100
AcDbPoint
 10
598.6488200999936
 20
621.4339719601702
 30
0.0
  0
ENDBLK
  5
39A6
330
39A4
100
AcDbEntity
  8
0
100
AcDbBlockEnd
  0
BLOCK
  5
39B4
330
39B3
100
AcDbEntity
  8
0
100
AcDbBlockBegin
  2
*D53
 70
     1
 10
0.0
 20
0.0
 30
0.0
  3
*D53
  1

  0
LINE
  5
39B6
330
39B3
100
AcDbEntity
  8
DIM
 62
     0
370
    -2
100
AcDbLine
 10
628.2890642930197
 20
580.8407444025296
 30
0.0
 11
669.8937285349198
 21
580.8407444025296
 31
0.0
  0
LINE
  5
39B7
330
39B3
100
AcDbEntity
  8
DIM
 62
     0
370
    -2
100
AcDbLine
 10
628.2890642930197
 20
505.7667498035692
 30
0.0
 11
669.8937285349198
 21
505.7667498035692
 31
0.0
  0
LINE
  5
39B8
330
39B3
100
AcDbEntity
  8
DIM
 62
     0
370
    -2
100
AcDbLine
 10
669.8937285349198
 20
577.8407444025296
 30
0.0
 11
669.8937285349198
 21
508.7667498035692
 31
0.0
  0
INSERT
  5
39B9
330
39B3
100
AcDbEntity
  8
DIM
 62
     0
370
    -2
100
AcDbBlockReference
  2
_DOT
 10
669.8937285349198
 20
580.8407444025296
 30
0.0
 41
3.0
 42
3.0
 43
3.0
 50
90.0
  0
INSERT
  5
39BA
330
39B3
100
AcDbEntity
  8
DIM
 62
     0
370
    -2
100
AcDbBlockReference
  2
_DOT
 10
669.8937285349198
 20
505.7667498035692
 30
0.0
 41
3.0
 42
3.0
 43
3.0
 50
270.0
  0
MTEXT
  5
39BB
330
39B3
100
AcDbEntity
  8
DIM
 62
     0
100
AcDbMText
 10
653.8914776908532
 20
543.3037471030493
 30
0.0
 40
12.0
 41
0.0
 46
0.0
 71
     5
 72
     1
  1
\A1;75
  7
ＭＳ ゴシック
 11
0.0
 21
1.0
 31
0.0
 73
     1
 44
1.0
  0
POINT
  5
39BC
330
39B3
100
AcDbEntity
  8
Defpoints
 62
     0
100
AcDbPoint
 10
618.2890642930197
 20
580.8407444025296
 30
0.0
  0
POINT
  5
39BD
330
39B3
100
AcDbEntity
  8
Defpoints
 62
     0
100
AcDbPoint
 10
618.2890642930197
 20
505.7667498035692
 30
0.0
  0
POINT
  5
39BE
330
39B3
100
AcDbEntity
  8
Defpoints
 62
     0
100
AcDbPoint
 10
669.8937285349198
 20
505.7667498035692
 30
0.0
  0
ENDBLK
  5
39B5
330
39B3
100
AcDbEntity
  8
0
100
AcDbBlockEnd
  0
BLOCK
  5
39C3
330
39C2
100
AcDbEntity
  8
0
100
AcDbBlockBegin
  2
*D54
 70
     1
 10
0.0
 20
0.0
 30
0.0
  3
*D54
  1

  0
LINE
  5
39C5
330
39C2
100
AcDbEntity
  8
DIM
 62
     0
370
    -2
100
AcDbLine
 10
615.4250021514883
 20
1023.814391438637
 30
0.0
 11
642.2808347874764
 21
1023.814391438637
 31
0.0
  0
LINE
  5
39C6
330
39C2
100
AcDbEntity
  8
DIM
 62
     0
370
    -2
100
AcDbLine
 10
615.4250021514883
 20
1007.852668927864
 30
0.0
 11
642.2808347874764
 21
1007.852668927864
 31
0.0
  0
LINE
  5
39C7
330
39C2
100
AcDbEntity
  8
DIM
 62
     0
370
    -2
100
AcDbLine
 10
642.2808347874764
 20
1023.814391438637
 30
0.0
 11
642.2808347874764
 21
1079.801918011101
 31
0.0
  0
LINE
  5
39C8
330
39C2
100
AcDbEntity
  8
DIM
 62
     0
370
    -2
100
AcDbLine
 10
642.2808347874764
 20
1020.814391438637
 30
0.0
 11
642.2808347874764
 21
1010.852668927864
 31
0.0
  0
LINE
  5
39C9
330
39C2
100
AcDbEntity
  8
DIM
 62
     0
370
    -2
100
AcDbLine
 10
642.2808347874764
 20
1020.814391438637
 30
0.0
 11
642.2808347874764
 21
1017.814391438637
 31
0.0
  0
INSERT
  5
39CA
330
39C2
100
AcDbEntity
  8
DIM
 62
     0
370
    -2
100
AcDbBlockReference
  2
_DOT
 10
642.2808347874764
 20
1023.814391438637
 30
0.0
 41
3.0
 42
3.0
 43
3.0
 50
90.0
  0
INSERT
  5
39CB
330
39C2
100
AcDbEntity
  8
DIM
 62
     0
370
    -2
100
AcDbBlockReference
  2
_DOT
 10
642.2808347874764
 20
1007.852668927864
 30
0.0
 41
3.0
 42
3.0
 43
3.0
 50
270.0
  0
MTEXT
  5
39CC
330
39C2
100
AcDbEntity
  8
DIM
 62
     0
100
AcDbMText
 10
626.2785839434098
 20
1058.679184486029
 30
0.0
 40
12.0
 41
0.0
 46
0.0
 71
     5
 72
     1
  1
\A1;%%c16
  7
ＭＳ ゴシック
 11
0.0
 21
1.0
 31
0.0
 73
     1
 44
1.0
  0
POINT
  5
39CD
330
39C2
100
AcDbEntity
  8
Defpoints
 62
     0
100
AcDbPoint
 10
605.4250021514883
 20
1023.814391438637
 30
0.0
  0
POINT
  5
3A32
330
39C2
100
AcDbEntity
  8
Defpoints
 62
     0
100
AcDbPoint
 10
605.4250021514883
 20
1007.852668927864
 30
0.0
  0
POINT
  5
3A33
330
39C2
100
AcDbEntity
  8
Defpoints
 62
     0
100
AcDbPoint
 10
642.2808347874764
 20
1007.852668927864
 30
0.0
  0
ENDBLK
  5
39C4
330
39C2
100
AcDbEntity
  8
0
100
AcDbBlockEnd
  0
BLOCK
  5
39D7
330
39D6
100
AcDbEntity
  8
0
100
AcDbBlockBegin
  2
*D55
 70
     1
 10
0.0
 20
0.0
 30
0.0
  3
*D55
  1

  0
LINE
  5
39D9
330
39D6
100
AcDbEntity
  8
DIM
 62
     0
370
    -2
100
AcDbLine
 10
140.7649164157122
 20
590.5586506961902
 30
0.0
 11
140.7649164157122
 21
654.2414690184921
 31
0.0
  0
LINE
  5
39DA
330
39D6
100
AcDbEntity
  8
DIM
 62
     0
370
    -2
100
AcDbLine
 10
606.7640481561205
 20
591.4582156941324
 30
0.0
 11
606.7640481561205
 21
654.2414690184921
 31
0.0
  0
LINE
  5
39DB
330
39D6
100
AcDbEntity
  8
DIM
 62
     0
370
    -2
100
AcDbLine
 10
143.7649164157122
 20
654.2414690184921
 30
0.0
 11
603.7640481561205
 21
654.2414690184921
 31
0.0
  0
INSERT
  5
39DC
330
39D6
100
AcDbEntity
  8
DIM
 62
     0
370
    -2
100
AcDbBlockReference
  2
_DOT
 10
140.7649164157122
 20
654.2414690184921
 30
0.0
 41
3.0
 42
3.0
 43
3.0
 50
180.0
  0
INSERT
  5
39DD
330
39D6
100
AcDbEntity
  8
DIM
 62
     0
370
    -2
100
AcDbBlockReference
  2
_DOT
 10
606.7640481561205
 20
654.2414690184921
 30
0.0
 41
3.0
 42
3.0
 43
3.0
  0
MTEXT
  5
39DE
330
39D6
100
AcDbEntity
  8
DIM
 62
     0
100
AcDbMText
 10
373.7644822859163
 20
670.2414690184921
 30
0.0
 40
12.0
 41
0.0
 46
0.0
 71
     5
 72
     1
  1
\A1;466
  7
ＭＳ ゴシック
 73
     1
 44
1.0
  0
POINT
  5
39DF
330
39D6
100
AcDbEntity
  8
Defpoints
 62
     0
100
AcDbPoint
 10
140.7649164157122
 20
580.5586506961902
 30
0.0
  0
POINT
  5
39E0
330
39D6
100
AcDbEntity
  8
Defpoints
 62
     0
100
AcDbPoint
 10
606.7640481561205
 20
581.4582156941324
 30
0.0
  0
POINT
  5
39E1
330
39D6
100
AcDbEntity
  8
Defpoints
 62
     0
100
AcDbPoint
 10
606.7640481561205
 20
654.2414690184921
 30
0.0
  0
ENDBLK
  5
39D8
330
39D6
100
AcDbEntity
  8
0
100
AcDbBlockEnd
  0
BLOCK
  5
3A6E
330
3A6D
100
AcDbEntity
  8
0
100
AcDbBlockBegin
  2
*D56
 70
     1
 10
0.0
 20
0.0
 30
0.0
  3
*D56
  1

  0
LINE
  5
3A70
330
3A6D
100
AcDbEntity
  8
DIM
 62
     0
370
    -2
100
AcDbLine
 10
777.4393010064068
 20
1023.814391438636
 30
0.0
 11
750.5834683704189
 21
1023.814391438636
 31
0.0
  0
LINE
  5
3A71
330
3A6D
100
AcDbEntity
  8
DIM
 62
     0
370
    -2
100
AcDbLine
 10
777.4393010064068
 20
1007.852668927864
 30
0.0
 11
750.5834683704189
 21
1007.852668927864
 31
0.0
  0
LINE
  5
3A72
330
3A6D
100
AcDbEntity
  8
DIM
 62
     0
370
    -2
100
AcDbLine
 10
750.5834683704189
 20
1023.814391438636
 30
0.0
 11
750.5834683704189
 21
1079.801918011101
 31
0.0
  0
LINE
  5
3A73
330
3A6D
100
AcDbEntity
  8
DIM
 62
     0
370
    -2
100
AcDbLine
 10
750.5834683704189
 20
1020.814391438636
 30
0.0
 11
750.5834683704189
 21
1010.852668927864
 31
0.0
  0
LINE
  5
3A74
330
3A6D
100
AcDbEntity
  8
DIM
 62
     0
370
    -2
100
AcDbLine
 10
750.5834683704189
 20
1020.814391438636
 30
0.0
 11
750.5834683704189
 21
1017.814391438636
 31
0.0
  0
INSERT
  5
3A75
330
3A6D
100
AcDbEntity
  8
DIM
 62
     0
370
    -2
100
AcDbBlockReference
  2
_DOT
 10
750.5834683704189
 20
1023.814391438636
 30
0.0
 41
3.0
 42
3.0
 43
3.0
 50
90.0
  0
INSERT
  5
3A76
330
3A6D
100
AcDbEntity
  8
DIM
 62
     0
370
    -2
100
AcDbBlockReference
  2
_DOT
 10
750.5834683704189
 20
1007.852668927864
 30
0.0
 41
3.0
 42
3.0
 43
3.0
 50
270.0
  0
MTEXT
  5
3A77
330
3A6D
100
AcDbEntity
  8
DIM
 62
     0
100
AcDbMText
 10
734.5812175263524
 20
1058.679184486029
 30
0.0
 40
12.0
 41
0.0
 46
0.0
 71
     5
 72
     1
  1
\A1;%%c16
  7
ＭＳ ゴシック
 11
0.0
 21
1.0
 31
0.0
 73
     1
 44
1.0
  0
POINT
  5
3A78
330
3A6D
100
AcDbEntity
  8
Defpoints
 62
     0
100
AcDbPoint
 10
787.4393010064068
 20
1023.814391438636
 30
0.0
  0
POINT
  5
3A79
330
3A6D
100
AcDbEntity
  8
Defpoints
 62
     0
100
AcDbPoint
 10
787.4393010064068
 20
1007.852668927864
 30
0.0
  0
POINT
  5
3A7A
330
3A6D
100
AcDbEntity
  8
Defpoints
 62
     0
100
AcDbPoint
 10
750.5834683704189
 20
1007.852668927864
 30
0.0
  0
ENDBLK
  5
3A6F
330
3A6D
100
AcDbEntity
  8
0
100
AcDbBlockEnd
  0
BLOCK
  5
3A7E
330
3A7D
100
AcDbEntity
  8
0
100
AcDbBlockBegin
  2
*D57
 70
     1
 10
0.0
 20
0.0
 30
0.0
  3
*D57
  1

  0
LINE
  5
3A80
330
3A7D
100
AcDbEntity
  8
DIM
 62
     0
370
    -2
100
AcDbLine
 10
133.1897738371326
 20
1023.814391438636
 30
0.0
 11
106.3339412011447
 21
1023.814391438636
 31
0.0
  0
LINE
  5
3A81
330
3A7D
100
AcDbEntity
  8
DIM
 62
     0
370
    -2
100
AcDbLine
 10
133.1897738371326
 20
1007.852668927864
 30
0.0
 11
106.3339412011447
 21
1007.852668927864
 31
0.0
  0
LINE
  5
3A82
330
3A7D
100
AcDbEntity
  8
DIM
 62
     0
370
    -2
100
AcDbLine
 10
106.3339412011447
 20
1023.814391438636
 30
0.0
 11
106.3339412011448
 21
1079.801918011101
 31
0.0
  0
LINE
  5
3A83
330
3A7D
100
AcDbEntity
  8
DIM
 62
     0
370
    -2
100
AcDbLine
 10
106.3339412011447
 20
1020.814391438636
 30
0.0
 11
106.3339412011447
 21
1010.852668927864
 31
0.0
  0
LINE
  5
3A84
330
3A7D
100
AcDbEntity
  8
DIM
 62
     0
370
    -2
100
AcDbLine
 10
106.3339412011447
 20
1020.814391438636
 30
0.0
 11
106.3339412011447
 21
1017.814391438636
 31
0.0
  0
INSERT
  5
3A85
330
3A7D
100
AcDbEntity
  8
DIM
 62
     0
370
    -2
100
AcDbBlockReference
  2
_DOT
 10
106.3339412011447
 20
1023.814391438636
 30
0.0
 41
3.0
 42
3.0
 43
3.0
 50
89.9999999999999
  0
INSERT
  5
3A86
330
3A7D
100
AcDbEntity
  8
DIM
 62
     0
370
    -2
100
AcDbBlockReference
  2
_DOT
 10
106.3339412011447
 20
1007.852668927864
 30
0.0
 41
3.0
 42
3.0
 43
3.0
 50
269.9999999999999
  0
MTEXT
  5
3A87
330
3A7D
100
AcDbEntity
  8
DIM
 62
     0
100
AcDbMText
 10
90.33169035707817
 20
1058.679184486029
 30
0.0
 40
12.0
 41
0.0
 46
0.0
 71
     5
 72
     1
  1
\A1;%%c16
  7
ＭＳ ゴシック
 11
1.780616685399861E-15
 21
1.0
 31
0.0
 73
     1
 44
1.0
  0
POINT
  5
3A88
330
3A7D
100
AcDbEntity
  8
Defpoints
 62
     0
100
AcDbPoint
 10
143.1897738371326
 20
1023.814391438636
 30
0.0
  0
POINT
  5
3A89
330
3A7D
100
AcDbEntity
  8
Defpoints
 62
     0
100
AcDbPoint
 10
143.1897738371326
 20
1007.852668927864
 30
0.0
  0
POINT
  5
3A8A
330
3A7D
100
AcDbEntity
  8
Defpoints
 62
     0
100
AcDbPoint
 10
106.3339412011447
 20
1007.852668927864
 30
0.0
  0
ENDBLK
  5
3A7F
330
3A7D
100
AcDbEntity
  8
0
100
AcDbBlockEnd
  0
ENDSEC
  0
SECTION
  2
ENTITIES
  0
MTEXT
  5
177
330
A
100
AcDbEntity
  8
TEMPLATE
390
1D
100
AcDbMText
 10
39.60107227386538
 20
171.8658758157141
 30
0.0
 40
8.144205729166663
 41
0.0
 46
0.0
 71
     1
 72
     1
  1
品名
  7
ＭＳ ゴシック
 73
     1
 44
0.7828267384257843
  0
MTEXT
  5
178
330
A
100
AcDbEntity
  8
TEMPLATE
390
1D
100
AcDbMText
 10
39.60107227386538
 20
129.365875815714
 30
0.0
 40
8.144205729166663
 41
0.0
 46
0.0
 71
     1
 72
     1
  1
仕様
  7
ＭＳ ゴシック
 73
     1
 44
0.7828267384257843
  0
LINE
  5
179
330
A
100
AcDbEntity
  8
TEMPLATE
390
1D
100
AcDbLine
 10
1011.101072273624
 20
133.5733367532142
 30
0.0
 11
36.10107227362437
 21
133.5733367532142
 31
0.0
  0
LWPOLYLINE
  5
17A
330
A
100
AcDbEntity
  8
TEMPLATE
390
1D
100
AcDbPolyline
 90
        5
 70
   128
 43
0.0
 10
1011.101072273624
 20
1448.573336753213
 10
36.10107227362437
 20
1448.573336753213
 10
36.10107227362437
 20
48.57333675321413
 10
1011.101072273624
 20
48.57333675321413
 10
1011.101072273624
 20
1448.573336753213
  0
LINE
  5
17B
330
A
100
AcDbEntity
  8
TEMPLATE
390
1D
100
AcDbLine
 10
1011.101072273624
 20
176.0733367532141
 30
0.0
 11
36.10107227362437
 21
176.0733367532141
 31
0.0
  0
LINE
  5
17C
330
A
100
AcDbEntity
  8
TEMPLATE
390
1D
100
AcDbLine
 10
1011.101072273866
 20
91.07333675321412
 30
0.0
 11
634.601072273865
 21
91.07333675321412
 31
0.0
  0
MTEXT
  5
17E
330
A
100
AcDbEntity
  8
TEMPLATE
390
1D
100
AcDbMText
 10
649.5367753999956
 20
76.11813951656006
 30
0.0
 40
12.21630859375
 41
0.0
 46
0.0
 71
     1
 72
     1
  1
大洋金物株式会社 ティーフォルム事業部
  7
ＭＳ ゴシック
 73
     1
 44
0.7828267384257843
  0
MTEXT
  5
180
330
A
100
AcDbEntity
  8
TEMPLATE
390
1D
100
AcDbMText
 10
915.601072273995
 20
115.0746453469641
 30
0.0
 40
12.21630859375
 41
0.0
 46
12.21630859375
 71
     1
 72
     1
  1
{1:5}
  7
ＭＳ ゴシック
 73
     1
 44
0.7828267384257843
1001
ACAD
1000
ACAD_MTEXT_DEFINED_HEIGHT_BEGIN
1070
    46
1040
12.21630859375
1000
ACAD_MTEXT_DEFINED_HEIGHT_END
  0
MTEXT
  5
181
330
A
100
AcDbEntity
  8
TEMPLATE
390
1D
100
AcDbMText
 10
889.101072273995
 20
129.365875815714
 30
0.0
 40
8.144205729166663
 41
0.0
 46
0.0
 71
     1
 72
     1
  1
縮尺
  7
ＭＳ ゴシック
 73
     1
 44
0.7828267384257843
  0
LINE
  5
182
330
A
100
AcDbEntity
  8
TEMPLATE
390
1D
100
AcDbLine
 10
885.601072273995
 20
91.07333675321412
 30
0.0
 11
885.601072273995
 21
133.5733367532142
 31
0.0
  0
MTEXT
  5
183
330
A
100
AcDbEntity
  8
TEMPLATE
390
1D
100
AcDbMText
 10
763.601072273995
 20
129.365875815714
 30
0.0
 40
8.144205729166663
 41
0.0
 46
0.0
 71
     1
 72
     1
  1
容量
  7
ＭＳ ゴシック
 73
     1
 44
0.7828267384257843
  0
LINE
  5
184
330
A
100
AcDbEntity
  8
TEMPLATE
390
1D
100
AcDbLine
 10
760.101072273995
 20
91.07333675321412
 30
0.0
 11
760.101072273995
 21
133.5733367532142
 31
0.0
  0
MTEXT
  5
185
330
A
100
AcDbEntity
  8
TEMPLATE
390
1D
100
AcDbMText
 10
638.101072273995
 20
171.8658758157141
 30
0.0
 40
8.144205729166663
 41
0.0
 46
0.0
 71
     1
 72
     1
  1
品番
  7
ＭＳ ゴシック
 73
     1
 44
0.7828267384257843
  0
MTEXT
  5
186
330
A
100
AcDbEntity
  8
TEMPLATE
390
1D
100
AcDbMText
 10
638.101072273995
 20
129.365875815714
 30
0.0
 40
8.144205729166663
 41
0.0
 46
0.0
 71
     1
 72
     1
  1
重量
  7
ＭＳ ゴシック
 73
     1
 44
0.7828267384257843
  0
LINE
  5
188
330
A
100
AcDbEntity
  8
TEMPLATE
390
1D
100
AcDbLine
 10
634.601072273995
 20
48.57333675321413
 30
0.0
 11
634.601072273995
 21
176.0733367532141
 31
0.0
  0
INSERT
  5
68C
330
A
100
AcDbEntity
  8
TEMPLATE
100
AcDbBlockReference
  2
block 2
 10
919.2743017702577
 20
8.373076514336368
 30
0.0
 41
0.3809999999999999
 42
0.3809999999999999
 43
0.3809999999999999
  0
LWPOLYLINE
  5
D69
330
A
100
AcDbEntity
  8
BORDER
100
AcDbPolyline
 90
        4
 70
     1
 43
0.0
 10
0.0
 20
0.0
 10
0.0
 20
1485.0
 10
1050.0
 20
1485.0
 10
1050.0
 20
0.0
  0
INSERT
  5
1343
330
A
100
AcDbEntity
  8
TEMPLATE
100
AcDbBlockReference
  2
block 2
 10
2096.743470866468
 20
24.43532141229569
 30
0.0
 41
0.3809999999999999
 42
0.3809999999999999
 43
0.3809999999999999
  0
MTEXT
  5
16ED
330
A
100
AcDbEntity
  8
TEMPLATE
390
1D
100
AcDbMText
 10
664.601072273995
 20
157.5746453469641
 30
0.0
 40
12.21630859375
 41
0.0
 46
12.21630859375
 71
     1
 72
     1
  1
{AGN74-4506-081}
  7
ＭＳ ゴシック
 73
     1
 44
0.7828267384257843
1001
ACAD
1000
ACAD_MTEXT_DEFINED_HEIGHT_BEGIN
1070
    46
1040
12.21630859375
1000
ACAD_MTEXT_DEFINED_HEIGHT_END
  0
MTEXT
  5
16EE
330
A
100
AcDbEntity
  8
TEMPLATE
390
1D
100
AcDbMText
 10
66.10107227386538
 20
157.5746453469641
 30
0.0
 40
12.21630859375
 41
0.0
 46
14.20067583937727
 71
     1
 72
     1
  1
{タオルバー　-FANTINI,Young-}
  7
ＭＳ ゴシック
 73
     1
 44
0.7828267384257843
1001
ACAD
1000
ACAD_MTEXT_DEFINED_HEIGHT_BEGIN
1070
    46
1040
14.20067583937727
1000
ACAD_MTEXT_DEFINED_HEIGHT_END
  0
MTEXT
  5
16F0
102
{ACAD_XDICTIONARY
360
16F1
102
}
330
A
100
AcDbEntity
  8
TEMPLATE
100
AcDbMText
 10
37.3643282742853
 20
41.93086052571419
 30
0.0
 40
11.0
 41
0.0
 46
11.0
 71
     1
 72
     1
  1
{20220324N}
  7
ＭＳ ゴシック
 73
     1
 44
1.0
1001
ACAD
1000
ACAD_MTEXT_DEFINED_HEIGHT_BEGIN
1070
    46
1040
11.0
1000
ACAD_MTEXT_DEFINED_HEIGHT_END
  0
HATCH
  5
2492
102
{ACAD_REACTORS
330
24A3
102
}
330
A
100
AcDbEntity
  8
TEMPLATE
100
AcDbHatch
 10
0.0
 20
0.0
 30
0.0
210
0.0
220
0.0
230
1.0
  2
SOLID
 70
     1
 71
     1
 91
        6
 92
        1
 93
        8
 72
     1
 10
967.3017148351717
 20
76.58153313569332
 11
967.3017148351717
 21
73.6268293203631
 72
     1
 10
967.3017148351717
 20
73.6268293203631
 11
962.6214190600165
 21
73.6268293203631
 72
     1
 10
962.6214190600165
 20
73.6268293203631
 11
962.6214190600165
 21
61.58153313641628
 72
     1
 10
962.6214190600165
 20
61.58153313641628
 11
958.5051124833788
 21
61.58153313641628
 72
     1
 10
958.5051124833788
 20
61.58153313641628
 11
958.5051124833788
 21
73.6268293203631
 72
     1
 10
958.5051124833788
 20
73.6268293203631
 11
953.9077617661067
 21
73.6268293203631
 72
     1
 10
953.9077617661067
 20
73.6268293203631
 11
953.9077617661067
 21
76.58153313569332
 72
     1
 10
953.9077617661067
 20
76.58153313569332
 11
967.3017148351717
 21
76.58153313569332
 97
        1
330
2493
 92
        1
 93
        1
 72
     4
 94
        3
 73
     0
 74
     1
 95
       56
 96
       52
 40
0.0
 40
0.0
 40
0.0
 40
0.0
 40
1.0
 40
1.0
 40
1.0
 40
2.0
 40
2.0
 40
2.0
 40
3.0
 40
3.0
 40
3.0
 40
4.0
 40
4.0
 40
4.0
 40
5.0
 40
5.0
 40
5.0
 40
6.0
 40
6.0
 40
6.0
 40
7.0
 40
7.0
 40
7.0
 40
8.0
 40
8.0
 40
8.0
 40
9.0
 40
9.0
 40
9.0
 40
10.0
 40
10.0
 40
10.0
 40
11.0
 40
11.0
 40
11.0
 40
12.0
 40
12.0
 40
12.0
 40
13.0
 40
13.0
 40
13.0
 40
14.0
 40
14.0
 40
14.0
 40
15.0
 40
15.0
 40
15.0
 40
16.0
 40
16.0
 40
16.0
 40
17.0
 40
17.0
 40
17.0
 40
17.0
 10
973.5728075523182
 20
76.22434865548715
 10
974.1497406432779
 20
76.38674243249227
 10
974.8945351899454
 20
76.2509059520473
 10
974.8945351899454
 20
76.2509059520473
 10
974.8945351899454
 20
76.2509059520473
 10
974.5367183931537
 20
75.17712080583556
 10
974.5367183931537
 20
75.17712080583556
 10
974.5367183931537
 20
75.17712080583556
 10
973.8055372506058
 20
75.3463212849002
 10
973.2415852471802
 20
74.90161675034386
 10
972.8033526588458
 20
74.55384262872275
 10
972.5194425122852
 20
73.6297677327276
 10
972.4105352793329
 20
73.2784228821572
 10
972.4105352793329
 20
73.2784228821572
 10
971.9249905324193
 20
71.78808988695778
 10
971.9249905324193
 20
71.78808988695778
 10
971.9249905324193
 20
71.78808988695778
 10
973.5170521075795
 20
71.78808988695778
 10
973.5170521075795
 20
71.78808988695778
 10
973.5170521075795
 20
71.78808988695778
 10
973.2694443720036
 20
70.85010402609774
 10
973.2694443720036
 20
70.85010402609774
 10
973.2694443720036
 20
70.85010402609774
 10
971.6644017093092
 20
70.85010402609774
 10
971.6644017093092
 20
70.85010402609774
 10
971.6644017093092
 20
70.85010402609774
 10
968.7926801469564
 20
61.58153313641628
 10
968.7926801469564
 20
61.58153313641628
 10
968.7926801469564
 20
61.58153313641628
 10
967.8935631585125
 20
61.58153313641628
 10
967.8935631585125
 20
61.58153313641628
 10
967.8935631585125
 20
61.58153313641628
 10
970.7678883773913
 20
70.85010402609774
 10
970.7678883773913
 20
70.85010402609774
 10
970.7678883773913
 20
70.85010402609774
 10
969.5835222190324
 20
70.85010402609774
 10
969.5835222190324
 20
70.85010402609774
 10
969.5835222190324
 20
70.85010402609774
 10
969.8317994662855
 20
71.78808988695778
 10
969.8317994662855
 20
71.78808988695778
 10
969.8317994662855
 20
71.78808988695778
 10
971.0284772005014
 20
71.78808988695778
 10
971.0284772005014
 20
71.78808988695778
 10
971.0284772005014
 20
71.78808988695778
 10
971.4517573613628
 20
73.08783522449019
 10
971.4517573613628
 20
73.08783522449019
 10
971.7940266091862
 20
74.17753987060073
 10
972.0844458970603
 20
74.76258149188186
 10
972.3333926559915
 20
75.20367810239571
 10
972.579698563304
 20
75.64514666384179
 10
973.0671774550653
 20
76.07880425571142
 10
973.5728075523182
 20
76.22434865548715
 97
        1
330
249E
 92
        1
 93
        1
 72
     4
 94
        3
 73
     0
 74
     1
 95
       32
 96
       28
 40
0.0
 40
0.0
 40
0.0
 40
0.0
 40
1.0
 40
1.0
 40
1.0
 40
2.0
 40
2.0
 40
2.0
 40
3.0
 40
3.0
 40
3.0
 40
4.0
 40
4.0
 40
4.0
 40
5.0
 40
5.0
 40
5.0
 40
6.0
 40
6.0
 40
6.0
 40
7.0
 40
7.0
 40
7.0
 40
8.0
 40
8.0
 40
8.0
 40
9.0
 40
9.0
 40
9.0
 40
9.0
 10
975.760585740514
 20
71.22123666626197
 10
975.2193227439554
 20
70.52111342655351
 10
974.8025145293147
 20
69.89102854738113
 10
974.1277211480899
 20
67.91065019898832
 10
973.5073441882485
 20
66.09917476891434
 10
973.1125554687958
 20
64.78127822588988
 10
973.0529317343623
 20
63.17623556319532
 10
973.007553720631
 20
61.98182672966618
 10
973.7348665734851
 20
61.58153313641628
 10
974.801249896145
 20
61.58153313641628
 10
975.2608324679911
 20
61.58153313641628
 10
976.420575474637
 20
61.61076847968843
 10
977.2464553245279
 20
62.6316993984324
 10
977.8246158535619
 20
63.34896957611602
 10
978.3574727590537
 20
64.092499489614
 10
979.0718417194655
 20
66.53153053252123
 10
979.6662936993323
 20
68.57056554292433
 10
980.0778946009211
 20
69.88842489085562
 10
980.0474690146664
 20
70.63876150641318
 10
980.0474690146664
 20
70.63876150641318
 10
980.0474690146664
 20
70.63876150641318
 10
980.0474690146664
 20
70.63876150641318
 10
979.8536081887958
 20
71.89052517368981
 10
978.9447832810217
 20
72.155019481588
 10
978.4255397796494
 20
72.155019481588
 10
977.914107247853
 20
72.155019481588
 10
976.5436912332004
 20
72.24350660836194
 10
975.760585740514
 20
71.22123666626197
 97
        1
330
24A1
 92
        1
 93
        1
 72
     4
 94
        3
 73
     0
 74
     1
 95
       38
 96
       34
 40
0.0
 40
0.0
 40
0.0
 40
0.0
 40
1.0
 40
1.0
 40
1.0
 40
2.0
 40
2.0
 40
2.0
 40
3.0
 40
3.0
 40
3.0
 40
4.0
 40
4.0
 40
4.0
 40
5.0
 40
5.0
 40
5.0
 40
6.0
 40
6.0
 40
6.0
 40
7.0
 40
7.0
 40
7.0
 40
8.0
 40
8.0
 40
8.0
 40
9.0
 40
9.0
 40
9.0
 40
10.0
 40
10.0
 40
10.0
 40
11.0
 40
11.0
 40
11.0
 40
11.0
 10
983.3346969633965
 20
71.75212223181256
 10
983.3346969633965
 20
71.75212223181256
 10
984.2590694201378
 20
71.75212223181256
 10
984.2590694201378
 20
71.75212223181256
 10
984.2590694201378
 20
71.75212223181256
 10
983.8461294951928
 20
70.43002264325406
 10
983.8461294951928
 20
70.43002264325406
 10
984.1599073016093
 20
70.80115528341824
 10
984.6551227727603
 20
71.29544087723889
 10
985.080411468655
 20
71.54468519691622
 10
985.7157036608785
 20
71.9158178370804
 10
986.0787277707202
 20
71.96476657975995
 10
986.4779799013602
 20
71.9550214653359
 10
986.4779799013602
 20
71.9550214653359
 10
986.0878033734668
 20
70.70489438216094
 10
986.0878033734668
 20
70.70489438216094
 10
985.8336864965765
 20
70.81249978685082
 10
985.0505810038919
 20
70.60766640847999
 10
984.6013386679622
 20
70.28451543857147
 10
984.196209712594
 20
69.9931290782742
 10
983.9161306606354
 20
69.74518658685963
 10
983.584276038913
 20
69.12187121465354
 10
983.2549506835301
 20
68.49762596511695
 10
982.9950313720981
 20
67.50224807541616
 10
982.5477231810162
 20
66.05826016637073
 10
982.5477231810162
 20
66.05826016637073
 10
981.1507498698027
 20
61.58153313641628
 10
981.1507498698027
 20
61.58153313641628
 10
981.1507498698027
 20
61.58153313641628
 10
980.2536042212994
 20
61.58153313641628
 10
980.2536042212994
 20
61.58153313641628
 10
980.2536042212994
 20
61.58153313641628
 10
983.3346969633965
 20
71.75212223181256
 10
983.3346969633965
 20
71.75212223181256
 97
        1
330
249F
 92
        1
 93
        1
 72
     4
 94
        3
 73
     0
 74
     1
 95
      104
 96
      100
 40
0.0
 40
0.0
 40
0.0
 40
0.0
 40
1.0
 40
1.0
 40
1.0
 40
2.0
 40
2.0
 40
2.0
 40
3.0
 40
3.0
 40
3.0
 40
4.0
 40
4.0
 40
4.0
 40
5.0
 40
5.0
 40
5.0
 40
6.0
 40
6.0
 40
6.0
 40
7.0
 40
7.0
 40
7.0
 40
8.0
 40
8.0
 40
8.0
 40
9.0
 40
9.0
 40
9.0
 40
10.0
 40
10.0
 40
10.0
 40
11.0
 40
11.0
 40
11.0
 40
12.0
 40
12.0
 40
12.0
 40
13.0
 40
13.0
 40
13.0
 40
14.0
 40
14.0
 40
14.0
 40
15.0
 40
15.0
 40
15.0
 40
16.0
 40
16.0
 40
16.0
 40
17.0
 40
17.0
 40
17.0
 40
18.0
 40
18.0
 40
18.0
 40
19.0
 40
19.0
 40
19.0
 40
20.0
 40
20.0
 40
20.0
 40
21.0
 40
21.0
 40
21.0
 40
22.0
 40
22.0
 40
22.0
 40
23.0
 40
23.0
 40
23.0
 40
24.0
 40
24.0
 40
24.0
 40
25.0
 40
25.0
 40
25.0
 40
26.0
 40
26.0
 40
26.0
 40
27.0
 40
27.0
 40
27.0
 40
28.0
 40
28.0
 40
28.0
 40
29.0
 40
29.0
 40
29.0
 40
30.0
 40
30.0
 40
30.0
 40
31.0
 40
31.0
 40
31.0
 40
32.0
 40
32.0
 40
32.0
 40
33.0
 40
33.0
 40
33.0
 40
33.0
 10
988.4227625455403
 20
71.75762710560934
 10
988.4227625455403
 20
71.75762710560934
 10
989.2298216782599
 20
71.75762710560934
 10
989.2298216782599
 20
71.75762710560934
 10
989.2298216782599
 20
71.75762710560934
 10
988.8220890663658
 20
70.43426288388127
 10
988.8220890663658
 20
70.43426288388127
 10
989.1759631832754
 20
70.98913928455974
 10
989.4936092793876
 20
71.23644945938958
 10
989.9156248070792
 20
71.55602970034877
 10
990.3389049679397
 20
71.87107213993494
 10
990.841336287175
 20
71.93527087083527
 10
991.19007748122
 20
71.93527087083527
 10
991.6218381233355
 20
71.93527087083527
 10
992.0386463379762
 20
71.85001971717159
 10
992.2577254370497
 20
71.37678654611435
 10
992.4256240878528
 20
71.00569110104331
 10
992.4334350574288
 20
70.96191247632157
 10
992.3854533871734
 20
70.22939231041721
 10
992.8242810970003
 20
70.9803984376527
 10
993.1483991393322
 20
71.30388416340014
 10
993.6994072503155
 20
71.6146863623591
 10
994.2776421695378
 20
71.93527087083527
 10
994.6147041043112
 20
71.95926170596317
 10
995.0062940457472
 20
71.90153492128334
 10
995.5831899416123
 20
71.8163209627129
 10
995.9514213645059
 20
71.61048331682503
 10
996.1439431670203
 20
70.98493623902573
 10
996.3371344812128
 20
70.3613233060739
 10
996.2327650496334
 20
70.02682783273289
 10
995.9941957217104
 20
69.03405359955758
 10
995.8852884887581
 20
68.58191004635688
 10
995.7277300738713
 20
68.03443546922952
 10
995.5215948672374
 20
67.38300060654797
 10
995.5215948672374
 20
67.38300060654797
 10
993.6994072503155
 20
61.58153313641628
 10
993.6994072503155
 20
61.58153313641628
 10
993.6994072503155
 20
61.58153313641628
 10
992.7516762750327
 20
61.58153313641628
 10
992.7516762750327
 20
61.58153313641628
 10
992.7516762750327
 20
61.58153313641628
 10
994.3470482134887
 20
66.65338165791485
 10
994.3470482134887
 20
66.65338165791485
 10
994.6802418585673
 20
67.71455766752453
 10
994.9057929038624
 20
68.48951743479464
 10
995.0225111063917
 20
68.97539693754726
 10
995.1689853834976
 20
69.58149098159171
 10
995.2273072896694
 20
69.78148899784378
 10
995.157975635904
 20
70.22262280345092
 10
995.0944464166821
 20
70.63325663261634
 10
994.886972186692
 20
70.9006521577858
 10
994.5317590464272
 20
70.9006521577858
 10
994.1531873876181
 20
70.9006521577858
 10
993.8465510391004
 20
70.85851011716579
 10
993.4174684436964
 20
70.42745618182173
 10
992.9883114581078
 20
69.9931290782742
 10
992.6336934393337
 20
69.48329593548695
 10
992.3556229224093
 20
68.8969524859431
 10
992.0781475269766
 20
68.30703830744997
 10
991.7968038418492
 20
67.55930534841795
 10
991.5115918670269
 20
66.65338165791485
 10
991.5115918670269
 20
66.65338165791485
 10
989.9156248070792
 20
61.58153313641628
 10
989.9156248070792
 20
61.58153313641628
 10
989.9156248070792
 20
61.58153313641628
 10
989.0242815931185
 20
61.58153313641628
 10
989.0242815931185
 20
61.58153313641628
 10
989.0242815931185
 20
61.58153313641628
 10
990.8490728665654
 20
67.38039695002249
 10
990.8490728665654
 20
67.38039695002249
 10
991.0415946690798
 20
67.99753793675379
 10
991.1862091915252
 20
68.50056437748145
 10
991.281503020359
 20
68.89371651283278
 10
991.4435248464313
 20
69.57048123399818
 10
991.4889028601626
 20
70.0281296609956
 10
991.3663822230899
 20
70.43426288388127
 10
991.2457957308659
 20
70.83909427850418
 10
991.0338580896903
 20
70.94249663765996
 10
990.6799095825943
 20
70.94249663765996
 10
990.3830183485004
 20
70.94249663765996
 10
990.0932685723044
 20
70.81510344337633
 10
989.7626785837517
 20
70.56161888307173
 10
989.3464654906027
 20
70.24270815379049
 10
989.1799058631566
 20
69.98081750241784
 10
988.9757048013705
 20
69.66964335252672
 10
988.7001635507856
 20
69.25800525584427
 10
988.571170967494
 20
68.98090181134404
 10
988.3384784643001
 20
68.37283642735878
 10
988.1057115709198
 20
67.76120031442431
 10
987.8853678386756
 20
67.04943501053751
 10
987.7316777134836
 20
66.55712075665758
 10
987.7316777134836
 20
66.55712075665758
 10
986.1662106299771
 20
61.58153313641628
 10
986.1662106299771
 20
61.58153313641628
 10
986.1662106299771
 20
61.58153313641628
 10
985.2327625704909
 20
61.58153313641628
 10
985.2327625704909
 20
61.58153313641628
 10
985.2327625704909
 20
61.58153313641628
 10
988.4227625455403
 20
71.75762710560934
 10
988.4227625455403
 20
71.75762710560934
 97
        1
330
24A0
 92
       16
 93
        1
 72
     4
 94
        3
 73
     0
 74
     1
 95
       29
 96
       25
 40
0.0
 40
0.0
 40
0.0
 40
0.0
 40
1.0
 40
1.0
 40
1.0
 40
2.0
 40
2.0
 40
2.0
 40
3.0
 40
3.0
 40
3.0
 40
4.0
 40
4.0
 40
4.0
 40
5.0
 40
5.0
 40
5.0
 40
6.0
 40
6.0
 40
6.0
 40
7.0
 40
7.0
 40
7.0
 40
8.0
 40
8.0
 40
8.0
 40
8.0
 10
974.0214175716626
 20
63.47632557530645
 10
974.0174748917814
 20
64.18489210117616
 10
974.241166182416
 20
65.44379722635136
 10
974.8141937885864
 20
67.12821421798066
 10
975.594695624746
 20
69.4090545294168
 10
976.0627586778462
 20
70.24270815379049
 10
976.4723510444016
 20
70.64850662083717
 10
977.0707457041487
 20
71.23938787175408
 10
977.8752011803442
 20
71.2688463855855
 10
978.1125058750974
 20
71.23938787175408
 10
978.450237321548
 20
71.19884522014263
 10
978.9273015872075
 20
70.97779478112719
 10
978.9557930286153
 20
70.23363255104445
 10
978.978556425667
 20
69.59674096981257
 10
978.7950358357118
 20
68.4039687203852
 10
978.152676575776
 20
66.53153053252123
 10
977.4123454402959
 20
64.35569196924934
 10
976.967640905739
 20
63.50035360552755
 10
976.6111631323035
 20
63.12758438126156
 10
975.9395685290963
 20
62.42876296981586
 10
975.2193227439554
 20
62.49586291798744
 10
975.1130191675281
 20
62.49586291798744
 10
974.9749509814899
 20
62.49586291798744
 10
974.0233517165104
 20
62.64568475348372
 10
974.0214175716626
 20
63.47632557530645
 97
        1
330
24A2
 75
     0
 76
     1
 98
        1
 10
929.7307651966601
 20
36.16262959939627
1001
ACAD
1010
0.0
1020
0.0
1030
0.0
  0
POLYLINE
  5
2493
102
{ACAD_REACTORS
330
2492
330
24A3
102
}
330
A
100
AcDbEntity
  8
TEMPLATE
100
AcDb2dPolyline
 66
     1
 10
0.0
 20
0.0
 30
0.0
  0
VERTEX
  5
2494
330
2493
100
AcDbEntity
  8
TEMPLATE
100
AcDbVertex
100
AcDb2dVertex
 10
967.3017148351717
 20
76.58153313569332
 30
0.0
  0
VERTEX
  5
2495
330
2493
100
AcDbEntity
  8
TEMPLATE
100
AcDbVertex
100
AcDb2dVertex
 10
967.3017148351717
 20
73.6268293203631
 30
0.0
  0
VERTEX
  5
2496
330
2493
100
AcDbEntity
  8
TEMPLATE
100
AcDbVertex
100
AcDb2dVertex
 10
962.6214190600165
 20
73.6268293203631
 30
0.0
  0
VERTEX
  5
2497
330
2493
100
AcDbEntity
  8
TEMPLATE
100
AcDbVertex
100
AcDb2dVertex
 10
962.6214190600165
 20
61.58153313641628
 30
0.0
  0
VERTEX
  5
2498
330
2493
100
AcDbEntity
  8
TEMPLATE
100
AcDbVertex
100
AcDb2dVertex
 10
958.5051124833788
 20
61.58153313641628
 30
0.0
  0
VERTEX
  5
2499
330
2493
100
AcDbEntity
  8
TEMPLATE
100
AcDbVertex
100
AcDb2dVertex
 10
958.5051124833788
 20
73.6268293203631
 30
0.0
  0
VERTEX
  5
249A
330
2493
100
AcDbEntity
  8
TEMPLATE
100
AcDbVertex
100
AcDb2dVertex
 10
953.9077617661067
 20
73.6268293203631
 30
0.0
  0
VERTEX
  5
249B
330
2493
100
AcDbEntity
  8
TEMPLATE
100
AcDbVertex
100
AcDb2dVertex
 10
953.9077617661067
 20
76.58153313569332
 30
0.0
  0
VERTEX
  5
249C
330
2493
100
AcDbEntity
  8
TEMPLATE
100
AcDbVertex
100
AcDb2dVertex
 10
967.3017148351717
 20
76.58153313569332
 30
0.0
  0
SEQEND
  5
249D
330
2493
100
AcDbEntity
  8
TEMPLATE
  0
SPLINE
  5
249E
102
{ACAD_REACTORS
330
2492
330
24A3
102
}
330
A
100
AcDbEntity
  8
TEMPLATE
100
AcDbSpline
210
0.0
220
0.0
230
1.0
 70
    11
 71
     3
 72
    56
 73
    52
 74
     0
 42
0.000000001
 43
0.0000000001
 40
0.0
 40
0.0
 40
0.0
 40
0.0
 40
1.0
 40
1.0
 40
1.0
 40
2.0
 40
2.0
 40
2.0
 40
3.0
 40
3.0
 40
3.0
 40
4.0
 40
4.0
 40
4.0
 40
5.0
 40
5.0
 40
5.0
 40
6.0
 40
6.0
 40
6.0
 40
7.0
 40
7.0
 40
7.0
 40
8.0
 40
8.0
 40
8.0
 40
9.0
 40
9.0
 40
9.0
 40
10.0
 40
10.0
 40
10.0
 40
11.0
 40
11.0
 40
11.0
 40
12.0
 40
12.0
 40
12.0
 40
13.0
 40
13.0
 40
13.0
 40
14.0
 40
14.0
 40
14.0
 40
15.0
 40
15.0
 40
15.0
 40
16.0
 40
16.0
 40
16.0
 40
17.0
 40
17.0
 40
17.0
 40
17.0
 10
973.5728075523182
 20
76.22434865548715
 30
0.0
 10
974.1497406432779
 20
76.38674243249227
 30
0.0
 10
974.8945351899454
 20
76.2509059520473
 30
0.0
 10
974.8945351899454
 20
76.2509059520473
 30
0.0
 10
974.8945351899454
 20
76.2509059520473
 30
0.0
 10
974.5367183931537
 20
75.17712080583556
 30
0.0
 10
974.5367183931537
 20
75.17712080583556
 30
0.0
 10
974.5367183931537
 20
75.17712080583556
 30
0.0
 10
973.8055372506058
 20
75.3463212849002
 30
0.0
 10
973.2415852471802
 20
74.90161675034386
 30
0.0
 10
972.8033526588458
 20
74.55384262872275
 30
0.0
 10
972.5194425122852
 20
73.6297677327276
 30
0.0
 10
972.4105352793329
 20
73.2784228821572
 30
0.0
 10
972.4105352793329
 20
73.2784228821572
 30
0.0
 10
971.9249905324193
 20
71.78808988695778
 30
0.0
 10
971.9249905324193
 20
71.78808988695778
 30
0.0
 10
971.9249905324193
 20
71.78808988695778
 30
0.0
 10
973.5170521075795
 20
71.78808988695778
 30
0.0
 10
973.5170521075795
 20
71.78808988695778
 30
0.0
 10
973.5170521075795
 20
71.78808988695778
 30
0.0
 10
973.2694443720036
 20
70.85010402609774
 30
0.0
 10
973.2694443720036
 20
70.85010402609774
 30
0.0
 10
973.2694443720036
 20
70.85010402609774
 30
0.0
 10
971.6644017093092
 20
70.85010402609774
 30
0.0
 10
971.6644017093092
 20
70.85010402609774
 30
0.0
 10
971.6644017093092
 20
70.85010402609774
 30
0.0
 10
968.7926801469564
 20
61.58153313641628
 30
0.0
 10
968.7926801469564
 20
61.58153313641628
 30
0.0
 10
968.7926801469564
 20
61.58153313641628
 30
0.0
 10
967.8935631585125
 20
61.58153313641628
 30
0.0
 10
967.8935631585125
 20
61.58153313641628
 30
0.0
 10
967.8935631585125
 20
61.58153313641628
 30
0.0
 10
970.7678883773913
 20
70.85010402609774
 30
0.0
 10
970.7678883773913
 20
70.85010402609774
 30
0.0
 10
970.7678883773913
 20
70.85010402609774
 30
0.0
 10
969.5835222190324
 20
70.85010402609774
 30
0.0
 10
969.5835222190324
 20
70.85010402609774
 30
0.0
 10
969.5835222190324
 20
70.85010402609774
 30
0.0
 10
969.8317994662855
 20
71.78808988695778
 30
0.0
 10
969.8317994662855
 20
71.78808988695778
 30
0.0
 10
969.8317994662855
 20
71.78808988695778
 30
0.0
 10
971.0284772005014
 20
71.78808988695778
 30
0.0
 10
971.0284772005014
 20
71.78808988695778
 30
0.0
 10
971.0284772005014
 20
71.78808988695778
 30
0.0
 10
971.4517573613628
 20
73.08783522449019
 30
0.0
 10
971.4517573613628
 20
73.08783522449019
 30
0.0
 10
971.7940266091862
 20
74.17753987060073
 30
0.0
 10
972.0844458970603
 20
74.76258149188186
 30
0.0
 10
972.3333926559915
 20
75.20367810239571
 30
0.0
 10
972.579698563304
 20
75.64514666384179
 30
0.0
 10
973.0671774550653
 20
76.07880425571142
 30
0.0
 10
973.5728075523182
 20
76.22434865548715
 30
0.0
  0
SPLINE
  5
249F
102
{ACAD_REACTORS
330
2492
330
24A3
102
}
330
A
100
AcDbEntity
  8
TEMPLATE
100
AcDbSpline
210
0.0
220
0.0
230
1.0
 70
    11
 71
     3
 72
    38
 73
    34
 74
     0
 42
0.000000001
 43
0.0000000001
 40
0.0
 40
0.0
 40
0.0
 40
0.0
 40
1.0
 40
1.0
 40
1.0
 40
2.0
 40
2.0
 40
2.0
 40
3.0
 40
3.0
 40
3.0
 40
4.0
 40
4.0
 40
4.0
 40
5.0
 40
5.0
 40
5.0
 40
6.0
 40
6.0
 40
6.0
 40
7.0
 40
7.0
 40
7.0
 40
8.0
 40
8.0
 40
8.0
 40
9.0
 40
9.0
 40
9.0
 40
10.0
 40
10.0
 40
10.0
 40
11.0
 40
11.0
 40
11.0
 40
11.0
 10
983.3346969633965
 20
71.75212223181256
 30
0.0
 10
983.3346969633965
 20
71.75212223181256
 30
0.0
 10
984.2590694201378
 20
71.75212223181256
 30
0.0
 10
984.2590694201378
 20
71.75212223181256
 30
0.0
 10
984.2590694201378
 20
71.75212223181256
 30
0.0
 10
983.8461294951928
 20
70.43002264325406
 30
0.0
 10
983.8461294951928
 20
70.43002264325406
 30
0.0
 10
984.1599073016093
 20
70.80115528341824
 30
0.0
 10
984.6551227727603
 20
71.29544087723889
 30
0.0
 10
985.080411468655
 20
71.54468519691622
 30
0.0
 10
985.7157036608785
 20
71.9158178370804
 30
0.0
 10
986.0787277707202
 20
71.96476657975995
 30
0.0
 10
986.4779799013602
 20
71.9550214653359
 30
0.0
 10
986.4779799013602
 20
71.9550214653359
 30
0.0
 10
986.0878033734668
 20
70.70489438216094
 30
0.0
 10
986.0878033734668
 20
70.70489438216094
 30
0.0
 10
985.8336864965765
 20
70.81249978685082
 30
0.0
 10
985.0505810038919
 20
70.60766640847999
 30
0.0
 10
984.6013386679622
 20
70.28451543857147
 30
0.0
 10
984.196209712594
 20
69.9931290782742
 30
0.0
 10
983.9161306606354
 20
69.74518658685963
 30
0.0
 10
983.584276038913
 20
69.12187121465354
 30
0.0
 10
983.2549506835301
 20
68.49762596511695
 30
0.0
 10
982.9950313720981
 20
67.50224807541616
 30
0.0
 10
982.5477231810162
 20
66.05826016637073
 30
0.0
 10
982.5477231810162
 20
66.05826016637073
 30
0.0
 10
981.1507498698027
 20
61.58153313641628
 30
0.0
 10
981.1507498698027
 20
61.58153313641628
 30
0.0
 10
981.1507498698027
 20
61.58153313641628
 30
0.0
 10
980.2536042212994
 20
61.58153313641628
 30
0.0
 10
980.2536042212994
 20
61.58153313641628
 30
0.0
 10
980.2536042212994
 20
61.58153313641628
 30
0.0
 10
983.3346969633965
 20
71.75212223181256
 30
0.0
 10
983.3346969633965
 20
71.75212223181256
 30
0.0
  0
SPLINE
  5
24A0
102
{ACAD_REACTORS
330
2492
330
24A3
102
}
330
A
100
AcDbEntity
  8
TEMPLATE
100
AcDbSpline
210
0.0
220
0.0
230
1.0
 70
    11
 71
     3
 72
   104
 73
   100
 74
     0
 42
0.000000001
 43
0.0000000001
 40
0.0
 40
0.0
 40
0.0
 40
0.0
 40
1.0
 40
1.0
 40
1.0
 40
2.0
 40
2.0
 40
2.0
 40
3.0
 40
3.0
 40
3.0
 40
4.0
 40
4.0
 40
4.0
 40
5.0
 40
5.0
 40
5.0
 40
6.0
 40
6.0
 40
6.0
 40
7.0
 40
7.0
 40
7.0
 40
8.0
 40
8.0
 40
8.0
 40
9.0
 40
9.0
 40
9.0
 40
10.0
 40
10.0
 40
10.0
 40
11.0
 40
11.0
 40
11.0
 40
12.0
 40
12.0
 40
12.0
 40
13.0
 40
13.0
 40
13.0
 40
14.0
 40
14.0
 40
14.0
 40
15.0
 40
15.0
 40
15.0
 40
16.0
 40
16.0
 40
16.0
 40
17.0
 40
17.0
 40
17.0
 40
18.0
 40
18.0
 40
18.0
 40
19.0
 40
19.0
 40
19.0
 40
20.0
 40
20.0
 40
20.0
 40
21.0
 40
21.0
 40
21.0
 40
22.0
 40
22.0
 40
22.0
 40
23.0
 40
23.0
 40
23.0
 40
24.0
 40
24.0
 40
24.0
 40
25.0
 40
25.0
 40
25.0
 40
26.0
 40
26.0
 40
26.0
 40
27.0
 40
27.0
 40
27.0
 40
28.0
 40
28.0
 40
28.0
 40
29.0
 40
29.0
 40
29.0
 40
30.0
 40
30.0
 40
30.0
 40
31.0
 40
31.0
 40
31.0
 40
32.0
 40
32.0
 40
32.0
 40
33.0
 40
33.0
 40
33.0
 40
33.0
 10
988.4227625455403
 20
71.75762710560934
 30
0.0
 10
988.4227625455403
 20
71.75762710560934
 30
0.0
 10
989.2298216782599
 20
71.75762710560934
 30
0.0
 10
989.2298216782599
 20
71.75762710560934
 30
0.0
 10
989.2298216782599
 20
71.75762710560934
 30
0.0
 10
988.8220890663658
 20
70.43426288388127
 30
0.0
 10
988.8220890663658
 20
70.43426288388127
 30
0.0
 10
989.1759631832754
 20
70.98913928455974
 30
0.0
 10
989.4936092793876
 20
71.23644945938958
 30
0.0
 10
989.9156248070792
 20
71.55602970034877
 30
0.0
 10
990.3389049679397
 20
71.87107213993494
 30
0.0
 10
990.841336287175
 20
71.93527087083527
 30
0.0
 10
991.19007748122
 20
71.93527087083527
 30
0.0
 10
991.6218381233355
 20
71.93527087083527
 30
0.0
 10
992.0386463379762
 20
71.85001971717159
 30
0.0
 10
992.2577254370497
 20
71.37678654611435
 30
0.0
 10
992.4256240878528
 20
71.00569110104331
 30
0.0
 10
992.4334350574288
 20
70.96191247632157
 30
0.0
 10
992.3854533871734
 20
70.22939231041721
 30
0.0
 10
992.8242810970003
 20
70.9803984376527
 30
0.0
 10
993.1483991393322
 20
71.30388416340014
 30
0.0
 10
993.6994072503155
 20
71.6146863623591
 30
0.0
 10
994.2776421695378
 20
71.93527087083527
 30
0.0
 10
994.6147041043112
 20
71.95926170596317
 30
0.0
 10
995.0062940457472
 20
71.90153492128334
 30
0.0
 10
995.5831899416123
 20
71.8163209627129
 30
0.0
 10
995.9514213645059
 20
71.61048331682503
 30
0.0
 10
996.1439431670203
 20
70.98493623902573
 30
0.0
 10
996.3371344812128
 20
70.3613233060739
 30
0.0
 10
996.2327650496334
 20
70.02682783273289
 30
0.0
 10
995.9941957217104
 20
69.03405359955758
 30
0.0
 10
995.8852884887581
 20
68.58191004635688
 30
0.0
 10
995.7277300738713
 20
68.03443546922952
 30
0.0
 10
995.5215948672374
 20
67.38300060654797
 30
0.0
 10
995.5215948672374
 20
67.38300060654797
 30
0.0
 10
993.6994072503155
 20
61.58153313641628
 30
0.0
 10
993.6994072503155
 20
61.58153313641628
 30
0.0
 10
993.6994072503155
 20
61.58153313641628
 30
0.0
 10
992.7516762750327
 20
61.58153313641628
 30
0.0
 10
992.7516762750327
 20
61.58153313641628
 30
0.0
 10
992.7516762750327
 20
61.58153313641628
 30
0.0
 10
994.3470482134887
 20
66.65338165791485
 30
0.0
 10
994.3470482134887
 20
66.65338165791485
 30
0.0
 10
994.6802418585673
 20
67.71455766752453
 30
0.0
 10
994.9057929038624
 20
68.48951743479464
 30
0.0
 10
995.0225111063917
 20
68.97539693754726
 30
0.0
 10
995.1689853834976
 20
69.58149098159171
 30
0.0
 10
995.2273072896694
 20
69.78148899784378
 30
0.0
 10
995.157975635904
 20
70.22262280345092
 30
0.0
 10
995.0944464166821
 20
70.63325663261634
 30
0.0
 10
994.886972186692
 20
70.9006521577858
 30
0.0
 10
994.5317590464272
 20
70.9006521577858
 30
0.0
 10
994.1531873876181
 20
70.9006521577858
 30
0.0
 10
993.8465510391004
 20
70.85851011716579
 30
0.0
 10
993.4174684436964
 20
70.42745618182173
 30
0.0
 10
992.9883114581078
 20
69.9931290782742
 30
0.0
 10
992.6336934393337
 20
69.48329593548695
 30
0.0
 10
992.3556229224093
 20
68.8969524859431
 30
0.0
 10
992.0781475269766
 20
68.30703830744997
 30
0.0
 10
991.7968038418492
 20
67.55930534841795
 30
0.0
 10
991.5115918670269
 20
66.65338165791485
 30
0.0
 10
991.5115918670269
 20
66.65338165791485
 30
0.0
 10
989.9156248070792
 20
61.58153313641628
 30
0.0
 10
989.9156248070792
 20
61.58153313641628
 30
0.0
 10
989.9156248070792
 20
61.58153313641628
 30
0.0
 10
989.0242815931185
 20
61.58153313641628
 30
0.0
 10
989.0242815931185
 20
61.58153313641628
 30
0.0
 10
989.0242815931185
 20
61.58153313641628
 30
0.0
 10
990.8490728665654
 20
67.38039695002249
 30
0.0
 10
990.8490728665654
 20
67.38039695002249
 30
0.0
 10
991.0415946690798
 20
67.99753793675379
 30
0.0
 10
991.1862091915252
 20
68.50056437748145
 30
0.0
 10
991.281503020359
 20
68.89371651283278
 30
0.0
 10
991.4435248464313
 20
69.57048123399818
 30
0.0
 10
991.4889028601626
 20
70.0281296609956
 30
0.0
 10
991.3663822230899
 20
70.43426288388127
 30
0.0
 10
991.2457957308659
 20
70.83909427850418
 30
0.0
 10
991.0338580896903
 20
70.94249663765996
 30
0.0
 10
990.6799095825943
 20
70.94249663765996
 30
0.0
 10
990.3830183485004
 20
70.94249663765996
 30
0.0
 10
990.0932685723044
 20
70.81510344337633
 30
0.0
 10
989.7626785837517
 20
70.56161888307173
 30
0.0
 10
989.3464654906027
 20
70.24270815379049
 30
0.0
 10
989.1799058631566
 20
69.98081750241784
 30
0.0
 10
988.9757048013705
 20
69.66964335252672
 30
0.0
 10
988.7001635507856
 20
69.25800525584427
 30
0.0
 10
988.571170967494
 20
68.98090181134404
 30
0.0
 10
988.3384784643001
 20
68.37283642735878
 30
0.0
 10
988.1057115709198
 20
67.76120031442431
 30
0.0
 10
987.8853678386756
 20
67.04943501053751
 30
0.0
 10
987.7316777134836
 20
66.55712075665758
 30
0.0
 10
987.7316777134836
 20
66.55712075665758
 30
0.0
 10
986.1662106299771
 20
61.58153313641628
 30
0.0
 10
986.1662106299771
 20
61.58153313641628
 30
0.0
 10
986.1662106299771
 20
61.58153313641628
 30
0.0
 10
985.2327625704909
 20
61.58153313641628
 30
0.0
 10
985.2327625704909
 20
61.58153313641628
 30
0.0
 10
985.2327625704909
 20
61.58153313641628
 30
0.0
 10
988.4227625455403
 20
71.75762710560934
 30
0.0
 10
988.4227625455403
 20
71.75762710560934
 30
0.0
  0
SPLINE
  5
24A1
102
{ACAD_REACTORS
330
2492
330
24A3
102
}
330
A
100
AcDbEntity
  8
TEMPLATE
100
AcDbSpline
210
0.0
220
0.0
230
1.0
 70
    11
 71
     3
 72
    32
 73
    28
 74
     0
 42
0.000000001
 43
0.0000000001
 40
0.0
 40
0.0
 40
0.0
 40
0.0
 40
1.0
 40
1.0
 40
1.0
 40
2.0
 40
2.0
 40
2.0
 40
3.0
 40
3.0
 40
3.0
 40
4.0
 40
4.0
 40
4.0
 40
5.0
 40
5.0
 40
5.0
 40
6.0
 40
6.0
 40
6.0
 40
7.0
 40
7.0
 40
7.0
 40
8.0
 40
8.0
 40
8.0
 40
9.0
 40
9.0
 40
9.0
 40
9.0
 10
975.760585740514
 20
71.22123666626197
 30
0.0
 10
975.2193227439554
 20
70.52111342655351
 30
0.0
 10
974.8025145293147
 20
69.89102854738113
 30
0.0
 10
974.1277211480899
 20
67.91065019898832
 30
0.0
 10
973.5073441882485
 20
66.09917476891434
 30
0.0
 10
973.1125554687958
 20
64.78127822588988
 30
0.0
 10
973.0529317343623
 20
63.17623556319532
 30
0.0
 10
973.007553720631
 20
61.98182672966618
 30
0.0
 10
973.7348665734851
 20
61.58153313641628
 30
0.0
 10
974.801249896145
 20
61.58153313641628
 30
0.0
 10
975.2608324679911
 20
61.58153313641628
 30
0.0
 10
976.420575474637
 20
61.61076847968843
 30
0.0
 10
977.2464553245279
 20
62.6316993984324
 30
0.0
 10
977.8246158535619
 20
63.34896957611602
 30
0.0
 10
978.3574727590537
 20
64.092499489614
 30
0.0
 10
979.0718417194655
 20
66.53153053252123
 30
0.0
 10
979.6662936993323
 20
68.57056554292433
 30
0.0
 10
980.0778946009211
 20
69.88842489085562
 30
0.0
 10
980.0474690146664
 20
70.63876150641318
 30
0.0
 10
980.0474690146664
 20
70.63876150641318
 30
0.0
 10
980.0474690146664
 20
70.63876150641318
 30
0.0
 10
980.0474690146664
 20
70.63876150641318
 30
0.0
 10
979.8536081887958
 20
71.89052517368981
 30
0.0
 10
978.9447832810217
 20
72.155019481588
 30
0.0
 10
978.4255397796494
 20
72.155019481588
 30
0.0
 10
977.914107247853
 20
72.155019481588
 30
0.0
 10
976.5436912332004
 20
72.24350660836194
 30
0.0
 10
975.760585740514
 20
71.22123666626197
 30
0.0
  0
SPLINE
  5
24A2
102
{ACAD_REACTORS
330
2492
330
24A3
102
}
330
A
100
AcDbEntity
  8
TEMPLATE
100
AcDbSpline
210
0.0
220
0.0
230
1.0
 70
    11
 71
     3
 72
    29
 73
    25
 74
     0
 42
0.000000001
 43
0.0000000001
 40
0.0
 40
0.0
 40
0.0
 40
0.0
 40
1.0
 40
1.0
 40
1.0
 40
2.0
 40
2.0
 40
2.0
 40
3.0
 40
3.0
 40
3.0
 40
4.0
 40
4.0
 40
4.0
 40
5.0
 40
5.0
 40
5.0
 40
6.0
 40
6.0
 40
6.0
 40
7.0
 40
7.0
 40
7.0
 40
8.0
 40
8.0
 40
8.0
 40
8.0
 10
974.0214175716626
 20
63.47632557530645
 30
0.0
 10
974.0174748917814
 20
64.18489210117616
 30
0.0
 10
974.241166182416
 20
65.44379722635136
 30
0.0
 10
974.8141937885864
 20
67.12821421798066
 30
0.0
 10
975.594695624746
 20
69.4090545294168
 30
0.0
 10
976.0627586778462
 20
70.24270815379049
 30
0.0
 10
976.4723510444016
 20
70.64850662083717
 30
0.0
 10
977.0707457041487
 20
71.23938787175408
 30
0.0
 10
977.8752011803442
 20
71.2688463855855
 30
0.0
 10
978.1125058750974
 20
71.23938787175408
 30
0.0
 10
978.450237321548
 20
71.19884522014263
 30
0.0
 10
978.9273015872075
 20
70.97779478112719
 30
0.0
 10
978.9557930286153
 20
70.23363255104445
 30
0.0
 10
978.978556425667
 20
69.59674096981257
 30
0.0
 10
978.7950358357118
 20
68.4039687203852
 30
0.0
 10
978.152676575776
 20
66.53153053252123
 30
0.0
 10
977.4123454402959
 20
64.35569196924934
 30
0.0
 10
976.967640905739
 20
63.50035360552755
 30
0.0
 10
976.6111631323035
 20
63.12758438126156
 30
0.0
 10
975.9395685290963
 20
62.42876296981586
 30
0.0
 10
975.2193227439554
 20
62.49586291798744
 30
0.0
 10
975.1130191675281
 20
62.49586291798744
 30
0.0
 10
974.9749509814899
 20
62.49586291798744
 30
0.0
 10
974.0233517165104
 20
62.64568475348372
 30
0.0
 10
974.0214175716626
 20
63.47632557530645
 30
0.0
  0
INSERT
  5
353F
330
A
100
AcDbEntity
  8
TEMPLATE
100
AcDbBlockReference
  2
block 2
 10
3001.832022431623
 20
130.3662405293479
 30
0.0
 41
0.7619999999999998
 42
0.7619999999999998
 43
0.7619999999999998
  0
POINT
  5
363D
330
A
100
AcDbEntity
  8
_0-1_
 62
     7
100
AcDbPoint
 10
2030.555895545675
 20
1192.107828870368
 30
0.0
  0
POINT
  5
363E
330
A
100
AcDbEntity
  8
_0-1_
 62
     7
100
AcDbPoint
 10
2590.555895545675
 20
1192.107828870368
 30
0.0
  0
POINT
  5
3643
330
A
100
AcDbEntity
  8
_0-1_
 62
     7
100
AcDbPoint
 10
2797.514771453383
 20
1192.107828870368
 30
0.0
  0
POINT
  5
3644
330
A
100
AcDbEntity
  8
_0-1_
 62
     7
100
AcDbPoint
 10
2784.014770772557
 20
1192.107828870368
 30
0.0
  0
POINT
  5
3649
330
A
100
AcDbEntity
  8
_0-1_
 62
     7
100
AcDbPoint
 10
2847.514771453383
 20
1092.1078318506
 30
0.0
  0
POINT
  5
364A
330
A
100
AcDbEntity
  8
_0-1_
 62
     7
100
AcDbPoint
 10
2847.514771453383
 20
1142.107828870368
 30
0.0
  0
POINT
  5
364F
330
A
100
AcDbEntity
  8
_0-1_
 62
     7
100
AcDbPoint
 10
2673.214771009329
 20
1126.607837198775
 30
0.0
  0
POINT
  5
3650
330
A
100
AcDbEntity
  8
_0-1_
 62
     7
100
AcDbPoint
 10
2673.214771009329
 20
1107.607837198775
 30
0.0
  0
POINT
  5
3657
330
A
100
AcDbEntity
  8
_0-1_
 62
     7
100
AcDbPoint
 10
2665.555887217269
 20
852.0058944334177
 30
0.0
  0
POINT
  5
3658
330
A
100
AcDbEntity
  8
_0-1_
 62
     7
100
AcDbPoint
 10
2665.555887217269
 20
777.7058937525916
 30
0.0
  0
POINT
  5
365D
330
A
100
AcDbEntity
  8
_0-1_
 62
     7
100
AcDbPoint
 10
2449.53008641992
 20
792.2058937467535
 30
0.0
  0
POINT
  5
365E
330
A
100
AcDbEntity
  8
_0-1_
 62
     7
100
AcDbPoint
 10
2449.53008641992
 20
779.2058933039096
 30
0.0
  0
POINT
  5
36D3
330
A
100
AcDbEntity
  8
_0-1_
 62
     7
100
AcDbPoint
 10
2005.555895545675
 20
1232.107828870368
 30
0.0
  0
POINT
  5
36D4
330
A
100
AcDbEntity
  8
_0-1_
 62
     7
100
AcDbPoint
 10
2615.555895545675
 20
1232.107828870368
 30
0.0
  0
POLYLINE
  5
38B3
330
A
100
AcDbEntity
  8
MODEL
100
AcDb2dPolyline
 66
     1
 10
0.0
 20
0.0
 30
0.0
  0
VERTEX
  5
38B4
330
38B3
100
AcDbEntity
  8
MODEL
100
AcDbVertex
100
AcDb2dVertex
 10
156.5913307715152
 20
580.8407444025296
 30
0.0
  0
VERTEX
  5
38B5
330
38B3
100
AcDbEntity
  8
MODEL
100
AcDbVertex
100
AcDb2dVertex
 10
156.5913307715152
 20
521.8637009180147
 30
0.0
  0
SEQEND
  5
38B6
330
38B3
100
AcDbEntity
  8
MODEL
  0
POLYLINE
  5
38B7
330
A
100
AcDbEntity
  8
MODEL
100
AcDb2dPolyline
 66
     1
 10
0.0
 20
0.0
 30
0.0
  0
VERTEX
  5
38B8
330
38B7
100
AcDbEntity
  8
MODEL
100
AcDbVertex
100
AcDb2dVertex
 10
140.6296469613733
 20
505.7667498035692
 30
0.0
  0
VERTEX
  5
38B9
330
38B7
100
AcDbEntity
  8
MODEL
100
AcDbVertex
100
AcDb2dVertex
 10
606.6296469548186
 20
505.7667498035692
 30
0.0
  0
SEQEND
  5
38BA
330
38B7
100
AcDbEntity
  8
MODEL
  0
POLYLINE
  5
38BB
330
A
100
AcDbEntity
  8
MODEL
100
AcDb2dPolyline
 66
     1
 10
0.0
 20
0.0
 30
0.0
  0
VERTEX
  5
38BC
330
38BB
100
AcDbEntity
  8
MODEL
100
AcDbVertex
100
AcDb2dVertex
 10
156.5913307715152
 20
521.8637009180147
 30
0.0
  0
VERTEX
  5
38BD
330
38BB
100
AcDbEntity
  8
MODEL
100
AcDbVertex
100
AcDb2dVertex
 10
590.6679588446066
 20
521.8637009180147
 30
0.0
  0
SEQEND
  5
38BE
330
38BB
100
AcDbEntity
  8
MODEL
  0
POLYLINE
  5
38BF
330
A
100
AcDbEntity
  8
MODEL
100
AcDb2dPolyline
 66
     1
 10
0.0
 20
0.0
 30
0.0
  0
VERTEX
  5
38C0
330
38BF
100
AcDbEntity
  8
MODEL
100
AcDbVertex
100
AcDb2dVertex
 10
140.6296469613733
 20
580.8407444025296
 30
0.0
  0
VERTEX
  5
38C1
330
38BF
100
AcDbEntity
  8
MODEL
100
AcDbVertex
100
AcDb2dVertex
 10
140.6296469613733
 20
505.7667498035692
 30
0.0
  0
VERTEX
  5
38C2
330
38BF
100
AcDbEntity
  8
MODEL
100
AcDbVertex
100
AcDb2dVertex
 10
156.5913307715152
 20
521.8637009180147
 30
0.0
  0
SEQEND
  5
38C3
330
38BF
100
AcDbEntity
  8
MODEL
  0
POLYLINE
  5
38C4
330
A
100
AcDbEntity
  8
MODEL
100
AcDb2dPolyline
 66
     1
 10
0.0
 20
0.0
 30
0.0
  0
VERTEX
  5
38C5
330
38C4
100
AcDbEntity
  8
MODEL
100
AcDbVertex
100
AcDb2dVertex
 10
590.6679588446066
 20
580.8407444025296
 30
0.0
  0
VERTEX
  5
38C6
330
38C4
100
AcDbEntity
  8
MODEL
100
AcDbVertex
100
AcDb2dVertex
 10
590.6679588446066
 20
521.8637009180147
 30
0.0
  0
SEQEND
  5
38C7
330
38C4
100
AcDbEntity
  8
MODEL
  0
POLYLINE
  5
38C8
330
A
100
AcDbEntity
  8
MODEL
100
AcDb2dPolyline
 66
     1
 10
0.0
 20
0.0
 30
0.0
  0
VERTEX
  5
38C9
330
38C8
100
AcDbEntity
  8
MODEL
100
AcDbVertex
100
AcDb2dVertex
 10
140.6296469613733
 20
580.8407444025296
 30
0.0
  0
VERTEX
  5
38CA
330
38C8
100
AcDbEntity
  8
MODEL
100
AcDbVertex
100
AcDb2dVertex
 10
156.5913307715152
 20
580.8407444025296
 30
0.0
  0
SEQEND
  5
38CB
330
38C8
100
AcDbEntity
  8
MODEL
  0
POLYLINE
  5
38CC
330
A
100
AcDbEntity
  8
MODEL
100
AcDb2dPolyline
 66
     1
 10
0.0
 20
0.0
 30
0.0
  0
VERTEX
  5
38CD
330
38CC
100
AcDbEntity
  8
MODEL
100
AcDbVertex
100
AcDb2dVertex
 10
606.6296469548186
 20
580.8407444025296
 30
0.0
  0
VERTEX
  5
38CE
330
38CC
100
AcDbEntity
  8
MODEL
100
AcDbVertex
100
AcDb2dVertex
 10
606.6296469548186
 20
505.7667498035692
 30
0.0
  0
VERTEX
  5
38CF
330
38CC
100
AcDbEntity
  8
MODEL
100
AcDbVertex
100
AcDb2dVertex
 10
590.6679588446066
 20
521.8637009180147
 30
0.0
  0
SEQEND
  5
38D0
330
38CC
100
AcDbEntity
  8
MODEL
  0
POLYLINE
  5
38D1
330
A
100
AcDbEntity
  8
MODEL
100
AcDb2dPolyline
 66
     1
 10
0.0
 20
0.0
 30
0.0
  0
VERTEX
  5
38D2
330
38D1
100
AcDbEntity
  8
MODEL
100
AcDbVertex
100
AcDb2dVertex
 10
148.6104867164088
 20
1007.852668927864
 30
0.0
  0
VERTEX
  5
38D3
330
38D1
100
AcDbEntity
  8
MODEL
100
AcDbVertex
100
AcDb2dVertex
 10
598.6488200999931
 20
1007.852668927864
 30
0.0
  0
SEQEND
  5
38D4
330
38D1
100
AcDbEntity
  8
MODEL
  0
POLYLINE
  5
38D5
330
A
100
AcDbEntity
  8
MODEL
100
AcDb2dPolyline
 66
     1
 10
0.0
 20
0.0
 30
0.0
  0
VERTEX
  5
38D6
330
38D5
100
AcDbEntity
  8
MODEL
100
AcDbVertex
100
AcDb2dVertex
 10
148.6104867164088
 20
1023.814391438637
 30
0.0
  0
VERTEX
  5
38D7
330
38D5
100
AcDbEntity
  8
MODEL
100
AcDbVertex
100
AcDb2dVertex
 10
598.6488200999931
 20
1023.814391438637
 30
0.0
  0
SEQEND
  5
38D8
330
38D5
100
AcDbEntity
  8
MODEL
  0
POLYLINE
  5
38D9
330
A
100
AcDbEntity
  8
MODEL
100
AcDb2dPolyline
 66
     1
 10
0.0
 20
0.0
 30
0.0
  0
VERTEX
  5
38DA
330
38D9
100
AcDbEntity
  8
MODEL
100
AcDbVertex
100
AcDb2dVertex
 10
590.6679588446066
 20
580.8407444025296
 30
0.0
  0
VERTEX
  5
38DB
330
38D9
100
AcDbEntity
  8
MODEL
100
AcDbVertex
100
AcDb2dVertex
 10
606.6296469548186
 20
580.8407444025296
 30
0.0
  0
SEQEND
  5
38DC
330
38D9
100
AcDbEntity
  8
MODEL
  0
POLYLINE
  5
38DD
330
A
100
AcDbEntity
  8
MODEL
100
AcDb2dPolyline
 66
     1
 10
0.0
 20
0.0
 30
0.0
  0
VERTEX
  5
38DE
330
38DD
100
AcDbEntity
  8
MODEL
100
AcDbVertex
100
AcDb2dVertex
 10
148.6104867164088
 20
1023.814391438637
 30
0.0
  0
VERTEX
  5
38DF
330
38DD
100
AcDbEntity
  8
MODEL
100
AcDbVertex
100
AcDb2dVertex
 10
146.5814642516445
 20
1023.543796629048
 30
0.0
  0
VERTEX
  5
38E0
330
38DD
100
AcDbEntity
  8
MODEL
100
AcDbVertex
100
AcDb2dVertex
 10
144.5524331867393
 20
1022.732218603647
 30
0.0
  0
VERTEX
  5
38E1
330
38DD
100
AcDbEntity
  8
MODEL
100
AcDbVertex
100
AcDb2dVertex
 10
142.9292126348848
 20
1021.37951976019
 30
0.0
  0
VERTEX
  5
38E2
330
38DD
100
AcDbEntity
  8
MODEL
100
AcDbVertex
100
AcDb2dVertex
 10
141.7117939959419
 20
1019.756294908266
 30
0.0
  0
VERTEX
  5
38E3
330
38DD
100
AcDbEntity
  8
MODEL
100
AcDbVertex
100
AcDb2dVertex
 10
140.9001858700506
 20
1017.862544047875
 30
0.0
  0
VERTEX
  5
38E4
330
38DD
100
AcDbEntity
  8
MODEL
100
AcDbVertex
100
AcDb2dVertex
 10
140.6296469613728
 20
1015.833530183251
 30
0.0
  0
VERTEX
  5
38E5
330
38DD
100
AcDbEntity
  8
MODEL
100
AcDbVertex
100
AcDb2dVertex
 10
140.9001858700506
 20
1013.669253314392
 30
0.0
  0
VERTEX
  5
38E6
330
38DD
100
AcDbEntity
  8
MODEL
100
AcDbVertex
100
AcDb2dVertex
 10
141.7117939959419
 20
1011.77543365288
 30
0.0
  0
VERTEX
  5
38E7
330
38DD
100
AcDbEntity
  8
MODEL
100
AcDbVertex
100
AcDb2dVertex
 10
142.9292126348848
 20
1010.152208800956
 30
0.0
  0
VERTEX
  5
38E8
330
38DD
100
AcDbEntity
  8
MODEL
100
AcDbVertex
100
AcDb2dVertex
 10
144.5524331867393
 20
1008.79957875862
 30
0.0
  0
VERTEX
  5
38E9
330
38DD
100
AcDbEntity
  8
MODEL
100
AcDbVertex
100
AcDb2dVertex
 10
146.5814642516445
 20
1008.123194936331
 30
0.0
  0
VERTEX
  5
38EA
330
38DD
100
AcDbEntity
  8
MODEL
100
AcDbVertex
100
AcDb2dVertex
 10
148.6104867164088
 20
1007.852668927864
 30
0.0
  0
SEQEND
  5
38EB
330
38DD
100
AcDbEntity
  8
MODEL
  0
POLYLINE
  5
38EC
330
A
100
AcDbEntity
  8
MODEL
100
AcDb2dPolyline
 66
     1
 10
0.0
 20
0.0
 30
0.0
  0
VERTEX
  5
38ED
330
38EC
100
AcDbEntity
  8
MODEL
100
AcDbVertex
100
AcDb2dVertex
 10
598.6488200999931
 20
1007.852668927864
 30
0.0
  0
VERTEX
  5
38EE
330
38EC
100
AcDbEntity
  8
MODEL
100
AcDbVertex
100
AcDb2dVertex
 10
600.8130969688502
 20
1008.123194936331
 30
0.0
  0
VERTEX
  5
38EF
330
38EC
100
AcDbEntity
  8
MODEL
100
AcDbVertex
100
AcDb2dVertex
 10
602.7068822298027
 20
1008.79957875862
 30
0.0
  0
VERTEX
  5
38F0
330
38EC
100
AcDbEntity
  8
MODEL
100
AcDbVertex
100
AcDb2dVertex
 10
604.3301070817263
 20
1010.152208800956
 30
0.0
  0
VERTEX
  5
38F1
330
38EC
100
AcDbEntity
  8
MODEL
100
AcDbVertex
100
AcDb2dVertex
 10
605.6827715246229
 20
1011.77543365288
 30
0.0
  0
VERTEX
  5
38F2
330
38EC
100
AcDbEntity
  8
MODEL
100
AcDbVertex
100
AcDb2dVertex
 10
606.3591209463514
 20
1013.669253314392
 30
0.0
  0
VERTEX
  5
38F3
330
38EC
100
AcDbEntity
  8
MODEL
100
AcDbVertex
100
AcDb2dVertex
 10
606.6296469548181
 20
1015.833530183251
 30
0.0
  0
VERTEX
  5
38F4
330
38EC
100
AcDbEntity
  8
MODEL
100
AcDbVertex
100
AcDb2dVertex
 10
606.3591209463514
 20
1017.862544047875
 30
0.0
  0
VERTEX
  5
38F5
330
38EC
100
AcDbEntity
  8
MODEL
100
AcDbVertex
100
AcDb2dVertex
 10
605.6827715246229
 20
1019.756294908266
 30
0.0
  0
VERTEX
  5
38F6
330
38EC
100
AcDbEntity
  8
MODEL
100
AcDbVertex
100
AcDb2dVertex
 10
604.3301070817263
 20
1021.37951976019
 30
0.0
  0
VERTEX
  5
38F7
330
38EC
100
AcDbEntity
  8
MODEL
100
AcDbVertex
100
AcDb2dVertex
 10
602.7068822298027
 20
1022.732218603647
 30
0.0
  0
VERTEX
  5
38F8
330
38EC
100
AcDbEntity
  8
MODEL
100
AcDbVertex
100
AcDb2dVertex
 10
600.8130969688502
 20
1023.543796629048
 30
0.0
  0
VERTEX
  5
38F9
330
38EC
100
AcDbEntity
  8
MODEL
100
AcDbVertex
100
AcDb2dVertex
 10
598.6488200999931
 20
1023.814391438637
 30
0.0
  0
SEQEND
  5
38FA
330
38EC
100
AcDbEntity
  8
MODEL
  0
DIMENSION
  5
39A1
330
A
100
AcDbEntity
  8
DIM
100
AcDbDimension
  2
*D52
 10
598.6488200999936
 20
621.4339719601702
 30
0.0
 11
373.6296534082014
 21
637.4362228042368
 31
0.0
 70
    32
 71
     5
 42
450.0383333835844
 73
     0
 74
     0
 75
     0
  3
tfrom線あり
100
AcDbAlignedDimension
 13
148.6104867164092
 23
585.3046299456004
 33
0.0
 14
598.6488200999936
 24
585.3046299456004
 34
0.0
100
AcDbRotatedDimension
  0
DIMENSION
  5
39B0
330
A
100
AcDbEntity
  8
DIM
100
AcDbDimension
  2
*D53
 10
669.8937285349198
 20
505.7667498035692
 30
0.0
 11
653.8914776908532
 21
543.3037471030493
 31
0.0
 70
    32
 71
     5
 42
75.07399459896044
 73
     0
 74
     0
 75
     0
  3
tfrom線あり
100
AcDbAlignedDimension
 13
618.2890642930197
 23
580.8407444025296
 33
0.0
 14
618.2890642930197
 24
505.7667498035692
 34
0.0
 50
90.0
100
AcDbRotatedDimension
  0
DIMENSION
  5
39D5
330
A
100
AcDbEntity
  8
DIM
100
AcDbDimension
  2
*D55
 10
606.7640481561205
 20
654.2414690184921
 30
0.0
 11
373.7644822859163
 21
670.2414690184921
 31
0.0
 70
    32
 71
     5
 42
465.9991317404083
 73
     0
 74
     0
 75
     0
  3
tfrom線あり
100
AcDbAlignedDimension
 13
140.7649164157122
 23
580.5586506961902
 33
0.0
 14
606.7640481561205
 24
581.4582156941324
 34
0.0
100
AcDbRotatedDimension
  0
LINE
  5
39FF
330
A
100
AcDbEntity
  8
MODEL
100
AcDbLine
 10
787.8321483167052
 20
1023.814391438637
 30
0.0
 11
787.8321483167052
 21
1007.814391438637
 31
0.0
  0
LINE
  5
3A00
330
A
100
AcDbEntity
  8
MODEL
100
AcDbLine
 10
787.8321483167052
 20
1007.814391438637
 30
0.0
 11
854.8321483167052
 21
1007.814391438637
 31
0.0
  0
LINE
  5
3A02
330
A
100
AcDbEntity
  8
MODEL
100
AcDbLine
 10
854.8321483167052
 20
1023.814391438637
 30
0.0
 11
787.8321483167052
 21
1023.814391438637
 31
0.0
  0
ARC
  5
3A03
330
A
100
AcDbEntity
  8
HIDDEN
 48
0.5
100
AcDbCircle
 10
854.8321483167052
 20
1015.814391438637
 30
0.0
 40
8.0
100
AcDbArc
 50
90.0
 51
270.0
  0
ARC
  5
3A1F
330
A
100
AcDbEntity
  8
MODEL
100
AcDbCircle
 10
854.8321483167052
 20
1015.814391438637
 30
0.0
 40
8.0
100
AcDbArc
 50
270.0
 51
90.0
  0
DIMENSION
  5
3A6B
330
A
100
AcDbEntity
  8
DIM
100
AcDbDimension
  2
*D56
 10
750.5834683704189
 20
1007.852668927864
 30
0.0
 11
750.5834683704189
 21
1058.679184486029
 31
0.0
 70
   160
 71
     5
 42
15.96172251077246
 73
     0
 74
     1
 75
     1
 52
-90.0
  3
tfrom線あり
100
AcDbAlignedDimension
 13
787.4393010064068
 23
1023.814391438636
 33
0.0
 14
787.4393010064068
 24
1007.852668927864
 34
0.0
 50
89.99999999999991
100
AcDbRotatedDimension
1001
ACAD
1000
DSTYLE
1002
{
1070
     3
1000
%%c<>
1070
   172
1070
     1
1002
}
  0
MTEXT
  5
3AAA
330
A
100
AcDbEntity
  8
TEMPLATE
390
1D
100
AcDbMText
 10
66.10107227386538
 20
114.7569544403006
 30
0.0
 40
12.21630859375
 41
0.0
 46
12.89838709657723
 71
     1
 72
     1
  1
{マットガンメタル}
  7
ＭＳ ゴシック
 73
     1
 44
0.7828267384257843
1001
ACAD
1000
ACAD_MTEXT_DEFINED_HEIGHT_BEGIN
1070
    46
1040
12.89838709657723
1000
ACAD_MTEXT_DEFINED_HEIGHT_END
  0
VIEWPORT
  5
349
330
B
100
AcDbEntity
 67
     1
  8
0
100
AcDbViewport
 10
202.5
 20
128.5
 30
0.0
 40
486.0
 41
308.4
 68
     1
 69
     1
 12
202.5
 22
128.5
 13
0.0
 23
0.0
 14
0.5
 24
0.5
 15
0.0
 25
0.0
 16
0.0
 26
0.0
 36
1.0
 17
0.0
 27
0.0
 37
0.0
 42
50.0
 43
0.0
 44
0.0
 45
308.4
 50
0.0
 51
0.0
 72
   100
 90
   557152
  1

281
     0
 71
     1
 74
     0
110
0.0
120
0.0
130
0.0
111
1.0
121
0.0
131
0.0
112
0.0
122
1.0
132
0.0
 79
     0
146
0.0
170
     0
 61
     5
348
26C
292
     1
282
     1
141
0.0
142
0.0
 63
   256
  0
VIEWPORT
  5
34A
330
B
100
AcDbEntity
 67
     1
  8
0
100
AcDbViewport
 10
202.5
 20
128.5
 30
0.0
 40
324.0
 41
205.6
 68
     2
 69
     2
 12
986.6781359294573
 22
1427.077061889956
 13
0.0
 23
0.0
 14
0.5
 24
0.5
 15
0.0
 25
0.0
 16
0.0
 26
0.0
 36
1.0
 17
0.0
 27
0.0
 37
0.0
 42
50.0
 43
0.0
 44
0.0
 45
2890.021615685494
 50
0.0
 51
0.0
 72
   100
 90
   557152
  1

281
     0
 71
     1
 74
     0
110
0.0
120
0.0
130
0.0
111
1.0
121
0.0
131
0.0
112
0.0
122
1.0
132
0.0
 79
     0
146
0.0
170
     0
 61
     5
348
26C
292
     1
282
     1
141
0.0
142
0.0
 63
   256
  0
ENDSEC
  0
SECTION
  2
OBJECTS
  0
DICTIONARY
  5
19
330
0
100
AcDbDictionary
281
     1
  3
ACAD_COLOR
350
674
  3
ACAD_DETAILVIEWSTYLE
350
BBF
  3
ACAD_FIELDLIST
350
16CE
  3
ACAD_GROUP
350
1A
  3
ACAD_IMAGE_VARS
350
27B
  3
ACAD_LAYOUT
350
1E
  3
ACAD_MATERIAL
350
263
  3
ACAD_MLEADERSTYLE
350
336
  3
ACAD_MLINESTYLE
350
1B
  3
ACAD_PLOTSETTINGS
350
22
  3
ACAD_PLOTSTYLENAME
350
1F
  3
ACAD_SCALELIST
350
241
  3
ACAD_SECTIONVIEWSTYLE
350
BC0
  3
ACAD_TABLESTYLE
350
278
  3
ACAD_VISUALSTYLE
350
267
  3
ACDB_RECOMPOSE_DATA
350
3AB4
  3
AcDbVariableDictionary
350
330
  3
APPDATA
350
27A
  3
DimOffsetDictionary
350
E38
  0
SUN
  5
904
330
15
100
AcDbSun
 90
        1
290
     0
 63
     7
421
 16777215
 40
1.0
291
     1
 91
  2455826
 92
 54000000
292
     0
 70
     2
 71
   256
280
     1
  0
DICTIONARY
  5
2E1
330
2
100
AcDbDictionary
280
     1
281
     1
  3
ACAD_LAYERSTATES
360
2E2
  3
ACLYDICTIONARY
360
DDE
  0
DICTIONARY
  5
24B4
330
A
100
AcDbDictionary
280
     1
281
     1
  3
ACAD_SORTENTS
360
24B5
  0
DICTIONARY
  5
16F1
330
16F0
100
AcDbDictionary
280
     1
281
     1
  3
ACAD_FIELD
360
3AAB
  0
DICTIONARY
  5
674
102
{ACAD_REACTORS
330
19
102
}
330
19
100
AcDbDictionary
281
     1
  0
DICTIONARY
  5
BBF
102
{ACAD_REACTORS
330
19
102
}
330
19
100
AcDbDictionary
281
     1
  0
FIELDLIST
  5
16CE
102
{ACAD_REACTORS
330
19
102
}
330
19
100
AcDbIdSet
 90
        2
330
16F4
330
16F3
100
AcDbFieldList
  0
DICTIONARY
  5
1A
102
{ACAD_REACTORS
330
19
102
}
330
19
100
AcDbDictionary
281
     1
  3
*A1
350
24A3
  0
RASTERVARIABLES
  5
27B
102
{ACAD_REACTORS
330
19
102
}
330
19
100
AcDbRasterVariables
 90
        0
 70
     1
 71
     1
 72
     1
  0
DICTIONARY
  5
1E
102
{ACAD_REACTORS
330
19
102
}
330
19
100
AcDbDictionary
281
     1
  3
Layout1
350
21
  3
Model
350
20
  0
DICTIONARY
  5
263
102
{ACAD_REACTORS
330
19
102
}
330
19
100
AcDbDictionary
281
     1
  3
ByBlock
350
265
  3
ByLayer
350
264
  3
Global
350
266
  0
DICTIONARY
  5
336
102
{ACAD_REACTORS
330
19
102
}
330
19
100
AcDbDictionary
281
     1
  3
Standard
350
D59
  0
DICTIONARY
  5
1B
102
{ACAD_REACTORS
330
19
102
}
330
19
100
AcDbDictionary
281
     1
  3
Standard
350
1C
  0
DICTIONARY
  5
22
102
{ACAD_REACTORS
330
19
102
}
330
19
100
AcDbDictionary
281
     1
  0
ACDBDICTIONARYWDFLT
  5
1F
102
{ACAD_REACTORS
330
19
102
}
330
19
100
AcDbDictionary
281
     1
  3
Normal
350
1D
100
AcDbDictionaryWithDefault
340
1D
  0
DICTIONARY
  5
241
102
{ACAD_REACTORS
330
19
102
}
330
19
100
AcDbDictionary
281
     1
  3
A0
350
242
  3
A1
350
243
  3
A2
350
244
  3
A3
350
245
  3
A4
350
246
  3
A5
350
247
  3
A6
350
248
  3
A7
350
249
  3
A8
350
24A
  3
A9
350
24B
  3
B0
350
24C
  3
B1
350
24D
  3
B2
350
24E
  3
B3
350
24F
  3
B4
350
250
  3
B5
350
251
  3
B6
350
252
  3
B7
350
253
  3
B8
350
254
  3
B9
350
255
  3
C0
350
256
  3
C1
350
257
  3
C2
350
258
  3
C3
350
259
  3
C4
350
25A
  3
C5
350
25B
  3
C6
350
25C
  3
C7
350
25D
  3
C8
350
25E
  3
C9
350
25F
  3
D0
350
260
  3
D1
350
261
  3
D2
350
262
  0
DICTIONARY
  5
BC0
102
{ACAD_REACTORS
330
19
102
}
330
19
100
AcDbDictionary
281
     1
  0
DICTIONARY
  5
278
102
{ACAD_REACTORS
330
19
102
}
330
19
100
AcDbDictionary
281
     1
  3
Standard
350
279
  0
DICTIONARY
  5
267
102
{ACAD_REACTORS
330
19
102
}
330
19
100
AcDbDictionary
281
     1
  3
2dWireframe
350
26C
  3
3D Hidden
350
26E
  3
3dWireframe
350
26D
  3
Basic
350
26F
  3
Brighten
350
273
  3
ColorChange
350
277
  3
Conceptual
350
271
  3
Dim
350
272
  3
EdgeColorOff
350
8FE
  3
Facepattern
350
276
  3
Flat
350
268
  3
FlatWithEdges
350
269
  3
Gouraud
350
26A
  3
GouraudWithEdges
350
26B
  3
Hidden
350
8FB
  3
JitterOff
350
8FC
  3
Linepattern
350
275
  3
OverhangOff
350
8FD
  3
Realistic
350
270
  3
Shaded
350
903
  3
Shaded with edges
350
902
  3
Shades of Gray
350
8FF
  3
Sketchy
350
900
  3
Thicken
350
274
  3
Wireframe
350
8FA
  3
X-Ray
350
901
  0
XRECORD
  5
3AB4
102
{ACAD_REACTORS
330
19
102
}
330
19
100
AcDbXrecord
280
     1
 90
        1
330
279
  0
DICTIONARY
  5
330
102
{ACAD_REACTORS
330
19
102
}
330
19
100
AcDbDictionary
281
     1
  3
CANNOSCALE
350
331
  3
CMLEADERSTYLE
350
D5E
  3
CTABLESTYLE
350
335
  3
HPTRANSPARENCY
350
D52
  3
XCLIPFRAME
350
896
  0
DICTIONARY
  5
27A
102
{ACAD_REACTORS
330
19
102
}
330
19
100
AcDbDictionary
281
     1
  0
DICTIONARY
  5
E38
102
{ACAD_REACTORS
330
19
102
}
330
19
100
AcDbDictionary
281
     1
  3
DIMRAILANGLE
350
1614
  3
DIMRAILFIRSTOFFSET
350
1612
  3
DIMRAILOFFSET
350
1613
  3
DIMRAILSENABLED
350
1615
  0
DICTIONARY
  5
2E2
102
{ACAD_REACTORS
330
2E1
102
}
330
2E1
100
AcDbDictionary
281
     1
  0
DICTIONARY
  5
DDE
102
{ACAD_REACTORS
330
2E1
102
}
330
2E1
100
AcDbDictionary
281
     1
1001
ACAD
1000
<All
  0
SORTENTSTABLE
  5
24B5
102
{ACAD_REACTORS
330
24B4
102
}
330
24B4
100
AcDbSortentsTable
330
A
331
0
  5
1782
331
2492
  5
244D
331
2493
  5
2491
331
249E
  5
2492
331
249F
  5
2493
331
24A0
  5
249E
331
24A1
  5
249F
331
24A2
  5
24A0
  0
DICTIONARY
  5
3AAB
102
{ACAD_REACTORS
330
16F1
102
}
330
16F1
100
AcDbDictionary
280
     1
281
     1
  3
TEXT
360
16F3
  0
GROUP
  5
24A3
102
{ACAD_REACTORS
330
1A
102
}
330
1A
100
AcDbGroup
300

 70
     1
 71
     1
340
2492
340
2493
340
249E
340
249F
340
24A0
340
24A1
340
24A2
  0
LAYOUT
  5
21
102
{ACAD_REACTORS
330
1E
102
}
330
1E
100
AcDbPlotSettings
  1

  2
none_device
  4
ISO_A3_(420.00_x_297.00_MM)
  6

 40
7.5
 41
20.0
 42
7.5
 43
20.0
 44
420.0
 45
297.0
 46
0.0
 47
0.0
 48
0.0
 49
0.0
140
0.0
141
0.0
142
1.0
143
1.0
 70
     0
 72
     1
 73
     0
 74
     0
  7

 75
     0
 76
     0
 77
     2
 78
   300
147
1.0
148
0.0
149
0.0
100
AcDbLayout
  1
Layout1
 70
     0
 71
     0
 10
-7.5
 20
-20.0
 11
412.5
 21
277.0
 12
0.0
 22
0.0
 32
0.0
 14
0.0
 24
0.0
 34
0.0
 15
0.0
 25
0.0
 35
0.0
146
0.0
 13
0.0
 23
0.0
 33
0.0
 16
0.0
 26
0.0
 36
0.0
 17
0.0
 27
0.0
 37
0.0
 76
     0
330
B
331
349
  0
LAYOUT
  5
20
102
{ACAD_REACTORS
330
1E
102
}
330
1E
100
AcDbPlotSettings
  1

  2
none_device
  4
ISO_A3_(420.00_x_297.00_MM)
  6

 40
7.5
 41
20.0
 42
7.5
 43
20.0
 44
420.0
 45
297.0
 46
0.0
 47
0.0
 48
0.0
 49
0.0
140
0.0
141
0.0
142
1.0
143
1.0
 70
  1024
 72
     1
 73
     0
 74
     0
  7

 75
     0
 76
     0
 77
     2
 78
   300
147
1.0
148
0.0
149
0.0
100
AcDbLayout
  1
Model
 70
     0
 71
     1
 10
0.0
 20
0.0
 11
1050.0
 21
1485.0
 12
0.0
 22
0.0
 32
0.0
 14
0.0
 24
0.0
 34
-0.0000000000000071
 15
1050.0
 25
1485.0
 35
0.0000000000000071
146
0.0
 13
0.0
 23
0.0
 33
0.0
 16
0.0
 26
0.0
 36
0.0
 17
0.0
 27
0.0
 37
0.0
 76
     0
330
A
331
15
  0
MATERIAL
  5
265
102
{ACAD_REACTORS
330
263
102
}
330
263
100
AcDbMaterial
  1
ByBlock
 72
     1
 94
      127
  0
MATERIAL
  5
264
102
{ACAD_REACTORS
330
263
102
}
330
263
100
AcDbMaterial
  1
ByLayer
 72
     1
 94
      127
  0
MATERIAL
  5
266
102
{ACAD_REACTORS
330
263
102
}
330
263
100
AcDbMaterial
  1
Global
 72
     1
 94
      127
  0
MLEADERSTYLE
  5
D59
102
{ACAD_REACTORS
330
336
102
}
330
336
100
AcDbMLeaderStyle
170
     2
171
     1
172
     0
 90
        2
 40
0.0
 41
0.0
173
     1
 91
-1056964608
340
11
 92
       -2
290
     1
 42
2.0
291
     1
 43
8.0
  3
Standard
341
0
 44
4.0
300

342
17
174
     1
178
     6
175
     1
176
     0
 93
-1056964608
 45
4.0
292
     0
297
     0
 46
4.0
343
0
 94
-1056964608
 47
1.0
 49
1.0
140
1.0
293
     1
141
0.0
294
     1
177
     0
142
1.0
295
     0
296
     0
143
3.75
1001
ACAD_MLEADERVER
1070
     2
  0
MLINESTYLE
  5
1C
102
{ACAD_REACTORS
330
1B
102
}
330
1B
100
AcDbMlineStyle
  2
Standard
 70
     0
  3

 62
     0
 51
90.0
 52
90.0
 71
     2
 49
0.5
 62
   256
  6
BYLAYER
 49
-0.5
 62
   256
  6
BYLAYER
  0
ACDBPLACEHOLDER
  5
1D
102
{ACAD_REACTORS
330
1F
102
}
330
1F
  0
SCALE
  5
242
102
{ACAD_REACTORS
330
241
102
}
330
241
100
AcDbScale
 70
     0
300
1:1
140
1.0
141
1.0
290
     1
  0
SCALE
  5
243
102
{ACAD_REACTORS
330
241
102
}
330
241
100
AcDbScale
 70
     0
300
1:2
140
1.0
141
2.0
290
     0
  0
SCALE
  5
244
102
{ACAD_REACTORS
330
241
102
}
330
241
100
AcDbScale
 70
     0
300
1:4
140
1.0
141
4.0
290
     0
  0
SCALE
  5
245
102
{ACAD_REACTORS
330
241
102
}
330
241
100
AcDbScale
 70
     0
300
1:5
140
1.0
141
5.0
290
     0
  0
SCALE
  5
246
102
{ACAD_REACTORS
330
241
102
}
330
241
100
AcDbScale
 70
     0
300
1:8
140
1.0
141
8.0
290
     0
  0
SCALE
  5
247
102
{ACAD_REACTORS
330
241
102
}
330
241
100
AcDbScale
 70
     0
300
1:10
140
1.0
141
10.0
290
     0
  0
SCALE
  5
248
102
{ACAD_REACTORS
330
241
102
}
330
241
100
AcDbScale
 70
     0
300
1:16
140
1.0
141
16.0
290
     0
  0
SCALE
  5
249
102
{ACAD_REACTORS
330
241
102
}
330
241
100
AcDbScale
 70
     0
300
1:20
140
1.0
141
20.0
290
     0
  0
SCALE
  5
24A
102
{ACAD_REACTORS
330
241
102
}
330
241
100
AcDbScale
 70
     0
300
1:30
140
1.0
141
30.0
290
     0
  0
SCALE
  5
24B
102
{ACAD_REACTORS
330
241
102
}
330
241
100
AcDbScale
 70
     0
300
1:40
140
1.0
141
40.0
290
     0
  0
SCALE
  5
24C
102
{ACAD_REACTORS
330
241
102
}
330
241
100
AcDbScale
 70
     0
300
1:50
140
1.0
141
50.0
290
     0
  0
SCALE
  5
24D
102
{ACAD_REACTORS
330
241
102
}
330
241
100
AcDbScale
 70
     0
300
1:100
140
1.0
141
100.0
290
     0
  0
SCALE
  5
24E
102
{ACAD_REACTORS
330
241
102
}
330
241
100
AcDbScale
 70
     0
300
2:1
140
2.0
141
1.0
290
     0
  0
SCALE
  5
24F
102
{ACAD_REACTORS
330
241
102
}
330
241
100
AcDbScale
 70
     0
300
4:1
140
4.0
141
1.0
290
     0
  0
SCALE
  5
250
102
{ACAD_REACTORS
330
241
102
}
330
241
100
AcDbScale
 70
     0
300
8:1
140
8.0
141
1.0
290
     0
  0
SCALE
  5
251
102
{ACAD_REACTORS
330
241
102
}
330
241
100
AcDbScale
 70
     0
300
10:1
140
10.0
141
1.0
290
     0
  0
SCALE
  5
252
102
{ACAD_REACTORS
330
241
102
}
330
241
100
AcDbScale
 70
     0
300
100:1
140
100.0
141
1.0
290
     0
  0
SCALE
  5
253
102
{ACAD_REACTORS
330
241
102
}
330
241
100
AcDbScale
 70
     0
300
1/128" = 1'-0"
140
0.0078125
141
12.0
290
     0
  0
SCALE
  5
254
102
{ACAD_REACTORS
330
241
102
}
330
241
100
AcDbScale
 70
     0
300
1/64" = 1'-0"
140
0.015625
141
12.0
290
     0
  0
SCALE
  5
255
102
{ACAD_REACTORS
330
241
102
}
330
241
100
AcDbScale
 70
     0
300
1/32" = 1'-0"
140
0.03125
141
12.0
290
     0
  0
SCALE
  5
256
102
{ACAD_REACTORS
330
241
102
}
330
241
100
AcDbScale
 70
     0
300
1/16" = 1'-0"
140
0.0625
141
12.0
290
     0
  0
SCALE
  5
257
102
{ACAD_REACTORS
330
241
102
}
330
241
100
AcDbScale
 70
     0
300
3/32" = 1'-0"
140
0.09375
141
12.0
290
     0
  0
SCALE
  5
258
102
{ACAD_REACTORS
330
241
102
}
330
241
100
AcDbScale
 70
     0
300
1/8" = 1'-0"
140
0.125
141
12.0
290
     0
  0
SCALE
  5
259
102
{ACAD_REACTORS
330
241
102
}
330
241
100
AcDbScale
 70
     0
300
3/16" = 1'-0"
140
0.1875
141
12.0
290
     0
  0
SCALE
  5
25A
102
{ACAD_REACTORS
330
241
102
}
330
241
100
AcDbScale
 70
     0
300
1/4" = 1'-0"
140
0.25
141
12.0
290
     0
  0
SCALE
  5
25B
102
{ACAD_REACTORS
330
241
102
}
330
241
100
AcDbScale
 70
     0
300
3/8" = 1'-0"
140
0.375
141
12.0
290
     0
  0
SCALE
  5
25C
102
{ACAD_REACTORS
330
241
102
}
330
241
100
AcDbScale
 70
     0
300
1/2" = 1'-0"
140
0.5
141
12.0
290
     0
  0
SCALE
  5
25D
102
{ACAD_REACTORS
330
241
102
}
330
241
100
AcDbScale
 70
     0
300
3/4" = 1'-0"
140
0.75
141
12.0
290
     0
  0
SCALE
  5
25E
102
{ACAD_REACTORS
330
241
102
}
330
241
100
AcDbScale
 70
     0
300
1" = 1'-0"
140
1.0
141
12.0
290
     0
  0
SCALE
  5
25F
102
{ACAD_REACTORS
330
241
102
}
330
241
100
AcDbScale
 70
     0
300
1-1/2" = 1'-0"
140
1.5
141
12.0
290
     0
  0
SCALE
  5
260
102
{ACAD_REACTORS
330
241
102
}
330
241
100
AcDbScale
 70
     0
300
3" = 1'-0"
140
3.0
141
12.0
290
     0
  0
SCALE
  5
261
102
{ACAD_REACTORS
330
241
102
}
330
241
100
AcDbScale
 70
     0
300
6" = 1'-0"
140
6.0
141
12.0
290
     0
  0
SCALE
  5
262
102
{ACAD_REACTORS
330
241
102
}
330
241
100
AcDbScale
 70
     0
300
1'-0" = 1'-0"
140
12.0
141
12.0
290
     0
  0
TABLESTYLE
  5
279
102
{ACAD_REACTORS
330
278
102
}
102
{ACAD_XDICTIONARY
360
3AB2
102
}
330
278
100
AcDbTableStyle
  3
Standard
 70
     0
 71
     0
 40
0.06
 41
0.06
280
     0
281
     0
  7
Standard
140
4.5
170
     2
 62
     0
 63
   257
283
     0
 90
        4
 91
        0
  1

274
    -2
284
     1
 64
     0
275
    -2
285
     1
 65
     0
276
    -2
286
     1
 66
     0
277
    -2
287
     1
 67
     0
278
    -2
288
     1
 68
     0
279
    -2
289
     1
 69
     0
  7
Standard
140
6.0
170
     5
 62
     0
 63
   257
283
     0
 90
        4
 91
        0
  1

274
    -2
284
     1
 64
     0
275
    -2
285
     1
 65
     0
276
    -2
286
     1
 66
     0
277
    -2
287
     1
 67
     0
278
    -2
288
     1
 68
     0
279
    -2
289
     1
 69
     0
  7
Standard
140
4.5
170
     5
 62
     0
 63
   257
283
     0
 90
        4
 91
        0
  1

274
    -2
284
     1
 64
     0
275
    -2
285
     1
 65
     0
276
    -2
286
     1
 66
     0
277
    -2
287
     1
 67
     0
278
    -2
288
     1
 68
     0
279
    -2
289
     1
 69
     0
  0
VISUALSTYLE
  5
26C
102
{ACAD_REACTORS
330
267
102
}
330
267
100
AcDbVisualStyle
  2
2dWireframe
 70
     4
 71
     0
 72
     2
 73
     0
 90
        0
 40
-0.6
 41
-30.0
 62
     5
 63
     7
421
 16777215
 74
     1
 91
        4
 64
     7
 65
   257
 75
     1
175
     1
 42
1.0
 92
        0
 66
   257
 43
1.0
 76
     1
 77
     6
 78
     2
 67
     7
 79
     5
170
     0
171
     0
290
     0
174
     0
 93
        1
 44
0.0
173
     0
291
     0
 45
0.0
  0
VISUALSTYLE
  5
26E
102
{ACAD_REACTORS
330
267
102
}
330
267
100
AcDbVisualStyle
  2
3D Hidden
 70
     6
 71
     1
 72
     2
 73
     2
 90
        0
 40
-0.6
 41
-30.0
 62
     5
 63
     7
421
 16777215
 74
     2
 91
        2
 64
     7
 65
   257
 75
     2
175
     1
 42
40.0
 92
        0
 66
   257
 43
1.0
 76
     1
 77
     6
 78
     2
 67
     7
 79
     3
170
     0
171
     0
290
     0
174
     0
 93
        1
 44
0.0
173
     0
291
     0
 45
0.0
  0
VISUALSTYLE
  5
26D
102
{ACAD_REACTORS
330
267
102
}
330
267
100
AcDbVisualStyle
  2
3dWireframe
 70
     5
 71
     0
 72
     2
 73
     0
 90
        0
 40
-0.6
 41
-30.0
 62
     5
 63
     7
421
 16777215
 74
     1
 91
        4
 64
     7
 65
   257
 75
     1
175
     1
 42
1.0
 92
        0
 66
   257
 43
1.0
 76
     1
 77
     6
 78
     2
 67
     7
 79
     5
170
     0
171
     0
290
     0
174
     0
 93
        1
 44
0.0
173
     0
291
     0
 45
0.0
  0
VISUALSTYLE
  5
26F
102
{ACAD_REACTORS
330
267
102
}
330
267
100
AcDbVisualStyle
  2
Basic
 70
     7
 71
     1
 72
     0
 73
     1
 90
        0
 40
-0.6
 41
-30.0
 62
     5
 63
     7
421
 16777215
 74
     0
 91
        4
 64
     7
 65
   257
 75
     1
175
     1
 42
1.0
 92
        8
 66
     7
 43
1.0
 76
     1
 77
     6
 78
     2
 67
     7
 79
     5
170
     0
171
     0
290
     0
174
     0
 93
        1
 44
0.0
173
     0
291
     1
 45
0.0
  0
VISUALSTYLE
  5
273
102
{ACAD_REACTORS
330
267
102
}
330
267
100
AcDbVisualStyle
  2
Brighten
 70
    12
 71
     2
 72
     2
 73
     0
 90
        0
 40
-0.6
 41
-30.0
 62
     5
 63
     7
421
 16777215
 74
     1
 91
        4
 64
     7
 65
   257
 75
     1
175
     1
 42
1.0
 92
        8
 66
     7
 43
1.0
 76
     1
 77
     6
 78
     2
 67
     7
 79
     5
170
     0
171
     0
290
     0
174
     0
 93
        1
 44
50.0
173
     0
291
     1
 45
0.0
  0
VISUALSTYLE
  5
277
102
{ACAD_REACTORS
330
267
102
}
330
267
100
AcDbVisualStyle
  2
ColorChange
 70
    16
 71
     2
 72
     2
 73
     3
 90
        0
 40
-0.6
 41
-30.0
 62
     5
 63
     8
421
  8421504
 74
     1
 91
        4
 64
     7
 65
   257
 75
     1
175
     1
 42
1.0
 92
        8
 66
     8
424
  8421504
 43
1.0
 76
     1
 77
     6
 78
     2
 67
     7
 79
     5
170
     0
171
     0
290
     0
174
     0
 93
        1
 44
0.0
173
     0
291
     1
 45
0.0
  0
VISUALSTYLE
  5
271
102
{ACAD_REACTORS
330
267
102
}
330
267
100
AcDbVisualStyle
  2
Conceptual
 70
     9
 71
     3
 72
     2
 73
     0
 90
        0
 40
-0.6
 41
-30.0
 62
     5
 63
     7
421
 16777215
 74
     2
 91
        2
 64
     7
 65
   257
 75
     1
175
     1
 42
40.0
 92
        8
 66
     7
 43
1.0
 76
     1
 77
     6
 78
     2
 67
     7
 79
     3
170
     0
171
     0
290
     0
174
     0
 93
        1
 44
0.0
173
     0
291
     0
 45
0.0
  0
VISUALSTYLE
  5
272
102
{ACAD_REACTORS
330
267
102
}
330
267
100
AcDbVisualStyle
  2
Dim
 70
    11
 71
     2
 72
     2
 73
     0
 90
        0
 40
-0.6
 41
-30.0
 62
     5
 63
     7
421
 16777215
 74
     1
 91
        4
 64
     7
 65
   257
 75
     1
175
     1
 42
1.0
 92
        8
 66
     7
 43
1.0
 76
     1
 77
     6
 78
     2
 67
     7
 79
     5
170
     0
171
     0
290
     0
174
     0
 93
        1
 44
-50.0
173
     0
291
     1
 45
0.0
  0
VISUALSTYLE
  5
8FE
102
{ACAD_REACTORS
330
267
102
}
330
267
100
AcDbVisualStyle
  2
EdgeColorOff
 70
    22
 71
     2
 72
     2
 73
     0
 90
        0
 40
0.6
 41
30.0
 62
     5
 63
     7
421
 16777215
 74
     1
 91
        4
 64
     7
 65
   257
 75
     1
175
     1
 42
1.0
 92
        8
 66
     7
 43
1.0
 76
     1
 77
     6
 78
     2
 67
     7
 79
     5
170
     0
171
     0
290
     0
174
     0
 93
        1
 44
0.0
173
     0
291
     1
 45
0.0
  0
VISUALSTYLE
  5
276
102
{ACAD_REACTORS
330
267
102
}
330
267
100
AcDbVisualStyle
  2
Facepattern
 70
    15
 71
     2
 72
     2
 73
     0
 90
        0
 40
-0.6
 41
-30.0
 62
     5
 63
     7
421
 16777215
 74
     1
 91
        4
 64
     7
 65
   257
 75
     1
175
     1
 42
1.0
 92
        8
 66
     7
 43
1.0
 76
     1
 77
     6
 78
     2
 67
     7
 79
     5
170
     0
171
     0
290
     0
174
     0
 93
        1
 44
0.0
173
     0
291
     1
 45
0.0
  0
VISUALSTYLE
  5
268
102
{ACAD_REACTORS
330
267
102
}
330
267
100
AcDbVisualStyle
  2
Flat
 70
     0
 71
     2
 72
     1
 73
     1
 90
        2
 40
-0.6
 41
30.0
 62
     5
 63
     7
421
 16777215
 74
     0
 91
        4
 64
     7
 65
   257
 75
     1
175
     1
 42
1.0
 92
        8
 66
     7
 43
1.0
 76
     1
 77
     6
 78
     2
 67
     7
 79
     5
170
     0
171
     0
290
     0
174
     0
 93
       13
 44
0.0
173
     0
291
     1
 45
0.0
  0
VISUALSTYLE
  5
269
102
{ACAD_REACTORS
330
267
102
}
330
267
100
AcDbVisualStyle
  2
FlatWithEdges
 70
     1
 71
     2
 72
     1
 73
     1
 90
        2
 40
-0.6
 41
30.0
 62
     5
 63
     7
421
 16777215
 74
     1
 91
        4
 64
     7
 65
   257
 75
     1
175
     1
 42
1.0
 92
        0
 66
   257
 43
1.0
 76
     1
 77
     6
 78
     2
 67
     7
 79
     5
170
     0
171
     0
290
     0
174
     0
 93
       13
 44
0.0
173
     0
291
     1
 45
0.0
  0
VISUALSTYLE
  5
26A
102
{ACAD_REACTORS
330
267
102
}
330
267
100
AcDbVisualStyle
  2
Gouraud
 70
     2
 71
     2
 72
     2
 73
     1
 90
        2
 40
-0.6
 41
30.0
 62
     5
 63
     7
421
 16777215
 74
     0
 91
        4
 64
     7
 65
   257
 75
     1
175
     1
 42
1.0
 92
        0
 66
     7
 43
1.0
 76
     1
 77
     6
 78
     2
 67
     7
 79
     5
170
     0
171
     0
290
     0
174
     0
 93
       13
 44
0.0
173
     0
291
     1
 45
0.0
  0
VISUALSTYLE
  5
26B
102
{ACAD_REACTORS
330
267
102
}
330
267
100
AcDbVisualStyle
  2
GouraudWithEdges
 70
     3
 71
     2
 72
     2
 73
     1
 90
        2
 40
-0.6
 41
30.0
 62
     5
 63
     7
421
 16777215
 74
     1
 91
        4
 64
     7
 65
   257
 75
     1
175
     1
 42
1.0
 92
        0
 66
   257
 43
1.0
 76
     1
 77
     6
 78
     2
 67
     7
 79
     5
170
     0
171
     0
290
     0
174
     0
 93
       13
 44
0.0
173
     0
291
     1
 45
0.0
  0
VISUALSTYLE
  5
8FB
102
{ACAD_REACTORS
330
267
102
}
330
267
100
AcDbVisualStyle
  2
Hidden
 70
     6
 71
     1
 72
     2
 73
     2
 90
        0
 40
0.6
 41
30.0
 62
     5
 63
     7
421
 16777215
 74
     2
 91
        2
 64
     7
 65
   257
 75
     2
175
     1
 42
40.0
 92
        0
 66
   257
 43
1.0
 76
     1
 77
     6
 78
     2
 67
     7
 79
     3
170
     0
171
     0
290
     0
174
     0
 93
        1
 44
0.0
173
     0
291
     0
 45
0.0
  0
VISUALSTYLE
  5
8FC
102
{ACAD_REACTORS
330
267
102
}
330
267
100
AcDbVisualStyle
  2
JitterOff
 70
    20
 71
     2
 72
     2
 73
     0
 90
        0
 40
0.6
 41
30.0
 62
     5
 63
     7
421
 16777215
 74
     1
 91
        4
 64
     7
 65
   257
 75
     1
175
     1
 42
1.0
 92
       10
 66
     7
 43
1.0
 76
     1
 77
     6
 78
     2
 67
     7
 79
     5
170
     0
171
     0
290
     0
174
     0
 93
        1
 44
0.0
173
     0
291
     1
 45
0.0
  0
VISUALSTYLE
  5
275
102
{ACAD_REACTORS
330
267
102
}
330
267
100
AcDbVisualStyle
  2
Linepattern
 70
    14
 71
     2
 72
     2
 73
     0
 90
        0
 40
-0.6
 41
-30.0
 62
     5
 63
     7
421
 16777215
 74
     1
 91
        4
 64
     7
 65
   257
 75
     7
175
     7
 42
1.0
 92
        8
 66
     7
 43
1.0
 76
     1
 77
     6
 78
     2
 67
     7
 79
     5
170
     0
171
     0
290
     0
174
     0
 93
        1
 44
0.0
173
     0
291
     1
 45
0.0
  0
VISUALSTYLE
  5
8FD
102
{ACAD_REACTORS
330
267
102
}
330
267
100
AcDbVisualStyle
  2
OverhangOff
 70
    21
 71
     2
 72
     2
 73
     0
 90
        0
 40
0.6
 41
30.0
 62
     5
 63
     7
421
 16777215
 74
     1
 91
        4
 64
     7
 65
   257
 75
     1
175
     1
 42
1.0
 92
        9
 66
     7
 43
1.0
 76
     1
 77
     6
 78
     2
 67
     7
 79
     5
170
     0
171
     0
290
     0
174
     0
 93
        1
 44
0.0
173
     0
291
     1
 45
0.0
  0
VISUALSTYLE
  5
270
102
{ACAD_REACTORS
330
267
102
}
330
267
100
AcDbVisualStyle
  2
Realistic
 70
     8
 71
     2
 72
     2
 73
     0
 90
        0
 40
-0.6
 41
-30.0
 62
     5
 63
     7
421
 16777215
 74
     1
 91
        0
 64
     7
 65
   257
 75
     1
175
     1
 42
1.0
 92
        8
 66
     8
424
  7895160
 43
1.0
 76
     1
 77
     6
 78
     2
 67
     7
 79
     5
170
     0
171
     0
290
     0
174
     0
 93
       13
 44
0.0
173
     0
291
     0
 45
0.0
  0
VISUALSTYLE
  5
903
102
{ACAD_REACTORS
330
267
102
}
330
267
100
AcDbVisualStyle
  2
Shaded
 70
    27
 71
     2
 72
     2
 73
     1
 90
        2
 40
0.6
 41
30.0
 62
     5
 63
     7
421
 16777215
 74
     0
 91
        4
 64
     7
 65
   257
 75
     1
175
     1
 42
1.0
 92
        8
 66
   257
 43
1.0
 76
     1
 77
     6
 78
     2
 67
     8
425
  7895160
 79
     3
170
     0
171
     0
290
     0
174
     0
 93
        5
 44
0.0
173
     0
291
     0
 45
0.0
  0
VISUALSTYLE
  5
902
102
{ACAD_REACTORS
330
267
102
}
330
267
100
AcDbVisualStyle
  2
Shaded with edges
 70
    26
 71
     2
 72
     2
 73
     1
 90
        2
 40
0.6
 41
30.0
 62
     5
 63
     7
421
 16777215
 74
     1
 91
       10
 64
     7
 65
   257
 75
     2
175
     1
 42
1.0
 92
        8
 66
   257
 43
1.0
 76
     1
 77
     6
 78
     2
 67
     7
 79
     3
170
     0
171
     0
290
     0
174
     0
 93
        5
 44
0.0
173
     0
291
     0
 45
0.0
  0
VISUALSTYLE
  5
8FF
102
{ACAD_REACTORS
330
267
102
}
330
267
100
AcDbVisualStyle
  2
Shades of Gray
 70
    23
 71
     2
 72
     2
 73
     3
 90
        0
 40
0.6
 41
30.0
 62
     5
 63
     7
421
 16777215
 74
     2
 91
        2
 64
     7
 65
     7
 75
     1
175
     1
 42
40.0
 92
        8
 66
     7
 43
1.0
 76
     1
 77
     6
 78
     2
 67
     7
 79
     3
170
     0
171
     0
290
     0
174
     0
 93
        1
 44
0.0
173
     0
291
     0
 45
0.0
  0
VISUALSTYLE
  5
900
102
{ACAD_REACTORS
330
267
102
}
330
267
100
AcDbVisualStyle
  2
Sketchy
 70
    24
 71
     1
 72
     2
 73
     2
 90
        0
 40
0.6
 41
30.0
 62
     5
 63
     7
421
 16777215
 74
     2
 91
        2
 64
     7
 65
     7
 75
     1
175
     1
 42
40.0
 92
       11
 66
     7
 43
1.0
 76
     1
 77
     6
 78
     2
 67
     7
 79
     6
170
     0
171
     0
290
     0
174
     0
 93
        1
 44
0.0
173
     0
291
     0
 45
0.0
  0
VISUALSTYLE
  5
274
102
{ACAD_REACTORS
330
267
102
}
330
267
100
AcDbVisualStyle
  2
Thicken
 70
    13
 71
     2
 72
     2
 73
     0
 90
        0
 40
-0.6
 41
-30.0
 62
     5
 63
     7
421
 16777215
 74
     1
 91
        4
 64
     7
 65
   257
 75
     1
175
     1
 42
1.0
 92
       12
 66
     7
 43
1.0
 76
     1
 77
     6
 78
     2
 67
     7
 79
     5
170
     0
171
     0
290
     0
174
     0
 93
        1
 44
0.0
173
     0
291
     1
 45
0.0
  0
VISUALSTYLE
  5
8FA
102
{ACAD_REACTORS
330
267
102
}
330
267
100
AcDbVisualStyle
  2
Wireframe
 70
     5
 71
     0
 72
     2
 73
     0
 90
        0
 40
0.6
 41
30.0
 62
     5
 63
     7
421
 16777215
 74
     1
 91
        4
 64
     7
 65
   257
 75
     1
175
     1
 42
1.0
 92
        0
 66
   257
 43
1.0
 76
     1
 77
     6
 78
     2
 67
     7
 79
     3
170
     0
171
     0
290
     0
174
     0
 93
        1
 44
0.0
173
     0
291
     0
 45
0.0
  0
VISUALSTYLE
  5
901
102
{ACAD_REACTORS
330
267
102
}
330
267
100
AcDbVisualStyle
  2
X-Ray
 70
    25
 71
     2
 72
     2
 73
     1
 90
        1
 40
0.5
 41
30.0
 62
     5
 63
     7
421
 16777215
 74
     1
 91
        0
 64
     7
 65
   257
 75
     1
175
     1
 42
1.0
 92
        8
 66
     7
 43
1.0
 76
     1
 77
     6
 78
     2
 67
     7
 79
     3
170
     0
171
     0
290
     0
174
     0
 93
       13
 44
0.0
173
     0
291
     0
 45
0.0
  0
DICTIONARYVAR
  5
331
102
{ACAD_REACTORS
330
330
102
}
330
330
100
DictionaryVariables
280
     0
  1
1:1
  0
DICTIONARYVAR
  5
D5E
102
{ACAD_REACTORS
330
330
102
}
330
330
100
DictionaryVariables
280
     0
  1
Standard
  0
DICTIONARYVAR
  5
335
102
{ACAD_REACTORS
330
330
102
}
330
330
100
DictionaryVariables
280
     0
  1
Standard
  0
DICTIONARYVAR
  5
D52
102
{ACAD_REACTORS
330
330
102
}
330
330
100
DictionaryVariables
280
     0
  1
ByLayer
  0
DICTIONARYVAR
  5
896
102
{ACAD_REACTORS
330
330
102
}
330
330
100
DictionaryVariables
280
     0
  1
0
  0
DICTIONARYVAR
  5
1614
102
{ACAD_REACTORS
330
E38
102
}
330
E38
100
DictionaryVariables
280
     0
  1
0.261799
  0
DICTIONARYVAR
  5
1612
102
{ACAD_REACTORS
330
E38
102
}
330
E38
100
DictionaryVariables
280
     0
  1
0.400000
  0
DICTIONARYVAR
  5
1613
102
{ACAD_REACTORS
330
E38
102
}
330
E38
100
DictionaryVariables
280
     0
  1
0.250000
  0
DICTIONARYVAR
  5
1615
102
{ACAD_REACTORS
330
E38
102
}
330
E38
100
DictionaryVariables
280
     0
  1
1
  0
FIELD
  5
16F3
102
{ACAD_REACTORS
330
399A
330
3AAB
102
}
330
3AAB
100
AcDbField
  1
_text
  2
{%<\_FldIdx 0>%N}
 90
        1
360
16F4
 97
        0
 91
       63
 92
        0
 94
       11
 95
        2
 96
        0
300

 93
        1
  6
ACFD_FIELDTEXT_CHECKSUM
 93
        2
 90
        2
140
4485.0
 94
        0
300

302

304
ACVALUE_END
  7
ACFD_FIELD_VALUE
 93
        6
 90
        4
  1
{20220324N}
 94
        0
300

302

304
ACVALUE_END
301
{20220324N}
 98
       11
  0
DICTIONARY
  5
3AB2
330
279
100
AcDbDictionary
280
     1
281
     1
  3
ACAD_ROUNDTRIP_2008_TABLESTYLE_CELLSTYLEMAP
360
3AB3
  0
FIELD
  5
16F4
330
16F3
100
AcDbField
  1
AcVar
  2
\AcVar Date \f "yyyyMMdd"
 90
        0
 97
        0
 91
       63
 92
        0
 94
        8
 95
       64
 96
        0
300
Variable not supported
 93
        1
  6
Variable
 93
        2
 90
        4
  1
Date
 94
        0
300

302

304
ACVALUE_END
  7
ACFD_FIELD_VALUE
 93
        6
 90
        8
 92
       16
310
E60703000000180000000C0005000000
 94
        0
300
yyyyMMdd
302

304
ACVALUE_END
301
20220324
 98
        8
  0
CELLSTYLEMAP
  5
3AB3
102
{ACAD_REACTORS
330
3AB2
102
}
330
3AB2
100
AcDbCellStyleMap
 90
        3
300
CELLSTYLE
  1
TABLEFORMAT_BEGIN
 90
        5
170
     1
 91
        0
 92
    32768
 62
   257
 93
        1
300
CONTENTFORMAT
  1
CONTENTFORMAT_BEGIN
 90
        0
 91
        0
 92
        4
 93
        0
300

 40
0.0
140
1.0
 94
        5
 62
     0
340
17
144
6.0
309
CONTENTFORMAT_END
171
     1
301
MARGIN
  1
CELLMARGIN_BEGIN
 40
0.06
 40
0.06
 40
0.06
 40
0.06
 40
0.18
 40
0.18
309
CELLMARGIN_END
 94
        6
 95
        1
302
GRIDFORMAT
  1
GRIDFORMAT_BEGIN
 90
        0
 91
        1
 62
     0
 92
       -2
340
0
 93
        0
 40
0.045
309
GRIDFORMAT_END
 95
        2
302
GRIDFORMAT
  1
GRIDFORMAT_BEGIN
 90
        0
 91
        1
 62
     0
 92
       -2
340
0
 93
        0
 40
0.045
309
GRIDFORMAT_END
 95
        4
302
GRIDFORMAT
  1
GRIDFORMAT_BEGIN
 90
        0
 91
        1
 62
     0
 92
       -2
340
0
 93
        0
 40
0.045
309
GRIDFORMAT_END
 95
        8
302
GRIDFORMAT
  1
GRIDFORMAT_BEGIN
 90
        0
 91
        1
 62
     0
 92
       -2
340
0
 93
        0
 40
0.045
309
GRIDFORMAT_END
 95
       16
302
GRIDFORMAT
  1
GRIDFORMAT_BEGIN
 90
        0
 91
        1
 62
     0
 92
       -2
340
0
 93
        0
 40
0.045
309
GRIDFORMAT_END
 95
       32
302
GRIDFORMAT
  1
GRIDFORMAT_BEGIN
 90
        0
 91
        1
 62
     0
 92
       -2
340
0
 93
        0
 40
0.045
309
GRIDFORMAT_END
309
TABLEFORMAT_END
  1
CELLSTYLE_BEGIN
 90
        1
 91
        1
300
_TITLE
309
CELLSTYLE_END
300
CELLSTYLE
  1
TABLEFORMAT_BEGIN
 90
        5
170
     1
 91
        0
 92
        0
 62
   257
 93
        1
300
CONTENTFORMAT
  1
CONTENTFORMAT_BEGIN
 90
        0
 91
        0
 92
        4
 93
        0
300

 40
0.0
140
1.0
 94
        5
 62
     0
340
17
144
4.5
309
CONTENTFORMAT_END
171
     1
301
MARGIN
  1
CELLMARGIN_BEGIN
 40
0.06
 40
0.06
 40
0.06
 40
0.06
 40
0.18
 40
0.18
309
CELLMARGIN_END
 94
        6
 95
        1
302
GRIDFORMAT
  1
GRIDFORMAT_BEGIN
 90
        0
 91
        1
 62
     0
 92
       -2
340
0
 93
        0
 40
0.045
309
GRIDFORMAT_END
 95
        2
302
GRIDFORMAT
  1
GRIDFORMAT_BEGIN
 90
        0
 91
        1
 62
     0
 92
       -2
340
0
 93
        0
 40
0.045
309
GRIDFORMAT_END
 95
        4
302
GRIDFORMAT
  1
GRIDFORMAT_BEGIN
 90
        0
 91
        1
 62
     0
 92
       -2
340
0
 93
        0
 40
0.045
309
GRIDFORMAT_END
 95
        8
302
GRIDFORMAT
  1
GRIDFORMAT_BEGIN
 90
        0
 91
        1
 62
     0
 92
       -2
340
0
 93
        0
 40
0.045
309
GRIDFORMAT_END
 95
       16
302
GRIDFORMAT
  1
GRIDFORMAT_BEGIN
 90
        0
 91
        1
 62
     0
 92
       -2
340
0
 93
        0
 40
0.045
309
GRIDFORMAT_END
 95
       32
302
GRIDFORMAT
  1
GRIDFORMAT_BEGIN
 90
        0
 91
        1
 62
     0
 92
       -2
340
0
 93
        0
 40
0.045
309
GRIDFORMAT_END
309
TABLEFORMAT_END
  1
CELLSTYLE_BEGIN
 90
        2
 91
        1
300
_HEADER
309
CELLSTYLE_END
300
CELLSTYLE
  1
TABLEFORMAT_BEGIN
 90
        5
170
     1
 91
        0
 92
        0
 62
   257
 93
        1
300
CONTENTFORMAT
  1
CONTENTFORMAT_BEGIN
 90
        0
 91
        0
 92
        4
 93
        0
300

 40
0.0
140
1.0
 94
        2
 62
     0
340
17
144
4.5
309
CONTENTFORMAT_END
171
     1
301
MARGIN
  1
CELLMARGIN_BEGIN
 40
0.06
 40
0.06
 40
0.06
 40
0.06
 40
0.18
 40
0.18
309
CELLMARGIN_END
 94
        6
 95
        1
302
GRIDFORMAT
  1
GRIDFORMAT_BEGIN
 90
        0
 91
        1
 62
     0
 92
       -2
340
0
 93
        0
 40
0.045
309
GRIDFORMAT_END
 95
        2
302
GRIDFORMAT
  1
GRIDFORMAT_BEGIN
 90
        0
 91
        1
 62
     0
 92
       -2
340
0
 93
        0
 40
0.045
309
GRIDFORMAT_END
 95
        4
302
GRIDFORMAT
  1
GRIDFORMAT_BEGIN
 90
        0
 91
        1
 62
     0
 92
       -2
340
0
 93
        0
 40
0.045
309
GRIDFORMAT_END
 95
        8
302
GRIDFORMAT
  1
GRIDFORMAT_BEGIN
 90
        0
 91
        1
 62
     0
 92
       -2
340
0
 93
        0
 40
0.045
309
GRIDFORMAT_END
 95
       16
302
GRIDFORMAT
  1
GRIDFORMAT_BEGIN
 90
        0
 91
        1
 62
     0
 92
       -2
340
0
 93
        0
 40
0.045
309
GRIDFORMAT_END
 95
       32
302
GRIDFORMAT
  1
GRIDFORMAT_BEGIN
 90
        0
 91
        1
 62
     0
 92
       -2
340
0
 93
        0
 40
0.045
309
GRIDFORMAT_END
309
TABLEFORMAT_END
  1
CELLSTYLE_BEGIN
 90
        3
 91
        2
300
_DATA
309
CELLSTYLE_END
  0
ENDSEC
  0
EOF
