  0
SECTION
  2
HEADER
  9
$ACADVER
  1
AC1021
  9
$ACADMAINTVER
 70
    25
  9
$DWGCODEPAGE
  3
ANSI_932
  9
$LASTSAVEDBY
  1
howeNelson
  9
$INSBASE
 10
0.0
 20
0.0
 30
0.0
  9
$EXTMIN
 10
0.0
 20
0.0
 30
-0.0000000000000142
  9
$EXTMAX
 10
2100.0
 20
2970.0
 30
0.0000000000000142
  9
$LIMMIN
 10
0.0
 20
0.0
  9
$LIMMAX
 10
2100.0
 20
2970.0
  9
$ORTHOMODE
 70
     0
  9
$REGENMODE
 70
     1
  9
$FILLMODE
 70
     1
  9
$QTEXTMODE
 70
     0
  9
$MIRRTEXT
 70
     1
  9
$LTSCALE
 40
5.0
  9
$ATTMODE
 70
     1
  9
$TEXTSIZE
 40
2.5
  9
$TRACEWID
 40
1.0
  9
$TEXTSTYLE
  7
ＭＳ ゴシック
  9
$CLAYER
  8
DIM
  9
$CELTYPE
  6
ByLayer
  9
$CECOLOR
 62
   256
  9
$CELTSCALE
 40
1.0
  9
$DISPSILH
 70
     0
  9
$DIMSCALE
 40
1.0
  9
$DIMASZ
 40
10.0
  9
$DIMEXO
 40
15.0
  9
$DIMDLI
 40
0.9999999999999999
  9
$DIMRND
 40
0.0
  9
$DIMDLE
 40
0.0
  9
$DIMEXE
 40
0.0
  9
$DIMTP
 40
0.0
  9
$DIMTM
 40
0.0
  9
$DIMTXT
 40
24.0
  9
$DIMCEN
 40
0.0
  9
$DIMTSZ
 40
0.0
  9
$DIMTOL
 70
     0
  9
$DIMLIM
 70
     0
  9
$DIMTIH
 70
     0
  9
$DIMTOH
 70
     0
  9
$DIMSE1
 70
     0
  9
$DIMSE2
 70
     0
  9
$DIMTAD
 70
     1
  9
$DIMZIN
 70
    11
  9
$DIMBLK
  1
DOT
  9
$DIMASO
 70
     1
  9
$DIMSHO
 70
     1
  9
$DIMPOST
  1
<>
  9
$DIMAPOST
  1
[]
  9
$DIMALT
 70
     0
  9
$DIMALTD
 70
     1
  9
$DIMALTF
 40
1.0
  9
$DIMLFAC
 40
1.0
  9
$DIMTOFL
 70
     0
  9
$DIMTVP
 40
0.0
  9
$DIMTIX
 70
     1
  9
$DIMSOXD
 70
     0
  9
$DIMSAH
 70
     0
  9
$DIMBLK1
  1

  9
$DIMBLK2
  1

  9
$DIMSTYLE
  2
tfrom線あり
  9
$DIMCLRD
 70
     0
  9
$DIMCLRE
 70
     0
  9
$DIMCLRT
 70
     0
  9
$DIMTFAC
 40
1.0
  9
$DIMGAP
 40
20.0
  9
$DIMJUST
 70
     0
  9
$DIMSD1
 70
     0
  9
$DIMSD2
 70
     0
  9
$DIMTOLJ
 70
     1
  9
$DIMTZIN
 70
    11
  9
$DIMALTZ
 70
    11
  9
$DIMALTTZ
 70
    11
  9
$DIMUPT
 70
     0
  9
$DIMDEC
 70
     0
  9
$DIMTDEC
 70
     1
  9
$DIMALTU
 70
     2
  9
$DIMALTTD
 70
     2
  9
$DIMTXSTY
  7
ＭＳ ゴシック
  9
$DIMAUNIT
 70
     0
  9
$DIMADEC
 70
     2
  9
$DIMALTRND
 40
0.0
  9
$DIMAZIN
 70
     0
  9
$DIMDSEP
 70
    46
  9
$DIMATFIT
 70
     0
  9
$DIMFRAC
 70
     2
  9
$DIMLDRBLK
  1
DOT
  9
$DIMLUNIT
 70
     2
  9
$DIMLWD
 70
    -2
  9
$DIMLWE
 70
    -2
  9
$DIMTMOVE
 70
     0
  9
$DIMFXL
 40
1.0
  9
$DIMFXLON
 70
     0
  9
$DIMJOGANG
 40
0.7853981633974483
  9
$DIMTFILL
 70
     0
  9
$DIMTFILLCLR
 70
     0
  9
$DIMARCSYM
 70
     0
  9
$DIMLTYPE
  6

  9
$DIMLTEX1
  6

  9
$DIMLTEX2
  6

  9
$LUNITS
 70
     2
  9
$LUPREC
 70
     0
  9
$SKETCHINC
 40
0.1
  9
$FILLETRAD
 40
6.0
  9
$AUNITS
 70
     0
  9
$AUPREC
 70
     0
  9
$MENU
  1
acad
  9
$ELEVATION
 40
0.0
  9
$PELEVATION
 40
0.0
  9
$THICKNESS
 40
0.0
  9
$LIMCHECK
 70
     0
  9
$CHAMFERA
 40
0.0
  9
$CHAMFERB
 40
0.0
  9
$CHAMFERC
 40
0.0
  9
$CHAMFERD
 40
0.0
  9
$SKPOLY
 70
     0
  9
$TDCREATE
 40
2447893.375
  9
$TDUCREATE
 40
0.0
  9
$TDUPDATE
 40
2458169.704921875
  9
$TDUUPDATE
 40
2458169.329921875
  9
$TDINDWG
 40
0.0816188773
  9
$TDUSRTIMER
 40
0.0011960069
  9
$USRTIMER
 70
     1
  9
$ANGBASE
 50
0.0
  9
$ANGDIR
 70
     0
  9
$PDMODE
 70
     1
  9
$PDSIZE
 40
-2.0
  9
$PLINEWID
 40
0.0
  9
$SPLFRAME
 70
     0
  9
$SPLINETYPE
 70
     6
  9
$SPLINESEGS
 70
     8
  9
$HANDSEED
  5
7B49
  9
$SURFTAB1
 70
     6
  9
$SURFTAB2
 70
     6
  9
$SURFTYPE
 70
     6
  9
$SURFU
 70
     6
  9
$SURFV
 70
     6
  9
$UCSBASE
  2

  9
$UCSNAME
  2

  9
$UCSORG
 10
0.0
 20
0.0
 30
0.0
  9
$UCSXDIR
 10
1.0
 20
0.0
 30
0.0
  9
$UCSYDIR
 10
0.0
 20
1.0
 30
0.0
  9
$UCSORTHOREF
  2

  9
$UCSORTHOVIEW
 70
     0
  9
$UCSORGTOP
 10
0.0
 20
0.0
 30
0.0
  9
$UCSORGBOTTOM
 10
0.0
 20
0.0
 30
0.0
  9
$UCSORGLEFT
 10
0.0
 20
0.0
 30
0.0
  9
$UCSORGRIGHT
 10
0.0
 20
0.0
 30
0.0
  9
$UCSORGFRONT
 10
0.0
 20
0.0
 30
0.0
  9
$UCSORGBACK
 10
0.0
 20
0.0
 30
0.0
  9
$PUCSBASE
  2

  9
$PUCSNAME
  2

  9
$PUCSORG
 10
0.0
 20
0.0
 30
0.0
  9
$PUCSXDIR
 10
1.0
 20
0.0
 30
0.0
  9
$PUCSYDIR
 10
0.0
 20
1.0
 30
0.0
  9
$PUCSORTHOREF
  2

  9
$PUCSORTHOVIEW
 70
     0
  9
$PUCSORGTOP
 10
0.0
 20
0.0
 30
0.0
  9
$PUCSORGBOTTOM
 10
0.0
 20
0.0
 30
0.0
  9
$PUCSORGLEFT
 10
0.0
 20
0.0
 30
0.0
  9
$PUCSORGRIGHT
 10
0.0
 20
0.0
 30
0.0
  9
$PUCSORGFRONT
 10
0.0
 20
0.0
 30
0.0
  9
$PUCSORGBACK
 10
0.0
 20
0.0
 30
0.0
  9
$USERI1
 70
     0
  9
$USERI2
 70
     0
  9
$USERI3
 70
     0
  9
$USERI4
 70
     0
  9
$USERI5
 70
     0
  9
$USERR1
 40
0.0
  9
$USERR2
 40
0.0
  9
$USERR3
 40
0.0
  9
$USERR4
 40
0.0
  9
$USERR5
 40
0.0
  9
$WORLDVIEW
 70
     1
  9
$SHADEDGE
 70
     3
  9
$SHADEDIF
 70
    70
  9
$TILEMODE
 70
     1
  9
$MAXACTVP
 70
    64
  9
$PINSBASE
 10
0.0
 20
0.0
 30
0.0
  9
$PLIMCHECK
 70
     0
  9
$PEXTMIN
 10
0.0
 20
0.0
 30
0.0
  9
$PEXTMAX
 10
0.0
 20
0.0
 30
0.0
  9
$PLIMMIN
 10
-7.5
 20
-20.0
  9
$PLIMMAX
 10
412.5
 20
277.0
  9
$UNITMODE
 70
     0
  9
$VISRETAIN
 70
     0
  9
$PLINEGEN
 70
     1
  9
$PSLTSCALE
 70
     0
  9
$TREEDEPTH
 70
  3020
  9
$CMLSTYLE
  2
Standard
  9
$CMLJUST
 70
     0
  9
$CMLSCALE
 40
1.0
  9
$PROXYGRAPHICS
 70
     0
  9
$MEASUREMENT
 70
     1
  9
$CELWEIGHT
370
    -1
  9
$ENDCAPS
280
     0
  9
$JOINSTYLE
280
     0
  9
$LWDISPLAY
290
     1
  9
$INSUNITS
 70
     4
  9
$HYPERLINKBASE
  1

  9
$STYLESHEET
  1

  9
$XEDIT
290
     1
  9
$CEPSNTYPE
380
     0
  9
$PSTYLEMODE
290
     1
  9
$FINGERPRINTGUID
  2

  9
$VERSIONGUID
  2

  9
$EXTNAMES
290
     1
  9
$PSVPSCALE
 40
0.0
  9
$OLESTARTUP
290
     0
  9
$SORTENTS
280
   127
  9
$INDEXCTL
280
     0
  9
$HIDETEXT
280
     1
  9
$XCLIPFRAME
290
     0
  9
$HALOGAP
280
     0
  9
$OBSCOLOR
 70
   257
  9
$OBSLTYPE
280
     0
  9
$INTERSECTIONDISPLAY
280
     0
  9
$INTERSECTIONCOLOR
 70
   257
  9
$DIMASSOC
280
     2
  9
$PROJECTNAME
  1

  9
$CAMERADISPLAY
290
     0
  9
$LENSLENGTH
 40
50.0
  9
$CAMERAHEIGHT
 40
0.0
  9
$STEPSPERSEC
 40
2.0
  9
$STEPSIZE
 40
6.0
  9
$3DDWFPREC
 40
2.0
  9
$PSOLWIDTH
 40
0.25
  9
$PSOLHEIGHT
 40
4.0
  9
$LOFTANG1
 40
1.570796326794897
  9
$LOFTANG2
 40
1.570796326794897
  9
$LOFTMAG1
 40
0.0
  9
$LOFTMAG2
 40
0.0
  9
$LOFTPARAM
 70
     7
  9
$LOFTNORMALS
280
     1
  9
$LATITUDE
 40
37.795
  9
$LONGITUDE
 40
-122.394
  9
$NORTHDIRECTION
 40
0.0
  9
$TIMEZONE
 70
 -8000
  9
$LIGHTGLYPHDISPLAY
280
     1
  9
$TILEMODELIGHTSYNCH
280
     1
  9
$SOLIDHIST
280
     1
  9
$SHOWHIST
280
     1
  9
$DWFFRAME
280
     2
  9
$DGNFRAME
280
     2
  9
$REALWORLDSCALE
290
     1
  9
$INTERFERECOLOR
 62
   256
  9
$CSHADOW
280
     0
  9
$SHADOWPLANELOCATION
 40
0.0
  0
ENDSEC
  0
SECTION
  2
CLASSES
  0
CLASS
  1
LWPOLYLINE
  2
AcDbPolyline
  3
ObjectDBX Classes
 90
        0
 91
        1
280
     0
281
     1
  0
CLASS
  1
IMAGE
  2
AcDbRasterImage
  3
ISM
 90
      127
 91
        6
280
     0
281
     1
  0
CLASS
  1
OLE2FRAME
  2
AcDbOle2Frame
  3
ObjectDBX Classes
 90
        0
 91
        1
280
     0
281
     1
  0
CLASS
  1
HATCH
  2
AcDbHatch
  3
ObjectDBX Classes
 90
        0
 91
        1
280
     0
281
     1
  0
CLASS
  1
DICTIONARYVAR
  2
AcDbDictionaryVar
  3
ObjectDBX Classes
 90
        0
 91
        5
280
     0
281
     0
  0
CLASS
  1
RASTERVARIABLES
  2
AcDbRasterVariables
  3
ISM
 90
        0
 91
        5
280
     0
281
     0
  0
CLASS
  1
IMAGEDEF
  2
AcDbRasterImageDef
  3
ISM
 90
        0
 91
        5
280
     0
281
     0
  0
CLASS
  1
IMAGEDEF_REACTOR
  2
AcDbRasterImageDefReactor
  3
ISM
 90
        1
 91
        5
280
     0
281
     0
  0
CLASS
  1
IDBUFFER
  2
AcDbIdBuffer
  3
ObjectDBX Classes
 90
        0
 91
        5
280
     0
281
     0
  0
CLASS
  1
SPATIAL_FILTER
  2
AcDbSpatialFilter
  3
ObjectDBX Classes
 90
        0
 91
        5
280
     0
281
     0
  0
CLASS
  1
XRECORD
  2
AcDbXrecord
  3
ObjectDBX Classes
 90
        0
 91
        1
280
     0
281
     0
  0
CLASS
  1
SORTENTSTABLE
  2
AcDbSortentsTable
  3
ObjectDBX Classes
 90
        0
 91
        5
280
     0
281
     0
  0
CLASS
  1
LAYER_INDEX
  2
AcDbLayerIndex
  3
ObjectDBX Classes
 90
        0
 91
        5
280
     0
281
     0
  0
CLASS
  1
SPATIAL_INDEX
  2
AcDbSpatialIndex
  3
AutoCAD 2000
 90
        0
 91
        5
280
     0
281
     0
  0
CLASS
  1
OBJECT_PTR
  2
CAseDLPNTableRecord
  3
ASE-LPNTableRecord
 90
        1
 91
        5
280
     0
281
     0
  0
CLASS
  1
LAYOUT
  2
AcDbLayout
  3
ObjectDBX Classes
 90
        0
 91
        1
280
     0
281
     0
  0
CLASS
  1
PLOTSETTINGS
  2
AcDbPlotSettings
  3
ObjectDBX Classes
 90
        0
 91
        5
280
     0
281
     0
  0
CLASS
  1
ACDBDICTIONARYWDFLT
  2
AcDbDictionaryWithDefault
  3
ObjectDBX Classes
 90
        0
 91
        5
280
     0
281
     0
  0
CLASS
  1
ACDBPLACEHOLDER
  2
AcDbPlaceHolder
  3
ObjectDBX Classes
 90
        0
 91
        1
280
     0
281
     0
  0
CLASS
  1
SCALE
  2
AcDbScale
  3
ObjectDBX Classes
 90
     1153
 91
        5
280
     0
281
     0
  0
CLASS
  1
MATERIAL
  2
AcDbMaterial
  3
ObjectDBX Classes
 90
     1153
 91
        5
280
     0
281
     0
  0
CLASS
  1
VISUALSTYLE
  2
AcDbVisualStyle
  3
ObjectDBX Classes
 90
     4095
 91
        5
280
     0
281
     0
  0
CLASS
  1
TABLESTYLE
  2
AcDbTableStyle
  3
ObjectDBX Classes
 90
     4095
 91
        5
280
     0
281
     0
  0
CLASS
  1
DIMASSOC
  2
AcDbDimAssoc
  3
"AcDbDimAssoc|Product Desc:     AcDim ARX App For Dimension|Company:          Autodesk, Inc.|WEB Address:      www.autodesk.com"
 90
        0
 91
        5
280
     0
281
     0
  0
CLASS
  1
CELLSTYLEMAP
  2
AcDbCellStyleMap
  3
ObjectDBX Classes
 90
     1152
 91
        5
280
     0
281
     0
  0
CLASS
  1
SUN
  2
AcDbSun
  3
SCENEOE
 90
     1153
 91
        5
280
     0
281
     0
  0
CLASS
  1
MLEADERSTYLE
  2
AcDbMLeaderStyle
  3
ACDB_MLEADERSTYLE_CLASS
 90
     4095
 91
        5
280
     0
281
     0
  0
CLASS
  1
FIELD
  2
AcDbField
  3
ObjectDBX Classes
 90
     1152
 91
        5
280
     0
281
     0
  0
CLASS
  1
FIELDLIST
  2
AcDbFieldList
  3
ObjectDBX Classes
 90
     1152
 91
        5
280
     0
281
     0
  0
CLASS
  1
MULTILEADER
  2
AcDbMLeader
  3
ACDB_MLEADER_CLASS
 90
     1025
 91
        4
280
     0
281
     1
  0
ENDSEC
  0
SECTION
  2
TABLES
  0
TABLE
  2
VPORT
  5
7
330
0
100
AcDbSymbolTable
 70
     1
  0
VPORT
  5
15
330
7
100
AcDbSymbolTableRecord
100
AcDbViewportTableRecord
  2
*ACTIVE
 70
     0
 10
0.0
 20
0.0
 11
1.0
 21
1.0
 12
1141.020135670908
 22
1411.401285469834
 13
0.0
 23
0.0
 14
1.0
 24
1.0
 15
0.0
 25
0.0
 16
0.0
 26
0.0
 36
1.0
 17
-91.02013567090762
 27
73.59871453016603
 37
-46.86809886248109
 40
3029.4
 41
2.23943661971831
 42
50.0
 43
0.0
 44
0.0
 50
0.0
 51
0.0
 71
    16
 72
  2000
 73
     1
 74
     1
 75
     0
 76
     0
 77
     0
 78
     0
281
     0
 65
     1
110
0.0
120
0.0
130
0.0
111
1.0
121
0.0
131
0.0
112
0.0
122
1.0
132
0.0
 79
     0
146
0.0
348
26C
 60
     3
 61
     5
292
     1
282
     1
141
0.0
142
0.0
 63
   256
361
904
  0
ENDTAB
  0
TABLE
  2
LTYPE
  5
4
330
0
100
AcDbSymbolTable
 70
     3
  0
LTYPE
  5
11
330
4
100
AcDbSymbolTableRecord
100
AcDbLinetypeTableRecord
  2
ByBlock
 70
     0
  3

 72
    65
 73
     0
 40
0.0
  0
LTYPE
  5
12
330
4
100
AcDbSymbolTableRecord
100
AcDbLinetypeTableRecord
  2
ByLayer
 70
     0
  3

 72
    65
 73
     0
 40
0.0
  0
LTYPE
  5
13
330
4
100
AcDbSymbolTableRecord
100
AcDbLinetypeTableRecord
  2
Continuous
 70
     0
  3
Solid line
 72
    65
 73
     0
 40
0.0
  0
LTYPE
  5
DAF
330
4
100
AcDbSymbolTableRecord
100
AcDbLinetypeTableRecord
  2
BORDER
 70
     0
  3
Border __  __  . __  __  . __  __  . __  __  . 
 72
    65
 73
     6
 40
44.45
 49
12.7
 74
     0
 49
-6.35
 74
     0
 49
12.7
 74
     0
 49
-6.35
 74
     0
 49
0.0
 74
     0
 49
-6.35
 74
     0
  0
LTYPE
  5
33DD
330
4
100
AcDbSymbolTableRecord
100
AcDbLinetypeTableRecord
  2
HIDDEN
 70
     0
  3
Hidden _ _ _ _ _ _ _ _ _ _ _ _ _ _ _ _ _ _ _ _ 
 72
    65
 73
     2
 40
9.524999999999999
 49
6.35
 74
     0
 49
-3.175
 74
     0
  0
ENDTAB
  0
TABLE
  2
LAYER
  5
2
102
{ACAD_XDICTIONARY
360
2E1
102
}
330
0
100
AcDbSymbolTable
 70
    12
  0
LAYER
  5
14
330
2
100
AcDbSymbolTableRecord
100
AcDbLayerTableRecord
  2
0
 70
     0
 62
     7
  6
Continuous
370
    -3
390
1D
347
266
  0
LAYER
  5
4B
330
2
100
AcDbSymbolTableRecord
100
AcDbLayerTableRecord
  2
TEMPLATE
 70
     0
 62
     7
  6
Continuous
370
    20
390
1D
347
266
  0
LAYER
  5
4C
330
2
100
AcDbSymbolTableRecord
100
AcDbLayerTableRecord
  2
DIM
 70
     0
 62
     3
  6
Continuous
370
    13
390
1D
347
266
  0
LAYER
  5
4D
330
2
100
AcDbSymbolTableRecord
100
AcDbLayerTableRecord
  2
MODEL
 70
     0
 62
     7
  6
Continuous
370
    20
390
1D
347
266
  0
LAYER
  5
667
330
2
100
AcDbSymbolTableRecord
100
AcDbLayerTableRecord
  2
LOGO
 70
     0
 62
     7
  6
Continuous
370
    -3
390
1D
347
266
  0
LAYER
  5
D5D
330
2
100
AcDbSymbolTableRecord
100
AcDbLayerTableRecord
  2
Defpoints
 70
     0
 62
     7
  6
Continuous
290
     0
370
    -3
390
1D
347
266
  0
LAYER
  5
DAE
330
2
100
AcDbSymbolTableRecord
100
AcDbLayerTableRecord
  2
BORDER
 70
     0
 62
     4
  6
BORDER
290
     0
370
    20
390
1D
347
266
1001
AcAecLayerStandard
1000

1000

  0
LAYER
  5
157B
330
2
100
AcDbSymbolTableRecord
100
AcDbLayerTableRecord
  2
Layer3
 70
     0
 62
     7
  6
Continuous
370
    -3
390
1D
347
266
  0
LAYER
  5
157F
330
2
100
AcDbSymbolTableRecord
100
AcDbLayerTableRecord
  2
Layer9
 70
     0
 62
     7
  6
Continuous
370
    -3
390
1D
347
266
  0
LAYER
  5
1582
330
2
100
AcDbSymbolTableRecord
100
AcDbLayerTableRecord
  2
Standard
 70
     0
 62
     7
  6
Continuous
370
    -3
390
1D
347
266
  0
LAYER
  5
33DC
330
2
100
AcDbSymbolTableRecord
100
AcDbLayerTableRecord
  2
HIDDEN
 70
     0
 62
     8
  6
HIDDEN
370
    20
390
1D
347
266
1001
AcAecLayerStandard
1000

1000

  0
LAYER
  5
3A1B
330
2
100
AcDbSymbolTableRecord
100
AcDbLayerTableRecord
  2
notes
 70
     0
 62
     7
  6
Continuous
370
    -3
390
1D
347
266
  0
ENDTAB
  0
TABLE
  2
STYLE
  5
3
330
0
100
AcDbSymbolTable
 70
     2
  0
STYLE
  5
17
330
3
100
AcDbSymbolTableRecord
100
AcDbTextStyleTableRecord
  2
Standard
 70
     0
 40
0.0
 41
1.0
 50
0.0
 71
     0
 42
2.5
  3
txt
  4
BIGFONT.SHX
  0
STYLE
  5
39
330
3
100
AcDbSymbolTableRecord
100
AcDbTextStyleTableRecord
  2
ＭＳ ゴシック
 70
     0
 40
0.0
 41
1.0
 50
0.0
 71
     0
 42
2.5
  3
msgothic.ttc
  4
ＭＳ ゴシック
1001
ACAD
1000
ＭＳ ゴシック
1071
        0
  0
ENDTAB
  0
TABLE
  2
VIEW
  5
5
330
0
100
AcDbSymbolTable
 70
     0
  0
ENDTAB
  0
TABLE
  2
UCS
  5
6
330
0
100
AcDbSymbolTable
 70
     0
  0
ENDTAB
  0
TABLE
  2
APPID
  5
8
330
0
100
AcDbSymbolTable
 70
     7
  0
APPID
  5
16
330
8
100
AcDbSymbolTableRecord
100
AcDbRegAppTableRecord
  2
ACAD
 70
     0
  0
APPID
  5
7AC
330
8
100
AcDbSymbolTableRecord
100
AcDbRegAppTableRecord
  2
AcAecLayerStandard
 70
     0
  0
APPID
  5
F3A
330
8
100
AcDbSymbolTableRecord
100
AcDbRegAppTableRecord
  2
ACAD_MLEADERVER
 70
     0
  0
APPID
  5
3662
330
8
100
AcDbSymbolTableRecord
100
AcDbRegAppTableRecord
  2
GENIUS_GENODEF_13
 70
     0
  0
APPID
  5
3663
330
8
100
AcDbSymbolTableRecord
100
AcDbRegAppTableRecord
  2
GENIUS_GENOBJ-N-FIL_13
 70
     0
  0
APPID
  5
3664
330
8
100
AcDbSymbolTableRecord
100
AcDbRegAppTableRecord
  2
ACAD_PSEXT
 70
     0
  0
APPID
  5
71EB
330
8
100
AcDbSymbolTableRecord
100
AcDbRegAppTableRecord
  2
ACAD_DSTYLE_DIMRADIAL_EXTENSION
 70
     0
  0
ENDTAB
  0
TABLE
  2
DIMSTYLE
  5
9
330
0
100
AcDbSymbolTable
 70
     2
100
AcDbDimStyleTable
  0
DIMSTYLE
105
18
330
9
100
AcDbSymbolTableRecord
100
AcDbDimStyleTableRecord
  2
Standard
 70
     0
178
     0
340
17
  0
DIMSTYLE
105
57
102
{ACAD_REACTORS
330
7874
330
7899
330
78A6
330
78B6
330
78D7
330
78E6
330
78F5
330
7902
330
7916
330
795C
330
7970
330
798B
330
7A05
330
7A14
330
7A35
330
7A4C
330
7A66
330
7B28
102
}
330
9
100
AcDbSymbolTableRecord
100
AcDbDimStyleTableRecord
  2
tfrom線あり
 70
     0
  3
<>
  4
[]
 41
10.0
 42
15.0
 43
0.9999999999999999
 44
0.0
 73
     0
 74
     0
 77
     1
 78
    11
140
24.0
141
0.0
143
1.0
147
20.0
171
     1
174
     1
178
     0
179
     2
271
     0
272
     1
276
     2
284
    11
285
    11
286
    11
289
     0
340
39
341
4E
342
4E
  0
ENDTAB
  0
TABLE
  2
BLOCK_RECORD
  5
1
330
0
100
AcDbSymbolTable
 70
    53
  0
BLOCK_RECORD
  5
A
102
{ACAD_XDICTIONARY
360
3BA6
102
}
330
1
100
AcDbSymbolTableRecord
100
AcDbBlockTableRecord
  2
*MODEL_SPACE
340
20
 70
     0
280
     1
281
     0
  0
BLOCK_RECORD
  5
B
330
1
100
AcDbSymbolTableRecord
100
AcDbBlockTableRecord
  2
*PAPER_SPACE
340
21
 70
     0
280
     1
281
     0
  0
BLOCK_RECORD
  5
4E
330
1
100
AcDbSymbolTableRecord
100
AcDbBlockTableRecord
  2
_DOT
340
0
102
{BLKREFS
331
6221
331
6222
331
6230
331
6231
331
6253
331
6254
331
6268
331
6269
331
62BE
331
62BF
331
62DC
331
62DD
331
630D
331
630E
331
6337
331
6338
331
6346
331
6347
331
6355
331
6356
331
6390
331
6391
331
639F
331
63A0
331
63AE
331
63AF
331
63BB
331
63BC
331
73A3
331
73A4
331
73AF
331
73B0
331
73BB
331
73BC
331
73D2
331
73D3
331
74A7
331
74A8
331
74C6
331
74C7
331
787B
331
787C
331
7890
331
7891
331
78A0
331
78A1
331
78AF
331
78B0
331
78BF
331
78C0
331
78D1
331
78D2
331
78E0
331
78E1
331
78EF
331
78F0
331
78FC
331
78FD
331
790B
331
790C
331
791D
331
791E
331
792C
331
792D
331
7967
331
7968
331
7979
331
797A
331
7994
331
7995
331
79BB
331
79BC
331
79CA
331
79CB
331
79FE
331
79FF
331
7A0E
331
7A0F
331
7A1D
331
7A1E
331
7A3E
331
7A3F
331
7A55
331
7A56
331
7A6F
331
7A70
331
7ACC
331
7ACD
331
7B32
331
7B31
102
}
 70
     0
280
     1
281
     0
  0
BLOCK_RECORD
  5
68A
330
1
100
AcDbSymbolTableRecord
100
AcDbBlockTableRecord
  2
名称未設定-1
340
0
102
{BLKREFS
331
6B5
102
}
 70
     1
280
     1
281
     0
  0
BLOCK_RECORD
  5
68D
330
1
100
AcDbSymbolTableRecord
100
AcDbBlockTableRecord
  2
block 2
340
0
102
{BLKREFS
331
68C
102
}
 70
     0
280
     1
281
     0
  0
BLOCK_RECORD
  5
690
330
1
100
AcDbSymbolTableRecord
100
AcDbBlockTableRecord
  2
block 3
340
0
102
{BLKREFS
331
68F
102
}
 70
     0
280
     1
281
     0
  0
BLOCK_RECORD
  5
693
330
1
100
AcDbSymbolTableRecord
100
AcDbBlockTableRecord
  2
block 4
340
0
102
{BLKREFS
331
692
102
}
 70
     0
280
     1
281
     0
  0
BLOCK_RECORD
  5
6A2
330
1
100
AcDbSymbolTableRecord
100
AcDbBlockTableRecord
  2
block 5
340
0
102
{BLKREFS
331
6A1
102
}
 70
     0
280
     1
281
     0
  0
BLOCK_RECORD
  5
199A
330
1
100
AcDbSymbolTableRecord
100
AcDbBlockTableRecord
  2
SEANNOT_GROUP
340
0
102
{BLKREFS
331
28CA
102
}
 70
     0
280
     1
281
     0
  0
BLOCK_RECORD
  5
1F2F
330
1
100
AcDbSymbolTableRecord
100
AcDbBlockTableRecord
  2
SEANNOT_GROUP1
340
0
102
{BLKREFS
331
2B9B
102
}
 70
     0
280
     1
281
     0
  0
BLOCK_RECORD
  5
621B
330
1
100
AcDbSymbolTableRecord
100
AcDbBlockTableRecord
  2
*D8
340
0
 70
     0
280
     1
281
     0
  0
BLOCK_RECORD
  5
622A
330
1
100
AcDbSymbolTableRecord
100
AcDbBlockTableRecord
  2
*D9
340
0
 70
     0
280
     1
281
     0
  0
BLOCK_RECORD
  5
624B
330
1
100
AcDbSymbolTableRecord
100
AcDbBlockTableRecord
  2
*D10
340
0
 70
     0
280
     1
281
     0
  0
BLOCK_RECORD
  5
6262
330
1
100
AcDbSymbolTableRecord
100
AcDbBlockTableRecord
  2
*D11
340
0
 70
     0
280
     1
281
     0
  0
BLOCK_RECORD
  5
62B6
330
1
100
AcDbSymbolTableRecord
100
AcDbBlockTableRecord
  2
*D12
340
0
 70
     0
280
     1
281
     0
  0
BLOCK_RECORD
  5
62D6
330
1
100
AcDbSymbolTableRecord
100
AcDbBlockTableRecord
  2
*D13
340
0
 70
     0
280
     1
281
     0
  0
BLOCK_RECORD
  5
6307
330
1
100
AcDbSymbolTableRecord
100
AcDbBlockTableRecord
  2
*D14
340
0
 70
     0
280
     1
281
     0
  0
BLOCK_RECORD
  5
6331
330
1
100
AcDbSymbolTableRecord
100
AcDbBlockTableRecord
  2
*D15
340
0
 70
     0
280
     1
281
     0
  0
BLOCK_RECORD
  5
6340
330
1
100
AcDbSymbolTableRecord
100
AcDbBlockTableRecord
  2
*D16
340
0
 70
     0
280
     1
281
     0
  0
BLOCK_RECORD
  5
634F
330
1
100
AcDbSymbolTableRecord
100
AcDbBlockTableRecord
  2
*D17
340
0
 70
     0
280
     1
281
     0
  0
BLOCK_RECORD
  5
638A
330
1
100
AcDbSymbolTableRecord
100
AcDbBlockTableRecord
  2
*D18
340
0
 70
     0
280
     1
281
     0
  0
BLOCK_RECORD
  5
6399
330
1
100
AcDbSymbolTableRecord
100
AcDbBlockTableRecord
  2
*D19
340
0
 70
     0
280
     1
281
     0
  0
BLOCK_RECORD
  5
63A8
330
1
100
AcDbSymbolTableRecord
100
AcDbBlockTableRecord
  2
*D20
340
0
 70
     0
280
     1
281
     0
  0
BLOCK_RECORD
  5
63B5
330
1
100
AcDbSymbolTableRecord
100
AcDbBlockTableRecord
  2
*D21
340
0
 70
     0
280
     1
281
     0
  0
BLOCK_RECORD
  5
739D
330
1
100
AcDbSymbolTableRecord
100
AcDbBlockTableRecord
  2
*D22
340
0
 70
     0
280
     1
281
     0
  0
BLOCK_RECORD
  5
73A9
330
1
100
AcDbSymbolTableRecord
100
AcDbBlockTableRecord
  2
*D23
340
0
 70
     0
280
     1
281
     0
  0
BLOCK_RECORD
  5
73B5
330
1
100
AcDbSymbolTableRecord
100
AcDbBlockTableRecord
  2
*D24
340
0
 70
     0
280
     1
281
     0
  0
BLOCK_RECORD
  5
73CC
330
1
100
AcDbSymbolTableRecord
100
AcDbBlockTableRecord
  2
*D25
340
0
 70
     0
280
     1
281
     0
  0
BLOCK_RECORD
  5
74A1
330
1
100
AcDbSymbolTableRecord
100
AcDbBlockTableRecord
  2
*D26
340
0
 70
     0
280
     1
281
     0
  0
BLOCK_RECORD
  5
74C0
330
1
100
AcDbSymbolTableRecord
100
AcDbBlockTableRecord
  2
*D27
340
0
 70
     0
280
     1
281
     0
  0
BLOCK_RECORD
  5
7875
330
1
100
AcDbSymbolTableRecord
100
AcDbBlockTableRecord
  2
*D28
340
0
 70
     0
280
     1
281
     0
  0
BLOCK_RECORD
  5
7889
330
1
100
AcDbSymbolTableRecord
100
AcDbBlockTableRecord
  2
*D29
340
0
 70
     0
280
     1
281
     0
  0
BLOCK_RECORD
  5
789A
330
1
100
AcDbSymbolTableRecord
100
AcDbBlockTableRecord
  2
*D30
340
0
 70
     0
280
     1
281
     0
  0
BLOCK_RECORD
  5
78A9
330
1
100
AcDbSymbolTableRecord
100
AcDbBlockTableRecord
  2
*D31
340
0
 70
     0
280
     1
281
     0
  0
BLOCK_RECORD
  5
78B9
330
1
100
AcDbSymbolTableRecord
100
AcDbBlockTableRecord
  2
*D32
340
0
 70
     0
280
     1
281
     0
  0
BLOCK_RECORD
  5
78CB
330
1
100
AcDbSymbolTableRecord
100
AcDbBlockTableRecord
  2
*D33
340
0
 70
     0
280
     1
281
     0
  0
BLOCK_RECORD
  5
78DA
330
1
100
AcDbSymbolTableRecord
100
AcDbBlockTableRecord
  2
*D34
340
0
 70
     0
280
     1
281
     0
  0
BLOCK_RECORD
  5
78E9
330
1
100
AcDbSymbolTableRecord
100
AcDbBlockTableRecord
  2
*D35
340
0
 70
     0
280
     1
281
     0
  0
BLOCK_RECORD
  5
78F6
330
1
100
AcDbSymbolTableRecord
100
AcDbBlockTableRecord
  2
*D36
340
0
 70
     0
280
     1
281
     0
  0
BLOCK_RECORD
  5
7905
330
1
100
AcDbSymbolTableRecord
100
AcDbBlockTableRecord
  2
*D37
340
0
 70
     0
280
     1
281
     0
  0
BLOCK_RECORD
  5
7917
330
1
100
AcDbSymbolTableRecord
100
AcDbBlockTableRecord
  2
*D38
340
0
 70
     0
280
     1
281
     0
  0
BLOCK_RECORD
  5
7926
330
1
100
AcDbSymbolTableRecord
100
AcDbBlockTableRecord
  2
*D39
340
0
 70
     0
280
     1
281
     0
  0
BLOCK_RECORD
  5
795F
330
1
100
AcDbSymbolTableRecord
100
AcDbBlockTableRecord
  2
*D40
340
0
 70
     0
280
     1
281
     0
  0
BLOCK_RECORD
  5
7971
330
1
100
AcDbSymbolTableRecord
100
AcDbBlockTableRecord
  2
*D41
340
0
 70
     0
280
     1
281
     0
  0
BLOCK_RECORD
  5
798E
330
1
100
AcDbSymbolTableRecord
100
AcDbBlockTableRecord
  2
*D42
340
0
 70
     0
280
     1
281
     0
  0
BLOCK_RECORD
  5
79B5
330
1
100
AcDbSymbolTableRecord
100
AcDbBlockTableRecord
  2
*D43
340
0
 70
     0
280
     1
281
     0
  0
BLOCK_RECORD
  5
79C4
330
1
100
AcDbSymbolTableRecord
100
AcDbBlockTableRecord
  2
*D44
340
0
 70
     0
280
     1
281
     0
  0
BLOCK_RECORD
  5
79F6
330
1
100
AcDbSymbolTableRecord
100
AcDbBlockTableRecord
  2
*D45
340
0
 70
     0
280
     1
281
     0
  0
BLOCK_RECORD
  5
7A08
330
1
100
AcDbSymbolTableRecord
100
AcDbBlockTableRecord
  2
*D46
340
0
 70
     0
280
     1
281
     0
  0
BLOCK_RECORD
  5
7A17
330
1
100
AcDbSymbolTableRecord
100
AcDbBlockTableRecord
  2
*D47
340
0
 70
     0
280
     1
281
     0
  0
BLOCK_RECORD
  5
7A38
330
1
100
AcDbSymbolTableRecord
100
AcDbBlockTableRecord
  2
*D48
340
0
 70
     0
280
     1
281
     0
  0
BLOCK_RECORD
  5
7A4F
330
1
100
AcDbSymbolTableRecord
100
AcDbBlockTableRecord
  2
*D49
340
0
 70
     0
280
     1
281
     0
  0
BLOCK_RECORD
  5
7A69
330
1
100
AcDbSymbolTableRecord
100
AcDbBlockTableRecord
  2
*D50
340
0
 70
     0
280
     1
281
     0
  0
BLOCK_RECORD
  5
7AC5
330
1
100
AcDbSymbolTableRecord
100
AcDbBlockTableRecord
  2
*D51
340
0
 70
     0
280
     1
281
     0
  0
BLOCK_RECORD
  5
7B2B
330
1
100
AcDbSymbolTableRecord
100
AcDbBlockTableRecord
  2
*D52
340
0
 70
     0
280
     1
281
     0
  0
ENDTAB
  0
ENDSEC
  0
SECTION
  2
BLOCKS
  0
BLOCK
  5
D
330
A
100
AcDbEntity
  8
0
390
1D
100
AcDbBlockBegin
  2
*MODEL_SPACE
 70
     0
 10
0.0
 20
0.0
 30
0.0
  3
*MODEL_SPACE
  1
*MODEL_SPACE
  0
ENDBLK
  5
E
330
A
100
AcDbEntity
  8
0
390
1D
100
AcDbBlockEnd
  0
BLOCK
  5
F
330
B
100
AcDbEntity
 67
     1
  8
0
390
1D
100
AcDbBlockBegin
  2
*PAPER_SPACE
 70
     0
 10
0.0
 20
0.0
 30
0.0
  3
*PAPER_SPACE
  1
*PAPER_SPACE
  0
ENDBLK
  5
10
330
B
100
AcDbEntity
 67
     1
  8
0
390
1D
100
AcDbBlockEnd
  0
BLOCK
  5
7A2A
330
4E
100
AcDbEntity
  8
0
390
1D
100
AcDbBlockBegin
  2
_DOT
 70
     0
 10
0.0
 20
0.0
 30
0.0
  3
_DOT
  1
_DOT
  0
POLYLINE
  5
7A2C
330
4E
100
AcDbEntity
  8
0
  6
ByBlock
 62
     0
370
    -2
390
1D
100
AcDb2dPolyline
 66
     1
 10
0.0
 20
0.0
 30
0.0
 70
     1
 40
0.5
 41
0.5
  0
VERTEX
  5
7A2D
330
7A2C
100
AcDbEntity
  8
0
  6
ByBlock
 62
     0
370
    -2
390
1D
100
AcDbVertex
100
AcDb2dVertex
 10
-0.25
 20
0.0
 30
0.0
 42
1.0
  0
VERTEX
  5
7A2E
330
7A2C
100
AcDbEntity
  8
0
  6
ByBlock
 62
     0
370
    -2
390
1D
100
AcDbVertex
100
AcDb2dVertex
 10
0.25
 20
0.0
 30
0.0
 42
1.0
  0
SEQEND
  5
7A2F
330
7A2C
100
AcDbEntity
  8
0
390
1D
  0
LINE
  5
7A30
330
4E
100
AcDbEntity
  8
0
  6
ByBlock
 62
     0
370
    -2
390
1D
100
AcDbLine
 10
-0.5
 20
0.0
 30
0.0
 11
-1.0
 21
0.0
 31
0.0
  0
ENDBLK
  5
7A31
330
4E
100
AcDbEntity
  8
0
390
1D
100
AcDbBlockEnd
  0
BLOCK
  5
68B
330
68A
100
AcDbEntity
  8
0
100
AcDbBlockBegin
  2
名称未設定-1
 70
     0
 10
0.0
 20
0.0
 30
0.0
  3
名称未設定-1
  1
名称未設定-1
  0
INSERT
  5
68F
330
68A
100
AcDbEntity
  8
LOGO
100
AcDbBlockReference
  2
block 3
 10
0.0
 20
0.0
 30
0.0
  0
ENDBLK
  5
6B1
330
68A
100
AcDbEntity
  8
0
100
AcDbBlockEnd
  0
BLOCK
  5
68E
330
68D
100
AcDbEntity
  8
0
100
AcDbBlockBegin
  2
block 2
 70
     0
 10
0.0
 20
0.0
 30
0.0
  3
block 2
  1
block 2
  0
ENDBLK
  5
6B0
330
68D
100
AcDbEntity
  8
0
100
AcDbBlockEnd
  0
BLOCK
  5
691
330
690
100
AcDbEntity
  8
0
100
AcDbBlockBegin
  2
block 3
 70
     0
 10
0.0
 20
0.0
 30
0.0
  3
block 3
  1
block 3
  0
INSERT
  5
692
330
690
100
AcDbEntity
  8
LOGO
100
AcDbBlockReference
  2
block 4
 10
0.0
 20
0.0
 30
0.0
  0
INSERT
  5
6A1
330
690
100
AcDbEntity
  8
LOGO
100
AcDbBlockReference
  2
block 5
 10
0.0
 20
0.0
 30
0.0
  0
ENDBLK
  5
6AF
330
690
100
AcDbEntity
  8
0
100
AcDbBlockEnd
  0
BLOCK
  5
694
330
693
100
AcDbEntity
  8
0
100
AcDbBlockBegin
  2
block 4
 70
     0
 10
0.0
 20
0.0
 30
0.0
  3
block 4
  1
block 4
  0
POLYLINE
  5
695
330
693
100
AcDbEntity
  8
LOGO
370
     0
100
AcDb2dPolyline
 66
     1
 10
0.0
 20
0.0
 30
0.0
  0
VERTEX
  5
696
330
695
100
AcDbEntity
  8
LOGO
370
     0
100
AcDbVertex
100
AcDb2dVertex
 10
83.79545727667795
 20
167.6444858234922
 30
0.0
  0
VERTEX
  5
697
330
695
100
AcDbEntity
  8
LOGO
370
     0
100
AcDbVertex
100
AcDb2dVertex
 10
83.79545727667795
 20
159.7968976406313
 30
0.0
  0
VERTEX
  5
698
330
695
100
AcDbEntity
  8
LOGO
370
     0
100
AcDbVertex
100
AcDb2dVertex
 10
71.3631329975216
 20
159.7968976406313
 30
0.0
  0
VERTEX
  5
699
330
695
100
AcDbEntity
  8
LOGO
370
     0
100
AcDbVertex
100
AcDb2dVertex
 10
71.3631329975216
 20
127.8027915271048
 30
0.0
  0
VERTEX
  5
69A
330
695
100
AcDbEntity
  8
LOGO
370
     0
100
AcDbVertex
100
AcDb2dVertex
 10
60.43011526263018
 20
127.8027915271048
 30
0.0
  0
VERTEX
  5
69B
330
695
100
AcDbEntity
  8
LOGO
370
     0
100
AcDbVertex
100
AcDb2dVertex
 10
60.43011526263018
 20
159.7968976406313
 30
0.0
  0
VERTEX
  5
69C
330
695
100
AcDbEntity
  8
LOGO
370
     0
100
AcDbVertex
100
AcDb2dVertex
 10
48.21793273020759
 20
159.7968976406313
 30
0.0
  0
VERTEX
  5
69D
330
695
100
AcDbEntity
  8
LOGO
370
     0
100
AcDbVertex
100
AcDb2dVertex
 10
48.21793273020759
 20
167.6444858234922
 30
0.0
  0
VERTEX
  5
69E
330
695
100
AcDbEntity
  8
LOGO
370
     0
100
AcDbVertex
100
AcDb2dVertex
 10
83.79545727667795
 20
167.6444858234922
 30
0.0
  0
SEQEND
  5
69F
330
695
100
AcDbEntity
  8
LOGO
370
     0
  0
HATCH
  5
6A0
330
693
100
AcDbEntity
  8
LOGO
 62
   250
420
  2234388
100
AcDbHatch
 10
0.0
 20
0.0
 30
0.0
210
0.0
220
0.0
230
1.0
  2
SOLID
 70
     1
 71
     0
 91
        1
 92
        1
 93
        8
 72
     1
 10
83.79545727667795
 20
167.6444858234922
 11
83.79545727667795
 21
159.7968976406313
 72
     1
 10
83.79545727667795
 20
159.7968976406313
 11
71.3631329975216
 21
159.7968976406313
 72
     1
 10
71.3631329975216
 20
159.7968976406313
 11
71.3631329975216
 21
127.8027915271048
 72
     1
 10
71.3631329975216
 20
127.8027915271048
 11
60.43011526263018
 21
127.8027915271048
 72
     1
 10
60.43011526263018
 20
127.8027915271048
 11
60.43011526263018
 21
159.7968976406313
 72
     1
 10
60.43011526263018
 20
159.7968976406313
 11
48.21793273020759
 21
159.7968976406313
 72
     1
 10
48.21793273020759
 20
159.7968976406313
 11
48.21793273020759
 21
167.6444858234922
 72
     1
 10
48.21793273020759
 20
167.6444858234922
 11
83.79545727667795
 21
167.6444858234922
 97
        0
 75
     2
 76
     1
 98
        0
  0
ENDBLK
  5
6AE
330
693
100
AcDbEntity
  8
0
100
AcDbBlockEnd
  0
BLOCK
  5
6A3
330
6A2
100
AcDbEntity
  8
0
100
AcDbBlockBegin
  2
block 5
 70
     0
 10
0.0
 20
0.0
 30
0.0
  3
block 5
  1
block 5
  0
SPLINE
  5
6A4
330
6A2
100
AcDbEntity
  8
LOGO
370
     0
100
AcDbSpline
210
0.0
220
0.0
230
1.0
 70
    11
 71
     3
 72
    56
 73
    52
 74
     0
 42
0.000000001
 43
0.0000000001
 40
0.0
 40
0.0
 40
0.0
 40
0.0
 40
1.0
 40
1.0
 40
1.0
 40
2.0
 40
2.0
 40
2.0
 40
3.0
 40
3.0
 40
3.0
 40
4.0
 40
4.0
 40
4.0
 40
5.0
 40
5.0
 40
5.0
 40
6.0
 40
6.0
 40
6.0
 40
7.0
 40
7.0
 40
7.0
 40
8.0
 40
8.0
 40
8.0
 40
9.0
 40
9.0
 40
9.0
 40
10.0
 40
10.0
 40
10.0
 40
11.0
 40
11.0
 40
11.0
 40
12.0
 40
12.0
 40
12.0
 40
13.0
 40
13.0
 40
13.0
 40
14.0
 40
14.0
 40
14.0
 40
15.0
 40
15.0
 40
15.0
 40
16.0
 40
16.0
 40
16.0
 40
17.0
 40
17.0
 40
17.0
 40
17.0
 10
100.4504378777679
 20
166.69157178364
 30
0.0
 10
101.9848844191641
 20
167.1313385124438
 30
0.0
 10
103.9637485713373
 20
166.7649523658846
 30
0.0
 10
103.9637485713373
 20
166.7649523658846
 30
0.0
 10
103.9637485713373
 20
166.7649523658846
 30
0.0
 10
103.0132460999156
 20
163.911205638077
 30
0.0
 10
103.0132460999156
 20
163.911205638077
 30
0.0
 10
103.0132460999156
 20
163.911205638077
 30
0.0
 10
101.0674548862189
 20
164.3601018759394
 30
0.0
 10
99.57090442016032
 20
163.1805004036133
 30
0.0
 10
98.40508333886608
 20
162.258247733807
 30
0.0
 10
97.65301849830304
 20
159.804132345923
 30
0.0
 10
97.3598406791005
 20
158.8699940888517
 30
0.0
 10
97.3598406791005
 20
158.8699940888517
 30
0.0
 10
96.07137411762282
 20
154.9119212747295
 30
0.0
 10
96.07137411762282
 20
154.9119212747295
 30
0.0
 10
96.07137411762282
 20
154.9119212747295
 30
0.0
 10
100.3012651448482
 20
154.9119212747295
 30
0.0
 10
100.3012651448482
 20
154.9119212747295
 30
0.0
 10
100.3012651448482
 20
154.9119212747295
 30
0.0
 10
99.64152892419852
 20
152.4199098115079
 30
0.0
 10
99.64152892419852
 20
152.4199098115079
 30
0.0
 10
99.64152892419852
 20
152.4199098115079
 30
0.0
 10
95.38097652692731
 20
152.4199098115079
 30
0.0
 10
95.38097652692731
 20
152.4199098115079
 30
0.0
 10
95.38097652692731
 20
152.4199098115079
 30
0.0
 10
87.75353009080013
 20
127.8027915271048
 30
0.0
 10
87.75353009080013
 20
127.8027915271048
 30
0.0
 10
87.75353009080013
 20
127.8027915271048
 30
0.0
 10
85.36538832498108
 20
127.8027915271048
 30
0.0
 10
85.36538832498108
 20
127.8027915271048
 30
0.0
 10
85.36538832498108
 20
127.8027915271048
 30
0.0
 10
93.00006946639998
 20
152.4199098115079
 30
0.0
 10
93.00006946639998
 20
152.4199098115079
 30
0.0
 10
93.00006946639998
 20
152.4199098115079
 30
0.0
 10
89.85297266450198
 20
152.4199098115079
 30
0.0
 10
89.85297266450198
 20
152.4199098115079
 30
0.0
 10
89.85297266450198
 20
152.4199098115079
 30
0.0
 10
90.51270888515164
 20
154.9119212747295
 30
0.0
 10
90.51270888515164
 20
154.9119212747295
 30
0.0
 10
90.51270888515164
 20
154.9119212747295
 30
0.0
 10
93.6904670570955
 20
154.9119212747295
 30
0.0
 10
93.6904670570955
 20
154.9119212747295
 30
0.0
 10
93.6904670570955
 20
154.9119212747295
 30
0.0
 10
94.81598049462158
 20
158.3616699146644
 30
0.0
 10
94.81598049462158
 20
158.3616699146644
 30
0.0
 10
95.7237637538445
 20
161.2605474231013
 30
0.0
 10
96.4968436907311
 20
162.8139420021662
 30
0.0
 10
97.15657991138076
 20
163.9844139654337
 30
0.0
 10
97.81183750494507
 20
165.1523021053827
 30
0.0
 10
99.1047826935081
 20
166.3084769129547
 30
0.0
 10
100.4504378777679
 20
166.69157178364
 30
0.0
  0
HATCH
  5
6A5
330
6A2
100
AcDbEntity
  8
LOGO
 62
   250
420
  2234388
100
AcDbHatch
 10
0.0
 20
0.0
 30
0.0
210
0.0
220
0.0
230
1.0
  2
SOLID
 70
     1
 71
     0
 91
        1
 92
        1
 93
        1
 72
     4
 94
        3
 73
     0
 74
     1
 95
       56
 96
       52
 40
0.0
 40
0.0
 40
0.0
 40
0.0
 40
1.0
 40
1.0
 40
1.0
 40
2.0
 40
2.0
 40
2.0
 40
3.0
 40
3.0
 40
3.0
 40
4.0
 40
4.0
 40
4.0
 40
5.0
 40
5.0
 40
5.0
 40
6.0
 40
6.0
 40
6.0
 40
7.0
 40
7.0
 40
7.0
 40
8.0
 40
8.0
 40
8.0
 40
9.0
 40
9.0
 40
9.0
 40
10.0
 40
10.0
 40
10.0
 40
11.0
 40
11.0
 40
11.0
 40
12.0
 40
12.0
 40
12.0
 40
13.0
 40
13.0
 40
13.0
 40
14.0
 40
14.0
 40
14.0
 40
15.0
 40
15.0
 40
15.0
 40
16.0
 40
16.0
 40
16.0
 40
17.0
 40
17.0
 40
17.0
 40
17.0
 10
100.4504378777679
 20
166.69157178364
 10
101.9848844191641
 20
167.1313385124438
 10
103.9637485713373
 20
166.7649523658846
 10
103.9637485713373
 20
166.7649523658846
 10
103.9637485713373
 20
166.7649523658846
 10
103.0132460999156
 20
163.911205638077
 10
103.0132460999156
 20
163.911205638077
 10
103.0132460999156
 20
163.911205638077
 10
101.0674548862189
 20
164.3601018759394
 10
99.57090442016032
 20
163.1805004036133
 10
98.40508333886608
 20
162.258247733807
 10
97.65301849830304
 20
159.804132345923
 10
97.3598406791005
 20
158.8699940888517
 10
97.3598406791005
 20
158.8699940888517
 10
96.07137411762282
 20
154.9119212747295
 10
96.07137411762282
 20
154.9119212747295
 10
96.07137411762282
 20
154.9119212747295
 10
100.3012651448482
 20
154.9119212747295
 10
100.3012651448482
 20
154.9119212747295
 10
100.3012651448482
 20
154.9119212747295
 10
99.64152892419852
 20
152.4199098115079
 10
99.64152892419852
 20
152.4199098115079
 10
99.64152892419852
 20
152.4199098115079
 10
95.38097652692731
 20
152.4199098115079
 10
95.38097652692731
 20
152.4199098115079
 10
95.38097652692731
 20
152.4199098115079
 10
87.75353009080013
 20
127.8027915271048
 10
87.75353009080013
 20
127.8027915271048
 10
87.75353009080013
 20
127.8027915271048
 10
85.36538832498108
 20
127.8027915271048
 10
85.36538832498108
 20
127.8027915271048
 10
85.36538832498108
 20
127.8027915271048
 10
93.00006946639998
 20
152.4199098115079
 10
93.00006946639998
 20
152.4199098115079
 10
93.00006946639998
 20
152.4199098115079
 10
89.85297266450198
 20
152.4199098115079
 10
89.85297266450198
 20
152.4199098115079
 10
89.85297266450198
 20
152.4199098115079
 10
90.51270888515164
 20
154.9119212747295
 10
90.51270888515164
 20
154.9119212747295
 10
90.51270888515164
 20
154.9119212747295
 10
93.6904670570955
 20
154.9119212747295
 10
93.6904670570955
 20
154.9119212747295
 10
93.6904670570955
 20
154.9119212747295
 10
94.81598049462158
 20
158.3616699146644
 10
94.81598049462158
 20
158.3616699146644
 10
95.7237637538445
 20
161.2605474231013
 10
96.4968436907311
 20
162.8139420021662
 10
97.15657991138076
 20
163.9844139654337
 10
97.81183750494507
 20
165.1523021053827
 10
99.1047826935081
 20
166.3084769129547
 10
100.4504378777679
 20
166.69157178364
 97
        0
 75
     2
 76
     1
 98
        0
  0
SPLINE
  5
6A6
330
6A2
100
AcDbEntity
  8
LOGO
370
     0
100
AcDbSpline
210
0.0
220
0.0
230
1.0
 70
    11
 71
     3
 72
    38
 73
    34
 74
     0
 42
0.000000001
 43
0.0000000001
 40
0.0
 40
0.0
 40
0.0
 40
0.0
 40
1.0
 40
1.0
 40
1.0
 40
2.0
 40
2.0
 40
2.0
 40
3.0
 40
3.0
 40
3.0
 40
4.0
 40
4.0
 40
4.0
 40
5.0
 40
5.0
 40
5.0
 40
6.0
 40
6.0
 40
6.0
 40
7.0
 40
7.0
 40
7.0
 40
8.0
 40
8.0
 40
8.0
 40
9.0
 40
9.0
 40
9.0
 40
10.0
 40
10.0
 40
10.0
 40
11.0
 40
11.0
 40
11.0
 40
11.0
 10
126.377554584636
 20
154.8151140277308
 30
0.0
 10
126.377554584636
 20
154.8151140277308
 30
0.0
 10
128.8311532078563
 20
154.8151140277308
 30
0.0
 10
128.8311532078563
 20
154.8151140277308
 30
0.0
 10
128.8311532078563
 20
154.8151140277308
 30
0.0
 10
127.7345785914971
 20
151.3062819612468
 30
0.0
 10
127.7345785914971
 20
151.3062819612468
 30
0.0
 10
128.571392836906
 20
152.2922689395754
 30
0.0
 10
129.8860421413442
 20
153.604506675583
 30
0.0
 10
131.0163787157314
 20
154.2664822097754
 30
0.0
 10
132.7044766171327
 20
155.2500576196734
 30
0.0
 10
133.6642808525008
 20
155.3847609420097
 30
0.0
 10
134.7284715499351
 20
155.3565111403944
 30
0.0
 10
134.7284715499351
 20
155.3565111403944
 30
0.0
 10
133.6877075172549
 20
152.0345756272799
 30
0.0
 10
133.6877075172549
 20
152.0345756272799
 30
0.0
 10
133.011434827367
 20
152.3184516825359
 30
0.0
 10
130.930940291334
 20
151.7768823149844
 30
0.0
 10
129.739280976855
 20
150.9162968950455
 30
0.0
 10
128.66613302525
 20
150.1454562717016
 30
0.0
 10
127.9192358313239
 20
149.4857200510519
 30
0.0
 10
127.0393578639405
 20
147.8282835196966
 30
0.0
 10
126.164647543194
 20
146.1699857139017
 30
0.0
 10
125.4742499524985
 20
143.5262176944419
 30
0.0
 10
124.2822461282437
 20
139.6959580071401
 30
0.0
 10
124.2822461282437
 20
139.6959580071401
 30
0.0
 10
120.5753209406769
 20
127.8027915271048
 30
0.0
 10
120.5753209406769
 20
127.8027915271048
 30
0.0
 10
120.5753209406769
 20
127.8027915271048
 30
0.0
 10
118.1964809388044
 20
127.8027915271048
 30
0.0
 10
118.1964809388044
 20
127.8027915271048
 30
0.0
 10
118.1964809388044
 20
127.8027915271048
 30
0.0
 10
126.377554584636
 20
154.8151140277308
 30
0.0
 10
126.377554584636
 20
154.8151140277308
 30
0.0
  0
HATCH
  5
6A7
330
6A2
100
AcDbEntity
  8
LOGO
 62
   250
420
  2234388
100
AcDbHatch
 10
0.0
 20
0.0
 30
0.0
210
0.0
220
0.0
230
1.0
  2
SOLID
 70
     1
 71
     0
 91
        1
 92
        1
 93
        1
 72
     4
 94
        3
 73
     0
 74
     1
 95
       38
 96
       34
 40
0.0
 40
0.0
 40
0.0
 40
0.0
 40
1.0
 40
1.0
 40
1.0
 40
2.0
 40
2.0
 40
2.0
 40
3.0
 40
3.0
 40
3.0
 40
4.0
 40
4.0
 40
4.0
 40
5.0
 40
5.0
 40
5.0
 40
6.0
 40
6.0
 40
6.0
 40
7.0
 40
7.0
 40
7.0
 40
8.0
 40
8.0
 40
8.0
 40
9.0
 40
9.0
 40
9.0
 40
10.0
 40
10.0
 40
10.0
 40
11.0
 40
11.0
 40
11.0
 40
11.0
 10
126.377554584636
 20
154.8151140277308
 10
126.377554584636
 20
154.8151140277308
 10
128.8311532078563
 20
154.8151140277308
 10
128.8311532078563
 20
154.8151140277308
 10
128.8311532078563
 20
154.8151140277308
 10
127.7345785914971
 20
151.3062819612468
 10
127.7345785914971
 20
151.3062819612468
 10
128.571392836906
 20
152.2922689395754
 10
129.8860421413442
 20
153.604506675583
 10
131.0163787157314
 20
154.2664822097754
 10
132.7044766171327
 20
155.2500576196734
 10
133.6642808525008
 20
155.3847609420097
 10
134.7284715499351
 20
155.3565111403944
 10
134.7284715499351
 20
155.3565111403944
 10
133.6877075172549
 20
152.0345756272799
 10
133.6877075172549
 20
152.0345756272799
 10
133.011434827367
 20
152.3184516825359
 10
130.930940291334
 20
151.7768823149844
 10
129.739280976855
 20
150.9162968950455
 10
128.66613302525
 20
150.1454562717016
 10
127.9192358313239
 20
149.4857200510519
 10
127.0393578639405
 20
147.8282835196966
 10
126.164647543194
 20
146.1699857139017
 10
125.4742499524985
 20
143.5262176944419
 10
124.2822461282437
 20
139.6959580071401
 10
124.2822461282437
 20
139.6959580071401
 10
120.5753209406769
 20
127.8027915271048
 10
120.5753209406769
 20
127.8027915271048
 10
120.5753209406769
 20
127.8027915271048
 10
118.1964809388044
 20
127.8027915271048
 10
118.1964809388044
 20
127.8027915271048
 10
118.1964809388044
 20
127.8027915271048
 10
126.377554584636
 20
154.8151140277308
 10
126.377554584636
 20
154.8151140277308
 97
        0
 75
     2
 76
     1
 98
        0
  0
SPLINE
  5
6A8
330
6A2
100
AcDbEntity
  8
LOGO
370
     0
100
AcDbSpline
210
0.0
220
0.0
230
1.0
 70
    11
 71
     3
 72
   104
 73
   100
 74
     0
 42
0.000000001
 43
0.0000000001
 40
0.0
 40
0.0
 40
0.0
 40
0.0
 40
1.0
 40
1.0
 40
1.0
 40
2.0
 40
2.0
 40
2.0
 40
3.0
 40
3.0
 40
3.0
 40
4.0
 40
4.0
 40
4.0
 40
5.0
 40
5.0
 40
5.0
 40
6.0
 40
6.0
 40
6.0
 40
7.0
 40
7.0
 40
7.0
 40
8.0
 40
8.0
 40
8.0
 40
9.0
 40
9.0
 40
9.0
 40
10.0
 40
10.0
 40
10.0
 40
11.0
 40
11.0
 40
11.0
 40
12.0
 40
12.0
 40
12.0
 40
13.0
 40
13.0
 40
13.0
 40
14.0
 40
14.0
 40
14.0
 40
15.0
 40
15.0
 40
15.0
 40
16.0
 40
16.0
 40
16.0
 40
17.0
 40
17.0
 40
17.0
 40
18.0
 40
18.0
 40
18.0
 40
19.0
 40
19.0
 40
19.0
 40
20.0
 40
20.0
 40
20.0
 40
21.0
 40
21.0
 40
21.0
 40
22.0
 40
22.0
 40
22.0
 40
23.0
 40
23.0
 40
23.0
 40
24.0
 40
24.0
 40
24.0
 40
25.0
 40
25.0
 40
25.0
 40
26.0
 40
26.0
 40
26.0
 40
27.0
 40
27.0
 40
27.0
 40
28.0
 40
28.0
 40
28.0
 40
29.0
 40
29.0
 40
29.0
 40
30.0
 40
30.0
 40
30.0
 40
31.0
 40
31.0
 40
31.0
 40
32.0
 40
32.0
 40
32.0
 40
33.0
 40
33.0
 40
33.0
 40
33.0
 10
139.8926730891197
 20
154.8294111834263
 30
0.0
 10
139.8926730891197
 20
154.8294111834263
 30
0.0
 10
142.0344903652445
 20
154.8294111834263
 30
0.0
 10
142.0344903652445
 20
154.8294111834263
 30
0.0
 10
142.0344903652445
 20
154.8294111834263
 30
0.0
 10
140.9516961399171
 20
151.3157559800812
 30
0.0
 10
140.9516961399171
 20
151.3157559800812
 30
0.0
 10
141.8928968473923
 20
152.7887075264977
 30
0.0
 10
142.7341897198865
 20
153.4484437471474
 30
0.0
 10
143.8552245303272
 20
154.2926649527359
 30
0.0
 10
144.9803934580775
 20
155.1296514530327
 30
0.0
 10
146.3139908001845
 20
155.3044901642492
 30
0.0
 10
147.241066606852
 20
155.3044901642492
 30
0.0
 10
148.3855280820469
 20
155.3044901642492
 30
0.0
 10
149.4969166187653
 20
155.0752189084569
 30
0.0
 10
150.0784491203092
 20
153.8172414621372
 30
0.0
 10
150.5228667310863
 20
152.833838307127
 30
0.0
 10
150.5414702589793
 20
152.7201500811143
 30
0.0
 10
150.4140016419347
 20
150.7765981809602
 30
0.0
 10
151.5818897818837
 20
152.7699317437168
 30
0.0
 10
152.4424752018226
 20
153.6256940267945
 30
0.0
 10
153.9038856707499
 20
154.4507949398263
 30
0.0
 10
155.4455669174378
 20
155.3044901642492
 30
0.0
 10
156.339225275853
 20
155.3659851592288
 30
0.0
 10
157.3748216618963
 20
155.2147453676543
 30
0.0
 10
158.911679771723
 20
154.9877134254046
 30
0.0
 10
159.8859534176746
 20
154.4390816074493
 30
0.0
 10
160.3965169054045
 20
152.7816450760939
 30
0.0
 10
160.9070803931344
 20
151.1219692311958
 30
0.0
 10
160.6328506116007
 20
150.2303779314354
 30
0.0
 10
159.9992971339115
 20
147.597634224801
 30
0.0
 10
159.7105979417943
 20
146.4014962832367
 30
0.0
 10
159.2947746424084
 20
144.9400858143094
 30
0.0
 10
158.7463150793409
 20
143.2092687007094
 30
0.0
 10
158.7463150793409
 20
143.2092687007094
 30
0.0
 10
153.9038856707499
 20
127.8027915271048
 30
0.0
 10
153.9038856707499
 20
127.8027915271048
 30
0.0
 10
153.9038856707499
 20
127.8027915271048
 30
0.0
 10
151.3882752878863
 20
127.8027915271048
 30
0.0
 10
151.3882752878863
 20
127.8027915271048
 30
0.0
 10
151.3882752878863
 20
127.8027915271048
 30
0.0
 10
155.6250565106276
 20
141.2751908193897
 30
0.0
 10
155.6250565106276
 20
141.2751908193897
 30
0.0
 10
156.5094131050963
 20
144.0936252951782
 30
0.0
 10
157.109893644309
 20
146.1506931664571
 30
0.0
 10
157.4220195011804
 20
147.4415712963654
 30
0.0
 10
157.8095929989511
 20
149.0530157726519
 30
0.0
 10
157.9656559273867
 20
149.5826995529385
 30
0.0
 10
157.7816877071116
 20
150.7529992613181
 30
0.0
 10
157.6111553680925
 20
151.8430281919372
 30
0.0
 10
157.0582171779396
 20
152.5547853887321
 30
0.0
 10
156.1170164704645
 20
152.5547853887321
 30
0.0
 10
155.1096698860365
 20
152.5547853887321
 30
0.0
 10
154.2962823053817
 20
152.4412694176073
 30
0.0
 10
153.156643967048
 20
151.2945686288697
 30
0.0
 10
152.0170056287143
 20
150.1476955852443
 30
0.0
 10
151.076149431015
 20
148.7930831468137
 30
0.0
 10
150.3337308641742
 20
147.2290087646991
 30
0.0
 10
149.5957909244188
 20
145.6683794803425
 30
0.0
 10
148.8530278478023
 20
143.6822806228776
 30
0.0
 10
148.0964843801539
 20
141.2751908193897
 30
0.0
 10
148.0964843801539
 20
141.2751908193897
 30
0.0
 10
143.8552245303272
 20
127.8027915271048
 30
0.0
 10
143.8552245303272
 20
127.8027915271048
 30
0.0
 10
143.8552245303272
 20
127.8027915271048
 30
0.0
 10
141.486030802177
 20
127.8027915271048
 30
0.0
 10
141.486030802177
 20
127.8027915271048
 30
0.0
 10
141.486030802177
 20
127.8027915271048
 30
0.0
 10
146.3329388378533
 20
143.2092687007094
 30
0.0
 10
146.3329388378533
 20
143.2092687007094
 30
0.0
 10
146.8483254624444
 20
144.8408669988801
 30
0.0
 10
147.2314203331297
 20
146.1837661049335
 30
0.0
 10
147.4867020769946
 20
147.224185627838
 30
0.0
 10
147.9169947869641
 20
149.0197705792876
 30
0.0
 10
148.0306830129768
 20
150.2400242051577
 30
0.0
 10
147.709255392159
 20
151.3157559800812
 30
0.0
 10
147.3874832615654
 20
152.3916600098926
 30
0.0
 10
146.8245542879144
 20
152.6683013598569
 30
0.0
 10
145.8840425999909
 20
152.6683013598569
 30
0.0
 10
145.0989048209514
 20
152.6683013598569
 30
0.0
 10
144.3282364524954
 20
152.3275811915945
 30
0.0
 10
143.4531816219731
 20
151.6538923250251
 30
0.0
 10
142.34627171234
 20
150.8074318058939
 30
0.0
 10
141.901854101563
 20
150.1097995099067
 30
0.0
 10
141.3578731655808
 20
149.289521733736
 30
0.0
 10
140.6299240093235
 20
148.192602607601
 30
0.0
 10
140.2850697237515
 20
147.455696197173
 30
0.0
 10
139.6652966370942
 20
145.8385673095858
 30
0.0
 10
139.0506911970739
 20
144.2214384219986
 30
0.0
 10
138.463991048893
 20
142.3252566160164
 30
0.0
 10
138.0571250036777
 20
141.0154304484394
 30
0.0
 10
138.0571250036777
 20
141.0154304484394
 30
0.0
 10
133.9009590684727
 20
127.8027915271048
 30
0.0
 10
133.9009590684727
 20
127.8027915271048
 30
0.0
 10
133.9009590684727
 20
127.8027915271048
 30
0.0
 10
131.4180771143097
 20
127.8027915271048
 30
0.0
 10
131.4180771143097
 20
127.8027915271048
 30
0.0
 10
131.4180771143097
 20
127.8027915271048
 30
0.0
 10
139.8926730891197
 20
154.8294111834263
 30
0.0
 10
139.8926730891197
 20
154.8294111834263
 30
0.0
  0
HATCH
  5
6A9
330
6A2
100
AcDbEntity
  8
LOGO
 62
   250
420
  2234388
100
AcDbHatch
 10
0.0
 20
0.0
 30
0.0
210
0.0
220
0.0
230
1.0
  2
SOLID
 70
     1
 71
     0
 91
        1
 92
        1
 93
        1
 72
     4
 94
        3
 73
     0
 74
     1
 95
      104
 96
      100
 40
0.0
 40
0.0
 40
0.0
 40
0.0
 40
1.0
 40
1.0
 40
1.0
 40
2.0
 40
2.0
 40
2.0
 40
3.0
 40
3.0
 40
3.0
 40
4.0
 40
4.0
 40
4.0
 40
5.0
 40
5.0
 40
5.0
 40
6.0
 40
6.0
 40
6.0
 40
7.0
 40
7.0
 40
7.0
 40
8.0
 40
8.0
 40
8.0
 40
9.0
 40
9.0
 40
9.0
 40
10.0
 40
10.0
 40
10.0
 40
11.0
 40
11.0
 40
11.0
 40
12.0
 40
12.0
 40
12.0
 40
13.0
 40
13.0
 40
13.0
 40
14.0
 40
14.0
 40
14.0
 40
15.0
 40
15.0
 40
15.0
 40
16.0
 40
16.0
 40
16.0
 40
17.0
 40
17.0
 40
17.0
 40
18.0
 40
18.0
 40
18.0
 40
19.0
 40
19.0
 40
19.0
 40
20.0
 40
20.0
 40
20.0
 40
21.0
 40
21.0
 40
21.0
 40
22.0
 40
22.0
 40
22.0
 40
23.0
 40
23.0
 40
23.0
 40
24.0
 40
24.0
 40
24.0
 40
25.0
 40
25.0
 40
25.0
 40
26.0
 40
26.0
 40
26.0
 40
27.0
 40
27.0
 40
27.0
 40
28.0
 40
28.0
 40
28.0
 40
29.0
 40
29.0
 40
29.0
 40
30.0
 40
30.0
 40
30.0
 40
31.0
 40
31.0
 40
31.0
 40
32.0
 40
32.0
 40
32.0
 40
33.0
 40
33.0
 40
33.0
 40
33.0
 10
139.8926730891197
 20
154.8294111834263
 10
139.8926730891197
 20
154.8294111834263
 10
142.0344903652445
 20
154.8294111834263
 10
142.0344903652445
 20
154.8294111834263
 10
142.0344903652445
 20
154.8294111834263
 10
140.9516961399171
 20
151.3157559800812
 10
140.9516961399171
 20
151.3157559800812
 10
141.8928968473923
 20
152.7887075264977
 10
142.7341897198865
 20
153.4484437471474
 10
143.8552245303272
 20
154.2926649527359
 10
144.9803934580775
 20
155.1296514530327
 10
146.3139908001845
 20
155.3044901642492
 10
147.241066606852
 20
155.3044901642492
 10
148.3855280820469
 20
155.3044901642492
 10
149.4969166187653
 20
155.0752189084569
 10
150.0784491203092
 20
153.8172414621372
 10
150.5228667310863
 20
152.833838307127
 10
150.5414702589793
 20
152.7201500811143
 10
150.4140016419347
 20
150.7765981809602
 10
151.5818897818837
 20
152.7699317437168
 10
152.4424752018226
 20
153.6256940267945
 10
153.9038856707499
 20
154.4507949398263
 10
155.4455669174378
 20
155.3044901642492
 10
156.339225275853
 20
155.3659851592288
 10
157.3748216618963
 20
155.2147453676543
 10
158.911679771723
 20
154.9877134254046
 10
159.8859534176746
 20
154.4390816074493
 10
160.3965169054045
 20
152.7816450760939
 10
160.9070803931344
 20
151.1219692311958
 10
160.6328506116007
 20
150.2303779314354
 10
159.9992971339115
 20
147.597634224801
 10
159.7105979417943
 20
146.4014962832367
 10
159.2947746424084
 20
144.9400858143094
 10
158.7463150793409
 20
143.2092687007094
 10
158.7463150793409
 20
143.2092687007094
 10
153.9038856707499
 20
127.8027915271048
 10
153.9038856707499
 20
127.8027915271048
 10
153.9038856707499
 20
127.8027915271048
 10
151.3882752878863
 20
127.8027915271048
 10
151.3882752878863
 20
127.8027915271048
 10
151.3882752878863
 20
127.8027915271048
 10
155.6250565106276
 20
141.2751908193897
 10
155.6250565106276
 20
141.2751908193897
 10
156.5094131050963
 20
144.0936252951782
 10
157.109893644309
 20
146.1506931664571
 10
157.4220195011804
 20
147.4415712963654
 10
157.8095929989511
 20
149.0530157726519
 10
157.9656559273867
 20
149.5826995529385
 10
157.7816877071116
 20
150.7529992613181
 10
157.6111553680925
 20
151.8430281919372
 10
157.0582171779396
 20
152.5547853887321
 10
156.1170164704645
 20
152.5547853887321
 10
155.1096698860365
 20
152.5547853887321
 10
154.2962823053817
 20
152.4412694176073
 10
153.156643967048
 20
151.2945686288697
 10
152.0170056287143
 20
150.1476955852443
 10
151.076149431015
 20
148.7930831468137
 10
150.3337308641742
 20
147.2290087646991
 10
149.5957909244188
 20
145.6683794803425
 10
148.8530278478023
 20
143.6822806228776
 10
148.0964843801539
 20
141.2751908193897
 10
148.0964843801539
 20
141.2751908193897
 10
143.8552245303272
 20
127.8027915271048
 10
143.8552245303272
 20
127.8027915271048
 10
143.8552245303272
 20
127.8027915271048
 10
141.486030802177
 20
127.8027915271048
 10
141.486030802177
 20
127.8027915271048
 10
141.486030802177
 20
127.8027915271048
 10
146.3329388378533
 20
143.2092687007094
 10
146.3329388378533
 20
143.2092687007094
 10
146.8483254624444
 20
144.8408669988801
 10
147.2314203331297
 20
146.1837661049335
 10
147.4867020769946
 20
147.224185627838
 10
147.9169947869641
 20
149.0197705792876
 10
148.0306830129768
 20
150.2400242051577
 10
147.709255392159
 20
151.3157559800812
 10
147.3874832615654
 20
152.3916600098926
 10
146.8245542879144
 20
152.6683013598569
 10
145.8840425999909
 20
152.6683013598569
 10
145.0989048209514
 20
152.6683013598569
 10
144.3282364524954
 20
152.3275811915945
 10
143.4531816219731
 20
151.6538923250251
 10
142.34627171234
 20
150.8074318058939
 10
141.901854101563
 20
150.1097995099067
 10
141.3578731655808
 20
149.289521733736
 10
140.6299240093235
 20
148.192602607601
 10
140.2850697237515
 20
147.455696197173
 10
139.6652966370942
 20
145.8385673095858
 10
139.0506911970739
 20
144.2214384219986
 10
138.463991048893
 20
142.3252566160164
 10
138.0571250036777
 20
141.0154304484394
 10
138.0571250036777
 20
141.0154304484394
 10
133.9009590684727
 20
127.8027915271048
 10
133.9009590684727
 20
127.8027915271048
 10
133.9009590684727
 20
127.8027915271048
 10
131.4180771143097
 20
127.8027915271048
 10
131.4180771143097
 20
127.8027915271048
 10
131.4180771143097
 20
127.8027915271048
 10
139.8926730891197
 20
154.8294111834263
 10
139.8926730891197
 20
154.8294111834263
 97
        0
 75
     2
 76
     1
 98
        0
  0
SPLINE
  5
6AA
330
6A2
100
AcDbEntity
  8
LOGO
370
     0
100
AcDbSpline
210
0.0
220
0.0
230
1.0
 70
    11
 71
     3
 72
    29
 73
    25
 74
     0
 42
0.000000001
 43
0.0000000001
 40
0.0
 40
0.0
 40
0.0
 40
0.0
 40
1.0
 40
1.0
 40
1.0
 40
2.0
 40
2.0
 40
2.0
 40
3.0
 40
3.0
 40
3.0
 40
4.0
 40
4.0
 40
4.0
 40
5.0
 40
5.0
 40
5.0
 40
6.0
 40
6.0
 40
6.0
 40
7.0
 40
7.0
 40
7.0
 40
8.0
 40
8.0
 40
8.0
 40
8.0
 10
101.6420971922469
 20
132.8388354296931
 30
0.0
 10
101.630039350094
 20
134.7164137077823
 30
0.0
 10
102.2236296937908
 20
138.0598810818841
 30
0.0
 10
103.7487744712405
 20
142.5378191476827
 30
0.0
 10
105.819967243327
 20
148.5896501242061
 30
0.0
 10
107.0602024361932
 20
150.8074318058939
 30
0.0
 10
108.1522984254671
 20
151.8833358357054
 30
0.0
 10
109.741177511439
 20
153.4532668840085
 30
0.0
 10
111.8740375333931
 20
153.5290590346837
 30
0.0
 10
112.5075910110823
 20
153.4532668840085
 30
0.0
 10
113.4012493694975
 20
153.3490526768302
 30
0.0
 10
114.6683563248758
 20
152.7580461564518
 30
0.0
 10
114.7493161221879
 20
150.7838328862519
 30
0.0
 10
114.8106388622796
 20
149.0909118479895
 30
0.0
 10
114.3186789024427
 20
145.9191825971221
 30
0.0
 10
112.6164561002338
 20
140.9489400617108
 30
0.0
 10
110.6444821435766
 20
135.1746117095912
 30
0.0
 10
109.4669477299053
 20
132.8960240524753
 30
0.0
 10
108.5212683953448
 20
131.9072809959403
 30
0.0
 10
106.7346406980658
 20
130.0538184021569
 30
0.0
 10
104.8222669326213
 20
130.2336525051225
 30
0.0
 10
104.5408024457958
 20
130.2336525051225
 30
0.0
 10
104.1721769856939
 20
130.2336525051225
 30
0.0
 10
101.6465758193322
 20
130.6305277668397
 30
0.0
 10
101.6420971922469
 20
132.8388354296931
 30
0.0
  0
SPLINE
  5
6AB
330
6A2
100
AcDbEntity
  8
LOGO
370
     0
100
AcDbSpline
210
0.0
220
0.0
230
1.0
 70
    11
 71
     3
 72
    32
 73
    28
 74
     0
 42
0.000000001
 43
0.0000000001
 40
0.0
 40
0.0
 40
0.0
 40
0.0
 40
1.0
 40
1.0
 40
1.0
 40
2.0
 40
2.0
 40
2.0
 40
3.0
 40
3.0
 40
3.0
 40
4.0
 40
4.0
 40
4.0
 40
5.0
 40
5.0
 40
5.0
 40
6.0
 40
6.0
 40
6.0
 40
7.0
 40
7.0
 40
7.0
 40
8.0
 40
8.0
 40
8.0
 40
9.0
 40
9.0
 40
9.0
 40
9.0
 10
106.2595617172429
 20
153.4105476718098
 30
0.0
 10
104.8222669326213
 20
151.5474388043041
 30
0.0
 10
103.7177685914188
 20
149.8758773721411
 30
0.0
 10
101.9232171692965
 20
144.6141795664062
 30
0.0
 10
100.2754269116635
 20
139.7999999594306
 30
0.0
 10
99.22777268346732
 20
136.3052927937542
 30
0.0
 10
99.06964269637689
 20
132.039572749846
 30
0.0
 10
98.94665270641765
 20
128.8673267343149
 30
0.0
 10
100.8807305877373
 20
127.8027915271048
 30
0.0
 10
103.7129454545577
 20
127.8027915271048
 30
0.0
 10
104.9352661390825
 20
127.8027915271048
 30
0.0
 10
108.0151835347002
 20
127.8827177950895
 30
0.0
 10
110.2045431598849
 20
130.5926316915021
 30
0.0
 10
111.7417457794874
 20
132.4984597712065
 30
0.0
 10
113.155269389579
 20
134.475256864725
 30
0.0
 10
115.0562743324223
 20
140.9489400617108
 30
0.0
 10
116.6361961642235
 20
146.3680788349845
 30
0.0
 10
117.7282921534974
 20
149.8639917848761
 30
0.0
 10
117.6480213757369
 20
151.8595646611754
 30
0.0
 10
117.6480213757369
 20
151.8595646611754
 30
0.0
 10
117.6480213757369
 20
151.8595646611754
 30
0.0
 10
117.6480213757369
 20
151.8595646611754
 30
0.0
 10
117.13229024137
 20
155.18150017429
 30
0.0
 10
114.7162431837115
 20
155.886194920681
 30
0.0
 10
113.3351034925446
 20
155.886194920681
 30
0.0
 10
111.9829026225447
 20
155.886194920681
 30
0.0
 10
108.3414342923792
 20
156.1251124501957
 30
0.0
 10
106.2595617172429
 20
153.4105476718098
 30
0.0
  0
HATCH
  5
6AC
330
6A2
100
AcDbEntity
  8
LOGO
 62
   250
420
  2234388
100
AcDbHatch
 10
0.0
 20
0.0
 30
0.0
210
0.0
220
0.0
230
1.0
  2
SOLID
 70
     1
 71
     0
 91
        2
 92
        1
 93
        1
 72
     4
 94
        3
 73
     0
 74
     1
 95
       29
 96
       25
 40
0.0
 40
0.0
 40
0.0
 40
0.0
 40
1.0
 40
1.0
 40
1.0
 40
2.0
 40
2.0
 40
2.0
 40
3.0
 40
3.0
 40
3.0
 40
4.0
 40
4.0
 40
4.0
 40
5.0
 40
5.0
 40
5.0
 40
6.0
 40
6.0
 40
6.0
 40
7.0
 40
7.0
 40
7.0
 40
8.0
 40
8.0
 40
8.0
 40
8.0
 10
101.6420971922469
 20
132.8388354296931
 10
101.630039350094
 20
134.7164137077823
 10
102.2236296937908
 20
138.0598810818841
 10
103.7487744712405
 20
142.5378191476827
 10
105.819967243327
 20
148.5896501242061
 10
107.0602024361932
 20
150.8074318058939
 10
108.1522984254671
 20
151.8833358357054
 10
109.741177511439
 20
153.4532668840085
 10
111.8740375333931
 20
153.5290590346837
 10
112.5075910110823
 20
153.4532668840085
 10
113.4012493694975
 20
153.3490526768302
 10
114.6683563248758
 20
152.7580461564518
 10
114.7493161221879
 20
150.7838328862519
 10
114.8106388622796
 20
149.0909118479895
 10
114.3186789024427
 20
145.9191825971221
 10
112.6164561002338
 20
140.9489400617108
 10
110.6444821435766
 20
135.1746117095912
 10
109.4669477299053
 20
132.8960240524753
 10
108.5212683953448
 20
131.9072809959403
 10
106.7346406980658
 20
130.0538184021569
 10
104.8222669326213
 20
130.2336525051225
 10
104.5408024457958
 20
130.2336525051225
 10
104.1721769856939
 20
130.2336525051225
 10
101.6465758193322
 20
130.6305277668397
 10
101.6420971922469
 20
132.8388354296931
 97
        0
 92
        1
 93
        1
 72
     4
 94
        3
 73
     0
 74
     1
 95
       32
 96
       28
 40
0.0
 40
0.0
 40
0.0
 40
0.0
 40
1.0
 40
1.0
 40
1.0
 40
2.0
 40
2.0
 40
2.0
 40
3.0
 40
3.0
 40
3.0
 40
4.0
 40
4.0
 40
4.0
 40
5.0
 40
5.0
 40
5.0
 40
6.0
 40
6.0
 40
6.0
 40
7.0
 40
7.0
 40
7.0
 40
8.0
 40
8.0
 40
8.0
 40
9.0
 40
9.0
 40
9.0
 40
9.0
 10
106.2595617172429
 20
153.4105476718098
 10
104.8222669326213
 20
151.5474388043041
 10
103.7177685914188
 20
149.8758773721411
 10
101.9232171692965
 20
144.6141795664062
 10
100.2754269116635
 20
139.7999999594306
 10
99.22777268346732
 20
136.3052927937542
 10
99.06964269637689
 20
132.039572749846
 10
98.94665270641765
 20
128.8673267343149
 10
100.8807305877373
 20
127.8027915271048
 10
103.7129454545577
 20
127.8027915271048
 10
104.9352661390825
 20
127.8027915271048
 10
108.0151835347002
 20
127.8827177950895
 10
110.2045431598849
 20
130.5926316915021
 10
111.7417457794874
 20
132.4984597712065
 10
113.155269389579
 20
134.475256864725
 10
115.0562743324223
 20
140.9489400617108
 10
116.6361961642235
 20
146.3680788349845
 10
117.7282921534974
 20
149.8639917848761
 10
117.6480213757369
 20
151.8595646611754
 10
117.6480213757369
 20
151.8595646611754
 10
117.6480213757369
 20
151.8595646611754
 10
117.6480213757369
 20
151.8595646611754
 10
117.13229024137
 20
155.18150017429
 10
114.7162431837115
 20
155.886194920681
 10
113.3351034925446
 20
155.886194920681
 10
111.9829026225447
 20
155.886194920681
 10
108.3414342923792
 20
156.1251124501957
 10
106.2595617172429
 20
153.4105476718098
 97
        0
 75
     2
 76
     1
 98
        0
  0
ENDBLK
  5
6AD
330
6A2
100
AcDbEntity
  8
0
100
AcDbBlockEnd
  0
BLOCK
  5
199B
330
199A
100
AcDbEntity
  8
0
100
AcDbBlockBegin
  2
SEANNOT_GROUP
 70
     0
 10
0.0
 20
0.0
 30
0.0
  3
SEANNOT_GROUP
  1
SEANNOT_GROUP
  0
ENDBLK
  5
199C
330
199A
100
AcDbEntity
  8
0
100
AcDbBlockEnd
  0
BLOCK
  5
1F30
330
1F2F
100
AcDbEntity
  8
0
100
AcDbBlockBegin
  2
SEANNOT_GROUP1
 70
     0
 10
0.0
 20
0.0
 30
0.0
  3
SEANNOT_GROUP1
  1
SEANNOT_GROUP1
  0
ENDBLK
  5
1F31
330
1F2F
100
AcDbEntity
  8
0
100
AcDbBlockEnd
  0
BLOCK
  5
621C
330
621B
100
AcDbEntity
  8
0
100
AcDbBlockBegin
  2
*D8
 70
     1
 10
0.0
 20
0.0
 30
0.0
  3
*D8
  1

  0
LINE
  5
621E
330
621B
100
AcDbEntity
  8
DIM
 62
     0
370
    -2
100
AcDbLine
 10
-646.8523880793666
 20
728.3082223917764
 30
0.0
 11
-646.8523880793666
 21
581.2277669079153
 31
0.0
  0
LINE
  5
621F
330
621B
100
AcDbEntity
  8
DIM
 62
     0
370
    -2
100
AcDbLine
 10
-351.8523880793666
 20
847.1003875011272
 30
0.0
 11
-351.8523880793666
 21
581.2277669079153
 31
0.0
  0
LINE
  5
6220
330
621B
100
AcDbEntity
  8
DIM
 62
     0
370
    -2
100
AcDbLine
 10
-636.8523880793666
 20
581.2277669079153
 30
0.0
 11
-361.8523880793666
 21
581.2277669079153
 31
0.0
  0
INSERT
  5
6221
330
621B
100
AcDbEntity
  8
DIM
 62
     0
370
    -2
100
AcDbBlockReference
  2
_DOT
 10
-646.8523880793666
 20
581.2277669079153
 30
0.0
 41
10.0
 42
10.0
 43
10.0
 50
180.0
  0
INSERT
  5
6222
330
621B
100
AcDbEntity
  8
DIM
 62
     0
370
    -2
100
AcDbBlockReference
  2
_DOT
 10
-351.8523880793666
 20
581.2277669079153
 30
0.0
 41
10.0
 42
10.0
 43
10.0
  0
MTEXT
  5
6223
330
621B
100
AcDbEntity
  8
DIM
 62
     0
100
AcDbMText
 10
-499.3523880793666
 20
613.2277669079153
 30
0.0
 40
24.0
 41
0.0
 46
0.0
 71
     5
 72
     1
  1
\A1;295
  7
ＭＳ ゴシック
 73
     1
 44
1.0
  0
POINT
  5
6224
330
621B
100
AcDbEntity
  8
Defpoints
 62
     0
100
AcDbPoint
 10
-646.8523880793666
 20
743.3082223917764
 30
0.0
  0
POINT
  5
6225
330
621B
100
AcDbEntity
  8
Defpoints
 62
     0
100
AcDbPoint
 10
-351.8523880793666
 20
862.1003875011272
 30
0.0
  0
POINT
  5
6226
330
621B
100
AcDbEntity
  8
Defpoints
 62
     0
100
AcDbPoint
 10
-351.8523880793666
 20
581.2277669079153
 30
0.0
  0
ENDBLK
  5
621D
330
621B
100
AcDbEntity
  8
0
100
AcDbBlockEnd
  0
BLOCK
  5
622B
330
622A
100
AcDbEntity
  8
0
100
AcDbBlockBegin
  2
*D9
 70
     1
 10
0.0
 20
0.0
 30
0.0
  3
*D9
  1

  0
LINE
  5
622D
330
622A
100
AcDbEntity
  8
DIM
 62
     0
370
    -2
100
AcDbLine
 10
-576.8450830759048
 20
702.1003875011316
 30
0.0
 11
-576.8450830759048
 21
639.9722981605182
 31
0.0
  0
LINE
  5
622E
330
622A
100
AcDbEntity
  8
DIM
 62
     0
370
    -2
100
AcDbLine
 10
-351.8523880793666
 20
847.1003875011272
 30
0.0
 11
-351.8523880793666
 21
639.9722981605182
 31
0.0
  0
LINE
  5
622F
330
622A
100
AcDbEntity
  8
DIM
 62
     0
370
    -2
100
AcDbLine
 10
-566.8450830759048
 20
639.9722981605182
 30
0.0
 11
-361.8523880793666
 21
639.9722981605182
 31
0.0
  0
INSERT
  5
6230
330
622A
100
AcDbEntity
  8
DIM
 62
     0
370
    -2
100
AcDbBlockReference
  2
_DOT
 10
-576.8450830759048
 20
639.9722981605182
 30
0.0
 41
10.0
 42
10.0
 43
10.0
 50
180.0
  0
INSERT
  5
6231
330
622A
100
AcDbEntity
  8
DIM
 62
     0
370
    -2
100
AcDbBlockReference
  2
_DOT
 10
-351.8523880793666
 20
639.9722981605182
 30
0.0
 41
10.0
 42
10.0
 43
10.0
  0
MTEXT
  5
6232
330
622A
100
AcDbEntity
  8
DIM
 62
     0
100
AcDbMText
 10
-464.3487355776357
 20
671.9722981605182
 30
0.0
 40
24.0
 41
0.0
 46
0.0
 71
     5
 72
     1
  1
\A1;225
  7
ＭＳ ゴシック
 73
     1
 44
1.0
  0
POINT
  5
6233
330
622A
100
AcDbEntity
  8
Defpoints
 62
     0
100
AcDbPoint
 10
-576.8450830759048
 20
717.1003875011316
 30
0.0
  0
POINT
  5
6234
330
622A
100
AcDbEntity
  8
Defpoints
 62
     0
100
AcDbPoint
 10
-351.8523880793666
 20
862.1003875011272
 30
0.0
  0
POINT
  5
6235
330
622A
100
AcDbEntity
  8
Defpoints
 62
     0
100
AcDbPoint
 10
-351.8523880793666
 20
639.9722981605182
 30
0.0
  0
ENDBLK
  5
622C
330
622A
100
AcDbEntity
  8
0
100
AcDbBlockEnd
  0
BLOCK
  5
624C
330
624B
100
AcDbEntity
  8
0
100
AcDbBlockBegin
  2
*D10
 70
     1
 10
0.0
 20
0.0
 30
0.0
  3
*D10
  1

  0
LINE
  5
624E
330
624B
100
AcDbEntity
  8
DIM
 62
     0
370
    -2
100
AcDbLine
 10
-336.8523880793666
 20
862.1003875011272
 30
0.0
 11
-279.0874310498457
 21
862.1003875011272
 31
0.0
  0
LINE
  5
624F
330
624B
100
AcDbEntity
  8
DIM
 62
     0
370
    -2
100
AcDbLine
 10
-342.8523880793666
 20
882.1003875011272
 30
0.0
 11
-279.0874310498457
 21
882.1003875011272
 31
0.0
  0
LINE
  5
6250
330
624B
100
AcDbEntity
  8
DIM
 62
     0
370
    -2
100
AcDbLine
 10
-279.0874310498457
 20
882.1003875011272
 30
0.0
 11
-279.0874310498457
 21
970.6123875011275
 31
0.0
  0
LINE
  5
6251
330
624B
100
AcDbEntity
  8
DIM
 62
     0
370
    -2
100
AcDbLine
 10
-279.0874310498457
 20
872.1003875011272
 30
0.0
 11
-279.0874310498457
 21
872.1003875011272
 31
0.0
  0
LINE
  5
6252
330
624B
100
AcDbEntity
  8
DIM
 62
     0
370
    -2
100
AcDbLine
 10
-279.0874310498457
 20
872.1003875011272
 30
0.0
 11
-279.0874310498457
 21
862.1003875011272
 31
0.0
  0
INSERT
  5
6253
330
624B
100
AcDbEntity
  8
DIM
 62
     0
370
    -2
100
AcDbBlockReference
  2
_DOT
 10
-279.0874310498457
 20
862.1003875011272
 30
0.0
 41
10.0
 42
10.0
 43
10.0
 50
270.0
  0
INSERT
  5
6254
330
624B
100
AcDbEntity
  8
DIM
 62
     0
370
    -2
100
AcDbBlockReference
  2
_DOT
 10
-279.0874310498457
 20
882.1003875011272
 30
0.0
 41
10.0
 42
10.0
 43
10.0
 50
90.0
  0
MTEXT
  5
6255
330
624B
100
AcDbEntity
  8
DIM
 62
     0
100
AcDbMText
 10
-311.0874310498457
 20
936.3563875011275
 30
0.0
 40
24.0
 41
0.0
 46
0.0
 71
     5
 72
     1
  1
\A1;20
  7
ＭＳ ゴシック
 11
0.0
 21
1.0
 31
0.0
 73
     1
 44
1.0
  0
POINT
  5
6256
330
624B
100
AcDbEntity
  8
Defpoints
 62
     0
100
AcDbPoint
 10
-351.8523880793666
 20
862.1003875011272
 30
0.0
  0
POINT
  5
6257
330
624B
100
AcDbEntity
  8
Defpoints
 62
     0
100
AcDbPoint
 10
-357.8523880793666
 20
882.1003875011272
 30
0.0
  0
POINT
  5
6258
330
624B
100
AcDbEntity
  8
Defpoints
 62
     0
100
AcDbPoint
 10
-279.0874310498457
 20
882.1003875011272
 30
0.0
  0
ENDBLK
  5
624D
330
624B
100
AcDbEntity
  8
0
100
AcDbBlockEnd
  0
BLOCK
  5
6263
330
6262
100
AcDbEntity
  8
0
100
AcDbBlockBegin
  2
*D11
 70
     1
 10
0.0
 20
0.0
 30
0.0
  3
*D11
  1

  0
LINE
  5
6265
330
6262
100
AcDbEntity
  8
DIM
 62
     0
370
    -2
100
AcDbLine
 10
-836.8523881864467
 20
752.1003875011272
 30
0.0
 11
-926.6273547000637
 21
752.1003875011272
 31
0.0
  0
LINE
  5
6266
330
6262
100
AcDbEntity
  8
DIM
 62
     0
370
    -2
100
AcDbLine
 10
-826.8438477320146
 20
882.1003875011272
 30
0.0
 11
-926.6273547000637
 21
882.1003875011272
 31
0.0
  0
LINE
  5
6267
330
6262
100
AcDbEntity
  8
DIM
 62
     0
370
    -2
100
AcDbLine
 10
-926.6273547000637
 20
762.1003875011272
 30
0.0
 11
-926.6273547000637
 21
872.1003875011272
 31
0.0
  0
INSERT
  5
6268
330
6262
100
AcDbEntity
  8
DIM
 62
     0
370
    -2
100
AcDbBlockReference
  2
_DOT
 10
-926.6273547000637
 20
752.1003875011272
 30
0.0
 41
10.0
 42
10.0
 43
10.0
 50
270.0
  0
INSERT
  5
6269
330
6262
100
AcDbEntity
  8
DIM
 62
     0
370
    -2
100
AcDbBlockReference
  2
_DOT
 10
-926.6273547000637
 20
882.1003875011272
 30
0.0
 41
10.0
 42
10.0
 43
10.0
 50
90.0
  0
MTEXT
  5
626A
330
6262
100
AcDbEntity
  8
DIM
 62
     0
100
AcDbMText
 10
-958.6273547000637
 20
817.1003875011272
 30
0.0
 40
24.0
 41
0.0
 46
0.0
 71
     5
 72
     1
  1
\A1;130
  7
ＭＳ ゴシック
 11
0.0
 21
1.0
 31
0.0
 73
     1
 44
1.0
  0
POINT
  5
626B
330
6262
100
AcDbEntity
  8
Defpoints
 62
     0
100
AcDbPoint
 10
-821.8523881864467
 20
752.1003875011272
 30
0.0
  0
POINT
  5
626C
330
6262
100
AcDbEntity
  8
Defpoints
 62
     0
100
AcDbPoint
 10
-811.8438477320146
 20
882.1003875011272
 30
0.0
  0
POINT
  5
626D
330
6262
100
AcDbEntity
  8
Defpoints
 62
     0
100
AcDbPoint
 10
-926.6273547000637
 20
882.1003875011272
 30
0.0
  0
ENDBLK
  5
6264
330
6262
100
AcDbEntity
  8
0
100
AcDbBlockEnd
  0
BLOCK
  5
62B7
330
62B6
100
AcDbEntity
  8
0
100
AcDbBlockBegin
  2
*D12
 70
     1
 10
0.0
 20
0.0
 30
0.0
  3
*D12
  1

  0
LINE
  5
62B9
330
62B6
100
AcDbEntity
  8
DIM
 62
     0
370
    -2
100
AcDbLine
 10
-592.8278931936836
 20
767.1462710777986
 30
0.0
 11
-577.8278931936836
 21
767.1462710777986
 31
0.0
  0
LINE
  5
62BA
330
62B6
100
AcDbEntity
  8
DIM
 62
     0
370
    -2
100
AcDbLine
 10
-592.8278931936836
 20
882.1462710777987
 30
0.0
 11
-577.8278931936836
 21
882.1462710777987
 31
0.0
  0
LINE
  5
62BB
330
62B6
100
AcDbEntity
  8
DIM
 62
     0
370
    -2
100
AcDbLine
 10
-577.8278931936836
 20
882.1462710777987
 30
0.0
 11
-577.8278931936836
 21
1077.178271077799
 31
0.0
  0
LINE
  5
62BC
330
62B6
100
AcDbEntity
  8
DIM
 62
     0
370
    -2
100
AcDbLine
 10
-577.8278931936836
 20
777.1462710777986
 30
0.0
 11
-577.8278931936836
 21
872.1462710777987
 31
0.0
  0
LINE
  5
62BD
330
62B6
100
AcDbEntity
  8
DIM
 62
     0
370
    -2
100
AcDbLine
 10
-577.8278931936836
 20
872.1462710777987
 30
0.0
 11
-577.8278931936836
 21
862.1462710777987
 31
0.0
  0
INSERT
  5
62BE
330
62B6
100
AcDbEntity
  8
DIM
 62
     0
370
    -2
100
AcDbBlockReference
  2
_DOT
 10
-577.8278931936836
 20
767.1462710777986
 30
0.0
 41
10.0
 42
10.0
 43
10.0
 50
270.0
  0
INSERT
  5
62BF
330
62B6
100
AcDbEntity
  8
DIM
 62
     0
370
    -2
100
AcDbBlockReference
  2
_DOT
 10
-577.8278931936836
 20
882.1462710777987
 30
0.0
 41
10.0
 42
10.0
 43
10.0
 50
90.0
  0
MTEXT
  5
62C0
330
62B6
100
AcDbEntity
  8
DIM
 62
     0
100
AcDbMText
 10
-611.9518931936836
 20
992.162271077799
 30
0.0
 40
24.0
 41
0.0
 46
0.0
 71
     5
 72
     1
  1
\A1;115(深さ)
  7
ＭＳ ゴシック
 11
0.0
 21
1.0
 31
0.0
 73
     1
 44
1.0
  0
POINT
  5
62C1
330
62B6
100
AcDbEntity
  8
Defpoints
 62
     0
100
AcDbPoint
 10
-577.8278931936836
 20
767.1462710777986
 30
0.0
  0
POINT
  5
62C2
330
62B6
100
AcDbEntity
  8
Defpoints
 62
     0
100
AcDbPoint
 10
-577.8278931936836
 20
882.1462710777987
 30
0.0
  0
POINT
  5
62C3
330
62B6
100
AcDbEntity
  8
Defpoints
 62
     0
100
AcDbPoint
 10
-577.8278931936836
 20
882.1462710777987
 30
0.0
  0
ENDBLK
  5
62B8
330
62B6
100
AcDbEntity
  8
0
100
AcDbBlockEnd
  0
BLOCK
  5
62D7
330
62D6
100
AcDbEntity
  8
0
100
AcDbBlockBegin
  2
*D13
 70
     1
 10
0.0
 20
0.0
 30
0.0
  3
*D13
  1

  0
LINE
  5
62D9
330
62D6
100
AcDbEntity
  8
DIM
 62
     0
370
    -2
100
AcDbLine
 10
-1571.691015107433
 20
717.1003875011321
 30
0.0
 11
-1225.959265508938
 21
717.1003875011321
 31
0.0
  0
LINE
  5
62DA
330
62D6
100
AcDbEntity
  8
DIM
 62
     0
370
    -2
100
AcDbLine
 10
-1342.853357366635
 20
882.1003875011286
 30
0.0
 11
-1225.959265508938
 21
882.1003875011286
 31
0.0
  0
LINE
  5
62DB
330
62D6
100
AcDbEntity
  8
DIM
 62
     0
370
    -2
100
AcDbLine
 10
-1225.959265508938
 20
727.1003875011321
 30
0.0
 11
-1225.959265508938
 21
872.1003875011286
 31
0.0
  0
INSERT
  5
62DC
330
62D6
100
AcDbEntity
  8
DIM
 62
     0
370
    -2
100
AcDbBlockReference
  2
_DOT
 10
-1225.959265508938
 20
717.1003875011321
 30
0.0
 41
10.0
 42
10.0
 43
10.0
 50
270.0
  0
INSERT
  5
62DD
330
62D6
100
AcDbEntity
  8
DIM
 62
     0
370
    -2
100
AcDbBlockReference
  2
_DOT
 10
-1225.959265508938
 20
882.1003875011286
 30
0.0
 41
10.0
 42
10.0
 43
10.0
 50
90.0
  0
MTEXT
  5
62DE
330
62D6
100
AcDbEntity
  8
DIM
 62
     0
100
AcDbMText
 10
-1257.959265508938
 20
799.6003875011304
 30
0.0
 40
24.0
 41
0.0
 46
0.0
 71
     5
 72
     1
  1
\A1;165
  7
ＭＳ ゴシック
 11
0.0
 21
1.0
 31
0.0
 73
     1
 44
1.0
  0
POINT
  5
62DF
330
62D6
100
AcDbEntity
  8
Defpoints
 62
     0
100
AcDbPoint
 10
-1586.691015107433
 20
717.1003875011321
 30
0.0
  0
POINT
  5
62E0
330
62D6
100
AcDbEntity
  8
Defpoints
 62
     0
100
AcDbPoint
 10
-1357.853357366635
 20
882.1003875011286
 30
0.0
  0
POINT
  5
62E1
330
62D6
100
AcDbEntity
  8
Defpoints
 62
     0
100
AcDbPoint
 10
-1225.959265508938
 20
882.1003875011286
 30
0.0
  0
ENDBLK
  5
62D8
330
62D6
100
AcDbEntity
  8
0
100
AcDbBlockEnd
  0
BLOCK
  5
6308
330
6307
100
AcDbEntity
  8
0
100
AcDbBlockBegin
  2
*D14
 70
     1
 10
0.0
 20
0.0
 30
0.0
  3
*D14
  1

  0
LINE
  5
630A
330
6307
100
AcDbEntity
  8
DIM
 62
     0
370
    -2
100
AcDbLine
 10
-351.8523880793666
 20
891.1003875011272
 30
0.0
 11
-351.8523880793666
 21
949.371995796314
 31
0.0
  0
LINE
  5
630B
330
6307
100
AcDbEntity
  8
DIM
 62
     0
370
    -2
100
AcDbLine
 10
-427.8523880793666
 20
897.1003875011272
 30
0.0
 11
-427.8523880793666
 21
949.371995796314
 31
0.0
  0
LINE
  5
630C
330
6307
100
AcDbEntity
  8
DIM
 62
     0
370
    -2
100
AcDbLine
 10
-361.8523880793666
 20
949.371995796314
 30
0.0
 11
-417.8523880793666
 21
949.371995796314
 31
0.0
  0
INSERT
  5
630D
330
6307
100
AcDbEntity
  8
DIM
 62
     0
370
    -2
100
AcDbBlockReference
  2
_DOT
 10
-351.8523880793666
 20
949.371995796314
 30
0.0
 41
10.0
 42
10.0
 43
10.0
  0
INSERT
  5
630E
330
6307
100
AcDbEntity
  8
DIM
 62
     0
370
    -2
100
AcDbBlockReference
  2
_DOT
 10
-427.8523880793666
 20
949.371995796314
 30
0.0
 41
10.0
 42
10.0
 43
10.0
 50
180.0
  0
MTEXT
  5
630F
330
6307
100
AcDbEntity
  8
DIM
 62
     0
100
AcDbMText
 10
-389.8523880793666
 20
981.371995796314
 30
0.0
 40
24.0
 41
0.0
 46
0.0
 71
     5
 72
     1
  1
\A1;75
  7
ＭＳ ゴシック
 73
     1
 44
1.0
  0
POINT
  5
6310
330
6307
100
AcDbEntity
  8
Defpoints
 62
     0
100
AcDbPoint
 10
-351.8523880793666
 20
876.1003875011272
 30
0.0
  0
POINT
  5
6311
330
6307
100
AcDbEntity
  8
Defpoints
 62
     0
100
AcDbPoint
 10
-427.8523880793666
 20
882.1003875011272
 30
0.0
  0
POINT
  5
6312
330
6307
100
AcDbEntity
  8
Defpoints
 62
     0
100
AcDbPoint
 10
-427.8523880793666
 20
949.371995796314
 30
0.0
  0
ENDBLK
  5
6309
330
6307
100
AcDbEntity
  8
0
100
AcDbBlockEnd
  0
BLOCK
  5
6332
330
6331
100
AcDbEntity
  8
0
100
AcDbBlockBegin
  2
*D15
 70
     1
 10
0.0
 20
0.0
 30
0.0
  3
*D15
  1

  0
LINE
  5
6334
330
6331
100
AcDbEntity
  8
DIM
 62
     0
370
    -2
100
AcDbLine
 10
-1719.843999297477
 20
2338.034527463657
 30
0.0
 11
-1719.843999297477
 21
2445.818256691665
 31
0.0
  0
LINE
  5
6335
330
6331
100
AcDbEntity
  8
DIM
 62
     0
370
    -2
100
AcDbLine
 10
-1619.843999297477
 20
2340.534527463657
 30
0.0
 11
-1619.843999297477
 21
2445.818256691665
 31
0.0
  0
LINE
  5
6336
330
6331
100
AcDbEntity
  8
DIM
 62
     0
370
    -2
100
AcDbLine
 10
-1709.843999297477
 20
2445.818256691665
 30
0.0
 11
-1629.843999297477
 21
2445.818256691665
 31
0.0
  0
INSERT
  5
6337
330
6331
100
AcDbEntity
  8
DIM
 62
     0
370
    -2
100
AcDbBlockReference
  2
_DOT
 10
-1719.843999297477
 20
2445.818256691665
 30
0.0
 41
10.0
 42
10.0
 43
10.0
 50
180.0
  0
INSERT
  5
6338
330
6331
100
AcDbEntity
  8
DIM
 62
     0
370
    -2
100
AcDbBlockReference
  2
_DOT
 10
-1619.843999297477
 20
2445.818256691665
 30
0.0
 41
10.0
 42
10.0
 43
10.0
  0
MTEXT
  5
6339
330
6331
100
AcDbEntity
  8
DIM
 62
     0
100
AcDbMText
 10
-1669.843999297477
 20
2477.818256691665
 30
0.0
 40
24.0
 41
0.0
 46
0.0
 71
     5
 72
     1
  1
\A1;100
  7
ＭＳ ゴシック
 73
     1
 44
1.0
  0
POINT
  5
633A
330
6331
100
AcDbEntity
  8
Defpoints
 62
     0
100
AcDbPoint
 10
-1719.843999297477
 20
2323.034527463657
 30
0.0
  0
POINT
  5
633B
330
6331
100
AcDbEntity
  8
Defpoints
 62
     0
100
AcDbPoint
 10
-1619.843999297477
 20
2325.534527463657
 30
0.0
  0
POINT
  5
633C
330
6331
100
AcDbEntity
  8
Defpoints
 62
     0
100
AcDbPoint
 10
-1619.843999297477
 20
2445.818256691665
 30
0.0
  0
ENDBLK
  5
6333
330
6331
100
AcDbEntity
  8
0
100
AcDbBlockEnd
  0
BLOCK
  5
6341
330
6340
100
AcDbEntity
  8
0
100
AcDbBlockBegin
  2
*D16
 70
     1
 10
0.0
 20
0.0
 30
0.0
  3
*D16
  1

  0
LINE
  5
6343
330
6340
100
AcDbEntity
  8
DIM
 62
     0
370
    -2
100
AcDbLine
 10
-1519.843999297477
 20
2338.034527463657
 30
0.0
 11
-1519.843999297477
 21
2445.818256691665
 31
0.0
  0
LINE
  5
6344
330
6340
100
AcDbEntity
  8
DIM
 62
     0
370
    -2
100
AcDbLine
 10
-1619.843999297477
 20
2340.534527463657
 30
0.0
 11
-1619.843999297477
 21
2445.818256691665
 31
0.0
  0
LINE
  5
6345
330
6340
100
AcDbEntity
  8
DIM
 62
     0
370
    -2
100
AcDbLine
 10
-1529.843999297477
 20
2445.818256691665
 30
0.0
 11
-1609.843999297477
 21
2445.818256691665
 31
0.0
  0
INSERT
  5
6346
330
6340
100
AcDbEntity
  8
DIM
 62
     0
370
    -2
100
AcDbBlockReference
  2
_DOT
 10
-1519.843999297477
 20
2445.818256691665
 30
0.0
 41
10.0
 42
10.0
 43
10.0
  0
INSERT
  5
6347
330
6340
100
AcDbEntity
  8
DIM
 62
     0
370
    -2
100
AcDbBlockReference
  2
_DOT
 10
-1619.843999297477
 20
2445.818256691665
 30
0.0
 41
10.0
 42
10.0
 43
10.0
 50
180.0
  0
MTEXT
  5
6348
330
6340
100
AcDbEntity
  8
DIM
 62
     0
100
AcDbMText
 10
-1569.843999297477
 20
2477.818256691665
 30
0.0
 40
24.0
 41
0.0
 46
0.0
 71
     5
 72
     1
  1
\A1;100
  7
ＭＳ ゴシック
 73
     1
 44
1.0
  0
POINT
  5
6349
330
6340
100
AcDbEntity
  8
Defpoints
 62
     0
100
AcDbPoint
 10
-1519.843999297477
 20
2323.034527463657
 30
0.0
  0
POINT
  5
634A
330
6340
100
AcDbEntity
  8
Defpoints
 62
     0
100
AcDbPoint
 10
-1619.843999297477
 20
2325.534527463657
 30
0.0
  0
POINT
  5
634B
330
6340
100
AcDbEntity
  8
Defpoints
 62
     0
100
AcDbPoint
 10
-1619.843999297477
 20
2445.818256691665
 30
0.0
  0
ENDBLK
  5
6342
330
6340
100
AcDbEntity
  8
0
100
AcDbBlockEnd
  0
BLOCK
  5
6350
330
634F
100
AcDbEntity
  8
0
100
AcDbBlockBegin
  2
*D17
 70
     1
 10
0.0
 20
0.0
 30
0.0
  3
*D17
  1

  0
LINE
  5
6352
330
634F
100
AcDbEntity
  8
DIM
 62
     0
370
    -2
100
AcDbLine
 10
-1894.843999297477
 20
2392.034527463657
 30
0.0
 11
-1894.843999297477
 21
2543.725808779337
 31
0.0
  0
LINE
  5
6353
330
634F
100
AcDbEntity
  8
DIM
 62
     0
370
    -2
100
AcDbLine
 10
-1344.843999297477
 20
2385.755800091118
 30
0.0
 11
-1344.843999297477
 21
2543.725808779337
 31
0.0
  0
LINE
  5
6354
330
634F
100
AcDbEntity
  8
DIM
 62
     0
370
    -2
100
AcDbLine
 10
-1884.843999297477
 20
2543.725808779337
 30
0.0
 11
-1354.843999297477
 21
2543.725808779337
 31
0.0
  0
INSERT
  5
6355
330
634F
100
AcDbEntity
  8
DIM
 62
     0
370
    -2
100
AcDbBlockReference
  2
_DOT
 10
-1894.843999297477
 20
2543.725808779337
 30
0.0
 41
10.0
 42
10.0
 43
10.0
 50
180.0
  0
INSERT
  5
6356
330
634F
100
AcDbEntity
  8
DIM
 62
     0
370
    -2
100
AcDbBlockReference
  2
_DOT
 10
-1344.843999297477
 20
2543.725808779337
 30
0.0
 41
10.0
 42
10.0
 43
10.0
  0
MTEXT
  5
6357
330
634F
100
AcDbEntity
  8
DIM
 62
     0
100
AcDbMText
 10
-1619.843999297477
 20
2575.725808779337
 30
0.0
 40
24.0
 41
0.0
 46
0.0
 71
     5
 72
     1
  1
\A1;550
  7
ＭＳ ゴシック
 73
     1
 44
1.0
  0
POINT
  5
6358
330
634F
100
AcDbEntity
  8
Defpoints
 62
     0
100
AcDbPoint
 10
-1894.843999297477
 20
2377.034527463657
 30
0.0
  0
POINT
  5
6359
330
634F
100
AcDbEntity
  8
Defpoints
 62
     0
100
AcDbPoint
 10
-1344.843999297477
 20
2370.755800091118
 30
0.0
  0
POINT
  5
635A
330
634F
100
AcDbEntity
  8
Defpoints
 62
     0
100
AcDbPoint
 10
-1344.843999297477
 20
2543.725808779337
 30
0.0
  0
ENDBLK
  5
6351
330
634F
100
AcDbEntity
  8
0
100
AcDbBlockEnd
  0
BLOCK
  5
638B
330
638A
100
AcDbEntity
  8
0
100
AcDbBlockBegin
  2
*D18
 70
     1
 10
0.0
 20
0.0
 30
0.0
  3
*D18
  1

  0
LINE
  5
638D
330
638A
100
AcDbEntity
  8
DIM
 62
     0
370
    -2
100
AcDbLine
 10
-1894.741237548559
 20
2384.034527463657
 30
0.0
 11
-1962.418725978148
 21
2384.034527463657
 31
0.0
  0
LINE
  5
638E
330
638A
100
AcDbEntity
  8
DIM
 62
     0
370
    -2
100
AcDbLine
 10
-1890.603738725331
 20
2244.095679735487
 30
0.0
 11
-1962.418725978148
 21
2244.095679735487
 31
0.0
  0
LINE
  5
638F
330
638A
100
AcDbEntity
  8
DIM
 62
     0
370
    -2
100
AcDbLine
 10
-1962.418725978148
 20
2374.034527463657
 30
0.0
 11
-1962.418725978148
 21
2254.095679735487
 31
0.0
  0
INSERT
  5
6390
330
638A
100
AcDbEntity
  8
DIM
 62
     0
370
    -2
100
AcDbBlockReference
  2
_DOT
 10
-1962.418725978148
 20
2384.034527463657
 30
0.0
 41
10.0
 42
10.0
 43
10.0
 50
90.0
  0
INSERT
  5
6391
330
638A
100
AcDbEntity
  8
DIM
 62
     0
370
    -2
100
AcDbBlockReference
  2
_DOT
 10
-1962.418725978148
 20
2244.095679735487
 30
0.0
 41
10.0
 42
10.0
 43
10.0
 50
270.0
  0
MTEXT
  5
6392
330
638A
100
AcDbEntity
  8
DIM
 62
     0
100
AcDbMText
 10
-1994.418725978148
 20
2314.065103599572
 30
0.0
 40
24.0
 41
0.0
 46
0.0
 71
     5
 72
     1
  1
\A1;140
  7
ＭＳ ゴシック
 11
0.0
 21
1.0
 31
0.0
 73
     1
 44
1.0
  0
POINT
  5
6393
330
638A
100
AcDbEntity
  8
Defpoints
 62
     0
100
AcDbPoint
 10
-1879.741237548559
 20
2384.034527463657
 30
0.0
  0
POINT
  5
6394
330
638A
100
AcDbEntity
  8
Defpoints
 62
     0
100
AcDbPoint
 10
-1875.603738725331
 20
2244.095679735487
 30
0.0
  0
POINT
  5
6395
330
638A
100
AcDbEntity
  8
Defpoints
 62
     0
100
AcDbPoint
 10
-1962.418725978148
 20
2244.095679735487
 30
0.0
  0
ENDBLK
  5
638C
330
638A
100
AcDbEntity
  8
0
100
AcDbBlockEnd
  0
BLOCK
  5
639A
330
6399
100
AcDbEntity
  8
0
100
AcDbBlockBegin
  2
*D19
 70
     1
 10
0.0
 20
0.0
 30
0.0
  3
*D19
  1

  0
LINE
  5
639C
330
6399
100
AcDbEntity
  8
DIM
 62
     0
370
    -2
100
AcDbLine
 10
-1890.603738725331
 20
2244.095679735487
 30
0.0
 11
-1962.418725978148
 21
2244.095679735487
 31
0.0
  0
LINE
  5
639D
330
6399
100
AcDbEntity
  8
DIM
 62
     0
370
    -2
100
AcDbLine
 10
-1890.603738725331
 20
1944.095679735487
 30
0.0
 11
-1962.418725978148
 21
1944.095679735487
 31
0.0
  0
LINE
  5
639E
330
6399
100
AcDbEntity
  8
DIM
 62
     0
370
    -2
100
AcDbLine
 10
-1962.418725978148
 20
2234.095679735487
 30
0.0
 11
-1962.418725978148
 21
1954.095679735487
 31
0.0
  0
INSERT
  5
639F
330
6399
100
AcDbEntity
  8
DIM
 62
     0
370
    -2
100
AcDbBlockReference
  2
_DOT
 10
-1962.418725978148
 20
2244.095679735487
 30
0.0
 41
10.0
 42
10.0
 43
10.0
 50
90.0
  0
INSERT
  5
63A0
330
6399
100
AcDbEntity
  8
DIM
 62
     0
370
    -2
100
AcDbBlockReference
  2
_DOT
 10
-1962.418725978148
 20
1944.095679735487
 30
0.0
 41
10.0
 42
10.0
 43
10.0
 50
270.0
  0
MTEXT
  5
63A1
330
6399
100
AcDbEntity
  8
DIM
 62
     0
100
AcDbMText
 10
-1994.418725978148
 20
2094.095679735487
 30
0.0
 40
24.0
 41
0.0
 46
0.0
 71
     5
 72
     1
  1
\A1;300
  7
ＭＳ ゴシック
 11
0.0
 21
1.0
 31
0.0
 73
     1
 44
1.0
  0
POINT
  5
63A2
330
6399
100
AcDbEntity
  8
Defpoints
 62
     0
100
AcDbPoint
 10
-1875.603738725331
 20
2244.095679735487
 30
0.0
  0
POINT
  5
63A3
330
6399
100
AcDbEntity
  8
Defpoints
 62
     0
100
AcDbPoint
 10
-1875.603738725331
 20
1944.095679735487
 30
0.0
  0
POINT
  5
63A4
330
6399
100
AcDbEntity
  8
Defpoints
 62
     0
100
AcDbPoint
 10
-1962.418725978148
 20
1944.095679735487
 30
0.0
  0
ENDBLK
  5
639B
330
6399
100
AcDbEntity
  8
0
100
AcDbBlockEnd
  0
BLOCK
  5
63A9
330
63A8
100
AcDbEntity
  8
0
100
AcDbBlockBegin
  2
*D20
 70
     1
 10
0.0
 20
0.0
 30
0.0
  3
*D20
  1

  0
LINE
  5
63AB
330
63A8
100
AcDbEntity
  8
DIM
 62
     0
370
    -2
100
AcDbLine
 10
-1343.601095019683
 20
2384.034527463657
 30
0.0
 11
-1248.481308367497
 21
2384.034527463657
 31
0.0
  0
LINE
  5
63AC
330
63A8
100
AcDbEntity
  8
DIM
 62
     0
370
    -2
100
AcDbLine
 10
-1344.507854593202
 20
1914.035402159071
 30
0.0
 11
-1248.481308367497
 21
1914.035402159071
 31
0.0
  0
LINE
  5
63AD
330
63A8
100
AcDbEntity
  8
DIM
 62
     0
370
    -2
100
AcDbLine
 10
-1248.481308367497
 20
2374.034527463657
 30
0.0
 11
-1248.481308367497
 21
1924.035402159071
 31
0.0
  0
INSERT
  5
63AE
330
63A8
100
AcDbEntity
  8
DIM
 62
     0
370
    -2
100
AcDbBlockReference
  2
_DOT
 10
-1248.481308367497
 20
2384.034527463657
 30
0.0
 41
10.0
 42
10.0
 43
10.0
 50
90.0
  0
INSERT
  5
63AF
330
63A8
100
AcDbEntity
  8
DIM
 62
     0
370
    -2
100
AcDbBlockReference
  2
_DOT
 10
-1248.481308367497
 20
1914.035402159071
 30
0.0
 41
10.0
 42
10.0
 43
10.0
 50
270.0
  0
MTEXT
  5
63B0
330
63A8
100
AcDbEntity
  8
DIM
 62
     0
100
AcDbMText
 10
-1280.481308367497
 20
2149.034964811364
 30
0.0
 40
24.0
 41
0.0
 46
0.0
 71
     5
 72
     1
  1
\A1;470
  7
ＭＳ ゴシック
 11
0.0
 21
1.0
 31
0.0
 73
     1
 44
1.0
  0
POINT
  5
63B1
330
63A8
100
AcDbEntity
  8
Defpoints
 62
     0
100
AcDbPoint
 10
-1358.601095019683
 20
2384.034527463657
 30
0.0
  0
POINT
  5
63B2
330
63A8
100
AcDbEntity
  8
Defpoints
 62
     0
100
AcDbPoint
 10
-1359.507854593202
 20
1914.035402159071
 30
0.0
  0
POINT
  5
63B3
330
63A8
100
AcDbEntity
  8
Defpoints
 62
     0
100
AcDbPoint
 10
-1248.481308367497
 20
1914.035402159071
 30
0.0
  0
ENDBLK
  5
63AA
330
63A8
100
AcDbEntity
  8
0
100
AcDbBlockEnd
  0
BLOCK
  5
63B6
330
63B5
100
AcDbEntity
  8
0
100
AcDbBlockBegin
  2
*D21
 70
     1
 10
0.0
 20
0.0
 30
0.0
  3
*D21
  1

  0
LINE
  5
63B8
330
63B5
100
AcDbEntity
  8
DIM
 62
     0
370
    -2
100
AcDbLine
 10
-1873.837365979357
 20
1937.446245207094
 30
0.0
 11
-1873.837365979357
 21
1808.447526232396
 31
0.0
  0
LINE
  5
63B9
330
63B5
100
AcDbEntity
  8
DIM
 62
     0
370
    -2
100
AcDbLine
 10
-1365.850632615609
 20
1937.446245206976
 30
0.0
 11
-1365.850632615609
 21
1808.447526232396
 31
0.0
  0
LINE
  5
63BA
330
63B5
100
AcDbEntity
  8
DIM
 62
     0
370
    -2
100
AcDbLine
 10
-1863.837365979357
 20
1808.447526232396
 30
0.0
 11
-1375.850632615609
 21
1808.447526232396
 31
0.0
  0
INSERT
  5
63BB
330
63B5
100
AcDbEntity
  8
DIM
 62
     0
370
    -2
100
AcDbBlockReference
  2
_DOT
 10
-1873.837365979357
 20
1808.447526232396
 30
0.0
 41
10.0
 42
10.0
 43
10.0
 50
180.0
  0
INSERT
  5
63BC
330
63B5
100
AcDbEntity
  8
DIM
 62
     0
370
    -2
100
AcDbBlockReference
  2
_DOT
 10
-1365.850632615609
 20
1808.447526232396
 30
0.0
 41
10.0
 42
10.0
 43
10.0
  0
MTEXT
  5
63BD
330
63B5
100
AcDbEntity
  8
DIM
 62
     0
100
AcDbMText
 10
-1619.843999297483
 20
1840.447526232396
 30
0.0
 40
24.0
 41
0.0
 46
0.0
 71
     5
 72
     1
  1
\A1;495
  7
ＭＳ ゴシック
 73
     1
 44
1.0
  0
POINT
  5
63BE
330
63B5
100
AcDbEntity
  8
Defpoints
 62
     0
100
AcDbPoint
 10
-1873.837365979357
 20
1952.446245207094
 30
0.0
  0
POINT
  5
63BF
330
63B5
100
AcDbEntity
  8
Defpoints
 62
     0
100
AcDbPoint
 10
-1365.850632615609
 20
1952.446245206976
 30
0.0
  0
POINT
  5
63C0
330
63B5
100
AcDbEntity
  8
Defpoints
 62
     0
100
AcDbPoint
 10
-1365.850632615609
 20
1808.447526232396
 30
0.0
  0
ENDBLK
  5
63B7
330
63B5
100
AcDbEntity
  8
0
100
AcDbBlockEnd
  0
BLOCK
  5
739E
330
739D
100
AcDbEntity
  8
0
100
AcDbBlockBegin
  2
*D22
 70
     1
 10
0.0
 20
0.0
 30
0.0
  3
*D22
  1

  0
LINE
  5
73A0
330
739D
100
AcDbEntity
  8
DIM
 62
     0
370
    -2
100
AcDbLine
 10
-426.2606934514206
 20
1579.796584529278
 30
0.0
 11
-426.2606934514206
 21
1437.560522075788
 31
0.0
  0
LINE
  5
73A1
330
739D
100
AcDbEntity
  8
DIM
 62
     0
370
    -2
100
AcDbLine
 10
-930.9260994514218
 20
1579.796584529278
 30
0.0
 11
-930.9260994514218
 21
1437.560522075788
 31
0.0
  0
LINE
  5
73A2
330
739D
100
AcDbEntity
  8
DIM
 62
     0
370
    -2
100
AcDbLine
 10
-436.2606934514206
 20
1437.560522075788
 30
0.0
 11
-920.9260994514218
 21
1437.560522075788
 31
0.0
  0
INSERT
  5
73A3
330
739D
100
AcDbEntity
  8
DIM
 62
     0
370
    -2
100
AcDbBlockReference
  2
_DOT
 10
-426.2606934514206
 20
1437.560522075788
 30
0.0
 41
10.0
 42
10.0
 43
10.0
  0
INSERT
  5
73A4
330
739D
100
AcDbEntity
  8
DIM
 62
     0
370
    -2
100
AcDbBlockReference
  2
_DOT
 10
-930.9260994514218
 20
1437.560522075788
 30
0.0
 41
10.0
 42
10.0
 43
10.0
 50
180.0
  0
MTEXT
  5
73A5
330
739D
100
AcDbEntity
  8
DIM
 62
     0
100
AcDbMText
 10
-678.5933964514212
 20
1469.560522075788
 30
0.0
 40
24.0
 41
0.0
 46
0.0
 71
     5
 72
     1
  1
\A1;505
  7
ＭＳ ゴシック
 73
     1
 44
1.0
  0
POINT
  5
73A6
330
739D
100
AcDbEntity
  8
Defpoints
 62
     0
100
AcDbPoint
 10
-426.2606934514206
 20
1594.796584529278
 30
0.0
  0
POINT
  5
73A7
330
739D
100
AcDbEntity
  8
Defpoints
 62
     0
100
AcDbPoint
 10
-930.9260994514218
 20
1594.796584529278
 30
0.0
  0
POINT
  5
73A8
330
739D
100
AcDbEntity
  8
Defpoints
 62
     0
100
AcDbPoint
 10
-930.9260994514218
 20
1437.560522075788
 30
0.0
  0
ENDBLK
  5
739F
330
739D
100
AcDbEntity
  8
0
100
AcDbBlockEnd
  0
BLOCK
  5
73AA
330
73A9
100
AcDbEntity
  8
0
100
AcDbBlockBegin
  2
*D23
 70
     1
 10
0.0
 20
0.0
 30
0.0
  3
*D23
  1

  0
LINE
  5
73AC
330
73A9
100
AcDbEntity
  8
DIM
 62
     0
370
    -2
100
AcDbLine
 10
-416.0257394514208
 20
2379.338616578529
 30
0.0
 11
-416.0257394514208
 21
2454.848709175132
 31
0.0
  0
LINE
  5
73AD
330
73A9
100
AcDbEntity
  8
DIM
 62
     0
370
    -2
100
AcDbLine
 10
-941.1610234514196
 20
2379.338616578529
 30
0.0
 11
-941.1610234514196
 21
2454.848709175132
 31
0.0
  0
LINE
  5
73AE
330
73A9
100
AcDbEntity
  8
DIM
 62
     0
370
    -2
100
AcDbLine
 10
-426.0257394514208
 20
2454.848709175132
 30
0.0
 11
-931.1610234514196
 21
2454.848709175132
 31
0.0
  0
INSERT
  5
73AF
330
73A9
100
AcDbEntity
  8
DIM
 62
     0
370
    -2
100
AcDbBlockReference
  2
_DOT
 10
-416.0257394514208
 20
2454.848709175132
 30
0.0
 41
10.0
 42
10.0
 43
10.0
  0
INSERT
  5
73B0
330
73A9
100
AcDbEntity
  8
DIM
 62
     0
370
    -2
100
AcDbBlockReference
  2
_DOT
 10
-941.1610234514196
 20
2454.848709175132
 30
0.0
 41
10.0
 42
10.0
 43
10.0
 50
180.0
  0
MTEXT
  5
73B1
330
73A9
100
AcDbEntity
  8
DIM
 62
     0
100
AcDbMText
 10
-678.5933814514202
 20
2486.848709175132
 30
0.0
 40
24.0
 41
0.0
 46
0.0
 71
     5
 72
     1
  1
\A1;525
  7
ＭＳ ゴシック
 73
     1
 44
1.0
  0
POINT
  5
73B2
330
73A9
100
AcDbEntity
  8
Defpoints
 62
     0
100
AcDbPoint
 10
-416.0257394514208
 20
2364.338616578529
 30
0.0
  0
POINT
  5
73B3
330
73A9
100
AcDbEntity
  8
Defpoints
 62
     0
100
AcDbPoint
 10
-941.1610234514196
 20
2364.338616578529
 30
0.0
  0
POINT
  5
73B4
330
73A9
100
AcDbEntity
  8
Defpoints
 62
     0
100
AcDbPoint
 10
-941.1610234514196
 20
2454.848709175132
 30
0.0
  0
ENDBLK
  5
73AB
330
73A9
100
AcDbEntity
  8
0
100
AcDbBlockEnd
  0
BLOCK
  5
73B6
330
73B5
100
AcDbEntity
  8
0
100
AcDbBlockBegin
  2
*D24
 70
     1
 10
0.0
 20
0.0
 30
0.0
  3
*D24
  1

  0
LINE
  5
73B8
330
73B5
100
AcDbEntity
  8
DIM
 62
     0
370
    -2
100
AcDbLine
 10
-956.1610234514196
 20
2365.425945463657
 30
0.0
 11
-1123.629152108977
 21
2365.425945463657
 31
0.0
  0
LINE
  5
73B9
330
73B5
100
AcDbEntity
  8
DIM
 62
     0
370
    -2
100
AcDbLine
 10
-1072.673813754118
 20
2089.034527463657
 30
0.0
 11
-1123.629152108977
 21
2089.034527463657
 31
0.0
  0
LINE
  5
73BA
330
73B5
100
AcDbEntity
  8
DIM
 62
     0
370
    -2
100
AcDbLine
 10
-1123.629152108977
 20
2355.425945463657
 30
0.0
 11
-1123.629152108977
 21
2099.034527463657
 31
0.0
  0
INSERT
  5
73BB
330
73B5
100
AcDbEntity
  8
DIM
 62
     0
370
    -2
100
AcDbBlockReference
  2
_DOT
 10
-1123.629152108977
 20
2365.425945463657
 30
0.0
 41
10.0
 42
10.0
 43
10.0
 50
90.0
  0
INSERT
  5
73BC
330
73B5
100
AcDbEntity
  8
DIM
 62
     0
370
    -2
100
AcDbBlockReference
  2
_DOT
 10
-1123.629152108977
 20
2089.034527463657
 30
0.0
 41
10.0
 42
10.0
 43
10.0
 50
270.0
  0
MTEXT
  5
73BD
330
73B5
100
AcDbEntity
  8
DIM
 62
     0
100
AcDbMText
 10
-1155.629152108977
 20
2227.230236463657
 30
0.0
 40
24.0
 41
0.0
 46
0.0
 71
     5
 72
     1
  1
\A1;276
  7
ＭＳ ゴシック
 11
0.0
 21
1.0
 31
0.0
 73
     1
 44
1.0
  0
POINT
  5
73BE
330
73B5
100
AcDbEntity
  8
Defpoints
 62
     0
100
AcDbPoint
 10
-941.1610234514196
 20
2365.425945463657
 30
0.0
  0
POINT
  5
73BF
330
73B5
100
AcDbEntity
  8
Defpoints
 62
     0
100
AcDbPoint
 10
-1057.673813754118
 20
2089.034527463657
 30
0.0
  0
POINT
  5
73C0
330
73B5
100
AcDbEntity
  8
Defpoints
 62
     0
100
AcDbPoint
 10
-1123.629152108977
 20
2089.034527463657
 30
0.0
  0
ENDBLK
  5
73B7
330
73B5
100
AcDbEntity
  8
0
100
AcDbBlockEnd
  0
BLOCK
  5
73CD
330
73CC
100
AcDbEntity
  8
0
100
AcDbBlockBegin
  2
*D25
 70
     1
 10
0.0
 20
0.0
 30
0.0
  3
*D25
  1

  0
LINE
  5
73CF
330
73CC
100
AcDbEntity
  8
DIM
 62
     0
370
    -2
100
AcDbLine
 10
-312.6376196202748
 20
1699.996489545848
 30
0.0
 11
-172.5208525201308
 21
1699.996489545848
 31
0.0
  0
LINE
  5
73D0
330
73CC
100
AcDbEntity
  8
DIM
 62
     0
370
    -2
100
AcDbLine
 10
-552.3711314728107
 20
1586.996489545848
 30
0.0
 11
-172.5208525201308
 21
1586.996489545848
 31
0.0
  0
LINE
  5
73D1
330
73CC
100
AcDbEntity
  8
DIM
 62
     0
370
    -2
100
AcDbLine
 10
-172.5208525201308
 20
1689.996489545848
 30
0.0
 11
-172.5208525201308
 21
1596.996489545848
 31
0.0
  0
INSERT
  5
73D2
330
73CC
100
AcDbEntity
  8
DIM
 62
     0
370
    -2
100
AcDbBlockReference
  2
_DOT
 10
-172.5208525201308
 20
1699.996489545848
 30
0.0
 41
10.0
 42
10.0
 43
10.0
 50
90.0
  0
INSERT
  5
73D3
330
73CC
100
AcDbEntity
  8
DIM
 62
     0
370
    -2
100
AcDbBlockReference
  2
_DOT
 10
-172.5208525201308
 20
1586.996489545848
 30
0.0
 41
10.0
 42
10.0
 43
10.0
 50
270.0
  0
MTEXT
  5
73D4
330
73CC
100
AcDbEntity
  8
DIM
 62
     0
100
AcDbMText
 10
-204.5208525201308
 20
1643.496489545848
 30
0.0
 40
24.0
 41
0.0
 46
0.0
 71
     5
 72
     1
  1
\A1;113
  7
ＭＳ ゴシック
 11
0.0
 21
1.0
 31
0.0
 73
     1
 44
1.0
  0
POINT
  5
73D5
330
73CC
100
AcDbEntity
  8
Defpoints
 62
     0
100
AcDbPoint
 10
-327.6376196202748
 20
1699.996489545848
 30
0.0
  0
POINT
  5
73D6
330
73CC
100
AcDbEntity
  8
Defpoints
 62
     0
100
AcDbPoint
 10
-567.3711314728107
 20
1586.996489545848
 30
0.0
  0
POINT
  5
73D7
330
73CC
100
AcDbEntity
  8
Defpoints
 62
     0
100
AcDbPoint
 10
-172.5208525201308
 20
1586.996489545848
 30
0.0
  0
ENDBLK
  5
73CE
330
73CC
100
AcDbEntity
  8
0
100
AcDbBlockEnd
  0
BLOCK
  5
74A2
330
74A1
100
AcDbEntity
  8
0
100
AcDbBlockBegin
  2
*D26
 70
     1
 10
0.0
 20
0.0
 30
0.0
  3
*D26
  1

  0
LINE
  5
74A4
330
74A1
100
AcDbEntity
  8
DIM
 62
     0
370
    -2
100
AcDbLine
 10
-416.0257394514208
 20
1714.935588414145
 30
0.0
 11
-416.0257394514208
 21
1790.445681010748
 31
0.0
  0
LINE
  5
74A5
330
74A1
100
AcDbEntity
  8
DIM
 62
     0
370
    -2
100
AcDbLine
 10
-941.1610234514196
 20
1714.935588414145
 30
0.0
 11
-941.1610234514196
 21
1790.445681010748
 31
0.0
  0
LINE
  5
74A6
330
74A1
100
AcDbEntity
  8
DIM
 62
     0
370
    -2
100
AcDbLine
 10
-426.0257394514208
 20
1790.445681010748
 30
0.0
 11
-931.1610234514196
 21
1790.445681010748
 31
0.0
  0
INSERT
  5
74A7
330
74A1
100
AcDbEntity
  8
DIM
 62
     0
370
    -2
100
AcDbBlockReference
  2
_DOT
 10
-416.0257394514208
 20
1790.445681010748
 30
0.0
 41
10.0
 42
10.0
 43
10.0
  0
INSERT
  5
74A8
330
74A1
100
AcDbEntity
  8
DIM
 62
     0
370
    -2
100
AcDbBlockReference
  2
_DOT
 10
-941.1610234514196
 20
1790.445681010748
 30
0.0
 41
10.0
 42
10.0
 43
10.0
 50
180.0
  0
MTEXT
  5
74A9
330
74A1
100
AcDbEntity
  8
DIM
 62
     0
100
AcDbMText
 10
-678.5933814514202
 20
1822.445681010748
 30
0.0
 40
24.0
 41
0.0
 46
0.0
 71
     5
 72
     1
  1
\A1;525
  7
ＭＳ ゴシック
 73
     1
 44
1.0
  0
POINT
  5
74AA
330
74A1
100
AcDbEntity
  8
Defpoints
 62
     0
100
AcDbPoint
 10
-416.0257394514208
 20
1699.935588414145
 30
0.0
  0
POINT
  5
74AB
330
74A1
100
AcDbEntity
  8
Defpoints
 62
     0
100
AcDbPoint
 10
-941.1610234514196
 20
1699.935588414145
 30
0.0
  0
POINT
  5
74AC
330
74A1
100
AcDbEntity
  8
Defpoints
 62
     0
100
AcDbPoint
 10
-941.1610234514196
 20
1790.445681010748
 30
0.0
  0
ENDBLK
  5
74A3
330
74A1
100
AcDbEntity
  8
0
100
AcDbBlockEnd
  0
BLOCK
  5
74C1
330
74C0
100
AcDbEntity
  8
0
100
AcDbBlockBegin
  2
*D27
 70
     1
 10
0.0
 20
0.0
 30
0.0
  3
*D27
  1

  0
LINE
  5
74C3
330
74C0
100
AcDbEntity
  8
DIM
 62
     0
370
    -2
100
AcDbLine
 10
-312.6376196202748
 20
1699.996489545848
 30
0.0
 11
-250.8468941902677
 21
1699.996489545848
 31
0.0
  0
LINE
  5
74C4
330
74C0
100
AcDbEntity
  8
DIM
 62
     0
370
    -2
100
AcDbLine
 10
-409.0718628470167
 20
1605.388530406356
 30
0.0
 11
-250.8468941902677
 21
1605.388530406356
 31
0.0
  0
LINE
  5
74C5
330
74C0
100
AcDbEntity
  8
DIM
 62
     0
370
    -2
100
AcDbLine
 10
-250.8468941902677
 20
1689.996489545848
 30
0.0
 11
-250.8468941902677
 21
1615.388530406356
 31
0.0
  0
INSERT
  5
74C6
330
74C0
100
AcDbEntity
  8
DIM
 62
     0
370
    -2
100
AcDbBlockReference
  2
_DOT
 10
-250.8468941902677
 20
1699.996489545848
 30
0.0
 41
10.0
 42
10.0
 43
10.0
 50
90.0
  0
INSERT
  5
74C7
330
74C0
100
AcDbEntity
  8
DIM
 62
     0
370
    -2
100
AcDbBlockReference
  2
_DOT
 10
-250.8468941902677
 20
1605.388530406356
 30
0.0
 41
10.0
 42
10.0
 43
10.0
 50
270.0
  0
MTEXT
  5
74C8
330
74C0
100
AcDbEntity
  8
DIM
 62
     0
100
AcDbMText
 10
-282.8468941902677
 20
1652.692509976102
 30
0.0
 40
24.0
 41
0.0
 46
0.0
 71
     5
 72
     1
  1
\A1;95
  7
ＭＳ ゴシック
 11
0.0
 21
1.0
 31
0.0
 73
     1
 44
1.0
  0
POINT
  5
74C9
330
74C0
100
AcDbEntity
  8
Defpoints
 62
     0
100
AcDbPoint
 10
-327.6376196202748
 20
1699.996489545848
 30
0.0
  0
POINT
  5
74CA
330
74C0
100
AcDbEntity
  8
Defpoints
 62
     0
100
AcDbPoint
 10
-424.0718628470167
 20
1605.388530406356
 30
0.0
  0
POINT
  5
74CB
330
74C0
100
AcDbEntity
  8
Defpoints
 62
     0
100
AcDbPoint
 10
-250.8468941902677
 20
1605.388530406356
 30
0.0
  0
ENDBLK
  5
74C2
330
74C0
100
AcDbEntity
  8
0
100
AcDbBlockEnd
  0
BLOCK
  5
7876
330
7875
100
AcDbEntity
  8
0
100
AcDbBlockBegin
  2
*D28
 70
     1
 10
0.0
 20
0.0
 30
0.0
  3
*D28
  1

  0
LINE
  5
7878
330
7875
100
AcDbEntity
  8
DIM
 62
     0
370
    -2
100
AcDbLine
 10
1670.929528031815
 20
1129.253778912369
 30
0.0
 11
1670.929528031815
 21
918.1927248680533
 31
0.0
  0
LINE
  5
7879
330
7875
100
AcDbEntity
  8
DIM
 62
     0
370
    -2
100
AcDbLine
 10
1540.929528031815
 20
981.7820233036201
 30
0.0
 11
1540.929528031815
 21
918.1927248680533
 31
0.0
  0
LINE
  5
787A
330
7875
100
AcDbEntity
  8
DIM
 62
     0
370
    -2
100
AcDbLine
 10
1660.929528031815
 20
918.1927248680533
 30
0.0
 11
1550.929528031815
 21
918.1927248680533
 31
0.0
  0
INSERT
  5
787B
330
7875
100
AcDbEntity
  8
DIM
 62
     0
370
    -2
100
AcDbBlockReference
  2
_DOT
 10
1670.929528031815
 20
918.1927248680533
 30
0.0
 41
10.0
 42
10.0
 43
10.0
  0
INSERT
  5
787C
330
7875
100
AcDbEntity
  8
DIM
 62
     0
370
    -2
100
AcDbBlockReference
  2
_DOT
 10
1540.929528031815
 20
918.1927248680533
 30
0.0
 41
10.0
 42
10.0
 43
10.0
 50
180.0
  0
MTEXT
  5
787D
330
7875
100
AcDbEntity
  8
DIM
 62
     0
100
AcDbMText
 10
1605.929528031815
 20
950.1927248680533
 30
0.0
 40
24.0
 41
0.0
 46
0.0
 71
     5
 72
     1
  1
\A1;130
  7
ＭＳ ゴシック
 73
     1
 44
1.0
  0
POINT
  5
787E
330
7875
100
AcDbEntity
  8
Defpoints
 62
     0
100
AcDbPoint
 10
1670.929528031815
 20
1144.253778912369
 30
0.0
  0
POINT
  5
787F
330
7875
100
AcDbEntity
  8
Defpoints
 62
     0
100
AcDbPoint
 10
1540.929528031815
 20
996.7820233036201
 30
0.0
  0
POINT
  5
7880
330
7875
100
AcDbEntity
  8
Defpoints
 62
     0
100
AcDbPoint
 10
1540.929528031815
 20
918.1927248680533
 30
0.0
  0
ENDBLK
  5
7877
330
7875
100
AcDbEntity
  8
0
100
AcDbBlockEnd
  0
BLOCK
  5
788A
330
7889
100
AcDbEntity
  8
0
100
AcDbBlockBegin
  2
*D29
 70
     1
 10
0.0
 20
0.0
 30
0.0
  3
*D29
  1

  0
LINE
  5
788C
330
7889
100
AcDbEntity
  8
DIM
 62
     0
370
    -2
100
AcDbLine
 10
2658.383859386988
 20
2180.346028048725
 30
0.0
 11
2658.383859386988
 21
2285.905239322336
 31
0.0
  0
LINE
  5
788D
330
7889
100
AcDbEntity
  8
DIM
 62
     0
370
    -2
100
AcDbLine
 10
2703.383859386988
 20
2180.346028048725
 30
0.0
 11
2703.383859386988
 21
2285.905239322336
 31
0.0
  0
LINE
  5
788E
330
7889
100
AcDbEntity
  8
DIM
 62
     0
370
    -2
100
AcDbLine
 10
2648.383859386988
 20
2285.905239322336
 30
0.0
 11
2638.383859386988
 21
2285.905239322336
 31
0.0
  0
LINE
  5
788F
330
7889
100
AcDbEntity
  8
DIM
 62
     0
370
    -2
100
AcDbLine
 10
2713.383859386988
 20
2285.905239322336
 30
0.0
 11
2723.383859386988
 21
2285.905239322336
 31
0.0
  0
INSERT
  5
7890
330
7889
100
AcDbEntity
  8
DIM
 62
     0
370
    -2
100
AcDbBlockReference
  2
_DOT
 10
2658.383859386988
 20
2285.905239322336
 30
0.0
 41
10.0
 42
10.0
 43
10.0
  0
INSERT
  5
7891
330
7889
100
AcDbEntity
  8
DIM
 62
     0
370
    -2
100
AcDbBlockReference
  2
_DOT
 10
2703.383859386988
 20
2285.905239322336
 30
0.0
 41
10.0
 42
10.0
 43
10.0
 50
180.0
  0
MTEXT
  5
7892
330
7889
100
AcDbEntity
  8
DIM
 62
     0
100
AcDbMText
 10
2680.883859386988
 20
2317.905239322336
 30
0.0
 40
24.0
 41
0.0
 46
0.0
 71
     5
 72
     1
  1
\A1;45
  7
ＭＳ ゴシック
 73
     1
 44
1.0
  0
POINT
  5
7893
330
7889
100
AcDbEntity
  8
Defpoints
 62
     0
100
AcDbPoint
 10
2658.383859386988
 20
2150.346028048725
 30
0.0
  0
POINT
  5
7894
330
7889
100
AcDbEntity
  8
Defpoints
 62
     0
100
AcDbPoint
 10
2703.383859386988
 20
2150.346028048725
 30
0.0
  0
POINT
  5
7895
330
7889
100
AcDbEntity
  8
Defpoints
 62
     0
100
AcDbPoint
 10
2703.383859386988
 20
2285.905239322336
 30
0.0
  0
ENDBLK
  5
788B
330
7889
100
AcDbEntity
  8
0
100
AcDbBlockEnd
  0
BLOCK
  5
789B
330
789A
100
AcDbEntity
  8
0
100
AcDbBlockBegin
  2
*D30
 70
     1
 10
0.0
 20
0.0
 30
0.0
  3
*D30
  1

  0
LINE
  5
789D
330
789A
100
AcDbEntity
  8
DIM
 62
     0
370
    -2
100
AcDbLine
 10
830.207181207179
 20
1994.12622910719
 30
0.0
 11
932.3835314206681
 21
1994.12622910719
 31
0.0
  0
LINE
  5
789E
330
789A
100
AcDbEntity
  8
DIM
 62
     0
370
    -2
100
AcDbLine
 10
858.2095168431651
 20
2124.124755806112
 30
0.0
 11
932.3835314206681
 21
2124.124755806112
 31
0.0
  0
LINE
  5
789F
330
789A
100
AcDbEntity
  8
DIM
 62
     0
370
    -2
100
AcDbLine
 10
932.3835314206681
 20
2004.12622910719
 30
0.0
 11
932.3835314206681
 21
2114.124755806112
 31
0.0
  0
INSERT
  5
78A0
330
789A
100
AcDbEntity
  8
DIM
 62
     0
370
    -2
100
AcDbBlockReference
  2
_DOT
 10
932.3835314206681
 20
1994.12622910719
 30
0.0
 41
10.0
 42
10.0
 43
10.0
 50
270.0
  0
INSERT
  5
78A1
330
789A
100
AcDbEntity
  8
DIM
 62
     0
370
    -2
100
AcDbBlockReference
  2
_DOT
 10
932.3835314206681
 20
2124.124755806112
 30
0.0
 41
10.0
 42
10.0
 43
10.0
 50
90.0
  0
MTEXT
  5
78A2
330
789A
100
AcDbEntity
  8
DIM
 62
     0
100
AcDbMText
 10
900.3835314206681
 20
2059.125492456651
 30
0.0
 40
24.0
 41
0.0
 46
0.0
 71
     5
 72
     1
  1
\A1;130
  7
ＭＳ ゴシック
 11
0.0
 21
1.0
 31
0.0
 73
     1
 44
1.0
  0
POINT
  5
78A3
330
789A
100
AcDbEntity
  8
Defpoints
 62
     0
100
AcDbPoint
 10
815.207181207179
 20
1994.12622910719
 30
0.0
  0
POINT
  5
78A4
330
789A
100
AcDbEntity
  8
Defpoints
 62
     0
100
AcDbPoint
 10
843.2095168431651
 20
2124.124755806112
 30
0.0
  0
POINT
  5
78A5
330
789A
100
AcDbEntity
  8
Defpoints
 62
     0
100
AcDbPoint
 10
932.3835314206681
 20
2124.124755806112
 30
0.0
  0
ENDBLK
  5
789C
330
789A
100
AcDbEntity
  8
0
100
AcDbBlockEnd
  0
BLOCK
  5
78AA
330
78A9
100
AcDbEntity
  8
0
100
AcDbBlockBegin
  2
*D31
 70
     1
 10
0.0
 20
0.0
 30
0.0
  3
*D31
  1

  0
LINE
  5
78AC
330
78A9
100
AcDbEntity
  8
DIM
 62
     0
370
    -2
100
AcDbLine
 10
842.7101278168752
 20
2131.705589277137
 30
0.0
 11
842.7101278168752
 21
2184.338509682449
 31
0.0
  0
LINE
  5
78AD
330
78A9
100
AcDbEntity
  8
DIM
 62
     0
370
    -2
100
AcDbLine
 10
797.707181207179
 20
2026.62622910719
 30
0.0
 11
797.707181207179
 21
2184.338509682449
 31
0.0
  0
LINE
  5
78AE
330
78A9
100
AcDbEntity
  8
DIM
 62
     0
370
    -2
100
AcDbLine
 10
832.7101278168752
 20
2184.338509682449
 30
0.0
 11
807.707181207179
 21
2184.338509682449
 31
0.0
  0
INSERT
  5
78AF
330
78A9
100
AcDbEntity
  8
DIM
 62
     0
370
    -2
100
AcDbBlockReference
  2
_DOT
 10
842.7101278168752
 20
2184.338509682449
 30
0.0
 41
10.0
 42
10.0
 43
10.0
  0
INSERT
  5
78B0
330
78A9
100
AcDbEntity
  8
DIM
 62
     0
370
    -2
100
AcDbBlockReference
  2
_DOT
 10
797.707181207179
 20
2184.338509682449
 30
0.0
 41
10.0
 42
10.0
 43
10.0
 50
180.0
  0
MTEXT
  5
78B1
330
78A9
100
AcDbEntity
  8
DIM
 62
     0
100
AcDbMText
 10
820.2086545120269
 20
2216.338509682449
 30
0.0
 40
24.0
 41
0.0
 46
0.0
 71
     5
 72
     1
  1
\A1;45
  7
ＭＳ ゴシック
 73
     1
 44
1.0
  0
POINT
  5
78B2
330
78A9
100
AcDbEntity
  8
Defpoints
 62
     0
100
AcDbPoint
 10
842.7101278168752
 20
2116.705589277137
 30
0.0
  0
POINT
  5
78B3
330
78A9
100
AcDbEntity
  8
Defpoints
 62
     0
100
AcDbPoint
 10
797.707181207179
 20
2011.62622910719
 30
0.0
  0
POINT
  5
78B4
330
78A9
100
AcDbEntity
  8
Defpoints
 62
     0
100
AcDbPoint
 10
797.707181207179
 20
2184.338509682449
 30
0.0
  0
ENDBLK
  5
78AB
330
78A9
100
AcDbEntity
  8
0
100
AcDbBlockEnd
  0
BLOCK
  5
78BA
330
78B9
100
AcDbEntity
  8
0
100
AcDbBlockBegin
  2
*D32
 70
     1
 10
0.0
 20
0.0
 30
0.0
  3
*D32
  1

  0
LINE
  5
78BC
330
78B9
100
AcDbEntity
  8
DIM
 62
     0
370
    -2
100
AcDbLine
 10
322.7130744114911
 20
2131.705589277138
 30
0.0
 11
322.7130744114911
 21
2184.338509682449
 31
0.0
  0
LINE
  5
78BD
330
78B9
100
AcDbEntity
  8
DIM
 62
     0
370
    -2
100
AcDbLine
 10
367.7160210211873
 20
2026.62622910719
 30
0.0
 11
367.7160210211873
 21
2184.338509682449
 31
0.0
  0
LINE
  5
78BE
330
78B9
100
AcDbEntity
  8
DIM
 62
     0
370
    -2
100
AcDbLine
 10
332.7130744114911
 20
2184.338509682449
 30
0.0
 11
357.7160210211873
 21
2184.338509682449
 31
0.0
  0
INSERT
  5
78BF
330
78B9
100
AcDbEntity
  8
DIM
 62
     0
370
    -2
100
AcDbBlockReference
  2
_DOT
 10
322.7130744114911
 20
2184.338509682449
 30
0.0
 41
10.0
 42
10.0
 43
10.0
 50
180.0
  0
INSERT
  5
78C0
330
78B9
100
AcDbEntity
  8
DIM
 62
     0
370
    -2
100
AcDbBlockReference
  2
_DOT
 10
367.7160210211873
 20
2184.338509682449
 30
0.0
 41
10.0
 42
10.0
 43
10.0
  0
MTEXT
  5
78C1
330
78B9
100
AcDbEntity
  8
DIM
 62
     0
100
AcDbMText
 10
345.2145477163399
 20
2216.338509682449
 30
0.0
 40
24.0
 41
0.0
 46
0.0
 71
     5
 72
     1
  1
\A1;45
  7
ＭＳ ゴシック
 73
     1
 44
1.0
  0
POINT
  5
78C2
330
78B9
100
AcDbEntity
  8
Defpoints
 62
     0
100
AcDbPoint
 10
322.7130744114911
 20
2116.705589277138
 30
0.0
  0
POINT
  5
78C3
330
78B9
100
AcDbEntity
  8
Defpoints
 62
     0
100
AcDbPoint
 10
367.7160210211873
 20
2011.62622910719
 30
0.0
  0
POINT
  5
78C4
330
78B9
100
AcDbEntity
  8
Defpoints
 62
     0
100
AcDbPoint
 10
367.7160210211873
 20
2184.338509682449
 30
0.0
  0
ENDBLK
  5
78BB
330
78B9
100
AcDbEntity
  8
0
100
AcDbBlockEnd
  0
BLOCK
  5
78CC
330
78CB
100
AcDbEntity
  8
0
100
AcDbBlockBegin
  2
*D33
 70
     1
 10
0.0
 20
0.0
 30
0.0
  3
*D33
  1

  0
LINE
  5
78CE
330
78CB
100
AcDbEntity
  8
DIM
 62
     0
370
    -2
100
AcDbLine
 10
2703.383859386988
 20
2194.916613537056
 30
0.0
 11
2703.383859386988
 21
2328.692491708507
 31
0.0
  0
LINE
  5
78CF
330
78CB
100
AcDbEntity
  8
DIM
 62
     0
370
    -2
100
AcDbLine
 10
3133.37501957298
 20
2194.916613537056
 30
0.0
 11
3133.37501957298
 21
2328.692491708507
 31
0.0
  0
LINE
  5
78D0
330
78CB
100
AcDbEntity
  8
DIM
 62
     0
370
    -2
100
AcDbLine
 10
2713.383859386988
 20
2328.692491708507
 30
0.0
 11
3123.37501957298
 21
2328.692491708507
 31
0.0
  0
INSERT
  5
78D1
330
78CB
100
AcDbEntity
  8
DIM
 62
     0
370
    -2
100
AcDbBlockReference
  2
_DOT
 10
2703.383859386988
 20
2328.692491708507
 30
0.0
 41
10.0
 42
10.0
 43
10.0
 50
180.0
  0
INSERT
  5
78D2
330
78CB
100
AcDbEntity
  8
DIM
 62
     0
370
    -2
100
AcDbBlockReference
  2
_DOT
 10
3133.37501957298
 20
2328.692491708507
 30
0.0
 41
10.0
 42
10.0
 43
10.0
  0
MTEXT
  5
78D3
330
78CB
100
AcDbEntity
  8
DIM
 62
     0
100
AcDbMText
 10
2918.379439479984
 20
2360.692491708507
 30
0.0
 40
24.0
 41
0.0
 46
0.0
 71
     5
 72
     1
  1
\A1;430
  7
ＭＳ ゴシック
 73
     1
 44
1.0
  0
POINT
  5
78D4
330
78CB
100
AcDbEntity
  8
Defpoints
 62
     0
100
AcDbPoint
 10
2703.383859386988
 20
2164.916613537056
 30
0.0
  0
POINT
  5
78D5
330
78CB
100
AcDbEntity
  8
Defpoints
 62
     0
100
AcDbPoint
 10
3133.37501957298
 20
2164.916613537056
 30
0.0
  0
POINT
  5
78D6
330
78CB
100
AcDbEntity
  8
Defpoints
 62
     0
100
AcDbPoint
 10
3133.37501957298
 20
2328.692491708507
 30
0.0
  0
ENDBLK
  5
78CD
330
78CB
100
AcDbEntity
  8
0
100
AcDbBlockEnd
  0
BLOCK
  5
78DB
330
78DA
100
AcDbEntity
  8
0
100
AcDbBlockBegin
  2
*D34
 70
     1
 10
0.0
 20
0.0
 30
0.0
  3
*D34
  1

  0
LINE
  5
78DD
330
78DA
100
AcDbEntity
  8
DIM
 62
     0
370
    -2
100
AcDbLine
 10
322.7130744114911
 20
2161.705589277138
 30
0.0
 11
322.7130744114911
 21
2260.642047929178
 31
0.0
  0
LINE
  5
78DE
330
78DA
100
AcDbEntity
  8
DIM
 62
     0
370
    -2
100
AcDbLine
 10
842.7101278168752
 20
2161.705589277137
 30
0.0
 11
842.7101278168752
 21
2260.642047929178
 31
0.0
  0
LINE
  5
78DF
330
78DA
100
AcDbEntity
  8
DIM
 62
     0
370
    -2
100
AcDbLine
 10
332.7130744114911
 20
2260.642047929178
 30
0.0
 11
832.7101278168752
 21
2260.642047929178
 31
0.0
  0
INSERT
  5
78E0
330
78DA
100
AcDbEntity
  8
DIM
 62
     0
370
    -2
100
AcDbBlockReference
  2
_DOT
 10
322.7130744114911
 20
2260.642047929178
 30
0.0
 41
10.0
 42
10.0
 43
10.0
 50
180.0
  0
INSERT
  5
78E1
330
78DA
100
AcDbEntity
  8
DIM
 62
     0
370
    -2
100
AcDbBlockReference
  2
_DOT
 10
842.7101278168752
 20
2260.642047929178
 30
0.0
 41
10.0
 42
10.0
 43
10.0
  0
MTEXT
  5
78E2
330
78DA
100
AcDbEntity
  8
DIM
 62
     0
100
AcDbMText
 10
582.7116011141829
 20
2292.642047929178
 30
0.0
 40
24.0
 41
0.0
 46
0.0
 71
     5
 72
     1
  1
\A1;520
  7
ＭＳ ゴシック
 73
     1
 44
1.0
  0
POINT
  5
78E3
330
78DA
100
AcDbEntity
  8
Defpoints
 62
     0
100
AcDbPoint
 10
322.7130744114911
 20
2146.705589277138
 30
0.0
  0
POINT
  5
78E4
330
78DA
100
AcDbEntity
  8
Defpoints
 62
     0
100
AcDbPoint
 10
842.7101278168752
 20
2146.705589277137
 30
0.0
  0
POINT
  5
78E5
330
78DA
100
AcDbEntity
  8
Defpoints
 62
     0
100
AcDbPoint
 10
842.7101278168752
 20
2260.642047929178
 30
0.0
  0
ENDBLK
  5
78DC
330
78DA
100
AcDbEntity
  8
0
100
AcDbBlockEnd
  0
BLOCK
  5
78EA
330
78E9
100
AcDbEntity
  8
0
100
AcDbBlockBegin
  2
*D35
 70
     1
 10
0.0
 20
0.0
 30
0.0
  3
*D35
  1

  0
LINE
  5
78EC
330
78E9
100
AcDbEntity
  8
DIM
 62
     0
370
    -2
100
AcDbLine
 10
888.2095168431651
 20
2124.124755806112
 30
0.0
 11
1022.656564016103
 21
2124.124755806112
 31
0.0
  0
LINE
  5
78ED
330
78E9
100
AcDbEntity
  8
DIM
 62
     0
370
    -2
100
AcDbLine
 10
850.1153374819401
 20
1864.12475579857
 30
0.0
 11
1022.656564016103
 21
1864.12475579857
 31
0.0
  0
LINE
  5
78EE
330
78E9
100
AcDbEntity
  8
DIM
 62
     0
370
    -2
100
AcDbLine
 10
1022.656564016103
 20
2114.124755806112
 30
0.0
 11
1022.656564016103
 21
1874.12475579857
 31
0.0
  0
INSERT
  5
78EF
330
78E9
100
AcDbEntity
  8
DIM
 62
     0
370
    -2
100
AcDbBlockReference
  2
_DOT
 10
1022.656564016103
 20
2124.124755806112
 30
0.0
 41
10.0
 42
10.0
 43
10.0
 50
90.0
  0
INSERT
  5
78F0
330
78E9
100
AcDbEntity
  8
DIM
 62
     0
370
    -2
100
AcDbBlockReference
  2
_DOT
 10
1022.656564016103
 20
1864.12475579857
 30
0.0
 41
10.0
 42
10.0
 43
10.0
 50
270.0
  0
MTEXT
  5
78F1
330
78E9
100
AcDbEntity
  8
DIM
 62
     0
100
AcDbMText
 10
990.656564016103
 20
1994.124755802341
 30
0.0
 40
24.0
 41
0.0
 46
0.0
 71
     5
 72
     1
  1
\A1;260
  7
ＭＳ ゴシック
 11
0.0
 21
1.0
 31
0.0
 73
     1
 44
1.0
  0
POINT
  5
78F2
330
78E9
100
AcDbEntity
  8
Defpoints
 62
     0
100
AcDbPoint
 10
873.2095168431651
 20
2124.124755806112
 30
0.0
  0
POINT
  5
78F3
330
78E9
100
AcDbEntity
  8
Defpoints
 62
     0
100
AcDbPoint
 10
835.1153374819401
 20
1864.12475579857
 30
0.0
  0
POINT
  5
78F4
330
78E9
100
AcDbEntity
  8
Defpoints
 62
     0
100
AcDbPoint
 10
1022.656564016103
 20
1864.12475579857
 30
0.0
  0
ENDBLK
  5
78EB
330
78E9
100
AcDbEntity
  8
0
100
AcDbBlockEnd
  0
BLOCK
  5
78F7
330
78F6
100
AcDbEntity
  8
0
100
AcDbBlockBegin
  2
*D36
 70
     1
 10
0.0
 20
0.0
 30
0.0
  3
*D36
  1

  0
LINE
  5
78F9
330
78F6
100
AcDbEntity
  8
DIM
 62
     0
370
    -2
100
AcDbLine
 10
422.7106944604011
 20
1898.55766228761
 30
0.0
 11
422.7106944604011
 21
1774.533450881992
 31
0.0
  0
LINE
  5
78FA
330
78F6
100
AcDbEntity
  8
DIM
 62
     0
370
    -2
100
AcDbLine
 10
742.7139810728099
 20
1898.55766228761
 30
0.0
 11
742.7139810728099
 21
1774.533450881992
 31
0.0
  0
LINE
  5
78FB
330
78F6
100
AcDbEntity
  8
DIM
 62
     0
370
    -2
100
AcDbLine
 10
432.7106944604011
 20
1774.533450881992
 30
0.0
 11
732.7139810728099
 21
1774.533450881992
 31
0.0
  0
INSERT
  5
78FC
330
78F6
100
AcDbEntity
  8
DIM
 62
     0
370
    -2
100
AcDbBlockReference
  2
_DOT
 10
422.7106944604011
 20
1774.533450881992
 30
0.0
 41
10.0
 42
10.0
 43
10.0
 50
180.0
  0
INSERT
  5
78FD
330
78F6
100
AcDbEntity
  8
DIM
 62
     0
370
    -2
100
AcDbBlockReference
  2
_DOT
 10
742.7139810728099
 20
1774.533450881992
 30
0.0
 41
10.0
 42
10.0
 43
10.0
  0
MTEXT
  5
78FE
330
78F6
100
AcDbEntity
  8
DIM
 62
     0
100
AcDbMText
 10
582.7123377666055
 20
1806.533450881992
 30
0.0
 40
24.0
 41
0.0
 46
0.0
 71
     5
 72
     1
  1
\A1;320
  7
ＭＳ ゴシック
 73
     1
 44
1.0
  0
POINT
  5
78FF
330
78F6
100
AcDbEntity
  8
Defpoints
 62
     0
100
AcDbPoint
 10
422.7106944604011
 20
1913.55766228761
 30
0.0
  0
POINT
  5
7900
330
78F6
100
AcDbEntity
  8
Defpoints
 62
     0
100
AcDbPoint
 10
742.7139810728099
 20
1913.55766228761
 30
0.0
  0
POINT
  5
7901
330
78F6
100
AcDbEntity
  8
Defpoints
 62
     0
100
AcDbPoint
 10
742.7139810728099
 20
1774.533450881992
 30
0.0
  0
ENDBLK
  5
78F8
330
78F6
100
AcDbEntity
  8
0
100
AcDbBlockEnd
  0
BLOCK
  5
7906
330
7905
100
AcDbEntity
  8
0
100
AcDbBlockBegin
  2
*D37
 70
     1
 10
0.0
 20
0.0
 30
0.0
  3
*D37
  1

  0
LINE
  5
7908
330
7905
100
AcDbEntity
  8
DIM
 62
     0
370
    -2
100
AcDbLine
 10
428.408145081014
 20
2084.123055837818
 30
0.0
 11
240.2384830023293
 21
2084.123055837818
 31
0.0
  0
LINE
  5
7909
330
7905
100
AcDbEntity
  8
DIM
 62
     0
370
    -2
100
AcDbLine
 10
422.7133577426803
 20
1904.127929071714
 30
0.0
 11
240.2384830023293
 21
1904.127929071714
 31
0.0
  0
LINE
  5
790A
330
7905
100
AcDbEntity
  8
DIM
 62
     0
370
    -2
100
AcDbLine
 10
240.2384830023293
 20
2074.123055837818
 30
0.0
 11
240.2384830023293
 21
1914.127929071714
 31
0.0
  0
INSERT
  5
790B
330
7905
100
AcDbEntity
  8
DIM
 62
     0
370
    -2
100
AcDbBlockReference
  2
_DOT
 10
240.2384830023293
 20
2084.123055837818
 30
0.0
 41
10.0
 42
10.0
 43
10.0
 50
90.0
  0
INSERT
  5
790C
330
7905
100
AcDbEntity
  8
DIM
 62
     0
370
    -2
100
AcDbBlockReference
  2
_DOT
 10
240.2384830023293
 20
1904.127929071714
 30
0.0
 41
10.0
 42
10.0
 43
10.0
 50
270.0
  0
MTEXT
  5
790D
330
7905
100
AcDbEntity
  8
DIM
 62
     0
100
AcDbMText
 10
208.2384830023293
 20
1994.125492454766
 30
0.0
 40
24.0
 41
0.0
 46
0.0
 71
     5
 72
     1
  1
\A1;180
  7
ＭＳ ゴシック
 11
0.0
 21
1.0
 31
0.0
 73
     1
 44
1.0
  0
POINT
  5
790E
330
7905
100
AcDbEntity
  8
Defpoints
 62
     0
100
AcDbPoint
 10
443.408145081014
 20
2084.123055837818
 30
0.0
  0
POINT
  5
790F
330
7905
100
AcDbEntity
  8
Defpoints
 62
     0
100
AcDbPoint
 10
437.7133577426803
 20
1904.127929071714
 30
0.0
  0
POINT
  5
7910
330
7905
100
AcDbEntity
  8
Defpoints
 62
     0
100
AcDbPoint
 10
240.2384830023293
 20
1904.127929071714
 30
0.0
  0
ENDBLK
  5
7907
330
7905
100
AcDbEntity
  8
0
100
AcDbBlockEnd
  0
BLOCK
  5
7918
330
7917
100
AcDbEntity
  8
0
100
AcDbBlockBegin
  2
*D38
 70
     1
 10
0.0
 20
0.0
 30
0.0
  3
*D38
  1

  0
LINE
  5
791A
330
7917
100
AcDbEntity
  8
DIM
 62
     0
370
    -2
100
AcDbLine
 10
851.2476539064792
 20
1156.905062286231
 30
0.0
 11
932.3835314206681
 21
1156.905062286231
 31
0.0
  0
LINE
  5
791B
330
7917
100
AcDbEntity
  8
DIM
 62
     0
370
    -2
100
AcDbLine
 10
625.1062314854548
 20
991.7214658311127
 30
0.0
 11
932.3835314206681
 21
991.7214658311127
 31
0.0
  0
LINE
  5
791C
330
7917
100
AcDbEntity
  8
DIM
 62
     0
370
    -2
100
AcDbLine
 10
932.3835314206681
 20
1146.905062286231
 30
0.0
 11
932.3835314206681
 21
1001.721465831113
 31
0.0
  0
INSERT
  5
791D
330
7917
100
AcDbEntity
  8
DIM
 62
     0
370
    -2
100
AcDbBlockReference
  2
_DOT
 10
932.3835314206681
 20
1156.905062286231
 30
0.0
 41
10.0
 42
10.0
 43
10.0
 50
90.0
  0
INSERT
  5
791E
330
7917
100
AcDbEntity
  8
DIM
 62
     0
370
    -2
100
AcDbBlockReference
  2
_DOT
 10
932.3835314206681
 20
991.7214658311127
 30
0.0
 41
10.0
 42
10.0
 43
10.0
 50
270.0
  0
MTEXT
  5
791F
330
7917
100
AcDbEntity
  8
DIM
 62
     0
100
AcDbMText
 10
900.3835314206681
 20
1074.313264058672
 30
0.0
 40
24.0
 41
0.0
 46
0.0
 71
     5
 72
     1
  1
\A1;165
  7
ＭＳ ゴシック
 11
0.0
 21
1.0
 31
0.0
 73
     1
 44
1.0
  0
POINT
  5
7920
330
7917
100
AcDbEntity
  8
Defpoints
 62
     0
100
AcDbPoint
 10
836.2476539064792
 20
1156.905062286231
 30
0.0
  0
POINT
  5
7921
330
7917
100
AcDbEntity
  8
Defpoints
 62
     0
100
AcDbPoint
 10
610.1062314854548
 20
991.7214658311127
 30
0.0
  0
POINT
  5
7922
330
7917
100
AcDbEntity
  8
Defpoints
 62
     0
100
AcDbPoint
 10
932.3835314206681
 20
991.7214658311127
 30
0.0
  0
ENDBLK
  5
7919
330
7917
100
AcDbEntity
  8
0
100
AcDbBlockEnd
  0
BLOCK
  5
7927
330
7926
100
AcDbEntity
  8
0
100
AcDbBlockBegin
  2
*D39
 70
     1
 10
0.0
 20
0.0
 30
0.0
  3
*D39
  1

  0
LINE
  5
7929
330
7926
100
AcDbEntity
  8
DIM
 62
     0
370
    -2
100
AcDbLine
 10
3824.764461829368
 20
732.9593875850295
 30
0.0
 11
3685.151771384875
 21
732.9593875850295
 31
0.0
  0
LINE
  5
792A
330
7926
100
AcDbEntity
  8
DIM
 62
     0
370
    -2
100
AcDbLine
 10
3732.374629369533
 20
893.0322354753188
 30
0.0
 11
3685.151771384875
 21
893.0322354753188
 31
0.0
  0
LINE
  5
792B
330
7926
100
AcDbEntity
  8
DIM
 62
     0
370
    -2
100
AcDbLine
 10
3685.151771384875
 20
742.9593875850295
 30
0.0
 11
3685.151771384875
 21
883.0322354753188
 31
0.0
  0
INSERT
  5
792C
330
7926
100
AcDbEntity
  8
DIM
 62
     0
370
    -2
100
AcDbBlockReference
  2
_DOT
 10
3685.151771384875
 20
732.9593875850295
 30
0.0
 41
10.0
 42
10.0
 43
10.0
 50
270.0
  0
INSERT
  5
792D
330
7926
100
AcDbEntity
  8
DIM
 62
     0
370
    -2
100
AcDbBlockReference
  2
_DOT
 10
3685.151771384875
 20
893.0322354753188
 30
0.0
 41
10.0
 42
10.0
 43
10.0
 50
90.0
  0
MTEXT
  5
792E
330
7926
100
AcDbEntity
  8
DIM
 62
     0
100
AcDbMText
 10
3653.151771384875
 20
812.9958115301741
 30
0.0
 40
24.0
 41
0.0
 46
0.0
 71
     5
 72
     1
  1
\A1;160
  7
ＭＳ ゴシック
 11
0.0
 21
1.0
 31
0.0
 73
     1
 44
1.0
  0
POINT
  5
792F
330
7926
100
AcDbEntity
  8
Defpoints
 62
     0
100
AcDbPoint
 10
3854.764461829368
 20
732.9593875850295
 30
0.0
  0
POINT
  5
7930
330
7926
100
AcDbEntity
  8
Defpoints
 62
     0
100
AcDbPoint
 10
3762.374629369533
 20
893.0322354753188
 30
0.0
  0
POINT
  5
7931
330
7926
100
AcDbEntity
  8
Defpoints
 62
     0
100
AcDbPoint
 10
3685.151771384875
 20
893.0322354753188
 30
0.0
  0
ENDBLK
  5
7928
330
7926
100
AcDbEntity
  8
0
100
AcDbBlockEnd
  0
BLOCK
  5
7960
330
795F
100
AcDbEntity
  8
0
100
AcDbBlockBegin
  2
*D40
 70
     1
 10
0.0
 20
0.0
 30
0.0
  3
*D40
  1

  0
LINE
  5
7962
330
795F
100
AcDbEntity
  8
DIM
 62
     0
370
    -2
100
AcDbLine
 10
1527.318063474822
 20
1051.885111244908
 30
0.0
 11
1541.289009132196
 21
1051.885111244908
 31
0.0
  0
LINE
  5
7963
330
795F
100
AcDbEntity
  8
DIM
 62
     0
370
    -2
100
AcDbLine
 10
1526.289009132196
 20
1156.905754805389
 30
0.0
 11
1541.289009132196
 21
1156.905754805389
 31
0.0
  0
LINE
  5
7964
330
795F
100
AcDbEntity
  8
DIM
 62
     0
370
    -2
100
AcDbLine
 10
1541.289009132196
 20
1156.905754805389
 30
0.0
 11
1541.289009132196
 21
1361.917111244908
 31
0.0
  0
LINE
  5
7965
330
795F
100
AcDbEntity
  8
DIM
 62
     0
370
    -2
100
AcDbLine
 10
1541.289009132196
 20
1061.885111244908
 30
0.0
 11
1541.289009132196
 21
1146.905754805389
 31
0.0
  0
LINE
  5
7966
330
795F
100
AcDbEntity
  8
DIM
 62
     0
370
    -2
100
AcDbLine
 10
1541.289009132196
 20
1146.905754805389
 30
0.0
 11
1541.289009132196
 21
1136.905754805389
 31
0.0
  0
INSERT
  5
7967
330
795F
100
AcDbEntity
  8
DIM
 62
     0
370
    -2
100
AcDbBlockReference
  2
_DOT
 10
1541.289009132196
 20
1051.885111244908
 30
0.0
 41
10.0
 42
10.0
 43
10.0
 50
270.0
  0
INSERT
  5
7968
330
795F
100
AcDbEntity
  8
DIM
 62
     0
370
    -2
100
AcDbBlockReference
  2
_DOT
 10
1541.289009132196
 20
1156.905754805389
 30
0.0
 41
10.0
 42
10.0
 43
10.0
 50
90.0
  0
MTEXT
  5
7969
330
795F
100
AcDbEntity
  8
DIM
 62
     0
100
AcDbMText
 10
1507.165009132196
 20
1276.901111244908
 30
0.0
 40
24.0
 41
0.0
 46
0.0
 71
     5
 72
     1
  1
\A1;105(深さ)
  7
ＭＳ ゴシック
 11
0.0
 21
1.0
 31
0.0
 73
     1
 44
1.0
  0
POINT
  5
796A
330
795F
100
AcDbEntity
  8
Defpoints
 62
     0
100
AcDbPoint
 10
1542.318063474822
 20
1051.885111244908
 30
0.0
  0
POINT
  5
796B
330
795F
100
AcDbEntity
  8
Defpoints
 62
     0
100
AcDbPoint
 10
1541.289009132196
 20
1156.905754805389
 30
0.0
  0
POINT
  5
796C
330
795F
100
AcDbEntity
  8
Defpoints
 62
     0
100
AcDbPoint
 10
1541.289009132196
 20
1156.905754805389
 30
0.0
  0
ENDBLK
  5
7961
330
795F
100
AcDbEntity
  8
0
100
AcDbBlockEnd
  0
BLOCK
  5
7972
330
7971
100
AcDbEntity
  8
0
100
AcDbBlockBegin
  2
*D41
 70
     1
 10
0.0
 20
0.0
 30
0.0
  3
*D41
  1

  0
LINE
  5
7974
330
7971
100
AcDbEntity
  8
DIM
 62
     0
370
    -2
100
AcDbLine
 10
1685.929528031815
 20
1144.253778912369
 30
0.0
 11
1721.820886725923
 21
1144.253778912369
 31
0.0
  0
LINE
  5
7975
330
7971
100
AcDbEntity
  8
DIM
 62
     0
370
    -2
100
AcDbLine
 10
1681.27222944505
 20
1156.888506673811
 30
0.0
 11
1721.820886725923
 21
1156.888506673811
 31
0.0
  0
LINE
  5
7976
330
7971
100
AcDbEntity
  8
DIM
 62
     0
370
    -2
100
AcDbLine
 10
1721.820886725923
 20
1156.888506673811
 30
0.0
 11
1721.820886725923
 21
1243.504506673811
 31
0.0
  0
LINE
  5
7977
330
7971
100
AcDbEntity
  8
DIM
 62
     0
370
    -2
100
AcDbLine
 10
1721.820886725923
 20
1154.253778912369
 30
0.0
 11
1721.820886725923
 21
1146.888506673811
 31
0.0
  0
LINE
  5
7978
330
7971
100
AcDbEntity
  8
DIM
 62
     0
370
    -2
100
AcDbLine
 10
1721.820886725923
 20
1146.888506673811
 30
0.0
 11
1721.820886725923
 21
1136.888506673811
 31
0.0
  0
INSERT
  5
7979
330
7971
100
AcDbEntity
  8
DIM
 62
     0
370
    -2
100
AcDbBlockReference
  2
_DOT
 10
1721.820886725923
 20
1144.253778912369
 30
0.0
 41
10.0
 42
10.0
 43
10.0
 50
270.0
  0
INSERT
  5
797A
330
7971
100
AcDbEntity
  8
DIM
 62
     0
370
    -2
100
AcDbBlockReference
  2
_DOT
 10
1721.820886725923
 20
1156.888506673811
 30
0.0
 41
10.0
 42
10.0
 43
10.0
 50
90.0
  0
MTEXT
  5
797B
330
7971
100
AcDbEntity
  8
DIM
 62
     0
100
AcDbMText
 10
1689.820886725923
 20
1210.352506673811
 30
0.0
 40
24.0
 41
0.0
 46
0.0
 71
     5
 72
     1
  1
\A1;13
  7
ＭＳ ゴシック
 11
0.0
 21
1.0
 31
0.0
 73
     1
 44
1.0
  0
POINT
  5
797C
330
7971
100
AcDbEntity
  8
Defpoints
 62
     0
100
AcDbPoint
 10
1670.929528031815
 20
1144.253778912369
 30
0.0
  0
POINT
  5
797D
330
7971
100
AcDbEntity
  8
Defpoints
 62
     0
100
AcDbPoint
 10
1666.27222944505
 20
1156.888506673811
 30
0.0
  0
POINT
  5
797E
330
7971
100
AcDbEntity
  8
Defpoints
 62
     0
100
AcDbPoint
 10
1721.820886725923
 20
1156.888506673811
 30
0.0
  0
ENDBLK
  5
7973
330
7971
100
AcDbEntity
  8
0
100
AcDbBlockEnd
  0
BLOCK
  5
798F
330
798E
100
AcDbEntity
  8
0
100
AcDbBlockBegin
  2
*D42
 70
     1
 10
0.0
 20
0.0
 30
0.0
  3
*D42
  1

  0
LINE
  5
7991
330
798E
100
AcDbEntity
  8
DIM
 62
     0
370
    -2
100
AcDbLine
 10
1401.550545934638
 20
1156.905062286231
 30
0.0
 11
1313.586735288195
 21
1156.905062286231
 31
0.0
  0
LINE
  5
7992
330
798E
100
AcDbEntity
  8
DIM
 62
     0
370
    -2
100
AcDbLine
 10
1403.756913305532
 20
1006.904948950737
 30
0.0
 11
1313.586735288195
 21
1006.904948950737
 31
0.0
  0
LINE
  5
7993
330
798E
100
AcDbEntity
  8
DIM
 62
     0
370
    -2
100
AcDbLine
 10
1313.586735288195
 20
1146.905062286231
 30
0.0
 11
1313.586735288195
 21
1016.904948950737
 31
0.0
  0
INSERT
  5
7994
330
798E
100
AcDbEntity
  8
DIM
 62
     0
370
    -2
100
AcDbBlockReference
  2
_DOT
 10
1313.586735288195
 20
1156.905062286231
 30
0.0
 41
10.0
 42
10.0
 43
10.0
 50
90.0
  0
INSERT
  5
7995
330
798E
100
AcDbEntity
  8
DIM
 62
     0
370
    -2
100
AcDbBlockReference
  2
_DOT
 10
1313.586735288195
 20
1006.904948950737
 30
0.0
 41
10.0
 42
10.0
 43
10.0
 50
270.0
  0
MTEXT
  5
7996
330
798E
100
AcDbEntity
  8
DIM
 62
     0
100
AcDbMText
 10
1281.586735288195
 20
1081.905005618484
 30
0.0
 40
24.0
 41
0.0
 46
0.0
 71
     5
 72
     1
  1
\A1;150
  7
ＭＳ ゴシック
 11
0.0
 21
1.0
 31
0.0
 73
     1
 44
1.0
  0
POINT
  5
7997
330
798E
100
AcDbEntity
  8
Defpoints
 62
     0
100
AcDbPoint
 10
1416.550545934638
 20
1156.905062286231
 30
0.0
  0
POINT
  5
7998
330
798E
100
AcDbEntity
  8
Defpoints
 62
     0
100
AcDbPoint
 10
1418.756913305532
 20
1006.904948950737
 30
0.0
  0
POINT
  5
7999
330
798E
100
AcDbEntity
  8
Defpoints
 62
     0
100
AcDbPoint
 10
1313.586735288195
 20
1006.904948950737
 30
0.0
  0
ENDBLK
  5
7990
330
798E
100
AcDbEntity
  8
0
100
AcDbBlockEnd
  0
BLOCK
  5
79B6
330
79B5
100
AcDbEntity
  8
0
100
AcDbBlockBegin
  2
*D43
 70
     1
 10
0.0
 20
0.0
 30
0.0
  3
*D43
  1

  0
LINE
  5
79B8
330
79B5
100
AcDbEntity
  8
DIM
 62
     0
370
    -2
100
AcDbLine
 10
1209.351425246721
 20
1939.046284837431
 30
0.0
 11
1146.487332767154
 21
1939.046284837431
 31
0.0
  0
LINE
  5
79B9
330
79B5
100
AcDbEntity
  8
DIM
 62
     0
370
    -2
100
AcDbLine
 10
1309.842742950767
 20
2119.046284837431
 30
0.0
 11
1146.487332767154
 21
2119.046284837431
 31
0.0
  0
LINE
  5
79BA
330
79B5
100
AcDbEntity
  8
DIM
 62
     0
370
    -2
100
AcDbLine
 10
1146.487332767154
 20
1949.046284837431
 30
0.0
 11
1146.487332767154
 21
2109.046284837431
 31
0.0
  0
INSERT
  5
79BB
330
79B5
100
AcDbEntity
  8
DIM
 62
     0
370
    -2
100
AcDbBlockReference
  2
_DOT
 10
1146.487332767154
 20
1939.046284837431
 30
0.0
 41
10.0
 42
10.0
 43
10.0
 50
270.0
  0
INSERT
  5
79BC
330
79B5
100
AcDbEntity
  8
DIM
 62
     0
370
    -2
100
AcDbBlockReference
  2
_DOT
 10
1146.487332767154
 20
2119.046284837431
 30
0.0
 41
10.0
 42
10.0
 43
10.0
 50
90.0
  0
MTEXT
  5
79BD
330
79B5
100
AcDbEntity
  8
DIM
 62
     0
100
AcDbMText
 10
1114.487332767154
 20
2029.046284837431
 30
0.0
 40
24.0
 41
0.0
 46
0.0
 71
     5
 72
     1
  1
\A1;180
  7
ＭＳ ゴシック
 11
0.0
 21
1.0
 31
0.0
 73
     1
 44
1.0
  0
POINT
  5
79BE
330
79B5
100
AcDbEntity
  8
Defpoints
 62
     0
100
AcDbPoint
 10
1224.351425246721
 20
1939.046284837431
 30
0.0
  0
POINT
  5
79BF
330
79B5
100
AcDbEntity
  8
Defpoints
 62
     0
100
AcDbPoint
 10
1324.842742950767
 20
2119.046284837431
 30
0.0
  0
POINT
  5
79C0
330
79B5
100
AcDbEntity
  8
Defpoints
 62
     0
100
AcDbPoint
 10
1146.487332767154
 20
2119.046284837431
 30
0.0
  0
ENDBLK
  5
79B7
330
79B5
100
AcDbEntity
  8
0
100
AcDbBlockEnd
  0
BLOCK
  5
79C5
330
79C4
100
AcDbEntity
  8
0
100
AcDbBlockBegin
  2
*D44
 70
     1
 10
0.0
 20
0.0
 30
0.0
  3
*D44
  1

  0
LINE
  5
79C7
330
79C4
100
AcDbEntity
  8
DIM
 62
     0
370
    -2
100
AcDbLine
 10
1321.31092885467
 20
2139.345930696383
 30
0.0
 11
1321.31092885467
 21
2240.464599789043
 31
0.0
  0
LINE
  5
79C8
330
79C4
100
AcDbEntity
  8
DIM
 62
     0
370
    -2
100
AcDbLine
 10
1818.374557046865
 20
2139.345930696387
 30
0.0
 11
1818.374557046865
 21
2240.464599789043
 31
0.0
  0
LINE
  5
79C9
330
79C4
100
AcDbEntity
  8
DIM
 62
     0
370
    -2
100
AcDbLine
 10
1331.31092885467
 20
2240.464599789043
 30
0.0
 11
1808.374557046865
 21
2240.464599789043
 31
0.0
  0
INSERT
  5
79CA
330
79C4
100
AcDbEntity
  8
DIM
 62
     0
370
    -2
100
AcDbBlockReference
  2
_DOT
 10
1321.31092885467
 20
2240.464599789043
 30
0.0
 41
10.0
 42
10.0
 43
10.0
 50
180.0
  0
INSERT
  5
79CB
330
79C4
100
AcDbEntity
  8
DIM
 62
     0
370
    -2
100
AcDbBlockReference
  2
_DOT
 10
1818.374557046865
 20
2240.464599789043
 30
0.0
 41
10.0
 42
10.0
 43
10.0
  0
MTEXT
  5
79CC
330
79C4
100
AcDbEntity
  8
DIM
 62
     0
100
AcDbMText
 10
1569.842742950767
 20
2272.464599789043
 30
0.0
 40
24.0
 41
0.0
 46
0.0
 71
     5
 72
     1
  1
\A1;497
  7
ＭＳ ゴシック
 73
     1
 44
1.0
  0
POINT
  5
79CD
330
79C4
100
AcDbEntity
  8
Defpoints
 62
     0
100
AcDbPoint
 10
1321.31092885467
 20
2109.345930696383
 30
0.0
  0
POINT
  5
79CE
330
79C4
100
AcDbEntity
  8
Defpoints
 62
     0
100
AcDbPoint
 10
1818.374557046865
 20
2109.345930696387
 30
0.0
  0
POINT
  5
79CF
330
79C4
100
AcDbEntity
  8
Defpoints
 62
     0
100
AcDbPoint
 10
1818.374557046865
 20
2240.464599789043
 30
0.0
  0
ENDBLK
  5
79C6
330
79C4
100
AcDbEntity
  8
0
100
AcDbBlockEnd
  0
BLOCK
  5
79F7
330
79F6
100
AcDbEntity
  8
0
100
AcDbBlockBegin
  2
*D45
 70
     1
 10
0.0
 20
0.0
 30
0.0
  3
*D45
  1

  0
LINE
  5
79F9
330
79F6
100
AcDbEntity
  8
DIM
 62
     0
370
    -2
100
AcDbLine
 10
1627.342742950767
 20
2124.124755806112
 30
0.0
 11
1686.902026645537
 21
2124.124755806112
 31
0.0
  0
LINE
  5
79FA
330
79F6
100
AcDbEntity
  8
DIM
 62
     0
370
    -2
100
AcDbLine
 10
1627.342742950767
 20
2119.046284837431
 30
0.0
 11
1686.902026645537
 21
2119.046284837431
 31
0.0
  0
LINE
  5
79FB
330
79F6
100
AcDbEntity
  8
DIM
 62
     0
370
    -2
100
AcDbLine
 10
1686.902026645537
 20
2124.124755806112
 30
0.0
 11
1686.902026645537
 21
2196.532755806113
 31
0.0
  0
LINE
  5
79FC
330
79F6
100
AcDbEntity
  8
DIM
 62
     0
370
    -2
100
AcDbLine
 10
1686.902026645537
 20
2114.124755806112
 30
0.0
 11
1686.902026645537
 21
2129.046284837431
 31
0.0
  0
LINE
  5
79FD
330
79F6
100
AcDbEntity
  8
DIM
 62
     0
370
    -2
100
AcDbLine
 10
1686.902026645537
 20
2114.124755806112
 30
0.0
 11
1686.902026645537
 21
2104.124755806112
 31
0.0
  0
INSERT
  5
79FE
330
79F6
100
AcDbEntity
  8
DIM
 62
     0
370
    -2
100
AcDbBlockReference
  2
_DOT
 10
1686.902026645537
 20
2124.124755806112
 30
0.0
 41
10.0
 42
10.0
 43
10.0
 50
90.0
  0
INSERT
  5
79FF
330
79F6
100
AcDbEntity
  8
DIM
 62
     0
370
    -2
100
AcDbBlockReference
  2
_DOT
 10
1686.902026645537
 20
2119.046284837431
 30
0.0
 41
10.0
 42
10.0
 43
10.0
 50
270.0
  0
MTEXT
  5
7A00
330
79F6
100
AcDbEntity
  8
DIM
 62
     0
100
AcDbMText
 10
1654.902026645537
 20
2170.328755806112
 30
0.0
 40
24.0
 41
0.0
 46
0.0
 71
     5
 72
     1
  1
\A1;5
  7
ＭＳ ゴシック
 11
0.0
 21
1.0
 31
0.0
 73
     1
 44
1.0
  0
POINT
  5
7A01
330
79F6
100
AcDbEntity
  8
Defpoints
 62
     0
100
AcDbPoint
 10
1612.342742950767
 20
2124.124755806112
 30
0.0
  0
POINT
  5
7A02
330
79F6
100
AcDbEntity
  8
Defpoints
 62
     0
100
AcDbPoint
 10
1612.342742950767
 20
2119.046284837431
 30
0.0
  0
POINT
  5
7A03
330
79F6
100
AcDbEntity
  8
Defpoints
 62
     0
100
AcDbPoint
 10
1686.902026645537
 20
2119.046284837431
 30
0.0
  0
ENDBLK
  5
79F8
330
79F6
100
AcDbEntity
  8
0
100
AcDbBlockEnd
  0
BLOCK
  5
7A09
330
7A08
100
AcDbEntity
  8
0
100
AcDbBlockBegin
  2
*D46
 70
     1
 10
0.0
 20
0.0
 30
0.0
  3
*D46
  1

  0
LINE
  5
7A0B
330
7A08
100
AcDbEntity
  8
DIM
 62
     0
370
    -2
100
AcDbLine
 10
1463.341334500063
 20
2139.124755806112
 30
0.0
 11
1463.341334500063
 21
2186.994022008897
 31
0.0
  0
LINE
  5
7A0C
330
7A08
100
AcDbEntity
  8
DIM
 62
     0
370
    -2
100
AcDbLine
 10
1548.341334500063
 20
2139.124755806112
 30
0.0
 11
1548.341334500063
 21
2186.994022008897
 31
0.0
  0
LINE
  5
7A0D
330
7A08
100
AcDbEntity
  8
DIM
 62
     0
370
    -2
100
AcDbLine
 10
1473.341334500063
 20
2186.994022008897
 30
0.0
 11
1538.341334500063
 21
2186.994022008897
 31
0.0
  0
INSERT
  5
7A0E
330
7A08
100
AcDbEntity
  8
DIM
 62
     0
370
    -2
100
AcDbBlockReference
  2
_DOT
 10
1463.341334500063
 20
2186.994022008897
 30
0.0
 41
10.0
 42
10.0
 43
10.0
 50
180.0
  0
INSERT
  5
7A0F
330
7A08
100
AcDbEntity
  8
DIM
 62
     0
370
    -2
100
AcDbBlockReference
  2
_DOT
 10
1548.341334500063
 20
2186.994022008897
 30
0.0
 41
10.0
 42
10.0
 43
10.0
  0
MTEXT
  5
7A10
330
7A08
100
AcDbEntity
  8
DIM
 62
     0
100
AcDbMText
 10
1505.841334500063
 20
2218.994022008897
 30
0.0
 40
24.0
 41
0.0
 46
0.0
 71
     5
 72
     1
  1
\A1;85
  7
ＭＳ ゴシック
 73
     1
 44
1.0
  0
POINT
  5
7A11
330
7A08
100
AcDbEntity
  8
Defpoints
 62
     0
100
AcDbPoint
 10
1463.341334500063
 20
2124.124755806112
 30
0.0
  0
POINT
  5
7A12
330
7A08
100
AcDbEntity
  8
Defpoints
 62
     0
100
AcDbPoint
 10
1548.341334500063
 20
2124.124755806112
 30
0.0
  0
POINT
  5
7A13
330
7A08
100
AcDbEntity
  8
Defpoints
 62
     0
100
AcDbPoint
 10
1548.341334500063
 20
2186.994022008897
 30
0.0
  0
ENDBLK
  5
7A0A
330
7A08
100
AcDbEntity
  8
0
100
AcDbBlockEnd
  0
BLOCK
  5
7A18
330
7A17
100
AcDbEntity
  8
0
100
AcDbBlockBegin
  2
*D47
 70
     1
 10
0.0
 20
0.0
 30
0.0
  3
*D47
  1

  0
LINE
  5
7A1A
330
7A17
100
AcDbEntity
  8
DIM
 62
     0
370
    -2
100
AcDbLine
 10
1260.841334500063
 20
2134.046284837431
 30
0.0
 11
1260.841334500063
 21
2252.301898632365
 31
0.0
  0
LINE
  5
7A1B
330
7A17
100
AcDbEntity
  8
DIM
 62
     0
370
    -2
100
AcDbLine
 10
1750.841334500063
 20
2134.046284837431
 30
0.0
 11
1750.841334500063
 21
2252.301898632365
 31
0.0
  0
LINE
  5
7A1C
330
7A17
100
AcDbEntity
  8
DIM
 62
     0
370
    -2
100
AcDbLine
 10
1270.841334500063
 20
2252.301898632365
 30
0.0
 11
1740.841334500063
 21
2252.301898632365
 31
0.0
  0
INSERT
  5
7A1D
330
7A17
100
AcDbEntity
  8
DIM
 62
     0
370
    -2
100
AcDbBlockReference
  2
_DOT
 10
1260.841334500063
 20
2252.301898632365
 30
0.0
 41
10.0
 42
10.0
 43
10.0
 50
180.0
  0
INSERT
  5
7A1E
330
7A17
100
AcDbEntity
  8
DIM
 62
     0
370
    -2
100
AcDbBlockReference
  2
_DOT
 10
1750.841334500063
 20
2252.301898632365
 30
0.0
 41
10.0
 42
10.0
 43
10.0
  0
MTEXT
  5
7A1F
330
7A17
100
AcDbEntity
  8
DIM
 62
     0
100
AcDbMText
 10
1505.841334500063
 20
2284.301898632365
 30
0.0
 40
24.0
 41
0.0
 46
0.0
 71
     5
 72
     1
  1
\A1;490
  7
ＭＳ ゴシック
 73
     1
 44
1.0
  0
POINT
  5
7A20
330
7A17
100
AcDbEntity
  8
Defpoints
 62
     0
100
AcDbPoint
 10
1260.841334500063
 20
2119.046284837431
 30
0.0
  0
POINT
  5
7A21
330
7A17
100
AcDbEntity
  8
Defpoints
 62
     0
100
AcDbPoint
 10
1750.841334500063
 20
2119.046284837431
 30
0.0
  0
POINT
  5
7A22
330
7A17
100
AcDbEntity
  8
Defpoints
 62
     0
100
AcDbPoint
 10
1750.841334500063
 20
2252.301898632365
 30
0.0
  0
ENDBLK
  5
7A19
330
7A17
100
AcDbEntity
  8
0
100
AcDbBlockEnd
  0
BLOCK
  5
7A39
330
7A38
100
AcDbEntity
  8
0
100
AcDbBlockBegin
  2
*D48
 70
     1
 10
0.0
 20
0.0
 30
0.0
  3
*D48
  1

  0
LINE
  5
7A3B
330
7A38
100
AcDbEntity
  8
DIM
 62
     0
370
    -2
100
AcDbLine
 10
1774.839090550815
 20
2124.124755806112
 30
0.0
 11
1900.193300581603
 21
2124.124755806112
 31
0.0
  0
LINE
  5
7A3C
330
7A38
100
AcDbEntity
  8
DIM
 62
     0
370
    -2
100
AcDbLine
 10
1842.649211923337
 20
1939.046284837432
 30
0.0
 11
1900.193300581603
 21
1939.046284837432
 31
0.0
  0
LINE
  5
7A3D
330
7A38
100
AcDbEntity
  8
DIM
 62
     0
370
    -2
100
AcDbLine
 10
1900.193300581603
 20
2114.124755806112
 30
0.0
 11
1900.193300581603
 21
1949.046284837432
 31
0.0
  0
INSERT
  5
7A3E
330
7A38
100
AcDbEntity
  8
DIM
 62
     0
370
    -2
100
AcDbBlockReference
  2
_DOT
 10
1900.193300581603
 20
2124.124755806112
 30
0.0
 41
10.0
 42
10.0
 43
10.0
 50
90.0
  0
INSERT
  5
7A3F
330
7A38
100
AcDbEntity
  8
DIM
 62
     0
370
    -2
100
AcDbBlockReference
  2
_DOT
 10
1900.193300581603
 20
1939.046284837432
 30
0.0
 41
10.0
 42
10.0
 43
10.0
 50
270.0
  0
MTEXT
  5
7A40
330
7A38
100
AcDbEntity
  8
DIM
 62
     0
100
AcDbMText
 10
1868.193300581603
 20
2031.585520321772
 30
0.0
 40
24.0
 41
0.0
 46
0.0
 71
     5
 72
     1
  1
\A1;185
  7
ＭＳ ゴシック
 11
0.0
 21
1.0
 31
0.0
 73
     1
 44
1.0
  0
POINT
  5
7A41
330
7A38
100
AcDbEntity
  8
Defpoints
 62
     0
100
AcDbPoint
 10
1759.839090550815
 20
2124.124755806112
 30
0.0
  0
POINT
  5
7A42
330
7A38
100
AcDbEntity
  8
Defpoints
 62
     0
100
AcDbPoint
 10
1827.649211923337
 20
1939.046284837432
 30
0.0
  0
POINT
  5
7A43
330
7A38
100
AcDbEntity
  8
Defpoints
 62
     0
100
AcDbPoint
 10
1900.193300581603
 20
1939.046284837432
 30
0.0
  0
ENDBLK
  5
7A3A
330
7A38
100
AcDbEntity
  8
0
100
AcDbBlockEnd
  0
BLOCK
  5
7A50
330
7A4F
100
AcDbEntity
  8
0
100
AcDbBlockBegin
  2
*D49
 70
     1
 10
0.0
 20
0.0
 30
0.0
  3
*D49
  1

  0
LINE
  5
7A52
330
7A4F
100
AcDbEntity
  8
DIM
 62
     0
370
    -2
100
AcDbLine
 10
367.7160210211873
 20
2026.62622910719
 30
0.0
 11
367.7160210211873
 21
2184.338509682449
 31
0.0
  0
LINE
  5
7A53
330
7A4F
100
AcDbEntity
  8
DIM
 62
     0
370
    -2
100
AcDbLine
 10
797.707181207179
 20
2026.62622910719
 30
0.0
 11
797.707181207179
 21
2184.338509682449
 31
0.0
  0
LINE
  5
7A54
330
7A4F
100
AcDbEntity
  8
DIM
 62
     0
370
    -2
100
AcDbLine
 10
377.7160210211873
 20
2184.338509682449
 30
0.0
 11
787.707181207179
 21
2184.338509682449
 31
0.0
  0
INSERT
  5
7A55
330
7A4F
100
AcDbEntity
  8
DIM
 62
     0
370
    -2
100
AcDbBlockReference
  2
_DOT
 10
367.7160210211873
 20
2184.338509682449
 30
0.0
 41
10.0
 42
10.0
 43
10.0
 50
180.0
  0
INSERT
  5
7A56
330
7A4F
100
AcDbEntity
  8
DIM
 62
     0
370
    -2
100
AcDbBlockReference
  2
_DOT
 10
797.707181207179
 20
2184.338509682449
 30
0.0
 41
10.0
 42
10.0
 43
10.0
  0
MTEXT
  5
7A57
330
7A4F
100
AcDbEntity
  8
DIM
 62
     0
100
AcDbMText
 10
582.7116011141832
 20
2216.338509682449
 30
0.0
 40
24.0
 41
0.0
 46
0.0
 71
     5
 72
     1
  1
\A1;430
  7
ＭＳ ゴシック
 73
     1
 44
1.0
  0
POINT
  5
7A58
330
7A4F
100
AcDbEntity
  8
Defpoints
 62
     0
100
AcDbPoint
 10
367.7160210211873
 20
2011.62622910719
 30
0.0
  0
POINT
  5
7A59
330
7A4F
100
AcDbEntity
  8
Defpoints
 62
     0
100
AcDbPoint
 10
797.707181207179
 20
2011.62622910719
 30
0.0
  0
POINT
  5
7A5A
330
7A4F
100
AcDbEntity
  8
Defpoints
 62
     0
100
AcDbPoint
 10
797.707181207179
 20
2184.338509682449
 30
0.0
  0
ENDBLK
  5
7A51
330
7A4F
100
AcDbEntity
  8
0
100
AcDbBlockEnd
  0
BLOCK
  5
7A6A
330
7A69
100
AcDbEntity
  8
0
100
AcDbBlockBegin
  2
*D50
 70
     1
 10
0.0
 20
0.0
 30
0.0
  3
*D50
  1

  0
LINE
  5
7A6C
330
7A69
100
AcDbEntity
  8
DIM
 62
     0
370
    -2
100
AcDbLine
 10
1410.929528031816
 20
999.234373857237
 30
0.0
 11
1410.929528031816
 21
839.8105093137889
 31
0.0
  0
LINE
  5
7A6D
330
7A69
100
AcDbEntity
  8
DIM
 62
     0
370
    -2
100
AcDbLine
 10
1480.929528031816
 20
991.904948950737
 30
0.0
 11
1480.929528031816
 21
839.8105093137889
 31
0.0
  0
LINE
  5
7A6E
330
7A69
100
AcDbEntity
  8
DIM
 62
     0
370
    -2
100
AcDbLine
 10
1420.929528031816
 20
839.8105093137889
 30
0.0
 11
1470.929528031816
 21
839.8105093137889
 31
0.0
  0
INSERT
  5
7A6F
330
7A69
100
AcDbEntity
  8
DIM
 62
     0
370
    -2
100
AcDbBlockReference
  2
_DOT
 10
1410.929528031816
 20
839.8105093137889
 30
0.0
 41
10.0
 42
10.0
 43
10.0
 50
180.0
  0
INSERT
  5
7A70
330
7A69
100
AcDbEntity
  8
DIM
 62
     0
370
    -2
100
AcDbBlockReference
  2
_DOT
 10
1480.929528031816
 20
839.8105093137889
 30
0.0
 41
10.0
 42
10.0
 43
10.0
  0
MTEXT
  5
7A71
330
7A69
100
AcDbEntity
  8
DIM
 62
     0
100
AcDbMText
 10
1445.929528031816
 20
871.8105093137889
 30
0.0
 40
24.0
 41
0.0
 46
0.0
 71
     5
 72
     1
  1
\A1;70
  7
ＭＳ ゴシック
 73
     1
 44
1.0
  0
POINT
  5
7A72
330
7A69
100
AcDbEntity
  8
Defpoints
 62
     0
100
AcDbPoint
 10
1410.929528031816
 20
1014.234373857237
 30
0.0
  0
POINT
  5
7A73
330
7A69
100
AcDbEntity
  8
Defpoints
 62
     0
100
AcDbPoint
 10
1480.929528031816
 20
1006.904948950737
 30
0.0
  0
POINT
  5
7A74
330
7A69
100
AcDbEntity
  8
Defpoints
 62
     0
100
AcDbPoint
 10
1480.929528031816
 20
839.8105093137889
 30
0.0
  0
ENDBLK
  5
7A6B
330
7A69
100
AcDbEntity
  8
0
100
AcDbBlockEnd
  0
BLOCK
  5
7AC6
330
7AC5
100
AcDbEntity
  8
0
100
AcDbBlockBegin
  2
*D51
 70
     1
 10
0.0
 20
0.0
 30
0.0
  3
*D51
  1

  0
LINE
  5
7AC8
330
7AC5
100
AcDbEntity
  8
DIM
 62
     0
370
    -2
100
AcDbLine
 10
1563.341334500063
 20
2124.124755806112
 30
0.0
 11
1617.131013613395
 21
2124.124755806112
 31
0.0
  0
LINE
  5
7AC9
330
7AC5
100
AcDbEntity
  8
DIM
 62
     0
370
    -2
100
AcDbLine
 10
1617.131013613395
 20
2124.124755806112
 30
0.0
 11
1617.131013613395
 21
2196.532755806113
 31
0.0
  0
LINE
  5
7ACA
330
7AC5
100
AcDbEntity
  8
DIM
 62
     0
370
    -2
100
AcDbLine
 10
1617.131013613395
 20
2114.124755806112
 30
0.0
 11
1617.131013613395
 21
2129.046284837431
 31
0.0
  0
LINE
  5
7ACB
330
7AC5
100
AcDbEntity
  8
DIM
 62
     0
370
    -2
100
AcDbLine
 10
1617.131013613395
 20
2114.124755806112
 30
0.0
 11
1617.131013613395
 21
2104.124755806112
 31
0.0
  0
INSERT
  5
7ACC
330
7AC5
100
AcDbEntity
  8
DIM
 62
     0
370
    -2
100
AcDbBlockReference
  2
_DOT
 10
1617.131013613395
 20
2124.124755806112
 30
0.0
 41
10.0
 42
10.0
 43
10.0
 50
90.0
  0
INSERT
  5
7ACD
330
7AC5
100
AcDbEntity
  8
DIM
 62
     0
370
    -2
100
AcDbBlockReference
  2
_DOT
 10
1617.131013613395
 20
2119.046284837431
 30
0.0
 41
10.0
 42
10.0
 43
10.0
 50
270.0
  0
MTEXT
  5
7ACE
330
7AC5
100
AcDbEntity
  8
DIM
 62
     0
100
AcDbMText
 10
1585.131013613395
 20
2170.328755806112
 30
0.0
 40
24.0
 41
0.0
 46
0.0
 71
     5
 72
     1
  1
\A1;5
  7
ＭＳ ゴシック
 11
0.0
 21
1.0
 31
0.0
 73
     1
 44
1.0
  0
POINT
  5
7ACF
330
7AC5
100
AcDbEntity
  8
Defpoints
 62
     0
100
AcDbPoint
 10
1548.341334500063
 20
2124.124755806112
 30
0.0
  0
POINT
  5
7AD0
330
7AC5
100
AcDbEntity
  8
Defpoints
 62
     0
100
AcDbPoint
 10
1548.341334500063
 20
2119.046284837431
 30
0.0
  0
POINT
  5
7AD1
330
7AC5
100
AcDbEntity
  8
Defpoints
 62
     0
100
AcDbPoint
 10
1617.131013613395
 20
2119.046284837431
 30
0.0
  0
ENDBLK
  5
7AC7
330
7AC5
100
AcDbEntity
  8
0
100
AcDbBlockEnd
  0
BLOCK
  5
7B2C
330
7B2B
100
AcDbEntity
  8
0
100
AcDbBlockBegin
  2
*D52
 70
     1
 10
0.0
 20
0.0
 30
0.0
  3
*D52
  1

  0
LINE
  5
7B2E
330
7B2B
100
AcDbEntity
  8
DIM
 62
     0
370
    -2
100
AcDbLine
 10
1480.929528031816
 20
976.904948950737
 30
0.0
 11
1480.929528031816
 21
839.8105093137889
 31
0.0
  0
LINE
  5
7B2F
330
7B2B
100
AcDbEntity
  8
DIM
 62
     0
370
    -2
100
AcDbLine
 10
1670.929528031815
 20
984.0141339426475
 30
0.0
 11
1670.929528031815
 21
839.8105093137889
 31
0.0
  0
LINE
  5
7B30
330
7B2B
100
AcDbEntity
  8
DIM
 62
     0
370
    -2
100
AcDbLine
 10
1490.929528031816
 20
839.8105093137889
 30
0.0
 11
1660.929528031815
 21
839.8105093137889
 31
0.0
  0
INSERT
  5
7B31
330
7B2B
100
AcDbEntity
  8
DIM
 62
     0
370
    -2
100
AcDbBlockReference
  2
_DOT
 10
1480.929528031816
 20
839.8105093137889
 30
0.0
 41
10.0
 42
10.0
 43
10.0
 50
180.0
  0
INSERT
  5
7B32
330
7B2B
100
AcDbEntity
  8
DIM
 62
     0
370
    -2
100
AcDbBlockReference
  2
_DOT
 10
1670.929528031815
 20
839.8105093137889
 30
0.0
 41
10.0
 42
10.0
 43
10.0
  0
MTEXT
  5
7B33
330
7B2B
100
AcDbEntity
  8
DIM
 62
     0
100
AcDbMText
 10
1575.929528031816
 20
871.8105093137889
 30
0.0
 40
24.0
 41
0.0
 46
0.0
 71
     5
 72
     1
  1
\A1;190
  7
ＭＳ ゴシック
 73
     1
 44
1.0
  0
POINT
  5
7B34
330
7B2B
100
AcDbEntity
  8
Defpoints
 62
     0
100
AcDbPoint
 10
1480.929528031816
 20
991.904948950737
 30
0.0
  0
POINT
  5
7B35
330
7B2B
100
AcDbEntity
  8
Defpoints
 62
     0
100
AcDbPoint
 10
1670.929528031815
 20
999.0141339426475
 30
0.0
  0
POINT
  5
7B36
330
7B2B
100
AcDbEntity
  8
Defpoints
 62
     0
100
AcDbPoint
 10
1670.929528031815
 20
839.8105093137889
 30
0.0
  0
ENDBLK
  5
7B2D
330
7B2B
100
AcDbEntity
  8
0
100
AcDbBlockEnd
  0
ENDSEC
  0
SECTION
  2
ENTITIES
  0
MTEXT
  5
177
330
A
100
AcDbEntity
  8
TEMPLATE
390
1D
100
AcDbMText
 10
79.20214454773075
 20
343.7317516314282
 30
0.0
 40
16.28841145833333
 41
0.0
 46
0.0
 71
     1
 72
     1
  1
品名
  7
ＭＳ ゴシック
 73
     1
 44
0.7828267384257843
  0
MTEXT
  5
178
330
A
100
AcDbEntity
  8
TEMPLATE
390
1D
100
AcDbMText
 10
79.20214454773075
 20
258.731751631428
 30
0.0
 40
16.28841145833333
 41
0.0
 46
0.0
 71
     1
 72
     1
  1
仕様
  7
ＭＳ ゴシック
 73
     1
 44
0.7828267384257843
  0
LINE
  5
179
330
A
100
AcDbEntity
  8
TEMPLATE
390
1D
100
AcDbLine
 10
2022.202144547248
 20
267.1466735064284
 30
0.0
 11
72.20214454724874
 21
267.1466735064284
 31
0.0
  0
LWPOLYLINE
  5
17A
330
A
100
AcDbEntity
  8
TEMPLATE
390
1D
100
AcDbPolyline
 90
        5
 70
   128
 43
0.0
 10
2022.202144547248
 20
2897.146673506426
 10
72.20214454724874
 20
2897.146673506426
 10
72.20214454724874
 20
97.14667350642826
 10
2022.202144547248
 20
97.14667350642826
 10
2022.202144547248
 20
2897.146673506426
  0
LINE
  5
17B
330
A
100
AcDbEntity
  8
TEMPLATE
390
1D
100
AcDbLine
 10
2022.202144547248
 20
352.1466735064282
 30
0.0
 11
72.20214454724874
 21
352.1466735064282
 31
0.0
  0
LINE
  5
17C
330
A
100
AcDbEntity
  8
TEMPLATE
390
1D
100
AcDbLine
 10
2022.202144547732
 20
182.1466735064282
 30
0.0
 11
1269.20214454773
 21
182.1466735064282
 31
0.0
  0
MTEXT
  5
17E
330
A
100
AcDbEntity
  8
TEMPLATE
390
1D
100
AcDbMText
 10
1299.073550799991
 20
152.2362790331201
 30
0.0
 40
24.4326171875
 41
0.0
 46
0.0
 71
     1
 72
     1
  1
大洋金物株式会社 ティーフォルム事業部
  7
ＭＳ ゴシック
 73
     1
 44
0.7828267384257843
  0
MTEXT
  5
180
330
A
100
AcDbEntity
  8
TEMPLATE
390
1D
100
AcDbMText
 10
1831.20214454799
 20
230.1492906939282
 30
0.0
 40
24.4326171875
 41
0.0
 46
24.4326171875
 71
     1
 72
     1
  1
{1:10}
  7
ＭＳ ゴシック
 73
     1
 44
0.7828267384257843
1001
ACAD
1000
ACAD_MTEXT_DEFINED_HEIGHT_BEGIN
1070
    46
1040
24.4326171875
1000
ACAD_MTEXT_DEFINED_HEIGHT_END
  0
MTEXT
  5
181
330
A
100
AcDbEntity
  8
TEMPLATE
390
1D
100
AcDbMText
 10
1778.20214454799
 20
258.731751631428
 30
0.0
 40
16.28841145833333
 41
0.0
 46
0.0
 71
     1
 72
     1
  1
縮尺
  7
ＭＳ ゴシック
 73
     1
 44
0.7828267384257843
  0
LINE
  5
182
330
A
100
AcDbEntity
  8
TEMPLATE
390
1D
100
AcDbLine
 10
1771.20214454799
 20
182.1466735064282
 30
0.0
 11
1771.20214454799
 21
267.1466735064284
 31
0.0
  0
MTEXT
  5
183
330
A
100
AcDbEntity
  8
TEMPLATE
390
1D
100
AcDbMText
 10
1527.20214454799
 20
258.731751631428
 30
0.0
 40
16.28841145833333
 41
0.0
 46
0.0
 71
     1
 72
     1
  1
容量
  7
ＭＳ ゴシック
 73
     1
 44
0.7828267384257843
  0
LINE
  5
184
330
A
100
AcDbEntity
  8
TEMPLATE
390
1D
100
AcDbLine
 10
1520.20214454799
 20
182.1466735064282
 30
0.0
 11
1520.20214454799
 21
267.1466735064284
 31
0.0
  0
MTEXT
  5
185
330
A
100
AcDbEntity
  8
TEMPLATE
390
1D
100
AcDbMText
 10
1276.20214454799
 20
343.7317516314282
 30
0.0
 40
16.28841145833333
 41
0.0
 46
0.0
 71
     1
 72
     1
  1
品番
  7
ＭＳ ゴシック
 73
     1
 44
0.7828267384257843
  0
MTEXT
  5
186
330
A
100
AcDbEntity
  8
TEMPLATE
390
1D
100
AcDbMText
 10
1276.20214454799
 20
258.731751631428
 30
0.0
 40
16.28841145833333
 41
0.0
 46
0.0
 71
     1
 72
     1
  1
重量
  7
ＭＳ ゴシック
 73
     1
 44
0.7828267384257843
  0
MTEXT
  5
187
330
A
100
AcDbEntity
  8
TEMPLATE
390
1D
100
AcDbMText
 10
1329.20214454799
 20
315.1492906939282
 30
0.0
 40
24.4326171875
 41
0.0
 46
24.4326171875
 71
     1
 72
     1
  1
{ALC70-0201}
  7
ＭＳ ゴシック
 73
     1
 44
0.7828267384257843
1001
ACAD
1000
ACAD_MTEXT_DEFINED_HEIGHT_BEGIN
1070
    46
1040
24.4326171875
1000
ACAD_MTEXT_DEFINED_HEIGHT_END
  0
LINE
  5
188
330
A
100
AcDbEntity
  8
TEMPLATE
390
1D
100
AcDbLine
 10
1269.20214454799
 20
97.14667350642826
 30
0.0
 11
1269.20214454799
 21
352.1466735064282
 31
0.0
  0
MTEXT
  5
189
330
A
100
AcDbEntity
  8
TEMPLATE
390
1D
100
AcDbMText
 10
132.2021445477307
 20
315.1492906939282
 30
0.0
 40
24.4326171875
 41
0.0
 46
27.5355595703125
 71
     1
 72
     1
  1
{手洗器　-ALICE CERAMICA, Ice-}
  7
ＭＳ ゴシック
 73
     1
 44
0.7828267384257843
1001
ACAD
1000
ACAD_MTEXT_DEFINED_HEIGHT_BEGIN
1070
    46
1040
27.5355595703125
1000
ACAD_MTEXT_DEFINED_HEIGHT_END
  0
INSERT
  5
6B5
330
A
100
AcDbEntity
  8
TEMPLATE
100
AcDbBlockReference
  2
名称未設定-1
 10
1870.75074808845
 20
25.94676575665382
 30
0.0
 41
0.7619999999999998
 42
0.7619999999999998
 43
0.7619999999999998
  0
MTEXT
  5
7D9
330
A
100
AcDbEntity
  8
TEMPLATE
390
1D
100
AcDbMText
 10
125.2543452760364
 20
226.8119760293952
 30
0.0
 40
24.4326171875
 41
0.0
 46
65.53388229864815
 71
     1
 72
     1
  1
{せり出し半埋め込み\H0.982293x;/オーバーフロー付き\P\H1.01803x;陶器/ホワイト}
  7
ＭＳ ゴシック
 73
     1
 44
0.9331787841240657
1001
ACAD
1000
ACAD_MTEXT_DEFINED_HEIGHT_BEGIN
1070
    46
1040
65.53388229864815
1000
ACAD_MTEXT_DEFINED_HEIGHT_END
  0
INSERT
  5
68C
330
A
100
AcDbEntity
  8
TEMPLATE
100
AcDbBlockReference
  2
block 2
 10
919.2743017702577
 20
8.373076514336368
 30
0.0
 41
0.3809999999999999
 42
0.3809999999999999
 43
0.3809999999999999
  0
LWPOLYLINE
  5
DAC
330
A
100
AcDbEntity
  8
BORDER
100
AcDbPolyline
 90
        4
 70
     1
 43
0.0
 10
0.0
 20
0.0
 10
0.0
 20
2970.0
 10
2100.0
 20
2970.0
 10
2100.0
 20
0.0
  0
MTEXT
  5
121B
330
A
100
AcDbEntity
  8
TEMPLATE
390
1D
100
AcDbMText
 10
1329.20214454799
 20
227.1688729773101
 30
0.0
 40
24.4326171875
 41
0.0
 46
28.390701171875
 71
     1
 72
     1
  1
{8.5kg}
  7
ＭＳ ゴシック
 73
     1
 44
0.7828267384257843
1001
ACAD
1000
ACAD_MTEXT_DEFINED_HEIGHT_BEGIN
1070
    46
1040
28.390701171875
1000
ACAD_MTEXT_DEFINED_HEIGHT_END
  0
MTEXT
  5
1466
102
{ACAD_XDICTIONARY
360
1468
102
}
330
A
100
AcDbEntity
  8
TEMPLATE
 48
0.05
100
AcDbMText
 10
74.728656548571
 20
83.86172105142839
 30
0.0
 40
22.0
 41
0.0
 46
22.0
 71
     1
 72
     1
  1
{20171017N}
  7
ＭＳ ゴシック
 73
     1
 44
1.0
1001
ACAD
1000
ACAD_MTEXT_DEFINED_HEIGHT_BEGIN
1070
    46
1040
22.0
1000
ACAD_MTEXT_DEFINED_HEIGHT_END
  0
MTEXT
  5
146D
330
A
100
AcDbEntity
  8
TEMPLATE
390
1D
100
AcDbMText
 10
1583.904999862276
 20
227.1688729773101
 30
0.0
 40
24.4326171875
 41
0.0
 46
24.4326171875
 71
     1
 72
     1
  1
{3.7L}
  7
ＭＳ ゴシック
 73
     1
 44
0.7828267384257843
1001
ACAD
1000
ACAD_MTEXT_DEFINED_HEIGHT_BEGIN
1070
    46
1040
24.4326171875
1000
ACAD_MTEXT_DEFINED_HEIGHT_END
  0
POINT
  5
262A
330
A
100
AcDbEntity
  8
Layer9
  6
Continuous
 62
     7
100
AcDbPoint
 10
1037.460145007193
 20
1010.220672371878
 30
0.0
  0
POINT
  5
262B
330
A
100
AcDbEntity
  8
Layer9
  6
Continuous
 62
     7
100
AcDbPoint
 10
1037.460146257193
 20
1010.220672788578
 30
0.0
  0
POINT
  5
262C
330
A
100
AcDbEntity
  8
Layer9
  6
Continuous
 62
     7
100
AcDbPoint
 10
1037.853693340493
 20
1015.267975288578
 30
0.0
  0
POINT
  5
2812
330
A
100
AcDbEntity
  8
Layer9
  6
Continuous
 62
     7
100
AcDbPoint
 10
925.7934783404928
 20
1010.220672371878
 30
0.0
  0
POINT
  5
2813
330
A
100
AcDbEntity
  8
Layer9
  6
Continuous
 62
     7
100
AcDbPoint
 10
925.7934795904928
 20
1010.220672788578
 30
0.0
  0
POINT
  5
2814
330
A
100
AcDbEntity
  8
Layer9
  6
Continuous
 62
     7
100
AcDbPoint
 10
926.1870266737928
 20
1015.267975288578
 30
0.0
  0
INSERT
  5
28CA
330
A
100
AcDbEntity
  8
Layer3
100
AcDbBlockReference
  2
SEANNOT_GROUP
 10
859.7083018867928
 20
826.1905269541776
 30
0.0
  0
POINT
  5
2A52
330
A
100
AcDbEntity
  8
Standard
  6
Continuous
 62
     7
100
AcDbPoint
 10
1036.111241014893
 20
1018.794321538578
 30
0.0
  0
INSERT
  5
2B9B
330
A
100
AcDbEntity
  8
Layer3
100
AcDbBlockReference
  2
SEANNOT_GROUP1
 10
859.7083018867928
 20
826.1905269541776
 30
0.0
  0
POINT
  5
3DC5
330
A
100
AcDbEntity
  8
0
 62
     7
370
     5
390
1D
100
AcDbPoint
 10
2860.881281762558
 20
1768.55574720548
 30
0.0
  0
POINT
  5
44F2
330
A
100
AcDbEntity
  8
0
 62
     7
370
     5
390
1D
100
AcDbPoint
 10
5817.611311358976
 20
1551.534519945206
 30
0.0
  0
POINT
  5
44F3
330
A
100
AcDbEntity
  8
0
 62
     7
370
     5
390
1D
100
AcDbPoint
 10
5817.611311358976
 20
1551.534489945206
 30
0.0
  0
POINT
  5
44F4
330
A
100
AcDbEntity
  8
0
 62
     7
370
     5
390
1D
100
AcDbPoint
 10
6218.094556358977
 20
1764.774113945206
 30
0.0
  0
POINT
  5
44F5
330
A
100
AcDbEntity
  8
0
 62
     7
370
     5
390
1D
100
AcDbPoint
 10
5417.136762358977
 20
1750.298771945206
 30
0.0
  0
POINT
  5
44F6
330
A
100
AcDbEntity
  8
0
 62
     7
370
     5
390
1D
100
AcDbPoint
 10
5817.611311358976
 20
1551.075108945206
 30
0.0
  0
POINT
  5
4A0C
330
A
100
AcDbEntity
  8
0
 62
     7
370
     5
390
1D
100
AcDbPoint
 10
2962.169743257284
 20
1212.963434821918
 30
0.0
  0
POINT
  5
4A0D
330
A
100
AcDbEntity
  8
0
 62
     7
370
     5
390
1D
100
AcDbPoint
 10
2669.114873257284
 20
1211.245752821918
 30
0.0
  0
POINT
  5
4A0E
330
A
100
AcDbEntity
  8
0
 62
     7
370
     5
390
1D
100
AcDbPoint
 10
2969.602971257284
 20
1438.299677821918
 30
0.0
  0
POINT
  5
4A0F
330
A
100
AcDbEntity
  8
0
 62
     7
370
     5
390
1D
100
AcDbPoint
 10
2969.602971257284
 20
1438.299677821918
 30
0.0
  0
POINT
  5
4A10
330
A
100
AcDbEntity
  8
0
 62
     7
370
     5
390
1D
100
AcDbPoint
 10
2368.627812257283
 20
1433.663157821918
 30
0.0
  0
ELLIPSE
  5
6144
330
A
100
AcDbEntity
  8
HIDDEN
 48
0.25
100
AcDbEllipse
 10
582.7116011141809
 20
1131.585980037105
 30
0.0
 11
-12.5
 21
2.300000000000000E-15
 31
0.0
210
0.0
220
0.0
230
1.0
 40
0.9961946980917696
 41
0.0
 42
6.283185307179586
  0
POINT
  5
6F8C
330
A
100
AcDbEntity
  8
0
 62
     7
370
     5
390
1D
100
AcDbPoint
 10
5003.123517647325
 20
2248.31005990411
 30
0.0
  0
POINT
  5
6F8D
330
A
100
AcDbEntity
  8
0
 62
     7
370
     5
390
1D
100
AcDbPoint
 10
4753.350873647325
 20
2230.00723390411
 30
0.0
  0
SPLINE
  5
7689
102
{ACAD_REACTORS
330
7904
102
}
330
A
100
AcDbEntity
  8
MODEL
100
AcDbSpline
210
0.0
220
0.0
230
1.0
 70
    11
 71
     3
 72
    29
 73
    25
 74
     0
 42
0.000000001
 43
0.0000000001
 40
0.0
 40
0.0
 40
0.0
 40
0.0
 40
1.0
 40
1.0
 40
1.0
 40
2.0
 40
2.0
 40
2.0
 40
3.0
 40
3.0
 40
3.0
 40
4.0
 40
4.0
 40
4.0
 40
5.0
 40
5.0
 40
5.0
 40
6.0
 40
6.0
 40
6.0
 40
7.0
 40
7.0
 40
7.0
 40
8.0
 40
8.0
 40
8.0
 40
8.0
 10
437.7133577426803
 20
1904.127929071714
 30
0.0
 10
437.7133577426803
 20
1904.127929071714
 30
0.0
 10
727.7083711808332
 20
1904.127929071714
 30
0.0
 10
727.7083711808332
 20
1904.127929071714
 30
0.0
 10
735.9942376543213
 20
1904.127929071714
 30
0.0
 10
742.7139810728099
 20
1910.841779270805
 30
0.0
 10
742.7139810728099
 20
1919.126172439444
 30
0.0
 10
742.7139810728099
 20
1919.126172439444
 30
0.0
 10
742.7139810728099
 20
2069.127759079786
 30
0.0
 10
742.7139810728099
 20
2069.127759079786
 30
0.0
 10
742.7139810728099
 20
2077.409205638727
 30
0.0
 10
735.9942376543213
 20
2084.123055837818
 30
0.0
 10
727.7083711808332
 20
2084.123055837818
 30
0.0
 10
727.7083711808332
 20
2084.123055837818
 30
0.0
 10
437.7133577426803
 20
2084.123055837818
 30
0.0
 10
437.7133577426803
 20
2084.123055837818
 30
0.0
 10
429.4304378788902
 20
2084.123055837818
 30
0.0
 10
422.7106944604011
 20
2077.409205638727
 30
0.0
 10
422.7106944604011
 20
2069.127759079786
 30
0.0
 10
422.7106944604011
 20
2069.127759079786
 30
0.0
 10
422.7106944604011
 20
1919.126172439444
 30
0.0
 10
422.7106944604011
 20
1919.126172439444
 30
0.0
 10
422.7106944604011
 20
1910.841779270805
 30
0.0
 10
429.4304378788902
 20
1904.127929071714
 30
0.0
 10
437.7133577426803
 20
1904.127929071714
 30
0.0
  0
SPLINE
  5
768A
102
{ACAD_REACTORS
330
78E8
102
}
330
A
100
AcDbEntity
  8
MODEL
100
AcDbSpline
210
0.0
220
0.0
230
1.0
 70
    11
 71
     3
 72
    29
 73
    25
 74
     0
 42
0.000000001
 43
0.0000000001
 40
0.0
 40
0.0
 40
0.0
 40
0.0
 40
1.0
 40
1.0
 40
1.0
 40
2.0
 40
2.0
 40
2.0
 40
3.0
 40
3.0
 40
3.0
 40
4.0
 40
4.0
 40
4.0
 40
5.0
 40
5.0
 40
5.0
 40
6.0
 40
6.0
 40
6.0
 40
7.0
 40
7.0
 40
7.0
 40
8.0
 40
8.0
 40
8.0
 40
8.0
 10
328.7167916731282
 20
1864.12475579857
 30
0.0
 10
328.7167916731282
 20
1864.12475579857
 30
0.0
 10
836.7108304697822
 20
1864.12475579857
 30
0.0
 10
836.7108304697822
 20
1864.12475579857
 30
0.0
 10
840.0242930762679
 20
1864.12475579857
 30
0.0
 10
842.7101278168752
 20
1866.813537148875
 30
0.0
 10
842.7101278168752
 20
1870.125526450512
 30
0.0
 10
842.7101278168752
 20
1870.125526450512
 30
0.0
 10
842.7101278168752
 20
2118.123985154171
 30
0.0
 10
842.7101278168752
 20
2118.123985154171
 30
0.0
 10
842.7101278168752
 20
2121.435974455808
 30
0.0
 10
840.0242930762679
 20
2124.124755806112
 30
0.0
 10
836.7108304697822
 20
2124.124755806112
 30
0.0
 10
836.7108304697822
 20
2124.124755806112
 30
0.0
 10
328.7167916731282
 20
2124.124755806112
 30
0.0
 10
328.7167916731282
 20
2124.124755806112
 30
0.0
 10
325.4003824569431
 20
2124.124755806112
 30
0.0
 10
322.7160210211873
 20
2121.435974455808
 30
0.0
 10
322.7160210211873
 20
2118.123985154171
 30
0.0
 10
322.7160210211873
 20
2118.123985154171
 30
0.0
 10
322.7160210211873
 20
1870.125526450512
 30
0.0
 10
322.7160210211873
 20
1870.125526450512
 30
0.0
 10
322.7160210211873
 20
1866.813537148875
 30
0.0
 10
325.4003824569431
 20
1864.12475579857
 30
0.0
 10
328.7167916731282
 20
1864.12475579857
 30
0.0
  0
SPLINE
  5
768B
330
A
100
AcDbEntity
  8
MODEL
100
AcDbSpline
210
0.0
220
0.0
230
1.0
 70
    11
 71
     3
 72
    17
 73
    13
 74
     0
 42
0.000000001
 43
0.0000000001
 40
0.0
 40
0.0
 40
0.0
 40
0.0
 40
1.0
 40
1.0
 40
1.0
 40
2.0
 40
2.0
 40
2.0
 40
3.0
 40
3.0
 40
3.0
 40
4.0
 40
4.0
 40
4.0
 40
4.0
 10
605.2133860803251
 20
1994.126229107191
 30
0.0
 10
605.2133860803251
 20
2006.552082207724
 30
0.0
 10
595.1389275195643
 20
2016.623594158787
 30
0.0
 10
582.710127809331
 20
2016.623594158787
 30
0.0
 10
570.284274708797
 20
2016.623594158787
 30
0.0
 10
560.2127627577361
 20
2006.552082207724
 30
0.0
 10
560.2127627577361
 20
1994.126229107191
 30
0.0
 10
560.2127627577361
 20
1981.700376006657
 30
0.0
 10
570.284274708797
 20
1971.625917445898
 30
0.0
 10
582.710127809331
 20
1971.625917445898
 30
0.0
 10
595.1389275195643
 20
1971.625917445898
 30
0.0
 10
605.2133860803251
 20
1981.700376006657
 30
0.0
 10
605.2133860803251
 20
1994.126229107191
 30
0.0
  0
SPLINE
  5
768C
330
A
100
AcDbEntity
  8
MODEL
100
AcDbSpline
210
0.0
220
0.0
230
1.0
 70
    11
 71
     3
 72
    17
 73
    13
 74
     0
 42
0.000000001
 43
0.0000000001
 40
0.0
 40
0.0
 40
0.0
 40
0.0
 40
1.0
 40
1.0
 40
1.0
 40
2.0
 40
2.0
 40
2.0
 40
3.0
 40
3.0
 40
3.0
 40
4.0
 40
4.0
 40
4.0
 40
4.0
 10
617.712904423332
 20
1994.126229107191
 30
0.0
 10
617.712904423332
 20
2013.454515427549
 30
0.0
 10
602.0443073490892
 20
2029.124585806643
 30
0.0
 10
582.7116011141811
 20
2029.124585806643
 30
0.0
 10
563.3862614035211
 20
2029.124585806643
 30
0.0
 10
547.7132444147292
 20
2013.454515427549
 30
0.0
 10
547.7132444147292
 20
1994.126229107191
 30
0.0
 10
547.7132444147292
 20
1974.793522872285
 30
0.0
 10
563.3862614035211
 20
1959.12492579804
 30
0.0
 10
582.7116011141811
 20
1959.12492579804
 30
0.0
 10
602.0443073490892
 20
1959.12492579804
 30
0.0
 10
617.712904423332
 20
1974.793522872285
 30
0.0
 10
617.712904423332
 20
1994.126229107191
 30
0.0
  0
SPLINE
  5
7697
330
A
100
AcDbEntity
  8
MODEL
100
AcDbSpline
210
0.0
220
0.0
230
1.0
 70
    11
 71
     3
 72
    29
 73
    25
 74
     0
 42
0.000000001
 43
0.0000000001
 40
0.0
 40
0.0
 40
0.0
 40
0.0
 40
1.0
 40
1.0
 40
1.0
 40
2.0
 40
2.0
 40
2.0
 40
3.0
 40
3.0
 40
3.0
 40
4.0
 40
4.0
 40
4.0
 40
5.0
 40
5.0
 40
5.0
 40
6.0
 40
6.0
 40
6.0
 40
7.0
 40
7.0
 40
7.0
 40
8.0
 40
8.0
 40
8.0
 40
8.0
 10
842.7101278168752
 20
1011.908292219579
 30
0.0
 10
842.7101278168752
 20
1011.908292219579
 30
0.0
 10
842.7101278168752
 20
1151.907612236787
 30
0.0
 10
842.7101278168752
 20
1151.907612236787
 30
0.0
 10
842.7101278168752
 20
1154.668585524717
 30
0.0
 10
840.4707044456622
 20
1156.905062286231
 30
0.0
 10
837.7097311577322
 20
1156.905062286231
 30
0.0
 10
837.7097311577322
 20
1156.905062286231
 30
0.0
 10
327.7149443754802
 20
1156.905062286231
 30
0.0
 10
327.7149443754802
 20
1156.905062286231
 30
0.0
 10
324.9554443924003
 20
1156.905062286231
 30
0.0
 10
322.7160210211873
 20
1154.668585524717
 30
0.0
 10
322.7160210211873
 20
1151.907612236787
 30
0.0
 10
322.7160210211873
 20
1151.907612236787
 30
0.0
 10
322.7160210211873
 20
1011.908292219579
 30
0.0
 10
322.7160210211873
 20
1011.908292219579
 30
0.0
 10
322.7160210211873
 20
1009.147318931649
 30
0.0
 10
324.9554443924003
 20
1006.907895560436
 30
0.0
 10
327.7149443754802
 20
1006.907895560436
 30
0.0
 10
327.7149443754802
 20
1006.907895560436
 30
0.0
 10
837.7097311577322
 20
1006.907895560436
 30
0.0
 10
837.7097311577322
 20
1006.907895560436
 30
0.0
 10
840.4707044456622
 20
1006.907895560436
 30
0.0
 10
842.7101278168752
 20
1009.147318931649
 30
0.0
 10
842.7101278168752
 20
1011.908292219579
 30
0.0
  0
SPLINE
  5
76C5
330
A
100
AcDbEntity
  8
MODEL
100
AcDbSpline
210
0.0
220
0.0
230
1.0
 70
     8
 71
     3
 72
    11
 73
     7
 74
     0
 42
0.000000001
 43
0.0000000001
 40
13.0
 40
13.0
 40
13.0
 40
13.0
 40
14.0
 40
14.0
 40
14.0
 40
14.37777420931593
 40
14.37777420931593
 40
14.37777420931593
 40
14.37777420931593
 10
1514.093280202265
 20
991.6566404177356
 30
0.0
 10
1511.329360304637
 20
991.6566404177356
 30
0.0
 10
1509.089936933424
 20
993.8960637889486
 30
0.0
 10
1509.089936933424
 20
996.6599836865773
 30
0.0
 10
1509.089936933424
 20
996.6599836865773
 30
0.0
 10
1509.089936933424
 20
998.9692722911993
 30
0.0
 10
1509.089936933424
 20
1006.904948950737
 30
0.0
  0
LINE
  5
76CE
330
A
100
AcDbEntity
  8
MODEL
100
AcDbLine
 10
1446.380189320059
 20
1156.905062286231
 30
0.0
 11
1636.197828944334
 21
1156.906447324546
 31
0.0
  0
LINE
  5
76D0
330
A
100
AcDbEntity
  8
MODEL
100
AcDbLine
 10
1475.928791381275
 20
1006.904948950737
 30
0.0
 11
1509.089936933424
 21
1006.904948950737
 31
0.0
  0
SPLINE
  5
76E3
330
A
100
AcDbEntity
  8
MODEL
100
AcDbSpline
210
0.0
220
0.0
230
1.0
 70
     8
 71
     3
 72
    20
 73
    16
 74
     0
 42
0.000000001
 43
0.0000000001
 40
31.98405588609359
 40
31.98405588609359
 40
31.98405588609359
 40
31.98405588609359
 40
32.0
 40
32.0
 40
32.0
 40
33.0
 40
33.0
 40
33.0
 40
34.0
 40
34.0
 40
34.0
 40
35.0
 40
35.0
 40
35.0
 40
36.0
 40
36.0
 40
36.0
 40
36.0
 10
1636.197828944334
 20
1156.906447324546
 30
0.0
 10
1636.220372715839
 20
1156.906507126355
 30
0.0
 10
1636.24296665985
 20
1156.90653559108
 30
0.0
 10
1636.265611540737
 20
1156.90653559108
 30
0.0
 10
1636.265611540737
 20
1156.90653559108
 30
0.0
 10
1645.344116023247
 20
1156.90653559108
 30
0.0
 10
1645.344116023247
 20
1156.90653559108
 30
0.0
 10
1645.344116023247
 20
1156.90653559108
 30
0.0
 10
1663.498178378568
 20
1156.90653559108
 30
0.0
 10
1663.498178378568
 20
1156.90653559108
 30
0.0
 10
1663.498178378568
 20
1156.90653559108
 30
0.0
 10
1665.767067846771
 20
1156.90653559108
 30
0.0
 10
1665.767067846771
 20
1156.90653559108
 30
0.0
 10
1666.518453320006
 20
1156.90653559108
 30
0.0
 10
1667.205013379866
 20
1156.797511032218
 30
0.0
 10
1667.903359878521
 20
1156.495483538075
 30
0.0
  0
SPLINE
  5
76E4
330
A
100
AcDbEntity
  8
MODEL
100
AcDbSpline
210
0.0
220
0.0
230
1.0
 70
     8
 71
     3
 72
     8
 73
     4
 74
     0
 42
0.000000001
 43
0.0000000001
 40
36.0
 40
36.0
 40
36.0
 40
36.0
 40
37.0
 40
37.0
 40
37.0
 40
37.0
 10
1667.903359878521
 20
1156.495483538075
 30
0.0
 10
1669.367824898905
 20
1155.864909062496
 30
0.0
 10
1670.44039082933
 20
1154.577240624049
 30
0.0
 10
1670.881203294187
 20
1152.334132472887
 30
0.0
  0
SPLINE
  5
76E8
330
A
100
AcDbEntity
  8
MODEL
100
AcDbSpline
210
0.0
220
0.0
230
1.0
 70
     8
 71
     3
 72
    14
 73
    10
 74
     0
 42
0.000000001
 43
0.0000000001
 40
48.0
 40
48.0
 40
48.0
 40
48.0
 40
49.0
 40
49.0
 40
49.0
 40
50.0
 40
50.0
 40
50.0
 40
51.0
 40
51.0
 40
51.0
 40
51.0
 10
1575.329722966147
 20
1006.829810403413
 30
0.0
 10
1573.974282504625
 20
1006.527782909269
 30
0.0
 10
1572.76322591835
 20
1005.686525840215
 30
0.0
 10
1572.76322591835
 20
1004.126296004613
 30
0.0
 10
1572.76322591835
 20
1004.126296004613
 30
0.0
 10
1572.76322591835
 20
1001.863299755808
 30
0.0
 10
1572.76322591835
 20
1001.863299755808
 30
0.0
 10
1572.76322591835
 20
998.3034323873322
 30
0.0
 10
1572.651254749789
 20
996.3950368114205
 30
0.0
 10
1572.350700560495
 20
994.6680755300772
 30
0.0
  0
SPLINE
  5
76E9
330
A
100
AcDbEntity
  8
MODEL
100
AcDbSpline
210
0.0
220
0.0
230
1.0
 70
     8
 71
     3
 72
     8
 73
     4
 74
     0
 42
0.000000001
 43
0.0000000001
 40
51.0
 40
51.0
 40
51.0
 40
51.0
 40
52.0
 40
52.0
 40
52.0
 40
52.0
 10
1572.350700560495
 20
994.6680755300772
 30
0.0
 10
1571.717179475217
 20
993.2109770339393
 30
0.0
 10
1570.43245764647
 20
992.1398844083656
 30
0.0
 10
1568.882540944814
 20
991.7862912444898
 30
0.0
  0
LINE
  5
76EC
330
A
100
AcDbEntity
  8
MODEL
100
AcDbLine
 10
1514.093280202265
 20
991.6566404177356
 30
0.0
 11
1568.882540944814
 21
991.7862912444898
 31
0.0
  0
SPLINE
  5
77EC
330
A
100
AcDbEntity
  8
HIDDEN
100
AcDbSpline
210
0.0
220
0.0
230
1.0
 70
    11
 71
     3
 72
    29
 73
    25
 74
     0
 42
0.000000001
 43
0.0000000001
 40
0.0
 40
0.0
 40
0.0
 40
0.0
 40
1.0
 40
1.0
 40
1.0
 40
2.0
 40
2.0
 40
2.0
 40
3.0
 40
3.0
 40
3.0
 40
4.0
 40
4.0
 40
4.0
 40
5.0
 40
5.0
 40
5.0
 40
6.0
 40
6.0
 40
6.0
 40
7.0
 40
7.0
 40
7.0
 40
8.0
 40
8.0
 40
8.0
 40
8.0
 10
1360.841617823712
 20
1904.127929071715
 30
0.0
 10
1360.841617823712
 20
1904.127929071715
 30
0.0
 10
1650.836631261865
 20
1904.127929071715
 30
0.0
 10
1650.836631261865
 20
1904.127929071715
 30
0.0
 10
1659.122497735353
 20
1904.127929071715
 30
0.0
 10
1665.842241153842
 20
1910.841779270806
 30
0.0
 10
1665.842241153842
 20
1919.126172439444
 30
0.0
 10
1665.842241153842
 20
1919.126172439444
 30
0.0
 10
1665.842241153842
 20
2069.127759079786
 30
0.0
 10
1665.842241153842
 20
2069.127759079786
 30
0.0
 10
1665.842241153842
 20
2077.409205638728
 30
0.0
 10
1659.122497735353
 20
2084.123055837818
 30
0.0
 10
1650.836631261865
 20
2084.123055837818
 30
0.0
 10
1650.836631261865
 20
2084.123055837818
 30
0.0
 10
1360.841617823712
 20
2084.123055837818
 30
0.0
 10
1360.841617823712
 20
2084.123055837818
 30
0.0
 10
1352.558697959922
 20
2084.123055837818
 30
0.0
 10
1345.838954541434
 20
2077.409205638728
 30
0.0
 10
1345.838954541434
 20
2069.127759079786
 30
0.0
 10
1345.838954541434
 20
2069.127759079786
 30
0.0
 10
1345.838954541434
 20
1919.126172439444
 30
0.0
 10
1345.838954541434
 20
1919.126172439444
 30
0.0
 10
1345.838954541434
 20
1910.841779270806
 30
0.0
 10
1352.558697959922
 20
1904.127929071715
 30
0.0
 10
1360.841617823712
 20
1904.127929071715
 30
0.0
  0
SPLINE
  5
77ED
330
A
100
AcDbEntity
  8
HIDDEN
100
AcDbSpline
210
0.0
220
0.0
230
1.0
 70
    11
 71
     3
 72
    29
 73
    25
 74
     0
 42
0.000000001
 43
0.0000000001
 40
0.0
 40
0.0
 40
0.0
 40
0.0
 40
1.0
 40
1.0
 40
1.0
 40
2.0
 40
2.0
 40
2.0
 40
3.0
 40
3.0
 40
3.0
 40
4.0
 40
4.0
 40
4.0
 40
5.0
 40
5.0
 40
5.0
 40
6.0
 40
6.0
 40
6.0
 40
7.0
 40
7.0
 40
7.0
 40
8.0
 40
8.0
 40
8.0
 40
8.0
 10
1251.84505175416
 20
1864.124755798571
 30
0.0
 10
1251.84505175416
 20
1864.124755798571
 30
0.0
 10
1759.839090550815
 20
1864.124755798571
 30
0.0
 10
1759.839090550815
 20
1864.124755798571
 30
0.0
 10
1763.1525531573
 20
1864.124755798571
 30
0.0
 10
1765.838387897907
 20
1866.813537148875
 30
0.0
 10
1765.838387897907
 20
1870.125526450513
 30
0.0
 10
1765.838387897907
 20
1870.125526450513
 30
0.0
 10
1765.838387897907
 20
2118.123985154171
 30
0.0
 10
1765.838387897907
 20
2118.123985154171
 30
0.0
 10
1765.838387897907
 20
2121.435974455808
 30
0.0
 10
1763.1525531573
 20
2124.124755806112
 30
0.0
 10
1759.839090550815
 20
2124.124755806112
 30
0.0
 10
1759.839090550815
 20
2124.124755806112
 30
0.0
 10
1251.84505175416
 20
2124.124755806112
 30
0.0
 10
1251.84505175416
 20
2124.124755806112
 30
0.0
 10
1248.528642537977
 20
2124.124755806112
 30
0.0
 10
1245.844281102219
 20
2121.435974455808
 30
0.0
 10
1245.844281102219
 20
2118.123985154171
 30
0.0
 10
1245.844281102219
 20
2118.123985154171
 30
0.0
 10
1245.844281102219
 20
1870.125526450513
 30
0.0
 10
1245.844281102219
 20
1870.125526450513
 30
0.0
 10
1245.844281102219
 20
1866.813537148875
 30
0.0
 10
1248.528642537977
 20
1864.124755798571
 30
0.0
 10
1251.84505175416
 20
1864.124755798571
 30
0.0
  0
MTEXT
  5
7802
330
A
100
AcDbEntity
  8
notes
 62
     7
390
1D
100
AcDbMText
 10
219.604476575232
 20
1569.486019189922
 30
0.0
 40
24.4326171875
 41
919.6335985116467
 46
0.0
 71
     1
 72
     1
  1
＝φ30もしくはφ35の水栓取付用穴あけ加工を承ります。\P   必要な場合、ご注文の際にご指示ください。
  7
ＭＳ ゴシック
 73
     1
 44
1.043768984567712
  0
CIRCLE
  5
7803
330
A
100
AcDbEntity
  8
HIDDEN
 48
0.5
100
AcDbCircle
 10
188.040483144375
 20
1555.434203545412
 30
0.0
 40
17.5
  0
MTEXT
  5
7804
330
A
100
AcDbEntity
  8
TEMPLATE
390
1D
100
AcDbMText
 10
1183.536889841839
 20
1569.364410434658
 30
0.0
 40
24.0
 41
949.7161250932045
 46
111.8331968503937
 71
     1
 72
     1
  1
{{\C7;※陶器製品には寸法公差があります。\P  洗面器の収め方をご確認の上、必ず現物を合わせて\P  カウンターの切込を行ってください。}}
  7
ＭＳ ゴシック
 73
     1
 44
0.9822934569727008
1001
ACAD
1000
ACAD_MTEXT_DEFINED_HEIGHT_BEGIN
1070
    46
1040
111.8331968503937
1000
ACAD_MTEXT_DEFINED_HEIGHT_END
  0
SPLINE
  5
7840
102
{ACAD_REACTORS
330
786A
102
}
330
A
100
AcDbEntity
  8
HIDDEN
 48
0.5
100
AcDbSpline
210
0.0
220
0.0
230
1.0
 70
  1064
 71
     3
 72
    28
 73
    24
 74
    22
 42
0.000000001
 43
0.0000000001
 44
0.0
 40
0.0
 40
0.0
 40
0.0
 40
0.0
 40
1.894896454299558
 40
5.222072279234373
 40
7.222925532026525
 40
8.505288751298847
 40
13.74216909539221
 40
29.57170229569147
 40
42.22981504457493
 40
58.49893167568695
 40
75.7809197406458
 40
87.06054007588811
 40
97.14639154287497
 40
104.359337520459
 40
105.802846753722
 40
108.4818459300144
 40
111.7167490477881
 40
116.6667230344438
 40
123.0538343698495
 40
129.6970850525073
 40
136.900064756672
 40
141.0887840935072
 40
142.7365164033997
 40
142.7365164033997
 40
142.7365164033997
 40
142.7365164033997
 10
422.7106944604011
 20
1156.905062286231
 30
0.0
 10
423.3433076989224
 20
1156.83065413383
 30
0.0
 10
425.0867021988503
 20
1156.625595567637
 30
0.0
 10
427.0916631605542
 20
1154.838760607943
 30
0.0
 10
427.6963512228479
 20
1152.682908893122
 30
0.0
 10
427.9135941336984
 20
1149.850869829043
 30
0.0
 10
428.6710171575897
 20
1142.439561118726
 30
0.0
 10
429.697955173948
 20
1131.244746573795
 30
0.0
 10
431.0995549012566
 20
1116.393179656919
 30
0.0
 10
432.689506276127
 20
1101.065300072865
 30
0.0
 10
433.6918557057552
 20
1086.173528756269
 30
0.0
 10
434.8745313337078
 20
1073.294707859455
 30
0.0
 10
435.774599383201
 20
1063.948119060542
 30
0.0
 10
438.0530617335413
 20
1057.653651179373
 30
0.0
 10
441.0687872542115
 20
1055.337629032107
 30
0.0
 10
443.2838709894925
 20
1054.192459916685
 30
0.0
 10
446.9325075426268
 20
1053.81868124595
 30
0.0
 10
451.7677457016707
 20
1053.626850362333
 30
0.0
 10
457.7575502562
 20
1053.264313142425
 30
0.0
 10
464.4898195413396
 20
1052.898092110701
 30
0.0
 10
470.4926058285256
 20
1052.560862601918
 30
0.0
 10
474.8322708598902
 20
1052.319168417694
 30
0.0
 10
476.7747486405814
 20
1052.210986561279
 30
0.0
 10
477.3231440688701
 20
1052.180444932401
 30
0.0
 11
422.7106944604011
 21
1156.905062286231
 31
0.0
 11
424.5698448975563
 21
1156.538739717253
 31
0.0
 11
427.0731501197183
 21
1154.347036741317
 31
0.0
 11
427.6816250225552
 21
1152.440948592299
 31
0.0
 11
427.8148802099622
 21
1151.165527688765
 31
0.0
 11
428.3075426336632
 21
1145.951872591367
 31
0.0
 11
429.8021371976961
 21
1130.19305574401
 31
0.0
 11
431.0035980604621
 21
1117.5920910921
 31
0.0
 11
432.5596003285941
 21
1101.397554578254
 31
0.0
 11
433.9122575175611
 21
1084.168583918156
 31
0.0
 11
434.9163805951721
 21
1072.933746502678
 31
0.0
 11
436.394749902393
 21
1062.956831949291
 31
0.0
 11
439.622760827609
 21
1056.506519155152
 31
0.0
 11
440.757796230022
 21
1055.614659557578
 31
0.0
 11
443.1587168920641
 21
1054.426124088543
 31
0.0
 11
446.351344075194
 21
1053.904846954072
 31
0.0
 11
451.2937174916083
 21
1053.630643596526
 31
0.0
 11
457.670971940121
 21
1053.27593680241
 31
0.0
 11
464.3039319923491
 21
1052.906314592335
 31
0.0
 11
471.4957368951441
 21
1052.505242455754
 31
0.0
 11
475.677961210371
 21
1052.272069858946
 31
0.0
 11
477.3231440688701
 21
1052.180444932401
 31
0.0
  0
LINE
  5
7845
102
{ACAD_REACTORS
330
786A
102
}
330
A
100
AcDbEntity
  8
HIDDEN
 48
0.5
100
AcDbLine
 10
547.7132444147292
 20
1051.905572273325
 30
0.0
 11
560.2127627577361
 21
1038.463138826648
 31
0.0
  0
LINE
  5
7846
102
{ACAD_REACTORS
330
786A
102
}
330
A
100
AcDbEntity
  8
HIDDEN
 48
0.5
100
AcDbLine
 10
560.2127627577361
 20
1038.463138826648
 30
0.0
 11
560.2127627577361
 21
1006.907895560436
 31
0.0
  0
LINE
  5
7847
102
{ACAD_REACTORS
330
786A
102
}
330
A
100
AcDbEntity
  8
HIDDEN
 48
0.5
100
AcDbLine
 10
477.3231440688701
 20
1052.180444932401
 30
0.0
 11
547.7132444147292
 21
1051.905572273325
 31
0.0
  0
LINE
  5
7848
102
{ACAD_REACTORS
330
786A
102
}
330
A
100
AcDbEntity
  8
HIDDEN
 48
0.5
100
AcDbLine
 10
617.709957813634
 20
1051.905572273324
 30
0.0
 11
605.2104394706271
 21
1038.463138826648
 31
0.0
  0
LINE
  5
7849
102
{ACAD_REACTORS
330
786A
102
}
330
A
100
AcDbEntity
  8
HIDDEN
 48
0.5
100
AcDbLine
 10
688.1000581594931
 20
1052.180444932399
 30
0.0
 11
617.709957813634
 21
1051.905572273324
 31
0.0
  0
LINE
  5
784A
102
{ACAD_REACTORS
330
786A
102
}
330
A
100
AcDbEntity
  8
HIDDEN
 48
0.5
100
AcDbLine
 10
605.2104394706271
 20
1038.463138826648
 30
0.0
 11
605.2104394706262
 21
1006.907895560435
 31
0.0
  0
SPLINE
  5
784B
102
{ACAD_REACTORS
330
786A
102
}
330
A
100
AcDbEntity
  8
HIDDEN
 48
0.5
100
AcDbSpline
210
0.0
220
0.0
230
1.0
 70
  1064
 71
     3
 72
    28
 73
    24
 74
    22
 42
0.000000001
 43
0.0000000001
 44
0.0
 40
0.0
 40
0.0
 40
0.0
 40
0.0
 40
1.89489645430045
 40
5.222072279233832
 40
7.222925532026261
 40
8.50528875129962
 40
13.74216909539284
 40
29.57170229569238
 40
42.22981504457561
 40
58.49893167568757
 40
75.7809197406457
 40
87.06054007588914
 40
97.14639154287472
 40
104.3593375204602
 40
105.8028467537225
 40
108.4818459300144
 40
111.716749047789
 40
116.6667230344434
 40
123.0538343698504
 40
129.6970850525073
 40
136.9000647566728
 40
141.0887840935081
 40
142.7365164034005
 40
142.7365164034005
 40
142.7365164034005
 40
142.7365164034005
 10
742.7125077679652
 20
1156.905062286227
 30
0.0
 10
742.0798945294437
 20
1156.830654133826
 30
0.0
 10
740.3365000295157
 20
1156.625595567633
 30
0.0
 10
738.3315390678129
 20
1154.83876060794
 30
0.0
 10
737.7268510055168
 20
1152.682908893119
 30
0.0
 10
737.50960809467
 20
1149.850869829039
 30
0.0
 10
736.7521850707719
 20
1142.439561118722
 30
0.0
 10
735.725247054418
 20
1131.244746573791
 30
0.0
 10
734.3236473271078
 20
1116.393179656915
 30
0.0
 10
732.7336959522395
 20
1101.065300072861
 30
0.0
 10
731.7313465226075
 20
1086.173528756266
 30
0.0
 10
730.5486708946553
 20
1073.294707859451
 30
0.0
 10
729.6486028451635
 20
1063.948119060537
 30
0.0
 10
727.3701404948214
 20
1057.653651179371
 30
0.0
 10
724.3544149741529
 20
1055.337629032102
 30
0.0
 10
722.1393312388707
 20
1054.192459916683
 30
0.0
 10
718.4906946857373
 20
1053.818681245947
 30
0.0
 10
713.6554565266929
 20
1053.626850362331
 30
0.0
 10
707.6656519721639
 20
1053.264313142422
 30
0.0
 10
700.9333826870239
 20
1052.898092110699
 30
0.0
 10
694.9305963998377
 20
1052.560862601918
 30
0.0
 10
690.5909313684731
 20
1052.31916841769
 30
0.0
 10
688.6484535877819
 20
1052.210986561277
 30
0.0
 10
688.1000581594931
 20
1052.180444932399
 30
0.0
 11
742.7125077679652
 21
1156.905062286227
 31
0.0
 11
740.8533573308091
 21
1156.538739717249
 31
0.0
 11
738.350052108648
 21
1154.347036741314
 31
0.0
 11
737.7415772058102
 21
1152.440948592296
 31
0.0
 11
737.6083220184041
 21
1151.165527688761
 31
0.0
 11
737.1156595947023
 21
1145.951872591363
 31
0.0
 11
735.6210650306689
 21
1130.193055744006
 31
0.0
 11
734.4196041679029
 21
1117.592091092096
 31
0.0
 11
732.8636018997713
 21
1101.39755457825
 31
0.0
 11
731.510944710802
 21
1084.168583918153
 31
0.0
 11
730.5068216331911
 21
1072.933746502674
 31
0.0
 11
729.0284523259711
 21
1062.956831949288
 31
0.0
 11
725.8004414007542
 21
1056.506519155148
 31
0.0
 11
724.6654059983421
 21
1055.614659557574
 31
0.0
 11
722.2644853362999
 21
1054.42612408854
 31
0.0
 11
719.0718581531692
 21
1053.904846954069
 31
0.0
 11
714.1294847367562
 21
1053.630643596523
 31
0.0
 11
707.7522302882421
 21
1053.275936802407
 31
0.0
 11
701.1192702360149
 21
1052.906314592333
 31
0.0
 11
693.9274653332191
 21
1052.505242455752
 31
0.0
 11
689.7452410179922
 21
1052.272069858943
 31
0.0
 11
688.1000581594931
 21
1052.180444932399
 31
0.0
  0
LINE
  5
784C
102
{ACAD_REACTORS
330
786A
102
}
330
A
100
AcDbEntity
  8
HIDDEN
 48
0.5
100
AcDbLine
 10
547.7132444147292
 20
1051.905572273325
 30
0.0
 11
617.709957813634
 21
1051.905572273324
 31
0.0
  0
SPLINE
  5
7854
102
{ACAD_REACTORS
330
798D
102
}
330
A
100
AcDbEntity
  8
MODEL
100
AcDbSpline
210
0.0
220
0.0
230
1.0
 70
     8
 71
     3
 72
    20
 73
    16
 74
     0
 42
0.000000001
 43
0.0000000001
 40
21.0
 40
21.0
 40
21.0
 40
21.0
 40
22.0
 40
22.0
 40
22.0
 40
23.0
 40
23.0
 40
23.0
 40
24.0
 40
24.0
 40
24.0
 40
25.0
 40
25.0
 40
25.0
 40
26.0
 40
26.0
 40
26.0
 40
26.0
 10
1475.928791381275
 20
1006.904948950737
 30
0.0
 10
1475.928791381275
 20
1006.904948950737
 30
0.0
 10
1415.929924690959
 20
1006.904948950737
 30
0.0
 10
1415.929924690959
 20
1006.904948950737
 30
0.0
 10
1413.166004793328
 20
1006.904948950737
 30
0.0
 10
1410.929528031816
 20
1009.14437232195
 30
0.0
 10
1410.929528031816
 20
1011.90534560988
 30
0.0
 10
1410.929528031816
 20
1011.90534560988
 30
0.0
 10
1410.929528031816
 20
1151.906138931938
 30
0.0
 10
1410.929528031816
 20
1151.906138931938
 30
0.0
 10
1410.929528031816
 20
1154.667112219868
 30
0.0
 10
1413.166004793328
 20
1156.905062286231
 30
0.0
 10
1415.929924690959
 20
1156.905062286231
 30
0.0
 10
1415.929924690959
 20
1156.905062286231
 30
0.0
 10
1446.380189320059
 20
1156.905062286231
 30
0.0
 10
1446.380189320059
 20
1156.905062286231
 30
0.0
  0
LINE
  5
7860
102
{ACAD_REACTORS
330
786A
102
}
330
A
100
AcDbEntity
  8
HIDDEN
 48
0.5
100
AcDbLine
 10
560.2127627577361
 20
1038.463138826648
 30
0.0
 11
605.2104394706271
 21
1038.463138826648
 31
0.0
  0
SPLINE
  5
7863
102
{ACAD_REACTORS
330
7869
102
}
330
A
100
AcDbEntity
  8
HIDDEN
 48
0.5
100
AcDbSpline
210
0.0
220
0.0
230
1.0
 70
  1064
 71
     3
 72
    39
 73
    35
 74
    33
 42
0.000000001
 43
0.0000000001
 44
0.0
 40
0.0
 40
0.0
 40
0.0
 40
0.0
 40
1.626857142648997
 40
3.2689753835769
 40
5.040606830514596
 40
7.269461929947401
 40
10.72858586793763
 40
25.87985439130706
 40
37.51974703938387
 40
73.59843253512247
 40
97.17695653347546
 40
103.2361284699903
 40
106.1930591392907
 40
109.3754960019303
 40
114.9222796437368
 40
122.2372147620773
 40
135.0063585713018
 40
143.5666068211947
 40
147.7701556083515
 40
148.535613825757
 40
149.3057189253891
 40
150.3689423436039
 40
152.7295261448698
 40
155.2951086240148
 40
157.6943070135176
 40
164.2456961983308
 40
166.6836688273111
 40
167.9471966372471
 40
168.4732985520137
 40
169.0080826379261
 40
169.860770988514
 40
171.4948864890926
 40
194.7923056633947
 40
207.9569163987275
 40
207.9569163987275
 40
207.9569163987275
 40
207.9569163987275
 10
1635.472973531716
 20
1156.905062286231
 30
0.0
 10
1634.92939045717
 20
1156.846860092401
 30
0.0
 10
1633.837125105138
 20
1156.729909726009
 30
0.0
 10
1632.325247770812
 20
1155.910842424886
 30
0.0
 10
1631.01315822036
 20
1154.494454386654
 30
0.0
 10
1630.321040842033
 20
1152.038686142874
 30
0.0
 10
1629.982724876984
 20
1145.112545770982
 30
0.0
 10
1628.780592127896
 20
1135.081227191417
 30
0.0
 10
1626.981504236576
 20
1114.216308328049
 30
0.0
 10
1623.703344397873
 20
1090.561741098207
 30
0.0
 10
1623.696751051913
 20
1068.771901378392
 30
0.0
 10
1620.381427972397
 20
1057.953757704659
 30
0.0
 10
1617.187286393501
 20
1055.278405461508
 30
0.0
 10
1613.543507982358
 20
1053.723711836151
 30
0.0
 10
1608.103070952239
 20
1053.818588936249
 30
0.0
 10
1599.619096904764
 20
1053.158345439624
 30
0.0
 10
1590.071468627042
 20
1052.716279388645
 30
0.0
 10
1581.562219952775
 20
1052.203321273181
 30
0.0
 10
1577.080969201518
 20
1051.986773642881
 30
0.0
 10
1575.152192103526
 20
1051.8526750535
 30
0.0
 10
1574.368900191747
 20
1051.423349876942
 30
0.0
 10
1573.452251694285
 20
1050.35449029052
 30
0.0
 10
1572.235999219075
 20
1048.777736392099
 30
0.0
 10
1570.708717679748
 20
1046.869982913746
 30
0.0
 10
1568.318548474095
 20
1043.868114966089
 30
0.0
 10
1565.991723957208
 20
1040.859268833429
 30
0.0
 10
1563.799675223426
 20
1038.25130341643
 30
0.0
 10
1563.000214141869
 20
1037.068026964042
 30
0.0
 10
1562.787204070685
 20
1036.315308776025
 30
0.0
 10
1562.751982394213
 20
1035.676153904497
 30
0.0
 10
1562.768743802511
 20
1034.669606261667
 30
0.0
 10
1562.727773947883
 20
1026.073236228188
 30
0.0
 10
1562.769949328208
 20
1013.376200576101
 30
0.0
 10
1562.764426585527
 20
1001.221970682621
 30
0.0
 10
1562.762432600064
 20
996.8336877007912
 30
0.0
 11
1635.472973531716
 21
1156.905062286231
 31
0.0
 11
1633.869906607339
 21
1156.627860917986
 31
0.0
 11
1632.417339273888
 21
1155.861962452797
 31
0.0
 11
1631.229122339783
 21
1154.547877789891
 31
0.0
 11
1630.502042969561
 21
1152.440948592299
 31
0.0
 11
1630.157429153241
 21
1148.999033466097
 31
0.0
 11
1628.736363542685
 21
1133.914554343577
 31
0.0
 11
1627.631548335165
 21
1122.32721279273
 31
0.0
 11
1624.129633285762
 21
1086.41888314504
 31
0.0
 11
1621.788918089724
 21
1062.956831949291
 31
0.0
 11
1619.413828052932
 21
1057.382559631456
 31
0.0
 11
1617.175187756696
 21
1055.450739606941
 31
0.0
 11
1614.249057872422
 21
1054.199472934706
 31
0.0
 11
1608.721977213459
 21
1053.732366781537
 31
0.0
 11
1601.418318416307
 21
1053.326356978309
 31
0.0
 11
1588.668964211155
 21
1052.615722774074
 31
0.0
 11
1580.121987165245
 21
1052.139242473872
 31
0.0
 11
1575.924938125338
 21
1051.905572273325
 31
0.0
 11
1575.166982529226
 21
1051.798662980389
 31
0.0
 11
1574.484045982545
 21
1051.442770387481
 31
0.0
 11
1573.740928334939
 21
1050.682362471388
 31
0.0
 11
1572.271491945804
 21
1048.834901353777
 31
0.0
 11
1570.675278437368
 21
1046.826340701772
 31
0.0
 11
1569.182412809207
 21
1044.948175339391
 31
0.0
 11
1565.106011260661
 21
1039.819466860066
 31
0.0
 11
1563.588232161538
 21
1037.91157348099
 31
0.0
 11
1562.947710029608
 21
1036.822429815081
 31
0.0
 11
1562.807106355383
 21
1036.315464499191
 31
0.0
 11
1562.762771235978
 21
1035.782521335493
 31
0.0
 11
1562.76232262334
 21
1034.929833102916
 31
0.0
 11
1562.762484628106
 21
1033.295717610368
 31
0.0
 11
1562.762432600064
 21
1009.998298436124
 31
0.0
 11
1562.762432600064
 21
996.8336877007912
 31
0.0
  0
SPLINE
  5
7864
102
{ACAD_REACTORS
330
7869
102
}
330
A
100
AcDbEntity
  8
HIDDEN
 48
0.5
100
AcDbSpline
210
0.0
220
0.0
230
1.0
 70
  1064
 71
     3
 72
    39
 73
    35
 74
    33
 42
0.000000001
 43
0.0000000001
 44
0.0
 40
0.0
 40
0.0
 40
0.0
 40
0.0
 40
1.626857142649376
 40
3.268975383575744
 40
5.040606830514203
 40
7.269461929946851
 40
10.72858586793799
 40
25.8798543913075
 40
37.51974703938332
 40
73.59843253512292
 40
97.17695653347477
 40
103.2361284699898
 40
106.1930591392907
 40
109.37549600193
 40
114.9222796437354
 40
122.237214762075
 40
135.0063585713004
 40
143.5666068211943
 40
147.7701556083492
 40
148.5356138257556
 40
149.3057189253877
 40
150.3689423436025
 40
152.7295261448678
 40
155.2951086240136
 40
157.6943070135162
 40
164.2456961983289
 40
166.6836688273104
 40
167.9471966372459
 40
168.4732985520128
 40
169.008082637925
 40
169.8607709885129
 40
171.4948864890906
 40
194.7923056633926
 40
207.9569163987262
 40
207.9569163987262
 40
207.9569163987262
 40
207.9569163987262
 10
1446.380189320058
 20
1156.905062286232
 30
0.0
 10
1446.923772394604
 20
1156.846860092402
 30
0.0
 10
1448.016037746635
 20
1156.729909726008
 30
0.0
 10
1449.527915080962
 20
1155.910842424887
 30
0.0
 10
1450.840004631414
 20
1154.494454386656
 30
0.0
 10
1451.53212200974
 20
1152.038686142873
 30
0.0
 10
1451.87043797479
 20
1145.112545770983
 30
0.0
 10
1453.072570723877
 20
1135.081227191418
 30
0.0
 10
1454.871658615196
 20
1114.216308328049
 30
0.0
 10
1458.149818453903
 20
1090.561741098209
 30
0.0
 10
1458.15641179986
 20
1068.771901378392
 30
0.0
 10
1461.471734879378
 20
1057.953757704661
 30
0.0
 10
1464.665876458272
 20
1055.278405461508
 30
0.0
 10
1468.309654869416
 20
1053.723711836153
 30
0.0
 10
1473.750091899534
 20
1053.81858893625
 30
0.0
 10
1482.234065947009
 20
1053.158345439624
 30
0.0
 10
1491.781694224732
 20
1052.716279388647
 30
0.0
 10
1500.290942898997
 20
1052.203321273182
 30
0.0
 10
1504.772193650256
 20
1051.98677364288
 30
0.0
 10
1506.700970748246
 20
1051.8526750535
 30
0.0
 10
1507.484262660026
 20
1051.423349876942
 30
0.0
 10
1508.400911157489
 20
1050.354490290522
 30
0.0
 10
1509.617163632699
 20
1048.777736392099
 30
0.0
 10
1511.144445172024
 20
1046.869982913746
 30
0.0
 10
1513.534614377681
 20
1043.868114966092
 30
0.0
 10
1515.861438894561
 20
1040.859268833426
 30
0.0
 10
1518.05348762835
 20
1038.251303416431
 30
0.0
 10
1518.852948709902
 20
1037.068026964041
 30
0.0
 10
1519.06595878109
 20
1036.315308776025
 30
0.0
 10
1519.101180457557
 20
1035.676153904497
 30
0.0
 10
1519.084419049266
 20
1034.669606261667
 30
0.0
 10
1519.125388903863
 20
1026.073236228193
 30
0.0
 10
1519.083213523572
 20
1013.376200576101
 30
0.0
 10
1519.088736266249
 20
1001.221970682621
 30
0.0
 10
1519.09073025171
 20
996.8336877007914
 30
0.0
 11
1446.380189320058
 21
1156.905062286232
 31
0.0
 11
1447.983256244435
 21
1156.627860917986
 31
0.0
 11
1449.435823577885
 21
1155.861962452798
 31
0.0
 11
1450.624040511991
 21
1154.547877789892
 31
0.0
 11
1451.351119882212
 21
1152.4409485923
 31
0.0
 11
1451.695733698532
 21
1148.999033466097
 31
0.0
 11
1453.116799309089
 21
1133.914554343577
 31
0.0
 11
1454.221614516608
 21
1122.327212792731
 31
0.0
 11
1457.723529566012
 21
1086.41888314504
 31
0.0
 11
1460.06424476205
 21
1062.956831949292
 31
0.0
 11
1462.439334798842
 21
1057.382559631457
 31
0.0
 11
1464.677975095078
 21
1055.450739606941
 31
0.0
 11
1467.604104979352
 21
1054.199472934707
 31
0.0
 11
1473.131185638314
 21
1053.732366781538
 31
0.0
 11
1480.434844435465
 21
1053.326356978309
 31
0.0
 11
1493.184198640618
 21
1052.615722774075
 31
0.0
 11
1501.731175686529
 21
1052.139242473872
 31
0.0
 11
1505.928224726434
 21
1051.905572273325
 31
0.0
 11
1506.686180322547
 21
1051.798662980389
 31
0.0
 11
1507.369116869228
 21
1051.442770387481
 31
0.0
 11
1508.112234516835
 21
1050.682362471389
 31
0.0
 11
1509.581670905969
 21
1048.834901353778
 31
0.0
 11
1511.177884414405
 21
1046.826340701772
 31
0.0
 11
1512.670750042567
 21
1044.948175339392
 31
0.0
 11
1516.747151591111
 21
1039.819466860066
 31
0.0
 11
1518.264930690236
 21
1037.91157348099
 31
0.0
 11
1518.905452822165
 21
1036.822429815081
 31
0.0
 11
1519.046056496391
 21
1036.315464499191
 31
0.0
 11
1519.090391615794
 21
1035.782521335493
 31
0.0
 11
1519.090840228434
 21
1034.929833102916
 31
0.0
 11
1519.090678223666
 21
1033.295717610369
 31
0.0
 11
1519.09073025171
 21
1009.998298436125
 31
0.0
 11
1519.09073025171
 21
996.8336877007914
 31
0.0
  0
LINE
  5
7866
102
{ACAD_REACTORS
330
7869
102
}
330
A
100
AcDbEntity
  8
HIDDEN
 48
0.5
100
AcDbLine
 10
1575.655907514923
 20
1051.885111244908
 30
0.0
 11
1506.441601956461
 21
1051.885111244908
 31
0.0
  0
LINE
  5
7867
102
{ACAD_REACTORS
330
7869
102
}
330
A
100
AcDbEntity
  8
HIDDEN
 48
0.5
100
AcDbLine
 10
1562.810047416703
 20
1036.332569918366
 30
0.0
 11
1518.973297931977
 21
1036.332569918366
 31
0.0
  0
DIMENSION
  5
7874
330
A
100
AcDbEntity
  8
DIM
100
AcDbDimension
  2
*D28
 10
1540.929528031815
 20
918.1927248680533
 30
0.0
 11
1605.929528031815
 21
950.1927248680533
 31
0.0
 70
    32
 71
     5
 42
130.0
 73
     0
 74
     0
 75
     0
  3
tfrom線あり
100
AcDbAlignedDimension
 13
1670.929528031815
 23
1144.253778912369
 33
0.0
 14
1540.929528031815
 24
996.7820233036201
 34
0.0
100
AcDbRotatedDimension
1001
ACAD
1000
DSTYLE
1002
{
1070
   144
1040
1.0
1002
}
  0
CIRCLE
  5
7897
330
A
100
AcDbEntity
  8
HIDDEN
 48
0.5
100
AcDbCircle
 10
367.7160210211873
 20
1994.126229107191
 30
0.0
 40
17.5
  0
CIRCLE
  5
7898
102
{ACAD_REACTORS
330
78A8
102
}
330
A
100
AcDbEntity
  8
HIDDEN
 48
0.5
100
AcDbCircle
 10
797.707181207179
 20
1994.12622910719
 30
0.0
 40
17.5
  0
DIMENSION
  5
7899
330
A
100
AcDbEntity
  8
DIM
100
AcDbDimension
  2
*D30
 10
932.3835314206681
 20
2124.124755806112
 30
0.0
 11
900.3835314206681
 21
2059.125492456651
 31
0.0
 70
    32
 71
     5
 42
129.9985266989218
 73
     0
 74
     0
 75
     0
  3
tfrom線あり
100
AcDbAlignedDimension
 13
815.207181207179
 23
1994.12622910719
 33
0.0
 14
843.2095168431651
 24
2124.124755806112
 34
0.0
 50
90.0
100
AcDbRotatedDimension
1001
ACAD
1000
DSTYLE
1002
{
1070
   144
1040
1.0
1002
}
  0
DIMENSION
  5
78A6
102
{ACAD_REACTORS
330
78A8
102
}
102
{ACAD_XDICTIONARY
360
78A7
102
}
330
A
100
AcDbEntity
  8
DIM
100
AcDbDimension
  2
*D31
 10
797.707181207179
 20
2184.338509682449
 30
0.0
 11
820.2086545120269
 21
2184.338509682449
 31
0.0
 70
   160
 71
     5
 42
45.00294660969621
 73
     0
 74
     0
 75
     0
  3
tfrom線あり
100
AcDbAlignedDimension
 13
842.7101278168752
 23
2116.705589277137
 33
0.0
 14
797.707181207179
 24
2011.62622910719
 34
0.0
100
AcDbRotatedDimension
1001
ACAD
1000
DSTYLE
1002
{
1070
   144
1040
1.0
1002
}
  0
DIMENSION
  5
78B6
102
{ACAD_XDICTIONARY
360
78B7
102
}
330
A
100
AcDbEntity
  8
DIM
100
AcDbDimension
  2
*D32
 10
367.7160210211873
 20
2184.338509682449
 30
0.0
 11
345.2145477163399
 21
2184.338509682449
 31
0.0
 70
   160
 71
     5
 42
45.00294660969641
 73
     0
 74
     0
 75
     0
 52
-90.0
  3
tfrom線あり
100
AcDbAlignedDimension
 13
322.7130744114911
 23
2116.705589277138
 33
0.0
 14
367.7160210211873
 24
2011.62622910719
 34
0.0
 50
179.9999999999999
100
AcDbRotatedDimension
1001
ACAD
1000
DSTYLE
1002
{
1070
   144
1040
1.0
1002
}
  0
DIMENSION
  5
78D7
330
A
100
AcDbEntity
  8
DIM
100
AcDbDimension
  2
*D34
 10
842.7101278168752
 20
2260.642047929178
 30
0.0
 11
582.7116011141829
 21
2260.642047929178
 31
0.0
 70
   160
 71
     5
 42
519.9970534053841
 73
     0
 74
     0
 75
     0
  3
tfrom線あり
100
AcDbAlignedDimension
 13
322.7130744114911
 23
2146.705589277138
 33
0.0
 14
842.7101278168752
 24
2146.705589277137
 34
0.0
100
AcDbRotatedDimension
1001
ACAD
1000
DSTYLE
1002
{
1070
   144
1040
1.0
1002
}
  0
DIMENSION
  5
78E6
102
{ACAD_REACTORS
330
78E8
102
}
102
{ACAD_XDICTIONARY
360
78E7
102
}
330
A
100
AcDbEntity
  8
DIM
100
AcDbDimension
  2
*D35
 10
1022.656564016103
 20
1864.12475579857
 30
0.0
 11
990.656564016103
 21
1994.124755802341
 31
0.0
 70
    32
 71
     5
 42
260.0000000075418
 73
     0
 74
     0
 75
     0
  3
tfrom線あり
100
AcDbAlignedDimension
 13
873.2095168431651
 23
2124.124755806112
 33
0.0
 14
835.1153374819401
 24
1864.12475579857
 34
0.0
 50
90.0
100
AcDbRotatedDimension
1001
ACAD
1000
DSTYLE
1002
{
1070
   144
1040
1.0
1002
}
  0
DIMENSION
  5
78F5
330
A
100
AcDbEntity
  8
DIM
100
AcDbDimension
  2
*D36
 10
742.7139810728099
 20
1774.533450881992
 30
0.0
 11
582.7123377666055
 21
1806.533450881992
 31
0.0
 70
    32
 71
     5
 42
320.0032866124088
 73
     0
 74
     0
 75
     0
  3
tfrom線あり
100
AcDbAlignedDimension
 13
422.7106944604011
 23
1913.55766228761
 33
0.0
 14
742.7139810728099
 24
1913.55766228761
 34
0.0
100
AcDbRotatedDimension
1001
ACAD
1000
DSTYLE
1002
{
1070
   144
1040
1.0
1002
}
  0
DIMENSION
  5
7902
102
{ACAD_REACTORS
330
7904
102
}
102
{ACAD_XDICTIONARY
360
7903
102
}
330
A
100
AcDbEntity
  8
DIM
100
AcDbDimension
  2
*D37
 10
240.2384830023293
 20
1904.127929071714
 30
0.0
 11
208.2384830023293
 21
1994.125492454766
 31
0.0
 70
    32
 71
     5
 42
179.9951267661038
 73
     0
 74
     0
 75
     0
  3
tfrom線あり
100
AcDbAlignedDimension
 13
443.408145081014
 23
2084.123055837818
 33
0.0
 14
437.7133577426803
 24
1904.127929071714
 34
0.0
 50
90.0
100
AcDbRotatedDimension
1001
ACAD
1000
DSTYLE
1002
{
1070
   144
1040
1.0
1002
}
  0
CIRCLE
  5
7911
102
{ACAD_REACTORS
330
78A8
102
}
330
A
100
AcDbEntity
  8
HIDDEN
 48
0.5
100
AcDbCircle
 10
1720.835441288211
 20
1994.126229107191
 30
0.0
 40
17.5
  0
CIRCLE
  5
7912
330
A
100
AcDbEntity
  8
HIDDEN
 48
0.5
100
AcDbCircle
 10
1290.844281102219
 20
1994.126229107191
 30
0.0
 40
17.5
  0
DIMENSION
  5
7916
330
A
100
AcDbEntity
  8
DIM
100
AcDbDimension
  2
*D38
 10
932.3835314206681
 20
991.7214658311127
 30
0.0
 11
900.3835314206681
 21
1074.313264058672
 31
0.0
 70
    32
 71
     5
 42
165.1835964551183
 73
     0
 74
     0
 75
     0
  3
tfrom線あり
100
AcDbAlignedDimension
 13
836.2476539064792
 23
1156.905062286231
 33
0.0
 14
610.1062314854548
 24
991.7214658311127
 34
0.0
 50
90.0
100
AcDbRotatedDimension
1001
ACAD
1000
DSTYLE
1002
{
1070
   144
1040
1.0
1002
}
  0
LINE
  5
793B
330
A
100
AcDbEntity
  8
MODEL
100
AcDbLine
 10
1636.197828944334
 20
1143.905991560204
 30
0.0
 11
1636.197828944334
 21
1006.908116491053
 31
0.0
  0
LINE
  5
793C
330
A
100
AcDbEntity
  8
MODEL
100
AcDbLine
 10
1575.329722966147
 20
1006.829810403413
 30
0.0
 11
1636.197828944334
 21
1006.908116491053
 31
0.0
  0
LINE
  5
793D
330
A
100
AcDbEntity
  8
MODEL
100
AcDbLine
 10
1670.927733899324
 20
1143.905991560204
 30
0.0
 11
1480.929528031817
 21
1143.905991560204
 31
0.0
  0
LINE
  5
793E
330
A
100
AcDbEntity
  8
MODEL
100
AcDbLine
 10
1480.929528031817
 20
1143.905991560204
 30
0.0
 11
1480.929528031816
 21
1006.904948950737
 31
0.0
  0
LINE
  5
793F
330
A
100
AcDbEntity
  8
MODEL
100
AcDbLine
 10
1670.927733899324
 20
1143.905991560204
 30
0.0
 11
1670.881203294187
 21
1152.334132472887
 31
0.0
  0
DIMENSION
  5
795C
102
{ACAD_XDICTIONARY
360
795D
102
}
330
A
100
AcDbEntity
  8
DIM
100
AcDbDimension
  2
*D40
 10
1541.289009132196
 20
1156.905754805389
 30
0.0
 11
1541.289009132196
 21
1276.901111244908
 31
0.0
 70
   160
  1
105(深さ)
 71
     5
 42
105.0206435604809
 73
     0
 74
     1
 75
     1
  3
tfrom線あり
100
AcDbAlignedDimension
 13
1542.318063474822
 23
1051.885111244908
 33
0.0
 14
1541.289009132196
 24
1156.905754805389
 34
0.0
 50
89.99999999999999
100
AcDbRotatedDimension
1001
ACAD
1000
DSTYLE
1002
{
1070
   172
1070
     1
1070
   144
1040
1.0
1002
}
  0
DIMENSION
  5
7970
330
A
100
AcDbEntity
  8
DIM
100
AcDbDimension
  2
*D41
 10
1721.820886725923
 20
1156.888506673811
 30
0.0
 11
1721.820886725923
 21
1210.352506673811
 31
0.0
 70
   160
 71
     5
 42
12.63472776144204
 73
     0
 74
     1
 75
     1
  3
tfrom線あり
100
AcDbAlignedDimension
 13
1670.929528031815
 23
1144.253778912369
 33
0.0
 14
1666.27222944505
 24
1156.888506673811
 34
0.0
 50
90.0
100
AcDbRotatedDimension
1001
ACAD
1000
DSTYLE
1002
{
1070
   172
1070
     1
1070
   144
1040
1.0
1002
}
  0
LINE
  5
7986
330
A
100
AcDbEntity
  8
MODEL
100
AcDbLine
 10
555.316970742907
 20
991.7214658311152
 30
0.0
 11
582.7116011141811
 21
991.7862912444923
 31
0.0
  0
SPLINE
  5
7987
330
A
100
AcDbEntity
  8
MODEL
100
AcDbSpline
210
0.0
220
0.0
230
1.0
 70
     8
 71
     3
 72
    11
 73
     7
 74
     0
 42
0.000000001
 43
0.0000000001
 40
13.0
 40
13.0
 40
13.0
 40
13.0
 40
14.0
 40
14.0
 40
14.0
 40
14.37777420931593
 40
14.37777420931593
 40
14.37777420931593
 40
14.37777420931593
 10
555.316970742907
 20
991.7214658311152
 30
0.0
 10
552.5530508452789
 20
991.7214658311152
 30
0.0
 10
550.3136274740659
 20
993.9608892023282
 30
0.0
 10
550.3136274740659
 20
996.724809099957
 30
0.0
 10
550.3136274740659
 20
996.724809099957
 30
0.0
 10
550.3136274740659
 20
999.034097704579
 30
0.0
 10
550.3136274740646
 20
1006.907895560436
 30
0.0
  0
SPLINE
  5
7989
330
A
100
AcDbEntity
  8
MODEL
100
AcDbSpline
210
0.0
220
0.0
230
1.0
 70
     8
 71
     3
 72
    11
 73
     7
 74
     0
 42
0.000000001
 43
0.0000000001
 40
13.0
 40
13.0
 40
13.0
 40
13.0
 40
14.0
 40
14.0
 40
14.0
 40
14.37777420931593
 40
14.37777420931593
 40
14.37777420931593
 40
14.37777420931593
 10
610.1062314854548
 20
991.7214658311127
 30
0.0
 10
612.8701513830829
 20
991.7214658311125
 30
0.0
 10
615.1095747542963
 20
993.9608892023252
 30
0.0
 10
615.1095747542963
 20
996.724809099954
 30
0.0
 10
615.1095747542963
 20
996.724809099954
 30
0.0
 10
615.1095747542968
 20
999.034097704576
 30
0.0
 10
615.1095747542978
 20
1006.907895560436
 30
0.0
  0
LINE
  5
798A
330
A
100
AcDbEntity
  8
MODEL
100
AcDbLine
 10
610.1062314854548
 20
991.7214658311127
 30
0.0
 11
582.7116011141807
 21
991.7862912444925
 31
0.0
  0
DIMENSION
  5
798B
102
{ACAD_REACTORS
330
798D
102
}
102
{ACAD_XDICTIONARY
360
798C
102
}
330
A
100
AcDbEntity
  8
DIM
100
AcDbDimension
  2
*D42
 10
1313.586735288195
 20
1006.904948950737
 30
0.0
 11
1281.586735288195
 21
1081.905005618484
 31
0.0
 70
    32
 71
     5
 42
150.000113335494
 73
     0
 74
     0
 75
     0
  3
tfrom線あり
100
AcDbAlignedDimension
 13
1416.550545934638
 23
1156.905062286231
 33
0.0
 14
1418.756913305532
 24
1006.904948950737
 34
0.0
 50
90.0
100
AcDbRotatedDimension
1001
ACAD
1000
DSTYLE
1002
{
1070
   144
1040
1.0
1002
}
  0
MTEXT
  5
79A6
330
A
100
AcDbEntity
  8
DIM
390
1D
100
AcDbMText
 10
1375.075475631452
 20
2469.669081491038
 30
0.0
 40
24.0
 41
0.0
 46
0.0
 71
     1
 72
     1
  1
カウンター切込寸法
  7
ＭＳ ゴシック
 73
     1
 44
0.7828267384257843
  0
LINE
  5
79E9
102
{ACAD_REACTORS
330
7AF4
102
}
330
A
100
AcDbEntity
  8
DIM
100
AcDbLine
 10
1463.341334500063
 20
2124.124755806112
 30
0.0
 11
1548.341334500063
 21
2124.124755806112
 31
0.0
  0
LINE
  5
79EA
102
{ACAD_REACTORS
330
7A07
330
7AF4
102
}
330
A
100
AcDbEntity
  8
DIM
100
AcDbLine
 10
1463.341334500063
 20
2124.124755806112
 30
0.0
 11
1463.341334500063
 21
2119.046284837431
 31
0.0
  0
LINE
  5
79EB
102
{ACAD_REACTORS
330
7A07
330
7AC4
330
7AF4
102
}
330
A
100
AcDbEntity
  8
DIM
100
AcDbLine
 10
1548.341334500063
 20
2124.124755806112
 30
0.0
 11
1548.341334500063
 21
2119.046284837431
 31
0.0
  0
LINE
  5
79EC
102
{ACAD_REACTORS
330
7AF4
102
}
330
A
100
AcDbEntity
  8
DIM
100
AcDbLine
 10
1260.841334500063
 20
2119.046284837431
 30
0.0
 11
1463.341334500063
 21
2119.046284837431
 31
0.0
  0
LINE
  5
79ED
102
{ACAD_REACTORS
330
7AC4
330
7AF4
102
}
330
A
100
AcDbEntity
  8
DIM
100
AcDbLine
 10
1548.341334500063
 20
2119.046284837431
 30
0.0
 11
1750.841334500063
 21
2119.046284837431
 31
0.0
  0
LINE
  5
79EF
102
{ACAD_REACTORS
330
7A16
330
7AF4
102
}
330
A
100
AcDbEntity
  8
DIM
100
AcDbLine
 10
1750.841334500063
 20
2119.046284837431
 30
0.0
 11
1750.841334500062
 21
1939.046284837431
 31
0.0
  0
LINE
  5
79F0
102
{ACAD_REACTORS
330
7A37
102
}
330
A
100
AcDbEntity
  8
DIM
100
AcDbLine
 10
1750.841334500062
 20
1939.046284837431
 30
0.0
 11
1827.649211923337
 21
1939.046284837432
 31
0.0
  0
LINE
  5
79F1
102
{ACAD_REACTORS
330
7A16
330
7AF4
102
}
330
A
100
AcDbEntity
  8
DIM
100
AcDbLine
 10
1260.841334500063
 20
2119.046284837431
 30
0.0
 11
1260.841334500063
 21
1939.046284837431
 31
0.0
  0
DIMENSION
  5
7A05
102
{ACAD_REACTORS
330
7A07
102
}
102
{ACAD_XDICTIONARY
360
7A06
102
}
330
A
100
AcDbEntity
  8
DIM
100
AcDbDimension
  2
*D46
 10
1548.341334500063
 20
2186.994022008897
 30
0.0
 11
1505.841334500063
 21
2218.994022008897
 31
0.0
 70
    32
 71
     5
 42
85.0
 73
     0
 74
     0
 75
     0
  3
tfrom線あり
100
AcDbAlignedDimension
 13
1463.341334500063
 23
2124.124755806112
 33
0.0
 14
1548.341334500063
 24
2124.124755806112
 34
0.0
100
AcDbRotatedDimension
1001
ACAD
1000
DSTYLE
1002
{
1070
   144
1040
1.0
1002
}
  0
DIMENSION
  5
7A14
102
{ACAD_REACTORS
330
7A16
102
}
102
{ACAD_XDICTIONARY
360
7A15
102
}
330
A
100
AcDbEntity
  8
DIM
100
AcDbDimension
  2
*D47
 10
1750.841334500063
 20
2252.301898632365
 30
0.0
 11
1505.841334500063
 21
2284.301898632365
 31
0.0
 70
    32
 71
     5
 42
490.0
 73
     0
 74
     0
 75
     0
  3
tfrom線あり
100
AcDbAlignedDimension
 13
1260.841334500063
 23
2119.046284837431
 33
0.0
 14
1750.841334500063
 24
2119.046284837431
 34
0.0
100
AcDbRotatedDimension
1001
ACAD
1000
DSTYLE
1002
{
1070
   144
1040
1.0
1002
}
  0
DIMENSION
  5
7A35
102
{ACAD_REACTORS
330
7A37
102
}
102
{ACAD_XDICTIONARY
360
7A36
102
}
330
A
100
AcDbEntity
  8
DIM
100
AcDbDimension
  2
*D48
 10
1900.193300581603
 20
1939.046284837432
 30
0.0
 11
1868.193300581603
 21
2031.585520321772
 31
0.0
 70
    32
 71
     5
 42
185.0784709686798
 73
     0
 74
     0
 75
     0
  3
tfrom線あり
100
AcDbAlignedDimension
 13
1759.839090550815
 23
2124.124755806112
 33
0.0
 14
1827.649211923337
 24
1939.046284837432
 34
0.0
 50
90.0
100
AcDbRotatedDimension
1001
ACAD
1000
DSTYLE
1002
{
1070
   144
1040
1.0
1002
}
  0
LINE
  5
7A44
102
{ACAD_REACTORS
330
7A37
102
}
330
A
100
AcDbEntity
  8
DIM
100
AcDbLine
 10
1260.841334500066
 20
1939.046284837427
 30
0.0
 11
1184.033457076791
 21
1939.046284837426
 31
0.0
  0
CIRCLE
  5
7A45
330
A
100
AcDbEntity
  8
HIDDEN
 48
0.5
100
AcDbCircle
 10
1505.841334500063
 20
1993.850770802682
 30
0.0
 40
22.50199773648682
  0
DIMENSION
  5
7A4C
102
{ACAD_REACTORS
330
7A4E
102
}
102
{ACAD_XDICTIONARY
360
7A4D
102
}
330
A
100
AcDbEntity
  8
DIM
100
AcDbDimension
  2
*D49
 10
797.707181207179
 20
2184.338509682449
 30
0.0
 11
582.7116011141832
 21
2216.338509682449
 31
0.0
 70
    32
 71
     5
 42
429.9911601859917
 73
     0
 74
     0
 75
     0
  3
tfrom線あり
100
AcDbAlignedDimension
 13
367.7160210211873
 23
2011.62622910719
 33
0.0
 14
797.707181207179
 24
2011.62622910719
 34
0.0
100
AcDbRotatedDimension
1001
ACAD
1000
DSTYLE
1002
{
1070
   144
1040
1.0
1002
}
  0
DIMENSION
  5
7A66
330
A
100
AcDbEntity
  8
DIM
100
AcDbDimension
  2
*D50
 10
1480.929528031816
 20
839.8105093137889
 30
0.0
 11
1445.929528031816
 21
871.8105093137889
 31
0.0
 70
    32
 71
     5
 42
70.0
 73
     0
 74
     0
 75
     0
  3
tfrom線あり
100
AcDbAlignedDimension
 13
1410.929528031816
 23
1014.234373857237
 33
0.0
 14
1480.929528031816
 24
1006.904948950737
 34
0.0
100
AcDbRotatedDimension
1001
ACAD
1000
DSTYLE
1002
{
1070
   144
1040
1.0
1002
}
  0
LINE
  5
7AEB
102
{ACAD_REACTORS
330
7AF4
102
}
330
A
100
AcDbEntity
  8
DIM
100
AcDbLine
 10
1260.841334500066
 20
1939.046284837427
 30
0.0
 11
1750.841334500062
 21
1939.046284837431
 31
0.0
  0
HATCH
  5
7AF4
330
A
100
AcDbEntity
  8
DIM
100
AcDbHatch
 10
0.0
 20
0.0
 30
0.0
210
0.0
220
0.0
230
1.0
  2
ANSI31
 70
     0
 71
     1
 91
        1
 92
        1
 93
        8
 72
     1
 10
1260.841334500066
 20
1939.046284837427
 11
1750.841334500062
 21
1939.046284837431
 72
     1
 10
1750.841334500063
 20
2119.046284837431
 11
1750.841334500062
 21
1939.046284837431
 72
     1
 10
1548.341334500063
 20
2119.046284837431
 11
1750.841334500063
 21
2119.046284837431
 72
     1
 10
1548.341334500063
 20
2124.124755806112
 11
1548.341334500063
 21
2119.046284837431
 72
     1
 10
1463.341334500063
 20
2124.124755806112
 11
1548.341334500063
 21
2124.124755806112
 72
     1
 10
1463.341334500063
 20
2124.124755806112
 11
1463.341334500063
 21
2119.046284837431
 72
     1
 10
1260.841334500063
 20
2119.046284837431
 11
1463.341334500063
 21
2119.046284837431
 72
     1
 10
1260.841334500063
 20
2119.046284837431
 11
1260.841334500063
 21
1939.046284837431
 97
        8
330
7AEB
330
79EF
330
79ED
330
79EB
330
79E9
330
79EA
330
79EC
330
79F1
 75
     0
 76
     1
 52
0.0
 41
4.0
 77
     0
 78
     1
 53
45.0
 43
-64.00140845070473
 44
0.0000000000004547
 45
-8.980256121069154
 46
8.980256121069154
 79
     0
 98
        1
 10
-64.00140845070473
 20
0.0000000000004547
1001
ACAD
1010
0.0
1020
0.0
1030
0.0
  0
DIMENSION
  5
7B28
102
{ACAD_XDICTIONARY
360
7B29
102
}
330
A
100
AcDbEntity
  8
DIM
100
AcDbDimension
  2
*D52
 10
1670.929528031815
 20
839.8105093137889
 30
0.0
 11
1575.929528031816
 21
871.8105093137889
 31
0.0
 70
    32
 71
     5
 42
189.9999999999991
 73
     0
 74
     0
 75
     0
  3
tfrom線あり
100
AcDbAlignedDimension
 13
1480.929528031816
 23
991.904948950737
 33
0.0
 14
1670.929528031815
 24
999.0141339426475
 34
0.0
100
AcDbRotatedDimension
1001
ACAD
1000
DSTYLE
1002
{
1070
   144
1040
1.0
1002
}
  0
VIEWPORT
  5
349
330
B
100
AcDbEntity
 67
     1
  8
0
100
AcDbViewport
 10
202.5
 20
128.5
 30
0.0
 40
486.0
 41
308.4
 68
     1
 69
     1
 12
202.5
 22
128.5
 13
0.0
 23
0.0
 14
0.5
 24
0.5
 15
0.0
 25
0.0
 16
0.0
 26
0.0
 36
1.0
 17
0.0
 27
0.0
 37
0.0
 42
50.0
 43
0.0
 44
0.0
 45
308.4
 50
0.0
 51
0.0
 72
   100
 90
   557152
  1

281
     0
 71
     1
 74
     0
110
0.0
120
0.0
130
0.0
111
1.0
121
0.0
131
0.0
112
0.0
122
1.0
132
0.0
 79
     0
146
0.0
170
     0
 61
     5
348
26C
292
     1
282
     1
141
0.0
142
0.0
 63
   256
  0
VIEWPORT
  5
34A
330
B
100
AcDbEntity
 67
     1
  8
0
100
AcDbViewport
 10
202.5
 20
128.5
 30
0.0
 40
324.0
 41
205.6
 68
     2
 69
     2
 12
986.6781359294573
 22
1427.077061889956
 13
0.0
 23
0.0
 14
0.5
 24
0.5
 15
0.0
 25
0.0
 16
0.0
 26
0.0
 36
1.0
 17
0.0
 27
0.0
 37
0.0
 42
50.0
 43
0.0
 44
0.0
 45
2890.021615685494
 50
0.0
 51
0.0
 72
   100
 90
   557152
  1

281
     0
 71
     1
 74
     0
110
0.0
120
0.0
130
0.0
111
1.0
121
0.0
131
0.0
112
0.0
122
1.0
132
0.0
 79
     0
146
0.0
170
     0
 61
     5
348
26C
292
     1
282
     1
141
0.0
142
0.0
 63
   256
  0
ENDSEC
  0
SECTION
  2
OBJECTS
  0
DICTIONARY
  5
19
330
0
100
AcDbDictionary
281
     1
  3
ACAD_COLOR
350
674
  3
ACAD_DETAILVIEWSTYLE
350
BBF
  3
ACAD_FIELDLIST
350
146A
  3
ACAD_GROUP
350
1A
  3
ACAD_IMAGE_VARS
350
27B
  3
ACAD_LAYOUT
350
1E
  3
ACAD_MATERIAL
350
263
  3
ACAD_MLEADERSTYLE
350
336
  3
ACAD_MLINESTYLE
350
1B
  3
ACAD_PLOTSETTINGS
350
22
  3
ACAD_PLOTSTYLENAME
350
1F
  3
ACAD_SCALELIST
350
241
  3
ACAD_SECTIONVIEWSTYLE
350
BC0
  3
ACAD_TABLESTYLE
350
278
  3
ACAD_VISUALSTYLE
350
267
  3
ACDB_RECOMPOSE_DATA
350
7B48
  3
AcDbVariableDictionary
350
330
  3
APPDATA
350
27A
  3
DimOffsetDictionary
350
E3E
  0
SUN
  5
904
330
15
100
AcDbSun
 90
        1
290
     0
 63
     7
421
 16777215
 40
1.0
291
     1
 91
  2455826
 92
 54000000
292
     0
 70
     2
 71
   256
280
     1
  0
DICTIONARY
  5
2E1
330
2
100
AcDbDictionary
280
     1
281
     1
  3
ACAD_LAYERSTATES
360
2E2
  3
ACLYDICTIONARY
360
DF9
  0
DICTIONARY
  5
3BA6
330
A
100
AcDbDictionary
280
     1
281
     1
  3
ACAD_SORTENTS
360
3BA7
  0
DICTIONARY
  5
1468
330
1466
100
AcDbDictionary
280
     1
281
     1
  3
ACAD_FIELD
360
146C
  0
DICTIONARY
  5
78A7
330
78A6
100
AcDbDictionary
280
     1
281
     1
  3
ACAD_DIMASSOC
360
78A8
  0
DICTIONARY
  5
78B7
330
78B6
100
AcDbDictionary
280
     1
281
     1
  3
ACAD_DIMASSOC
360
78B8
  0
DICTIONARY
  5
78E7
330
78E6
100
AcDbDictionary
280
     1
281
     1
  3
ACAD_DIMASSOC
360
78E8
  0
DICTIONARY
  5
7903
330
7902
100
AcDbDictionary
280
     1
281
     1
  3
ACAD_DIMASSOC
360
7904
  0
DICTIONARY
  5
795D
330
795C
100
AcDbDictionary
280
     1
281
     1
  3
ACAD_DIMASSOC
360
795E
  0
DICTIONARY
  5
798C
330
798B
100
AcDbDictionary
280
     1
281
     1
  3
ACAD_DIMASSOC
360
798D
  0
DICTIONARY
  5
7A06
330
7A05
100
AcDbDictionary
280
     1
281
     1
  3
ACAD_DIMASSOC
360
7A07
  0
DICTIONARY
  5
7A15
330
7A14
100
AcDbDictionary
280
     1
281
     1
  3
ACAD_DIMASSOC
360
7A16
  0
DICTIONARY
  5
7A36
330
7A35
100
AcDbDictionary
280
     1
281
     1
  3
ACAD_DIMASSOC
360
7A37
  0
DICTIONARY
  5
7A4D
330
7A4C
100
AcDbDictionary
280
     1
281
     1
  3
ACAD_DIMASSOC
360
7A4E
  0
DICTIONARY
  5
7B29
330
7B28
100
AcDbDictionary
280
     1
281
     1
  0
DICTIONARY
  5
674
102
{ACAD_REACTORS
330
19
102
}
330
19
100
AcDbDictionary
281
     1
  0
DICTIONARY
  5
BBF
102
{ACAD_REACTORS
330
19
102
}
330
19
100
AcDbDictionary
281
     1
  0
FIELDLIST
  5
146A
102
{ACAD_REACTORS
330
19
102
}
330
19
100
AcDbIdSet
 90
        2
330
146B
330
1467
100
AcDbFieldList
  0
DICTIONARY
  5
1A
102
{ACAD_REACTORS
330
19
102
}
330
19
100
AcDbDictionary
281
     1
  3
*A1
350
7869
  3
*A2
350
786A
  0
RASTERVARIABLES
  5
27B
102
{ACAD_REACTORS
330
19
102
}
330
19
100
AcDbRasterVariables
 90
        0
 70
     1
 71
     1
 72
     1
  0
DICTIONARY
  5
1E
102
{ACAD_REACTORS
330
19
102
}
330
19
100
AcDbDictionary
281
     1
  3
Layout1
350
21
  3
Model
350
20
  0
DICTIONARY
  5
263
102
{ACAD_REACTORS
330
19
102
}
330
19
100
AcDbDictionary
281
     1
  3
ByBlock
350
265
  3
ByLayer
350
264
  3
Global
350
266
  0
DICTIONARY
  5
336
102
{ACAD_REACTORS
330
19
102
}
330
19
100
AcDbDictionary
281
     1
  3
Standard
350
DAB
  0
DICTIONARY
  5
1B
102
{ACAD_REACTORS
330
19
102
}
330
19
100
AcDbDictionary
281
     1
  3
Standard
350
1C
  0
DICTIONARY
  5
22
102
{ACAD_REACTORS
330
19
102
}
330
19
100
AcDbDictionary
281
     1
  0
ACDBDICTIONARYWDFLT
  5
1F
102
{ACAD_REACTORS
330
19
102
}
330
19
100
AcDbDictionary
281
     1
  3
Normal
350
1D
100
AcDbDictionaryWithDefault
340
1D
  0
DICTIONARY
  5
241
102
{ACAD_REACTORS
330
19
102
}
330
19
100
AcDbDictionary
281
     1
  3
A0
350
242
  3
A1
350
243
  3
A2
350
244
  3
A3
350
245
  3
A4
350
246
  3
A5
350
247
  3
A6
350
248
  3
A7
350
249
  3
A8
350
24A
  3
A9
350
24B
  3
B0
350
24C
  3
B1
350
24D
  3
B2
350
24E
  3
B3
350
24F
  3
B4
350
250
  3
B5
350
251
  3
B6
350
252
  3
B7
350
253
  3
B8
350
254
  3
B9
350
255
  3
C0
350
256
  3
C1
350
257
  3
C2
350
258
  3
C3
350
259
  3
C4
350
25A
  3
C5
350
25B
  3
C6
350
25C
  3
C7
350
25D
  3
C8
350
25E
  3
C9
350
25F
  3
D0
350
260
  3
D1
350
261
  3
D2
350
262
  0
DICTIONARY
  5
BC0
102
{ACAD_REACTORS
330
19
102
}
330
19
100
AcDbDictionary
281
     1
  0
DICTIONARY
  5
278
102
{ACAD_REACTORS
330
19
102
}
330
19
100
AcDbDictionary
281
     1
  3
Standard
350
279
  0
DICTIONARY
  5
267
102
{ACAD_REACTORS
330
19
102
}
330
19
100
AcDbDictionary
281
     1
  3
2dWireframe
350
26C
  3
3D Hidden
350
26E
  3
3dWireframe
350
26D
  3
Basic
350
26F
  3
Brighten
350
273
  3
ColorChange
350
277
  3
Conceptual
350
271
  3
Dim
350
272
  3
EdgeColorOff
350
8FE
  3
Facepattern
350
276
  3
Flat
350
268
  3
FlatWithEdges
350
269
  3
Gouraud
350
26A
  3
GouraudWithEdges
350
26B
  3
Hidden
350
8FB
  3
JitterOff
350
8FC
  3
Linepattern
350
275
  3
OverhangOff
350
8FD
  3
Realistic
350
270
  3
Shaded
350
903
  3
Shaded with edges
350
902
  3
Shades of Gray
350
8FF
  3
Sketchy
350
900
  3
Thicken
350
274
  3
Wireframe
350
8FA
  3
X-Ray
350
901
  0
XRECORD
  5
7B48
102
{ACAD_REACTORS
330
19
102
}
330
19
100
AcDbXrecord
280
     1
 90
        1
330
279
  0
DICTIONARY
  5
330
102
{ACAD_REACTORS
330
19
102
}
330
19
100
AcDbDictionary
281
     1
  3
CANNOSCALE
350
331
  3
CMLEADERSTYLE
350
DB1
  3
CTABLESTYLE
350
335
  3
HPTRANSPARENCY
350
D52
  3
XCLIPFRAME
350
896
  0
DICTIONARY
  5
27A
102
{ACAD_REACTORS
330
19
102
}
330
19
100
AcDbDictionary
281
     1
  0
DICTIONARY
  5
E3E
102
{ACAD_REACTORS
330
19
102
}
330
19
100
AcDbDictionary
281
     1
  3
DIMRAILANGLE
350
ECE
  3
DIMRAILFIRSTOFFSET
350
ECC
  3
DIMRAILOFFSET
350
ECD
  3
DIMRAILSENABLED
350
ECF
  0
DICTIONARY
  5
2E2
102
{ACAD_REACTORS
330
2E1
102
}
330
2E1
100
AcDbDictionary
281
     1
  0
DICTIONARY
  5
DF9
102
{ACAD_REACTORS
330
2E1
102
}
330
2E1
100
AcDbDictionary
281
     1
1001
ACAD
1000
<All
  0
SORTENTSTABLE
  5
3BA7
102
{ACAD_REACTORS
330
3BA6
102
}
330
3BA6
100
AcDbSortentsTable
330
A
331
0
  5
738A
331
79E9
  5
79EE
331
79EA
  5
79EF
331
79EB
  5
79F1
331
79EC
  5
79F2
331
79ED
  5
7A05
331
79EF
  5
7A44
331
79F0
  5
7A45
331
79F1
  5
7A4C
331
7A05
  5
7A66
331
7A14
  5
7AB8
331
7A35
  5
7AC2
331
7A44
  5
7AD7
331
7A45
  5
7AD8
331
7A4C
  5
7AEB
331
7A66
  5
7AEE
331
0
  5
7AF0
331
7AEB
  5
7AF3
331
7AF4
  5
79ED
  0
DICTIONARY
  5
146C
102
{ACAD_REACTORS
330
1468
102
}
330
1468
100
AcDbDictionary
280
     1
281
     1
  3
TEXT
360
1467
  0
DIMASSOC
  5
78A8
102
{ACAD_REACTORS
330
78A7
102
}
330
78A7
100
AcDbDimAssoc
330
78A6
 90
        2
 70
     0
 71
     1
  1
AcDbOsnapPointRef
 72
     5
331
7898
 73
     0
 91
        0
 40
1.570796326794897
 10
0.0
 20
0.0
 30
0.0
 75
     0
  0
DIMASSOC
  5
78B8
102
{ACAD_REACTORS
330
78B7
102
}
330
78B7
100
AcDbDimAssoc
330
78B6
 90
        0
 70
     0
 71
     1
  0
DIMASSOC
  5
78E8
102
{ACAD_REACTORS
330
78E7
102
}
330
78E7
100
AcDbDimAssoc
330
78E6
 90
        2
 70
     0
 71
     1
  1
AcDbOsnapPointRef
 72
    10
331
768A
 73
     0
 91
        0
 40
0.9672850776583999
 10
0.0
 20
0.0
 30
0.0
 75
     0
  0
DIMASSOC
  5
7904
102
{ACAD_REACTORS
330
7903
102
}
330
7903
100
AcDbDimAssoc
330
7902
 90
        3
 70
     0
 71
     1
  1
AcDbOsnapPointRef
 72
    10
331
7689
 73
     0
 91
        0
 40
4.916750466149655
 10
0.0
 20
0.0
 30
0.0
 75
     0
  1
AcDbOsnapPointRef
 72
    13
331
7689
 73
     0
 91
        0
 40
0.0
 10
0.0
 20
0.0
 30
0.0
 75
     0
  0
DIMASSOC
  5
795E
102
{ACAD_REACTORS
330
795D
102
}
330
795D
100
AcDbDimAssoc
330
795C
 90
        0
 70
     0
 71
     1
  0
DIMASSOC
  5
798D
102
{ACAD_REACTORS
330
798C
102
}
330
798C
100
AcDbDimAssoc
330
798B
 90
        3
 70
     0
 71
     1
  1
AcDbOsnapPointRef
 72
    10
331
7854
 73
     0
 91
        0
 40
25.08486001095299
 10
0.0
 20
0.0
 30
0.0
 75
     0
  1
AcDbOsnapPointRef
 72
    10
331
7854
 73
     0
 91
        0
 40
21.86880898737104
 10
0.0
 20
0.0
 30
0.0
 75
     0
  0
DIMASSOC
  5
7A07
102
{ACAD_REACTORS
330
7A06
102
}
330
7A06
100
AcDbDimAssoc
330
7A05
 90
        3
 70
     0
 71
     1
  1
AcDbOsnapPointRef
 72
    13
331
79EA
 73
     0
 91
        0
 40
0.0
 10
0.0
 20
0.0
 30
0.0
 75
     0
  1
AcDbOsnapPointRef
 72
    13
331
79EB
 73
     0
 91
        0
 40
0.0
 10
0.0
 20
0.0
 30
0.0
 75
     0
  0
DIMASSOC
  5
7A16
102
{ACAD_REACTORS
330
7A15
102
}
330
7A15
100
AcDbDimAssoc
330
7A14
 90
        3
 70
     0
 71
     1
  1
AcDbOsnapPointRef
 72
    13
331
79F1
 73
     0
 91
        0
 40
0.0
 10
0.0
 20
0.0
 30
0.0
 75
     0
  1
AcDbOsnapPointRef
 72
    13
331
79EF
 73
     0
 91
        0
 40
0.0
 10
0.0
 20
0.0
 30
0.0
 75
     0
  0
DIMASSOC
  5
7A37
102
{ACAD_REACTORS
330
7A36
102
}
330
7A36
100
AcDbDimAssoc
330
7A35
 90
        2
 70
     0
 71
     1
  1
AcDbOsnapPointRef
 72
     1
331
79F0
 73
     0
 91
        0
 40
0.0
 10
0.0
 20
0.0
 30
0.0
 75
     0
  0
DIMASSOC
  5
7A4E
102
{ACAD_REACTORS
330
7A4D
102
}
330
7A4D
100
AcDbDimAssoc
330
7A4C
 90
        0
 70
     0
 71
     1
  0
GROUP
  5
7869
102
{ACAD_REACTORS
330
1A
102
}
330
1A
100
AcDbGroup
300

 70
     1
 71
     1
340
7864
340
7866
340
7867
340
7863
  0
GROUP
  5
786A
102
{ACAD_REACTORS
330
1A
102
}
330
1A
100
AcDbGroup
300

 70
     1
 71
     1
340
7849
340
784B
340
7840
340
7845
340
7846
340
7847
340
7848
340
784A
340
784C
340
7860
  0
LAYOUT
  5
21
102
{ACAD_REACTORS
330
1E
102
}
330
1E
100
AcDbPlotSettings
  1

  2
none_device
  4
ISO_A3_(420.00_x_297.00_MM)
  6

 40
7.5
 41
20.0
 42
7.5
 43
20.0
 44
420.0
 45
297.0
 46
0.0
 47
0.0
 48
0.0
 49
0.0
140
0.0
141
0.0
142
1.0
143
1.0
 70
     0
 72
     1
 73
     0
 74
     0
  7

 75
     0
 76
     0
 77
     2
 78
   300
147
1.0
148
0.0
149
0.0
100
AcDbLayout
  1
Layout1
 70
     0
 71
     0
 10
-7.5
 20
-20.0
 11
412.5
 21
277.0
 12
0.0
 22
0.0
 32
0.0
 14
0.0
 24
0.0
 34
0.0
 15
0.0
 25
0.0
 35
0.0
146
0.0
 13
0.0
 23
0.0
 33
0.0
 16
0.0
 26
0.0
 36
0.0
 17
0.0
 27
0.0
 37
0.0
 76
     0
330
B
331
349
  0
LAYOUT
  5
20
102
{ACAD_REACTORS
330
1E
102
}
330
1E
100
AcDbPlotSettings
  1

  2
none_device
  4
ISO_A3_(420.00_x_297.00_MM)
  6

 40
7.5
 41
20.0
 42
7.5
 43
20.0
 44
420.0
 45
297.0
 46
0.0
 47
0.0
 48
0.0
 49
0.0
140
0.0
141
0.0
142
1.0
143
1.0
 70
  1024
 72
     1
 73
     0
 74
     0
  7

 75
     0
 76
     0
 77
     2
 78
   300
147
1.0
148
0.0
149
0.0
100
AcDbLayout
  1
Model
 70
     0
 71
     1
 10
0.0
 20
0.0
 11
2100.0
 21
2970.0
 12
0.0
 22
0.0
 32
0.0
 14
0.0
 24
0.0
 34
-0.0000000000000142
 15
2100.0
 25
2970.0
 35
0.0000000000000142
146
0.0
 13
0.0
 23
0.0
 33
0.0
 16
0.0
 26
0.0
 36
0.0
 17
0.0
 27
0.0
 37
0.0
 76
     0
330
A
331
15
  0
MATERIAL
  5
265
102
{ACAD_REACTORS
330
263
102
}
330
263
100
AcDbMaterial
  1
ByBlock
 72
     1
 94
      127
  0
MATERIAL
  5
264
102
{ACAD_REACTORS
330
263
102
}
330
263
100
AcDbMaterial
  1
ByLayer
 72
     1
 94
      127
  0
MATERIAL
  5
266
102
{ACAD_REACTORS
330
263
102
}
330
263
100
AcDbMaterial
  1
Global
 72
     1
 94
      127
  0
MLEADERSTYLE
  5
DAB
102
{ACAD_REACTORS
330
336
102
}
330
336
100
AcDbMLeaderStyle
170
     2
171
     1
172
     0
 90
        2
 40
0.0
 41
0.0
173
     1
 91
-1056964608
340
11
 92
       -2
290
     1
 42
2.0
291
     1
 43
8.0
  3
Standard
341
0
 44
4.0
300

342
17
174
     1
178
     6
175
     1
176
     0
 93
-1056964608
 45
4.0
292
     0
297
     0
 46
4.0
343
0
 94
-1056964608
 47
1.0
 49
1.0
140
1.0
293
     1
141
0.0
294
     1
177
     0
142
1.0
295
     0
296
     0
143
3.75
1001
ACAD_MLEADERVER
1070
     2
  0
MLINESTYLE
  5
1C
102
{ACAD_REACTORS
330
1B
102
}
330
1B
100
AcDbMlineStyle
  2
Standard
 70
     0
  3

 62
     0
 51
90.0
 52
90.0
 71
     2
 49
0.5
 62
   256
  6
BYLAYER
 49
-0.5
 62
   256
  6
BYLAYER
  0
ACDBPLACEHOLDER
  5
1D
102
{ACAD_REACTORS
330
1F
102
}
330
1F
  0
SCALE
  5
242
102
{ACAD_REACTORS
330
241
102
}
330
241
100
AcDbScale
 70
     0
300
1:1
140
1.0
141
1.0
290
     1
  0
SCALE
  5
243
102
{ACAD_REACTORS
330
241
102
}
330
241
100
AcDbScale
 70
     0
300
1:2
140
1.0
141
2.0
290
     0
  0
SCALE
  5
244
102
{ACAD_REACTORS
330
241
102
}
330
241
100
AcDbScale
 70
     0
300
1:4
140
1.0
141
4.0
290
     0
  0
SCALE
  5
245
102
{ACAD_REACTORS
330
241
102
}
330
241
100
AcDbScale
 70
     0
300
1:5
140
1.0
141
5.0
290
     0
  0
SCALE
  5
246
102
{ACAD_REACTORS
330
241
102
}
330
241
100
AcDbScale
 70
     0
300
1:8
140
1.0
141
8.0
290
     0
  0
SCALE
  5
247
102
{ACAD_REACTORS
330
241
102
}
330
241
100
AcDbScale
 70
     0
300
1:10
140
1.0
141
10.0
290
     0
  0
SCALE
  5
248
102
{ACAD_REACTORS
330
241
102
}
330
241
100
AcDbScale
 70
     0
300
1:16
140
1.0
141
16.0
290
     0
  0
SCALE
  5
249
102
{ACAD_REACTORS
330
241
102
}
330
241
100
AcDbScale
 70
     0
300
1:20
140
1.0
141
20.0
290
     0
  0
SCALE
  5
24A
102
{ACAD_REACTORS
330
241
102
}
330
241
100
AcDbScale
 70
     0
300
1:30
140
1.0
141
30.0
290
     0
  0
SCALE
  5
24B
102
{ACAD_REACTORS
330
241
102
}
330
241
100
AcDbScale
 70
     0
300
1:40
140
1.0
141
40.0
290
     0
  0
SCALE
  5
24C
102
{ACAD_REACTORS
330
241
102
}
330
241
100
AcDbScale
 70
     0
300
1:50
140
1.0
141
50.0
290
     0
  0
SCALE
  5
24D
102
{ACAD_REACTORS
330
241
102
}
330
241
100
AcDbScale
 70
     0
300
1:100
140
1.0
141
100.0
290
     0
  0
SCALE
  5
24E
102
{ACAD_REACTORS
330
241
102
}
330
241
100
AcDbScale
 70
     0
300
2:1
140
2.0
141
1.0
290
     0
  0
SCALE
  5
24F
102
{ACAD_REACTORS
330
241
102
}
330
241
100
AcDbScale
 70
     0
300
4:1
140
4.0
141
1.0
290
     0
  0
SCALE
  5
250
102
{ACAD_REACTORS
330
241
102
}
330
241
100
AcDbScale
 70
     0
300
8:1
140
8.0
141
1.0
290
     0
  0
SCALE
  5
251
102
{ACAD_REACTORS
330
241
102
}
330
241
100
AcDbScale
 70
     0
300
10:1
140
10.0
141
1.0
290
     0
  0
SCALE
  5
252
102
{ACAD_REACTORS
330
241
102
}
330
241
100
AcDbScale
 70
     0
300
100:1
140
100.0
141
1.0
290
     0
  0
SCALE
  5
253
102
{ACAD_REACTORS
330
241
102
}
330
241
100
AcDbScale
 70
     0
300
1/128" = 1'-0"
140
0.0078125
141
12.0
290
     0
  0
SCALE
  5
254
102
{ACAD_REACTORS
330
241
102
}
330
241
100
AcDbScale
 70
     0
300
1/64" = 1'-0"
140
0.015625
141
12.0
290
     0
  0
SCALE
  5
255
102
{ACAD_REACTORS
330
241
102
}
330
241
100
AcDbScale
 70
     0
300
1/32" = 1'-0"
140
0.03125
141
12.0
290
     0
  0
SCALE
  5
256
102
{ACAD_REACTORS
330
241
102
}
330
241
100
AcDbScale
 70
     0
300
1/16" = 1'-0"
140
0.0625
141
12.0
290
     0
  0
SCALE
  5
257
102
{ACAD_REACTORS
330
241
102
}
330
241
100
AcDbScale
 70
     0
300
3/32" = 1'-0"
140
0.09375
141
12.0
290
     0
  0
SCALE
  5
258
102
{ACAD_REACTORS
330
241
102
}
330
241
100
AcDbScale
 70
     0
300
1/8" = 1'-0"
140
0.125
141
12.0
290
     0
  0
SCALE
  5
259
102
{ACAD_REACTORS
330
241
102
}
330
241
100
AcDbScale
 70
     0
300
3/16" = 1'-0"
140
0.1875
141
12.0
290
     0
  0
SCALE
  5
25A
102
{ACAD_REACTORS
330
241
102
}
330
241
100
AcDbScale
 70
     0
300
1/4" = 1'-0"
140
0.25
141
12.0
290
     0
  0
SCALE
  5
25B
102
{ACAD_REACTORS
330
241
102
}
330
241
100
AcDbScale
 70
     0
300
3/8" = 1'-0"
140
0.375
141
12.0
290
     0
  0
SCALE
  5
25C
102
{ACAD_REACTORS
330
241
102
}
330
241
100
AcDbScale
 70
     0
300
1/2" = 1'-0"
140
0.5
141
12.0
290
     0
  0
SCALE
  5
25D
102
{ACAD_REACTORS
330
241
102
}
330
241
100
AcDbScale
 70
     0
300
3/4" = 1'-0"
140
0.75
141
12.0
290
     0
  0
SCALE
  5
25E
102
{ACAD_REACTORS
330
241
102
}
330
241
100
AcDbScale
 70
     0
300
1" = 1'-0"
140
1.0
141
12.0
290
     0
  0
SCALE
  5
25F
102
{ACAD_REACTORS
330
241
102
}
330
241
100
AcDbScale
 70
     0
300
1-1/2" = 1'-0"
140
1.5
141
12.0
290
     0
  0
SCALE
  5
260
102
{ACAD_REACTORS
330
241
102
}
330
241
100
AcDbScale
 70
     0
300
3" = 1'-0"
140
3.0
141
12.0
290
     0
  0
SCALE
  5
261
102
{ACAD_REACTORS
330
241
102
}
330
241
100
AcDbScale
 70
     0
300
6" = 1'-0"
140
6.0
141
12.0
290
     0
  0
SCALE
  5
262
102
{ACAD_REACTORS
330
241
102
}
330
241
100
AcDbScale
 70
     0
300
1'-0" = 1'-0"
140
12.0
141
12.0
290
     0
  0
TABLESTYLE
  5
279
102
{ACAD_REACTORS
330
278
102
}
102
{ACAD_XDICTIONARY
360
7B46
102
}
330
278
100
AcDbTableStyle
  3
Standard
 70
     0
 71
     0
 40
0.06
 41
0.06
280
     0
281
     0
  7
Standard
140
4.5
170
     2
 62
     0
 63
   257
283
     0
 90
        4
 91
        0
  1

274
    -2
284
     1
 64
     0
275
    -2
285
     1
 65
     0
276
    -2
286
     1
 66
     0
277
    -2
287
     1
 67
     0
278
    -2
288
     1
 68
     0
279
    -2
289
     1
 69
     0
  7
Standard
140
6.0
170
     5
 62
     0
 63
   257
283
     0
 90
        4
 91
        0
  1

274
    -2
284
     1
 64
     0
275
    -2
285
     1
 65
     0
276
    -2
286
     1
 66
     0
277
    -2
287
     1
 67
     0
278
    -2
288
     1
 68
     0
279
    -2
289
     1
 69
     0
  7
Standard
140
4.5
170
     5
 62
     0
 63
   257
283
     0
 90
        4
 91
        0
  1

274
    -2
284
     1
 64
     0
275
    -2
285
     1
 65
     0
276
    -2
286
     1
 66
     0
277
    -2
287
     1
 67
     0
278
    -2
288
     1
 68
     0
279
    -2
289
     1
 69
     0
  0
VISUALSTYLE
  5
26C
102
{ACAD_REACTORS
330
267
102
}
330
267
100
AcDbVisualStyle
  2
2dWireframe
 70
     4
 71
     0
 72
     2
 73
     0
 90
        0
 40
-0.6
 41
-30.0
 62
     5
 63
     7
421
 16777215
 74
     1
 91
        4
 64
     7
 65
   257
 75
     1
175
     1
 42
1.0
 92
        0
 66
   257
 43
1.0
 76
     1
 77
     6
 78
     2
 67
     7
 79
     5
170
     0
171
     0
290
     0
174
     0
 93
        1
 44
0.0
173
     0
291
     0
 45
0.0
  0
VISUALSTYLE
  5
26E
102
{ACAD_REACTORS
330
267
102
}
330
267
100
AcDbVisualStyle
  2
3D Hidden
 70
     6
 71
     1
 72
     2
 73
     2
 90
        0
 40
-0.6
 41
-30.0
 62
     5
 63
     7
421
 16777215
 74
     2
 91
        2
 64
     7
 65
   257
 75
     2
175
     1
 42
40.0
 92
        0
 66
   257
 43
1.0
 76
     1
 77
     6
 78
     2
 67
     7
 79
     3
170
     0
171
     0
290
     0
174
     0
 93
        1
 44
0.0
173
     0
291
     0
 45
0.0
  0
VISUALSTYLE
  5
26D
102
{ACAD_REACTORS
330
267
102
}
330
267
100
AcDbVisualStyle
  2
3dWireframe
 70
     5
 71
     0
 72
     2
 73
     0
 90
        0
 40
-0.6
 41
-30.0
 62
     5
 63
     7
421
 16777215
 74
     1
 91
        4
 64
     7
 65
   257
 75
     1
175
     1
 42
1.0
 92
        0
 66
   257
 43
1.0
 76
     1
 77
     6
 78
     2
 67
     7
 79
     5
170
     0
171
     0
290
     0
174
     0
 93
        1
 44
0.0
173
     0
291
     0
 45
0.0
  0
VISUALSTYLE
  5
26F
102
{ACAD_REACTORS
330
267
102
}
330
267
100
AcDbVisualStyle
  2
Basic
 70
     7
 71
     1
 72
     0
 73
     1
 90
        0
 40
-0.6
 41
-30.0
 62
     5
 63
     7
421
 16777215
 74
     0
 91
        4
 64
     7
 65
   257
 75
     1
175
     1
 42
1.0
 92
        8
 66
     7
 43
1.0
 76
     1
 77
     6
 78
     2
 67
     7
 79
     5
170
     0
171
     0
290
     0
174
     0
 93
        1
 44
0.0
173
     0
291
     1
 45
0.0
  0
VISUALSTYLE
  5
273
102
{ACAD_REACTORS
330
267
102
}
330
267
100
AcDbVisualStyle
  2
Brighten
 70
    12
 71
     2
 72
     2
 73
     0
 90
        0
 40
-0.6
 41
-30.0
 62
     5
 63
     7
421
 16777215
 74
     1
 91
        4
 64
     7
 65
   257
 75
     1
175
     1
 42
1.0
 92
        8
 66
     7
 43
1.0
 76
     1
 77
     6
 78
     2
 67
     7
 79
     5
170
     0
171
     0
290
     0
174
     0
 93
        1
 44
50.0
173
     0
291
     1
 45
0.0
  0
VISUALSTYLE
  5
277
102
{ACAD_REACTORS
330
267
102
}
330
267
100
AcDbVisualStyle
  2
ColorChange
 70
    16
 71
     2
 72
     2
 73
     3
 90
        0
 40
-0.6
 41
-30.0
 62
     5
 63
     8
421
  8421504
 74
     1
 91
        4
 64
     7
 65
   257
 75
     1
175
     1
 42
1.0
 92
        8
 66
     8
424
  8421504
 43
1.0
 76
     1
 77
     6
 78
     2
 67
     7
 79
     5
170
     0
171
     0
290
     0
174
     0
 93
        1
 44
0.0
173
     0
291
     1
 45
0.0
  0
VISUALSTYLE
  5
271
102
{ACAD_REACTORS
330
267
102
}
330
267
100
AcDbVisualStyle
  2
Conceptual
 70
     9
 71
     3
 72
     2
 73
     0
 90
        0
 40
-0.6
 41
-30.0
 62
     5
 63
     7
421
 16777215
 74
     2
 91
        2
 64
     7
 65
   257
 75
     1
175
     1
 42
40.0
 92
        8
 66
     7
 43
1.0
 76
     1
 77
     6
 78
     2
 67
     7
 79
     3
170
     0
171
     0
290
     0
174
     0
 93
        1
 44
0.0
173
     0
291
     0
 45
0.0
  0
VISUALSTYLE
  5
272
102
{ACAD_REACTORS
330
267
102
}
330
267
100
AcDbVisualStyle
  2
Dim
 70
    11
 71
     2
 72
     2
 73
     0
 90
        0
 40
-0.6
 41
-30.0
 62
     5
 63
     7
421
 16777215
 74
     1
 91
        4
 64
     7
 65
   257
 75
     1
175
     1
 42
1.0
 92
        8
 66
     7
 43
1.0
 76
     1
 77
     6
 78
     2
 67
     7
 79
     5
170
     0
171
     0
290
     0
174
     0
 93
        1
 44
-50.0
173
     0
291
     1
 45
0.0
  0
VISUALSTYLE
  5
8FE
102
{ACAD_REACTORS
330
267
102
}
330
267
100
AcDbVisualStyle
  2
EdgeColorOff
 70
    22
 71
     2
 72
     2
 73
     0
 90
        0
 40
0.6
 41
30.0
 62
     5
 63
     7
421
 16777215
 74
     1
 91
        4
 64
     7
 65
   257
 75
     1
175
     1
 42
1.0
 92
        8
 66
     7
 43
1.0
 76
     1
 77
     6
 78
     2
 67
     7
 79
     5
170
     0
171
     0
290
     0
174
     0
 93
        1
 44
0.0
173
     0
291
     1
 45
0.0
  0
VISUALSTYLE
  5
276
102
{ACAD_REACTORS
330
267
102
}
330
267
100
AcDbVisualStyle
  2
Facepattern
 70
    15
 71
     2
 72
     2
 73
     0
 90
        0
 40
-0.6
 41
-30.0
 62
     5
 63
     7
421
 16777215
 74
     1
 91
        4
 64
     7
 65
   257
 75
     1
175
     1
 42
1.0
 92
        8
 66
     7
 43
1.0
 76
     1
 77
     6
 78
     2
 67
     7
 79
     5
170
     0
171
     0
290
     0
174
     0
 93
        1
 44
0.0
173
     0
291
     1
 45
0.0
  0
VISUALSTYLE
  5
268
102
{ACAD_REACTORS
330
267
102
}
330
267
100
AcDbVisualStyle
  2
Flat
 70
     0
 71
     2
 72
     1
 73
     1
 90
        2
 40
-0.6
 41
30.0
 62
     5
 63
     7
421
 16777215
 74
     0
 91
        4
 64
     7
 65
   257
 75
     1
175
     1
 42
1.0
 92
        8
 66
     7
 43
1.0
 76
     1
 77
     6
 78
     2
 67
     7
 79
     5
170
     0
171
     0
290
     0
174
     0
 93
       13
 44
0.0
173
     0
291
     1
 45
0.0
  0
VISUALSTYLE
  5
269
102
{ACAD_REACTORS
330
267
102
}
330
267
100
AcDbVisualStyle
  2
FlatWithEdges
 70
     1
 71
     2
 72
     1
 73
     1
 90
        2
 40
-0.6
 41
30.0
 62
     5
 63
     7
421
 16777215
 74
     1
 91
        4
 64
     7
 65
   257
 75
     1
175
     1
 42
1.0
 92
        0
 66
   257
 43
1.0
 76
     1
 77
     6
 78
     2
 67
     7
 79
     5
170
     0
171
     0
290
     0
174
     0
 93
       13
 44
0.0
173
     0
291
     1
 45
0.0
  0
VISUALSTYLE
  5
26A
102
{ACAD_REACTORS
330
267
102
}
330
267
100
AcDbVisualStyle
  2
Gouraud
 70
     2
 71
     2
 72
     2
 73
     1
 90
        2
 40
-0.6
 41
30.0
 62
     5
 63
     7
421
 16777215
 74
     0
 91
        4
 64
     7
 65
   257
 75
     1
175
     1
 42
1.0
 92
        0
 66
     7
 43
1.0
 76
     1
 77
     6
 78
     2
 67
     7
 79
     5
170
     0
171
     0
290
     0
174
     0
 93
       13
 44
0.0
173
     0
291
     1
 45
0.0
  0
VISUALSTYLE
  5
26B
102
{ACAD_REACTORS
330
267
102
}
330
267
100
AcDbVisualStyle
  2
GouraudWithEdges
 70
     3
 71
     2
 72
     2
 73
     1
 90
        2
 40
-0.6
 41
30.0
 62
     5
 63
     7
421
 16777215
 74
     1
 91
        4
 64
     7
 65
   257
 75
     1
175
     1
 42
1.0
 92
        0
 66
   257
 43
1.0
 76
     1
 77
     6
 78
     2
 67
     7
 79
     5
170
     0
171
     0
290
     0
174
     0
 93
       13
 44
0.0
173
     0
291
     1
 45
0.0
  0
VISUALSTYLE
  5
8FB
102
{ACAD_REACTORS
330
267
102
}
330
267
100
AcDbVisualStyle
  2
Hidden
 70
     6
 71
     1
 72
     2
 73
     2
 90
        0
 40
0.6
 41
30.0
 62
     5
 63
     7
421
 16777215
 74
     2
 91
        2
 64
     7
 65
   257
 75
     2
175
     1
 42
40.0
 92
        0
 66
   257
 43
1.0
 76
     1
 77
     6
 78
     2
 67
     7
 79
     3
170
     0
171
     0
290
     0
174
     0
 93
        1
 44
0.0
173
     0
291
     0
 45
0.0
  0
VISUALSTYLE
  5
8FC
102
{ACAD_REACTORS
330
267
102
}
330
267
100
AcDbVisualStyle
  2
JitterOff
 70
    20
 71
     2
 72
     2
 73
     0
 90
        0
 40
0.6
 41
30.0
 62
     5
 63
     7
421
 16777215
 74
     1
 91
        4
 64
     7
 65
   257
 75
     1
175
     1
 42
1.0
 92
       10
 66
     7
 43
1.0
 76
     1
 77
     6
 78
     2
 67
     7
 79
     5
170
     0
171
     0
290
     0
174
     0
 93
        1
 44
0.0
173
     0
291
     1
 45
0.0
  0
VISUALSTYLE
  5
275
102
{ACAD_REACTORS
330
267
102
}
330
267
100
AcDbVisualStyle
  2
Linepattern
 70
    14
 71
     2
 72
     2
 73
     0
 90
        0
 40
-0.6
 41
-30.0
 62
     5
 63
     7
421
 16777215
 74
     1
 91
        4
 64
     7
 65
   257
 75
     7
175
     7
 42
1.0
 92
        8
 66
     7
 43
1.0
 76
     1
 77
     6
 78
     2
 67
     7
 79
     5
170
     0
171
     0
290
     0
174
     0
 93
        1
 44
0.0
173
     0
291
     1
 45
0.0
  0
VISUALSTYLE
  5
8FD
102
{ACAD_REACTORS
330
267
102
}
330
267
100
AcDbVisualStyle
  2
OverhangOff
 70
    21
 71
     2
 72
     2
 73
     0
 90
        0
 40
0.6
 41
30.0
 62
     5
 63
     7
421
 16777215
 74
     1
 91
        4
 64
     7
 65
   257
 75
     1
175
     1
 42
1.0
 92
        9
 66
     7
 43
1.0
 76
     1
 77
     6
 78
     2
 67
     7
 79
     5
170
     0
171
     0
290
     0
174
     0
 93
        1
 44
0.0
173
     0
291
     1
 45
0.0
  0
VISUALSTYLE
  5
270
102
{ACAD_REACTORS
330
267
102
}
330
267
100
AcDbVisualStyle
  2
Realistic
 70
     8
 71
     2
 72
     2
 73
     0
 90
        0
 40
-0.6
 41
-30.0
 62
     5
 63
     7
421
 16777215
 74
     1
 91
        0
 64
     7
 65
   257
 75
     1
175
     1
 42
1.0
 92
        8
 66
     8
424
  7895160
 43
1.0
 76
     1
 77
     6
 78
     2
 67
     7
 79
     5
170
     0
171
     0
290
     0
174
     0
 93
       13
 44
0.0
173
     0
291
     0
 45
0.0
  0
VISUALSTYLE
  5
903
102
{ACAD_REACTORS
330
267
102
}
330
267
100
AcDbVisualStyle
  2
Shaded
 70
    27
 71
     2
 72
     2
 73
     1
 90
        2
 40
0.6
 41
30.0
 62
     5
 63
     7
421
 16777215
 74
     0
 91
        4
 64
     7
 65
   257
 75
     1
175
     1
 42
1.0
 92
        8
 66
   257
 43
1.0
 76
     1
 77
     6
 78
     2
 67
     8
425
  7895160
 79
     3
170
     0
171
     0
290
     0
174
     0
 93
        5
 44
0.0
173
     0
291
     0
 45
0.0
  0
VISUALSTYLE
  5
902
102
{ACAD_REACTORS
330
267
102
}
330
267
100
AcDbVisualStyle
  2
Shaded with edges
 70
    26
 71
     2
 72
     2
 73
     1
 90
        2
 40
0.6
 41
30.0
 62
     5
 63
     7
421
 16777215
 74
     1
 91
       10
 64
     7
 65
   257
 75
     2
175
     1
 42
1.0
 92
        8
 66
   257
 43
1.0
 76
     1
 77
     6
 78
     2
 67
     7
 79
     3
170
     0
171
     0
290
     0
174
     0
 93
        5
 44
0.0
173
     0
291
     0
 45
0.0
  0
VISUALSTYLE
  5
8FF
102
{ACAD_REACTORS
330
267
102
}
330
267
100
AcDbVisualStyle
  2
Shades of Gray
 70
    23
 71
     2
 72
     2
 73
     3
 90
        0
 40
0.6
 41
30.0
 62
     5
 63
     7
421
 16777215
 74
     2
 91
        2
 64
     7
 65
     7
 75
     1
175
     1
 42
40.0
 92
        8
 66
     7
 43
1.0
 76
     1
 77
     6
 78
     2
 67
     7
 79
     3
170
     0
171
     0
290
     0
174
     0
 93
        1
 44
0.0
173
     0
291
     0
 45
0.0
  0
VISUALSTYLE
  5
900
102
{ACAD_REACTORS
330
267
102
}
330
267
100
AcDbVisualStyle
  2
Sketchy
 70
    24
 71
     1
 72
     2
 73
     2
 90
        0
 40
0.6
 41
30.0
 62
     5
 63
     7
421
 16777215
 74
     2
 91
        2
 64
     7
 65
     7
 75
     1
175
     1
 42
40.0
 92
       11
 66
     7
 43
1.0
 76
     1
 77
     6
 78
     2
 67
     7
 79
     6
170
     0
171
     0
290
     0
174
     0
 93
        1
 44
0.0
173
     0
291
     0
 45
0.0
  0
VISUALSTYLE
  5
274
102
{ACAD_REACTORS
330
267
102
}
330
267
100
AcDbVisualStyle
  2
Thicken
 70
    13
 71
     2
 72
     2
 73
     0
 90
        0
 40
-0.6
 41
-30.0
 62
     5
 63
     7
421
 16777215
 74
     1
 91
        4
 64
     7
 65
   257
 75
     1
175
     1
 42
1.0
 92
       12
 66
     7
 43
1.0
 76
     1
 77
     6
 78
     2
 67
     7
 79
     5
170
     0
171
     0
290
     0
174
     0
 93
        1
 44
0.0
173
     0
291
     1
 45
0.0
  0
VISUALSTYLE
  5
8FA
102
{ACAD_REACTORS
330
267
102
}
330
267
100
AcDbVisualStyle
  2
Wireframe
 70
     5
 71
     0
 72
     2
 73
     0
 90
        0
 40
0.6
 41
30.0
 62
     5
 63
     7
421
 16777215
 74
     1
 91
        4
 64
     7
 65
   257
 75
     1
175
     1
 42
1.0
 92
        0
 66
   257
 43
1.0
 76
     1
 77
     6
 78
     2
 67
     7
 79
     3
170
     0
171
     0
290
     0
174
     0
 93
        1
 44
0.0
173
     0
291
     0
 45
0.0
  0
VISUALSTYLE
  5
901
102
{ACAD_REACTORS
330
267
102
}
330
267
100
AcDbVisualStyle
  2
X-Ray
 70
    25
 71
     2
 72
     2
 73
     1
 90
        1
 40
0.5
 41
30.0
 62
     5
 63
     7
421
 16777215
 74
     1
 91
        0
 64
     7
 65
   257
 75
     1
175
     1
 42
1.0
 92
        8
 66
     7
 43
1.0
 76
     1
 77
     6
 78
     2
 67
     7
 79
     3
170
     0
171
     0
290
     0
174
     0
 93
       13
 44
0.0
173
     0
291
     0
 45
0.0
  0
DICTIONARYVAR
  5
331
102
{ACAD_REACTORS
330
330
102
}
330
330
100
DictionaryVariables
280
     0
  1
1:1
  0
DICTIONARYVAR
  5
DB1
102
{ACAD_REACTORS
330
330
102
}
330
330
100
DictionaryVariables
280
     0
  1
Standard
  0
DICTIONARYVAR
  5
335
102
{ACAD_REACTORS
330
330
102
}
330
330
100
DictionaryVariables
280
     0
  1
Standard
  0
DICTIONARYVAR
  5
D52
102
{ACAD_REACTORS
330
330
102
}
330
330
100
DictionaryVariables
280
     0
  1
ByLayer
  0
DICTIONARYVAR
  5
896
102
{ACAD_REACTORS
330
330
102
}
330
330
100
DictionaryVariables
280
     0
  1
0
  0
DICTIONARYVAR
  5
ECE
102
{ACAD_REACTORS
330
E3E
102
}
330
E3E
100
DictionaryVariables
280
     0
  1
0.261799
  0
DICTIONARYVAR
  5
ECC
102
{ACAD_REACTORS
330
E3E
102
}
330
E3E
100
DictionaryVariables
280
     0
  1
0.400000
  0
DICTIONARYVAR
  5
ECD
102
{ACAD_REACTORS
330
E3E
102
}
330
E3E
100
DictionaryVariables
280
     0
  1
0.250000
  0
DICTIONARYVAR
  5
ECF
102
{ACAD_REACTORS
330
E3E
102
}
330
E3E
100
DictionaryVariables
280
     0
  1
1
  0
FIELD
  5
1467
102
{ACAD_REACTORS
330
146C
102
}
330
146C
100
AcDbField
  1
_text
  2
{%<\_FldIdx 0>%N}
 90
        1
360
146B
 97
        0
 91
       63
 92
        0
 94
        8
 95
        2
 96
        0
300

 93
        1
  6
ACFD_FIELDTEXT_CHECKSUM
 93
        2
 90
        2
140
4510.0
 94
        0
300

302

304
ACVALUE_END
  7
ACFD_FIELD_VALUE
 93
        6
 90
        4
  1
{20171017N}
 94
        0
300

302

304
ACVALUE_END
301
{20171017N}
 98
       11
  0
DICTIONARY
  5
7B46
330
279
100
AcDbDictionary
280
     1
281
     1
  3
ACAD_ROUNDTRIP_2008_TABLESTYLE_CELLSTYLEMAP
360
7B47
  0
FIELD
  5
146B
330
1467
100
AcDbField
  1
AcVar
  2
\AcVar Date \f "yyyyMMdd"
 90
        0
 97
        0
 91
       63
 92
        0
 94
        8
 95
       64
 96
        0
300
Variable not supported
 93
        1
  6
Variable
 93
        2
 90
        4
  1
Date
 94
        0
300

302

304
ACVALUE_END
  7
ACFD_FIELD_VALUE
 93
        6
 90
        8
 92
       16
310
E1070A00000011000A0017000B000000
 94
        0
300
yyyyMMdd
302

304
ACVALUE_END
301
20171017
 98
        8
  0
CELLSTYLEMAP
  5
7B47
102
{ACAD_REACTORS
330
7B46
102
}
330
7B46
100
AcDbCellStyleMap
 90
        3
300
CELLSTYLE
  1
TABLEFORMAT_BEGIN
 90
        5
170
     1
 91
        0
 92
    32768
 62
   257
 93
        1
300
CONTENTFORMAT
  1
CONTENTFORMAT_BEGIN
 90
        0
 91
        0
 92
        4
 93
        0
300

 40
0.0
140
1.0
 94
        5
 62
     0
340
17
144
6.0
309
CONTENTFORMAT_END
171
     1
301
MARGIN
  1
CELLMARGIN_BEGIN
 40
0.06
 40
0.06
 40
0.06
 40
0.06
 40
0.18
 40
0.18
309
CELLMARGIN_END
 94
        6
 95
        1
302
GRIDFORMAT
  1
GRIDFORMAT_BEGIN
 90
        0
 91
        1
 62
     0
 92
       -2
340
0
 93
        0
 40
0.045
309
GRIDFORMAT_END
 95
        2
302
GRIDFORMAT
  1
GRIDFORMAT_BEGIN
 90
        0
 91
        1
 62
     0
 92
       -2
340
0
 93
        0
 40
0.045
309
GRIDFORMAT_END
 95
        4
302
GRIDFORMAT
  1
GRIDFORMAT_BEGIN
 90
        0
 91
        1
 62
     0
 92
       -2
340
0
 93
        0
 40
0.045
309
GRIDFORMAT_END
 95
        8
302
GRIDFORMAT
  1
GRIDFORMAT_BEGIN
 90
        0
 91
        1
 62
     0
 92
       -2
340
0
 93
        0
 40
0.045
309
GRIDFORMAT_END
 95
       16
302
GRIDFORMAT
  1
GRIDFORMAT_BEGIN
 90
        0
 91
        1
 62
     0
 92
       -2
340
0
 93
        0
 40
0.045
309
GRIDFORMAT_END
 95
       32
302
GRIDFORMAT
  1
GRIDFORMAT_BEGIN
 90
        0
 91
        1
 62
     0
 92
       -2
340
0
 93
        0
 40
0.045
309
GRIDFORMAT_END
309
TABLEFORMAT_END
  1
CELLSTYLE_BEGIN
 90
        1
 91
        1
300
_TITLE
309
CELLSTYLE_END
300
CELLSTYLE
  1
TABLEFORMAT_BEGIN
 90
        5
170
     1
 91
        0
 92
        0
 62
   257
 93
        1
300
CONTENTFORMAT
  1
CONTENTFORMAT_BEGIN
 90
        0
 91
        0
 92
        4
 93
        0
300

 40
0.0
140
1.0
 94
        5
 62
     0
340
17
144
4.5
309
CONTENTFORMAT_END
171
     1
301
MARGIN
  1
CELLMARGIN_BEGIN
 40
0.06
 40
0.06
 40
0.06
 40
0.06
 40
0.18
 40
0.18
309
CELLMARGIN_END
 94
        6
 95
        1
302
GRIDFORMAT
  1
GRIDFORMAT_BEGIN
 90
        0
 91
        1
 62
     0
 92
       -2
340
0
 93
        0
 40
0.045
309
GRIDFORMAT_END
 95
        2
302
GRIDFORMAT
  1
GRIDFORMAT_BEGIN
 90
        0
 91
        1
 62
     0
 92
       -2
340
0
 93
        0
 40
0.045
309
GRIDFORMAT_END
 95
        4
302
GRIDFORMAT
  1
GRIDFORMAT_BEGIN
 90
        0
 91
        1
 62
     0
 92
       -2
340
0
 93
        0
 40
0.045
309
GRIDFORMAT_END
 95
        8
302
GRIDFORMAT
  1
GRIDFORMAT_BEGIN
 90
        0
 91
        1
 62
     0
 92
       -2
340
0
 93
        0
 40
0.045
309
GRIDFORMAT_END
 95
       16
302
GRIDFORMAT
  1
GRIDFORMAT_BEGIN
 90
        0
 91
        1
 62
     0
 92
       -2
340
0
 93
        0
 40
0.045
309
GRIDFORMAT_END
 95
       32
302
GRIDFORMAT
  1
GRIDFORMAT_BEGIN
 90
        0
 91
        1
 62
     0
 92
       -2
340
0
 93
        0
 40
0.045
309
GRIDFORMAT_END
309
TABLEFORMAT_END
  1
CELLSTYLE_BEGIN
 90
        2
 91
        1
300
_HEADER
309
CELLSTYLE_END
300
CELLSTYLE
  1
TABLEFORMAT_BEGIN
 90
        5
170
     1
 91
        0
 92
        0
 62
   257
 93
        1
300
CONTENTFORMAT
  1
CONTENTFORMAT_BEGIN
 90
        0
 91
        0
 92
        4
 93
        0
300

 40
0.0
140
1.0
 94
        2
 62
     0
340
17
144
4.5
309
CONTENTFORMAT_END
171
     1
301
MARGIN
  1
CELLMARGIN_BEGIN
 40
0.06
 40
0.06
 40
0.06
 40
0.06
 40
0.18
 40
0.18
309
CELLMARGIN_END
 94
        6
 95
        1
302
GRIDFORMAT
  1
GRIDFORMAT_BEGIN
 90
        0
 91
        1
 62
     0
 92
       -2
340
0
 93
        0
 40
0.045
309
GRIDFORMAT_END
 95
        2
302
GRIDFORMAT
  1
GRIDFORMAT_BEGIN
 90
        0
 91
        1
 62
     0
 92
       -2
340
0
 93
        0
 40
0.045
309
GRIDFORMAT_END
 95
        4
302
GRIDFORMAT
  1
GRIDFORMAT_BEGIN
 90
        0
 91
        1
 62
     0
 92
       -2
340
0
 93
        0
 40
0.045
309
GRIDFORMAT_END
 95
        8
302
GRIDFORMAT
  1
GRIDFORMAT_BEGIN
 90
        0
 91
        1
 62
     0
 92
       -2
340
0
 93
        0
 40
0.045
309
GRIDFORMAT_END
 95
       16
302
GRIDFORMAT
  1
GRIDFORMAT_BEGIN
 90
        0
 91
        1
 62
     0
 92
       -2
340
0
 93
        0
 40
0.045
309
GRIDFORMAT_END
 95
       32
302
GRIDFORMAT
  1
GRIDFORMAT_BEGIN
 90
        0
 91
        1
 62
     0
 92
       -2
340
0
 93
        0
 40
0.045
309
GRIDFORMAT_END
309
TABLEFORMAT_END
  1
CELLSTYLE_BEGIN
 90
        3
 91
        2
300
_DATA
309
CELLSTYLE_END
  0
ENDSEC
  0
EOF
