  0
SECTION
  2
HEADER
  9
$ACADVER
  1
AC1021
  9
$ACADMAINTVER
 70
    25
  9
$DWGCODEPAGE
  3
ANSI_932
  9
$LASTSAVEDBY
  1
howeNelson
  9
$INSBASE
 10
0.0
 20
0.0
 30
0.0
  9
$EXTMIN
 10
0.0
 20
0.0
 30
-0.0000000000000142
  9
$EXTMAX
 10
2100.0
 20
2970.0
 30
0.0000000000000071
  9
$LIMMIN
 10
0.0
 20
0.0
  9
$LIMMAX
 10
2100.0
 20
2970.0
  9
$ORTHOMODE
 70
     0
  9
$REGENMODE
 70
     1
  9
$FILLMODE
 70
     1
  9
$QTEXTMODE
 70
     0
  9
$MIRRTEXT
 70
     1
  9
$LTSCALE
 40
5.0
  9
$ATTMODE
 70
     1
  9
$TEXTSIZE
 40
2.5
  9
$TRACEWID
 40
1.0
  9
$TEXTSTYLE
  7
ＭＳ ゴシック
  9
$CLAYER
  8
MODEL
  9
$CELTYPE
  6
ByLayer
  9
$CECOLOR
 62
   256
  9
$CELTSCALE
 40
1.0
  9
$DISPSILH
 70
     0
  9
$DIMSCALE
 40
1.0
  9
$DIMASZ
 40
10.0
  9
$DIMEXO
 40
30.0
  9
$DIMDLI
 40
0.9999999999999999
  9
$DIMRND
 40
0.0
  9
$DIMDLE
 40
0.0
  9
$DIMEXE
 40
0.0
  9
$DIMTP
 40
0.0
  9
$DIMTM
 40
0.0
  9
$DIMTXT
 40
24.0
  9
$DIMCEN
 40
0.0
  9
$DIMTSZ
 40
0.0
  9
$DIMTOL
 70
     0
  9
$DIMLIM
 70
     0
  9
$DIMTIH
 70
     0
  9
$DIMTOH
 70
     0
  9
$DIMSE1
 70
     0
  9
$DIMSE2
 70
     0
  9
$DIMTAD
 70
     1
  9
$DIMZIN
 70
    11
  9
$DIMBLK
  1
DOT
  9
$DIMASO
 70
     1
  9
$DIMSHO
 70
     1
  9
$DIMPOST
  1
<>
  9
$DIMAPOST
  1
[]
  9
$DIMALT
 70
     0
  9
$DIMALTD
 70
     1
  9
$DIMALTF
 40
1.0
  9
$DIMLFAC
 40
1.0
  9
$DIMTOFL
 70
     0
  9
$DIMTVP
 40
0.0
  9
$DIMTIX
 70
     1
  9
$DIMSOXD
 70
     0
  9
$DIMSAH
 70
     0
  9
$DIMBLK1
  1

  9
$DIMBLK2
  1

  9
$DIMSTYLE
  2
tfrom線あり
  9
$DIMCLRD
 70
     0
  9
$DIMCLRE
 70
     0
  9
$DIMCLRT
 70
     0
  9
$DIMTFAC
 40
1.0
  9
$DIMGAP
 40
20.0
  9
$DIMJUST
 70
     0
  9
$DIMSD1
 70
     0
  9
$DIMSD2
 70
     0
  9
$DIMTOLJ
 70
     1
  9
$DIMTZIN
 70
    11
  9
$DIMALTZ
 70
    11
  9
$DIMALTTZ
 70
    11
  9
$DIMUPT
 70
     0
  9
$DIMDEC
 70
     0
  9
$DIMTDEC
 70
     1
  9
$DIMALTU
 70
     2
  9
$DIMALTTD
 70
     2
  9
$DIMTXSTY
  7
ＭＳ ゴシック
  9
$DIMAUNIT
 70
     0
  9
$DIMADEC
 70
     2
  9
$DIMALTRND
 40
0.0
  9
$DIMAZIN
 70
     0
  9
$DIMDSEP
 70
    46
  9
$DIMATFIT
 70
     0
  9
$DIMFRAC
 70
     2
  9
$DIMLDRBLK
  1
DOT
  9
$DIMLUNIT
 70
     2
  9
$DIMLWD
 70
    -2
  9
$DIMLWE
 70
    -2
  9
$DIMTMOVE
 70
     0
  9
$DIMFXL
 40
1.0
  9
$DIMFXLON
 70
     0
  9
$DIMJOGANG
 40
0.7853981633974483
  9
$DIMTFILL
 70
     0
  9
$DIMTFILLCLR
 70
     0
  9
$DIMARCSYM
 70
     0
  9
$DIMLTYPE
  6

  9
$DIMLTEX1
  6

  9
$DIMLTEX2
  6

  9
$LUNITS
 70
     2
  9
$LUPREC
 70
     0
  9
$SKETCHINC
 40
0.1
  9
$FILLETRAD
 40
0.0
  9
$AUNITS
 70
     0
  9
$AUPREC
 70
     0
  9
$MENU
  1
acad
  9
$ELEVATION
 40
0.0
  9
$PELEVATION
 40
0.0
  9
$THICKNESS
 40
0.0
  9
$LIMCHECK
 70
     0
  9
$CHAMFERA
 40
0.0
  9
$CHAMFERB
 40
0.0
  9
$CHAMFERC
 40
0.0
  9
$CHAMFERD
 40
0.0
  9
$SKPOLY
 70
     0
  9
$TDCREATE
 40
2447893.375
  9
$TDUCREATE
 40
0.0
  9
$TDUPDATE
 40
2458158.74404625
  9
$TDUUPDATE
 40
2458158.36904625
  9
$TDINDWG
 40
0.2241819213
  9
$TDUSRTIMER
 40
0.0268047801
  9
$USRTIMER
 70
     1
  9
$ANGBASE
 50
0.0
  9
$ANGDIR
 70
     0
  9
$PDMODE
 70
     1
  9
$PDSIZE
 40
-2.0
  9
$PLINEWID
 40
0.0
  9
$SPLFRAME
 70
     0
  9
$SPLINETYPE
 70
     6
  9
$SPLINESEGS
 70
     8
  9
$HANDSEED
  5
51C6
  9
$SURFTAB1
 70
     6
  9
$SURFTAB2
 70
     6
  9
$SURFTYPE
 70
     6
  9
$SURFU
 70
     6
  9
$SURFV
 70
     6
  9
$UCSBASE
  2

  9
$UCSNAME
  2

  9
$UCSORG
 10
0.0
 20
0.0
 30
0.0
  9
$UCSXDIR
 10
1.0
 20
0.0
 30
0.0
  9
$UCSYDIR
 10
0.0
 20
1.0
 30
0.0
  9
$UCSORTHOREF
  2

  9
$UCSORTHOVIEW
 70
     0
  9
$UCSORGTOP
 10
0.0
 20
0.0
 30
0.0
  9
$UCSORGBOTTOM
 10
0.0
 20
0.0
 30
0.0
  9
$UCSORGLEFT
 10
0.0
 20
0.0
 30
0.0
  9
$UCSORGRIGHT
 10
0.0
 20
0.0
 30
0.0
  9
$UCSORGFRONT
 10
0.0
 20
0.0
 30
0.0
  9
$UCSORGBACK
 10
0.0
 20
0.0
 30
0.0
  9
$PUCSBASE
  2

  9
$PUCSNAME
  2

  9
$PUCSORG
 10
0.0
 20
0.0
 30
0.0
  9
$PUCSXDIR
 10
1.0
 20
0.0
 30
0.0
  9
$PUCSYDIR
 10
0.0
 20
1.0
 30
0.0
  9
$PUCSORTHOREF
  2

  9
$PUCSORTHOVIEW
 70
     0
  9
$PUCSORGTOP
 10
0.0
 20
0.0
 30
0.0
  9
$PUCSORGBOTTOM
 10
0.0
 20
0.0
 30
0.0
  9
$PUCSORGLEFT
 10
0.0
 20
0.0
 30
0.0
  9
$PUCSORGRIGHT
 10
0.0
 20
0.0
 30
0.0
  9
$PUCSORGFRONT
 10
0.0
 20
0.0
 30
0.0
  9
$PUCSORGBACK
 10
0.0
 20
0.0
 30
0.0
  9
$USERI1
 70
     0
  9
$USERI2
 70
     0
  9
$USERI3
 70
     0
  9
$USERI4
 70
     0
  9
$USERI5
 70
     0
  9
$USERR1
 40
0.0
  9
$USERR2
 40
0.0
  9
$USERR3
 40
0.0
  9
$USERR4
 40
0.0
  9
$USERR5
 40
0.0
  9
$WORLDVIEW
 70
     1
  9
$SHADEDGE
 70
     3
  9
$SHADEDIF
 70
    70
  9
$TILEMODE
 70
     1
  9
$MAXACTVP
 70
    64
  9
$PINSBASE
 10
0.0
 20
0.0
 30
0.0
  9
$PLIMCHECK
 70
     0
  9
$PEXTMIN
 10
0.0
 20
0.0
 30
0.0
  9
$PEXTMAX
 10
0.0
 20
0.0
 30
0.0
  9
$PLIMMIN
 10
-7.5
 20
-20.0
  9
$PLIMMAX
 10
412.5
 20
277.0
  9
$UNITMODE
 70
     0
  9
$VISRETAIN
 70
     0
  9
$PLINEGEN
 70
     1
  9
$PSLTSCALE
 70
     0
  9
$TREEDEPTH
 70
  3020
  9
$CMLSTYLE
  2
Standard
  9
$CMLJUST
 70
     0
  9
$CMLSCALE
 40
1.0
  9
$PROXYGRAPHICS
 70
     0
  9
$MEASUREMENT
 70
     1
  9
$CELWEIGHT
370
    -1
  9
$ENDCAPS
280
     0
  9
$JOINSTYLE
280
     0
  9
$LWDISPLAY
290
     1
  9
$INSUNITS
 70
     4
  9
$HYPERLINKBASE
  1

  9
$STYLESHEET
  1

  9
$XEDIT
290
     1
  9
$CEPSNTYPE
380
     0
  9
$PSTYLEMODE
290
     1
  9
$FINGERPRINTGUID
  2

  9
$VERSIONGUID
  2

  9
$EXTNAMES
290
     1
  9
$PSVPSCALE
 40
0.0
  9
$OLESTARTUP
290
     0
  9
$SORTENTS
280
   127
  9
$INDEXCTL
280
     0
  9
$HIDETEXT
280
     1
  9
$XCLIPFRAME
290
     0
  9
$HALOGAP
280
     0
  9
$OBSCOLOR
 70
   257
  9
$OBSLTYPE
280
     0
  9
$INTERSECTIONDISPLAY
280
     0
  9
$INTERSECTIONCOLOR
 70
   257
  9
$DIMASSOC
280
     2
  9
$PROJECTNAME
  1

  9
$CAMERADISPLAY
290
     0
  9
$LENSLENGTH
 40
50.0
  9
$CAMERAHEIGHT
 40
0.0
  9
$STEPSPERSEC
 40
2.0
  9
$STEPSIZE
 40
6.0
  9
$3DDWFPREC
 40
2.0
  9
$PSOLWIDTH
 40
0.25
  9
$PSOLHEIGHT
 40
4.0
  9
$LOFTANG1
 40
1.570796326794897
  9
$LOFTANG2
 40
1.570796326794897
  9
$LOFTMAG1
 40
0.0
  9
$LOFTMAG2
 40
0.0
  9
$LOFTPARAM
 70
     7
  9
$LOFTNORMALS
280
     1
  9
$LATITUDE
 40
37.795
  9
$LONGITUDE
 40
-122.394
  9
$NORTHDIRECTION
 40
0.0
  9
$TIMEZONE
 70
 -8000
  9
$LIGHTGLYPHDISPLAY
280
     1
  9
$TILEMODELIGHTSYNCH
280
     1
  9
$SOLIDHIST
280
     1
  9
$SHOWHIST
280
     1
  9
$DWFFRAME
280
     2
  9
$DGNFRAME
280
     2
  9
$REALWORLDSCALE
290
     1
  9
$INTERFERECOLOR
 62
   256
  9
$CSHADOW
280
     0
  9
$SHADOWPLANELOCATION
 40
0.0
  0
ENDSEC
  0
SECTION
  2
CLASSES
  0
CLASS
  1
LWPOLYLINE
  2
AcDbPolyline
  3
ObjectDBX Classes
 90
        0
 91
        1
280
     0
281
     1
  0
CLASS
  1
IMAGE
  2
AcDbRasterImage
  3
ISM
 90
      127
 91
        7
280
     0
281
     1
  0
CLASS
  1
OLE2FRAME
  2
AcDbOle2Frame
  3
ObjectDBX Classes
 90
        0
 91
        1
280
     0
281
     1
  0
CLASS
  1
HATCH
  2
AcDbHatch
  3
ObjectDBX Classes
 90
        0
 91
        1
280
     0
281
     1
  0
CLASS
  1
DICTIONARYVAR
  2
AcDbDictionaryVar
  3
ObjectDBX Classes
 90
        0
 91
        7
280
     0
281
     0
  0
CLASS
  1
RASTERVARIABLES
  2
AcDbRasterVariables
  3
ISM
 90
        0
 91
        6
280
     0
281
     0
  0
CLASS
  1
IMAGEDEF
  2
AcDbRasterImageDef
  3
ISM
 90
        0
 91
        6
280
     0
281
     0
  0
CLASS
  1
IMAGEDEF_REACTOR
  2
AcDbRasterImageDefReactor
  3
ISM
 90
        1
 91
        6
280
     0
281
     0
  0
CLASS
  1
IDBUFFER
  2
AcDbIdBuffer
  3
ObjectDBX Classes
 90
        0
 91
        6
280
     0
281
     0
  0
CLASS
  1
SPATIAL_FILTER
  2
AcDbSpatialFilter
  3
ObjectDBX Classes
 90
        0
 91
        6
280
     0
281
     0
  0
CLASS
  1
XRECORD
  2
AcDbXrecord
  3
ObjectDBX Classes
 90
        0
 91
        1
280
     0
281
     0
  0
CLASS
  1
SORTENTSTABLE
  2
AcDbSortentsTable
  3
ObjectDBX Classes
 90
        0
 91
        6
280
     0
281
     0
  0
CLASS
  1
LAYER_INDEX
  2
AcDbLayerIndex
  3
ObjectDBX Classes
 90
        0
 91
        6
280
     0
281
     0
  0
CLASS
  1
SPATIAL_INDEX
  2
AcDbSpatialIndex
  3
AutoCAD 2000
 90
        0
 91
        6
280
     0
281
     0
  0
CLASS
  1
OBJECT_PTR
  2
CAseDLPNTableRecord
  3
ASE-LPNTableRecord
 90
        1
 91
        6
280
     0
281
     0
  0
CLASS
  1
LAYOUT
  2
AcDbLayout
  3
ObjectDBX Classes
 90
        0
 91
        1
280
     0
281
     0
  0
CLASS
  1
PLOTSETTINGS
  2
AcDbPlotSettings
  3
ObjectDBX Classes
 90
        0
 91
        6
280
     0
281
     0
  0
CLASS
  1
ACDBDICTIONARYWDFLT
  2
AcDbDictionaryWithDefault
  3
ObjectDBX Classes
 90
        0
 91
        7
280
     0
281
     0
  0
CLASS
  1
ACDBPLACEHOLDER
  2
AcDbPlaceHolder
  3
ObjectDBX Classes
 90
        0
 91
        1
280
     0
281
     0
  0
CLASS
  1
SCALE
  2
AcDbScale
  3
ObjectDBX Classes
 90
     1153
 91
        7
280
     0
281
     0
  0
CLASS
  1
MATERIAL
  2
AcDbMaterial
  3
ObjectDBX Classes
 90
     1153
 91
        7
280
     0
281
     0
  0
CLASS
  1
VISUALSTYLE
  2
AcDbVisualStyle
  3
ObjectDBX Classes
 90
     4095
 91
        7
280
     0
281
     0
  0
CLASS
  1
TABLESTYLE
  2
AcDbTableStyle
  3
ObjectDBX Classes
 90
     4095
 91
        7
280
     0
281
     0
  0
CLASS
  1
DIMASSOC
  2
AcDbDimAssoc
  3
"AcDbDimAssoc|Product Desc:     AcDim ARX App For Dimension|Company:          Autodesk, Inc.|WEB Address:      www.autodesk.com"
 90
        0
 91
        6
280
     0
281
     0
  0
CLASS
  1
CELLSTYLEMAP
  2
AcDbCellStyleMap
  3
ObjectDBX Classes
 90
     1152
 91
        6
280
     0
281
     0
  0
CLASS
  1
SUN
  2
AcDbSun
  3
SCENEOE
 90
     1153
 91
        6
280
     0
281
     0
  0
CLASS
  1
MLEADERSTYLE
  2
AcDbMLeaderStyle
  3
ACDB_MLEADERSTYLE_CLASS
 90
     4095
 91
        7
280
     0
281
     0
  0
CLASS
  1
FIELD
  2
AcDbField
  3
ObjectDBX Classes
 90
     1152
 91
        6
280
     0
281
     0
  0
CLASS
  1
FIELDLIST
  2
AcDbFieldList
  3
ObjectDBX Classes
 90
     1152
 91
        6
280
     0
281
     0
  0
CLASS
  1
MULTILEADER
  2
AcDbMLeader
  3
ACDB_MLEADER_CLASS
 90
     1025
 91
        5
280
     0
281
     1
  0
ENDSEC
  0
SECTION
  2
TABLES
  0
TABLE
  2
VPORT
  5
7
330
0
100
AcDbSymbolTable
 70
     1
  0
VPORT
  5
15
330
7
100
AcDbSymbolTableRecord
100
AcDbViewportTableRecord
  2
*ACTIVE
 70
     0
 10
0.0
 20
0.0
 11
1.0
 21
1.0
 12
1141.020135670901
 22
1411.401285469834
 13
0.0
 23
0.0
 14
1.0
 24
1.0
 15
0.0
 25
0.0
 16
0.0
 26
0.0
 36
1.0
 17
-91.02013567090103
 27
73.59871453016603
 37
-46.86809886248109
 40
3029.4
 41
2.23943661971831
 42
50.0
 43
0.0
 44
0.0
 50
0.0
 51
0.0
 71
    16
 72
  2000
 73
     1
 74
     1
 75
     0
 76
     0
 77
     0
 78
     0
281
     0
 65
     1
110
0.0
120
0.0
130
0.0
111
1.0
121
0.0
131
0.0
112
0.0
122
1.0
132
0.0
 79
     0
146
0.0
348
26C
 60
     3
 61
     5
292
     1
282
     1
141
0.0
142
0.0
 63
   256
361
904
  0
ENDTAB
  0
TABLE
  2
LTYPE
  5
4
330
0
100
AcDbSymbolTable
 70
     3
  0
LTYPE
  5
11
330
4
100
AcDbSymbolTableRecord
100
AcDbLinetypeTableRecord
  2
ByBlock
 70
     0
  3

 72
    65
 73
     0
 40
0.0
  0
LTYPE
  5
12
330
4
100
AcDbSymbolTableRecord
100
AcDbLinetypeTableRecord
  2
ByLayer
 70
     0
  3

 72
    65
 73
     0
 40
0.0
  0
LTYPE
  5
13
330
4
100
AcDbSymbolTableRecord
100
AcDbLinetypeTableRecord
  2
Continuous
 70
     0
  3
Solid line
 72
    65
 73
     0
 40
0.0
  0
LTYPE
  5
DAF
330
4
100
AcDbSymbolTableRecord
100
AcDbLinetypeTableRecord
  2
BORDER
 70
     0
  3
Border __  __  . __  __  . __  __  . __  __  . 
 72
    65
 73
     6
 40
44.45
 49
12.7
 74
     0
 49
-6.35
 74
     0
 49
12.7
 74
     0
 49
-6.35
 74
     0
 49
0.0
 74
     0
 49
-6.35
 74
     0
  0
LTYPE
  5
33DD
330
4
100
AcDbSymbolTableRecord
100
AcDbLinetypeTableRecord
  2
HIDDEN
 70
     0
  3
Hidden _ _ _ _ _ _ _ _ _ _ _ _ _ _ _ _ _ _ _ _ 
 72
    65
 73
     2
 40
9.524999999999999
 49
6.35
 74
     0
 49
-3.175
 74
     0
  0
ENDTAB
  0
TABLE
  2
LAYER
  5
2
102
{ACAD_XDICTIONARY
360
2E1
102
}
330
0
100
AcDbSymbolTable
 70
    13
  0
LAYER
  5
14
330
2
100
AcDbSymbolTableRecord
100
AcDbLayerTableRecord
  2
0
 70
     0
 62
     7
  6
Continuous
370
    -3
390
1D
347
266
  0
LAYER
  5
4B
330
2
100
AcDbSymbolTableRecord
100
AcDbLayerTableRecord
  2
TEMPLATE
 70
     0
 62
     7
  6
Continuous
370
    20
390
1D
347
266
  0
LAYER
  5
4C
330
2
100
AcDbSymbolTableRecord
100
AcDbLayerTableRecord
  2
DIM
 70
     0
 62
     3
  6
Continuous
370
    13
390
1D
347
266
  0
LAYER
  5
4D
330
2
100
AcDbSymbolTableRecord
100
AcDbLayerTableRecord
  2
MODEL
 70
     0
 62
     7
  6
Continuous
370
    20
390
1D
347
266
  0
LAYER
  5
667
330
2
100
AcDbSymbolTableRecord
100
AcDbLayerTableRecord
  2
LOGO
 70
     0
 62
     7
  6
Continuous
370
    -3
390
1D
347
266
  0
LAYER
  5
D5D
330
2
100
AcDbSymbolTableRecord
100
AcDbLayerTableRecord
  2
Defpoints
 70
     0
 62
     7
  6
Continuous
290
     0
370
    -3
390
1D
347
266
  0
LAYER
  5
DAE
330
2
100
AcDbSymbolTableRecord
100
AcDbLayerTableRecord
  2
BORDER
 70
     0
 62
     4
  6
BORDER
290
     0
370
    20
390
1D
347
266
1001
AcAecLayerStandard
1000

1000

  0
LAYER
  5
157B
330
2
100
AcDbSymbolTableRecord
100
AcDbLayerTableRecord
  2
Layer3
 70
     0
 62
     7
  6
Continuous
370
    -3
390
1D
347
266
  0
LAYER
  5
157F
330
2
100
AcDbSymbolTableRecord
100
AcDbLayerTableRecord
  2
Layer9
 70
     0
 62
     7
  6
Continuous
370
    -3
390
1D
347
266
  0
LAYER
  5
1582
330
2
100
AcDbSymbolTableRecord
100
AcDbLayerTableRecord
  2
Standard
 70
     0
 62
     7
  6
Continuous
370
    -3
390
1D
347
266
  0
LAYER
  5
33DC
330
2
100
AcDbSymbolTableRecord
100
AcDbLayerTableRecord
  2
HIDDEN
 70
     0
 62
     8
  6
HIDDEN
370
    20
390
1D
347
266
1001
AcAecLayerStandard
1000

1000

  0
LAYER
  5
41EE
330
2
100
AcDbSymbolTableRecord
100
AcDbLayerTableRecord
  2
レイヤー 1
 70
     0
 62
     7
  6
Continuous
370
    -3
390
1D
347
266
  0
LAYER
  5
4A9C
330
2
100
AcDbSymbolTableRecord
100
AcDbLayerTableRecord
  2
ATB73-1901
 70
     0
 62
     7
  6
Continuous
370
    -3
390
1D
347
266
  0
ENDTAB
  0
TABLE
  2
STYLE
  5
3
330
0
100
AcDbSymbolTable
 70
     6
  0
STYLE
  5
17
330
3
100
AcDbSymbolTableRecord
100
AcDbTextStyleTableRecord
  2
Standard
 70
     0
 40
0.0
 41
1.0
 50
0.0
 71
     0
 42
2.5
  3
txt
  4
BIGFONT.SHX
  0
STYLE
  5
39
330
3
100
AcDbSymbolTableRecord
100
AcDbTextStyleTableRecord
  2
ＭＳ ゴシック
 70
     0
 40
0.0
 41
1.0
 50
0.0
 71
     0
 42
2.5
  3
msgothic.ttc
  4
ＭＳ ゴシック
1001
ACAD
1000
ＭＳ ゴシック
1071
        0
  0
STYLE
  5
384
330
3
100
AcDbSymbolTableRecord
100
AcDbTextStyleTableRecord
  2
ARIAL
 70
     0
 40
0.0
 41
1.0
 50
0.0
 71
     0
 42
12.0
  3
ARIAL.TTF
  4

1001
ACAD
1000
Arial
1071
       34
  0
STYLE
  5
385
330
3
100
AcDbSymbolTableRecord
100
AcDbTextStyleTableRecord
  2
ROMANS
 70
     0
 40
0.0
 41
1.0
 50
0.0
 71
     0
 42
5.0
  3
romans.shx
  4

  0
STYLE
  5
158C
330
3
100
AcDbSymbolTableRecord
100
AcDbTextStyleTableRecord
  2
SEACAD_Arial
 70
     0
 40
0.0
 41
1.0
 50
0.0
 71
     0
 42
2.5
  3
arial.ttf
  4

1001
ACAD
1000
Arial
1071
        0
  0
STYLE
  5
158D
330
3
100
AcDbSymbolTableRecord
100
AcDbTextStyleTableRecord
  2
SEACAD_Solid_Edge_ANSI1_Symbols
 70
     0
 40
0.0
 41
1.0
 50
0.0
 71
     0
 42
2.5
  3
semeca1.ttf
  4

1001
ACAD
1000
Solid Edge ANSI1 Symbols
1071
        0
  0
ENDTAB
  0
TABLE
  2
VIEW
  5
5
330
0
100
AcDbSymbolTable
 70
     0
  0
ENDTAB
  0
TABLE
  2
UCS
  5
6
330
0
100
AcDbSymbolTable
 70
     0
  0
ENDTAB
  0
TABLE
  2
APPID
  5
8
330
0
100
AcDbSymbolTable
 70
     3
  0
APPID
  5
16
330
8
100
AcDbSymbolTableRecord
100
AcDbRegAppTableRecord
  2
ACAD
 70
     0
  0
APPID
  5
7AC
330
8
100
AcDbSymbolTableRecord
100
AcDbRegAppTableRecord
  2
AcAecLayerStandard
 70
     0
  0
APPID
  5
F3A
330
8
100
AcDbSymbolTableRecord
100
AcDbRegAppTableRecord
  2
ACAD_MLEADERVER
 70
     0
  0
ENDTAB
  0
TABLE
  2
DIMSTYLE
  5
9
330
0
100
AcDbSymbolTable
 70
     2
100
AcDbDimStyleTable
  0
DIMSTYLE
105
18
330
9
100
AcDbSymbolTableRecord
100
AcDbDimStyleTableRecord
  2
Standard
 70
     0
178
     0
340
17
  0
DIMSTYLE
105
57
102
{ACAD_REACTORS
330
4FE4
330
4FF3
330
5002
330
5011
330
5020
330
502F
330
5077
330
508D
330
5128
330
513A
330
5173
330
5182
102
}
330
9
100
AcDbSymbolTableRecord
100
AcDbDimStyleTableRecord
  2
tfrom線あり
 70
     0
  3
<>
  4
[]
 41
10.0
 42
30.0
 43
0.9999999999999999
 44
0.0
 73
     0
 74
     0
 77
     1
 78
    11
140
24.0
141
0.0
143
1.0
147
20.0
171
     1
174
     1
178
     0
179
     2
271
     0
272
     1
276
     2
284
    11
285
    11
286
    11
289
     0
340
39
341
4E
342
4E
  0
ENDTAB
  0
TABLE
  2
BLOCK_RECORD
  5
1
330
0
100
AcDbSymbolTable
 70
   102
  0
BLOCK_RECORD
  5
A
102
{ACAD_XDICTIONARY
360
5198
102
}
330
1
100
AcDbSymbolTableRecord
100
AcDbBlockTableRecord
  2
*MODEL_SPACE
340
20
 70
     0
280
     1
281
     0
  0
BLOCK_RECORD
  5
B
330
1
100
AcDbSymbolTableRecord
100
AcDbBlockTableRecord
  2
*PAPER_SPACE
340
21
 70
     0
280
     1
281
     0
  0
BLOCK_RECORD
  5
4E
330
1
100
AcDbSymbolTableRecord
100
AcDbBlockTableRecord
  2
_DOT
340
0
102
{BLKREFS
331
35B5
331
35B6
331
35C1
331
35C2
331
35CD
331
35CE
331
35D9
331
35DA
331
35E5
331
35E6
331
35F1
331
35F2
331
35FD
331
35FE
331
3609
331
360A
331
3615
331
3616
331
3621
331
3622
331
362D
331
362E
331
3639
331
363A
331
3645
331
3646
331
3651
331
3652
331
39F5
331
39F6
331
3A04
331
3A05
331
3A13
331
3A14
331
3A22
331
3A23
331
3A31
331
3A32
331
3A40
331
3A41
331
3AC5
331
3AC6
331
3AD7
331
3AD8
331
3AF2
331
3AF3
331
3B0A
331
3B0B
331
3B19
331
3B1A
331
3B73
331
3B74
331
3B7F
331
3B80
331
3B8D
331
3B8E
331
3B9B
331
3B9C
331
3BA9
331
3BAA
331
3BFB
331
3BFC
331
3C56
331
3C57
331
3CDC
331
3CDD
331
3CE8
331
3CE9
331
3CF4
331
3CF5
331
3D00
331
3D01
331
4029
331
402A
331
4039
331
403A
331
404C
331
404D
331
405B
331
405C
331
406A
331
406B
331
4079
331
407A
331
4088
331
4089
331
409D
331
409E
331
40AF
331
40B0
331
4165
331
4166
331
48CE
331
48CF
331
48DD
331
48DE
331
48F6
331
48F7
331
4905
331
4906
331
4914
331
4915
331
4923
331
4924
331
4930
331
4931
331
493D
331
493E
331
494A
331
494B
331
4957
331
4958
331
4969
331
496A
331
49B7
331
49B8
331
49C3
331
49C4
331
49CF
331
49D0
331
49DB
331
49DC
331
4B23
331
4B24
331
4B90
331
4B91
331
4C23
331
4C24
331
4C8B
331
4C8C
331
4C9A
331
4C9B
331
4CA9
331
4CAA
331
4CBE
331
4CBF
331
4CCE
331
4CCF
331
4CDC
331
4CDD
331
4CE9
331
4CEA
331
4D03
331
4D04
331
4D15
331
4D16
331
4FD1
331
4FD0
331
4FDE
331
4FDD
331
4FEE
331
4FED
331
4FFD
331
4FFC
331
500C
331
500B
331
501B
331
501A
331
502A
331
5029
331
5039
331
5038
331
509A
331
509B
331
50CC
331
50CD
331
50D8
331
50D9
331
50E4
331
50E5
331
50F0
331
50F1
331
5130
331
512F
331
5144
331
5143
331
517D
331
517C
331
518C
331
518B
102
}
 70
     0
280
     1
281
     0
  0
BLOCK_RECORD
  5
68A
330
1
100
AcDbSymbolTableRecord
100
AcDbBlockTableRecord
  2
名称未設定-1
340
0
102
{BLKREFS
331
6B5
102
}
 70
     1
280
     1
281
     0
  0
BLOCK_RECORD
  5
68D
330
1
100
AcDbSymbolTableRecord
100
AcDbBlockTableRecord
  2
block 2
340
0
102
{BLKREFS
331
68C
102
}
 70
     0
280
     1
281
     0
  0
BLOCK_RECORD
  5
690
330
1
100
AcDbSymbolTableRecord
100
AcDbBlockTableRecord
  2
block 3
340
0
102
{BLKREFS
331
68F
102
}
 70
     0
280
     1
281
     0
  0
BLOCK_RECORD
  5
693
330
1
100
AcDbSymbolTableRecord
100
AcDbBlockTableRecord
  2
block 4
340
0
102
{BLKREFS
331
692
102
}
 70
     0
280
     1
281
     0
  0
BLOCK_RECORD
  5
6A2
330
1
100
AcDbSymbolTableRecord
100
AcDbBlockTableRecord
  2
block 5
340
0
102
{BLKREFS
331
6A1
102
}
 70
     0
280
     1
281
     0
  0
BLOCK_RECORD
  5
199A
330
1
100
AcDbSymbolTableRecord
100
AcDbBlockTableRecord
  2
SEANNOT_GROUP
340
0
102
{BLKREFS
331
28CA
102
}
 70
     0
280
     1
281
     0
  0
BLOCK_RECORD
  5
1F2F
330
1
100
AcDbSymbolTableRecord
100
AcDbBlockTableRecord
  2
SEANNOT_GROUP1
340
0
102
{BLKREFS
331
2B9B
102
}
 70
     0
280
     1
281
     0
  0
BLOCK_RECORD
  5
35AF
330
1
100
AcDbSymbolTableRecord
100
AcDbBlockTableRecord
  2
*D8
340
0
 70
     0
280
     1
281
     0
  0
BLOCK_RECORD
  5
35BB
330
1
100
AcDbSymbolTableRecord
100
AcDbBlockTableRecord
  2
*D9
340
0
 70
     0
280
     1
281
     0
  0
BLOCK_RECORD
  5
35C7
330
1
100
AcDbSymbolTableRecord
100
AcDbBlockTableRecord
  2
*D10
340
0
 70
     0
280
     1
281
     0
  0
BLOCK_RECORD
  5
35D3
330
1
100
AcDbSymbolTableRecord
100
AcDbBlockTableRecord
  2
*D11
340
0
 70
     0
280
     1
281
     0
  0
BLOCK_RECORD
  5
35DF
330
1
100
AcDbSymbolTableRecord
100
AcDbBlockTableRecord
  2
*D12
340
0
 70
     0
280
     1
281
     0
  0
BLOCK_RECORD
  5
35EB
330
1
100
AcDbSymbolTableRecord
100
AcDbBlockTableRecord
  2
*D13
340
0
 70
     0
280
     1
281
     0
  0
BLOCK_RECORD
  5
35F7
330
1
100
AcDbSymbolTableRecord
100
AcDbBlockTableRecord
  2
*D14
340
0
 70
     0
280
     1
281
     0
  0
BLOCK_RECORD
  5
3603
330
1
100
AcDbSymbolTableRecord
100
AcDbBlockTableRecord
  2
*D15
340
0
 70
     0
280
     1
281
     0
  0
BLOCK_RECORD
  5
360F
330
1
100
AcDbSymbolTableRecord
100
AcDbBlockTableRecord
  2
*D16
340
0
 70
     0
280
     1
281
     0
  0
BLOCK_RECORD
  5
361B
330
1
100
AcDbSymbolTableRecord
100
AcDbBlockTableRecord
  2
*D17
340
0
 70
     0
280
     1
281
     0
  0
BLOCK_RECORD
  5
3627
330
1
100
AcDbSymbolTableRecord
100
AcDbBlockTableRecord
  2
*D18
340
0
 70
     0
280
     1
281
     0
  0
BLOCK_RECORD
  5
3633
330
1
100
AcDbSymbolTableRecord
100
AcDbBlockTableRecord
  2
*D19
340
0
 70
     0
280
     1
281
     0
  0
BLOCK_RECORD
  5
363F
330
1
100
AcDbSymbolTableRecord
100
AcDbBlockTableRecord
  2
*D20
340
0
 70
     0
280
     1
281
     0
  0
BLOCK_RECORD
  5
364B
330
1
100
AcDbSymbolTableRecord
100
AcDbBlockTableRecord
  2
*D21
340
0
 70
     0
280
     1
281
     0
  0
BLOCK_RECORD
  5
39EF
330
1
100
AcDbSymbolTableRecord
100
AcDbBlockTableRecord
  2
*D22
340
0
 70
     0
280
     1
281
     0
  0
BLOCK_RECORD
  5
39FE
330
1
100
AcDbSymbolTableRecord
100
AcDbBlockTableRecord
  2
*D23
340
0
 70
     0
280
     1
281
     0
  0
BLOCK_RECORD
  5
3A0D
330
1
100
AcDbSymbolTableRecord
100
AcDbBlockTableRecord
  2
*D24
340
0
 70
     0
280
     1
281
     0
  0
BLOCK_RECORD
  5
3A1C
330
1
100
AcDbSymbolTableRecord
100
AcDbBlockTableRecord
  2
*D25
340
0
 70
     0
280
     1
281
     0
  0
BLOCK_RECORD
  5
3A2B
330
1
100
AcDbSymbolTableRecord
100
AcDbBlockTableRecord
  2
*D26
340
0
 70
     0
280
     1
281
     0
  0
BLOCK_RECORD
  5
3A3A
330
1
100
AcDbSymbolTableRecord
100
AcDbBlockTableRecord
  2
*D27
340
0
 70
     0
280
     1
281
     0
  0
BLOCK_RECORD
  5
3ABD
330
1
100
AcDbSymbolTableRecord
100
AcDbBlockTableRecord
  2
*D28
340
0
 70
     0
280
     1
281
     0
  0
BLOCK_RECORD
  5
3ACF
330
1
100
AcDbSymbolTableRecord
100
AcDbBlockTableRecord
  2
*D29
340
0
 70
     0
280
     1
281
     0
  0
BLOCK_RECORD
  5
3AEA
330
1
100
AcDbSymbolTableRecord
100
AcDbBlockTableRecord
  2
*D30
340
0
 70
     0
280
     1
281
     0
  0
BLOCK_RECORD
  5
3B04
330
1
100
AcDbSymbolTableRecord
100
AcDbBlockTableRecord
  2
*D31
340
0
 70
     0
280
     1
281
     0
  0
BLOCK_RECORD
  5
3B13
330
1
100
AcDbSymbolTableRecord
100
AcDbBlockTableRecord
  2
*D32
340
0
 70
     0
280
     1
281
     0
  0
BLOCK_RECORD
  5
3B6D
330
1
100
AcDbSymbolTableRecord
100
AcDbBlockTableRecord
  2
*D33
340
0
 70
     0
280
     1
281
     0
  0
BLOCK_RECORD
  5
3B79
330
1
100
AcDbSymbolTableRecord
100
AcDbBlockTableRecord
  2
*D34
340
0
 70
     0
280
     1
281
     0
  0
BLOCK_RECORD
  5
3B85
330
1
100
AcDbSymbolTableRecord
100
AcDbBlockTableRecord
  2
*D35
340
0
 70
     0
280
     1
281
     0
  0
BLOCK_RECORD
  5
3B93
330
1
100
AcDbSymbolTableRecord
100
AcDbBlockTableRecord
  2
*D36
340
0
 70
     0
280
     1
281
     0
  0
BLOCK_RECORD
  5
3BA1
330
1
100
AcDbSymbolTableRecord
100
AcDbBlockTableRecord
  2
*D37
340
0
 70
     0
280
     1
281
     0
  0
BLOCK_RECORD
  5
3BF5
330
1
100
AcDbSymbolTableRecord
100
AcDbBlockTableRecord
  2
*D38
340
0
 70
     0
280
     1
281
     0
  0
BLOCK_RECORD
  5
3C4F
330
1
100
AcDbSymbolTableRecord
100
AcDbBlockTableRecord
  2
*D39
340
0
 70
     0
280
     1
281
     0
  0
BLOCK_RECORD
  5
3CD6
330
1
100
AcDbSymbolTableRecord
100
AcDbBlockTableRecord
  2
*D40
340
0
 70
     0
280
     1
281
     0
  0
BLOCK_RECORD
  5
3CE2
330
1
100
AcDbSymbolTableRecord
100
AcDbBlockTableRecord
  2
*D41
340
0
 70
     0
280
     1
281
     0
  0
BLOCK_RECORD
  5
3CEE
330
1
100
AcDbSymbolTableRecord
100
AcDbBlockTableRecord
  2
*D42
340
0
 70
     0
280
     1
281
     0
  0
BLOCK_RECORD
  5
3CFA
330
1
100
AcDbSymbolTableRecord
100
AcDbBlockTableRecord
  2
*D43
340
0
 70
     0
280
     1
281
     0
  0
BLOCK_RECORD
  5
4023
330
1
100
AcDbSymbolTableRecord
100
AcDbBlockTableRecord
  2
*D44
340
0
 70
     0
280
     1
281
     0
  0
BLOCK_RECORD
  5
4033
330
1
100
AcDbSymbolTableRecord
100
AcDbBlockTableRecord
  2
*D45
340
0
 70
     0
280
     1
281
     0
  0
BLOCK_RECORD
  5
4046
330
1
100
AcDbSymbolTableRecord
100
AcDbBlockTableRecord
  2
*D46
340
0
 70
     0
280
     1
281
     0
  0
BLOCK_RECORD
  5
4055
330
1
100
AcDbSymbolTableRecord
100
AcDbBlockTableRecord
  2
*D47
340
0
 70
     0
280
     1
281
     0
  0
BLOCK_RECORD
  5
4064
330
1
100
AcDbSymbolTableRecord
100
AcDbBlockTableRecord
  2
*D48
340
0
 70
     0
280
     1
281
     0
  0
BLOCK_RECORD
  5
4073
330
1
100
AcDbSymbolTableRecord
100
AcDbBlockTableRecord
  2
*D49
340
0
 70
     0
280
     1
281
     0
  0
BLOCK_RECORD
  5
4082
330
1
100
AcDbSymbolTableRecord
100
AcDbBlockTableRecord
  2
*D50
340
0
 70
     0
280
     1
281
     0
  0
BLOCK_RECORD
  5
4097
330
1
100
AcDbSymbolTableRecord
100
AcDbBlockTableRecord
  2
*D51
340
0
 70
     0
280
     1
281
     0
  0
BLOCK_RECORD
  5
40A6
330
1
100
AcDbSymbolTableRecord
100
AcDbBlockTableRecord
  2
*D52
340
0
 70
     0
280
     1
281
     0
  0
BLOCK_RECORD
  5
415F
330
1
100
AcDbSymbolTableRecord
100
AcDbBlockTableRecord
  2
*D53
340
0
 70
     0
280
     1
281
     0
  0
BLOCK_RECORD
  5
48C8
330
1
100
AcDbSymbolTableRecord
100
AcDbBlockTableRecord
  2
*D54
340
0
 70
     0
280
     1
281
     0
  0
BLOCK_RECORD
  5
48D7
330
1
100
AcDbSymbolTableRecord
100
AcDbBlockTableRecord
  2
*D55
340
0
 70
     0
280
     1
281
     0
  0
BLOCK_RECORD
  5
48F0
330
1
100
AcDbSymbolTableRecord
100
AcDbBlockTableRecord
  2
*D56
340
0
 70
     0
280
     1
281
     0
  0
BLOCK_RECORD
  5
48FF
330
1
100
AcDbSymbolTableRecord
100
AcDbBlockTableRecord
  2
*D57
340
0
 70
     0
280
     1
281
     0
  0
BLOCK_RECORD
  5
490E
330
1
100
AcDbSymbolTableRecord
100
AcDbBlockTableRecord
  2
*D58
340
0
 70
     0
280
     1
281
     0
  0
BLOCK_RECORD
  5
491D
330
1
100
AcDbSymbolTableRecord
100
AcDbBlockTableRecord
  2
*D59
340
0
 70
     0
280
     1
281
     0
  0
BLOCK_RECORD
  5
492A
330
1
100
AcDbSymbolTableRecord
100
AcDbBlockTableRecord
  2
*D60
340
0
 70
     0
280
     1
281
     0
  0
BLOCK_RECORD
  5
4937
330
1
100
AcDbSymbolTableRecord
100
AcDbBlockTableRecord
  2
*D61
340
0
 70
     0
280
     1
281
     0
  0
BLOCK_RECORD
  5
4944
330
1
100
AcDbSymbolTableRecord
100
AcDbBlockTableRecord
  2
*D62
340
0
 70
     0
280
     1
281
     0
  0
BLOCK_RECORD
  5
4951
330
1
100
AcDbSymbolTableRecord
100
AcDbBlockTableRecord
  2
*D63
340
0
 70
     0
280
     1
281
     0
  0
BLOCK_RECORD
  5
4961
330
1
100
AcDbSymbolTableRecord
100
AcDbBlockTableRecord
  2
*D64
340
0
 70
     0
280
     1
281
     0
  0
BLOCK_RECORD
  5
49B1
330
1
100
AcDbSymbolTableRecord
100
AcDbBlockTableRecord
  2
*D65
340
0
 70
     0
280
     1
281
     0
  0
BLOCK_RECORD
  5
49BD
330
1
100
AcDbSymbolTableRecord
100
AcDbBlockTableRecord
  2
*D66
340
0
 70
     0
280
     1
281
     0
  0
BLOCK_RECORD
  5
49C9
330
1
100
AcDbSymbolTableRecord
100
AcDbBlockTableRecord
  2
*D67
340
0
 70
     0
280
     1
281
     0
  0
BLOCK_RECORD
  5
49D5
330
1
100
AcDbSymbolTableRecord
100
AcDbBlockTableRecord
  2
*D68
340
0
 70
     0
280
     1
281
     0
  0
BLOCK_RECORD
  5
4B1E
330
1
100
AcDbSymbolTableRecord
100
AcDbBlockTableRecord
  2
*D69
340
0
 70
     0
280
     1
281
     0
  0
BLOCK_RECORD
  5
4B8A
330
1
100
AcDbSymbolTableRecord
100
AcDbBlockTableRecord
  2
*D70
340
0
 70
     0
280
     1
281
     0
  0
BLOCK_RECORD
  5
4C1E
330
1
100
AcDbSymbolTableRecord
100
AcDbBlockTableRecord
  2
*D71
340
0
 70
     0
280
     1
281
     0
  0
BLOCK_RECORD
  5
4C85
330
1
100
AcDbSymbolTableRecord
100
AcDbBlockTableRecord
  2
*D72
340
0
 70
     0
280
     1
281
     0
  0
BLOCK_RECORD
  5
4C94
330
1
100
AcDbSymbolTableRecord
100
AcDbBlockTableRecord
  2
*D73
340
0
 70
     0
280
     1
281
     0
  0
BLOCK_RECORD
  5
4CA3
330
1
100
AcDbSymbolTableRecord
100
AcDbBlockTableRecord
  2
*D74
340
0
 70
     0
280
     1
281
     0
  0
BLOCK_RECORD
  5
4CB8
330
1
100
AcDbSymbolTableRecord
100
AcDbBlockTableRecord
  2
*D75
340
0
 70
     0
280
     1
281
     0
  0
BLOCK_RECORD
  5
4CC8
330
1
100
AcDbSymbolTableRecord
100
AcDbBlockTableRecord
  2
*D76
340
0
 70
     0
280
     1
281
     0
  0
BLOCK_RECORD
  5
4CD6
330
1
100
AcDbSymbolTableRecord
100
AcDbBlockTableRecord
  2
*D77
340
0
 70
     0
280
     1
281
     0
  0
BLOCK_RECORD
  5
4CE3
330
1
100
AcDbSymbolTableRecord
100
AcDbBlockTableRecord
  2
*D78
340
0
 70
     0
280
     1
281
     0
  0
BLOCK_RECORD
  5
4CFD
330
1
100
AcDbSymbolTableRecord
100
AcDbBlockTableRecord
  2
*D79
340
0
 70
     0
280
     1
281
     0
  0
BLOCK_RECORD
  5
4D0F
330
1
100
AcDbSymbolTableRecord
100
AcDbBlockTableRecord
  2
*D80
340
0
 70
     0
280
     1
281
     0
  0
BLOCK_RECORD
  5
4FCA
330
1
100
AcDbSymbolTableRecord
100
AcDbBlockTableRecord
  2
*D82
340
0
 70
     0
280
     1
281
     0
  0
BLOCK_RECORD
  5
4FD7
330
1
100
AcDbSymbolTableRecord
100
AcDbBlockTableRecord
  2
*D83
340
0
 70
     0
280
     1
281
     0
  0
BLOCK_RECORD
  5
4FE7
330
1
100
AcDbSymbolTableRecord
100
AcDbBlockTableRecord
  2
*D84
340
0
 70
     0
280
     1
281
     0
  0
BLOCK_RECORD
  5
4FF6
330
1
100
AcDbSymbolTableRecord
100
AcDbBlockTableRecord
  2
*D85
340
0
 70
     0
280
     1
281
     0
  0
BLOCK_RECORD
  5
5005
330
1
100
AcDbSymbolTableRecord
100
AcDbBlockTableRecord
  2
*D86
340
0
 70
     0
280
     1
281
     0
  0
BLOCK_RECORD
  5
5014
330
1
100
AcDbSymbolTableRecord
100
AcDbBlockTableRecord
  2
*D87
340
0
 70
     0
280
     1
281
     0
  0
BLOCK_RECORD
  5
5023
330
1
100
AcDbSymbolTableRecord
100
AcDbBlockTableRecord
  2
*D88
340
0
 70
     0
280
     1
281
     0
  0
BLOCK_RECORD
  5
5032
330
1
100
AcDbSymbolTableRecord
100
AcDbBlockTableRecord
  2
*D89
340
0
 70
     0
280
     1
281
     0
  0
BLOCK_RECORD
  5
507C
330
1
100
AcDbSymbolTableRecord
100
AcDbBlockTableRecord
  2
*D91
340
0
 70
     0
280
     1
281
     0
  0
BLOCK_RECORD
  5
5092
330
1
100
AcDbSymbolTableRecord
100
AcDbBlockTableRecord
  2
*D92
340
0
 70
     0
280
     1
281
     0
  0
BLOCK_RECORD
  5
50C6
330
1
100
AcDbSymbolTableRecord
100
AcDbBlockTableRecord
  2
*D93
340
0
 70
     0
280
     1
281
     0
  0
BLOCK_RECORD
  5
50D2
330
1
100
AcDbSymbolTableRecord
100
AcDbBlockTableRecord
  2
*D94
340
0
 70
     0
280
     1
281
     0
  0
BLOCK_RECORD
  5
50DE
330
1
100
AcDbSymbolTableRecord
100
AcDbBlockTableRecord
  2
*D95
340
0
 70
     0
280
     1
281
     0
  0
BLOCK_RECORD
  5
50EA
330
1
100
AcDbSymbolTableRecord
100
AcDbBlockTableRecord
  2
*D96
340
0
 70
     0
280
     1
281
     0
  0
BLOCK_RECORD
  5
5129
330
1
100
AcDbSymbolTableRecord
100
AcDbBlockTableRecord
  2
*D98
340
0
 70
     0
280
     1
281
     0
  0
BLOCK_RECORD
  5
513D
330
1
100
AcDbSymbolTableRecord
100
AcDbBlockTableRecord
  2
*D99
340
0
 70
     0
280
     1
281
     0
  0
BLOCK_RECORD
  5
5176
330
1
100
AcDbSymbolTableRecord
100
AcDbBlockTableRecord
  2
*D100
340
0
 70
     0
280
     1
281
     0
  0
BLOCK_RECORD
  5
5185
330
1
100
AcDbSymbolTableRecord
100
AcDbBlockTableRecord
  2
*D101
340
0
 70
     0
280
     1
281
     0
  0
ENDTAB
  0
ENDSEC
  0
SECTION
  2
BLOCKS
  0
BLOCK
  5
D
330
A
100
AcDbEntity
  8
0
390
1D
100
AcDbBlockBegin
  2
*MODEL_SPACE
 70
     0
 10
0.0
 20
0.0
 30
0.0
  3
*MODEL_SPACE
  1
*MODEL_SPACE
  0
ENDBLK
  5
E
330
A
100
AcDbEntity
  8
0
390
1D
100
AcDbBlockEnd
  0
BLOCK
  5
F
330
B
100
AcDbEntity
 67
     1
  8
0
390
1D
100
AcDbBlockBegin
  2
*PAPER_SPACE
 70
     0
 10
0.0
 20
0.0
 30
0.0
  3
*PAPER_SPACE
  1
*PAPER_SPACE
  0
ENDBLK
  5
10
330
B
100
AcDbEntity
 67
     1
  8
0
390
1D
100
AcDbBlockEnd
  0
BLOCK
  5
EC4
330
4E
100
AcDbEntity
  8
0
390
1D
100
AcDbBlockBegin
  2
_DOT
 70
     0
 10
0.0
 20
0.0
 30
0.0
  3
_DOT
  1
_DOT
  0
POLYLINE
  5
EC6
330
4E
100
AcDbEntity
  8
0
  6
ByBlock
 62
     0
370
    -2
390
1D
100
AcDb2dPolyline
 66
     1
 10
0.0
 20
0.0
 30
0.0
 70
     1
 40
0.5
 41
0.5
  0
VERTEX
  5
EC7
330
EC6
100
AcDbEntity
  8
0
  6
ByBlock
 62
     0
370
    -2
390
1D
100
AcDbVertex
100
AcDb2dVertex
 10
-0.25
 20
0.0
 30
0.0
 42
1.0
  0
VERTEX
  5
EC8
330
EC6
100
AcDbEntity
  8
0
  6
ByBlock
 62
     0
370
    -2
390
1D
100
AcDbVertex
100
AcDb2dVertex
 10
0.25
 20
0.0
 30
0.0
 42
1.0
  0
SEQEND
  5
EC9
330
EC6
100
AcDbEntity
  8
0
390
1D
  0
LINE
  5
ECA
330
4E
100
AcDbEntity
  8
0
  6
ByBlock
 62
     0
370
    -2
390
1D
100
AcDbLine
 10
-0.5
 20
0.0
 30
0.0
 11
-1.0
 21
0.0
 31
0.0
  0
ENDBLK
  5
ECB
330
4E
100
AcDbEntity
  8
0
390
1D
100
AcDbBlockEnd
  0
BLOCK
  5
68B
330
68A
100
AcDbEntity
  8
0
100
AcDbBlockBegin
  2
名称未設定-1
 70
     0
 10
0.0
 20
0.0
 30
0.0
  3
名称未設定-1
  1
名称未設定-1
  0
INSERT
  5
68F
330
68A
100
AcDbEntity
  8
LOGO
100
AcDbBlockReference
  2
block 3
 10
0.0
 20
0.0
 30
0.0
  0
ENDBLK
  5
6B1
330
68A
100
AcDbEntity
  8
0
100
AcDbBlockEnd
  0
BLOCK
  5
68E
330
68D
100
AcDbEntity
  8
0
100
AcDbBlockBegin
  2
block 2
 70
     0
 10
0.0
 20
0.0
 30
0.0
  3
block 2
  1
block 2
  0
ENDBLK
  5
6B0
330
68D
100
AcDbEntity
  8
0
100
AcDbBlockEnd
  0
BLOCK
  5
691
330
690
100
AcDbEntity
  8
0
100
AcDbBlockBegin
  2
block 3
 70
     0
 10
0.0
 20
0.0
 30
0.0
  3
block 3
  1
block 3
  0
INSERT
  5
692
330
690
100
AcDbEntity
  8
LOGO
100
AcDbBlockReference
  2
block 4
 10
0.0
 20
0.0
 30
0.0
  0
INSERT
  5
6A1
330
690
100
AcDbEntity
  8
LOGO
100
AcDbBlockReference
  2
block 5
 10
0.0
 20
0.0
 30
0.0
  0
ENDBLK
  5
6AF
330
690
100
AcDbEntity
  8
0
100
AcDbBlockEnd
  0
BLOCK
  5
694
330
693
100
AcDbEntity
  8
0
100
AcDbBlockBegin
  2
block 4
 70
     0
 10
0.0
 20
0.0
 30
0.0
  3
block 4
  1
block 4
  0
POLYLINE
  5
695
330
693
100
AcDbEntity
  8
LOGO
370
     0
100
AcDb2dPolyline
 66
     1
 10
0.0
 20
0.0
 30
0.0
  0
VERTEX
  5
696
330
695
100
AcDbEntity
  8
LOGO
370
     0
100
AcDbVertex
100
AcDb2dVertex
 10
83.79545727667795
 20
167.6444858234922
 30
0.0
  0
VERTEX
  5
697
330
695
100
AcDbEntity
  8
LOGO
370
     0
100
AcDbVertex
100
AcDb2dVertex
 10
83.79545727667795
 20
159.7968976406313
 30
0.0
  0
VERTEX
  5
698
330
695
100
AcDbEntity
  8
LOGO
370
     0
100
AcDbVertex
100
AcDb2dVertex
 10
71.3631329975216
 20
159.7968976406313
 30
0.0
  0
VERTEX
  5
699
330
695
100
AcDbEntity
  8
LOGO
370
     0
100
AcDbVertex
100
AcDb2dVertex
 10
71.3631329975216
 20
127.8027915271048
 30
0.0
  0
VERTEX
  5
69A
330
695
100
AcDbEntity
  8
LOGO
370
     0
100
AcDbVertex
100
AcDb2dVertex
 10
60.43011526263018
 20
127.8027915271048
 30
0.0
  0
VERTEX
  5
69B
330
695
100
AcDbEntity
  8
LOGO
370
     0
100
AcDbVertex
100
AcDb2dVertex
 10
60.43011526263018
 20
159.7968976406313
 30
0.0
  0
VERTEX
  5
69C
330
695
100
AcDbEntity
  8
LOGO
370
     0
100
AcDbVertex
100
AcDb2dVertex
 10
48.21793273020759
 20
159.7968976406313
 30
0.0
  0
VERTEX
  5
69D
330
695
100
AcDbEntity
  8
LOGO
370
     0
100
AcDbVertex
100
AcDb2dVertex
 10
48.21793273020759
 20
167.6444858234922
 30
0.0
  0
VERTEX
  5
69E
330
695
100
AcDbEntity
  8
LOGO
370
     0
100
AcDbVertex
100
AcDb2dVertex
 10
83.79545727667795
 20
167.6444858234922
 30
0.0
  0
SEQEND
  5
69F
330
695
100
AcDbEntity
  8
LOGO
370
     0
  0
HATCH
  5
6A0
330
693
100
AcDbEntity
  8
LOGO
 62
   250
420
  2234388
100
AcDbHatch
 10
0.0
 20
0.0
 30
0.0
210
0.0
220
0.0
230
1.0
  2
SOLID
 70
     1
 71
     0
 91
        1
 92
        1
 93
        8
 72
     1
 10
83.79545727667795
 20
167.6444858234922
 11
83.79545727667795
 21
159.7968976406313
 72
     1
 10
83.79545727667795
 20
159.7968976406313
 11
71.3631329975216
 21
159.7968976406313
 72
     1
 10
71.3631329975216
 20
159.7968976406313
 11
71.3631329975216
 21
127.8027915271048
 72
     1
 10
71.3631329975216
 20
127.8027915271048
 11
60.43011526263018
 21
127.8027915271048
 72
     1
 10
60.43011526263018
 20
127.8027915271048
 11
60.43011526263018
 21
159.7968976406313
 72
     1
 10
60.43011526263018
 20
159.7968976406313
 11
48.21793273020759
 21
159.7968976406313
 72
     1
 10
48.21793273020759
 20
159.7968976406313
 11
48.21793273020759
 21
167.6444858234922
 72
     1
 10
48.21793273020759
 20
167.6444858234922
 11
83.79545727667795
 21
167.6444858234922
 97
        0
 75
     2
 76
     1
 98
        0
  0
ENDBLK
  5
6AE
330
693
100
AcDbEntity
  8
0
100
AcDbBlockEnd
  0
BLOCK
  5
6A3
330
6A2
100
AcDbEntity
  8
0
100
AcDbBlockBegin
  2
block 5
 70
     0
 10
0.0
 20
0.0
 30
0.0
  3
block 5
  1
block 5
  0
SPLINE
  5
6A4
330
6A2
100
AcDbEntity
  8
LOGO
370
     0
100
AcDbSpline
210
0.0
220
0.0
230
1.0
 70
    11
 71
     3
 72
    56
 73
    52
 74
     0
 42
0.000000001
 43
0.0000000001
 40
0.0
 40
0.0
 40
0.0
 40
0.0
 40
1.0
 40
1.0
 40
1.0
 40
2.0
 40
2.0
 40
2.0
 40
3.0
 40
3.0
 40
3.0
 40
4.0
 40
4.0
 40
4.0
 40
5.0
 40
5.0
 40
5.0
 40
6.0
 40
6.0
 40
6.0
 40
7.0
 40
7.0
 40
7.0
 40
8.0
 40
8.0
 40
8.0
 40
9.0
 40
9.0
 40
9.0
 40
10.0
 40
10.0
 40
10.0
 40
11.0
 40
11.0
 40
11.0
 40
12.0
 40
12.0
 40
12.0
 40
13.0
 40
13.0
 40
13.0
 40
14.0
 40
14.0
 40
14.0
 40
15.0
 40
15.0
 40
15.0
 40
16.0
 40
16.0
 40
16.0
 40
17.0
 40
17.0
 40
17.0
 40
17.0
 10
100.4504378777679
 20
166.69157178364
 30
0.0
 10
101.9848844191641
 20
167.1313385124438
 30
0.0
 10
103.9637485713373
 20
166.7649523658846
 30
0.0
 10
103.9637485713373
 20
166.7649523658846
 30
0.0
 10
103.9637485713373
 20
166.7649523658846
 30
0.0
 10
103.0132460999156
 20
163.911205638077
 30
0.0
 10
103.0132460999156
 20
163.911205638077
 30
0.0
 10
103.0132460999156
 20
163.911205638077
 30
0.0
 10
101.0674548862189
 20
164.3601018759394
 30
0.0
 10
99.57090442016032
 20
163.1805004036133
 30
0.0
 10
98.40508333886608
 20
162.258247733807
 30
0.0
 10
97.65301849830304
 20
159.804132345923
 30
0.0
 10
97.3598406791005
 20
158.8699940888517
 30
0.0
 10
97.3598406791005
 20
158.8699940888517
 30
0.0
 10
96.07137411762282
 20
154.9119212747295
 30
0.0
 10
96.07137411762282
 20
154.9119212747295
 30
0.0
 10
96.07137411762282
 20
154.9119212747295
 30
0.0
 10
100.3012651448482
 20
154.9119212747295
 30
0.0
 10
100.3012651448482
 20
154.9119212747295
 30
0.0
 10
100.3012651448482
 20
154.9119212747295
 30
0.0
 10
99.64152892419852
 20
152.4199098115079
 30
0.0
 10
99.64152892419852
 20
152.4199098115079
 30
0.0
 10
99.64152892419852
 20
152.4199098115079
 30
0.0
 10
95.38097652692731
 20
152.4199098115079
 30
0.0
 10
95.38097652692731
 20
152.4199098115079
 30
0.0
 10
95.38097652692731
 20
152.4199098115079
 30
0.0
 10
87.75353009080013
 20
127.8027915271048
 30
0.0
 10
87.75353009080013
 20
127.8027915271048
 30
0.0
 10
87.75353009080013
 20
127.8027915271048
 30
0.0
 10
85.36538832498108
 20
127.8027915271048
 30
0.0
 10
85.36538832498108
 20
127.8027915271048
 30
0.0
 10
85.36538832498108
 20
127.8027915271048
 30
0.0
 10
93.00006946639998
 20
152.4199098115079
 30
0.0
 10
93.00006946639998
 20
152.4199098115079
 30
0.0
 10
93.00006946639998
 20
152.4199098115079
 30
0.0
 10
89.85297266450198
 20
152.4199098115079
 30
0.0
 10
89.85297266450198
 20
152.4199098115079
 30
0.0
 10
89.85297266450198
 20
152.4199098115079
 30
0.0
 10
90.51270888515164
 20
154.9119212747295
 30
0.0
 10
90.51270888515164
 20
154.9119212747295
 30
0.0
 10
90.51270888515164
 20
154.9119212747295
 30
0.0
 10
93.6904670570955
 20
154.9119212747295
 30
0.0
 10
93.6904670570955
 20
154.9119212747295
 30
0.0
 10
93.6904670570955
 20
154.9119212747295
 30
0.0
 10
94.81598049462158
 20
158.3616699146644
 30
0.0
 10
94.81598049462158
 20
158.3616699146644
 30
0.0
 10
95.7237637538445
 20
161.2605474231013
 30
0.0
 10
96.4968436907311
 20
162.8139420021662
 30
0.0
 10
97.15657991138076
 20
163.9844139654337
 30
0.0
 10
97.81183750494507
 20
165.1523021053827
 30
0.0
 10
99.1047826935081
 20
166.3084769129547
 30
0.0
 10
100.4504378777679
 20
166.69157178364
 30
0.0
  0
HATCH
  5
6A5
330
6A2
100
AcDbEntity
  8
LOGO
 62
   250
420
  2234388
100
AcDbHatch
 10
0.0
 20
0.0
 30
0.0
210
0.0
220
0.0
230
1.0
  2
SOLID
 70
     1
 71
     0
 91
        1
 92
        1
 93
        1
 72
     4
 94
        3
 73
     0
 74
     1
 95
       56
 96
       52
 40
0.0
 40
0.0
 40
0.0
 40
0.0
 40
1.0
 40
1.0
 40
1.0
 40
2.0
 40
2.0
 40
2.0
 40
3.0
 40
3.0
 40
3.0
 40
4.0
 40
4.0
 40
4.0
 40
5.0
 40
5.0
 40
5.0
 40
6.0
 40
6.0
 40
6.0
 40
7.0
 40
7.0
 40
7.0
 40
8.0
 40
8.0
 40
8.0
 40
9.0
 40
9.0
 40
9.0
 40
10.0
 40
10.0
 40
10.0
 40
11.0
 40
11.0
 40
11.0
 40
12.0
 40
12.0
 40
12.0
 40
13.0
 40
13.0
 40
13.0
 40
14.0
 40
14.0
 40
14.0
 40
15.0
 40
15.0
 40
15.0
 40
16.0
 40
16.0
 40
16.0
 40
17.0
 40
17.0
 40
17.0
 40
17.0
 10
100.4504378777679
 20
166.69157178364
 10
101.9848844191641
 20
167.1313385124438
 10
103.9637485713373
 20
166.7649523658846
 10
103.9637485713373
 20
166.7649523658846
 10
103.9637485713373
 20
166.7649523658846
 10
103.0132460999156
 20
163.911205638077
 10
103.0132460999156
 20
163.911205638077
 10
103.0132460999156
 20
163.911205638077
 10
101.0674548862189
 20
164.3601018759394
 10
99.57090442016032
 20
163.1805004036133
 10
98.40508333886608
 20
162.258247733807
 10
97.65301849830304
 20
159.804132345923
 10
97.3598406791005
 20
158.8699940888517
 10
97.3598406791005
 20
158.8699940888517
 10
96.07137411762282
 20
154.9119212747295
 10
96.07137411762282
 20
154.9119212747295
 10
96.07137411762282
 20
154.9119212747295
 10
100.3012651448482
 20
154.9119212747295
 10
100.3012651448482
 20
154.9119212747295
 10
100.3012651448482
 20
154.9119212747295
 10
99.64152892419852
 20
152.4199098115079
 10
99.64152892419852
 20
152.4199098115079
 10
99.64152892419852
 20
152.4199098115079
 10
95.38097652692731
 20
152.4199098115079
 10
95.38097652692731
 20
152.4199098115079
 10
95.38097652692731
 20
152.4199098115079
 10
87.75353009080013
 20
127.8027915271048
 10
87.75353009080013
 20
127.8027915271048
 10
87.75353009080013
 20
127.8027915271048
 10
85.36538832498108
 20
127.8027915271048
 10
85.36538832498108
 20
127.8027915271048
 10
85.36538832498108
 20
127.8027915271048
 10
93.00006946639998
 20
152.4199098115079
 10
93.00006946639998
 20
152.4199098115079
 10
93.00006946639998
 20
152.4199098115079
 10
89.85297266450198
 20
152.4199098115079
 10
89.85297266450198
 20
152.4199098115079
 10
89.85297266450198
 20
152.4199098115079
 10
90.51270888515164
 20
154.9119212747295
 10
90.51270888515164
 20
154.9119212747295
 10
90.51270888515164
 20
154.9119212747295
 10
93.6904670570955
 20
154.9119212747295
 10
93.6904670570955
 20
154.9119212747295
 10
93.6904670570955
 20
154.9119212747295
 10
94.81598049462158
 20
158.3616699146644
 10
94.81598049462158
 20
158.3616699146644
 10
95.7237637538445
 20
161.2605474231013
 10
96.4968436907311
 20
162.8139420021662
 10
97.15657991138076
 20
163.9844139654337
 10
97.81183750494507
 20
165.1523021053827
 10
99.1047826935081
 20
166.3084769129547
 10
100.4504378777679
 20
166.69157178364
 97
        0
 75
     2
 76
     1
 98
        0
  0
SPLINE
  5
6A6
330
6A2
100
AcDbEntity
  8
LOGO
370
     0
100
AcDbSpline
210
0.0
220
0.0
230
1.0
 70
    11
 71
     3
 72
    38
 73
    34
 74
     0
 42
0.000000001
 43
0.0000000001
 40
0.0
 40
0.0
 40
0.0
 40
0.0
 40
1.0
 40
1.0
 40
1.0
 40
2.0
 40
2.0
 40
2.0
 40
3.0
 40
3.0
 40
3.0
 40
4.0
 40
4.0
 40
4.0
 40
5.0
 40
5.0
 40
5.0
 40
6.0
 40
6.0
 40
6.0
 40
7.0
 40
7.0
 40
7.0
 40
8.0
 40
8.0
 40
8.0
 40
9.0
 40
9.0
 40
9.0
 40
10.0
 40
10.0
 40
10.0
 40
11.0
 40
11.0
 40
11.0
 40
11.0
 10
126.377554584636
 20
154.8151140277308
 30
0.0
 10
126.377554584636
 20
154.8151140277308
 30
0.0
 10
128.8311532078563
 20
154.8151140277308
 30
0.0
 10
128.8311532078563
 20
154.8151140277308
 30
0.0
 10
128.8311532078563
 20
154.8151140277308
 30
0.0
 10
127.7345785914971
 20
151.3062819612468
 30
0.0
 10
127.7345785914971
 20
151.3062819612468
 30
0.0
 10
128.571392836906
 20
152.2922689395754
 30
0.0
 10
129.8860421413442
 20
153.604506675583
 30
0.0
 10
131.0163787157314
 20
154.2664822097754
 30
0.0
 10
132.7044766171327
 20
155.2500576196734
 30
0.0
 10
133.6642808525008
 20
155.3847609420097
 30
0.0
 10
134.7284715499351
 20
155.3565111403944
 30
0.0
 10
134.7284715499351
 20
155.3565111403944
 30
0.0
 10
133.6877075172549
 20
152.0345756272799
 30
0.0
 10
133.6877075172549
 20
152.0345756272799
 30
0.0
 10
133.011434827367
 20
152.3184516825359
 30
0.0
 10
130.930940291334
 20
151.7768823149844
 30
0.0
 10
129.739280976855
 20
150.9162968950455
 30
0.0
 10
128.66613302525
 20
150.1454562717016
 30
0.0
 10
127.9192358313239
 20
149.4857200510519
 30
0.0
 10
127.0393578639405
 20
147.8282835196966
 30
0.0
 10
126.164647543194
 20
146.1699857139017
 30
0.0
 10
125.4742499524985
 20
143.5262176944419
 30
0.0
 10
124.2822461282437
 20
139.6959580071401
 30
0.0
 10
124.2822461282437
 20
139.6959580071401
 30
0.0
 10
120.5753209406769
 20
127.8027915271048
 30
0.0
 10
120.5753209406769
 20
127.8027915271048
 30
0.0
 10
120.5753209406769
 20
127.8027915271048
 30
0.0
 10
118.1964809388044
 20
127.8027915271048
 30
0.0
 10
118.1964809388044
 20
127.8027915271048
 30
0.0
 10
118.1964809388044
 20
127.8027915271048
 30
0.0
 10
126.377554584636
 20
154.8151140277308
 30
0.0
 10
126.377554584636
 20
154.8151140277308
 30
0.0
  0
HATCH
  5
6A7
330
6A2
100
AcDbEntity
  8
LOGO
 62
   250
420
  2234388
100
AcDbHatch
 10
0.0
 20
0.0
 30
0.0
210
0.0
220
0.0
230
1.0
  2
SOLID
 70
     1
 71
     0
 91
        1
 92
        1
 93
        1
 72
     4
 94
        3
 73
     0
 74
     1
 95
       38
 96
       34
 40
0.0
 40
0.0
 40
0.0
 40
0.0
 40
1.0
 40
1.0
 40
1.0
 40
2.0
 40
2.0
 40
2.0
 40
3.0
 40
3.0
 40
3.0
 40
4.0
 40
4.0
 40
4.0
 40
5.0
 40
5.0
 40
5.0
 40
6.0
 40
6.0
 40
6.0
 40
7.0
 40
7.0
 40
7.0
 40
8.0
 40
8.0
 40
8.0
 40
9.0
 40
9.0
 40
9.0
 40
10.0
 40
10.0
 40
10.0
 40
11.0
 40
11.0
 40
11.0
 40
11.0
 10
126.377554584636
 20
154.8151140277308
 10
126.377554584636
 20
154.8151140277308
 10
128.8311532078563
 20
154.8151140277308
 10
128.8311532078563
 20
154.8151140277308
 10
128.8311532078563
 20
154.8151140277308
 10
127.7345785914971
 20
151.3062819612468
 10
127.7345785914971
 20
151.3062819612468
 10
128.571392836906
 20
152.2922689395754
 10
129.8860421413442
 20
153.604506675583
 10
131.0163787157314
 20
154.2664822097754
 10
132.7044766171327
 20
155.2500576196734
 10
133.6642808525008
 20
155.3847609420097
 10
134.7284715499351
 20
155.3565111403944
 10
134.7284715499351
 20
155.3565111403944
 10
133.6877075172549
 20
152.0345756272799
 10
133.6877075172549
 20
152.0345756272799
 10
133.011434827367
 20
152.3184516825359
 10
130.930940291334
 20
151.7768823149844
 10
129.739280976855
 20
150.9162968950455
 10
128.66613302525
 20
150.1454562717016
 10
127.9192358313239
 20
149.4857200510519
 10
127.0393578639405
 20
147.8282835196966
 10
126.164647543194
 20
146.1699857139017
 10
125.4742499524985
 20
143.5262176944419
 10
124.2822461282437
 20
139.6959580071401
 10
124.2822461282437
 20
139.6959580071401
 10
120.5753209406769
 20
127.8027915271048
 10
120.5753209406769
 20
127.8027915271048
 10
120.5753209406769
 20
127.8027915271048
 10
118.1964809388044
 20
127.8027915271048
 10
118.1964809388044
 20
127.8027915271048
 10
118.1964809388044
 20
127.8027915271048
 10
126.377554584636
 20
154.8151140277308
 10
126.377554584636
 20
154.8151140277308
 97
        0
 75
     2
 76
     1
 98
        0
  0
SPLINE
  5
6A8
330
6A2
100
AcDbEntity
  8
LOGO
370
     0
100
AcDbSpline
210
0.0
220
0.0
230
1.0
 70
    11
 71
     3
 72
   104
 73
   100
 74
     0
 42
0.000000001
 43
0.0000000001
 40
0.0
 40
0.0
 40
0.0
 40
0.0
 40
1.0
 40
1.0
 40
1.0
 40
2.0
 40
2.0
 40
2.0
 40
3.0
 40
3.0
 40
3.0
 40
4.0
 40
4.0
 40
4.0
 40
5.0
 40
5.0
 40
5.0
 40
6.0
 40
6.0
 40
6.0
 40
7.0
 40
7.0
 40
7.0
 40
8.0
 40
8.0
 40
8.0
 40
9.0
 40
9.0
 40
9.0
 40
10.0
 40
10.0
 40
10.0
 40
11.0
 40
11.0
 40
11.0
 40
12.0
 40
12.0
 40
12.0
 40
13.0
 40
13.0
 40
13.0
 40
14.0
 40
14.0
 40
14.0
 40
15.0
 40
15.0
 40
15.0
 40
16.0
 40
16.0
 40
16.0
 40
17.0
 40
17.0
 40
17.0
 40
18.0
 40
18.0
 40
18.0
 40
19.0
 40
19.0
 40
19.0
 40
20.0
 40
20.0
 40
20.0
 40
21.0
 40
21.0
 40
21.0
 40
22.0
 40
22.0
 40
22.0
 40
23.0
 40
23.0
 40
23.0
 40
24.0
 40
24.0
 40
24.0
 40
25.0
 40
25.0
 40
25.0
 40
26.0
 40
26.0
 40
26.0
 40
27.0
 40
27.0
 40
27.0
 40
28.0
 40
28.0
 40
28.0
 40
29.0
 40
29.0
 40
29.0
 40
30.0
 40
30.0
 40
30.0
 40
31.0
 40
31.0
 40
31.0
 40
32.0
 40
32.0
 40
32.0
 40
33.0
 40
33.0
 40
33.0
 40
33.0
 10
139.8926730891197
 20
154.8294111834263
 30
0.0
 10
139.8926730891197
 20
154.8294111834263
 30
0.0
 10
142.0344903652445
 20
154.8294111834263
 30
0.0
 10
142.0344903652445
 20
154.8294111834263
 30
0.0
 10
142.0344903652445
 20
154.8294111834263
 30
0.0
 10
140.9516961399171
 20
151.3157559800812
 30
0.0
 10
140.9516961399171
 20
151.3157559800812
 30
0.0
 10
141.8928968473923
 20
152.7887075264977
 30
0.0
 10
142.7341897198865
 20
153.4484437471474
 30
0.0
 10
143.8552245303272
 20
154.2926649527359
 30
0.0
 10
144.9803934580775
 20
155.1296514530327
 30
0.0
 10
146.3139908001845
 20
155.3044901642492
 30
0.0
 10
147.241066606852
 20
155.3044901642492
 30
0.0
 10
148.3855280820469
 20
155.3044901642492
 30
0.0
 10
149.4969166187653
 20
155.0752189084569
 30
0.0
 10
150.0784491203092
 20
153.8172414621372
 30
0.0
 10
150.5228667310863
 20
152.833838307127
 30
0.0
 10
150.5414702589793
 20
152.7201500811143
 30
0.0
 10
150.4140016419347
 20
150.7765981809602
 30
0.0
 10
151.5818897818837
 20
152.7699317437168
 30
0.0
 10
152.4424752018226
 20
153.6256940267945
 30
0.0
 10
153.9038856707499
 20
154.4507949398263
 30
0.0
 10
155.4455669174378
 20
155.3044901642492
 30
0.0
 10
156.339225275853
 20
155.3659851592288
 30
0.0
 10
157.3748216618963
 20
155.2147453676543
 30
0.0
 10
158.911679771723
 20
154.9877134254046
 30
0.0
 10
159.8859534176746
 20
154.4390816074493
 30
0.0
 10
160.3965169054045
 20
152.7816450760939
 30
0.0
 10
160.9070803931344
 20
151.1219692311958
 30
0.0
 10
160.6328506116007
 20
150.2303779314354
 30
0.0
 10
159.9992971339115
 20
147.597634224801
 30
0.0
 10
159.7105979417943
 20
146.4014962832367
 30
0.0
 10
159.2947746424084
 20
144.9400858143094
 30
0.0
 10
158.7463150793409
 20
143.2092687007094
 30
0.0
 10
158.7463150793409
 20
143.2092687007094
 30
0.0
 10
153.9038856707499
 20
127.8027915271048
 30
0.0
 10
153.9038856707499
 20
127.8027915271048
 30
0.0
 10
153.9038856707499
 20
127.8027915271048
 30
0.0
 10
151.3882752878863
 20
127.8027915271048
 30
0.0
 10
151.3882752878863
 20
127.8027915271048
 30
0.0
 10
151.3882752878863
 20
127.8027915271048
 30
0.0
 10
155.6250565106276
 20
141.2751908193897
 30
0.0
 10
155.6250565106276
 20
141.2751908193897
 30
0.0
 10
156.5094131050963
 20
144.0936252951782
 30
0.0
 10
157.109893644309
 20
146.1506931664571
 30
0.0
 10
157.4220195011804
 20
147.4415712963654
 30
0.0
 10
157.8095929989511
 20
149.0530157726519
 30
0.0
 10
157.9656559273867
 20
149.5826995529385
 30
0.0
 10
157.7816877071116
 20
150.7529992613181
 30
0.0
 10
157.6111553680925
 20
151.8430281919372
 30
0.0
 10
157.0582171779396
 20
152.5547853887321
 30
0.0
 10
156.1170164704645
 20
152.5547853887321
 30
0.0
 10
155.1096698860365
 20
152.5547853887321
 30
0.0
 10
154.2962823053817
 20
152.4412694176073
 30
0.0
 10
153.156643967048
 20
151.2945686288697
 30
0.0
 10
152.0170056287143
 20
150.1476955852443
 30
0.0
 10
151.076149431015
 20
148.7930831468137
 30
0.0
 10
150.3337308641742
 20
147.2290087646991
 30
0.0
 10
149.5957909244188
 20
145.6683794803425
 30
0.0
 10
148.8530278478023
 20
143.6822806228776
 30
0.0
 10
148.0964843801539
 20
141.2751908193897
 30
0.0
 10
148.0964843801539
 20
141.2751908193897
 30
0.0
 10
143.8552245303272
 20
127.8027915271048
 30
0.0
 10
143.8552245303272
 20
127.8027915271048
 30
0.0
 10
143.8552245303272
 20
127.8027915271048
 30
0.0
 10
141.486030802177
 20
127.8027915271048
 30
0.0
 10
141.486030802177
 20
127.8027915271048
 30
0.0
 10
141.486030802177
 20
127.8027915271048
 30
0.0
 10
146.3329388378533
 20
143.2092687007094
 30
0.0
 10
146.3329388378533
 20
143.2092687007094
 30
0.0
 10
146.8483254624444
 20
144.8408669988801
 30
0.0
 10
147.2314203331297
 20
146.1837661049335
 30
0.0
 10
147.4867020769946
 20
147.224185627838
 30
0.0
 10
147.9169947869641
 20
149.0197705792876
 30
0.0
 10
148.0306830129768
 20
150.2400242051577
 30
0.0
 10
147.709255392159
 20
151.3157559800812
 30
0.0
 10
147.3874832615654
 20
152.3916600098926
 30
0.0
 10
146.8245542879144
 20
152.6683013598569
 30
0.0
 10
145.8840425999909
 20
152.6683013598569
 30
0.0
 10
145.0989048209514
 20
152.6683013598569
 30
0.0
 10
144.3282364524954
 20
152.3275811915945
 30
0.0
 10
143.4531816219731
 20
151.6538923250251
 30
0.0
 10
142.34627171234
 20
150.8074318058939
 30
0.0
 10
141.901854101563
 20
150.1097995099067
 30
0.0
 10
141.3578731655808
 20
149.289521733736
 30
0.0
 10
140.6299240093235
 20
148.192602607601
 30
0.0
 10
140.2850697237515
 20
147.455696197173
 30
0.0
 10
139.6652966370942
 20
145.8385673095858
 30
0.0
 10
139.0506911970739
 20
144.2214384219986
 30
0.0
 10
138.463991048893
 20
142.3252566160164
 30
0.0
 10
138.0571250036777
 20
141.0154304484394
 30
0.0
 10
138.0571250036777
 20
141.0154304484394
 30
0.0
 10
133.9009590684727
 20
127.8027915271048
 30
0.0
 10
133.9009590684727
 20
127.8027915271048
 30
0.0
 10
133.9009590684727
 20
127.8027915271048
 30
0.0
 10
131.4180771143097
 20
127.8027915271048
 30
0.0
 10
131.4180771143097
 20
127.8027915271048
 30
0.0
 10
131.4180771143097
 20
127.8027915271048
 30
0.0
 10
139.8926730891197
 20
154.8294111834263
 30
0.0
 10
139.8926730891197
 20
154.8294111834263
 30
0.0
  0
HATCH
  5
6A9
330
6A2
100
AcDbEntity
  8
LOGO
 62
   250
420
  2234388
100
AcDbHatch
 10
0.0
 20
0.0
 30
0.0
210
0.0
220
0.0
230
1.0
  2
SOLID
 70
     1
 71
     0
 91
        1
 92
        1
 93
        1
 72
     4
 94
        3
 73
     0
 74
     1
 95
      104
 96
      100
 40
0.0
 40
0.0
 40
0.0
 40
0.0
 40
1.0
 40
1.0
 40
1.0
 40
2.0
 40
2.0
 40
2.0
 40
3.0
 40
3.0
 40
3.0
 40
4.0
 40
4.0
 40
4.0
 40
5.0
 40
5.0
 40
5.0
 40
6.0
 40
6.0
 40
6.0
 40
7.0
 40
7.0
 40
7.0
 40
8.0
 40
8.0
 40
8.0
 40
9.0
 40
9.0
 40
9.0
 40
10.0
 40
10.0
 40
10.0
 40
11.0
 40
11.0
 40
11.0
 40
12.0
 40
12.0
 40
12.0
 40
13.0
 40
13.0
 40
13.0
 40
14.0
 40
14.0
 40
14.0
 40
15.0
 40
15.0
 40
15.0
 40
16.0
 40
16.0
 40
16.0
 40
17.0
 40
17.0
 40
17.0
 40
18.0
 40
18.0
 40
18.0
 40
19.0
 40
19.0
 40
19.0
 40
20.0
 40
20.0
 40
20.0
 40
21.0
 40
21.0
 40
21.0
 40
22.0
 40
22.0
 40
22.0
 40
23.0
 40
23.0
 40
23.0
 40
24.0
 40
24.0
 40
24.0
 40
25.0
 40
25.0
 40
25.0
 40
26.0
 40
26.0
 40
26.0
 40
27.0
 40
27.0
 40
27.0
 40
28.0
 40
28.0
 40
28.0
 40
29.0
 40
29.0
 40
29.0
 40
30.0
 40
30.0
 40
30.0
 40
31.0
 40
31.0
 40
31.0
 40
32.0
 40
32.0
 40
32.0
 40
33.0
 40
33.0
 40
33.0
 40
33.0
 10
139.8926730891197
 20
154.8294111834263
 10
139.8926730891197
 20
154.8294111834263
 10
142.0344903652445
 20
154.8294111834263
 10
142.0344903652445
 20
154.8294111834263
 10
142.0344903652445
 20
154.8294111834263
 10
140.9516961399171
 20
151.3157559800812
 10
140.9516961399171
 20
151.3157559800812
 10
141.8928968473923
 20
152.7887075264977
 10
142.7341897198865
 20
153.4484437471474
 10
143.8552245303272
 20
154.2926649527359
 10
144.9803934580775
 20
155.1296514530327
 10
146.3139908001845
 20
155.3044901642492
 10
147.241066606852
 20
155.3044901642492
 10
148.3855280820469
 20
155.3044901642492
 10
149.4969166187653
 20
155.0752189084569
 10
150.0784491203092
 20
153.8172414621372
 10
150.5228667310863
 20
152.833838307127
 10
150.5414702589793
 20
152.7201500811143
 10
150.4140016419347
 20
150.7765981809602
 10
151.5818897818837
 20
152.7699317437168
 10
152.4424752018226
 20
153.6256940267945
 10
153.9038856707499
 20
154.4507949398263
 10
155.4455669174378
 20
155.3044901642492
 10
156.339225275853
 20
155.3659851592288
 10
157.3748216618963
 20
155.2147453676543
 10
158.911679771723
 20
154.9877134254046
 10
159.8859534176746
 20
154.4390816074493
 10
160.3965169054045
 20
152.7816450760939
 10
160.9070803931344
 20
151.1219692311958
 10
160.6328506116007
 20
150.2303779314354
 10
159.9992971339115
 20
147.597634224801
 10
159.7105979417943
 20
146.4014962832367
 10
159.2947746424084
 20
144.9400858143094
 10
158.7463150793409
 20
143.2092687007094
 10
158.7463150793409
 20
143.2092687007094
 10
153.9038856707499
 20
127.8027915271048
 10
153.9038856707499
 20
127.8027915271048
 10
153.9038856707499
 20
127.8027915271048
 10
151.3882752878863
 20
127.8027915271048
 10
151.3882752878863
 20
127.8027915271048
 10
151.3882752878863
 20
127.8027915271048
 10
155.6250565106276
 20
141.2751908193897
 10
155.6250565106276
 20
141.2751908193897
 10
156.5094131050963
 20
144.0936252951782
 10
157.109893644309
 20
146.1506931664571
 10
157.4220195011804
 20
147.4415712963654
 10
157.8095929989511
 20
149.0530157726519
 10
157.9656559273867
 20
149.5826995529385
 10
157.7816877071116
 20
150.7529992613181
 10
157.6111553680925
 20
151.8430281919372
 10
157.0582171779396
 20
152.5547853887321
 10
156.1170164704645
 20
152.5547853887321
 10
155.1096698860365
 20
152.5547853887321
 10
154.2962823053817
 20
152.4412694176073
 10
153.156643967048
 20
151.2945686288697
 10
152.0170056287143
 20
150.1476955852443
 10
151.076149431015
 20
148.7930831468137
 10
150.3337308641742
 20
147.2290087646991
 10
149.5957909244188
 20
145.6683794803425
 10
148.8530278478023
 20
143.6822806228776
 10
148.0964843801539
 20
141.2751908193897
 10
148.0964843801539
 20
141.2751908193897
 10
143.8552245303272
 20
127.8027915271048
 10
143.8552245303272
 20
127.8027915271048
 10
143.8552245303272
 20
127.8027915271048
 10
141.486030802177
 20
127.8027915271048
 10
141.486030802177
 20
127.8027915271048
 10
141.486030802177
 20
127.8027915271048
 10
146.3329388378533
 20
143.2092687007094
 10
146.3329388378533
 20
143.2092687007094
 10
146.8483254624444
 20
144.8408669988801
 10
147.2314203331297
 20
146.1837661049335
 10
147.4867020769946
 20
147.224185627838
 10
147.9169947869641
 20
149.0197705792876
 10
148.0306830129768
 20
150.2400242051577
 10
147.709255392159
 20
151.3157559800812
 10
147.3874832615654
 20
152.3916600098926
 10
146.8245542879144
 20
152.6683013598569
 10
145.8840425999909
 20
152.6683013598569
 10
145.0989048209514
 20
152.6683013598569
 10
144.3282364524954
 20
152.3275811915945
 10
143.4531816219731
 20
151.6538923250251
 10
142.34627171234
 20
150.8074318058939
 10
141.901854101563
 20
150.1097995099067
 10
141.3578731655808
 20
149.289521733736
 10
140.6299240093235
 20
148.192602607601
 10
140.2850697237515
 20
147.455696197173
 10
139.6652966370942
 20
145.8385673095858
 10
139.0506911970739
 20
144.2214384219986
 10
138.463991048893
 20
142.3252566160164
 10
138.0571250036777
 20
141.0154304484394
 10
138.0571250036777
 20
141.0154304484394
 10
133.9009590684727
 20
127.8027915271048
 10
133.9009590684727
 20
127.8027915271048
 10
133.9009590684727
 20
127.8027915271048
 10
131.4180771143097
 20
127.8027915271048
 10
131.4180771143097
 20
127.8027915271048
 10
131.4180771143097
 20
127.8027915271048
 10
139.8926730891197
 20
154.8294111834263
 10
139.8926730891197
 20
154.8294111834263
 97
        0
 75
     2
 76
     1
 98
        0
  0
SPLINE
  5
6AA
330
6A2
100
AcDbEntity
  8
LOGO
370
     0
100
AcDbSpline
210
0.0
220
0.0
230
1.0
 70
    11
 71
     3
 72
    29
 73
    25
 74
     0
 42
0.000000001
 43
0.0000000001
 40
0.0
 40
0.0
 40
0.0
 40
0.0
 40
1.0
 40
1.0
 40
1.0
 40
2.0
 40
2.0
 40
2.0
 40
3.0
 40
3.0
 40
3.0
 40
4.0
 40
4.0
 40
4.0
 40
5.0
 40
5.0
 40
5.0
 40
6.0
 40
6.0
 40
6.0
 40
7.0
 40
7.0
 40
7.0
 40
8.0
 40
8.0
 40
8.0
 40
8.0
 10
101.6420971922469
 20
132.8388354296931
 30
0.0
 10
101.630039350094
 20
134.7164137077823
 30
0.0
 10
102.2236296937908
 20
138.0598810818841
 30
0.0
 10
103.7487744712405
 20
142.5378191476827
 30
0.0
 10
105.819967243327
 20
148.5896501242061
 30
0.0
 10
107.0602024361932
 20
150.8074318058939
 30
0.0
 10
108.1522984254671
 20
151.8833358357054
 30
0.0
 10
109.741177511439
 20
153.4532668840085
 30
0.0
 10
111.8740375333931
 20
153.5290590346837
 30
0.0
 10
112.5075910110823
 20
153.4532668840085
 30
0.0
 10
113.4012493694975
 20
153.3490526768302
 30
0.0
 10
114.6683563248758
 20
152.7580461564518
 30
0.0
 10
114.7493161221879
 20
150.7838328862519
 30
0.0
 10
114.8106388622796
 20
149.0909118479895
 30
0.0
 10
114.3186789024427
 20
145.9191825971221
 30
0.0
 10
112.6164561002338
 20
140.9489400617108
 30
0.0
 10
110.6444821435766
 20
135.1746117095912
 30
0.0
 10
109.4669477299053
 20
132.8960240524753
 30
0.0
 10
108.5212683953448
 20
131.9072809959403
 30
0.0
 10
106.7346406980658
 20
130.0538184021569
 30
0.0
 10
104.8222669326213
 20
130.2336525051225
 30
0.0
 10
104.5408024457958
 20
130.2336525051225
 30
0.0
 10
104.1721769856939
 20
130.2336525051225
 30
0.0
 10
101.6465758193322
 20
130.6305277668397
 30
0.0
 10
101.6420971922469
 20
132.8388354296931
 30
0.0
  0
SPLINE
  5
6AB
330
6A2
100
AcDbEntity
  8
LOGO
370
     0
100
AcDbSpline
210
0.0
220
0.0
230
1.0
 70
    11
 71
     3
 72
    32
 73
    28
 74
     0
 42
0.000000001
 43
0.0000000001
 40
0.0
 40
0.0
 40
0.0
 40
0.0
 40
1.0
 40
1.0
 40
1.0
 40
2.0
 40
2.0
 40
2.0
 40
3.0
 40
3.0
 40
3.0
 40
4.0
 40
4.0
 40
4.0
 40
5.0
 40
5.0
 40
5.0
 40
6.0
 40
6.0
 40
6.0
 40
7.0
 40
7.0
 40
7.0
 40
8.0
 40
8.0
 40
8.0
 40
9.0
 40
9.0
 40
9.0
 40
9.0
 10
106.2595617172429
 20
153.4105476718098
 30
0.0
 10
104.8222669326213
 20
151.5474388043041
 30
0.0
 10
103.7177685914188
 20
149.8758773721411
 30
0.0
 10
101.9232171692965
 20
144.6141795664062
 30
0.0
 10
100.2754269116635
 20
139.7999999594306
 30
0.0
 10
99.22777268346732
 20
136.3052927937542
 30
0.0
 10
99.06964269637689
 20
132.039572749846
 30
0.0
 10
98.94665270641765
 20
128.8673267343149
 30
0.0
 10
100.8807305877373
 20
127.8027915271048
 30
0.0
 10
103.7129454545577
 20
127.8027915271048
 30
0.0
 10
104.9352661390825
 20
127.8027915271048
 30
0.0
 10
108.0151835347002
 20
127.8827177950895
 30
0.0
 10
110.2045431598849
 20
130.5926316915021
 30
0.0
 10
111.7417457794874
 20
132.4984597712065
 30
0.0
 10
113.155269389579
 20
134.475256864725
 30
0.0
 10
115.0562743324223
 20
140.9489400617108
 30
0.0
 10
116.6361961642235
 20
146.3680788349845
 30
0.0
 10
117.7282921534974
 20
149.8639917848761
 30
0.0
 10
117.6480213757369
 20
151.8595646611754
 30
0.0
 10
117.6480213757369
 20
151.8595646611754
 30
0.0
 10
117.6480213757369
 20
151.8595646611754
 30
0.0
 10
117.6480213757369
 20
151.8595646611754
 30
0.0
 10
117.13229024137
 20
155.18150017429
 30
0.0
 10
114.7162431837115
 20
155.886194920681
 30
0.0
 10
113.3351034925446
 20
155.886194920681
 30
0.0
 10
111.9829026225447
 20
155.886194920681
 30
0.0
 10
108.3414342923792
 20
156.1251124501957
 30
0.0
 10
106.2595617172429
 20
153.4105476718098
 30
0.0
  0
HATCH
  5
6AC
330
6A2
100
AcDbEntity
  8
LOGO
 62
   250
420
  2234388
100
AcDbHatch
 10
0.0
 20
0.0
 30
0.0
210
0.0
220
0.0
230
1.0
  2
SOLID
 70
     1
 71
     0
 91
        2
 92
        1
 93
        1
 72
     4
 94
        3
 73
     0
 74
     1
 95
       29
 96
       25
 40
0.0
 40
0.0
 40
0.0
 40
0.0
 40
1.0
 40
1.0
 40
1.0
 40
2.0
 40
2.0
 40
2.0
 40
3.0
 40
3.0
 40
3.0
 40
4.0
 40
4.0
 40
4.0
 40
5.0
 40
5.0
 40
5.0
 40
6.0
 40
6.0
 40
6.0
 40
7.0
 40
7.0
 40
7.0
 40
8.0
 40
8.0
 40
8.0
 40
8.0
 10
101.6420971922469
 20
132.8388354296931
 10
101.630039350094
 20
134.7164137077823
 10
102.2236296937908
 20
138.0598810818841
 10
103.7487744712405
 20
142.5378191476827
 10
105.819967243327
 20
148.5896501242061
 10
107.0602024361932
 20
150.8074318058939
 10
108.1522984254671
 20
151.8833358357054
 10
109.741177511439
 20
153.4532668840085
 10
111.8740375333931
 20
153.5290590346837
 10
112.5075910110823
 20
153.4532668840085
 10
113.4012493694975
 20
153.3490526768302
 10
114.6683563248758
 20
152.7580461564518
 10
114.7493161221879
 20
150.7838328862519
 10
114.8106388622796
 20
149.0909118479895
 10
114.3186789024427
 20
145.9191825971221
 10
112.6164561002338
 20
140.9489400617108
 10
110.6444821435766
 20
135.1746117095912
 10
109.4669477299053
 20
132.8960240524753
 10
108.5212683953448
 20
131.9072809959403
 10
106.7346406980658
 20
130.0538184021569
 10
104.8222669326213
 20
130.2336525051225
 10
104.5408024457958
 20
130.2336525051225
 10
104.1721769856939
 20
130.2336525051225
 10
101.6465758193322
 20
130.6305277668397
 10
101.6420971922469
 20
132.8388354296931
 97
        0
 92
        1
 93
        1
 72
     4
 94
        3
 73
     0
 74
     1
 95
       32
 96
       28
 40
0.0
 40
0.0
 40
0.0
 40
0.0
 40
1.0
 40
1.0
 40
1.0
 40
2.0
 40
2.0
 40
2.0
 40
3.0
 40
3.0
 40
3.0
 40
4.0
 40
4.0
 40
4.0
 40
5.0
 40
5.0
 40
5.0
 40
6.0
 40
6.0
 40
6.0
 40
7.0
 40
7.0
 40
7.0
 40
8.0
 40
8.0
 40
8.0
 40
9.0
 40
9.0
 40
9.0
 40
9.0
 10
106.2595617172429
 20
153.4105476718098
 10
104.8222669326213
 20
151.5474388043041
 10
103.7177685914188
 20
149.8758773721411
 10
101.9232171692965
 20
144.6141795664062
 10
100.2754269116635
 20
139.7999999594306
 10
99.22777268346732
 20
136.3052927937542
 10
99.06964269637689
 20
132.039572749846
 10
98.94665270641765
 20
128.8673267343149
 10
100.8807305877373
 20
127.8027915271048
 10
103.7129454545577
 20
127.8027915271048
 10
104.9352661390825
 20
127.8027915271048
 10
108.0151835347002
 20
127.8827177950895
 10
110.2045431598849
 20
130.5926316915021
 10
111.7417457794874
 20
132.4984597712065
 10
113.155269389579
 20
134.475256864725
 10
115.0562743324223
 20
140.9489400617108
 10
116.6361961642235
 20
146.3680788349845
 10
117.7282921534974
 20
149.8639917848761
 10
117.6480213757369
 20
151.8595646611754
 10
117.6480213757369
 20
151.8595646611754
 10
117.6480213757369
 20
151.8595646611754
 10
117.6480213757369
 20
151.8595646611754
 10
117.13229024137
 20
155.18150017429
 10
114.7162431837115
 20
155.886194920681
 10
113.3351034925446
 20
155.886194920681
 10
111.9829026225447
 20
155.886194920681
 10
108.3414342923792
 20
156.1251124501957
 10
106.2595617172429
 20
153.4105476718098
 97
        0
 75
     2
 76
     1
 98
        0
  0
ENDBLK
  5
6AD
330
6A2
100
AcDbEntity
  8
0
100
AcDbBlockEnd
  0
BLOCK
  5
199B
330
199A
100
AcDbEntity
  8
0
100
AcDbBlockBegin
  2
SEANNOT_GROUP
 70
     0
 10
0.0
 20
0.0
 30
0.0
  3
SEANNOT_GROUP
  1
SEANNOT_GROUP
  0
ENDBLK
  5
199C
330
199A
100
AcDbEntity
  8
0
100
AcDbBlockEnd
  0
BLOCK
  5
1F30
330
1F2F
100
AcDbEntity
  8
0
100
AcDbBlockBegin
  2
SEANNOT_GROUP1
 70
     0
 10
0.0
 20
0.0
 30
0.0
  3
SEANNOT_GROUP1
  1
SEANNOT_GROUP1
  0
ENDBLK
  5
1F31
330
1F2F
100
AcDbEntity
  8
0
100
AcDbBlockEnd
  0
BLOCK
  5
35B0
330
35AF
100
AcDbEntity
  8
0
100
AcDbBlockBegin
  2
*D8
 70
     1
 10
0.0
 20
0.0
 30
0.0
  3
*D8
  1

  0
LINE
  5
35B2
330
35AF
100
AcDbEntity
  8
DIM
  6
Continuous
 62
     0
370
    -2
100
AcDbLine
 10
-1701.779082911145
 20
1534.490644404527
 30
0.0
 11
-1868.515661171568
 21
1534.490644404527
 31
0.0
  0
LINE
  5
35B3
330
35AF
100
AcDbEntity
  8
DIM
  6
Continuous
 62
     0
370
    -2
100
AcDbLine
 10
-1701.779082911145
 20
694.5100719424458
 30
0.0
 11
-1868.515661171568
 21
694.5100719424458
 31
0.0
  0
LINE
  5
35B4
330
35AF
100
AcDbEntity
  8
DIM
  6
Continuous
 62
     0
370
    -2
100
AcDbLine
 10
-1868.515661171568
 20
1524.490644404527
 30
0.0
 11
-1868.515661171568
 21
704.5100719424458
 31
0.0
  0
INSERT
  5
35B5
330
35AF
100
AcDbEntity
  8
DIM
 62
     0
370
    -2
100
AcDbBlockReference
  2
_DOT
 10
-1868.515661171568
 20
1534.490644404527
 30
0.0
 41
10.0
 42
10.0
 43
10.0
 50
90.0
  0
INSERT
  5
35B6
330
35AF
100
AcDbEntity
  8
DIM
 62
     0
370
    -2
100
AcDbBlockReference
  2
_DOT
 10
-1868.515661171568
 20
694.5100719424458
 30
0.0
 41
10.0
 42
10.0
 43
10.0
 50
270.0
  0
MTEXT
  5
35B7
330
35AF
100
AcDbEntity
  8
DIM
 62
     0
100
AcDbMText
 10
-1900.515661171568
 20
1114.500358173486
 30
0.0
 40
24.0
 41
0.0
 46
0.0
 71
     5
 72
     1
  1
\A1;840
  7
ＭＳ ゴシック
 11
0.0
 21
1.0
 31
0.0
 73
     1
 44
1.0
  0
POINT
  5
35B8
330
35AF
100
AcDbEntity
  8
Defpoints
 62
     0
100
AcDbPoint
 10
-1671.779082911145
 20
1534.490644404527
 30
0.0
  0
POINT
  5
35B9
330
35AF
100
AcDbEntity
  8
Defpoints
 62
     0
100
AcDbPoint
 10
-1671.779082911145
 20
694.5100719424458
 30
0.0
  0
POINT
  5
35BA
330
35AF
100
AcDbEntity
  8
Defpoints
 62
     0
100
AcDbPoint
 10
-1868.515661171568
 20
694.5100719424458
 30
0.0
  0
ENDBLK
  5
35B1
330
35AF
100
AcDbEntity
  8
0
100
AcDbBlockEnd
  0
BLOCK
  5
35BC
330
35BB
100
AcDbEntity
  8
0
100
AcDbBlockBegin
  2
*D9
 70
     1
 10
0.0
 20
0.0
 30
0.0
  3
*D9
  1

  0
LINE
  5
35BE
330
35BB
100
AcDbEntity
  8
DIM
  6
Continuous
 62
     0
370
    -2
100
AcDbLine
 10
-1778.364607822848
 20
1566.177280876448
 30
0.0
 11
-1778.364607822848
 21
1682.793179170035
 31
0.0
  0
LINE
  5
35BF
330
35BB
100
AcDbEntity
  8
DIM
  6
Continuous
 62
     0
370
    -2
100
AcDbLine
 10
-1398.364607822847
 20
1566.177280876448
 30
0.0
 11
-1398.364607822847
 21
1682.793179170035
 31
0.0
  0
LINE
  5
35C0
330
35BB
100
AcDbEntity
  8
DIM
  6
Continuous
 62
     0
370
    -2
100
AcDbLine
 10
-1768.364607822848
 20
1682.793179170035
 30
0.0
 11
-1408.364607822847
 21
1682.793179170035
 31
0.0
  0
INSERT
  5
35C1
330
35BB
100
AcDbEntity
  8
DIM
 62
     0
370
    -2
100
AcDbBlockReference
  2
_DOT
 10
-1778.364607822848
 20
1682.793179170035
 30
0.0
 41
10.0
 42
10.0
 43
10.0
 50
180.0
  0
INSERT
  5
35C2
330
35BB
100
AcDbEntity
  8
DIM
 62
     0
370
    -2
100
AcDbBlockReference
  2
_DOT
 10
-1398.364607822847
 20
1682.793179170035
 30
0.0
 41
10.0
 42
10.0
 43
10.0
  0
MTEXT
  5
35C3
330
35BB
100
AcDbEntity
  8
DIM
 62
     0
100
AcDbMText
 10
-1588.364607822847
 20
1714.793179170035
 30
0.0
 40
24.0
 41
0.0
 46
0.0
 71
     5
 72
     1
  1
\A1;380
  7
ＭＳ ゴシック
 73
     1
 44
1.0
  0
POINT
  5
35C4
330
35BB
100
AcDbEntity
  8
Defpoints
 62
     0
100
AcDbPoint
 10
-1778.364607822848
 20
1536.177280876448
 30
0.0
  0
POINT
  5
35C5
330
35BB
100
AcDbEntity
  8
Defpoints
 62
     0
100
AcDbPoint
 10
-1398.364607822847
 20
1536.177280876448
 30
0.0
  0
POINT
  5
35C6
330
35BB
100
AcDbEntity
  8
Defpoints
 62
     0
100
AcDbPoint
 10
-1398.364607822847
 20
1682.793179170035
 30
0.0
  0
ENDBLK
  5
35BD
330
35BB
100
AcDbEntity
  8
0
100
AcDbBlockEnd
  0
BLOCK
  5
35C8
330
35C7
100
AcDbEntity
  8
0
100
AcDbBlockBegin
  2
*D10
 70
     1
 10
0.0
 20
0.0
 30
0.0
  3
*D10
  1

  0
LINE
  5
35CA
330
35C7
100
AcDbEntity
  8
DIM
  6
Continuous
 62
     0
370
    -2
100
AcDbLine
 10
-840.5917913179899
 20
694.5965880843369
 30
0.0
 11
-549.1752776322407
 21
694.5965880843369
 31
0.0
  0
LINE
  5
35CB
330
35C7
100
AcDbEntity
  8
DIM
  6
Continuous
 62
     0
370
    -2
100
AcDbLine
 10
-581.4648780573527
 20
974.5965880843369
 30
0.0
 11
-549.1752776322407
 21
974.5965880843369
 31
0.0
  0
LINE
  5
35CC
330
35C7
100
AcDbEntity
  8
DIM
  6
Continuous
 62
     0
370
    -2
100
AcDbLine
 10
-549.1752776322407
 20
704.5965880843369
 30
0.0
 11
-549.1752776322407
 21
964.5965880843369
 31
0.0
  0
INSERT
  5
35CD
330
35C7
100
AcDbEntity
  8
DIM
 62
     0
370
    -2
100
AcDbBlockReference
  2
_DOT
 10
-549.1752776322407
 20
694.5965880843369
 30
0.0
 41
10.0
 42
10.0
 43
10.0
 50
270.0
  0
INSERT
  5
35CE
330
35C7
100
AcDbEntity
  8
DIM
 62
     0
370
    -2
100
AcDbBlockReference
  2
_DOT
 10
-549.1752776322407
 20
974.5965880843369
 30
0.0
 41
10.0
 42
10.0
 43
10.0
 50
90.0
  0
MTEXT
  5
35CF
330
35C7
100
AcDbEntity
  8
DIM
 62
     0
100
AcDbMText
 10
-581.1752776322407
 20
834.5965880843369
 30
0.0
 40
24.0
 41
0.0
 46
0.0
 71
     5
 72
     1
  1
\A1;280
  7
ＭＳ ゴシック
 11
0.0
 21
1.0
 31
0.0
 73
     1
 44
1.0
  0
POINT
  5
35D0
330
35C7
100
AcDbEntity
  8
Defpoints
 62
     0
100
AcDbPoint
 10
-870.5917913179899
 20
694.5965880843369
 30
0.0
  0
POINT
  5
35D1
330
35C7
100
AcDbEntity
  8
Defpoints
 62
     0
100
AcDbPoint
 10
-611.4648780573527
 20
974.5965880843369
 30
0.0
  0
POINT
  5
35D2
330
35C7
100
AcDbEntity
  8
Defpoints
 62
     0
100
AcDbPoint
 10
-549.1752776322407
 20
974.5965880843369
 30
0.0
  0
ENDBLK
  5
35C9
330
35C7
100
AcDbEntity
  8
0
100
AcDbBlockEnd
  0
BLOCK
  5
35D4
330
35D3
100
AcDbEntity
  8
0
100
AcDbBlockBegin
  2
*D11
 70
     1
 10
0.0
 20
0.0
 30
0.0
  3
*D11
  1

  0
LINE
  5
35D6
330
35D3
100
AcDbEntity
  8
DIM
  6
Continuous
 62
     0
370
    -2
100
AcDbLine
 10
-903.610618395014
 20
1564.490644404527
 30
0.0
 11
-903.610618395014
 21
1709.78585943874
 31
0.0
  0
LINE
  5
35D7
330
35D3
100
AcDbEntity
  8
DIM
  6
Continuous
 62
     0
370
    -2
100
AcDbLine
 10
-793.610618395014
 20
1044.78672085991
 30
0.0
 11
-793.6106183950141
 21
1709.78585943874
 31
0.0
  0
LINE
  5
35D8
330
35D3
100
AcDbEntity
  8
DIM
  6
Continuous
 62
     0
370
    -2
100
AcDbLine
 10
-893.610618395014
 20
1709.78585943874
 30
0.0
 11
-803.6106183950141
 21
1709.78585943874
 31
0.0
  0
INSERT
  5
35D9
330
35D3
100
AcDbEntity
  8
DIM
 62
     0
370
    -2
100
AcDbBlockReference
  2
_DOT
 10
-903.610618395014
 20
1709.78585943874
 30
0.0
 41
10.0
 42
10.0
 43
10.0
 50
180.0
  0
INSERT
  5
35DA
330
35D3
100
AcDbEntity
  8
DIM
 62
     0
370
    -2
100
AcDbBlockReference
  2
_DOT
 10
-793.6106183950141
 20
1709.78585943874
 30
0.0
 41
10.0
 42
10.0
 43
10.0
  0
MTEXT
  5
35DB
330
35D3
100
AcDbEntity
  8
DIM
 62
     0
100
AcDbMText
 10
-848.610618395014
 20
1741.78585943874
 30
0.0
 40
24.0
 41
0.0
 46
0.0
 71
     5
 72
     1
  1
\A1;110
  7
ＭＳ ゴシック
 73
     1
 44
1.0
  0
POINT
  5
35DC
330
35D3
100
AcDbEntity
  8
Defpoints
 62
     0
100
AcDbPoint
 10
-903.610618395014
 20
1534.490644404527
 30
0.0
  0
POINT
  5
35DD
330
35D3
100
AcDbEntity
  8
Defpoints
 62
     0
100
AcDbPoint
 10
-793.610618395014
 20
1014.78672085991
 30
0.0
  0
POINT
  5
35DE
330
35D3
100
AcDbEntity
  8
Defpoints
 62
     0
100
AcDbPoint
 10
-793.6106183950141
 20
1709.78585943874
 30
0.0
  0
ENDBLK
  5
35D5
330
35D3
100
AcDbEntity
  8
0
100
AcDbBlockEnd
  0
BLOCK
  5
35E0
330
35DF
100
AcDbEntity
  8
0
100
AcDbBlockBegin
  2
*D12
 70
     1
 10
0.0
 20
0.0
 30
0.0
  3
*D12
  1

  0
LINE
  5
35E2
330
35DF
100
AcDbEntity
  8
DIM
  6
Continuous
 62
     0
370
    -2
100
AcDbLine
 10
-903.610618395014
 20
1564.569441744921
 30
0.0
 11
-903.610618395014
 21
1649.297479704525
 31
0.0
  0
LINE
  5
35E3
330
35DF
100
AcDbEntity
  8
DIM
  6
Continuous
 62
     0
370
    -2
100
AcDbLine
 10
-813.610618395014
 20
1195.39044183081
 30
0.0
 11
-813.6106183950141
 21
1649.297479704525
 31
0.0
  0
LINE
  5
35E4
330
35DF
100
AcDbEntity
  8
DIM
  6
Continuous
 62
     0
370
    -2
100
AcDbLine
 10
-893.610618395014
 20
1649.297479704525
 30
0.0
 11
-823.6106183950141
 21
1649.297479704525
 31
0.0
  0
INSERT
  5
35E5
330
35DF
100
AcDbEntity
  8
DIM
 62
     0
370
    -2
100
AcDbBlockReference
  2
_DOT
 10
-903.610618395014
 20
1649.297479704525
 30
0.0
 41
10.0
 42
10.0
 43
10.0
 50
180.0
  0
INSERT
  5
35E6
330
35DF
100
AcDbEntity
  8
DIM
 62
     0
370
    -2
100
AcDbBlockReference
  2
_DOT
 10
-813.6106183950141
 20
1649.297479704525
 30
0.0
 41
10.0
 42
10.0
 43
10.0
  0
MTEXT
  5
35E7
330
35DF
100
AcDbEntity
  8
DIM
 62
     0
100
AcDbMText
 10
-858.610618395014
 20
1681.297479704525
 30
0.0
 40
24.0
 41
0.0
 46
0.0
 71
     5
 72
     1
  1
\A1;90
  7
ＭＳ ゴシック
 73
     1
 44
1.0
  0
POINT
  5
35E8
330
35DF
100
AcDbEntity
  8
Defpoints
 62
     0
100
AcDbPoint
 10
-903.610618395014
 20
1534.569441744921
 30
0.0
  0
POINT
  5
35E9
330
35DF
100
AcDbEntity
  8
Defpoints
 62
     0
100
AcDbPoint
 10
-813.610618395014
 20
1165.39044183081
 30
0.0
  0
POINT
  5
35EA
330
35DF
100
AcDbEntity
  8
Defpoints
 62
     0
100
AcDbPoint
 10
-813.6106183950141
 20
1649.297479704525
 30
0.0
  0
ENDBLK
  5
35E1
330
35DF
100
AcDbEntity
  8
0
100
AcDbBlockEnd
  0
BLOCK
  5
35EC
330
35EB
100
AcDbEntity
  8
0
100
AcDbBlockBegin
  2
*D13
 70
     1
 10
0.0
 20
0.0
 30
0.0
  3
*D13
  1

  0
LINE
  5
35EE
330
35EB
100
AcDbEntity
  8
DIM
  6
Continuous
 62
     0
370
    -2
100
AcDbLine
 10
-783.1230615373918
 20
2395.932361361355
 30
0.0
 11
-656.5119217463948
 21
2395.932361361355
 31
0.0
  0
LINE
  5
35EF
330
35EB
100
AcDbEntity
  8
DIM
  6
Continuous
 62
     0
370
    -2
100
AcDbLine
 10
-708.8600233066829
 20
2338.932361361355
 30
0.0
 11
-656.5119217463948
 21
2338.932361361355
 31
0.0
  0
LINE
  5
35F0
330
35EB
100
AcDbEntity
  8
DIM
  6
Continuous
 62
     0
370
    -2
100
AcDbLine
 10
-656.5119217463948
 20
2385.932361361355
 30
0.0
 11
-656.5119217463948
 21
2348.932361361355
 31
0.0
  0
INSERT
  5
35F1
330
35EB
100
AcDbEntity
  8
DIM
 62
     0
370
    -2
100
AcDbBlockReference
  2
_DOT
 10
-656.5119217463948
 20
2395.932361361355
 30
0.0
 41
10.0
 42
10.0
 43
10.0
 50
90.0
  0
INSERT
  5
35F2
330
35EB
100
AcDbEntity
  8
DIM
 62
     0
370
    -2
100
AcDbBlockReference
  2
_DOT
 10
-656.5119217463948
 20
2338.932361361355
 30
0.0
 41
10.0
 42
10.0
 43
10.0
 50
270.0
  0
MTEXT
  5
35F3
330
35EB
100
AcDbEntity
  8
DIM
 62
     0
100
AcDbMText
 10
-688.5119217463948
 20
2367.432361361355
 30
0.0
 40
24.0
 41
0.0
 46
0.0
 71
     5
 72
     1
  1
\A1;57
  7
ＭＳ ゴシック
 11
0.0
 21
1.0
 31
0.0
 73
     1
 44
1.0
  0
POINT
  5
35F4
330
35EB
100
AcDbEntity
  8
Defpoints
 62
     0
100
AcDbPoint
 10
-813.1230615373918
 20
2395.932361361355
 30
0.0
  0
POINT
  5
35F5
330
35EB
100
AcDbEntity
  8
Defpoints
 62
     0
100
AcDbPoint
 10
-738.8600233066829
 20
2338.932361361355
 30
0.0
  0
POINT
  5
35F6
330
35EB
100
AcDbEntity
  8
Defpoints
 62
     0
100
AcDbPoint
 10
-656.5119217463948
 20
2338.932361361355
 30
0.0
  0
ENDBLK
  5
35ED
330
35EB
100
AcDbEntity
  8
0
100
AcDbBlockEnd
  0
BLOCK
  5
35F8
330
35F7
100
AcDbEntity
  8
0
100
AcDbBlockBegin
  2
*D14
 70
     1
 10
0.0
 20
0.0
 30
0.0
  3
*D14
  1

  0
LINE
  5
35FA
330
35F7
100
AcDbEntity
  8
DIM
  6
Continuous
 62
     0
370
    -2
100
AcDbLine
 10
-903.610618395014
 20
2300.664202753995
 30
0.0
 11
-1082.322745068731
 21
2300.664202753995
 31
0.0
  0
LINE
  5
35FB
330
35F7
100
AcDbEntity
  8
DIM
  6
Continuous
 62
     0
370
    -2
100
AcDbLine
 10
-893.610618395014
 20
2300.664202753995
 30
0.0
 11
-842.610618395014
 21
2300.664202753995
 31
0.0
  0
LINE
  5
35FC
330
35F7
100
AcDbEntity
  8
DIM
  6
Continuous
 62
     0
370
    -2
100
AcDbLine
 10
-893.610618395014
 20
2300.664202753995
 30
0.0
 11
-883.610618395014
 21
2300.664202753995
 31
0.0
  0
INSERT
  5
35FD
330
35F7
100
AcDbEntity
  8
DIM
 62
     0
370
    -2
100
AcDbBlockReference
  2
_DOT
 10
-903.610618395014
 20
2300.664202753995
 30
0.0
 41
10.0
 42
10.0
 43
10.0
 50
180.0
  0
INSERT
  5
35FE
330
35F7
100
AcDbEntity
  8
DIM
 62
     0
370
    -2
100
AcDbBlockReference
  2
_DOT
 10
-832.610618395014
 20
2300.664202753995
 30
0.0
 41
10.0
 42
10.0
 43
10.0
  0
MTEXT
  5
35FF
330
35F7
100
AcDbEntity
  8
DIM
 62
     0
100
AcDbMText
 10
-1004.554745068731
 20
2334.788202753995
 30
0.0
 40
24.0
 41
0.0
 46
0.0
 71
     5
 72
     1
  1
\A1;71(深さ)
  7
ＭＳ ゴシック
 73
     1
 44
1.0
  0
POINT
  5
3600
330
35F7
100
AcDbEntity
  8
Defpoints
 62
     0
100
AcDbPoint
 10
-903.610618395014
 20
2323.165903121959
 30
0.0
  0
POINT
  5
3601
330
35F7
100
AcDbEntity
  8
Defpoints
 62
     0
100
AcDbPoint
 10
-832.610618395014
 20
2313.828412861025
 30
0.0
  0
POINT
  5
3602
330
35F7
100
AcDbEntity
  8
Defpoints
 62
     0
100
AcDbPoint
 10
-832.610618395014
 20
2300.664202753995
 30
0.0
  0
ENDBLK
  5
35F9
330
35F7
100
AcDbEntity
  8
0
100
AcDbBlockEnd
  0
BLOCK
  5
3604
330
3603
100
AcDbEntity
  8
0
100
AcDbBlockBegin
  2
*D15
 70
     1
 10
0.0
 20
0.0
 30
0.0
  3
*D15
  1

  0
LINE
  5
3606
330
3603
100
AcDbEntity
  8
DIM
  6
Continuous
 62
     0
370
    -2
100
AcDbLine
 10
-1907.24956051636
 20
1994.990655285753
 30
0.0
 11
-1937.421292500812
 21
1994.990655285753
 31
0.0
  0
LINE
  5
3607
330
3603
100
AcDbEntity
  8
DIM
  6
Continuous
 62
     0
370
    -2
100
AcDbLine
 10
-1783.406990940538
 20
2294.990655285753
 30
0.0
 11
-1937.421292500812
 21
2294.990655285753
 31
0.0
  0
LINE
  5
3608
330
3603
100
AcDbEntity
  8
DIM
  6
Continuous
 62
     0
370
    -2
100
AcDbLine
 10
-1937.421292500812
 20
2004.990655285753
 30
0.0
 11
-1937.421292500812
 21
2284.990655285753
 31
0.0
  0
INSERT
  5
3609
330
3603
100
AcDbEntity
  8
DIM
 62
     0
370
    -2
100
AcDbBlockReference
  2
_DOT
 10
-1937.421292500812
 20
1994.990655285753
 30
0.0
 41
10.0
 42
10.0
 43
10.0
 50
270.0
  0
INSERT
  5
360A
330
3603
100
AcDbEntity
  8
DIM
 62
     0
370
    -2
100
AcDbBlockReference
  2
_DOT
 10
-1937.421292500812
 20
2294.990655285753
 30
0.0
 41
10.0
 42
10.0
 43
10.0
 50
90.0
  0
MTEXT
  5
360B
330
3603
100
AcDbEntity
  8
DIM
 62
     0
100
AcDbMText
 10
-1969.421292500812
 20
2144.990655285753
 30
0.0
 40
24.0
 41
0.0
 46
0.0
 71
     5
 72
     1
  1
\A1;300
  7
ＭＳ ゴシック
 11
0.0
 21
1.0
 31
0.0
 73
     1
 44
1.0
  0
POINT
  5
360C
330
3603
100
AcDbEntity
  8
Defpoints
 62
     0
100
AcDbPoint
 10
-1877.24956051636
 20
1994.990655285753
 30
0.0
  0
POINT
  5
360D
330
3603
100
AcDbEntity
  8
Defpoints
 62
     0
100
AcDbPoint
 10
-1753.406990940538
 20
2294.990655285753
 30
0.0
  0
POINT
  5
360E
330
3603
100
AcDbEntity
  8
Defpoints
 62
     0
100
AcDbPoint
 10
-1937.421292500812
 20
2294.990655285753
 30
0.0
  0
ENDBLK
  5
3605
330
3603
100
AcDbEntity
  8
0
100
AcDbBlockEnd
  0
BLOCK
  5
3610
330
360F
100
AcDbEntity
  8
0
100
AcDbBlockBegin
  2
*D16
 70
     1
 10
0.0
 20
0.0
 30
0.0
  3
*D16
  1

  0
LINE
  5
3612
330
360F
100
AcDbEntity
  8
DIM
  6
Continuous
 62
     0
370
    -2
100
AcDbLine
 10
-783.6106148187328
 20
2386.790592101188
 30
0.0
 11
-724.6965098427049
 21
2386.790592101188
 31
0.0
  0
LINE
  5
3613
330
360F
100
AcDbEntity
  8
DIM
  6
Continuous
 62
     0
370
    -2
100
AcDbLine
 10
-783.6106148187328
 20
2290.790591683956
 30
0.0
 11
-724.6965098427049
 21
2290.790591683956
 31
0.0
  0
LINE
  5
3614
330
360F
100
AcDbEntity
  8
DIM
  6
Continuous
 62
     0
370
    -2
100
AcDbLine
 10
-724.6965098427049
 20
2376.790592101188
 30
0.0
 11
-724.6965098427049
 21
2300.790591683956
 31
0.0
  0
INSERT
  5
3615
330
360F
100
AcDbEntity
  8
DIM
 62
     0
370
    -2
100
AcDbBlockReference
  2
_DOT
 10
-724.6965098427049
 20
2386.790592101188
 30
0.0
 41
10.0
 42
10.0
 43
10.0
 50
90.0
  0
INSERT
  5
3616
330
360F
100
AcDbEntity
  8
DIM
 62
     0
370
    -2
100
AcDbBlockReference
  2
_DOT
 10
-724.6965098427049
 20
2290.790591683956
 30
0.0
 41
10.0
 42
10.0
 43
10.0
 50
270.0
  0
MTEXT
  5
3617
330
360F
100
AcDbEntity
  8
DIM
 62
     0
100
AcDbMText
 10
-756.6965098427049
 20
2338.790591892572
 30
0.0
 40
24.0
 41
0.0
 46
0.0
 71
     5
 72
     1
  1
\A1;96
  7
ＭＳ ゴシック
 11
0.0
 21
1.0
 31
0.0
 73
     1
 44
1.0
  0
POINT
  5
3618
330
360F
100
AcDbEntity
  8
Defpoints
 62
     0
100
AcDbPoint
 10
-813.6106148187328
 20
2386.790592101188
 30
0.0
  0
POINT
  5
3619
330
360F
100
AcDbEntity
  8
Defpoints
 62
     0
100
AcDbPoint
 10
-813.6106148187328
 20
2290.790591683956
 30
0.0
  0
POINT
  5
361A
330
360F
100
AcDbEntity
  8
Defpoints
 62
     0
100
AcDbPoint
 10
-724.6965098427049
 20
2290.790591683956
 30
0.0
  0
ENDBLK
  5
3611
330
360F
100
AcDbEntity
  8
0
100
AcDbBlockEnd
  0
BLOCK
  5
361C
330
361B
100
AcDbEntity
  8
0
100
AcDbBlockBegin
  2
*D17
 70
     1
 10
0.0
 20
0.0
 30
0.0
  3
*D17
  1

  0
LINE
  5
361E
330
361B
100
AcDbEntity
  8
DIM
 62
     0
 48
0.05
370
    -2
100
AcDbLine
 10
-781.1614360851468
 20
950.3986652665416
 30
0.0
 11
-753.9827233379619
 21
950.3986652665416
 31
0.0
  0
LINE
  5
361F
330
361B
100
AcDbEntity
  8
DIM
 62
     0
 48
0.05
370
    -2
100
AcDbLine
 10
-781.1614360851468
 20
997.3613317377002
 30
0.0
 11
-753.9827233379619
 21
997.3613317377002
 31
0.0
  0
LINE
  5
3620
330
361B
100
AcDbEntity
  8
DIM
 62
     0
 48
0.05
370
    -2
100
AcDbLine
 10
-753.9827233379619
 20
960.3986652665416
 30
0.0
 11
-753.9827233379619
 21
987.3613317377002
 31
0.0
  0
INSERT
  5
3621
330
361B
100
AcDbEntity
  8
DIM
 62
     0
370
    -2
100
AcDbBlockReference
  2
_DOT
 10
-753.9827233379619
 20
950.3986652665416
 30
0.0
 41
10.0
 42
10.0
 43
10.0
 50
270.0
  0
INSERT
  5
3622
330
361B
100
AcDbEntity
  8
DIM
 62
     0
370
    -2
100
AcDbBlockReference
  2
_DOT
 10
-753.9827233379619
 20
997.3613317377002
 30
0.0
 41
10.0
 42
10.0
 43
10.0
 50
90.0
  0
MTEXT
  5
3623
330
361B
100
AcDbEntity
  8
DIM
 62
     0
100
AcDbMText
 10
-719.4267233379619
 20
973.8799985021209
 30
0.0
 40
24.0
 41
0.0
 46
0.0
 71
     5
 72
     1
  1
\A1;G1 1/4"
  7
ＭＳ ゴシック
 11
0.0
 21
1.0
 31
0.0
 73
     1
 44
1.0
  0
POINT
  5
3624
330
361B
100
AcDbEntity
  8
Defpoints
 62
     0
100
AcDbPoint
 10
-811.1614360851468
 20
950.3986652665416
 30
0.0
  0
POINT
  5
3625
330
361B
100
AcDbEntity
  8
Defpoints
 62
     0
100
AcDbPoint
 10
-811.1614360851468
 20
997.3613317377002
 30
0.0
  0
POINT
  5
3626
330
361B
100
AcDbEntity
  8
Defpoints
 62
     0
100
AcDbPoint
 10
-753.9827233379619
 20
997.3613317377002
 30
0.0
  0
ENDBLK
  5
361D
330
361B
100
AcDbEntity
  8
0
100
AcDbBlockEnd
  0
BLOCK
  5
3628
330
3627
100
AcDbEntity
  8
0
100
AcDbBlockBegin
  2
*D18
 70
     1
 10
0.0
 20
0.0
 30
0.0
  3
*D18
  1

  0
LINE
  5
362A
330
3627
100
AcDbEntity
  8
DIM
 62
     0
 48
0.05
370
    -2
100
AcDbLine
 10
-783.6106148187328
 20
812.0100790950028
 30
0.0
 11
-636.4560752391558
 21
812.0100790950028
 31
0.0
  0
LINE
  5
362B
330
3627
100
AcDbEntity
  8
DIM
 62
     0
 48
0.05
370
    -2
100
AcDbLine
 10
-783.6106148187328
 20
1137.010079095002
 30
0.0
 11
-636.4560752391558
 21
1137.010079095002
 31
0.0
  0
LINE
  5
362C
330
3627
100
AcDbEntity
  8
DIM
 62
     0
 48
0.05
370
    -2
100
AcDbLine
 10
-636.4560752391558
 20
822.0100790950028
 30
0.0
 11
-636.4560752391558
 21
1127.010079095002
 31
0.0
  0
INSERT
  5
362D
330
3627
100
AcDbEntity
  8
DIM
 62
     0
370
    -2
100
AcDbBlockReference
  2
_DOT
 10
-636.4560752391558
 20
812.0100790950028
 30
0.0
 41
10.0
 42
10.0
 43
10.0
 50
270.0
  0
INSERT
  5
362E
330
3627
100
AcDbEntity
  8
DIM
 62
     0
370
    -2
100
AcDbBlockReference
  2
_DOT
 10
-636.4560752391558
 20
1137.010079095002
 30
0.0
 41
10.0
 42
10.0
 43
10.0
 50
90.0
  0
MTEXT
  5
362F
330
3627
100
AcDbEntity
  8
DIM
 62
     0
100
AcDbMText
 10
-668.4560752391558
 20
974.5100790950024
 30
0.0
 40
24.0
 41
0.0
 46
0.0
 71
     5
 72
     1
  1
\A1;325
  7
ＭＳ ゴシック
 11
0.0
 21
1.0
 31
0.0
 73
     1
 44
1.0
  0
POINT
  5
3630
330
3627
100
AcDbEntity
  8
Defpoints
 62
     0
100
AcDbPoint
 10
-813.6106148187328
 20
812.0100790950028
 30
0.0
  0
POINT
  5
3631
330
3627
100
AcDbEntity
  8
Defpoints
 62
     0
100
AcDbPoint
 10
-813.6106148187328
 20
1137.010079095002
 30
0.0
  0
POINT
  5
3632
330
3627
100
AcDbEntity
  8
Defpoints
 62
     0
100
AcDbPoint
 10
-636.4560752391558
 20
1137.010079095002
 30
0.0
  0
ENDBLK
  5
3629
330
3627
100
AcDbEntity
  8
0
100
AcDbBlockEnd
  0
BLOCK
  5
3634
330
3633
100
AcDbEntity
  8
0
100
AcDbBlockBegin
  2
*D19
 70
     1
 10
0.0
 20
0.0
 30
0.0
  3
*D19
  1

  0
LINE
  5
3636
330
3633
100
AcDbEntity
  8
DIM
 62
     0
 48
0.05
370
    -2
100
AcDbLine
 10
-1786.223808336289
 20
2144.990655285753
 30
0.0
 11
-1849.889521027741
 21
2144.990655285753
 31
0.0
  0
LINE
  5
3637
330
3633
100
AcDbEntity
  8
DIM
 62
     0
 48
0.05
370
    -2
100
AcDbLine
 10
-1687.721766541444
 20
1864.990655285753
 30
0.0
 11
-1849.889521027741
 21
1864.990655285753
 31
0.0
  0
LINE
  5
3638
330
3633
100
AcDbEntity
  8
DIM
 62
     0
 48
0.05
370
    -2
100
AcDbLine
 10
-1849.889521027741
 20
2134.990655285753
 30
0.0
 11
-1849.889521027741
 21
1874.990655285753
 31
0.0
  0
INSERT
  5
3639
330
3633
100
AcDbEntity
  8
DIM
 62
     0
370
    -2
100
AcDbBlockReference
  2
_DOT
 10
-1849.889521027741
 20
2144.990655285753
 30
0.0
 41
10.0
 42
10.0
 43
10.0
 50
90.0
  0
INSERT
  5
363A
330
3633
100
AcDbEntity
  8
DIM
 62
     0
370
    -2
100
AcDbBlockReference
  2
_DOT
 10
-1849.889521027741
 20
1864.990655285753
 30
0.0
 41
10.0
 42
10.0
 43
10.0
 50
270.0
  0
MTEXT
  5
363B
330
3633
100
AcDbEntity
  8
DIM
 62
     0
100
AcDbMText
 10
-1881.889521027741
 20
2004.990655285753
 30
0.0
 40
24.0
 41
0.0
 46
0.0
 71
     5
 72
     1
  1
\A1;280
  7
ＭＳ ゴシック
 11
0.0
 21
1.0
 31
0.0
 73
     1
 44
1.0
  0
POINT
  5
363C
330
3633
100
AcDbEntity
  8
Defpoints
 62
     0
100
AcDbPoint
 10
-1756.223808336289
 20
2144.990655285753
 30
0.0
  0
POINT
  5
363D
330
3633
100
AcDbEntity
  8
Defpoints
 62
     0
100
AcDbPoint
 10
-1657.721766541444
 20
1864.990655285753
 30
0.0
  0
POINT
  5
363E
330
3633
100
AcDbEntity
  8
Defpoints
 62
     0
100
AcDbPoint
 10
-1849.889521027741
 20
1864.990655285753
 30
0.0
  0
ENDBLK
  5
3635
330
3633
100
AcDbEntity
  8
0
100
AcDbBlockEnd
  0
BLOCK
  5
3640
330
363F
100
AcDbEntity
  8
0
100
AcDbBlockBegin
  2
*D20
 70
     1
 10
0.0
 20
0.0
 30
0.0
  3
*D20
  1

  0
LINE
  5
3642
330
363F
100
AcDbEntity
  8
DIM
 62
     0
 48
0.05
370
    -2
100
AcDbLine
 10
-1778.380865249437
 20
2104.299845443934
 30
0.0
 11
-1778.380865249437
 21
1887.730951435908
 31
0.0
  0
LINE
  5
3643
330
363F
100
AcDbEntity
  8
DIM
 62
     0
 48
0.05
370
    -2
100
AcDbLine
 10
-1721.380865249437
 20
2104.299845443934
 30
0.0
 11
-1721.380865249437
 21
1887.730951435908
 31
0.0
  0
LINE
  5
3644
330
363F
100
AcDbEntity
  8
DIM
 62
     0
 48
0.05
370
    -2
100
AcDbLine
 10
-1768.380865249437
 20
1887.730951435908
 30
0.0
 11
-1731.380865249437
 21
1887.730951435908
 31
0.0
  0
INSERT
  5
3645
330
363F
100
AcDbEntity
  8
DIM
 62
     0
370
    -2
100
AcDbBlockReference
  2
_DOT
 10
-1778.380865249437
 20
1887.730951435908
 30
0.0
 41
10.0
 42
10.0
 43
10.0
 50
180.0
  0
INSERT
  5
3646
330
363F
100
AcDbEntity
  8
DIM
 62
     0
370
    -2
100
AcDbBlockReference
  2
_DOT
 10
-1721.380865249437
 20
1887.730951435908
 30
0.0
 41
10.0
 42
10.0
 43
10.0
  0
MTEXT
  5
3647
330
363F
100
AcDbEntity
  8
DIM
 62
     0
100
AcDbMText
 10
-1749.880865249437
 20
1919.730951435908
 30
0.0
 40
24.0
 41
0.0
 46
0.0
 71
     5
 72
     1
  1
\A1;57
  7
ＭＳ ゴシック
 73
     1
 44
1.0
  0
POINT
  5
3648
330
363F
100
AcDbEntity
  8
Defpoints
 62
     0
100
AcDbPoint
 10
-1778.380865249437
 20
2134.299845443934
 30
0.0
  0
POINT
  5
3649
330
363F
100
AcDbEntity
  8
Defpoints
 62
     0
100
AcDbPoint
 10
-1721.380865249437
 20
2134.299845443934
 30
0.0
  0
POINT
  5
364A
330
363F
100
AcDbEntity
  8
Defpoints
 62
     0
100
AcDbPoint
 10
-1721.380865249437
 20
1887.730951435908
 30
0.0
  0
ENDBLK
  5
3641
330
363F
100
AcDbEntity
  8
0
100
AcDbBlockEnd
  0
BLOCK
  5
364C
330
364B
100
AcDbEntity
  8
0
100
AcDbBlockBegin
  2
*D21
 70
     1
 10
0.0
 20
0.0
 30
0.0
  3
*D21
  1

  0
LINE
  5
364E
330
364B
100
AcDbEntity
  8
DIM
 62
     0
 48
0.05
370
    -2
100
AcDbLine
 10
-1778.29517968431
 20
2176.105069683482
 30
0.0
 11
-1778.29517968431
 21
2350.646865074346
 31
0.0
  0
LINE
  5
364F
330
364B
100
AcDbEntity
  8
DIM
 62
     0
 48
0.05
370
    -2
100
AcDbLine
 10
-1738.29517968431
 20
2329.990655285753
 30
0.0
 11
-1738.29517968431
 21
2350.646865074346
 31
0.0
  0
LINE
  5
3650
330
364B
100
AcDbEntity
  8
DIM
 62
     0
 48
0.05
370
    -2
100
AcDbLine
 10
-1768.29517968431
 20
2350.646865074346
 30
0.0
 11
-1748.29517968431
 21
2350.646865074346
 31
0.0
  0
INSERT
  5
3651
330
364B
100
AcDbEntity
  8
DIM
 62
     0
370
    -2
100
AcDbBlockReference
  2
_DOT
 10
-1778.29517968431
 20
2350.646865074346
 30
0.0
 41
10.0
 42
10.0
 43
10.0
 50
180.0
  0
INSERT
  5
3652
330
364B
100
AcDbEntity
  8
DIM
 62
     0
370
    -2
100
AcDbBlockReference
  2
_DOT
 10
-1738.29517968431
 20
2350.646865074346
 30
0.0
 41
10.0
 42
10.0
 43
10.0
  0
MTEXT
  5
3653
330
364B
100
AcDbEntity
  8
DIM
 62
     0
100
AcDbMText
 10
-1758.29517968431
 20
2382.646865074346
 30
0.0
 40
24.0
 41
0.0
 46
0.0
 71
     5
 72
     1
  1
\A1; 
  7
ＭＳ ゴシック
 73
     1
 44
1.0
  0
POINT
  5
3654
330
364B
100
AcDbEntity
  8
Defpoints
 62
     0
100
AcDbPoint
 10
-1778.29517968431
 20
2146.105069683482
 30
0.0
  0
POINT
  5
3655
330
364B
100
AcDbEntity
  8
Defpoints
 62
     0
100
AcDbPoint
 10
-1738.29517968431
 20
2299.990655285753
 30
0.0
  0
POINT
  5
3656
330
364B
100
AcDbEntity
  8
Defpoints
 62
     0
100
AcDbPoint
 10
-1738.29517968431
 20
2350.646865074346
 30
0.0
  0
ENDBLK
  5
364D
330
364B
100
AcDbEntity
  8
0
100
AcDbBlockEnd
  0
BLOCK
  5
39F0
330
39EF
100
AcDbEntity
  8
0
100
AcDbBlockBegin
  2
*D22
 70
     1
 10
0.0
 20
0.0
 30
0.0
  3
*D22
  1

  0
LINE
  5
39F2
330
39EF
100
AcDbEntity
  8
DIM
 62
     0
370
    -2
100
AcDbLine
 10
809.5928566336981
 20
2378.058028066889
 30
0.0
 11
641.4116822000108
 21
2378.058028066889
 31
0.0
  0
LINE
  5
39F3
330
39EF
100
AcDbEntity
  8
DIM
 62
     0
370
    -2
100
AcDbLine
 10
810.6470118168448
 20
1918.058310463775
 30
0.0
 11
641.4116822000108
 21
1918.058310463775
 31
0.0
  0
LINE
  5
39F4
330
39EF
100
AcDbEntity
  8
DIM
 62
     0
370
    -2
100
AcDbLine
 10
641.4116822000108
 20
2368.058028066889
 30
0.0
 11
641.4116822000108
 21
1928.058310463775
 31
0.0
  0
INSERT
  5
39F5
330
39EF
100
AcDbEntity
  8
DIM
 62
     0
370
    -2
100
AcDbBlockReference
  2
_DOT
 10
641.4116822000108
 20
2378.058028066889
 30
0.0
 41
10.0
 42
10.0
 43
10.0
 50
90.0
  0
INSERT
  5
39F6
330
39EF
100
AcDbEntity
  8
DIM
 62
     0
370
    -2
100
AcDbBlockReference
  2
_DOT
 10
641.4116822000108
 20
1918.058310463775
 30
0.0
 41
10.0
 42
10.0
 43
10.0
 50
270.0
  0
MTEXT
  5
39F7
330
39EF
100
AcDbEntity
  8
DIM
 62
     0
100
AcDbMText
 10
609.4116822000108
 20
2148.058169265332
 30
0.0
 40
24.0
 41
0.0
 46
0.0
 71
     5
 72
     1
  1
\A1;460
  7
ＭＳ ゴシック
 11
0.0
 21
1.0
 31
0.0
 73
     1
 44
1.0
  0
POINT
  5
39F8
330
39EF
100
AcDbEntity
  8
Defpoints
 62
     0
100
AcDbPoint
 10
839.5928566336981
 20
2378.058028066889
 30
0.0
  0
POINT
  5
39F9
330
39EF
100
AcDbEntity
  8
Defpoints
 62
     0
100
AcDbPoint
 10
840.6470118168448
 20
1918.058310463775
 30
0.0
  0
POINT
  5
39FA
330
39EF
100
AcDbEntity
  8
Defpoints
 62
     0
100
AcDbPoint
 10
641.4116822000108
 20
1918.058310463775
 30
0.0
  0
ENDBLK
  5
39F1
330
39EF
100
AcDbEntity
  8
0
100
AcDbBlockEnd
  0
BLOCK
  5
39FF
330
39FE
100
AcDbEntity
  8
0
100
AcDbBlockBegin
  2
*D23
 70
     1
 10
0.0
 20
0.0
 30
0.0
  3
*D23
  1

  0
LINE
  5
3A01
330
39FE
100
AcDbEntity
  8
DIM
 62
     0
370
    -2
100
AcDbLine
 10
-2237.242530545252
 20
2268.058969357486
 30
0.0
 11
-2406.477860162093
 21
2268.058969357486
 31
0.0
  0
LINE
  5
3A02
330
39FE
100
AcDbEntity
  8
DIM
 62
     0
370
    -2
100
AcDbLine
 10
-2231.971754629442
 20
1988.057293871039
 30
0.0
 11
-2406.477860162093
 21
1988.057293871039
 31
0.0
  0
LINE
  5
3A03
330
39FE
100
AcDbEntity
  8
DIM
 62
     0
370
    -2
100
AcDbLine
 10
-2406.477860162093
 20
2258.058969357486
 30
0.0
 11
-2406.477860162093
 21
1998.057293871039
 31
0.0
  0
INSERT
  5
3A04
330
39FE
100
AcDbEntity
  8
DIM
 62
     0
370
    -2
100
AcDbBlockReference
  2
_DOT
 10
-2406.477860162093
 20
2268.058969357486
 30
0.0
 41
10.0
 42
10.0
 43
10.0
 50
90.0
  0
INSERT
  5
3A05
330
39FE
100
AcDbEntity
  8
DIM
 62
     0
370
    -2
100
AcDbBlockReference
  2
_DOT
 10
-2406.477860162093
 20
1988.057293871039
 30
0.0
 41
10.0
 42
10.0
 43
10.0
 50
270.0
  0
MTEXT
  5
3A06
330
39FE
100
AcDbEntity
  8
DIM
 62
     0
100
AcDbMText
 10
-2438.477860162093
 20
2128.058131614262
 30
0.0
 40
24.0
 41
0.0
 46
0.0
 71
     5
 72
     1
  1
\A1;280
  7
ＭＳ ゴシック
 11
0.0
 21
1.0
 31
0.0
 73
     1
 44
1.0
  0
POINT
  5
3A07
330
39FE
100
AcDbEntity
  8
Defpoints
 62
     0
100
AcDbPoint
 10
-2207.242530545252
 20
2268.058969357486
 30
0.0
  0
POINT
  5
3A08
330
39FE
100
AcDbEntity
  8
Defpoints
 62
     0
100
AcDbPoint
 10
-2201.971754629442
 20
1988.057293871039
 30
0.0
  0
POINT
  5
3A09
330
39FE
100
AcDbEntity
  8
Defpoints
 62
     0
100
AcDbPoint
 10
-2406.477860162093
 20
1988.057293871039
 30
0.0
  0
ENDBLK
  5
3A00
330
39FE
100
AcDbEntity
  8
0
100
AcDbBlockEnd
  0
BLOCK
  5
3A0E
330
3A0D
100
AcDbEntity
  8
0
100
AcDbBlockBegin
  2
*D24
 70
     1
 10
0.0
 20
0.0
 30
0.0
  3
*D24
  1

  0
LINE
  5
3A10
330
3A0D
100
AcDbEntity
  8
DIM
 62
     0
370
    -2
100
AcDbLine
 10
-2228.160836527436
 20
1944.638573157172
 30
0.0
 11
-2228.160836527436
 21
1799.038686504535
 31
0.0
  0
LINE
  5
3A11
330
3A0D
100
AcDbEntity
  8
DIM
 62
     0
370
    -2
100
AcDbLine
 10
-1758.156506612878
 20
1944.638573157172
 30
0.0
 11
-1758.156506612878
 21
1799.038686504535
 31
0.0
  0
LINE
  5
3A12
330
3A0D
100
AcDbEntity
  8
DIM
 62
     0
370
    -2
100
AcDbLine
 10
-2218.160836527436
 20
1799.038686504535
 30
0.0
 11
-1768.156506612878
 21
1799.038686504535
 31
0.0
  0
INSERT
  5
3A13
330
3A0D
100
AcDbEntity
  8
DIM
 62
     0
370
    -2
100
AcDbBlockReference
  2
_DOT
 10
-2228.160836527436
 20
1799.038686504535
 30
0.0
 41
10.0
 42
10.0
 43
10.0
 50
180.0
  0
INSERT
  5
3A14
330
3A0D
100
AcDbEntity
  8
DIM
 62
     0
370
    -2
100
AcDbBlockReference
  2
_DOT
 10
-1758.156506612878
 20
1799.038686504535
 30
0.0
 41
10.0
 42
10.0
 43
10.0
  0
MTEXT
  5
3A15
330
3A0D
100
AcDbEntity
  8
DIM
 62
     0
100
AcDbMText
 10
-1993.158671570157
 20
1831.038686504535
 30
0.0
 40
24.0
 41
0.0
 46
0.0
 71
     5
 72
     1
  1
\A1;470
  7
ＭＳ ゴシック
 73
     1
 44
1.0
  0
POINT
  5
3A16
330
3A0D
100
AcDbEntity
  8
Defpoints
 62
     0
100
AcDbPoint
 10
-2228.160836527436
 20
1974.638573157172
 30
0.0
  0
POINT
  5
3A17
330
3A0D
100
AcDbEntity
  8
Defpoints
 62
     0
100
AcDbPoint
 10
-1758.156506612878
 20
1974.638573157172
 30
0.0
  0
POINT
  5
3A18
330
3A0D
100
AcDbEntity
  8
Defpoints
 62
     0
100
AcDbPoint
 10
-1758.156506612878
 20
1799.038686504535
 30
0.0
  0
ENDBLK
  5
3A0F
330
3A0D
100
AcDbEntity
  8
0
100
AcDbBlockEnd
  0
BLOCK
  5
3A1D
330
3A1C
100
AcDbEntity
  8
0
100
AcDbBlockBegin
  2
*D25
 70
     1
 10
0.0
 20
0.0
 30
0.0
  3
*D25
  1

  0
LINE
  5
3A1F
330
3A1C
100
AcDbEntity
  8
DIM
 62
     0
370
    -2
100
AcDbLine
 10
822.4675784367741
 20
1910.03194225189
 30
0.0
 11
822.4675784367741
 21
1742.377845409798
 31
0.0
  0
LINE
  5
3A20
330
3A1C
100
AcDbEntity
  8
DIM
 62
     0
370
    -2
100
AcDbLine
 10
1432.46757842291
 20
1912.667330209805
 30
0.0
 11
1432.46757842291
 21
1742.377845409798
 31
0.0
  0
LINE
  5
3A21
330
3A1C
100
AcDbEntity
  8
DIM
 62
     0
370
    -2
100
AcDbLine
 10
832.4675784367741
 20
1742.377845409798
 30
0.0
 11
1422.46757842291
 21
1742.377845409798
 31
0.0
  0
INSERT
  5
3A22
330
3A1C
100
AcDbEntity
  8
DIM
 62
     0
370
    -2
100
AcDbBlockReference
  2
_DOT
 10
822.4675784367741
 20
1742.377845409798
 30
0.0
 41
10.0
 42
10.0
 43
10.0
 50
180.0
  0
INSERT
  5
3A23
330
3A1C
100
AcDbEntity
  8
DIM
 62
     0
370
    -2
100
AcDbBlockReference
  2
_DOT
 10
1432.46757842291
 20
1742.377845409798
 30
0.0
 41
10.0
 42
10.0
 43
10.0
  0
MTEXT
  5
3A24
330
3A1C
100
AcDbEntity
  8
DIM
 62
     0
100
AcDbMText
 10
1127.467578429842
 20
1774.377845409798
 30
0.0
 40
24.0
 41
0.0
 46
0.0
 71
     5
 72
     1
  1
\A1;610
  7
ＭＳ ゴシック
 73
     1
 44
1.0
  0
POINT
  5
3A25
330
3A1C
100
AcDbEntity
  8
Defpoints
 62
     0
100
AcDbPoint
 10
822.4675784367741
 20
1940.03194225189
 30
0.0
  0
POINT
  5
3A26
330
3A1C
100
AcDbEntity
  8
Defpoints
 62
     0
100
AcDbPoint
 10
1432.46757842291
 20
1942.667330209805
 30
0.0
  0
POINT
  5
3A27
330
3A1C
100
AcDbEntity
  8
Defpoints
 62
     0
100
AcDbPoint
 10
1432.46757842291
 20
1742.377845409798
 30
0.0
  0
ENDBLK
  5
3A1E
330
3A1C
100
AcDbEntity
  8
0
100
AcDbBlockEnd
  0
BLOCK
  5
3A2C
330
3A2B
100
AcDbEntity
  8
0
100
AcDbBlockBegin
  2
*D26
 70
     1
 10
0.0
 20
0.0
 30
0.0
  3
*D26
  1

  0
LINE
  5
3A2E
330
3A2B
100
AcDbEntity
  8
DIM
 62
     0
370
    -2
100
AcDbLine
 10
879.8921708954172
 20
1307.103385580712
 30
0.0
 11
1018.557000200768
 21
1307.103385580712
 31
0.0
  0
LINE
  5
3A2F
330
3A2B
100
AcDbEntity
  8
DIM
 62
     0
370
    -2
100
AcDbLine
 10
856.7840202922337
 20
952.1050140171883
 30
0.0
 11
1018.557000200768
 21
952.1050140171883
 31
0.0
  0
LINE
  5
3A30
330
3A2B
100
AcDbEntity
  8
DIM
 62
     0
370
    -2
100
AcDbLine
 10
1018.557000200768
 20
1297.103385580712
 30
0.0
 11
1018.557000200768
 21
962.1050140171883
 31
0.0
  0
INSERT
  5
3A31
330
3A2B
100
AcDbEntity
  8
DIM
 62
     0
370
    -2
100
AcDbBlockReference
  2
_DOT
 10
1018.557000200768
 20
1307.103385580712
 30
0.0
 41
10.0
 42
10.0
 43
10.0
 50
90.0
  0
INSERT
  5
3A32
330
3A2B
100
AcDbEntity
  8
DIM
 62
     0
370
    -2
100
AcDbBlockReference
  2
_DOT
 10
1018.557000200768
 20
952.1050140171883
 30
0.0
 41
10.0
 42
10.0
 43
10.0
 50
270.0
  0
MTEXT
  5
3A33
330
3A2B
100
AcDbEntity
  8
DIM
 62
     0
100
AcDbMText
 10
986.5570002007678
 20
1129.60419979895
 30
0.0
 40
24.0
 41
0.0
 46
0.0
 71
     5
 72
     1
  1
\A1;355
  7
ＭＳ ゴシック
 11
0.0
 21
1.0
 31
0.0
 73
     1
 44
1.0
  0
POINT
  5
3A34
330
3A2B
100
AcDbEntity
  8
Defpoints
 62
     0
100
AcDbPoint
 10
849.8921708954172
 20
1307.103385580712
 30
0.0
  0
POINT
  5
3A35
330
3A2B
100
AcDbEntity
  8
Defpoints
 62
     0
100
AcDbPoint
 10
826.7840202922337
 20
952.1050140171883
 30
0.0
  0
POINT
  5
3A36
330
3A2B
100
AcDbEntity
  8
Defpoints
 62
     0
100
AcDbPoint
 10
1018.557000200768
 20
952.1050140171883
 30
0.0
  0
ENDBLK
  5
3A2D
330
3A2B
100
AcDbEntity
  8
0
100
AcDbBlockEnd
  0
BLOCK
  5
3A3B
330
3A3A
100
AcDbEntity
  8
0
100
AcDbBlockBegin
  2
*D27
 70
     1
 10
0.0
 20
0.0
 30
0.0
  3
*D27
  1

  0
LINE
  5
3A3D
330
3A3A
100
AcDbEntity
  8
DIM
 62
     0
370
    -2
100
AcDbLine
 10
610.9682717942662
 20
917.107301347377
 30
0.0
 11
610.9682717942662
 21
825.4006418981388
 31
0.0
  0
LINE
  5
3A3E
330
3A3A
100
AcDbEntity
  8
DIM
 62
     0
370
    -2
100
AcDbLine
 10
400.9678764580342
 20
1245.094809791831
 30
0.0
 11
400.9678764580342
 21
825.4006418981388
 31
0.0
  0
LINE
  5
3A3F
330
3A3A
100
AcDbEntity
  8
DIM
 62
     0
370
    -2
100
AcDbLine
 10
600.9682717942662
 20
825.4006418981388
 30
0.0
 11
410.9678764580342
 21
825.4006418981388
 31
0.0
  0
INSERT
  5
3A40
330
3A3A
100
AcDbEntity
  8
DIM
 62
     0
370
    -2
100
AcDbBlockReference
  2
_DOT
 10
610.9682717942662
 20
825.4006418981388
 30
0.0
 41
10.0
 42
10.0
 43
10.0
  0
INSERT
  5
3A41
330
3A3A
100
AcDbEntity
  8
DIM
 62
     0
370
    -2
100
AcDbBlockReference
  2
_DOT
 10
400.9678764580342
 20
825.4006418981388
 30
0.0
 41
10.0
 42
10.0
 43
10.0
 50
180.0
  0
MTEXT
  5
3A42
330
3A3A
100
AcDbEntity
  8
DIM
 62
     0
100
AcDbMText
 10
505.9680741261502
 20
857.4006418981388
 30
0.0
 40
24.0
 41
0.0
 46
0.0
 71
     5
 72
     1
  1
\A1;210
  7
ＭＳ ゴシック
 73
     1
 44
1.0
  0
POINT
  5
3A43
330
3A3A
100
AcDbEntity
  8
Defpoints
 62
     0
100
AcDbPoint
 10
610.9682717942662
 20
947.107301347377
 30
0.0
  0
POINT
  5
3A44
330
3A3A
100
AcDbEntity
  8
Defpoints
 62
     0
100
AcDbPoint
 10
400.9678764580342
 20
1275.094809791831
 30
0.0
  0
POINT
  5
3A45
330
3A3A
100
AcDbEntity
  8
Defpoints
 62
     0
100
AcDbPoint
 10
400.9678764580342
 20
825.4006418981388
 30
0.0
  0
ENDBLK
  5
3A3C
330
3A3A
100
AcDbEntity
  8
0
100
AcDbBlockEnd
  0
BLOCK
  5
3ABE
330
3ABD
100
AcDbEntity
  8
0
100
AcDbBlockBegin
  2
*D28
 70
     1
 10
0.0
 20
0.0
 30
0.0
  3
*D28
  1

  0
LINE
  5
3AC0
330
3ABD
100
AcDbEntity
  8
DIM
 62
     0
370
    -2
100
AcDbLine
 10
400.9678764580341
 20
1255.458883003004
 30
0.0
 11
400.9678764580341
 21
1192.862161577756
 31
0.0
  0
LINE
  5
3AC1
330
3ABD
100
AcDbEntity
  8
DIM
 62
     0
370
    -2
100
AcDbLine
 10
429.9688497492673
 20
1255.735223458952
 30
0.0
 11
429.9688497492673
 21
1192.862161577756
 31
0.0
  0
LINE
  5
3AC2
330
3ABD
100
AcDbEntity
  8
DIM
 62
     0
370
    -2
100
AcDbLine
 10
400.9678764580341
 20
1192.862161577756
 30
0.0
 11
312.959876458034
 21
1192.862161577756
 31
0.0
  0
LINE
  5
3AC3
330
3ABD
100
AcDbEntity
  8
DIM
 62
     0
370
    -2
100
AcDbLine
 10
410.9678764580341
 20
1192.862161577756
 30
0.0
 11
419.9688497492673
 21
1192.862161577756
 31
0.0
  0
LINE
  5
3AC4
330
3ABD
100
AcDbEntity
  8
DIM
 62
     0
370
    -2
100
AcDbLine
 10
410.9678764580341
 20
1192.862161577756
 30
0.0
 11
420.9678764580341
 21
1192.862161577756
 31
0.0
  0
INSERT
  5
3AC5
330
3ABD
100
AcDbEntity
  8
DIM
 62
     0
370
    -2
100
AcDbBlockReference
  2
_DOT
 10
400.9678764580341
 20
1192.862161577756
 30
0.0
 41
10.0
 42
10.0
 43
10.0
 50
180.0
  0
INSERT
  5
3AC6
330
3ABD
100
AcDbEntity
  8
DIM
 62
     0
370
    -2
100
AcDbBlockReference
  2
_DOT
 10
429.9688497492673
 20
1192.862161577756
 30
0.0
 41
10.0
 42
10.0
 43
10.0
  0
MTEXT
  5
3AC7
330
3ABD
100
AcDbEntity
  8
DIM
 62
     0
100
AcDbMText
 10
346.9638764580341
 20
1224.862161577756
 30
0.0
 40
24.0
 41
0.0
 46
0.0
 71
     5
 72
     1
  1
\A1;35
  7
ＭＳ ゴシック
 73
     1
 44
1.0
  0
POINT
  5
3AC8
330
3ABD
100
AcDbEntity
  8
Defpoints
 62
     0
100
AcDbPoint
 10
400.9678764580341
 20
1285.458883003004
 30
0.0
  0
POINT
  5
3ACA
330
3ABD
100
AcDbEntity
  8
Defpoints
 62
     0
100
AcDbPoint
 10
429.9688497492673
 20
1285.735223458952
 30
0.0
  0
POINT
  5
3ACB
330
3ABD
100
AcDbEntity
  8
Defpoints
 62
     0
100
AcDbPoint
 10
429.9688497492673
 20
1192.862161577756
 30
0.0
  0
ENDBLK
  5
3ABF
330
3ABD
100
AcDbEntity
  8
0
100
AcDbBlockEnd
  0
BLOCK
  5
3AD0
330
3ACF
100
AcDbEntity
  8
0
100
AcDbBlockBegin
  2
*D29
 70
     1
 10
0.0
 20
0.0
 30
0.0
  3
*D29
  1

  0
LINE
  5
3AD2
330
3ACF
100
AcDbEntity
  8
DIM
 62
     0
370
    -2
100
AcDbLine
 10
860.966445689671
 20
1256.160461226132
 30
0.0
 11
860.966445689671
 21
1221.828046573965
 31
0.0
  0
LINE
  5
3AD3
330
3ACF
100
AcDbEntity
  8
DIM
 62
     0
370
    -2
100
AcDbLine
 10
815.25666740171
 20
1260.107487714621
 30
0.0
 11
815.25666740171
 21
1221.828046573965
 31
0.0
  0
LINE
  5
3AD4
330
3ACF
100
AcDbEntity
  8
DIM
 62
     0
370
    -2
100
AcDbLine
 10
860.966445689671
 20
1221.828046573965
 30
0.0
 11
933.3744456896709
 21
1221.828046573965
 31
0.0
  0
LINE
  5
3AD5
330
3ACF
100
AcDbEntity
  8
DIM
 62
     0
370
    -2
100
AcDbLine
 10
850.966445689671
 20
1221.828046573965
 30
0.0
 11
825.25666740171
 21
1221.828046573965
 31
0.0
  0
LINE
  5
3AD6
330
3ACF
100
AcDbEntity
  8
DIM
 62
     0
370
    -2
100
AcDbLine
 10
850.966445689671
 20
1221.828046573965
 30
0.0
 11
840.966445689671
 21
1221.828046573965
 31
0.0
  0
INSERT
  5
3AD7
330
3ACF
100
AcDbEntity
  8
DIM
 62
     0
370
    -2
100
AcDbBlockReference
  2
_DOT
 10
860.966445689671
 20
1221.828046573965
 30
0.0
 41
10.0
 42
10.0
 43
10.0
  0
INSERT
  5
3AD8
330
3ACF
100
AcDbEntity
  8
DIM
 62
     0
370
    -2
100
AcDbBlockReference
  2
_DOT
 10
815.25666740171
 20
1221.828046573965
 30
0.0
 41
10.0
 42
10.0
 43
10.0
 50
180.0
  0
MTEXT
  5
3AD9
330
3ACF
100
AcDbEntity
  8
DIM
 62
     0
100
AcDbMText
 10
907.1704456896709
 20
1253.828046573965
 30
0.0
 40
24.0
 41
0.0
 46
0.0
 71
     5
 72
     1
  1
\A1;3
  7
ＭＳ ゴシック
 73
     1
 44
1.0
  0
POINT
  5
3ADA
330
3ACF
100
AcDbEntity
  8
Defpoints
 62
     0
100
AcDbPoint
 10
860.966445689671
 20
1286.160461226132
 30
0.0
  0
POINT
  5
3ADC
330
3ACF
100
AcDbEntity
  8
Defpoints
 62
     0
100
AcDbPoint
 10
815.25666740171
 20
1290.107487714621
 30
0.0
  0
POINT
  5
3ADD
330
3ACF
100
AcDbEntity
  8
Defpoints
 62
     0
100
AcDbPoint
 10
815.25666740171
 20
1221.828046573965
 30
0.0
  0
ENDBLK
  5
3AD1
330
3ACF
100
AcDbEntity
  8
0
100
AcDbBlockEnd
  0
BLOCK
  5
3AEB
330
3AEA
100
AcDbEntity
  8
0
100
AcDbBlockBegin
  2
*D30
 70
     1
 10
0.0
 20
0.0
 30
0.0
  3
*D30
  1

  0
LINE
  5
3AED
330
3AEA
100
AcDbEntity
  8
DIM
 62
     0
370
    -2
100
AcDbLine
 10
590.1800345120807
 20
1002.105108144861
 30
0.0
 11
610.9676976085241
 21
1002.105108144861
 31
0.0
  0
LINE
  5
3AEE
330
3AEA
100
AcDbEntity
  8
DIM
 62
     0
370
    -2
100
AcDbLine
 10
590.1800345120807
 20
1307.105682323666
 30
0.0
 11
610.9676976085241
 21
1307.105682323666
 31
0.0
  0
LINE
  5
3AEF
330
3AEA
100
AcDbEntity
  8
DIM
 62
     0
370
    -2
100
AcDbLine
 10
610.9676976085241
 20
1002.105108144861
 30
0.0
 11
610.9676976085241
 21
1498.841682323666
 31
0.0
  0
LINE
  5
3AF0
330
3AEA
100
AcDbEntity
  8
DIM
 62
     0
370
    -2
100
AcDbLine
 10
610.9676976085241
 20
1012.105108144861
 30
0.0
 11
610.9676976085241
 21
1297.105682323666
 31
0.0
  0
LINE
  5
3AF1
330
3AEA
100
AcDbEntity
  8
DIM
 62
     0
370
    -2
100
AcDbLine
 10
610.9676976085241
 20
1297.105682323666
 30
0.0
 11
610.9676976085241
 21
1287.105682323666
 31
0.0
  0
INSERT
  5
3AF2
330
3AEA
100
AcDbEntity
  8
DIM
 62
     0
370
    -2
100
AcDbBlockReference
  2
_DOT
 10
610.9676976085241
 20
1002.105108144861
 30
0.0
 41
10.0
 42
10.0
 43
10.0
 50
270.0
  0
INSERT
  5
3AF3
330
3AEA
100
AcDbEntity
  8
DIM
 62
     0
370
    -2
100
AcDbBlockReference
  2
_DOT
 10
610.9676976085241
 20
1307.105682323666
 30
0.0
 41
10.0
 42
10.0
 43
10.0
 50
90.0
  0
MTEXT
  5
3AF4
330
3AEA
100
AcDbEntity
  8
DIM
 62
     0
100
AcDbMText
 10
576.843697608524
 20
1412.973682323666
 30
0.0
 40
24.0
 41
0.0
 46
0.0
 71
     5
 72
     1
  1
\A1;305(深さ)
  7
ＭＳ ゴシック
 11
0.0
 21
1.0
 31
0.0
 73
     1
 44
1.0
  0
POINT
  5
3AF5
330
3AEA
100
AcDbEntity
  8
Defpoints
 62
     0
100
AcDbPoint
 10
620.1800345120807
 20
1002.105108144861
 30
0.0
  0
POINT
  5
3AF6
330
3AEA
100
AcDbEntity
  8
Defpoints
 62
     0
100
AcDbPoint
 10
620.1800345120807
 20
1307.105682323666
 30
0.0
  0
POINT
  5
3AF7
330
3AEA
100
AcDbEntity
  8
Defpoints
 62
     0
100
AcDbPoint
 10
610.9676976085241
 20
1307.105682323666
 30
0.0
  0
ENDBLK
  5
3AEC
330
3AEA
100
AcDbEntity
  8
0
100
AcDbBlockEnd
  0
BLOCK
  5
3B05
330
3B04
100
AcDbEntity
  8
0
100
AcDbBlockBegin
  2
*D31
 70
     1
 10
0.0
 20
0.0
 30
0.0
  3
*D31
  1

  0
LINE
  5
3B07
330
3B04
100
AcDbEntity
  8
DIM
 62
     0
370
    -2
100
AcDbLine
 10
-2298.158671563225
 20
2407.390097748115
 30
0.0
 11
-2298.158671563225
 21
2512.98558
 31
0.0
  0
LINE
  5
3B08
330
3B04
100
AcDbEntity
  8
DIM
 62
     0
370
    -2
100
AcDbLine
 10
-1688.158671577089
 20
2404.7547097902
 30
0.0
 11
-1688.158671577089
 21
2512.98558
 31
0.0
  0
LINE
  5
3B09
330
3B04
100
AcDbEntity
  8
DIM
 62
     0
370
    -2
100
AcDbLine
 10
-2288.158671563225
 20
2512.98558
 30
0.0
 11
-1698.158671577089
 21
2512.98558
 31
0.0
  0
INSERT
  5
3B0A
330
3B04
100
AcDbEntity
  8
DIM
 62
     0
370
    -2
100
AcDbBlockReference
  2
_DOT
 10
-2298.158671563225
 20
2512.98558
 30
0.0
 41
10.0
 42
10.0
 43
10.0
 50
180.0
  0
INSERT
  5
3B0B
330
3B04
100
AcDbEntity
  8
DIM
 62
     0
370
    -2
100
AcDbBlockReference
  2
_DOT
 10
-1688.158671577089
 20
2512.98558
 30
0.0
 41
10.0
 42
10.0
 43
10.0
  0
MTEXT
  5
3B0C
330
3B04
100
AcDbEntity
  8
DIM
 62
     0
100
AcDbMText
 10
-1993.158671570157
 20
2544.98558
 30
0.0
 40
24.0
 41
0.0
 46
0.0
 71
     5
 72
     1
  1
\A1;610
  7
ＭＳ ゴシック
 73
     1
 44
1.0
  0
POINT
  5
3B0D
330
3B04
100
AcDbEntity
  8
Defpoints
 62
     0
100
AcDbPoint
 10
-2298.158671563225
 20
2377.390097748115
 30
0.0
  0
POINT
  5
3B0E
330
3B04
100
AcDbEntity
  8
Defpoints
 62
     0
100
AcDbPoint
 10
-1688.158671577089
 20
2374.7547097902
 30
0.0
  0
POINT
  5
3B0F
330
3B04
100
AcDbEntity
  8
Defpoints
 62
     0
100
AcDbPoint
 10
-1688.158671577089
 20
2512.98558
 30
0.0
  0
ENDBLK
  5
3B06
330
3B04
100
AcDbEntity
  8
0
100
AcDbBlockEnd
  0
BLOCK
  5
3B14
330
3B13
100
AcDbEntity
  8
0
100
AcDbBlockBegin
  2
*D32
 70
     1
 10
0.0
 20
0.0
 30
0.0
  3
*D32
  1

  0
LINE
  5
3B16
330
3B13
100
AcDbEntity
  8
DIM
 62
     0
370
    -2
100
AcDbLine
 10
-1675.285098145494
 20
2378.058028066889
 30
0.0
 11
-1551.593131360682
 21
2378.058028066889
 31
0.0
  0
LINE
  5
3B17
330
3B13
100
AcDbEntity
  8
DIM
 62
     0
370
    -2
100
AcDbLine
 10
-1676.33925332864
 20
1918.058310463775
 30
0.0
 11
-1551.593131360682
 21
1918.058310463775
 31
0.0
  0
LINE
  5
3B18
330
3B13
100
AcDbEntity
  8
DIM
 62
     0
370
    -2
100
AcDbLine
 10
-1551.593131360682
 20
2368.058028066889
 30
0.0
 11
-1551.593131360682
 21
1928.058310463775
 31
0.0
  0
INSERT
  5
3B19
330
3B13
100
AcDbEntity
  8
DIM
 62
     0
370
    -2
100
AcDbBlockReference
  2
_DOT
 10
-1551.593131360682
 20
2378.058028066889
 30
0.0
 41
10.0
 42
10.0
 43
10.0
 50
90.00000000000004
  0
INSERT
  5
3B1A
330
3B13
100
AcDbEntity
  8
DIM
 62
     0
370
    -2
100
AcDbBlockReference
  2
_DOT
 10
-1551.593131360682
 20
1918.058310463775
 30
0.0
 41
10.0
 42
10.0
 43
10.0
 50
270.0
  0
MTEXT
  5
3B1B
330
3B13
100
AcDbEntity
  8
DIM
 62
     0
100
AcDbMText
 10
-1583.593131360682
 20
2148.058169265332
 30
0.0
 40
24.0
 41
0.0
 46
0.0
 71
     5
 72
     1
  1
\A1;460
  7
ＭＳ ゴシック
 11
-4.942909022379206E-16
 21
1.0
 31
0.0
 73
     1
 44
1.0
  0
POINT
  5
3B1C
330
3B13
100
AcDbEntity
  8
Defpoints
 62
     0
100
AcDbPoint
 10
-1705.285098145494
 20
2378.058028066889
 30
0.0
  0
POINT
  5
3B1D
330
3B13
100
AcDbEntity
  8
Defpoints
 62
     0
100
AcDbPoint
 10
-1706.33925332864
 20
1918.058310463775
 30
0.0
  0
POINT
  5
3B1E
330
3B13
100
AcDbEntity
  8
Defpoints
 62
     0
100
AcDbPoint
 10
-1551.593131360682
 20
1918.058310463775
 30
0.0
  0
ENDBLK
  5
3B15
330
3B13
100
AcDbEntity
  8
0
100
AcDbBlockEnd
  0
BLOCK
  5
3B6E
330
3B6D
100
AcDbEntity
  8
0
100
AcDbBlockBegin
  2
*D33
 70
     1
 10
0.0
 20
0.0
 30
0.0
  3
*D33
  1

  0
LINE
  5
3B70
330
3B6D
100
AcDbEntity
  8
DIM
 62
     0
370
    -2
100
AcDbLine
 10
-1331.994953678368
 20
1195.222135580712
 30
0.0
 11
-1470.659782983719
 21
1195.222135580712
 31
0.0
  0
LINE
  5
3B71
330
3B6D
100
AcDbEntity
  8
DIM
 62
     0
370
    -2
100
AcDbLine
 10
-1308.886803075185
 20
840.2237640171884
 30
0.0
 11
-1470.659782983719
 21
840.2237640171883
 31
0.0
  0
LINE
  5
3B72
330
3B6D
100
AcDbEntity
  8
DIM
 62
     0
370
    -2
100
AcDbLine
 10
-1470.659782983719
 20
1185.222135580712
 30
0.0
 11
-1470.659782983719
 21
850.2237640171883
 31
0.0
  0
INSERT
  5
3B73
330
3B6D
100
AcDbEntity
  8
DIM
 62
     0
370
    -2
100
AcDbBlockReference
  2
_DOT
 10
-1470.659782983719
 20
1195.222135580712
 30
0.0
 41
10.0
 42
10.0
 43
10.0
 50
90.00000000000004
  0
INSERT
  5
3B74
330
3B6D
100
AcDbEntity
  8
DIM
 62
     0
370
    -2
100
AcDbBlockReference
  2
_DOT
 10
-1470.659782983719
 20
840.2237640171883
 30
0.0
 41
10.0
 42
10.0
 43
10.0
 50
270.0000000000001
  0
MTEXT
  5
3B75
330
3B6D
100
AcDbEntity
  8
DIM
 62
     0
100
AcDbMText
 10
-1502.659782983719
 20
1017.72294979895
 30
0.0
 40
24.0
 41
0.0
 46
0.0
 71
     5
 72
     1
  1
\A1;355
  7
ＭＳ ゴシック
 11
-6.404921646310867E-16
 21
1.0
 31
0.0
 73
     1
 44
1.0
  0
POINT
  5
3B76
330
3B6D
100
AcDbEntity
  8
Defpoints
 62
     0
100
AcDbPoint
 10
-1301.994953678368
 20
1195.222135580712
 30
0.0
  0
POINT
  5
3B77
330
3B6D
100
AcDbEntity
  8
Defpoints
 62
     0
100
AcDbPoint
 10
-1278.886803075185
 20
840.2237640171884
 30
0.0
  0
POINT
  5
3B78
330
3B6D
100
AcDbEntity
  8
Defpoints
 62
     0
100
AcDbPoint
 10
-1470.659782983719
 20
840.2237640171883
 30
0.0
  0
ENDBLK
  5
3B6F
330
3B6D
100
AcDbEntity
  8
0
100
AcDbBlockEnd
  0
BLOCK
  5
3B7A
330
3B79
100
AcDbEntity
  8
0
100
AcDbBlockBegin
  2
*D34
 70
     1
 10
0.0
 20
0.0
 30
0.0
  3
*D34
  1

  0
LINE
  5
3B7C
330
3B79
100
AcDbEntity
  8
DIM
 62
     0
370
    -2
100
AcDbLine
 10
-1063.071054577217
 20
805.226051347377
 30
0.0
 11
-1063.071054577217
 21
713.5193918981389
 31
0.0
  0
LINE
  5
3B7D
330
3B79
100
AcDbEntity
  8
DIM
 62
     0
370
    -2
100
AcDbLine
 10
-853.0706592409849
 20
1133.213559791831
 30
0.0
 11
-853.0706592409849
 21
713.5193918981389
 31
0.0
  0
LINE
  5
3B7E
330
3B79
100
AcDbEntity
  8
DIM
 62
     0
370
    -2
100
AcDbLine
 10
-1053.071054577217
 20
713.5193918981389
 30
0.0
 11
-863.0706592409849
 21
713.5193918981389
 31
0.0
  0
INSERT
  5
3B7F
330
3B79
100
AcDbEntity
  8
DIM
 62
     0
370
    -2
100
AcDbBlockReference
  2
_DOT
 10
-1063.071054577217
 20
713.5193918981389
 30
0.0
 41
10.0
 42
10.0
 43
10.0
 50
180.0
  0
INSERT
  5
3B80
330
3B79
100
AcDbEntity
  8
DIM
 62
     0
370
    -2
100
AcDbBlockReference
  2
_DOT
 10
-853.0706592409849
 20
713.5193918981389
 30
0.0
 41
10.0
 42
10.0
 43
10.0
  0
MTEXT
  5
3B81
330
3B79
100
AcDbEntity
  8
DIM
 62
     0
100
AcDbMText
 10
-958.0708569091008
 20
745.5193918981389
 30
0.0
 40
24.0
 41
0.0
 46
0.0
 71
     5
 72
     1
  1
\A1;210
  7
ＭＳ ゴシック
 73
     1
 44
1.0
  0
POINT
  5
3B82
330
3B79
100
AcDbEntity
  8
Defpoints
 62
     0
100
AcDbPoint
 10
-1063.071054577217
 20
835.226051347377
 30
0.0
  0
POINT
  5
3B83
330
3B79
100
AcDbEntity
  8
Defpoints
 62
     0
100
AcDbPoint
 10
-853.0706592409849
 20
1163.213559791831
 30
0.0
  0
POINT
  5
3B84
330
3B79
100
AcDbEntity
  8
Defpoints
 62
     0
100
AcDbPoint
 10
-853.0706592409849
 20
713.5193918981389
 30
0.0
  0
ENDBLK
  5
3B7B
330
3B79
100
AcDbEntity
  8
0
100
AcDbBlockEnd
  0
BLOCK
  5
3B86
330
3B85
100
AcDbEntity
  8
0
100
AcDbBlockBegin
  2
*D35
 70
     1
 10
0.0
 20
0.0
 30
0.0
  3
*D35
  1

  0
LINE
  5
3B88
330
3B85
100
AcDbEntity
  8
DIM
 62
     0
370
    -2
100
AcDbLine
 10
-853.0706592409849
 20
1143.577633003004
 30
0.0
 11
-853.0706592409849
 21
1080.980911577756
 31
0.0
  0
LINE
  5
3B89
330
3B85
100
AcDbEntity
  8
DIM
 62
     0
370
    -2
100
AcDbLine
 10
-882.0716325322178
 20
1143.853973458952
 30
0.0
 11
-882.0716325322178
 21
1080.980911577756
 31
0.0
  0
LINE
  5
3B8A
330
3B85
100
AcDbEntity
  8
DIM
 62
     0
370
    -2
100
AcDbLine
 10
-853.0706592409849
 20
1080.980911577756
 30
0.0
 11
-765.0626592409848
 21
1080.980911577756
 31
0.0
  0
LINE
  5
3B8B
330
3B85
100
AcDbEntity
  8
DIM
 62
     0
370
    -2
100
AcDbLine
 10
-863.0706592409849
 20
1080.980911577756
 30
0.0
 11
-872.0716325322178
 21
1080.980911577756
 31
0.0
  0
LINE
  5
3B8C
330
3B85
100
AcDbEntity
  8
DIM
 62
     0
370
    -2
100
AcDbLine
 10
-863.0706592409849
 20
1080.980911577756
 30
0.0
 11
-873.0706592409849
 21
1080.980911577756
 31
0.0
  0
INSERT
  5
3B8D
330
3B85
100
AcDbEntity
  8
DIM
 62
     0
370
    -2
100
AcDbBlockReference
  2
_DOT
 10
-853.0706592409849
 20
1080.980911577756
 30
0.0
 41
10.0
 42
10.0
 43
10.0
  0
INSERT
  5
3B8E
330
3B85
100
AcDbEntity
  8
DIM
 62
     0
370
    -2
100
AcDbBlockReference
  2
_DOT
 10
-882.0716325322178
 20
1080.980911577756
 30
0.0
 41
10.0
 42
10.0
 43
10.0
 50
180.0
  0
MTEXT
  5
3B8F
330
3B85
100
AcDbEntity
  8
DIM
 62
     0
100
AcDbMText
 10
-799.0666592409848
 20
1112.980911577756
 30
0.0
 40
24.0
 41
0.0
 46
0.0
 71
     5
 72
     1
  1
\A1;35
  7
ＭＳ ゴシック
 73
     1
 44
1.0
  0
POINT
  5
3B90
330
3B85
100
AcDbEntity
  8
Defpoints
 62
     0
100
AcDbPoint
 10
-853.0706592409849
 20
1173.577633003004
 30
0.0
  0
POINT
  5
3B91
330
3B85
100
AcDbEntity
  8
Defpoints
 62
     0
100
AcDbPoint
 10
-882.0716325322178
 20
1173.853973458952
 30
0.0
  0
POINT
  5
3B92
330
3B85
100
AcDbEntity
  8
Defpoints
 62
     0
100
AcDbPoint
 10
-882.0716325322178
 20
1080.980911577756
 30
0.0
  0
ENDBLK
  5
3B87
330
3B85
100
AcDbEntity
  8
0
100
AcDbBlockEnd
  0
BLOCK
  5
3B94
330
3B93
100
AcDbEntity
  8
0
100
AcDbBlockBegin
  2
*D36
 70
     1
 10
0.0
 20
0.0
 30
0.0
  3
*D36
  1

  0
LINE
  5
3B96
330
3B93
100
AcDbEntity
  8
DIM
 62
     0
370
    -2
100
AcDbLine
 10
-1313.069228472622
 20
1144.279211226132
 30
0.0
 11
-1313.069228472622
 21
1109.946796573965
 31
0.0
  0
LINE
  5
3B97
330
3B93
100
AcDbEntity
  8
DIM
 62
     0
370
    -2
100
AcDbLine
 10
-1267.359450184661
 20
1148.226237714621
 30
0.0
 11
-1267.359450184661
 21
1109.946796573965
 31
0.0
  0
LINE
  5
3B98
330
3B93
100
AcDbEntity
  8
DIM
 62
     0
370
    -2
100
AcDbLine
 10
-1313.069228472622
 20
1109.946796573965
 30
0.0
 11
-1401.701228472622
 21
1109.946796573965
 31
0.0
  0
LINE
  5
3B99
330
3B93
100
AcDbEntity
  8
DIM
 62
     0
370
    -2
100
AcDbLine
 10
-1303.069228472622
 20
1109.946796573965
 30
0.0
 11
-1277.359450184661
 21
1109.946796573965
 31
0.0
  0
LINE
  5
3B9A
330
3B93
100
AcDbEntity
  8
DIM
 62
     0
370
    -2
100
AcDbLine
 10
-1303.069228472622
 20
1109.946796573965
 30
0.0
 11
-1293.069228472622
 21
1109.946796573965
 31
0.0
  0
INSERT
  5
3B9B
330
3B93
100
AcDbEntity
  8
DIM
 62
     0
370
    -2
100
AcDbBlockReference
  2
_DOT
 10
-1313.069228472622
 20
1109.946796573965
 30
0.0
 41
10.0
 42
10.0
 43
10.0
 50
180.0
  0
INSERT
  5
3B9C
330
3B93
100
AcDbEntity
  8
DIM
 62
     0
370
    -2
100
AcDbBlockReference
  2
_DOT
 10
-1267.359450184661
 20
1109.946796573965
 30
0.0
 41
10.0
 42
10.0
 43
10.0
  0
MTEXT
  5
3B9D
330
3B93
100
AcDbEntity
  8
DIM
 62
     0
100
AcDbMText
 10
-1367.385228472622
 20
1141.946796573965
 30
0.0
 40
24.0
 41
0.0
 46
0.0
 71
     5
 72
     1
  1
\A1;30
  7
ＭＳ ゴシック
 73
     1
 44
1.0
  0
POINT
  5
3B9E
330
3B93
100
AcDbEntity
  8
Defpoints
 62
     0
100
AcDbPoint
 10
-1313.069228472622
 20
1174.279211226132
 30
0.0
  0
POINT
  5
3B9F
330
3B93
100
AcDbEntity
  8
Defpoints
 62
     0
100
AcDbPoint
 10
-1267.359450184661
 20
1178.226237714621
 30
0.0
  0
POINT
  5
3BA0
330
3B93
100
AcDbEntity
  8
Defpoints
 62
     0
100
AcDbPoint
 10
-1267.359450184661
 20
1109.946796573965
 30
0.0
  0
ENDBLK
  5
3B95
330
3B93
100
AcDbEntity
  8
0
100
AcDbBlockEnd
  0
BLOCK
  5
3BA2
330
3BA1
100
AcDbEntity
  8
0
100
AcDbBlockBegin
  2
*D37
 70
     1
 10
0.0
 20
0.0
 30
0.0
  3
*D37
  1

  0
LINE
  5
3BA4
330
3BA1
100
AcDbEntity
  8
DIM
 62
     0
 48
0.5
370
    -2
100
AcDbLine
 10
-1042.282817295032
 20
890.2238581448614
 30
0.0
 11
-1063.070480391475
 21
890.2238581448614
 31
0.0
  0
LINE
  5
3BA5
330
3BA1
100
AcDbEntity
  8
DIM
 62
     0
 48
0.5
370
    -2
100
AcDbLine
 10
-1042.282817295032
 20
1195.224432323666
 30
0.0
 11
-1063.070480391475
 21
1195.224432323666
 31
0.0
  0
LINE
  5
3BA6
330
3BA1
100
AcDbEntity
  8
DIM
 62
     0
 48
0.5
370
    -2
100
AcDbLine
 10
-1063.070480391475
 20
890.2238581448614
 30
0.0
 11
-1063.070480391475
 21
1386.960432323666
 31
0.0
  0
LINE
  5
3BA7
330
3BA1
100
AcDbEntity
  8
DIM
 62
     0
 48
0.5
370
    -2
100
AcDbLine
 10
-1063.070480391475
 20
900.2238581448614
 30
0.0
 11
-1063.070480391475
 21
1185.224432323666
 31
0.0
  0
LINE
  5
3BA8
330
3BA1
100
AcDbEntity
  8
DIM
 62
     0
 48
0.5
370
    -2
100
AcDbLine
 10
-1063.070480391475
 20
1185.224432323666
 30
0.0
 11
-1063.070480391475
 21
1175.224432323666
 31
0.0
  0
INSERT
  5
3BA9
330
3BA1
100
AcDbEntity
  8
DIM
 62
     0
370
    -2
100
AcDbBlockReference
  2
_DOT
 10
-1063.070480391475
 20
890.2238581448614
 30
0.0
 41
10.0
 42
10.0
 43
10.0
 50
270.0000000000001
  0
INSERT
  5
3BAA
330
3BA1
100
AcDbEntity
  8
DIM
 62
     0
370
    -2
100
AcDbBlockReference
  2
_DOT
 10
-1063.070480391475
 20
1195.224432323666
 30
0.0
 41
10.0
 42
10.0
 43
10.0
 50
90.00000000000006
  0
MTEXT
  5
3BAB
330
3BA1
100
AcDbEntity
  8
DIM
 62
     0
100
AcDbMText
 10
-1097.194480391475
 20
1301.092432323666
 30
0.0
 40
24.0
 41
0.0
 46
0.0
 71
     5
 72
     1
  1
\A1;305(深さ)
  7
ＭＳ ゴシック
 11
-7.454860570522591E-16
 21
1.0
 31
0.0
 73
     1
 44
1.0
  0
POINT
  5
3BAC
330
3BA1
100
AcDbEntity
  8
Defpoints
 62
     0
100
AcDbPoint
 10
-1072.282817295032
 20
890.2238581448614
 30
0.0
  0
POINT
  5
3BAD
330
3BA1
100
AcDbEntity
  8
Defpoints
 62
     0
100
AcDbPoint
 10
-1072.282817295032
 20
1195.224432323666
 30
0.0
  0
POINT
  5
3BAE
330
3BA1
100
AcDbEntity
  8
Defpoints
 62
     0
100
AcDbPoint
 10
-1063.070480391475
 20
1195.224432323666
 30
0.0
  0
ENDBLK
  5
3BA3
330
3BA1
100
AcDbEntity
  8
0
100
AcDbBlockEnd
  0
BLOCK
  5
3BF6
330
3BF5
100
AcDbEntity
  8
0
100
AcDbBlockBegin
  2
*D38
 70
     1
 10
0.0
 20
0.0
 30
0.0
  3
*D38
  1

  0
LINE
  5
3BF8
330
3BF5
100
AcDbEntity
  8
MODEL
 62
     0
370
    -2
100
AcDbLine
 10
-853.0706592409849
 20
1215.637376761175
 30
0.0
 11
-853.0706592409849
 21
1287.431561977286
 31
0.0
  0
LINE
  5
3BF9
330
3BF5
100
AcDbEntity
  8
MODEL
 62
     0
370
    -2
100
AcDbLine
 10
-903.0696049971839
 20
1225.224432323666
 30
0.0
 11
-903.0696049971839
 21
1287.431561977286
 31
0.0
  0
LINE
  5
3BFA
330
3BF5
100
AcDbEntity
  8
MODEL
 62
     0
370
    -2
100
AcDbLine
 10
-863.0706592409849
 20
1287.431561977286
 30
0.0
 11
-893.0696049971839
 21
1287.431561977286
 31
0.0
  0
INSERT
  5
3BFB
330
3BF5
100
AcDbEntity
  8
MODEL
 62
     0
370
    -2
100
AcDbBlockReference
  2
_DOT
 10
-853.0706592409849
 20
1287.431561977286
 30
0.0
 41
10.0
 42
10.0
 43
10.0
  0
INSERT
  5
3BFC
330
3BF5
100
AcDbEntity
  8
MODEL
 62
     0
370
    -2
100
AcDbBlockReference
  2
_DOT
 10
-903.0696049971839
 20
1287.431561977286
 30
0.0
 41
10.0
 42
10.0
 43
10.0
 50
180.0
  0
MTEXT
  5
3BFD
330
3BF5
100
AcDbEntity
  8
MODEL
 62
     0
100
AcDbMText
 10
-878.0701321190847
 20
1319.431561977286
 30
0.0
 40
24.0
 41
0.0
 46
0.0
 71
     5
 72
     1
  1
\A1;50
  7
ＭＳ ゴシック
 73
     1
 44
1.0
  0
POINT
  5
3BFE
330
3BF5
100
AcDbEntity
  8
Defpoints
 62
     0
100
AcDbPoint
 10
-853.0706592409849
 20
1185.637376761175
 30
0.0
  0
POINT
  5
3BFF
330
3BF5
100
AcDbEntity
  8
Defpoints
 62
     0
100
AcDbPoint
 10
-903.0696049971839
 20
1195.224432323666
 30
0.0
  0
POINT
  5
3C00
330
3BF5
100
AcDbEntity
  8
Defpoints
 62
     0
100
AcDbPoint
 10
-903.0696049971839
 20
1287.431561977286
 30
0.0
  0
ENDBLK
  5
3BF7
330
3BF5
100
AcDbEntity
  8
0
100
AcDbBlockEnd
  0
BLOCK
  5
3C50
330
3C4F
100
AcDbEntity
  8
0
100
AcDbBlockBegin
  2
*D39
 70
     1
 10
0.0
 20
0.0
 30
0.0
  3
*D39
  1

  0
LINE
  5
3C52
330
3C4F
100
AcDbEntity
  8
MODEL
 62
     0
370
    -2
100
AcDbLine
 10
694.9854258266162
 20
922.1050140171888
 30
0.0
 11
694.9854258266162
 21
879.0361858345433
 31
0.0
  0
LINE
  5
3C53
330
3C4F
100
AcDbEntity
  8
MODEL
 62
     0
370
    -2
100
AcDbLine
 10
649.9818959972793
 20
922.1050140171888
 30
0.0
 11
649.9818959972793
 21
879.0361858345433
 31
0.0
  0
LINE
  5
3C54
330
3C4F
100
AcDbEntity
  8
MODEL
 62
     0
370
    -2
100
AcDbLine
 10
704.9854258266162
 20
879.0361858345433
 30
0.0
 11
714.9854258266162
 21
879.0361858345433
 31
0.0
  0
LINE
  5
3C55
330
3C4F
100
AcDbEntity
  8
MODEL
 62
     0
370
    -2
100
AcDbLine
 10
639.9818959972793
 20
879.0361858345433
 30
0.0
 11
629.9818959972793
 21
879.0361858345433
 31
0.0
  0
INSERT
  5
3C56
330
3C4F
100
AcDbEntity
  8
MODEL
 62
     0
370
    -2
100
AcDbBlockReference
  2
_DOT
 10
694.9854258266162
 20
879.0361858345433
 30
0.0
 41
10.0
 42
10.0
 43
10.0
 50
180.0
  0
INSERT
  5
3C57
330
3C4F
100
AcDbEntity
  8
MODEL
 62
     0
370
    -2
100
AcDbBlockReference
  2
_DOT
 10
649.9818959972793
 20
879.0361858345433
 30
0.0
 41
10.0
 42
10.0
 43
10.0
  0
MTEXT
  5
3C58
330
3C4F
100
AcDbEntity
  8
MODEL
 62
     0
100
AcDbMText
 10
672.4836609119477
 20
911.0361858345433
 30
0.0
 40
24.0
 41
0.0
 46
0.0
 71
     5
 72
     1
  1
\A1;45
  7
ＭＳ ゴシック
 73
     1
 44
1.0
  0
POINT
  5
3C59
330
3C4F
100
AcDbEntity
  8
Defpoints
 62
     0
100
AcDbPoint
 10
694.9854258266162
 20
952.1050140171888
 30
0.0
  0
POINT
  5
3C5A
330
3C4F
100
AcDbEntity
  8
Defpoints
 62
     0
100
AcDbPoint
 10
649.9818959972793
 20
952.1050140171888
 30
0.0
  0
POINT
  5
3C5B
330
3C4F
100
AcDbEntity
  8
Defpoints
 62
     0
100
AcDbPoint
 10
649.9818959972793
 20
879.0361858345433
 30
0.0
  0
ENDBLK
  5
3C51
330
3C4F
100
AcDbEntity
  8
0
100
AcDbBlockEnd
  0
BLOCK
  5
3CD7
330
3CD6
100
AcDbEntity
  8
0
100
AcDbBlockBegin
  2
*D40
 70
     1
 10
0.0
 20
0.0
 30
0.0
  3
*D40
  1

  0
LINE
  5
3CD9
330
3CD6
100
AcDbEntity
  8
DIM
 62
     0
370
    -2
100
AcDbLine
 10
2617.026719454747
 20
2268.058969357486
 30
0.0
 11
2447.791389837906
 21
2268.058969357486
 31
0.0
  0
LINE
  5
3CDA
330
3CD6
100
AcDbEntity
  8
DIM
 62
     0
370
    -2
100
AcDbLine
 10
2622.297495370557
 20
1988.057293871039
 30
0.0
 11
2447.791389837906
 21
1988.057293871039
 31
0.0
  0
LINE
  5
3CDB
330
3CD6
100
AcDbEntity
  8
DIM
 62
     0
370
    -2
100
AcDbLine
 10
2447.791389837906
 20
2258.058969357486
 30
0.0
 11
2447.791389837906
 21
1998.057293871039
 31
0.0
  0
INSERT
  5
3CDC
330
3CD6
100
AcDbEntity
  8
DIM
 62
     0
370
    -2
100
AcDbBlockReference
  2
_DOT
 10
2447.791389837906
 20
2268.058969357486
 30
0.0
 41
10.0
 42
10.0
 43
10.0
 50
90.0
  0
INSERT
  5
3CDD
330
3CD6
100
AcDbEntity
  8
DIM
 62
     0
370
    -2
100
AcDbBlockReference
  2
_DOT
 10
2447.791389837906
 20
1988.057293871039
 30
0.0
 41
10.0
 42
10.0
 43
10.0
 50
270.0
  0
MTEXT
  5
3CDE
330
3CD6
100
AcDbEntity
  8
DIM
 62
     0
100
AcDbMText
 10
2415.791389837906
 20
2128.058131614262
 30
0.0
 40
24.0
 41
0.0
 46
0.0
 71
     5
 72
     1
  1
\A1;280
  7
ＭＳ ゴシック
 11
0.0
 21
1.0
 31
0.0
 73
     1
 44
1.0
  0
POINT
  5
3CDF
330
3CD6
100
AcDbEntity
  8
Defpoints
 62
     0
100
AcDbPoint
 10
2647.026719454747
 20
2268.058969357486
 30
0.0
  0
POINT
  5
3CE0
330
3CD6
100
AcDbEntity
  8
Defpoints
 62
     0
100
AcDbPoint
 10
2652.297495370557
 20
1988.057293871039
 30
0.0
  0
POINT
  5
3CE1
330
3CD6
100
AcDbEntity
  8
Defpoints
 62
     0
100
AcDbPoint
 10
2447.791389837906
 20
1988.057293871039
 30
0.0
  0
ENDBLK
  5
3CD8
330
3CD6
100
AcDbEntity
  8
0
100
AcDbBlockEnd
  0
BLOCK
  5
3CE3
330
3CE2
100
AcDbEntity
  8
0
100
AcDbBlockBegin
  2
*D41
 70
     1
 10
0.0
 20
0.0
 30
0.0
  3
*D41
  1

  0
LINE
  5
3CE5
330
3CE2
100
AcDbEntity
  8
DIM
 62
     0
370
    -2
100
AcDbLine
 10
2626.108413472563
 20
1944.638573157172
 30
0.0
 11
2626.108413472563
 21
1799.038686504535
 31
0.0
  0
LINE
  5
3CE6
330
3CE2
100
AcDbEntity
  8
DIM
 62
     0
370
    -2
100
AcDbLine
 10
3096.112743387122
 20
1944.638573157172
 30
0.0
 11
3096.112743387122
 21
1799.038686504535
 31
0.0
  0
LINE
  5
3CE7
330
3CE2
100
AcDbEntity
  8
DIM
 62
     0
370
    -2
100
AcDbLine
 10
2636.108413472563
 20
1799.038686504535
 30
0.0
 11
3086.112743387122
 21
1799.038686504535
 31
0.0
  0
INSERT
  5
3CE8
330
3CE2
100
AcDbEntity
  8
DIM
 62
     0
370
    -2
100
AcDbBlockReference
  2
_DOT
 10
2626.108413472563
 20
1799.038686504535
 30
0.0
 41
10.0
 42
10.0
 43
10.0
 50
180.0
  0
INSERT
  5
3CE9
330
3CE2
100
AcDbEntity
  8
DIM
 62
     0
370
    -2
100
AcDbBlockReference
  2
_DOT
 10
3096.112743387122
 20
1799.038686504535
 30
0.0
 41
10.0
 42
10.0
 43
10.0
  0
MTEXT
  5
3CEA
330
3CE2
100
AcDbEntity
  8
DIM
 62
     0
100
AcDbMText
 10
2861.110578429842
 20
1831.038686504535
 30
0.0
 40
24.0
 41
0.0
 46
0.0
 71
     5
 72
     1
  1
\A1;470
  7
ＭＳ ゴシック
 73
     1
 44
1.0
  0
POINT
  5
3CEB
330
3CE2
100
AcDbEntity
  8
Defpoints
 62
     0
100
AcDbPoint
 10
2626.108413472563
 20
1974.638573157172
 30
0.0
  0
POINT
  5
3CEC
330
3CE2
100
AcDbEntity
  8
Defpoints
 62
     0
100
AcDbPoint
 10
3096.112743387122
 20
1974.638573157172
 30
0.0
  0
POINT
  5
3CED
330
3CE2
100
AcDbEntity
  8
Defpoints
 62
     0
100
AcDbPoint
 10
3096.112743387122
 20
1799.038686504535
 30
0.0
  0
ENDBLK
  5
3CE4
330
3CE2
100
AcDbEntity
  8
0
100
AcDbBlockEnd
  0
BLOCK
  5
3CEF
330
3CEE
100
AcDbEntity
  8
0
100
AcDbBlockBegin
  2
*D42
 70
     1
 10
0.0
 20
0.0
 30
0.0
  3
*D42
  1

  0
LINE
  5
3CF1
330
3CEE
100
AcDbEntity
  8
DIM
 62
     0
370
    -2
100
AcDbLine
 10
2556.110578436775
 20
2407.390097748115
 30
0.0
 11
2556.110578436775
 21
2512.98558
 31
0.0
  0
LINE
  5
3CF2
330
3CEE
100
AcDbEntity
  8
DIM
 62
     0
370
    -2
100
AcDbLine
 10
3166.11057842291
 20
2404.7547097902
 30
0.0
 11
3166.11057842291
 21
2512.98558
 31
0.0
  0
LINE
  5
3CF3
330
3CEE
100
AcDbEntity
  8
DIM
 62
     0
370
    -2
100
AcDbLine
 10
2566.110578436775
 20
2512.98558
 30
0.0
 11
3156.11057842291
 21
2512.98558
 31
0.0
  0
INSERT
  5
3CF4
330
3CEE
100
AcDbEntity
  8
DIM
 62
     0
370
    -2
100
AcDbBlockReference
  2
_DOT
 10
2556.110578436775
 20
2512.98558
 30
0.0
 41
10.0
 42
10.0
 43
10.0
 50
180.0
  0
INSERT
  5
3CF5
330
3CEE
100
AcDbEntity
  8
DIM
 62
     0
370
    -2
100
AcDbBlockReference
  2
_DOT
 10
3166.11057842291
 20
2512.98558
 30
0.0
 41
10.0
 42
10.0
 43
10.0
  0
MTEXT
  5
3CF6
330
3CEE
100
AcDbEntity
  8
DIM
 62
     0
100
AcDbMText
 10
2861.110578429842
 20
2544.98558
 30
0.0
 40
24.0
 41
0.0
 46
0.0
 71
     5
 72
     1
  1
\A1;610
  7
ＭＳ ゴシック
 73
     1
 44
1.0
  0
POINT
  5
3CF7
330
3CEE
100
AcDbEntity
  8
Defpoints
 62
     0
100
AcDbPoint
 10
2556.110578436775
 20
2377.390097748115
 30
0.0
  0
POINT
  5
3CF8
330
3CEE
100
AcDbEntity
  8
Defpoints
 62
     0
100
AcDbPoint
 10
3166.11057842291
 20
2374.7547097902
 30
0.0
  0
POINT
  5
3CF9
330
3CEE
100
AcDbEntity
  8
Defpoints
 62
     0
100
AcDbPoint
 10
3166.11057842291
 20
2512.98558
 30
0.0
  0
ENDBLK
  5
3CF0
330
3CEE
100
AcDbEntity
  8
0
100
AcDbBlockEnd
  0
BLOCK
  5
3CFB
330
3CFA
100
AcDbEntity
  8
0
100
AcDbBlockBegin
  2
*D43
 70
     1
 10
0.0
 20
0.0
 30
0.0
  3
*D43
  1

  0
LINE
  5
3CFD
330
3CFA
100
AcDbEntity
  8
DIM
 62
     0
370
    -2
100
AcDbLine
 10
3178.984151854505
 20
2378.058028066889
 30
0.0
 11
3302.676118639317
 21
2378.058028066889
 31
0.0
  0
LINE
  5
3CFE
330
3CFA
100
AcDbEntity
  8
DIM
 62
     0
370
    -2
100
AcDbLine
 10
3177.929996671359
 20
1918.058310463775
 30
0.0
 11
3302.676118639317
 21
1918.058310463775
 31
0.0
  0
LINE
  5
3CFF
330
3CFA
100
AcDbEntity
  8
DIM
 62
     0
370
    -2
100
AcDbLine
 10
3302.676118639317
 20
2368.058028066889
 30
0.0
 11
3302.676118639317
 21
1928.058310463775
 31
0.0
  0
INSERT
  5
3D00
330
3CFA
100
AcDbEntity
  8
DIM
 62
     0
370
    -2
100
AcDbBlockReference
  2
_DOT
 10
3302.676118639317
 20
2378.058028066889
 30
0.0
 41
10.0
 42
10.0
 43
10.0
 50
90.0
  0
INSERT
  5
3D01
330
3CFA
100
AcDbEntity
  8
DIM
 62
     0
370
    -2
100
AcDbBlockReference
  2
_DOT
 10
3302.676118639317
 20
1918.058310463775
 30
0.0
 41
10.0
 42
10.0
 43
10.0
 50
270.0
  0
MTEXT
  5
3D02
330
3CFA
100
AcDbEntity
  8
DIM
 62
     0
100
AcDbMText
 10
3270.676118639317
 20
2148.058169265332
 30
0.0
 40
24.0
 41
0.0
 46
0.0
 71
     5
 72
     1
  1
\A1;460
  7
ＭＳ ゴシック
 11
0.0
 21
1.0
 31
0.0
 73
     1
 44
1.0
  0
POINT
  5
3D03
330
3CFA
100
AcDbEntity
  8
Defpoints
 62
     0
100
AcDbPoint
 10
3148.984151854505
 20
2378.058028066889
 30
0.0
  0
POINT
  5
3D04
330
3CFA
100
AcDbEntity
  8
Defpoints
 62
     0
100
AcDbPoint
 10
3147.929996671359
 20
1918.058310463775
 30
0.0
  0
POINT
  5
3D05
330
3CFA
100
AcDbEntity
  8
Defpoints
 62
     0
100
AcDbPoint
 10
3302.676118639317
 20
1918.058310463775
 30
0.0
  0
ENDBLK
  5
3CFC
330
3CFA
100
AcDbEntity
  8
0
100
AcDbBlockEnd
  0
BLOCK
  5
4024
330
4023
100
AcDbEntity
  8
0
100
AcDbBlockBegin
  2
*D44
 70
     1
 10
0.0
 20
0.0
 30
0.0
  3
*D44
  1

  0
LINE
  5
4026
330
4023
100
AcDbEntity
  8
MODEL
 62
     0
370
    -2
100
AcDbLine
 10
2985.101753860468
 20
1965.065992048963
 30
0.0
 11
2985.101753860468
 21
2586.98598345
 31
0.0
  0
LINE
  5
4027
330
4023
100
AcDbEntity
  8
MODEL
 62
     0
370
    -2
100
AcDbLine
 10
2485.101753878887
 20
1965.065992048963
 30
0.0
 11
2485.101753878887
 21
2586.98598345
 31
0.0
  0
LINE
  5
4028
330
4023
100
AcDbEntity
  8
MODEL
 62
     0
370
    -2
100
AcDbLine
 10
2975.101753860468
 20
2586.98598345
 30
0.0
 11
2495.101753878887
 21
2586.98598345
 31
0.0
  0
INSERT
  5
4029
330
4023
100
AcDbEntity
  8
MODEL
 62
     0
370
    -2
100
AcDbBlockReference
  2
_DOT
 10
2985.101753860468
 20
2586.98598345
 30
0.0
 41
10.0
 42
10.0
 43
10.0
  0
INSERT
  5
402A
330
4023
100
AcDbEntity
  8
MODEL
 62
     0
370
    -2
100
AcDbBlockReference
  2
_DOT
 10
2485.101753878887
 20
2586.98598345
 30
0.0
 41
10.0
 42
10.0
 43
10.0
 50
180.0
  0
MTEXT
  5
402B
330
4023
100
AcDbEntity
  8
MODEL
 62
     0
100
AcDbMText
 10
2735.101753869678
 20
2618.98598345
 30
0.0
 40
24.0
 41
0.0
 46
0.0
 71
     5
 72
     1
  1
\A1;499.99999998
  7
ＭＳ ゴシック
 73
     1
 44
1.0
  0
POINT
  5
402C
330
4023
100
AcDbEntity
  8
Defpoints
 62
     0
100
AcDbPoint
 10
2985.101753860468
 20
1935.065992048963
 30
0.0
  0
POINT
  5
402D
330
4023
100
AcDbEntity
  8
Defpoints
 62
     0
100
AcDbPoint
 10
2485.101753878887
 20
1935.065992048963
 30
0.0
  0
POINT
  5
402E
330
4023
100
AcDbEntity
  8
Defpoints
 62
     0
100
AcDbPoint
 10
2485.101753878887
 20
2586.98598345
 30
0.0
  0
ENDBLK
  5
4025
330
4023
100
AcDbEntity
  8
0
100
AcDbBlockEnd
  0
BLOCK
  5
4034
330
4033
100
AcDbEntity
  8
0
100
AcDbBlockBegin
  2
*D45
 70
     1
 10
0.0
 20
0.0
 30
0.0
  3
*D45
  1

  0
LINE
  5
4036
330
4033
100
AcDbEntity
  8
MODEL
 62
     0
370
    -2
100
AcDbLine
 10
3033.965535303407
 20
846.7214355997021
 30
0.0
 11
3127.018453998129
 21
846.7214355997021
 31
0.0
  0
LINE
  5
4037
330
4033
100
AcDbEntity
  8
MODEL
 62
     0
370
    -2
100
AcDbLine
 10
3033.965535303407
 20
1146.722875480372
 30
0.0
 11
3127.018453998129
 21
1146.722875480372
 31
0.0
  0
LINE
  5
4038
330
4033
100
AcDbEntity
  8
MODEL
 62
     0
370
    -2
100
AcDbLine
 10
3127.018453998129
 20
856.7214355997021
 30
0.0
 11
3127.018453998129
 21
1136.722875480372
 31
0.0
  0
INSERT
  5
4039
330
4033
100
AcDbEntity
  8
MODEL
 62
     0
370
    -2
100
AcDbBlockReference
  2
_DOT
 10
3127.018453998129
 20
846.7214355997021
 30
0.0
 41
10.0
 42
10.0
 43
10.0
 50
270.0
  0
INSERT
  5
403A
330
4033
100
AcDbEntity
  8
MODEL
 62
     0
370
    -2
100
AcDbBlockReference
  2
_DOT
 10
3127.018453998129
 20
1146.722875480372
 30
0.0
 41
10.0
 42
10.0
 43
10.0
 50
90.0
  0
MTEXT
  5
403B
330
4033
100
AcDbEntity
  8
MODEL
 62
     0
100
AcDbMText
 10
3095.018453998129
 20
996.722155540037
 30
0.0
 40
24.0
 41
0.0
 46
0.0
 71
     5
 72
     1
  1
\A1;300
  7
ＭＳ ゴシック
 11
0.0
 21
1.0
 31
0.0
 73
     1
 44
1.0
  0
POINT
  5
403C
330
4033
100
AcDbEntity
  8
Defpoints
 62
     0
100
AcDbPoint
 10
3003.965535303407
 20
846.7214355997021
 30
0.0
  0
POINT
  5
403D
330
4033
100
AcDbEntity
  8
Defpoints
 62
     0
100
AcDbPoint
 10
3003.965535303407
 20
1146.722875480372
 30
0.0
  0
POINT
  5
403E
330
4033
100
AcDbEntity
  8
Defpoints
 62
     0
100
AcDbPoint
 10
3127.018453998129
 20
1146.722875480372
 30
0.0
  0
ENDBLK
  5
4035
330
4033
100
AcDbEntity
  8
0
100
AcDbBlockEnd
  0
BLOCK
  5
4047
330
4046
100
AcDbEntity
  8
0
100
AcDbBlockBegin
  2
*D46
 70
     1
 10
0.0
 20
0.0
 30
0.0
  3
*D46
  1

  0
LINE
  5
4049
330
4046
100
AcDbEntity
  8
DIM
 62
     0
370
    -2
100
AcDbLine
 10
-1781.442641518503
 20
806.4951748295099
 30
0.0
 11
-1781.442641518503
 21
747.4150425789903
 31
0.0
  0
LINE
  5
404A
330
4046
100
AcDbEntity
  8
DIM
 62
     0
370
    -2
100
AcDbLine
 10
-1599.536320880516
 20
806.4951748295099
 30
0.0
 11
-1599.536320880516
 21
747.4150425789903
 31
0.0
  0
LINE
  5
404B
330
4046
100
AcDbEntity
  8
DIM
 62
     0
370
    -2
100
AcDbLine
 10
-1771.442641518503
 20
747.4150425789903
 30
0.0
 11
-1609.536320880516
 21
747.4150425789903
 31
0.0
  0
INSERT
  5
404C
330
4046
100
AcDbEntity
  8
DIM
 62
     0
370
    -2
100
AcDbBlockReference
  2
_DOT
 10
-1781.442641518503
 20
747.4150425789903
 30
0.0
 41
10.0
 42
10.0
 43
10.0
 50
180.0
  0
INSERT
  5
404D
330
4046
100
AcDbEntity
  8
DIM
 62
     0
370
    -2
100
AcDbBlockReference
  2
_DOT
 10
-1599.536320880516
 20
747.4150425789903
 30
0.0
 41
10.0
 42
10.0
 43
10.0
  0
MTEXT
  5
404E
330
4046
100
AcDbEntity
  8
DIM
 62
     0
100
AcDbMText
 10
-1690.489481199509
 20
779.4150425789903
 30
0.0
 40
24.0
 41
0.0
 46
0.0
 71
     5
 72
     1
  1
\A1;182
  7
ＭＳ ゴシック
 73
     1
 44
1.0
  0
POINT
  5
404F
330
4046
100
AcDbEntity
  8
Defpoints
 62
     0
100
AcDbPoint
 10
-1781.442641518503
 20
836.4951748295099
 30
0.0
  0
POINT
  5
4050
330
4046
100
AcDbEntity
  8
Defpoints
 62
     0
100
AcDbPoint
 10
-1599.536320880516
 20
836.4951748295099
 30
0.0
  0
POINT
  5
4051
330
4046
100
AcDbEntity
  8
Defpoints
 62
     0
100
AcDbPoint
 10
-1599.536320880516
 20
747.4150425789903
 30
0.0
  0
ENDBLK
  5
4048
330
4046
100
AcDbEntity
  8
0
100
AcDbBlockEnd
  0
BLOCK
  5
4056
330
4055
100
AcDbEntity
  8
0
100
AcDbBlockBegin
  2
*D47
 70
     1
 10
0.0
 20
0.0
 30
0.0
  3
*D47
  1

  0
LINE
  5
4058
330
4055
100
AcDbEntity
  8
DIM
 62
     0
370
    -2
100
AcDbLine
 10
-1413.285236955548
 20
1138.116625480372
 30
0.0
 11
-1310.847038772826
 21
1138.116625480372
 31
0.0
  0
LINE
  5
4059
330
4055
100
AcDbEntity
  8
DIM
 62
     0
370
    -2
100
AcDbLine
 10
-1560.222554542425
 20
838.1151855997023
 30
0.0
 11
-1310.847038772826
 21
838.1151855997023
 31
0.0
  0
LINE
  5
405A
330
4055
100
AcDbEntity
  8
DIM
 62
     0
370
    -2
100
AcDbLine
 10
-1310.847038772826
 20
1128.116625480372
 30
0.0
 11
-1310.847038772826
 21
848.1151855997023
 31
0.0
  0
INSERT
  5
405B
330
4055
100
AcDbEntity
  8
DIM
 62
     0
370
    -2
100
AcDbBlockReference
  2
_DOT
 10
-1310.847038772826
 20
1138.116625480372
 30
0.0
 41
10.0
 42
10.0
 43
10.0
 50
90.0
  0
INSERT
  5
405C
330
4055
100
AcDbEntity
  8
DIM
 62
     0
370
    -2
100
AcDbBlockReference
  2
_DOT
 10
-1310.847038772826
 20
838.1151855997023
 30
0.0
 41
10.0
 42
10.0
 43
10.0
 50
270.0
  0
MTEXT
  5
405D
330
4055
100
AcDbEntity
  8
DIM
 62
     0
100
AcDbMText
 10
-1342.847038772826
 20
988.1159055400371
 30
0.0
 40
24.0
 41
0.0
 46
0.0
 71
     5
 72
     1
  1
\A1;300
  7
ＭＳ ゴシック
 11
0.0
 21
1.0
 31
0.0
 73
     1
 44
1.0
  0
POINT
  5
405E
330
4055
100
AcDbEntity
  8
Defpoints
 62
     0
100
AcDbPoint
 10
-1443.285236955548
 20
1138.116625480372
 30
0.0
  0
POINT
  5
405F
330
4055
100
AcDbEntity
  8
Defpoints
 62
     0
100
AcDbPoint
 10
-1590.222554542425
 20
838.1151855997023
 30
0.0
  0
POINT
  5
4060
330
4055
100
AcDbEntity
  8
Defpoints
 62
     0
100
AcDbPoint
 10
-1310.847038772826
 20
838.1151855997023
 30
0.0
  0
ENDBLK
  5
4057
330
4055
100
AcDbEntity
  8
0
100
AcDbBlockEnd
  0
BLOCK
  5
4065
330
4064
100
AcDbEntity
  8
0
100
AcDbBlockBegin
  2
*D48
 70
     1
 10
0.0
 20
0.0
 30
0.0
  3
*D48
  1

  0
LINE
  5
4067
330
4064
100
AcDbEntity
  8
DIM
 62
     0
370
    -2
100
AcDbLine
 10
3415.758306962892
 20
1184.995912991031
 30
0.0
 11
3415.758306962892
 21
1250.138987461534
 31
0.0
  0
LINE
  5
4068
330
4064
100
AcDbEntity
  8
DIM
 62
     0
370
    -2
100
AcDbLine
 10
3916.247870129303
 20
1184.995912991031
 30
0.0
 11
3916.247870129303
 21
1250.138987461534
 31
0.0
  0
LINE
  5
4069
330
4064
100
AcDbEntity
  8
DIM
 62
     0
370
    -2
100
AcDbLine
 10
3425.758306962892
 20
1250.138987461534
 30
0.0
 11
3906.247870129303
 21
1250.138987461534
 31
0.0
  0
INSERT
  5
406A
330
4064
100
AcDbEntity
  8
DIM
 62
     0
370
    -2
100
AcDbBlockReference
  2
_DOT
 10
3415.758306962892
 20
1250.138987461534
 30
0.0
 41
10.0
 42
10.0
 43
10.0
 50
180.0
  0
INSERT
  5
406B
330
4064
100
AcDbEntity
  8
DIM
 62
     0
370
    -2
100
AcDbBlockReference
  2
_DOT
 10
3916.247870129303
 20
1250.138987461534
 30
0.0
 41
10.0
 42
10.0
 43
10.0
  0
MTEXT
  5
406C
330
4064
100
AcDbEntity
  8
DIM
 62
     0
100
AcDbMText
 10
3666.003088546097
 20
1282.138987461534
 30
0.0
 40
24.0
 41
0.0
 46
0.0
 71
     5
 72
     1
  1
\A1;500
  7
ＭＳ ゴシック
 73
     1
 44
1.0
  0
POINT
  5
406D
330
4064
100
AcDbEntity
  8
Defpoints
 62
     0
100
AcDbPoint
 10
3415.758306962892
 20
1154.995912991031
 30
0.0
  0
POINT
  5
406E
330
4064
100
AcDbEntity
  8
Defpoints
 62
     0
100
AcDbPoint
 10
3916.247870129303
 20
1154.995912991031
 30
0.0
  0
POINT
  5
406F
330
4064
100
AcDbEntity
  8
Defpoints
 62
     0
100
AcDbPoint
 10
3916.247870129303
 20
1250.138987461534
 30
0.0
  0
ENDBLK
  5
4066
330
4064
100
AcDbEntity
  8
0
100
AcDbBlockEnd
  0
BLOCK
  5
4074
330
4073
100
AcDbEntity
  8
0
100
AcDbBlockBegin
  2
*D49
 70
     1
 10
0.0
 20
0.0
 30
0.0
  3
*D49
  1

  0
LINE
  5
4076
330
4073
100
AcDbEntity
  8
DIM
 62
     0
370
    -2
100
AcDbLine
 10
-1440.490681118486
 20
2128.419502048963
 30
0.0
 11
-1440.490681118486
 21
2385.541302930989
 31
0.0
  0
LINE
  5
4077
330
4073
100
AcDbEntity
  8
DIM
 62
     0
370
    -2
100
AcDbLine
 10
-1940.490681100067
 20
2128.419502048963
 30
0.0
 11
-1940.490681100067
 21
2385.541302930989
 31
0.0
  0
LINE
  5
4078
330
4073
100
AcDbEntity
  8
DIM
 62
     0
370
    -2
100
AcDbLine
 10
-1450.490681118486
 20
2385.541302930989
 30
0.0
 11
-1930.490681100067
 21
2385.541302930989
 31
0.0
  0
INSERT
  5
4079
330
4073
100
AcDbEntity
  8
DIM
 62
     0
370
    -2
100
AcDbBlockReference
  2
_DOT
 10
-1440.490681118486
 20
2385.541302930989
 30
0.0
 41
10.0
 42
10.0
 43
10.0
  0
INSERT
  5
407A
330
4073
100
AcDbEntity
  8
DIM
 62
     0
370
    -2
100
AcDbBlockReference
  2
_DOT
 10
-1940.490681100067
 20
2385.541302930989
 30
0.0
 41
10.0
 42
10.0
 43
10.0
 50
180.0
  0
MTEXT
  5
407B
330
4073
100
AcDbEntity
  8
DIM
 62
     0
100
AcDbMText
 10
-1690.490681109277
 20
2417.541302930989
 30
0.0
 40
24.0
 41
0.0
 46
0.0
 71
     5
 72
     1
  1
\A1;500
  7
ＭＳ ゴシック
 73
     1
 44
1.0
  0
POINT
  5
407C
330
4073
100
AcDbEntity
  8
Defpoints
 62
     0
100
AcDbPoint
 10
-1440.490681118486
 20
2098.419502048963
 30
0.0
  0
POINT
  5
407D
330
4073
100
AcDbEntity
  8
Defpoints
 62
     0
100
AcDbPoint
 10
-1940.490681100067
 20
2098.419502048963
 30
0.0
  0
POINT
  5
407E
330
4073
100
AcDbEntity
  8
Defpoints
 62
     0
100
AcDbPoint
 10
-1940.490681100067
 20
2385.541302930989
 30
0.0
  0
ENDBLK
  5
4075
330
4073
100
AcDbEntity
  8
0
100
AcDbBlockEnd
  0
BLOCK
  5
4083
330
4082
100
AcDbEntity
  8
0
100
AcDbBlockBegin
  2
*D50
 70
     1
 10
0.0
 20
0.0
 30
0.0
  3
*D50
  1

  0
LINE
  5
4085
330
4082
100
AcDbEntity
  8
DIM
 62
     0
370
    -2
100
AcDbLine
 10
3665.980290260529
 20
813.9848105562436
 30
0.0
 11
3665.980290260529
 21
721.6018828215341
 31
0.0
  0
LINE
  5
4086
330
4082
100
AcDbEntity
  8
DIM
 62
     0
370
    -2
100
AcDbLine
 10
3575.007931385268
 20
814.1287997282519
 30
0.0
 11
3575.007931385268
 21
721.6018828215341
 31
0.0
  0
LINE
  5
4087
330
4082
100
AcDbEntity
  8
DIM
 62
     0
370
    -2
100
AcDbLine
 10
3655.980290260529
 20
721.6018828215341
 30
0.0
 11
3585.007931385268
 21
721.6018828215341
 31
0.0
  0
INSERT
  5
4088
330
4082
100
AcDbEntity
  8
DIM
 62
     0
370
    -2
100
AcDbBlockReference
  2
_DOT
 10
3665.980290260529
 20
721.6018828215341
 30
0.0
 41
10.0
 42
10.0
 43
10.0
  0
INSERT
  5
4089
330
4082
100
AcDbEntity
  8
DIM
 62
     0
370
    -2
100
AcDbBlockReference
  2
_DOT
 10
3575.007931385268
 20
721.6018828215341
 30
0.0
 41
10.0
 42
10.0
 43
10.0
 50
180.0
  0
MTEXT
  5
408A
330
4082
100
AcDbEntity
  8
DIM
 62
     0
100
AcDbMText
 10
3620.494110822899
 20
753.6018828215341
 30
0.0
 40
24.0
 41
0.0
 46
0.0
 71
     5
 72
     1
  1
\A1;91
  7
ＭＳ ゴシック
 73
     1
 44
1.0
  0
POINT
  5
408B
330
4082
100
AcDbEntity
  8
Defpoints
 62
     0
100
AcDbPoint
 10
3665.980290260529
 20
843.9848105562436
 30
0.0
  0
POINT
  5
408C
330
4082
100
AcDbEntity
  8
Defpoints
 62
     0
100
AcDbPoint
 10
3575.007931385268
 20
844.1287997282519
 30
0.0
  0
POINT
  5
408D
330
4082
100
AcDbEntity
  8
Defpoints
 62
     0
100
AcDbPoint
 10
3575.007931385268
 20
721.6018828215341
 30
0.0
  0
ENDBLK
  5
4084
330
4082
100
AcDbEntity
  8
0
100
AcDbBlockEnd
  0
BLOCK
  5
4098
330
4097
100
AcDbEntity
  8
0
100
AcDbBlockBegin
  2
*D51
 70
     1
 10
0.0
 20
0.0
 30
0.0
  3
*D51
  1

  0
LINE
  5
409A
330
4097
100
AcDbEntity
  8
DIM
 62
     0
370
    -2
100
AcDbLine
 10
-710.0401447184267
 20
805.3785605562438
 30
0.0
 11
-710.0401447184267
 21
712.9956328215343
 31
0.0
  0
LINE
  5
409B
330
4097
100
AcDbEntity
  8
DIM
 62
     0
370
    -2
100
AcDbLine
 10
-619.0677858431657
 20
805.5225497282521
 30
0.0
 11
-619.0677858431657
 21
712.9956328215343
 31
0.0
  0
LINE
  5
409C
330
4097
100
AcDbEntity
  8
DIM
 62
     0
370
    -2
100
AcDbLine
 10
-700.0401447184267
 20
712.9956328215343
 30
0.0
 11
-629.0677858431657
 21
712.9956328215343
 31
0.0
  0
INSERT
  5
409D
330
4097
100
AcDbEntity
  8
DIM
 62
     0
370
    -2
100
AcDbBlockReference
  2
_DOT
 10
-710.0401447184267
 20
712.9956328215343
 30
0.0
 41
10.0
 42
10.0
 43
10.0
 50
180.0
  0
INSERT
  5
409E
330
4097
100
AcDbEntity
  8
DIM
 62
     0
370
    -2
100
AcDbBlockReference
  2
_DOT
 10
-619.0677858431657
 20
712.9956328215343
 30
0.0
 41
10.0
 42
10.0
 43
10.0
  0
MTEXT
  5
409F
330
4097
100
AcDbEntity
  8
DIM
 62
     0
100
AcDbMText
 10
-664.5539652807962
 20
744.9956328215343
 30
0.0
 40
24.0
 41
0.0
 46
0.0
 71
     5
 72
     1
  1
\A1;91
  7
ＭＳ ゴシック
 73
     1
 44
1.0
  0
POINT
  5
40A0
330
4097
100
AcDbEntity
  8
Defpoints
 62
     0
100
AcDbPoint
 10
-710.0401447184267
 20
835.3785605562438
 30
0.0
  0
POINT
  5
40A1
330
4097
100
AcDbEntity
  8
Defpoints
 62
     0
100
AcDbPoint
 10
-619.0677858431657
 20
835.5225497282521
 30
0.0
  0
POINT
  5
40A2
330
4097
100
AcDbEntity
  8
Defpoints
 62
     0
100
AcDbPoint
 10
-619.0677858431657
 20
712.9956328215343
 30
0.0
  0
ENDBLK
  5
4099
330
4097
100
AcDbEntity
  8
0
100
AcDbBlockEnd
  0
BLOCK
  5
40A7
330
40A6
100
AcDbEntity
  8
0
100
AcDbBlockBegin
  2
*D52
 70
     1
 10
0.0
 20
0.0
 30
0.0
  3
*D52
  1

  0
LINE
  5
40A9
330
40A6
100
AcDbEntity
  8
DIM
 62
     0
370
    -2
100
AcDbLine
 10
-682.0391943898167
 20
870.9303179005447
 30
0.0
 11
-710.0401447184267
 21
870.9303179005447
 31
0.0
  0
LINE
  5
40AA
330
40A6
100
AcDbEntity
  8
DIM
 62
     0
370
    -2
100
AcDbLine
 10
-680.0401447184267
 20
1138.116625480372
 30
0.0
 11
-710.0401447184267
 21
1138.116625480372
 31
0.0
  0
LINE
  5
40AB
330
40A6
100
AcDbEntity
  8
DIM
 62
     0
370
    -2
100
AcDbLine
 10
-710.0401447184267
 20
870.9303179005447
 30
0.0
 11
-710.0401447184267
 21
1329.732625480372
 31
0.0
  0
LINE
  5
40AC
330
40A6
100
AcDbEntity
  8
DIM
 62
     0
370
    -2
100
AcDbLine
 10
-710.0401447184267
 20
870.9303179005447
 30
0.0
 11
-710.0401447184267
 21
1138.116625480372
 31
0.0
  0
LINE
  5
40AD
330
40A6
100
AcDbEntity
  8
DIM
 62
     0
370
    -2
100
AcDbLine
 10
-710.0401447184267
 20
860.9303179005447
 30
0.0
 11
-710.0401447184267
 21
850.9303179005447
 31
0.0
  0
LINE
  5
40AE
330
40A6
100
AcDbEntity
  8
DIM
 62
     0
370
    -2
100
AcDbLine
 10
-710.0401447184267
 20
1148.116625480372
 30
0.0
 11
-710.0401447184267
 21
1158.116625480372
 31
0.0
  0
INSERT
  5
40AF
330
40A6
100
AcDbEntity
  8
DIM
 62
     0
370
    -2
100
AcDbBlockReference
  2
_DOT
 10
-710.0401447184267
 20
870.9303179005447
 30
0.0
 41
10.0
 42
10.0
 43
10.0
 50
90.0
  0
INSERT
  5
40B0
330
40A6
100
AcDbEntity
  8
DIM
 62
     0
370
    -2
100
AcDbBlockReference
  2
_DOT
 10
-710.0401447184267
 20
1138.116625480372
 30
0.0
 41
10.0
 42
10.0
 43
10.0
 50
270.0
  0
MTEXT
  5
40B1
330
40A6
100
AcDbEntity
  8
DIM
 62
     0
100
AcDbMText
 10
-744.1641447184268
 20
1243.924625480372
 30
0.0
 40
24.0
 41
0.0
 46
0.0
 71
     5
 72
     1
  1
\A1;267(深さ)
  7
ＭＳ ゴシック
 11
0.0
 21
1.0
 31
0.0
 73
     1
 44
1.0
  0
POINT
  5
40B2
330
40A6
100
AcDbEntity
  8
Defpoints
 62
     0
100
AcDbPoint
 10
-712.0391943898167
 20
870.9303179005447
 30
0.0
  0
POINT
  5
40B3
330
40A6
100
AcDbEntity
  8
Defpoints
 62
     0
100
AcDbPoint
 10
-710.0401447184267
 20
1138.116625480372
 30
0.0
  0
POINT
  5
40B4
330
40A6
100
AcDbEntity
  8
Defpoints
 62
     0
100
AcDbPoint
 10
-710.0401447184267
 20
1138.116625480372
 30
0.0
  0
ENDBLK
  5
40A8
330
40A6
100
AcDbEntity
  8
0
100
AcDbBlockEnd
  0
BLOCK
  5
4160
330
415F
100
AcDbEntity
  8
0
100
AcDbBlockBegin
  2
*D53
 70
     1
 10
0.0
 20
0.0
 30
0.0
  3
*D53
  1

  0
LINE
  5
4162
330
415F
100
AcDbEntity
  8
DIM
 62
     0
370
    -2
100
AcDbLine
 10
-460.0666811184867
 20
2128.419502048963
 30
0.0
 11
-460.0666811184867
 21
2385.541302930989
 31
0.0
  0
LINE
  5
4163
330
415F
100
AcDbEntity
  8
DIM
 62
     0
370
    -2
100
AcDbLine
 10
-960.0666811000676
 20
2128.419502048963
 30
0.0
 11
-960.0666811000676
 21
2385.541302930989
 31
0.0
  0
LINE
  5
4164
330
415F
100
AcDbEntity
  8
DIM
 62
     0
370
    -2
100
AcDbLine
 10
-470.0666811184867
 20
2385.541302930989
 30
0.0
 11
-950.0666811000676
 21
2385.541302930989
 31
0.0
  0
INSERT
  5
4165
330
415F
100
AcDbEntity
  8
DIM
 62
     0
370
    -2
100
AcDbBlockReference
  2
_DOT
 10
-460.0666811184867
 20
2385.541302930989
 30
0.0
 41
10.0
 42
10.0
 43
10.0
  0
INSERT
  5
4166
330
415F
100
AcDbEntity
  8
DIM
 62
     0
370
    -2
100
AcDbBlockReference
  2
_DOT
 10
-960.0666811000676
 20
2385.541302930989
 30
0.0
 41
10.0
 42
10.0
 43
10.0
 50
180.0
  0
MTEXT
  5
4167
330
415F
100
AcDbEntity
  8
DIM
 62
     0
100
AcDbMText
 10
-710.0666811092776
 20
2417.541302930989
 30
0.0
 40
24.0
 41
0.0
 46
0.0
 71
     5
 72
     1
  1
\A1;500
  7
ＭＳ ゴシック
 73
     1
 44
1.0
  0
POINT
  5
4168
330
415F
100
AcDbEntity
  8
Defpoints
 62
     0
100
AcDbPoint
 10
-460.0666811184867
 20
2098.419502048963
 30
0.0
  0
POINT
  5
4169
330
415F
100
AcDbEntity
  8
Defpoints
 62
     0
100
AcDbPoint
 10
-960.0666811000676
 20
2098.419502048963
 30
0.0
  0
POINT
  5
416A
330
415F
100
AcDbEntity
  8
Defpoints
 62
     0
100
AcDbPoint
 10
-960.0666811000676
 20
2385.541302930989
 30
0.0
  0
ENDBLK
  5
4161
330
415F
100
AcDbEntity
  8
0
100
AcDbBlockEnd
  0
BLOCK
  5
48C9
330
48C8
100
AcDbEntity
  8
0
100
AcDbBlockBegin
  2
*D54
 70
     1
 10
0.0
 20
0.0
 30
0.0
  3
*D54
  1

  0
LINE
  5
48CB
330
48C8
100
AcDbEntity
  8
DIM
 62
     0
440
 33554687
370
    -2
100
AcDbLine
 10
2832.525842109215
 20
1236.061231849298
 30
0.0
 11
2832.525842109215
 21
1799.704684866142
 31
0.0
  0
LINE
  5
48CC
330
48C8
100
AcDbEntity
  8
DIM
 62
     0
440
 33554687
370
    -2
100
AcDbLine
 10
3332.525842122035
 20
1236.056436882096
 30
0.0
 11
3332.525842122035
 21
1799.704684866142
 31
0.0
  0
LINE
  5
48CD
330
48C8
100
AcDbEntity
  8
DIM
 62
     0
440
 33554687
370
    -2
100
AcDbLine
 10
2842.525842109215
 20
1799.704684866142
 30
0.0
 11
3322.525842122035
 21
1799.704684866142
 31
0.0
  0
INSERT
  5
48CE
330
48C8
100
AcDbEntity
  8
DIM
 62
     0
370
    -2
100
AcDbBlockReference
  2
_DOT
 10
2832.525842109215
 20
1799.704684866142
 30
0.0
 41
10.0
 42
10.0
 43
10.0
 50
180.0
  0
INSERT
  5
48CF
330
48C8
100
AcDbEntity
  8
DIM
 62
     0
370
    -2
100
AcDbBlockReference
  2
_DOT
 10
3332.525842122035
 20
1799.704684866142
 30
0.0
 41
10.0
 42
10.0
 43
10.0
  0
MTEXT
  5
48D0
330
48C8
100
AcDbEntity
  8
DIM
 62
     0
440
 33554687
100
AcDbMText
 10
3082.525842115625
 20
1831.704684866142
 30
0.0
 40
24.0
 41
0.0
 46
0.0
 71
     5
 72
     1
  1
\A1;500.00000001
  7
ＭＳ ゴシック
 73
     1
 44
1.0
  0
POINT
  5
48D1
330
48C8
100
AcDbEntity
  8
Defpoints
 62
     0
440
 33554687
100
AcDbPoint
 10
2832.525842109215
 20
1206.061231849298
 30
0.0
  0
POINT
  5
48D2
330
48C8
100
AcDbEntity
  8
Defpoints
 62
     0
440
 33554687
100
AcDbPoint
 10
3332.525842122035
 20
1206.056436882096
 30
0.0
  0
POINT
  5
48D3
330
48C8
100
AcDbEntity
  8
Defpoints
 62
     0
440
 33554687
100
AcDbPoint
 10
3332.525842122035
 20
1799.704684866142
 30
0.0
  0
ENDBLK
  5
48CA
330
48C8
100
AcDbEntity
  8
0
100
AcDbBlockEnd
  0
BLOCK
  5
48D8
330
48D7
100
AcDbEntity
  8
0
100
AcDbBlockBegin
  2
*D55
 70
     1
 10
0.0
 20
0.0
 30
0.0
  3
*D55
  1

  0
LINE
  5
48DA
330
48D7
100
AcDbEntity
  8
DIM
 62
     0
440
 33554687
370
    -2
100
AcDbLine
 10
3384.888370412918
 20
1183.697504816617
 30
0.0
 11
3485.334734332475
 21
1183.697504816617
 31
0.0
  0
LINE
  5
48DB
330
48D7
100
AcDbEntity
  8
DIM
 62
     0
440
 33554687
370
    -2
100
AcDbLine
 10
3384.888370412918
 20
784.1376827955532
 30
0.0
 11
3485.334734332475
 21
784.1376827955532
 31
0.0
  0
LINE
  5
48DC
330
48D7
100
AcDbEntity
  8
DIM
 62
     0
440
 33554687
370
    -2
100
AcDbLine
 10
3485.334734332475
 20
1173.697504816617
 30
0.0
 11
3485.334734332475
 21
794.1376827955532
 31
0.0
  0
INSERT
  5
48DD
330
48D7
100
AcDbEntity
  8
DIM
 62
     0
370
    -2
100
AcDbBlockReference
  2
_DOT
 10
3485.334734332475
 20
1183.697504816617
 30
0.0
 41
10.0
 42
10.0
 43
10.0
 50
90.0
  0
INSERT
  5
48DE
330
48D7
100
AcDbEntity
  8
DIM
 62
     0
370
    -2
100
AcDbBlockReference
  2
_DOT
 10
3485.334734332475
 20
784.1376827955532
 30
0.0
 41
10.0
 42
10.0
 43
10.0
 50
270.0
  0
MTEXT
  5
48DF
330
48D7
100
AcDbEntity
  8
DIM
 62
     0
440
 33554687
100
AcDbMText
 10
3453.334734332475
 20
983.9175938060853
 30
0.0
 40
24.0
 41
0.0
 46
0.0
 71
     5
 72
     1
  1
\A1;400
  7
ＭＳ ゴシック
 11
0.0
 21
1.0
 31
0.0
 73
     1
 44
1.0
  0
POINT
  5
48E0
330
48D7
100
AcDbEntity
  8
Defpoints
 62
     0
440
 33554687
100
AcDbPoint
 10
3354.888370412918
 20
1183.697504816617
 30
0.0
  0
POINT
  5
48E1
330
48D7
100
AcDbEntity
  8
Defpoints
 62
     0
440
 33554687
100
AcDbPoint
 10
3354.888370412918
 20
784.1376827955532
 30
0.0
  0
POINT
  5
48E2
330
48D7
100
AcDbEntity
  8
Defpoints
 62
     0
440
 33554687
100
AcDbPoint
 10
3485.334734332475
 20
784.1376827955532
 30
0.0
  0
ENDBLK
  5
48D9
330
48D7
100
AcDbEntity
  8
0
100
AcDbBlockEnd
  0
BLOCK
  5
48F1
330
48F0
100
AcDbEntity
  8
0
100
AcDbBlockBegin
  2
*D56
 70
     1
 10
0.0
 20
0.0
 30
0.0
  3
*D56
  1

  0
LINE
  5
48F3
330
48F0
100
AcDbEntity
  8
DIM
 62
     0
440
 33554687
370
    -2
100
AcDbLine
 10
384.6557209784037
 20
2339.55675999765
 30
0.0
 11
384.6557209784037
 21
2501.937312962673
 31
0.0
  0
LINE
  5
48F4
330
48F0
100
AcDbEntity
  8
DIM
 62
     0
440
 33554687
370
    -2
100
AcDbLine
 10
884.6557209912239
 20
2339.551965030447
 30
0.0
 11
884.6557209912239
 21
2501.937312962673
 31
0.0
  0
LINE
  5
48F5
330
48F0
100
AcDbEntity
  8
DIM
 62
     0
440
 33554687
370
    -2
100
AcDbLine
 10
394.6557209784037
 20
2501.937312962673
 30
0.0
 11
874.6557209912239
 21
2501.937312962673
 31
0.0
  0
INSERT
  5
48F6
330
48F0
100
AcDbEntity
  8
DIM
 62
     0
370
    -2
100
AcDbBlockReference
  2
_DOT
 10
384.6557209784037
 20
2501.937312962673
 30
0.0
 41
10.0
 42
10.0
 43
10.0
 50
180.0
  0
INSERT
  5
48F7
330
48F0
100
AcDbEntity
  8
DIM
 62
     0
370
    -2
100
AcDbBlockReference
  2
_DOT
 10
884.6557209912239
 20
2501.937312962673
 30
0.0
 41
10.0
 42
10.0
 43
10.0
  0
MTEXT
  5
48F8
330
48F0
100
AcDbEntity
  8
DIM
 62
     0
440
 33554687
100
AcDbMText
 10
634.6557209848138
 20
2533.937312962673
 30
0.0
 40
24.0
 41
0.0
 46
0.0
 71
     5
 72
     1
  1
\A1;500
  7
ＭＳ ゴシック
 73
     1
 44
1.0
  0
POINT
  5
48F9
330
48F0
100
AcDbEntity
  8
Defpoints
 62
     0
440
 33554687
100
AcDbPoint
 10
384.6557209784037
 20
2309.55675999765
 30
0.0
  0
POINT
  5
48FA
330
48F0
100
AcDbEntity
  8
Defpoints
 62
     0
440
 33554687
100
AcDbPoint
 10
884.6557209912239
 20
2309.551965030447
 30
0.0
  0
POINT
  5
48FB
330
48F0
100
AcDbEntity
  8
Defpoints
 62
     0
440
 33554687
100
AcDbPoint
 10
884.6557209912239
 20
2501.937312962673
 30
0.0
  0
ENDBLK
  5
48F2
330
48F0
100
AcDbEntity
  8
0
100
AcDbBlockEnd
  0
BLOCK
  5
4900
330
48FF
100
AcDbEntity
  8
0
100
AcDbBlockBegin
  2
*D57
 70
     1
 10
0.0
 20
0.0
 30
0.0
  3
*D57
  1

  0
LINE
  5
4902
330
48FF
100
AcDbEntity
  8
DIM
 62
     0
440
 33554687
370
    -2
100
AcDbLine
 10
827.1786561682279
 20
2423.047266553187
 30
0.0
 11
1023.434809741303
 21
2423.047266553187
 31
0.0
  0
LINE
  5
4903
330
48FF
100
AcDbEntity
  8
DIM
 62
     0
440
 33554687
370
    -2
100
AcDbLine
 10
827.1786561682279
 20
2023.487444532123
 30
0.0
 11
1023.434809741303
 21
2023.487444532123
 31
0.0
  0
LINE
  5
4904
330
48FF
100
AcDbEntity
  8
DIM
 62
     0
440
 33554687
370
    -2
100
AcDbLine
 10
1023.434809741303
 20
2413.047266553187
 30
0.0
 11
1023.434809741303
 21
2033.487444532123
 31
0.0
  0
INSERT
  5
4905
330
48FF
100
AcDbEntity
  8
DIM
 62
     0
370
    -2
100
AcDbBlockReference
  2
_DOT
 10
1023.434809741303
 20
2423.047266553187
 30
0.0
 41
10.0
 42
10.0
 43
10.0
 50
90.0
  0
INSERT
  5
4906
330
48FF
100
AcDbEntity
  8
DIM
 62
     0
370
    -2
100
AcDbBlockReference
  2
_DOT
 10
1023.434809741303
 20
2023.487444532123
 30
0.0
 41
10.0
 42
10.0
 43
10.0
 50
270.0
  0
MTEXT
  5
4907
330
48FF
100
AcDbEntity
  8
DIM
 62
     0
440
 33554687
100
AcDbMText
 10
991.4348097413034
 20
2223.267355542655
 30
0.0
 40
24.0
 41
0.0
 46
0.0
 71
     5
 72
     1
  1
\A1;400
  7
ＭＳ ゴシック
 11
0.0
 21
1.0
 31
0.0
 73
     1
 44
1.0
  0
POINT
  5
4908
330
48FF
100
AcDbEntity
  8
Defpoints
 62
     0
440
 33554687
100
AcDbPoint
 10
797.1786561682279
 20
2423.047266553187
 30
0.0
  0
POINT
  5
4909
330
48FF
100
AcDbEntity
  8
Defpoints
 62
     0
440
 33554687
100
AcDbPoint
 10
797.1786561682279
 20
2023.487444532123
 30
0.0
  0
POINT
  5
490A
330
48FF
100
AcDbEntity
  8
Defpoints
 62
     0
440
 33554687
100
AcDbPoint
 10
1023.434809741303
 20
2023.487444532123
 30
0.0
  0
ENDBLK
  5
4901
330
48FF
100
AcDbEntity
  8
0
100
AcDbBlockEnd
  0
BLOCK
  5
490F
330
490E
100
AcDbEntity
  8
0
100
AcDbBlockBegin
  2
*D58
 70
     1
 10
0.0
 20
0.0
 30
0.0
  3
*D58
  1

  0
LINE
  5
4911
330
490E
100
AcDbEntity
  8
DIM
 62
     0
440
 33554687
370
    -2
100
AcDbLine
 10
862.8709862482528
 20
1328.784699707272
 30
0.0
 11
862.8709862482528
 21
1438.448045127979
 31
0.0
  0
LINE
  5
4912
330
490E
100
AcDbEntity
  8
DIM
 62
     0
440
 33554687
370
    -2
100
AcDbLine
 10
375.4937373961357
 20
1328.784699707272
 30
0.0
 11
375.4937373961357
 21
1438.448045127979
 31
0.0
  0
LINE
  5
4913
330
490E
100
AcDbEntity
  8
DIM
 62
     0
440
 33554687
370
    -2
100
AcDbLine
 10
852.8709862482528
 20
1438.448045127979
 30
0.0
 11
385.4937373961357
 21
1438.448045127979
 31
0.0
  0
INSERT
  5
4914
330
490E
100
AcDbEntity
  8
DIM
 62
     0
370
    -2
100
AcDbBlockReference
  2
_DOT
 10
862.8709862482528
 20
1438.448045127979
 30
0.0
 41
10.0
 42
10.0
 43
10.0
  0
INSERT
  5
4915
330
490E
100
AcDbEntity
  8
DIM
 62
     0
370
    -2
100
AcDbBlockReference
  2
_DOT
 10
375.4937373961357
 20
1438.448045127979
 30
0.0
 41
10.0
 42
10.0
 43
10.0
 50
180.0
  0
MTEXT
  5
4916
330
490E
100
AcDbEntity
  8
DIM
 62
     0
440
 33554687
100
AcDbMText
 10
619.1823618221943
 20
1470.448045127979
 30
0.0
 40
24.0
 41
0.0
 46
0.0
 71
     5
 72
     1
  1
\A1;487
  7
ＭＳ ゴシック
 73
     1
 44
1.0
  0
POINT
  5
4917
330
490E
100
AcDbEntity
  8
Defpoints
 62
     0
440
 33554687
100
AcDbPoint
 10
862.8709862482528
 20
1298.784699707272
 30
0.0
  0
POINT
  5
4918
330
490E
100
AcDbEntity
  8
Defpoints
 62
     0
440
 33554687
100
AcDbPoint
 10
375.4937373961357
 20
1298.784699707272
 30
0.0
  0
POINT
  5
4919
330
490E
100
AcDbEntity
  8
Defpoints
 62
     0
440
 33554687
100
AcDbPoint
 10
375.4937373961357
 20
1438.448045127979
 30
0.0
  0
ENDBLK
  5
4910
330
490E
100
AcDbEntity
  8
0
100
AcDbBlockEnd
  0
BLOCK
  5
491E
330
491D
100
AcDbEntity
  8
0
100
AcDbBlockBegin
  2
*D59
 70
     1
 10
0.0
 20
0.0
 30
0.0
  3
*D59
  1

  0
LINE
  5
4920
330
491D
100
AcDbEntity
  8
DIM
 62
     0
440
 33554687
370
    -2
100
AcDbLine
 10
390.9615469450368
 20
1903.723318676106
 30
0.0
 11
390.9615469450368
 21
1663.611984722411
 31
0.0
  0
LINE
  5
4921
330
491D
100
AcDbEntity
  8
DIM
 62
     0
440
 33554687
370
    -2
100
AcDbLine
 10
878.451429102806
 20
1905.430719116867
 30
0.0
 11
878.451429102806
 21
1663.611984722411
 31
0.0
  0
LINE
  5
4922
330
491D
100
AcDbEntity
  8
DIM
 62
     0
440
 33554687
370
    -2
100
AcDbLine
 10
400.9615469450368
 20
1663.611984722411
 30
0.0
 11
868.451429102806
 21
1663.611984722411
 31
0.0
  0
INSERT
  5
4923
330
491D
100
AcDbEntity
  8
DIM
 62
     0
370
    -2
100
AcDbBlockReference
  2
_DOT
 10
390.9615469450368
 20
1663.611984722411
 30
0.0
 41
10.0
 42
10.0
 43
10.0
 50
180.0
  0
INSERT
  5
4924
330
491D
100
AcDbEntity
  8
DIM
 62
     0
370
    -2
100
AcDbBlockReference
  2
_DOT
 10
878.451429102806
 20
1663.611984722411
 30
0.0
 41
10.0
 42
10.0
 43
10.0
  0
MTEXT
  5
4925
330
491D
100
AcDbEntity
  8
DIM
 62
     0
440
 33554687
100
AcDbMText
 10
634.7064880239213
 20
1695.611984722411
 30
0.0
 40
24.0
 41
0.0
 46
0.0
 71
     5
 72
     1
  1
\A1;487
  7
ＭＳ ゴシック
 73
     1
 44
1.0
  0
POINT
  5
4926
330
491D
100
AcDbEntity
  8
Defpoints
 62
     0
440
 33554687
100
AcDbPoint
 10
390.9615469450368
 20
1933.723318676106
 30
0.0
  0
POINT
  5
4927
330
491D
100
AcDbEntity
  8
Defpoints
 62
     0
440
 33554687
100
AcDbPoint
 10
878.451429102806
 20
1935.430719116867
 30
0.0
  0
POINT
  5
4928
330
491D
100
AcDbEntity
  8
Defpoints
 62
     0
440
 33554687
100
AcDbPoint
 10
878.451429102806
 20
1663.611984722411
 30
0.0
  0
ENDBLK
  5
491F
330
491D
100
AcDbEntity
  8
0
100
AcDbBlockEnd
  0
BLOCK
  5
492B
330
492A
100
AcDbEntity
  8
0
100
AcDbBlockBegin
  2
*D60
 70
     1
 10
0.0
 20
0.0
 30
0.0
  3
*D60
  1

  0
LINE
  5
492D
330
492A
100
AcDbEntity
  8
DIM
 62
     0
440
 33554687
370
    -2
100
AcDbLine
 10
391.1542264107712
 20
2121.728771841447
 30
0.0
 11
391.1542264107712
 21
1891.51822681033
 31
0.0
  0
LINE
  5
492E
330
492A
100
AcDbEntity
  8
DIM
 62
     0
440
 33554687
370
    -2
100
AcDbLine
 10
879.1542264107713
 20
2121.728771841447
 30
0.0
 11
879.1542264107713
 21
1891.51822681033
 31
0.0
  0
LINE
  5
492F
330
492A
100
AcDbEntity
  8
DIM
 62
     0
440
 33554687
370
    -2
100
AcDbLine
 10
401.1542264107712
 20
1891.51822681033
 30
0.0
 11
869.1542264107713
 21
1891.51822681033
 31
0.0
  0
INSERT
  5
4930
330
492A
100
AcDbEntity
  8
DIM
 62
     0
370
    -2
100
AcDbBlockReference
  2
_DOT
 10
391.1542264107712
 20
1891.51822681033
 30
0.0
 41
10.0
 42
10.0
 43
10.0
 50
180.0
  0
INSERT
  5
4931
330
492A
100
AcDbEntity
  8
DIM
 62
     0
370
    -2
100
AcDbBlockReference
  2
_DOT
 10
879.1542264107713
 20
1891.51822681033
 30
0.0
 41
10.0
 42
10.0
 43
10.0
  0
MTEXT
  5
4932
330
492A
100
AcDbEntity
  8
DIM
 62
     0
440
 33554687
100
AcDbMText
 10
635.1542264107713
 20
1923.51822681033
 30
0.0
 40
24.0
 41
0.0
 46
0.0
 71
     5
 72
     1
  1
\A1;488
  7
ＭＳ ゴシック
 73
     1
 44
1.0
  0
POINT
  5
4933
330
492A
100
AcDbEntity
  8
Defpoints
 62
     0
440
 33554687
100
AcDbPoint
 10
391.1542264107712
 20
2151.728771841447
 30
0.0
  0
POINT
  5
4934
330
492A
100
AcDbEntity
  8
Defpoints
 62
     0
440
 33554687
100
AcDbPoint
 10
879.1542264107713
 20
2151.728771841447
 30
0.0
  0
POINT
  5
4935
330
492A
100
AcDbEntity
  8
Defpoints
 62
     0
440
 33554687
100
AcDbPoint
 10
879.1542264107713
 20
1891.51822681033
 30
0.0
  0
ENDBLK
  5
492C
330
492A
100
AcDbEntity
  8
0
100
AcDbBlockEnd
  0
BLOCK
  5
4938
330
4937
100
AcDbEntity
  8
0
100
AcDbBlockBegin
  2
*D61
 70
     1
 10
0.0
 20
0.0
 30
0.0
  3
*D61
  1

  0
LINE
  5
493A
330
4937
100
AcDbEntity
  8
DIM
 62
     0
440
 33554687
370
    -2
100
AcDbLine
 10
494.5704664651307
 20
2417.0487625828
 30
0.0
 11
277.6817828102286
 21
2417.0487625828
 31
0.0
  0
LINE
  5
493B
330
4937
100
AcDbEntity
  8
DIM
 62
     0
440
 33554687
370
    -2
100
AcDbLine
 10
494.5704664651307
 20
2030.0487625828
 30
0.0
 11
277.6817828102286
 21
2030.0487625828
 31
0.0
  0
LINE
  5
493C
330
4937
100
AcDbEntity
  8
DIM
 62
     0
440
 33554687
370
    -2
100
AcDbLine
 10
277.6817828102286
 20
2407.0487625828
 30
0.0
 11
277.6817828102286
 21
2040.0487625828
 31
0.0
  0
INSERT
  5
493D
330
4937
100
AcDbEntity
  8
DIM
 62
     0
370
    -2
100
AcDbBlockReference
  2
_DOT
 10
277.6817828102286
 20
2417.0487625828
 30
0.0
 41
10.0
 42
10.0
 43
10.0
 50
90.0
  0
INSERT
  5
493E
330
4937
100
AcDbEntity
  8
DIM
 62
     0
370
    -2
100
AcDbBlockReference
  2
_DOT
 10
277.6817828102286
 20
2030.0487625828
 30
0.0
 41
10.0
 42
10.0
 43
10.0
 50
270.0
  0
MTEXT
  5
493F
330
4937
100
AcDbEntity
  8
DIM
 62
     0
440
 33554687
100
AcDbMText
 10
245.6817828102286
 20
2223.5487625828
 30
0.0
 40
24.0
 41
0.0
 46
0.0
 71
     5
 72
     1
  1
\A1;387
  7
ＭＳ ゴシック
 11
0.0
 21
1.0
 31
0.0
 73
     1
 44
1.0
  0
POINT
  5
4940
330
4937
100
AcDbEntity
  8
Defpoints
 62
     0
440
 33554687
100
AcDbPoint
 10
524.5704664651307
 20
2417.0487625828
 30
0.0
  0
POINT
  5
4941
330
4937
100
AcDbEntity
  8
Defpoints
 62
     0
440
 33554687
100
AcDbPoint
 10
524.5704664651307
 20
2030.0487625828
 30
0.0
  0
POINT
  5
4942
330
4937
100
AcDbEntity
  8
Defpoints
 62
     0
440
 33554687
100
AcDbPoint
 10
277.6817828102286
 20
2030.0487625828
 30
0.0
  0
ENDBLK
  5
4939
330
4937
100
AcDbEntity
  8
0
100
AcDbBlockEnd
  0
BLOCK
  5
4945
330
4944
100
AcDbEntity
  8
0
100
AcDbBlockBegin
  2
*D62
 70
     1
 10
0.0
 20
0.0
 30
0.0
  3
*D62
  1

  0
LINE
  5
4947
330
4944
100
AcDbEntity
  8
DIM
 62
     0
440
 33554687
370
    -2
100
AcDbLine
 10
1554.144827733965
 20
736.6067218563829
 30
0.0
 11
1554.144827733965
 21
657.8653960160286
 31
0.0
  0
LINE
  5
4948
330
4944
100
AcDbEntity
  8
DIM
 62
     0
440
 33554687
370
    -2
100
AcDbLine
 10
1691.144827733965
 20
736.6067218563829
 30
0.0
 11
1691.144827733965
 21
657.8653960160286
 31
0.0
  0
LINE
  5
4949
330
4944
100
AcDbEntity
  8
DIM
 62
     0
440
 33554687
370
    -2
100
AcDbLine
 10
1564.144827733965
 20
657.8653960160286
 30
0.0
 11
1681.144827733965
 21
657.8653960160286
 31
0.0
  0
INSERT
  5
494A
330
4944
100
AcDbEntity
  8
DIM
 62
     0
370
    -2
100
AcDbBlockReference
  2
_DOT
 10
1554.144827733965
 20
657.8653960160286
 30
0.0
 41
10.0
 42
10.0
 43
10.0
 50
180.0
  0
INSERT
  5
494B
330
4944
100
AcDbEntity
  8
DIM
 62
     0
370
    -2
100
AcDbBlockReference
  2
_DOT
 10
1691.144827733965
 20
657.8653960160286
 30
0.0
 41
10.0
 42
10.0
 43
10.0
  0
MTEXT
  5
494C
330
4944
100
AcDbEntity
  8
DIM
 62
     0
440
 33554687
100
AcDbMText
 10
1622.644827733965
 20
689.8653960160286
 30
0.0
 40
24.0
 41
0.0
 46
0.0
 71
     5
 72
     1
  1
\A1;137
  7
ＭＳ ゴシック
 73
     1
 44
1.0
  0
POINT
  5
494D
330
4944
100
AcDbEntity
  8
Defpoints
 62
     0
440
 33554687
100
AcDbPoint
 10
1554.144827733965
 20
766.6067218563829
 30
0.0
  0
POINT
  5
494E
330
4944
100
AcDbEntity
  8
Defpoints
 62
     0
440
 33554687
100
AcDbPoint
 10
1691.144827733965
 20
766.6067218563829
 30
0.0
  0
POINT
  5
494F
330
4944
100
AcDbEntity
  8
Defpoints
 62
     0
440
 33554687
100
AcDbPoint
 10
1691.144827733965
 20
657.8653960160286
 30
0.0
  0
ENDBLK
  5
4946
330
4944
100
AcDbEntity
  8
0
100
AcDbBlockEnd
  0
BLOCK
  5
4952
330
4951
100
AcDbEntity
  8
0
100
AcDbBlockBegin
  2
*D63
 70
     1
 10
0.0
 20
0.0
 30
0.0
  3
*D63
  1

  0
LINE
  5
4954
330
4951
100
AcDbEntity
  8
DIM
 62
     0
440
 33554687
370
    -2
100
AcDbLine
 10
619.1823618221928
 20
943.1676970242313
 30
0.0
 11
619.1823618221928
 21
890.2136886404251
 31
0.0
  0
LINE
  5
4955
330
4951
100
AcDbEntity
  8
DIM
 62
     0
440
 33554687
370
    -2
100
AcDbLine
 10
432.1823618221924
 20
994.8496213746662
 30
0.0
 11
432.1823618221924
 21
890.2136886404251
 31
0.0
  0
LINE
  5
4956
330
4951
100
AcDbEntity
  8
DIM
 62
     0
440
 33554687
370
    -2
100
AcDbLine
 10
609.1823618221928
 20
890.2136886404251
 30
0.0
 11
442.1823618221924
 21
890.2136886404251
 31
0.0
  0
INSERT
  5
4957
330
4951
100
AcDbEntity
  8
DIM
 62
     0
370
    -2
100
AcDbBlockReference
  2
_DOT
 10
619.1823618221928
 20
890.2136886404251
 30
0.0
 41
10.0
 42
10.0
 43
10.0
  0
INSERT
  5
4958
330
4951
100
AcDbEntity
  8
DIM
 62
     0
370
    -2
100
AcDbBlockReference
  2
_DOT
 10
432.1823618221924
 20
890.2136886404251
 30
0.0
 41
10.0
 42
10.0
 43
10.0
 50
180.0
  0
MTEXT
  5
4959
330
4951
100
AcDbEntity
  8
DIM
 62
     0
440
 33554687
100
AcDbMText
 10
525.6823618221925
 20
922.2136886404251
 30
0.0
 40
24.0
 41
0.0
 46
0.0
 71
     5
 72
     1
  1
\A1;187
  7
ＭＳ ゴシック
 73
     1
 44
1.0
  0
POINT
  5
495A
330
4951
100
AcDbEntity
  8
Defpoints
 62
     0
440
 33554687
100
AcDbPoint
 10
619.1823618221928
 20
973.1676970242313
 30
0.0
  0
POINT
  5
495B
330
4951
100
AcDbEntity
  8
Defpoints
 62
     0
440
 33554687
100
AcDbPoint
 10
432.1823618221924
 20
1024.849621374666
 30
0.0
  0
POINT
  5
495C
330
4951
100
AcDbEntity
  8
Defpoints
 62
     0
440
 33554687
100
AcDbPoint
 10
432.1823618221924
 20
890.2136886404251
 30
0.0
  0
ENDBLK
  5
4953
330
4951
100
AcDbEntity
  8
0
100
AcDbBlockEnd
  0
BLOCK
  5
4962
330
4961
100
AcDbEntity
  8
0
100
AcDbBlockBegin
  2
*D64
 70
     1
 10
0.0
 20
0.0
 30
0.0
  3
*D64
  1

  0
LINE
  5
4964
330
4961
100
AcDbEntity
  8
DIM
 62
     0
440
 33554687
370
    -2
100
AcDbLine
 10
1524.144827733965
 20
1324.707690353164
 30
0.0
 11
1554.144827733965
 21
1324.707690353164
 31
0.0
  0
LINE
  5
4965
330
4961
100
AcDbEntity
  8
DIM
 62
     0
440
 33554687
370
    -2
100
AcDbLine
 10
1584.142430250363
 20
1059.230734958731
 30
0.0
 11
1554.144827733965
 21
1059.230734958731
 31
0.0
  0
LINE
  5
4966
330
4961
100
AcDbEntity
  8
DIM
 62
     0
440
 33554687
370
    -2
100
AcDbLine
 10
1554.144827733965
 20
1324.707690353164
 30
0.0
 11
1554.144827733965
 21
1516.323690353164
 31
0.0
  0
LINE
  5
4967
330
4961
100
AcDbEntity
  8
DIM
 62
     0
440
 33554687
370
    -2
100
AcDbLine
 10
1554.144827733965
 20
1314.707690353164
 30
0.0
 11
1554.144827733965
 21
1069.230734958731
 31
0.0
  0
LINE
  5
4968
330
4961
100
AcDbEntity
  8
DIM
 62
     0
440
 33554687
370
    -2
100
AcDbLine
 10
1554.144827733965
 20
1314.707690353164
 30
0.0
 11
1554.144827733965
 21
1304.707690353164
 31
0.0
  0
INSERT
  5
4969
330
4961
100
AcDbEntity
  8
DIM
 62
     0
370
    -2
100
AcDbBlockReference
  2
_DOT
 10
1554.144827733965
 20
1324.707690353164
 30
0.0
 41
10.0
 42
10.0
 43
10.0
 50
90.0
  0
INSERT
  5
496A
330
4961
100
AcDbEntity
  8
DIM
 62
     0
370
    -2
100
AcDbBlockReference
  2
_DOT
 10
1554.144827733965
 20
1059.230734958731
 30
0.0
 41
10.0
 42
10.0
 43
10.0
 50
270.0
  0
MTEXT
  5
496B
330
4961
100
AcDbEntity
  8
DIM
 62
     0
440
 33554687
100
AcDbMText
 10
1520.020827733965
 20
1430.515690353164
 30
0.0
 40
24.0
 41
0.0
 46
0.0
 71
     5
 72
     1
  1
\A1;266(深さ)
  7
ＭＳ ゴシック
 11
0.0
 21
1.0
 31
0.0
 73
     1
 44
1.0
  0
POINT
  5
496C
330
4961
100
AcDbEntity
  8
Defpoints
 62
     0
440
 33554687
100
AcDbPoint
 10
1554.144827733965
 20
1324.707690353164
 30
0.0
  0
POINT
  5
496D
330
4961
100
AcDbEntity
  8
Defpoints
 62
     0
440
 33554687
100
AcDbPoint
 10
1554.142430250363
 20
1059.230734958731
 30
0.0
  0
POINT
  5
496E
330
4961
100
AcDbEntity
  8
Defpoints
 62
     0
440
 33554687
100
AcDbPoint
 10
1554.144827733965
 20
1059.230734958731
 30
0.0
  0
ENDBLK
  5
4963
330
4961
100
AcDbEntity
  8
0
100
AcDbBlockEnd
  0
BLOCK
  5
49B2
330
49B1
100
AcDbEntity
  8
0
100
AcDbBlockBegin
  2
*D65
 70
     1
 10
0.0
 20
0.0
 30
0.0
  3
*D65
  1

  0
LINE
  5
49B4
330
49B1
100
AcDbEntity
  8
DIM
 62
     0
440
 33554687
370
    -2
100
AcDbLine
 10
1262.360503149631
 20
2233.725234532464
 30
0.0
 11
1262.360503149631
 21
2396.105787497487
 31
0.0
  0
LINE
  5
49B5
330
49B1
100
AcDbEntity
  8
DIM
 62
     0
440
 33554687
370
    -2
100
AcDbLine
 10
1762.360503162451
 20
2233.720439565261
 30
0.0
 11
1762.360503162451
 21
2396.105787497487
 31
0.0
  0
LINE
  5
49B6
330
49B1
100
AcDbEntity
  8
DIM
 62
     0
440
 33554687
370
    -2
100
AcDbLine
 10
1272.360503149631
 20
2396.105787497487
 30
0.0
 11
1752.360503162451
 21
2396.105787497487
 31
0.0
  0
INSERT
  5
49B7
330
49B1
100
AcDbEntity
  8
DIM
 62
     0
370
    -2
100
AcDbBlockReference
  2
_DOT
 10
1262.360503149631
 20
2396.105787497487
 30
0.0
 41
10.0
 42
10.0
 43
10.0
 50
180.0
  0
INSERT
  5
49B8
330
49B1
100
AcDbEntity
  8
DIM
 62
     0
370
    -2
100
AcDbBlockReference
  2
_DOT
 10
1762.360503162451
 20
2396.105787497487
 30
0.0
 41
10.0
 42
10.0
 43
10.0
  0
MTEXT
  5
49B9
330
49B1
100
AcDbEntity
  8
DIM
 62
     0
440
 33554687
100
AcDbMText
 10
1512.360503156041
 20
2428.105787497487
 30
0.0
 40
24.0
 41
0.0
 46
0.0
 71
     5
 72
     1
  1
\A1;500
  7
ＭＳ ゴシック
 73
     1
 44
1.0
  0
POINT
  5
49BA
330
49B1
100
AcDbEntity
  8
Defpoints
 62
     0
440
 33554687
100
AcDbPoint
 10
1262.360503149631
 20
2203.725234532464
 30
0.0
  0
POINT
  5
49BB
330
49B1
100
AcDbEntity
  8
Defpoints
 62
     0
440
 33554687
100
AcDbPoint
 10
1762.360503162451
 20
2203.720439565261
 30
0.0
  0
POINT
  5
49BC
330
49B1
100
AcDbEntity
  8
Defpoints
 62
     0
440
 33554687
100
AcDbPoint
 10
1762.360503162451
 20
2396.105787497487
 30
0.0
  0
ENDBLK
  5
49B3
330
49B1
100
AcDbEntity
  8
0
100
AcDbBlockEnd
  0
BLOCK
  5
49BE
330
49BD
100
AcDbEntity
  8
0
100
AcDbBlockBegin
  2
*D66
 70
     1
 10
0.0
 20
0.0
 30
0.0
  3
*D66
  1

  0
LINE
  5
49C0
330
49BD
100
AcDbEntity
  8
DIM
 62
     0
440
 33554687
370
    -2
100
AcDbLine
 10
1704.883438339455
 20
2317.215741088002
 30
0.0
 11
1901.13959191253
 21
2317.215741088002
 31
0.0
  0
LINE
  5
49C1
330
49BD
100
AcDbEntity
  8
DIM
 62
     0
440
 33554687
370
    -2
100
AcDbLine
 10
1704.883438339455
 20
1917.655919066938
 30
0.0
 11
1901.13959191253
 21
1917.655919066938
 31
0.0
  0
LINE
  5
49C2
330
49BD
100
AcDbEntity
  8
DIM
 62
     0
440
 33554687
370
    -2
100
AcDbLine
 10
1901.13959191253
 20
2307.215741088002
 30
0.0
 11
1901.13959191253
 21
1927.655919066938
 31
0.0
  0
INSERT
  5
49C3
330
49BD
100
AcDbEntity
  8
DIM
 62
     0
370
    -2
100
AcDbBlockReference
  2
_DOT
 10
1901.13959191253
 20
2317.215741088002
 30
0.0
 41
10.0
 42
10.0
 43
10.0
 50
90.0
  0
INSERT
  5
49C4
330
49BD
100
AcDbEntity
  8
DIM
 62
     0
370
    -2
100
AcDbBlockReference
  2
_DOT
 10
1901.13959191253
 20
1917.655919066938
 30
0.0
 41
10.0
 42
10.0
 43
10.0
 50
270.0
  0
MTEXT
  5
49C5
330
49BD
100
AcDbEntity
  8
DIM
 62
     0
440
 33554687
100
AcDbMText
 10
1869.13959191253
 20
2117.43583007747
 30
0.0
 40
24.0
 41
0.0
 46
0.0
 71
     5
 72
     1
  1
\A1;400
  7
ＭＳ ゴシック
 11
0.0
 21
1.0
 31
0.0
 73
     1
 44
1.0
  0
POINT
  5
49C6
330
49BD
100
AcDbEntity
  8
Defpoints
 62
     0
440
 33554687
100
AcDbPoint
 10
1674.883438339455
 20
2317.215741088002
 30
0.0
  0
POINT
  5
49C7
330
49BD
100
AcDbEntity
  8
Defpoints
 62
     0
440
 33554687
100
AcDbPoint
 10
1674.883438339455
 20
1917.655919066938
 30
0.0
  0
POINT
  5
49C8
330
49BD
100
AcDbEntity
  8
Defpoints
 62
     0
440
 33554687
100
AcDbPoint
 10
1901.13959191253
 20
1917.655919066938
 30
0.0
  0
ENDBLK
  5
49BF
330
49BD
100
AcDbEntity
  8
0
100
AcDbBlockEnd
  0
BLOCK
  5
49CA
330
49C9
100
AcDbEntity
  8
0
100
AcDbBlockBegin
  2
*D67
 70
     1
 10
0.0
 20
0.0
 30
0.0
  3
*D67
  1

  0
LINE
  5
49CC
330
49C9
100
AcDbEntity
  8
DIM
 62
     0
440
 33554687
370
    -2
100
AcDbLine
 10
1268.859008581999
 20
2015.897246376261
 30
0.0
 11
1268.859008581999
 21
1785.686701345144
 31
0.0
  0
LINE
  5
49CD
330
49C9
100
AcDbEntity
  8
DIM
 62
     0
440
 33554687
370
    -2
100
AcDbLine
 10
1756.859008581999
 20
2015.897246376261
 30
0.0
 11
1756.859008581999
 21
1785.686701345144
 31
0.0
  0
LINE
  5
49CE
330
49C9
100
AcDbEntity
  8
DIM
 62
     0
440
 33554687
370
    -2
100
AcDbLine
 10
1278.859008581999
 20
1785.686701345144
 30
0.0
 11
1746.859008581999
 21
1785.686701345144
 31
0.0
  0
INSERT
  5
49CF
330
49C9
100
AcDbEntity
  8
DIM
 62
     0
370
    -2
100
AcDbBlockReference
  2
_DOT
 10
1268.859008581999
 20
1785.686701345144
 30
0.0
 41
10.0
 42
10.0
 43
10.0
 50
180.0
  0
INSERT
  5
49D0
330
49C9
100
AcDbEntity
  8
DIM
 62
     0
370
    -2
100
AcDbBlockReference
  2
_DOT
 10
1756.859008581999
 20
1785.686701345144
 30
0.0
 41
10.0
 42
10.0
 43
10.0
  0
MTEXT
  5
49D1
330
49C9
100
AcDbEntity
  8
DIM
 62
     0
440
 33554687
100
AcDbMText
 10
1512.859008581999
 20
1817.686701345144
 30
0.0
 40
24.0
 41
0.0
 46
0.0
 71
     5
 72
     1
  1
\A1;488
  7
ＭＳ ゴシック
 73
     1
 44
1.0
  0
POINT
  5
49D2
330
49C9
100
AcDbEntity
  8
Defpoints
 62
     0
440
 33554687
100
AcDbPoint
 10
1268.859008581999
 20
2045.897246376261
 30
0.0
  0
POINT
  5
49D3
330
49C9
100
AcDbEntity
  8
Defpoints
 62
     0
440
 33554687
100
AcDbPoint
 10
1756.859008581999
 20
2045.897246376261
 30
0.0
  0
POINT
  5
49D4
330
49C9
100
AcDbEntity
  8
Defpoints
 62
     0
440
 33554687
100
AcDbPoint
 10
1756.859008581999
 20
1785.686701345144
 30
0.0
  0
ENDBLK
  5
49CB
330
49C9
100
AcDbEntity
  8
0
100
AcDbBlockEnd
  0
BLOCK
  5
49D6
330
49D5
100
AcDbEntity
  8
0
100
AcDbBlockBegin
  2
*D68
 70
     1
 10
0.0
 20
0.0
 30
0.0
  3
*D68
  1

  0
LINE
  5
49D8
330
49D5
100
AcDbEntity
  8
DIM
 62
     0
440
 33554687
370
    -2
100
AcDbLine
 10
1372.275248636358
 20
2311.217237117615
 30
0.0
 11
1155.386564981456
 21
2311.217237117615
 31
0.0
  0
LINE
  5
49D9
330
49D5
100
AcDbEntity
  8
DIM
 62
     0
440
 33554687
370
    -2
100
AcDbLine
 10
1372.275248636358
 20
1924.217237117615
 30
0.0
 11
1155.386564981456
 21
1924.217237117615
 31
0.0
  0
LINE
  5
49DA
330
49D5
100
AcDbEntity
  8
DIM
 62
     0
440
 33554687
370
    -2
100
AcDbLine
 10
1155.386564981456
 20
2301.217237117615
 30
0.0
 11
1155.386564981456
 21
1934.217237117615
 31
0.0
  0
INSERT
  5
49DB
330
49D5
100
AcDbEntity
  8
DIM
 62
     0
370
    -2
100
AcDbBlockReference
  2
_DOT
 10
1155.386564981456
 20
2311.217237117615
 30
0.0
 41
10.0
 42
10.0
 43
10.0
 50
90.0
  0
INSERT
  5
49DC
330
49D5
100
AcDbEntity
  8
DIM
 62
     0
370
    -2
100
AcDbBlockReference
  2
_DOT
 10
1155.386564981456
 20
1924.217237117615
 30
0.0
 41
10.0
 42
10.0
 43
10.0
 50
270.0
  0
MTEXT
  5
49DD
330
49D5
100
AcDbEntity
  8
DIM
 62
     0
440
 33554687
100
AcDbMText
 10
1123.386564981456
 20
2117.717237117615
 30
0.0
 40
24.0
 41
0.0
 46
0.0
 71
     5
 72
     1
  1
\A1;387
  7
ＭＳ ゴシック
 11
0.0
 21
1.0
 31
0.0
 73
     1
 44
1.0
  0
POINT
  5
49DE
330
49D5
100
AcDbEntity
  8
Defpoints
 62
     0
440
 33554687
100
AcDbPoint
 10
1402.275248636358
 20
2311.217237117615
 30
0.0
  0
POINT
  5
49DF
330
49D5
100
AcDbEntity
  8
Defpoints
 62
     0
440
 33554687
100
AcDbPoint
 10
1402.275248636358
 20
1924.217237117615
 30
0.0
  0
POINT
  5
49E0
330
49D5
100
AcDbEntity
  8
Defpoints
 62
     0
440
 33554687
100
AcDbPoint
 10
1155.386564981456
 20
1924.217237117615
 30
0.0
  0
ENDBLK
  5
49D7
330
49D5
100
AcDbEntity
  8
0
100
AcDbBlockEnd
  0
BLOCK
  5
4B1F
330
4B1E
100
AcDbEntity
  8
0
100
AcDbBlockBegin
  2
*D69
 70
     1
 10
0.0
 20
0.0
 30
0.0
  3
*D69
  1

  0
LINE
  5
4B20
330
4B1E
100
AcDbEntity
  8
DIM
 62
     0
440
 33554687
370
    -2
100
AcDbLine
 10
32.37315565072299
 20
79.52405372406542
 30
0.0
 11
32.37315565072299
 21
48.25999999999999
 31
0.0
  0
LINE
  5
4B21
330
4B1E
100
AcDbEntity
  8
DIM
 62
     0
440
 33554687
370
    -2
100
AcDbLine
 10
73.87484434927705
 20
79.52405372406542
 30
0.0
 11
73.87484434927705
 21
48.25999999999999
 31
0.0
  0
LINE
  5
4B22
330
4B1E
100
AcDbEntity
  8
DIM
 62
     0
440
 33554687
370
    -2
100
AcDbLine
 10
42.37315565072299
 20
48.25999999999999
 30
0.0
 11
63.87484434927705
 21
48.25999999999999
 31
0.0
  0
INSERT
  5
4B23
330
4B1E
100
AcDbEntity
  8
DIM
 62
     0
370
    -2
100
AcDbBlockReference
  2
_DOT
 10
32.37315565072299
 20
48.25999999999999
 30
0.0
 41
10.0
 42
10.0
 43
10.0
 50
180.0
  0
INSERT
  5
4B24
330
4B1E
100
AcDbEntity
  8
DIM
 62
     0
370
    -2
100
AcDbBlockReference
  2
_DOT
 10
73.87484434927705
 20
48.25999999999999
 30
0.0
 41
10.0
 42
10.0
 43
10.0
  0
MTEXT
  5
4B25
330
4B1E
100
AcDbEntity
  8
DIM
 62
     0
440
 33554687
100
AcDbMText
 10
53.12400000000002
 20
13.70399999999999
 30
0.0
 40
24.0
 41
0.0
 46
0.0
 71
     5
 72
     1
  1
\A1;G1 1/4"
  7
ＭＳ ゴシック
 73
     1
 44
1.0
  0
POINT
  5
4B26
330
4B1E
100
AcDbEntity
  8
Defpoints
 62
     0
440
 33554687
100
AcDbPoint
 10
32.37315565072299
 20
109.5240537240654
 30
0.0
  0
POINT
  5
4B27
330
4B1E
100
AcDbEntity
  8
Defpoints
 62
     0
440
 33554687
100
AcDbPoint
 10
73.87484434927705
 20
109.5240537240654
 30
0.0
  0
POINT
  5
4B28
330
4B1E
100
AcDbEntity
  8
Defpoints
 62
     0
440
 33554687
100
AcDbPoint
 10
73.87484434927705
 20
48.25999999999999
 30
0.0
  0
ENDBLK
  5
4B29
330
4B1E
100
AcDbEntity
  8
0
100
AcDbBlockEnd
  0
BLOCK
  5
4B8B
330
4B8A
100
AcDbEntity
  8
0
100
AcDbBlockBegin
  2
*D70
 70
     1
 10
0.0
 20
0.0
 30
0.0
  3
*D70
  1

  0
LINE
  5
4B8D
330
4B8A
100
AcDbEntity
  8
DIM
 62
     0
440
 33554687
370
    -2
100
AcDbLine
 10
1533.392926914038
 20
958.9382625285496
 30
0.0
 11
1533.392926914038
 21
927.6742088044841
 31
0.0
  0
LINE
  5
4B8E
330
4B8A
100
AcDbEntity
  8
DIM
 62
     0
440
 33554687
370
    -2
100
AcDbLine
 10
1574.894615612592
 20
958.9382625285496
 30
0.0
 11
1574.894615612592
 21
927.6742088044841
 31
0.0
  0
LINE
  5
4B8F
330
4B8A
100
AcDbEntity
  8
DIM
 62
     0
440
 33554687
370
    -2
100
AcDbLine
 10
1543.392926914038
 20
927.6742088044841
 30
0.0
 11
1564.894615612592
 21
927.6742088044841
 31
0.0
  0
INSERT
  5
4B90
330
4B8A
100
AcDbEntity
  8
DIM
 62
     0
370
    -2
100
AcDbBlockReference
  2
_DOT
 10
1533.392926914038
 20
927.6742088044841
 30
0.0
 41
10.0
 42
10.0
 43
10.0
 50
180.0
  0
INSERT
  5
4B91
330
4B8A
100
AcDbEntity
  8
DIM
 62
     0
370
    -2
100
AcDbBlockReference
  2
_DOT
 10
1574.894615612592
 20
927.6742088044841
 30
0.0
 41
10.0
 42
10.0
 43
10.0
  0
MTEXT
  5
4B92
330
4B8A
100
AcDbEntity
  8
DIM
 62
     0
440
 33554687
100
AcDbMText
 10
1554.143771263315
 20
893.1182088044841
 30
0.0
 40
24.0
 41
0.0
 46
0.0
 71
     5
 72
     1
  1
\A1;G1 1/4"
  7
ＭＳ ゴシック
 73
     1
 44
1.0
  0
POINT
  5
4B93
330
4B8A
100
AcDbEntity
  8
Defpoints
 62
     0
440
 33554687
100
AcDbPoint
 10
1533.392926914038
 20
988.9382625285496
 30
0.0
  0
POINT
  5
4B94
330
4B8A
100
AcDbEntity
  8
Defpoints
 62
     0
440
 33554687
100
AcDbPoint
 10
1574.894615612592
 20
988.9382625285496
 30
0.0
  0
POINT
  5
4B95
330
4B8A
100
AcDbEntity
  8
Defpoints
 62
     0
440
 33554687
100
AcDbPoint
 10
1574.894615612592
 20
927.6742088044841
 30
0.0
  0
ENDBLK
  5
4B8C
330
4B8A
100
AcDbEntity
  8
0
100
AcDbBlockEnd
  0
BLOCK
  5
4C1F
330
4C1E
100
AcDbEntity
  8
0
100
AcDbBlockBegin
  2
*D71
 70
     1
 10
0.0
 20
0.0
 30
0.0
  3
*D71
  1

  0
LINE
  5
4C20
330
4C1E
100
AcDbEntity
  8
DIM
 62
     0
440
 33554687
370
    -2
100
AcDbLine
 10
152.9047595609889
 20
40.0
 30
0.0
 11
224.0755773849739
 21
39.99999999999999
 31
0.0
  0
LINE
  5
4C21
330
4C1E
100
AcDbEntity
  8
DIM
 62
     0
440
 33554687
370
    -2
100
AcDbLine
 10
97.08836427565393
 20
4.999999999999998
 30
0.0
 11
224.0755773849739
 21
4.999999999999989
 31
0.0
  0
LINE
  5
4C22
330
4C1E
100
AcDbEntity
  8
DIM
 62
     0
440
 33554687
370
    -2
100
AcDbLine
 10
224.0755773849739
 20
29.99999999999999
 30
0.0
 11
224.0755773849739
 21
14.99999999999999
 31
0.0
  0
INSERT
  5
4C23
330
4C1E
100
AcDbEntity
  8
DIM
 62
     0
370
    -2
100
AcDbBlockReference
  2
_DOT
 10
224.0755773849739
 20
39.99999999999999
 30
0.0
 41
10.0
 42
10.0
 43
10.0
 50
90.0
  0
INSERT
  5
4C24
330
4C1E
100
AcDbEntity
  8
DIM
 62
     0
370
    -2
100
AcDbBlockReference
  2
_DOT
 10
224.0755773849739
 20
4.999999999999989
 30
0.0
 41
10.0
 42
10.0
 43
10.0
 50
270.0
  0
MTEXT
  5
4C25
330
4C1E
100
AcDbEntity
  8
DIM
 62
     0
440
 33554687
100
AcDbMText
 10
192.0755773849739
 20
22.5
 30
0.0
 40
24.0
 41
0.0
 46
0.0
 71
     5
 72
     1
  1
\A1;35
  7
ＭＳ ゴシック
 11
0.0
 21
1.0
 31
0.0
 73
     1
 44
1.0
  0
POINT
  5
4C26
330
4C1E
100
AcDbEntity
  8
Defpoints
 62
     0
440
 33554687
100
AcDbPoint
 10
122.9047595609889
 20
40.0
 30
0.0
  0
POINT
  5
4C27
330
4C1E
100
AcDbEntity
  8
Defpoints
 62
     0
440
 33554687
100
AcDbPoint
 10
67.08836427565393
 20
5.0
 30
0.0
  0
POINT
  5
4C28
330
4C1E
100
AcDbEntity
  8
Defpoints
 62
     0
440
 33554687
100
AcDbPoint
 10
224.0755773849739
 20
4.99999999999999
 30
0.0
  0
ENDBLK
  5
4C29
330
4C1E
100
AcDbEntity
  8
0
100
AcDbBlockEnd
  0
BLOCK
  5
4C86
330
4C85
100
AcDbEntity
  8
0
100
AcDbBlockBegin
  2
*D72
 70
     1
 10
0.0
 20
0.0
 30
0.0
  3
*D72
  1

  0
LINE
  5
4C88
330
4C85
100
AcDbEntity
  8
DIM
 62
     0
440
 33554687
370
    -2
100
AcDbLine
 10
838.588353685455
 20
1024.849621374666
 30
0.0
 11
964.5327954078057
 21
1024.849621374666
 31
0.0
  0
LINE
  5
4C89
330
4C85
100
AcDbEntity
  8
DIM
 62
     0
440
 33554687
370
    -2
100
AcDbLine
 10
680.2697474445874
 20
989.8496213746662
 30
0.0
 11
964.5327954078057
 21
989.8496213746662
 31
0.0
  0
LINE
  5
4C8A
330
4C85
100
AcDbEntity
  8
DIM
 62
     0
440
 33554687
370
    -2
100
AcDbLine
 10
964.5327954078057
 20
1014.849621374666
 30
0.0
 11
964.5327954078057
 21
999.8496213746662
 31
0.0
  0
INSERT
  5
4C8B
330
4C85
100
AcDbEntity
  8
DIM
 62
     0
370
    -2
100
AcDbBlockReference
  2
_DOT
 10
964.5327954078057
 20
1024.849621374666
 30
0.0
 41
10.0
 42
10.0
 43
10.0
 50
90.0
  0
INSERT
  5
4C8C
330
4C85
100
AcDbEntity
  8
DIM
 62
     0
370
    -2
100
AcDbBlockReference
  2
_DOT
 10
964.5327954078057
 20
989.8496213746662
 30
0.0
 41
10.0
 42
10.0
 43
10.0
 50
270.0
  0
MTEXT
  5
4C8D
330
4C85
100
AcDbEntity
  8
DIM
 62
     0
440
 33554687
100
AcDbMText
 10
932.5327954078057
 20
1007.349621374666
 30
0.0
 40
24.0
 41
0.0
 46
0.0
 71
     5
 72
     1
  1
\A1;35
  7
ＭＳ ゴシック
 11
0.0
 21
1.0
 31
0.0
 73
     1
 44
1.0
  0
POINT
  5
4C8E
330
4C85
100
AcDbEntity
  8
Defpoints
 62
     0
440
 33554687
100
AcDbPoint
 10
808.588353685455
 20
1024.849621374666
 30
0.0
  0
POINT
  5
4C8F
330
4C85
100
AcDbEntity
  8
Defpoints
 62
     0
440
 33554687
100
AcDbPoint
 10
650.2697474445874
 20
989.8496213746662
 30
0.0
  0
POINT
  5
4C90
330
4C85
100
AcDbEntity
  8
Defpoints
 62
     0
440
 33554687
100
AcDbPoint
 10
964.5327954078057
 20
989.8496213746662
 30
0.0
  0
ENDBLK
  5
4C87
330
4C85
100
AcDbEntity
  8
0
100
AcDbBlockEnd
  0
BLOCK
  5
4C95
330
4C94
100
AcDbEntity
  8
0
100
AcDbBlockBegin
  2
*D73
 70
     1
 10
0.0
 20
0.0
 30
0.0
  3
*D73
  1

  0
LINE
  5
4C97
330
4C94
100
AcDbEntity
  8
DIM
 62
     0
440
 33554687
370
    -2
100
AcDbLine
 10
619.1823618221932
 20
943.1676970242314
 30
0.0
 11
619.1823618221932
 21
890.2136886404252
 31
0.0
  0
LINE
  5
4C98
330
4C94
100
AcDbEntity
  8
DIM
 62
     0
440
 33554687
370
    -2
100
AcDbLine
 10
806.1823618221936
 20
994.849621374665
 30
0.0
 11
806.1823618221936
 21
890.2136886404239
 31
0.0
  0
LINE
  5
4C99
330
4C94
100
AcDbEntity
  8
DIM
 62
     0
440
 33554687
370
    -2
100
AcDbLine
 10
629.1823618221932
 20
890.2136886404251
 30
0.0
 11
796.1823618221936
 21
890.213688640424
 31
0.0
  0
INSERT
  5
4C9A
330
4C94
100
AcDbEntity
  8
DIM
 62
     0
370
    -2
100
AcDbBlockReference
  2
_DOT
 10
619.1823618221932
 20
890.2136886404252
 30
0.0
 41
10.0
 42
10.0
 43
10.0
 50
179.9999999999996
  0
INSERT
  5
4C9B
330
4C94
100
AcDbEntity
  8
DIM
 62
     0
370
    -2
100
AcDbBlockReference
  2
_DOT
 10
806.1823618221936
 20
890.2136886404239
 30
0.0
 41
10.0
 42
10.0
 43
10.0
 50
359.9999999999996
  0
MTEXT
  5
4C9C
330
4C94
100
AcDbEntity
  8
DIM
 62
     0
440
 33554687
100
AcDbMText
 10
712.6823618221936
 20
922.2136886404246
 30
0.0
 40
24.0
 41
0.0
 46
0.0
 71
     5
 72
     1
  1
\A1;187
  7
ＭＳ ゴシック
 73
     1
 44
1.0
  0
POINT
  5
4C9D
330
4C94
100
AcDbEntity
  8
Defpoints
 62
     0
440
 33554687
100
AcDbPoint
 10
619.1823618221932
 20
973.1676970242314
 30
0.0
  0
POINT
  5
4C9E
330
4C94
100
AcDbEntity
  8
Defpoints
 62
     0
440
 33554687
100
AcDbPoint
 10
806.1823618221936
 20
1024.849621374665
 30
0.0
  0
POINT
  5
4C9F
330
4C94
100
AcDbEntity
  8
Defpoints
 62
     0
440
 33554687
100
AcDbPoint
 10
806.1823618221936
 20
890.2136886404239
 30
0.0
  0
ENDBLK
  5
4C96
330
4C94
100
AcDbEntity
  8
0
100
AcDbBlockEnd
  0
BLOCK
  5
4CA4
330
4CA3
100
AcDbEntity
  8
0
100
AcDbBlockBegin
  2
*D74
 70
     1
 10
0.0
 20
0.0
 30
0.0
  3
*D74
  1

  0
LINE
  5
4CA6
330
4CA3
100
AcDbEntity
  8
DIM
 62
     0
440
 33554687
370
    -2
100
AcDbLine
 10
432.1823618221924
 20
964.8496213746662
 30
0.0
 11
432.1823618221924
 21
803.5891489122026
 31
0.0
  0
LINE
  5
4CA7
330
4CA3
100
AcDbEntity
  8
DIM
 62
     0
440
 33554687
370
    -2
100
AcDbLine
 10
806.1823618221936
 20
964.849621374665
 30
0.0
 11
806.1823618221936
 21
803.5891489122026
 31
0.0
  0
LINE
  5
4CA8
330
4CA3
100
AcDbEntity
  8
DIM
 62
     0
440
 33554687
370
    -2
100
AcDbLine
 10
442.1823618221924
 20
803.5891489122026
 30
0.0
 11
796.1823618221936
 21
803.5891489122026
 31
0.0
  0
INSERT
  5
4CA9
330
4CA3
100
AcDbEntity
  8
DIM
 62
     0
370
    -2
100
AcDbBlockReference
  2
_DOT
 10
432.1823618221924
 20
803.5891489122026
 30
0.0
 41
10.0
 42
10.0
 43
10.0
 50
180.0
  0
INSERT
  5
4CAA
330
4CA3
100
AcDbEntity
  8
DIM
 62
     0
370
    -2
100
AcDbBlockReference
  2
_DOT
 10
806.1823618221936
 20
803.5891489122026
 30
0.0
 41
10.0
 42
10.0
 43
10.0
  0
MTEXT
  5
4CAB
330
4CA3
100
AcDbEntity
  8
DIM
 62
     0
440
 33554687
100
AcDbMText
 10
619.182361822193
 20
835.5891489122026
 30
0.0
 40
24.0
 41
0.0
 46
0.0
 71
     5
 72
     1
  1
\A1;374
  7
ＭＳ ゴシック
 73
     1
 44
1.0
  0
POINT
  5
4CAC
330
4CA3
100
AcDbEntity
  8
Defpoints
 62
     0
440
 33554687
100
AcDbPoint
 10
432.1823618221924
 20
994.8496213746662
 30
0.0
  0
POINT
  5
4CAD
330
4CA3
100
AcDbEntity
  8
Defpoints
 62
     0
440
 33554687
100
AcDbPoint
 10
806.1823618221936
 20
994.849621374665
 30
0.0
  0
POINT
  5
4CAE
330
4CA3
100
AcDbEntity
  8
Defpoints
 62
     0
440
 33554687
100
AcDbPoint
 10
806.1823618221936
 20
803.5891489122026
 30
0.0
  0
ENDBLK
  5
4CA5
330
4CA3
100
AcDbEntity
  8
0
100
AcDbBlockEnd
  0
BLOCK
  5
4CB9
330
4CB8
100
AcDbEntity
  8
0
100
AcDbBlockBegin
  2
*D75
 70
     1
 10
0.0
 20
0.0
 30
0.0
  3
*D75
  1

  0
LINE
  5
4CBB
330
4CB8
100
AcDbEntity
  8
DIM
 62
     0
440
 33554687
370
    -2
100
AcDbLine
 10
892.6740823877183
 20
1024.849621374666
 30
0.0
 11
964.5327954078057
 21
1024.849621374666
 31
0.0
  0
LINE
  5
4CBC
330
4CB8
100
AcDbEntity
  8
DIM
 62
     0
440
 33554687
370
    -2
100
AcDbLine
 10
892.6740823877183
 20
1324.849621374666
 30
0.0
 11
964.5327954078057
 21
1324.849621374666
 31
0.0
  0
LINE
  5
4CBD
330
4CB8
100
AcDbEntity
  8
DIM
 62
     0
440
 33554687
370
    -2
100
AcDbLine
 10
964.5327954078057
 20
1034.849621374666
 30
0.0
 11
964.5327954078057
 21
1314.849621374666
 31
0.0
  0
INSERT
  5
4CBE
330
4CB8
100
AcDbEntity
  8
DIM
 62
     0
370
    -2
100
AcDbBlockReference
  2
_DOT
 10
964.5327954078057
 20
1024.849621374666
 30
0.0
 41
10.0
 42
10.0
 43
10.0
 50
270.0
  0
INSERT
  5
4CBF
330
4CB8
100
AcDbEntity
  8
DIM
 62
     0
370
    -2
100
AcDbBlockReference
  2
_DOT
 10
964.5327954078057
 20
1324.849621374666
 30
0.0
 41
10.0
 42
10.0
 43
10.0
 50
90.0
  0
MTEXT
  5
4CC0
330
4CB8
100
AcDbEntity
  8
DIM
 62
     0
440
 33554687
100
AcDbMText
 10
932.5327954078057
 20
1174.849621374666
 30
0.0
 40
24.0
 41
0.0
 46
0.0
 71
     5
 72
     1
  1
\A1;300
  7
ＭＳ ゴシック
 11
0.0
 21
1.0
 31
0.0
 73
     1
 44
1.0
  0
POINT
  5
4CC1
330
4CB8
100
AcDbEntity
  8
Defpoints
 62
     0
440
 33554687
100
AcDbPoint
 10
862.6740823877183
 20
1024.849621374666
 30
0.0
  0
POINT
  5
4CC2
330
4CB8
100
AcDbEntity
  8
Defpoints
 62
     0
440
 33554687
100
AcDbPoint
 10
862.6740823877183
 20
1324.849621374666
 30
0.0
  0
POINT
  5
4CC3
330
4CB8
100
AcDbEntity
  8
Defpoints
 62
     0
440
 33554687
100
AcDbPoint
 10
964.5327954078057
 20
1324.849621374666
 30
0.0
  0
ENDBLK
  5
4CBA
330
4CB8
100
AcDbEntity
  8
0
100
AcDbBlockEnd
  0
BLOCK
  5
4CC9
330
4CC8
100
AcDbEntity
  8
0
100
AcDbBlockBegin
  2
*D76
 70
     1
 10
0.0
 20
0.0
 30
0.0
  3
*D76
  1

  0
LINE
  5
4CCB
330
4CC8
100
AcDbEntity
  8
DIM
 62
     0
440
 33554687
370
    -2
100
AcDbLine
 10
1400.144827733965
 20
986.7228949857016
 30
0.0
 11
1400.144827733965
 21
737.719643591544
 31
0.0
  0
LINE
  5
4CCC
330
4CC8
100
AcDbEntity
  8
DIM
 62
     0
440
 33554687
370
    -2
100
AcDbLine
 10
1708.144827733965
 20
986.7228949857016
 30
0.0
 11
1708.144827733965
 21
737.719643591544
 31
0.0
  0
LINE
  5
4CCD
330
4CC8
100
AcDbEntity
  8
DIM
 62
     0
440
 33554687
370
    -2
100
AcDbLine
 10
1410.144827733965
 20
737.719643591544
 30
0.0
 11
1698.144827733965
 21
737.719643591544
 31
0.0
  0
INSERT
  5
4CCE
330
4CC8
100
AcDbEntity
  8
DIM
 62
     0
370
    -2
100
AcDbBlockReference
  2
_DOT
 10
1400.144827733965
 20
737.719643591544
 30
0.0
 41
10.0
 42
10.0
 43
10.0
 50
180.0
  0
INSERT
  5
4CCF
330
4CC8
100
AcDbEntity
  8
DIM
 62
     0
370
    -2
100
AcDbBlockReference
  2
_DOT
 10
1708.144827733965
 20
737.719643591544
 30
0.0
 41
10.0
 42
10.0
 43
10.0
  0
MTEXT
  5
4CD0
330
4CC8
100
AcDbEntity
  8
DIM
 62
     0
440
 33554687
100
AcDbMText
 10
1554.144827733965
 20
769.719643591544
 30
0.0
 40
24.0
 41
0.0
 46
0.0
 71
     5
 72
     1
  1
\A1;308
  7
ＭＳ ゴシック
 73
     1
 44
1.0
  0
POINT
  5
4CD1
330
4CC8
100
AcDbEntity
  8
Defpoints
 62
     0
440
 33554687
100
AcDbPoint
 10
1400.144827733965
 20
1016.722894985702
 30
0.0
  0
POINT
  5
4CD2
330
4CC8
100
AcDbEntity
  8
Defpoints
 62
     0
440
 33554687
100
AcDbPoint
 10
1708.144827733965
 20
1016.722894985702
 30
0.0
  0
POINT
  5
4CD3
330
4CC8
100
AcDbEntity
  8
Defpoints
 62
     0
440
 33554687
100
AcDbPoint
 10
1708.144827733965
 20
737.719643591544
 30
0.0
  0
ENDBLK
  5
4CCA
330
4CC8
100
AcDbEntity
  8
0
100
AcDbBlockEnd
  0
BLOCK
  5
4CD7
330
4CD6
100
AcDbEntity
  8
0
100
AcDbBlockBegin
  2
*D77
 70
     1
 10
0.0
 20
0.0
 30
0.0
  3
*D77
  1

  0
LINE
  5
4CD9
330
4CD6
100
AcDbEntity
  8
MODEL
 62
     0
440
 33554687
370
    -2
100
AcDbLine
 10
1418.043643928045
 20
733.2464609961991
 30
0.0
 11
1418.043643928045
 21
711.0955516547336
 31
0.0
  0
LINE
  5
4CDA
330
4CD6
100
AcDbEntity
  8
MODEL
 62
     0
440
 33554687
370
    -2
100
AcDbLine
 10
1690.543890937504
 20
733.2464609961991
 30
0.0
 11
1690.543890937504
 21
711.0955516547336
 31
0.0
  0
LINE
  5
4CDB
330
4CD6
100
AcDbEntity
  8
MODEL
 62
     0
440
 33554687
370
    -2
100
AcDbLine
 10
1428.043643928045
 20
711.0955516547336
 30
0.0
 11
1680.543890937504
 21
711.0955516547336
 31
0.0
  0
INSERT
  5
4CDC
330
4CD6
100
AcDbEntity
  8
MODEL
 62
     0
370
    -2
100
AcDbBlockReference
  2
_DOT
 10
1418.043643928045
 20
711.0955516547336
 30
0.0
 41
10.0
 42
10.0
 43
10.0
 50
180.0
  0
INSERT
  5
4CDD
330
4CD6
100
AcDbEntity
  8
MODEL
 62
     0
370
    -2
100
AcDbBlockReference
  2
_DOT
 10
1690.543890937504
 20
711.0955516547336
 30
0.0
 41
10.0
 42
10.0
 43
10.0
  0
MTEXT
  5
4CDE
330
4CD6
100
AcDbEntity
  8
MODEL
 62
     0
440
 33554687
100
AcDbMText
 10
1554.293767432775
 20
743.0955516547336
 30
0.0
 40
24.0
 41
0.0
 46
0.0
 71
     5
 72
     1
  1
\A1;273
  7
ＭＳ ゴシック
 73
     1
 44
1.0
  0
POINT
  5
4CDF
330
4CD6
100
AcDbEntity
  8
Defpoints
 62
     0
440
 33554687
100
AcDbPoint
 10
1418.043643928045
 20
763.2464609961991
 30
0.0
  0
POINT
  5
4CE0
330
4CD6
100
AcDbEntity
  8
Defpoints
 62
     0
440
 33554687
100
AcDbPoint
 10
1690.543890937504
 20
763.2464609961991
 30
0.0
  0
POINT
  5
4CE1
330
4CD6
100
AcDbEntity
  8
Defpoints
 62
     0
440
 33554687
100
AcDbPoint
 10
1690.543890937504
 20
711.0955516547336
 30
0.0
  0
ENDBLK
  5
4CD8
330
4CD6
100
AcDbEntity
  8
0
100
AcDbBlockEnd
  0
BLOCK
  5
4CE4
330
4CE3
100
AcDbEntity
  8
0
100
AcDbBlockBegin
  2
*D78
 70
     1
 10
0.0
 20
0.0
 30
0.0
  3
*D78
  1

  0
LINE
  5
4CE6
330
4CE3
100
AcDbEntity
  8
DIM
 62
     0
440
 33554687
370
    -2
100
AcDbLine
 10
1554.144827733965
 20
835.3279598622636
 30
0.0
 11
1554.144827733965
 21
813.7111128314107
 31
0.0
  0
LINE
  5
4CE7
330
4CE3
100
AcDbEntity
  8
DIM
 62
     0
440
 33554687
370
    -2
100
AcDbLine
 10
1400.144827733965
 20
995.4654392888269
 30
0.0
 11
1400.144827733965
 21
813.7111128314107
 31
0.0
  0
LINE
  5
4CE8
330
4CE3
100
AcDbEntity
  8
DIM
 62
     0
440
 33554687
370
    -2
100
AcDbLine
 10
1544.144827733965
 20
813.7111128314107
 30
0.0
 11
1410.144827733965
 21
813.7111128314107
 31
0.0
  0
INSERT
  5
4CE9
330
4CE3
100
AcDbEntity
  8
DIM
 62
     0
370
    -2
100
AcDbBlockReference
  2
_DOT
 10
1554.144827733965
 20
813.7111128314107
 30
0.0
 41
10.0
 42
10.0
 43
10.0
  0
INSERT
  5
4CEA
330
4CE3
100
AcDbEntity
  8
DIM
 62
     0
370
    -2
100
AcDbBlockReference
  2
_DOT
 10
1400.144827733965
 20
813.7111128314107
 30
0.0
 41
10.0
 42
10.0
 43
10.0
 50
180.0
  0
MTEXT
  5
4CEB
330
4CE3
100
AcDbEntity
  8
DIM
 62
     0
440
 33554687
100
AcDbMText
 10
1477.144827733965
 20
845.7111128314107
 30
0.0
 40
24.0
 41
0.0
 46
0.0
 71
     5
 72
     1
  1
\A1;154
  7
ＭＳ ゴシック
 73
     1
 44
1.0
  0
POINT
  5
4CEC
330
4CE3
100
AcDbEntity
  8
Defpoints
 62
     0
440
 33554687
100
AcDbPoint
 10
1554.144827733965
 20
865.3279598622636
 30
0.0
  0
POINT
  5
4CED
330
4CE3
100
AcDbEntity
  8
Defpoints
 62
     0
440
 33554687
100
AcDbPoint
 10
1400.144827733965
 20
1025.465439288827
 30
0.0
  0
POINT
  5
4CEE
330
4CE3
100
AcDbEntity
  8
Defpoints
 62
     0
440
 33554687
100
AcDbPoint
 10
1400.144827733965
 20
813.7111128314107
 30
0.0
  0
ENDBLK
  5
4CE5
330
4CE3
100
AcDbEntity
  8
0
100
AcDbBlockEnd
  0
BLOCK
  5
4CFE
330
4CFD
100
AcDbEntity
  8
0
100
AcDbBlockBegin
  2
*D79
 70
     1
 10
0.0
 20
0.0
 30
0.0
  3
*D79
  1

  0
LINE
  5
4D00
330
4CFD
100
AcDbEntity
  8
DIM
 62
     0
440
 33554687
370
    -2
100
AcDbLine
 10
1554.144827733965
 20
835.3279598622636
 30
0.0
 11
1554.144827733965
 21
813.7111128314107
 31
0.0
  0
LINE
  5
4D01
330
4CFD
100
AcDbEntity
  8
DIM
 62
     0
440
 33554687
370
    -2
100
AcDbLine
 10
1708.144827733965
 20
995.4654392888269
 30
0.0
 11
1708.144827733965
 21
813.7111128314107
 31
0.0
  0
LINE
  5
4D02
330
4CFD
100
AcDbEntity
  8
DIM
 62
     0
440
 33554687
370
    -2
100
AcDbLine
 10
1564.144827733965
 20
813.7111128314107
 30
0.0
 11
1698.144827733965
 21
813.7111128314107
 31
0.0
  0
INSERT
  5
4D03
330
4CFD
100
AcDbEntity
  8
DIM
 62
     0
370
    -2
100
AcDbBlockReference
  2
_DOT
 10
1554.144827733965
 20
813.7111128314107
 30
0.0
 41
10.0
 42
10.0
 43
10.0
 50
180.0
  0
INSERT
  5
4D04
330
4CFD
100
AcDbEntity
  8
DIM
 62
     0
370
    -2
100
AcDbBlockReference
  2
_DOT
 10
1708.144827733965
 20
813.7111128314107
 30
0.0
 41
10.0
 42
10.0
 43
10.0
  0
MTEXT
  5
4D05
330
4CFD
100
AcDbEntity
  8
DIM
 62
     0
440
 33554687
100
AcDbMText
 10
1631.144827733965
 20
845.7111128314107
 30
0.0
 40
24.0
 41
0.0
 46
0.0
 71
     5
 72
     1
  1
\A1;154
  7
ＭＳ ゴシック
 73
     1
 44
1.0
  0
POINT
  5
4D06
330
4CFD
100
AcDbEntity
  8
Defpoints
 62
     0
440
 33554687
100
AcDbPoint
 10
1554.144827733965
 20
865.3279598622636
 30
0.0
  0
POINT
  5
4D07
330
4CFD
100
AcDbEntity
  8
Defpoints
 62
     0
440
 33554687
100
AcDbPoint
 10
1708.144827733965
 20
1025.465439288827
 30
0.0
  0
POINT
  5
4D08
330
4CFD
100
AcDbEntity
  8
Defpoints
 62
     0
440
 33554687
100
AcDbPoint
 10
1708.144827733965
 20
813.7111128314107
 30
0.0
  0
ENDBLK
  5
4CFF
330
4CFD
100
AcDbEntity
  8
0
100
AcDbBlockEnd
  0
BLOCK
  5
4D10
330
4D0F
100
AcDbEntity
  8
0
100
AcDbBlockBegin
  2
*D80
 70
     1
 10
0.0
 20
0.0
 30
0.0
  3
*D80
  1

  0
LINE
  5
4D12
330
4D0F
100
AcDbEntity
  8
DIM
 62
     0
440
 33554687
370
    -2
100
AcDbLine
 10
1554.144827733965
 20
707.719643591544
 30
0.0
 11
1554.144827733965
 21
643.0887573683136
 31
0.0
  0
LINE
  5
4D13
330
4D0F
100
AcDbEntity
  8
DIM
 62
     0
440
 33554687
370
    -2
100
AcDbLine
 10
1754.144827733965
 20
1198.079690384646
 30
0.0
 11
1754.144827733965
 21
643.0887573683136
 31
0.0
  0
LINE
  5
4D14
330
4D0F
100
AcDbEntity
  8
DIM
 62
     0
440
 33554687
370
    -2
100
AcDbLine
 10
1564.144827733965
 20
643.0887573683136
 30
0.0
 11
1744.144827733965
 21
643.0887573683136
 31
0.0
  0
INSERT
  5
4D15
330
4D0F
100
AcDbEntity
  8
DIM
 62
     0
370
    -2
100
AcDbBlockReference
  2
_DOT
 10
1554.144827733965
 20
643.0887573683136
 30
0.0
 41
10.0
 42
10.0
 43
10.0
 50
180.0
  0
INSERT
  5
4D16
330
4D0F
100
AcDbEntity
  8
DIM
 62
     0
370
    -2
100
AcDbBlockReference
  2
_DOT
 10
1754.144827733965
 20
643.0887573683136
 30
0.0
 41
10.0
 42
10.0
 43
10.0
  0
MTEXT
  5
4D17
330
4D0F
100
AcDbEntity
  8
DIM
 62
     0
440
 33554687
100
AcDbMText
 10
1654.144827733965
 20
675.0887573683136
 30
0.0
 40
24.0
 41
0.0
 46
0.0
 71
     5
 72
     1
  1
\A1;200
  7
ＭＳ ゴシック
 73
     1
 44
1.0
  0
POINT
  5
4D18
330
4D0F
100
AcDbEntity
  8
Defpoints
 62
     0
440
 33554687
100
AcDbPoint
 10
1554.144827733965
 20
737.719643591544
 30
0.0
  0
POINT
  5
4D19
330
4D0F
100
AcDbEntity
  8
Defpoints
 62
     0
440
 33554687
100
AcDbPoint
 10
1754.144827733965
 20
1228.079690384646
 30
0.0
  0
POINT
  5
4D1A
330
4D0F
100
AcDbEntity
  8
Defpoints
 62
     0
440
 33554687
100
AcDbPoint
 10
1754.144827733965
 20
643.0887573683136
 30
0.0
  0
ENDBLK
  5
4D11
330
4D0F
100
AcDbEntity
  8
0
100
AcDbBlockEnd
  0
BLOCK
  5
4FCB
330
4FCA
100
AcDbEntity
  8
0
100
AcDbBlockBegin
  2
*D82
 70
     1
 10
0.0
 20
0.0
 30
0.0
  3
*D82
  1

  0
LINE
  5
4FCD
330
4FCA
100
AcDbEntity
  8
MODEL
 62
     0
440
 33554687
370
    -2
100
AcDbLine
 10
2471.205655493619
 20
2018.90057687589
 30
0.0
 11
2471.205655493619
 21
2272.700057342827
 31
0.0
  0
LINE
  5
4FCE
330
4FCA
100
AcDbEntity
  8
MODEL
 62
     0
440
 33554687
370
    -2
100
AcDbLine
 10
3311.205655489568
 20
1971.397659544314
 30
0.0
 11
3311.205655489568
 21
2272.700057342827
 31
0.0
  0
LINE
  5
4FCF
330
4FCA
100
AcDbEntity
  8
MODEL
 62
     0
440
 33554687
370
    -2
100
AcDbLine
 10
2481.205655493619
 20
2272.700057342827
 30
0.0
 11
3301.205655489568
 21
2272.700057342827
 31
0.0
  0
INSERT
  5
4FD0
330
4FCA
100
AcDbEntity
  8
MODEL
 62
     0
370
    -2
100
AcDbBlockReference
  2
_DOT
 10
2471.205655493619
 20
2272.700057342827
 30
0.0
 41
10.0
 42
10.0
 43
10.0
 50
180.0
  0
INSERT
  5
4FD1
330
4FCA
100
AcDbEntity
  8
MODEL
 62
     0
370
    -2
100
AcDbBlockReference
  2
_DOT
 10
3311.205655489568
 20
2272.700057342827
 30
0.0
 41
10.0
 42
10.0
 43
10.0
  0
MTEXT
  5
4FD2
330
4FCA
100
AcDbEntity
  8
MODEL
 62
     0
440
 33554687
100
AcDbMText
 10
2891.205655491593
 20
2304.700057342827
 30
0.0
 40
24.0
 41
0.0
 46
0.0
 71
     5
 72
     1
  1
\A1;840
  7
ＭＳ ゴシック
 73
     1
 44
1.0
  0
POINT
  5
4FD3
330
4FCA
100
AcDbEntity
  8
Defpoints
 62
     0
440
 33554687
100
AcDbPoint
 10
2471.205655493619
 20
1988.90057687589
 30
0.0
  0
POINT
  5
4FD4
330
4FCA
100
AcDbEntity
  8
Defpoints
 62
     0
440
 33554687
100
AcDbPoint
 10
3311.205655489568
 20
1941.397659544314
 30
0.0
  0
POINT
  5
4FD5
330
4FCA
100
AcDbEntity
  8
Defpoints
 62
     0
440
 33554687
100
AcDbPoint
 10
3311.205655489568
 20
2272.700057342827
 30
0.0
  0
ENDBLK
  5
4FCC
330
4FCA
100
AcDbEntity
  8
0
100
AcDbBlockEnd
  0
BLOCK
  5
4FD8
330
4FD7
100
AcDbEntity
  8
0
100
AcDbBlockBegin
  2
*D83
 70
     1
 10
0.0
 20
0.0
 30
0.0
  3
*D83
  1

  0
LINE
  5
4FDA
330
4FD7
100
AcDbEntity
  8
MODEL
 62
     0
440
 33554687
370
    -2
100
AcDbLine
 10
3268.617850055802
 20
1615.507915703923
 30
0.0
 11
3449.20741693519
 21
1615.507915703923
 31
0.0
  0
LINE
  5
4FDB
330
4FD7
100
AcDbEntity
  8
MODEL
 62
     0
440
 33554687
370
    -2
100
AcDbLine
 10
3268.617850055802
 20
2070.514574670238
 30
0.0
 11
3449.20741693519
 21
2070.514574670238
 31
0.0
  0
LINE
  5
4FDC
330
4FD7
100
AcDbEntity
  8
MODEL
 62
     0
440
 33554687
370
    -2
100
AcDbLine
 10
3449.20741693519
 20
1625.507915703923
 30
0.0
 11
3449.20741693519
 21
2060.514574670238
 31
0.0
  0
INSERT
  5
4FDD
330
4FD7
100
AcDbEntity
  8
MODEL
 62
     0
370
    -2
100
AcDbBlockReference
  2
_DOT
 10
3449.20741693519
 20
1615.507915703923
 30
0.0
 41
10.0
 42
10.0
 43
10.0
 50
270.0
  0
INSERT
  5
4FDE
330
4FD7
100
AcDbEntity
  8
MODEL
 62
     0
370
    -2
100
AcDbBlockReference
  2
_DOT
 10
3449.20741693519
 20
2070.514574670238
 30
0.0
 41
10.0
 42
10.0
 43
10.0
 50
90.0
  0
MTEXT
  5
4FDF
330
4FD7
100
AcDbEntity
  8
MODEL
 62
     0
440
 33554687
100
AcDbMText
 10
3417.20741693519
 20
1843.01124518708
 30
0.0
 40
24.0
 41
0.0
 46
0.0
 71
     5
 72
     1
  1
\A1;455
  7
ＭＳ ゴシック
 11
0.0
 21
1.0
 31
0.0
 73
     1
 44
1.0
  0
POINT
  5
4FE0
330
4FD7
100
AcDbEntity
  8
Defpoints
 62
     0
440
 33554687
100
AcDbPoint
 10
3238.617850055802
 20
1615.507915703923
 30
0.0
  0
POINT
  5
4FE1
330
4FD7
100
AcDbEntity
  8
Defpoints
 62
     0
440
 33554687
100
AcDbPoint
 10
3238.617850055802
 20
2070.514574670238
 30
0.0
  0
POINT
  5
4FE2
330
4FD7
100
AcDbEntity
  8
Defpoints
 62
     0
440
 33554687
100
AcDbPoint
 10
3449.20741693519
 20
2070.514574670238
 30
0.0
  0
ENDBLK
  5
4FD9
330
4FD7
100
AcDbEntity
  8
0
100
AcDbBlockEnd
  0
BLOCK
  5
4FE8
330
4FE7
100
AcDbEntity
  8
0
100
AcDbBlockBegin
  2
*D84
 70
     1
 10
0.0
 20
0.0
 30
0.0
  3
*D84
  1

  0
LINE
  5
4FEA
330
4FE7
100
AcDbEntity
  8
DIM
 62
     0
440
 33554687
370
    -2
100
AcDbLine
 10
1693.080807528569
 20
2325.486108289057
 30
0.0
 11
1812.292715077952
 21
2325.486108289057
 31
0.0
  0
LINE
  5
4FEB
330
4FE7
100
AcDbEntity
  8
DIM
 62
     0
440
 33554687
370
    -2
100
AcDbLine
 10
1655.042501625502
 20
2455.490972904748
 30
0.0
 11
1812.292715077952
 21
2455.490972904748
 31
0.0
  0
LINE
  5
4FEC
330
4FE7
100
AcDbEntity
  8
DIM
 62
     0
440
 33554687
370
    -2
100
AcDbLine
 10
1812.292715077952
 20
2335.486108289057
 30
0.0
 11
1812.292715077952
 21
2445.490972904748
 31
0.0
  0
INSERT
  5
4FED
330
4FE7
100
AcDbEntity
  8
DIM
 62
     0
370
    -2
100
AcDbBlockReference
  2
_DOT
 10
1812.292715077952
 20
2325.486108289057
 30
0.0
 41
10.0
 42
10.0
 43
10.0
 50
270.0
  0
INSERT
  5
4FEE
330
4FE7
100
AcDbEntity
  8
DIM
 62
     0
370
    -2
100
AcDbBlockReference
  2
_DOT
 10
1812.292715077952
 20
2455.490972904748
 30
0.0
 41
10.0
 42
10.0
 43
10.0
 50
90.0
  0
MTEXT
  5
4FEF
330
4FE7
100
AcDbEntity
  8
DIM
 62
     0
440
 33554687
100
AcDbMText
 10
1780.292715077952
 20
2390.488540596903
 30
0.0
 40
24.0
 41
0.0
 46
0.0
 71
     5
 72
     1
  1
\A1;130
  7
ＭＳ ゴシック
 11
0.0
 21
1.0
 31
0.0
 73
     1
 44
1.0
  0
POINT
  5
4FF0
330
4FE7
100
AcDbEntity
  8
Defpoints
 62
     0
440
 33554687
100
AcDbPoint
 10
1663.080807528569
 20
2325.486108289057
 30
0.0
  0
POINT
  5
4FF1
330
4FE7
100
AcDbEntity
  8
Defpoints
 62
     0
440
 33554687
100
AcDbPoint
 10
1625.042501625502
 20
2455.490972904748
 30
0.0
  0
POINT
  5
4FF2
330
4FE7
100
AcDbEntity
  8
Defpoints
 62
     0
440
 33554687
100
AcDbPoint
 10
1812.292715077952
 20
2455.490972904748
 30
0.0
  0
ENDBLK
  5
4FE9
330
4FE7
100
AcDbEntity
  8
0
100
AcDbBlockEnd
  0
BLOCK
  5
4FF7
330
4FF6
100
AcDbEntity
  8
0
100
AcDbBlockBegin
  2
*D85
 70
     1
 10
0.0
 20
0.0
 30
0.0
  3
*D85
  1

  0
LINE
  5
4FF9
330
4FF6
100
AcDbEntity
  8
DIM
 62
     0
440
 33554687
370
    -2
100
AcDbLine
 10
1543.201968732697
 20
2457.509937238848
 30
0.0
 11
1543.201968732697
 21
2543.200659698735
 31
0.0
  0
LINE
  5
4FFA
330
4FF6
100
AcDbEntity
  8
DIM
 62
     0
440
 33554687
370
    -2
100
AcDbLine
 10
1698.205350018646
 20
2440.029980853615
 30
0.0
 11
1698.205350018646
 21
2543.200659698735
 31
0.0
  0
LINE
  5
4FFB
330
4FF6
100
AcDbEntity
  8
DIM
 62
     0
440
 33554687
370
    -2
100
AcDbLine
 10
1553.201968732697
 20
2543.200659698735
 30
0.0
 11
1688.205350018646
 21
2543.200659698735
 31
0.0
  0
INSERT
  5
4FFC
330
4FF6
100
AcDbEntity
  8
DIM
 62
     0
370
    -2
100
AcDbBlockReference
  2
_DOT
 10
1543.201968732697
 20
2543.200659698735
 30
0.0
 41
10.0
 42
10.0
 43
10.0
 50
180.0
  0
INSERT
  5
4FFD
330
4FF6
100
AcDbEntity
  8
DIM
 62
     0
370
    -2
100
AcDbBlockReference
  2
_DOT
 10
1698.205350018646
 20
2543.200659698735
 30
0.0
 41
10.0
 42
10.0
 43
10.0
  0
MTEXT
  5
4FFE
330
4FF6
100
AcDbEntity
  8
DIM
 62
     0
440
 33554687
100
AcDbMText
 10
1620.703659375671
 20
2575.200659698735
 30
0.0
 40
24.0
 41
0.0
 46
0.0
 71
     5
 72
     1
  1
\A1;155
  7
ＭＳ ゴシック
 73
     1
 44
1.0
  0
POINT
  5
4FFF
330
4FF6
100
AcDbEntity
  8
Defpoints
 62
     0
440
 33554687
100
AcDbPoint
 10
1543.201968732697
 20
2427.509937238848
 30
0.0
  0
POINT
  5
5000
330
4FF6
100
AcDbEntity
  8
Defpoints
 62
     0
440
 33554687
100
AcDbPoint
 10
1698.205350018646
 20
2410.029980853615
 30
0.0
  0
POINT
  5
5001
330
4FF6
100
AcDbEntity
  8
Defpoints
 62
     0
440
 33554687
100
AcDbPoint
 10
1698.205350018646
 20
2543.200659698735
 30
0.0
  0
ENDBLK
  5
4FF8
330
4FF6
100
AcDbEntity
  8
0
100
AcDbBlockEnd
  0
BLOCK
  5
5006
330
5005
100
AcDbEntity
  8
0
100
AcDbBlockBegin
  2
*D86
 70
     1
 10
0.0
 20
0.0
 30
0.0
  3
*D86
  1

  0
LINE
  5
5008
330
5005
100
AcDbEntity
  8
DIM
 62
     0
440
 33554687
370
    -2
100
AcDbLine
 10
379.4396407595186
 20
678.2465730141744
 30
0.0
 11
295.8699316525071
 21
678.2465730141744
 31
0.0
  0
LINE
  5
5009
330
5005
100
AcDbEntity
  8
DIM
 62
     0
440
 33554687
370
    -2
100
AcDbLine
 10
379.4396407595186
 20
1518.248155339274
 30
0.0
 11
295.8699316525071
 21
1518.248155339274
 31
0.0
  0
LINE
  5
500A
330
5005
100
AcDbEntity
  8
DIM
 62
     0
440
 33554687
370
    -2
100
AcDbLine
 10
295.8699316525071
 20
688.2465730141744
 30
0.0
 11
295.8699316525071
 21
1508.248155339274
 31
0.0
  0
INSERT
  5
500B
330
5005
100
AcDbEntity
  8
DIM
 62
     0
370
    -2
100
AcDbBlockReference
  2
_DOT
 10
295.8699316525071
 20
678.2465730141744
 30
0.0
 41
10.0
 42
10.0
 43
10.0
 50
270.0
  0
INSERT
  5
500C
330
5005
100
AcDbEntity
  8
DIM
 62
     0
370
    -2
100
AcDbBlockReference
  2
_DOT
 10
295.8699316525071
 20
1518.248155339274
 30
0.0
 41
10.0
 42
10.0
 43
10.0
 50
90.0
  0
MTEXT
  5
500D
330
5005
100
AcDbEntity
  8
DIM
 62
     0
440
 33554687
100
AcDbMText
 10
263.8699316525071
 20
1098.247364176724
 30
0.0
 40
24.0
 41
0.0
 46
0.0
 71
     5
 72
     1
  1
\A1;840
  7
ＭＳ ゴシック
 11
6.767060926655294E-17
 21
1.0
 31
0.0
 73
     1
 44
1.0
  0
POINT
  5
500E
330
5005
100
AcDbEntity
  8
Defpoints
 62
     0
440
 33554687
100
AcDbPoint
 10
409.4396407595186
 20
678.2465730141744
 30
0.0
  0
POINT
  5
500F
330
5005
100
AcDbEntity
  8
Defpoints
 62
     0
440
 33554687
100
AcDbPoint
 10
409.4396407595186
 20
1518.248155339274
 30
0.0
  0
POINT
  5
5010
330
5005
100
AcDbEntity
  8
Defpoints
 62
     0
440
 33554687
100
AcDbPoint
 10
295.8699316525071
 20
1518.248155339274
 30
0.0
  0
ENDBLK
  5
5007
330
5005
100
AcDbEntity
  8
0
100
AcDbBlockEnd
  0
BLOCK
  5
5015
330
5014
100
AcDbEntity
  8
0
100
AcDbBlockBegin
  2
*D87
 70
     1
 10
0.0
 20
0.0
 30
0.0
  3
*D87
  1

  0
LINE
  5
5017
330
5014
100
AcDbEntity
  8
DIM
 62
     0
440
 33554687
370
    -2
100
AcDbLine
 10
401.5923400939528
 20
1547.569861205771
 30
0.0
 11
401.5923400939528
 21
1631.267884000461
 31
0.0
  0
LINE
  5
5018
330
5014
100
AcDbEntity
  8
DIM
 62
     0
440
 33554687
370
    -2
100
AcDbLine
 10
856.6005813894194
 20
1547.569861205771
 30
0.0
 11
856.6005813894194
 21
1631.267884000461
 31
0.0
  0
LINE
  5
5019
330
5014
100
AcDbEntity
  8
DIM
 62
     0
440
 33554687
370
    -2
100
AcDbLine
 10
411.5923400939528
 20
1631.267884000461
 30
0.0
 11
846.6005813894194
 21
1631.267884000461
 31
0.0
  0
INSERT
  5
501A
330
5014
100
AcDbEntity
  8
DIM
 62
     0
370
    -2
100
AcDbBlockReference
  2
_DOT
 10
401.5923400939528
 20
1631.267884000461
 30
0.0
 41
10.0
 42
10.0
 43
10.0
 50
180.0
  0
INSERT
  5
501B
330
5014
100
AcDbEntity
  8
DIM
 62
     0
370
    -2
100
AcDbBlockReference
  2
_DOT
 10
856.6005813894194
 20
1631.267884000461
 30
0.0
 41
10.0
 42
10.0
 43
10.0
  0
MTEXT
  5
501C
330
5014
100
AcDbEntity
  8
DIM
 62
     0
440
 33554687
100
AcDbMText
 10
629.0964607416861
 20
1663.267884000461
 30
0.0
 40
24.0
 41
0.0
 46
0.0
 71
     5
 72
     1
  1
\A1;455
  7
ＭＳ ゴシック
 73
     1
 44
1.0
  0
POINT
  5
501D
330
5014
100
AcDbEntity
  8
Defpoints
 62
     0
440
 33554687
100
AcDbPoint
 10
401.5923400939528
 20
1517.569861205771
 30
0.0
  0
POINT
  5
501E
330
5014
100
AcDbEntity
  8
Defpoints
 62
     0
440
 33554687
100
AcDbPoint
 10
856.6005813894194
 20
1517.569861205771
 30
0.0
  0
POINT
  5
501F
330
5014
100
AcDbEntity
  8
Defpoints
 62
     0
440
 33554687
100
AcDbPoint
 10
856.6005813894194
 20
1631.267884000461
 30
0.0
  0
ENDBLK
  5
5016
330
5014
100
AcDbEntity
  8
0
100
AcDbBlockEnd
  0
BLOCK
  5
5024
330
5023
100
AcDbEntity
  8
0
100
AcDbBlockBegin
  2
*D88
 70
     1
 10
0.0
 20
0.0
 30
0.0
  3
*D88
  1

  0
LINE
  5
5026
330
5023
100
AcDbEntity
  8
DIM
 62
     0
440
 33554687
370
    -2
100
AcDbLine
 10
832.5753133387566
 20
1488.244029981276
 30
0.0
 11
947.102485025101
 21
1488.244029981276
 31
0.0
  0
LINE
  5
5027
330
5023
100
AcDbEntity
  8
DIM
 62
     0
440
 33554687
370
    -2
100
AcDbLine
 10
831.4282722935436
 20
708.2491160430222
 30
0.0
 11
947.102485025101
 21
708.2491160430222
 31
0.0
  0
LINE
  5
5028
330
5023
100
AcDbEntity
  8
DIM
 62
     0
440
 33554687
370
    -2
100
AcDbLine
 10
947.102485025101
 20
1478.244029981276
 30
0.0
 11
947.102485025101
 21
718.2491160430222
 31
0.0
  0
INSERT
  5
5029
330
5023
100
AcDbEntity
  8
DIM
 62
     0
370
    -2
100
AcDbBlockReference
  2
_DOT
 10
947.102485025101
 20
1488.244029981276
 30
0.0
 41
10.0
 42
10.0
 43
10.0
 50
90.0
  0
INSERT
  5
502A
330
5023
100
AcDbEntity
  8
DIM
 62
     0
370
    -2
100
AcDbBlockReference
  2
_DOT
 10
947.102485025101
 20
708.2491160430222
 30
0.0
 41
10.0
 42
10.0
 43
10.0
 50
270.0
  0
MTEXT
  5
502B
330
5023
100
AcDbEntity
  8
DIM
 62
     0
440
 33554687
100
AcDbMText
 10
915.102485025101
 20
1098.246573012149
 30
0.0
 40
24.0
 41
0.0
 46
0.0
 71
     5
 72
     1
  1
\A1;780
  7
ＭＳ ゴシック
 11
0.0
 21
1.0
 31
0.0
 73
     1
 44
1.0
  0
POINT
  5
502C
330
5023
100
AcDbEntity
  8
Defpoints
 62
     0
440
 33554687
100
AcDbPoint
 10
802.5753133387566
 20
1488.244029981276
 30
0.0
  0
POINT
  5
502D
330
5023
100
AcDbEntity
  8
Defpoints
 62
     0
440
 33554687
100
AcDbPoint
 10
801.4282722935436
 20
708.2491160430222
 30
0.0
  0
POINT
  5
502E
330
5023
100
AcDbEntity
  8
Defpoints
 62
     0
440
 33554687
100
AcDbPoint
 10
947.102485025101
 20
708.2491160430222
 30
0.0
  0
ENDBLK
  5
5025
330
5023
100
AcDbEntity
  8
0
100
AcDbBlockEnd
  0
BLOCK
  5
5033
330
5032
100
AcDbEntity
  8
0
100
AcDbBlockBegin
  2
*D89
 70
     1
 10
0.0
 20
0.0
 30
0.0
  3
*D89
  1

  0
LINE
  5
5035
330
5032
100
AcDbEntity
  8
DIM
 62
     0
440
 33554687
370
    -2
100
AcDbLine
 10
826.6012030188735
 20
698.2465918511848
 30
0.0
 11
826.6012030188735
 21
584.0194097967124
 31
0.0
  0
LINE
  5
5036
330
5032
100
AcDbEntity
  8
DIM
 62
     0
440
 33554687
370
    -2
100
AcDbLine
 10
431.5933007936496
 20
707.722909844128
 30
0.0
 11
431.5933007936496
 21
584.0194097967124
 31
0.0
  0
LINE
  5
5037
330
5032
100
AcDbEntity
  8
DIM
 62
     0
440
 33554687
370
    -2
100
AcDbLine
 10
816.6012030188735
 20
584.0194097967124
 30
0.0
 11
441.5933007936496
 21
584.0194097967124
 31
0.0
  0
INSERT
  5
5038
330
5032
100
AcDbEntity
  8
DIM
 62
     0
370
    -2
100
AcDbBlockReference
  2
_DOT
 10
826.6012030188735
 20
584.0194097967124
 30
0.0
 41
10.0
 42
10.0
 43
10.0
  0
INSERT
  5
5039
330
5032
100
AcDbEntity
  8
DIM
 62
     0
370
    -2
100
AcDbBlockReference
  2
_DOT
 10
431.5933007936496
 20
584.0194097967124
 30
0.0
 41
10.0
 42
10.0
 43
10.0
 50
180.0
  0
MTEXT
  5
503A
330
5032
100
AcDbEntity
  8
DIM
 62
     0
440
 33554687
100
AcDbMText
 10
629.0972519062616
 20
616.0194097967124
 30
0.0
 40
24.0
 41
0.0
 46
0.0
 71
     5
 72
     1
  1
\A1;395
  7
ＭＳ ゴシック
 73
     1
 44
1.0
  0
POINT
  5
503B
330
5032
100
AcDbEntity
  8
Defpoints
 62
     0
440
 33554687
100
AcDbPoint
 10
826.6012030188735
 20
728.2465918511848
 30
0.0
  0
POINT
  5
503C
330
5032
100
AcDbEntity
  8
Defpoints
 62
     0
440
 33554687
100
AcDbPoint
 10
431.5933007936496
 20
737.722909844128
 30
0.0
  0
POINT
  5
503D
330
5032
100
AcDbEntity
  8
Defpoints
 62
     0
440
 33554687
100
AcDbPoint
 10
431.5933007936496
 20
584.0194097967124
 30
0.0
  0
ENDBLK
  5
5034
330
5032
100
AcDbEntity
  8
0
100
AcDbBlockEnd
  0
BLOCK
  5
507D
330
507C
100
AcDbEntity
  8
0
100
AcDbBlockBegin
  2
*D91
 70
     1
 10
0.0
 20
0.0
 30
0.0
  3
*D91
  1

  0
LINE
  5
507E
330
507C
100
AcDbEntity
  8
DIM
 62
     0
440
 33554687
370
    -2
100
AcDbLine
 10
18.84799999999996
 20
270.4769553944329
 30
0.0
 11
48.84799999999995
 21
270.4769553944329
 31
0.0
  0
LINE
  5
507F
330
507C
100
AcDbEntity
  8
DIM
 62
     0
440
 33554687
370
    -2
100
AcDbLine
 10
78.845602516398
 20
5.0
 30
0.0
 11
48.84799999999994
 21
5.0
 31
0.0
  0
LINE
  5
5080
330
507C
100
AcDbEntity
  8
DIM
 62
     0
440
 33554687
370
    -2
100
AcDbLine
 10
48.84799999999995
 20
270.4769553944329
 30
0.0
 11
48.84799999999996
 21
462.0929553944329
 31
0.0
  0
LINE
  5
5081
330
507C
100
AcDbEntity
  8
DIM
 62
     0
440
 33554687
370
    -2
100
AcDbLine
 10
48.84799999999995
 20
260.4769553944329
 30
0.0
 11
48.84799999999994
 21
15.0
 31
0.0
  0
LINE
  5
5082
330
507C
100
AcDbEntity
  8
DIM
 62
     0
440
 33554687
370
    -2
100
AcDbLine
 10
48.84799999999995
 20
260.4769553944329
 30
0.0
 11
48.84799999999995
 21
250.4769553944329
 31
0.0
  0
INSERT
  5
5083
330
507C
100
AcDbEntity
  8
DIM
 62
     0
370
    -2
100
AcDbBlockReference
  2
_DOT
 10
48.84799999999995
 20
270.4769553944329
 30
0.0
 41
10.0
 42
10.0
 43
10.0
 50
90.0
  0
INSERT
  5
5084
330
507C
100
AcDbEntity
  8
DIM
 62
     0
370
    -2
100
AcDbBlockReference
  2
_DOT
 10
48.84799999999994
 20
5.0
 30
0.0
 41
10.0
 42
10.0
 43
10.0
 50
270.0
  0
MTEXT
  5
5085
330
507C
100
AcDbEntity
  8
DIM
 62
     0
440
 33554687
100
AcDbMText
 10
14.72399999999993
 20
376.2849553944329
 30
0.0
 40
24.0
 41
0.0
 46
0.0
 71
     5
 72
     1
  1
\A1;266(深さ)
  7
ＭＳ ゴシック
 11
5.352952271916859E-17
 21
1.0
 31
0.0
 73
     1
 44
1.0
  0
POINT
  5
5086
330
507C
100
AcDbEntity
  8
Defpoints
 62
     0
440
 33554687
100
AcDbPoint
 10
48.84799999999996
 20
270.4769553944329
 30
0.0
  0
POINT
  5
5087
330
507C
100
AcDbEntity
  8
Defpoints
 62
     0
440
 33554687
100
AcDbPoint
 10
48.845602516398
 20
5.0
 30
0.0
  0
POINT
  5
5088
330
507C
100
AcDbEntity
  8
Defpoints
 62
     0
440
 33554687
100
AcDbPoint
 10
48.84799999999996
 20
5.0
 30
0.0
  0
ENDBLK
  5
5089
330
507C
100
AcDbEntity
  8
0
100
AcDbBlockEnd
  0
BLOCK
  5
5093
330
5092
100
AcDbEntity
  8
0
100
AcDbBlockBegin
  2
*D92
 70
     1
 10
0.0
 20
0.0
 30
0.0
  3
*D92
  1

  0
LINE
  5
5095
330
5092
100
AcDbEntity
  8
DIM
 62
     0
440
 33554687
370
    -2
100
AcDbLine
 10
1543.201968732697
 20
2296.087455618635
 30
0.0
 11
1543.201968732697
 21
2326.087455618634
 31
0.0
  0
LINE
  5
5096
330
5092
100
AcDbEntity
  8
DIM
 62
     0
440
 33554687
370
    -2
100
AcDbLine
 10
1618.205952811089
 20
2356.085058135033
 30
0.0
 11
1618.205952811089
 21
2326.087455618634
 31
0.0
  0
LINE
  5
5097
330
5092
100
AcDbEntity
  8
DIM
 62
     0
440
 33554687
370
    -2
100
AcDbLine
 10
1543.201968732697
 20
2326.087455618634
 30
0.0
 11
1359.625968732696
 21
2326.087455618634
 31
0.0
  0
LINE
  5
5098
330
5092
100
AcDbEntity
  8
DIM
 62
     0
440
 33554687
370
    -2
100
AcDbLine
 10
1553.201968732697
 20
2326.087455618634
 30
0.0
 11
1608.205952811089
 21
2326.087455618634
 31
0.0
  0
LINE
  5
5099
330
5092
100
AcDbEntity
  8
DIM
 62
     0
440
 33554687
370
    -2
100
AcDbLine
 10
1553.201968732697
 20
2326.087455618634
 30
0.0
 11
1563.201968732697
 21
2326.087455618634
 31
0.0
  0
INSERT
  5
509A
330
5092
100
AcDbEntity
  8
DIM
 62
     0
370
    -2
100
AcDbBlockReference
  2
_DOT
 10
1543.201968732697
 20
2326.087455618634
 30
0.0
 41
10.0
 42
10.0
 43
10.0
 50
180.0
  0
INSERT
  5
509B
330
5092
100
AcDbEntity
  8
DIM
 62
     0
370
    -2
100
AcDbBlockReference
  2
_DOT
 10
1618.205952811089
 20
2326.087455618634
 30
0.0
 41
10.0
 42
10.0
 43
10.0
  0
MTEXT
  5
509C
330
5092
100
AcDbEntity
  8
DIM
 62
     0
440
 33554687
100
AcDbMText
 10
1437.393968732697
 20
2360.211455618634
 30
0.0
 40
24.0
 41
0.0
 46
0.0
 71
     5
 72
     1
  1
\A1;75(深さ)
  7
ＭＳ ゴシック
 73
     1
 44
1.0
  0
POINT
  5
509D
330
5092
100
AcDbEntity
  8
Defpoints
 62
     0
440
 33554687
100
AcDbPoint
 10
1543.201968732697
 20
2326.087455618635
 30
0.0
  0
POINT
  5
509E
330
5092
100
AcDbEntity
  8
Defpoints
 62
     0
440
 33554687
100
AcDbPoint
 10
1618.205952811089
 20
2326.085058135033
 30
0.0
  0
POINT
  5
509F
330
5092
100
AcDbEntity
  8
Defpoints
 62
     0
440
 33554687
100
AcDbPoint
 10
1618.205952811089
 20
2326.087455618634
 30
0.0
  0
ENDBLK
  5
5094
330
5092
100
AcDbEntity
  8
0
100
AcDbBlockEnd
  0
BLOCK
  5
50C7
330
50C6
100
AcDbEntity
  8
0
100
AcDbBlockBegin
  2
*D93
 70
     1
 10
0.0
 20
0.0
 30
0.0
  3
*D93
  1

  0
LINE
  5
50C9
330
50C6
100
AcDbEntity
  8
DIM
 62
     0
440
 33554687
370
    -2
100
AcDbLine
 10
3529.75269391438
 20
2092.668856333823
 30
0.0
 11
3529.75269391438
 21
2176.238565440834
 31
0.0
  0
LINE
  5
50CA
330
50C6
100
AcDbEntity
  8
DIM
 62
     0
440
 33554687
370
    -2
100
AcDbLine
 10
4369.754276239481
 20
2092.668856333823
 30
0.0
 11
4369.754276239481
 21
2176.238565440834
 31
0.0
  0
LINE
  5
50CB
330
50C6
100
AcDbEntity
  8
DIM
 62
     0
440
 33554687
370
    -2
100
AcDbLine
 10
3539.75269391438
 20
2176.238565440834
 30
0.0
 11
4359.754276239481
 21
2176.238565440834
 31
0.0
  0
INSERT
  5
50CC
330
50C6
100
AcDbEntity
  8
DIM
 62
     0
370
    -2
100
AcDbBlockReference
  2
_DOT
 10
3529.75269391438
 20
2176.238565440834
 30
0.0
 41
10.0
 42
10.0
 43
10.0
 50
180.0
  0
INSERT
  5
50CD
330
50C6
100
AcDbEntity
  8
DIM
 62
     0
370
    -2
100
AcDbBlockReference
  2
_DOT
 10
4369.754276239481
 20
2176.238565440834
 30
0.0
 41
10.0
 42
10.0
 43
10.0
  0
MTEXT
  5
50CE
330
50C6
100
AcDbEntity
  8
DIM
 62
     0
440
 33554687
100
AcDbMText
 10
3949.753485076931
 20
2208.238565440834
 30
0.0
 40
24.0
 41
0.0
 46
0.0
 71
     5
 72
     1
  1
\A1;840
  7
ＭＳ ゴシック
 73
     1
 44
1.0
  0
POINT
  5
50CF
330
50C6
100
AcDbEntity
  8
Defpoints
 62
     0
440
 33554687
100
AcDbPoint
 10
3529.75269391438
 20
2062.668856333823
 30
0.0
  0
POINT
  5
50D0
330
50C6
100
AcDbEntity
  8
Defpoints
 62
     0
440
 33554687
100
AcDbPoint
 10
4369.754276239481
 20
2062.668856333823
 30
0.0
  0
POINT
  5
50D1
330
50C6
100
AcDbEntity
  8
Defpoints
 62
     0
440
 33554687
100
AcDbPoint
 10
4369.754276239481
 20
2176.238565440834
 30
0.0
  0
ENDBLK
  5
50C8
330
50C6
100
AcDbEntity
  8
0
100
AcDbBlockEnd
  0
BLOCK
  5
50D3
330
50D2
100
AcDbEntity
  8
0
100
AcDbBlockBegin
  2
*D94
 70
     1
 10
0.0
 20
0.0
 30
0.0
  3
*D94
  1

  0
LINE
  5
50D5
330
50D2
100
AcDbEntity
  8
DIM
 62
     0
440
 33554687
370
    -2
100
AcDbLine
 10
4399.075982105976
 20
2070.516156999389
 30
0.0
 11
4482.774004900666
 21
2070.516156999389
 31
0.0
  0
LINE
  5
50D6
330
50D2
100
AcDbEntity
  8
DIM
 62
     0
440
 33554687
370
    -2
100
AcDbLine
 10
4399.075982105976
 20
1615.507915703922
 30
0.0
 11
4482.774004900666
 21
1615.507915703922
 31
0.0
  0
LINE
  5
50D7
330
50D2
100
AcDbEntity
  8
DIM
 62
     0
440
 33554687
370
    -2
100
AcDbLine
 10
4482.774004900666
 20
2060.516156999389
 30
0.0
 11
4482.774004900666
 21
1625.507915703922
 31
0.0
  0
INSERT
  5
50D8
330
50D2
100
AcDbEntity
  8
DIM
 62
     0
370
    -2
100
AcDbBlockReference
  2
_DOT
 10
4482.774004900666
 20
2070.516156999389
 30
0.0
 41
10.0
 42
10.0
 43
10.0
 50
90.0
  0
INSERT
  5
50D9
330
50D2
100
AcDbEntity
  8
DIM
 62
     0
370
    -2
100
AcDbBlockReference
  2
_DOT
 10
4482.774004900666
 20
1615.507915703922
 30
0.0
 41
10.0
 42
10.0
 43
10.0
 50
270.0
  0
MTEXT
  5
50DA
330
50D2
100
AcDbEntity
  8
DIM
 62
     0
440
 33554687
100
AcDbMText
 10
4450.774004900666
 20
1843.012036351656
 30
0.0
 40
24.0
 41
0.0
 46
0.0
 71
     5
 72
     1
  1
\A1;455
  7
ＭＳ ゴシック
 11
0.0
 21
1.0
 31
0.0
 73
     1
 44
1.0
  0
POINT
  5
50DB
330
50D2
100
AcDbEntity
  8
Defpoints
 62
     0
440
 33554687
100
AcDbPoint
 10
4369.075982105976
 20
2070.516156999389
 30
0.0
  0
POINT
  5
50DC
330
50D2
100
AcDbEntity
  8
Defpoints
 62
     0
440
 33554687
100
AcDbPoint
 10
4369.075982105976
 20
1615.507915703922
 30
0.0
  0
POINT
  5
50DD
330
50D2
100
AcDbEntity
  8
Defpoints
 62
     0
440
 33554687
100
AcDbPoint
 10
4482.774004900666
 20
1615.507915703922
 30
0.0
  0
ENDBLK
  5
50D4
330
50D2
100
AcDbEntity
  8
0
100
AcDbBlockEnd
  0
BLOCK
  5
50DF
330
50DE
100
AcDbEntity
  8
0
100
AcDbBlockBegin
  2
*D95
 70
     1
 10
0.0
 20
0.0
 30
0.0
  3
*D95
  1

  0
LINE
  5
50E1
330
50DE
100
AcDbEntity
  8
DIM
 62
     0
440
 33554687
370
    -2
100
AcDbLine
 10
4339.750150881482
 20
1639.533183754585
 30
0.0
 11
4339.750150881482
 21
1525.006012068241
 31
0.0
  0
LINE
  5
50E2
330
50DE
100
AcDbEntity
  8
DIM
 62
     0
440
 33554687
370
    -2
100
AcDbLine
 10
3559.755236943228
 20
1640.680224799798
 30
0.0
 11
3559.755236943228
 21
1525.006012068241
 31
0.0
  0
LINE
  5
50E3
330
50DE
100
AcDbEntity
  8
DIM
 62
     0
440
 33554687
370
    -2
100
AcDbLine
 10
4329.750150881482
 20
1525.006012068241
 30
0.0
 11
3569.755236943228
 21
1525.006012068241
 31
0.0
  0
INSERT
  5
50E4
330
50DE
100
AcDbEntity
  8
DIM
 62
     0
370
    -2
100
AcDbBlockReference
  2
_DOT
 10
4339.750150881482
 20
1525.006012068241
 30
0.0
 41
10.0
 42
10.0
 43
10.0
  0
INSERT
  5
50E5
330
50DE
100
AcDbEntity
  8
DIM
 62
     0
370
    -2
100
AcDbBlockReference
  2
_DOT
 10
3559.755236943228
 20
1525.006012068241
 30
0.0
 41
10.0
 42
10.0
 43
10.0
 50
180.0
  0
MTEXT
  5
50E6
330
50DE
100
AcDbEntity
  8
DIM
 62
     0
440
 33554687
100
AcDbMText
 10
3949.752693912355
 20
1557.006012068241
 30
0.0
 40
24.0
 41
0.0
 46
0.0
 71
     5
 72
     1
  1
\A1;780
  7
ＭＳ ゴシック
 73
     1
 44
1.0
  0
POINT
  5
50E7
330
50DE
100
AcDbEntity
  8
Defpoints
 62
     0
440
 33554687
100
AcDbPoint
 10
4339.750150881482
 20
1669.533183754585
 30
0.0
  0
POINT
  5
50E8
330
50DE
100
AcDbEntity
  8
Defpoints
 62
     0
440
 33554687
100
AcDbPoint
 10
3559.755236943228
 20
1670.680224799798
 30
0.0
  0
POINT
  5
50E9
330
50DE
100
AcDbEntity
  8
Defpoints
 62
     0
440
 33554687
100
AcDbPoint
 10
3559.755236943228
 20
1525.006012068241
 30
0.0
  0
ENDBLK
  5
50E0
330
50DE
100
AcDbEntity
  8
0
100
AcDbBlockEnd
  0
BLOCK
  5
50EB
330
50EA
100
AcDbEntity
  8
0
100
AcDbBlockBegin
  2
*D96
 70
     1
 10
0.0
 20
0.0
 30
0.0
  3
*D96
  1

  0
LINE
  5
50ED
330
50EA
100
AcDbEntity
  8
DIM
 62
     0
440
 33554687
370
    -2
100
AcDbLine
 10
3549.752712751391
 20
1645.507294074469
 30
0.0
 11
3435.525530696918
 21
1645.507294074469
 31
0.0
  0
LINE
  5
50EE
330
50EA
100
AcDbEntity
  8
DIM
 62
     0
440
 33554687
370
    -2
100
AcDbLine
 10
3559.229030744334
 20
2040.515196299692
 30
0.0
 11
3435.525530696918
 21
2040.515196299692
 31
0.0
  0
LINE
  5
50EF
330
50EA
100
AcDbEntity
  8
DIM
 62
     0
440
 33554687
370
    -2
100
AcDbLine
 10
3435.525530696918
 20
1655.507294074469
 30
0.0
 11
3435.525530696918
 21
2030.515196299692
 31
0.0
  0
INSERT
  5
50F0
330
50EA
100
AcDbEntity
  8
DIM
 62
     0
370
    -2
100
AcDbBlockReference
  2
_DOT
 10
3435.525530696918
 20
1645.507294074469
 30
0.0
 41
10.0
 42
10.0
 43
10.0
 50
270.0
  0
INSERT
  5
50F1
330
50EA
100
AcDbEntity
  8
DIM
 62
     0
370
    -2
100
AcDbBlockReference
  2
_DOT
 10
3435.525530696918
 20
2040.515196299692
 30
0.0
 41
10.0
 42
10.0
 43
10.0
 50
90.0
  0
MTEXT
  5
50F2
330
50EA
100
AcDbEntity
  8
DIM
 62
     0
440
 33554687
100
AcDbMText
 10
3403.525530696918
 20
1843.01124518708
 30
0.0
 40
24.0
 41
0.0
 46
0.0
 71
     5
 72
     1
  1
\A1;395
  7
ＭＳ ゴシック
 11
0.0
 21
1.0
 31
0.0
 73
     1
 44
1.0
  0
POINT
  5
50F3
330
50EA
100
AcDbEntity
  8
Defpoints
 62
     0
440
 33554687
100
AcDbPoint
 10
3579.752712751391
 20
1645.507294074469
 30
0.0
  0
POINT
  5
50F4
330
50EA
100
AcDbEntity
  8
Defpoints
 62
     0
440
 33554687
100
AcDbPoint
 10
3589.229030744334
 20
2040.515196299692
 30
0.0
  0
POINT
  5
50F5
330
50EA
100
AcDbEntity
  8
Defpoints
 62
     0
440
 33554687
100
AcDbPoint
 10
3435.525530696918
 20
2040.515196299692
 30
0.0
  0
ENDBLK
  5
50EC
330
50EA
100
AcDbEntity
  8
0
100
AcDbBlockEnd
  0
BLOCK
  5
512A
330
5129
100
AcDbEntity
  8
0
100
AcDbBlockBegin
  2
*D98
 70
     1
 10
0.0
 20
0.0
 30
0.0
  3
*D98
  1

  0
LINE
  5
512C
330
5129
100
AcDbEntity
  8
DIM
 62
     0
440
 33554687
370
    -2
100
AcDbLine
 10
1731.92726383981
 20
708.3251406523864
 30
0.0
 11
1812.292715077952
 21
708.3251406523864
 31
0.0
  0
LINE
  5
512D
330
5129
100
AcDbEntity
  8
DIM
 62
     0
440
 33554687
370
    -2
100
AcDbLine
 10
1731.92726383981
 20
1488.325140652386
 30
0.0
 11
1812.292715077952
 21
1488.325140652386
 31
0.0
  0
LINE
  5
512E
330
5129
100
AcDbEntity
  8
DIM
 62
     0
440
 33554687
370
    -2
100
AcDbLine
 10
1812.292715077952
 20
718.3251406523864
 30
0.0
 11
1812.292715077952
 21
1478.325140652386
 31
0.0
  0
INSERT
  5
512F
330
5129
100
AcDbEntity
  8
DIM
 62
     0
370
    -2
100
AcDbBlockReference
  2
_DOT
 10
1812.292715077952
 20
708.3251406523864
 30
0.0
 41
10.0
 42
10.0
 43
10.0
 50
270.0
  0
INSERT
  5
5130
330
5129
100
AcDbEntity
  8
DIM
 62
     0
370
    -2
100
AcDbBlockReference
  2
_DOT
 10
1812.292715077952
 20
1488.325140652386
 30
0.0
 41
10.0
 42
10.0
 43
10.0
 50
90.0
  0
MTEXT
  5
5131
330
5129
100
AcDbEntity
  8
DIM
 62
     0
440
 33554687
100
AcDbMText
 10
1780.292715077952
 20
1098.325140652386
 30
0.0
 40
24.0
 41
0.0
 46
0.0
 71
     5
 72
     1
  1
\A1;780
  7
ＭＳ ゴシック
 11
0.0
 21
1.0
 31
0.0
 73
     1
 44
1.0
  0
POINT
  5
5132
330
5129
100
AcDbEntity
  8
Defpoints
 62
     0
440
 33554687
100
AcDbPoint
 10
1701.92726383981
 20
708.3251406523864
 30
0.0
  0
POINT
  5
5133
330
5129
100
AcDbEntity
  8
Defpoints
 62
     0
440
 33554687
100
AcDbPoint
 10
1701.92726383981
 20
1488.325140652386
 30
0.0
  0
POINT
  5
5134
330
5129
100
AcDbEntity
  8
Defpoints
 62
     0
440
 33554687
100
AcDbPoint
 10
1812.292715077952
 20
1488.325140652386
 30
0.0
  0
ENDBLK
  5
512B
330
5129
100
AcDbEntity
  8
0
100
AcDbBlockEnd
  0
BLOCK
  5
513E
330
513D
100
AcDbEntity
  8
0
100
AcDbBlockBegin
  2
*D99
 70
     1
 10
0.0
 20
0.0
 30
0.0
  3
*D99
  1

  0
LINE
  5
5140
330
513D
100
AcDbEntity
  8
DIM
 62
     0
440
 33554687
370
    -2
100
AcDbLine
 10
1543.201968732696
 20
1550.774979215802
 30
0.0
 11
1543.201968732696
 21
1631.267884000461
 31
0.0
  0
LINE
  5
5141
330
513D
100
AcDbEntity
  8
DIM
 62
     0
440
 33554687
370
    -2
100
AcDbLine
 10
1698.203767689495
 20
1508.056891371217
 30
0.0
 11
1698.203767689495
 21
1631.267884000461
 31
0.0
  0
LINE
  5
5142
330
513D
100
AcDbEntity
  8
DIM
 62
     0
440
 33554687
370
    -2
100
AcDbLine
 10
1553.201968732696
 20
1631.267884000461
 30
0.0
 11
1688.203767689495
 21
1631.267884000461
 31
0.0
  0
INSERT
  5
5143
330
513D
100
AcDbEntity
  8
DIM
 62
     0
370
    -2
100
AcDbBlockReference
  2
_DOT
 10
1543.201968732696
 20
1631.267884000461
 30
0.0
 41
10.0
 42
10.0
 43
10.0
 50
180.0
  0
INSERT
  5
5144
330
513D
100
AcDbEntity
  8
DIM
 62
     0
370
    -2
100
AcDbBlockReference
  2
_DOT
 10
1698.203767689495
 20
1631.267884000461
 30
0.0
 41
10.0
 42
10.0
 43
10.0
  0
MTEXT
  5
5145
330
513D
100
AcDbEntity
  8
DIM
 62
     0
440
 33554687
100
AcDbMText
 10
1620.702868211095
 20
1663.267884000461
 30
0.0
 40
24.0
 41
0.0
 46
0.0
 71
     5
 72
     1
  1
\A1;155
  7
ＭＳ ゴシック
 73
     1
 44
1.0
  0
POINT
  5
5146
330
513D
100
AcDbEntity
  8
Defpoints
 62
     0
440
 33554687
100
AcDbPoint
 10
1543.201968732696
 20
1520.774979215802
 30
0.0
  0
POINT
  5
5147
330
513D
100
AcDbEntity
  8
Defpoints
 62
     0
440
 33554687
100
AcDbPoint
 10
1698.203767689495
 20
1478.056891371217
 30
0.0
  0
POINT
  5
5148
330
513D
100
AcDbEntity
  8
Defpoints
 62
     0
440
 33554687
100
AcDbPoint
 10
1698.203767689495
 20
1631.267884000461
 30
0.0
  0
ENDBLK
  5
513F
330
513D
100
AcDbEntity
  8
0
100
AcDbBlockEnd
  0
BLOCK
  5
5177
330
5176
100
AcDbEntity
  8
0
100
AcDbBlockBegin
  2
*D100
 70
     1
 10
0.0
 20
0.0
 30
0.0
  3
*D100
  1

  0
LINE
  5
5179
330
5176
100
AcDbEntity
  8
DIM
 62
     0
440
 33554687
370
    -2
100
AcDbLine
 10
439.0964607416861
 20
2678.612765081555
 30
0.0
 11
439.0964607416861
 21
2750.66400217317
 31
0.0
  0
LINE
  5
517A
330
5176
100
AcDbEntity
  8
DIM
 62
     0
440
 33554687
370
    -2
100
AcDbLine
 10
819.0964607416861
 20
2678.612765081555
 30
0.0
 11
819.0964607416861
 21
2750.66400217317
 31
0.0
  0
LINE
  5
517B
330
5176
100
AcDbEntity
  8
DIM
 62
     0
440
 33554687
370
    -2
100
AcDbLine
 10
449.0964607416861
 20
2750.66400217317
 30
0.0
 11
809.0964607416861
 21
2750.66400217317
 31
0.0
  0
INSERT
  5
517C
330
5176
100
AcDbEntity
  8
DIM
 62
     0
370
    -2
100
AcDbBlockReference
  2
_DOT
 10
439.0964607416861
 20
2750.66400217317
 30
0.0
 41
10.0
 42
10.0
 43
10.0
 50
180.0
  0
INSERT
  5
517D
330
5176
100
AcDbEntity
  8
DIM
 62
     0
370
    -2
100
AcDbBlockReference
  2
_DOT
 10
819.0964607416861
 20
2750.66400217317
 30
0.0
 41
10.0
 42
10.0
 43
10.0
  0
MTEXT
  5
517E
330
5176
100
AcDbEntity
  8
DIM
 62
     0
440
 33554687
100
AcDbMText
 10
629.0964607416861
 20
2782.66400217317
 30
0.0
 40
24.0
 41
0.0
 46
0.0
 71
     5
 72
     1
  1
\A1;380
  7
ＭＳ ゴシック
 73
     1
 44
1.0
  0
POINT
  5
517F
330
5176
100
AcDbEntity
  8
Defpoints
 62
     0
440
 33554687
100
AcDbPoint
 10
439.0964607416861
 20
2648.612765081555
 30
0.0
  0
POINT
  5
5180
330
5176
100
AcDbEntity
  8
Defpoints
 62
     0
440
 33554687
100
AcDbPoint
 10
819.0964607416861
 20
2648.612765081555
 30
0.0
  0
POINT
  5
5181
330
5176
100
AcDbEntity
  8
Defpoints
 62
     0
440
 33554687
100
AcDbPoint
 10
819.0964607416861
 20
2750.66400217317
 30
0.0
  0
ENDBLK
  5
5178
330
5176
100
AcDbEntity
  8
0
100
AcDbBlockEnd
  0
BLOCK
  5
5186
330
5185
100
AcDbEntity
  8
0
100
AcDbBlockBegin
  2
*D101
 70
     1
 10
0.0
 20
0.0
 30
0.0
  3
*D101
  1

  0
LINE
  5
5188
330
5185
100
AcDbEntity
  8
DIM
 62
     0
440
 33554687
370
    -2
100
AcDbLine
 10
409.0964607416861
 20
2648.612765081555
 30
0.0
 11
311.4267934028934
 21
2648.612765081555
 31
0.0
  0
LINE
  5
5189
330
5185
100
AcDbEntity
  8
DIM
 62
     0
440
 33554687
370
    -2
100
AcDbLine
 10
409.0964607416861
 20
1883.612765081555
 30
0.0
 11
311.4267934028933
 21
1883.612765081555
 31
0.0
  0
LINE
  5
518A
330
5185
100
AcDbEntity
  8
DIM
 62
     0
440
 33554687
370
    -2
100
AcDbLine
 10
311.4267934028934
 20
2638.612765081555
 30
0.0
 11
311.4267934028933
 21
1893.612765081555
 31
0.0
  0
INSERT
  5
518B
330
5185
100
AcDbEntity
  8
DIM
 62
     0
370
    -2
100
AcDbBlockReference
  2
_DOT
 10
311.4267934028934
 20
2648.612765081555
 30
0.0
 41
10.0
 42
10.0
 43
10.0
 50
90.0
  0
INSERT
  5
518C
330
5185
100
AcDbEntity
  8
DIM
 62
     0
370
    -2
100
AcDbBlockReference
  2
_DOT
 10
311.4267934028933
 20
1883.612765081555
 30
0.0
 41
10.0
 42
10.0
 43
10.0
 50
270.0
  0
MTEXT
  5
518D
330
5185
100
AcDbEntity
  8
DIM
 62
     0
440
 33554687
100
AcDbMText
 10
279.4267934028934
 20
2266.112765081555
 30
0.0
 40
24.0
 41
0.0
 46
0.0
 71
     5
 72
     1
  1
\A1;765
  7
ＭＳ ゴシック
 11
7.430512269386668E-17
 21
1.0
 31
0.0
 73
     1
 44
1.0
  0
POINT
  5
518E
330
5185
100
AcDbEntity
  8
Defpoints
 62
     0
440
 33554687
100
AcDbPoint
 10
439.0964607416861
 20
2648.612765081555
 30
0.0
  0
POINT
  5
518F
330
5185
100
AcDbEntity
  8
Defpoints
 62
     0
440
 33554687
100
AcDbPoint
 10
439.0964607416861
 20
1883.612765081555
 30
0.0
  0
POINT
  5
5190
330
5185
100
AcDbEntity
  8
Defpoints
 62
     0
440
 33554687
100
AcDbPoint
 10
311.4267934028933
 20
1883.612765081555
 30
0.0
  0
ENDBLK
  5
5187
330
5185
100
AcDbEntity
  8
0
100
AcDbBlockEnd
  0
ENDSEC
  0
SECTION
  2
ENTITIES
  0
MTEXT
  5
177
330
A
100
AcDbEntity
  8
TEMPLATE
390
1D
100
AcDbMText
 10
79.20214454773075
 20
343.7317516314282
 30
0.0
 40
16.28841145833333
 41
0.0
 46
0.0
 71
     1
 72
     1
  1
品名
  7
ＭＳ ゴシック
 73
     1
 44
0.7828267384257843
  0
MTEXT
  5
178
330
A
100
AcDbEntity
  8
TEMPLATE
390
1D
100
AcDbMText
 10
79.20214454773075
 20
258.731751631428
 30
0.0
 40
16.28841145833333
 41
0.0
 46
0.0
 71
     1
 72
     1
  1
仕様
  7
ＭＳ ゴシック
 73
     1
 44
0.7828267384257843
  0
LINE
  5
179
330
A
100
AcDbEntity
  8
TEMPLATE
390
1D
100
AcDbLine
 10
2022.202144547248
 20
267.1466735064284
 30
0.0
 11
72.20214454724874
 21
267.1466735064284
 31
0.0
  0
LWPOLYLINE
  5
17A
330
A
100
AcDbEntity
  8
TEMPLATE
390
1D
100
AcDbPolyline
 90
        5
 70
   128
 43
0.0
 10
2022.202144547248
 20
2897.146673506426
 10
72.20214454724874
 20
2897.146673506426
 10
72.20214454724874
 20
97.14667350642826
 10
2022.202144547248
 20
97.14667350642826
 10
2022.202144547248
 20
2897.146673506426
  0
LINE
  5
17B
330
A
100
AcDbEntity
  8
TEMPLATE
390
1D
100
AcDbLine
 10
2022.202144547248
 20
352.1466735064282
 30
0.0
 11
72.20214454724874
 21
352.1466735064282
 31
0.0
  0
LINE
  5
17C
330
A
100
AcDbEntity
  8
TEMPLATE
390
1D
100
AcDbLine
 10
2022.202144547732
 20
182.1466735064282
 30
0.0
 11
1269.20214454773
 21
182.1466735064282
 31
0.0
  0
MTEXT
  5
17E
330
A
100
AcDbEntity
  8
TEMPLATE
390
1D
100
AcDbMText
 10
1299.073550799991
 20
152.2362790331201
 30
0.0
 40
24.4326171875
 41
0.0
 46
0.0
 71
     1
 72
     1
  1
大洋金物株式会社 ティーフォルム事業部
  7
ＭＳ ゴシック
 73
     1
 44
0.7828267384257843
  0
MTEXT
  5
180
330
A
100
AcDbEntity
  8
TEMPLATE
390
1D
100
AcDbMText
 10
1831.20214454799
 20
230.1492906939282
 30
0.0
 40
24.4326171875
 41
0.0
 46
24.4326171875
 71
     1
 72
     1
  1
{1:10}
  7
ＭＳ ゴシック
 73
     1
 44
0.7828267384257843
1001
ACAD
1000
ACAD_MTEXT_DEFINED_HEIGHT_BEGIN
1070
    46
1040
24.4326171875
1000
ACAD_MTEXT_DEFINED_HEIGHT_END
  0
MTEXT
  5
181
330
A
100
AcDbEntity
  8
TEMPLATE
390
1D
100
AcDbMText
 10
1778.20214454799
 20
258.731751631428
 30
0.0
 40
16.28841145833333
 41
0.0
 46
0.0
 71
     1
 72
     1
  1
縮尺
  7
ＭＳ ゴシック
 73
     1
 44
0.7828267384257843
  0
LINE
  5
182
330
A
100
AcDbEntity
  8
TEMPLATE
390
1D
100
AcDbLine
 10
1771.20214454799
 20
182.1466735064282
 30
0.0
 11
1771.20214454799
 21
267.1466735064284
 31
0.0
  0
MTEXT
  5
183
330
A
100
AcDbEntity
  8
TEMPLATE
390
1D
100
AcDbMText
 10
1527.20214454799
 20
258.731751631428
 30
0.0
 40
16.28841145833333
 41
0.0
 46
0.0
 71
     1
 72
     1
  1
容量
  7
ＭＳ ゴシック
 73
     1
 44
0.7828267384257843
  0
LINE
  5
184
330
A
100
AcDbEntity
  8
TEMPLATE
390
1D
100
AcDbLine
 10
1520.20214454799
 20
182.1466735064282
 30
0.0
 11
1520.20214454799
 21
267.1466735064284
 31
0.0
  0
MTEXT
  5
185
330
A
100
AcDbEntity
  8
TEMPLATE
390
1D
100
AcDbMText
 10
1276.20214454799
 20
343.7317516314282
 30
0.0
 40
16.28841145833333
 41
0.0
 46
0.0
 71
     1
 72
     1
  1
品番
  7
ＭＳ ゴシック
 73
     1
 44
0.7828267384257843
  0
MTEXT
  5
186
330
A
100
AcDbEntity
  8
TEMPLATE
390
1D
100
AcDbMText
 10
1276.20214454799
 20
258.731751631428
 30
0.0
 40
16.28841145833333
 41
0.0
 46
0.0
 71
     1
 72
     1
  1
重量
  7
ＭＳ ゴシック
 73
     1
 44
0.7828267384257843
  0
MTEXT
  5
187
330
A
100
AcDbEntity
  8
TEMPLATE
390
1D
100
AcDbMText
 10
1329.20214454799
 20
315.1492906939282
 30
0.0
 40
24.4326171875
 41
0.0
 46
24.4326171875
 71
     1
 72
     1
  1
{ALC70-0301}
  7
ＭＳ ゴシック
 73
     1
 44
0.7828267384257843
1001
ACAD
1000
ACAD_MTEXT_DEFINED_HEIGHT_BEGIN
1070
    46
1040
24.4326171875
1000
ACAD_MTEXT_DEFINED_HEIGHT_END
  0
LINE
  5
188
330
A
100
AcDbEntity
  8
TEMPLATE
390
1D
100
AcDbLine
 10
1269.20214454799
 20
97.14667350642826
 30
0.0
 11
1269.20214454799
 21
352.1466735064282
 31
0.0
  0
INSERT
  5
6B5
330
A
100
AcDbEntity
  8
TEMPLATE
100
AcDbBlockReference
  2
名称未設定-1
 10
1870.75074808845
 20
25.94676575665382
 30
0.0
 41
0.7619999999999998
 42
0.7619999999999998
 43
0.7619999999999998
  0
INSERT
  5
68C
330
A
100
AcDbEntity
  8
TEMPLATE
100
AcDbBlockReference
  2
block 2
 10
919.2743017702577
 20
8.373076514336368
 30
0.0
 41
0.3809999999999999
 42
0.3809999999999999
 43
0.3809999999999999
  0
LWPOLYLINE
  5
DAC
330
A
100
AcDbEntity
  8
BORDER
100
AcDbPolyline
 90
        4
 70
     1
 43
0.0
 10
0.0
 20
0.0
 10
0.0
 20
2970.0
 10
2100.0
 20
2970.0
 10
2100.0
 20
0.0
  0
MTEXT
  5
121B
330
A
100
AcDbEntity
  8
TEMPLATE
390
1D
100
AcDbMText
 10
1329.20214454799
 20
227.1688729773101
 30
0.0
 40
24.4326171875
 41
0.0
 46
28.390701171875
 71
     1
 72
     1
  1
{23kg}
  7
ＭＳ ゴシック
 73
     1
 44
0.7828267384257843
1001
ACAD
1000
ACAD_MTEXT_DEFINED_HEIGHT_BEGIN
1070
    46
1040
28.390701171875
1000
ACAD_MTEXT_DEFINED_HEIGHT_END
  0
MTEXT
  5
1466
102
{ACAD_XDICTIONARY
360
1468
102
}
330
A
100
AcDbEntity
  8
TEMPLATE
 48
0.05
100
AcDbMText
 10
74.728656548571
 20
83.86172105142839
 30
0.0
 40
22.0
 41
0.0
 46
22.0
 71
     1
 72
     1
  1
{20171023N}
  7
ＭＳ ゴシック
 73
     1
 44
1.0
1001
ACAD
1000
ACAD_MTEXT_DEFINED_HEIGHT_BEGIN
1070
    46
1040
22.0
1000
ACAD_MTEXT_DEFINED_HEIGHT_END
  0
MTEXT
  5
146D
330
A
100
AcDbEntity
  8
TEMPLATE
390
1D
100
AcDbMText
 10
1583.904999862276
 20
227.1688729773101
 30
0.0
 40
24.4326171875
 41
0.0
 46
24.4326171875
 71
     1
 72
     1
  1
{14L}
  7
ＭＳ ゴシック
 73
     1
 44
0.7828267384257843
1001
ACAD
1000
ACAD_MTEXT_DEFINED_HEIGHT_BEGIN
1070
    46
1040
24.4326171875
1000
ACAD_MTEXT_DEFINED_HEIGHT_END
  0
POINT
  5
262A
330
A
100
AcDbEntity
  8
Layer9
  6
Continuous
 62
     7
100
AcDbPoint
 10
1037.460145007193
 20
1010.220672371878
 30
0.0
  0
POINT
  5
262B
330
A
100
AcDbEntity
  8
Layer9
  6
Continuous
 62
     7
100
AcDbPoint
 10
1037.460146257193
 20
1010.220672788578
 30
0.0
  0
POINT
  5
262C
330
A
100
AcDbEntity
  8
Layer9
  6
Continuous
 62
     7
100
AcDbPoint
 10
1037.853693340493
 20
1015.267975288578
 30
0.0
  0
POINT
  5
2812
330
A
100
AcDbEntity
  8
Layer9
  6
Continuous
 62
     7
100
AcDbPoint
 10
925.7934783404928
 20
1010.220672371878
 30
0.0
  0
POINT
  5
2813
330
A
100
AcDbEntity
  8
Layer9
  6
Continuous
 62
     7
100
AcDbPoint
 10
925.7934795904928
 20
1010.220672788578
 30
0.0
  0
POINT
  5
2814
330
A
100
AcDbEntity
  8
Layer9
  6
Continuous
 62
     7
100
AcDbPoint
 10
926.1870266737928
 20
1015.267975288578
 30
0.0
  0
INSERT
  5
28CA
330
A
100
AcDbEntity
  8
Layer3
100
AcDbBlockReference
  2
SEANNOT_GROUP
 10
859.7083018867928
 20
826.1905269541776
 30
0.0
  0
POINT
  5
2A52
330
A
100
AcDbEntity
  8
Standard
  6
Continuous
 62
     7
100
AcDbPoint
 10
1036.111241014893
 20
1018.794321538578
 30
0.0
  0
INSERT
  5
2B9B
330
A
100
AcDbEntity
  8
Layer3
100
AcDbBlockReference
  2
SEANNOT_GROUP1
 10
859.7083018867928
 20
826.1905269541776
 30
0.0
  0
MTEXT
  5
4973
330
A
100
AcDbEntity
  8
DIM
390
1D
100
AcDbMText
 10
1084.829967769027
 20
1942.227397864674
 30
0.0
 40
24.0
 41
949.7161250932049
 46
111.8331968503937
 71
     1
 72
     1
  1
{※陶器製品には寸法公差があります。\P  洗面器の収め方をご確認の上、必ず現物を合わせて\P  カウンターに切込を行ってください。}
  7
ＭＳ ゴシック
 11
6.123233995736766E-17
 21
1.0
 31
0.0
 73
     1
 44
0.9822934569727008
1001
ACAD
1000
ACAD_MTEXT_DEFINED_HEIGHT_BEGIN
1070
    46
1040
111.8331968503937
1000
ACAD_MTEXT_DEFINED_HEIGHT_END
  0
MTEXT
  5
4D58
330
A
100
AcDbEntity
  8
TEMPLATE
390
1D
100
AcDbMText
 10
125.2543452760364
 20
226.8119760293952
 30
0.0
 40
24.4326171875
 41
0.0
 46
26.28949609375
 71
     1
 72
     1
  1
{アンダーカウンター/オーバーフロー付き}
  7
ＭＳ ゴシック
 73
     1
 44
0.9331787841240657
1001
ACAD
1000
ACAD_MTEXT_DEFINED_HEIGHT_BEGIN
1070
    46
1040
26.28949609375
1000
ACAD_MTEXT_DEFINED_HEIGHT_END
  0
MTEXT
  5
4D59
330
A
100
AcDbEntity
  8
TEMPLATE
390
1D
100
AcDbMText
 10
125.2543452760362
 20
185.5402985219355
 30
0.0
 40
24.4326171875
 41
0.0
 46
25.556517578125
 71
     1
 72
     1
  1
{陶器/ホワイト}
  7
ＭＳ ゴシック
 73
     1
 44
0.9331787841240657
1001
ACAD
1000
ACAD_MTEXT_DEFINED_HEIGHT_BEGIN
1070
    46
1040
25.556517578125
1000
ACAD_MTEXT_DEFINED_HEIGHT_END
  0
MTEXT
  5
4D5A
330
A
100
AcDbEntity
  8
TEMPLATE
390
1D
100
AcDbMText
 10
132.2021445477307
 20
315.1492906939283
 30
0.0
 40
24.4326171875
 41
0.0
 46
27.5355595703125
 71
     1
 72
     1
  1
{洗面器　-ALICE CERAMICA, Cubic-}
  7
ＭＳ ゴシック
 73
     1
 44
0.7828267384257843
1001
ACAD
1000
ACAD_MTEXT_DEFINED_HEIGHT_BEGIN
1070
    46
1040
27.5355595703125
1000
ACAD_MTEXT_DEFINED_HEIGHT_END
  0
SPLINE
  5
4EC6
330
A
100
AcDbEntity
  8
HIDDEN
 48
0.5
100
AcDbSpline
210
0.0
220
0.0
230
1.0
 70
     8
 71
     3
 72
     8
 73
     4
 74
     0
 42
0.000000001
 43
0.0000000001
 40
0.0
 40
0.0
 40
0.0
 40
0.0
 40
1.0
 40
1.0
 40
1.0
 40
1.0
 10
1547.540715264267
 20
2404.913403927686
 30
0.0
 10
1545.058040826617
 20
2405.242528391057
 30
0.0
 10
1543.201968732697
 20
2407.362849453167
 30
0.0
 10
1543.201968732697
 20
2409.866094169778
 30
0.0
  0
SPLINE
  5
4EC7
330
A
100
AcDbEntity
  8
MODEL
100
AcDbSpline
210
0.0
220
0.0
230
1.0
 70
     8
 71
     3
 72
     8
 73
     4
 74
     0
 42
0.000000001
 43
0.0000000001
 40
0.0
 40
0.0
 40
0.0
 40
0.0
 40
1.0
 40
1.0
 40
1.0
 40
1.0
 10
1543.201968732697
 20
2418.989804053451
 30
0.0
 10
1543.201968732697
 20
2419.265129325694
 30
0.0
 10
1543.425077142963
 20
2419.492984723414
 30
0.0
 10
1543.703567073509
 20
2419.492984723414
 30
0.0
  0
SPLINE
  5
4EC8
330
A
100
AcDbEntity
  8
MODEL
100
AcDbSpline
210
0.0
220
0.0
230
1.0
 70
     8
 71
     3
 72
     8
 73
     4
 74
     0
 42
0.000000001
 43
0.0000000001
 40
0.0
 40
0.0
 40
0.0
 40
0.0
 40
1.0
 40
1.0
 40
1.0
 40
1.0
 10
1543.703567073509
 20
2419.492984723414
 30
0.0
 10
1543.975727687451
 20
2419.492984723414
 30
0.0
 10
1544.20358308517
 20
2419.711346146228
 30
0.0
 10
1544.20358308517
 20
2419.986671418473
 30
0.0
  0
SPLINE
  5
4EC9
330
A
100
AcDbEntity
  8
MODEL
100
AcDbSpline
210
0.0
220
0.0
230
1.0
 70
     8
 71
     3
 72
     8
 73
     4
 74
     0
 42
0.000000001
 43
0.0000000001
 40
0.0
 40
0.0
 40
0.0
 40
0.0
 40
1.0
 40
1.0
 40
1.0
 40
1.0
 10
1544.20358308517
 20
2420.989868100097
 30
0.0
 10
1544.20358308517
 20
2421.26519337234
 30
0.0
 10
1543.977310016602
 20
2421.489884111759
 30
0.0
 10
1543.705149402659
 20
2421.489884111759
 30
0.0
  0
SPLINE
  5
4ECA
330
A
100
AcDbEntity
  8
MODEL
100
AcDbSpline
210
0.0
220
0.0
230
1.0
 70
     8
 71
     3
 72
     8
 73
     4
 74
     0
 42
0.000000001
 43
0.0000000001
 40
0.0
 40
0.0
 40
0.0
 40
0.0
 40
1.0
 40
1.0
 40
1.0
 40
1.0
 10
1543.703567073509
 20
2421.489884111759
 30
0.0
 10
1543.425077142963
 20
2421.489884111759
 30
0.0
 10
1543.201968732697
 20
2421.714574851177
 30
0.0
 10
1543.201968732697
 20
2421.98990012342
 30
0.0
  0
SPLINE
  5
4ECB
330
A
100
AcDbEntity
  8
MODEL
100
AcDbSpline
210
0.0
220
0.0
230
1.0
 70
     8
 71
     3
 72
     8
 73
     4
 74
     0
 42
0.000000001
 43
0.0000000001
 40
0.0
 40
0.0
 40
0.0
 40
0.0
 40
1.0
 40
1.0
 40
1.0
 40
1.0
 10
1543.201968732697
 20
2430.490172321668
 30
0.0
 10
1543.201968732697
 20
2432.664292574905
 30
0.0
 10
1544.611824006084
 20
2434.591569480613
 30
0.0
 10
1546.679928206216
 20
2435.256147723961
 30
0.0
  0
SPLINE
  5
4ECC
330
A
100
AcDbEntity
  8
MODEL
100
AcDbSpline
210
0.0
220
0.0
230
1.0
 70
     8
 71
     3
 72
     8
 73
     4
 74
     0
 42
0.000000001
 43
0.0000000001
 40
0.0
 40
0.0
 40
0.0
 40
0.0
 40
1.0
 40
1.0
 40
1.0
 40
1.0
 10
1546.678345877065
 20
2435.256147723961
 30
0.0
 10
1547.670466254634
 20
2435.569448895825
 30
0.0
 10
1548.425237259579
 20
2436.376436762748
 30
0.0
 10
1548.67524526541
 20
2437.382798102675
 30
0.0
  0
SPLINE
  5
4ECD
330
A
100
AcDbEntity
  8
MODEL
100
AcDbSpline
210
0.0
220
0.0
230
1.0
 70
     8
 71
     3
 72
     8
 73
     4
 74
     0
 42
0.000000001
 43
0.0000000001
 40
0.0
 40
0.0
 40
0.0
 40
0.0
 40
1.0
 40
1.0
 40
1.0
 40
1.0
 10
1552.632650471631
 20
2453.21874824416
 30
0.0
 10
1552.969686580756
 20
2454.554234047458
 30
0.0
 10
1554.169092077084
 20
2455.490972904748
 30
0.0
 10
1555.545718438305
 20
2455.490972904748
 30
0.0
  0
SPLINE
  5
4ED2
330
A
100
AcDbEntity
  8
HIDDEN
 48
0.5
100
AcDbSpline
210
0.0
220
0.0
230
1.0
 70
     8
 71
     3
 72
     8
 73
     4
 74
     0
 42
0.000000001
 43
0.0000000001
 40
0.0
 40
0.0
 40
0.0
 40
0.0
 40
1.0
 40
1.0
 40
1.0
 40
1.0
 10
1637.423340347894
 20
2346.436847829691
 30
0.0
 10
1636.390079412404
 20
2346.436847829691
 30
0.0
 10
1635.378971085024
 20
2346.759642976459
 30
0.0
 10
1634.532424989332
 20
2347.357763395471
 30
0.0
  0
SPLINE
  5
4ED3
330
A
100
AcDbEntity
  8
HIDDEN
 48
0.5
100
AcDbSpline
210
0.0
220
0.0
230
1.0
 70
     8
 71
     3
 72
     8
 73
     4
 74
     0
 42
0.000000001
 43
0.0000000001
 40
0.0
 40
0.0
 40
0.0
 40
0.0
 40
1.0
 40
1.0
 40
1.0
 40
1.0
 10
1634.534007318483
 20
2347.357763395471
 30
0.0
 10
1629.511694593754
 20
2350.918003984834
 30
0.0
 10
1624.487799539876
 20
2354.481409232499
 30
0.0
 10
1619.471816131751
 20
2358.041649821861
 30
0.0
  0
SPLINE
  5
4ED4
330
A
100
AcDbEntity
  8
HIDDEN
 48
0.5
100
AcDbSpline
210
0.0
220
0.0
230
1.0
 70
     8
 71
     3
 72
    11
 73
     7
 74
     0
 42
0.000000001
 43
0.0000000001
 40
0.0
 40
0.0
 40
0.0
 40
0.0
 40
1.0
 40
1.0
 40
1.0
 40
2.0
 40
2.0
 40
2.0
 40
2.0
 10
1619.470233802601
 20
2358.041649821861
 30
0.0
 10
1619.077816173195
 20
2358.316975094107
 30
0.0
 10
1618.759768013879
 20
2358.687240115399
 30
0.0
 10
1618.539824261914
 20
2359.111304327821
 30
0.0
 10
1618.319880509949
 20
2359.535368540244
 30
0.0
 10
1618.205952811089
 20
2360.010067285491
 30
0.0
 10
1618.205952811089
 20
2360.487930689041
 30
0.0
  0
SPLINE
  5
4ED5
330
A
100
AcDbEntity
  8
HIDDEN
 48
0.5
100
AcDbSpline
210
0.0
220
0.0
230
1.0
 70
     8
 71
     3
 72
     8
 73
     4
 74
     0
 42
0.000000001
 43
0.0000000001
 40
0.0
 40
0.0
 40
0.0
 40
0.0
 40
1.0
 40
1.0
 40
1.0
 40
1.0
 10
1618.205952811089
 20
2386.732441984673
 30
0.0
 10
1618.205952811089
 20
2391.745260734496
 30
0.0
 10
1614.492226294096
 20
2395.985902858716
 30
0.0
 10
1609.525295089647
 20
2396.647316443761
 30
0.0
  0
SPLINE
  5
4ED7
330
A
100
AcDbEntity
  8
MODEL
100
AcDbSpline
210
0.0
220
0.0
230
1.0
 70
     8
 71
     3
 72
     8
 73
     4
 74
     0
 42
0.000000001
 43
0.0000000001
 40
0.0
 40
0.0
 40
0.0
 40
0.0
 40
1.0
 40
1.0
 40
1.0
 40
1.0
 10
1628.517991887034
 20
2455.490972904748
 30
0.0
 10
1645.716327427383
 20
2455.490972904748
 30
0.0
 10
1660.367113034898
 20
2443.003231246415
 30
0.0
 10
1663.082389857719
 20
2426.012180824825
 30
0.0
  0
SPLINE
  5
4EDB
330
A
100
AcDbEntity
  8
MODEL
100
AcDbSpline
210
0.0
220
0.0
230
1.0
 70
     8
 71
     3
 72
    14
 73
    10
 74
     0
 42
0.000000001
 43
0.0000000001
 40
0.0
 40
0.0
 40
0.0
 40
0.0
 40
1.0
 40
1.0
 40
1.0
 40
2.0
 40
2.0
 40
2.0
 40
3.0
 40
3.0
 40
3.0
 40
3.0
 10
1663.080807528569
 20
2407.989451796895
 30
0.0
 10
1663.080807528569
 20
2407.989451796895
 30
0.0
 10
1693.208354560332
 20
2407.989451796895
 30
0.0
 10
1693.208354560332
 20
2407.989451796895
 30
0.0
 10
1695.966354270225
 20
2407.989451796895
 30
0.0
 10
1698.205350018646
 20
2405.748873719323
 30
0.0
 10
1698.205350018646
 20
2402.98929168028
 30
0.0
 10
1698.205350018646
 20
2402.98929168028
 30
0.0
 10
1698.205350018646
 20
2087.979204333461
 30
0.0
 10
1698.205350018646
 20
2087.979204333461
 30
0.0
  0
SPLINE
  5
4EE0
102
{ACAD_REACTORS
102
}
330
A
100
AcDbEntity
  8
MODEL
100
AcDbSpline
210
0.0
220
0.0
230
1.0
 70
    11
 71
     3
 72
    29
 73
    25
 74
     0
 42
0.000000001
 43
0.0000000001
 40
0.0
 40
0.0
 40
0.0
 40
0.0
 40
1.0
 40
1.0
 40
1.0
 40
2.0
 40
2.0
 40
2.0
 40
3.0
 40
3.0
 40
3.0
 40
4.0
 40
4.0
 40
4.0
 40
5.0
 40
5.0
 40
5.0
 40
6.0
 40
6.0
 40
6.0
 40
7.0
 40
7.0
 40
7.0
 40
8.0
 40
8.0
 40
8.0
 40
8.0
 10
856.6005813894194
 20
688.2453109182557
 30
0.0
 10
856.6005813894194
 20
688.2453109182557
 30
0.0
 10
856.6005813894194
 20
1508.243088118591
 30
0.0
 10
856.6005813894194
 20
1508.243088118591
 30
0.0
 10
856.6005813894194
 20
1513.768581513281
 30
0.0
 10
852.1257545508784
 20
1518.248155339274
 30
0.0
 10
846.6034258144887
 20
1518.248155339274
 30
0.0
 10
846.6034258144887
 20
1518.248155339274
 30
0.0
 10
411.5910779980341
 20
1518.248155339274
 30
0.0
 10
411.5910779980341
 20
1518.248155339274
 30
0.0
 10
406.0687492616448
 20
1518.248155339274
 30
0.0
 10
401.5939224231038
 20
1513.768581513281
 30
0.0
 10
401.5939224231038
 20
1508.243088118591
 30
0.0
 10
401.5939224231038
 20
1508.243088118591
 30
0.0
 10
401.5939224231038
 20
688.2453109182557
 30
0.0
 10
401.5939224231038
 20
688.2453109182557
 30
0.0
 10
401.5939224231038
 20
682.722982181866
 30
0.0
 10
406.0687492616448
 20
678.2481553433249
 30
0.0
 10
411.5910779980341
 20
678.2481553433249
 30
0.0
 10
411.5910779980341
 20
678.2481553433249
 30
0.0
 10
846.6034258144887
 20
678.2481553433249
 30
0.0
 10
846.6034258144887
 20
678.2481553433249
 30
0.0
 10
852.1257545508784
 20
678.2481553433249
 30
0.0
 10
856.6005813894194
 20
682.722982181866
 30
0.0
 10
856.6005813894194
 20
688.2453109182557
 30
0.0
  0
SPLINE
  5
4EE1
330
A
100
AcDbEntity
  8
MODEL
100
AcDbSpline
210
0.0
220
0.0
230
1.0
 70
     8
 71
     3
 72
    14
 73
    10
 74
     0
 42
0.000000001
 43
0.0000000001
 40
0.0
 40
0.0
 40
0.0
 40
0.0
 40
1.0
 40
1.0
 40
1.0
 40
2.0
 40
2.0
 40
2.0
 40
3.0
 40
3.0
 40
3.0
 40
3.0
 10
401.4451834829256
 20
1158.106875952543
 30
0.0
 10
401.4451834829256
 20
1158.106875952543
 30
0.0
 10
385.1092173297784
 20
1150.760121705249
 30
0.0
 10
385.1092173297784
 20
1141.770909799396
 30
0.0
 10
385.1092173297784
 20
1141.770909799396
 30
0.0
 10
385.1092173297784
 20
1054.576661943026
 30
0.0
 10
385.1092173297784
 20
1054.576661943026
 30
0.0
 10
385.1092173297784
 20
1045.570044416513
 30
0.0
 10
401.4451834829256
 20
1038.247025106481
 30
0.0
 10
401.4451834829256
 20
1038.247025106481
 30
0.0
  0
SPLINE
  5
4EE2
330
A
100
AcDbEntity
  8
MODEL
100
AcDbSpline
210
0.0
220
0.0
230
1.0
 70
    11
 71
     3
 72
    17
 73
    13
 74
     0
 42
0.000000001
 43
0.0000000001
 40
0.0
 40
0.0
 40
0.0
 40
0.0
 40
1.0
 40
1.0
 40
1.0
 40
2.0
 40
2.0
 40
2.0
 40
3.0
 40
3.0
 40
3.0
 40
4.0
 40
4.0
 40
4.0
 40
4.0
 10
511.5942803303574
 20
1133.256396638792
 30
0.0
 10
492.2645474238439
 20
1133.256396638792
 30
0.0
 10
476.5931595140441
 20
1117.585008728991
 30
0.0
 10
476.5931595140441
 20
1098.258440480781
 30
0.0
 10
476.5931595140441
 20
1078.923960586814
 30
0.0
 10
492.2645474238439
 20
1063.252572677015
 30
0.0
 10
511.5942803303574
 20
1063.252572677015
 30
0.0
 10
530.9240132368709
 20
1063.252572677015
 30
0.0
 10
546.5954011466706
 20
1078.923960586814
 30
0.0
 10
546.5954011466706
 20
1098.258440480781
 30
0.0
 10
546.5954011466706
 20
1117.585008728991
 30
0.0
 10
530.9240132368709
 20
1133.256396638792
 30
0.0
 10
511.5942803303574
 20
1133.256396638792
 30
0.0
  0
SPLINE
  5
4EE3
330
A
100
AcDbEntity
  8
MODEL
100
AcDbSpline
210
0.0
220
0.0
230
1.0
 70
    11
 71
     3
 72
    17
 73
    13
 74
     0
 42
0.000000001
 43
0.0000000001
 40
0.0
 40
0.0
 40
0.0
 40
0.0
 40
1.0
 40
1.0
 40
1.0
 40
2.0
 40
2.0
 40
2.0
 40
3.0
 40
3.0
 40
3.0
 40
4.0
 40
4.0
 40
4.0
 40
4.0
 10
511.5942803303574
 20
1120.75283168895
 30
0.0
 10
499.1666671797552
 20
1120.75283168895
 30
0.0
 10
489.0919774764338
 20
1110.68130664393
 30
0.0
 10
489.0919774764338
 20
1098.25685815163
 30
0.0
 10
489.0919774764338
 20
1085.829245001027
 30
0.0
 10
499.1666671797552
 20
1075.756137626857
 30
0.0
 10
511.5942803303574
 20
1075.756137626857
 30
0.0
 10
524.0218934809595
 20
1075.756137626857
 30
0.0
 10
534.0934185259789
 20
1085.829245001027
 30
0.0
 10
534.0934185259789
 20
1098.25685815163
 30
0.0
 10
534.0934185259789
 20
1110.68130664393
 30
0.0
 10
524.0218934809595
 20
1120.75283168895
 30
0.0
 10
511.5942803303574
 20
1120.75283168895
 30
0.0
  0
SPLINE
  5
4EE4
102
{ACAD_REACTORS
330
5022
330
5031
102
}
330
A
100
AcDbEntity
  8
MODEL
100
AcDbSpline
210
0.0
220
0.0
230
1.0
 70
    11
 71
     3
 72
    29
 73
    25
 74
     0
 42
0.000000001
 43
0.0000000001
 40
0.0
 40
0.0
 40
0.0
 40
0.0
 40
1.0
 40
1.0
 40
1.0
 40
2.0
 40
2.0
 40
2.0
 40
3.0
 40
3.0
 40
3.0
 40
4.0
 40
4.0
 40
4.0
 40
5.0
 40
5.0
 40
5.0
 40
6.0
 40
6.0
 40
6.0
 40
7.0
 40
7.0
 40
7.0
 40
8.0
 40
8.0
 40
8.0
 40
8.0
 10
826.6012030188735
 20
728.2465918511848
 30
0.0
 10
826.6012030188735
 20
728.2465918511848
 30
0.0
 10
826.6012030188735
 20
1468.246554173113
 30
0.0
 10
826.6012030188735
 20
1468.246554173113
 30
0.0
 10
826.6012030188735
 20
1479.28962931674
 30
0.0
 10
817.6436376960369
 20
1488.244029981276
 30
0.0
 10
806.600562552409
 20
1488.244029981276
 30
0.0
 10
806.600562552409
 20
1488.244029981276
 30
0.0
 10
451.5939412601142
 20
1488.244029981276
 30
0.0
 10
451.5939412601142
 20
1488.244029981276
 30
0.0
 10
440.5445367998832
 20
1488.244029981276
 30
0.0
 10
431.5933007936496
 20
1479.28962931674
 30
0.0
 10
431.5933007936496
 20
1468.246554173113
 30
0.0
 10
431.5933007936496
 20
1468.246554173113
 30
0.0
 10
431.5933007936496
 20
728.2465918511848
 30
0.0
 10
431.5933007936496
 20
728.2465918511848
 30
0.0
 10
431.5933007936496
 20
717.2019343784063
 30
0.0
 10
440.5445367998832
 20
708.2491160430222
 30
0.0
 10
451.5939412601142
 20
708.2491160430222
 30
0.0
 10
451.5939412601142
 20
708.2491160430222
 30
0.0
 10
806.600562552409
 20
708.2491160430222
 30
0.0
 10
806.600562552409
 20
708.2491160430222
 30
0.0
 10
817.6436376960369
 20
708.2491160430222
 30
0.0
 10
826.6012030188735
 20
717.2019343784063
 30
0.0
 10
826.6012030188735
 20
728.2465918511848
 30
0.0
  0
SPLINE
  5
4EE6
330
A
100
AcDbEntity
  8
MODEL
100
AcDbSpline
210
0.0
220
0.0
230
1.0
 70
     8
 71
     3
 72
    20
 73
    16
 74
     0
 42
0.000000001
 43
0.0000000001
 40
0.0
 40
0.0
 40
0.0
 40
0.0
 40
1.0
 40
1.0
 40
1.0
 40
2.0
 40
2.0
 40
2.0
 40
3.0
 40
3.0
 40
3.0
 40
4.0
 40
4.0
 40
4.0
 40
5.0
 40
5.0
 40
5.0
 40
5.0
 10
1543.201968732696
 20
683.2467331307898
 30
0.0
 10
1543.201968732696
 20
680.4824041042939
 30
0.0
 10
1545.44571146857
 20
678.2465730141739
 30
0.0
 10
1548.202128849312
 20
678.2465730141739
 30
0.0
 10
1548.202128849312
 20
678.2465730141739
 30
0.0
 10
1553.202288965928
 20
678.2465730141739
 30
0.0
 10
1553.202288965928
 20
678.2465730141739
 30
0.0
 10
1555.968200321575
 20
678.2465730141739
 30
0.0
 10
1558.202449082544
 20
680.4824041042939
 30
0.0
 10
1558.202449082544
 20
683.2467331307898
 30
0.0
 10
1558.202449082544
 20
683.2467331307898
 30
0.0
 10
1558.202449082544
 20
693.5904187897522
 30
0.0
 10
1558.202449082544
 20
693.5904187897522
 30
0.0
 10
1558.202449082544
 20
696.212338192674
 30
0.0
 10
1560.227830395604
 20
698.3896231042127
 30
0.0
 10
1562.848167469375
 20
698.5747556148599
 30
0.0
  0
SPLINE
  5
4EE7
330
A
100
AcDbEntity
  8
MODEL
100
AcDbSpline
210
0.0
220
0.0
230
1.0
 70
     8
 71
     3
 72
     8
 73
     4
 74
     0
 42
0.000000001
 43
0.0000000001
 40
5.0
 40
5.0
 40
5.0
 40
5.0
 40
6.0
 40
6.0
 40
6.0
 40
6.0
 10
1562.848167469375
 20
698.5747556148599
 30
0.0
 10
1606.419182966571
 20
701.6887793836895
 30
0.0
 10
1649.99336312207
 20
704.8028031525182
 30
0.0
 10
1693.564378619267
 20
707.9136622630458
 30
0.0
  0
SPLINE
  5
4EE8
102
{ACAD_REACTORS
330
513C
102
}
330
A
100
AcDbEntity
  8
MODEL
100
AcDbSpline
210
0.0
220
0.0
230
1.0
 70
     8
 71
     3
 72
    14
 73
    10
 74
     0
 42
0.000000001
 43
0.0000000001
 40
6.0
 40
6.0
 40
6.0
 40
6.0
 40
7.0
 40
7.0
 40
7.0
 40
8.0
 40
8.0
 40
8.0
 40
9.0
 40
9.0
 40
9.0
 40
9.0
 10
1693.564378619267
 20
707.9136622630458
 30
0.0
 10
1696.178386376435
 20
708.1019594319941
 30
0.0
 10
1698.203767689495
 20
710.2792443435337
 30
0.0
 10
1698.203767689495
 20
712.9011637464555
 30
0.0
 10
1698.203767689495
 20
712.9011637464555
 30
0.0
 10
1698.203767689495
 20
1483.590399948691
 30
0.0
 10
1698.203767689495
 20
1483.590399948691
 30
0.0
 10
1698.203767689495
 20
1486.212319351613
 30
0.0
 10
1696.178386376435
 20
1488.389604263151
 30
0.0
 10
1693.564378619267
 20
1488.574736773799
 30
0.0
  0
SPLINE
  5
4EE9
330
A
100
AcDbEntity
  8
MODEL
100
AcDbSpline
210
0.0
220
0.0
230
1.0
 70
     8
 71
     3
 72
     8
 73
     4
 74
     0
 42
0.000000001
 43
0.0000000001
 40
9.0
 40
9.0
 40
9.0
 40
9.0
 40
10.0
 40
10.0
 40
10.0
 40
10.0
 10
1693.564378619267
 20
1488.574736773799
 30
0.0
 10
1649.993363122071
 20
1491.688760542627
 30
0.0
 10
1606.419182966572
 20
1494.802784311458
 30
0.0
 10
1562.848167469375
 20
1497.916808080287
 30
0.0
  0
SPLINE
  5
4EEA
330
A
100
AcDbEntity
  8
MODEL
100
AcDbSpline
210
0.0
220
0.0
230
1.0
 70
     8
 71
     3
 72
    20
 73
    16
 74
     0
 42
0.000000001
 43
0.0000000001
 40
10.0
 40
10.0
 40
10.0
 40
10.0
 40
11.0
 40
11.0
 40
11.0
 40
12.0
 40
12.0
 40
12.0
 40
13.0
 40
13.0
 40
13.0
 40
14.0
 40
14.0
 40
14.0
 40
15.0
 40
15.0
 40
15.0
 40
15.0
 10
1562.848167469375
 20
1497.916808080287
 30
0.0
 10
1560.227830395604
 20
1498.101940590934
 30
0.0
 10
1558.202449082545
 20
1500.279225502472
 30
0.0
 10
1558.202449082545
 20
1502.901144905394
 30
0.0
 10
1558.202449082545
 20
1502.901144905394
 30
0.0
 10
1558.202449082545
 20
1513.247995222659
 30
0.0
 10
1558.202449082545
 20
1513.247995222659
 30
0.0
 10
1558.202449082545
 20
1516.009159590853
 30
0.0
 10
1555.968200321575
 20
1518.244990680972
 30
0.0
 10
1553.202288965928
 20
1518.244990680972
 30
0.0
 10
1553.202288965928
 20
1518.244990680972
 30
0.0
 10
1548.202128849312
 20
1518.244990680972
 30
0.0
 10
1548.202128849312
 20
1518.244990680972
 30
0.0
 10
1545.44571146857
 20
1518.244990680972
 30
0.0
 10
1543.201968732696
 20
1516.009159590853
 30
0.0
 10
1543.201968732696
 20
1513.247995222659
 30
0.0
  0
LINE
  5
4F63
330
A
100
AcDbEntity
  8
MODEL
100
AcDbLine
 10
1543.201968732696
 20
683.2467331307898
 30
0.0
 11
1543.201968732696
 21
1513.247995222659
 31
0.0
  0
LINE
  5
4F6D
330
A
100
AcDbEntity
  8
MODEL
100
AcDbLine
 10
1543.201968732697
 20
2409.866094169778
 30
0.0
 11
1543.201968732697
 21
2418.989804053451
 31
0.0
  0
LINE
  5
4F6E
330
A
100
AcDbEntity
  8
MODEL
100
AcDbLine
 10
1544.20358308517
 20
2419.986671418473
 30
0.0
 11
1544.20358308517
 21
2420.989868100097
 31
0.0
  0
LINE
  5
4F6F
330
A
100
AcDbEntity
  8
MODEL
100
AcDbLine
 10
1543.201968732697
 20
2421.98990012342
 30
0.0
 11
1543.201968732697
 21
2430.490172321668
 31
0.0
  0
LINE
  5
4F70
330
A
100
AcDbEntity
  8
MODEL
100
AcDbLine
 10
1548.673662936259
 20
2437.382798102675
 30
0.0
 11
1552.634232800781
 21
2453.21874824416
 31
0.0
  0
LINE
  5
4F75
330
A
100
AcDbEntity
  8
HIDDEN
 48
0.5
100
AcDbLine
 10
1638.629075160825
 20
2346.436847829691
 30
0.0
 11
1637.423340347894
 21
2346.436847829691
 31
0.0
  0
LINE
  5
4F76
330
A
100
AcDbEntity
  8
HIDDEN
 48
0.5
100
AcDbLine
 10
1618.205952811089
 20
2360.487930689041
 30
0.0
 11
1618.205952811089
 21
2386.732441984673
 31
0.0
  0
LINE
  5
4F77
330
A
100
AcDbEntity
  8
HIDDEN
 48
0.5
100
AcDbLine
 10
1609.525295089647
 20
2396.647316443761
 30
0.0
 11
1547.540715264267
 21
2404.913403927686
 31
0.0
  0
LINE
  5
4F7C
102
{ACAD_REACTORS
330
4FE6
102
}
330
A
100
AcDbEntity
  8
MODEL
100
AcDbLine
 10
1555.545718438305
 20
2455.490972904748
 30
0.0
 11
1628.517991887034
 21
2455.490972904748
 31
0.0
  0
SPLINE
  5
4F87
330
A
100
AcDbEntity
  8
HIDDEN
 48
0.5
100
AcDbSpline
210
0.0
220
0.0
230
1.0
 70
     8
 71
     3
 72
    17
 73
    13
 74
     0
 42
0.000000001
 43
0.0000000001
 40
5.981285053250479
 40
5.981285053250479
 40
5.981285053250479
 40
5.981285053250479
 40
6.0
 40
6.0
 40
6.0
 40
7.0
 40
7.0
 40
7.0
 40
8.0
 40
8.0
 40
8.0
 40
9.0
 40
9.0
 40
9.0
 40
9.0
 10
1663.080807528569
 20
2304.535368748424
 30
0.0
 10
1660.144077317002
 20
2304.536301946052
 30
0.0
 10
1660.113239587808
 20
2304.536771915767
 30
0.0
 10
1660.082293787749
 20
2304.536771915767
 30
0.0
 10
1660.082293787749
 20
2304.536771915767
 30
0.0
 10
1650.325652243745
 20
2304.536771915767
 30
0.0
 10
1650.325652243745
 20
2304.536771915767
 30
0.0
 10
1650.325652243745
 20
2304.536771915767
 30
0.0
 10
1637.424922677045
 20
2304.536771915767
 30
0.0
 10
1637.424922677045
 20
2304.536771915767
 30
0.0
 10
1636.318874600616
 20
2304.536771915767
 30
0.0
 10
1635.434352605304
 20
2304.25511732692
 30
0.0
 10
1634.534007318483
 20
2303.615856349986
 30
0.0
  0
SPLINE
  5
4F88
330
A
100
AcDbEntity
  8
HIDDEN
 48
0.5
100
AcDbSpline
210
0.0
220
0.0
230
1.0
 70
     8
 71
     3
 72
     8
 73
     4
 74
     0
 42
0.000000001
 43
0.0000000001
 40
9.0
 40
9.0
 40
9.0
 40
9.0
 40
10.0
 40
10.0
 40
10.0
 40
10.0
 10
1634.534007318483
 20
2303.615856349986
 30
0.0
 10
1629.510112264604
 20
2300.055615760622
 30
0.0
 10
1624.490964198178
 20
2296.49537517126
 30
0.0
 10
1619.471816131751
 20
2292.935134581897
 30
0.0
  0
SPLINE
  5
4F89
330
A
100
AcDbEntity
  8
HIDDEN
 48
0.5
100
AcDbSpline
210
0.0
220
0.0
230
1.0
 70
     8
 71
     3
 72
     8
 73
     4
 74
     0
 42
0.000000001
 43
0.0000000001
 40
10.0
 40
10.0
 40
10.0
 40
10.0
 40
11.0
 40
11.0
 40
11.0
 40
11.0
 10
1619.471816131751
 20
2292.935134581897
 30
0.0
 10
1618.677486898036
 20
2292.371825404203
 30
0.0
 10
1618.20753514024
 20
2291.460403813325
 30
0.0
 10
1618.20753514024
 20
2290.488853714718
 30
0.0
  0
SPLINE
  5
4F8A
330
A
100
AcDbEntity
  8
HIDDEN
 48
0.5
100
AcDbSpline
210
0.0
220
0.0
230
1.0
 70
     8
 71
     3
 72
     8
 73
     4
 74
     0
 42
0.000000001
 43
0.0000000001
 40
11.0
 40
11.0
 40
11.0
 40
11.0
 40
12.0
 40
12.0
 40
12.0
 40
12.0
 10
1618.20753514024
 20
2290.488853714718
 30
0.0
 10
1617.539792238591
 20
2203.400621911452
 30
0.0
 10
1616.872049336941
 20
2116.318719424789
 30
0.0
 10
1616.20114177699
 20
2029.236816938128
 30
0.0
  0
SPLINE
  5
4F8B
330
A
100
AcDbEntity
  8
HIDDEN
 48
0.5
100
AcDbSpline
210
0.0
220
0.0
230
1.0
 70
     8
 71
     3
 72
     8
 73
     4
 74
     0
 42
0.000000001
 43
0.0000000001
 40
12.0
 40
12.0
 40
12.0
 40
12.0
 40
13.0
 40
13.0
 40
13.0
 40
13.0
 10
1616.20114177699
 20
2029.236816938128
 30
0.0
 10
1616.20114177699
 20
2024.223998188304
 30
0.0
 10
1612.493744576601
 20
2019.986520722386
 30
0.0
 10
1607.526813372152
 20
2019.325107137341
 30
0.0
  0
SPLINE
  5
4F8D
330
A
100
AcDbEntity
  8
MODEL
100
AcDbSpline
210
0.0
220
0.0
230
1.0
 70
     8
 71
     3
 72
    44
 73
    40
 74
     0
 42
0.000000001
 43
0.0000000001
 40
14.0
 40
14.0
 40
14.0
 40
14.0
 40
15.0
 40
15.0
 40
15.0
 40
16.0
 40
16.0
 40
16.0
 40
17.0
 40
17.0
 40
17.0
 40
18.0
 40
18.0
 40
18.0
 40
19.0
 40
19.0
 40
19.0
 40
20.0
 40
20.0
 40
20.0
 40
21.0
 40
21.0
 40
21.0
 40
22.0
 40
22.0
 40
22.0
 40
23.0
 40
23.0
 40
23.0
 40
24.0
 40
24.0
 40
24.0
 40
25.0
 40
25.0
 40
25.0
 40
26.0
 40
26.0
 40
26.0
 40
27.0
 40
27.0
 40
27.0
 40
27.0
 10
1547.539132935115
 20
2011.059019653415
 30
0.0
 10
1545.059623155768
 20
2010.729895190044
 30
0.0
 10
1543.203551061847
 20
2008.609574127935
 30
0.0
 10
1543.203551061847
 20
2006.103164753023
 30
0.0
 10
1543.203551061847
 20
2006.103164753023
 30
0.0
 10
1543.203551061847
 20
1996.982619527651
 30
0.0
 10
1543.203551061847
 20
1996.982619527651
 30
0.0
 10
1543.203551061847
 20
1996.700964938803
 30
0.0
 10
1543.423494813812
 20
1996.479438857688
 30
0.0
 10
1543.701984744358
 20
1996.479438857688
 30
0.0
 10
1543.977310016602
 20
1996.479438857688
 30
0.0
 10
1544.205165414321
 20
1996.25474811827
 30
0.0
 10
1544.205165414321
 20
1995.982587504328
 30
0.0
 10
1544.205165414321
 20
1995.982587504328
 30
0.0
 10
1544.205165414321
 20
1994.979390822703
 30
0.0
 10
1544.205165414321
 20
1994.979390822703
 30
0.0
 10
1544.205165414321
 20
1994.704065550458
 30
0.0
 10
1543.977310016602
 20
1994.482539469343
 30
0.0
 10
1543.701984744358
 20
1994.482539469343
 30
0.0
 10
1543.423494813812
 20
1994.482539469343
 30
0.0
 10
1543.203551061847
 20
1994.254684071624
 30
0.0
 10
1543.203551061847
 20
1993.97935879938
 30
0.0
 10
1543.203551061847
 20
1993.97935879938
 30
0.0
 10
1543.203551061847
 20
1985.479086601131
 30
0.0
 10
1543.203551061847
 20
1985.479086601131
 30
0.0
 10
1543.203551061847
 20
1982.716339903787
 30
0.0
 10
1545.442546810268
 20
1980.478926484516
 30
0.0
 10
1548.203711178463
 20
1980.478926484516
 30
0.0
 10
1548.203711178463
 20
1980.478926484516
 30
0.0
 10
1553.203871295079
 20
1980.478926484516
 30
0.0
 10
1553.203871295079
 20
1980.478926484516
 30
0.0
 10
1555.965035663274
 20
1980.478926484516
 30
0.0
 10
1558.204031411696
 20
1982.716339903787
 30
0.0
 10
1558.204031411696
 20
1985.479086601131
 30
0.0
 10
1558.204031411696
 20
1985.479086601131
 30
0.0
 10
1558.204031411696
 20
1995.738908815101
 30
0.0
 10
1558.204031411696
 20
1995.738908815101
 30
0.0
 10
1558.204031411696
 20
1998.397221788491
 30
0.0
 10
1560.281629586732
 20
2000.59349464984
 30
0.0
 10
1562.935195572671
 20
2000.732739615114
 30
0.0
  0
SPLINE
  5
4F8E
330
A
100
AcDbEntity
  8
MODEL
100
AcDbSpline
210
0.0
220
0.0
230
1.0
 70
     8
 71
     3
 72
     8
 73
     4
 74
     0
 42
0.000000001
 43
0.0000000001
 40
27.0
 40
27.0
 40
27.0
 40
27.0
 40
28.0
 40
28.0
 40
28.0
 40
28.0
 10
1562.935195572671
 20
2000.732739615114
 30
0.0
 10
1606.450829549589
 20
2003.065092783434
 30
0.0
 10
1649.961716539055
 20
2005.397445951754
 30
0.0
 10
1693.474185857671
 20
2007.726634461772
 30
0.0
  0
SPLINE
  5
4F8F
330
A
100
AcDbEntity
  8
MODEL
100
AcDbSpline
210
0.0
220
0.0
230
1.0
 70
     8
 71
     3
 72
    11
 73
     7
 74
     0
 42
0.000000001
 43
0.0000000001
 40
28.0
 40
28.0
 40
28.0
 40
28.0
 40
29.0
 40
29.0
 40
29.0
 40
30.0
 40
30.0
 40
30.0
 40
30.0
 10
1693.474185857671
 20
2007.726634461772
 30
0.0
 10
1696.127751843609
 20
2007.869044085347
 30
0.0
 10
1698.205350018646
 20
2010.058987630092
 30
0.0
 10
1698.205350018646
 20
2012.720465261785
 30
0.0
 10
1698.205350018646
 20
2012.720465261785
 30
0.0
 10
1698.205350018646
 20
2087.979204333461
 30
0.0
 10
1698.205350018646
 20
2087.979204333461
 30
0.0
  0
LINE
  5
4F94
330
A
100
AcDbEntity
  8
HIDDEN
 48
0.5
100
AcDbLine
 10
1638.629075160825
 20
2346.436847829691
 30
0.0
 11
1663.080807528569
 21
2346.436847829691
 31
0.0
  0
LINE
  5
4F97
330
A
100
AcDbEntity
  8
HIDDEN
 48
0.5
100
AcDbLine
 10
1618.205952811089
 20
2360.487930689041
 30
0.0
 11
1618.205952811089
 21
2290.488853714718
 31
0.0
  0
LINE
  5
4F9A
330
A
100
AcDbEntity
  8
MODEL
100
AcDbLine
 10
1543.201968732697
 20
2409.866094169778
 30
0.0
 11
1543.201968732697
 21
2006.103164753023
 31
0.0
  0
LINE
  5
4F9B
330
A
100
AcDbEntity
  8
HIDDEN
 48
0.5
100
AcDbLine
 10
1618.205952811089
 20
2323.486745826083
 30
0.0
 11
1618.205952811089
 21
2327.486873919375
 31
0.0
  0
LINE
  5
4F9C
330
A
100
AcDbEntity
  8
MODEL
100
AcDbLine
 10
1543.201968732697
 20
2327.486873919375
 30
0.0
 11
1543.201968732697
 21
2327.486873919375
 31
0.0
  0
DIMENSION
  5
4FE4
102
{ACAD_REACTORS
330
4FE6
102
}
102
{ACAD_XDICTIONARY
360
4FE5
102
}
330
A
100
AcDbEntity
  8
DIM
440
 33554687
100
AcDbDimension
  2
*D84
 10
1812.292715077952
 20
2455.490972904748
 30
0.0
 11
1780.292715077952
 21
2390.488540596903
 31
0.0
 70
    32
 71
     5
 42
130.0048646156911
 73
     0
 74
     0
 75
     0
  3
tfrom線あり
100
AcDbAlignedDimension
 13
1663.080807528569
 23
2325.486108289057
 33
0.0
 14
1625.042501625502
 24
2455.490972904748
 34
0.0
 50
90.0
100
AcDbRotatedDimension
1001
ACAD
1000
DSTYLE
1002
{
1070
   144
1040
1.0
1002
}
  0
DIMENSION
  5
4FF3
102
{ACAD_XDICTIONARY
360
4FF4
102
}
330
A
100
AcDbEntity
  8
DIM
440
 33554687
100
AcDbDimension
  2
*D85
 10
1698.205350018646
 20
2543.200659698735
 30
0.0
 11
1620.703659375671
 21
2575.200659698735
 31
0.0
 70
    32
 71
     5
 42
155.0033812859497
 73
     0
 74
     0
 75
     0
 52
-270.0
  3
tfrom線あり
100
AcDbAlignedDimension
 13
1543.201968732697
 23
2427.509937238848
 33
0.0
 14
1698.205350018646
 24
2410.029980853615
 34
0.0
 50
180.0
100
AcDbRotatedDimension
1001
ACAD
1000
DSTYLE
1002
{
1070
   144
1040
1.0
1002
}
  0
DIMENSION
  5
5002
102
{ACAD_XDICTIONARY
360
5003
102
}
330
A
100
AcDbEntity
  8
DIM
440
 33554687
100
AcDbDimension
  2
*D86
 10
295.8699316525071
 20
1518.248155339274
 30
0.0
 11
263.8699316525071
 21
1098.247364176724
 31
0.0
 70
    32
 71
     5
 42
840.0015823250997
 73
     0
 74
     0
 75
     0
  3
tfrom線あり
100
AcDbAlignedDimension
 13
409.4396407595186
 23
678.2465730141744
 33
0.0
 14
409.4396407595186
 24
1518.248155339274
 34
0.0
 50
90.0
100
AcDbRotatedDimension
1001
ACAD
1000
DSTYLE
1002
{
1070
   144
1040
1.0
1002
}
  0
DIMENSION
  5
5011
102
{ACAD_XDICTIONARY
360
5012
102
}
330
A
100
AcDbEntity
  8
DIM
440
 33554687
100
AcDbDimension
  2
*D87
 10
856.6005813894194
 20
1631.267884000461
 30
0.0
 11
629.0964607416861
 21
1663.267884000461
 31
0.0
 70
    32
 71
     5
 42
455.0082412954666
 73
     0
 74
     0
 75
     0
 52
-270.0
  3
tfrom線あり
100
AcDbAlignedDimension
 13
401.5923400939528
 23
1517.569861205771
 33
0.0
 14
856.6005813894194
 24
1517.569861205771
 34
0.0
 50
180.0
100
AcDbRotatedDimension
1001
ACAD
1000
DSTYLE
1002
{
1070
   144
1040
1.0
1002
}
  0
DIMENSION
  5
5020
102
{ACAD_REACTORS
330
5022
102
}
102
{ACAD_XDICTIONARY
360
5021
102
}
330
A
100
AcDbEntity
  8
DIM
440
 33554687
100
AcDbDimension
  2
*D88
 10
947.102485025101
 20
708.2491160430222
 30
0.0
 11
915.102485025101
 21
1098.246573012149
 31
0.0
 70
    32
 71
     5
 42
779.9949139382534
 73
     0
 74
     0
 75
     0
  3
tfrom線あり
100
AcDbAlignedDimension
 13
802.5753133387566
 23
1488.244029981276
 33
0.0
 14
801.4282722935436
 24
708.2491160430222
 34
0.0
 50
90.0
100
AcDbRotatedDimension
1001
ACAD
1000
DSTYLE
1002
{
1070
   144
1040
1.0
1002
}
  0
DIMENSION
  5
502F
102
{ACAD_REACTORS
330
5031
102
}
102
{ACAD_XDICTIONARY
360
5030
102
}
330
A
100
AcDbEntity
  8
DIM
440
 33554687
100
AcDbDimension
  2
*D89
 10
431.5933007936496
 20
584.0194097967124
 30
0.0
 11
629.0972519062616
 21
616.0194097967124
 31
0.0
 70
    32
 71
     5
 42
395.0079022252239
 73
     0
 74
     0
 75
     0
 52
-270.0
  3
tfrom線あり
100
AcDbAlignedDimension
 13
826.6012030188735
 23
728.2465918511848
 33
0.0
 14
431.5933007936496
 24
737.722909844128
 34
0.0
 50
180.0
100
AcDbRotatedDimension
1001
ACAD
1000
DSTYLE
1002
{
1070
   144
1040
1.0
1002
}
  0
LINE
  5
5040
330
A
100
AcDbEntity
  8
HIDDEN
440
 33554687
 48
0.5
100
AcDbLine
 10
1663.080807528569
 20
2346.436847829691
 30
0.0
 11
1663.080807528569
 21
2304.535368748424
 31
0.0
  0
LINE
  5
5041
330
A
100
AcDbEntity
  8
MODEL
440
 33554687
100
AcDbLine
 10
1663.080807528569
 20
2407.989451796895
 30
0.0
 11
1663.082389857719
 21
2426.012180824825
 31
0.0
  0
LINE
  5
5042
330
A
100
AcDbEntity
  8
HIDDEN
440
 33554687
 48
0.5
100
AcDbLine
 10
1607.526813372152
 20
2019.325107137341
 30
0.0
 11
1547.539132935115
 21
2011.059019653415
 31
0.0
  0
DIMENSION
  5
508D
102
{ACAD_XDICTIONARY
360
508E
102
}
330
A
100
AcDbEntity
  8
DIM
440
 33554687
100
AcDbDimension
  2
*D92
 10
1618.205952811089
 20
2326.087455618634
 30
0.0
 11
1437.393968732697
 21
2326.087455618634
 31
0.0
 70
   160
  1
75(深さ)
 71
     5
 42
75.00398407839293
 73
     0
 74
     1
 75
     1
 52
-270.0
  3
tfrom線あり
100
AcDbAlignedDimension
 13
1543.201968732697
 23
2326.087455618635
 33
0.0
 14
1618.205952811089
 24
2326.085058135033
 34
0.0
 50
180.0
100
AcDbRotatedDimension
1001
ACAD
1000
DSTYLE
1002
{
1070
     3
1000
<>
1070
   172
1070
     1
1070
   144
1040
1.0
1002
}
  0
SPLINE
  5
50B3
102
{ACAD_REACTORS
102
}
330
A
100
AcDbEntity
  8
HIDDEN
 48
0.75
100
AcDbSpline
210
0.0
220
0.0
230
1.0
 70
    11
 71
     3
 72
    29
 73
    25
 74
     0
 42
0.000000001
 43
0.0000000001
 40
0.0
 40
0.0
 40
0.0
 40
0.0
 40
1.0
 40
1.0
 40
1.0
 40
2.0
 40
2.0
 40
2.0
 40
3.0
 40
3.0
 40
3.0
 40
4.0
 40
4.0
 40
4.0
 40
5.0
 40
5.0
 40
5.0
 40
6.0
 40
6.0
 40
6.0
 40
7.0
 40
7.0
 40
7.0
 40
8.0
 40
8.0
 40
8.0
 40
8.0
 10
856.6005813894208
 20
1856.1842901286
 30
0.0
 10
856.6005813894208
 20
1856.1842901286
 30
0.0
 10
856.6005813894208
 20
2676.182067328934
 30
0.0
 10
856.6005813894208
 20
2676.182067328934
 30
0.0
 10
856.6005813894208
 20
2681.707560723625
 30
0.0
 10
852.1257545508788
 20
2686.187134549618
 30
0.0
 10
846.60342581449
 20
2686.187134549618
 30
0.0
 10
846.60342581449
 20
2686.187134549618
 30
0.0
 10
411.5910779980354
 20
2686.187134549618
 30
0.0
 10
411.5910779980354
 20
2686.187134549618
 30
0.0
 10
406.0687492616462
 20
2686.187134549618
 30
0.0
 10
401.5939224231051
 20
2681.707560723625
 30
0.0
 10
401.5939224231051
 20
2676.182067328934
 30
0.0
 10
401.5939224231051
 20
2676.182067328934
 30
0.0
 10
401.5939224231047
 20
1856.1842901286
 30
0.0
 10
401.5939224231047
 20
1856.1842901286
 30
0.0
 10
401.5939224231047
 20
1850.66196139221
 30
0.0
 10
406.0687492616457
 20
1846.187134553669
 30
0.0
 10
411.591077998035
 20
1846.187134553669
 30
0.0
 10
411.591077998035
 20
1846.187134553669
 30
0.0
 10
846.60342581449
 20
1846.187134553669
 30
0.0
 10
846.60342581449
 20
1846.187134553669
 30
0.0
 10
852.1257545508788
 20
1846.187134553669
 30
0.0
 10
856.6005813894208
 20
1850.66196139221
 30
0.0
 10
856.6005813894208
 20
1856.1842901286
 30
0.0
  0
SPLINE
  5
50B4
330
A
100
AcDbEntity
  8
HIDDEN
 48
0.75
100
AcDbSpline
210
0.0
220
0.0
230
1.0
 70
     8
 71
     3
 72
    14
 73
    10
 74
     0
 42
0.000000001
 43
0.0000000001
 40
0.0
 40
0.0
 40
0.0
 40
0.0
 40
1.0
 40
1.0
 40
1.0
 40
2.0
 40
2.0
 40
2.0
 40
3.0
 40
3.0
 40
3.0
 40
3.0
 10
401.445183482927
 20
2326.045855162887
 30
0.0
 10
401.445183482927
 20
2326.045855162887
 30
0.0
 10
385.1092173297798
 20
2318.699100915593
 30
0.0
 10
385.1092173297798
 20
2309.70988900974
 30
0.0
 10
385.1092173297798
 20
2309.70988900974
 30
0.0
 10
385.1092173297798
 20
2222.515641153369
 30
0.0
 10
385.1092173297798
 20
2222.515641153369
 30
0.0
 10
385.1092173297798
 20
2213.509023626857
 30
0.0
 10
401.445183482927
 20
2206.186004316825
 30
0.0
 10
401.445183482927
 20
2206.186004316825
 30
0.0
  0
SPLINE
  5
50B6
330
A
100
AcDbEntity
  8
HIDDEN
 48
0.75
100
AcDbSpline
210
0.0
220
0.0
230
1.0
 70
    11
 71
     3
 72
    17
 73
    13
 74
     0
 42
0.000000001
 43
0.0000000001
 40
0.0
 40
0.0
 40
0.0
 40
0.0
 40
1.0
 40
1.0
 40
1.0
 40
2.0
 40
2.0
 40
2.0
 40
3.0
 40
3.0
 40
3.0
 40
4.0
 40
4.0
 40
4.0
 40
4.0
 10
511.5942803303587
 20
2288.691810899294
 30
0.0
 10
499.1666671797557
 20
2288.691810899294
 30
0.0
 10
489.0919774764352
 20
2278.620285854274
 30
0.0
 10
489.0919774764352
 20
2266.195837361974
 30
0.0
 10
489.0919774764352
 20
2253.768224211371
 30
0.0
 10
499.1666671797557
 20
2243.695116837201
 30
0.0
 10
511.5942803303587
 20
2243.695116837201
 30
0.0
 10
524.0218934809609
 20
2243.695116837201
 30
0.0
 10
534.0934185259803
 20
2253.768224211371
 30
0.0
 10
534.0934185259803
 20
2266.195837361974
 30
0.0
 10
534.0934185259803
 20
2278.620285854274
 30
0.0
 10
524.0218934809609
 20
2288.691810899294
 30
0.0
 10
511.5942803303587
 20
2288.691810899294
 30
0.0
  0
SPLINE
  5
50B7
102
{ACAD_REACTORS
102
}
330
A
100
AcDbEntity
  8
HIDDEN
 48
0.75
100
AcDbSpline
210
0.0
220
0.0
230
1.0
 70
    11
 71
     3
 72
    29
 73
    25
 74
     0
 42
0.000000001
 43
0.0000000001
 40
0.0
 40
0.0
 40
0.0
 40
0.0
 40
1.0
 40
1.0
 40
1.0
 40
2.0
 40
2.0
 40
2.0
 40
3.0
 40
3.0
 40
3.0
 40
4.0
 40
4.0
 40
4.0
 40
5.0
 40
5.0
 40
5.0
 40
6.0
 40
6.0
 40
6.0
 40
7.0
 40
7.0
 40
7.0
 40
8.0
 40
8.0
 40
8.0
 40
8.0
 10
826.601203018874
 20
1896.185571061529
 30
0.0
 10
826.601203018874
 20
1896.185571061529
 30
0.0
 10
826.601203018874
 20
2636.185533383457
 30
0.0
 10
826.601203018874
 20
2636.185533383457
 30
0.0
 10
826.601203018874
 20
2647.228608527084
 30
0.0
 10
817.6436376960373
 20
2656.183009191619
 30
0.0
 10
806.6005625524094
 20
2656.183009191619
 30
0.0
 10
806.6005625524094
 20
2656.183009191619
 30
0.0
 10
451.5939412601156
 20
2656.183009191619
 30
0.0
 10
451.5939412601156
 20
2656.183009191619
 30
0.0
 10
440.5445367998846
 20
2656.183009191619
 30
0.0
 10
431.593300793651
 20
2647.228608527084
 30
0.0
 10
431.593300793651
 20
2636.185533383457
 30
0.0
 10
431.593300793651
 20
2636.185533383457
 30
0.0
 10
431.593300793651
 20
1896.185571061529
 30
0.0
 10
431.593300793651
 20
1896.185571061529
 30
0.0
 10
431.593300793651
 20
1885.14091358875
 30
0.0
 10
440.5445367998846
 20
1876.188095253366
 30
0.0
 10
451.5939412601156
 20
1876.188095253366
 30
0.0
 10
451.5939412601156
 20
1876.188095253366
 30
0.0
 10
806.6005625524094
 20
1876.188095253366
 30
0.0
 10
806.6005625524094
 20
1876.188095253366
 30
0.0
 10
817.6436376960373
 20
1876.188095253366
 30
0.0
 10
826.601203018874
 20
1885.14091358875
 30
0.0
 10
826.601203018874
 20
1896.185571061529
 30
0.0
  0
MTEXT
  5
5127
330
A
100
AcDbEntity
  8
DIM
390
1D
100
AcDbMText
 10
177.2146920815464
 20
2129.69970234386
 30
0.0
 40
24.0
 41
0.0
 46
0.0
 71
     1
 72
     1
  1
カウンター切込寸法
  7
ＭＳ ゴシック
 11
6.123233995736766E-17
 21
1.0
 31
0.0
 73
     1
 44
0.7828267384257843
  0
DIMENSION
  5
5128
330
A
100
AcDbEntity
  8
DIM
440
 33554687
100
AcDbDimension
  2
*D98
 10
1812.292715077952
 20
1488.325140652386
 30
0.0
 11
1780.292715077952
 21
1098.325140652386
 31
0.0
 70
    32
 71
     5
 42
780.0
 73
     0
 74
     0
 75
     0
  3
tfrom線あり
100
AcDbAlignedDimension
 13
1701.92726383981
 23
708.3251406523864
 33
0.0
 14
1701.92726383981
 24
1488.325140652386
 34
0.0
 50
90.0
100
AcDbRotatedDimension
1001
ACAD
1000
DSTYLE
1002
{
1070
   144
1040
1.0
1002
}
  0
DIMENSION
  5
513A
102
{ACAD_REACTORS
330
513C
102
}
102
{ACAD_XDICTIONARY
360
513B
102
}
330
A
100
AcDbEntity
  8
DIM
440
 33554687
100
AcDbDimension
  2
*D99
 10
1698.203767689495
 20
1631.267884000461
 30
0.0
 11
1620.702868211095
 21
1663.267884000461
 31
0.0
 70
    32
 71
     5
 42
155.0017989567987
 73
     0
 74
     0
 75
     0
 52
-270.0
  3
tfrom線あり
100
AcDbAlignedDimension
 13
1543.201968732696
 23
1520.774979215802
 33
0.0
 14
1698.203767689495
 24
1478.056891371217
 34
0.0
 50
180.0
100
AcDbRotatedDimension
1001
ACAD
1000
DSTYLE
1002
{
1070
   144
1040
1.0
1002
}
  0
LINE
  5
516B
102
{ACAD_REACTORS
330
516F
330
5184
330
519A
102
}
330
A
100
AcDbEntity
  8
MODEL
440
 33554687
100
AcDbLine
 10
439.0964607416861
 20
1883.612765081555
 30
0.0
 11
819.0964607416861
 21
1883.612765081555
 31
0.0
  0
LINE
  5
516C
102
{ACAD_REACTORS
330
516F
330
519A
102
}
330
A
100
AcDbEntity
  8
MODEL
440
 33554687
100
AcDbLine
 10
819.0964607416861
 20
1883.612765081555
 30
0.0
 11
819.0964607416861
 21
2648.612765081555
 31
0.0
  0
LINE
  5
516D
102
{ACAD_REACTORS
330
516F
330
5175
330
5184
330
519A
102
}
330
A
100
AcDbEntity
  8
MODEL
440
 33554687
100
AcDbLine
 10
819.0964607416861
 20
2648.612765081555
 30
0.0
 11
439.0964607416861
 21
2648.612765081555
 31
0.0
  0
LINE
  5
516E
102
{ACAD_REACTORS
330
516F
330
519A
102
}
330
A
100
AcDbEntity
  8
MODEL
440
 33554687
100
AcDbLine
 10
439.0964607416861
 20
2648.612765081555
 30
0.0
 11
439.0964607416861
 21
1883.612765081555
 31
0.0
  0
DIMENSION
  5
5173
102
{ACAD_REACTORS
330
5175
102
}
102
{ACAD_XDICTIONARY
360
5174
102
}
330
A
100
AcDbEntity
  8
DIM
440
 33554687
100
AcDbDimension
  2
*D100
 10
819.0964607416861
 20
2750.66400217317
 30
0.0
 11
629.0964607416861
 21
2782.66400217317
 31
0.0
 70
    32
 71
     5
 42
380.0
 73
     0
 74
     0
 75
     0
  3
tfrom線あり
100
AcDbAlignedDimension
 13
439.0964607416861
 23
2648.612765081555
 33
0.0
 14
819.0964607416861
 24
2648.612765081555
 34
0.0
100
AcDbRotatedDimension
1001
ACAD
1000
DSTYLE
1002
{
1070
   144
1040
1.0
1002
}
  0
DIMENSION
  5
5182
102
{ACAD_REACTORS
330
5184
102
}
102
{ACAD_XDICTIONARY
360
5183
102
}
330
A
100
AcDbEntity
  8
DIM
440
 33554687
100
AcDbDimension
  2
*D101
 10
311.4267934028933
 20
1883.612765081555
 30
0.0
 11
279.4267934028934
 21
2266.112765081555
 31
0.0
 70
    32
 71
     5
 42
765.0
 73
     0
 74
     0
 75
     0
  3
tfrom線あり
100
AcDbAlignedDimension
 13
439.0964607416861
 23
2648.612765081555
 33
0.0
 14
439.0964607416861
 24
1883.612765081555
 34
0.0
 50
90.0
100
AcDbRotatedDimension
1001
ACAD
1000
DSTYLE
1002
{
1070
   144
1040
1.0
1002
}
  0
HATCH
  5
519A
330
A
100
AcDbEntity
  8
DIM
100
AcDbHatch
 10
0.0
 20
0.0
 30
0.0
210
0.0
220
0.0
230
1.0
  2
ANSI31
 70
     0
 71
     1
 91
        1
 92
        1
 93
        4
 72
     1
 10
439.0964607416861
 20
1883.612765081555
 11
819.0964607416861
 21
1883.612765081555
 72
     1
 10
819.0964607416861
 20
1883.612765081555
 11
819.0964607416861
 21
2648.612765081555
 72
     1
 10
819.0964607416861
 20
2648.612765081555
 11
439.0964607416861
 21
2648.612765081555
 72
     1
 10
439.0964607416861
 20
2648.612765081555
 11
439.0964607416861
 21
1883.612765081555
 97
        4
330
516B
330
516C
330
516D
330
516E
 75
     0
 76
     1
 52
0.0
 41
6.0
 77
     0
 78
     1
 53
45.0
 43
0.0
 44
0.0
 45
-13.47038418160373
 46
13.47038418160373
 79
     0
 98
        1
 10
0.0
 20
0.0
1001
ACAD
1010
0.0
1020
0.0
1030
0.0
  0
LINE
  5
51B5
330
A
100
AcDbEntity
  8
MODEL
440
 33554687
100
AcDbLine
 10
1558.310367338776
 20
694.6274971930634
 30
0.0
 11
1559.142093328318
 21
1499.983547737818
 31
0.0
  0
LINE
  5
51B6
330
A
100
AcDbEntity
  8
MODEL
440
 33554687
100
AcDbLine
 10
1558.204031411696
 20
1993.398319489189
 30
0.0
 11
1558.204031411695
 21
2431.258028136822
 31
0.0
  0
LINE
  5
51B8
330
A
100
AcDbEntity
  8
MODEL
440
 33554687
100
AcDbLine
 10
1547.128619955117
 20
2435.439876205312
 30
0.0
 11
1554.156973127039
 21
2435.464348592266
 31
0.0
  0
ARC
  5
51B9
330
A
100
AcDbEntity
  8
MODEL
440
 33554687
100
AcDbCircle
 10
1553.115716700759
 20
2430.412443503682
 30
0.0
 40
5.158096545173712
100
AcDbArc
 50
9.435282822503902
 51
78.35376378139448
  0
VIEWPORT
  5
349
330
B
100
AcDbEntity
 67
     1
  8
0
100
AcDbViewport
 10
202.5
 20
128.5
 30
0.0
 40
486.0
 41
308.4
 68
     1
 69
     1
 12
202.5
 22
128.5
 13
0.0
 23
0.0
 14
0.5
 24
0.5
 15
0.0
 25
0.0
 16
0.0
 26
0.0
 36
1.0
 17
0.0
 27
0.0
 37
0.0
 42
50.0
 43
0.0
 44
0.0
 45
308.4
 50
0.0
 51
0.0
 72
   100
 90
   557152
  1

281
     0
 71
     1
 74
     0
110
0.0
120
0.0
130
0.0
111
1.0
121
0.0
131
0.0
112
0.0
122
1.0
132
0.0
 79
     0
146
0.0
170
     0
 61
     5
348
26C
292
     1
282
     1
141
0.0
142
0.0
 63
   256
  0
VIEWPORT
  5
34A
330
B
100
AcDbEntity
 67
     1
  8
0
100
AcDbViewport
 10
202.5
 20
128.5
 30
0.0
 40
324.0
 41
205.6
 68
     2
 69
     2
 12
986.6781359294573
 22
1427.077061889956
 13
0.0
 23
0.0
 14
0.5
 24
0.5
 15
0.0
 25
0.0
 16
0.0
 26
0.0
 36
1.0
 17
0.0
 27
0.0
 37
0.0
 42
50.0
 43
0.0
 44
0.0
 45
2890.021615685494
 50
0.0
 51
0.0
 72
   100
 90
   557152
  1

281
     0
 71
     1
 74
     0
110
0.0
120
0.0
130
0.0
111
1.0
121
0.0
131
0.0
112
0.0
122
1.0
132
0.0
 79
     0
146
0.0
170
     0
 61
     5
348
26C
292
     1
282
     1
141
0.0
142
0.0
 63
   256
  0
ENDSEC
  0
SECTION
  2
OBJECTS
  0
DICTIONARY
  5
19
330
0
100
AcDbDictionary
281
     1
  3
ACAD_COLOR
350
674
  3
ACAD_DETAILVIEWSTYLE
350
BBF
  3
ACAD_FIELDLIST
350
146A
  3
ACAD_GROUP
350
1A
  3
ACAD_IMAGE_VARS
350
27B
  3
ACAD_LAYOUT
350
1E
  3
ACAD_MATERIAL
350
263
  3
ACAD_MLEADERSTYLE
350
336
  3
ACAD_MLINESTYLE
350
1B
  3
ACAD_PLOTSETTINGS
350
22
  3
ACAD_PLOTSTYLENAME
350
1F
  3
ACAD_SCALELIST
350
241
  3
ACAD_SECTIONVIEWSTYLE
350
BC0
  3
ACAD_TABLESTYLE
350
278
  3
ACAD_VISUALSTYLE
350
267
  3
ACDB_RECOMPOSE_DATA
350
51C5
  3
AcDbVariableDictionary
350
330
  3
APPDATA
350
27A
  3
DimOffsetDictionary
350
E3E
  0
SUN
  5
904
330
15
100
AcDbSun
 90
        1
290
     0
 63
     7
421
 16777215
 40
1.0
291
     1
 91
  2455826
 92
 54000000
292
     0
 70
     2
 71
   256
280
     1
  0
DICTIONARY
  5
2E1
330
2
100
AcDbDictionary
280
     1
281
     1
  3
ACAD_LAYERSTATES
360
2E2
  3
ACLYDICTIONARY
360
DF9
  0
DICTIONARY
  5
5198
330
A
100
AcDbDictionary
280
     1
281
     1
  3
ACAD_SORTENTS
360
5199
  0
DICTIONARY
  5
1468
330
1466
100
AcDbDictionary
280
     1
281
     1
  3
ACAD_FIELD
360
146C
  0
DICTIONARY
  5
4FE5
330
4FE4
100
AcDbDictionary
280
     1
281
     1
  3
ACAD_DIMASSOC
360
4FE6
  0
DICTIONARY
  5
4FF4
330
4FF3
100
AcDbDictionary
280
     1
281
     1
  0
DICTIONARY
  5
5003
330
5002
100
AcDbDictionary
280
     1
281
     1
  0
DICTIONARY
  5
5012
330
5011
100
AcDbDictionary
280
     1
281
     1
  0
DICTIONARY
  5
5021
330
5020
100
AcDbDictionary
280
     1
281
     1
  3
ACAD_DIMASSOC
360
5022
  0
DICTIONARY
  5
5030
330
502F
100
AcDbDictionary
280
     1
281
     1
  3
ACAD_DIMASSOC
360
5031
  0
DICTIONARY
  5
508E
330
508D
100
AcDbDictionary
280
     1
281
     1
  3
*A1
360
5090
  3
*A2
360
5091
  0
DICTIONARY
  5
513B
330
513A
100
AcDbDictionary
280
     1
281
     1
  3
ACAD_DIMASSOC
360
513C
  0
DICTIONARY
  5
5174
330
5173
100
AcDbDictionary
280
     1
281
     1
  3
ACAD_DIMASSOC
360
5175
  0
DICTIONARY
  5
5183
330
5182
100
AcDbDictionary
280
     1
281
     1
  3
ACAD_DIMASSOC
360
5184
  0
DICTIONARY
  5
674
102
{ACAD_REACTORS
330
19
102
}
330
19
100
AcDbDictionary
281
     1
  0
DICTIONARY
  5
BBF
102
{ACAD_REACTORS
330
19
102
}
330
19
100
AcDbDictionary
281
     1
  0
FIELDLIST
  5
146A
102
{ACAD_REACTORS
330
19
102
}
330
19
100
AcDbIdSet
 90
        2
330
146B
330
1467
100
AcDbFieldList
  0
DICTIONARY
  5
1A
102
{ACAD_REACTORS
330
19
102
}
330
19
100
AcDbDictionary
281
     1
  3
*A1
350
4C92
  3
*A2
350
516F
  0
RASTERVARIABLES
  5
27B
102
{ACAD_REACTORS
330
19
102
}
330
19
100
AcDbRasterVariables
 90
        0
 70
     1
 71
     1
 72
     1
  0
DICTIONARY
  5
1E
102
{ACAD_REACTORS
330
19
102
}
330
19
100
AcDbDictionary
281
     1
  3
Layout1
350
21
  3
Model
350
20
  0
DICTIONARY
  5
263
102
{ACAD_REACTORS
330
19
102
}
330
19
100
AcDbDictionary
281
     1
  3
ByBlock
350
265
  3
ByLayer
350
264
  3
Global
350
266
  0
DICTIONARY
  5
336
102
{ACAD_REACTORS
330
19
102
}
330
19
100
AcDbDictionary
281
     1
  3
Standard
350
DAB
  0
DICTIONARY
  5
1B
102
{ACAD_REACTORS
330
19
102
}
330
19
100
AcDbDictionary
281
     1
  3
Standard
350
1C
  0
DICTIONARY
  5
22
102
{ACAD_REACTORS
330
19
102
}
330
19
100
AcDbDictionary
281
     1
  0
ACDBDICTIONARYWDFLT
  5
1F
102
{ACAD_REACTORS
330
19
102
}
330
19
100
AcDbDictionary
281
     1
  3
Normal
350
1D
100
AcDbDictionaryWithDefault
340
1D
  0
DICTIONARY
  5
241
102
{ACAD_REACTORS
330
19
102
}
330
19
100
AcDbDictionary
281
     1
  3
A0
350
242
  3
A1
350
243
  3
A2
350
244
  3
A3
350
245
  3
A4
350
246
  3
A5
350
247
  3
A6
350
248
  3
A7
350
249
  3
A8
350
24A
  3
A9
350
24B
  3
B0
350
24C
  3
B1
350
24D
  3
B2
350
24E
  3
B3
350
24F
  3
B4
350
250
  3
B5
350
251
  3
B6
350
252
  3
B7
350
253
  3
B8
350
254
  3
B9
350
255
  3
C0
350
256
  3
C1
350
257
  3
C2
350
258
  3
C3
350
259
  3
C4
350
25A
  3
C5
350
25B
  3
C6
350
25C
  3
C7
350
25D
  3
C8
350
25E
  3
C9
350
25F
  3
D0
350
260
  3
D1
350
261
  3
D2
350
262
  0
DICTIONARY
  5
BC0
102
{ACAD_REACTORS
330
19
102
}
330
19
100
AcDbDictionary
281
     1
  0
DICTIONARY
  5
278
102
{ACAD_REACTORS
330
19
102
}
330
19
100
AcDbDictionary
281
     1
  3
Standard
350
279
  0
DICTIONARY
  5
267
102
{ACAD_REACTORS
330
19
102
}
330
19
100
AcDbDictionary
281
     1
  3
2dWireframe
350
26C
  3
3D Hidden
350
26E
  3
3dWireframe
350
26D
  3
Basic
350
26F
  3
Brighten
350
273
  3
ColorChange
350
277
  3
Conceptual
350
271
  3
Dim
350
272
  3
EdgeColorOff
350
8FE
  3
Facepattern
350
276
  3
Flat
350
268
  3
FlatWithEdges
350
269
  3
Gouraud
350
26A
  3
GouraudWithEdges
350
26B
  3
Hidden
350
8FB
  3
JitterOff
350
8FC
  3
Linepattern
350
275
  3
OverhangOff
350
8FD
  3
Realistic
350
270
  3
Shaded
350
903
  3
Shaded with edges
350
902
  3
Shades of Gray
350
8FF
  3
Sketchy
350
900
  3
Thicken
350
274
  3
Wireframe
350
8FA
  3
X-Ray
350
901
  0
XRECORD
  5
51C5
102
{ACAD_REACTORS
330
19
102
}
330
19
100
AcDbXrecord
280
     1
 90
        1
330
279
  0
DICTIONARY
  5
330
102
{ACAD_REACTORS
330
19
102
}
330
19
100
AcDbDictionary
281
     1
  3
CANNOSCALE
350
331
  3
CETRANSPARENCY
350
41E6
  3
CMLEADERSTYLE
350
DB1
  3
CTABLESTYLE
350
335
  3
HPTRANSPARENCY
350
D52
  3
XCLIPFRAME
350
896
  0
DICTIONARY
  5
27A
102
{ACAD_REACTORS
330
19
102
}
330
19
100
AcDbDictionary
281
     1
  0
DICTIONARY
  5
E3E
102
{ACAD_REACTORS
330
19
102
}
330
19
100
AcDbDictionary
281
     1
  3
DIMRAILANGLE
350
ECE
  3
DIMRAILFIRSTOFFSET
350
ECC
  3
DIMRAILOFFSET
350
ECD
  3
DIMRAILSENABLED
350
ECF
  0
DICTIONARY
  5
2E2
102
{ACAD_REACTORS
330
2E1
102
}
330
2E1
100
AcDbDictionary
281
     1
  0
DICTIONARY
  5
DF9
102
{ACAD_REACTORS
330
2E1
102
}
330
2E1
100
AcDbDictionary
281
     1
1001
ACAD
1000
<All
  0
SORTENTSTABLE
  5
5199
102
{ACAD_REACTORS
330
5198
102
}
330
5198
100
AcDbSortentsTable
330
A
331
516B
  5
516D
331
516C
  5
516E
331
516D
  5
5170
331
516E
  5
5171
331
0
  5
5173
331
0
  5
5182
331
5173
  5
5197
331
5182
  5
519A
331
0
  5
516B
331
519A
  5
516C
  0
DICTIONARY
  5
146C
102
{ACAD_REACTORS
330
1468
102
}
330
1468
100
AcDbDictionary
280
     1
281
     1
  3
TEXT
360
1467
  0
DIMASSOC
  5
4FE6
102
{ACAD_REACTORS
330
4FE5
102
}
330
4FE5
100
AcDbDimAssoc
330
4FE4
 90
        2
 70
     0
 71
     1
  1
AcDbOsnapPointRef
 72
    10
331
4F7C
 73
     0
 91
        0
 40
0.9523724546697263
 10
0.0
 20
0.0
 30
0.0
 75
     0
  0
DIMASSOC
  5
5022
102
{ACAD_REACTORS
330
5021
102
}
330
5021
100
AcDbDimAssoc
330
5020
 90
        3
 70
     0
 71
     1
  1
AcDbOsnapPointRef
 72
    10
331
4EE4
 73
     0
 91
        0
 40
2.062806640162721
 10
0.0
 20
0.0
 30
0.0
 75
     0
  1
AcDbOsnapPointRef
 72
    10
331
4EE4
 73
     0
 91
        0
 40
6.928590778464018
 10
0.0
 20
0.0
 30
0.0
 75
     0
  0
DIMASSOC
  5
5031
102
{ACAD_REACTORS
330
5030
102
}
330
5030
100
AcDbDimAssoc
330
502F
 90
        3
 70
     0
 71
     1
  1
AcDbOsnapPointRef
 72
    13
331
4EE4
 73
     0
 91
        0
 40
0.0
 10
0.0
 20
0.0
 30
0.0
 75
     0
  1
AcDbOsnapPointRef
 72
    10
331
4EE4
 73
     0
 91
        0
 40
4.933159182814761
 10
0.0
 20
0.0
 30
0.0
 75
     0
  0
LINE
  5
5090
102
{ACAD_REACTORS
330
508E
102
}
330
508E
100
AcDbEntity
  8
MODEL
100
AcDbLine
 10
1357.611109519558
 20
1324.707690353164
 30
0.0
 11
1750.678545948372
 21
1324.707690353164
 31
0.0
  0
LINE
  5
5091
102
{ACAD_REACTORS
330
508E
102
}
330
508E
100
AcDbEntity
  8
HIDDEN
 48
0.75
100
AcDbLine
 10
1510.213338224224
 20
1059.230734958731
 30
0.0
 11
1598.071522276502
 21
1059.230734958731
 31
0.0
  0
DIMASSOC
  5
513C
102
{ACAD_REACTORS
330
513B
102
}
330
513B
100
AcDbDimAssoc
330
513A
 90
        2
 70
     0
 71
     1
  1
AcDbOsnapPointRef
 72
    10
331
4EE8
 73
     0
 91
        0
 40
7.950246371925608
 10
0.0
 20
0.0
 30
0.0
 75
     0
  0
DIMASSOC
  5
5175
102
{ACAD_REACTORS
330
5174
102
}
330
5174
100
AcDbDimAssoc
330
5173
 90
        3
 70
     0
 71
     1
  1
AcDbOsnapPointRef
 72
     1
331
516D
 73
     0
 91
        0
 40
0.0
 10
0.0
 20
0.0
 30
0.0
 75
     0
  1
AcDbOsnapPointRef
 72
    13
331
516D
 73
     0
 91
        0
 40
0.0
 10
0.0
 20
0.0
 30
0.0
 75
     0
  0
DIMASSOC
  5
5184
102
{ACAD_REACTORS
330
5183
102
}
330
5183
100
AcDbDimAssoc
330
5182
 90
        3
 70
     0
 71
     1
  1
AcDbOsnapPointRef
 72
     1
331
516D
 73
     0
 91
        0
 40
0.0
 10
0.0
 20
0.0
 30
0.0
 75
     0
  1
AcDbOsnapPointRef
 72
    13
331
516B
 73
     0
 91
        0
 40
0.0
 10
0.0
 20
0.0
 30
0.0
 75
     0
  0
GROUP
  5
4C92
102
{ACAD_REACTORS
330
1A
102
}
330
1A
100
AcDbGroup
300

 70
     1
 71
     1
  0
GROUP
  5
516F
102
{ACAD_REACTORS
330
1A
102
}
330
1A
100
AcDbGroup
300

 70
     1
 71
     1
340
516B
340
516C
340
516D
340
516E
  0
LAYOUT
  5
21
102
{ACAD_REACTORS
330
1E
102
}
330
1E
100
AcDbPlotSettings
  1

  2
none_device
  4
ISO_A3_(420.00_x_297.00_MM)
  6

 40
7.5
 41
20.0
 42
7.5
 43
20.0
 44
420.0
 45
297.0
 46
0.0
 47
0.0
 48
0.0
 49
0.0
140
0.0
141
0.0
142
1.0
143
1.0
 70
     0
 72
     1
 73
     0
 74
     0
  7

 75
     0
 76
     0
 77
     2
 78
   300
147
1.0
148
0.0
149
0.0
100
AcDbLayout
  1
Layout1
 70
     0
 71
     0
 10
-7.5
 20
-20.0
 11
412.5
 21
277.0
 12
0.0
 22
0.0
 32
0.0
 14
0.0
 24
0.0
 34
0.0
 15
0.0
 25
0.0
 35
0.0
146
0.0
 13
0.0
 23
0.0
 33
0.0
 16
0.0
 26
0.0
 36
0.0
 17
0.0
 27
0.0
 37
0.0
 76
     0
330
B
331
349
  0
LAYOUT
  5
20
102
{ACAD_REACTORS
330
1E
102
}
330
1E
100
AcDbPlotSettings
  1

  2
none_device
  4
ISO_A3_(420.00_x_297.00_MM)
  6

 40
7.5
 41
20.0
 42
7.5
 43
20.0
 44
420.0
 45
297.0
 46
0.0
 47
0.0
 48
0.0
 49
0.0
140
0.0
141
0.0
142
1.0
143
1.0
 70
  1024
 72
     1
 73
     0
 74
     0
  7

 75
     0
 76
     0
 77
     2
 78
   300
147
1.0
148
0.0
149
0.0
100
AcDbLayout
  1
Model
 70
     0
 71
     1
 10
0.0
 20
0.0
 11
2100.0
 21
2970.0
 12
0.0
 22
0.0
 32
0.0
 14
0.0
 24
0.0
 34
-0.0000000000000142
 15
2100.0
 25
2970.0
 35
0.0000000000000071
146
0.0
 13
0.0
 23
0.0
 33
0.0
 16
0.0
 26
0.0
 36
0.0
 17
0.0
 27
0.0
 37
0.0
 76
     0
330
A
331
15
  0
MATERIAL
  5
265
102
{ACAD_REACTORS
330
263
102
}
330
263
100
AcDbMaterial
  1
ByBlock
 72
     1
 94
      127
  0
MATERIAL
  5
264
102
{ACAD_REACTORS
330
263
102
}
330
263
100
AcDbMaterial
  1
ByLayer
 72
     1
 94
      127
  0
MATERIAL
  5
266
102
{ACAD_REACTORS
330
263
102
}
330
263
100
AcDbMaterial
  1
Global
 72
     1
 94
      127
  0
MLEADERSTYLE
  5
DAB
102
{ACAD_REACTORS
330
336
102
}
330
336
100
AcDbMLeaderStyle
170
     2
171
     1
172
     0
 90
        2
 40
0.0
 41
0.0
173
     1
 91
-1056964608
340
11
 92
       -2
290
     1
 42
2.0
291
     1
 43
8.0
  3
Standard
341
0
 44
4.0
300

342
17
174
     1
178
     6
175
     1
176
     0
 93
-1056964608
 45
4.0
292
     0
297
     0
 46
4.0
343
0
 94
-1056964608
 47
1.0
 49
1.0
140
1.0
293
     1
141
0.0
294
     1
177
     0
142
1.0
295
     0
296
     0
143
3.75
1001
ACAD_MLEADERVER
1070
     2
  0
MLINESTYLE
  5
1C
102
{ACAD_REACTORS
330
1B
102
}
330
1B
100
AcDbMlineStyle
  2
Standard
 70
     0
  3

 62
     0
 51
90.0
 52
90.0
 71
     2
 49
0.5
 62
   256
  6
BYLAYER
 49
-0.5
 62
   256
  6
BYLAYER
  0
ACDBPLACEHOLDER
  5
1D
102
{ACAD_REACTORS
330
1F
102
}
330
1F
  0
SCALE
  5
242
102
{ACAD_REACTORS
330
241
102
}
330
241
100
AcDbScale
 70
     0
300
1:1
140
1.0
141
1.0
290
     1
  0
SCALE
  5
243
102
{ACAD_REACTORS
330
241
102
}
330
241
100
AcDbScale
 70
     0
300
1:2
140
1.0
141
2.0
290
     0
  0
SCALE
  5
244
102
{ACAD_REACTORS
330
241
102
}
330
241
100
AcDbScale
 70
     0
300
1:4
140
1.0
141
4.0
290
     0
  0
SCALE
  5
245
102
{ACAD_REACTORS
330
241
102
}
330
241
100
AcDbScale
 70
     0
300
1:5
140
1.0
141
5.0
290
     0
  0
SCALE
  5
246
102
{ACAD_REACTORS
330
241
102
}
330
241
100
AcDbScale
 70
     0
300
1:8
140
1.0
141
8.0
290
     0
  0
SCALE
  5
247
102
{ACAD_REACTORS
330
241
102
}
330
241
100
AcDbScale
 70
     0
300
1:10
140
1.0
141
10.0
290
     0
  0
SCALE
  5
248
102
{ACAD_REACTORS
330
241
102
}
330
241
100
AcDbScale
 70
     0
300
1:16
140
1.0
141
16.0
290
     0
  0
SCALE
  5
249
102
{ACAD_REACTORS
330
241
102
}
330
241
100
AcDbScale
 70
     0
300
1:20
140
1.0
141
20.0
290
     0
  0
SCALE
  5
24A
102
{ACAD_REACTORS
330
241
102
}
330
241
100
AcDbScale
 70
     0
300
1:30
140
1.0
141
30.0
290
     0
  0
SCALE
  5
24B
102
{ACAD_REACTORS
330
241
102
}
330
241
100
AcDbScale
 70
     0
300
1:40
140
1.0
141
40.0
290
     0
  0
SCALE
  5
24C
102
{ACAD_REACTORS
330
241
102
}
330
241
100
AcDbScale
 70
     0
300
1:50
140
1.0
141
50.0
290
     0
  0
SCALE
  5
24D
102
{ACAD_REACTORS
330
241
102
}
330
241
100
AcDbScale
 70
     0
300
1:100
140
1.0
141
100.0
290
     0
  0
SCALE
  5
24E
102
{ACAD_REACTORS
330
241
102
}
330
241
100
AcDbScale
 70
     0
300
2:1
140
2.0
141
1.0
290
     0
  0
SCALE
  5
24F
102
{ACAD_REACTORS
330
241
102
}
330
241
100
AcDbScale
 70
     0
300
4:1
140
4.0
141
1.0
290
     0
  0
SCALE
  5
250
102
{ACAD_REACTORS
330
241
102
}
330
241
100
AcDbScale
 70
     0
300
8:1
140
8.0
141
1.0
290
     0
  0
SCALE
  5
251
102
{ACAD_REACTORS
330
241
102
}
330
241
100
AcDbScale
 70
     0
300
10:1
140
10.0
141
1.0
290
     0
  0
SCALE
  5
252
102
{ACAD_REACTORS
330
241
102
}
330
241
100
AcDbScale
 70
     0
300
100:1
140
100.0
141
1.0
290
     0
  0
SCALE
  5
253
102
{ACAD_REACTORS
330
241
102
}
330
241
100
AcDbScale
 70
     0
300
1/128" = 1'-0"
140
0.0078125
141
12.0
290
     0
  0
SCALE
  5
254
102
{ACAD_REACTORS
330
241
102
}
330
241
100
AcDbScale
 70
     0
300
1/64" = 1'-0"
140
0.015625
141
12.0
290
     0
  0
SCALE
  5
255
102
{ACAD_REACTORS
330
241
102
}
330
241
100
AcDbScale
 70
     0
300
1/32" = 1'-0"
140
0.03125
141
12.0
290
     0
  0
SCALE
  5
256
102
{ACAD_REACTORS
330
241
102
}
330
241
100
AcDbScale
 70
     0
300
1/16" = 1'-0"
140
0.0625
141
12.0
290
     0
  0
SCALE
  5
257
102
{ACAD_REACTORS
330
241
102
}
330
241
100
AcDbScale
 70
     0
300
3/32" = 1'-0"
140
0.09375
141
12.0
290
     0
  0
SCALE
  5
258
102
{ACAD_REACTORS
330
241
102
}
330
241
100
AcDbScale
 70
     0
300
1/8" = 1'-0"
140
0.125
141
12.0
290
     0
  0
SCALE
  5
259
102
{ACAD_REACTORS
330
241
102
}
330
241
100
AcDbScale
 70
     0
300
3/16" = 1'-0"
140
0.1875
141
12.0
290
     0
  0
SCALE
  5
25A
102
{ACAD_REACTORS
330
241
102
}
330
241
100
AcDbScale
 70
     0
300
1/4" = 1'-0"
140
0.25
141
12.0
290
     0
  0
SCALE
  5
25B
102
{ACAD_REACTORS
330
241
102
}
330
241
100
AcDbScale
 70
     0
300
3/8" = 1'-0"
140
0.375
141
12.0
290
     0
  0
SCALE
  5
25C
102
{ACAD_REACTORS
330
241
102
}
330
241
100
AcDbScale
 70
     0
300
1/2" = 1'-0"
140
0.5
141
12.0
290
     0
  0
SCALE
  5
25D
102
{ACAD_REACTORS
330
241
102
}
330
241
100
AcDbScale
 70
     0
300
3/4" = 1'-0"
140
0.75
141
12.0
290
     0
  0
SCALE
  5
25E
102
{ACAD_REACTORS
330
241
102
}
330
241
100
AcDbScale
 70
     0
300
1" = 1'-0"
140
1.0
141
12.0
290
     0
  0
SCALE
  5
25F
102
{ACAD_REACTORS
330
241
102
}
330
241
100
AcDbScale
 70
     0
300
1-1/2" = 1'-0"
140
1.5
141
12.0
290
     0
  0
SCALE
  5
260
102
{ACAD_REACTORS
330
241
102
}
330
241
100
AcDbScale
 70
     0
300
3" = 1'-0"
140
3.0
141
12.0
290
     0
  0
SCALE
  5
261
102
{ACAD_REACTORS
330
241
102
}
330
241
100
AcDbScale
 70
     0
300
6" = 1'-0"
140
6.0
141
12.0
290
     0
  0
SCALE
  5
262
102
{ACAD_REACTORS
330
241
102
}
330
241
100
AcDbScale
 70
     0
300
1'-0" = 1'-0"
140
12.0
141
12.0
290
     0
  0
TABLESTYLE
  5
279
102
{ACAD_REACTORS
330
278
102
}
102
{ACAD_XDICTIONARY
360
51C3
102
}
330
278
100
AcDbTableStyle
  3
Standard
 70
     0
 71
     0
 40
0.06
 41
0.06
280
     0
281
     0
  7
Standard
140
4.5
170
     2
 62
     0
 63
   257
283
     0
 90
        4
 91
        0
  1

274
    -2
284
     1
 64
     0
275
    -2
285
     1
 65
     0
276
    -2
286
     1
 66
     0
277
    -2
287
     1
 67
     0
278
    -2
288
     1
 68
     0
279
    -2
289
     1
 69
     0
  7
Standard
140
6.0
170
     5
 62
     0
 63
   257
283
     0
 90
        4
 91
        0
  1

274
    -2
284
     1
 64
     0
275
    -2
285
     1
 65
     0
276
    -2
286
     1
 66
     0
277
    -2
287
     1
 67
     0
278
    -2
288
     1
 68
     0
279
    -2
289
     1
 69
     0
  7
Standard
140
4.5
170
     5
 62
     0
 63
   257
283
     0
 90
        4
 91
        0
  1

274
    -2
284
     1
 64
     0
275
    -2
285
     1
 65
     0
276
    -2
286
     1
 66
     0
277
    -2
287
     1
 67
     0
278
    -2
288
     1
 68
     0
279
    -2
289
     1
 69
     0
  0
VISUALSTYLE
  5
26C
102
{ACAD_REACTORS
330
267
102
}
330
267
100
AcDbVisualStyle
  2
2dWireframe
 70
     4
 71
     0
 72
     2
 73
     0
 90
        0
 40
-0.6
 41
-30.0
 62
     5
 63
     7
421
 16777215
 74
     1
 91
        4
 64
     7
 65
   257
 75
     1
175
     1
 42
1.0
 92
        0
 66
   257
 43
1.0
 76
     1
 77
     6
 78
     2
 67
     7
 79
     5
170
     0
171
     0
290
     0
174
     0
 93
        1
 44
0.0
173
     0
291
     0
 45
0.0
  0
VISUALSTYLE
  5
26E
102
{ACAD_REACTORS
330
267
102
}
330
267
100
AcDbVisualStyle
  2
3D Hidden
 70
     6
 71
     1
 72
     2
 73
     2
 90
        0
 40
-0.6
 41
-30.0
 62
     5
 63
     7
421
 16777215
 74
     2
 91
        2
 64
     7
 65
   257
 75
     2
175
     1
 42
40.0
 92
        0
 66
   257
 43
1.0
 76
     1
 77
     6
 78
     2
 67
     7
 79
     3
170
     0
171
     0
290
     0
174
     0
 93
        1
 44
0.0
173
     0
291
     0
 45
0.0
  0
VISUALSTYLE
  5
26D
102
{ACAD_REACTORS
330
267
102
}
330
267
100
AcDbVisualStyle
  2
3dWireframe
 70
     5
 71
     0
 72
     2
 73
     0
 90
        0
 40
-0.6
 41
-30.0
 62
     5
 63
     7
421
 16777215
 74
     1
 91
        4
 64
     7
 65
   257
 75
     1
175
     1
 42
1.0
 92
        0
 66
   257
 43
1.0
 76
     1
 77
     6
 78
     2
 67
     7
 79
     5
170
     0
171
     0
290
     0
174
     0
 93
        1
 44
0.0
173
     0
291
     0
 45
0.0
  0
VISUALSTYLE
  5
26F
102
{ACAD_REACTORS
330
267
102
}
330
267
100
AcDbVisualStyle
  2
Basic
 70
     7
 71
     1
 72
     0
 73
     1
 90
        0
 40
-0.6
 41
-30.0
 62
     5
 63
     7
421
 16777215
 74
     0
 91
        4
 64
     7
 65
   257
 75
     1
175
     1
 42
1.0
 92
        8
 66
     7
 43
1.0
 76
     1
 77
     6
 78
     2
 67
     7
 79
     5
170
     0
171
     0
290
     0
174
     0
 93
        1
 44
0.0
173
     0
291
     1
 45
0.0
  0
VISUALSTYLE
  5
273
102
{ACAD_REACTORS
330
267
102
}
330
267
100
AcDbVisualStyle
  2
Brighten
 70
    12
 71
     2
 72
     2
 73
     0
 90
        0
 40
-0.6
 41
-30.0
 62
     5
 63
     7
421
 16777215
 74
     1
 91
        4
 64
     7
 65
   257
 75
     1
175
     1
 42
1.0
 92
        8
 66
     7
 43
1.0
 76
     1
 77
     6
 78
     2
 67
     7
 79
     5
170
     0
171
     0
290
     0
174
     0
 93
        1
 44
50.0
173
     0
291
     1
 45
0.0
  0
VISUALSTYLE
  5
277
102
{ACAD_REACTORS
330
267
102
}
330
267
100
AcDbVisualStyle
  2
ColorChange
 70
    16
 71
     2
 72
     2
 73
     3
 90
        0
 40
-0.6
 41
-30.0
 62
     5
 63
     8
421
  8421504
 74
     1
 91
        4
 64
     7
 65
   257
 75
     1
175
     1
 42
1.0
 92
        8
 66
     8
424
  8421504
 43
1.0
 76
     1
 77
     6
 78
     2
 67
     7
 79
     5
170
     0
171
     0
290
     0
174
     0
 93
        1
 44
0.0
173
     0
291
     1
 45
0.0
  0
VISUALSTYLE
  5
271
102
{ACAD_REACTORS
330
267
102
}
330
267
100
AcDbVisualStyle
  2
Conceptual
 70
     9
 71
     3
 72
     2
 73
     0
 90
        0
 40
-0.6
 41
-30.0
 62
     5
 63
     7
421
 16777215
 74
     2
 91
        2
 64
     7
 65
   257
 75
     1
175
     1
 42
40.0
 92
        8
 66
     7
 43
1.0
 76
     1
 77
     6
 78
     2
 67
     7
 79
     3
170
     0
171
     0
290
     0
174
     0
 93
        1
 44
0.0
173
     0
291
     0
 45
0.0
  0
VISUALSTYLE
  5
272
102
{ACAD_REACTORS
330
267
102
}
330
267
100
AcDbVisualStyle
  2
Dim
 70
    11
 71
     2
 72
     2
 73
     0
 90
        0
 40
-0.6
 41
-30.0
 62
     5
 63
     7
421
 16777215
 74
     1
 91
        4
 64
     7
 65
   257
 75
     1
175
     1
 42
1.0
 92
        8
 66
     7
 43
1.0
 76
     1
 77
     6
 78
     2
 67
     7
 79
     5
170
     0
171
     0
290
     0
174
     0
 93
        1
 44
-50.0
173
     0
291
     1
 45
0.0
  0
VISUALSTYLE
  5
8FE
102
{ACAD_REACTORS
330
267
102
}
330
267
100
AcDbVisualStyle
  2
EdgeColorOff
 70
    22
 71
     2
 72
     2
 73
     0
 90
        0
 40
0.6
 41
30.0
 62
     5
 63
     7
421
 16777215
 74
     1
 91
        4
 64
     7
 65
   257
 75
     1
175
     1
 42
1.0
 92
        8
 66
     7
 43
1.0
 76
     1
 77
     6
 78
     2
 67
     7
 79
     5
170
     0
171
     0
290
     0
174
     0
 93
        1
 44
0.0
173
     0
291
     1
 45
0.0
  0
VISUALSTYLE
  5
276
102
{ACAD_REACTORS
330
267
102
}
330
267
100
AcDbVisualStyle
  2
Facepattern
 70
    15
 71
     2
 72
     2
 73
     0
 90
        0
 40
-0.6
 41
-30.0
 62
     5
 63
     7
421
 16777215
 74
     1
 91
        4
 64
     7
 65
   257
 75
     1
175
     1
 42
1.0
 92
        8
 66
     7
 43
1.0
 76
     1
 77
     6
 78
     2
 67
     7
 79
     5
170
     0
171
     0
290
     0
174
     0
 93
        1
 44
0.0
173
     0
291
     1
 45
0.0
  0
VISUALSTYLE
  5
268
102
{ACAD_REACTORS
330
267
102
}
330
267
100
AcDbVisualStyle
  2
Flat
 70
     0
 71
     2
 72
     1
 73
     1
 90
        2
 40
-0.6
 41
30.0
 62
     5
 63
     7
421
 16777215
 74
     0
 91
        4
 64
     7
 65
   257
 75
     1
175
     1
 42
1.0
 92
        8
 66
     7
 43
1.0
 76
     1
 77
     6
 78
     2
 67
     7
 79
     5
170
     0
171
     0
290
     0
174
     0
 93
       13
 44
0.0
173
     0
291
     1
 45
0.0
  0
VISUALSTYLE
  5
269
102
{ACAD_REACTORS
330
267
102
}
330
267
100
AcDbVisualStyle
  2
FlatWithEdges
 70
     1
 71
     2
 72
     1
 73
     1
 90
        2
 40
-0.6
 41
30.0
 62
     5
 63
     7
421
 16777215
 74
     1
 91
        4
 64
     7
 65
   257
 75
     1
175
     1
 42
1.0
 92
        0
 66
   257
 43
1.0
 76
     1
 77
     6
 78
     2
 67
     7
 79
     5
170
     0
171
     0
290
     0
174
     0
 93
       13
 44
0.0
173
     0
291
     1
 45
0.0
  0
VISUALSTYLE
  5
26A
102
{ACAD_REACTORS
330
267
102
}
330
267
100
AcDbVisualStyle
  2
Gouraud
 70
     2
 71
     2
 72
     2
 73
     1
 90
        2
 40
-0.6
 41
30.0
 62
     5
 63
     7
421
 16777215
 74
     0
 91
        4
 64
     7
 65
   257
 75
     1
175
     1
 42
1.0
 92
        0
 66
     7
 43
1.0
 76
     1
 77
     6
 78
     2
 67
     7
 79
     5
170
     0
171
     0
290
     0
174
     0
 93
       13
 44
0.0
173
     0
291
     1
 45
0.0
  0
VISUALSTYLE
  5
26B
102
{ACAD_REACTORS
330
267
102
}
330
267
100
AcDbVisualStyle
  2
GouraudWithEdges
 70
     3
 71
     2
 72
     2
 73
     1
 90
        2
 40
-0.6
 41
30.0
 62
     5
 63
     7
421
 16777215
 74
     1
 91
        4
 64
     7
 65
   257
 75
     1
175
     1
 42
1.0
 92
        0
 66
   257
 43
1.0
 76
     1
 77
     6
 78
     2
 67
     7
 79
     5
170
     0
171
     0
290
     0
174
     0
 93
       13
 44
0.0
173
     0
291
     1
 45
0.0
  0
VISUALSTYLE
  5
8FB
102
{ACAD_REACTORS
330
267
102
}
330
267
100
AcDbVisualStyle
  2
Hidden
 70
     6
 71
     1
 72
     2
 73
     2
 90
        0
 40
0.6
 41
30.0
 62
     5
 63
     7
421
 16777215
 74
     2
 91
        2
 64
     7
 65
   257
 75
     2
175
     1
 42
40.0
 92
        0
 66
   257
 43
1.0
 76
     1
 77
     6
 78
     2
 67
     7
 79
     3
170
     0
171
     0
290
     0
174
     0
 93
        1
 44
0.0
173
     0
291
     0
 45
0.0
  0
VISUALSTYLE
  5
8FC
102
{ACAD_REACTORS
330
267
102
}
330
267
100
AcDbVisualStyle
  2
JitterOff
 70
    20
 71
     2
 72
     2
 73
     0
 90
        0
 40
0.6
 41
30.0
 62
     5
 63
     7
421
 16777215
 74
     1
 91
        4
 64
     7
 65
   257
 75
     1
175
     1
 42
1.0
 92
       10
 66
     7
 43
1.0
 76
     1
 77
     6
 78
     2
 67
     7
 79
     5
170
     0
171
     0
290
     0
174
     0
 93
        1
 44
0.0
173
     0
291
     1
 45
0.0
  0
VISUALSTYLE
  5
275
102
{ACAD_REACTORS
330
267
102
}
330
267
100
AcDbVisualStyle
  2
Linepattern
 70
    14
 71
     2
 72
     2
 73
     0
 90
        0
 40
-0.6
 41
-30.0
 62
     5
 63
     7
421
 16777215
 74
     1
 91
        4
 64
     7
 65
   257
 75
     7
175
     7
 42
1.0
 92
        8
 66
     7
 43
1.0
 76
     1
 77
     6
 78
     2
 67
     7
 79
     5
170
     0
171
     0
290
     0
174
     0
 93
        1
 44
0.0
173
     0
291
     1
 45
0.0
  0
VISUALSTYLE
  5
8FD
102
{ACAD_REACTORS
330
267
102
}
330
267
100
AcDbVisualStyle
  2
OverhangOff
 70
    21
 71
     2
 72
     2
 73
     0
 90
        0
 40
0.6
 41
30.0
 62
     5
 63
     7
421
 16777215
 74
     1
 91
        4
 64
     7
 65
   257
 75
     1
175
     1
 42
1.0
 92
        9
 66
     7
 43
1.0
 76
     1
 77
     6
 78
     2
 67
     7
 79
     5
170
     0
171
     0
290
     0
174
     0
 93
        1
 44
0.0
173
     0
291
     1
 45
0.0
  0
VISUALSTYLE
  5
270
102
{ACAD_REACTORS
330
267
102
}
330
267
100
AcDbVisualStyle
  2
Realistic
 70
     8
 71
     2
 72
     2
 73
     0
 90
        0
 40
-0.6
 41
-30.0
 62
     5
 63
     7
421
 16777215
 74
     1
 91
        0
 64
     7
 65
   257
 75
     1
175
     1
 42
1.0
 92
        8
 66
     8
424
  7895160
 43
1.0
 76
     1
 77
     6
 78
     2
 67
     7
 79
     5
170
     0
171
     0
290
     0
174
     0
 93
       13
 44
0.0
173
     0
291
     0
 45
0.0
  0
VISUALSTYLE
  5
903
102
{ACAD_REACTORS
330
267
102
}
330
267
100
AcDbVisualStyle
  2
Shaded
 70
    27
 71
     2
 72
     2
 73
     1
 90
        2
 40
0.6
 41
30.0
 62
     5
 63
     7
421
 16777215
 74
     0
 91
        4
 64
     7
 65
   257
 75
     1
175
     1
 42
1.0
 92
        8
 66
   257
 43
1.0
 76
     1
 77
     6
 78
     2
 67
     8
425
  7895160
 79
     3
170
     0
171
     0
290
     0
174
     0
 93
        5
 44
0.0
173
     0
291
     0
 45
0.0
  0
VISUALSTYLE
  5
902
102
{ACAD_REACTORS
330
267
102
}
330
267
100
AcDbVisualStyle
  2
Shaded with edges
 70
    26
 71
     2
 72
     2
 73
     1
 90
        2
 40
0.6
 41
30.0
 62
     5
 63
     7
421
 16777215
 74
     1
 91
       10
 64
     7
 65
   257
 75
     2
175
     1
 42
1.0
 92
        8
 66
   257
 43
1.0
 76
     1
 77
     6
 78
     2
 67
     7
 79
     3
170
     0
171
     0
290
     0
174
     0
 93
        5
 44
0.0
173
     0
291
     0
 45
0.0
  0
VISUALSTYLE
  5
8FF
102
{ACAD_REACTORS
330
267
102
}
330
267
100
AcDbVisualStyle
  2
Shades of Gray
 70
    23
 71
     2
 72
     2
 73
     3
 90
        0
 40
0.6
 41
30.0
 62
     5
 63
     7
421
 16777215
 74
     2
 91
        2
 64
     7
 65
     7
 75
     1
175
     1
 42
40.0
 92
        8
 66
     7
 43
1.0
 76
     1
 77
     6
 78
     2
 67
     7
 79
     3
170
     0
171
     0
290
     0
174
     0
 93
        1
 44
0.0
173
     0
291
     0
 45
0.0
  0
VISUALSTYLE
  5
900
102
{ACAD_REACTORS
330
267
102
}
330
267
100
AcDbVisualStyle
  2
Sketchy
 70
    24
 71
     1
 72
     2
 73
     2
 90
        0
 40
0.6
 41
30.0
 62
     5
 63
     7
421
 16777215
 74
     2
 91
        2
 64
     7
 65
     7
 75
     1
175
     1
 42
40.0
 92
       11
 66
     7
 43
1.0
 76
     1
 77
     6
 78
     2
 67
     7
 79
     6
170
     0
171
     0
290
     0
174
     0
 93
        1
 44
0.0
173
     0
291
     0
 45
0.0
  0
VISUALSTYLE
  5
274
102
{ACAD_REACTORS
330
267
102
}
330
267
100
AcDbVisualStyle
  2
Thicken
 70
    13
 71
     2
 72
     2
 73
     0
 90
        0
 40
-0.6
 41
-30.0
 62
     5
 63
     7
421
 16777215
 74
     1
 91
        4
 64
     7
 65
   257
 75
     1
175
     1
 42
1.0
 92
       12
 66
     7
 43
1.0
 76
     1
 77
     6
 78
     2
 67
     7
 79
     5
170
     0
171
     0
290
     0
174
     0
 93
        1
 44
0.0
173
     0
291
     1
 45
0.0
  0
VISUALSTYLE
  5
8FA
102
{ACAD_REACTORS
330
267
102
}
330
267
100
AcDbVisualStyle
  2
Wireframe
 70
     5
 71
     0
 72
     2
 73
     0
 90
        0
 40
0.6
 41
30.0
 62
     5
 63
     7
421
 16777215
 74
     1
 91
        4
 64
     7
 65
   257
 75
     1
175
     1
 42
1.0
 92
        0
 66
   257
 43
1.0
 76
     1
 77
     6
 78
     2
 67
     7
 79
     3
170
     0
171
     0
290
     0
174
     0
 93
        1
 44
0.0
173
     0
291
     0
 45
0.0
  0
VISUALSTYLE
  5
901
102
{ACAD_REACTORS
330
267
102
}
330
267
100
AcDbVisualStyle
  2
X-Ray
 70
    25
 71
     2
 72
     2
 73
     1
 90
        1
 40
0.5
 41
30.0
 62
     5
 63
     7
421
 16777215
 74
     1
 91
        0
 64
     7
 65
   257
 75
     1
175
     1
 42
1.0
 92
        8
 66
     7
 43
1.0
 76
     1
 77
     6
 78
     2
 67
     7
 79
     3
170
     0
171
     0
290
     0
174
     0
 93
       13
 44
0.0
173
     0
291
     0
 45
0.0
  0
DICTIONARYVAR
  5
331
102
{ACAD_REACTORS
330
330
102
}
330
330
100
DictionaryVariables
280
     0
  1
1:1
  0
DICTIONARYVAR
  5
41E6
102
{ACAD_REACTORS
330
330
102
}
330
330
100
DictionaryVariables
280
     0
  1
33554687
  0
DICTIONARYVAR
  5
DB1
102
{ACAD_REACTORS
330
330
102
}
330
330
100
DictionaryVariables
280
     0
  1
Standard
  0
DICTIONARYVAR
  5
335
102
{ACAD_REACTORS
330
330
102
}
330
330
100
DictionaryVariables
280
     0
  1
Standard
  0
DICTIONARYVAR
  5
D52
102
{ACAD_REACTORS
330
330
102
}
330
330
100
DictionaryVariables
280
     0
  1
ByLayer
  0
DICTIONARYVAR
  5
896
102
{ACAD_REACTORS
330
330
102
}
330
330
100
DictionaryVariables
280
     0
  1
0
  0
DICTIONARYVAR
  5
ECE
102
{ACAD_REACTORS
330
E3E
102
}
330
E3E
100
DictionaryVariables
280
     0
  1
0.261799
  0
DICTIONARYVAR
  5
ECC
102
{ACAD_REACTORS
330
E3E
102
}
330
E3E
100
DictionaryVariables
280
     0
  1
0.400000
  0
DICTIONARYVAR
  5
ECD
102
{ACAD_REACTORS
330
E3E
102
}
330
E3E
100
DictionaryVariables
280
     0
  1
0.250000
  0
DICTIONARYVAR
  5
ECF
102
{ACAD_REACTORS
330
E3E
102
}
330
E3E
100
DictionaryVariables
280
     0
  1
1
  0
FIELD
  5
1467
102
{ACAD_REACTORS
330
146C
102
}
330
146C
100
AcDbField
  1
_text
  2
{%<\_FldIdx 0>%N}
 90
        1
360
146B
 97
        0
 91
       63
 92
        0
 94
        8
 95
        2
 96
        0
300

 93
        1
  6
ACFD_FIELDTEXT_CHECKSUM
 93
        2
 90
        2
140
4482.0
 94
        0
300

302

304
ACVALUE_END
  7
ACFD_FIELD_VALUE
 93
        6
 90
        4
  1
{20171023N}
 94
        0
300

302

304
ACVALUE_END
301
{20171023N}
 98
       11
  0
DICTIONARY
  5
51C3
330
279
100
AcDbDictionary
280
     1
281
     1
  3
ACAD_ROUNDTRIP_2008_TABLESTYLE_CELLSTYLEMAP
360
51C4
  0
FIELD
  5
146B
330
1467
100
AcDbField
  1
AcVar
  2
\AcVar Date \f "yyyyMMdd"
 90
        0
 97
        0
 91
       63
 92
        0
 94
        8
 95
       64
 96
        0
300
Variable not supported
 93
        1
  6
Variable
 93
        2
 90
        4
  1
Date
 94
        0
300

302

304
ACVALUE_END
  7
ACFD_FIELD_VALUE
 93
        6
 90
        8
 92
       16
310
E1070A00000017000D00190036000000
 94
        0
300
yyyyMMdd
302

304
ACVALUE_END
301
20171023
 98
        8
  0
CELLSTYLEMAP
  5
51C4
102
{ACAD_REACTORS
330
51C3
102
}
330
51C3
100
AcDbCellStyleMap
 90
        3
300
CELLSTYLE
  1
TABLEFORMAT_BEGIN
 90
        5
170
     1
 91
        0
 92
    32768
 62
   257
 93
        1
300
CONTENTFORMAT
  1
CONTENTFORMAT_BEGIN
 90
        0
 91
        0
 92
        4
 93
        0
300

 40
0.0
140
1.0
 94
        5
 62
     0
340
17
144
6.0
309
CONTENTFORMAT_END
171
     1
301
MARGIN
  1
CELLMARGIN_BEGIN
 40
0.06
 40
0.06
 40
0.06
 40
0.06
 40
0.18
 40
0.18
309
CELLMARGIN_END
 94
        6
 95
        1
302
GRIDFORMAT
  1
GRIDFORMAT_BEGIN
 90
        0
 91
        1
 62
     0
 92
       -2
340
0
 93
        0
 40
0.045
309
GRIDFORMAT_END
 95
        2
302
GRIDFORMAT
  1
GRIDFORMAT_BEGIN
 90
        0
 91
        1
 62
     0
 92
       -2
340
0
 93
        0
 40
0.045
309
GRIDFORMAT_END
 95
        4
302
GRIDFORMAT
  1
GRIDFORMAT_BEGIN
 90
        0
 91
        1
 62
     0
 92
       -2
340
0
 93
        0
 40
0.045
309
GRIDFORMAT_END
 95
        8
302
GRIDFORMAT
  1
GRIDFORMAT_BEGIN
 90
        0
 91
        1
 62
     0
 92
       -2
340
0
 93
        0
 40
0.045
309
GRIDFORMAT_END
 95
       16
302
GRIDFORMAT
  1
GRIDFORMAT_BEGIN
 90
        0
 91
        1
 62
     0
 92
       -2
340
0
 93
        0
 40
0.045
309
GRIDFORMAT_END
 95
       32
302
GRIDFORMAT
  1
GRIDFORMAT_BEGIN
 90
        0
 91
        1
 62
     0
 92
       -2
340
0
 93
        0
 40
0.045
309
GRIDFORMAT_END
309
TABLEFORMAT_END
  1
CELLSTYLE_BEGIN
 90
        1
 91
        1
300
_TITLE
309
CELLSTYLE_END
300
CELLSTYLE
  1
TABLEFORMAT_BEGIN
 90
        5
170
     1
 91
        0
 92
        0
 62
   257
 93
        1
300
CONTENTFORMAT
  1
CONTENTFORMAT_BEGIN
 90
        0
 91
        0
 92
        4
 93
        0
300

 40
0.0
140
1.0
 94
        5
 62
     0
340
17
144
4.5
309
CONTENTFORMAT_END
171
     1
301
MARGIN
  1
CELLMARGIN_BEGIN
 40
0.06
 40
0.06
 40
0.06
 40
0.06
 40
0.18
 40
0.18
309
CELLMARGIN_END
 94
        6
 95
        1
302
GRIDFORMAT
  1
GRIDFORMAT_BEGIN
 90
        0
 91
        1
 62
     0
 92
       -2
340
0
 93
        0
 40
0.045
309
GRIDFORMAT_END
 95
        2
302
GRIDFORMAT
  1
GRIDFORMAT_BEGIN
 90
        0
 91
        1
 62
     0
 92
       -2
340
0
 93
        0
 40
0.045
309
GRIDFORMAT_END
 95
        4
302
GRIDFORMAT
  1
GRIDFORMAT_BEGIN
 90
        0
 91
        1
 62
     0
 92
       -2
340
0
 93
        0
 40
0.045
309
GRIDFORMAT_END
 95
        8
302
GRIDFORMAT
  1
GRIDFORMAT_BEGIN
 90
        0
 91
        1
 62
     0
 92
       -2
340
0
 93
        0
 40
0.045
309
GRIDFORMAT_END
 95
       16
302
GRIDFORMAT
  1
GRIDFORMAT_BEGIN
 90
        0
 91
        1
 62
     0
 92
       -2
340
0
 93
        0
 40
0.045
309
GRIDFORMAT_END
 95
       32
302
GRIDFORMAT
  1
GRIDFORMAT_BEGIN
 90
        0
 91
        1
 62
     0
 92
       -2
340
0
 93
        0
 40
0.045
309
GRIDFORMAT_END
309
TABLEFORMAT_END
  1
CELLSTYLE_BEGIN
 90
        2
 91
        1
300
_HEADER
309
CELLSTYLE_END
300
CELLSTYLE
  1
TABLEFORMAT_BEGIN
 90
        5
170
     1
 91
        0
 92
        0
 62
   257
 93
        1
300
CONTENTFORMAT
  1
CONTENTFORMAT_BEGIN
 90
        0
 91
        0
 92
        4
 93
        0
300

 40
0.0
140
1.0
 94
        2
 62
     0
340
17
144
4.5
309
CONTENTFORMAT_END
171
     1
301
MARGIN
  1
CELLMARGIN_BEGIN
 40
0.06
 40
0.06
 40
0.06
 40
0.06
 40
0.18
 40
0.18
309
CELLMARGIN_END
 94
        6
 95
        1
302
GRIDFORMAT
  1
GRIDFORMAT_BEGIN
 90
        0
 91
        1
 62
     0
 92
       -2
340
0
 93
        0
 40
0.045
309
GRIDFORMAT_END
 95
        2
302
GRIDFORMAT
  1
GRIDFORMAT_BEGIN
 90
        0
 91
        1
 62
     0
 92
       -2
340
0
 93
        0
 40
0.045
309
GRIDFORMAT_END
 95
        4
302
GRIDFORMAT
  1
GRIDFORMAT_BEGIN
 90
        0
 91
        1
 62
     0
 92
       -2
340
0
 93
        0
 40
0.045
309
GRIDFORMAT_END
 95
        8
302
GRIDFORMAT
  1
GRIDFORMAT_BEGIN
 90
        0
 91
        1
 62
     0
 92
       -2
340
0
 93
        0
 40
0.045
309
GRIDFORMAT_END
 95
       16
302
GRIDFORMAT
  1
GRIDFORMAT_BEGIN
 90
        0
 91
        1
 62
     0
 92
       -2
340
0
 93
        0
 40
0.045
309
GRIDFORMAT_END
 95
       32
302
GRIDFORMAT
  1
GRIDFORMAT_BEGIN
 90
        0
 91
        1
 62
     0
 92
       -2
340
0
 93
        0
 40
0.045
309
GRIDFORMAT_END
309
TABLEFORMAT_END
  1
CELLSTYLE_BEGIN
 90
        3
 91
        2
300
_DATA
309
CELLSTYLE_END
  0
ENDSEC
  0
EOF
