  0
SECTION
  2
HEADER
  9
$ACADVER
  1
AC1021
  9
$ACADMAINTVER
 70
    25
  9
$DWGCODEPAGE
  3
ANSI_932
  9
$LASTSAVEDBY
  1
tform
  9
$INSBASE
 10
0.0
 20
0.0
 30
0.0
  9
$EXTMIN
 10
0.0
 20
0.0
 30
-0.0000000000000071
  9
$EXTMAX
 10
1680.0
 20
2376.0
 30
0.0000000000000071
  9
$LIMMIN
 10
0.0
 20
0.0
  9
$LIMMAX
 10
1680.0
 20
2376.0
  9
$ORTHOMODE
 70
     1
  9
$REGENMODE
 70
     1
  9
$FILLMODE
 70
     1
  9
$QTEXTMODE
 70
     0
  9
$MIRRTEXT
 70
     1
  9
$LTSCALE
 40
4.0
  9
$ATTMODE
 70
     1
  9
$TEXTSIZE
 40
2.5
  9
$TRACEWID
 40
1.0
  9
$TEXTSTYLE
  7
ＭＳ ゴシック
  9
$CLAYER
  8
0
  9
$CELTYPE
  6
ByLayer
  9
$CECOLOR
 62
   256
  9
$CELTSCALE
 40
1.0
  9
$DISPSILH
 70
     0
  9
$DIMSCALE
 40
1.0
  9
$DIMASZ
 40
8.0
  9
$DIMEXO
 40
5.0
  9
$DIMDLI
 40
0.9999999999999999
  9
$DIMRND
 40
0.0
  9
$DIMDLE
 40
0.0
  9
$DIMEXE
 40
0.0
  9
$DIMTP
 40
0.0
  9
$DIMTM
 40
0.0
  9
$DIMTXT
 40
20.0
  9
$DIMCEN
 40
0.0
  9
$DIMTSZ
 40
0.0
  9
$DIMTOL
 70
     0
  9
$DIMLIM
 70
     0
  9
$DIMTIH
 70
     0
  9
$DIMTOH
 70
     0
  9
$DIMSE1
 70
     0
  9
$DIMSE2
 70
     0
  9
$DIMTAD
 70
     1
  9
$DIMZIN
 70
    11
  9
$DIMBLK
  1
DOT
  9
$DIMASO
 70
     1
  9
$DIMSHO
 70
     1
  9
$DIMPOST
  1
<>
  9
$DIMAPOST
  1
[]
  9
$DIMALT
 70
     0
  9
$DIMALTD
 70
     1
  9
$DIMALTF
 40
1.0
  9
$DIMLFAC
 40
1.0
  9
$DIMTOFL
 70
     0
  9
$DIMTVP
 40
0.0
  9
$DIMTIX
 70
     1
  9
$DIMSOXD
 70
     0
  9
$DIMSAH
 70
     0
  9
$DIMBLK1
  1

  9
$DIMBLK2
  1

  9
$DIMSTYLE
  2
tfrom線あり
  9
$DIMCLRD
 70
     0
  9
$DIMCLRE
 70
     0
  9
$DIMCLRT
 70
     0
  9
$DIMTFAC
 40
1.0
  9
$DIMGAP
 40
16.0
  9
$DIMJUST
 70
     0
  9
$DIMSD1
 70
     0
  9
$DIMSD2
 70
     0
  9
$DIMTOLJ
 70
     1
  9
$DIMTZIN
 70
    11
  9
$DIMALTZ
 70
    11
  9
$DIMALTTZ
 70
    11
  9
$DIMUPT
 70
     0
  9
$DIMDEC
 70
     0
  9
$DIMTDEC
 70
     1
  9
$DIMALTU
 70
     2
  9
$DIMALTTD
 70
     2
  9
$DIMTXSTY
  7
ＭＳ ゴシック
  9
$DIMAUNIT
 70
     0
  9
$DIMADEC
 70
     2
  9
$DIMALTRND
 40
0.0
  9
$DIMAZIN
 70
     0
  9
$DIMDSEP
 70
    46
  9
$DIMATFIT
 70
     0
  9
$DIMFRAC
 70
     2
  9
$DIMLDRBLK
  1
DOT
  9
$DIMLUNIT
 70
     2
  9
$DIMLWD
 70
    -2
  9
$DIMLWE
 70
    -2
  9
$DIMTMOVE
 70
     0
  9
$DIMFXL
 40
1.0
  9
$DIMFXLON
 70
     0
  9
$DIMJOGANG
 40
0.7853981633974483
  9
$DIMTFILL
 70
     0
  9
$DIMTFILLCLR
 70
     0
  9
$DIMARCSYM
 70
     0
  9
$DIMLTYPE
  6

  9
$DIMLTEX1
  6

  9
$DIMLTEX2
  6

  9
$LUNITS
 70
     2
  9
$LUPREC
 70
     0
  9
$SKETCHINC
 40
0.1
  9
$FILLETRAD
 40
0.0
  9
$AUNITS
 70
     0
  9
$AUPREC
 70
     0
  9
$MENU
  1
acad
  9
$ELEVATION
 40
0.0
  9
$PELEVATION
 40
0.0
  9
$THICKNESS
 40
0.0
  9
$LIMCHECK
 70
     0
  9
$CHAMFERA
 40
0.0
  9
$CHAMFERB
 40
0.0
  9
$CHAMFERC
 40
0.0
  9
$CHAMFERD
 40
0.0
  9
$SKPOLY
 70
     0
  9
$TDCREATE
 40
2447893.375
  9
$TDUCREATE
 40
0.0
  9
$TDUPDATE
 40
2459986.713186632
  9
$TDUUPDATE
 40
2459986.338186632
  9
$TDINDWG
 40
0.1511406134
  9
$TDUSRTIMER
 40
0.0018758218
  9
$USRTIMER
 70
     1
  9
$ANGBASE
 50
0.0
  9
$ANGDIR
 70
     0
  9
$PDMODE
 70
     1
  9
$PDSIZE
 40
-2.0
  9
$PLINEWID
 40
0.0
  9
$SPLFRAME
 70
     0
  9
$SPLINETYPE
 70
     6
  9
$SPLINESEGS
 70
     8
  9
$HANDSEED
  5
48A7
  9
$SURFTAB1
 70
     6
  9
$SURFTAB2
 70
     6
  9
$SURFTYPE
 70
     6
  9
$SURFU
 70
     6
  9
$SURFV
 70
     6
  9
$UCSBASE
  2

  9
$UCSNAME
  2

  9
$UCSORG
 10
0.0
 20
0.0
 30
0.0
  9
$UCSXDIR
 10
1.0
 20
0.0
 30
0.0
  9
$UCSYDIR
 10
0.0
 20
1.0
 30
0.0
  9
$UCSORTHOREF
  2

  9
$UCSORTHOVIEW
 70
     0
  9
$UCSORGTOP
 10
0.0
 20
0.0
 30
0.0
  9
$UCSORGBOTTOM
 10
0.0
 20
0.0
 30
0.0
  9
$UCSORGLEFT
 10
0.0
 20
0.0
 30
0.0
  9
$UCSORGRIGHT
 10
0.0
 20
0.0
 30
0.0
  9
$UCSORGFRONT
 10
0.0
 20
0.0
 30
0.0
  9
$UCSORGBACK
 10
0.0
 20
0.0
 30
0.0
  9
$PUCSBASE
  2

  9
$PUCSNAME
  2

  9
$PUCSORG
 10
0.0
 20
0.0
 30
0.0
  9
$PUCSXDIR
 10
1.0
 20
0.0
 30
0.0
  9
$PUCSYDIR
 10
0.0
 20
1.0
 30
0.0
  9
$PUCSORTHOREF
  2

  9
$PUCSORTHOVIEW
 70
     0
  9
$PUCSORGTOP
 10
0.0
 20
0.0
 30
0.0
  9
$PUCSORGBOTTOM
 10
0.0
 20
0.0
 30
0.0
  9
$PUCSORGLEFT
 10
0.0
 20
0.0
 30
0.0
  9
$PUCSORGRIGHT
 10
0.0
 20
0.0
 30
0.0
  9
$PUCSORGFRONT
 10
0.0
 20
0.0
 30
0.0
  9
$PUCSORGBACK
 10
0.0
 20
0.0
 30
0.0
  9
$USERI1
 70
     0
  9
$USERI2
 70
     0
  9
$USERI3
 70
     0
  9
$USERI4
 70
     0
  9
$USERI5
 70
     0
  9
$USERR1
 40
0.0
  9
$USERR2
 40
0.0
  9
$USERR3
 40
0.0
  9
$USERR4
 40
0.0
  9
$USERR5
 40
0.0
  9
$WORLDVIEW
 70
     1
  9
$SHADEDGE
 70
     3
  9
$SHADEDIF
 70
    70
  9
$TILEMODE
 70
     1
  9
$MAXACTVP
 70
    64
  9
$PINSBASE
 10
0.0
 20
0.0
 30
0.0
  9
$PLIMCHECK
 70
     0
  9
$PEXTMIN
 10
0.0
 20
0.0
 30
0.0
  9
$PEXTMAX
 10
0.0
 20
0.0
 30
0.0
  9
$PLIMMIN
 10
-7.5
 20
-20.0
  9
$PLIMMAX
 10
412.5
 20
277.0
  9
$UNITMODE
 70
     0
  9
$VISRETAIN
 70
     0
  9
$PLINEGEN
 70
     1
  9
$PSLTSCALE
 70
     0
  9
$TREEDEPTH
 70
  3020
  9
$CMLSTYLE
  2
Standard
  9
$CMLJUST
 70
     0
  9
$CMLSCALE
 40
1.0
  9
$PROXYGRAPHICS
 70
     0
  9
$MEASUREMENT
 70
     1
  9
$CELWEIGHT
370
    -1
  9
$ENDCAPS
280
     0
  9
$JOINSTYLE
280
     0
  9
$LWDISPLAY
290
     1
  9
$INSUNITS
 70
     4
  9
$HYPERLINKBASE
  1

  9
$STYLESHEET
  1

  9
$XEDIT
290
     1
  9
$CEPSNTYPE
380
     0
  9
$PSTYLEMODE
290
     1
  9
$FINGERPRINTGUID
  2

  9
$VERSIONGUID
  2

  9
$EXTNAMES
290
     1
  9
$PSVPSCALE
 40
0.0
  9
$OLESTARTUP
290
     0
  9
$SORTENTS
280
   127
  9
$INDEXCTL
280
     0
  9
$HIDETEXT
280
     1
  9
$XCLIPFRAME
290
     0
  9
$HALOGAP
280
     0
  9
$OBSCOLOR
 70
   257
  9
$OBSLTYPE
280
     0
  9
$INTERSECTIONDISPLAY
280
     0
  9
$INTERSECTIONCOLOR
 70
   257
  9
$DIMASSOC
280
     2
  9
$PROJECTNAME
  1

  9
$CAMERADISPLAY
290
     0
  9
$LENSLENGTH
 40
50.0
  9
$CAMERAHEIGHT
 40
0.0
  9
$STEPSPERSEC
 40
2.0
  9
$STEPSIZE
 40
6.0
  9
$3DDWFPREC
 40
2.0
  9
$PSOLWIDTH
 40
0.25
  9
$PSOLHEIGHT
 40
4.0
  9
$LOFTANG1
 40
1.570796326794897
  9
$LOFTANG2
 40
1.570796326794897
  9
$LOFTMAG1
 40
0.0
  9
$LOFTMAG2
 40
0.0
  9
$LOFTPARAM
 70
     7
  9
$LOFTNORMALS
280
     1
  9
$LATITUDE
 40
37.795
  9
$LONGITUDE
 40
-122.394
  9
$NORTHDIRECTION
 40
0.0
  9
$TIMEZONE
 70
 -8000
  9
$LIGHTGLYPHDISPLAY
280
     1
  9
$TILEMODELIGHTSYNCH
280
     1
  9
$SOLIDHIST
280
     1
  9
$SHOWHIST
280
     1
  9
$DWFFRAME
280
     2
  9
$DGNFRAME
280
     2
  9
$REALWORLDSCALE
290
     1
  9
$INTERFERECOLOR
 62
   256
  9
$CSHADOW
280
     0
  9
$SHADOWPLANELOCATION
 40
0.0
  0
ENDSEC
  0
SECTION
  2
CLASSES
  0
CLASS
  1
LWPOLYLINE
  2
AcDbPolyline
  3
ObjectDBX Classes
 90
        0
 91
        1
280
     0
281
     1
  0
CLASS
  1
IMAGE
  2
AcDbRasterImage
  3
ISM
 90
      127
 91
        4
280
     0
281
     1
  0
CLASS
  1
OLE2FRAME
  2
AcDbOle2Frame
  3
ObjectDBX Classes
 90
        0
 91
        1
280
     0
281
     1
  0
CLASS
  1
HATCH
  2
AcDbHatch
  3
ObjectDBX Classes
 90
        0
 91
        1
280
     0
281
     1
  0
CLASS
  1
DICTIONARYVAR
  2
AcDbDictionaryVar
  3
ObjectDBX Classes
 90
        0
 91
        3
280
     0
281
     0
  0
CLASS
  1
RASTERVARIABLES
  2
AcDbRasterVariables
  3
ISM
 90
        0
 91
        3
280
     0
281
     0
  0
CLASS
  1
IMAGEDEF
  2
AcDbRasterImageDef
  3
ISM
 90
        0
 91
        3
280
     0
281
     0
  0
CLASS
  1
IMAGEDEF_REACTOR
  2
AcDbRasterImageDefReactor
  3
ISM
 90
        1
 91
        3
280
     0
281
     0
  0
CLASS
  1
IDBUFFER
  2
AcDbIdBuffer
  3
ObjectDBX Classes
 90
        0
 91
        3
280
     0
281
     0
  0
CLASS
  1
SPATIAL_FILTER
  2
AcDbSpatialFilter
  3
ObjectDBX Classes
 90
        0
 91
        3
280
     0
281
     0
  0
CLASS
  1
XRECORD
  2
AcDbXrecord
  3
ObjectDBX Classes
 90
        0
 91
        1
280
     0
281
     0
  0
CLASS
  1
SORTENTSTABLE
  2
AcDbSortentsTable
  3
ObjectDBX Classes
 90
        0
 91
        3
280
     0
281
     0
  0
CLASS
  1
LAYER_INDEX
  2
AcDbLayerIndex
  3
ObjectDBX Classes
 90
        0
 91
        3
280
     0
281
     0
  0
CLASS
  1
SPATIAL_INDEX
  2
AcDbSpatialIndex
  3
AutoCAD 2000
 90
        0
 91
        3
280
     0
281
     0
  0
CLASS
  1
OBJECT_PTR
  2
CAseDLPNTableRecord
  3
ASE-LPNTableRecord
 90
        1
 91
        3
280
     0
281
     0
  0
CLASS
  1
LAYOUT
  2
AcDbLayout
  3
ObjectDBX Classes
 90
        0
 91
        1
280
     0
281
     0
  0
CLASS
  1
PLOTSETTINGS
  2
AcDbPlotSettings
  3
ObjectDBX Classes
 90
        0
 91
        3
280
     0
281
     0
  0
CLASS
  1
ACDBDICTIONARYWDFLT
  2
AcDbDictionaryWithDefault
  3
ObjectDBX Classes
 90
        0
 91
        3
280
     0
281
     0
  0
CLASS
  1
ACDBPLACEHOLDER
  2
AcDbPlaceHolder
  3
ObjectDBX Classes
 90
        0
 91
        1
280
     0
281
     0
  0
CLASS
  1
SCALE
  2
AcDbScale
  3
ObjectDBX Classes
 90
     1153
 91
        3
280
     0
281
     0
  0
CLASS
  1
MATERIAL
  2
AcDbMaterial
  3
ObjectDBX Classes
 90
     1153
 91
        3
280
     0
281
     0
  0
CLASS
  1
VISUALSTYLE
  2
AcDbVisualStyle
  3
ObjectDBX Classes
 90
     4095
 91
        3
280
     0
281
     0
  0
CLASS
  1
TABLESTYLE
  2
AcDbTableStyle
  3
ObjectDBX Classes
 90
     4095
 91
        3
280
     0
281
     0
  0
CLASS
  1
DIMASSOC
  2
AcDbDimAssoc
  3
"AcDbDimAssoc|Product Desc:     AcDim ARX App For Dimension|Company:          Autodesk, Inc.|WEB Address:      www.autodesk.com"
 90
        0
 91
        3
280
     0
281
     0
  0
CLASS
  1
CELLSTYLEMAP
  2
AcDbCellStyleMap
  3
ObjectDBX Classes
 90
     1152
 91
        3
280
     0
281
     0
  0
CLASS
  1
SUN
  2
AcDbSun
  3
SCENEOE
 90
     1153
 91
        3
280
     0
281
     0
  0
CLASS
  1
MLEADERSTYLE
  2
AcDbMLeaderStyle
  3
ACDB_MLEADERSTYLE_CLASS
 90
     4095
 91
        3
280
     0
281
     0
  0
CLASS
  1
FIELD
  2
AcDbField
  3
ObjectDBX Classes
 90
     1152
 91
        3
280
     0
281
     0
  0
CLASS
  1
FIELDLIST
  2
AcDbFieldList
  3
ObjectDBX Classes
 90
     1152
 91
        3
280
     0
281
     0
  0
ENDSEC
  0
SECTION
  2
TABLES
  0
TABLE
  2
VPORT
  5
7
330
0
100
AcDbSymbolTable
 70
     1
  0
VPORT
  5
15
330
7
100
AcDbSymbolTableRecord
100
AcDbViewportTableRecord
  2
*ACTIVE
 70
     0
 10
0.0
 20
0.0
 11
1.0
 21
1.0
 12
931.0201356709003
 22
1114.401285469834
 13
0.0
 23
0.0
 14
1.0
 24
1.0
 15
0.0
 25
0.0
 16
0.0
 26
0.0
 36
1.0
 17
-91.02013567090034
 27
73.59871453016603
 37
-46.86809886248109
 40
2423.52
 41
2.120713305898491
 42
50.0
 43
0.0
 44
0.0
 50
0.0
 51
0.0
 71
    16
 72
  2000
 73
     1
 74
     1
 75
     0
 76
     0
 77
     0
 78
     0
281
     0
 65
     1
110
0.0
120
0.0
130
0.0
111
1.0
121
0.0
131
0.0
112
0.0
122
1.0
132
0.0
 79
     0
146
0.0
348
26C
 60
     3
 61
     5
292
     1
282
     1
141
0.0
142
0.0
 63
   256
361
904
  0
ENDTAB
  0
TABLE
  2
LTYPE
  5
4
330
0
100
AcDbSymbolTable
 70
     3
  0
LTYPE
  5
11
330
4
100
AcDbSymbolTableRecord
100
AcDbLinetypeTableRecord
  2
ByBlock
 70
     0
  3

 72
    65
 73
     0
 40
0.0
  0
LTYPE
  5
12
330
4
100
AcDbSymbolTableRecord
100
AcDbLinetypeTableRecord
  2
ByLayer
 70
     0
  3

 72
    65
 73
     0
 40
0.0
  0
LTYPE
  5
13
330
4
100
AcDbSymbolTableRecord
100
AcDbLinetypeTableRecord
  2
Continuous
 70
     0
  3
Solid line
 72
    65
 73
     0
 40
0.0
  0
LTYPE
  5
D6C
330
4
100
AcDbSymbolTableRecord
100
AcDbLinetypeTableRecord
  2
BORDER
 70
     0
  3
Border __  __  . __  __  . __  __  . __  __  . 
 72
    65
 73
     6
 40
44.45
 49
12.7
 74
     0
 49
-6.35
 74
     0
 49
12.7
 74
     0
 49
-6.35
 74
     0
 49
0.0
 74
     0
 49
-6.35
 74
     0
  0
LTYPE
  5
D6D
330
4
100
AcDbSymbolTableRecord
100
AcDbLinetypeTableRecord
  2
HIDDEN
 70
     0
  3
Hidden _ _ _ _ _ _ _ _ _ _ _ _ _ _ _ _ _ _ _ _ 
 72
    65
 73
     2
 40
9.524999999999999
 49
6.35
 74
     0
 49
-3.175
 74
     0
  0
ENDTAB
  0
TABLE
  2
LAYER
  5
2
102
{ACAD_XDICTIONARY
360
2E1
102
}
330
0
100
AcDbSymbolTable
 70
    10
  0
LAYER
  5
14
330
2
100
AcDbSymbolTableRecord
100
AcDbLayerTableRecord
  2
0
 70
     0
 62
     7
  6
Continuous
370
    -3
390
1D
347
266
  0
LAYER
  5
4B
330
2
100
AcDbSymbolTableRecord
100
AcDbLayerTableRecord
  2
TEMPLATE
 70
     0
 62
     7
  6
Continuous
370
    20
390
1D
347
266
  0
LAYER
  5
4C
330
2
100
AcDbSymbolTableRecord
100
AcDbLayerTableRecord
  2
DIM
 70
     0
 62
     3
  6
Continuous
370
    13
390
1D
347
266
  0
LAYER
  5
4D
330
2
100
AcDbSymbolTableRecord
100
AcDbLayerTableRecord
  2
MODEL
 70
     0
 62
     7
  6
Continuous
370
    20
390
1D
347
266
  0
LAYER
  5
88C
330
2
100
AcDbSymbolTableRecord
100
AcDbLayerTableRecord
  2
HIDDEN
 70
     0
 62
     8
  6
HIDDEN
370
    20
390
1D
347
266
1001
AcAecLayerStandard
1000

1000

  0
LAYER
  5
D6B
330
2
100
AcDbSymbolTableRecord
100
AcDbLayerTableRecord
  2
BORDER
 70
     0
 62
     4
  6
BORDER
290
     0
370
    20
390
1D
347
266
1001
AcAecLayerStandard
1000

1000

  0
LAYER
  5
D8C
330
2
100
AcDbSymbolTableRecord
100
AcDbLayerTableRecord
  2
Defpoints
 70
     0
 62
     7
  6
Continuous
290
     0
370
    -3
390
1D
347
266
  0
LAYER
  5
3653
330
2
100
AcDbSymbolTableRecord
100
AcDbLayerTableRecord
  2
Standard
 70
     0
 62
     7
  6
Continuous
370
    -3
390
1D
347
266
  0
LAYER
  5
459A
330
2
100
AcDbSymbolTableRecord
100
AcDbLayerTableRecord
  2
Layer3
 70
     0
 62
     7
  6
Continuous
370
    -3
390
1D
347
266
  0
LAYER
  5
459B
330
2
100
AcDbSymbolTableRecord
100
AcDbLayerTableRecord
  2
Layer9
 70
     0
 62
     7
  6
Continuous
370
    -3
390
1D
347
266
  0
ENDTAB
  0
TABLE
  2
STYLE
  5
3
330
0
100
AcDbSymbolTable
 70
     3
  0
STYLE
  5
17
330
3
100
AcDbSymbolTableRecord
100
AcDbTextStyleTableRecord
  2
Standard
 70
     0
 40
0.0
 41
1.0
 50
0.0
 71
     0
 42
2.5
  3
txt
  4
BIGFONT.SHX
  0
STYLE
  5
39
330
3
100
AcDbSymbolTableRecord
100
AcDbTextStyleTableRecord
  2
ＭＳ ゴシック
 70
     0
 40
0.0
 41
1.0
 50
0.0
 71
     0
 42
2.5
  3
msgothic.ttc
  4
ＭＳ ゴシック
1001
ACAD
1000
ＭＳ ゴシック
1071
        0
  0
STYLE
  5
42D4
330
3
100
AcDbSymbolTableRecord
100
AcDbTextStyleTableRecord
  2
SLDTEXTSTYLE0
 70
     0
 40
0.0
 41
0.75
 50
0.0
 71
     0
 42
2.5
  3
TXT
  4

  0
ENDTAB
  0
TABLE
  2
VIEW
  5
5
330
0
100
AcDbSymbolTable
 70
     0
  0
ENDTAB
  0
TABLE
  2
UCS
  5
6
330
0
100
AcDbSymbolTable
 70
     0
  0
ENDTAB
  0
TABLE
  2
APPID
  5
8
330
0
100
AcDbSymbolTable
 70
     8
  0
APPID
  5
16
330
8
100
AcDbSymbolTableRecord
100
AcDbRegAppTableRecord
  2
ACAD
 70
     0
  0
APPID
  5
7AC
330
8
100
AcDbSymbolTableRecord
100
AcDbRegAppTableRecord
  2
AcAecLayerStandard
 70
     0
  0
APPID
  5
E29
330
8
100
AcDbSymbolTableRecord
100
AcDbRegAppTableRecord
  2
ACAD_MLEADERVER
 70
     0
  0
APPID
  5
3E5E
330
8
100
AcDbSymbolTableRecord
100
AcDbRegAppTableRecord
  2
ACAD_DSTYLE_DIMJAG
 70
     0
  0
APPID
  5
3E5F
330
8
100
AcDbSymbolTableRecord
100
AcDbRegAppTableRecord
  2
ACAD_DSTYLE_DIMBREAK
 70
     0
  0
APPID
  5
3E60
330
8
100
AcDbSymbolTableRecord
100
AcDbRegAppTableRecord
  2
ACAD_PSEXT
 70
     0
  0
APPID
  5
3E61
330
8
100
AcDbSymbolTableRecord
100
AcDbRegAppTableRecord
  2
ACAD_NAV_VCDISPLAY
 70
     0
  0
APPID
  5
4885
330
8
100
AcDbSymbolTableRecord
100
AcDbRegAppTableRecord
  2
PLOTTRANSPARENCY
 70
     0
  0
ENDTAB
  0
TABLE
  2
DIMSTYLE
  5
9
330
0
100
AcDbSymbolTable
 70
     6
100
AcDbDimStyleTable
  0
DIMSTYLE
105
18
330
9
100
AcDbSymbolTableRecord
100
AcDbDimStyleTableRecord
  2
Standard
 70
     0
178
     0
340
17
  0
DIMSTYLE
105
57
102
{ACAD_REACTORS
330
4769
330
476A
330
4770
330
4773
330
4776
330
4780
330
4789
330
488B
102
}
330
9
100
AcDbSymbolTableRecord
100
AcDbDimStyleTableRecord
  2
tfrom線あり
 70
     0
  3
<>
  4
[]
 41
8.0
 42
5.0
 43
0.9999999999999999
 44
0.0
 73
     0
 74
     0
 77
     1
 78
    11
140
20.0
141
0.0
143
1.0
147
16.0
171
     1
174
     1
178
     0
179
     2
271
     0
272
     1
276
     2
284
    11
285
    11
286
    11
289
     0
340
39
341
4E
342
4E
  0
DIMSTYLE
105
3E5C
330
9
100
AcDbSymbolTableRecord
100
AcDbDimStyleTableRecord
  2
AM_DIN
 70
     0
  4
"
 41
3.5
 42
1.0
 43
10.0
 44
1.0
 47
0.1
 48
0.1
 50
89.99999999999996
 73
     0
 74
     0
 77
     1
 78
     8
 79
     2
140
3.5
141
0.0
143
0.0393701
146
0.71
147
1.5
172
     1
176
   256
177
   256
271
     2
178
     2
271
     2
272
     3
274
     4
283
     0
284
     8
340
17
371
    -1
372
    -1
345
11
346
11
347
11
1001
ACAD_DSTYLE_DIMJAG
1070
   388
1040
1.5
1001
ACAD_DSTYLE_DIMBREAK
1070
   391
1040
3.75
  0
DIMSTYLE
105
42D3
330
9
100
AcDbSymbolTableRecord
100
AcDbDimStyleTableRecord
  2
SLDDIMSTYLE2
 70
     0
 41
3.302
 44
0.0
 45
0.000000001
 73
     0
 74
     0
 77
     1
 78
    12
 79
     3
140
3.5
141
0.0
144
5.0
147
0.875
172
     1
173
     1
178
     0
271
     2
272
     2
276
     2
284
    12
340
42D4
341
42D5
343
42D5
  0
DIMSTYLE
105
42D8
330
9
100
AcDbSymbolTableRecord
100
AcDbDimStyleTableRecord
  2
SLDDIMSTYLE3
 70
     0
 41
3.302
 44
0.0
 45
0.000000001
 78
    12
 79
     3
140
3.5
141
0.0
144
5.0
147
0.875
172
     1
173
     1
178
     0
271
     2
272
     2
276
     2
284
    12
340
42D4
341
42D5
343
42D5
  0
DIMSTYLE
105
42D9
330
9
100
AcDbSymbolTableRecord
100
AcDbDimStyleTableRecord
  2
JIS
 70
     0
  3
<>
  4
[]
 41
3.175
 42
0.0
 43
6.99999999999994
 44
1.99999999999962
 73
     0
 74
     0
 77
     1
 78
    11
140
2.44326171875
141
0.0
143
0.0393700787401575
147
1.00000000000108
171
     3
174
     1
178
     0
179
     2
271
     1
272
     1
273
     4
276
     2
284
    11
285
    15
286
    15
289
     0
340
39
341
42DA
342
42DA
  0
ENDTAB
  0
TABLE
  2
BLOCK_RECORD
  5
1
330
0
100
AcDbSymbolTable
 70
    48
  0
BLOCK_RECORD
  5
A
102
{ACAD_XDICTIONARY
360
3E3E
102
}
330
1
100
AcDbSymbolTableRecord
100
AcDbBlockTableRecord
  2
*MODEL_SPACE
340
20
 70
     0
280
     1
281
     0
  0
BLOCK_RECORD
  5
B
330
1
100
AcDbSymbolTableRecord
100
AcDbBlockTableRecord
  2
*PAPER_SPACE
340
21
 70
     0
280
     1
281
     0
  0
BLOCK_RECORD
  5
4E
330
1
100
AcDbSymbolTableRecord
100
AcDbBlockTableRecord
  2
_DOT
340
0
102
{BLKREFS
331
3E2C
331
3E2D
331
3E38
331
3E39
331
4275
331
4276
331
4284
331
4285
331
4293
331
4294
331
42A0
331
42A1
331
42AF
331
42B0
331
4336
331
4337
331
4343
331
4344
331
4351
331
4352
331
4360
331
4361
331
436F
331
4370
331
437E
331
437F
331
43CF
331
43D0
331
43E0
331
43E1
331
4522
331
4523
331
452E
331
452F
331
453A
331
453B
331
4546
331
4547
331
4552
331
4553
331
455E
331
455F
331
456A
331
456B
331
4576
331
4577
331
4616
331
4617
331
4623
331
4624
331
4637
331
4638
331
4646
331
4647
331
4655
331
4656
331
466A
331
466B
331
4680
331
4681
331
46A8
331
46A9
331
4818
331
4819
331
4824
331
4825
331
4830
331
4831
331
483C
331
483D
331
4848
331
4849
331
4854
331
4855
331
4860
331
4861
331
486C
331
486D
331
4894
331
4895
102
}
 70
     0
280
     1
281
     0
  0
BLOCK_RECORD
  5
68D
330
1
100
AcDbSymbolTableRecord
100
AcDbBlockTableRecord
  2
block 2
340
0
102
{BLKREFS
331
68C
331
1343
331
472C
102
}
 70
     0
280
     1
281
     0
  0
BLOCK_RECORD
  5
3E26
330
1
100
AcDbSymbolTableRecord
100
AcDbBlockTableRecord
  2
*D2
340
0
 70
     0
280
     1
281
     0
  0
BLOCK_RECORD
  5
3E32
330
1
100
AcDbSymbolTableRecord
100
AcDbBlockTableRecord
  2
*D3
340
0
 70
     0
280
     1
281
     0
  0
BLOCK_RECORD
  5
3E88
330
1
100
AcDbSymbolTableRecord
100
AcDbBlockTableRecord
  2
812343s
340
0
 70
     4
280
     1
281
     0
1001
ACAD
1000
DesignCenter Data
1002
{
1070
     1
1070
     4
1002
}
  0
BLOCK_RECORD
  5
3EFC
330
1
100
AcDbSymbolTableRecord
100
AcDbBlockTableRecord
  2
812343d
340
0
 70
     4
280
     1
281
     0
1001
ACAD
1000
DesignCenter Data
1002
{
1070
     1
1070
     4
1002
}
  0
BLOCK_RECORD
  5
426F
330
1
100
AcDbSymbolTableRecord
100
AcDbBlockTableRecord
  2
*D6
340
0
 70
     0
280
     1
281
     0
  0
BLOCK_RECORD
  5
427E
330
1
100
AcDbSymbolTableRecord
100
AcDbBlockTableRecord
  2
*D7
340
0
 70
     0
280
     1
281
     0
  0
BLOCK_RECORD
  5
428D
330
1
100
AcDbSymbolTableRecord
100
AcDbBlockTableRecord
  2
*D8
340
0
 70
     0
280
     1
281
     0
  0
BLOCK_RECORD
  5
429A
330
1
100
AcDbSymbolTableRecord
100
AcDbBlockTableRecord
  2
*D9
340
0
 70
     0
280
     1
281
     0
  0
BLOCK_RECORD
  5
42A9
330
1
100
AcDbSymbolTableRecord
100
AcDbBlockTableRecord
  2
*D10
340
0
 70
     0
280
     1
281
     0
  0
BLOCK_RECORD
  5
42D5
330
1
100
AcDbSymbolTableRecord
100
AcDbBlockTableRecord
  2
_None
340
0
 70
     0
280
     1
281
     0
  0
BLOCK_RECORD
  5
42DA
330
1
100
AcDbSymbolTableRecord
100
AcDbBlockTableRecord
  2
VW_FILLEDARROW
340
0
 70
     0
280
     1
281
     0
  0
BLOCK_RECORD
  5
4331
330
1
100
AcDbSymbolTableRecord
100
AcDbBlockTableRecord
  2
*D13
340
0
 70
     0
280
     1
281
     0
  0
BLOCK_RECORD
  5
433E
330
1
100
AcDbSymbolTableRecord
100
AcDbBlockTableRecord
  2
*D14
340
0
 70
     0
280
     1
281
     0
  0
BLOCK_RECORD
  5
434C
330
1
100
AcDbSymbolTableRecord
100
AcDbBlockTableRecord
  2
*D15
340
0
 70
     0
280
     1
281
     0
  0
BLOCK_RECORD
  5
435B
330
1
100
AcDbSymbolTableRecord
100
AcDbBlockTableRecord
  2
*D16
340
0
 70
     0
280
     1
281
     0
  0
BLOCK_RECORD
  5
436A
330
1
100
AcDbSymbolTableRecord
100
AcDbBlockTableRecord
  2
*D17
340
0
 70
     0
280
     1
281
     0
  0
BLOCK_RECORD
  5
4379
330
1
100
AcDbSymbolTableRecord
100
AcDbBlockTableRecord
  2
*D18
340
0
 70
     0
280
     1
281
     0
  0
BLOCK_RECORD
  5
43CA
330
1
100
AcDbSymbolTableRecord
100
AcDbBlockTableRecord
  2
*D19
340
0
 70
     0
280
     1
281
     0
  0
BLOCK_RECORD
  5
43DB
330
1
100
AcDbSymbolTableRecord
100
AcDbBlockTableRecord
  2
*D20
340
0
 70
     0
280
     1
281
     0
  0
BLOCK_RECORD
  5
451C
330
1
100
AcDbSymbolTableRecord
100
AcDbBlockTableRecord
  2
*D21
340
0
 70
     0
280
     1
281
     0
  0
BLOCK_RECORD
  5
4528
330
1
100
AcDbSymbolTableRecord
100
AcDbBlockTableRecord
  2
*D22
340
0
 70
     0
280
     1
281
     0
  0
BLOCK_RECORD
  5
4534
330
1
100
AcDbSymbolTableRecord
100
AcDbBlockTableRecord
  2
*D23
340
0
 70
     0
280
     1
281
     0
  0
BLOCK_RECORD
  5
4540
330
1
100
AcDbSymbolTableRecord
100
AcDbBlockTableRecord
  2
*D24
340
0
 70
     0
280
     1
281
     0
  0
BLOCK_RECORD
  5
454C
330
1
100
AcDbSymbolTableRecord
100
AcDbBlockTableRecord
  2
*D25
340
0
 70
     0
280
     1
281
     0
  0
BLOCK_RECORD
  5
4558
330
1
100
AcDbSymbolTableRecord
100
AcDbBlockTableRecord
  2
*D26
340
0
 70
     0
280
     1
281
     0
  0
BLOCK_RECORD
  5
4564
330
1
100
AcDbSymbolTableRecord
100
AcDbBlockTableRecord
  2
*D27
340
0
 70
     0
280
     1
281
     0
  0
BLOCK_RECORD
  5
4570
330
1
100
AcDbSymbolTableRecord
100
AcDbBlockTableRecord
  2
*D28
340
0
 70
     0
280
     1
281
     0
  0
BLOCK_RECORD
  5
45DD
330
1
100
AcDbSymbolTableRecord
100
AcDbBlockTableRecord
  2
SEANNOT_GROUP
340
0
102
{BLKREFS
331
473B
102
}
 70
     0
280
     1
281
     0
  0
BLOCK_RECORD
  5
45E2
330
1
100
AcDbSymbolTableRecord
100
AcDbBlockTableRecord
  2
SEANNOT_GROUP1
340
0
102
{BLKREFS
331
473D
102
}
 70
     0
280
     1
281
     0
  0
BLOCK_RECORD
  5
4611
330
1
100
AcDbSymbolTableRecord
100
AcDbBlockTableRecord
  2
*D31
340
0
 70
     0
280
     1
281
     0
  0
BLOCK_RECORD
  5
461E
330
1
100
AcDbSymbolTableRecord
100
AcDbBlockTableRecord
  2
*D32
340
0
 70
     0
280
     1
281
     0
  0
BLOCK_RECORD
  5
4632
330
1
100
AcDbSymbolTableRecord
100
AcDbBlockTableRecord
  2
*D33
340
0
 70
     0
280
     1
281
     0
  0
BLOCK_RECORD
  5
4641
330
1
100
AcDbSymbolTableRecord
100
AcDbBlockTableRecord
  2
*D34
340
0
 70
     0
280
     1
281
     0
  0
BLOCK_RECORD
  5
4650
330
1
100
AcDbSymbolTableRecord
100
AcDbBlockTableRecord
  2
*D35
340
0
 70
     0
280
     1
281
     0
  0
BLOCK_RECORD
  5
4665
330
1
100
AcDbSymbolTableRecord
100
AcDbBlockTableRecord
  2
*D36
340
0
 70
     0
280
     1
281
     0
  0
BLOCK_RECORD
  5
467B
330
1
100
AcDbSymbolTableRecord
100
AcDbBlockTableRecord
  2
*D37
340
0
 70
     0
280
     1
281
     0
  0
BLOCK_RECORD
  5
46A3
330
1
100
AcDbSymbolTableRecord
100
AcDbBlockTableRecord
  2
*D38
340
0
 70
     0
280
     1
281
     0
  0
BLOCK_RECORD
  5
4812
330
1
100
AcDbSymbolTableRecord
100
AcDbBlockTableRecord
  2
*D39
340
0
 70
     0
280
     1
281
     0
  0
BLOCK_RECORD
  5
481E
330
1
100
AcDbSymbolTableRecord
100
AcDbBlockTableRecord
  2
*D40
340
0
 70
     0
280
     1
281
     0
  0
BLOCK_RECORD
  5
482A
330
1
100
AcDbSymbolTableRecord
100
AcDbBlockTableRecord
  2
*D41
340
0
 70
     0
280
     1
281
     0
  0
BLOCK_RECORD
  5
4836
330
1
100
AcDbSymbolTableRecord
100
AcDbBlockTableRecord
  2
*D42
340
0
 70
     0
280
     1
281
     0
  0
BLOCK_RECORD
  5
4842
330
1
100
AcDbSymbolTableRecord
100
AcDbBlockTableRecord
  2
*D43
340
0
 70
     0
280
     1
281
     0
  0
BLOCK_RECORD
  5
484E
330
1
100
AcDbSymbolTableRecord
100
AcDbBlockTableRecord
  2
*D44
340
0
 70
     0
280
     1
281
     0
  0
BLOCK_RECORD
  5
485A
330
1
100
AcDbSymbolTableRecord
100
AcDbBlockTableRecord
  2
*D45
340
0
 70
     0
280
     1
281
     0
  0
BLOCK_RECORD
  5
4866
330
1
100
AcDbSymbolTableRecord
100
AcDbBlockTableRecord
  2
*D46
340
0
 70
     0
280
     1
281
     0
  0
BLOCK_RECORD
  5
488E
330
1
100
AcDbSymbolTableRecord
100
AcDbBlockTableRecord
  2
*D47
340
0
 70
     0
280
     1
281
     0
  0
ENDTAB
  0
ENDSEC
  0
SECTION
  2
BLOCKS
  0
BLOCK
  5
D
330
A
100
AcDbEntity
  8
0
390
1D
100
AcDbBlockBegin
  2
*MODEL_SPACE
 70
     0
 10
0.0
 20
0.0
 30
0.0
  3
*MODEL_SPACE
  1
*MODEL_SPACE
  0
ENDBLK
  5
E
330
A
100
AcDbEntity
  8
0
390
1D
100
AcDbBlockEnd
  0
BLOCK
  5
F
330
B
100
AcDbEntity
 67
     1
  8
0
390
1D
100
AcDbBlockBegin
  2
*PAPER_SPACE
 70
     0
 10
0.0
 20
0.0
 30
0.0
  3
*PAPER_SPACE
  1
*PAPER_SPACE
  0
ENDBLK
  5
10
330
B
100
AcDbEntity
 67
     1
  8
0
390
1D
100
AcDbBlockEnd
  0
BLOCK
  5
3FCE
330
4E
100
AcDbEntity
  8
0
390
1D
100
AcDbBlockBegin
  2
_DOT
 70
     0
 10
0.0
 20
0.0
 30
0.0
  3
_DOT
  1
_DOT
  0
POLYLINE
  5
3FD0
330
4E
100
AcDbEntity
  8
0
  6
ByBlock
 62
     0
370
    -2
390
1D
100
AcDb2dPolyline
 66
     1
 10
0.0
 20
0.0
 30
0.0
 70
     1
 40
0.5
 41
0.5
  0
VERTEX
  5
3FD1
330
3FD0
100
AcDbEntity
  8
0
  6
ByBlock
 62
     0
370
    -2
390
1D
100
AcDbVertex
100
AcDb2dVertex
 10
-0.25
 20
0.0
 30
0.0
 42
1.0
  0
VERTEX
  5
3FD2
330
3FD0
100
AcDbEntity
  8
0
  6
ByBlock
 62
     0
370
    -2
390
1D
100
AcDbVertex
100
AcDb2dVertex
 10
0.25
 20
0.0
 30
0.0
 42
1.0
  0
SEQEND
  5
3FD3
330
3FD0
100
AcDbEntity
  8
0
390
1D
  0
LINE
  5
3FD4
330
4E
100
AcDbEntity
  8
0
  6
ByBlock
 62
     0
370
    -2
390
1D
100
AcDbLine
 10
-0.5
 20
0.0
 30
0.0
 11
-1.0
 21
0.0
 31
0.0
  0
ENDBLK
  5
3FD5
330
4E
100
AcDbEntity
  8
0
390
1D
100
AcDbBlockEnd
  0
BLOCK
  5
68E
330
68D
100
AcDbEntity
  8
0
100
AcDbBlockBegin
  2
block 2
 70
     0
 10
0.0
 20
0.0
 30
0.0
  3
block 2
  1
block 2
  0
ENDBLK
  5
6B0
330
68D
100
AcDbEntity
  8
0
100
AcDbBlockEnd
  0
BLOCK
  5
3E27
330
3E26
100
AcDbEntity
  8
0
100
AcDbBlockBegin
  2
*D2
 70
     1
 10
0.0
 20
0.0
 30
0.0
  3
*D2
  1

  0
LINE
  5
3E29
330
3E26
100
AcDbEntity
  8
DIM
 62
     0
370
    -2
100
AcDbLine
 10
607.9608510638315
 20
1310.861155015197
 30
0.0
 11
607.9608510638315
 21
1586.446135090576
 31
0.0
  0
LINE
  5
3E2A
330
3E26
100
AcDbEntity
  8
DIM
 62
     0
370
    -2
100
AcDbLine
 10
1064.672826747721
 20
1310.861155015197
 30
0.0
 11
1064.672826747721
 21
1586.446135090576
 31
0.0
  0
LINE
  5
3E2B
330
3E26
100
AcDbEntity
  8
DIM
 62
     0
370
    -2
100
AcDbLine
 10
615.9608510638315
 20
1586.446135090576
 30
0.0
 11
1056.672826747721
 21
1586.446135090576
 31
0.0
  0
INSERT
  5
3E2C
330
3E26
100
AcDbEntity
  8
DIM
 62
     0
370
    -2
100
AcDbBlockReference
  2
_DOT
 10
607.9608510638315
 20
1586.446135090576
 30
0.0
 41
8.0
 42
8.0
 43
8.0
 50
180.0
  0
INSERT
  5
3E2D
330
3E26
100
AcDbEntity
  8
DIM
 62
     0
370
    -2
100
AcDbBlockReference
  2
_DOT
 10
1064.672826747721
 20
1586.446135090576
 30
0.0
 41
8.0
 42
8.0
 43
8.0
  0
MTEXT
  5
3E2E
330
3E26
100
AcDbEntity
  8
DIM
 62
     0
100
AcDbMText
 10
836.316838905775
 20
1612.446135090576
 30
0.0
 40
20.0
 41
0.0
 46
0.0
 71
     5
 72
     1
  1
\A1;457
  7
ＭＳ ゴシック
 73
     1
 44
1.0
  0
POINT
  5
3E2F
330
3E26
100
AcDbEntity
  8
Defpoints
 62
     0
100
AcDbPoint
 10
607.9608510638315
 20
1305.861155015197
 30
0.0
  0
POINT
  5
3E30
330
3E26
100
AcDbEntity
  8
Defpoints
 62
     0
100
AcDbPoint
 10
1064.672826747721
 20
1305.861155015197
 30
0.0
  0
POINT
  5
3E31
330
3E26
100
AcDbEntity
  8
Defpoints
 62
     0
100
AcDbPoint
 10
1064.672826747721
 20
1586.446135090576
 30
0.0
  0
ENDBLK
  5
3E28
330
3E26
100
AcDbEntity
  8
0
100
AcDbBlockEnd
  0
BLOCK
  5
3E33
330
3E32
100
AcDbEntity
  8
0
100
AcDbBlockBegin
  2
*D3
 70
     1
 10
0.0
 20
0.0
 30
0.0
  3
*D3
  1

  0
LINE
  5
3E35
330
3E32
100
AcDbEntity
  8
DIM
 62
     0
370
    -2
100
AcDbLine
 10
684.7691933658384
 20
1300.861155015197
 30
0.0
 11
684.7691933658384
 21
959.0664924984802
 31
0.0
  0
LINE
  5
3E36
330
3E32
100
AcDbEntity
  8
DIM
 62
     0
370
    -2
100
AcDbLine
 10
987.8644844457136
 20
1300.861155015197
 30
0.0
 11
987.8644844457136
 21
959.0664924984802
 31
0.0
  0
LINE
  5
3E37
330
3E32
100
AcDbEntity
  8
DIM
 62
     0
370
    -2
100
AcDbLine
 10
692.7691933658384
 20
959.0664924984802
 30
0.0
 11
979.8644844457136
 21
959.0664924984802
 31
0.0
  0
INSERT
  5
3E38
330
3E32
100
AcDbEntity
  8
DIM
 62
     0
370
    -2
100
AcDbBlockReference
  2
_DOT
 10
684.7691933658384
 20
959.0664924984802
 30
0.0
 41
8.0
 42
8.0
 43
8.0
 50
180.0
  0
INSERT
  5
3E39
330
3E32
100
AcDbEntity
  8
DIM
 62
     0
370
    -2
100
AcDbBlockReference
  2
_DOT
 10
987.8644844457136
 20
959.0664924984802
 30
0.0
 41
8.0
 42
8.0
 43
8.0
  0
MTEXT
  5
3E3A
330
3E32
100
AcDbEntity
  8
DIM
 62
     0
100
AcDbMText
 10
836.316838905776
 20
985.0664924984802
 30
0.0
 40
20.0
 41
0.0
 46
0.0
 71
     5
 72
     1
  1
\A1;303
  7
ＭＳ ゴシック
 73
     1
 44
1.0
  0
POINT
  5
3E3B
330
3E32
100
AcDbEntity
  8
Defpoints
 62
     0
100
AcDbPoint
 10
684.7691933658384
 20
1305.861155015197
 30
0.0
  0
POINT
  5
3E3C
330
3E32
100
AcDbEntity
  8
Defpoints
 62
     0
100
AcDbPoint
 10
987.8644844457136
 20
1305.861155015197
 30
0.0
  0
POINT
  5
3E3D
330
3E32
100
AcDbEntity
  8
Defpoints
 62
     0
100
AcDbPoint
 10
987.8644844457136
 20
959.0664924984802
 30
0.0
  0
ENDBLK
  5
3E34
330
3E32
100
AcDbEntity
  8
0
100
AcDbBlockEnd
  0
BLOCK
  5
3E89
330
3E88
100
AcDbEntity
  8
0
100
AcDbBlockBegin
  2
812343s
 70
     0
 10
0.0
 20
0.0
 30
0.0
  3
812343s
  1

  0
SPLINE
  5
3E8A
330
3E88
100
AcDbEntity
  8
0
 62
     7
100
AcDbSpline
210
0.0
220
0.0
230
1.0
 70
     8
 71
     3
 72
    32
 73
    28
 74
     0
 42
0.000000001
 43
0.0000000001
 40
0.0
 40
0.0
 40
0.0
 40
0.0
 40
1.0
 40
1.0
 40
1.0
 40
2.0
 40
2.0
 40
2.0
 40
3.0
 40
3.0
 40
3.0
 40
4.0
 40
4.0
 40
4.0
 40
5.0
 40
5.0
 40
5.0
 40
6.0
 40
6.0
 40
6.0
 40
7.0
 40
7.0
 40
7.0
 40
8.0
 40
8.0
 40
8.0
 40
9.0
 40
9.0
 40
9.0
 40
9.0
 10
57.47538925429434
 20
758.0014323271663
 30
0.0
 10
57.47538925429434
 20
758.0014323271663
 30
0.0
 10
57.47538925429434
 20
767.5043837136795
 30
0.0
 10
57.47538925429434
 20
767.5043837136795
 30
0.0
 10
55.32564967149845
 20
770.2935330185377
 30
0.0
 10
52.91683890821176
 20
772.8677083651164
 30
0.0
 10
50.27100557553988
 20
775.1993489895335
 30
0.0
 10
50.27100557553988
 20
775.1993489895335
 30
0.0
 10
47.735415298396
 20
777.4427951695282
 30
0.0
 10
47.735415298396
 20
777.4427951695282
 30
0.0
 10
47.25585800684924
 20
777.8727430860874
 30
0.0
 10
46.64952120144526
 20
778.1263021138017
 30
0.0
 10
46.01011147938289
 20
778.186935794342
 30
0.0
 10
42.48233370248705
 20
778.5011285025969
 30
0.0
 10
38.97109238392042
 20
778.8208333636281
 30
0.0
 10
35.44331460702459
 20
779.2011719051997
 30
0.0
 10
29.0271687752953
 20
779.8957031550259
 30
0.0
 10
22.60551079078959
 20
780.6233073215109
 30
0.0
 10
16.18919270428603
 20
781.3674479463249
 30
0.0
 10
13.27877603834697
 20
781.7036892656852
 30
0.0
 10
11.04635416390508
 20
784.0849392650897
 30
0.0
 10
10.89201388616588
 20
787.0174045421346
 30
0.0
 10
10.89201388616588
 20
787.0174045421346
 30
0.0
 10
5.05464409595856
 20
898.1038194449185
 30
0.0
 10
5.05464409595856
 20
898.1038194449185
 30
0.0
 10
4.999522568194564
 20
899.1676649307636
 30
0.0
 10
4.128602429523406
 20
900.0
 30
0.0
 10
3.059244790901855
 20
900.0
 30
0.0
  0
POLYLINE
  5
3E8B
330
3E88
100
AcDbEntity
  8
0
 62
     7
100
AcDb2dPolyline
 66
     1
 10
0.0
 20
0.0
 30
0.0
  0
VERTEX
  5
3E8C
330
3E8B
100
AcDbEntity
  8
0
 62
     7
100
AcDbVertex
100
AcDb2dVertex
 10
119.3939181559154
 20
800.0095486361088
 30
0.0
  0
VERTEX
  5
3E8D
330
3E8B
100
AcDbEntity
  8
0
 62
     7
100
AcDbVertex
100
AcDb2dVertex
 10
117.9442219757223
 20
799.8386719000404
 30
0.0
  0
VERTEX
  5
3E8E
330
3E8B
100
AcDbEntity
  8
0
 62
     7
100
AcDbVertex
100
AcDb2dVertex
 10
117.8450032257471
 20
800.0867187749785
 30
0.0
  0
VERTEX
  5
3E8F
330
3E8B
100
AcDbEntity
  8
0
 62
     7
100
AcDbVertex
100
AcDb2dVertex
 10
116.251646563819
 20
803.267230926961
 30
0.0
  0
SEQEND
  5
3E90
330
3E8B
100
AcDbEntity
  8
0
  0
POLYLINE
  5
3E91
330
3E88
100
AcDbEntity
  8
0
 62
     7
100
AcDb2dPolyline
 66
     1
 10
0.0
 20
0.0
 30
0.0
  0
VERTEX
  5
3E92
330
3E91
100
AcDbEntity
  8
0
 62
     7
100
AcDbVertex
100
AcDb2dVertex
 10
127.6952202371734
 20
801.1119791913886
 30
0.0
  0
VERTEX
  5
3E93
330
3E91
100
AcDbEntity
  8
0
 62
     7
100
AcDbVertex
100
AcDb2dVertex
 10
128.9685275285217
 20
801.2938802330099
 30
0.0
  0
SEQEND
  5
3E94
330
3E91
100
AcDbEntity
  8
0
  0
SPLINE
  5
3E95
330
3E88
100
AcDbEntity
  8
0
 62
     7
100
AcDbSpline
210
0.0
220
0.0
230
1.0
 70
     8
 71
     3
 72
     8
 73
     4
 74
     0
 42
0.000000001
 43
0.0000000001
 40
0.0
 40
0.0
 40
0.0
 40
0.0
 40
1.0
 40
1.0
 40
1.0
 40
1.0
 10
129.5197428061617
 20
804.8492187737876
 30
0.0
 10
129.8449598199693
 20
804.8822916904461
 30
0.0
 10
130.1260796115657
 20
805.0752170376201
 30
0.0
 10
130.2859320420813
 20
805.3618489819928
 30
0.0
  0
SPLINE
  5
3E96
330
3E88
100
AcDbEntity
  8
0
 62
     7
100
AcDbSpline
210
0.0
220
0.0
230
1.0
 70
     8
 71
     3
 72
     8
 73
     4
 74
     0
 42
0.000000001
 43
0.0000000001
 40
0.0
 40
0.0
 40
0.0
 40
0.0
 40
1.0
 40
1.0
 40
1.0
 40
1.0
 10
131.2229980140692
 20
806.2382812734405
 30
0.0
 10
130.8261230141685
 20
806.0618923845957
 30
0.0
 10
130.4953938475845
 20
805.7476996763409
 30
0.0
 10
130.2859320420813
 20
805.3618489819928
 30
0.0
  0
SPLINE
  5
3E97
330
3E88
100
AcDbEntity
  8
0
 62
     7
100
AcDbSpline
210
0.0
220
0.0
230
1.0
 70
     8
 71
     3
 72
    26
 73
    22
 74
     0
 42
0.000000001
 43
0.0000000001
 40
0.0
 40
0.0
 40
0.0
 40
0.0
 40
1.0
 40
1.0
 40
1.0
 40
2.0
 40
2.0
 40
2.0
 40
3.0
 40
3.0
 40
3.0
 40
4.0
 40
4.0
 40
4.0
 40
5.0
 40
5.0
 40
5.0
 40
6.0
 40
6.0
 40
6.0
 40
7.0
 40
7.0
 40
7.0
 40
7.0
 10
129.6134494033605
 20
804.8547309265641
 30
0.0
 10
129.6134494033605
 20
804.8547309265641
 30
0.0
 10
129.6520344727953
 20
804.4909288433217
 30
0.0
 10
129.6520344727953
 20
804.4909288433217
 30
0.0
 10
129.6520344727953
 20
804.4909288433217
 30
0.0
 10
129.6520344727953
 20
804.2263455100544
 30
0.0
 10
129.6520344727953
 20
804.2263455100544
 30
0.0
 10
129.6520344727953
 20
804.2263455100544
 30
0.0
 10
129.2551594728945
 20
801.4427083579727
 30
0.0
 10
129.2551594728945
 20
801.4427083579727
 30
0.0
 10
129.2551594728945
 20
801.4427083579727
 30
0.0
 10
128.9685275285217
 20
801.2938802330099
 30
0.0
 10
128.9685275285217
 20
801.2938802330099
 30
0.0
 10
127.2983452372726
 20
802.054557316153
 30
0.0
 10
125.4407497516259
 20
802.3467014133023
 30
0.0
 10
123.6107150298612
 20
802.1317274550225
 30
0.0
 10
123.6107150298612
 20
802.1317274550225
 30
0.0
 10
123.1587185021964
 20
802.0766059272586
 30
0.0
 10
123.1587185021964
 20
802.0766059272586
 30
0.0
 10
121.3231716276553
 20
801.8561198162027
 30
0.0
 10
119.5978678086422
 20
801.1395399552707
 30
0.0
 10
118.1536837812255
 20
800.0040364833322
 30
0.0
  0
SPLINE
  5
3E98
330
3E88
100
AcDbEntity
  8
0
 62
     7
100
AcDbSpline
210
0.0
220
0.0
230
1.0
 70
     8
 71
     3
 72
    56
 73
    52
 74
     0
 42
0.000000001
 43
0.0000000001
 40
0.0
 40
0.0
 40
0.0
 40
0.0
 40
1.0
 40
1.0
 40
1.0
 40
2.0
 40
2.0
 40
2.0
 40
3.0
 40
3.0
 40
3.0
 40
4.0
 40
4.0
 40
4.0
 40
5.0
 40
5.0
 40
5.0
 40
6.0
 40
6.0
 40
6.0
 40
7.0
 40
7.0
 40
7.0
 40
8.0
 40
8.0
 40
8.0
 40
9.0
 40
9.0
 40
9.0
 40
10.0
 40
10.0
 40
10.0
 40
11.0
 40
11.0
 40
11.0
 40
12.0
 40
12.0
 40
12.0
 40
13.0
 40
13.0
 40
13.0
 40
14.0
 40
14.0
 40
14.0
 40
15.0
 40
15.0
 40
15.0
 40
16.0
 40
16.0
 40
16.0
 40
17.0
 40
17.0
 40
17.0
 40
17.0
 10
131.2229980140692
 20
806.2382812734405
 30
0.0
 10
132.5734754442872
 20
806.8391059260681
 30
0.0
 10
133.4829806523931
 20
808.1344618285219
 30
0.0
 10
133.5877115551447
 20
809.6062066198207
 30
0.0
 10
133.5877115551447
 20
809.6062066198207
 30
0.0
 10
133.8302462773063
 20
813.0402777995175
 30
0.0
 10
133.8302462773063
 20
813.0402777995175
 30
0.0
 10
133.9074164161759
 20
814.1427083547975
 30
0.0
 10
133.0695691941632
 20
815.0907986323383
 30
0.0
 10
131.9671386388832
 20
815.1734809239844
 30
0.0
 10
131.8458712778024
 20
815.1845052295373
 30
0.0
 10
131.7190917639452
 20
815.1734809239844
 30
0.0
 10
131.5978244028644
 20
815.1624566184317
 30
0.0
 10
131.5978244028644
 20
815.1624566184317
 30
0.0
 10
38.56319307846685
 20
804.1050781489738
 30
0.0
 10
38.56319307846685
 20
804.1050781489738
 30
0.0
 10
37.46627467596329
 20
803.9727864823401
 30
0.0
 10
36.68354898171454
 20
802.980598982588
 30
0.0
 10
36.81584064834813
 20
801.8836805800846
 30
0.0
 10
36.82135280112453
 20
801.8506076634261
 30
0.0
 10
36.82135280112453
 20
801.8175347467678
 30
0.0
 10
36.83788925945372
 20
801.778949677333
 30
0.0
 10
36.83788925945372
 20
801.778949677333
 30
0.0
 10
37.3560316204353
 20
798.7141927336547
 30
0.0
 10
37.3560316204353
 20
798.7141927336547
 30
0.0
 10
37.71983370367768
 20
796.6195746786229
 30
0.0
 10
39.6601114809704
 20
795.175390651206
 30
0.0
 10
41.76575384155509
 20
795.4234375261441
 30
0.0
 10
41.76575384155509
 20
795.4234375261441
 30
0.0
 10
81.17230629481111
 20
800.1087673860839
 30
0.0
 10
81.17230629481111
 20
800.1087673860839
 30
0.0
 10
81.17230629481111
 20
800.1087673860839
 30
0.0
 10
114.3611504162882
 20
804.0554687739861
 30
0.0
 10
114.3611504162882
 20
804.0554687739861
 30
0.0
 10
114.3611504162882
 20
804.0554687739861
 30
0.0
 10
114.3611504162882
 20
804.0499566212098
 30
0.0
 10
114.3611504162882
 20
804.0499566212098
 30
0.0
 10
114.9289021522574
 20
804.1161024545266
 30
0.0
 10
115.4964816334523
 20
803.9452257184581
 30
0.0
 10
115.920917397235
 20
803.5648871768866
 30
0.0
 10
115.920917397235
 20
803.5648871768866
 30
0.0
 10
116.251646563819
 20
803.267230926961
 30
0.0
 10
116.251646563819
 20
803.267230926961
 30
0.0
 10
116.251646563819
 20
803.267230926961
 30
0.0
 10
116.6984754482559
 20
803.3223524547249
 30
0.0
 10
116.6984754482559
 20
803.3223524547249
 30
0.0
 10
116.6984754482559
 20
803.3223524547249
 30
0.0
 10
116.6929632954795
 20
803.3223524547249
 30
0.0
 10
116.6929632954795
 20
803.3223524547249
 30
0.0
 10
116.6929632954795
 20
803.3223524547249
 30
0.0
 10
129.6134494033605
 20
804.8547309265641
 30
0.0
 10
129.6134494033605
 20
804.8547309265641
 30
0.0
  0
SPLINE
  5
3E99
330
3E88
100
AcDbEntity
  8
0
 62
     7
100
AcDbSpline
210
0.0
220
0.0
230
1.0
 70
     8
 71
     3
 72
     8
 73
     4
 74
     0
 42
0.000000001
 43
0.0000000001
 40
0.0
 40
0.0
 40
0.0
 40
0.0
 40
1.0
 40
1.0
 40
1.0
 40
1.0
 10
42.82959932740023
 20
790.5617187773596
 30
0.0
 10
42.59257675801504
 20
790.0490885691545
 30
0.0
 10
42.23979898032546
 20
789.6081163470425
 30
0.0
 10
41.78229029988429
 20
789.2828993332349
 30
0.0
  0
SPLINE
  5
3E9A
330
3E88
100
AcDbEntity
  8
0
 62
     7
100
AcDbSpline
210
0.0
220
0.0
230
1.0
 70
     8
 71
     3
 72
     8
 73
     4
 74
     0
 42
0.000000001
 43
0.0000000001
 40
0.0
 40
0.0
 40
0.0
 40
0.0
 40
1.0
 40
1.0
 40
1.0
 40
1.0
 10
52.95542397764656
 20
790.6113281523471
 30
0.0
 10
52.43728161666499
 20
790.8207899578504
 30
0.0
 10
51.97977293622381
 20
791.1625434299872
 30
0.0
 10
51.63250731131062
 20
791.6200521104283
 30
0.0
  0
SPLINE
  5
3E9B
330
3E88
100
AcDbEntity
  8
0
 62
     7
100
AcDbSpline
210
0.0
220
0.0
230
1.0
 70
     8
 71
     3
 72
     8
 73
     4
 74
     0
 42
0.000000001
 43
0.0000000001
 40
0.0
 40
0.0
 40
0.0
 40
0.0
 40
1.0
 40
1.0
 40
1.0
 40
1.0
 10
43.07764620233824
 20
791.0523003744592
 30
0.0
 10
42.97842745236303
 20
790.8924479439435
 30
0.0
 10
42.90125731349343
 20
790.7381076662044
 30
0.0
 10
42.82959932740023
 20
790.5617187773596
 30
0.0
  0
SPLINE
  5
3E9C
330
3E88
100
AcDbEntity
  8
0
 62
     7
100
AcDbSpline
210
0.0
220
0.0
230
1.0
 70
     8
 71
     3
 72
     8
 73
     4
 74
     0
 42
0.000000001
 43
0.0000000001
 40
0.0
 40
0.0
 40
0.0
 40
0.0
 40
1.0
 40
1.0
 40
1.0
 40
1.0
 10
51.63250731131062
 20
791.6200521104283
 30
0.0
 10
51.52226425578263
 20
791.7633680826146
 30
0.0
 10
51.40099689470184
 20
791.9011719020248
 30
0.0
 10
51.27972953362105
 20
792.0224392631055
 30
0.0
  0
POLYLINE
  5
3E9D
330
3E88
100
AcDbEntity
  8
0
 62
     7
100
AcDb2dPolyline
 66
     1
 10
0.0
 20
0.0
 30
0.0
  0
VERTEX
  5
3E9E
330
3E9D
100
AcDbEntity
  8
0
 62
     7
100
AcDbVertex
100
AcDb2dVertex
 10
47.18420002075602
 20
791.5428819715587
 30
0.0
  0
VERTEX
  5
3E9F
330
3E9D
100
AcDbEntity
  8
0
 62
     7
100
AcDbVertex
100
AcDb2dVertex
 10
41.99726425816388
 20
790.9089844022727
 30
0.0
  0
VERTEX
  5
3EA0
330
3E9D
100
AcDbEntity
  8
0
 62
     7
100
AcDbVertex
100
AcDb2dVertex
 10
41.4680975916295
 20
791.0137153050243
 30
0.0
  0
VERTEX
  5
3EA1
330
3E9D
100
AcDbEntity
  8
0
 62
     7
100
AcDbVertex
100
AcDb2dVertex
 10
39.94123127256677
 20
794.6241753735662
 30
0.0
  0
SEQEND
  5
3EA2
330
3E9D
100
AcDbEntity
  8
0
  0
POLYLINE
  5
3EA3
330
3E88
100
AcDbEntity
  8
0
 62
     7
100
AcDb2dPolyline
 66
     1
 10
0.0
 20
0.0
 30
0.0
  0
VERTEX
  5
3EA4
330
3EA3
100
AcDbEntity
  8
0
 62
     7
100
AcDbVertex
100
AcDb2dVertex
 10
47.18420002075602
 20
791.5428819715587
 30
0.0
  0
VERTEX
  5
3EA5
330
3EA3
100
AcDbEntity
  8
0
 62
     7
100
AcDbVertex
100
AcDb2dVertex
 10
52.67981633882657
 20
792.1988281519502
 30
0.0
  0
VERTEX
  5
3EA6
330
3EA3
100
AcDbEntity
  8
0
 62
     7
100
AcDbVertex
100
AcDb2dVertex
 10
52.86171738044776
 20
792.3641927352423
 30
0.0
  0
VERTEX
  5
3EA7
330
3EA3
100
AcDbEntity
  8
0
 62
     7
100
AcDbVertex
100
AcDb2dVertex
 10
53.19795869980815
 20
795.7707031510574
 30
0.0
  0
SEQEND
  5
3EA8
330
3EA3
100
AcDbEntity
  8
0
  0
SPLINE
  5
3EA9
330
3E88
100
AcDbEntity
  8
0
 62
     7
100
AcDbSpline
210
0.0
220
0.0
230
1.0
 70
     8
 71
     3
 72
    23
 73
    19
 74
     0
 42
0.000000001
 43
0.0000000001
 40
0.0
 40
0.0
 40
0.0
 40
0.0
 40
1.0
 40
1.0
 40
1.0
 40
2.0
 40
2.0
 40
2.0
 40
3.0
 40
3.0
 40
3.0
 40
4.0
 40
4.0
 40
4.0
 40
5.0
 40
5.0
 40
5.0
 40
6.0
 40
6.0
 40
6.0
 40
6.0
 10
38.98762884224963
 20
796.1400173870761
 30
0.0
 10
39.3293823143864
 20
795.8533854427034
 30
0.0
 10
39.57742918932439
 20
795.4785590539082
 30
0.0
 10
39.70420870318159
 20
795.0430989845726
 30
0.0
 10
39.81996391148598
 20
794.5580295402494
 30
0.0
 10
40.27747259192716
 20
794.2383246792183
 30
0.0
 10
40.78459064735593
 20
794.2989583597586
 30
0.0
 10
40.78459064735593
 20
794.2989583597586
 30
0.0
 10
46.77078856252605
 20
795.0100260679142
 30
0.0
 10
46.77078856252605
 20
795.0100260679142
 30
0.0
 10
46.77078856252605
 20
795.0100260679142
 30
0.0
 10
53.19795869980815
 20
795.7707031510574
 30
0.0
 10
53.19795869980815
 20
795.7707031510574
 30
0.0
 10
53.49561494973374
 20
795.8148003732686
 30
0.0
 10
53.74366182467174
 20
795.958116345455
 30
0.0
 10
53.92556286629291
 20
796.19513891484
 30
0.0
 10
54.25629203287691
 20
796.6526475952812
 30
0.0
 10
54.73584932442367
 20
796.9447916924305
 30
0.0
 10
55.29257675484005
 20
797.0329861368529
 30
0.0
  0
SPLINE
  5
3EAA
330
3E88
100
AcDbEntity
  8
0
 62
     7
100
AcDbSpline
210
0.0
220
0.0
230
1.0
 70
     8
 71
     3
 72
    17
 73
    13
 74
     0
 42
0.000000001
 43
0.0000000001
 40
0.0
 40
0.0
 40
0.0
 40
0.0
 40
1.0
 40
1.0
 40
1.0
 40
2.0
 40
2.0
 40
2.0
 40
3.0
 40
3.0
 40
3.0
 40
4.0
 40
4.0
 40
4.0
 40
4.0
 10
36.83788925945372
 20
802.3136284966438
 30
0.0
 10
36.83788925945372
 20
802.3136284966438
 30
0.0
 10
35.93940835690057
 20
787.2985243337309
 30
0.0
 10
35.93940835690057
 20
787.2985243337309
 30
0.0
 10
35.92287189857136
 20
786.3835069728486
 30
0.0
 10
35.79058023193777
 20
785.4629774591898
 30
0.0
 10
35.49843613478858
 20
784.5920573205187
 30
0.0
 10
35.31102294039099
 20
784.0022569734438
 30
0.0
 10
35.05195175990022
 20
783.4455295430275
 30
0.0
 10
34.69366182943422
 20
782.9384114875988
 30
0.0
 10
33.79518092688106
 20
781.6540798906976
 30
0.0
 10
32.40611842722834
 20
780.7611111409209
 30
0.0
 10
30.87373995538921
 20
780.4414062798896
 30
0.0
  0
SPLINE
  5
3EAB
330
3E88
100
AcDbEntity
  8
0
 62
     7
100
AcDbSpline
210
0.0
220
0.0
230
1.0
 70
    11
 71
     3
 72
    35
 73
    31
 74
     0
 42
0.000000001
 43
0.0000000001
 40
0.0
 40
0.0
 40
0.0
 40
0.0
 40
1.0
 40
1.0
 40
1.0
 40
2.0
 40
2.0
 40
2.0
 40
3.0
 40
3.0
 40
3.0
 40
4.0
 40
4.0
 40
4.0
 40
5.0
 40
5.0
 40
5.0
 40
6.0
 40
6.0
 40
6.0
 40
7.0
 40
7.0
 40
7.0
 40
8.0
 40
8.0
 40
8.0
 40
9.0
 40
9.0
 40
9.0
 40
10.0
 40
10.0
 40
10.0
 40
10.0
 10
364.9999429426042
 20
897.9605034727322
 30
0.0
 10
364.9999429426042
 20
897.9605034727322
 30
0.0
 10
362.7950818320443
 20
771.9967882264452
 30
0.0
 10
362.7950818320443
 20
771.9967882264452
 30
0.0
 10
362.7950818320443
 20
771.9967882264452
 30
0.0
 10
357.7679984999677
 20
769.9958767686121
 30
0.0
 10
357.7679984999677
 20
769.9958767686121
 30
0.0
 10
357.7679984999677
 20
769.9958767686121
 30
0.0
 10
7.237456595412858
 20
769.9958767686121
 30
0.0
 10
7.237456595412858
 20
769.9958767686121
 30
0.0
 10
7.237456595412858
 20
769.9958767686121
 30
0.0
 10
2.204861110559894
 20
771.9967882264452
 30
0.0
 10
2.204861110559894
 20
771.9967882264452
 30
0.0
 10
2.204861110559894
 20
771.9967882264452
 30
0.0
 10
0.0000000000000036
 20
897.9605034727322
 30
0.0
 10
0.0000000000000036
 20
897.9605034727322
 30
0.0
 10
0.0000000000000036
 20
897.9770399310615
 30
0.0
 10
0.0000000000000036
 20
897.988064236614
 30
0.0
 10
0.0000000000000036
 20
897.9935763893905
 30
0.0
 10
0.0000000000000036
 20
899.1070312502231
 30
0.0
 10
0.8984809025531586
 20
900.0
 30
0.0
 10
2.000911457833103
 20
900.0
 30
0.0
 10
2.000911457833103
 20
900.0
 30
0.0
 10
363.0045436375476
 20
900.0
 30
0.0
 10
363.0045436375476
 20
900.0
 30
0.0
 10
363.0100557903239
 20
900.0
 30
0.0
 10
363.0265922486531
 20
900.0
 30
0.0
 10
363.0321044014295
 20
899.9944878472236
 30
0.0
 10
364.1400471094858
 20
899.9779513888946
 30
0.0
 10
365.0164794009334
 20
899.062934028012
 30
0.0
 10
364.9999429426042
 20
897.9605034727322
 30
0.0
  0
SPLINE
  5
3EAC
330
3E88
100
AcDbEntity
  8
0
 62
     7
100
AcDbSpline
210
0.0
220
0.0
230
1.0
 70
     8
 71
     3
 72
    26
 73
    22
 74
     0
 42
0.000000001
 43
0.0000000001
 40
0.0
 40
0.0
 40
0.0
 40
0.0
 40
1.0
 40
1.0
 40
1.0
 40
2.0
 40
2.0
 40
2.0
 40
3.0
 40
3.0
 40
3.0
 40
4.0
 40
4.0
 40
4.0
 40
5.0
 40
5.0
 40
5.0
 40
6.0
 40
6.0
 40
6.0
 40
7.0
 40
7.0
 40
7.0
 40
7.0
 10
119.085237600437
 20
770.0013889213885
 30
0.0
 10
118.4954372533622
 20
769.1855903104813
 30
0.0
 10
118.0654893368031
 20
768.2650607968227
 30
0.0
 10
117.8229546146415
 20
767.2728732970706
 30
0.0
 10
117.8229546146415
 20
767.2728732970706
 30
0.0
 10
115.8713080222474
 20
759.5172743406763
 30
0.0
 10
115.8713080222474
 20
759.5172743406763
 30
0.0
 10
115.6508219111915
 20
758.6187934381229
 30
0.0
 10
114.8517320133877
 20
758.0014323271663
 30
0.0
 10
113.931202499729
 20
758.0014323271663
 30
0.0
 10
113.931202499729
 20
758.0014323271663
 30
0.0
 10
47.03537189579324
 20
758.0014323271663
 30
0.0
 10
47.03537189579324
 20
758.0014323271663
 30
0.0
 10
46.12035453491087
 20
758.0014323271663
 30
0.0
 10
45.31558022955652
 20
758.6187934381229
 30
0.0
 10
45.08406981294774
 20
759.5172743406763
 30
0.0
 10
45.08406981294774
 20
759.5172743406763
 30
0.0
 10
43.96510279933858
 20
764.0151910062185
 30
0.0
 10
43.96510279933858
 20
764.0151910062185
 30
0.0
 10
43.13827988287862
 20
767.3445312831637
 30
0.0
 10
40.28849689747995
 20
769.7698785047799
 30
0.0
 10
36.87096217611213
 20
770.0565104491525
 30
0.0
  0
SPLINE
  5
3EAD
330
3E88
100
AcDbEntity
  8
0
 62
     7
100
AcDbSpline
210
0.0
220
0.0
230
1.0
 70
     8
 71
     3
 72
    80
 73
    76
 74
     0
 42
0.000000001
 43
0.0000000001
 40
0.0
 40
0.0
 40
0.0
 40
0.0
 40
1.0
 40
1.0
 40
1.0
 40
2.0
 40
2.0
 40
2.0
 40
3.0
 40
3.0
 40
3.0
 40
4.0
 40
4.0
 40
4.0
 40
5.0
 40
5.0
 40
5.0
 40
6.0
 40
6.0
 40
6.0
 40
7.0
 40
7.0
 40
7.0
 40
8.0
 40
8.0
 40
8.0
 40
9.0
 40
9.0
 40
9.0
 40
10.0
 40
10.0
 40
10.0
 40
11.0
 40
11.0
 40
11.0
 40
12.0
 40
12.0
 40
12.0
 40
13.0
 40
13.0
 40
13.0
 40
14.0
 40
14.0
 40
14.0
 40
15.0
 40
15.0
 40
15.0
 40
16.0
 40
16.0
 40
16.0
 40
17.0
 40
17.0
 40
17.0
 40
18.0
 40
18.0
 40
18.0
 40
19.0
 40
19.0
 40
19.0
 40
20.0
 40
20.0
 40
20.0
 40
21.0
 40
21.0
 40
21.0
 40
22.0
 40
22.0
 40
22.0
 40
23.0
 40
23.0
 40
23.0
 40
24.0
 40
24.0
 40
24.0
 40
25.0
 40
25.0
 40
25.0
 40
25.0
 10
361.8580158600564
 20
900.0
 30
0.0
 10
360.7996825269875
 20
900.0
 30
0.0
 10
359.92325023554
 20
899.1676649307636
 30
0.0
 10
359.8626165549996
 20
898.098307292142
 30
0.0
 10
359.8626165549996
 20
898.098307292142
 30
0.0
 10
357.040394333483
 20
847.0833333465625
 30
0.0
 10
357.040394333483
 20
847.0833333465625
 30
0.0
 10
356.9191269724023
 20
844.8839843887791
 30
0.0
 10
355.5962103060662
 20
842.9216580003807
 30
0.0
 10
353.6114907970138
 20
841.9790798756164
 30
0.0
 10
353.0051539916098
 20
841.69796008402
 30
0.0
 10
352.3712564223239
 20
841.5105468896224
 30
0.0
 10
351.7097980891559
 20
841.4333767507528
 30
0.0
 10
351.2302407976091
 20
841.3782552229887
 30
0.0
 10
350.7341470477331
 20
841.3231336952247
 30
0.0
 10
350.2490776034099
 20
841.2680121674608
 30
0.0
 10
318.245518583633
 20
837.6355034878134
 30
0.0
 10
261.3321966577572
 20
830.9327257117113
 30
0.0
 10
229.3451740963095
 20
827.1513889071011
 30
0.0
 10
199.2653563954962
 20
823.5905382135468
 30
0.0
 10
167.6032063383074
 20
819.6328125200916
 30
0.0
 10
137.5454372485997
 20
815.8790364793635
 30
0.0
 10
136.6304198877174
 20
815.7632812710591
 30
0.0
 10
135.9138400267854
 20
815.0467014101273
 30
0.0
 10
135.8035969712574
 20
814.1371962020212
 30
0.0
 10
135.8035969712574
 20
814.1371962020212
 30
0.0
 10
134.5688747493439
 20
804.066493079539
 30
0.0
 10
134.5688747493439
 20
804.066493079539
 30
0.0
 10
134.3814615549463
 20
802.5175781493706
 30
0.0
 10
133.3121039163247
 20
801.2222222469165
 30
0.0
 10
131.8238226666968
 20
800.7481771081463
 30
0.0
 10
131.8238226666968
 20
800.7481771081463
 30
0.0
 10
131.2285101668456
 20
800.5607639137487
 30
0.0
 10
131.2285101668456
 20
800.5607639137487
 30
0.0
 10
130.8040744030629
 20
800.4229600943387
 30
0.0
 10
130.3631021809509
 20
800.3568142610218
 30
0.0
 10
129.9055935005097
 20
800.3678385665747
 30
0.0
 10
129.0016004451801
 20
800.3953993304566
 30
0.0
 10
128.130680306509
 20
800.7261284970407
 30
0.0
 10
127.441661209459
 20
801.3049045385626
 30
0.0
 10
126.5927896818935
 20
802.0214843994947
 30
0.0
 10
125.4848469738371
 20
802.3467014133023
 30
0.0
 10
124.39344072411
 20
802.2199218994451
 30
0.0
 10
124.39344072411
 20
802.2199218994451
 30
0.0
 10
122.3980414190533
 20
801.9828993300599
 30
0.0
 10
122.3980414190533
 20
801.9828993300599
 30
0.0
 10
120.3861056556674
 20
801.7403646078983
 30
0.0
 10
118.8702636421574
 20
800.0371093999908
 30
0.0
 10
118.8702636421574
 20
798.0141493310521
 30
0.0
 10
118.8702636421574
 20
798.0141493310521
 30
0.0
 10
118.8702636421574
 20
795.6053385677653
 30
0.0
 10
118.8702636421574
 20
795.6053385677653
 30
0.0
 10
118.8702636421574
 20
795.6053385677653
 30
0.0
 10
118.6222167672194
 20
793.9406684292926
 30
0.0
 10
118.6222167672194
 20
793.9406684292926
 30
0.0
 10
118.6222167672194
 20
793.9406684292926
 30
0.0
 10
117.6300292674675
 20
782.6187066265675
 30
0.0
 10
117.6300292674675
 20
782.6187066265675
 30
0.0
 10
117.6300292674675
 20
782.6187066265675
 30
0.0
 10
117.6300292674675
 20
782.6187066265675
 30
0.0
 10
117.6300292674675
 20
782.6187066265675
 30
0.0
 10
117.4646646841755
 20
780.77764759925
 30
0.0
 10
116.3012559388066
 20
779.1791232940941
 30
0.0
 10
114.6036851384498
 20
778.4570312803856
 30
0.0
 10
114.6036851384498
 20
778.4570312803856
 30
0.0
 10
113.7989108330954
 20
777.9388889194042
 30
0.0
 10
113.7989108330954
 20
777.9388889194042
 30
0.0
 10
113.7989108330954
 20
777.9388889194042
 30
0.0
 10
110.690056667206
 20
775.1993489895335
 30
0.0
 10
110.690056667206
 20
775.1993489895335
 30
0.0
 10
108.044223334534
 20
772.8677083651164
 30
0.0
 10
105.6354125712474
 20
770.2880208657614
 30
0.0
 10
103.4856729884515
 20
767.4933594081267
 30
0.0
 10
103.4856729884515
 20
767.4933594081267
 30
0.0
 10
103.4856729884515
 20
758.0014323271663
 30
0.0
 10
103.4856729884515
 20
758.0014323271663
 30
0.0
  0
POLYLINE
  5
3EAE
330
3E88
100
AcDbEntity
  8
0
 62
     7
100
AcDb2dPolyline
 66
     1
 10
0.0
 20
0.0
 30
0.0
  0
VERTEX
  5
3EAF
330
3EAE
100
AcDbEntity
  8
0
 62
     7
100
AcDbVertex
100
AcDb2dVertex
 10
80.48328719776111
 20
748.0023871907771
 30
0.0
  0
VERTEX
  5
3EB0
330
3EAE
100
AcDbEntity
  8
0
 62
     7
100
AcDbVertex
100
AcDb2dVertex
 10
80.48328719776111
 20
819.1642795340978
 30
0.0
  0
SEQEND
  5
3EB1
330
3EAE
100
AcDbEntity
  8
0
  0
POLYLINE
  5
3EB2
330
3E88
100
AcDbEntity
  8
0
 62
     7
100
AcDb2dPolyline
 66
     1
 10
0.0
 20
0.0
 30
0.0
  0
VERTEX
  5
3EB3
330
3EB2
100
AcDbEntity
  8
0
 62
     7
100
AcDbVertex
100
AcDb2dVertex
 10
12.49053819132181
 20
768.9981771160838
 30
0.0
  0
VERTEX
  5
3EB4
330
3EB2
100
AcDbEntity
  8
0
 62
     7
100
AcDbVertex
100
AcDb2dVertex
 10
12.49053819132181
 20
883.9982204901117
 30
0.0
  0
SEQEND
  5
3EB5
330
3EB2
100
AcDbEntity
  8
0
  0
POLYLINE
  5
3EB6
330
3E88
100
AcDbEntity
  8
0
 62
     7
100
AcDb2dPolyline
 66
     1
 10
0.0
 20
0.0
 30
0.0
  0
VERTEX
  5
3EB7
330
3EB6
100
AcDbEntity
  8
0
 62
     7
100
AcDbVertex
100
AcDb2dVertex
 10
32.49431287165072
 20
768.9981771160838
 30
0.0
  0
VERTEX
  5
3EB8
330
3EB6
100
AcDbEntity
  8
0
 62
     7
100
AcDbVertex
100
AcDb2dVertex
 10
32.49431287165072
 20
883.9982204901117
 30
0.0
  0
SEQEND
  5
3EB9
330
3EB6
100
AcDbEntity
  8
0
  0
POLYLINE
  5
3EBA
330
3E88
100
AcDbEntity
  8
0
 62
     7
100
AcDb2dPolyline
 66
     1
 10
0.0
 20
0.0
 30
0.0
  0
VERTEX
  5
3EBB
330
3EBA
100
AcDbEntity
  8
0
 62
     7
100
AcDbVertex
100
AcDb2dVertex
 10
52.49791529720538
 20
768.9981771160838
 30
0.0
  0
VERTEX
  5
3EBC
330
3EBA
100
AcDbEntity
  8
0
 62
     7
100
AcDbVertex
100
AcDb2dVertex
 10
52.49791529720538
 20
883.9982204901117
 30
0.0
  0
SEQEND
  5
3EBD
330
3EBA
100
AcDbEntity
  8
0
  0
POLYLINE
  5
3EBE
330
3E88
100
AcDbEntity
  8
0
 62
     7
100
AcDb2dPolyline
 66
     1
 10
0.0
 20
0.0
 30
0.0
  0
VERTEX
  5
3EBF
330
3EBE
100
AcDbEntity
  8
0
 62
     7
100
AcDbVertex
100
AcDb2dVertex
 10
72.50168997753431
 20
768.9981771160838
 30
0.0
  0
VERTEX
  5
3EC0
330
3EBE
100
AcDbEntity
  8
0
 62
     7
100
AcDbVertex
100
AcDb2dVertex
 10
72.50168997753431
 20
883.9982204901117
 30
0.0
  0
SEQEND
  5
3EC1
330
3EBE
100
AcDbEntity
  8
0
  0
POLYLINE
  5
3EC2
330
3E88
100
AcDbEntity
  8
0
 62
     7
100
AcDb2dPolyline
 66
     1
 10
0.0
 20
0.0
 30
0.0
  0
VERTEX
  5
3EC3
330
3EC2
100
AcDbEntity
  8
0
 62
     7
100
AcDbVertex
100
AcDb2dVertex
 10
92.49978025031255
 20
768.9981771160838
 30
0.0
  0
VERTEX
  5
3EC4
330
3EC2
100
AcDbEntity
  8
0
 62
     7
100
AcDbVertex
100
AcDb2dVertex
 10
92.49978025031255
 20
883.9982204901117
 30
0.0
  0
SEQEND
  5
3EC5
330
3EC2
100
AcDbEntity
  8
0
  0
POLYLINE
  5
3EC6
330
3E88
100
AcDbEntity
  8
0
 62
     7
100
AcDb2dPolyline
 66
     1
 10
0.0
 20
0.0
 30
0.0
  0
VERTEX
  5
3EC7
330
3EC6
100
AcDbEntity
  8
0
 62
     7
100
AcDbVertex
100
AcDb2dVertex
 10
112.5035549306415
 20
768.9981771160838
 30
0.0
  0
VERTEX
  5
3EC8
330
3EC6
100
AcDbEntity
  8
0
 62
     7
100
AcDbVertex
100
AcDb2dVertex
 10
112.5035549306415
 20
883.9982204901117
 30
0.0
  0
SEQEND
  5
3EC9
330
3EC6
100
AcDbEntity
  8
0
  0
POLYLINE
  5
3ECA
330
3E88
100
AcDbEntity
  8
0
 62
     7
100
AcDb2dPolyline
 66
     1
 10
0.0
 20
0.0
 30
0.0
  0
VERTEX
  5
3ECB
330
3ECA
100
AcDbEntity
  8
0
 62
     7
100
AcDbVertex
100
AcDb2dVertex
 10
132.5073296109704
 20
768.9981771160838
 30
0.0
  0
VERTEX
  5
3ECC
330
3ECA
100
AcDbEntity
  8
0
 62
     7
100
AcDbVertex
100
AcDb2dVertex
 10
132.5073296109704
 20
883.9982204901117
 30
0.0
  0
SEQEND
  5
3ECD
330
3ECA
100
AcDbEntity
  8
0
  0
POLYLINE
  5
3ECE
330
3E88
100
AcDbEntity
  8
0
 62
     7
100
AcDb2dPolyline
 66
     1
 10
0.0
 20
0.0
 30
0.0
  0
VERTEX
  5
3ECF
330
3ECE
100
AcDbEntity
  8
0
 62
     7
100
AcDbVertex
100
AcDb2dVertex
 10
152.5054198837485
 20
768.9981771160838
 30
0.0
  0
VERTEX
  5
3ED0
330
3ECE
100
AcDbEntity
  8
0
 62
     7
100
AcDbVertex
100
AcDb2dVertex
 10
152.5054198837485
 20
883.9982204901117
 30
0.0
  0
SEQEND
  5
3ED1
330
3ECE
100
AcDbEntity
  8
0
  0
POLYLINE
  5
3ED2
330
3E88
100
AcDbEntity
  8
0
 62
     7
100
AcDb2dPolyline
 66
     1
 10
0.0
 20
0.0
 30
0.0
  0
VERTEX
  5
3ED3
330
3ED2
100
AcDbEntity
  8
0
 62
     7
100
AcDbVertex
100
AcDb2dVertex
 10
172.5090223093033
 20
768.9981771160838
 30
0.0
  0
VERTEX
  5
3ED4
330
3ED2
100
AcDbEntity
  8
0
 62
     7
100
AcDbVertex
100
AcDb2dVertex
 10
172.5090223093033
 20
883.9982204901117
 30
0.0
  0
SEQEND
  5
3ED5
330
3ED2
100
AcDbEntity
  8
0
  0
POLYLINE
  5
3ED6
330
3E88
100
AcDbEntity
  8
0
 62
     7
100
AcDb2dPolyline
 66
     1
 10
0.0
 20
0.0
 30
0.0
  0
VERTEX
  5
3ED7
330
3ED6
100
AcDbEntity
  8
0
 62
     7
100
AcDbVertex
100
AcDb2dVertex
 10
192.512624734858
 20
768.9981771160838
 30
0.0
  0
VERTEX
  5
3ED8
330
3ED6
100
AcDbEntity
  8
0
 62
     7
100
AcDbVertex
100
AcDb2dVertex
 10
192.512624734858
 20
883.9982204901117
 30
0.0
  0
SEQEND
  5
3ED9
330
3ED6
100
AcDbEntity
  8
0
  0
POLYLINE
  5
3EDA
330
3E88
100
AcDbEntity
  8
0
 62
     7
100
AcDb2dPolyline
 66
     1
 10
0.0
 20
0.0
 30
0.0
  0
VERTEX
  5
3EDB
330
3EDA
100
AcDbEntity
  8
0
 62
     7
100
AcDbVertex
100
AcDb2dVertex
 10
212.5165716699611
 20
768.9981771160838
 30
0.0
  0
VERTEX
  5
3EDC
330
3EDA
100
AcDbEntity
  8
0
 62
     7
100
AcDbVertex
100
AcDb2dVertex
 10
212.5165716699611
 20
883.9982204901117
 30
0.0
  0
SEQEND
  5
3EDD
330
3EDA
100
AcDbEntity
  8
0
  0
POLYLINE
  5
3EDE
330
3E88
100
AcDbEntity
  8
0
 62
     7
100
AcDb2dPolyline
 66
     1
 10
0.0
 20
0.0
 30
0.0
  0
VERTEX
  5
3EDF
330
3EDE
100
AcDbEntity
  8
0
 62
     7
100
AcDbVertex
100
AcDb2dVertex
 10
232.5587591649506
 20
768.9981771160838
 30
0.0
  0
VERTEX
  5
3EE0
330
3EDE
100
AcDbEntity
  8
0
 62
     7
100
AcDbVertex
100
AcDb2dVertex
 10
232.5587591649506
 20
883.9982204901117
 30
0.0
  0
SEQEND
  5
3EE1
330
3EDE
100
AcDbEntity
  8
0
  0
POLYLINE
  5
3EE2
330
3E88
100
AcDbEntity
  8
0
 62
     7
100
AcDb2dPolyline
 66
     1
 10
0.0
 20
0.0
 30
0.0
  0
VERTEX
  5
3EE3
330
3EE2
100
AcDbEntity
  8
0
 62
     7
100
AcDbVertex
100
AcDb2dVertex
 10
252.518264368294
 20
768.9981771160838
 30
0.0
  0
VERTEX
  5
3EE4
330
3EE2
100
AcDbEntity
  8
0
 62
     7
100
AcDbVertex
100
AcDb2dVertex
 10
252.518264368294
 20
883.9982204901117
 30
0.0
  0
SEQEND
  5
3EE5
330
3EE2
100
AcDbEntity
  8
0
  0
POLYLINE
  5
3EE6
330
3E88
100
AcDbEntity
  8
0
 62
     7
100
AcDb2dPolyline
 66
     1
 10
0.0
 20
0.0
 30
0.0
  0
VERTEX
  5
3EE7
330
3EE6
100
AcDbEntity
  8
0
 62
     7
100
AcDbVertex
100
AcDb2dVertex
 10
272.5222113033972
 20
768.9981771160838
 30
0.0
  0
VERTEX
  5
3EE8
330
3EE6
100
AcDbEntity
  8
0
 62
     7
100
AcDbVertex
100
AcDb2dVertex
 10
272.5222113033972
 20
883.9982204901117
 30
0.0
  0
SEQEND
  5
3EE9
330
3EE6
100
AcDbEntity
  8
0
  0
POLYLINE
  5
3EEA
330
3E88
100
AcDbEntity
  8
0
 62
     7
100
AcDb2dPolyline
 66
     1
 10
0.0
 20
0.0
 30
0.0
  0
VERTEX
  5
3EEB
330
3EEA
100
AcDbEntity
  8
0
 62
     7
100
AcDbVertex
100
AcDb2dVertex
 10
292.5258137289519
 20
768.9981771160838
 30
0.0
  0
VERTEX
  5
3EEC
330
3EEA
100
AcDbEntity
  8
0
 62
     7
100
AcDbVertex
100
AcDb2dVertex
 10
292.5258137289519
 20
883.9982204901117
 30
0.0
  0
SEQEND
  5
3EED
330
3EEA
100
AcDbEntity
  8
0
  0
POLYLINE
  5
3EEE
330
3E88
100
AcDbEntity
  8
0
 62
     7
100
AcDb2dPolyline
 66
     1
 10
0.0
 20
0.0
 30
0.0
  0
VERTEX
  5
3EEF
330
3EEE
100
AcDbEntity
  8
0
 62
     7
100
AcDbVertex
100
AcDb2dVertex
 10
312.5239040017302
 20
768.9981771160838
 30
0.0
  0
VERTEX
  5
3EF0
330
3EEE
100
AcDbEntity
  8
0
 62
     7
100
AcDbVertex
100
AcDb2dVertex
 10
312.5239040017302
 20
883.9982204901117
 30
0.0
  0
SEQEND
  5
3EF1
330
3EEE
100
AcDbEntity
  8
0
  0
POLYLINE
  5
3EF2
330
3E88
100
AcDbEntity
  8
0
 62
     7
100
AcDb2dPolyline
 66
     1
 10
0.0
 20
0.0
 30
0.0
  0
VERTEX
  5
3EF3
330
3EF2
100
AcDbEntity
  8
0
 62
     7
100
AcDbVertex
100
AcDb2dVertex
 10
332.5219942745084
 20
768.9981771160838
 30
0.0
  0
VERTEX
  5
3EF4
330
3EF2
100
AcDbEntity
  8
0
 62
     7
100
AcDbVertex
100
AcDb2dVertex
 10
332.5219942745084
 20
883.9982204901117
 30
0.0
  0
SEQEND
  5
3EF5
330
3EF2
100
AcDbEntity
  8
0
  0
POLYLINE
  5
3EF6
330
3E88
100
AcDbEntity
  8
0
 62
     7
100
AcDb2dPolyline
 66
     1
 10
0.0
 20
0.0
 30
0.0
  0
VERTEX
  5
3EF7
330
3EF6
100
AcDbEntity
  8
0
 62
     7
100
AcDbVertex
100
AcDb2dVertex
 10
352.5200845472867
 20
768.9981771160838
 30
0.0
  0
VERTEX
  5
3EF8
330
3EF6
100
AcDbEntity
  8
0
 62
     7
100
AcDbVertex
100
AcDb2dVertex
 10
352.5200845472867
 20
883.9982204901117
 30
0.0
  0
SEQEND
  5
3EF9
330
3EF6
100
AcDbEntity
  8
0
  0
ENDBLK
  5
3EFA
330
3E88
100
AcDbEntity
  8
0
100
AcDbBlockEnd
  0
BLOCK
  5
3EFD
330
3EFC
100
AcDbEntity
  8
0
100
AcDbBlockBegin
  2
812343d
 70
     0
 10
0.0
 20
0.0
 30
0.0
  3
812343d
  1

  0
SPLINE
  5
3EFE
330
3EFC
100
AcDbEntity
  8
0
 62
     7
100
AcDbSpline
210
0.0
220
0.0
230
1.0
 70
     8
 71
     3
 72
     8
 73
     4
 74
     0
 42
0.000000001
 43
0.0000000001
 40
0.0
 40
0.0
 40
0.0
 40
0.0
 40
1.0
 40
1.0
 40
1.0
 40
1.0
 10
165.548206881356
 20
-37.35241427017576
 30
0.0
 10
132.9600151577322
 20
-37.18687743210955
 30
0.0
 10
83.71134166744022
 20
-36.79551458498508
 30
0.0
 10
51.12314994381643
 20
-36.79000243220873
 30
0.0
  0
SPLINE
  5
3EFF
330
3EFC
100
AcDbEntity
  8
0
 62
     7
100
AcDbSpline
210
0.0
220
0.0
230
1.0
 70
    11
 71
     3
 72
    29
 73
    25
 74
     0
 42
0.000000001
 43
0.0000000001
 40
0.0
 40
0.0
 40
0.0
 40
0.0
 40
1.0
 40
1.0
 40
1.0
 40
2.0
 40
2.0
 40
2.0
 40
3.0
 40
3.0
 40
3.0
 40
4.0
 40
4.0
 40
4.0
 40
5.0
 40
5.0
 40
5.0
 40
6.0
 40
6.0
 40
6.0
 40
7.0
 40
7.0
 40
7.0
 40
8.0
 40
8.0
 40
8.0
 40
8.0
 10
-205.0000623402431
 20
-178.9990654391912
 30
0.0
 10
-205.0000623402431
 20
-178.9990654391912
 30
0.0
 10
-205.0000623402431
 20
-20.0020521325863
 30
0.0
 10
-205.0000623402431
 20
-19.99653997980988
 30
0.0
 10
-205.0000623402431
 20
-8.953458656615794
 30
0.0
 10
-196.0412637856251
 20
0.0
 30
0.0
 10
-184.9985269719796
 20
0.0
 30
0.0
 10
-184.9985269719796
 20
0.0
 30
0.0
 10
185.0036946152074
 20
0.0
 30
0.0
 10
185.0036946152074
 20
0.0
 30
0.0
 10
196.0521158364036
 20
0.0
 30
0.0
 10
205.0055744930194
 20
-8.953458656615794
 30
0.0
 10
205.000062340243
 20
-20.0020521325863
 30
0.0
 10
205.000062340243
 20
-20.0020521325863
 30
0.0
 10
205.000062340243
 20
-178.9990654391912
 30
0.0
 10
205.000062340243
 20
-178.9990654391912
 30
0.0
 10
205.000062340243
 20
-178.9990654391912
 30
0.0
 10
205.000062340243
 20
-179.0045775919676
 30
0.0
 10
205.000062340243
 20
-179.0045775919676
 30
0.0
 10
205.000062340243
 20
-281.7278509495333
 30
0.0
 10
113.2175509699595
 20
-364.9999429426042
 30
0.0
 10
-0.0000000000000142
 20
-364.9999429426042
 30
0.0
 10
-113.2175509699595
 20
-364.9999429426042
 30
0.0
 10
-205.0000623402431
 20
-281.7223387967569
 30
0.0
 10
-205.0000623402431
 20
-178.9990654391912
 30
0.0
  0
SPLINE
  5
3F00
330
3EFC
100
AcDbEntity
  8
0
 62
     7
100
AcDbSpline
210
0.0
220
0.0
230
1.0
 70
    11
 71
     3
 72
    56
 73
    52
 74
     0
 42
0.000000001
 43
0.0000000001
 40
0.0
 40
0.0
 40
0.0
 40
0.0
 40
1.0
 40
1.0
 40
1.0
 40
2.0
 40
2.0
 40
2.0
 40
3.0
 40
3.0
 40
3.0
 40
4.0
 40
4.0
 40
4.0
 40
5.0
 40
5.0
 40
5.0
 40
6.0
 40
6.0
 40
6.0
 40
7.0
 40
7.0
 40
7.0
 40
8.0
 40
8.0
 40
8.0
 40
9.0
 40
9.0
 40
9.0
 40
10.0
 40
10.0
 40
10.0
 40
11.0
 40
11.0
 40
11.0
 40
12.0
 40
12.0
 40
12.0
 40
13.0
 40
13.0
 40
13.0
 40
14.0
 40
14.0
 40
14.0
 40
15.0
 40
15.0
 40
15.0
 40
16.0
 40
16.0
 40
16.0
 40
17.0
 40
17.0
 40
17.0
 40
17.0
 10
-185.9245686384147
 20
-4.465705022755059
 30
0.0
 10
-193.9628376793739
 20
-4.43814425887308
 30
0.0
 10
-200.5067965536059
 20
-10.93835042044253
 30
0.0
 10
-200.5288451647116
 20
-18.97661946140175
 30
0.0
 10
-200.5288451647116
 20
-19.00969237806009
 30
0.0
 10
-200.5288451647116
 20
-19.04276529471855
 30
0.0
 10
-200.5288451647116
 20
-19.07032605860053
 30
0.0
 10
-200.5288451647116
 20
-19.07032605860053
 30
0.0
 10
-200.5178208591588
 20
-19.0482774474948
 30
0.0
 10
-200.5178208591588
 20
-19.0482774474948
 30
0.0
 10
-200.5178208591588
 20
-19.0482774474948
 30
0.0
 10
-200.5178208591588
 20
-178.9990654391912
 30
0.0
 10
-200.5178208591588
 20
-178.9990654391912
 30
0.0
 10
-200.5178208591588
 20
-178.9990654391912
 30
0.0
 10
-200.5508937758172
 20
-178.9659925225328
 30
0.0
 10
-200.5508937758172
 20
-178.9659925225328
 30
0.0
 10
-200.0988972481524
 20
-208.3903808072774
 30
0.0
 10
-192.6340643507129
 20
-236.4858235085869
 30
0.0
 10
-178.2228854263644
 20
-262.1776230898376
 30
0.0
 10
-150.4862494198438
 20
-311.6316242710504
 30
0.0
 10
-97.95715600849684
 20
-346.1611273006125
 30
0.0
 10
-42.61100801886115
 20
-356.371701299796
 30
0.0
 10
14.36708170213737
 20
-366.879931548905
 30
0.0
 10
73.06530759892112
 20
-356.0354599804356
 30
0.0
 10
121.305257131132
 20
-323.5292615293607
 30
0.0
 10
169.4955972883553
 20
-291.0561359949443
 30
0.0
 10
199.6081433962785
 20
-237.0976724667672
 30
0.0
 10
200.5617458265956
 20
-178.9659925225328
 30
0.0
 10
200.5617458265956
 20
-178.9659925225328
 30
0.0
 10
200.5286729099372
 20
-178.9990654391912
 30
0.0
 10
200.5286729099372
 20
-178.9990654391912
 30
0.0
 10
200.5286729099372
 20
-178.9990654391912
 30
0.0
 10
200.5286729099372
 20
-19.0482774474948
 30
0.0
 10
200.5286729099372
 20
-19.0482774474948
 30
0.0
 10
200.5286729099372
 20
-19.0482774474948
 30
0.0
 10
200.5341850627137
 20
-19.07032605860053
 30
0.0
 10
200.5341850627137
 20
-19.07032605860053
 30
0.0
 10
200.5617458265956
 20
-11.03756917041761
 30
0.0
 10
194.0673963273512
 20
-4.493265786637152
 30
0.0
 10
186.0292995411663
 20
-4.465705022755059
 30
0.0
 10
185.9962266245079
 20
-4.465705022755059
 30
0.0
 10
185.9631537078495
 20
-4.465705022755059
 30
0.0
 10
185.9300807911911
 20
-4.465705022755059
 30
0.0
 10
185.9300807911911
 20
-4.465705022755059
 30
0.0
 10
185.9576415550731
 20
-4.476729328307897
 30
0.0
 10
185.9576415550731
 20
-4.476729328307897
 30
0.0
 10
185.9576415550731
 20
-4.476729328307897
 30
0.0
 10
-185.9521294022967
 20
-4.476729328307897
 30
0.0
 10
-185.9521294022967
 20
-4.476729328307897
 30
0.0
 10
-185.9521294022967
 20
-4.476729328307897
 30
0.0
 10
-185.9245686384147
 20
-4.465705022755059
 30
0.0
 10
-185.9245686384147
 20
-4.465705022755059
 30
0.0
  0
SPLINE
  5
3F01
330
3EFC
100
AcDbEntity
  8
0
 62
     7
100
AcDbSpline
210
0.0
220
0.0
230
1.0
 70
    11
 71
     3
 72
    17
 73
    13
 74
     0
 42
0.000000001
 43
0.0000000001
 40
0.0
 40
0.0
 40
0.0
 40
0.0
 40
1.0
 40
1.0
 40
1.0
 40
2.0
 40
2.0
 40
2.0
 40
3.0
 40
3.0
 40
3.0
 40
4.0
 40
4.0
 40
4.0
 40
4.0
 10
-23.00083549772203
 20
-80.4881103314404
 30
0.0
 10
-23.00083549772203
 20
-67.76899005467232
 30
0.0
 10
-12.70775146166683
 20
-57.47022161106645
 30
0.0
 10
-0.0000000000000142
 20
-57.47022161106645
 30
0.0
 10
12.70775146166679
 20
-57.47022161106645
 30
0.0
 10
23.00617539572414
 20
-67.76899005467232
 30
0.0
 10
23.00617539572414
 20
-80.4881103314404
 30
0.0
 10
23.00617539572414
 20
-93.18518199710302
 30
0.0
 10
12.70775146166679
 20
-103.4949747462617
 30
0.0
 10
-0.0000000000000142
 20
-103.4949747462617
 30
0.0
 10
-12.70775146166683
 20
-103.4949747462617
 30
0.0
 10
-23.00083549772203
 20
-93.18518199710302
 30
0.0
 10
-23.00083549772203
 20
-80.4881103314404
 30
0.0
  0
SPLINE
  5
3F02
330
3EFC
100
AcDbEntity
  8
0
 62
     7
100
AcDbSpline
210
0.0
220
0.0
230
1.0
 70
    11
 71
     3
 72
    17
 73
    13
 74
     0
 42
0.000000001
 43
0.0000000001
 40
0.0
 40
0.0
 40
0.0
 40
0.0
 40
1.0
 40
1.0
 40
1.0
 40
2.0
 40
2.0
 40
2.0
 40
3.0
 40
3.0
 40
3.0
 40
4.0
 40
4.0
 40
4.0
 40
4.0
 10
-37.46179605183249
 20
-80.4881103314404
 30
0.0
 10
-37.46179605183249
 20
-59.78584254147711
 30
0.0
 10
-20.68521456731136
 20
-43.01442870018393
 30
0.0
 10
-0.0000000000000142
 20
-43.01442870018393
 30
0.0
 10
20.69072672008771
 20
-43.01442870018393
 30
0.0
 10
37.46162379705821
 20
-59.78584254147711
 30
0.0
 10
37.46162379705821
 20
-80.4881103314404
 30
0.0
 10
37.46162379705821
 20
-101.179353815851
 30
0.0
 10
20.69072672008771
 20
-117.9507676571442
 30
0.0
 10
-0.0000000000000142
 20
-117.9507676571442
 30
0.0
 10
-20.68521456731136
 20
-117.9507676571442
 30
0.0
 10
-37.46179605183249
 20
-101.179353815851
 30
0.0
 10
-37.46179605183249
 20
-80.4881103314404
 30
0.0
  0
POLYLINE
  5
3F03
330
3EFC
100
AcDbEntity
  8
0
 62
     7
100
AcDb2dPolyline
 66
     1
 10
0.0
 20
0.0
 30
0.0
  0
VERTEX
  5
3F04
330
3F03
100
AcDbEntity
  8
0
 62
     7
100
AcDbVertex
100
AcDb2dVertex
 10
-0.0000000000000142
 20
-24.28034396094381
 30
0.0
  0
VERTEX
  5
3F05
330
3F03
100
AcDbEntity
  8
0
 62
     7
100
AcDbVertex
100
AcDb2dVertex
 10
-0.0000000000000142
 20
-136.6848523963843
 30
0.0
  0
SEQEND
  5
3F06
330
3F03
100
AcDbEntity
  8
0
  0
POLYLINE
  5
3F07
330
3EFC
100
AcDbEntity
  8
0
 62
     7
100
AcDb2dPolyline
 66
     1
 10
0.0
 20
0.0
 30
0.0
  0
VERTEX
  5
3F08
330
3F07
100
AcDbEntity
  8
0
 62
     7
100
AcDbVertex
100
AcDb2dVertex
 10
-56.20087617952619
 20
-80.4881103314404
 30
0.0
  0
VERTEX
  5
3F09
330
3F07
100
AcDbEntity
  8
0
 62
     7
100
AcDbVertex
100
AcDb2dVertex
 10
56.19519177197547
 20
-80.4881103314404
 30
0.0
  0
SEQEND
  5
3F0A
330
3F07
100
AcDbEntity
  8
0
  0
SPLINE
  5
3F0B
330
3EFC
100
AcDbEntity
  8
0
 62
     7
100
AcDbSpline
210
0.0
220
0.0
230
1.0
 70
    11
 71
     3
 72
    26
 73
    22
 74
     0
 42
0.000000001
 43
0.0000000001
 40
0.0
 40
0.0
 40
0.0
 40
0.0
 40
1.0
 40
1.0
 40
1.0
 40
2.0
 40
2.0
 40
2.0
 40
3.0
 40
3.0
 40
3.0
 40
4.0
 40
4.0
 40
4.0
 40
5.0
 40
5.0
 40
5.0
 40
6.0
 40
6.0
 40
6.0
 40
7.0
 40
7.0
 40
7.0
 40
7.0
 10
-51.12332219859071
 20
-36.79000243220873
 30
0.0
 10
-52.23143716142132
 20
-36.79000243220873
 30
0.0
 10
-53.12457816597235
 20
-37.68314343675979
 30
0.0
 10
-53.12457816597235
 20
-38.79125839959039
 30
0.0
 10
-53.12457816597235
 20
-38.79125839959039
 30
0.0
 10
-53.12457816597235
 20
-80.71410859527293
 30
0.0
 10
-53.12457816597235
 20
-80.71410859527293
 30
0.0
 10
-53.12457816597235
 20
-110.0558145883714
 30
0.0
 10
-29.34084471922731
 20
-133.8454046974414
 30
0.0
 10
-0.0000000000000142
 20
-133.8454046974414
 30
0.0
 10
29.34084471922728
 20
-133.8454046974414
 30
0.0
 10
53.11889375842167
 20
-110.0558145883714
 30
0.0
 10
53.11889375842167
 20
-80.71410859527293
 30
0.0
 10
53.11889375842167
 20
-80.71410859527293
 30
0.0
 10
53.11889375842167
 20
-38.79125839959039
 30
0.0
 10
53.11889375842167
 20
-38.79125839959039
 30
0.0
 10
53.11889375842167
 20
-37.68314343675979
 30
0.0
 10
52.23126490664703
 20
-36.79000243220873
 30
0.0
 10
51.12314994381643
 20
-36.79000243220873
 30
0.0
 10
51.12314994381643
 20
-36.79000243220873
 30
0.0
 10
-51.12332219859071
 20
-36.79000243220873
 30
0.0
 10
-51.12332219859071
 20
-36.79000243220873
 30
0.0
  0
SPLINE
  5
3F0C
330
3EFC
100
AcDbEntity
  8
0
 62
     7
100
AcDbSpline
210
0.0
220
0.0
230
1.0
 70
     8
 71
     3
 72
     8
 73
     4
 74
     0
 42
0.000000001
 43
0.0000000001
 40
0.0
 40
0.0
 40
0.0
 40
0.0
 40
1.0
 40
1.0
 40
1.0
 40
1.0
 10
-51.12332219859071
 20
-36.79000243220873
 30
0.0
 10
-83.71134166744027
 20
-36.79000243220873
 30
0.0
 10
-167.9298013903093
 20
-37.18687743210955
 30
0.0
 10
-200.5178208591588
 20
-37.35241427017576
 30
0.0
  0
SPLINE
  5
3F0D
330
3EFC
100
AcDbEntity
  8
0
 62
     7
100
AcDbSpline
210
0.0
220
0.0
230
1.0
 70
     8
 71
     3
 72
     8
 73
     4
 74
     0
 42
0.000000001
 43
0.0000000001
 40
0.0
 40
0.0
 40
0.0
 40
0.0
 40
1.0
 40
1.0
 40
1.0
 40
1.0
 10
200.5286729099372
 20
-37.35241427017576
 30
0.0
 10
167.9353135430856
 20
-37.18687743210955
 30
0.0
 10
83.71134166744022
 20
-36.79551458498508
 30
0.0
 10
51.12314994381643
 20
-36.79000243220873
 30
0.0
  0
ENDBLK
  5
3F0E
330
3EFC
100
AcDbEntity
  8
0
100
AcDbBlockEnd
  0
BLOCK
  5
4270
330
426F
100
AcDbEntity
  8
0
100
AcDbBlockBegin
  2
*D6
 70
     1
 10
0.0
 20
0.0
 30
0.0
  3
*D6
  1

  0
LINE
  5
4272
330
426F
100
AcDbEntity
  8
0
 62
     0
370
    -2
100
AcDbLine
 10
2545.456436710963
 20
4096.916658052858
 30
0.0
 11
2545.456436710963
 21
4913.757445361376
 31
0.0
  0
LINE
  5
4273
330
426F
100
AcDbEntity
  8
0
 62
     0
370
    -2
100
AcDbLine
 10
13367.27787953767
 20
4359.224987268912
 30
0.0
 11
13367.27787953767
 21
4913.757445361376
 31
0.0
  0
LINE
  5
4274
330
426F
100
AcDbEntity
  8
0
 62
     0
370
    -2
100
AcDbLine
 10
2553.456436710963
 20
4913.757445361376
 30
0.0
 11
13359.27787953767
 21
4913.757445361376
 31
0.0
  0
INSERT
  5
4275
330
426F
100
AcDbEntity
  8
0
 62
     0
370
    -2
100
AcDbBlockReference
  2
_DOT
 10
2545.456436710963
 20
4913.757445361376
 30
0.0
 41
8.0
 42
8.0
 43
8.0
 50
180.0
  0
INSERT
  5
4276
330
426F
100
AcDbEntity
  8
0
 62
     0
370
    -2
100
AcDbBlockReference
  2
_DOT
 10
13367.27787953767
 20
4913.757445361376
 30
0.0
 41
8.0
 42
8.0
 43
8.0
  0
MTEXT
  5
4277
330
426F
100
AcDbEntity
  8
0
 62
     0
100
AcDbMText
 10
7956.367158124315
 20
4939.761196768153
 30
0.0
 40
20.0
 41
0.0
 46
0.0
 71
     5
 72
     1
  1
\A1;10822
  7
ＭＳ ゴシック
 73
     1
 44
1.0
  0
POINT
  5
4278
330
426F
100
AcDbEntity
  8
Defpoints
 62
     0
100
AcDbPoint
 10
2545.456436710963
 20
4091.916658052858
 30
0.0
  0
POINT
  5
4279
330
426F
100
AcDbEntity
  8
Defpoints
 62
     0
100
AcDbPoint
 10
13367.27787953767
 20
4354.224987268912
 30
0.0
  0
POINT
  5
427A
330
426F
100
AcDbEntity
  8
Defpoints
 62
     0
100
AcDbPoint
 10
13367.27787953767
 20
4913.757445361376
 30
0.0
  0
ENDBLK
  5
4271
330
426F
100
AcDbEntity
  8
0
100
AcDbBlockEnd
  0
BLOCK
  5
427F
330
427E
100
AcDbEntity
  8
0
100
AcDbBlockBegin
  2
*D7
 70
     1
 10
0.0
 20
0.0
 30
0.0
  3
*D7
  1

  0
LINE
  5
4281
330
427E
100
AcDbEntity
  8
0
 62
     0
370
    -2
100
AcDbLine
 10
4329.737011085022
 20
3286.916658051182
 30
0.0
 11
4329.737011085022
 21
3327.596645024688
 31
0.0
  0
LINE
  5
4282
330
427E
100
AcDbEntity
  8
0
 62
     0
370
    -2
100
AcDbLine
 10
4411.737011085022
 20
3286.916658051182
 30
0.0
 11
4411.737011085022
 21
3327.596645024688
 31
0.0
  0
LINE
  5
4283
330
427E
100
AcDbEntity
  8
0
 62
     0
370
    -2
100
AcDbLine
 10
4337.737011085022
 20
3327.596645024688
 30
0.0
 11
4403.737011085022
 21
3327.596645024688
 31
0.0
  0
INSERT
  5
4284
330
427E
100
AcDbEntity
  8
0
 62
     0
370
    -2
100
AcDbBlockReference
  2
_DOT
 10
4329.737011085022
 20
3327.596645024688
 30
0.0
 41
8.0
 42
8.0
 43
8.0
 50
180.0
  0
INSERT
  5
4285
330
427E
100
AcDbEntity
  8
0
 62
     0
370
    -2
100
AcDbBlockReference
  2
_DOT
 10
4411.737011085022
 20
3327.596645024688
 30
0.0
 41
8.0
 42
8.0
 43
8.0
  0
MTEXT
  5
4286
330
427E
100
AcDbEntity
  8
0
 62
     0
100
AcDbMText
 10
4370.737011085022
 20
3353.600396431466
 30
0.0
 40
20.0
 41
0.0
 46
0.0
 71
     5
 72
     1
  1
\A1;82
  7
ＭＳ ゴシック
 73
     1
 44
1.0
  0
POINT
  5
4287
330
427E
100
AcDbEntity
  8
Defpoints
 62
     0
100
AcDbPoint
 10
4329.737011085022
 20
3281.916658051182
 30
0.0
  0
POINT
  5
4288
330
427E
100
AcDbEntity
  8
Defpoints
 62
     0
100
AcDbPoint
 10
4411.737011085022
 20
3281.916658051182
 30
0.0
  0
POINT
  5
4289
330
427E
100
AcDbEntity
  8
Defpoints
 62
     0
100
AcDbPoint
 10
4411.737011085022
 20
3327.596645024688
 30
0.0
  0
ENDBLK
  5
4280
330
427E
100
AcDbEntity
  8
0
100
AcDbBlockEnd
  0
BLOCK
  5
428E
330
428D
100
AcDbEntity
  8
0
100
AcDbBlockBegin
  2
*D8
 70
     1
 10
0.0
 20
0.0
 30
0.0
  3
*D8
  1

  0
LINE
  5
4290
330
428D
100
AcDbEntity
  8
0
 62
     0
370
    -2
100
AcDbLine
 10
4329.737011085022
 20
3286.916658051182
 30
0.0
 11
4329.737011085022
 21
3307.515447657025
 31
0.0
  0
LINE
  5
4291
330
428D
100
AcDbEntity
  8
0
 62
     0
370
    -2
100
AcDbLine
 10
4411.737011085022
 20
3286.916658051182
 30
0.0
 11
4411.737011085022
 21
3307.515447657025
 31
0.0
  0
LINE
  5
4292
330
428D
100
AcDbEntity
  8
0
 62
     0
370
    -2
100
AcDbLine
 10
4337.737011085022
 20
3307.515447657025
 30
0.0
 11
4403.737011085022
 21
3307.515447657025
 31
0.0
  0
INSERT
  5
4293
330
428D
100
AcDbEntity
  8
0
 62
     0
370
    -2
100
AcDbBlockReference
  2
_DOT
 10
4329.737011085022
 20
3307.515447657025
 30
0.0
 41
8.0
 42
8.0
 43
8.0
 50
180.0
  0
INSERT
  5
4294
330
428D
100
AcDbEntity
  8
0
 62
     0
370
    -2
100
AcDbBlockReference
  2
_DOT
 10
4411.737011085022
 20
3307.515447657025
 30
0.0
 41
8.0
 42
8.0
 43
8.0
  0
MTEXT
  5
4295
330
428D
100
AcDbEntity
  8
0
 62
     0
100
AcDbMText
 10
4370.737011085022
 20
3333.519199063803
 30
0.0
 40
20.0
 41
0.0
 46
0.0
 71
     5
 72
     1
  1
\A1;82
  7
ＭＳ ゴシック
 73
     1
 44
1.0
  0
POINT
  5
4296
330
428D
100
AcDbEntity
  8
Defpoints
 62
     0
100
AcDbPoint
 10
4329.737011085022
 20
3281.916658051182
 30
0.0
  0
POINT
  5
4297
330
428D
100
AcDbEntity
  8
Defpoints
 62
     0
100
AcDbPoint
 10
4411.737011085022
 20
3281.916658051182
 30
0.0
  0
POINT
  5
4298
330
428D
100
AcDbEntity
  8
Defpoints
 62
     0
100
AcDbPoint
 10
4411.737011085022
 20
3307.515447657025
 30
0.0
  0
ENDBLK
  5
428F
330
428D
100
AcDbEntity
  8
0
100
AcDbBlockEnd
  0
BLOCK
  5
429B
330
429A
100
AcDbEntity
  8
0
100
AcDbBlockBegin
  2
*D9
 70
     1
 10
0.0
 20
0.0
 30
0.0
  3
*D9
  1

  0
LINE
  5
429D
330
429A
100
AcDbEntity
  8
0
 62
     0
370
    -2
100
AcDbLine
 10
144.3165100943875
 20
1530.735009672066
 30
0.0
 11
144.3165100943875
 21
1641.377875037652
 31
0.0
  0
LINE
  5
429E
330
429A
100
AcDbEntity
  8
0
 62
     0
370
    -2
100
AcDbLine
 10
1226.316510094387
 20
1530.735009672066
 30
0.0
 11
1226.316510094387
 21
1641.377875037652
 31
0.0
  0
LINE
  5
429F
330
429A
100
AcDbEntity
  8
0
 62
     0
370
    -2
100
AcDbLine
 10
152.3165100943875
 20
1641.377875037652
 30
0.0
 11
1218.316510094387
 21
1641.377875037652
 31
0.0
  0
INSERT
  5
42A0
330
429A
100
AcDbEntity
  8
0
 62
     0
370
    -2
100
AcDbBlockReference
  2
_DOT
 10
144.3165100943875
 20
1641.377875037652
 30
0.0
 41
8.0
 42
8.0
 43
8.0
 50
180.0
  0
INSERT
  5
42A1
330
429A
100
AcDbEntity
  8
0
 62
     0
370
    -2
100
AcDbBlockReference
  2
_DOT
 10
1226.316510094387
 20
1641.377875037652
 30
0.0
 41
8.0
 42
8.0
 43
8.0
  0
MTEXT
  5
42A2
330
429A
100
AcDbEntity
  8
0
 62
     0
100
AcDbMText
 10
685.3165100943875
 20
1667.38162644443
 30
0.0
 40
20.0
 41
0.0
 46
0.0
 71
     5
 72
     1
  1
\A1;1082
  7
ＭＳ ゴシック
 73
     1
 44
1.0
  0
POINT
  5
42A3
330
429A
100
AcDbEntity
  8
Defpoints
 62
     0
100
AcDbPoint
 10
144.3165100943875
 20
1525.735009672066
 30
0.0
  0
POINT
  5
42A4
330
429A
100
AcDbEntity
  8
Defpoints
 62
     0
100
AcDbPoint
 10
1226.316510094387
 20
1525.735009672066
 30
0.0
  0
POINT
  5
42A5
330
429A
100
AcDbEntity
  8
Defpoints
 62
     0
100
AcDbPoint
 10
1226.316510094387
 20
1641.377875037652
 30
0.0
  0
ENDBLK
  5
429C
330
429A
100
AcDbEntity
  8
0
100
AcDbBlockEnd
  0
BLOCK
  5
42AA
330
42A9
100
AcDbEntity
  8
0
100
AcDbBlockBegin
  2
*D10
 70
     1
 10
0.0
 20
0.0
 30
0.0
  3
*D10
  1

  0
LINE
  5
42AC
330
42A9
100
AcDbEntity
  8
0
 62
     0
370
    -2
100
AcDbLine
 10
185.3165100944811
 20
1530.735009672066
 30
0.0
 11
185.3165100944811
 21
1581.184204049239
 31
0.0
  0
LINE
  5
42AD
330
42A9
100
AcDbEntity
  8
0
 62
     0
370
    -2
100
AcDbLine
 10
1185.316510094294
 20
1530.735009672066
 30
0.0
 11
1185.316510094294
 21
1581.184204049239
 31
0.0
  0
LINE
  5
42AE
330
42A9
100
AcDbEntity
  8
0
 62
     0
370
    -2
100
AcDbLine
 10
193.3165100944811
 20
1581.184204049239
 30
0.0
 11
1177.316510094294
 21
1581.184204049239
 31
0.0
  0
INSERT
  5
42AF
330
42A9
100
AcDbEntity
  8
0
 62
     0
370
    -2
100
AcDbBlockReference
  2
_DOT
 10
185.3165100944811
 20
1581.184204049239
 30
0.0
 41
8.0
 42
8.0
 43
8.0
 50
180.0
  0
INSERT
  5
42B0
330
42A9
100
AcDbEntity
  8
0
 62
     0
370
    -2
100
AcDbBlockReference
  2
_DOT
 10
1185.316510094294
 20
1581.184204049239
 30
0.0
 41
8.0
 42
8.0
 43
8.0
  0
MTEXT
  5
42B1
330
42A9
100
AcDbEntity
  8
0
 62
     0
100
AcDbMText
 10
685.3165100943875
 20
1607.187955456016
 30
0.0
 40
20.0
 41
0.0
 46
0.0
 71
     5
 72
     1
  1
\A1;1000
  7
ＭＳ ゴシック
 73
     1
 44
1.0
  0
POINT
  5
42B2
330
42A9
100
AcDbEntity
  8
Defpoints
 62
     0
100
AcDbPoint
 10
185.3165100944811
 20
1525.735009672066
 30
0.0
  0
POINT
  5
42B3
330
42A9
100
AcDbEntity
  8
Defpoints
 62
     0
100
AcDbPoint
 10
1185.316510094294
 20
1525.735009672066
 30
0.0
  0
POINT
  5
42B4
330
42A9
100
AcDbEntity
  8
Defpoints
 62
     0
100
AcDbPoint
 10
1185.316510094294
 20
1581.184204049239
 30
0.0
  0
ENDBLK
  5
42AB
330
42A9
100
AcDbEntity
  8
0
100
AcDbBlockEnd
  0
BLOCK
  5
42D6
330
42D5
100
AcDbEntity
  8
0
100
AcDbBlockBegin
  2
_None
 70
     0
 10
0.0
 20
0.0
 30
0.0
  3
_None
  1

  0
ENDBLK
  5
42D7
330
42D5
100
AcDbEntity
  8
0
100
AcDbBlockEnd
  0
BLOCK
  5
42DB
330
42DA
100
AcDbEntity
  8
0
  6
ByBlock
 62
     0
370
    -2
390
1D
100
AcDbBlockBegin
  2
VW_FILLEDARROW
 70
     0
 10
0.0
 20
0.0
 30
0.0
  3
VW_FILLEDARROW
  1
VW_FILLEDARROW
  0
SOLID
  5
42DC
330
42DA
100
AcDbEntity
  8
0
 62
     0
370
    -2
390
1D
100
AcDbTrace
 10
0.0
 20
0.0
 30
0.0
 11
-0.9999389648437499
 21
-0.2679328381102956
 31
0.0
 12
-0.9999389648437499
 22
0.2679328381102958
 32
0.0
 13
-0.9999389648437499
 23
0.2679328381102958
 33
0.0
  0
ENDBLK
  5
42DD
330
42DA
100
AcDbEntity
  8
0
390
1D
100
AcDbBlockEnd
  0
BLOCK
  5
4332
330
4331
100
AcDbEntity
  8
0
100
AcDbBlockBegin
  2
*D13
 70
     1
 10
0.0
 20
0.0
 30
0.0
  3
*D13
  1

  0
LINE
  5
4333
330
4331
100
AcDbEntity
  8
DIM
 62
     0
370
    -2
100
AcDbLine
 10
408.8492926397859
 20
2137.423719608204
 30
0.0
 11
408.8492926397859
 21
2377.731815639259
 31
0.0
  0
LINE
  5
4334
330
4331
100
AcDbEntity
  8
DIM
 62
     0
370
    -2
100
AcDbLine
 10
808.8492926397861
 20
2137.423719608204
 30
0.0
 11
808.8492926397861
 21
2377.731815639259
 31
0.0
  0
LINE
  5
4335
330
4331
100
AcDbEntity
  8
DIM
 62
     0
370
    -2
100
AcDbLine
 10
418.8492926397859
 20
2377.731815639259
 30
0.0
 11
798.8492926397861
 21
2377.731815639259
 31
0.0
  0
INSERT
  5
4336
330
4331
100
AcDbEntity
  8
DIM
 62
     0
370
    -2
100
AcDbBlockReference
  2
_DOT
 10
408.8492926397859
 20
2377.731815639259
 30
0.0
 41
10.0
 42
10.0
 43
10.0
 50
180.0
  0
INSERT
  5
4337
330
4331
100
AcDbEntity
  8
DIM
 62
     0
370
    -2
100
AcDbBlockReference
  2
_DOT
 10
808.8492926397861
 20
2377.731815639259
 30
0.0
 41
10.0
 42
10.0
 43
10.0
  0
MTEXT
  5
4338
330
4331
100
AcDbEntity
  8
DIM
 62
     0
100
AcDbMText
 10
608.849292639786
 20
2409.731815639259
 30
0.0
 40
24.0
 41
0.0
 46
0.0
 71
     5
 72
     1
  1
\A1;400
  7
ＭＳ ゴシック
 73
     1
 44
1.0
  0
POINT
  5
4339
330
4331
100
AcDbEntity
  8
Defpoints
 62
     0
100
AcDbPoint
 10
408.8492926397859
 20
2107.423719608204
 30
0.0
  0
POINT
  5
433A
330
4331
100
AcDbEntity
  8
Defpoints
 62
     0
100
AcDbPoint
 10
808.8492926397861
 20
2107.423719608204
 30
0.0
  0
POINT
  5
433B
330
4331
100
AcDbEntity
  8
Defpoints
 62
     0
100
AcDbPoint
 10
808.8492926397861
 20
2377.731815639259
 30
0.0
  0
ENDBLK
  5
433C
330
4331
100
AcDbEntity
  8
0
100
AcDbBlockEnd
  0
BLOCK
  5
433F
330
433E
100
AcDbEntity
  8
0
100
AcDbBlockBegin
  2
*D14
 70
     1
 10
0.0
 20
0.0
 30
0.0
  3
*D14
  1

  0
LINE
  5
4340
330
433E
100
AcDbEntity
  8
DIM
 62
     0
370
    -2
100
AcDbLine
 10
414.8492926397863
 20
2010.41001774679
 30
0.0
 11
414.8492926397863
 21
1765.709029049573
 31
0.0
  0
LINE
  5
4341
330
433E
100
AcDbEntity
  8
DIM
 62
     0
370
    -2
100
AcDbLine
 10
802.8492926397861
 20
2010.41001774679
 30
0.0
 11
802.8492926397861
 21
1765.709029049573
 31
0.0
  0
LINE
  5
4342
330
433E
100
AcDbEntity
  8
DIM
 62
     0
370
    -2
100
AcDbLine
 10
424.8492926397863
 20
1765.709029049573
 30
0.0
 11
792.8492926397861
 21
1765.709029049573
 31
0.0
  0
INSERT
  5
4343
330
433E
100
AcDbEntity
  8
DIM
 62
     0
370
    -2
100
AcDbBlockReference
  2
_DOT
 10
414.8492926397863
 20
1765.709029049573
 30
0.0
 41
10.0
 42
10.0
 43
10.0
 50
180.0
  0
INSERT
  5
4344
330
433E
100
AcDbEntity
  8
DIM
 62
     0
370
    -2
100
AcDbBlockReference
  2
_DOT
 10
802.8492926397861
 20
1765.709029049573
 30
0.0
 41
10.0
 42
10.0
 43
10.0
  0
MTEXT
  5
4345
330
433E
100
AcDbEntity
  8
DIM
 62
     0
100
AcDbMText
 10
608.8492926397862
 20
1797.713530737706
 30
0.0
 40
24.0
 41
0.0
 46
0.0
 71
     5
 72
     1
  1
\A1;388
  7
ＭＳ ゴシック
 73
     1
 44
1.0
  0
POINT
  5
4346
330
433E
100
AcDbEntity
  8
Defpoints
 62
     0
100
AcDbPoint
 10
414.8492926397863
 20
2040.41001774679
 30
0.0
  0
POINT
  5
4347
330
433E
100
AcDbEntity
  8
Defpoints
 62
     0
100
AcDbPoint
 10
802.8492926397861
 20
2040.41001774679
 30
0.0
  0
POINT
  5
4348
330
433E
100
AcDbEntity
  8
Defpoints
 62
     0
100
AcDbPoint
 10
802.8492926397861
 20
1765.709029049573
 30
0.0
  0
ENDBLK
  5
4349
330
433E
100
AcDbEntity
  8
0
100
AcDbBlockEnd
  0
BLOCK
  5
434D
330
434C
100
AcDbEntity
  8
0
100
AcDbBlockBegin
  2
*D15
 70
     1
 10
0.0
 20
0.0
 30
0.0
  3
*D15
  1

  0
LINE
  5
434E
330
434C
100
AcDbEntity
  8
DIM
 62
     0
370
    -2
100
AcDbLine
 10
574.2319605092689
 20
863.4236438260428
 30
0.0
 11
574.2319605092689
 21
709.6395439750593
 31
0.0
  0
LINE
  5
434F
330
434C
100
AcDbEntity
  8
DIM
 62
     0
370
    -2
100
AcDbLine
 10
674.2319605092689
 20
863.4236438260428
 30
0.0
 11
674.2319605092689
 21
709.6395439750593
 31
0.0
  0
LINE
  5
4350
330
434C
100
AcDbEntity
  8
DIM
 62
     0
370
    -2
100
AcDbLine
 10
584.2319605092689
 20
709.6395439750593
 30
0.0
 11
664.2319605092689
 21
709.6395439750593
 31
0.0
  0
INSERT
  5
4351
330
434C
100
AcDbEntity
  8
DIM
 62
     0
370
    -2
100
AcDbBlockReference
  2
_DOT
 10
574.2319605092689
 20
709.6395439750593
 30
0.0
 41
10.0
 42
10.0
 43
10.0
 50
180.0
  0
INSERT
  5
4352
330
434C
100
AcDbEntity
  8
DIM
 62
     0
370
    -2
100
AcDbBlockReference
  2
_DOT
 10
674.2319605092689
 20
709.6395439750593
 30
0.0
 41
10.0
 42
10.0
 43
10.0
  0
MTEXT
  5
4353
330
434C
100
AcDbEntity
  8
DIM
 62
     0
100
AcDbMText
 10
624.2319605092689
 20
741.6440456631923
 30
0.0
 40
24.0
 41
0.0
 46
0.0
 71
     5
 72
     1
  1
\A1;100
  7
ＭＳ ゴシック
 73
     1
 44
1.0
  0
POINT
  5
4354
330
434C
100
AcDbEntity
  8
Defpoints
 62
     0
100
AcDbPoint
 10
574.2319605092689
 20
893.4236438260428
 30
0.0
  0
POINT
  5
4355
330
434C
100
AcDbEntity
  8
Defpoints
 62
     0
100
AcDbPoint
 10
674.2319605092689
 20
893.4236438260428
 30
0.0
  0
POINT
  5
4356
330
434C
100
AcDbEntity
  8
Defpoints
 62
     0
100
AcDbPoint
 10
674.2319605092689
 20
709.6395439750593
 30
0.0
  0
ENDBLK
  5
4357
330
434C
100
AcDbEntity
  8
0
100
AcDbBlockEnd
  0
BLOCK
  5
435C
330
435B
100
AcDbEntity
  8
0
100
AcDbBlockBegin
  2
*D16
 70
     1
 10
0.0
 20
0.0
 30
0.0
  3
*D16
  1

  0
LINE
  5
435D
330
435B
100
AcDbEntity
  8
DIM
 62
     0
370
    -2
100
AcDbLine
 10
1500.26913432836
 20
893.4236438260436
 30
0.0
 11
1718.354221388753
 21
893.4236438260436
 31
0.0
  0
LINE
  5
435E
330
435B
100
AcDbEntity
  8
DIM
 62
     0
370
    -2
100
AcDbLine
 10
1650.26913432836
 20
1093.423643826044
 30
0.0
 11
1718.354221388753
 21
1093.423643826044
 31
0.0
  0
LINE
  5
435F
330
435B
100
AcDbEntity
  8
DIM
 62
     0
370
    -2
100
AcDbLine
 10
1718.354221388753
 20
903.4236438260436
 30
0.0
 11
1718.354221388753
 21
1083.423643826044
 31
0.0
  0
INSERT
  5
4360
330
435B
100
AcDbEntity
  8
DIM
 62
     0
370
    -2
100
AcDbBlockReference
  2
_DOT
 10
1718.354221388753
 20
893.4236438260436
 30
0.0
 41
10.0
 42
10.0
 43
10.0
 50
270.0
  0
INSERT
  5
4361
330
435B
100
AcDbEntity
  8
DIM
 62
     0
370
    -2
100
AcDbBlockReference
  2
_DOT
 10
1718.354221388753
 20
1093.423643826044
 30
0.0
 41
10.0
 42
10.0
 43
10.0
 50
90.0
  0
MTEXT
  5
4362
330
435B
100
AcDbEntity
  8
DIM
 62
     0
100
AcDbMText
 10
1686.34971970062
 20
993.4236438260436
 30
0.0
 40
24.0
 41
0.0
 46
0.0
 71
     5
 72
     1
  1
\A1;200
  7
ＭＳ ゴシック
 11
0.0
 21
1.0
 31
0.0
 73
     1
 44
1.0
  0
POINT
  5
4363
330
435B
100
AcDbEntity
  8
Defpoints
 62
     0
100
AcDbPoint
 10
1470.26913432836
 20
893.4236438260436
 30
0.0
  0
POINT
  5
4364
330
435B
100
AcDbEntity
  8
Defpoints
 62
     0
100
AcDbPoint
 10
1620.26913432836
 20
1093.423643826044
 30
0.0
  0
POINT
  5
4365
330
435B
100
AcDbEntity
  8
Defpoints
 62
     0
100
AcDbPoint
 10
1718.354221388753
 20
1093.423643826044
 30
0.0
  0
ENDBLK
  5
4366
330
435B
100
AcDbEntity
  8
0
100
AcDbBlockEnd
  0
BLOCK
  5
436B
330
436A
100
AcDbEntity
  8
0
100
AcDbBlockBegin
  2
*D17
 70
     1
 10
0.0
 20
0.0
 30
0.0
  3
*D17
  1

  0
LINE
  5
436C
330
436A
100
AcDbEntity
  8
DIM
 62
     0
370
    -2
100
AcDbLine
 10
1420.269134328358
 20
741.912684452371
 30
0.0
 11
1420.269134328358
 21
709.6395439750594
 31
0.0
  0
LINE
  5
436D
330
436A
100
AcDbEntity
  8
DIM
 62
     0
370
    -2
100
AcDbLine
 10
1620.26913432836
 20
1063.423643826044
 30
0.0
 11
1620.26913432836
 21
709.6395439750594
 31
0.0
  0
LINE
  5
436E
330
436A
100
AcDbEntity
  8
DIM
 62
     0
370
    -2
100
AcDbLine
 10
1430.269134328358
 20
709.6395439750594
 30
0.0
 11
1610.26913432836
 21
709.6395439750594
 31
0.0
  0
INSERT
  5
436F
330
436A
100
AcDbEntity
  8
DIM
 62
     0
370
    -2
100
AcDbBlockReference
  2
_DOT
 10
1420.269134328358
 20
709.6395439750594
 30
0.0
 41
10.0
 42
10.0
 43
10.0
 50
180.0
  0
INSERT
  5
4370
330
436A
100
AcDbEntity
  8
DIM
 62
     0
370
    -2
100
AcDbBlockReference
  2
_DOT
 10
1620.26913432836
 20
709.6395439750594
 30
0.0
 41
10.0
 42
10.0
 43
10.0
  0
MTEXT
  5
4371
330
436A
100
AcDbEntity
  8
DIM
 62
     0
100
AcDbMText
 10
1520.269134328359
 20
741.6440456631924
 30
0.0
 40
24.0
 41
0.0
 46
0.0
 71
     5
 72
     1
  1
\A1;200
  7
ＭＳ ゴシック
 73
     1
 44
1.0
  0
POINT
  5
4372
330
436A
100
AcDbEntity
  8
Defpoints
 62
     0
100
AcDbPoint
 10
1420.269134328358
 20
771.912684452371
 30
0.0
  0
POINT
  5
4373
330
436A
100
AcDbEntity
  8
Defpoints
 62
     0
100
AcDbPoint
 10
1620.26913432836
 20
1093.423643826044
 30
0.0
  0
POINT
  5
4374
330
436A
100
AcDbEntity
  8
Defpoints
 62
     0
100
AcDbPoint
 10
1620.26913432836
 20
709.6395439750594
 30
0.0
  0
ENDBLK
  5
4375
330
436A
100
AcDbEntity
  8
0
100
AcDbBlockEnd
  0
BLOCK
  5
437A
330
4379
100
AcDbEntity
  8
0
100
AcDbBlockBegin
  2
*D18
 70
     1
 10
0.0
 20
0.0
 30
0.0
  3
*D18
  1

  0
LINE
  5
437B
330
4379
100
AcDbEntity
  8
DIM
 62
     0
370
    -2
100
AcDbLine
 10
1423.749244307917
 20
1093.423643826043
 30
0.0
 11
1423.749244307917
 21
1283.504424118652
 31
0.0
  0
LINE
  5
437C
330
4379
100
AcDbEntity
  8
DIM
 62
     0
370
    -2
100
AcDbLine
 10
1423.749244307917
 20
1083.423643826043
 30
0.0
 11
1423.749244307917
 21
993.4236374097978
 31
0.0
  0
LINE
  5
437D
330
4379
100
AcDbEntity
  8
DIM
 62
     0
370
    -2
100
AcDbLine
 10
1423.749244307917
 20
1083.423643826043
 30
0.0
 11
1423.749244307917
 21
1073.423643826043
 31
0.0
  0
INSERT
  5
437E
330
4379
100
AcDbEntity
  8
DIM
 62
     0
370
    -2
100
AcDbBlockReference
  2
_DOT
 10
1423.749244307917
 20
1093.423643826043
 30
0.0
 41
10.0
 42
10.0
 43
10.0
 50
90.0
  0
INSERT
  5
437F
330
4379
100
AcDbEntity
  8
DIM
 62
     0
370
    -2
100
AcDbBlockReference
  2
_DOT
 10
1423.749244307917
 20
983.4236374097978
 30
0.0
 41
10.0
 42
10.0
 43
10.0
 50
270.0
  0
MTEXT
  5
4380
330
4379
100
AcDbEntity
  8
DIM
 62
     0
100
AcDbMText
 10
1389.739990837866
 20
1198.464033972348
 30
0.0
 40
24.0
 41
0.0
 46
0.0
 71
     5
 72
     1
  1
\A1;110(深さ)
  7
ＭＳ ゴシック
 11
0.0
 21
1.0
 31
0.0
 73
     1
 44
1.0
  0
POINT
  5
4381
330
4379
100
AcDbEntity
  8
Defpoints
 62
     0
100
AcDbPoint
 10
1423.749244307917
 20
1093.423643826043
 30
0.0
  0
POINT
  5
4382
330
4379
100
AcDbEntity
  8
Defpoints
 62
     0
100
AcDbPoint
 10
1423.798015842832
 20
983.4236374097978
 30
0.0
  0
POINT
  5
4383
330
4379
100
AcDbEntity
  8
Defpoints
 62
     0
100
AcDbPoint
 10
1423.749244307917
 20
983.4236374097978
 30
0.0
  0
ENDBLK
  5
4384
330
4379
100
AcDbEntity
  8
0
100
AcDbBlockEnd
  0
BLOCK
  5
43CB
330
43CA
100
AcDbEntity
  8
0
100
AcDbBlockBegin
  2
*D19
 70
     1
 10
0.0
 20
0.0
 30
0.0
  3
*D19
  1

  0
LINE
  5
43CC
330
43CA
100
AcDbEntity
  8
DIM
 62
     0
370
    -2
100
AcDbLine
 10
1190.26913432836
 20
1093.423643826044
 30
0.0
 11
1006.198292807846
 21
1093.423643826044
 31
0.0
  0
LINE
  5
43CD
330
43CA
100
AcDbEntity
  8
DIM
 62
     0
370
    -2
100
AcDbLine
 10
1370.269134328359
 20
808.1725857632316
 30
0.0
 11
1006.198292807846
 21
808.1725857632316
 31
0.0
  0
LINE
  5
43CE
330
43CA
100
AcDbEntity
  8
DIM
 62
     0
370
    -2
100
AcDbLine
 10
1006.198292807846
 20
1083.423643826044
 30
0.0
 11
1006.198292807846
 21
818.1725857632316
 31
0.0
  0
INSERT
  5
43CF
330
43CA
100
AcDbEntity
  8
DIM
 62
     0
370
    -2
100
AcDbBlockReference
  2
_DOT
 10
1006.198292807846
 20
1093.423643826044
 30
0.0
 41
10.0
 42
10.0
 43
10.0
 50
90.0
  0
INSERT
  5
43D0
330
43CA
100
AcDbEntity
  8
DIM
 62
     0
370
    -2
100
AcDbBlockReference
  2
_DOT
 10
1006.198292807846
 20
808.1725857632316
 30
0.0
 41
10.0
 42
10.0
 43
10.0
 50
270.0
  0
MTEXT
  5
43D1
330
43CA
100
AcDbEntity
  8
DIM
 62
     0
100
AcDbMText
 10
974.1937911197131
 20
950.7981147946379
 30
0.0
 40
24.0
 41
0.0
 46
0.0
 71
     5
 72
     1
  1
\A1;285
  7
ＭＳ ゴシック
 11
0.0
 21
1.0
 31
0.0
 73
     1
 44
1.0
  0
POINT
  5
43D2
330
43CA
100
AcDbEntity
  8
Defpoints
 62
     0
100
AcDbPoint
 10
1220.26913432836
 20
1093.423643826044
 30
0.0
  0
POINT
  5
43D3
330
43CA
100
AcDbEntity
  8
Defpoints
 62
     0
100
AcDbPoint
 10
1400.269134328359
 20
808.1725857632316
 30
0.0
  0
POINT
  5
43D4
330
43CA
100
AcDbEntity
  8
Defpoints
 62
     0
100
AcDbPoint
 10
1006.198292807846
 20
808.1725857632316
 30
0.0
  0
ENDBLK
  5
43D5
330
43CA
100
AcDbEntity
  8
0
100
AcDbBlockEnd
  0
BLOCK
  5
43DC
330
43DB
100
AcDbEntity
  8
0
100
AcDbBlockBegin
  2
*D20
 70
     1
 10
0.0
 20
0.0
 30
0.0
  3
*D20
  1

  0
LINE
  5
43DD
330
43DB
100
AcDbEntity
  8
DIM
 62
     0
370
    -2
100
AcDbLine
 10
1154.056194436745
 20
851.6905896263017
 30
0.0
 11
1114.108047238607
 21
851.6905896263017
 31
0.0
  0
LINE
  5
43DE
330
43DB
100
AcDbEntity
  8
DIM
 62
     0
370
    -2
100
AcDbLine
 10
1154.056194436745
 20
893.4236438260436
 30
0.0
 11
1114.108047238607
 21
893.4236438260436
 31
0.0
  0
LINE
  5
43DF
330
43DB
100
AcDbEntity
  8
DIM
 62
     0
370
    -2
100
AcDbLine
 10
1114.108047238607
 20
861.6905896263017
 30
0.0
 11
1114.108047238607
 21
883.4236438260436
 31
0.0
  0
INSERT
  5
43E0
330
43DB
100
AcDbEntity
  8
DIM
 62
     0
370
    -2
100
AcDbBlockReference
  2
_DOT
 10
1114.108047238607
 20
851.6905896263017
 30
0.0
 41
10.0
 42
10.0
 43
10.0
 50
270.0
  0
INSERT
  5
43E1
330
43DB
100
AcDbEntity
  8
DIM
 62
     0
370
    -2
100
AcDbBlockReference
  2
_DOT
 10
1114.108047238607
 20
893.4236438260436
 30
0.0
 41
10.0
 42
10.0
 43
10.0
 50
90.0
  0
MTEXT
  5
43E2
330
43DB
100
AcDbEntity
  8
DIM
 62
     0
100
AcDbMText
 10
1082.108047238607
 20
872.5571167261727
 30
0.0
 40
24.0
 41
0.0
 46
0.0
 71
     5
 72
     1
  1
\A1;　
  7
ＭＳ ゴシック
 11
0.0
 21
1.0
 31
0.0
 73
     1
 44
1.0
  0
POINT
  5
43E3
330
43DB
100
AcDbEntity
  8
Defpoints
 62
     0
100
AcDbPoint
 10
1184.056194436745
 20
851.6905896263017
 30
0.0
  0
POINT
  5
43E4
330
43DB
100
AcDbEntity
  8
Defpoints
 62
     0
100
AcDbPoint
 10
1184.056194436745
 20
893.4236438260436
 30
0.0
  0
POINT
  5
43E5
330
43DB
100
AcDbEntity
  8
Defpoints
 62
     0
100
AcDbPoint
 10
1114.108047238607
 20
893.4236438260436
 30
0.0
  0
ENDBLK
  5
43E6
330
43DB
100
AcDbEntity
  8
0
100
AcDbBlockEnd
  0
BLOCK
  5
451D
330
451C
100
AcDbEntity
  8
0
100
AcDbBlockBegin
  2
*D21
 70
     1
 10
0.0
 20
0.0
 30
0.0
  3
*D21
  1

  0
LINE
  5
451F
330
451C
100
AcDbEntity
  8
DIM
 62
     0
370
    -2
100
AcDbLine
 10
194.3304168876267
 20
1752.183509582138
 30
0.0
 11
194.3304168876267
 21
2017.491605613193
 31
0.0
  0
LINE
  5
4520
330
451C
100
AcDbEntity
  8
DIM
 62
     0
370
    -2
100
AcDbLine
 10
594.3304168876272
 20
1752.183509582138
 30
0.0
 11
594.3304168876272
 21
2017.491605613193
 31
0.0
  0
LINE
  5
4521
330
451C
100
AcDbEntity
  8
DIM
 62
     0
370
    -2
100
AcDbLine
 10
202.3304168876267
 20
2017.491605613193
 30
0.0
 11
586.3304168876272
 21
2017.491605613193
 31
0.0
  0
INSERT
  5
4522
330
451C
100
AcDbEntity
  8
DIM
 62
     0
370
    -2
100
AcDbBlockReference
  2
_DOT
 10
194.3304168876267
 20
2017.491605613193
 30
0.0
 41
8.0
 42
8.0
 43
8.0
 50
180.0
  0
INSERT
  5
4523
330
451C
100
AcDbEntity
  8
DIM
 62
     0
370
    -2
100
AcDbBlockReference
  2
_DOT
 10
594.3304168876272
 20
2017.491605613193
 30
0.0
 41
8.0
 42
8.0
 43
8.0
  0
MTEXT
  5
4524
330
451C
100
AcDbEntity
  8
DIM
 62
     0
100
AcDbMText
 10
394.3304168876269
 20
2043.491605613193
 30
0.0
 40
20.0
 41
0.0
 46
0.0
 71
     5
 72
     1
  1
\A1;400
  7
ＭＳ ゴシック
 73
     1
 44
1.0
  0
POINT
  5
4525
330
451C
100
AcDbEntity
  8
Defpoints
 62
     0
100
AcDbPoint
 10
194.3304168876267
 20
1747.183509582138
 30
0.0
  0
POINT
  5
4526
330
451C
100
AcDbEntity
  8
Defpoints
 62
     0
100
AcDbPoint
 10
594.3304168876272
 20
1747.183509582138
 30
0.0
  0
POINT
  5
4527
330
451C
100
AcDbEntity
  8
Defpoints
 62
     0
100
AcDbPoint
 10
594.3304168876272
 20
2017.491605613193
 30
0.0
  0
ENDBLK
  5
451E
330
451C
100
AcDbEntity
  8
0
100
AcDbBlockEnd
  0
BLOCK
  5
4529
330
4528
100
AcDbEntity
  8
0
100
AcDbBlockBegin
  2
*D22
 70
     1
 10
0.0
 20
0.0
 30
0.0
  3
*D22
  1

  0
LINE
  5
452B
330
4528
100
AcDbEntity
  8
DIM
 62
     0
370
    -2
100
AcDbLine
 10
200.3304168876272
 20
1675.169807720724
 30
0.0
 11
200.3304168876272
 21
1405.468819023507
 31
0.0
  0
LINE
  5
452C
330
4528
100
AcDbEntity
  8
DIM
 62
     0
370
    -2
100
AcDbLine
 10
588.3304168876272
 20
1675.169807720724
 30
0.0
 11
588.3304168876272
 21
1405.468819023507
 31
0.0
  0
LINE
  5
452D
330
4528
100
AcDbEntity
  8
DIM
 62
     0
370
    -2
100
AcDbLine
 10
208.3304168876272
 20
1405.468819023507
 30
0.0
 11
580.3304168876272
 21
1405.468819023507
 31
0.0
  0
INSERT
  5
452E
330
4528
100
AcDbEntity
  8
DIM
 62
     0
370
    -2
100
AcDbBlockReference
  2
_DOT
 10
200.3304168876272
 20
1405.468819023507
 30
0.0
 41
8.0
 42
8.0
 43
8.0
 50
180.0
  0
INSERT
  5
452F
330
4528
100
AcDbEntity
  8
DIM
 62
     0
370
    -2
100
AcDbBlockReference
  2
_DOT
 10
588.3304168876272
 20
1405.468819023507
 30
0.0
 41
8.0
 42
8.0
 43
8.0
  0
MTEXT
  5
4530
330
4528
100
AcDbEntity
  8
DIM
 62
     0
100
AcDbMText
 10
394.3304168876272
 20
1431.472570430285
 30
0.0
 40
20.0
 41
0.0
 46
0.0
 71
     5
 72
     1
  1
\A1;388
  7
ＭＳ ゴシック
 73
     1
 44
1.0
  0
POINT
  5
4531
330
4528
100
AcDbEntity
  8
Defpoints
 62
     0
100
AcDbPoint
 10
200.3304168876272
 20
1680.169807720724
 30
0.0
  0
POINT
  5
4532
330
4528
100
AcDbEntity
  8
Defpoints
 62
     0
100
AcDbPoint
 10
588.3304168876272
 20
1680.169807720724
 30
0.0
  0
POINT
  5
4533
330
4528
100
AcDbEntity
  8
Defpoints
 62
     0
100
AcDbPoint
 10
588.3304168876272
 20
1405.468819023507
 30
0.0
  0
ENDBLK
  5
452A
330
4528
100
AcDbEntity
  8
0
100
AcDbBlockEnd
  0
BLOCK
  5
4535
330
4534
100
AcDbEntity
  8
0
100
AcDbBlockBegin
  2
*D23
 70
     1
 10
0.0
 20
0.0
 30
0.0
  3
*D23
  1

  0
LINE
  5
4537
330
4534
100
AcDbEntity
  8
DIM
 62
     0
370
    -2
100
AcDbLine
 10
362.5492386258416
 20
816.0412263316713
 30
0.0
 11
362.5492386258416
 21
637.2571264806877
 31
0.0
  0
LINE
  5
4538
330
4534
100
AcDbEntity
  8
DIM
 62
     0
370
    -2
100
AcDbLine
 10
462.5492386258416
 20
816.0412263316713
 30
0.0
 11
462.5492386258416
 21
637.2571264806877
 31
0.0
  0
LINE
  5
4539
330
4534
100
AcDbEntity
  8
DIM
 62
     0
370
    -2
100
AcDbLine
 10
370.5492386258416
 20
637.2571264806877
 30
0.0
 11
454.5492386258416
 21
637.2571264806877
 31
0.0
  0
INSERT
  5
453A
330
4534
100
AcDbEntity
  8
DIM
 62
     0
370
    -2
100
AcDbBlockReference
  2
_DOT
 10
362.5492386258416
 20
637.2571264806877
 30
0.0
 41
8.0
 42
8.0
 43
8.0
 50
180.0
  0
INSERT
  5
453B
330
4534
100
AcDbEntity
  8
DIM
 62
     0
370
    -2
100
AcDbBlockReference
  2
_DOT
 10
462.5492386258416
 20
637.2571264806877
 30
0.0
 41
8.0
 42
8.0
 43
8.0
  0
MTEXT
  5
453C
330
4534
100
AcDbEntity
  8
DIM
 62
     0
100
AcDbMText
 10
412.5492386258416
 20
663.2608778874652
 30
0.0
 40
20.0
 41
0.0
 46
0.0
 71
     5
 72
     1
  1
\A1;100
  7
ＭＳ ゴシック
 73
     1
 44
1.0
  0
POINT
  5
453D
330
4534
100
AcDbEntity
  8
Defpoints
 62
     0
100
AcDbPoint
 10
362.5492386258416
 20
821.0412263316713
 30
0.0
  0
POINT
  5
453E
330
4534
100
AcDbEntity
  8
Defpoints
 62
     0
100
AcDbPoint
 10
462.5492386258416
 20
821.0412263316713
 30
0.0
  0
POINT
  5
453F
330
4534
100
AcDbEntity
  8
Defpoints
 62
     0
100
AcDbPoint
 10
462.5492386258416
 20
637.2571264806877
 30
0.0
  0
ENDBLK
  5
4536
330
4534
100
AcDbEntity
  8
0
100
AcDbBlockEnd
  0
BLOCK
  5
4541
330
4540
100
AcDbEntity
  8
0
100
AcDbBlockBegin
  2
*D24
 70
     1
 10
0.0
 20
0.0
 30
0.0
  3
*D24
  1

  0
LINE
  5
4543
330
4540
100
AcDbEntity
  8
DIM
 62
     0
370
    -2
100
AcDbLine
 10
1263.586412444933
 20
821.0412263316721
 30
0.0
 11
1506.671499505326
 21
821.0412263316721
 31
0.0
  0
LINE
  5
4544
330
4540
100
AcDbEntity
  8
DIM
 62
     0
370
    -2
100
AcDbLine
 10
1413.586412444933
 20
1021.041226331673
 30
0.0
 11
1506.671499505326
 21
1021.041226331673
 31
0.0
  0
LINE
  5
4545
330
4540
100
AcDbEntity
  8
DIM
 62
     0
370
    -2
100
AcDbLine
 10
1506.671499505326
 20
829.0412263316721
 30
0.0
 11
1506.671499505326
 21
1013.041226331673
 31
0.0
  0
INSERT
  5
4546
330
4540
100
AcDbEntity
  8
DIM
 62
     0
370
    -2
100
AcDbBlockReference
  2
_DOT
 10
1506.671499505326
 20
821.0412263316721
 30
0.0
 41
8.0
 42
8.0
 43
8.0
 50
270.0
  0
INSERT
  5
4547
330
4540
100
AcDbEntity
  8
DIM
 62
     0
370
    -2
100
AcDbBlockReference
  2
_DOT
 10
1506.671499505326
 20
1021.041226331673
 30
0.0
 41
8.0
 42
8.0
 43
8.0
 50
90.0
  0
MTEXT
  5
4548
330
4540
100
AcDbEntity
  8
DIM
 62
     0
100
AcDbMText
 10
1480.667748098548
 20
921.0412263316723
 30
0.0
 40
20.0
 41
0.0
 46
0.0
 71
     5
 72
     1
  1
\A1;200
  7
ＭＳ ゴシック
 11
0.0
 21
1.0
 31
0.0
 73
     1
 44
1.0
  0
POINT
  5
4549
330
4540
100
AcDbEntity
  8
Defpoints
 62
     0
100
AcDbPoint
 10
1258.586412444933
 20
821.0412263316721
 30
0.0
  0
POINT
  5
454A
330
4540
100
AcDbEntity
  8
Defpoints
 62
     0
100
AcDbPoint
 10
1408.586412444933
 20
1021.041226331673
 30
0.0
  0
POINT
  5
454B
330
4540
100
AcDbEntity
  8
Defpoints
 62
     0
100
AcDbPoint
 10
1506.671499505326
 20
1021.041226331673
 30
0.0
  0
ENDBLK
  5
4542
330
4540
100
AcDbEntity
  8
0
100
AcDbBlockEnd
  0
BLOCK
  5
454D
330
454C
100
AcDbEntity
  8
0
100
AcDbBlockBegin
  2
*D25
 70
     1
 10
0.0
 20
0.0
 30
0.0
  3
*D25
  1

  0
LINE
  5
454F
330
454C
100
AcDbEntity
  8
DIM
 62
     0
370
    -2
100
AcDbLine
 10
1208.586412444931
 20
722.2056952367996
 30
0.0
 11
1208.586412444931
 21
637.2571264806878
 31
0.0
  0
LINE
  5
4550
330
454C
100
AcDbEntity
  8
DIM
 62
     0
370
    -2
100
AcDbLine
 10
1408.586412444933
 20
1016.041226331673
 30
0.0
 11
1408.586412444933
 21
637.2571264806878
 31
0.0
  0
LINE
  5
4551
330
454C
100
AcDbEntity
  8
DIM
 62
     0
370
    -2
100
AcDbLine
 10
1216.586412444931
 20
637.2571264806878
 30
0.0
 11
1400.586412444933
 21
637.2571264806878
 31
0.0
  0
INSERT
  5
4552
330
454C
100
AcDbEntity
  8
DIM
 62
     0
370
    -2
100
AcDbBlockReference
  2
_DOT
 10
1208.586412444931
 20
637.2571264806878
 30
0.0
 41
8.0
 42
8.0
 43
8.0
 50
180.0
  0
INSERT
  5
4553
330
454C
100
AcDbEntity
  8
DIM
 62
     0
370
    -2
100
AcDbBlockReference
  2
_DOT
 10
1408.586412444933
 20
637.2571264806878
 30
0.0
 41
8.0
 42
8.0
 43
8.0
  0
MTEXT
  5
4554
330
454C
100
AcDbEntity
  8
DIM
 62
     0
100
AcDbMText
 10
1308.586412444932
 20
663.2608778874653
 30
0.0
 40
20.0
 41
0.0
 46
0.0
 71
     5
 72
     1
  1
\A1;200
  7
ＭＳ ゴシック
 73
     1
 44
1.0
  0
POINT
  5
4555
330
454C
100
AcDbEntity
  8
Defpoints
 62
     0
100
AcDbPoint
 10
1208.586412444931
 20
727.2056952367996
 30
0.0
  0
POINT
  5
4556
330
454C
100
AcDbEntity
  8
Defpoints
 62
     0
100
AcDbPoint
 10
1408.586412444933
 20
1021.041226331673
 30
0.0
  0
POINT
  5
4557
330
454C
100
AcDbEntity
  8
Defpoints
 62
     0
100
AcDbPoint
 10
1408.586412444933
 20
637.2571264806878
 30
0.0
  0
ENDBLK
  5
454E
330
454C
100
AcDbEntity
  8
0
100
AcDbBlockEnd
  0
BLOCK
  5
4559
330
4558
100
AcDbEntity
  8
0
100
AcDbBlockBegin
  2
*D26
 70
     1
 10
0.0
 20
0.0
 30
0.0
  3
*D26
  1

  0
LINE
  5
455B
330
4558
100
AcDbEntity
  8
DIM
 62
     0
370
    -2
100
AcDbLine
 10
1212.066522424489
 20
1021.041226331671
 30
0.0
 11
1212.066522424489
 21
1196.281941599897
 31
0.0
  0
LINE
  5
455C
330
4558
100
AcDbEntity
  8
DIM
 62
     0
370
    -2
100
AcDbLine
 10
1212.066522424489
 20
1013.041226331671
 30
0.0
 11
1212.066522424489
 21
919.0412199154263
 31
0.0
  0
LINE
  5
455D
330
4558
100
AcDbEntity
  8
DIM
 62
     0
370
    -2
100
AcDbLine
 10
1212.066522424489
 20
1013.041226331671
 30
0.0
 11
1212.066522424489
 21
1005.041226331671
 31
0.0
  0
INSERT
  5
455E
330
4558
100
AcDbEntity
  8
DIM
 62
     0
370
    -2
100
AcDbBlockReference
  2
_DOT
 10
1212.066522424489
 20
1021.041226331671
 30
0.0
 41
8.0
 42
8.0
 43
8.0
 50
90.0
  0
INSERT
  5
455F
330
4558
100
AcDbEntity
  8
DIM
 62
     0
370
    -2
100
AcDbBlockReference
  2
_DOT
 10
1212.066522424489
 20
911.0412199154263
 30
0.0
 41
8.0
 42
8.0
 43
8.0
 50
270.0
  0
MTEXT
  5
4560
330
4558
100
AcDbEntity
  8
DIM
 62
     0
100
AcDbMText
 10
1184.39214453278
 20
1126.081616477976
 30
0.0
 40
20.0
 41
0.0
 46
0.0
 71
     5
 72
     1
  1
\A1;110(深さ)
  7
ＭＳ ゴシック
 11
0.0
 21
1.0
 31
0.0
 73
     1
 44
1.0
  0
POINT
  5
4561
330
4558
100
AcDbEntity
  8
Defpoints
 62
     0
100
AcDbPoint
 10
1212.066522424489
 20
1021.041226331671
 30
0.0
  0
POINT
  5
4562
330
4558
100
AcDbEntity
  8
Defpoints
 62
     0
100
AcDbPoint
 10
1212.115293959405
 20
911.0412199154263
 30
0.0
  0
POINT
  5
4563
330
4558
100
AcDbEntity
  8
Defpoints
 62
     0
100
AcDbPoint
 10
1212.066522424489
 20
911.0412199154263
 30
0.0
  0
ENDBLK
  5
455A
330
4558
100
AcDbEntity
  8
0
100
AcDbBlockEnd
  0
BLOCK
  5
4565
330
4564
100
AcDbEntity
  8
0
100
AcDbBlockBegin
  2
*D27
 70
     1
 10
0.0
 20
0.0
 30
0.0
  3
*D27
  1

  0
LINE
  5
4567
330
4564
100
AcDbEntity
  8
DIM
 62
     0
370
    -2
100
AcDbLine
 10
1003.586412444933
 20
1021.041226331673
 30
0.0
 11
794.5155709244186
 21
1021.041226331673
 31
0.0
  0
LINE
  5
4568
330
4564
100
AcDbEntity
  8
DIM
 62
     0
370
    -2
100
AcDbLine
 10
1183.586412444932
 20
735.79016826886
 30
0.0
 11
794.5155709244186
 21
735.79016826886
 31
0.0
  0
LINE
  5
4569
330
4564
100
AcDbEntity
  8
DIM
 62
     0
370
    -2
100
AcDbLine
 10
794.5155709244186
 20
1013.041226331673
 30
0.0
 11
794.5155709244186
 21
743.79016826886
 31
0.0
  0
INSERT
  5
456A
330
4564
100
AcDbEntity
  8
DIM
 62
     0
370
    -2
100
AcDbBlockReference
  2
_DOT
 10
794.5155709244186
 20
1021.041226331673
 30
0.0
 41
8.0
 42
8.0
 43
8.0
 50
90.0
  0
INSERT
  5
456B
330
4564
100
AcDbEntity
  8
DIM
 62
     0
370
    -2
100
AcDbBlockReference
  2
_DOT
 10
794.5155709244186
 20
735.79016826886
 30
0.0
 41
8.0
 42
8.0
 43
8.0
 50
270.0
  0
MTEXT
  5
456C
330
4564
100
AcDbEntity
  8
DIM
 62
     0
100
AcDbMText
 10
768.5118195176411
 20
878.4156973002663
 30
0.0
 40
20.0
 41
0.0
 46
0.0
 71
     5
 72
     1
  1
\A1;285
  7
ＭＳ ゴシック
 11
0.0
 21
1.0
 31
0.0
 73
     1
 44
1.0
  0
POINT
  5
456D
330
4564
100
AcDbEntity
  8
Defpoints
 62
     0
100
AcDbPoint
 10
1008.586412444933
 20
1021.041226331673
 30
0.0
  0
POINT
  5
456E
330
4564
100
AcDbEntity
  8
Defpoints
 62
     0
100
AcDbPoint
 10
1188.586412444932
 20
735.79016826886
 30
0.0
  0
POINT
  5
456F
330
4564
100
AcDbEntity
  8
Defpoints
 62
     0
100
AcDbPoint
 10
794.5155709244186
 20
735.79016826886
 30
0.0
  0
ENDBLK
  5
4566
330
4564
100
AcDbEntity
  8
0
100
AcDbBlockEnd
  0
BLOCK
  5
4571
330
4570
100
AcDbEntity
  8
0
100
AcDbBlockBegin
  2
*D28
 70
     1
 10
0.0
 20
0.0
 30
0.0
  3
*D28
  1

  0
LINE
  5
4573
330
4570
100
AcDbEntity
  8
DIM
 62
     0
370
    -2
100
AcDbLine
 10
967.3734725533177
 20
779.3081721319302
 30
0.0
 11
902.4253253551797
 21
779.3081721319302
 31
0.0
  0
LINE
  5
4574
330
4570
100
AcDbEntity
  8
DIM
 62
     0
370
    -2
100
AcDbLine
 10
967.3734725533177
 20
821.0412263316721
 30
0.0
 11
902.4253253551797
 21
821.0412263316721
 31
0.0
  0
LINE
  5
4575
330
4570
100
AcDbEntity
  8
DIM
 62
     0
370
    -2
100
AcDbLine
 10
902.4253253551797
 20
787.3081721319302
 30
0.0
 11
902.4253253551797
 21
813.0412263316721
 31
0.0
  0
INSERT
  5
4576
330
4570
100
AcDbEntity
  8
DIM
 62
     0
370
    -2
100
AcDbBlockReference
  2
_DOT
 10
902.4253253551797
 20
779.3081721319302
 30
0.0
 41
8.0
 42
8.0
 43
8.0
 50
270.0
  0
INSERT
  5
4577
330
4570
100
AcDbEntity
  8
DIM
 62
     0
370
    -2
100
AcDbBlockReference
  2
_DOT
 10
902.4253253551797
 20
821.0412263316721
 30
0.0
 41
8.0
 42
8.0
 43
8.0
 50
90.0
  0
MTEXT
  5
4578
330
4570
100
AcDbEntity
  8
DIM
 62
     0
100
AcDbMText
 10
876.4253253551797
 20
800.1746992318011
 30
0.0
 40
20.0
 41
0.0
 46
0.0
 71
     5
 72
     1
  1
\A1;　
  7
ＭＳ ゴシック
 11
0.0
 21
1.0
 31
0.0
 73
     1
 44
1.0
  0
POINT
  5
4579
330
4570
100
AcDbEntity
  8
Defpoints
 62
     0
100
AcDbPoint
 10
972.3734725533177
 20
779.3081721319302
 30
0.0
  0
POINT
  5
457A
330
4570
100
AcDbEntity
  8
Defpoints
 62
     0
100
AcDbPoint
 10
972.3734725533177
 20
821.0412263316721
 30
0.0
  0
POINT
  5
457B
330
4570
100
AcDbEntity
  8
Defpoints
 62
     0
100
AcDbPoint
 10
902.4253253551797
 20
821.0412263316721
 30
0.0
  0
ENDBLK
  5
4572
330
4570
100
AcDbEntity
  8
0
100
AcDbBlockEnd
  0
BLOCK
  5
45DE
330
45DD
100
AcDbEntity
  8
0
100
AcDbBlockBegin
  2
SEANNOT_GROUP
 70
     0
 10
0.0
 20
0.0
 30
0.0
  3
SEANNOT_GROUP
  1
SEANNOT_GROUP
  0
ENDBLK
  5
45DF
330
45DD
100
AcDbEntity
  8
0
100
AcDbBlockEnd
  0
BLOCK
  5
45E3
330
45E2
100
AcDbEntity
  8
0
100
AcDbBlockBegin
  2
SEANNOT_GROUP1
 70
     0
 10
0.0
 20
0.0
 30
0.0
  3
SEANNOT_GROUP1
  1
SEANNOT_GROUP1
  0
ENDBLK
  5
45E4
330
45E2
100
AcDbEntity
  8
0
100
AcDbBlockEnd
  0
BLOCK
  5
4612
330
4611
100
AcDbEntity
  8
0
100
AcDbBlockBegin
  2
*D31
 70
     1
 10
0.0
 20
0.0
 30
0.0
  3
*D31
  1

  0
LINE
  5
4613
330
4611
100
AcDbEntity
  8
DIM
 62
     0
370
    -2
100
AcDbLine
 10
408.3294832839573
 20
2130.017022238312
 30
0.0
 11
408.3294832839573
 21
2419.87446217933
 31
0.0
  0
LINE
  5
4614
330
4611
100
AcDbEntity
  8
DIM
 62
     0
370
    -2
100
AcDbLine
 10
828.3294832839574
 20
2131.0809487758
 30
0.0
 11
828.3294832839574
 21
2419.87446217933
 31
0.0
  0
LINE
  5
4615
330
4611
100
AcDbEntity
  8
DIM
 62
     0
370
    -2
100
AcDbLine
 10
416.3294832839573
 20
2419.87446217933
 30
0.0
 11
820.3294832839574
 21
2419.87446217933
 31
0.0
  0
INSERT
  5
4616
330
4611
100
AcDbEntity
  8
DIM
 62
     0
370
    -2
100
AcDbBlockReference
  2
_DOT
 10
408.3294832839573
 20
2419.87446217933
 30
0.0
 41
8.0
 42
8.0
 43
8.0
 50
180.0
  0
INSERT
  5
4617
330
4611
100
AcDbEntity
  8
DIM
 62
     0
370
    -2
100
AcDbBlockReference
  2
_DOT
 10
828.3294832839574
 20
2419.87446217933
 30
0.0
 41
8.0
 42
8.0
 43
8.0
  0
MTEXT
  5
4618
330
4611
100
AcDbEntity
  8
DIM
 62
     0
100
AcDbMText
 10
618.3294832839574
 20
2445.878213586107
 30
0.0
 40
20.0
 41
0.0
 46
0.0
 71
     5
 72
     1
  1
\A1;420
  7
ＭＳ ゴシック
 73
     1
 44
1.0
  0
POINT
  5
4619
330
4611
100
AcDbEntity
  8
Defpoints
 62
     0
100
AcDbPoint
 10
408.3294832839573
 20
2125.017022238312
 30
0.0
  0
POINT
  5
461A
330
4611
100
AcDbEntity
  8
Defpoints
 62
     0
100
AcDbPoint
 10
828.3294832839574
 20
2126.0809487758
 30
0.0
  0
POINT
  5
461B
330
4611
100
AcDbEntity
  8
Defpoints
 62
     0
100
AcDbPoint
 10
828.3294832839574
 20
2419.87446217933
 30
0.0
  0
ENDBLK
  5
461C
330
4611
100
AcDbEntity
  8
0
100
AcDbBlockEnd
  0
BLOCK
  5
461F
330
461E
100
AcDbEntity
  8
0
100
AcDbBlockBegin
  2
*D32
 70
     1
 10
0.0
 20
0.0
 30
0.0
  3
*D32
  1

  0
LINE
  5
4620
330
461E
100
AcDbEntity
  8
DIM
 62
     0
370
    -2
100
AcDbLine
 10
413.3294832839573
 20
2061.213296125187
 30
0.0
 11
413.3294832839573
 21
1791.995579282202
 31
0.0
  0
LINE
  5
4621
330
461E
100
AcDbEntity
  8
DIM
 62
     0
370
    -2
100
AcDbLine
 10
823.3294832839574
 20
2061.213296125188
 30
0.0
 11
823.3294832839574
 21
1791.995579282202
 31
0.0
  0
LINE
  5
4622
330
461E
100
AcDbEntity
  8
DIM
 62
     0
370
    -2
100
AcDbLine
 10
421.3294832839573
 20
1791.995579282202
 30
0.0
 11
815.3294832839574
 21
1791.995579282202
 31
0.0
  0
INSERT
  5
4623
330
461E
100
AcDbEntity
  8
DIM
 62
     0
370
    -2
100
AcDbBlockReference
  2
_DOT
 10
413.3294832839573
 20
1791.995579282202
 30
0.0
 41
8.0
 42
8.0
 43
8.0
 50
180.0
  0
INSERT
  5
4624
330
461E
100
AcDbEntity
  8
DIM
 62
     0
370
    -2
100
AcDbBlockReference
  2
_DOT
 10
823.3294832839574
 20
1791.995579282202
 30
0.0
 41
8.0
 42
8.0
 43
8.0
  0
MTEXT
  5
4625
330
461E
100
AcDbEntity
  8
DIM
 62
     0
100
AcDbMText
 10
618.3294832839574
 20
1817.99933068898
 30
0.0
 40
20.0
 41
0.0
 46
0.0
 71
     5
 72
     1
  1
\A1;405
  7
ＭＳ ゴシック
 73
     1
 44
1.0
  0
POINT
  5
4626
330
461E
100
AcDbEntity
  8
Defpoints
 62
     0
100
AcDbPoint
 10
413.3294832839573
 20
2066.213296125187
 30
0.0
  0
POINT
  5
4627
330
461E
100
AcDbEntity
  8
Defpoints
 62
     0
100
AcDbPoint
 10
823.3294832839574
 20
2066.213296125188
 30
0.0
  0
POINT
  5
4628
330
461E
100
AcDbEntity
  8
Defpoints
 62
     0
100
AcDbPoint
 10
823.3294832839574
 20
1791.995579282202
 30
0.0
  0
ENDBLK
  5
4629
330
461E
100
AcDbEntity
  8
0
100
AcDbBlockEnd
  0
BLOCK
  5
4633
330
4632
100
AcDbEntity
  8
0
100
AcDbBlockBegin
  2
*D33
 70
     1
 10
0.0
 20
0.0
 30
0.0
  3
*D33
  1

  0
LINE
  5
4634
330
4632
100
AcDbEntity
  8
DIM
 62
     0
370
    -2
100
AcDbLine
 10
1630.866756131523
 20
1146.870852815205
 30
0.0
 11
1749.03560369429
 21
1146.870852815205
 31
0.0
  0
LINE
  5
4635
330
4632
100
AcDbEntity
  8
DIM
 62
     0
370
    -2
100
AcDbLine
 10
1470.866756131523
 20
994.8708528152047
 30
0.0
 11
1749.03560369429
 21
994.8708528152047
 31
0.0
  0
LINE
  5
4636
330
4632
100
AcDbEntity
  8
DIM
 62
     0
370
    -2
100
AcDbLine
 10
1749.03560369429
 20
1138.870852815205
 30
0.0
 11
1749.03560369429
 21
1002.870852815205
 31
0.0
  0
INSERT
  5
4637
330
4632
100
AcDbEntity
  8
DIM
 62
     0
370
    -2
100
AcDbBlockReference
  2
_DOT
 10
1749.03560369429
 20
1146.870852815205
 30
0.0
 41
8.0
 42
8.0
 43
8.0
 50
90.0
  0
INSERT
  5
4638
330
4632
100
AcDbEntity
  8
DIM
 62
     0
370
    -2
100
AcDbBlockReference
  2
_DOT
 10
1749.03560369429
 20
994.8708528152047
 30
0.0
 41
8.0
 42
8.0
 43
8.0
 50
270.0
  0
MTEXT
  5
4639
330
4632
100
AcDbEntity
  8
DIM
 62
     0
100
AcDbMText
 10
1723.031852287512
 20
1070.870852815205
 30
0.0
 40
20.0
 41
0.0
 46
0.0
 71
     5
 72
     1
  1
\A1;152
  7
ＭＳ ゴシック
 11
0.0
 21
1.0
 31
0.0
 73
     1
 44
1.0
  0
POINT
  5
463A
330
4632
100
AcDbEntity
  8
Defpoints
 62
     0
100
AcDbPoint
 10
1625.866756131523
 20
1146.870852815205
 30
0.0
  0
POINT
  5
463B
330
4632
100
AcDbEntity
  8
Defpoints
 62
     0
100
AcDbPoint
 10
1465.866756131523
 20
994.8708528152047
 30
0.0
  0
POINT
  5
463C
330
4632
100
AcDbEntity
  8
Defpoints
 62
     0
100
AcDbPoint
 10
1749.03560369429
 20
994.8708528152047
 30
0.0
  0
ENDBLK
  5
463D
330
4632
100
AcDbEntity
  8
0
100
AcDbBlockEnd
  0
BLOCK
  5
4642
330
4641
100
AcDbEntity
  8
0
100
AcDbBlockBegin
  2
*D34
 70
     1
 10
0.0
 20
0.0
 30
0.0
  3
*D34
  1

  0
LINE
  5
4643
330
4641
100
AcDbEntity
  8
DIM
 62
     0
370
    -2
100
AcDbLine
 10
1413.366756131523
 20
1146.870852815205
 30
0.0
 11
1413.366756131523
 21
1322.111568083431
 31
0.0
  0
LINE
  5
4644
330
4641
100
AcDbEntity
  8
DIM
 62
     0
370
    -2
100
AcDbLine
 10
1413.366756131523
 20
1138.870852815205
 30
0.0
 11
1413.366756131523
 21
1040.211660153677
 31
0.0
  0
LINE
  5
4645
330
4641
100
AcDbEntity
  8
DIM
 62
     0
370
    -2
100
AcDbLine
 10
1413.366756131523
 20
1138.870852815205
 30
0.0
 11
1413.366756131523
 21
1130.870852815205
 31
0.0
  0
INSERT
  5
4646
330
4641
100
AcDbEntity
  8
DIM
 62
     0
370
    -2
100
AcDbBlockReference
  2
_DOT
 10
1413.366756131523
 20
1146.870852815205
 30
0.0
 41
8.0
 42
8.0
 43
8.0
 50
90.0
  0
INSERT
  5
4647
330
4641
100
AcDbEntity
  8
DIM
 62
     0
370
    -2
100
AcDbBlockReference
  2
_DOT
 10
1413.366756131523
 20
1032.211660153677
 30
0.0
 41
8.0
 42
8.0
 43
8.0
 50
270.0
  0
MTEXT
  5
4648
330
4641
100
AcDbEntity
  8
DIM
 62
     0
100
AcDbMText
 10
1385.692378239814
 20
1251.91124296151
 30
0.0
 40
20.0
 41
0.0
 46
0.0
 71
     5
 72
     1
  1
\A1;115(深さ)
  7
ＭＳ ゴシック
 11
0.0
 21
1.0
 31
0.0
 73
     1
 44
1.0
  0
POINT
  5
4649
330
4641
100
AcDbEntity
  8
Defpoints
 62
     0
100
AcDbPoint
 10
1413.366756131523
 20
1146.870852815205
 30
0.0
  0
POINT
  5
464A
330
4641
100
AcDbEntity
  8
Defpoints
 62
     0
100
AcDbPoint
 10
1413.102857355769
 20
1032.211660153677
 30
0.0
  0
POINT
  5
464B
330
4641
100
AcDbEntity
  8
Defpoints
 62
     0
100
AcDbPoint
 10
1413.366756131523
 20
1032.211660153677
 30
0.0
  0
ENDBLK
  5
464C
330
4641
100
AcDbEntity
  8
0
100
AcDbBlockEnd
  0
BLOCK
  5
4651
330
4650
100
AcDbEntity
  8
0
100
AcDbBlockBegin
  2
*D35
 70
     1
 10
0.0
 20
0.0
 30
0.0
  3
*D35
  1

  0
LINE
  5
4652
330
4650
100
AcDbEntity
  8
DIM
 62
     0
370
    -2
100
AcDbLine
 10
1415.866756131523
 20
924.0978899773891
 30
0.0
 11
1415.866756131523
 21
863.4534046742978
 31
0.0
  0
LINE
  5
4653
330
4650
100
AcDbEntity
  8
DIM
 62
     0
370
    -2
100
AcDbLine
 10
1625.866756131523
 20
1099.416277347742
 30
0.0
 11
1625.866756131523
 21
863.4534046742978
 31
0.0
  0
LINE
  5
4654
330
4650
100
AcDbEntity
  8
DIM
 62
     0
370
    -2
100
AcDbLine
 10
1423.866756131523
 20
863.4534046742978
 30
0.0
 11
1617.866756131523
 21
863.4534046742978
 31
0.0
  0
INSERT
  5
4655
330
4650
100
AcDbEntity
  8
DIM
 62
     0
370
    -2
100
AcDbBlockReference
  2
_DOT
 10
1415.866756131523
 20
863.4534046742978
 30
0.0
 41
8.0
 42
8.0
 43
8.0
 50
180.0
  0
INSERT
  5
4656
330
4650
100
AcDbEntity
  8
DIM
 62
     0
370
    -2
100
AcDbBlockReference
  2
_DOT
 10
1625.866756131523
 20
863.4534046742978
 30
0.0
 41
8.0
 42
8.0
 43
8.0
  0
MTEXT
  5
4657
330
4650
100
AcDbEntity
  8
DIM
 62
     0
100
AcDbMText
 10
1520.866756131523
 20
889.4571560810753
 30
0.0
 40
20.0
 41
0.0
 46
0.0
 71
     5
 72
     1
  1
\A1;210
  7
ＭＳ ゴシック
 73
     1
 44
1.0
  0
POINT
  5
4658
330
4650
100
AcDbEntity
  8
Defpoints
 62
     0
100
AcDbPoint
 10
1415.866756131523
 20
929.0978899773891
 30
0.0
  0
POINT
  5
4659
330
4650
100
AcDbEntity
  8
Defpoints
 62
     0
100
AcDbPoint
 10
1625.866756131523
 20
1104.416277347742
 30
0.0
  0
POINT
  5
465A
330
4650
100
AcDbEntity
  8
Defpoints
 62
     0
100
AcDbPoint
 10
1625.866756131523
 20
863.4534046742978
 30
0.0
  0
ENDBLK
  5
465B
330
4650
100
AcDbEntity
  8
0
100
AcDbBlockEnd
  0
BLOCK
  5
4666
330
4665
100
AcDbEntity
  8
0
100
AcDbBlockBegin
  2
*D36
 70
     1
 10
0.0
 20
0.0
 30
0.0
  3
*D36
  1

  0
LINE
  5
4667
330
4665
100
AcDbEntity
  8
DIM
 62
     0
370
    -2
100
AcDbLine
 10
585.1651993522117
 20
992.5284231349888
 30
0.0
 11
585.1651993522117
 21
863.4534046742976
 31
0.0
  0
LINE
  5
4668
330
4665
100
AcDbEntity
  8
DIM
 62
     0
370
    -2
100
AcDbLine
 10
685.1651993522128
 20
992.5284231349888
 30
0.0
 11
685.1651993522128
 21
863.4534046742976
 31
0.0
  0
LINE
  5
4669
330
4665
100
AcDbEntity
  8
DIM
 62
     0
370
    -2
100
AcDbLine
 10
593.1651993522117
 20
863.4534046742976
 30
0.0
 11
677.1651993522128
 21
863.4534046742976
 31
0.0
  0
INSERT
  5
466A
330
4665
100
AcDbEntity
  8
DIM
 62
     0
370
    -2
100
AcDbBlockReference
  2
_DOT
 10
585.1651993522117
 20
863.4534046742976
 30
0.0
 41
8.0
 42
8.0
 43
8.0
 50
180.0
  0
INSERT
  5
466B
330
4665
100
AcDbEntity
  8
DIM
 62
     0
370
    -2
100
AcDbBlockReference
  2
_DOT
 10
685.1651993522128
 20
863.4534046742976
 30
0.0
 41
8.0
 42
8.0
 43
8.0
  0
MTEXT
  5
466C
330
4665
100
AcDbEntity
  8
DIM
 62
     0
100
AcDbMText
 10
635.1651993522123
 20
889.4571560810751
 30
0.0
 40
20.0
 41
0.0
 46
0.0
 71
     5
 72
     1
  1
\A1;100
  7
ＭＳ ゴシック
 73
     1
 44
1.0
  0
POINT
  5
466D
330
4665
100
AcDbEntity
  8
Defpoints
 62
     0
100
AcDbPoint
 10
585.1651993522117
 20
997.5284231349888
 30
0.0
  0
POINT
  5
466E
330
4665
100
AcDbEntity
  8
Defpoints
 62
     0
100
AcDbPoint
 10
685.1651993522128
 20
997.5284231349888
 30
0.0
  0
POINT
  5
466F
330
4665
100
AcDbEntity
  8
Defpoints
 62
     0
100
AcDbPoint
 10
685.1651993522128
 20
863.4534046742976
 30
0.0
  0
ENDBLK
  5
4670
330
4665
100
AcDbEntity
  8
0
100
AcDbBlockEnd
  0
BLOCK
  5
467C
330
467B
100
AcDbEntity
  8
0
100
AcDbBlockBegin
  2
*D37
 70
     1
 10
0.0
 20
0.0
 30
0.0
  3
*D37
  1

  0
LINE
  5
467D
330
467B
100
AcDbEntity
  8
DIM
 62
     0
370
    -2
100
AcDbLine
 10
1174.65381623991
 20
994.8708528152046
 30
0.0
 11
1102.431729356842
 21
994.8708528152046
 31
0.0
  0
LINE
  5
467E
330
467B
100
AcDbEntity
  8
DIM
 62
     0
370
    -2
100
AcDbLine
 10
1174.65381623991
 20
953.1377986154627
 30
0.0
 11
1102.431729356842
 21
953.1377986154627
 31
0.0
  0
LINE
  5
467F
330
467B
100
AcDbEntity
  8
DIM
 62
     0
370
    -2
100
AcDbLine
 10
1102.431729356842
 20
986.8708528152046
 30
0.0
 11
1102.431729356842
 21
961.1377986154627
 31
0.0
  0
INSERT
  5
4680
330
467B
100
AcDbEntity
  8
DIM
 62
     0
370
    -2
100
AcDbBlockReference
  2
_DOT
 10
1102.431729356842
 20
994.8708528152046
 30
0.0
 41
8.0
 42
8.0
 43
8.0
 50
90.0
  0
INSERT
  5
4681
330
467B
100
AcDbEntity
  8
DIM
 62
     0
370
    -2
100
AcDbBlockReference
  2
_DOT
 10
1102.431729356842
 20
953.1377986154627
 30
0.0
 41
8.0
 42
8.0
 43
8.0
 50
270.0
  0
MTEXT
  5
4682
330
467B
100
AcDbEntity
  8
DIM
 62
     0
100
AcDbMText
 10
1076.431729356842
 20
974.0043257153336
 30
0.0
 40
20.0
 41
0.0
 46
0.0
 71
     5
 72
     1
  1
\A1;　
  7
ＭＳ ゴシック
 11
0.0
 21
1.0
 31
0.0
 73
     1
 44
1.0
  0
POINT
  5
4683
330
467B
100
AcDbEntity
  8
Defpoints
 62
     0
100
AcDbPoint
 10
1179.65381623991
 20
994.8708528152046
 30
0.0
  0
POINT
  5
4684
330
467B
100
AcDbEntity
  8
Defpoints
 62
     0
100
AcDbPoint
 10
1179.65381623991
 20
953.1377986154627
 30
0.0
  0
POINT
  5
4685
330
467B
100
AcDbEntity
  8
Defpoints
 62
     0
100
AcDbPoint
 10
1102.431729356842
 20
953.1377986154627
 30
0.0
  0
ENDBLK
  5
4686
330
467B
100
AcDbEntity
  8
0
100
AcDbBlockEnd
  0
BLOCK
  5
46A4
330
46A3
100
AcDbEntity
  8
0
100
AcDbBlockBegin
  2
*D38
 70
     1
 10
0.0
 20
0.0
 30
0.0
  3
*D38
  1

  0
LINE
  5
46A5
330
46A3
100
AcDbEntity
  8
DIM
 62
     0
370
    -2
100
AcDbLine
 10
1200.866756131523
 20
1146.870852815205
 30
0.0
 11
1003.091240755643
 21
1146.870852815205
 31
0.0
  0
LINE
  5
46A6
330
46A3
100
AcDbEntity
  8
DIM
 62
     0
370
    -2
100
AcDbLine
 10
1390.866756131523
 20
919.6197947523926
 30
0.0
 11
1003.091240755643
 21
919.6197947523926
 31
0.0
  0
LINE
  5
46A7
330
46A3
100
AcDbEntity
  8
DIM
 62
     0
370
    -2
100
AcDbLine
 10
1003.091240755643
 20
1138.870852815205
 30
0.0
 11
1003.091240755643
 21
927.6197947523926
 31
0.0
  0
INSERT
  5
46A8
330
46A3
100
AcDbEntity
  8
DIM
 62
     0
370
    -2
100
AcDbBlockReference
  2
_DOT
 10
1003.091240755643
 20
1146.870852815205
 30
0.0
 41
8.0
 42
8.0
 43
8.0
 50
90.0
  0
INSERT
  5
46A9
330
46A3
100
AcDbEntity
  8
DIM
 62
     0
370
    -2
100
AcDbBlockReference
  2
_DOT
 10
1003.091240755643
 20
919.6197947523926
 30
0.0
 41
8.0
 42
8.0
 43
8.0
 50
270.0
  0
MTEXT
  5
46AA
330
46A3
100
AcDbEntity
  8
DIM
 62
     0
100
AcDbMText
 10
977.0874893488653
 20
1033.245323783799
 30
0.0
 40
20.0
 41
0.0
 46
0.0
 71
     5
 72
     1
  1
\A1;227
  7
ＭＳ ゴシック
 11
0.0
 21
1.0
 31
0.0
 73
     1
 44
1.0
  0
POINT
  5
46AB
330
46A3
100
AcDbEntity
  8
Defpoints
 62
     0
100
AcDbPoint
 10
1205.866756131523
 20
1146.870852815205
 30
0.0
  0
POINT
  5
46AC
330
46A3
100
AcDbEntity
  8
Defpoints
 62
     0
100
AcDbPoint
 10
1395.866756131523
 20
919.6197947523926
 30
0.0
  0
POINT
  5
46AD
330
46A3
100
AcDbEntity
  8
Defpoints
 62
     0
100
AcDbPoint
 10
1003.091240755643
 20
919.6197947523926
 30
0.0
  0
ENDBLK
  5
46AE
330
46A3
100
AcDbEntity
  8
0
100
AcDbBlockEnd
  0
BLOCK
  5
4813
330
4812
100
AcDbEntity
  8
0
100
AcDbBlockBegin
  2
*D39
 70
     1
 10
0.0
 20
0.0
 30
0.0
  3
*D39
  1

  0
LINE
  5
4815
330
4812
100
AcDbEntity
  8
DIM
 62
     0
370
    -2
100
AcDbLine
 10
199.5814117881905
 20
1694.558583856374
 30
0.0
 11
199.5814117881905
 21
1984.416023797392
 31
0.0
  0
LINE
  5
4816
330
4812
100
AcDbEntity
  8
DIM
 62
     0
370
    -2
100
AcDbLine
 10
619.5814117881905
 20
1695.622510393862
 30
0.0
 11
619.5814117881905
 21
1984.416023797392
 31
0.0
  0
LINE
  5
4817
330
4812
100
AcDbEntity
  8
DIM
 62
     0
370
    -2
100
AcDbLine
 10
207.5814117881905
 20
1984.416023797392
 30
0.0
 11
611.5814117881905
 21
1984.416023797392
 31
0.0
  0
INSERT
  5
4818
330
4812
100
AcDbEntity
  8
DIM
 62
     0
370
    -2
100
AcDbBlockReference
  2
_DOT
 10
199.5814117881905
 20
1984.416023797392
 30
0.0
 41
8.0
 42
8.0
 43
8.0
 50
180.0
  0
INSERT
  5
4819
330
4812
100
AcDbEntity
  8
DIM
 62
     0
370
    -2
100
AcDbBlockReference
  2
_DOT
 10
619.5814117881905
 20
1984.416023797392
 30
0.0
 41
8.0
 42
8.0
 43
8.0
  0
MTEXT
  5
481A
330
4812
100
AcDbEntity
  8
DIM
 62
     0
100
AcDbMText
 10
409.5814117881905
 20
2010.41977520417
 30
0.0
 40
20.0
 41
0.0
 46
0.0
 71
     5
 72
     1
  1
\A1;420
  7
ＭＳ ゴシック
 73
     1
 44
1.0
  0
POINT
  5
481B
330
4812
100
AcDbEntity
  8
Defpoints
 62
     0
100
AcDbPoint
 10
199.5814117881905
 20
1689.558583856374
 30
0.0
  0
POINT
  5
481C
330
4812
100
AcDbEntity
  8
Defpoints
 62
     0
100
AcDbPoint
 10
619.5814117881905
 20
1690.622510393862
 30
0.0
  0
POINT
  5
481D
330
4812
100
AcDbEntity
  8
Defpoints
 62
     0
100
AcDbPoint
 10
619.5814117881905
 20
1984.416023797392
 30
0.0
  0
ENDBLK
  5
4814
330
4812
100
AcDbEntity
  8
0
100
AcDbBlockEnd
  0
BLOCK
  5
481F
330
481E
100
AcDbEntity
  8
0
100
AcDbBlockBegin
  2
*D40
 70
     1
 10
0.0
 20
0.0
 30
0.0
  3
*D40
  1

  0
LINE
  5
4821
330
481E
100
AcDbEntity
  8
DIM
 62
     0
370
    -2
100
AcDbLine
 10
204.5814117881905
 20
1625.754857743249
 30
0.0
 11
204.5814117881905
 21
1356.537140900264
 31
0.0
  0
LINE
  5
4822
330
481E
100
AcDbEntity
  8
DIM
 62
     0
370
    -2
100
AcDbLine
 10
614.5814117881905
 20
1625.75485774325
 30
0.0
 11
614.5814117881905
 21
1356.537140900264
 31
0.0
  0
LINE
  5
4823
330
481E
100
AcDbEntity
  8
DIM
 62
     0
370
    -2
100
AcDbLine
 10
212.5814117881905
 20
1356.537140900264
 30
0.0
 11
606.5814117881905
 21
1356.537140900264
 31
0.0
  0
INSERT
  5
4824
330
481E
100
AcDbEntity
  8
DIM
 62
     0
370
    -2
100
AcDbBlockReference
  2
_DOT
 10
204.5814117881905
 20
1356.537140900264
 30
0.0
 41
8.0
 42
8.0
 43
8.0
 50
180.0
  0
INSERT
  5
4825
330
481E
100
AcDbEntity
  8
DIM
 62
     0
370
    -2
100
AcDbBlockReference
  2
_DOT
 10
614.5814117881905
 20
1356.537140900264
 30
0.0
 41
8.0
 42
8.0
 43
8.0
  0
MTEXT
  5
4826
330
481E
100
AcDbEntity
  8
DIM
 62
     0
100
AcDbMText
 10
409.5814117881905
 20
1382.540892307042
 30
0.0
 40
20.0
 41
0.0
 46
0.0
 71
     5
 72
     1
  1
\A1;405
  7
ＭＳ ゴシック
 73
     1
 44
1.0
  0
POINT
  5
4827
330
481E
100
AcDbEntity
  8
Defpoints
 62
     0
100
AcDbPoint
 10
204.5814117881905
 20
1630.754857743249
 30
0.0
  0
POINT
  5
4828
330
481E
100
AcDbEntity
  8
Defpoints
 62
     0
100
AcDbPoint
 10
614.5814117881905
 20
1630.75485774325
 30
0.0
  0
POINT
  5
4829
330
481E
100
AcDbEntity
  8
Defpoints
 62
     0
100
AcDbPoint
 10
614.5814117881905
 20
1356.537140900264
 30
0.0
  0
ENDBLK
  5
4820
330
481E
100
AcDbEntity
  8
0
100
AcDbBlockEnd
  0
BLOCK
  5
482B
330
482A
100
AcDbEntity
  8
0
100
AcDbBlockBegin
  2
*D41
 70
     1
 10
0.0
 20
0.0
 30
0.0
  3
*D41
  1

  0
LINE
  5
482D
330
482A
100
AcDbEntity
  8
DIM
 62
     0
370
    -2
100
AcDbLine
 10
1422.782080966013
 20
864.1648509337375
 30
0.0
 11
1494.309578362946
 21
864.1648509337375
 31
0.0
  0
LINE
  5
482E
330
482A
100
AcDbEntity
  8
DIM
 62
     0
370
    -2
100
AcDbLine
 10
1448.331624527369
 20
712.1648509337365
 30
0.0
 11
1494.309578362946
 21
712.1648509337365
 31
0.0
  0
LINE
  5
482F
330
482A
100
AcDbEntity
  8
DIM
 62
     0
370
    -2
100
AcDbLine
 10
1494.309578362946
 20
856.1648509337375
 30
0.0
 11
1494.309578362946
 21
720.1648509337365
 31
0.0
  0
INSERT
  5
4830
330
482A
100
AcDbEntity
  8
DIM
 62
     0
370
    -2
100
AcDbBlockReference
  2
_DOT
 10
1494.309578362946
 20
864.1648509337375
 30
0.0
 41
8.0
 42
8.0
 43
8.0
 50
90.0
  0
INSERT
  5
4831
330
482A
100
AcDbEntity
  8
DIM
 62
     0
370
    -2
100
AcDbBlockReference
  2
_DOT
 10
1494.309578362946
 20
712.1648509337365
 30
0.0
 41
8.0
 42
8.0
 43
8.0
 50
270.0
  0
MTEXT
  5
4832
330
482A
100
AcDbEntity
  8
DIM
 62
     0
100
AcDbMText
 10
1468.305826956168
 20
788.164850933737
 30
0.0
 40
20.0
 41
0.0
 46
0.0
 71
     5
 72
     1
  1
\A1;152
  7
ＭＳ ゴシック
 11
0.0
 21
1.0
 31
0.0
 73
     1
 44
1.0
  0
POINT
  5
4833
330
482A
100
AcDbEntity
  8
Defpoints
 62
     0
100
AcDbPoint
 10
1417.782080966013
 20
864.1648509337375
 30
0.0
  0
POINT
  5
4834
330
482A
100
AcDbEntity
  8
Defpoints
 62
     0
100
AcDbPoint
 10
1443.331624527369
 20
712.1648509337365
 30
0.0
  0
POINT
  5
4835
330
482A
100
AcDbEntity
  8
Defpoints
 62
     0
100
AcDbPoint
 10
1494.309578362946
 20
712.1648509337365
 30
0.0
  0
ENDBLK
  5
482C
330
482A
100
AcDbEntity
  8
0
100
AcDbBlockEnd
  0
BLOCK
  5
4837
330
4836
100
AcDbEntity
  8
0
100
AcDbBlockBegin
  2
*D42
 70
     1
 10
0.0
 20
0.0
 30
0.0
  3
*D42
  1

  0
LINE
  5
4839
330
4836
100
AcDbEntity
  8
DIM
 62
     0
370
    -2
100
AcDbLine
 10
1204.618684635756
 20
864.1648509337376
 30
0.0
 11
1204.618684635756
 21
1039.405566201963
 31
0.0
  0
LINE
  5
483A
330
4836
100
AcDbEntity
  8
DIM
 62
     0
370
    -2
100
AcDbLine
 10
1204.618684635756
 20
856.1648509337376
 30
0.0
 11
1204.618684635756
 21
757.5056582722098
 31
0.0
  0
LINE
  5
483B
330
4836
100
AcDbEntity
  8
DIM
 62
     0
370
    -2
100
AcDbLine
 10
1204.618684635756
 20
856.1648509337376
 30
0.0
 11
1204.618684635756
 21
848.1648509337376
 31
0.0
  0
INSERT
  5
483C
330
4836
100
AcDbEntity
  8
DIM
 62
     0
370
    -2
100
AcDbBlockReference
  2
_DOT
 10
1204.618684635756
 20
864.1648509337376
 30
0.0
 41
8.0
 42
8.0
 43
8.0
 50
90.0
  0
INSERT
  5
483D
330
4836
100
AcDbEntity
  8
DIM
 62
     0
370
    -2
100
AcDbBlockReference
  2
_DOT
 10
1204.618684635756
 20
749.5056582722098
 30
0.0
 41
8.0
 42
8.0
 43
8.0
 50
270.0
  0
MTEXT
  5
483E
330
4836
100
AcDbEntity
  8
DIM
 62
     0
100
AcDbMText
 10
1176.944306744047
 20
969.2052410800427
 30
0.0
 40
20.0
 41
0.0
 46
0.0
 71
     5
 72
     1
  1
\A1;115(深さ)
  7
ＭＳ ゴシック
 11
0.0
 21
1.0
 31
0.0
 73
     1
 44
1.0
  0
POINT
  5
483F
330
4836
100
AcDbEntity
  8
Defpoints
 62
     0
100
AcDbPoint
 10
1204.618684635756
 20
864.1648509337376
 30
0.0
  0
POINT
  5
4840
330
4836
100
AcDbEntity
  8
Defpoints
 62
     0
100
AcDbPoint
 10
1204.354785860002
 20
749.5056582722098
 30
0.0
  0
POINT
  5
4841
330
4836
100
AcDbEntity
  8
Defpoints
 62
     0
100
AcDbPoint
 10
1204.618684635756
 20
749.5056582722098
 30
0.0
  0
ENDBLK
  5
4838
330
4836
100
AcDbEntity
  8
0
100
AcDbBlockEnd
  0
BLOCK
  5
4843
330
4842
100
AcDbEntity
  8
0
100
AcDbBlockBegin
  2
*D43
 70
     1
 10
0.0
 20
0.0
 30
0.0
  3
*D43
  1

  0
LINE
  5
4845
330
4842
100
AcDbEntity
  8
DIM
 62
     0
370
    -2
100
AcDbLine
 10
1207.118684635756
 20
626.9137928709254
 30
0.0
 11
1207.118684635756
 21
580.7474027928305
 31
0.0
  0
LINE
  5
4846
330
4842
100
AcDbEntity
  8
DIM
 62
     0
370
    -2
100
AcDbLine
 10
1417.118684635756
 20
799.9095407109095
 30
0.0
 11
1417.118684635756
 21
580.7474027928305
 31
0.0
  0
LINE
  5
4847
330
4842
100
AcDbEntity
  8
DIM
 62
     0
370
    -2
100
AcDbLine
 10
1215.118684635756
 20
580.7474027928305
 30
0.0
 11
1409.118684635756
 21
580.7474027928305
 31
0.0
  0
INSERT
  5
4848
330
4842
100
AcDbEntity
  8
DIM
 62
     0
370
    -2
100
AcDbBlockReference
  2
_DOT
 10
1207.118684635756
 20
580.7474027928305
 30
0.0
 41
8.0
 42
8.0
 43
8.0
 50
180.0
  0
INSERT
  5
4849
330
4842
100
AcDbEntity
  8
DIM
 62
     0
370
    -2
100
AcDbBlockReference
  2
_DOT
 10
1417.118684635756
 20
580.7474027928305
 30
0.0
 41
8.0
 42
8.0
 43
8.0
  0
MTEXT
  5
484A
330
4842
100
AcDbEntity
  8
DIM
 62
     0
100
AcDbMText
 10
1312.118684635756
 20
606.751154199608
 30
0.0
 40
20.0
 41
0.0
 46
0.0
 71
     5
 72
     1
  1
\A1;210
  7
ＭＳ ゴシック
 73
     1
 44
1.0
  0
POINT
  5
484B
330
4842
100
AcDbEntity
  8
Defpoints
 62
     0
100
AcDbPoint
 10
1207.118684635756
 20
631.9137928709254
 30
0.0
  0
POINT
  5
484C
330
4842
100
AcDbEntity
  8
Defpoints
 62
     0
100
AcDbPoint
 10
1417.118684635756
 20
804.9095407109095
 30
0.0
  0
POINT
  5
484D
330
4842
100
AcDbEntity
  8
Defpoints
 62
     0
100
AcDbPoint
 10
1417.118684635756
 20
580.7474027928305
 30
0.0
  0
ENDBLK
  5
4844
330
4842
100
AcDbEntity
  8
0
100
AcDbBlockEnd
  0
BLOCK
  5
484F
330
484E
100
AcDbEntity
  8
0
100
AcDbBlockBegin
  2
*D44
 70
     1
 10
0.0
 20
0.0
 30
0.0
  3
*D44
  1

  0
LINE
  5
4851
330
484E
100
AcDbEntity
  8
DIM
 62
     0
370
    -2
100
AcDbLine
 10
376.4171278564448
 20
662.4317967339955
 30
0.0
 11
376.4171278564448
 21
580.7474027928304
 31
0.0
  0
LINE
  5
4852
330
484E
100
AcDbEntity
  8
DIM
 62
     0
370
    -2
100
AcDbLine
 10
476.4171278564459
 20
662.4317967339955
 30
0.0
 11
476.4171278564459
 21
580.7474027928304
 31
0.0
  0
LINE
  5
4853
330
484E
100
AcDbEntity
  8
DIM
 62
     0
370
    -2
100
AcDbLine
 10
384.4171278564448
 20
580.7474027928304
 30
0.0
 11
468.4171278564459
 21
580.7474027928304
 31
0.0
  0
INSERT
  5
4854
330
484E
100
AcDbEntity
  8
DIM
 62
     0
370
    -2
100
AcDbBlockReference
  2
_DOT
 10
376.4171278564448
 20
580.7474027928304
 30
0.0
 41
8.0
 42
8.0
 43
8.0
 50
180.0
  0
INSERT
  5
4855
330
484E
100
AcDbEntity
  8
DIM
 62
     0
370
    -2
100
AcDbBlockReference
  2
_DOT
 10
476.4171278564459
 20
580.7474027928304
 30
0.0
 41
8.0
 42
8.0
 43
8.0
  0
MTEXT
  5
4856
330
484E
100
AcDbEntity
  8
DIM
 62
     0
100
AcDbMText
 10
426.4171278564454
 20
606.7511541996079
 30
0.0
 40
20.0
 41
0.0
 46
0.0
 71
     5
 72
     1
  1
\A1;100
  7
ＭＳ ゴシック
 73
     1
 44
1.0
  0
POINT
  5
4857
330
484E
100
AcDbEntity
  8
Defpoints
 62
     0
100
AcDbPoint
 10
376.4171278564448
 20
667.4317967339955
 30
0.0
  0
POINT
  5
4858
330
484E
100
AcDbEntity
  8
Defpoints
 62
     0
100
AcDbPoint
 10
476.4171278564459
 20
667.4317967339955
 30
0.0
  0
POINT
  5
4859
330
484E
100
AcDbEntity
  8
Defpoints
 62
     0
100
AcDbPoint
 10
476.4171278564459
 20
580.7474027928304
 30
0.0
  0
ENDBLK
  5
4850
330
484E
100
AcDbEntity
  8
0
100
AcDbBlockEnd
  0
BLOCK
  5
485B
330
485A
100
AcDbEntity
  8
0
100
AcDbBlockBegin
  2
*D45
 70
     1
 10
0.0
 20
0.0
 30
0.0
  3
*D45
  1

  0
LINE
  5
485D
330
485A
100
AcDbEntity
  8
DIM
 62
     0
370
    -2
100
AcDbLine
 10
965.9057447441432
 20
712.1648509337374
 30
0.0
 11
910.279085717117
 21
712.1648509337374
 31
0.0
  0
LINE
  5
485E
330
485A
100
AcDbEntity
  8
DIM
 62
     0
370
    -2
100
AcDbLine
 10
965.9057447441432
 20
670.4317967339953
 30
0.0
 11
910.279085717117
 21
670.4317967339953
 31
0.0
  0
LINE
  5
485F
330
485A
100
AcDbEntity
  8
DIM
 62
     0
370
    -2
100
AcDbLine
 10
910.279085717117
 20
704.1648509337374
 30
0.0
 11
910.279085717117
 21
678.4317967339953
 31
0.0
  0
INSERT
  5
4860
330
485A
100
AcDbEntity
  8
DIM
 62
     0
370
    -2
100
AcDbBlockReference
  2
_DOT
 10
910.279085717117
 20
712.1648509337374
 30
0.0
 41
8.0
 42
8.0
 43
8.0
 50
90.0
  0
INSERT
  5
4861
330
485A
100
AcDbEntity
  8
DIM
 62
     0
370
    -2
100
AcDbBlockReference
  2
_DOT
 10
910.279085717117
 20
670.4317967339953
 30
0.0
 41
8.0
 42
8.0
 43
8.0
 50
270.0
  0
MTEXT
  5
4862
330
485A
100
AcDbEntity
  8
DIM
 62
     0
100
AcDbMText
 10
884.279085717117
 20
691.2983238338663
 30
0.0
 40
20.0
 41
0.0
 46
0.0
 71
     5
 72
     1
  1
\A1;　
  7
ＭＳ ゴシック
 11
0.0
 21
1.0
 31
0.0
 73
     1
 44
1.0
  0
POINT
  5
4863
330
485A
100
AcDbEntity
  8
Defpoints
 62
     0
100
AcDbPoint
 10
970.9057447441432
 20
712.1648509337374
 30
0.0
  0
POINT
  5
4864
330
485A
100
AcDbEntity
  8
Defpoints
 62
     0
100
AcDbPoint
 10
970.9057447441432
 20
670.4317967339953
 30
0.0
  0
POINT
  5
4865
330
485A
100
AcDbEntity
  8
Defpoints
 62
     0
100
AcDbPoint
 10
910.279085717117
 20
670.4317967339953
 30
0.0
  0
ENDBLK
  5
485C
330
485A
100
AcDbEntity
  8
0
100
AcDbBlockEnd
  0
BLOCK
  5
4867
330
4866
100
AcDbEntity
  8
0
100
AcDbBlockBegin
  2
*D46
 70
     1
 10
0.0
 20
0.0
 30
0.0
  3
*D46
  1

  0
LINE
  5
4869
330
4866
100
AcDbEntity
  8
DIM
 62
     0
370
    -2
100
AcDbLine
 10
982.0917529041849
 20
864.1648509337376
 30
0.0
 11
794.343169259876
 21
864.1648509337376
 31
0.0
  0
LINE
  5
486A
330
4866
100
AcDbEntity
  8
DIM
 62
     0
370
    -2
100
AcDbLine
 10
1173.672634668165
 20
636.9137928709252
 30
0.0
 11
794.343169259876
 21
636.9137928709252
 31
0.0
  0
LINE
  5
486B
330
4866
100
AcDbEntity
  8
DIM
 62
     0
370
    -2
100
AcDbLine
 10
794.343169259876
 20
856.1648509337376
 30
0.0
 11
794.343169259876
 21
644.9137928709252
 31
0.0
  0
INSERT
  5
486C
330
4866
100
AcDbEntity
  8
DIM
 62
     0
370
    -2
100
AcDbBlockReference
  2
_DOT
 10
794.343169259876
 20
864.1648509337376
 30
0.0
 41
8.0
 42
8.0
 43
8.0
 50
90.0
  0
INSERT
  5
486D
330
4866
100
AcDbEntity
  8
DIM
 62
     0
370
    -2
100
AcDbBlockReference
  2
_DOT
 10
794.343169259876
 20
636.9137928709252
 30
0.0
 41
8.0
 42
8.0
 43
8.0
 50
270.0
  0
MTEXT
  5
486E
330
4866
100
AcDbEntity
  8
DIM
 62
     0
100
AcDbMText
 10
768.3394178530986
 20
750.5393219023315
 30
0.0
 40
20.0
 41
0.0
 46
0.0
 71
     5
 72
     1
  1
\A1;227
  7
ＭＳ ゴシック
 11
0.0
 21
1.0
 31
0.0
 73
     1
 44
1.0
  0
POINT
  5
486F
330
4866
100
AcDbEntity
  8
Defpoints
 62
     0
100
AcDbPoint
 10
987.0917529041849
 20
864.1648509337376
 30
0.0
  0
POINT
  5
4870
330
4866
100
AcDbEntity
  8
Defpoints
 62
     0
100
AcDbPoint
 10
1178.672634668165
 20
636.9137928709252
 30
0.0
  0
POINT
  5
4871
330
4866
100
AcDbEntity
  8
Defpoints
 62
     0
100
AcDbPoint
 10
794.343169259876
 20
636.9137928709252
 30
0.0
  0
ENDBLK
  5
4868
330
4866
100
AcDbEntity
  8
0
100
AcDbBlockEnd
  0
BLOCK
  5
488F
330
488E
100
AcDbEntity
  8
0
100
AcDbBlockBegin
  2
*D47
 70
     1
 10
0.0
 20
0.0
 30
0.0
  3
*D47
  1

  0
LINE
  5
4891
330
488E
100
AcDbEntity
  8
DIM
 62
     0
370
    -2
100
AcDbLine
 10
646.4171278564459
 20
864.1648509337379
 30
0.0
 11
744.7536057029013
 21
864.1648509337379
 31
0.0
  0
LINE
  5
4892
330
488E
100
AcDbEntity
  8
DIM
 62
     0
370
    -2
100
AcDbLine
 10
466.5749934685788
 20
636.9137928709256
 30
0.0
 11
744.7536057029013
 21
636.9137928709256
 31
0.0
  0
LINE
  5
4893
330
488E
100
AcDbEntity
  8
DIM
 62
     0
370
    -2
100
AcDbLine
 10
744.7536057029013
 20
856.1648509337379
 30
0.0
 11
744.7536057029013
 21
644.9137928709256
 31
0.0
  0
INSERT
  5
4894
330
488E
100
AcDbEntity
  8
DIM
 62
     0
370
    -2
100
AcDbBlockReference
  2
_DOT
 10
744.7536057029013
 20
864.1648509337379
 30
0.0
 41
8.0
 42
8.0
 43
8.0
 50
90.0
  0
INSERT
  5
4895
330
488E
100
AcDbEntity
  8
DIM
 62
     0
370
    -2
100
AcDbBlockReference
  2
_DOT
 10
744.7536057029013
 20
636.9137928709256
 30
0.0
 41
8.0
 42
8.0
 43
8.0
 50
270.0
  0
MTEXT
  5
4896
330
488E
100
AcDbEntity
  8
DIM
 62
     0
100
AcDbMText
 10
718.7498542961238
 20
750.5393219023317
 30
0.0
 40
20.0
 41
0.0
 46
0.0
 71
     5
 72
     1
  1
\A1;227
  7
ＭＳ ゴシック
 11
0.0
 21
1.0
 31
0.0
 73
     1
 44
1.0
  0
POINT
  5
4897
330
488E
100
AcDbEntity
  8
Defpoints
 62
     0
100
AcDbPoint
 10
641.4171278564459
 20
864.1648509337379
 30
0.0
  0
POINT
  5
4898
330
488E
100
AcDbEntity
  8
Defpoints
 62
     0
100
AcDbPoint
 10
461.5749934685788
 20
636.9137928709256
 30
0.0
  0
POINT
  5
4899
330
488E
100
AcDbEntity
  8
Defpoints
 62
     0
100
AcDbPoint
 10
744.7536057029013
 20
636.9137928709256
 30
0.0
  0
ENDBLK
  5
4890
330
488E
100
AcDbEntity
  8
0
100
AcDbBlockEnd
  0
ENDSEC
  0
SECTION
  2
ENTITIES
  0
MTEXT
  5
177
330
A
100
AcDbEntity
  8
TEMPLATE
390
1D
100
AcDbMText
 10
63.3617156381846
 20
274.9854013051426
 30
0.0
 40
13.03072916666666
 41
0.0
 46
0.0
 71
     1
 72
     1
  1
品名
  7
ＭＳ ゴシック
 73
     1
 44
0.7828267384257843
  0
MTEXT
  5
178
330
A
100
AcDbEntity
  8
TEMPLATE
390
1D
100
AcDbMText
 10
63.3617156381846
 20
206.9854013051424
 30
0.0
 40
13.03072916666666
 41
0.0
 46
0.0
 71
     1
 72
     1
  1
仕様
  7
ＭＳ ゴシック
 73
     1
 44
0.7828267384257843
  0
LINE
  5
179
330
A
100
AcDbEntity
  8
TEMPLATE
390
1D
100
AcDbLine
 10
1617.761715637798
 20
213.7173388051428
 30
0.0
 11
57.761715637799
 21
213.7173388051428
 31
0.0
  0
LWPOLYLINE
  5
17A
330
A
100
AcDbEntity
  8
TEMPLATE
390
1D
100
AcDbPolyline
 90
        5
 70
   128
 43
0.0
 10
1617.761715637798
 20
2317.717338805142
 10
57.761715637799
 20
2317.717338805142
 10
57.761715637799
 20
77.7173388051426
 10
1617.761715637798
 20
77.7173388051426
 10
1617.761715637798
 20
2317.717338805142
  0
LINE
  5
17B
330
A
100
AcDbEntity
  8
TEMPLATE
390
1D
100
AcDbLine
 10
1617.761715637798
 20
281.7173388051426
 30
0.0
 11
57.761715637799
 21
281.7173388051426
 31
0.0
  0
LINE
  5
17C
330
A
100
AcDbEntity
  8
TEMPLATE
390
1D
100
AcDbLine
 10
1617.761715638186
 20
145.7173388051426
 30
0.0
 11
1015.361715638184
 21
145.7173388051426
 31
0.0
  0
MTEXT
  5
17E
330
A
100
AcDbEntity
  8
TEMPLATE
390
1D
100
AcDbMText
 10
1039.258840639993
 20
121.7890232264961
 30
0.0
 40
19.54609375
 41
0.0
 46
0.0
 71
     1
 72
     1
  1
大洋金物株式会社 ティーフォルム事業部
  7
ＭＳ ゴシック
 73
     1
 44
0.7828267384257843
  0
MTEXT
  5
180
330
A
100
AcDbEntity
  8
TEMPLATE
390
1D
100
AcDbMText
 10
1464.961715638392
 20
184.1194325551426
 30
0.0
 40
19.54609375
 41
0.0
 46
19.54609375
 71
     1
 72
     1
  1
{1:8}
  7
ＭＳ ゴシック
 73
     1
 44
0.7828267384257843
1001
ACAD
1000
ACAD_MTEXT_DEFINED_HEIGHT_BEGIN
1070
    46
1040
19.54609375
1000
ACAD_MTEXT_DEFINED_HEIGHT_END
  0
MTEXT
  5
181
330
A
100
AcDbEntity
  8
TEMPLATE
390
1D
100
AcDbMText
 10
1422.561715638392
 20
206.9854013051424
 30
0.0
 40
13.03072916666666
 41
0.0
 46
0.0
 71
     1
 72
     1
  1
縮尺
  7
ＭＳ ゴシック
 73
     1
 44
0.7828267384257843
  0
LINE
  5
182
330
A
100
AcDbEntity
  8
TEMPLATE
390
1D
100
AcDbLine
 10
1416.961715638392
 20
145.7173388051426
 30
0.0
 11
1416.961715638392
 21
213.7173388051428
 31
0.0
  0
MTEXT
  5
183
330
A
100
AcDbEntity
  8
TEMPLATE
390
1D
100
AcDbMText
 10
1221.761715638392
 20
206.9854013051424
 30
0.0
 40
13.03072916666666
 41
0.0
 46
0.0
 71
     1
 72
     1
  1
容量
  7
ＭＳ ゴシック
 73
     1
 44
0.7828267384257843
  0
LINE
  5
184
330
A
100
AcDbEntity
  8
TEMPLATE
390
1D
100
AcDbLine
 10
1216.161715638392
 20
145.7173388051426
 30
0.0
 11
1216.161715638392
 21
213.7173388051428
 31
0.0
  0
MTEXT
  5
185
330
A
100
AcDbEntity
  8
TEMPLATE
390
1D
100
AcDbMText
 10
1020.961715638392
 20
274.9854013051426
 30
0.0
 40
13.03072916666666
 41
0.0
 46
0.0
 71
     1
 72
     1
  1
品番
  7
ＭＳ ゴシック
 73
     1
 44
0.7828267384257843
  0
MTEXT
  5
186
330
A
100
AcDbEntity
  8
TEMPLATE
390
1D
100
AcDbMText
 10
1020.961715638392
 20
206.9854013051424
 30
0.0
 40
13.03072916666666
 41
0.0
 46
0.0
 71
     1
 72
     1
  1
重量
  7
ＭＳ ゴシック
 73
     1
 44
0.7828267384257843
  0
MTEXT
  5
187
330
A
100
AcDbEntity
  8
TEMPLATE
390
1D
100
AcDbMText
 10
1063.361715638392
 20
252.1194325551426
 30
0.0
 40
19.54609375
 41
0.0
 46
19.54609375
 71
     1
 72
     1
  1
{ALC70-0401}
  7
ＭＳ ゴシック
 73
     1
 44
0.7828267384257843
1001
ACAD
1000
ACAD_MTEXT_DEFINED_HEIGHT_BEGIN
1070
    46
1040
19.54609375
1000
ACAD_MTEXT_DEFINED_HEIGHT_END
  0
LINE
  5
188
330
A
100
AcDbEntity
  8
TEMPLATE
390
1D
100
AcDbLine
 10
1015.361715638392
 20
77.7173388051426
 30
0.0
 11
1015.361715638392
 21
281.7173388051426
 31
0.0
  0
MTEXT
  5
189
330
A
100
AcDbEntity
  8
TEMPLATE
390
1D
100
AcDbMText
 10
105.7617156381846
 20
252.1194325551426
 30
0.0
 40
19.54609375
 41
0.0
 46
22.82037608585642
 71
     1
 72
     1
  1
{洗面器　-ALICE CERAMICA, \fＭＳ ゴシック|b0|i0|c1|p0;Equilibrium\fＭＳ ゴシック|b0|i0|c0|p0;-}
  7
ＭＳ ゴシック
 73
     1
 44
0.7828267384257843
1001
ACAD
1000
ACAD_MTEXT_DEFINED_HEIGHT_BEGIN
1070
    46
1040
22.82037608585642
1000
ACAD_MTEXT_DEFINED_HEIGHT_END
  0
INSERT
  5
68C
330
A
100
AcDbEntity
  8
TEMPLATE
100
AcDbBlockReference
  2
block 2
 10
735.4194414162062
 20
6.698461211469094
 30
0.0
 41
0.3048
 42
0.3048
 43
0.3048
  0
MTEXT
  5
D60
330
A
100
AcDbEntity
  8
TEMPLATE
390
1D
100
AcDbMText
 10
1063.361715638184
 20
184.1194325551426
 30
0.0
 40
19.54609375
 41
0.0
 46
22.72108134300363
 71
     1
 72
     1
  1
{7.5kg}
  7
ＭＳ ゴシック
 73
     1
 44
0.7828267384257843
1001
ACAD
1000
ACAD_MTEXT_DEFINED_HEIGHT_BEGIN
1070
    46
1040
22.72108134300363
1000
ACAD_MTEXT_DEFINED_HEIGHT_END
  0
LWPOLYLINE
  5
D69
330
A
100
AcDbEntity
  8
BORDER
100
AcDbPolyline
 90
        4
 70
     1
 43
0.0
 10
0.0
 20
0.0
 10
0.0
 20
2376.0
 10
1680.0
 20
2376.0
 10
1680.0
 20
0.0
  0
INSERT
  5
1343
330
A
100
AcDbEntity
  8
TEMPLATE
100
AcDbBlockReference
  2
block 2
 10
1677.394776693175
 20
19.54825712983655
 30
0.0
 41
0.3048
 42
0.3048
 43
0.3048
  0
HATCH
  5
3CE3
102
{ACAD_REACTORS
330
3CF4
102
}
330
A
100
AcDbEntity
  8
TEMPLATE
100
AcDbHatch
 10
0.0
 20
0.0
 30
0.0
210
0.0
220
0.0
230
1.0
  2
SOLID
 70
     1
 71
     1
 91
        6
 92
        1
 93
        8
 72
     1
 10
1547.654180558225
 20
122.686885999047
 11
1547.654180558225
 21
117.9593598945186
 72
     1
 10
1547.654180558225
 20
117.9593598945186
 11
1540.165707317976
 21
117.9593598945186
 72
     1
 10
1540.165707317976
 20
117.9593598945186
 11
1540.165707317976
 21
98.68688600020374
 72
     1
 10
1540.165707317976
 20
98.68688600020374
 11
1533.579616795355
 21
98.68688600020374
 72
     1
 10
1533.579616795355
 20
98.68688600020374
 11
1533.579616795355
 21
117.9593598945186
 72
     1
 10
1533.579616795355
 20
117.9593598945186
 11
1526.22385564772
 21
117.9593598945186
 72
     1
 10
1526.22385564772
 20
117.9593598945186
 11
1526.22385564772
 21
122.686885999047
 72
     1
 10
1526.22385564772
 20
122.686885999047
 11
1547.654180558225
 21
122.686885999047
 97
        1
330
3CE4
 92
        1
 93
        1
 72
     4
 94
        3
 73
     0
 74
     1
 95
       56
 96
       52
 40
0.0
 40
0.0
 40
0.0
 40
0.0
 40
1.0
 40
1.0
 40
1.0
 40
2.0
 40
2.0
 40
2.0
 40
3.0
 40
3.0
 40
3.0
 40
4.0
 40
4.0
 40
4.0
 40
5.0
 40
5.0
 40
5.0
 40
6.0
 40
6.0
 40
6.0
 40
7.0
 40
7.0
 40
7.0
 40
8.0
 40
8.0
 40
8.0
 40
9.0
 40
9.0
 40
9.0
 40
10.0
 40
10.0
 40
10.0
 40
11.0
 40
11.0
 40
11.0
 40
12.0
 40
12.0
 40
12.0
 40
13.0
 40
13.0
 40
13.0
 40
14.0
 40
14.0
 40
14.0
 40
15.0
 40
15.0
 40
15.0
 40
16.0
 40
16.0
 40
16.0
 40
17.0
 40
17.0
 40
17.0
 40
17.0
 10
1557.687928905659
 20
122.1153908307171
 10
1558.611021851194
 20
122.3752208739253
 10
1559.802693125861
 20
122.1578825052133
 10
1559.802693125861
 20
122.1578825052133
 10
1559.802693125861
 20
122.1578825052133
 10
1559.230186250996
 20
120.4398262712745
 10
1559.230186250996
 20
120.4398262712745
 10
1559.230186250996
 20
120.4398262712745
 10
1558.060296422918
 20
120.710547037778
 10
1557.157973217439
 20
119.9990197824878
 10
1556.456801076102
 20
119.442581187894
 10
1556.002544841606
 20
117.9640613543017
 10
1555.828293268882
 20
117.4019095933891
 10
1555.828293268882
 20
117.4019095933891
 10
1555.051421673821
 20
115.0173768010701
 10
1555.051421673821
 20
115.0173768010701
 10
1555.051421673821
 20
115.0173768010701
 10
1557.598720194077
 20
115.0173768010701
 10
1557.598720194077
 20
115.0173768010701
 10
1557.598720194077
 20
115.0173768010701
 10
1557.202547817156
 20
113.516599423694
 10
1557.202547817156
 20
113.516599423694
 10
1557.202547817156
 20
113.516599423694
 10
1554.634479556845
 20
113.516599423694
 10
1554.634479556845
 20
113.516599423694
 10
1554.634479556845
 20
113.516599423694
 10
1550.03972505708
 20
98.68688600020374
 10
1550.03972505708
 20
98.68688600020374
 10
1550.03972505708
 20
98.68688600020374
 10
1548.60113787557
 20
98.68688600020374
 10
1548.60113787557
 20
98.68688600020374
 10
1548.60113787557
 20
98.68688600020374
 10
1553.200058225776
 20
113.516599423694
 10
1553.200058225776
 20
113.516599423694
 10
1553.200058225776
 20
113.516599423694
 10
1551.305072372401
 20
113.516599423694
 10
1551.305072372401
 20
113.516599423694
 10
1551.305072372401
 20
113.516599423694
 10
1551.702315968007
 20
115.0173768010701
 10
1551.702315968007
 20
115.0173768010701
 10
1551.702315968007
 20
115.0173768010701
 10
1553.617000342751
 20
115.0173768010701
 10
1553.617000342751
 20
115.0173768010701
 10
1553.617000342751
 20
115.0173768010701
 10
1554.294248600129
 20
117.0969693411219
 10
1554.294248600129
 20
117.0969693411219
 10
1554.841879396648
 20
118.8404967748988
 10
1555.306550257245
 20
119.7765633689486
 10
1555.704865071536
 20
120.4823179457708
 10
1556.098954523236
 20
121.1886676440845
 10
1556.878920750054
 20
121.8825197910759
 10
1557.687928905659
 20
122.1153908307171
 97
        1
330
3CEF
 92
        1
 93
        1
 72
     4
 94
        3
 73
     0
 74
     1
 95
       32
 96
       28
 40
0.0
 40
0.0
 40
0.0
 40
0.0
 40
1.0
 40
1.0
 40
1.0
 40
2.0
 40
2.0
 40
2.0
 40
3.0
 40
3.0
 40
3.0
 40
4.0
 40
4.0
 40
4.0
 40
5.0
 40
5.0
 40
5.0
 40
6.0
 40
6.0
 40
6.0
 40
7.0
 40
7.0
 40
7.0
 40
8.0
 40
8.0
 40
8.0
 40
9.0
 40
9.0
 40
9.0
 40
9.0
 10
1561.188374006773
 20
114.1104116479568
 10
1560.322353212278
 20
112.9902144644232
 10
1559.655460068853
 20
111.9820786577475
 10
1558.575790658894
 20
108.813473300319
 10
1557.583187523147
 20
105.9151126122006
 10
1556.951525572023
 20
103.8064781433614
 10
1556.856127596928
 20
101.2384098830501
 10
1556.78352277496
 20
99.32735574940358
 10
1557.947223339525
 20
98.68688600020374
 10
1559.653436655782
 20
98.68688600020374
 10
1560.388768770734
 20
98.68688600020374
 10
1562.244357581369
 20
98.73366254943912
 10
1563.565765341194
 20
100.3671520194295
 10
1564.490822187649
 20
101.5147843037232
 10
1565.343393236436
 20
102.70443216532
 10
1566.486383573095
 20
106.6068818339716
 10
1567.437506740881
 20
109.8693378506166
 10
1568.096068183424
 20
111.9779128073066
 10
1568.047387245416
 20
113.1784513921987
 10
1568.047387245416
 20
113.1784513921987
 10
1568.047387245416
 20
113.1784513921987
 10
1568.047387245416
 20
113.1784513921987
 10
1567.737209924023
 20
115.1812732598413
 10
1566.283090071584
 20
115.6044641524784
 10
1565.452300469388
 20
115.6044641524784
 10
1564.634008418515
 20
115.6044641524784
 10
1562.44134279507
 20
115.7460435553167
 10
1561.188374006773
 20
114.1104116479568
 97
        1
330
3CF2
 92
        1
 93
        1
 72
     4
 94
        3
 73
     0
 74
     1
 95
       38
 96
       34
 40
0.0
 40
0.0
 40
0.0
 40
0.0
 40
1.0
 40
1.0
 40
1.0
 40
2.0
 40
2.0
 40
2.0
 40
3.0
 40
3.0
 40
3.0
 40
4.0
 40
4.0
 40
4.0
 40
5.0
 40
5.0
 40
5.0
 40
6.0
 40
6.0
 40
6.0
 40
7.0
 40
7.0
 40
7.0
 40
8.0
 40
8.0
 40
8.0
 40
9.0
 40
9.0
 40
9.0
 40
10.0
 40
10.0
 40
10.0
 40
11.0
 40
11.0
 40
11.0
 40
11.0
 10
1573.306951963385
 20
114.9598285528377
 10
1573.306951963385
 20
114.9598285528377
 10
1574.78594789417
 20
114.9598285528377
 10
1574.78594789417
 20
114.9598285528377
 10
1574.78594789417
 20
114.9598285528377
 10
1574.125244014258
 20
112.8444692111441
 10
1574.125244014258
 20
112.8444692111441
 10
1574.627288504525
 20
113.4382814354068
 10
1575.419633258367
 20
114.2291383855198
 10
1576.100095171798
 20
114.6279292970036
 10
1577.116562679355
 20
115.2217415212663
 10
1577.697401255102
 20
115.3000595095535
 10
1578.336204664126
 20
115.2844673264751
 10
1578.336204664126
 20
115.2844673264751
 10
1577.711922219496
 20
113.2842639933952
 10
1577.711922219496
 20
113.2842639933952
 10
1577.305335216473
 20
113.4564326408989
 10
1576.052366428176
 20
113.1286992355056
 10
1575.333578690689
 20
112.611657683652
 10
1574.685372362099
 20
112.1454395071763
 10
1574.237245878966
 20
111.748731520913
 10
1573.706278484211
 20
110.7514269253833
 10
1573.179357915597
 20
109.7526345261248
 10
1572.763487017306
 20
108.1600299026035
 10
1572.047793911575
 20
105.8496492481308
 10
1572.047793911575
 20
105.8496492481308
 10
1569.812636613634
 20
98.68688600020374
 10
1569.812636613634
 20
98.68688600020374
 10
1569.812636613634
 20
98.68688600020374
 10
1568.377203576029
 20
98.68688600020374
 10
1568.377203576029
 20
98.68688600020374
 10
1568.377203576029
 20
98.68688600020374
 10
1573.306951963385
 20
114.9598285528377
 10
1573.306951963385
 20
114.9598285528377
 97
        1
330
3CF0
 92
        1
 93
        1
 72
     4
 94
        3
 73
     0
 74
     1
 95
      104
 96
      100
 40
0.0
 40
0.0
 40
0.0
 40
0.0
 40
1.0
 40
1.0
 40
1.0
 40
2.0
 40
2.0
 40
2.0
 40
3.0
 40
3.0
 40
3.0
 40
4.0
 40
4.0
 40
4.0
 40
5.0
 40
5.0
 40
5.0
 40
6.0
 40
6.0
 40
6.0
 40
7.0
 40
7.0
 40
7.0
 40
8.0
 40
8.0
 40
8.0
 40
9.0
 40
9.0
 40
9.0
 40
10.0
 40
10.0
 40
10.0
 40
11.0
 40
11.0
 40
11.0
 40
12.0
 40
12.0
 40
12.0
 40
13.0
 40
13.0
 40
13.0
 40
14.0
 40
14.0
 40
14.0
 40
15.0
 40
15.0
 40
15.0
 40
16.0
 40
16.0
 40
16.0
 40
17.0
 40
17.0
 40
17.0
 40
18.0
 40
18.0
 40
18.0
 40
19.0
 40
19.0
 40
19.0
 40
20.0
 40
20.0
 40
20.0
 40
21.0
 40
21.0
 40
21.0
 40
22.0
 40
22.0
 40
22.0
 40
23.0
 40
23.0
 40
23.0
 40
24.0
 40
24.0
 40
24.0
 40
25.0
 40
25.0
 40
25.0
 40
26.0
 40
26.0
 40
26.0
 40
27.0
 40
27.0
 40
27.0
 40
28.0
 40
28.0
 40
28.0
 40
29.0
 40
29.0
 40
29.0
 40
30.0
 40
30.0
 40
30.0
 40
31.0
 40
31.0
 40
31.0
 40
32.0
 40
32.0
 40
32.0
 40
33.0
 40
33.0
 40
33.0
 40
33.0
 10
1581.447856894813
 20
114.9686363509126
 10
1581.447856894813
 20
114.9686363509126
 10
1582.739151507166
 20
114.9686363509126
 10
1582.739151507166
 20
114.9686363509126
 10
1582.739151507166
 20
114.9686363509126
 10
1582.086779328135
 20
112.8512535961477
 10
1582.086779328135
 20
112.8512535961477
 10
1582.652977915191
 20
113.7390558372332
 10
1583.161211668969
 20
114.134752116961
 10
1583.836436513275
 20
114.6460805024957
 10
1584.513684770653
 20
115.1501484058336
 10
1585.31757488143
 20
115.2528663752741
 10
1585.875560791902
 20
115.2528663752741
 10
1586.566377819287
 20
115.2528663752741
 10
1587.233270962711
 20
115.1164645294122
 10
1587.58379752123
 20
114.3592914557206
 10
1587.852435362513
 20
113.7655387436069
 10
1587.864932913836
 20
113.6954929440522
 10
1587.788162241427
 20
112.5234606786051
 10
1588.490286577151
 20
113.725070482182
 10
1589.008875444882
 20
114.2426476433779
 10
1589.890488422455
 20
114.7399311617122
 10
1590.81566429321
 20
115.2528663752741
 10
1591.354963388847
 20
115.2912517114787
 10
1591.981507295145
 20
115.198888855991
 10
1592.90454072853
 20
115.0625465222783
 10
1593.493711005159
 20
114.7332062888577
 10
1593.801745889182
 20
113.7323309643788
 10
1594.11085199189
 20
112.7345502716558
 10
1593.943860901363
 20
112.1993575143102
 10
1593.562149976686
 20
110.6109187412297
 10
1593.387898403962
 20
109.8874890561087
 10
1593.135804940144
 20
109.0115297327048
 10
1592.80598860953
 20
107.9692339524144
 10
1592.80598860953
 20
107.9692339524144
 10
1589.890488422455
 20
98.68688600020374
 10
1589.890488422455
 20
98.68688600020374
 10
1589.890488422455
 20
98.68688600020374
 10
1588.374118862001
 20
98.68688600020374
 10
1588.374118862001
 20
98.68688600020374
 10
1588.374118862001
 20
98.68688600020374
 10
1590.926713963532
 20
106.8018436346014
 10
1590.926713963532
 20
106.8018436346014
 10
1591.459823795657
 20
108.4997252499769
 10
1591.82070546813
 20
109.7396608776091
 10
1592.007454592176
 20
110.5170680820132
 10
1592.241813435546
 20
111.4868185524844
 10
1592.335128485421
 20
111.8068153784877
 10
1592.224197839397
 20
112.5126294674591
 10
1592.122551088641
 20
113.1696435941238
 10
1591.790592320658
 20
113.5974764343949
 10
1591.222251296233
 20
113.5974764343949
 10
1590.616536642139
 20
113.5974764343949
 10
1590.12591848451
 20
113.5300491694029
 10
1589.439386331865
 20
112.8403628728524
 10
1588.752735154922
 20
112.1454395071763
 10
1588.185346324883
 20
111.3297064787168
 10
1587.740433497805
 20
110.3915569594466
 10
1587.296472865113
 20
109.4476942738576
 10
1586.846322968909
 20
108.2513215394063
 10
1586.389983809193
 20
106.8018436346014
 10
1586.389983809193
 20
106.8018436346014
 10
1583.836436513275
 20
98.68688600020374
 10
1583.836436513275
 20
98.68688600020374
 10
1583.836436513275
 20
98.68688600020374
 10
1582.410287370939
 20
98.68688600020374
 10
1582.410287370939
 20
98.68688600020374
 10
1582.410287370939
 20
98.68688600020374
 10
1585.329953408454
 20
107.9650681019736
 10
1585.329953408454
 20
107.9650681019736
 10
1585.637988292478
 20
108.9524936807437
 10
1585.86937152839
 20
109.757335985908
 10
1586.021841654524
 20
110.3863794024701
 10
1586.28107657624
 20
111.4692029563347
 10
1586.353681398209
 20
112.2014404395306
 10
1586.157648378894
 20
112.8512535961477
 10
1585.964709991335
 20
113.4989838275443
 10
1585.625609765454
 20
113.6644276021936
 10
1585.0592921541
 20
113.6644276021936
 10
1584.58426617955
 20
113.6644276021936
 10
1584.120666537637
 20
113.4605984913397
 10
1583.591722555952
 20
113.0550231948524
 10
1582.925781606914
 20
112.5447660280024
 10
1582.659286203001
 20
112.1257409858062
 10
1582.332564504143
 20
111.6278623459804
 10
1581.891698503207
 20
110.9692413912885
 10
1581.68531036994
 20
110.5258758800881
 10
1581.31300236483
 20
109.5529712657117
 10
1580.940575335421
 20
108.5743534850165
 10
1580.588025363831
 20
107.4355289987976
 10
1580.342121163525
 20
106.6478261925898
 10
1580.342121163525
 20
106.6478261925898
 10
1577.837373829914
 20
98.68688600020374
 10
1577.837373829914
 20
98.68688600020374
 10
1577.837373829914
 20
98.68688600020374
 10
1576.343856934735
 20
98.68688600020374
 10
1576.343856934735
 20
98.68688600020374
 10
1576.343856934735
 20
98.68688600020374
 10
1581.447856894813
 20
114.9686363509126
 10
1581.447856894813
 20
114.9686363509126
 97
        1
330
3CF1
 92
       16
 93
        1
 72
     4
 94
        3
 73
     0
 74
     1
 95
       29
 96
       25
 40
0.0
 40
0.0
 40
0.0
 40
0.0
 40
1.0
 40
1.0
 40
1.0
 40
2.0
 40
2.0
 40
2.0
 40
3.0
 40
3.0
 40
3.0
 40
4.0
 40
4.0
 40
4.0
 40
5.0
 40
5.0
 40
5.0
 40
6.0
 40
6.0
 40
6.0
 40
7.0
 40
7.0
 40
7.0
 40
8.0
 40
8.0
 40
8.0
 40
8.0
 10
1558.405704936611
 20
101.7185539024279
 10
1558.399396648801
 20
102.8522603438195
 10
1558.757302713815
 20
104.8665085440999
 10
1559.674146883688
 20
107.5615757307067
 10
1560.922949821544
 20
111.2109202290046
 10
1561.671850706503
 20
112.5447660280024
 10
1562.327198492992
 20
113.1940435752771
 10
1563.284629948588
 20
114.1394535767441
 10
1564.5717587105
 20
114.1865871988744
 10
1564.951446222105
 20
114.1394535767441
 10
1565.491816536427
 20
114.0745853341658
 10
1566.255119361481
 20
113.7209046317411
 10
1566.300705667734
 20
112.5302450636088
 10
1566.337127103016
 20
111.5112185336377
 10
1566.043494159088
 20
109.6027829345539
 10
1565.015719343191
 20
106.6068818339716
 10
1563.831189526422
 20
103.1255401327366
 10
1563.119662271132
 20
101.7569987507817
 10
1562.549297833636
 20
101.1605679919562
 10
1561.474746468504
 20
100.042453733643
 10
1560.322353212278
 20
100.1498136507176
 10
1560.152267489994
 20
100.1498136507176
 10
1559.931358392333
 20
100.1498136507176
 10
1558.408799568367
 20
100.3895285875116
 10
1558.405704936611
 20
101.7185539024279
 97
        1
330
3CF3
 75
     0
 76
     1
 98
        1
 10
1487.540661136605
 20
58.0166403409717
1001
ACAD
1010
0.0
1020
0.0
1030
0.0
  0
POLYLINE
  5
3CE4
102
{ACAD_REACTORS
330
3CE3
330
3CF4
102
}
330
A
100
AcDbEntity
  8
TEMPLATE
100
AcDb2dPolyline
 66
     1
 10
0.0
 20
0.0
 30
0.0
  0
VERTEX
  5
3CE5
330
3CE4
100
AcDbEntity
  8
TEMPLATE
100
AcDbVertex
100
AcDb2dVertex
 10
1547.654180558225
 20
122.686885999047
 30
0.0
  0
VERTEX
  5
3CE6
330
3CE4
100
AcDbEntity
  8
TEMPLATE
100
AcDbVertex
100
AcDb2dVertex
 10
1547.654180558225
 20
117.9593598945186
 30
0.0
  0
VERTEX
  5
3CE7
330
3CE4
100
AcDbEntity
  8
TEMPLATE
100
AcDbVertex
100
AcDb2dVertex
 10
1540.165707317976
 20
117.9593598945186
 30
0.0
  0
VERTEX
  5
3CE8
330
3CE4
100
AcDbEntity
  8
TEMPLATE
100
AcDbVertex
100
AcDb2dVertex
 10
1540.165707317976
 20
98.68688600020374
 30
0.0
  0
VERTEX
  5
3CE9
330
3CE4
100
AcDbEntity
  8
TEMPLATE
100
AcDbVertex
100
AcDb2dVertex
 10
1533.579616795355
 20
98.68688600020374
 30
0.0
  0
VERTEX
  5
3CEA
330
3CE4
100
AcDbEntity
  8
TEMPLATE
100
AcDbVertex
100
AcDb2dVertex
 10
1533.579616795355
 20
117.9593598945186
 30
0.0
  0
VERTEX
  5
3CEB
330
3CE4
100
AcDbEntity
  8
TEMPLATE
100
AcDbVertex
100
AcDb2dVertex
 10
1526.22385564772
 20
117.9593598945186
 30
0.0
  0
VERTEX
  5
3CEC
330
3CE4
100
AcDbEntity
  8
TEMPLATE
100
AcDbVertex
100
AcDb2dVertex
 10
1526.22385564772
 20
122.686885999047
 30
0.0
  0
VERTEX
  5
3CED
330
3CE4
100
AcDbEntity
  8
TEMPLATE
100
AcDbVertex
100
AcDb2dVertex
 10
1547.654180558225
 20
122.686885999047
 30
0.0
  0
SEQEND
  5
3CEE
330
3CE4
100
AcDbEntity
  8
TEMPLATE
  0
SPLINE
  5
3CEF
102
{ACAD_REACTORS
330
3CE3
330
3CF4
102
}
330
A
100
AcDbEntity
  8
TEMPLATE
100
AcDbSpline
210
0.0
220
0.0
230
1.0
 70
    11
 71
     3
 72
    56
 73
    52
 74
     0
 42
0.000000001
 43
0.0000000001
 40
0.0
 40
0.0
 40
0.0
 40
0.0
 40
1.0
 40
1.0
 40
1.0
 40
2.0
 40
2.0
 40
2.0
 40
3.0
 40
3.0
 40
3.0
 40
4.0
 40
4.0
 40
4.0
 40
5.0
 40
5.0
 40
5.0
 40
6.0
 40
6.0
 40
6.0
 40
7.0
 40
7.0
 40
7.0
 40
8.0
 40
8.0
 40
8.0
 40
9.0
 40
9.0
 40
9.0
 40
10.0
 40
10.0
 40
10.0
 40
11.0
 40
11.0
 40
11.0
 40
12.0
 40
12.0
 40
12.0
 40
13.0
 40
13.0
 40
13.0
 40
14.0
 40
14.0
 40
14.0
 40
15.0
 40
15.0
 40
15.0
 40
16.0
 40
16.0
 40
16.0
 40
17.0
 40
17.0
 40
17.0
 40
17.0
 10
1557.687928905659
 20
122.1153908307171
 30
0.0
 10
1558.611021851194
 20
122.3752208739253
 30
0.0
 10
1559.802693125861
 20
122.1578825052133
 30
0.0
 10
1559.802693125861
 20
122.1578825052133
 30
0.0
 10
1559.802693125861
 20
122.1578825052133
 30
0.0
 10
1559.230186250996
 20
120.4398262712745
 30
0.0
 10
1559.230186250996
 20
120.4398262712745
 30
0.0
 10
1559.230186250996
 20
120.4398262712745
 30
0.0
 10
1558.060296422918
 20
120.710547037778
 30
0.0
 10
1557.157973217439
 20
119.9990197824878
 30
0.0
 10
1556.456801076102
 20
119.442581187894
 30
0.0
 10
1556.002544841606
 20
117.9640613543017
 30
0.0
 10
1555.828293268882
 20
117.4019095933891
 30
0.0
 10
1555.828293268882
 20
117.4019095933891
 30
0.0
 10
1555.051421673821
 20
115.0173768010701
 30
0.0
 10
1555.051421673821
 20
115.0173768010701
 30
0.0
 10
1555.051421673821
 20
115.0173768010701
 30
0.0
 10
1557.598720194077
 20
115.0173768010701
 30
0.0
 10
1557.598720194077
 20
115.0173768010701
 30
0.0
 10
1557.598720194077
 20
115.0173768010701
 30
0.0
 10
1557.202547817156
 20
113.516599423694
 30
0.0
 10
1557.202547817156
 20
113.516599423694
 30
0.0
 10
1557.202547817156
 20
113.516599423694
 30
0.0
 10
1554.634479556845
 20
113.516599423694
 30
0.0
 10
1554.634479556845
 20
113.516599423694
 30
0.0
 10
1554.634479556845
 20
113.516599423694
 30
0.0
 10
1550.03972505708
 20
98.68688600020374
 30
0.0
 10
1550.03972505708
 20
98.68688600020374
 30
0.0
 10
1550.03972505708
 20
98.68688600020374
 30
0.0
 10
1548.60113787557
 20
98.68688600020374
 30
0.0
 10
1548.60113787557
 20
98.68688600020374
 30
0.0
 10
1548.60113787557
 20
98.68688600020374
 30
0.0
 10
1553.200058225776
 20
113.516599423694
 30
0.0
 10
1553.200058225776
 20
113.516599423694
 30
0.0
 10
1553.200058225776
 20
113.516599423694
 30
0.0
 10
1551.305072372401
 20
113.516599423694
 30
0.0
 10
1551.305072372401
 20
113.516599423694
 30
0.0
 10
1551.305072372401
 20
113.516599423694
 30
0.0
 10
1551.702315968007
 20
115.0173768010701
 30
0.0
 10
1551.702315968007
 20
115.0173768010701
 30
0.0
 10
1551.702315968007
 20
115.0173768010701
 30
0.0
 10
1553.617000342751
 20
115.0173768010701
 30
0.0
 10
1553.617000342751
 20
115.0173768010701
 30
0.0
 10
1553.617000342751
 20
115.0173768010701
 30
0.0
 10
1554.294248600129
 20
117.0969693411219
 30
0.0
 10
1554.294248600129
 20
117.0969693411219
 30
0.0
 10
1554.841879396648
 20
118.8404967748988
 30
0.0
 10
1555.306550257245
 20
119.7765633689486
 30
0.0
 10
1555.704865071536
 20
120.4823179457708
 30
0.0
 10
1556.098954523236
 20
121.1886676440845
 30
0.0
 10
1556.878920750054
 20
121.8825197910759
 30
0.0
 10
1557.687928905659
 20
122.1153908307171
 30
0.0
  0
SPLINE
  5
3CF0
102
{ACAD_REACTORS
330
3CE3
330
3CF4
102
}
330
A
100
AcDbEntity
  8
TEMPLATE
100
AcDbSpline
210
0.0
220
0.0
230
1.0
 70
    11
 71
     3
 72
    38
 73
    34
 74
     0
 42
0.000000001
 43
0.0000000001
 40
0.0
 40
0.0
 40
0.0
 40
0.0
 40
1.0
 40
1.0
 40
1.0
 40
2.0
 40
2.0
 40
2.0
 40
3.0
 40
3.0
 40
3.0
 40
4.0
 40
4.0
 40
4.0
 40
5.0
 40
5.0
 40
5.0
 40
6.0
 40
6.0
 40
6.0
 40
7.0
 40
7.0
 40
7.0
 40
8.0
 40
8.0
 40
8.0
 40
9.0
 40
9.0
 40
9.0
 40
10.0
 40
10.0
 40
10.0
 40
11.0
 40
11.0
 40
11.0
 40
11.0
 10
1573.306951963385
 20
114.9598285528377
 30
0.0
 10
1573.306951963385
 20
114.9598285528377
 30
0.0
 10
1574.78594789417
 20
114.9598285528377
 30
0.0
 10
1574.78594789417
 20
114.9598285528377
 30
0.0
 10
1574.78594789417
 20
114.9598285528377
 30
0.0
 10
1574.125244014258
 20
112.8444692111441
 30
0.0
 10
1574.125244014258
 20
112.8444692111441
 30
0.0
 10
1574.627288504525
 20
113.4382814354068
 30
0.0
 10
1575.419633258367
 20
114.2291383855198
 30
0.0
 10
1576.100095171798
 20
114.6279292970036
 30
0.0
 10
1577.116562679355
 20
115.2217415212663
 30
0.0
 10
1577.697401255102
 20
115.3000595095535
 30
0.0
 10
1578.336204664126
 20
115.2844673264751
 30
0.0
 10
1578.336204664126
 20
115.2844673264751
 30
0.0
 10
1577.711922219496
 20
113.2842639933952
 30
0.0
 10
1577.711922219496
 20
113.2842639933952
 30
0.0
 10
1577.305335216473
 20
113.4564326408989
 30
0.0
 10
1576.052366428176
 20
113.1286992355056
 30
0.0
 10
1575.333578690689
 20
112.611657683652
 30
0.0
 10
1574.685372362099
 20
112.1454395071763
 30
0.0
 10
1574.237245878966
 20
111.748731520913
 30
0.0
 10
1573.706278484211
 20
110.7514269253833
 30
0.0
 10
1573.179357915597
 20
109.7526345261248
 30
0.0
 10
1572.763487017306
 20
108.1600299026035
 30
0.0
 10
1572.047793911575
 20
105.8496492481308
 30
0.0
 10
1572.047793911575
 20
105.8496492481308
 30
0.0
 10
1569.812636613634
 20
98.68688600020374
 30
0.0
 10
1569.812636613634
 20
98.68688600020374
 30
0.0
 10
1569.812636613634
 20
98.68688600020374
 30
0.0
 10
1568.377203576029
 20
98.68688600020374
 30
0.0
 10
1568.377203576029
 20
98.68688600020374
 30
0.0
 10
1568.377203576029
 20
98.68688600020374
 30
0.0
 10
1573.306951963385
 20
114.9598285528377
 30
0.0
 10
1573.306951963385
 20
114.9598285528377
 30
0.0
  0
SPLINE
  5
3CF1
102
{ACAD_REACTORS
330
3CE3
330
3CF4
102
}
330
A
100
AcDbEntity
  8
TEMPLATE
100
AcDbSpline
210
0.0
220
0.0
230
1.0
 70
    11
 71
     3
 72
   104
 73
   100
 74
     0
 42
0.000000001
 43
0.0000000001
 40
0.0
 40
0.0
 40
0.0
 40
0.0
 40
1.0
 40
1.0
 40
1.0
 40
2.0
 40
2.0
 40
2.0
 40
3.0
 40
3.0
 40
3.0
 40
4.0
 40
4.0
 40
4.0
 40
5.0
 40
5.0
 40
5.0
 40
6.0
 40
6.0
 40
6.0
 40
7.0
 40
7.0
 40
7.0
 40
8.0
 40
8.0
 40
8.0
 40
9.0
 40
9.0
 40
9.0
 40
10.0
 40
10.0
 40
10.0
 40
11.0
 40
11.0
 40
11.0
 40
12.0
 40
12.0
 40
12.0
 40
13.0
 40
13.0
 40
13.0
 40
14.0
 40
14.0
 40
14.0
 40
15.0
 40
15.0
 40
15.0
 40
16.0
 40
16.0
 40
16.0
 40
17.0
 40
17.0
 40
17.0
 40
18.0
 40
18.0
 40
18.0
 40
19.0
 40
19.0
 40
19.0
 40
20.0
 40
20.0
 40
20.0
 40
21.0
 40
21.0
 40
21.0
 40
22.0
 40
22.0
 40
22.0
 40
23.0
 40
23.0
 40
23.0
 40
24.0
 40
24.0
 40
24.0
 40
25.0
 40
25.0
 40
25.0
 40
26.0
 40
26.0
 40
26.0
 40
27.0
 40
27.0
 40
27.0
 40
28.0
 40
28.0
 40
28.0
 40
29.0
 40
29.0
 40
29.0
 40
30.0
 40
30.0
 40
30.0
 40
31.0
 40
31.0
 40
31.0
 40
32.0
 40
32.0
 40
32.0
 40
33.0
 40
33.0
 40
33.0
 40
33.0
 10
1581.447856894813
 20
114.9686363509126
 30
0.0
 10
1581.447856894813
 20
114.9686363509126
 30
0.0
 10
1582.739151507166
 20
114.9686363509126
 30
0.0
 10
1582.739151507166
 20
114.9686363509126
 30
0.0
 10
1582.739151507166
 20
114.9686363509126
 30
0.0
 10
1582.086779328135
 20
112.8512535961477
 30
0.0
 10
1582.086779328135
 20
112.8512535961477
 30
0.0
 10
1582.652977915191
 20
113.7390558372332
 30
0.0
 10
1583.161211668969
 20
114.134752116961
 30
0.0
 10
1583.836436513275
 20
114.6460805024957
 30
0.0
 10
1584.513684770653
 20
115.1501484058336
 30
0.0
 10
1585.31757488143
 20
115.2528663752741
 30
0.0
 10
1585.875560791902
 20
115.2528663752741
 30
0.0
 10
1586.566377819287
 20
115.2528663752741
 30
0.0
 10
1587.233270962711
 20
115.1164645294122
 30
0.0
 10
1587.58379752123
 20
114.3592914557206
 30
0.0
 10
1587.852435362513
 20
113.7655387436069
 30
0.0
 10
1587.864932913836
 20
113.6954929440522
 30
0.0
 10
1587.788162241427
 20
112.5234606786051
 30
0.0
 10
1588.490286577151
 20
113.725070482182
 30
0.0
 10
1589.008875444882
 20
114.2426476433779
 30
0.0
 10
1589.890488422455
 20
114.7399311617122
 30
0.0
 10
1590.81566429321
 20
115.2528663752741
 30
0.0
 10
1591.354963388847
 20
115.2912517114787
 30
0.0
 10
1591.981507295145
 20
115.198888855991
 30
0.0
 10
1592.90454072853
 20
115.0625465222783
 30
0.0
 10
1593.493711005159
 20
114.7332062888577
 30
0.0
 10
1593.801745889182
 20
113.7323309643788
 30
0.0
 10
1594.11085199189
 20
112.7345502716558
 30
0.0
 10
1593.943860901363
 20
112.1993575143102
 30
0.0
 10
1593.562149976686
 20
110.6109187412297
 30
0.0
 10
1593.387898403962
 20
109.8874890561087
 30
0.0
 10
1593.135804940144
 20
109.0115297327048
 30
0.0
 10
1592.80598860953
 20
107.9692339524144
 30
0.0
 10
1592.80598860953
 20
107.9692339524144
 30
0.0
 10
1589.890488422455
 20
98.68688600020374
 30
0.0
 10
1589.890488422455
 20
98.68688600020374
 30
0.0
 10
1589.890488422455
 20
98.68688600020374
 30
0.0
 10
1588.374118862001
 20
98.68688600020374
 30
0.0
 10
1588.374118862001
 20
98.68688600020374
 30
0.0
 10
1588.374118862001
 20
98.68688600020374
 30
0.0
 10
1590.926713963532
 20
106.8018436346014
 30
0.0
 10
1590.926713963532
 20
106.8018436346014
 30
0.0
 10
1591.459823795657
 20
108.4997252499769
 30
0.0
 10
1591.82070546813
 20
109.7396608776091
 30
0.0
 10
1592.007454592176
 20
110.5170680820132
 30
0.0
 10
1592.241813435546
 20
111.4868185524844
 30
0.0
 10
1592.335128485421
 20
111.8068153784877
 30
0.0
 10
1592.224197839397
 20
112.5126294674591
 30
0.0
 10
1592.122551088641
 20
113.1696435941238
 30
0.0
 10
1591.790592320658
 20
113.5974764343949
 30
0.0
 10
1591.222251296233
 20
113.5974764343949
 30
0.0
 10
1590.616536642139
 20
113.5974764343949
 30
0.0
 10
1590.12591848451
 20
113.5300491694029
 30
0.0
 10
1589.439386331865
 20
112.8403628728524
 30
0.0
 10
1588.752735154922
 20
112.1454395071763
 30
0.0
 10
1588.185346324883
 20
111.3297064787168
 30
0.0
 10
1587.740433497805
 20
110.3915569594466
 30
0.0
 10
1587.296472865113
 20
109.4476942738576
 30
0.0
 10
1586.846322968909
 20
108.2513215394063
 30
0.0
 10
1586.389983809193
 20
106.8018436346014
 30
0.0
 10
1586.389983809193
 20
106.8018436346014
 30
0.0
 10
1583.836436513275
 20
98.68688600020374
 30
0.0
 10
1583.836436513275
 20
98.68688600020374
 30
0.0
 10
1583.836436513275
 20
98.68688600020374
 30
0.0
 10
1582.410287370939
 20
98.68688600020374
 30
0.0
 10
1582.410287370939
 20
98.68688600020374
 30
0.0
 10
1582.410287370939
 20
98.68688600020374
 30
0.0
 10
1585.329953408454
 20
107.9650681019736
 30
0.0
 10
1585.329953408454
 20
107.9650681019736
 30
0.0
 10
1585.637988292478
 20
108.9524936807437
 30
0.0
 10
1585.86937152839
 20
109.757335985908
 30
0.0
 10
1586.021841654524
 20
110.3863794024701
 30
0.0
 10
1586.28107657624
 20
111.4692029563347
 30
0.0
 10
1586.353681398209
 20
112.2014404395306
 30
0.0
 10
1586.157648378894
 20
112.8512535961477
 30
0.0
 10
1585.964709991335
 20
113.4989838275443
 30
0.0
 10
1585.625609765454
 20
113.6644276021936
 30
0.0
 10
1585.0592921541
 20
113.6644276021936
 30
0.0
 10
1584.58426617955
 20
113.6644276021936
 30
0.0
 10
1584.120666537637
 20
113.4605984913397
 30
0.0
 10
1583.591722555952
 20
113.0550231948524
 30
0.0
 10
1582.925781606914
 20
112.5447660280024
 30
0.0
 10
1582.659286203001
 20
112.1257409858062
 30
0.0
 10
1582.332564504143
 20
111.6278623459804
 30
0.0
 10
1581.891698503207
 20
110.9692413912885
 30
0.0
 10
1581.68531036994
 20
110.5258758800881
 30
0.0
 10
1581.31300236483
 20
109.5529712657117
 30
0.0
 10
1580.940575335421
 20
108.5743534850165
 30
0.0
 10
1580.588025363831
 20
107.4355289987976
 30
0.0
 10
1580.342121163525
 20
106.6478261925898
 30
0.0
 10
1580.342121163525
 20
106.6478261925898
 30
0.0
 10
1577.837373829914
 20
98.68688600020374
 30
0.0
 10
1577.837373829914
 20
98.68688600020374
 30
0.0
 10
1577.837373829914
 20
98.68688600020374
 30
0.0
 10
1576.343856934735
 20
98.68688600020374
 30
0.0
 10
1576.343856934735
 20
98.68688600020374
 30
0.0
 10
1576.343856934735
 20
98.68688600020374
 30
0.0
 10
1581.447856894813
 20
114.9686363509126
 30
0.0
 10
1581.447856894813
 20
114.9686363509126
 30
0.0
  0
SPLINE
  5
3CF2
102
{ACAD_REACTORS
330
3CE3
330
3CF4
102
}
330
A
100
AcDbEntity
  8
TEMPLATE
100
AcDbSpline
210
0.0
220
0.0
230
1.0
 70
    11
 71
     3
 72
    32
 73
    28
 74
     0
 42
0.000000001
 43
0.0000000001
 40
0.0
 40
0.0
 40
0.0
 40
0.0
 40
1.0
 40
1.0
 40
1.0
 40
2.0
 40
2.0
 40
2.0
 40
3.0
 40
3.0
 40
3.0
 40
4.0
 40
4.0
 40
4.0
 40
5.0
 40
5.0
 40
5.0
 40
6.0
 40
6.0
 40
6.0
 40
7.0
 40
7.0
 40
7.0
 40
8.0
 40
8.0
 40
8.0
 40
9.0
 40
9.0
 40
9.0
 40
9.0
 10
1561.188374006773
 20
114.1104116479568
 30
0.0
 10
1560.322353212278
 20
112.9902144644232
 30
0.0
 10
1559.655460068853
 20
111.9820786577475
 30
0.0
 10
1558.575790658894
 20
108.813473300319
 30
0.0
 10
1557.583187523147
 20
105.9151126122006
 30
0.0
 10
1556.951525572023
 20
103.8064781433614
 30
0.0
 10
1556.856127596928
 20
101.2384098830501
 30
0.0
 10
1556.78352277496
 20
99.32735574940358
 30
0.0
 10
1557.947223339525
 20
98.68688600020374
 30
0.0
 10
1559.653436655782
 20
98.68688600020374
 30
0.0
 10
1560.388768770734
 20
98.68688600020374
 30
0.0
 10
1562.244357581369
 20
98.73366254943912
 30
0.0
 10
1563.565765341194
 20
100.3671520194295
 30
0.0
 10
1564.490822187649
 20
101.5147843037232
 30
0.0
 10
1565.343393236436
 20
102.70443216532
 30
0.0
 10
1566.486383573095
 20
106.6068818339716
 30
0.0
 10
1567.437506740881
 20
109.8693378506166
 30
0.0
 10
1568.096068183424
 20
111.9779128073066
 30
0.0
 10
1568.047387245416
 20
113.1784513921987
 30
0.0
 10
1568.047387245416
 20
113.1784513921987
 30
0.0
 10
1568.047387245416
 20
113.1784513921987
 30
0.0
 10
1568.047387245416
 20
113.1784513921987
 30
0.0
 10
1567.737209924023
 20
115.1812732598413
 30
0.0
 10
1566.283090071584
 20
115.6044641524784
 30
0.0
 10
1565.452300469388
 20
115.6044641524784
 30
0.0
 10
1564.634008418515
 20
115.6044641524784
 30
0.0
 10
1562.44134279507
 20
115.7460435553167
 30
0.0
 10
1561.188374006773
 20
114.1104116479568
 30
0.0
  0
SPLINE
  5
3CF3
102
{ACAD_REACTORS
330
3CE3
330
3CF4
102
}
330
A
100
AcDbEntity
  8
TEMPLATE
100
AcDbSpline
210
0.0
220
0.0
230
1.0
 70
    11
 71
     3
 72
    29
 73
    25
 74
     0
 42
0.000000001
 43
0.0000000001
 40
0.0
 40
0.0
 40
0.0
 40
0.0
 40
1.0
 40
1.0
 40
1.0
 40
2.0
 40
2.0
 40
2.0
 40
3.0
 40
3.0
 40
3.0
 40
4.0
 40
4.0
 40
4.0
 40
5.0
 40
5.0
 40
5.0
 40
6.0
 40
6.0
 40
6.0
 40
7.0
 40
7.0
 40
7.0
 40
8.0
 40
8.0
 40
8.0
 40
8.0
 10
1558.405704936611
 20
101.7185539024279
 30
0.0
 10
1558.399396648801
 20
102.8522603438195
 30
0.0
 10
1558.757302713815
 20
104.8665085440999
 30
0.0
 10
1559.674146883688
 20
107.5615757307067
 30
0.0
 10
1560.922949821544
 20
111.2109202290046
 30
0.0
 10
1561.671850706503
 20
112.5447660280024
 30
0.0
 10
1562.327198492992
 20
113.1940435752771
 30
0.0
 10
1563.284629948588
 20
114.1394535767441
 30
0.0
 10
1564.5717587105
 20
114.1865871988744
 30
0.0
 10
1564.951446222105
 20
114.1394535767441
 30
0.0
 10
1565.491816536427
 20
114.0745853341658
 30
0.0
 10
1566.255119361481
 20
113.7209046317411
 30
0.0
 10
1566.300705667734
 20
112.5302450636088
 30
0.0
 10
1566.337127103016
 20
111.5112185336377
 30
0.0
 10
1566.043494159088
 20
109.6027829345539
 30
0.0
 10
1565.015719343191
 20
106.6068818339716
 30
0.0
 10
1563.831189526422
 20
103.1255401327366
 30
0.0
 10
1563.119662271132
 20
101.7569987507817
 30
0.0
 10
1562.549297833636
 20
101.1605679919562
 30
0.0
 10
1561.474746468504
 20
100.042453733643
 30
0.0
 10
1560.322353212278
 20
100.1498136507176
 30
0.0
 10
1560.152267489994
 20
100.1498136507176
 30
0.0
 10
1559.931358392333
 20
100.1498136507176
 30
0.0
 10
1558.408799568367
 20
100.3895285875116
 30
0.0
 10
1558.405704936611
 20
101.7185539024279
 30
0.0
  0
MTEXT
  5
3D0E
330
A
100
AcDbEntity
  8
TEMPLATE
390
1D
100
AcDbMText
 10
1268.051654997698
 20
184.1194325551426
 30
0.0
 40
19.54609375
 41
0.0
 46
19.54609375
 71
     1
 72
     1
  1
{9L}
  7
ＭＳ ゴシック
 73
     1
 44
0.7828267384257843
1001
ACAD
1000
ACAD_MTEXT_DEFINED_HEIGHT_BEGIN
1070
    46
1040
19.54609375
1000
ACAD_MTEXT_DEFINED_HEIGHT_END
  0
MTEXT
  5
3D12
330
A
100
AcDbEntity
  8
TEMPLATE
390
1D
100
AcDbMText
 10
105.7617156381846
 20
184.1194325551428
 30
0.0
 40
19.54609375
 41
0.0
 46
48.94388282328545
 71
     1
 72
     1
  1
{オーバーフローなし、専用排水金具付属\P陶器}
  7
ＭＳ ゴシック
 73
     1
 44
0.7828267384257843
1001
ACAD
1000
ACAD_MTEXT_DEFINED_HEIGHT_BEGIN
1070
    46
1040
48.94388282328545
1000
ACAD_MTEXT_DEFINED_HEIGHT_END
  0
MTEXT
  5
3DB7
102
{ACAD_XDICTIONARY
360
3DB8
102
}
330
A
100
AcDbEntity
  8
TEMPLATE
100
AcDbMText
 10
58.76275698768336
 20
71.9342530318656
 30
0.0
 40
16.0
 41
0.0
 46
16.0
 71
     1
 72
     1
  1
{20230210M}
  7
ＭＳ ゴシック
 73
     1
 44
1.0
1001
ACAD
1000
ACAD_MTEXT_DEFINED_HEIGHT_BEGIN
1070
    46
1040
16.0
1000
ACAD_MTEXT_DEFINED_HEIGHT_END
  0
MTEXT
  5
457C
330
A
100
AcDbEntity
  8
TEMPLATE
390
1D
100
AcDbMText
 10
1061.257769885408
 20
313.494691011882
 30
0.0
 40
20.0
 41
0.0
 46
21.92072027010129
 71
     1
 72
     1
  1
{ALC70-0401-008 マットブラック}
  7
ＭＳ ゴシック
 73
     1
 44
0.7828267384257843
1001
ACAD
1000
ACAD_MTEXT_DEFINED_HEIGHT_BEGIN
1070
    46
1040
21.92072027010129
1000
ACAD_MTEXT_DEFINED_HEIGHT_END
  0
MTEXT
  5
457D
330
A
100
AcDbEntity
  8
TEMPLATE
390
1D
100
AcDbMText
 10
1061.257769885408
 20
347.7894940823276
 30
0.0
 40
20.0
 41
0.0
 46
20.92034512942353
 71
     1
 72
     1
  1
{ALC70-0401-001 ホワイト}
  7
ＭＳ ゴシック
 73
     1
 44
0.7828267384257843
1001
ACAD
1000
ACAD_MTEXT_DEFINED_HEIGHT_BEGIN
1070
    46
1040
20.92034512942353
1000
ACAD_MTEXT_DEFINED_HEIGHT_END
  0
INSERT
  5
472C
330
A
100
AcDbEntity
  8
TEMPLATE
100
AcDbBlockReference
  2
block 2
 10
2753.305082579289
 20
8.373076514336331
 30
0.0
 41
0.3809999999999999
 42
0.3809999999999999
 43
0.3809999999999999
  0
POINT
  5
4735
330
A
100
AcDbEntity
  8
Layer9
  6
Continuous
 62
     7
100
AcDbPoint
 10
2871.490925816224
 20
1010.220672371878
 30
0.0
  0
POINT
  5
4736
330
A
100
AcDbEntity
  8
Layer9
  6
Continuous
 62
     7
100
AcDbPoint
 10
2871.490927066224
 20
1010.220672788578
 30
0.0
  0
POINT
  5
4737
330
A
100
AcDbEntity
  8
Layer9
  6
Continuous
 62
     7
100
AcDbPoint
 10
2871.884474149524
 20
1015.267975288578
 30
0.0
  0
POINT
  5
4738
330
A
100
AcDbEntity
  8
Layer9
  6
Continuous
 62
     7
100
AcDbPoint
 10
2759.824259149524
 20
1010.220672371878
 30
0.0
  0
POINT
  5
4739
330
A
100
AcDbEntity
  8
Layer9
  6
Continuous
 62
     7
100
AcDbPoint
 10
2759.824260399524
 20
1010.220672788578
 30
0.0
  0
POINT
  5
473A
330
A
100
AcDbEntity
  8
Layer9
  6
Continuous
 62
     7
100
AcDbPoint
 10
2760.217807482824
 20
1015.267975288578
 30
0.0
  0
INSERT
  5
473B
330
A
100
AcDbEntity
  8
Layer3
100
AcDbBlockReference
  2
SEANNOT_GROUP
 10
2693.739082695824
 20
826.1905269541776
 30
0.0
  0
POINT
  5
473C
330
A
100
AcDbEntity
  8
Standard
  6
Continuous
 62
     7
100
AcDbPoint
 10
2870.142021823924
 20
1018.794321538578
 30
0.0
  0
INSERT
  5
473D
330
A
100
AcDbEntity
  8
Layer3
100
AcDbBlockReference
  2
SEANNOT_GROUP1
 10
2693.739082695824
 20
826.1905269541776
 30
0.0
  0
CIRCLE
  5
474F
330
A
100
AcDbEntity
  8
MODEL
100
AcDbCircle
 10
409.5814117881905
 20
1659.558583856374
 30
0.0
 40
205.0000000000001
  0
CIRCLE
  5
4750
330
A
100
AcDbEntity
  8
MODEL
100
AcDbCircle
 10
409.5814117881905
 20
1659.558583856374
 30
0.0
 40
210.0000000000001
  0
CIRCLE
  5
4751
330
A
100
AcDbEntity
  8
MODEL
100
AcDbCircle
 10
409.5814117881905
 20
1659.558583856374
 30
0.0
 40
42.50000000000014
  0
CIRCLE
  5
4752
330
A
100
AcDbEntity
  8
MODEL
100
AcDbCircle
 10
409.5814117881905
 20
1659.558583856374
 30
0.0
 40
22.99999999999997
  0
LINE
  5
4753
330
A
100
AcDbEntity
  8
MODEL
100
AcDbLine
 10
259.0300624630104
 20
1513.154037422979
 30
0.0
 11
259.0300624630104
 21
1513.154037422979
 31
0.0
  0
LINE
  5
4754
330
A
100
AcDbEntity
  8
MODEL
100
AcDbLine
 10
367.0814117881905
 20
1659.558583856374
 30
0.0
 11
367.0814117881905
 21
1659.558583856374
 31
0.0
  0
LINE
  5
4755
330
A
100
AcDbEntity
  8
MODEL
100
AcDbLine
 10
432.5808509051999
 20
1659.397959129108
 30
0.0
 11
432.5808509051999
 21
1659.397959129108
 31
0.0
  0
ARC
  5
4756
330
A
100
AcDbEntity
  8
MODEL
100
AcDbCircle
 10
1262.021976610951
 20
711.1862152476954
 30
0.0
 40
5.000000000000083
100
AcDbArc
 50
119.3577535427984
 51
168.71279595277
  0
LINE
  5
4757
330
A
100
AcDbEntity
  8
MODEL
100
AcDbLine
 10
1257.118684635756
 20
712.1648509337374
 30
0.0
 11
1230.118684635756
 21
712.1648509337374
 31
0.0
  0
LINE
  5
4758
330
A
100
AcDbEntity
  8
MODEL
100
AcDbLine
 10
1230.118684635756
 20
712.1648509337374
 30
0.0
 11
1230.118684635756
 21
729.1648509337379
 31
0.0
  0
LINE
  5
4759
330
A
100
AcDbEntity
  8
MODEL
100
AcDbLine
 10
1230.118684635756
 20
729.1648509337379
 30
0.0
 11
1249.618684635756
 21
739.1648509337379
 31
0.0
  0
LINE
  5
475A
330
A
100
AcDbEntity
  8
MODEL
100
AcDbLine
 10
1249.618684635756
 20
739.1648509337379
 30
0.0
 11
1249.618684635756
 21
749.1648509337376
 31
0.0
  0
LINE
  5
475B
330
A
100
AcDbEntity
  8
MODEL
100
AcDbLine
 10
1417.118684635756
 20
864.1648509337376
 30
0.0
 11
1417.118684635756
 21
821.7102754662737
 31
0.0
  0
ARC
  5
475C
330
A
100
AcDbEntity
  8
MODEL
100
AcDbCircle
 10
1387.118684635756
 20
821.7102754662737
 30
0.0
 40
30.0
100
AcDbArc
 50
299.3577535427947
 51
0.000000000001737
  0
LINE
  5
475D
330
A
100
AcDbEntity
  8
MODEL
100
AcDbLine
 10
1401.826521824732
 20
795.5630093525376
 30
0.0
 11
1259.570670412788
 21
715.5440929333186
 31
0.0
  0
LINE
  5
475E
330
A
100
AcDbEntity
  8
MODEL
100
AcDbLine
 10
1412.118684635756
 20
864.1648509337376
 30
0.0
 11
1417.118684635756
 21
864.1648509337376
 31
0.0
  0
ARC
  5
475F
330
A
100
AcDbEntity
  8
MODEL
100
AcDbCircle
 10
1027.118684635756
 20
821.7102754662737
 30
0.0
 40
30.00000000000004
100
AcDbArc
 50
179.9999999999861
 51
240.6422464572092
  0
LINE
  5
4760
330
A
100
AcDbEntity
  8
MODEL
100
AcDbLine
 10
997.1186846357564
 20
864.1648509337376
 30
0.0
 11
997.1186846357564
 21
821.7102754662737
 31
0.0
  0
LINE
  5
4761
330
A
100
AcDbEntity
  8
MODEL
100
AcDbLine
 10
1012.410847446779
 20
795.5630093525376
 30
0.0
 11
1154.666698858724
 21
715.5440929333186
 31
0.0
  0
ARC
  5
4762
330
A
100
AcDbEntity
  8
MODEL
100
AcDbCircle
 10
1152.215392660561
 20
711.1862152476954
 30
0.0
 40
5.000000000000083
100
AcDbArc
 50
11.28720404723003
 51
60.64224645720164
  0
LINE
  5
4763
330
A
100
AcDbEntity
  8
MODEL
100
AcDbLine
 10
1164.618684635756
 20
739.1648509337379
 30
0.0
 11
1164.618684635756
 21
749.1648509337376
 31
0.0
  0
LINE
  5
4764
330
A
100
AcDbEntity
  8
MODEL
100
AcDbLine
 10
1184.118684635756
 20
729.1648509337379
 30
0.0
 11
1164.618684635756
 21
739.1648509337379
 31
0.0
  0
LINE
  5
4765
330
A
100
AcDbEntity
  8
MODEL
100
AcDbLine
 10
1184.118684635756
 20
712.1648509337374
 30
0.0
 11
1184.118684635756
 21
729.1648509337379
 31
0.0
  0
LINE
  5
4766
330
A
100
AcDbEntity
  8
MODEL
100
AcDbLine
 10
1184.118684635756
 20
712.1648509337374
 30
0.0
 11
1157.118684635756
 21
712.1648509337374
 31
0.0
  0
LINE
  5
4767
102
{ACAD_REACTORS
330
4775
102
}
330
A
100
AcDbEntity
  8
MODEL
100
AcDbLine
 10
997.1186846357564
 20
864.1648509337376
 30
0.0
 11
1412.118684635756
 21
864.1648509337376
 31
0.0
  0
SPLINE
  5
4768
330
A
100
AcDbEntity
  8
HIDDEN
 48
0.5
100
AcDbSpline
210
0.0
220
0.0
230
1.0
 70
  1064
 71
     3
 72
    59
 73
    55
 74
    53
 42
0.000000001
 43
0.0000000001
 44
0.0
 40
0.0
 40
0.0
 40
0.0
 40
0.0
 40
42.03661945126911
 40
44.09470729468678
 40
46.20500114060756
 40
48.05549568682057
 40
50.37534359066341
 40
52.31981234121731
 40
53.89820976806364
 40
56.20049884196024
 40
57.28198275091273
 40
59.20378214696458
 40
60.6112800238887
 40
62.19919376588107
 40
63.6611540667753
 40
65.50022026547265
 40
207.5199550222974
 40
213.5334379010343
 40
218.7330411791976
 40
219.6196144257475
 40
220.3197046409825
 40
220.7849572666462
 40
220.9432846810838
 40
221.0560605039212
 40
221.0843246510669
 40
221.112129556871
 40
221.1412634311901
 40
221.264197181576
 40
221.382862398963
 40
304.586959684141
 40
305.4604565173081
 40
305.799629556871
 40
306.0116959108091
 40
306.075302009096
 40
306.112129556871
 40
306.3044801535618
 40
306.6625300829699
 40
306.998589009817
 40
307.937659155109
 40
462.1681412146986
 40
462.8516081143017
 40
467.5648041865344
 40
468.7454983623882
 40
470.1824984648778
 40
472.5809258587101
 40
474.453661058001
 40
476.2564156404695
 40
477.5455390916358
 40
478.7055343969211
 40
479.8728639553902
 40
481.7835509582571
 40
483.0845904212739
 40
486.8247023134276
 40
527.2160284352045
 40
527.2160284352045
 40
527.2160284352045
 40
527.2160284352045
 10
1002.118684635756
 20
864.3795816073398
 30
0.0
 10
1003.372450854084
 20
850.4283284686476
 30
0.0
 10
1004.687600719483
 20
835.7940302882753
 30
0.0
 10
1006.117019501497
 20
820.4475723811995
 30
0.0
 10
1006.546104009268
 20
818.4822677501843
 30
0.0
 10
1007.184038576952
 20
816.4859580064907
 30
0.0
 10
1008.007456684339
 20
814.6158562633965
 30
0.0
 10
1008.978602596935
 20
812.9241930413394
 30
0.0
 10
1010.090750503769
 20
811.3304264611063
 30
0.0
 10
1011.167122986413
 20
810.0688362551048
 30
0.0
 10
1012.424962446116
 20
808.8248936732556
 30
0.0
 10
1013.547026530094
 20
807.8708052177651
 30
0.0
 10
1014.880444667442
 20
806.9154219329298
 30
0.0
 10
1016.151711008284
 20
806.1437822180853
 30
0.0
 10
1017.603647903998
 20
805.398934767799
 30
0.0
 10
1062.770575997489
 20
787.8038082082026
 30
0.0
 10
1109.553465154588
 20
770.3644317023673
 30
0.0
 10
1157.282914374818
 20
752.1739120273378
 30
0.0
 10
1161.052002764029
 20
750.7385372749943
 30
0.0
 10
1163.165840192718
 20
749.9329378534248
 30
0.0
 10
1163.805070211968
 20
749.6898084090692
 30
0.0
 10
1164.217256324135
 20
749.5320189740565
 30
0.0
 10
1164.446797591541
 20
749.4455598913448
 30
0.0
 10
1164.539807257456
 20
749.408720120108
 30
0.0
 10
1164.592686191083
 20
749.3902298064735
 30
0.0
 10
1164.618600312603
 20
749.3767161769412
 30
0.0
 10
1164.679779464914
 20
749.3833546106332
 30
0.0
 10
1164.769084739658
 20
749.3782520453811
 30
0.0
 10
1192.641043864493
 20
749.6864914893017
 30
0.0
 10
1220.647142449772
 20
749.3920496108258
 30
0.0
 10
1248.788968721897
 20
749.3792345544816
 30
0.0
 10
1249.26374087151
 20
749.3799878135583
 30
0.0
 10
1249.468886342178
 20
749.3789181249086
 30
0.0
 10
1249.572828114681
 20
749.3801401675464
 30
0.0
 10
1249.671099327789
 20
749.3764642404365
 30
0.0
 10
1249.846929617011
 20
749.4846687868561
 30
0.0
 10
1250.127109213725
 20
749.5678464403406
 30
0.0
 10
1250.634170263936
 20
749.7707114611858
 30
0.0
 10
1299.124908617945
 20
767.9429122862691
 30
0.0
 10
1347.829719434478
 20
786.1959023596355
 30
0.0
 10
1397.336825157801
 20
805.6767967115255
 30
0.0
 10
1399.264128656954
 20
806.7813641252509
 30
0.0
 10
1401.189068751074
 20
808.2866474922876
 30
0.0
 10
1402.436899211449
 20
809.4019261151949
 30
0.0
 10
1403.731030636292
 20
810.803541367269
 30
0.0
 10
1404.93961575238
 20
812.4313015973428
 30
0.0
 10
1405.801284252615
 20
813.8469362975807
 30
0.0
 10
1406.442869352744
 20
815.1117189148769
 30
0.0
 10
1406.921711935791
 20
816.218784119596
 30
0.0
 10
1407.406329743592
 20
817.5464705801855
 30
0.0
 10
1407.801057157006
 20
818.9542859932043
 30
0.0
 10
1408.243393965764
 20
821.231067007406
 30
0.0
 10
1409.360313600969
 20
836.3566931577185
 30
0.0
 10
1410.800527744293
 20
850.9881404042869
 30
0.0
 10
1412.118684635756
 20
864.3795816073398
 30
0.0
 11
1002.118684635756
 21
864.3795816073398
 31
0.0
 11
1005.924501338881
 21
822.5155978729526
 31
0.0
 11
1006.156409729514
 21
820.4706176604377
 31
0.0
 11
1006.598672651276
 21
818.4071875976138
 31
0.0
 11
1007.163534603956
 21
816.6450125098377
 31
0.0
 11
1008.097828757389
 21
814.5216216527826
 31
0.0
 11
1009.065965887098
 21
812.8353034088086
 31
0.0
 11
1009.969231735893
 21
811.5409119519936
 31
0.0
 11
1011.463519650582
 21
809.7894443936877
 31
0.0
 11
1012.232483496777
 21
809.0289826598917
 31
0.0
 11
1013.696477700117
 21
807.7839790891128
 31
0.0
 11
1014.840800656467
 21
806.9644821427387
 31
0.0
 11
1016.197371525002
 21
806.1391424971077
 31
0.0
 11
1017.500604515613
 21
805.4766383887627
 31
0.0
 11
1019.201263994065
 21
804.7766942327457
 31
0.0
 11
1151.916964242183
 21
754.2183322334627
 31
0.0
 11
1157.536490236568
 21
752.0775604260778
 31
0.0
 11
1162.395455726508
 21
750.2265259537198
 31
0.0
 11
1163.223947551525
 21
749.9109100203798
 31
0.0
 11
1163.878173271006
 21
749.6616811748638
 31
0.0
 11
1164.312946143332
 21
749.4960534139768
 31
0.0
 11
1164.460901170227
 21
749.4396895942077
 31
0.0
 11
1164.566288793465
 21
749.3995419282116
 31
0.0
 11
1164.592701292311
 21
749.3894800238897
 31
0.0
 11
1164.618684635756
 21
749.3795816073398
 31
0.0
 11
1164.647818510075
 21
749.3795816073398
 31
0.0
 11
1164.770752260461
 21
749.3795816073398
 31
0.0
 11
1164.889417477848
 21
749.3795816073398
 31
0.0
 11
1248.093514763026
 21
749.3795816073398
 31
0.0
 11
1248.967011596193
 21
749.3795816073398
 31
0.0
 11
1249.306184635756
 21
749.3795816073398
 31
0.0
 11
1249.518250989694
 21
749.3795816073398
 31
0.0
 11
1249.581857087981
 21
749.3795816073398
 31
0.0
 11
1249.618684635756
 21
749.3795816073398
 31
0.0
 11
1249.79843390917
 21
749.4480575210207
 31
0.0
 11
1250.133027176694
 21
749.5755216229347
 31
0.0
 11
1250.447070122046
 21
749.6951570306878
 31
0.0
 11
1251.324619655059
 21
750.0294616146937
 31
0.0
 11
1395.451113491928
 21
804.9347926001667
 31
0.0
 11
1396.085554309891
 21
805.1889812139077
 31
0.0
 11
1400.184490408554
 21
807.5155538163397
 31
0.0
 11
1401.114410850642
 21
808.2430747495657
 31
0.0
 11
1402.185860185184
 21
809.2006579668707
 31
0.0
 11
1403.81285769189
 21
810.9628534942337
 31
0.0
 11
1404.929287228117
 21
812.4664233187857
 31
0.0
 11
1405.866605080394
 21
814.0063451766778
 31
0.0
 11
1406.449809269136
 21
815.1560025806816
 31
0.0
 11
1406.910301052203
 21
816.2206792574298
 31
0.0
 11
1407.310608500127
 21
817.3172248539338
 31
0.0
 11
1407.825875904683
 21
819.1571227654297
 31
0.0
 11
1408.07508854585
 21
820.4340709804367
 31
0.0
 11
1408.461825791673
 21
824.1541343224408
 31
0.0
 11
1412.118684635756
 21
864.3795816073398
 31
0.0
  0
DIMENSION
  5
4769
330
A
100
AcDbEntity
  8
DIM
100
AcDbDimension
  2
*D39
 10
619.5814117881905
 20
1984.416023797392
 30
0.0
 11
409.5814117881905
 21
2010.41977520417
 31
0.0
 70
    32
 71
     5
 42
420.0
 73
     0
 74
     0
 75
     0
  3
tfrom線あり
100
AcDbAlignedDimension
 13
199.5814117881905
 23
1689.558583856374
 33
0.0
 14
619.5814117881905
 24
1690.622510393862
 34
0.0
100
AcDbRotatedDimension
  0
DIMENSION
  5
476A
330
A
100
AcDbEntity
  8
DIM
100
AcDbDimension
  2
*D40
 10
614.5814117881905
 20
1356.537140900264
 30
0.0
 11
409.5814117881905
 21
1382.540892307042
 31
0.0
 70
    32
  1
405
 71
     5
 42
410.0
 73
     0
 74
     0
 75
     0
  3
tfrom線あり
100
AcDbAlignedDimension
 13
204.5814117881905
 23
1630.754857743249
 33
0.0
 14
614.5814117881905
 24
1630.75485774325
 34
0.0
100
AcDbRotatedDimension
  0
CIRCLE
  5
476B
330
A
100
AcDbEntity
  8
HIDDEN
100
AcDbCircle
 10
1204.618684635756
 20
1659.532608316654
 30
0.0
 40
210.0000000000001
  0
HATCH
  5
476C
330
A
100
AcDbEntity
  8
DIM
100
AcDbHatch
 10
0.0
 20
0.0
 30
0.0
210
0.0
220
0.0
230
1.0
  2
ANSI31
 70
     0
 71
     0
 91
        1
 92
        1
 93
        1
 72
     2
 10
1204.618684635756
 20
1659.532608316654
 40
35.0
 50
0.0
 51
360.0
 73
     1
 97
        0
 75
     0
 76
     1
 52
0.0
 41
2.0
 77
     0
 78
     1
 53
45.0
 43
-208.7480714957669
 44
-435.4584383819379
 45
-4.490128060534577
 46
4.490128060534577
 79
     0
 98
        0
1001
ACAD
1010
0.0
1020
0.0
1030
0.0
  0
CIRCLE
  5
476D
330
A
100
AcDbEntity
  8
MODEL
100
AcDbCircle
 10
1204.618684635756
 20
1659.532608316654
 30
0.0
 40
35.0
  0
CIRCLE
  5
476E
330
A
100
AcDbEntity
  8
HIDDEN
 48
0.3
100
AcDbCircle
 10
1204.618684635756
 20
1659.532608316654
 30
0.0
 40
22.99999999999997
  0
LINE
  5
476F
330
A
100
AcDbEntity
  8
MODEL
100
AcDbLine
 10
1227.618123752765
 20
1659.371983589388
 30
0.0
 11
1227.618123752765
 21
1659.371983589388
 31
0.0
  0
DIMENSION
  5
4770
330
A
100
AcDbEntity
  8
DIM
100
AcDbDimension
  2
*D41
 10
1494.309578362946
 20
712.1648509337365
 30
0.0
 11
1468.305826956168
 21
788.164850933737
 31
0.0
 70
    32
 71
     5
 42
152.000000000001
 73
     0
 74
     0
 75
     0
  3
tfrom線あり
100
AcDbAlignedDimension
 13
1417.782080966013
 23
864.1648509337375
 33
0.0
 14
1443.331624527369
 24
712.1648509337365
 34
0.0
 50
90.0
100
AcDbRotatedDimension
  0
DIMENSION
  5
4773
102
{ACAD_REACTORS
330
4775
102
}
102
{ACAD_XDICTIONARY
360
4774
102
}
330
A
100
AcDbEntity
  8
DIM
100
AcDbDimension
  2
*D42
 10
1204.618684635756
 20
749.5056582722098
 30
0.0
 11
1204.618684635756
 21
969.2052410800427
 31
0.0
 70
   160
 71
     5
 42
114.6591926615279
 73
     0
 74
     1
 75
     1
  3
tfrom線あり
100
AcDbAlignedDimension
 13
1204.618684635756
 23
864.1648509337376
 33
0.0
 14
1204.354785860002
 24
749.5056582722098
 34
0.0
 50
90.0
100
AcDbRotatedDimension
1001
ACAD
1000
DSTYLE
1002
{
1070
     3
1000
<>(深さ)
1070
    76
1070
     1
1070
    75
1070
     1
1070
   172
1070
     1
1002
}
  0
DIMENSION
  5
4776
330
A
100
AcDbEntity
  8
DIM
100
AcDbDimension
  2
*D43
 10
1417.118684635756
 20
580.7474027928305
 30
0.0
 11
1312.118684635756
 21
580.7474027928305
 31
0.0
 70
   160
 71
     5
 42
210.0
 73
     0
 74
     0
 75
     0
  3
tfrom線あり
100
AcDbAlignedDimension
 13
1207.118684635756
 23
631.9137928709254
 33
0.0
 14
1417.118684635756
 24
804.9095407109095
 34
0.0
100
AcDbRotatedDimension
  0
MTEXT
  5
4779
330
A
100
AcDbEntity
  8
DIM
390
1D
100
AcDbMText
 10
1100.249784009257
 20
1990.238596254848
 30
0.0
 40
20.0
 41
0.0
 46
0.0
 71
     1
 72
     1
  1
カウンター切込寸法
  7
ＭＳ ゴシック
 73
     1
 44
0.7828267384257843
  0
MTEXT
  5
477A
330
A
100
AcDbEntity
  8
DIM
390
1D
100
AcDbMText
 10
915.3329030712543
 20
1365.518400478156
 30
0.0
 40
20.0
 41
949.7161250932049
 46
111.8331968503937
 71
     1
 72
     1
  1
{※陶器製品には寸法公差があります。\P  洗面器の収め方をご確認の上、必ず現物を合わせて\P  カウンターに切込を行ってください。}
  7
ＭＳ ゴシック
 73
     1
 44
0.9822934569727008
1001
ACAD
1000
ACAD_MTEXT_DEFINED_HEIGHT_BEGIN
1070
    46
1040
111.8331968503937
1000
ACAD_MTEXT_DEFINED_HEIGHT_END
  0
DIMENSION
  5
4780
330
A
100
AcDbEntity
  8
DIM
100
AcDbDimension
  2
*D44
 10
476.4171278564459
 20
580.7474027928304
 30
0.0
 11
426.4171278564454
 21
606.7511541996079
 31
0.0
 70
    32
 71
     5
 42
100.0000000000011
 73
     0
 74
     0
 75
     0
  3
tfrom線あり
100
AcDbAlignedDimension
 13
376.4171278564448
 23
667.4317967339955
 33
0.0
 14
476.4171278564459
 24
667.4317967339955
 34
0.0
100
AcDbRotatedDimension
  0
LINE
  5
4782
330
A
100
AcDbEntity
  8
DIM
100
AcDbLine
 10
1204.618684635756
 20
1694.532608316654
 30
0.0
 11
1337.63499911312
 21
1873.983418580431
 31
0.0
  0
LINE
  5
4783
330
A
100
AcDbEntity
  8
DIM
100
AcDbLine
 10
1337.63499911312
 20
1873.983418580431
 30
0.0
 11
1428.766528969333
 21
1873.983418580431
 31
0.0
  0
MTEXT
  5
4784
330
A
100
AcDbEntity
  8
DIM
390
1D
100
AcDbMText
 10
1387.595124747862
 20
1908.339127623806
 30
0.0
 40
20.0
 41
0.0
 46
28.40135167875453
 71
     1
 72
     1
  1
{%%c70}
  7
ＭＳ ゴシック
 73
     1
 44
0.7828267384257843
1001
ACAD
1000
ACAD_MTEXT_DEFINED_HEIGHT_BEGIN
1070
    46
1040
28.40135167875453
1000
ACAD_MTEXT_DEFINED_HEIGHT_END
  0
HATCH
  5
4785
330
A
100
AcDbEntity
  8
MODEL
100
AcDbHatch
 10
0.0
 20
0.0
 30
0.0
210
0.0
220
0.0
230
1.0
  2
ANSI31
 70
     0
 71
     0
 91
        1
 92
        1
 93
        4
 72
     1
 10
970.9057447441432
 20
712.1648509337374
 11
970.9057447441432
 21
670.4317967339955
 72
     1
 10
970.9057447441432
 20
670.4317967339953
 11
1172.118684635756
 21
670.4317967339953
 72
     1
 10
1172.118684635756
 20
670.4317967339953
 11
1172.118684635756
 21
712.1648509337372
 72
     1
 10
1172.118684635756
 20
712.1648509337374
 11
970.9057447441432
 21
712.1648509337374
 97
        0
 75
     0
 76
     1
 52
0.0
 41
3.0
 77
     0
 78
     1
 53
45.0
 43
-207.2480714957671
 44
-282.7060018814674
 45
-6.735192090801865
 46
6.735192090801865
 79
     0
 98
        0
1001
ACAD
1010
0.0
1020
0.0
1030
0.0
  0
LWPOLYLINE
  5
4786
102
{ACAD_REACTORS
330
478B
102
}
330
A
100
AcDbEntity
  8
MODEL
100
AcDbPolyline
 90
        4
 70
     1
 43
0.0
 10
970.9057447441432
 20
712.1648509337374
 10
970.9057447441432
 20
670.4317967339953
 10
1172.118684635756
 20
670.4317967339953
 10
1172.118684635756
 20
712.1648509337374
  0
HATCH
  5
4787
330
A
100
AcDbEntity
  8
MODEL
100
AcDbHatch
 10
0.0
 20
0.0
 30
0.0
210
0.0
220
0.0
230
1.0
  2
ANSI31
 70
     0
 71
     0
 91
        1
 92
        1
 93
        4
 72
     1
 10
1443.331624527369
 20
712.1648509337365
 11
1443.331624527369
 21
670.4317967339946
 72
     1
 10
1443.331624527369
 20
670.4317967339948
 11
1242.118684635756
 21
670.4317967339955
 72
     1
 10
1242.118684635756
 20
670.4317967339953
 11
1242.118684635756
 21
712.1648509337372
 72
     1
 10
1242.118684635756
 20
712.1648509337374
 11
1443.331624527369
 21
712.1648509337367
 97
        0
 75
     0
 76
     1
 52
0.0
 41
3.0
 77
     0
 78
     1
 53
45.0
 43
-210.2480714957669
 44
-282.7060018814673
 45
-6.735192090801865
 46
6.735192090801865
 79
     0
 98
        0
1001
ACAD
1010
0.0
1020
0.0
1030
0.0
  0
LWPOLYLINE
  5
4788
330
A
100
AcDbEntity
  8
MODEL
100
AcDbPolyline
 90
        4
 70
     1
 43
0.0
 10
1443.331624527369
 20
712.1648509337365
 10
1443.331624527369
 20
670.4317967339948
 10
1242.118684635756
 20
670.4317967339953
 10
1242.118684635756
 20
712.1648509337374
  0
DIMENSION
  5
4789
102
{ACAD_REACTORS
330
478B
102
}
102
{ACAD_XDICTIONARY
360
478A
102
}
330
A
100
AcDbEntity
  8
DIM
100
AcDbDimension
  2
*D45
 10
910.279085717117
 20
670.4317967339953
 30
0.0
 11
910.279085717117
 21
691.2983238338663
 31
0.0
 70
   160
  1
　
 71
     5
 42
41.73305419974213
 73
     0
 74
     0
 75
     0
  3
tfrom線あり
100
AcDbAlignedDimension
 13
970.9057447441432
 23
712.1648509337374
 33
0.0
 14
970.9057447441432
 24
670.4317967339953
 34
0.0
 50
90.0
100
AcDbRotatedDimension
1001
ACAD
1000
DSTYLE
1002
{
1070
   172
1070
     1
1002
}
  0
LINE
  5
478C
330
A
100
AcDbEntity
  8
MODEL
  6
Continuous
390
1D
100
AcDbLine
 10
1211.111311063508
 20
741.9133641433336
 30
0.0
 11
1211.111311063508
 21
736.9137928709256
 31
0.0
  0
POLYLINE
  5
478D
330
A
100
AcDbEntity
  8
MODEL
  6
Continuous
100
AcDb2dPolyline
 66
     1
 10
0.0
 20
0.0
 30
0.0
  0
VERTEX
  5
478E
330
478D
100
AcDbEntity
  8
MODEL
  6
Continuous
100
AcDbVertex
100
AcDb2dVertex
 10
1227.118684635756
 20
730.9191575603877
 30
0.0
  0
VERTEX
  5
478F
330
478D
100
AcDbEntity
  8
MODEL
  6
Continuous
100
AcDbVertex
100
AcDb2dVertex
 10
1227.118684635756
 20
636.9137928709254
 30
0.0
  0
SEQEND
  5
4790
330
478D
100
AcDbEntity
  8
MODEL
  6
Continuous
  0
POLYLINE
  5
4791
330
A
100
AcDbEntity
  8
MODEL
  6
Continuous
100
AcDb2dPolyline
 66
     1
 10
0.0
 20
0.0
 30
0.0
  0
VERTEX
  5
4792
330
4791
100
AcDbEntity
  8
MODEL
  6
Continuous
100
AcDbVertex
100
AcDb2dVertex
 10
1187.118684635756
 20
730.9084508947599
 30
0.0
  0
VERTEX
  5
4793
330
4791
100
AcDbEntity
  8
MODEL
  6
Continuous
100
AcDbVertex
100
AcDb2dVertex
 10
1187.118684635756
 20
636.9137928709254
 30
0.0
  0
SEQEND
  5
4794
330
4791
100
AcDbEntity
  8
MODEL
  6
Continuous
  0
POLYLINE
  5
4795
330
A
100
AcDbEntity
  8
MODEL
  6
Continuous
100
AcDb2dPolyline
 66
     1
 10
0.0
 20
0.0
 30
0.0
  0
VERTEX
  5
4796
330
4795
100
AcDbEntity
  8
MODEL
  6
Continuous
100
AcDbVertex
100
AcDb2dVertex
 10
1239.759671561535
 20
736.9137928709256
 30
0.0
  0
VERTEX
  5
4797
330
4795
100
AcDbEntity
  8
MODEL
  6
Continuous
100
AcDbVertex
100
AcDb2dVertex
 10
1174.466284048878
 20
736.9137928709256
 30
0.0
  0
SEQEND
  5
4798
330
4795
100
AcDbEntity
  8
MODEL
  6
Continuous
  0
ARC
  5
4799
330
A
100
AcDbEntity
  8
MODEL
  6
Continuous
100
AcDbCircle
 10
1176.609187952092
 20
721.2366195181326
 30
0.0
 40
14.28264130761
100
AcDbArc
 50
42.62319145322517
 51
98.62758872800826
  0
ARC
  5
479A
330
A
100
AcDbEntity
  8
MODEL
  6
Continuous
100
AcDbCircle
 10
1237.618317952312
 20
721.2366195181326
 30
0.0
 40
14.28264130761
100
AcDbArc
 50
81.37241127198814
 51
137.3184104408065
  0
ARC
  5
479B
330
A
100
AcDbEntity
  8
MODEL
  6
Continuous
100
AcDbCircle
 10
1174.470414487329
 20
736.1357175422897
 30
0.0
 40
0.7780845392933852
100
AcDbArc
 50
90.27878537560984
 51
269.7212146243901
  0
ARC
  5
479C
330
A
100
AcDbEntity
  8
MODEL
  6
Continuous
100
AcDbCircle
 10
1239.757091417075
 20
736.1357175422897
 30
0.0
 40
0.7780845392933852
100
AcDbArc
 50
270.2787853756098
 51
89.72121462435669
  0
LINE
  5
479D
330
A
100
AcDbEntity
  8
MODEL
  6
Continuous
390
1D
100
AcDbLine
 10
1203.112003370282
 20
741.9133641433336
 30
0.0
 11
1203.112003370282
 21
736.9137928709256
 31
0.0
  0
LINE
  5
479E
330
A
100
AcDbEntity
  8
MODEL
  6
Continuous
100
AcDbLine
 10
1243.111833295337
 20
741.9133641433336
 30
0.0
 11
1243.111657216895
 21
742.9131375350628
 31
0.0
  0
LINE
  5
479F
330
A
100
AcDbEntity
  8
MODEL
  6
Continuous
100
AcDbLine
 10
1171.111833295336
 20
741.9133641433336
 30
0.0
 11
1171.111657216895
 21
742.9131375350628
 31
0.0
  0
LINE
  5
47A0
330
A
100
AcDbEntity
  8
MODEL
  6
Continuous
100
AcDbLine
 10
1171.111833295336
 20
741.9133641433336
 30
0.0
 11
1243.111833295337
 21
741.9133641433336
 31
0.0
  0
LINE
  5
47A1
330
A
100
AcDbEntity
  8
MODEL
  6
Continuous
100
AcDbLine
 10
1171.111657216895
 20
742.9131375350628
 30
0.0
 11
1243.111657216895
 21
742.9131375350628
 31
0.0
  0
ARC
  5
47A2
330
A
100
AcDbEntity
  8
MODEL
  6
Continuous
100
AcDbCircle
 10
1207.05529323698
 20
673.0270875765066
 30
0.0
 40
78.6391846490151
100
AcDbArc
 50
62.70939830928342
 51
117.1982289120087
  0
LWPOLYLINE
  5
47A3
330
A
100
AcDbEntity
  8
MODEL
100
AcDbPolyline
 90
        4
 70
     1
 43
0.0
 10
1144.618684635756
 20
667.4317967339953
 10
1144.618684635756
 20
670.4317967339953
 10
1269.618684635756
 20
670.4317967339953
 10
1269.618684635756
 20
667.4317967339953
  0
LINE
  5
47A4
330
A
100
AcDbEntity
  8
MODEL
100
AcDbLine
 10
1187.118684635756
 20
636.9137928709254
 30
0.0
 11
1227.118684635756
 21
636.9137928709254
 31
0.0
  0
LWPOLYLINE
  5
47A8
330
A
100
AcDbEntity
  8
MODEL
100
AcDbPolyline
 90
        4
 70
     1
 43
0.0
 10
1176.83529842876
 20
706.4373958104802
 10
1176.83529842876
 20
709.4373958104802
 10
1236.83529842876
 20
709.4373958104802
 10
1236.83529842876
 20
706.4373958104802
  0
LWPOLYLINE
  5
47A9
330
A
100
AcDbEntity
  8
MODEL
100
AcDbPolyline
 90
        4
 70
     0
 43
0.0
 10
1184.33529842876
 20
701.9886286978992
 10
1184.33529842876
 20
706.4373958104802
 10
1229.33529842876
 20
706.4373958104802
 10
1229.33529842876
 20
701.9847971778656
  0
LWPOLYLINE
  5
47AA
330
A
100
AcDbEntity
  8
MODEL
100
AcDbPolyline
 90
        2
 70
     0
 43
0.0
 10
1228.787897061373
 20
701.4373958104802
 10
1184.882699796146
 20
701.4373958104802
  0
LINE
  5
47AB
330
A
100
AcDbEntity
  8
MODEL
100
AcDbLine
 10
1206.83529842876
 20
706.4373958104802
 30
0.0
 11
1206.83529842876
 21
701.4373958104802
 31
0.0
  0
ARC
  5
47AC
330
A
100
AcDbEntity
  8
MODEL
100
AcDbCircle
 10
1184.882699796146
 20
701.9847971778665
 30
0.0
 40
0.5474013673863283
100
AcDbArc
 50
177.7181671112423
 51
271.1652682122306
  0
ARC
  5
47AD
330
A
100
AcDbEntity
  8
MODEL
100
AcDbCircle
 10
1228.787897061373
 20
701.9847971778656
 30
0.0
 40
0.5474013673863283
100
AcDbArc
 50
268.8347317877694
 51
2.281832888757755
  0
LINE
  5
47AE
330
A
100
AcDbEntity
  8
MODEL
100
AcDbLine
 10
1176.83529842876
 20
708.532537073942
 30
0.0
 11
1236.83529842876
 21
708.532537073942
 31
0.0
  0
LINE
  5
47AF
330
A
100
AcDbEntity
  8
MODEL
100
AcDbLine
 10
1236.83529842876
 20
708.532537073942
 30
0.0
 11
1238.326015060101
 21
708.532537073942
 31
0.0
  0
LINE
  5
47B0
330
A
100
AcDbEntity
  8
MODEL
100
AcDbLine
 10
1238.326015060101
 20
708.532537073942
 30
0.0
 11
1238.326015060101
 21
710.0528941971793
 31
0.0
  0
LINE
  5
47B1
330
A
100
AcDbEntity
  8
MODEL
100
AcDbLine
 10
1238.326015060101
 20
710.0528941971793
 30
0.0
 11
1236.885676732824
 21
712.1333828921356
 31
0.0
  0
LINE
  5
47B2
330
A
100
AcDbEntity
  8
MODEL
100
AcDbLine
 10
1177.402070842752
 20
708.532537073942
 30
0.0
 11
1175.91135421141
 21
708.532537073942
 31
0.0
  0
LINE
  5
47B3
330
A
100
AcDbEntity
  8
MODEL
100
AcDbLine
 10
1175.91135421141
 20
708.532537073942
 30
0.0
 11
1175.91135421141
 21
710.0528941971793
 31
0.0
  0
LINE
  5
47B4
330
A
100
AcDbEntity
  8
MODEL
100
AcDbLine
 10
1175.91135421141
 20
710.0528941971793
 30
0.0
 11
1177.351692538688
 21
712.1333828921356
 31
0.0
  0
LINE
  5
47B5
330
A
100
AcDbEntity
  8
MODEL
100
AcDbLine
 10
1177.351692538688
 20
712.1333828921356
 30
0.0
 11
1236.885676732824
 21
712.1333828921356
 31
0.0
  0
LWPOLYLINE
  5
47B6
330
A
100
AcDbEntity
  8
MODEL
100
AcDbPolyline
 90
        4
 70
     1
 43
0.0
 10
1176.83529842876
 20
661.7358096523399
 10
1176.83529842876
 20
664.7358096523399
 10
1236.83529842876
 20
664.7358096523399
 10
1236.83529842876
 20
661.7358096523399
  0
LWPOLYLINE
  5
47B7
330
A
100
AcDbEntity
  8
MODEL
100
AcDbPolyline
 90
        4
 70
     0
 43
0.0
 10
1184.33529842876
 20
657.2870425397589
 10
1184.33529842876
 20
661.7358096523399
 10
1229.33529842876
 20
661.7358096523399
 10
1229.33529842876
 20
657.2832110197253
  0
LWPOLYLINE
  5
47B8
330
A
100
AcDbEntity
  8
MODEL
100
AcDbPolyline
 90
        2
 70
     0
 43
0.0
 10
1228.787897061373
 20
656.7358096523399
 10
1184.882699796146
 20
656.7358096523399
  0
LINE
  5
47B9
330
A
100
AcDbEntity
  8
MODEL
100
AcDbLine
 10
1206.83529842876
 20
661.7358096523399
 30
0.0
 11
1206.83529842876
 21
656.7358096523399
 31
0.0
  0
ARC
  5
47BA
330
A
100
AcDbEntity
  8
MODEL
100
AcDbCircle
 10
1184.882699796146
 20
657.2832110197262
 30
0.0
 40
0.5474013673863283
100
AcDbArc
 50
177.7181671112423
 51
271.1652682122306
  0
ARC
  5
47BB
330
A
100
AcDbEntity
  8
MODEL
100
AcDbCircle
 10
1228.787897061373
 20
657.2832110197253
 30
0.0
 40
0.5474013673863283
100
AcDbArc
 50
268.8347317877694
 51
2.281832888757755
  0
LINE
  5
47BC
330
A
100
AcDbEntity
  8
MODEL
100
AcDbLine
 10
1176.83529842876
 20
663.8309509158016
 30
0.0
 11
1236.83529842876
 21
663.8309509158016
 31
0.0
  0
LINE
  5
47BD
330
A
100
AcDbEntity
  8
MODEL
100
AcDbLine
 10
1236.83529842876
 20
663.8309509158016
 30
0.0
 11
1238.326015060101
 21
663.8309509158016
 31
0.0
  0
LINE
  5
47BE
330
A
100
AcDbEntity
  8
MODEL
100
AcDbLine
 10
1238.326015060101
 20
663.8309509158016
 30
0.0
 11
1238.326015060101
 21
665.3513080390389
 31
0.0
  0
LINE
  5
47BF
330
A
100
AcDbEntity
  8
MODEL
100
AcDbLine
 10
1238.326015060101
 20
665.3513080390389
 30
0.0
 11
1236.885676732824
 21
667.4317967339953
 31
0.0
  0
LINE
  5
47C0
330
A
100
AcDbEntity
  8
MODEL
100
AcDbLine
 10
1177.402070842752
 20
663.8309509158016
 30
0.0
 11
1175.91135421141
 21
663.8309509158016
 31
0.0
  0
LINE
  5
47C1
330
A
100
AcDbEntity
  8
MODEL
100
AcDbLine
 10
1175.91135421141
 20
663.8309509158016
 30
0.0
 11
1175.91135421141
 21
665.3513080390389
 31
0.0
  0
LINE
  5
47C2
330
A
100
AcDbEntity
  8
MODEL
100
AcDbLine
 10
1175.91135421141
 20
665.3513080390389
 30
0.0
 11
1177.351692538688
 21
667.4317967339953
 31
0.0
  0
LINE
  5
47C3
330
A
100
AcDbEntity
  8
MODEL
100
AcDbLine
 10
1177.351692538688
 20
667.4317967339953
 30
0.0
 11
1236.885676732824
 21
667.4317967339953
 31
0.0
  0
MTEXT
  5
47C4
330
A
100
AcDbEntity
  8
DIM
390
1D
100
AcDbMText
 10
881.2805749131821
 20
657.9513616039318
 30
0.0
 40
15.0
 41
949.716125093205
 46
53.90183745460366
 71
     1
 72
     1
  1
(カウンター厚み)
  7
ＭＳ ゴシック
 11
6.123233995736766E-17
 21
1.0
 31
0.0
 73
     1
 44
0.9822934569727008
1001
ACAD
1000
ACAD_MTEXT_DEFINED_HEIGHT_BEGIN
1070
    46
1040
53.90183745460366
1000
ACAD_MTEXT_DEFINED_HEIGHT_END
  0
MTEXT
  5
47C5
330
A
100
AcDbEntity
  8
DIM
390
1D
100
AcDbMText
 10
856.176877213656
 20
657.406745246625
 30
0.0
 40
20.0
 41
949.716125093205
 46
53.90183745460366
 71
     1
 72
     1
  1
MIN20～MAX40
  7
ＭＳ ゴシック
 11
6.123233995736766E-17
 21
1.0
 31
0.0
 73
     1
 44
0.9822934569727008
1001
ACAD
1000
ACAD_MTEXT_DEFINED_HEIGHT_BEGIN
1070
    46
1040
53.90183745460366
1000
ACAD_MTEXT_DEFINED_HEIGHT_END
  0
ARC
  5
47C6
330
A
100
AcDbEntity
  8
MODEL
100
AcDbCircle
 10
481.3204198316403
 20
711.1862152476956
 30
0.0
 40
5.000000000000083
100
AcDbArc
 50
119.3577535427984
 51
168.71279595277
  0
LINE
  5
47C7
330
A
100
AcDbEntity
  8
MODEL
100
AcDbLine
 10
476.4171278564459
 20
712.1648509337374
 30
0.0
 11
449.4171278564459
 21
712.1648509337374
 31
0.0
  0
LINE
  5
47C8
330
A
100
AcDbEntity
  8
MODEL
100
AcDbLine
 10
449.4171278564459
 20
712.1648509337374
 30
0.0
 11
449.4171278564459
 21
729.1648509337379
 31
0.0
  0
LINE
  5
47C9
330
A
100
AcDbEntity
  8
MODEL
100
AcDbLine
 10
449.4171278564459
 20
729.1648509337379
 30
0.0
 11
468.9171278564459
 21
739.1648509337379
 31
0.0
  0
LINE
  5
47CA
330
A
100
AcDbEntity
  8
MODEL
100
AcDbLine
 10
468.9171278564459
 20
739.1648509337379
 30
0.0
 11
468.9171278564459
 21
749.1648509337379
 31
0.0
  0
LINE
  5
47CB
330
A
100
AcDbEntity
  8
MODEL
100
AcDbLine
 10
636.4171278564459
 20
864.1648509337379
 30
0.0
 11
636.4171278564459
 21
821.7102754662737
 31
0.0
  0
ARC
  5
47CC
330
A
100
AcDbEntity
  8
MODEL
100
AcDbCircle
 10
606.4171278564459
 20
821.7102754662737
 30
0.0
 40
30.0
100
AcDbArc
 50
299.3577535427949
 51
0.000000000001737
  0
LINE
  5
47CD
330
A
100
AcDbEntity
  8
MODEL
100
AcDbLine
 10
621.1249650454215
 20
795.5630093525378
 30
0.0
 11
478.8691136334778
 21
715.5440929333186
 31
0.0
  0
LINE
  5
47CE
330
A
100
AcDbEntity
  8
MODEL
100
AcDbLine
 10
631.4171278564459
 20
864.1648509337379
 30
0.0
 11
636.4171278564459
 21
864.1648509337379
 31
0.0
  0
ARC
  5
47CF
330
A
100
AcDbEntity
  8
MODEL
100
AcDbCircle
 10
246.4171278564459
 20
821.7102754662737
 30
0.0
 40
30.00000000000004
100
AcDbArc
 50
179.9999999999861
 51
240.6422464572082
  0
LINE
  5
47D0
330
A
100
AcDbEntity
  8
MODEL
100
AcDbLine
 10
216.4171278564459
 20
864.1648509337379
 30
0.0
 11
216.4171278564459
 21
821.7102754662737
 31
0.0
  0
LINE
  5
47D1
330
A
100
AcDbEntity
  8
MODEL
100
AcDbLine
 10
231.7092906674684
 20
795.5630093525378
 30
0.0
 11
373.9651420794139
 21
715.5440929333186
 31
0.0
  0
ARC
  5
47D2
330
A
100
AcDbEntity
  8
MODEL
100
AcDbCircle
 10
371.5138358812505
 20
711.1862152476956
 30
0.0
 40
5.000000000000083
100
AcDbArc
 50
11.28720404722748
 51
60.64224645720164
  0
LINE
  5
47D3
330
A
100
AcDbEntity
  8
MODEL
100
AcDbLine
 10
383.9171278564459
 20
739.1648509337379
 30
0.0
 11
383.9171278564459
 21
749.1648509337379
 31
0.0
  0
LINE
  5
47D4
330
A
100
AcDbEntity
  8
MODEL
100
AcDbLine
 10
403.4171278564459
 20
729.1648509337379
 30
0.0
 11
383.9171278564459
 21
739.1648509337379
 31
0.0
  0
LINE
  5
47D5
330
A
100
AcDbEntity
  8
MODEL
100
AcDbLine
 10
403.4171278564459
 20
712.1648509337374
 30
0.0
 11
403.4171278564459
 21
729.1648509337379
 31
0.0
  0
LINE
  5
47D6
330
A
100
AcDbEntity
  8
MODEL
100
AcDbLine
 10
403.4171278564459
 20
712.1648509337374
 30
0.0
 11
376.4171278564459
 21
712.1648509337374
 31
0.0
  0
LINE
  5
47D7
102
{ACAD_REACTORS
330
4775
102
}
330
A
100
AcDbEntity
  8
MODEL
100
AcDbLine
 10
216.4171278564459
 20
864.1648509337379
 30
0.0
 11
631.4171278564459
 21
864.1648509337379
 31
0.0
  0
SPLINE
  5
47D8
330
A
100
AcDbEntity
  8
HIDDEN
 48
0.5
100
AcDbSpline
210
0.0
220
0.0
230
1.0
 70
  1064
 71
     3
 72
    59
 73
    55
 74
    53
 42
0.000000001
 43
0.0000000001
 44
0.0
 40
0.0
 40
0.0
 40
0.0
 40
0.0
 40
42.03661945126911
 40
44.09470729468674
 40
46.20500114060752
 40
48.05549568682057
 40
50.37534359066331
 40
52.31981234121736
 40
53.89820976806359
 40
56.20049884195987
 40
57.2819827509125
 40
59.20378214696435
 40
60.61128002388881
 40
62.19919376588068
 40
63.66115406677499
 40
65.50022026547275
 40
207.5199550222973
 40
213.5334379010342
 40
218.7330411791977
 40
219.6196144257471
 40
220.3197046409825
 40
220.7849572666463
 40
220.9432846810838
 40
221.056060503921
 40
221.0843246510669
 40
221.1121295568713
 40
221.1412634311899
 40
221.2641971815759
 40
221.3828623989633
 40
304.5869596841411
 40
305.4604565173079
 40
305.7996295568713
 40
306.0116959108089
 40
306.0753020090959
 40
306.1121295568713
 40
306.3044801535621
 40
306.66253008297
 40
306.9985890098169
 40
307.9376591551088
 40
462.1681412146984
 40
462.8516081143015
 40
467.5648041865344
 40
468.745498362388
 40
470.1824984648776
 40
472.5809258587101
 40
474.453661058001
 40
476.2564156404692
 40
477.5455390916355
 40
478.7055343969208
 40
479.8728639553901
 40
481.7835509582571
 40
483.0845904212739
 40
486.8247023134274
 40
527.2160284352043
 40
527.2160284352043
 40
527.2160284352043
 40
527.2160284352043
 10
221.4171278564459
 20
864.3795816073398
 30
0.0
 10
222.670894074776
 20
850.428328468648
 30
0.0
 10
223.9860439401766
 20
835.7940302882762
 30
0.0
 10
225.4154627221864
 20
820.4475723811994
 30
0.0
 10
225.8445472299568
 20
818.4822677501845
 30
0.0
 10
226.4824817976417
 20
816.4859580064906
 30
0.0
 10
227.3058999050286
 20
814.6158562633968
 30
0.0
 10
228.2770458176246
 20
812.9241930413393
 30
0.0
 10
229.389193724458
 20
811.3304264611068
 30
0.0
 10
230.4655662071023
 20
810.0688362551043
 30
0.0
 10
231.7234056668051
 20
808.8248936732562
 30
0.0
 10
232.8454697507834
 20
807.8708052177649
 30
0.0
 10
234.1788878881318
 20
806.9154219329301
 30
0.0
 10
235.450154228974
 20
806.1437822180856
 30
0.0
 10
236.9020911246873
 20
805.3989347677988
 30
0.0
 10
282.0690192181814
 20
787.8038082082136
 30
0.0
 10
328.8519083752713
 20
770.3644317023654
 30
0.0
 10
376.5813575955079
 20
752.1739120273382
 30
0.0
 10
380.3504459847185
 20
750.7385372749948
 30
0.0
 10
382.4642834134077
 20
749.932937853425
 30
0.0
 10
383.1035134326575
 20
749.6898084090692
 30
0.0
 10
383.5156995448248
 20
749.5320189740568
 30
0.0
 10
383.7452408122309
 20
749.4455598913449
 30
0.0
 10
383.8382504781454
 20
749.408720120108
 30
0.0
 10
383.8911294117721
 20
749.3902298064736
 30
0.0
 10
383.9170435332932
 20
749.376716176941
 30
0.0
 10
383.9782226856028
 20
749.3833546106334
 30
0.0
 10
384.0675279603481
 20
749.3782520453814
 30
0.0
 10
411.9394870850593
 20
749.686491489257
 30
0.0
 10
439.9455856704481
 20
749.3920496108221
 30
0.0
 10
468.0874119425873
 20
749.3792345544815
 30
0.0
 10
468.5621840921993
 20
749.3799878135587
 30
0.0
 10
468.7673295628672
 20
749.3789181249082
 30
0.0
 10
468.8712713353711
 20
749.3801401675466
 30
0.0
 10
468.9695425484788
 20
749.3764642404358
 30
0.0
 10
469.1453728377007
 20
749.4846687868569
 30
0.0
 10
469.4255524344144
 20
749.5678464403406
 30
0.0
 10
469.9326134846259
 20
749.7707114611861
 30
0.0
 10
518.4233518386201
 20
767.9429122862673
 30
0.0
 10
567.1281626551754
 20
786.1959023596391
 30
0.0
 10
616.6352683784904
 20
805.6767967115256
 30
0.0
 10
618.5625718776441
 20
806.7813641252512
 30
0.0
 10
620.4875119717636
 20
808.2866474922877
 30
0.0
 10
621.735342432138
 20
809.401926115195
 30
0.0
 10
623.0294738569813
 20
810.8035413672693
 30
0.0
 10
624.2380589730692
 20
812.4313015973426
 30
0.0
 10
625.0997274733052
 20
813.8469362975811
 30
0.0
 10
625.7413125734331
 20
815.111718914877
 30
0.0
 10
626.2201551564812
 20
816.218784119596
 30
0.0
 10
626.7047729642808
 20
817.546470580186
 30
0.0
 10
627.099500377696
 20
818.9542859932046
 30
0.0
 10
627.5418371864537
 20
821.2310670074061
 30
0.0
 10
628.6587568216577
 20
836.3566931577184
 30
0.0
 10
630.0989709649828
 20
850.9881404042869
 30
0.0
 10
631.4171278564459
 20
864.3795816073398
 30
0.0
 11
221.4171278564459
 21
864.3795816073398
 31
0.0
 11
225.2229445595708
 21
822.5155978729526
 31
0.0
 11
225.4548529502035
 21
820.4706176604377
 31
0.0
 11
225.8971158719655
 21
818.4071875976138
 31
0.0
 11
226.4619778246456
 21
816.6450125098377
 31
0.0
 11
227.3962719780789
 21
814.5216216527829
 31
0.0
 11
228.3644091077877
 21
812.8353034088086
 31
0.0
 11
229.2676749565826
 21
811.5409119519936
 31
0.0
 11
230.7619628712714
 21
809.789444393688
 31
0.0
 11
231.5309267174666
 21
809.0289826598919
 31
0.0
 11
232.9949209208066
 21
807.783979089113
 31
0.0
 11
234.1392438771568
 21
806.9644821427387
 31
0.0
 11
235.4958147456914
 21
806.139142497108
 31
0.0
 11
236.7990477363023
 21
805.4766383887627
 31
0.0
 11
238.4997072147548
 21
804.7766942327457
 31
0.0
 11
371.2154074628725
 21
754.2183322334627
 31
0.0
 11
376.8349334572576
 21
752.077560426078
 31
0.0
 11
381.6938989471978
 21
750.2265259537198
 31
0.0
 11
382.5223907722143
 21
749.91091002038
 31
0.0
 11
383.1766164916958
 21
749.661681174864
 31
0.0
 11
383.6113893640218
 21
749.4960534139768
 31
0.0
 11
383.7593443909168
 21
749.4396895942077
 31
0.0
 11
383.8647320141545
 21
749.3995419282119
 31
0.0
 11
383.8911445130007
 21
749.38948002389
 31
0.0
 11
383.9171278564459
 21
749.3795816073398
 31
0.0
 11
383.9462617307645
 21
749.3795816073398
 31
0.0
 11
384.0691954811505
 21
749.3795816073398
 31
0.0
 11
384.1878606985379
 21
749.3795816073398
 31
0.0
 11
467.3919579837157
 21
749.3795816073398
 31
0.0
 11
468.2654548168825
 21
749.3795816073398
 31
0.0
 11
468.6046278564459
 21
749.3795816073398
 31
0.0
 11
468.8166942103835
 21
749.3795816073398
 31
0.0
 11
468.8803003086705
 21
749.3795816073398
 31
0.0
 11
468.9171278564459
 21
749.3795816073398
 31
0.0
 11
469.0968771298599
 21
749.4480575210209
 31
0.0
 11
469.4314703973837
 21
749.575521622935
 31
0.0
 11
469.7455133427356
 21
749.6951570306878
 31
0.0
 11
470.6230628757485
 21
750.0294616146939
 31
0.0
 11
614.7495567126175
 21
804.9347926001669
 31
0.0
 11
615.3839975305805
 21
805.1889812139079
 31
0.0
 11
619.4829336292437
 21
807.5155538163399
 31
0.0
 11
620.4128540713314
 21
808.243074749566
 31
0.0
 11
621.4843034058736
 21
809.200657966871
 31
0.0
 11
623.1113009125797
 21
810.962853494234
 31
0.0
 11
624.2277304488066
 21
812.4664233187859
 31
0.0
 11
625.1650483010835
 21
814.0063451766778
 31
0.0
 11
625.7482524898255
 21
815.1560025806816
 31
0.0
 11
626.2087442728925
 21
816.2206792574298
 31
0.0
 11
626.6090517208163
 21
817.317224853934
 31
0.0
 11
627.1243191253725
 21
819.1571227654299
 31
0.0
 11
627.3735317665396
 21
820.4340709804369
 31
0.0
 11
627.7602690123626
 21
824.1541343224408
 31
0.0
 11
631.4171278564459
 21
864.3795816073398
 31
0.0
  0
HATCH
  5
47D9
330
A
100
AcDbEntity
  8
MODEL
100
AcDbHatch
 10
0.0
 20
0.0
 30
0.0
210
0.0
220
0.0
230
1.0
  2
ANSI31
 70
     0
 71
     0
 91
        1
 92
        1
 93
        4
 72
     1
 10
190.2041879648327
 20
712.1648509337374
 11
190.2041879648327
 21
670.4317967339955
 72
     1
 10
190.2041879648327
 20
670.4317967339955
 11
391.4171278564459
 21
670.4317967339955
 72
     1
 10
391.4171278564459
 20
670.4317967339955
 11
391.4171278564459
 21
712.1648509337374
 72
     1
 10
391.4171278564459
 20
712.1648509337374
 11
190.2041879648327
 21
712.1648509337374
 97
        0
 75
     0
 76
     1
 52
0.0
 41
3.0
 77
     0
 78
     1
 53
45.0
 43
-987.9496282750777
 44
-282.7060018814673
 45
-6.735192090801865
 46
6.735192090801865
 79
     0
 98
        0
1001
ACAD
1010
0.0
1020
0.0
1030
0.0
  0
LWPOLYLINE
  5
47DA
102
{ACAD_REACTORS
330
478B
102
}
330
A
100
AcDbEntity
  8
MODEL
100
AcDbPolyline
 90
        4
 70
     1
 43
0.0
 10
190.2041879648327
 20
712.1648509337374
 10
190.2041879648327
 20
670.4317967339955
 10
391.4171278564459
 20
670.4317967339955
 10
391.4171278564459
 20
712.1648509337374
  0
HATCH
  5
47DB
330
A
100
AcDbEntity
  8
MODEL
100
AcDbHatch
 10
0.0
 20
0.0
 30
0.0
210
0.0
220
0.0
230
1.0
  2
ANSI31
 70
     0
 71
     0
 91
        1
 92
        1
 93
        4
 72
     1
 10
662.6300677480585
 20
712.1648509337367
 11
662.6300677480585
 21
670.4317967339948
 72
     1
 10
662.6300677480585
 20
670.4317967339948
 11
461.4171278564456
 21
670.4317967339955
 72
     1
 10
461.4171278564459
 20
670.4317967339955
 11
461.4171278564459
 21
712.1648509337374
 72
     1
 10
461.4171278564459
 20
712.1648509337374
 11
662.6300677480588
 21
712.1648509337367
 97
        0
 75
     0
 76
     1
 52
0.0
 41
3.0
 77
     0
 78
     1
 53
45.0
 43
-990.9496282750774
 44
-282.7060018814672
 45
-6.735192090801865
 46
6.735192090801865
 79
     0
 98
        0
1001
ACAD
1010
0.0
1020
0.0
1030
0.0
  0
LWPOLYLINE
  5
47DC
330
A
100
AcDbEntity
  8
MODEL
100
AcDbPolyline
 90
        4
 70
     1
 43
0.0
 10
662.6300677480585
 20
712.1648509337367
 10
662.6300677480585
 20
670.4317967339948
 10
461.4171278564459
 20
670.4317967339955
 10
461.4171278564459
 20
712.1648509337374
  0
LINE
  5
47DD
330
A
100
AcDbEntity
  8
MODEL
  6
Continuous
390
1D
100
AcDbLine
 10
430.4097542841978
 20
741.9133641433336
 30
0.0
 11
430.4097542841978
 21
736.9137928709258
 31
0.0
  0
POLYLINE
  5
47DE
330
A
100
AcDbEntity
  8
MODEL
  6
Continuous
100
AcDb2dPolyline
 66
     1
 10
0.0
 20
0.0
 30
0.0
  0
VERTEX
  5
47DF
330
47DE
100
AcDbEntity
  8
MODEL
  6
Continuous
100
AcDbVertex
100
AcDb2dVertex
 10
446.4171278564459
 20
730.9191575603877
 30
0.0
  0
VERTEX
  5
47E0
330
47DE
100
AcDbEntity
  8
MODEL
  6
Continuous
100
AcDbVertex
100
AcDb2dVertex
 10
446.4171278564459
 20
636.9137928709256
 30
0.0
  0
SEQEND
  5
47E1
330
47DE
100
AcDbEntity
  8
MODEL
  6
Continuous
  0
POLYLINE
  5
47E2
330
A
100
AcDbEntity
  8
MODEL
  6
Continuous
100
AcDb2dPolyline
 66
     1
 10
0.0
 20
0.0
 30
0.0
  0
VERTEX
  5
47E3
330
47E2
100
AcDbEntity
  8
MODEL
  6
Continuous
100
AcDbVertex
100
AcDb2dVertex
 10
406.4171278564459
 20
730.9084508947599
 30
0.0
  0
VERTEX
  5
47E4
330
47E2
100
AcDbEntity
  8
MODEL
  6
Continuous
100
AcDbVertex
100
AcDb2dVertex
 10
406.4171278564459
 20
636.9137928709256
 30
0.0
  0
SEQEND
  5
47E5
330
47E2
100
AcDbEntity
  8
MODEL
  6
Continuous
  0
POLYLINE
  5
47E6
330
A
100
AcDbEntity
  8
MODEL
  6
Continuous
100
AcDb2dPolyline
 66
     1
 10
0.0
 20
0.0
 30
0.0
  0
VERTEX
  5
47E7
330
47E6
100
AcDbEntity
  8
MODEL
  6
Continuous
100
AcDbVertex
100
AcDb2dVertex
 10
459.0581147822245
 20
736.9137928709258
 30
0.0
  0
VERTEX
  5
47E8
330
47E6
100
AcDbEntity
  8
MODEL
  6
Continuous
100
AcDbVertex
100
AcDb2dVertex
 10
393.7647272695676
 20
736.9137928709258
 30
0.0
  0
SEQEND
  5
47E9
330
47E6
100
AcDbEntity
  8
MODEL
  6
Continuous
  0
ARC
  5
47EA
330
A
100
AcDbEntity
  8
MODEL
  6
Continuous
100
AcDbCircle
 10
395.9076311727817
 20
721.2366195181328
 30
0.0
 40
14.28264130761
100
AcDbArc
 50
42.62319145322517
 51
98.62758872800826
  0
ARC
  5
47EB
330
A
100
AcDbEntity
  8
MODEL
  6
Continuous
100
AcDbCircle
 10
456.9167611730013
 20
721.2366195181328
 30
0.0
 40
14.28264130761
100
AcDbArc
 50
81.37241127198814
 51
137.3184104408065
  0
ARC
  5
47EC
330
A
100
AcDbEntity
  8
MODEL
  6
Continuous
100
AcDbCircle
 10
393.7688577080185
 20
736.13571754229
 30
0.0
 40
0.7780845392933852
100
AcDbArc
 50
90.27878537560984
 51
269.7212146243901
  0
ARC
  5
47ED
330
A
100
AcDbEntity
  8
MODEL
  6
Continuous
100
AcDbCircle
 10
459.0555346377646
 20
736.13571754229
 30
0.0
 40
0.7780845392933852
100
AcDbArc
 50
270.2787853756098
 51
89.72121462435669
  0
LINE
  5
47EE
330
A
100
AcDbEntity
  8
MODEL
  6
Continuous
390
1D
100
AcDbLine
 10
422.4104465909718
 20
741.9133641433336
 30
0.0
 11
422.4104465909718
 21
736.9137928709258
 31
0.0
  0
LINE
  5
47EF
330
A
100
AcDbEntity
  8
MODEL
  6
Continuous
100
AcDbLine
 10
462.4102765160264
 20
741.9133641433336
 30
0.0
 11
462.4101004375848
 21
742.913137535063
 31
0.0
  0
LINE
  5
47F0
330
A
100
AcDbEntity
  8
MODEL
  6
Continuous
100
AcDbLine
 10
390.4102765160255
 20
741.9133641433336
 30
0.0
 11
390.4101004375848
 21
742.913137535063
 31
0.0
  0
LINE
  5
47F1
330
A
100
AcDbEntity
  8
MODEL
  6
Continuous
100
AcDbLine
 10
390.4102765160255
 20
741.9133641433336
 30
0.0
 11
462.4102765160264
 21
741.9133641433336
 31
0.0
  0
LINE
  5
47F2
330
A
100
AcDbEntity
  8
MODEL
  6
Continuous
100
AcDbLine
 10
390.4101004375848
 20
742.913137535063
 30
0.0
 11
462.4101004375848
 21
742.913137535063
 31
0.0
  0
ARC
  5
47F3
330
A
100
AcDbEntity
  8
MODEL
  6
Continuous
100
AcDbCircle
 10
426.3537364576696
 20
673.0270875765068
 30
0.0
 40
78.6391846490151
100
AcDbArc
 50
62.70939830928342
 51
117.1982289120087
  0
LWPOLYLINE
  5
47F4
330
A
100
AcDbEntity
  8
MODEL
100
AcDbPolyline
 90
        4
 70
     1
 43
0.0
 10
363.9171278564459
 20
667.4317967339955
 10
363.9171278564459
 20
670.4317967339955
 10
488.9171278564459
 20
670.4317967339955
 10
488.9171278564459
 20
667.4317967339955
  0
LINE
  5
47F5
330
A
100
AcDbEntity
  8
MODEL
100
AcDbLine
 10
406.4171278564459
 20
636.9137928709256
 30
0.0
 11
446.4171278564459
 21
636.9137928709256
 31
0.0
  0
LWPOLYLINE
  5
47F6
330
A
100
AcDbEntity
  8
MODEL
100
AcDbPolyline
 90
        4
 70
     1
 43
0.0
 10
396.1337416494493
 20
706.4373958104802
 10
396.1337416494493
 20
709.4373958104802
 10
456.1337416494493
 20
709.4373958104802
 10
456.1337416494493
 20
706.4373958104802
  0
LWPOLYLINE
  5
47F7
330
A
100
AcDbEntity
  8
MODEL
100
AcDbPolyline
 90
        4
 70
     0
 43
0.0
 10
403.6337416494493
 20
701.9886286978995
 10
403.6337416494493
 20
706.4373958104802
 10
448.6337416494493
 20
706.4373958104802
 10
448.6337416494493
 20
701.9847971778659
  0
LWPOLYLINE
  5
47F8
330
A
100
AcDbEntity
  8
MODEL
100
AcDbPolyline
 90
        2
 70
     0
 43
0.0
 10
448.0863402820628
 20
701.4373958104802
 10
404.1811430168359
 20
701.4373958104802
  0
LINE
  5
47F9
330
A
100
AcDbEntity
  8
MODEL
100
AcDbLine
 10
426.1337416494493
 20
706.4373958104802
 30
0.0
 11
426.1337416494493
 21
701.4373958104802
 31
0.0
  0
ARC
  5
47FA
330
A
100
AcDbEntity
  8
MODEL
100
AcDbCircle
 10
404.1811430168359
 20
701.9847971778668
 30
0.0
 40
0.5474013673863283
100
AcDbArc
 50
177.7181671112423
 51
271.1652682122306
  0
ARC
  5
47FB
330
A
100
AcDbEntity
  8
MODEL
100
AcDbCircle
 10
448.0863402820628
 20
701.9847971778659
 30
0.0
 40
0.5474013673863283
100
AcDbArc
 50
268.8347317877694
 51
2.281832888757755
  0
LINE
  5
47FC
330
A
100
AcDbEntity
  8
MODEL
100
AcDbLine
 10
396.1337416494493
 20
708.5325370739422
 30
0.0
 11
456.1337416494493
 21
708.5325370739422
 31
0.0
  0
LINE
  5
47FD
330
A
100
AcDbEntity
  8
MODEL
100
AcDbLine
 10
456.1337416494493
 20
708.5325370739422
 30
0.0
 11
457.6244582807908
 21
708.5325370739422
 31
0.0
  0
LINE
  5
47FE
330
A
100
AcDbEntity
  8
MODEL
100
AcDbLine
 10
457.6244582807908
 20
708.5325370739422
 30
0.0
 11
457.6244582807908
 21
710.0528941971795
 31
0.0
  0
LINE
  5
47FF
330
A
100
AcDbEntity
  8
MODEL
100
AcDbLine
 10
457.6244582807908
 20
710.0528941971795
 30
0.0
 11
456.1841199535133
 21
712.1333828921358
 31
0.0
  0
LINE
  5
4800
330
A
100
AcDbEntity
  8
MODEL
100
AcDbLine
 10
396.7005140634415
 20
708.5325370739422
 30
0.0
 11
395.2097974320995
 21
708.5325370739422
 31
0.0
  0
LINE
  5
4801
330
A
100
AcDbEntity
  8
MODEL
100
AcDbLine
 10
395.2097974320995
 20
708.5325370739422
 30
0.0
 11
395.2097974320995
 21
710.0528941971795
 31
0.0
  0
LINE
  5
4802
330
A
100
AcDbEntity
  8
MODEL
100
AcDbLine
 10
395.2097974320995
 20
710.0528941971795
 30
0.0
 11
396.6501357593775
 21
712.1333828921358
 31
0.0
  0
LINE
  5
4803
330
A
100
AcDbEntity
  8
MODEL
100
AcDbLine
 10
396.6501357593775
 20
712.1333828921358
 30
0.0
 11
456.1841199535133
 21
712.1333828921358
 31
0.0
  0
LWPOLYLINE
  5
4804
330
A
100
AcDbEntity
  8
MODEL
100
AcDbPolyline
 90
        4
 70
     1
 43
0.0
 10
396.1337416494493
 20
661.7358096523399
 10
396.1337416494493
 20
664.7358096523399
 10
456.1337416494493
 20
664.7358096523399
 10
456.1337416494493
 20
661.7358096523399
  0
LWPOLYLINE
  5
4805
330
A
100
AcDbEntity
  8
MODEL
100
AcDbPolyline
 90
        4
 70
     0
 43
0.0
 10
403.6337416494493
 20
657.2870425397591
 10
403.6337416494493
 20
661.7358096523399
 10
448.6337416494493
 20
661.7358096523399
 10
448.6337416494493
 20
657.2832110197255
  0
LWPOLYLINE
  5
4806
330
A
100
AcDbEntity
  8
MODEL
100
AcDbPolyline
 90
        2
 70
     0
 43
0.0
 10
448.0863402820628
 20
656.7358096523399
 10
404.1811430168359
 20
656.7358096523399
  0
LINE
  5
4807
330
A
100
AcDbEntity
  8
MODEL
100
AcDbLine
 10
426.1337416494493
 20
661.7358096523399
 30
0.0
 11
426.1337416494493
 21
656.7358096523399
 31
0.0
  0
ARC
  5
4808
330
A
100
AcDbEntity
  8
MODEL
100
AcDbCircle
 10
404.1811430168359
 20
657.2832110197264
 30
0.0
 40
0.5474013673863283
100
AcDbArc
 50
177.7181671112423
 51
271.1652682122306
  0
ARC
  5
4809
330
A
100
AcDbEntity
  8
MODEL
100
AcDbCircle
 10
448.0863402820628
 20
657.2832110197255
 30
0.0
 40
0.5474013673863283
100
AcDbArc
 50
268.8347317877694
 51
2.281832888757755
  0
LINE
  5
480A
330
A
100
AcDbEntity
  8
MODEL
100
AcDbLine
 10
396.1337416494493
 20
663.8309509158018
 30
0.0
 11
456.1337416494493
 21
663.8309509158018
 31
0.0
  0
LINE
  5
480B
330
A
100
AcDbEntity
  8
MODEL
100
AcDbLine
 10
456.1337416494493
 20
663.8309509158018
 30
0.0
 11
457.6244582807908
 21
663.8309509158018
 31
0.0
  0
LINE
  5
480C
330
A
100
AcDbEntity
  8
MODEL
100
AcDbLine
 10
457.6244582807908
 20
663.8309509158018
 30
0.0
 11
457.6244582807908
 21
665.3513080390392
 31
0.0
  0
LINE
  5
480D
330
A
100
AcDbEntity
  8
MODEL
100
AcDbLine
 10
457.6244582807908
 20
665.3513080390392
 30
0.0
 11
456.1841199535133
 21
667.4317967339955
 31
0.0
  0
LINE
  5
480E
330
A
100
AcDbEntity
  8
MODEL
100
AcDbLine
 10
396.7005140634415
 20
663.8309509158018
 30
0.0
 11
395.2097974320995
 21
663.8309509158018
 31
0.0
  0
LINE
  5
480F
330
A
100
AcDbEntity
  8
MODEL
100
AcDbLine
 10
395.2097974320995
 20
663.8309509158018
 30
0.0
 11
395.2097974320995
 21
665.3513080390392
 31
0.0
  0
LINE
  5
4810
330
A
100
AcDbEntity
  8
MODEL
100
AcDbLine
 10
395.2097974320995
 20
665.3513080390392
 30
0.0
 11
396.6501357593775
 21
667.4317967339955
 31
0.0
  0
LINE
  5
4811
330
A
100
AcDbEntity
  8
MODEL
100
AcDbLine
 10
396.6501357593775
 20
667.4317967339955
 30
0.0
 11
456.1841199535133
 21
667.4317967339955
 31
0.0
  0
DIMENSION
  5
488B
330
A
100
AcDbEntity
  8
DIM
100
AcDbDimension
  2
*D47
 10
744.7536057029013
 20
636.9137928709256
 30
0.0
 11
718.7498542961238
 21
750.5393219023317
 31
0.0
 70
    32
 71
     5
 42
227.2510580628123
 73
     0
 74
     0
 75
     0
  3
tfrom線あり
100
AcDbAlignedDimension
 13
641.4171278564459
 23
864.1648509337379
 33
0.0
 14
461.5749934685788
 24
636.9137928709256
 34
0.0
 50
90.0
100
AcDbRotatedDimension
  0
VIEWPORT
  5
349
330
B
100
AcDbEntity
 67
     1
  8
0
100
AcDbViewport
 10
202.5
 20
128.5
 30
0.0
 40
486.0
 41
308.4
 68
     1
 69
     1
 12
202.5
 22
128.5
 13
0.0
 23
0.0
 14
0.5
 24
0.5
 15
0.0
 25
0.0
 16
0.0
 26
0.0
 36
1.0
 17
0.0
 27
0.0
 37
0.0
 42
50.0
 43
0.0
 44
0.0
 45
308.4
 50
0.0
 51
0.0
 72
   100
 90
   557152
  1

281
     0
 71
     1
 74
     0
110
0.0
120
0.0
130
0.0
111
1.0
121
0.0
131
0.0
112
0.0
122
1.0
132
0.0
 79
     0
146
0.0
170
     0
 61
     5
348
26C
292
     1
282
     1
141
0.0
142
0.0
 63
   256
  0
VIEWPORT
  5
34A
330
B
100
AcDbEntity
 67
     1
  8
0
100
AcDbViewport
 10
202.5
 20
128.5
 30
0.0
 40
324.0
 41
205.6
 68
     2
 69
     2
 12
986.6781359294573
 22
1427.077061889956
 13
0.0
 23
0.0
 14
0.5
 24
0.5
 15
0.0
 25
0.0
 16
0.0
 26
0.0
 36
1.0
 17
0.0
 27
0.0
 37
0.0
 42
50.0
 43
0.0
 44
0.0
 45
2890.021615685494
 50
0.0
 51
0.0
 72
   100
 90
   557152
  1

281
     0
 71
     1
 74
     0
110
0.0
120
0.0
130
0.0
111
1.0
121
0.0
131
0.0
112
0.0
122
1.0
132
0.0
 79
     0
146
0.0
170
     0
 61
     5
348
26C
292
     1
282
     1
141
0.0
142
0.0
 63
   256
  0
ENDSEC
  0
SECTION
  2
OBJECTS
  0
DICTIONARY
  5
19
330
0
100
AcDbDictionary
281
     1
  3
ACAD_COLOR
350
674
  3
ACAD_DETAILVIEWSTYLE
350
BBF
  3
ACAD_FIELDLIST
350
3BE4
  3
ACAD_GROUP
350
1A
  3
ACAD_IMAGE_VARS
350
27B
  3
ACAD_LAYOUT
350
1E
  3
ACAD_MATERIAL
350
263
  3
ACAD_MLEADERSTYLE
350
336
  3
ACAD_MLINESTYLE
350
1B
  3
ACAD_PLOTSETTINGS
350
22
  3
ACAD_PLOTSTYLENAME
350
1F
  3
ACAD_SCALELIST
350
241
  3
ACAD_SECTIONVIEWSTYLE
350
BC0
  3
ACAD_TABLESTYLE
350
278
  3
ACAD_VISUALSTYLE
350
267
  3
ACDB_RECOMPOSE_DATA
350
48A6
  3
AcDbVariableDictionary
350
330
  3
APPDATA
350
27A
  3
DimOffsetDictionary
350
E38
  0
SUN
  5
904
330
15
100
AcDbSun
 90
        1
290
     0
 63
     7
421
 16777215
 40
1.0
291
     1
 91
  2455826
 92
 54000000
292
     0
 70
     2
 71
   256
280
     1
  0
DICTIONARY
  5
2E1
330
2
100
AcDbDictionary
280
     1
281
     1
  3
ACAD_LAYERSTATES
360
2E2
  3
ACLYDICTIONARY
360
DDE
  0
DICTIONARY
  5
3E3E
330
A
100
AcDbDictionary
280
     1
281
     1
  3
ACAD_SORTENTS
360
3E3F
  0
DICTIONARY
  5
3DB8
330
3DB7
100
AcDbDictionary
280
     1
281
     1
  0
DICTIONARY
  5
4774
330
4773
100
AcDbDictionary
280
     1
281
     1
  3
ACAD_DIMASSOC
360
4775
  0
DICTIONARY
  5
478A
330
4789
100
AcDbDictionary
280
     1
281
     1
  3
ACAD_DIMASSOC
360
478B
  0
DICTIONARY
  5
674
102
{ACAD_REACTORS
330
19
102
}
330
19
100
AcDbDictionary
281
     1
  0
DICTIONARY
  5
BBF
102
{ACAD_REACTORS
330
19
102
}
330
19
100
AcDbDictionary
281
     1
  0
FIELDLIST
  5
3BE4
102
{ACAD_REACTORS
330
19
102
}
330
19
100
AcDbIdSet
 90
        1
330
3DBB
100
AcDbFieldList
  0
DICTIONARY
  5
1A
102
{ACAD_REACTORS
330
19
102
}
330
19
100
AcDbDictionary
281
     1
  3
*A1
350
3CF4
  0
RASTERVARIABLES
  5
27B
102
{ACAD_REACTORS
330
19
102
}
330
19
100
AcDbRasterVariables
 90
        0
 70
     1
 71
     1
 72
     1
  0
DICTIONARY
  5
1E
102
{ACAD_REACTORS
330
19
102
}
330
19
100
AcDbDictionary
281
     1
  3
Layout1
350
21
  3
Model
350
20
  0
DICTIONARY
  5
263
102
{ACAD_REACTORS
330
19
102
}
330
19
100
AcDbDictionary
281
     1
  3
ByBlock
350
265
  3
ByLayer
350
264
  3
Global
350
266
  0
DICTIONARY
  5
336
102
{ACAD_REACTORS
330
19
102
}
330
19
100
AcDbDictionary
281
     1
  3
Standard
350
D59
  0
DICTIONARY
  5
1B
102
{ACAD_REACTORS
330
19
102
}
330
19
100
AcDbDictionary
281
     1
  3
Standard
350
1C
  0
DICTIONARY
  5
22
102
{ACAD_REACTORS
330
19
102
}
330
19
100
AcDbDictionary
281
     1
  0
ACDBDICTIONARYWDFLT
  5
1F
102
{ACAD_REACTORS
330
19
102
}
330
19
100
AcDbDictionary
281
     1
  3
Normal
350
1D
100
AcDbDictionaryWithDefault
340
1D
  0
DICTIONARY
  5
241
102
{ACAD_REACTORS
330
19
102
}
330
19
100
AcDbDictionary
281
     1
  3
A0
350
242
  3
A1
350
243
  3
A2
350
244
  3
A3
350
245
  3
A4
350
246
  3
A5
350
247
  3
A6
350
248
  3
A7
350
249
  3
A8
350
24A
  3
A9
350
24B
  3
B0
350
24C
  3
B1
350
24D
  3
B2
350
24E
  3
B3
350
24F
  3
B4
350
250
  3
B5
350
251
  3
B6
350
252
  3
B7
350
253
  3
B8
350
254
  3
B9
350
255
  3
C0
350
256
  3
C1
350
257
  3
C2
350
258
  3
C3
350
259
  3
C4
350
25A
  3
C5
350
25B
  3
C6
350
25C
  3
C7
350
25D
  3
C8
350
25E
  3
C9
350
25F
  3
D0
350
260
  3
D1
350
261
  3
D2
350
262
  0
DICTIONARY
  5
BC0
102
{ACAD_REACTORS
330
19
102
}
330
19
100
AcDbDictionary
281
     1
  0
DICTIONARY
  5
278
102
{ACAD_REACTORS
330
19
102
}
330
19
100
AcDbDictionary
281
     1
  3
Standard
350
279
  0
DICTIONARY
  5
267
102
{ACAD_REACTORS
330
19
102
}
330
19
100
AcDbDictionary
281
     1
  3
2dWireframe
350
26C
  3
3D Hidden
350
26E
  3
3dWireframe
350
26D
  3
Basic
350
26F
  3
Brighten
350
273
  3
ColorChange
350
277
  3
Conceptual
350
271
  3
Dim
350
272
  3
EdgeColorOff
350
8FE
  3
Facepattern
350
276
  3
Flat
350
268
  3
FlatWithEdges
350
269
  3
Gouraud
350
26A
  3
GouraudWithEdges
350
26B
  3
Hidden
350
8FB
  3
JitterOff
350
8FC
  3
Linepattern
350
275
  3
OverhangOff
350
8FD
  3
Realistic
350
270
  3
Shaded
350
903
  3
Shaded with edges
350
902
  3
Shades of Gray
350
8FF
  3
Sketchy
350
900
  3
Thicken
350
274
  3
Wireframe
350
8FA
  3
X-Ray
350
901
  0
XRECORD
  5
48A6
102
{ACAD_REACTORS
330
19
102
}
330
19
100
AcDbXrecord
280
     1
 90
        1
330
279
  0
DICTIONARY
  5
330
102
{ACAD_REACTORS
330
19
102
}
330
19
100
AcDbDictionary
281
     1
  3
CANNOSCALE
350
331
  3
CMLEADERSTYLE
350
D5E
  3
CTABLESTYLE
350
335
  3
HPTRANSPARENCY
350
D52
  3
XCLIPFRAME
350
896
  0
DICTIONARY
  5
27A
102
{ACAD_REACTORS
330
19
102
}
330
19
100
AcDbDictionary
281
     1
  0
DICTIONARY
  5
E38
102
{ACAD_REACTORS
330
19
102
}
330
19
100
AcDbDictionary
281
     1
  3
DIMRAILANGLE
350
246C
  3
DIMRAILFIRSTOFFSET
350
246A
  3
DIMRAILOFFSET
350
246B
  3
DIMRAILSENABLED
350
246D
  0
DICTIONARY
  5
2E2
102
{ACAD_REACTORS
330
2E1
102
}
330
2E1
100
AcDbDictionary
281
     1
  0
DICTIONARY
  5
DDE
102
{ACAD_REACTORS
330
2E1
102
}
330
2E1
100
AcDbDictionary
281
     1
1001
ACAD
1000
<All
  0
SORTENTSTABLE
  5
3E3F
102
{ACAD_REACTORS
330
3E3E
102
}
330
3E3E
100
AcDbSortentsTable
330
A
331
3CE3
  5
3C4B
331
3CE4
  5
3CE2
331
3CEF
  5
3CE3
331
3CF0
  5
3CE4
331
3CF1
  5
3CEF
331
3CF2
  5
3CF0
331
3CF3
  5
3CF1
331
3D0E
  5
3CF2
331
3D12
  5
3CF3
331
3DB7
  5
3D2F
  0
DIMASSOC
  5
4775
102
{ACAD_REACTORS
330
4774
102
}
330
4774
100
AcDbDimAssoc
330
4773
 90
        1
 70
     0
 71
     1
  1
AcDbOsnapPointRef
 72
     2
331
4767
 73
     0
 91
        0
 40
0.5
 10
0.0
 20
0.0
 30
0.0
 75
     0
  0
DIMASSOC
  5
478B
102
{ACAD_REACTORS
330
478A
102
}
330
478A
100
AcDbDimAssoc
330
4789
 90
        3
 70
     0
 71
     1
  1
AcDbOsnapPointRef
 72
    13
331
4786
 73
     2
 91
        1
 40
0.0
 10
0.0
 20
0.0
 30
0.0
 75
     0
  1
AcDbOsnapPointRef
 72
     1
331
4786
 73
     2
 91
        1
 40
1.0
 10
0.0
 20
0.0
 30
0.0
 75
     0
  0
GROUP
  5
3CF4
102
{ACAD_REACTORS
330
1A
102
}
330
1A
100
AcDbGroup
300

 70
     1
 71
     1
340
3CE3
340
3CE4
340
3CEF
340
3CF0
340
3CF1
340
3CF2
340
3CF3
  0
LAYOUT
  5
21
102
{ACAD_REACTORS
330
1E
102
}
330
1E
100
AcDbPlotSettings
  1

  2
none_device
  4
ISO_A3_(420.00_x_297.00_MM)
  6

 40
7.5
 41
20.0
 42
7.5
 43
20.0
 44
420.0
 45
297.0
 46
0.0
 47
0.0
 48
0.0
 49
0.0
140
0.0
141
0.0
142
1.0
143
1.0
 70
     0
 72
     1
 73
     0
 74
     0
  7

 75
     0
 76
     0
 77
     2
 78
   300
147
1.0
148
0.0
149
0.0
100
AcDbLayout
  1
Layout1
 70
     0
 71
     0
 10
-7.5
 20
-20.0
 11
412.5
 21
277.0
 12
0.0
 22
0.0
 32
0.0
 14
0.0
 24
0.0
 34
0.0
 15
0.0
 25
0.0
 35
0.0
146
0.0
 13
0.0
 23
0.0
 33
0.0
 16
0.0
 26
0.0
 36
0.0
 17
0.0
 27
0.0
 37
0.0
 76
     0
330
B
331
349
  0
LAYOUT
  5
20
102
{ACAD_REACTORS
330
1E
102
}
330
1E
100
AcDbPlotSettings
  1

  2
Adobe PDF
  4
A4
  6

 40
0.0600000000000023
 41
0.0000000000000205
 42
0.0
 43
0.04
 44
210.0
 45
297.0
 46
0.0
 47
0.0
 48
0.0
 49
0.0
140
0.0
141
0.0
142
1.0
143
8.00228636753358
 70
  1712
 72
     1
 73
     0
 74
     1
  7
monochrome.ctb
 75
     0
 76
 32761
 77
     2
 78
   300
147
0.1249642857142857
148
-91.02013567090034
149
73.59871453016603
100
AcDbLayout
  1
Model
 70
     0
 71
     1
 10
0.0
 20
0.0
 11
1680.0
 21
2376.0
 12
0.0
 22
0.0
 32
0.0
 14
0.0
 24
0.0
 34
-0.0000000000000071
 15
1680.0
 25
2376.0
 35
0.0000000000000071
146
0.0
 13
0.0
 23
0.0
 33
0.0
 16
0.0
 26
0.0
 36
0.0
 17
0.0
 27
0.0
 37
0.0
 76
     0
330
A
331
15
1001
PLOTTRANSPARENCY
1071
        0
  0
MATERIAL
  5
265
102
{ACAD_REACTORS
330
263
102
}
330
263
100
AcDbMaterial
  1
ByBlock
 72
     1
 94
      127
  0
MATERIAL
  5
264
102
{ACAD_REACTORS
330
263
102
}
330
263
100
AcDbMaterial
  1
ByLayer
 72
     1
 94
      127
  0
MATERIAL
  5
266
102
{ACAD_REACTORS
330
263
102
}
330
263
100
AcDbMaterial
  1
Global
 72
     1
 94
      127
  0
MLEADERSTYLE
  5
D59
102
{ACAD_REACTORS
330
336
102
}
330
336
100
AcDbMLeaderStyle
170
     2
171
     1
172
     0
 90
        2
 40
0.0
 41
0.0
173
     1
 91
-1056964608
340
11
 92
       -2
290
     1
 42
2.0
291
     1
 43
8.0
  3
Standard
341
0
 44
4.0
300

342
17
174
     1
178
     6
175
     1
176
     0
 93
-1056964608
 45
4.0
292
     0
297
     0
 46
4.0
343
0
 94
-1056964608
 47
1.0
 49
1.0
140
1.0
293
     1
141
0.0
294
     1
177
     0
142
1.0
295
     0
296
     0
143
3.75
1001
ACAD_MLEADERVER
1070
     2
  0
MLINESTYLE
  5
1C
102
{ACAD_REACTORS
330
1B
102
}
330
1B
100
AcDbMlineStyle
  2
Standard
 70
     0
  3

 62
     0
 51
90.0
 52
90.0
 71
     2
 49
0.5
 62
   256
  6
BYLAYER
 49
-0.5
 62
   256
  6
BYLAYER
  0
ACDBPLACEHOLDER
  5
1D
102
{ACAD_REACTORS
330
1F
102
}
330
1F
  0
SCALE
  5
242
102
{ACAD_REACTORS
330
241
102
}
330
241
100
AcDbScale
 70
     0
300
1:1
140
1.0
141
1.0
290
     1
  0
SCALE
  5
243
102
{ACAD_REACTORS
330
241
102
}
330
241
100
AcDbScale
 70
     0
300
1:2
140
1.0
141
2.0
290
     0
  0
SCALE
  5
244
102
{ACAD_REACTORS
330
241
102
}
330
241
100
AcDbScale
 70
     0
300
1:4
140
1.0
141
4.0
290
     0
  0
SCALE
  5
245
102
{ACAD_REACTORS
330
241
102
}
330
241
100
AcDbScale
 70
     0
300
1:5
140
1.0
141
5.0
290
     0
  0
SCALE
  5
246
102
{ACAD_REACTORS
330
241
102
}
330
241
100
AcDbScale
 70
     0
300
1:8
140
1.0
141
8.0
290
     0
  0
SCALE
  5
247
102
{ACAD_REACTORS
330
241
102
}
330
241
100
AcDbScale
 70
     0
300
1:10
140
1.0
141
10.0
290
     0
  0
SCALE
  5
248
102
{ACAD_REACTORS
330
241
102
}
330
241
100
AcDbScale
 70
     0
300
1:16
140
1.0
141
16.0
290
     0
  0
SCALE
  5
249
102
{ACAD_REACTORS
330
241
102
}
330
241
100
AcDbScale
 70
     0
300
1:20
140
1.0
141
20.0
290
     0
  0
SCALE
  5
24A
102
{ACAD_REACTORS
330
241
102
}
330
241
100
AcDbScale
 70
     0
300
1:30
140
1.0
141
30.0
290
     0
  0
SCALE
  5
24B
102
{ACAD_REACTORS
330
241
102
}
330
241
100
AcDbScale
 70
     0
300
1:40
140
1.0
141
40.0
290
     0
  0
SCALE
  5
24C
102
{ACAD_REACTORS
330
241
102
}
330
241
100
AcDbScale
 70
     0
300
1:50
140
1.0
141
50.0
290
     0
  0
SCALE
  5
24D
102
{ACAD_REACTORS
330
241
102
}
330
241
100
AcDbScale
 70
     0
300
1:100
140
1.0
141
100.0
290
     0
  0
SCALE
  5
24E
102
{ACAD_REACTORS
330
241
102
}
330
241
100
AcDbScale
 70
     0
300
2:1
140
2.0
141
1.0
290
     0
  0
SCALE
  5
24F
102
{ACAD_REACTORS
330
241
102
}
330
241
100
AcDbScale
 70
     0
300
4:1
140
4.0
141
1.0
290
     0
  0
SCALE
  5
250
102
{ACAD_REACTORS
330
241
102
}
330
241
100
AcDbScale
 70
     0
300
8:1
140
8.0
141
1.0
290
     0
  0
SCALE
  5
251
102
{ACAD_REACTORS
330
241
102
}
330
241
100
AcDbScale
 70
     0
300
10:1
140
10.0
141
1.0
290
     0
  0
SCALE
  5
252
102
{ACAD_REACTORS
330
241
102
}
330
241
100
AcDbScale
 70
     0
300
100:1
140
100.0
141
1.0
290
     0
  0
SCALE
  5
253
102
{ACAD_REACTORS
330
241
102
}
330
241
100
AcDbScale
 70
     0
300
1/128" = 1'-0"
140
0.0078125
141
12.0
290
     0
  0
SCALE
  5
254
102
{ACAD_REACTORS
330
241
102
}
330
241
100
AcDbScale
 70
     0
300
1/64" = 1'-0"
140
0.015625
141
12.0
290
     0
  0
SCALE
  5
255
102
{ACAD_REACTORS
330
241
102
}
330
241
100
AcDbScale
 70
     0
300
1/32" = 1'-0"
140
0.03125
141
12.0
290
     0
  0
SCALE
  5
256
102
{ACAD_REACTORS
330
241
102
}
330
241
100
AcDbScale
 70
     0
300
1/16" = 1'-0"
140
0.0625
141
12.0
290
     0
  0
SCALE
  5
257
102
{ACAD_REACTORS
330
241
102
}
330
241
100
AcDbScale
 70
     0
300
3/32" = 1'-0"
140
0.09375
141
12.0
290
     0
  0
SCALE
  5
258
102
{ACAD_REACTORS
330
241
102
}
330
241
100
AcDbScale
 70
     0
300
1/8" = 1'-0"
140
0.125
141
12.0
290
     0
  0
SCALE
  5
259
102
{ACAD_REACTORS
330
241
102
}
330
241
100
AcDbScale
 70
     0
300
3/16" = 1'-0"
140
0.1875
141
12.0
290
     0
  0
SCALE
  5
25A
102
{ACAD_REACTORS
330
241
102
}
330
241
100
AcDbScale
 70
     0
300
1/4" = 1'-0"
140
0.25
141
12.0
290
     0
  0
SCALE
  5
25B
102
{ACAD_REACTORS
330
241
102
}
330
241
100
AcDbScale
 70
     0
300
3/8" = 1'-0"
140
0.375
141
12.0
290
     0
  0
SCALE
  5
25C
102
{ACAD_REACTORS
330
241
102
}
330
241
100
AcDbScale
 70
     0
300
1/2" = 1'-0"
140
0.5
141
12.0
290
     0
  0
SCALE
  5
25D
102
{ACAD_REACTORS
330
241
102
}
330
241
100
AcDbScale
 70
     0
300
3/4" = 1'-0"
140
0.75
141
12.0
290
     0
  0
SCALE
  5
25E
102
{ACAD_REACTORS
330
241
102
}
330
241
100
AcDbScale
 70
     0
300
1" = 1'-0"
140
1.0
141
12.0
290
     0
  0
SCALE
  5
25F
102
{ACAD_REACTORS
330
241
102
}
330
241
100
AcDbScale
 70
     0
300
1-1/2" = 1'-0"
140
1.5
141
12.0
290
     0
  0
SCALE
  5
260
102
{ACAD_REACTORS
330
241
102
}
330
241
100
AcDbScale
 70
     0
300
3" = 1'-0"
140
3.0
141
12.0
290
     0
  0
SCALE
  5
261
102
{ACAD_REACTORS
330
241
102
}
330
241
100
AcDbScale
 70
     0
300
6" = 1'-0"
140
6.0
141
12.0
290
     0
  0
SCALE
  5
262
102
{ACAD_REACTORS
330
241
102
}
330
241
100
AcDbScale
 70
     0
300
1'-0" = 1'-0"
140
12.0
141
12.0
290
     0
  0
TABLESTYLE
  5
279
102
{ACAD_REACTORS
330
278
102
}
102
{ACAD_XDICTIONARY
360
48A4
102
}
330
278
100
AcDbTableStyle
  3
Standard
 70
     0
 71
     0
 40
0.06
 41
0.06
280
     0
281
     0
  7
Standard
140
4.5
170
     2
 62
     0
 63
   257
283
     0
 90
        4
 91
        0
  1

274
    -2
284
     1
 64
     0
275
    -2
285
     1
 65
     0
276
    -2
286
     1
 66
     0
277
    -2
287
     1
 67
     0
278
    -2
288
     1
 68
     0
279
    -2
289
     1
 69
     0
  7
Standard
140
6.0
170
     5
 62
     0
 63
   257
283
     0
 90
        4
 91
        0
  1

274
    -2
284
     1
 64
     0
275
    -2
285
     1
 65
     0
276
    -2
286
     1
 66
     0
277
    -2
287
     1
 67
     0
278
    -2
288
     1
 68
     0
279
    -2
289
     1
 69
     0
  7
Standard
140
4.5
170
     5
 62
     0
 63
   257
283
     0
 90
        4
 91
        0
  1

274
    -2
284
     1
 64
     0
275
    -2
285
     1
 65
     0
276
    -2
286
     1
 66
     0
277
    -2
287
     1
 67
     0
278
    -2
288
     1
 68
     0
279
    -2
289
     1
 69
     0
  0
VISUALSTYLE
  5
26C
102
{ACAD_REACTORS
330
267
102
}
330
267
100
AcDbVisualStyle
  2
2dWireframe
 70
     4
 71
     0
 72
     2
 73
     0
 90
        0
 40
-0.6
 41
-30.0
 62
     5
 63
     7
421
 16777215
 74
     1
 91
        4
 64
     7
 65
   257
 75
     1
175
     1
 42
1.0
 92
        0
 66
   257
 43
1.0
 76
     1
 77
     6
 78
     2
 67
     7
 79
     5
170
     0
171
     0
290
     0
174
     0
 93
        1
 44
0.0
173
     0
291
     0
 45
0.0
  0
VISUALSTYLE
  5
26E
102
{ACAD_REACTORS
330
267
102
}
330
267
100
AcDbVisualStyle
  2
3D Hidden
 70
     6
 71
     1
 72
     2
 73
     2
 90
        0
 40
-0.6
 41
-30.0
 62
     5
 63
     7
421
 16777215
 74
     2
 91
        2
 64
     7
 65
   257
 75
     2
175
     1
 42
40.0
 92
        0
 66
   257
 43
1.0
 76
     1
 77
     6
 78
     2
 67
     7
 79
     3
170
     0
171
     0
290
     0
174
     0
 93
        1
 44
0.0
173
     0
291
     0
 45
0.0
  0
VISUALSTYLE
  5
26D
102
{ACAD_REACTORS
330
267
102
}
330
267
100
AcDbVisualStyle
  2
3dWireframe
 70
     5
 71
     0
 72
     2
 73
     0
 90
        0
 40
-0.6
 41
-30.0
 62
     5
 63
     7
421
 16777215
 74
     1
 91
        4
 64
     7
 65
   257
 75
     1
175
     1
 42
1.0
 92
        0
 66
   257
 43
1.0
 76
     1
 77
     6
 78
     2
 67
     7
 79
     5
170
     0
171
     0
290
     0
174
     0
 93
        1
 44
0.0
173
     0
291
     0
 45
0.0
  0
VISUALSTYLE
  5
26F
102
{ACAD_REACTORS
330
267
102
}
330
267
100
AcDbVisualStyle
  2
Basic
 70
     7
 71
     1
 72
     0
 73
     1
 90
        0
 40
-0.6
 41
-30.0
 62
     5
 63
     7
421
 16777215
 74
     0
 91
        4
 64
     7
 65
   257
 75
     1
175
     1
 42
1.0
 92
        8
 66
     7
 43
1.0
 76
     1
 77
     6
 78
     2
 67
     7
 79
     5
170
     0
171
     0
290
     0
174
     0
 93
        1
 44
0.0
173
     0
291
     1
 45
0.0
  0
VISUALSTYLE
  5
273
102
{ACAD_REACTORS
330
267
102
}
330
267
100
AcDbVisualStyle
  2
Brighten
 70
    12
 71
     2
 72
     2
 73
     0
 90
        0
 40
-0.6
 41
-30.0
 62
     5
 63
     7
421
 16777215
 74
     1
 91
        4
 64
     7
 65
   257
 75
     1
175
     1
 42
1.0
 92
        8
 66
     7
 43
1.0
 76
     1
 77
     6
 78
     2
 67
     7
 79
     5
170
     0
171
     0
290
     0
174
     0
 93
        1
 44
50.0
173
     0
291
     1
 45
0.0
  0
VISUALSTYLE
  5
277
102
{ACAD_REACTORS
330
267
102
}
330
267
100
AcDbVisualStyle
  2
ColorChange
 70
    16
 71
     2
 72
     2
 73
     3
 90
        0
 40
-0.6
 41
-30.0
 62
     5
 63
     8
421
  8421504
 74
     1
 91
        4
 64
     7
 65
   257
 75
     1
175
     1
 42
1.0
 92
        8
 66
     8
424
  8421504
 43
1.0
 76
     1
 77
     6
 78
     2
 67
     7
 79
     5
170
     0
171
     0
290
     0
174
     0
 93
        1
 44
0.0
173
     0
291
     1
 45
0.0
  0
VISUALSTYLE
  5
271
102
{ACAD_REACTORS
330
267
102
}
330
267
100
AcDbVisualStyle
  2
Conceptual
 70
     9
 71
     3
 72
     2
 73
     0
 90
        0
 40
-0.6
 41
-30.0
 62
     5
 63
     7
421
 16777215
 74
     2
 91
        2
 64
     7
 65
   257
 75
     1
175
     1
 42
40.0
 92
        8
 66
     7
 43
1.0
 76
     1
 77
     6
 78
     2
 67
     7
 79
     3
170
     0
171
     0
290
     0
174
     0
 93
        1
 44
0.0
173
     0
291
     0
 45
0.0
  0
VISUALSTYLE
  5
272
102
{ACAD_REACTORS
330
267
102
}
330
267
100
AcDbVisualStyle
  2
Dim
 70
    11
 71
     2
 72
     2
 73
     0
 90
        0
 40
-0.6
 41
-30.0
 62
     5
 63
     7
421
 16777215
 74
     1
 91
        4
 64
     7
 65
   257
 75
     1
175
     1
 42
1.0
 92
        8
 66
     7
 43
1.0
 76
     1
 77
     6
 78
     2
 67
     7
 79
     5
170
     0
171
     0
290
     0
174
     0
 93
        1
 44
-50.0
173
     0
291
     1
 45
0.0
  0
VISUALSTYLE
  5
8FE
102
{ACAD_REACTORS
330
267
102
}
330
267
100
AcDbVisualStyle
  2
EdgeColorOff
 70
    22
 71
     2
 72
     2
 73
     0
 90
        0
 40
0.6
 41
30.0
 62
     5
 63
     7
421
 16777215
 74
     1
 91
        4
 64
     7
 65
   257
 75
     1
175
     1
 42
1.0
 92
        8
 66
     7
 43
1.0
 76
     1
 77
     6
 78
     2
 67
     7
 79
     5
170
     0
171
     0
290
     0
174
     0
 93
        1
 44
0.0
173
     0
291
     1
 45
0.0
  0
VISUALSTYLE
  5
276
102
{ACAD_REACTORS
330
267
102
}
330
267
100
AcDbVisualStyle
  2
Facepattern
 70
    15
 71
     2
 72
     2
 73
     0
 90
        0
 40
-0.6
 41
-30.0
 62
     5
 63
     7
421
 16777215
 74
     1
 91
        4
 64
     7
 65
   257
 75
     1
175
     1
 42
1.0
 92
        8
 66
     7
 43
1.0
 76
     1
 77
     6
 78
     2
 67
     7
 79
     5
170
     0
171
     0
290
     0
174
     0
 93
        1
 44
0.0
173
     0
291
     1
 45
0.0
  0
VISUALSTYLE
  5
268
102
{ACAD_REACTORS
330
267
102
}
330
267
100
AcDbVisualStyle
  2
Flat
 70
     0
 71
     2
 72
     1
 73
     1
 90
        2
 40
-0.6
 41
30.0
 62
     5
 63
     7
421
 16777215
 74
     0
 91
        4
 64
     7
 65
   257
 75
     1
175
     1
 42
1.0
 92
        8
 66
     7
 43
1.0
 76
     1
 77
     6
 78
     2
 67
     7
 79
     5
170
     0
171
     0
290
     0
174
     0
 93
       13
 44
0.0
173
     0
291
     1
 45
0.0
  0
VISUALSTYLE
  5
269
102
{ACAD_REACTORS
330
267
102
}
330
267
100
AcDbVisualStyle
  2
FlatWithEdges
 70
     1
 71
     2
 72
     1
 73
     1
 90
        2
 40
-0.6
 41
30.0
 62
     5
 63
     7
421
 16777215
 74
     1
 91
        4
 64
     7
 65
   257
 75
     1
175
     1
 42
1.0
 92
        0
 66
   257
 43
1.0
 76
     1
 77
     6
 78
     2
 67
     7
 79
     5
170
     0
171
     0
290
     0
174
     0
 93
       13
 44
0.0
173
     0
291
     1
 45
0.0
  0
VISUALSTYLE
  5
26A
102
{ACAD_REACTORS
330
267
102
}
330
267
100
AcDbVisualStyle
  2
Gouraud
 70
     2
 71
     2
 72
     2
 73
     1
 90
        2
 40
-0.6
 41
30.0
 62
     5
 63
     7
421
 16777215
 74
     0
 91
        4
 64
     7
 65
   257
 75
     1
175
     1
 42
1.0
 92
        0
 66
     7
 43
1.0
 76
     1
 77
     6
 78
     2
 67
     7
 79
     5
170
     0
171
     0
290
     0
174
     0
 93
       13
 44
0.0
173
     0
291
     1
 45
0.0
  0
VISUALSTYLE
  5
26B
102
{ACAD_REACTORS
330
267
102
}
330
267
100
AcDbVisualStyle
  2
GouraudWithEdges
 70
     3
 71
     2
 72
     2
 73
     1
 90
        2
 40
-0.6
 41
30.0
 62
     5
 63
     7
421
 16777215
 74
     1
 91
        4
 64
     7
 65
   257
 75
     1
175
     1
 42
1.0
 92
        0
 66
   257
 43
1.0
 76
     1
 77
     6
 78
     2
 67
     7
 79
     5
170
     0
171
     0
290
     0
174
     0
 93
       13
 44
0.0
173
     0
291
     1
 45
0.0
  0
VISUALSTYLE
  5
8FB
102
{ACAD_REACTORS
330
267
102
}
330
267
100
AcDbVisualStyle
  2
Hidden
 70
     6
 71
     1
 72
     2
 73
     2
 90
        0
 40
0.6
 41
30.0
 62
     5
 63
     7
421
 16777215
 74
     2
 91
        2
 64
     7
 65
   257
 75
     2
175
     1
 42
40.0
 92
        0
 66
   257
 43
1.0
 76
     1
 77
     6
 78
     2
 67
     7
 79
     3
170
     0
171
     0
290
     0
174
     0
 93
        1
 44
0.0
173
     0
291
     0
 45
0.0
  0
VISUALSTYLE
  5
8FC
102
{ACAD_REACTORS
330
267
102
}
330
267
100
AcDbVisualStyle
  2
JitterOff
 70
    20
 71
     2
 72
     2
 73
     0
 90
        0
 40
0.6
 41
30.0
 62
     5
 63
     7
421
 16777215
 74
     1
 91
        4
 64
     7
 65
   257
 75
     1
175
     1
 42
1.0
 92
       10
 66
     7
 43
1.0
 76
     1
 77
     6
 78
     2
 67
     7
 79
     5
170
     0
171
     0
290
     0
174
     0
 93
        1
 44
0.0
173
     0
291
     1
 45
0.0
  0
VISUALSTYLE
  5
275
102
{ACAD_REACTORS
330
267
102
}
330
267
100
AcDbVisualStyle
  2
Linepattern
 70
    14
 71
     2
 72
     2
 73
     0
 90
        0
 40
-0.6
 41
-30.0
 62
     5
 63
     7
421
 16777215
 74
     1
 91
        4
 64
     7
 65
   257
 75
     7
175
     7
 42
1.0
 92
        8
 66
     7
 43
1.0
 76
     1
 77
     6
 78
     2
 67
     7
 79
     5
170
     0
171
     0
290
     0
174
     0
 93
        1
 44
0.0
173
     0
291
     1
 45
0.0
  0
VISUALSTYLE
  5
8FD
102
{ACAD_REACTORS
330
267
102
}
330
267
100
AcDbVisualStyle
  2
OverhangOff
 70
    21
 71
     2
 72
     2
 73
     0
 90
        0
 40
0.6
 41
30.0
 62
     5
 63
     7
421
 16777215
 74
     1
 91
        4
 64
     7
 65
   257
 75
     1
175
     1
 42
1.0
 92
        9
 66
     7
 43
1.0
 76
     1
 77
     6
 78
     2
 67
     7
 79
     5
170
     0
171
     0
290
     0
174
     0
 93
        1
 44
0.0
173
     0
291
     1
 45
0.0
  0
VISUALSTYLE
  5
270
102
{ACAD_REACTORS
330
267
102
}
330
267
100
AcDbVisualStyle
  2
Realistic
 70
     8
 71
     2
 72
     2
 73
     0
 90
        0
 40
-0.6
 41
-30.0
 62
     5
 63
     7
421
 16777215
 74
     1
 91
        0
 64
     7
 65
   257
 75
     1
175
     1
 42
1.0
 92
        8
 66
     8
424
  7895160
 43
1.0
 76
     1
 77
     6
 78
     2
 67
     7
 79
     5
170
     0
171
     0
290
     0
174
     0
 93
       13
 44
0.0
173
     0
291
     0
 45
0.0
  0
VISUALSTYLE
  5
903
102
{ACAD_REACTORS
330
267
102
}
330
267
100
AcDbVisualStyle
  2
Shaded
 70
    27
 71
     2
 72
     2
 73
     1
 90
        2
 40
0.6
 41
30.0
 62
     5
 63
     7
421
 16777215
 74
     0
 91
        4
 64
     7
 65
   257
 75
     1
175
     1
 42
1.0
 92
        8
 66
   257
 43
1.0
 76
     1
 77
     6
 78
     2
 67
     8
425
  7895160
 79
     3
170
     0
171
     0
290
     0
174
     0
 93
        5
 44
0.0
173
     0
291
     0
 45
0.0
  0
VISUALSTYLE
  5
902
102
{ACAD_REACTORS
330
267
102
}
330
267
100
AcDbVisualStyle
  2
Shaded with edges
 70
    26
 71
     2
 72
     2
 73
     1
 90
        2
 40
0.6
 41
30.0
 62
     5
 63
     7
421
 16777215
 74
     1
 91
       10
 64
     7
 65
   257
 75
     2
175
     1
 42
1.0
 92
        8
 66
   257
 43
1.0
 76
     1
 77
     6
 78
     2
 67
     7
 79
     3
170
     0
171
     0
290
     0
174
     0
 93
        5
 44
0.0
173
     0
291
     0
 45
0.0
  0
VISUALSTYLE
  5
8FF
102
{ACAD_REACTORS
330
267
102
}
330
267
100
AcDbVisualStyle
  2
Shades of Gray
 70
    23
 71
     2
 72
     2
 73
     3
 90
        0
 40
0.6
 41
30.0
 62
     5
 63
     7
421
 16777215
 74
     2
 91
        2
 64
     7
 65
     7
 75
     1
175
     1
 42
40.0
 92
        8
 66
     7
 43
1.0
 76
     1
 77
     6
 78
     2
 67
     7
 79
     3
170
     0
171
     0
290
     0
174
     0
 93
        1
 44
0.0
173
     0
291
     0
 45
0.0
  0
VISUALSTYLE
  5
900
102
{ACAD_REACTORS
330
267
102
}
330
267
100
AcDbVisualStyle
  2
Sketchy
 70
    24
 71
     1
 72
     2
 73
     2
 90
        0
 40
0.6
 41
30.0
 62
     5
 63
     7
421
 16777215
 74
     2
 91
        2
 64
     7
 65
     7
 75
     1
175
     1
 42
40.0
 92
       11
 66
     7
 43
1.0
 76
     1
 77
     6
 78
     2
 67
     7
 79
     6
170
     0
171
     0
290
     0
174
     0
 93
        1
 44
0.0
173
     0
291
     0
 45
0.0
  0
VISUALSTYLE
  5
274
102
{ACAD_REACTORS
330
267
102
}
330
267
100
AcDbVisualStyle
  2
Thicken
 70
    13
 71
     2
 72
     2
 73
     0
 90
        0
 40
-0.6
 41
-30.0
 62
     5
 63
     7
421
 16777215
 74
     1
 91
        4
 64
     7
 65
   257
 75
     1
175
     1
 42
1.0
 92
       12
 66
     7
 43
1.0
 76
     1
 77
     6
 78
     2
 67
     7
 79
     5
170
     0
171
     0
290
     0
174
     0
 93
        1
 44
0.0
173
     0
291
     1
 45
0.0
  0
VISUALSTYLE
  5
8FA
102
{ACAD_REACTORS
330
267
102
}
330
267
100
AcDbVisualStyle
  2
Wireframe
 70
     5
 71
     0
 72
     2
 73
     0
 90
        0
 40
0.6
 41
30.0
 62
     5
 63
     7
421
 16777215
 74
     1
 91
        4
 64
     7
 65
   257
 75
     1
175
     1
 42
1.0
 92
        0
 66
   257
 43
1.0
 76
     1
 77
     6
 78
     2
 67
     7
 79
     3
170
     0
171
     0
290
     0
174
     0
 93
        1
 44
0.0
173
     0
291
     0
 45
0.0
  0
VISUALSTYLE
  5
901
102
{ACAD_REACTORS
330
267
102
}
330
267
100
AcDbVisualStyle
  2
X-Ray
 70
    25
 71
     2
 72
     2
 73
     1
 90
        1
 40
0.5
 41
30.0
 62
     5
 63
     7
421
 16777215
 74
     1
 91
        0
 64
     7
 65
   257
 75
     1
175
     1
 42
1.0
 92
        8
 66
     7
 43
1.0
 76
     1
 77
     6
 78
     2
 67
     7
 79
     3
170
     0
171
     0
290
     0
174
     0
 93
       13
 44
0.0
173
     0
291
     0
 45
0.0
  0
DICTIONARYVAR
  5
331
102
{ACAD_REACTORS
330
330
102
}
330
330
100
DictionaryVariables
280
     0
  1
1:1
  0
DICTIONARYVAR
  5
D5E
102
{ACAD_REACTORS
330
330
102
}
330
330
100
DictionaryVariables
280
     0
  1
Standard
  0
DICTIONARYVAR
  5
335
102
{ACAD_REACTORS
330
330
102
}
330
330
100
DictionaryVariables
280
     0
  1
Standard
  0
DICTIONARYVAR
  5
D52
102
{ACAD_REACTORS
330
330
102
}
330
330
100
DictionaryVariables
280
     0
  1
ByLayer
  0
DICTIONARYVAR
  5
896
102
{ACAD_REACTORS
330
330
102
}
330
330
100
DictionaryVariables
280
     0
  1
0
  0
DICTIONARYVAR
  5
246C
102
{ACAD_REACTORS
330
E38
102
}
330
E38
100
DictionaryVariables
280
     0
  1
0.261799
  0
DICTIONARYVAR
  5
246A
102
{ACAD_REACTORS
330
E38
102
}
330
E38
100
DictionaryVariables
280
     0
  1
0.400000
  0
DICTIONARYVAR
  5
246B
102
{ACAD_REACTORS
330
E38
102
}
330
E38
100
DictionaryVariables
280
     0
  1
0.250000
  0
DICTIONARYVAR
  5
246D
102
{ACAD_REACTORS
330
E38
102
}
330
E38
100
DictionaryVariables
280
     0
  1
1
  0
DICTIONARY
  5
48A4
330
279
100
AcDbDictionary
280
     1
281
     1
  3
ACAD_ROUNDTRIP_2008_TABLESTYLE_CELLSTYLEMAP
360
48A5
  0
CELLSTYLEMAP
  5
48A5
102
{ACAD_REACTORS
330
48A4
102
}
330
48A4
100
AcDbCellStyleMap
 90
        3
300
CELLSTYLE
  1
TABLEFORMAT_BEGIN
 90
        5
170
     1
 91
        0
 92
    32768
 62
   257
 93
        1
300
CONTENTFORMAT
  1
CONTENTFORMAT_BEGIN
 90
        0
 91
        0
 92
        4
 93
        0
300

 40
0.0
140
1.0
 94
        5
 62
     0
340
17
144
6.0
309
CONTENTFORMAT_END
171
     1
301
MARGIN
  1
CELLMARGIN_BEGIN
 40
0.06
 40
0.06
 40
0.06
 40
0.06
 40
0.18
 40
0.18
309
CELLMARGIN_END
 94
        6
 95
        1
302
GRIDFORMAT
  1
GRIDFORMAT_BEGIN
 90
        0
 91
        1
 62
     0
 92
       -2
340
0
 93
        0
 40
0.045
309
GRIDFORMAT_END
 95
        2
302
GRIDFORMAT
  1
GRIDFORMAT_BEGIN
 90
        0
 91
        1
 62
     0
 92
       -2
340
0
 93
        0
 40
0.045
309
GRIDFORMAT_END
 95
        4
302
GRIDFORMAT
  1
GRIDFORMAT_BEGIN
 90
        0
 91
        1
 62
     0
 92
       -2
340
0
 93
        0
 40
0.045
309
GRIDFORMAT_END
 95
        8
302
GRIDFORMAT
  1
GRIDFORMAT_BEGIN
 90
        0
 91
        1
 62
     0
 92
       -2
340
0
 93
        0
 40
0.045
309
GRIDFORMAT_END
 95
       16
302
GRIDFORMAT
  1
GRIDFORMAT_BEGIN
 90
        0
 91
        1
 62
     0
 92
       -2
340
0
 93
        0
 40
0.045
309
GRIDFORMAT_END
 95
       32
302
GRIDFORMAT
  1
GRIDFORMAT_BEGIN
 90
        0
 91
        1
 62
     0
 92
       -2
340
0
 93
        0
 40
0.045
309
GRIDFORMAT_END
309
TABLEFORMAT_END
  1
CELLSTYLE_BEGIN
 90
        1
 91
        1
300
_TITLE
309
CELLSTYLE_END
300
CELLSTYLE
  1
TABLEFORMAT_BEGIN
 90
        5
170
     1
 91
        0
 92
        0
 62
   257
 93
        1
300
CONTENTFORMAT
  1
CONTENTFORMAT_BEGIN
 90
        0
 91
        0
 92
        4
 93
        0
300

 40
0.0
140
1.0
 94
        5
 62
     0
340
17
144
4.5
309
CONTENTFORMAT_END
171
     1
301
MARGIN
  1
CELLMARGIN_BEGIN
 40
0.06
 40
0.06
 40
0.06
 40
0.06
 40
0.18
 40
0.18
309
CELLMARGIN_END
 94
        6
 95
        1
302
GRIDFORMAT
  1
GRIDFORMAT_BEGIN
 90
        0
 91
        1
 62
     0
 92
       -2
340
0
 93
        0
 40
0.045
309
GRIDFORMAT_END
 95
        2
302
GRIDFORMAT
  1
GRIDFORMAT_BEGIN
 90
        0
 91
        1
 62
     0
 92
       -2
340
0
 93
        0
 40
0.045
309
GRIDFORMAT_END
 95
        4
302
GRIDFORMAT
  1
GRIDFORMAT_BEGIN
 90
        0
 91
        1
 62
     0
 92
       -2
340
0
 93
        0
 40
0.045
309
GRIDFORMAT_END
 95
        8
302
GRIDFORMAT
  1
GRIDFORMAT_BEGIN
 90
        0
 91
        1
 62
     0
 92
       -2
340
0
 93
        0
 40
0.045
309
GRIDFORMAT_END
 95
       16
302
GRIDFORMAT
  1
GRIDFORMAT_BEGIN
 90
        0
 91
        1
 62
     0
 92
       -2
340
0
 93
        0
 40
0.045
309
GRIDFORMAT_END
 95
       32
302
GRIDFORMAT
  1
GRIDFORMAT_BEGIN
 90
        0
 91
        1
 62
     0
 92
       -2
340
0
 93
        0
 40
0.045
309
GRIDFORMAT_END
309
TABLEFORMAT_END
  1
CELLSTYLE_BEGIN
 90
        2
 91
        1
300
_HEADER
309
CELLSTYLE_END
300
CELLSTYLE
  1
TABLEFORMAT_BEGIN
 90
        5
170
     1
 91
        0
 92
        0
 62
   257
 93
        1
300
CONTENTFORMAT
  1
CONTENTFORMAT_BEGIN
 90
        0
 91
        0
 92
        4
 93
        0
300

 40
0.0
140
1.0
 94
        2
 62
     0
340
17
144
4.5
309
CONTENTFORMAT_END
171
     1
301
MARGIN
  1
CELLMARGIN_BEGIN
 40
0.06
 40
0.06
 40
0.06
 40
0.06
 40
0.18
 40
0.18
309
CELLMARGIN_END
 94
        6
 95
        1
302
GRIDFORMAT
  1
GRIDFORMAT_BEGIN
 90
        0
 91
        1
 62
     0
 92
       -2
340
0
 93
        0
 40
0.045
309
GRIDFORMAT_END
 95
        2
302
GRIDFORMAT
  1
GRIDFORMAT_BEGIN
 90
        0
 91
        1
 62
     0
 92
       -2
340
0
 93
        0
 40
0.045
309
GRIDFORMAT_END
 95
        4
302
GRIDFORMAT
  1
GRIDFORMAT_BEGIN
 90
        0
 91
        1
 62
     0
 92
       -2
340
0
 93
        0
 40
0.045
309
GRIDFORMAT_END
 95
        8
302
GRIDFORMAT
  1
GRIDFORMAT_BEGIN
 90
        0
 91
        1
 62
     0
 92
       -2
340
0
 93
        0
 40
0.045
309
GRIDFORMAT_END
 95
       16
302
GRIDFORMAT
  1
GRIDFORMAT_BEGIN
 90
        0
 91
        1
 62
     0
 92
       -2
340
0
 93
        0
 40
0.045
309
GRIDFORMAT_END
 95
       32
302
GRIDFORMAT
  1
GRIDFORMAT_BEGIN
 90
        0
 91
        1
 62
     0
 92
       -2
340
0
 93
        0
 40
0.045
309
GRIDFORMAT_END
309
TABLEFORMAT_END
  1
CELLSTYLE_BEGIN
 90
        3
 91
        2
300
_DATA
309
CELLSTYLE_END
  0
ENDSEC
  0
EOF
