  0
SECTION
  2
HEADER
  9
$ACADVER
  1
AC1021
  9
$ACADMAINTVER
 70
    25
  9
$DWGCODEPAGE
  3
ANSI_932
  9
$LASTSAVEDBY
  1
tform
  9
$INSBASE
 10
0.0
 20
0.0
 30
0.0
  9
$EXTMIN
 10
0.0
 20
0.0
 30
-0.0000000000000071
  9
$EXTMAX
 10
1680.0
 20
2376.0
 30
0.0000000000000142
  9
$LIMMIN
 10
0.0
 20
0.0
  9
$LIMMAX
 10
1680.0
 20
2376.0
  9
$ORTHOMODE
 70
     1
  9
$REGENMODE
 70
     1
  9
$FILLMODE
 70
     1
  9
$QTEXTMODE
 70
     0
  9
$MIRRTEXT
 70
     1
  9
$LTSCALE
 40
4.0
  9
$ATTMODE
 70
     1
  9
$TEXTSIZE
 40
2.5
  9
$TRACEWID
 40
1.0
  9
$TEXTSTYLE
  7
ＭＳ ゴシック
  9
$CLAYER
  8
0
  9
$CELTYPE
  6
ByLayer
  9
$CECOLOR
 62
   256
  9
$CELTSCALE
 40
1.0
  9
$DISPSILH
 70
     0
  9
$DIMSCALE
 40
1.0
  9
$DIMASZ
 40
8.0
  9
$DIMEXO
 40
5.0
  9
$DIMDLI
 40
0.9999999999999999
  9
$DIMRND
 40
0.0
  9
$DIMDLE
 40
0.0
  9
$DIMEXE
 40
0.0
  9
$DIMTP
 40
0.0
  9
$DIMTM
 40
0.0
  9
$DIMTXT
 40
20.0
  9
$DIMCEN
 40
0.0
  9
$DIMTSZ
 40
0.0
  9
$DIMTOL
 70
     0
  9
$DIMLIM
 70
     0
  9
$DIMTIH
 70
     0
  9
$DIMTOH
 70
     0
  9
$DIMSE1
 70
     0
  9
$DIMSE2
 70
     0
  9
$DIMTAD
 70
     1
  9
$DIMZIN
 70
    11
  9
$DIMBLK
  1
DOT
  9
$DIMASO
 70
     1
  9
$DIMSHO
 70
     1
  9
$DIMPOST
  1
<>
  9
$DIMAPOST
  1
[]
  9
$DIMALT
 70
     0
  9
$DIMALTD
 70
     1
  9
$DIMALTF
 40
1.0
  9
$DIMLFAC
 40
1.0
  9
$DIMTOFL
 70
     0
  9
$DIMTVP
 40
0.0
  9
$DIMTIX
 70
     1
  9
$DIMSOXD
 70
     0
  9
$DIMSAH
 70
     0
  9
$DIMBLK1
  1

  9
$DIMBLK2
  1

  9
$DIMSTYLE
  2
tfrom線あり
  9
$DIMCLRD
 70
     0
  9
$DIMCLRE
 70
     0
  9
$DIMCLRT
 70
     0
  9
$DIMTFAC
 40
1.0
  9
$DIMGAP
 40
16.0
  9
$DIMJUST
 70
     0
  9
$DIMSD1
 70
     0
  9
$DIMSD2
 70
     0
  9
$DIMTOLJ
 70
     1
  9
$DIMTZIN
 70
    11
  9
$DIMALTZ
 70
    11
  9
$DIMALTTZ
 70
    11
  9
$DIMUPT
 70
     0
  9
$DIMDEC
 70
     0
  9
$DIMTDEC
 70
     1
  9
$DIMALTU
 70
     2
  9
$DIMALTTD
 70
     2
  9
$DIMTXSTY
  7
ＭＳ ゴシック
  9
$DIMAUNIT
 70
     0
  9
$DIMADEC
 70
     2
  9
$DIMALTRND
 40
0.0
  9
$DIMAZIN
 70
     0
  9
$DIMDSEP
 70
    46
  9
$DIMATFIT
 70
     0
  9
$DIMFRAC
 70
     2
  9
$DIMLDRBLK
  1
DOT
  9
$DIMLUNIT
 70
     2
  9
$DIMLWD
 70
    -2
  9
$DIMLWE
 70
    -2
  9
$DIMTMOVE
 70
     0
  9
$DIMFXL
 40
1.0
  9
$DIMFXLON
 70
     0
  9
$DIMJOGANG
 40
0.7853981633974483
  9
$DIMTFILL
 70
     0
  9
$DIMTFILLCLR
 70
     0
  9
$DIMARCSYM
 70
     0
  9
$DIMLTYPE
  6

  9
$DIMLTEX1
  6

  9
$DIMLTEX2
  6

  9
$LUNITS
 70
     2
  9
$LUPREC
 70
     0
  9
$SKETCHINC
 40
0.1
  9
$FILLETRAD
 40
0.0
  9
$AUNITS
 70
     0
  9
$AUPREC
 70
     0
  9
$MENU
  1
acad
  9
$ELEVATION
 40
0.0
  9
$PELEVATION
 40
0.0
  9
$THICKNESS
 40
0.0
  9
$LIMCHECK
 70
     0
  9
$CHAMFERA
 40
0.0
  9
$CHAMFERB
 40
0.0
  9
$CHAMFERC
 40
0.0
  9
$CHAMFERD
 40
0.0
  9
$SKPOLY
 70
     0
  9
$TDCREATE
 40
2447893.375
  9
$TDUCREATE
 40
0.0
  9
$TDUPDATE
 40
2460012.729145972
  9
$TDUUPDATE
 40
2460012.354145972
  9
$TDINDWG
 40
0.1491520602
  9
$TDUSRTIMER
 40
0.0014606481
  9
$USRTIMER
 70
     1
  9
$ANGBASE
 50
0.0
  9
$ANGDIR
 70
     0
  9
$PDMODE
 70
     1
  9
$PDSIZE
 40
-2.0
  9
$PLINEWID
 40
0.0
  9
$SPLFRAME
 70
     0
  9
$SPLINETYPE
 70
     6
  9
$SPLINESEGS
 70
     8
  9
$HANDSEED
  5
45AE
  9
$SURFTAB1
 70
     6
  9
$SURFTAB2
 70
     6
  9
$SURFTYPE
 70
     6
  9
$SURFU
 70
     6
  9
$SURFV
 70
     6
  9
$UCSBASE
  2

  9
$UCSNAME
  2

  9
$UCSORG
 10
0.0
 20
0.0
 30
0.0
  9
$UCSXDIR
 10
1.0
 20
0.0
 30
0.0
  9
$UCSYDIR
 10
0.0
 20
1.0
 30
0.0
  9
$UCSORTHOREF
  2

  9
$UCSORTHOVIEW
 70
     0
  9
$UCSORGTOP
 10
0.0
 20
0.0
 30
0.0
  9
$UCSORGBOTTOM
 10
0.0
 20
0.0
 30
0.0
  9
$UCSORGLEFT
 10
0.0
 20
0.0
 30
0.0
  9
$UCSORGRIGHT
 10
0.0
 20
0.0
 30
0.0
  9
$UCSORGFRONT
 10
0.0
 20
0.0
 30
0.0
  9
$UCSORGBACK
 10
0.0
 20
0.0
 30
0.0
  9
$PUCSBASE
  2

  9
$PUCSNAME
  2

  9
$PUCSORG
 10
0.0
 20
0.0
 30
0.0
  9
$PUCSXDIR
 10
1.0
 20
0.0
 30
0.0
  9
$PUCSYDIR
 10
0.0
 20
1.0
 30
0.0
  9
$PUCSORTHOREF
  2

  9
$PUCSORTHOVIEW
 70
     0
  9
$PUCSORGTOP
 10
0.0
 20
0.0
 30
0.0
  9
$PUCSORGBOTTOM
 10
0.0
 20
0.0
 30
0.0
  9
$PUCSORGLEFT
 10
0.0
 20
0.0
 30
0.0
  9
$PUCSORGRIGHT
 10
0.0
 20
0.0
 30
0.0
  9
$PUCSORGFRONT
 10
0.0
 20
0.0
 30
0.0
  9
$PUCSORGBACK
 10
0.0
 20
0.0
 30
0.0
  9
$USERI1
 70
     0
  9
$USERI2
 70
     0
  9
$USERI3
 70
     0
  9
$USERI4
 70
     0
  9
$USERI5
 70
     0
  9
$USERR1
 40
0.0
  9
$USERR2
 40
0.0
  9
$USERR3
 40
0.0
  9
$USERR4
 40
0.0
  9
$USERR5
 40
0.0
  9
$WORLDVIEW
 70
     1
  9
$SHADEDGE
 70
     3
  9
$SHADEDIF
 70
    70
  9
$TILEMODE
 70
     1
  9
$MAXACTVP
 70
    64
  9
$PINSBASE
 10
0.0
 20
0.0
 30
0.0
  9
$PLIMCHECK
 70
     0
  9
$PEXTMIN
 10
0.0
 20
0.0
 30
0.0
  9
$PEXTMAX
 10
0.0
 20
0.0
 30
0.0
  9
$PLIMMIN
 10
-7.5
 20
-20.0
  9
$PLIMMAX
 10
412.5
 20
277.0
  9
$UNITMODE
 70
     0
  9
$VISRETAIN
 70
     0
  9
$PLINEGEN
 70
     1
  9
$PSLTSCALE
 70
     0
  9
$TREEDEPTH
 70
  3020
  9
$CMLSTYLE
  2
Standard
  9
$CMLJUST
 70
     0
  9
$CMLSCALE
 40
1.0
  9
$PROXYGRAPHICS
 70
     0
  9
$MEASUREMENT
 70
     1
  9
$CELWEIGHT
370
    -1
  9
$ENDCAPS
280
     0
  9
$JOINSTYLE
280
     0
  9
$LWDISPLAY
290
     1
  9
$INSUNITS
 70
     4
  9
$HYPERLINKBASE
  1

  9
$STYLESHEET
  1

  9
$XEDIT
290
     1
  9
$CEPSNTYPE
380
     0
  9
$PSTYLEMODE
290
     1
  9
$FINGERPRINTGUID
  2

  9
$VERSIONGUID
  2

  9
$EXTNAMES
290
     1
  9
$PSVPSCALE
 40
0.0
  9
$OLESTARTUP
290
     0
  9
$SORTENTS
280
   127
  9
$INDEXCTL
280
     0
  9
$HIDETEXT
280
     1
  9
$XCLIPFRAME
290
     0
  9
$HALOGAP
280
     0
  9
$OBSCOLOR
 70
   257
  9
$OBSLTYPE
280
     0
  9
$INTERSECTIONDISPLAY
280
     0
  9
$INTERSECTIONCOLOR
 70
   257
  9
$DIMASSOC
280
     2
  9
$PROJECTNAME
  1

  9
$CAMERADISPLAY
290
     0
  9
$LENSLENGTH
 40
50.0
  9
$CAMERAHEIGHT
 40
0.0
  9
$STEPSPERSEC
 40
2.0
  9
$STEPSIZE
 40
6.0
  9
$3DDWFPREC
 40
2.0
  9
$PSOLWIDTH
 40
0.25
  9
$PSOLHEIGHT
 40
4.0
  9
$LOFTANG1
 40
1.570796326794897
  9
$LOFTANG2
 40
1.570796326794897
  9
$LOFTMAG1
 40
0.0
  9
$LOFTMAG2
 40
0.0
  9
$LOFTPARAM
 70
     7
  9
$LOFTNORMALS
280
     1
  9
$LATITUDE
 40
37.795
  9
$LONGITUDE
 40
-122.394
  9
$NORTHDIRECTION
 40
0.0
  9
$TIMEZONE
 70
 -8000
  9
$LIGHTGLYPHDISPLAY
280
     1
  9
$TILEMODELIGHTSYNCH
280
     1
  9
$SOLIDHIST
280
     1
  9
$SHOWHIST
280
     1
  9
$DWFFRAME
280
     2
  9
$DGNFRAME
280
     2
  9
$REALWORLDSCALE
290
     1
  9
$INTERFERECOLOR
 62
   256
  9
$CSHADOW
280
     0
  9
$SHADOWPLANELOCATION
 40
0.0
  0
ENDSEC
  0
SECTION
  2
CLASSES
  0
CLASS
  1
LWPOLYLINE
  2
AcDbPolyline
  3
ObjectDBX Classes
 90
        0
 91
        1
280
     0
281
     1
  0
CLASS
  1
IMAGE
  2
AcDbRasterImage
  3
ISM
 90
      127
 91
        4
280
     0
281
     1
  0
CLASS
  1
OLE2FRAME
  2
AcDbOle2Frame
  3
ObjectDBX Classes
 90
        0
 91
        1
280
     0
281
     1
  0
CLASS
  1
HATCH
  2
AcDbHatch
  3
ObjectDBX Classes
 90
        0
 91
        1
280
     0
281
     1
  0
CLASS
  1
DICTIONARYVAR
  2
AcDbDictionaryVar
  3
ObjectDBX Classes
 90
        0
 91
        3
280
     0
281
     0
  0
CLASS
  1
RASTERVARIABLES
  2
AcDbRasterVariables
  3
ISM
 90
        0
 91
        3
280
     0
281
     0
  0
CLASS
  1
IMAGEDEF
  2
AcDbRasterImageDef
  3
ISM
 90
        0
 91
        3
280
     0
281
     0
  0
CLASS
  1
IMAGEDEF_REACTOR
  2
AcDbRasterImageDefReactor
  3
ISM
 90
        1
 91
        3
280
     0
281
     0
  0
CLASS
  1
IDBUFFER
  2
AcDbIdBuffer
  3
ObjectDBX Classes
 90
        0
 91
        3
280
     0
281
     0
  0
CLASS
  1
SPATIAL_FILTER
  2
AcDbSpatialFilter
  3
ObjectDBX Classes
 90
        0
 91
        3
280
     0
281
     0
  0
CLASS
  1
XRECORD
  2
AcDbXrecord
  3
ObjectDBX Classes
 90
        0
 91
        1
280
     0
281
     0
  0
CLASS
  1
SORTENTSTABLE
  2
AcDbSortentsTable
  3
ObjectDBX Classes
 90
        0
 91
        3
280
     0
281
     0
  0
CLASS
  1
LAYER_INDEX
  2
AcDbLayerIndex
  3
ObjectDBX Classes
 90
        0
 91
        3
280
     0
281
     0
  0
CLASS
  1
SPATIAL_INDEX
  2
AcDbSpatialIndex
  3
AutoCAD 2000
 90
        0
 91
        3
280
     0
281
     0
  0
CLASS
  1
OBJECT_PTR
  2
CAseDLPNTableRecord
  3
ASE-LPNTableRecord
 90
        1
 91
        3
280
     0
281
     0
  0
CLASS
  1
LAYOUT
  2
AcDbLayout
  3
ObjectDBX Classes
 90
        0
 91
        1
280
     0
281
     0
  0
CLASS
  1
PLOTSETTINGS
  2
AcDbPlotSettings
  3
ObjectDBX Classes
 90
        0
 91
        3
280
     0
281
     0
  0
CLASS
  1
ACDBDICTIONARYWDFLT
  2
AcDbDictionaryWithDefault
  3
ObjectDBX Classes
 90
        0
 91
        3
280
     0
281
     0
  0
CLASS
  1
ACDBPLACEHOLDER
  2
AcDbPlaceHolder
  3
ObjectDBX Classes
 90
        0
 91
        1
280
     0
281
     0
  0
CLASS
  1
SCALE
  2
AcDbScale
  3
ObjectDBX Classes
 90
     1153
 91
        3
280
     0
281
     0
  0
CLASS
  1
MATERIAL
  2
AcDbMaterial
  3
ObjectDBX Classes
 90
     1153
 91
        3
280
     0
281
     0
  0
CLASS
  1
VISUALSTYLE
  2
AcDbVisualStyle
  3
ObjectDBX Classes
 90
     4095
 91
        3
280
     0
281
     0
  0
CLASS
  1
TABLESTYLE
  2
AcDbTableStyle
  3
ObjectDBX Classes
 90
     4095
 91
        3
280
     0
281
     0
  0
CLASS
  1
DIMASSOC
  2
AcDbDimAssoc
  3
"AcDbDimAssoc|Product Desc:     AcDim ARX App For Dimension|Company:          Autodesk, Inc.|WEB Address:      www.autodesk.com"
 90
        0
 91
        3
280
     0
281
     0
  0
CLASS
  1
CELLSTYLEMAP
  2
AcDbCellStyleMap
  3
ObjectDBX Classes
 90
     1152
 91
        3
280
     0
281
     0
  0
CLASS
  1
SUN
  2
AcDbSun
  3
SCENEOE
 90
     1153
 91
        3
280
     0
281
     0
  0
CLASS
  1
MLEADERSTYLE
  2
AcDbMLeaderStyle
  3
ACDB_MLEADERSTYLE_CLASS
 90
     4095
 91
        3
280
     0
281
     0
  0
CLASS
  1
FIELD
  2
AcDbField
  3
ObjectDBX Classes
 90
     1152
 91
        3
280
     0
281
     0
  0
CLASS
  1
FIELDLIST
  2
AcDbFieldList
  3
ObjectDBX Classes
 90
     1152
 91
        3
280
     0
281
     0
  0
ENDSEC
  0
SECTION
  2
TABLES
  0
TABLE
  2
VPORT
  5
7
330
0
100
AcDbSymbolTable
 70
     1
  0
VPORT
  5
15
330
7
100
AcDbSymbolTableRecord
100
AcDbViewportTableRecord
  2
*ACTIVE
 70
     0
 10
0.0
 20
0.0
 11
1.0
 21
1.0
 12
931.0201356709009
 22
1114.401285469834
 13
0.0
 23
0.0
 14
1.0
 24
1.0
 15
0.0
 25
0.0
 16
0.0
 26
0.0
 36
1.0
 17
-91.02013567090091
 27
73.59871453016603
 37
-46.86809886248109
 40
2423.52
 41
2.120713305898491
 42
50.0
 43
0.0
 44
0.0
 50
0.0
 51
0.0
 71
    16
 72
  2000
 73
     1
 74
     1
 75
     0
 76
     0
 77
     0
 78
     0
281
     0
 65
     1
110
0.0
120
0.0
130
0.0
111
1.0
121
0.0
131
0.0
112
0.0
122
1.0
132
0.0
 79
     0
146
0.0
348
26C
 60
     3
 61
     5
292
     1
282
     1
141
0.0
142
0.0
 63
   256
361
904
  0
ENDTAB
  0
TABLE
  2
LTYPE
  5
4
330
0
100
AcDbSymbolTable
 70
     3
  0
LTYPE
  5
11
330
4
100
AcDbSymbolTableRecord
100
AcDbLinetypeTableRecord
  2
ByBlock
 70
     0
  3

 72
    65
 73
     0
 40
0.0
  0
LTYPE
  5
12
330
4
100
AcDbSymbolTableRecord
100
AcDbLinetypeTableRecord
  2
ByLayer
 70
     0
  3

 72
    65
 73
     0
 40
0.0
  0
LTYPE
  5
13
330
4
100
AcDbSymbolTableRecord
100
AcDbLinetypeTableRecord
  2
Continuous
 70
     0
  3
Solid line
 72
    65
 73
     0
 40
0.0
  0
LTYPE
  5
D6C
330
4
100
AcDbSymbolTableRecord
100
AcDbLinetypeTableRecord
  2
BORDER
 70
     0
  3
Border __  __  . __  __  . __  __  . __  __  . 
 72
    65
 73
     6
 40
44.45
 49
12.7
 74
     0
 49
-6.35
 74
     0
 49
12.7
 74
     0
 49
-6.35
 74
     0
 49
0.0
 74
     0
 49
-6.35
 74
     0
  0
LTYPE
  5
D6D
330
4
100
AcDbSymbolTableRecord
100
AcDbLinetypeTableRecord
  2
HIDDEN
 70
     0
  3
Hidden _ _ _ _ _ _ _ _ _ _ _ _ _ _ _ _ _ _ _ _ 
 72
    65
 73
     2
 40
9.524999999999999
 49
6.35
 74
     0
 49
-3.175
 74
     0
  0
ENDTAB
  0
TABLE
  2
LAYER
  5
2
102
{ACAD_XDICTIONARY
360
2E1
102
}
330
0
100
AcDbSymbolTable
 70
     8
  0
LAYER
  5
14
330
2
100
AcDbSymbolTableRecord
100
AcDbLayerTableRecord
  2
0
 70
     0
 62
     7
  6
Continuous
370
    -3
390
1D
347
266
  0
LAYER
  5
4B
330
2
100
AcDbSymbolTableRecord
100
AcDbLayerTableRecord
  2
TEMPLATE
 70
     0
 62
     7
  6
Continuous
370
    20
390
1D
347
266
  0
LAYER
  5
4C
330
2
100
AcDbSymbolTableRecord
100
AcDbLayerTableRecord
  2
DIM
 70
     0
 62
     3
  6
Continuous
370
    13
390
1D
347
266
  0
LAYER
  5
4D
330
2
100
AcDbSymbolTableRecord
100
AcDbLayerTableRecord
  2
MODEL
 70
     0
 62
     7
  6
Continuous
370
    20
390
1D
347
266
  0
LAYER
  5
88C
330
2
100
AcDbSymbolTableRecord
100
AcDbLayerTableRecord
  2
HIDDEN
 70
     0
 62
     8
  6
HIDDEN
370
    20
390
1D
347
266
1001
AcAecLayerStandard
1000

1000

  0
LAYER
  5
D6B
330
2
100
AcDbSymbolTableRecord
100
AcDbLayerTableRecord
  2
BORDER
 70
     0
 62
     4
  6
BORDER
290
     0
370
    20
390
1D
347
266
1001
AcAecLayerStandard
1000

1000

  0
LAYER
  5
D8C
330
2
100
AcDbSymbolTableRecord
100
AcDbLayerTableRecord
  2
Defpoints
 70
     0
 62
     7
  6
Continuous
290
     0
370
    -3
390
1D
347
266
  0
LAYER
  5
3653
330
2
100
AcDbSymbolTableRecord
100
AcDbLayerTableRecord
  2
Standard
 70
     0
 62
     7
  6
Continuous
370
    -3
390
1D
347
266
  0
ENDTAB
  0
TABLE
  2
STYLE
  5
3
330
0
100
AcDbSymbolTable
 70
     3
  0
STYLE
  5
17
330
3
100
AcDbSymbolTableRecord
100
AcDbTextStyleTableRecord
  2
Standard
 70
     0
 40
0.0
 41
1.0
 50
0.0
 71
     0
 42
2.5
  3
txt
  4
BIGFONT.SHX
  0
STYLE
  5
39
330
3
100
AcDbSymbolTableRecord
100
AcDbTextStyleTableRecord
  2
ＭＳ ゴシック
 70
     0
 40
0.0
 41
1.0
 50
0.0
 71
     0
 42
2.5
  3
msgothic.ttc
  4
ＭＳ ゴシック
1001
ACAD
1000
ＭＳ ゴシック
1071
        0
  0
STYLE
  5
42D4
330
3
100
AcDbSymbolTableRecord
100
AcDbTextStyleTableRecord
  2
SLDTEXTSTYLE0
 70
     0
 40
0.0
 41
0.75
 50
0.0
 71
     0
 42
2.5
  3
TXT
  4

  0
ENDTAB
  0
TABLE
  2
VIEW
  5
5
330
0
100
AcDbSymbolTable
 70
     0
  0
ENDTAB
  0
TABLE
  2
UCS
  5
6
330
0
100
AcDbSymbolTable
 70
     0
  0
ENDTAB
  0
TABLE
  2
APPID
  5
8
330
0
100
AcDbSymbolTable
 70
     8
  0
APPID
  5
16
330
8
100
AcDbSymbolTableRecord
100
AcDbRegAppTableRecord
  2
ACAD
 70
     0
  0
APPID
  5
7AC
330
8
100
AcDbSymbolTableRecord
100
AcDbRegAppTableRecord
  2
AcAecLayerStandard
 70
     0
  0
APPID
  5
E29
330
8
100
AcDbSymbolTableRecord
100
AcDbRegAppTableRecord
  2
ACAD_MLEADERVER
 70
     0
  0
APPID
  5
3E5E
330
8
100
AcDbSymbolTableRecord
100
AcDbRegAppTableRecord
  2
ACAD_DSTYLE_DIMJAG
 70
     0
  0
APPID
  5
3E5F
330
8
100
AcDbSymbolTableRecord
100
AcDbRegAppTableRecord
  2
ACAD_DSTYLE_DIMBREAK
 70
     0
  0
APPID
  5
3E60
330
8
100
AcDbSymbolTableRecord
100
AcDbRegAppTableRecord
  2
ACAD_PSEXT
 70
     0
  0
APPID
  5
3E61
330
8
100
AcDbSymbolTableRecord
100
AcDbRegAppTableRecord
  2
ACAD_NAV_VCDISPLAY
 70
     0
  0
APPID
  5
4595
330
8
100
AcDbSymbolTableRecord
100
AcDbRegAppTableRecord
  2
PLOTTRANSPARENCY
 70
     0
  0
ENDTAB
  0
TABLE
  2
DIMSTYLE
  5
9
330
0
100
AcDbSymbolTable
 70
     6
100
AcDbDimStyleTable
  0
DIMSTYLE
105
18
330
9
100
AcDbSymbolTableRecord
100
AcDbDimStyleTableRecord
  2
Standard
 70
     0
178
     0
340
17
  0
DIMSTYLE
105
57
102
{ACAD_REACTORS
330
447B
330
447C
330
447D
330
447F
330
4482
330
4485
330
44CF
330
4599
102
}
330
9
100
AcDbSymbolTableRecord
100
AcDbDimStyleTableRecord
  2
tfrom線あり
 70
     0
  3
<>
  4
[]
 41
8.0
 42
5.0
 43
0.9999999999999999
 44
0.0
 73
     0
 74
     0
 77
     1
 78
    11
140
20.0
141
0.0
143
1.0
147
16.0
171
     1
174
     1
178
     0
179
     2
271
     0
272
     1
276
     2
284
    11
285
    11
286
    11
289
     0
340
39
341
4E
342
4E
  0
DIMSTYLE
105
3E5C
330
9
100
AcDbSymbolTableRecord
100
AcDbDimStyleTableRecord
  2
AM_DIN
 70
     0
  4
"
 41
3.5
 42
1.0
 43
10.0
 44
1.0
 47
0.1
 48
0.1
 50
89.99999999999996
 73
     0
 74
     0
 77
     1
 78
     8
 79
     2
140
3.5
141
0.0
143
0.0393701
146
0.71
147
1.5
172
     1
176
   256
177
   256
271
     2
178
     2
271
     2
272
     3
274
     4
283
     0
284
     8
340
17
371
    -1
372
    -1
345
11
346
11
347
11
1001
ACAD_DSTYLE_DIMJAG
1070
   388
1040
1.5
1001
ACAD_DSTYLE_DIMBREAK
1070
   391
1040
3.75
  0
DIMSTYLE
105
42D3
330
9
100
AcDbSymbolTableRecord
100
AcDbDimStyleTableRecord
  2
SLDDIMSTYLE2
 70
     0
 41
3.302
 44
0.0
 45
0.000000001
 73
     0
 74
     0
 77
     1
 78
    12
 79
     3
140
3.5
141
0.0
144
5.0
147
0.875
172
     1
173
     1
178
     0
271
     2
272
     2
276
     2
284
    12
340
42D4
341
42D5
343
42D5
  0
DIMSTYLE
105
42D8
330
9
100
AcDbSymbolTableRecord
100
AcDbDimStyleTableRecord
  2
SLDDIMSTYLE3
 70
     0
 41
3.302
 44
0.0
 45
0.000000001
 78
    12
 79
     3
140
3.5
141
0.0
144
5.0
147
0.875
172
     1
173
     1
178
     0
271
     2
272
     2
276
     2
284
    12
340
42D4
341
42D5
343
42D5
  0
DIMSTYLE
105
42D9
330
9
100
AcDbSymbolTableRecord
100
AcDbDimStyleTableRecord
  2
JIS
 70
     0
  3
<>
  4
[]
 41
3.175
 42
0.0
 43
6.99999999999994
 44
1.99999999999962
 73
     0
 74
     0
 77
     1
 78
    11
140
2.44326171875
141
0.0
143
0.0393700787401575
147
1.00000000000108
171
     3
174
     1
178
     0
179
     2
271
     1
272
     1
273
     4
276
     2
284
    11
285
    15
286
    15
289
     0
340
39
341
42DA
342
42DA
  0
ENDTAB
  0
TABLE
  2
BLOCK_RECORD
  5
1
330
0
100
AcDbSymbolTable
 70
    30
  0
BLOCK_RECORD
  5
A
102
{ACAD_XDICTIONARY
360
3E3E
102
}
330
1
100
AcDbSymbolTableRecord
100
AcDbBlockTableRecord
  2
*MODEL_SPACE
340
20
 70
     0
280
     1
281
     0
  0
BLOCK_RECORD
  5
B
330
1
100
AcDbSymbolTableRecord
100
AcDbBlockTableRecord
  2
*PAPER_SPACE
340
21
 70
     0
280
     1
281
     0
  0
BLOCK_RECORD
  5
4E
330
1
100
AcDbSymbolTableRecord
100
AcDbBlockTableRecord
  2
_DOT
340
0
102
{BLKREFS
331
3E2C
331
3E2D
331
3E38
331
3E39
331
4275
331
4276
331
4284
331
4285
331
4293
331
4294
331
42A0
331
42A1
331
42AF
331
42B0
331
4336
331
4337
331
4343
331
4344
331
4351
331
4352
331
4360
331
4361
331
436F
331
4370
331
437E
331
437F
331
43CF
331
43D0
331
43E0
331
43E1
331
4522
331
4523
331
452E
331
452F
331
453A
331
453B
331
4546
331
4547
331
4552
331
4553
331
455E
331
455F
331
456A
331
456B
331
4576
331
4577
331
45A2
331
45A3
102
}
 70
     0
280
     1
281
     0
  0
BLOCK_RECORD
  5
68D
330
1
100
AcDbSymbolTableRecord
100
AcDbBlockTableRecord
  2
block 2
340
0
102
{BLKREFS
331
68C
331
1343
102
}
 70
     0
280
     1
281
     0
  0
BLOCK_RECORD
  5
3E26
330
1
100
AcDbSymbolTableRecord
100
AcDbBlockTableRecord
  2
*D2
340
0
 70
     0
280
     1
281
     0
  0
BLOCK_RECORD
  5
3E32
330
1
100
AcDbSymbolTableRecord
100
AcDbBlockTableRecord
  2
*D3
340
0
 70
     0
280
     1
281
     0
  0
BLOCK_RECORD
  5
3E88
330
1
100
AcDbSymbolTableRecord
100
AcDbBlockTableRecord
  2
812343s
340
0
 70
     4
280
     1
281
     0
1001
ACAD
1000
DesignCenter Data
1002
{
1070
     1
1070
     4
1002
}
  0
BLOCK_RECORD
  5
3EFC
330
1
100
AcDbSymbolTableRecord
100
AcDbBlockTableRecord
  2
812343d
340
0
 70
     4
280
     1
281
     0
1001
ACAD
1000
DesignCenter Data
1002
{
1070
     1
1070
     4
1002
}
  0
BLOCK_RECORD
  5
426F
330
1
100
AcDbSymbolTableRecord
100
AcDbBlockTableRecord
  2
*D6
340
0
 70
     0
280
     1
281
     0
  0
BLOCK_RECORD
  5
427E
330
1
100
AcDbSymbolTableRecord
100
AcDbBlockTableRecord
  2
*D7
340
0
 70
     0
280
     1
281
     0
  0
BLOCK_RECORD
  5
428D
330
1
100
AcDbSymbolTableRecord
100
AcDbBlockTableRecord
  2
*D8
340
0
 70
     0
280
     1
281
     0
  0
BLOCK_RECORD
  5
429A
330
1
100
AcDbSymbolTableRecord
100
AcDbBlockTableRecord
  2
*D9
340
0
 70
     0
280
     1
281
     0
  0
BLOCK_RECORD
  5
42A9
330
1
100
AcDbSymbolTableRecord
100
AcDbBlockTableRecord
  2
*D10
340
0
 70
     0
280
     1
281
     0
  0
BLOCK_RECORD
  5
42D5
330
1
100
AcDbSymbolTableRecord
100
AcDbBlockTableRecord
  2
_None
340
0
 70
     0
280
     1
281
     0
  0
BLOCK_RECORD
  5
42DA
330
1
100
AcDbSymbolTableRecord
100
AcDbBlockTableRecord
  2
VW_FILLEDARROW
340
0
 70
     0
280
     1
281
     0
  0
BLOCK_RECORD
  5
4331
330
1
100
AcDbSymbolTableRecord
100
AcDbBlockTableRecord
  2
*D13
340
0
 70
     0
280
     1
281
     0
  0
BLOCK_RECORD
  5
433E
330
1
100
AcDbSymbolTableRecord
100
AcDbBlockTableRecord
  2
*D14
340
0
 70
     0
280
     1
281
     0
  0
BLOCK_RECORD
  5
434C
330
1
100
AcDbSymbolTableRecord
100
AcDbBlockTableRecord
  2
*D15
340
0
 70
     0
280
     1
281
     0
  0
BLOCK_RECORD
  5
435B
330
1
100
AcDbSymbolTableRecord
100
AcDbBlockTableRecord
  2
*D16
340
0
 70
     0
280
     1
281
     0
  0
BLOCK_RECORD
  5
436A
330
1
100
AcDbSymbolTableRecord
100
AcDbBlockTableRecord
  2
*D17
340
0
 70
     0
280
     1
281
     0
  0
BLOCK_RECORD
  5
4379
330
1
100
AcDbSymbolTableRecord
100
AcDbBlockTableRecord
  2
*D18
340
0
 70
     0
280
     1
281
     0
  0
BLOCK_RECORD
  5
43CA
330
1
100
AcDbSymbolTableRecord
100
AcDbBlockTableRecord
  2
*D19
340
0
 70
     0
280
     1
281
     0
  0
BLOCK_RECORD
  5
43DB
330
1
100
AcDbSymbolTableRecord
100
AcDbBlockTableRecord
  2
*D20
340
0
 70
     0
280
     1
281
     0
  0
BLOCK_RECORD
  5
451C
330
1
100
AcDbSymbolTableRecord
100
AcDbBlockTableRecord
  2
*D21
340
0
 70
     0
280
     1
281
     0
  0
BLOCK_RECORD
  5
4528
330
1
100
AcDbSymbolTableRecord
100
AcDbBlockTableRecord
  2
*D22
340
0
 70
     0
280
     1
281
     0
  0
BLOCK_RECORD
  5
4534
330
1
100
AcDbSymbolTableRecord
100
AcDbBlockTableRecord
  2
*D23
340
0
 70
     0
280
     1
281
     0
  0
BLOCK_RECORD
  5
4540
330
1
100
AcDbSymbolTableRecord
100
AcDbBlockTableRecord
  2
*D24
340
0
 70
     0
280
     1
281
     0
  0
BLOCK_RECORD
  5
454C
330
1
100
AcDbSymbolTableRecord
100
AcDbBlockTableRecord
  2
*D25
340
0
 70
     0
280
     1
281
     0
  0
BLOCK_RECORD
  5
4558
330
1
100
AcDbSymbolTableRecord
100
AcDbBlockTableRecord
  2
*D26
340
0
 70
     0
280
     1
281
     0
  0
BLOCK_RECORD
  5
4564
330
1
100
AcDbSymbolTableRecord
100
AcDbBlockTableRecord
  2
*D27
340
0
 70
     0
280
     1
281
     0
  0
BLOCK_RECORD
  5
4570
330
1
100
AcDbSymbolTableRecord
100
AcDbBlockTableRecord
  2
*D28
340
0
 70
     0
280
     1
281
     0
  0
BLOCK_RECORD
  5
459C
330
1
100
AcDbSymbolTableRecord
100
AcDbBlockTableRecord
  2
*D29
340
0
 70
     0
280
     1
281
     0
  0
ENDTAB
  0
ENDSEC
  0
SECTION
  2
BLOCKS
  0
BLOCK
  5
D
330
A
100
AcDbEntity
  8
0
390
1D
100
AcDbBlockBegin
  2
*MODEL_SPACE
 70
     0
 10
0.0
 20
0.0
 30
0.0
  3
*MODEL_SPACE
  1
*MODEL_SPACE
  0
ENDBLK
  5
E
330
A
100
AcDbEntity
  8
0
390
1D
100
AcDbBlockEnd
  0
BLOCK
  5
F
330
B
100
AcDbEntity
 67
     1
  8
0
390
1D
100
AcDbBlockBegin
  2
*PAPER_SPACE
 70
     0
 10
0.0
 20
0.0
 30
0.0
  3
*PAPER_SPACE
  1
*PAPER_SPACE
  0
ENDBLK
  5
10
330
B
100
AcDbEntity
 67
     1
  8
0
390
1D
100
AcDbBlockEnd
  0
BLOCK
  5
3FCE
330
4E
100
AcDbEntity
  8
0
390
1D
100
AcDbBlockBegin
  2
_DOT
 70
     0
 10
0.0
 20
0.0
 30
0.0
  3
_DOT
  1
_DOT
  0
POLYLINE
  5
3FD0
330
4E
100
AcDbEntity
  8
0
  6
ByBlock
 62
     0
370
    -2
390
1D
100
AcDb2dPolyline
 66
     1
 10
0.0
 20
0.0
 30
0.0
 70
     1
 40
0.5
 41
0.5
  0
VERTEX
  5
3FD1
330
3FD0
100
AcDbEntity
  8
0
  6
ByBlock
 62
     0
370
    -2
390
1D
100
AcDbVertex
100
AcDb2dVertex
 10
-0.25
 20
0.0
 30
0.0
 42
1.0
  0
VERTEX
  5
3FD2
330
3FD0
100
AcDbEntity
  8
0
  6
ByBlock
 62
     0
370
    -2
390
1D
100
AcDbVertex
100
AcDb2dVertex
 10
0.25
 20
0.0
 30
0.0
 42
1.0
  0
SEQEND
  5
3FD3
330
3FD0
100
AcDbEntity
  8
0
390
1D
  0
LINE
  5
3FD4
330
4E
100
AcDbEntity
  8
0
  6
ByBlock
 62
     0
370
    -2
390
1D
100
AcDbLine
 10
-0.5
 20
0.0
 30
0.0
 11
-1.0
 21
0.0
 31
0.0
  0
ENDBLK
  5
3FD5
330
4E
100
AcDbEntity
  8
0
390
1D
100
AcDbBlockEnd
  0
BLOCK
  5
68E
330
68D
100
AcDbEntity
  8
0
100
AcDbBlockBegin
  2
block 2
 70
     0
 10
0.0
 20
0.0
 30
0.0
  3
block 2
  1
block 2
  0
ENDBLK
  5
6B0
330
68D
100
AcDbEntity
  8
0
100
AcDbBlockEnd
  0
BLOCK
  5
3E27
330
3E26
100
AcDbEntity
  8
0
100
AcDbBlockBegin
  2
*D2
 70
     1
 10
0.0
 20
0.0
 30
0.0
  3
*D2
  1

  0
LINE
  5
3E29
330
3E26
100
AcDbEntity
  8
DIM
 62
     0
370
    -2
100
AcDbLine
 10
607.9608510638315
 20
1310.861155015197
 30
0.0
 11
607.9608510638315
 21
1586.446135090576
 31
0.0
  0
LINE
  5
3E2A
330
3E26
100
AcDbEntity
  8
DIM
 62
     0
370
    -2
100
AcDbLine
 10
1064.672826747721
 20
1310.861155015197
 30
0.0
 11
1064.672826747721
 21
1586.446135090576
 31
0.0
  0
LINE
  5
3E2B
330
3E26
100
AcDbEntity
  8
DIM
 62
     0
370
    -2
100
AcDbLine
 10
615.9608510638315
 20
1586.446135090576
 30
0.0
 11
1056.672826747721
 21
1586.446135090576
 31
0.0
  0
INSERT
  5
3E2C
330
3E26
100
AcDbEntity
  8
DIM
 62
     0
370
    -2
100
AcDbBlockReference
  2
_DOT
 10
607.9608510638315
 20
1586.446135090576
 30
0.0
 41
8.0
 42
8.0
 43
8.0
 50
180.0
  0
INSERT
  5
3E2D
330
3E26
100
AcDbEntity
  8
DIM
 62
     0
370
    -2
100
AcDbBlockReference
  2
_DOT
 10
1064.672826747721
 20
1586.446135090576
 30
0.0
 41
8.0
 42
8.0
 43
8.0
  0
MTEXT
  5
3E2E
330
3E26
100
AcDbEntity
  8
DIM
 62
     0
100
AcDbMText
 10
836.316838905775
 20
1612.446135090576
 30
0.0
 40
20.0
 41
0.0
 46
0.0
 71
     5
 72
     1
  1
\A1;457
  7
ＭＳ ゴシック
 73
     1
 44
1.0
  0
POINT
  5
3E2F
330
3E26
100
AcDbEntity
  8
Defpoints
 62
     0
100
AcDbPoint
 10
607.9608510638315
 20
1305.861155015197
 30
0.0
  0
POINT
  5
3E30
330
3E26
100
AcDbEntity
  8
Defpoints
 62
     0
100
AcDbPoint
 10
1064.672826747721
 20
1305.861155015197
 30
0.0
  0
POINT
  5
3E31
330
3E26
100
AcDbEntity
  8
Defpoints
 62
     0
100
AcDbPoint
 10
1064.672826747721
 20
1586.446135090576
 30
0.0
  0
ENDBLK
  5
3E28
330
3E26
100
AcDbEntity
  8
0
100
AcDbBlockEnd
  0
BLOCK
  5
3E33
330
3E32
100
AcDbEntity
  8
0
100
AcDbBlockBegin
  2
*D3
 70
     1
 10
0.0
 20
0.0
 30
0.0
  3
*D3
  1

  0
LINE
  5
3E35
330
3E32
100
AcDbEntity
  8
DIM
 62
     0
370
    -2
100
AcDbLine
 10
684.7691933658384
 20
1300.861155015197
 30
0.0
 11
684.7691933658384
 21
959.0664924984802
 31
0.0
  0
LINE
  5
3E36
330
3E32
100
AcDbEntity
  8
DIM
 62
     0
370
    -2
100
AcDbLine
 10
987.8644844457136
 20
1300.861155015197
 30
0.0
 11
987.8644844457136
 21
959.0664924984802
 31
0.0
  0
LINE
  5
3E37
330
3E32
100
AcDbEntity
  8
DIM
 62
     0
370
    -2
100
AcDbLine
 10
692.7691933658384
 20
959.0664924984802
 30
0.0
 11
979.8644844457136
 21
959.0664924984802
 31
0.0
  0
INSERT
  5
3E38
330
3E32
100
AcDbEntity
  8
DIM
 62
     0
370
    -2
100
AcDbBlockReference
  2
_DOT
 10
684.7691933658384
 20
959.0664924984802
 30
0.0
 41
8.0
 42
8.0
 43
8.0
 50
180.0
  0
INSERT
  5
3E39
330
3E32
100
AcDbEntity
  8
DIM
 62
     0
370
    -2
100
AcDbBlockReference
  2
_DOT
 10
987.8644844457136
 20
959.0664924984802
 30
0.0
 41
8.0
 42
8.0
 43
8.0
  0
MTEXT
  5
3E3A
330
3E32
100
AcDbEntity
  8
DIM
 62
     0
100
AcDbMText
 10
836.316838905776
 20
985.0664924984802
 30
0.0
 40
20.0
 41
0.0
 46
0.0
 71
     5
 72
     1
  1
\A1;303
  7
ＭＳ ゴシック
 73
     1
 44
1.0
  0
POINT
  5
3E3B
330
3E32
100
AcDbEntity
  8
Defpoints
 62
     0
100
AcDbPoint
 10
684.7691933658384
 20
1305.861155015197
 30
0.0
  0
POINT
  5
3E3C
330
3E32
100
AcDbEntity
  8
Defpoints
 62
     0
100
AcDbPoint
 10
987.8644844457136
 20
1305.861155015197
 30
0.0
  0
POINT
  5
3E3D
330
3E32
100
AcDbEntity
  8
Defpoints
 62
     0
100
AcDbPoint
 10
987.8644844457136
 20
959.0664924984802
 30
0.0
  0
ENDBLK
  5
3E34
330
3E32
100
AcDbEntity
  8
0
100
AcDbBlockEnd
  0
BLOCK
  5
3E89
330
3E88
100
AcDbEntity
  8
0
100
AcDbBlockBegin
  2
812343s
 70
     0
 10
0.0
 20
0.0
 30
0.0
  3
812343s
  1

  0
SPLINE
  5
3E8A
330
3E88
100
AcDbEntity
  8
0
 62
     7
100
AcDbSpline
210
0.0
220
0.0
230
1.0
 70
     8
 71
     3
 72
    32
 73
    28
 74
     0
 42
0.000000001
 43
0.0000000001
 40
0.0
 40
0.0
 40
0.0
 40
0.0
 40
1.0
 40
1.0
 40
1.0
 40
2.0
 40
2.0
 40
2.0
 40
3.0
 40
3.0
 40
3.0
 40
4.0
 40
4.0
 40
4.0
 40
5.0
 40
5.0
 40
5.0
 40
6.0
 40
6.0
 40
6.0
 40
7.0
 40
7.0
 40
7.0
 40
8.0
 40
8.0
 40
8.0
 40
9.0
 40
9.0
 40
9.0
 40
9.0
 10
57.47538925429434
 20
758.0014323271663
 30
0.0
 10
57.47538925429434
 20
758.0014323271663
 30
0.0
 10
57.47538925429434
 20
767.5043837136795
 30
0.0
 10
57.47538925429434
 20
767.5043837136795
 30
0.0
 10
55.32564967149845
 20
770.2935330185377
 30
0.0
 10
52.91683890821176
 20
772.8677083651164
 30
0.0
 10
50.27100557553988
 20
775.1993489895335
 30
0.0
 10
50.27100557553988
 20
775.1993489895335
 30
0.0
 10
47.735415298396
 20
777.4427951695282
 30
0.0
 10
47.735415298396
 20
777.4427951695282
 30
0.0
 10
47.25585800684924
 20
777.8727430860874
 30
0.0
 10
46.64952120144526
 20
778.1263021138017
 30
0.0
 10
46.01011147938289
 20
778.186935794342
 30
0.0
 10
42.48233370248705
 20
778.5011285025969
 30
0.0
 10
38.97109238392042
 20
778.8208333636281
 30
0.0
 10
35.44331460702459
 20
779.2011719051997
 30
0.0
 10
29.0271687752953
 20
779.8957031550259
 30
0.0
 10
22.60551079078959
 20
780.6233073215109
 30
0.0
 10
16.18919270428603
 20
781.3674479463249
 30
0.0
 10
13.27877603834697
 20
781.7036892656852
 30
0.0
 10
11.04635416390508
 20
784.0849392650897
 30
0.0
 10
10.89201388616588
 20
787.0174045421346
 30
0.0
 10
10.89201388616588
 20
787.0174045421346
 30
0.0
 10
5.05464409595856
 20
898.1038194449185
 30
0.0
 10
5.05464409595856
 20
898.1038194449185
 30
0.0
 10
4.999522568194564
 20
899.1676649307636
 30
0.0
 10
4.128602429523406
 20
900.0
 30
0.0
 10
3.059244790901855
 20
900.0
 30
0.0
  0
POLYLINE
  5
3E8B
330
3E88
100
AcDbEntity
  8
0
 62
     7
100
AcDb2dPolyline
 66
     1
 10
0.0
 20
0.0
 30
0.0
  0
VERTEX
  5
3E8C
330
3E8B
100
AcDbEntity
  8
0
 62
     7
100
AcDbVertex
100
AcDb2dVertex
 10
119.3939181559154
 20
800.0095486361088
 30
0.0
  0
VERTEX
  5
3E8D
330
3E8B
100
AcDbEntity
  8
0
 62
     7
100
AcDbVertex
100
AcDb2dVertex
 10
117.9442219757223
 20
799.8386719000404
 30
0.0
  0
VERTEX
  5
3E8E
330
3E8B
100
AcDbEntity
  8
0
 62
     7
100
AcDbVertex
100
AcDb2dVertex
 10
117.8450032257471
 20
800.0867187749785
 30
0.0
  0
VERTEX
  5
3E8F
330
3E8B
100
AcDbEntity
  8
0
 62
     7
100
AcDbVertex
100
AcDb2dVertex
 10
116.251646563819
 20
803.267230926961
 30
0.0
  0
SEQEND
  5
3E90
330
3E8B
100
AcDbEntity
  8
0
  0
POLYLINE
  5
3E91
330
3E88
100
AcDbEntity
  8
0
 62
     7
100
AcDb2dPolyline
 66
     1
 10
0.0
 20
0.0
 30
0.0
  0
VERTEX
  5
3E92
330
3E91
100
AcDbEntity
  8
0
 62
     7
100
AcDbVertex
100
AcDb2dVertex
 10
127.6952202371734
 20
801.1119791913886
 30
0.0
  0
VERTEX
  5
3E93
330
3E91
100
AcDbEntity
  8
0
 62
     7
100
AcDbVertex
100
AcDb2dVertex
 10
128.9685275285217
 20
801.2938802330099
 30
0.0
  0
SEQEND
  5
3E94
330
3E91
100
AcDbEntity
  8
0
  0
SPLINE
  5
3E95
330
3E88
100
AcDbEntity
  8
0
 62
     7
100
AcDbSpline
210
0.0
220
0.0
230
1.0
 70
     8
 71
     3
 72
     8
 73
     4
 74
     0
 42
0.000000001
 43
0.0000000001
 40
0.0
 40
0.0
 40
0.0
 40
0.0
 40
1.0
 40
1.0
 40
1.0
 40
1.0
 10
129.5197428061617
 20
804.8492187737876
 30
0.0
 10
129.8449598199693
 20
804.8822916904461
 30
0.0
 10
130.1260796115657
 20
805.0752170376201
 30
0.0
 10
130.2859320420813
 20
805.3618489819928
 30
0.0
  0
SPLINE
  5
3E96
330
3E88
100
AcDbEntity
  8
0
 62
     7
100
AcDbSpline
210
0.0
220
0.0
230
1.0
 70
     8
 71
     3
 72
     8
 73
     4
 74
     0
 42
0.000000001
 43
0.0000000001
 40
0.0
 40
0.0
 40
0.0
 40
0.0
 40
1.0
 40
1.0
 40
1.0
 40
1.0
 10
131.2229980140692
 20
806.2382812734405
 30
0.0
 10
130.8261230141685
 20
806.0618923845957
 30
0.0
 10
130.4953938475845
 20
805.7476996763409
 30
0.0
 10
130.2859320420813
 20
805.3618489819928
 30
0.0
  0
SPLINE
  5
3E97
330
3E88
100
AcDbEntity
  8
0
 62
     7
100
AcDbSpline
210
0.0
220
0.0
230
1.0
 70
     8
 71
     3
 72
    26
 73
    22
 74
     0
 42
0.000000001
 43
0.0000000001
 40
0.0
 40
0.0
 40
0.0
 40
0.0
 40
1.0
 40
1.0
 40
1.0
 40
2.0
 40
2.0
 40
2.0
 40
3.0
 40
3.0
 40
3.0
 40
4.0
 40
4.0
 40
4.0
 40
5.0
 40
5.0
 40
5.0
 40
6.0
 40
6.0
 40
6.0
 40
7.0
 40
7.0
 40
7.0
 40
7.0
 10
129.6134494033605
 20
804.8547309265641
 30
0.0
 10
129.6134494033605
 20
804.8547309265641
 30
0.0
 10
129.6520344727953
 20
804.4909288433217
 30
0.0
 10
129.6520344727953
 20
804.4909288433217
 30
0.0
 10
129.6520344727953
 20
804.4909288433217
 30
0.0
 10
129.6520344727953
 20
804.2263455100544
 30
0.0
 10
129.6520344727953
 20
804.2263455100544
 30
0.0
 10
129.6520344727953
 20
804.2263455100544
 30
0.0
 10
129.2551594728945
 20
801.4427083579727
 30
0.0
 10
129.2551594728945
 20
801.4427083579727
 30
0.0
 10
129.2551594728945
 20
801.4427083579727
 30
0.0
 10
128.9685275285217
 20
801.2938802330099
 30
0.0
 10
128.9685275285217
 20
801.2938802330099
 30
0.0
 10
127.2983452372726
 20
802.054557316153
 30
0.0
 10
125.4407497516259
 20
802.3467014133023
 30
0.0
 10
123.6107150298612
 20
802.1317274550225
 30
0.0
 10
123.6107150298612
 20
802.1317274550225
 30
0.0
 10
123.1587185021964
 20
802.0766059272586
 30
0.0
 10
123.1587185021964
 20
802.0766059272586
 30
0.0
 10
121.3231716276553
 20
801.8561198162027
 30
0.0
 10
119.5978678086422
 20
801.1395399552707
 30
0.0
 10
118.1536837812255
 20
800.0040364833322
 30
0.0
  0
SPLINE
  5
3E98
330
3E88
100
AcDbEntity
  8
0
 62
     7
100
AcDbSpline
210
0.0
220
0.0
230
1.0
 70
     8
 71
     3
 72
    56
 73
    52
 74
     0
 42
0.000000001
 43
0.0000000001
 40
0.0
 40
0.0
 40
0.0
 40
0.0
 40
1.0
 40
1.0
 40
1.0
 40
2.0
 40
2.0
 40
2.0
 40
3.0
 40
3.0
 40
3.0
 40
4.0
 40
4.0
 40
4.0
 40
5.0
 40
5.0
 40
5.0
 40
6.0
 40
6.0
 40
6.0
 40
7.0
 40
7.0
 40
7.0
 40
8.0
 40
8.0
 40
8.0
 40
9.0
 40
9.0
 40
9.0
 40
10.0
 40
10.0
 40
10.0
 40
11.0
 40
11.0
 40
11.0
 40
12.0
 40
12.0
 40
12.0
 40
13.0
 40
13.0
 40
13.0
 40
14.0
 40
14.0
 40
14.0
 40
15.0
 40
15.0
 40
15.0
 40
16.0
 40
16.0
 40
16.0
 40
17.0
 40
17.0
 40
17.0
 40
17.0
 10
131.2229980140692
 20
806.2382812734405
 30
0.0
 10
132.5734754442872
 20
806.8391059260681
 30
0.0
 10
133.4829806523931
 20
808.1344618285219
 30
0.0
 10
133.5877115551447
 20
809.6062066198207
 30
0.0
 10
133.5877115551447
 20
809.6062066198207
 30
0.0
 10
133.8302462773063
 20
813.0402777995175
 30
0.0
 10
133.8302462773063
 20
813.0402777995175
 30
0.0
 10
133.9074164161759
 20
814.1427083547975
 30
0.0
 10
133.0695691941632
 20
815.0907986323383
 30
0.0
 10
131.9671386388832
 20
815.1734809239844
 30
0.0
 10
131.8458712778024
 20
815.1845052295373
 30
0.0
 10
131.7190917639452
 20
815.1734809239844
 30
0.0
 10
131.5978244028644
 20
815.1624566184317
 30
0.0
 10
131.5978244028644
 20
815.1624566184317
 30
0.0
 10
38.56319307846685
 20
804.1050781489738
 30
0.0
 10
38.56319307846685
 20
804.1050781489738
 30
0.0
 10
37.46627467596329
 20
803.9727864823401
 30
0.0
 10
36.68354898171454
 20
802.980598982588
 30
0.0
 10
36.81584064834813
 20
801.8836805800846
 30
0.0
 10
36.82135280112453
 20
801.8506076634261
 30
0.0
 10
36.82135280112453
 20
801.8175347467678
 30
0.0
 10
36.83788925945372
 20
801.778949677333
 30
0.0
 10
36.83788925945372
 20
801.778949677333
 30
0.0
 10
37.3560316204353
 20
798.7141927336547
 30
0.0
 10
37.3560316204353
 20
798.7141927336547
 30
0.0
 10
37.71983370367768
 20
796.6195746786229
 30
0.0
 10
39.6601114809704
 20
795.175390651206
 30
0.0
 10
41.76575384155509
 20
795.4234375261441
 30
0.0
 10
41.76575384155509
 20
795.4234375261441
 30
0.0
 10
81.17230629481111
 20
800.1087673860839
 30
0.0
 10
81.17230629481111
 20
800.1087673860839
 30
0.0
 10
81.17230629481111
 20
800.1087673860839
 30
0.0
 10
114.3611504162882
 20
804.0554687739861
 30
0.0
 10
114.3611504162882
 20
804.0554687739861
 30
0.0
 10
114.3611504162882
 20
804.0554687739861
 30
0.0
 10
114.3611504162882
 20
804.0499566212098
 30
0.0
 10
114.3611504162882
 20
804.0499566212098
 30
0.0
 10
114.9289021522574
 20
804.1161024545266
 30
0.0
 10
115.4964816334523
 20
803.9452257184581
 30
0.0
 10
115.920917397235
 20
803.5648871768866
 30
0.0
 10
115.920917397235
 20
803.5648871768866
 30
0.0
 10
116.251646563819
 20
803.267230926961
 30
0.0
 10
116.251646563819
 20
803.267230926961
 30
0.0
 10
116.251646563819
 20
803.267230926961
 30
0.0
 10
116.6984754482559
 20
803.3223524547249
 30
0.0
 10
116.6984754482559
 20
803.3223524547249
 30
0.0
 10
116.6984754482559
 20
803.3223524547249
 30
0.0
 10
116.6929632954795
 20
803.3223524547249
 30
0.0
 10
116.6929632954795
 20
803.3223524547249
 30
0.0
 10
116.6929632954795
 20
803.3223524547249
 30
0.0
 10
129.6134494033605
 20
804.8547309265641
 30
0.0
 10
129.6134494033605
 20
804.8547309265641
 30
0.0
  0
SPLINE
  5
3E99
330
3E88
100
AcDbEntity
  8
0
 62
     7
100
AcDbSpline
210
0.0
220
0.0
230
1.0
 70
     8
 71
     3
 72
     8
 73
     4
 74
     0
 42
0.000000001
 43
0.0000000001
 40
0.0
 40
0.0
 40
0.0
 40
0.0
 40
1.0
 40
1.0
 40
1.0
 40
1.0
 10
42.82959932740023
 20
790.5617187773596
 30
0.0
 10
42.59257675801504
 20
790.0490885691545
 30
0.0
 10
42.23979898032546
 20
789.6081163470425
 30
0.0
 10
41.78229029988429
 20
789.2828993332349
 30
0.0
  0
SPLINE
  5
3E9A
330
3E88
100
AcDbEntity
  8
0
 62
     7
100
AcDbSpline
210
0.0
220
0.0
230
1.0
 70
     8
 71
     3
 72
     8
 73
     4
 74
     0
 42
0.000000001
 43
0.0000000001
 40
0.0
 40
0.0
 40
0.0
 40
0.0
 40
1.0
 40
1.0
 40
1.0
 40
1.0
 10
52.95542397764656
 20
790.6113281523471
 30
0.0
 10
52.43728161666499
 20
790.8207899578504
 30
0.0
 10
51.97977293622381
 20
791.1625434299872
 30
0.0
 10
51.63250731131062
 20
791.6200521104283
 30
0.0
  0
SPLINE
  5
3E9B
330
3E88
100
AcDbEntity
  8
0
 62
     7
100
AcDbSpline
210
0.0
220
0.0
230
1.0
 70
     8
 71
     3
 72
     8
 73
     4
 74
     0
 42
0.000000001
 43
0.0000000001
 40
0.0
 40
0.0
 40
0.0
 40
0.0
 40
1.0
 40
1.0
 40
1.0
 40
1.0
 10
43.07764620233824
 20
791.0523003744592
 30
0.0
 10
42.97842745236303
 20
790.8924479439435
 30
0.0
 10
42.90125731349343
 20
790.7381076662044
 30
0.0
 10
42.82959932740023
 20
790.5617187773596
 30
0.0
  0
SPLINE
  5
3E9C
330
3E88
100
AcDbEntity
  8
0
 62
     7
100
AcDbSpline
210
0.0
220
0.0
230
1.0
 70
     8
 71
     3
 72
     8
 73
     4
 74
     0
 42
0.000000001
 43
0.0000000001
 40
0.0
 40
0.0
 40
0.0
 40
0.0
 40
1.0
 40
1.0
 40
1.0
 40
1.0
 10
51.63250731131062
 20
791.6200521104283
 30
0.0
 10
51.52226425578263
 20
791.7633680826146
 30
0.0
 10
51.40099689470184
 20
791.9011719020248
 30
0.0
 10
51.27972953362105
 20
792.0224392631055
 30
0.0
  0
POLYLINE
  5
3E9D
330
3E88
100
AcDbEntity
  8
0
 62
     7
100
AcDb2dPolyline
 66
     1
 10
0.0
 20
0.0
 30
0.0
  0
VERTEX
  5
3E9E
330
3E9D
100
AcDbEntity
  8
0
 62
     7
100
AcDbVertex
100
AcDb2dVertex
 10
47.18420002075602
 20
791.5428819715587
 30
0.0
  0
VERTEX
  5
3E9F
330
3E9D
100
AcDbEntity
  8
0
 62
     7
100
AcDbVertex
100
AcDb2dVertex
 10
41.99726425816388
 20
790.9089844022727
 30
0.0
  0
VERTEX
  5
3EA0
330
3E9D
100
AcDbEntity
  8
0
 62
     7
100
AcDbVertex
100
AcDb2dVertex
 10
41.4680975916295
 20
791.0137153050243
 30
0.0
  0
VERTEX
  5
3EA1
330
3E9D
100
AcDbEntity
  8
0
 62
     7
100
AcDbVertex
100
AcDb2dVertex
 10
39.94123127256677
 20
794.6241753735662
 30
0.0
  0
SEQEND
  5
3EA2
330
3E9D
100
AcDbEntity
  8
0
  0
POLYLINE
  5
3EA3
330
3E88
100
AcDbEntity
  8
0
 62
     7
100
AcDb2dPolyline
 66
     1
 10
0.0
 20
0.0
 30
0.0
  0
VERTEX
  5
3EA4
330
3EA3
100
AcDbEntity
  8
0
 62
     7
100
AcDbVertex
100
AcDb2dVertex
 10
47.18420002075602
 20
791.5428819715587
 30
0.0
  0
VERTEX
  5
3EA5
330
3EA3
100
AcDbEntity
  8
0
 62
     7
100
AcDbVertex
100
AcDb2dVertex
 10
52.67981633882657
 20
792.1988281519502
 30
0.0
  0
VERTEX
  5
3EA6
330
3EA3
100
AcDbEntity
  8
0
 62
     7
100
AcDbVertex
100
AcDb2dVertex
 10
52.86171738044776
 20
792.3641927352423
 30
0.0
  0
VERTEX
  5
3EA7
330
3EA3
100
AcDbEntity
  8
0
 62
     7
100
AcDbVertex
100
AcDb2dVertex
 10
53.19795869980815
 20
795.7707031510574
 30
0.0
  0
SEQEND
  5
3EA8
330
3EA3
100
AcDbEntity
  8
0
  0
SPLINE
  5
3EA9
330
3E88
100
AcDbEntity
  8
0
 62
     7
100
AcDbSpline
210
0.0
220
0.0
230
1.0
 70
     8
 71
     3
 72
    23
 73
    19
 74
     0
 42
0.000000001
 43
0.0000000001
 40
0.0
 40
0.0
 40
0.0
 40
0.0
 40
1.0
 40
1.0
 40
1.0
 40
2.0
 40
2.0
 40
2.0
 40
3.0
 40
3.0
 40
3.0
 40
4.0
 40
4.0
 40
4.0
 40
5.0
 40
5.0
 40
5.0
 40
6.0
 40
6.0
 40
6.0
 40
6.0
 10
38.98762884224963
 20
796.1400173870761
 30
0.0
 10
39.3293823143864
 20
795.8533854427034
 30
0.0
 10
39.57742918932439
 20
795.4785590539082
 30
0.0
 10
39.70420870318159
 20
795.0430989845726
 30
0.0
 10
39.81996391148598
 20
794.5580295402494
 30
0.0
 10
40.27747259192716
 20
794.2383246792183
 30
0.0
 10
40.78459064735593
 20
794.2989583597586
 30
0.0
 10
40.78459064735593
 20
794.2989583597586
 30
0.0
 10
46.77078856252605
 20
795.0100260679142
 30
0.0
 10
46.77078856252605
 20
795.0100260679142
 30
0.0
 10
46.77078856252605
 20
795.0100260679142
 30
0.0
 10
53.19795869980815
 20
795.7707031510574
 30
0.0
 10
53.19795869980815
 20
795.7707031510574
 30
0.0
 10
53.49561494973374
 20
795.8148003732686
 30
0.0
 10
53.74366182467174
 20
795.958116345455
 30
0.0
 10
53.92556286629291
 20
796.19513891484
 30
0.0
 10
54.25629203287691
 20
796.6526475952812
 30
0.0
 10
54.73584932442367
 20
796.9447916924305
 30
0.0
 10
55.29257675484005
 20
797.0329861368529
 30
0.0
  0
SPLINE
  5
3EAA
330
3E88
100
AcDbEntity
  8
0
 62
     7
100
AcDbSpline
210
0.0
220
0.0
230
1.0
 70
     8
 71
     3
 72
    17
 73
    13
 74
     0
 42
0.000000001
 43
0.0000000001
 40
0.0
 40
0.0
 40
0.0
 40
0.0
 40
1.0
 40
1.0
 40
1.0
 40
2.0
 40
2.0
 40
2.0
 40
3.0
 40
3.0
 40
3.0
 40
4.0
 40
4.0
 40
4.0
 40
4.0
 10
36.83788925945372
 20
802.3136284966438
 30
0.0
 10
36.83788925945372
 20
802.3136284966438
 30
0.0
 10
35.93940835690057
 20
787.2985243337309
 30
0.0
 10
35.93940835690057
 20
787.2985243337309
 30
0.0
 10
35.92287189857136
 20
786.3835069728486
 30
0.0
 10
35.79058023193777
 20
785.4629774591898
 30
0.0
 10
35.49843613478858
 20
784.5920573205187
 30
0.0
 10
35.31102294039099
 20
784.0022569734438
 30
0.0
 10
35.05195175990022
 20
783.4455295430275
 30
0.0
 10
34.69366182943422
 20
782.9384114875988
 30
0.0
 10
33.79518092688106
 20
781.6540798906976
 30
0.0
 10
32.40611842722834
 20
780.7611111409209
 30
0.0
 10
30.87373995538921
 20
780.4414062798896
 30
0.0
  0
SPLINE
  5
3EAB
330
3E88
100
AcDbEntity
  8
0
 62
     7
100
AcDbSpline
210
0.0
220
0.0
230
1.0
 70
    11
 71
     3
 72
    35
 73
    31
 74
     0
 42
0.000000001
 43
0.0000000001
 40
0.0
 40
0.0
 40
0.0
 40
0.0
 40
1.0
 40
1.0
 40
1.0
 40
2.0
 40
2.0
 40
2.0
 40
3.0
 40
3.0
 40
3.0
 40
4.0
 40
4.0
 40
4.0
 40
5.0
 40
5.0
 40
5.0
 40
6.0
 40
6.0
 40
6.0
 40
7.0
 40
7.0
 40
7.0
 40
8.0
 40
8.0
 40
8.0
 40
9.0
 40
9.0
 40
9.0
 40
10.0
 40
10.0
 40
10.0
 40
10.0
 10
364.9999429426042
 20
897.9605034727322
 30
0.0
 10
364.9999429426042
 20
897.9605034727322
 30
0.0
 10
362.7950818320443
 20
771.9967882264452
 30
0.0
 10
362.7950818320443
 20
771.9967882264452
 30
0.0
 10
362.7950818320443
 20
771.9967882264452
 30
0.0
 10
357.7679984999677
 20
769.9958767686121
 30
0.0
 10
357.7679984999677
 20
769.9958767686121
 30
0.0
 10
357.7679984999677
 20
769.9958767686121
 30
0.0
 10
7.237456595412858
 20
769.9958767686121
 30
0.0
 10
7.237456595412858
 20
769.9958767686121
 30
0.0
 10
7.237456595412858
 20
769.9958767686121
 30
0.0
 10
2.204861110559894
 20
771.9967882264452
 30
0.0
 10
2.204861110559894
 20
771.9967882264452
 30
0.0
 10
2.204861110559894
 20
771.9967882264452
 30
0.0
 10
0.0000000000000036
 20
897.9605034727322
 30
0.0
 10
0.0000000000000036
 20
897.9605034727322
 30
0.0
 10
0.0000000000000036
 20
897.9770399310615
 30
0.0
 10
0.0000000000000036
 20
897.988064236614
 30
0.0
 10
0.0000000000000036
 20
897.9935763893905
 30
0.0
 10
0.0000000000000036
 20
899.1070312502231
 30
0.0
 10
0.8984809025531586
 20
900.0
 30
0.0
 10
2.000911457833103
 20
900.0
 30
0.0
 10
2.000911457833103
 20
900.0
 30
0.0
 10
363.0045436375476
 20
900.0
 30
0.0
 10
363.0045436375476
 20
900.0
 30
0.0
 10
363.0100557903239
 20
900.0
 30
0.0
 10
363.0265922486531
 20
900.0
 30
0.0
 10
363.0321044014295
 20
899.9944878472236
 30
0.0
 10
364.1400471094858
 20
899.9779513888946
 30
0.0
 10
365.0164794009334
 20
899.062934028012
 30
0.0
 10
364.9999429426042
 20
897.9605034727322
 30
0.0
  0
SPLINE
  5
3EAC
330
3E88
100
AcDbEntity
  8
0
 62
     7
100
AcDbSpline
210
0.0
220
0.0
230
1.0
 70
     8
 71
     3
 72
    26
 73
    22
 74
     0
 42
0.000000001
 43
0.0000000001
 40
0.0
 40
0.0
 40
0.0
 40
0.0
 40
1.0
 40
1.0
 40
1.0
 40
2.0
 40
2.0
 40
2.0
 40
3.0
 40
3.0
 40
3.0
 40
4.0
 40
4.0
 40
4.0
 40
5.0
 40
5.0
 40
5.0
 40
6.0
 40
6.0
 40
6.0
 40
7.0
 40
7.0
 40
7.0
 40
7.0
 10
119.085237600437
 20
770.0013889213885
 30
0.0
 10
118.4954372533622
 20
769.1855903104813
 30
0.0
 10
118.0654893368031
 20
768.2650607968227
 30
0.0
 10
117.8229546146415
 20
767.2728732970706
 30
0.0
 10
117.8229546146415
 20
767.2728732970706
 30
0.0
 10
115.8713080222474
 20
759.5172743406763
 30
0.0
 10
115.8713080222474
 20
759.5172743406763
 30
0.0
 10
115.6508219111915
 20
758.6187934381229
 30
0.0
 10
114.8517320133877
 20
758.0014323271663
 30
0.0
 10
113.931202499729
 20
758.0014323271663
 30
0.0
 10
113.931202499729
 20
758.0014323271663
 30
0.0
 10
47.03537189579324
 20
758.0014323271663
 30
0.0
 10
47.03537189579324
 20
758.0014323271663
 30
0.0
 10
46.12035453491087
 20
758.0014323271663
 30
0.0
 10
45.31558022955652
 20
758.6187934381229
 30
0.0
 10
45.08406981294774
 20
759.5172743406763
 30
0.0
 10
45.08406981294774
 20
759.5172743406763
 30
0.0
 10
43.96510279933858
 20
764.0151910062185
 30
0.0
 10
43.96510279933858
 20
764.0151910062185
 30
0.0
 10
43.13827988287862
 20
767.3445312831637
 30
0.0
 10
40.28849689747995
 20
769.7698785047799
 30
0.0
 10
36.87096217611213
 20
770.0565104491525
 30
0.0
  0
SPLINE
  5
3EAD
330
3E88
100
AcDbEntity
  8
0
 62
     7
100
AcDbSpline
210
0.0
220
0.0
230
1.0
 70
     8
 71
     3
 72
    80
 73
    76
 74
     0
 42
0.000000001
 43
0.0000000001
 40
0.0
 40
0.0
 40
0.0
 40
0.0
 40
1.0
 40
1.0
 40
1.0
 40
2.0
 40
2.0
 40
2.0
 40
3.0
 40
3.0
 40
3.0
 40
4.0
 40
4.0
 40
4.0
 40
5.0
 40
5.0
 40
5.0
 40
6.0
 40
6.0
 40
6.0
 40
7.0
 40
7.0
 40
7.0
 40
8.0
 40
8.0
 40
8.0
 40
9.0
 40
9.0
 40
9.0
 40
10.0
 40
10.0
 40
10.0
 40
11.0
 40
11.0
 40
11.0
 40
12.0
 40
12.0
 40
12.0
 40
13.0
 40
13.0
 40
13.0
 40
14.0
 40
14.0
 40
14.0
 40
15.0
 40
15.0
 40
15.0
 40
16.0
 40
16.0
 40
16.0
 40
17.0
 40
17.0
 40
17.0
 40
18.0
 40
18.0
 40
18.0
 40
19.0
 40
19.0
 40
19.0
 40
20.0
 40
20.0
 40
20.0
 40
21.0
 40
21.0
 40
21.0
 40
22.0
 40
22.0
 40
22.0
 40
23.0
 40
23.0
 40
23.0
 40
24.0
 40
24.0
 40
24.0
 40
25.0
 40
25.0
 40
25.0
 40
25.0
 10
361.8580158600564
 20
900.0
 30
0.0
 10
360.7996825269875
 20
900.0
 30
0.0
 10
359.92325023554
 20
899.1676649307636
 30
0.0
 10
359.8626165549996
 20
898.098307292142
 30
0.0
 10
359.8626165549996
 20
898.098307292142
 30
0.0
 10
357.040394333483
 20
847.0833333465625
 30
0.0
 10
357.040394333483
 20
847.0833333465625
 30
0.0
 10
356.9191269724023
 20
844.8839843887791
 30
0.0
 10
355.5962103060662
 20
842.9216580003807
 30
0.0
 10
353.6114907970138
 20
841.9790798756164
 30
0.0
 10
353.0051539916098
 20
841.69796008402
 30
0.0
 10
352.3712564223239
 20
841.5105468896224
 30
0.0
 10
351.7097980891559
 20
841.4333767507528
 30
0.0
 10
351.2302407976091
 20
841.3782552229887
 30
0.0
 10
350.7341470477331
 20
841.3231336952247
 30
0.0
 10
350.2490776034099
 20
841.2680121674608
 30
0.0
 10
318.245518583633
 20
837.6355034878134
 30
0.0
 10
261.3321966577572
 20
830.9327257117113
 30
0.0
 10
229.3451740963095
 20
827.1513889071011
 30
0.0
 10
199.2653563954962
 20
823.5905382135468
 30
0.0
 10
167.6032063383074
 20
819.6328125200916
 30
0.0
 10
137.5454372485997
 20
815.8790364793635
 30
0.0
 10
136.6304198877174
 20
815.7632812710591
 30
0.0
 10
135.9138400267854
 20
815.0467014101273
 30
0.0
 10
135.8035969712574
 20
814.1371962020212
 30
0.0
 10
135.8035969712574
 20
814.1371962020212
 30
0.0
 10
134.5688747493439
 20
804.066493079539
 30
0.0
 10
134.5688747493439
 20
804.066493079539
 30
0.0
 10
134.3814615549463
 20
802.5175781493706
 30
0.0
 10
133.3121039163247
 20
801.2222222469165
 30
0.0
 10
131.8238226666968
 20
800.7481771081463
 30
0.0
 10
131.8238226666968
 20
800.7481771081463
 30
0.0
 10
131.2285101668456
 20
800.5607639137487
 30
0.0
 10
131.2285101668456
 20
800.5607639137487
 30
0.0
 10
130.8040744030629
 20
800.4229600943387
 30
0.0
 10
130.3631021809509
 20
800.3568142610218
 30
0.0
 10
129.9055935005097
 20
800.3678385665747
 30
0.0
 10
129.0016004451801
 20
800.3953993304566
 30
0.0
 10
128.130680306509
 20
800.7261284970407
 30
0.0
 10
127.441661209459
 20
801.3049045385626
 30
0.0
 10
126.5927896818935
 20
802.0214843994947
 30
0.0
 10
125.4848469738371
 20
802.3467014133023
 30
0.0
 10
124.39344072411
 20
802.2199218994451
 30
0.0
 10
124.39344072411
 20
802.2199218994451
 30
0.0
 10
122.3980414190533
 20
801.9828993300599
 30
0.0
 10
122.3980414190533
 20
801.9828993300599
 30
0.0
 10
120.3861056556674
 20
801.7403646078983
 30
0.0
 10
118.8702636421574
 20
800.0371093999908
 30
0.0
 10
118.8702636421574
 20
798.0141493310521
 30
0.0
 10
118.8702636421574
 20
798.0141493310521
 30
0.0
 10
118.8702636421574
 20
795.6053385677653
 30
0.0
 10
118.8702636421574
 20
795.6053385677653
 30
0.0
 10
118.8702636421574
 20
795.6053385677653
 30
0.0
 10
118.6222167672194
 20
793.9406684292926
 30
0.0
 10
118.6222167672194
 20
793.9406684292926
 30
0.0
 10
118.6222167672194
 20
793.9406684292926
 30
0.0
 10
117.6300292674675
 20
782.6187066265675
 30
0.0
 10
117.6300292674675
 20
782.6187066265675
 30
0.0
 10
117.6300292674675
 20
782.6187066265675
 30
0.0
 10
117.6300292674675
 20
782.6187066265675
 30
0.0
 10
117.6300292674675
 20
782.6187066265675
 30
0.0
 10
117.4646646841755
 20
780.77764759925
 30
0.0
 10
116.3012559388066
 20
779.1791232940941
 30
0.0
 10
114.6036851384498
 20
778.4570312803856
 30
0.0
 10
114.6036851384498
 20
778.4570312803856
 30
0.0
 10
113.7989108330954
 20
777.9388889194042
 30
0.0
 10
113.7989108330954
 20
777.9388889194042
 30
0.0
 10
113.7989108330954
 20
777.9388889194042
 30
0.0
 10
110.690056667206
 20
775.1993489895335
 30
0.0
 10
110.690056667206
 20
775.1993489895335
 30
0.0
 10
108.044223334534
 20
772.8677083651164
 30
0.0
 10
105.6354125712474
 20
770.2880208657614
 30
0.0
 10
103.4856729884515
 20
767.4933594081267
 30
0.0
 10
103.4856729884515
 20
767.4933594081267
 30
0.0
 10
103.4856729884515
 20
758.0014323271663
 30
0.0
 10
103.4856729884515
 20
758.0014323271663
 30
0.0
  0
POLYLINE
  5
3EAE
330
3E88
100
AcDbEntity
  8
0
 62
     7
100
AcDb2dPolyline
 66
     1
 10
0.0
 20
0.0
 30
0.0
  0
VERTEX
  5
3EAF
330
3EAE
100
AcDbEntity
  8
0
 62
     7
100
AcDbVertex
100
AcDb2dVertex
 10
80.48328719776111
 20
748.0023871907771
 30
0.0
  0
VERTEX
  5
3EB0
330
3EAE
100
AcDbEntity
  8
0
 62
     7
100
AcDbVertex
100
AcDb2dVertex
 10
80.48328719776111
 20
819.1642795340978
 30
0.0
  0
SEQEND
  5
3EB1
330
3EAE
100
AcDbEntity
  8
0
  0
POLYLINE
  5
3EB2
330
3E88
100
AcDbEntity
  8
0
 62
     7
100
AcDb2dPolyline
 66
     1
 10
0.0
 20
0.0
 30
0.0
  0
VERTEX
  5
3EB3
330
3EB2
100
AcDbEntity
  8
0
 62
     7
100
AcDbVertex
100
AcDb2dVertex
 10
12.49053819132181
 20
768.9981771160838
 30
0.0
  0
VERTEX
  5
3EB4
330
3EB2
100
AcDbEntity
  8
0
 62
     7
100
AcDbVertex
100
AcDb2dVertex
 10
12.49053819132181
 20
883.9982204901117
 30
0.0
  0
SEQEND
  5
3EB5
330
3EB2
100
AcDbEntity
  8
0
  0
POLYLINE
  5
3EB6
330
3E88
100
AcDbEntity
  8
0
 62
     7
100
AcDb2dPolyline
 66
     1
 10
0.0
 20
0.0
 30
0.0
  0
VERTEX
  5
3EB7
330
3EB6
100
AcDbEntity
  8
0
 62
     7
100
AcDbVertex
100
AcDb2dVertex
 10
32.49431287165072
 20
768.9981771160838
 30
0.0
  0
VERTEX
  5
3EB8
330
3EB6
100
AcDbEntity
  8
0
 62
     7
100
AcDbVertex
100
AcDb2dVertex
 10
32.49431287165072
 20
883.9982204901117
 30
0.0
  0
SEQEND
  5
3EB9
330
3EB6
100
AcDbEntity
  8
0
  0
POLYLINE
  5
3EBA
330
3E88
100
AcDbEntity
  8
0
 62
     7
100
AcDb2dPolyline
 66
     1
 10
0.0
 20
0.0
 30
0.0
  0
VERTEX
  5
3EBB
330
3EBA
100
AcDbEntity
  8
0
 62
     7
100
AcDbVertex
100
AcDb2dVertex
 10
52.49791529720538
 20
768.9981771160838
 30
0.0
  0
VERTEX
  5
3EBC
330
3EBA
100
AcDbEntity
  8
0
 62
     7
100
AcDbVertex
100
AcDb2dVertex
 10
52.49791529720538
 20
883.9982204901117
 30
0.0
  0
SEQEND
  5
3EBD
330
3EBA
100
AcDbEntity
  8
0
  0
POLYLINE
  5
3EBE
330
3E88
100
AcDbEntity
  8
0
 62
     7
100
AcDb2dPolyline
 66
     1
 10
0.0
 20
0.0
 30
0.0
  0
VERTEX
  5
3EBF
330
3EBE
100
AcDbEntity
  8
0
 62
     7
100
AcDbVertex
100
AcDb2dVertex
 10
72.50168997753431
 20
768.9981771160838
 30
0.0
  0
VERTEX
  5
3EC0
330
3EBE
100
AcDbEntity
  8
0
 62
     7
100
AcDbVertex
100
AcDb2dVertex
 10
72.50168997753431
 20
883.9982204901117
 30
0.0
  0
SEQEND
  5
3EC1
330
3EBE
100
AcDbEntity
  8
0
  0
POLYLINE
  5
3EC2
330
3E88
100
AcDbEntity
  8
0
 62
     7
100
AcDb2dPolyline
 66
     1
 10
0.0
 20
0.0
 30
0.0
  0
VERTEX
  5
3EC3
330
3EC2
100
AcDbEntity
  8
0
 62
     7
100
AcDbVertex
100
AcDb2dVertex
 10
92.49978025031255
 20
768.9981771160838
 30
0.0
  0
VERTEX
  5
3EC4
330
3EC2
100
AcDbEntity
  8
0
 62
     7
100
AcDbVertex
100
AcDb2dVertex
 10
92.49978025031255
 20
883.9982204901117
 30
0.0
  0
SEQEND
  5
3EC5
330
3EC2
100
AcDbEntity
  8
0
  0
POLYLINE
  5
3EC6
330
3E88
100
AcDbEntity
  8
0
 62
     7
100
AcDb2dPolyline
 66
     1
 10
0.0
 20
0.0
 30
0.0
  0
VERTEX
  5
3EC7
330
3EC6
100
AcDbEntity
  8
0
 62
     7
100
AcDbVertex
100
AcDb2dVertex
 10
112.5035549306415
 20
768.9981771160838
 30
0.0
  0
VERTEX
  5
3EC8
330
3EC6
100
AcDbEntity
  8
0
 62
     7
100
AcDbVertex
100
AcDb2dVertex
 10
112.5035549306415
 20
883.9982204901117
 30
0.0
  0
SEQEND
  5
3EC9
330
3EC6
100
AcDbEntity
  8
0
  0
POLYLINE
  5
3ECA
330
3E88
100
AcDbEntity
  8
0
 62
     7
100
AcDb2dPolyline
 66
     1
 10
0.0
 20
0.0
 30
0.0
  0
VERTEX
  5
3ECB
330
3ECA
100
AcDbEntity
  8
0
 62
     7
100
AcDbVertex
100
AcDb2dVertex
 10
132.5073296109704
 20
768.9981771160838
 30
0.0
  0
VERTEX
  5
3ECC
330
3ECA
100
AcDbEntity
  8
0
 62
     7
100
AcDbVertex
100
AcDb2dVertex
 10
132.5073296109704
 20
883.9982204901117
 30
0.0
  0
SEQEND
  5
3ECD
330
3ECA
100
AcDbEntity
  8
0
  0
POLYLINE
  5
3ECE
330
3E88
100
AcDbEntity
  8
0
 62
     7
100
AcDb2dPolyline
 66
     1
 10
0.0
 20
0.0
 30
0.0
  0
VERTEX
  5
3ECF
330
3ECE
100
AcDbEntity
  8
0
 62
     7
100
AcDbVertex
100
AcDb2dVertex
 10
152.5054198837485
 20
768.9981771160838
 30
0.0
  0
VERTEX
  5
3ED0
330
3ECE
100
AcDbEntity
  8
0
 62
     7
100
AcDbVertex
100
AcDb2dVertex
 10
152.5054198837485
 20
883.9982204901117
 30
0.0
  0
SEQEND
  5
3ED1
330
3ECE
100
AcDbEntity
  8
0
  0
POLYLINE
  5
3ED2
330
3E88
100
AcDbEntity
  8
0
 62
     7
100
AcDb2dPolyline
 66
     1
 10
0.0
 20
0.0
 30
0.0
  0
VERTEX
  5
3ED3
330
3ED2
100
AcDbEntity
  8
0
 62
     7
100
AcDbVertex
100
AcDb2dVertex
 10
172.5090223093033
 20
768.9981771160838
 30
0.0
  0
VERTEX
  5
3ED4
330
3ED2
100
AcDbEntity
  8
0
 62
     7
100
AcDbVertex
100
AcDb2dVertex
 10
172.5090223093033
 20
883.9982204901117
 30
0.0
  0
SEQEND
  5
3ED5
330
3ED2
100
AcDbEntity
  8
0
  0
POLYLINE
  5
3ED6
330
3E88
100
AcDbEntity
  8
0
 62
     7
100
AcDb2dPolyline
 66
     1
 10
0.0
 20
0.0
 30
0.0
  0
VERTEX
  5
3ED7
330
3ED6
100
AcDbEntity
  8
0
 62
     7
100
AcDbVertex
100
AcDb2dVertex
 10
192.512624734858
 20
768.9981771160838
 30
0.0
  0
VERTEX
  5
3ED8
330
3ED6
100
AcDbEntity
  8
0
 62
     7
100
AcDbVertex
100
AcDb2dVertex
 10
192.512624734858
 20
883.9982204901117
 30
0.0
  0
SEQEND
  5
3ED9
330
3ED6
100
AcDbEntity
  8
0
  0
POLYLINE
  5
3EDA
330
3E88
100
AcDbEntity
  8
0
 62
     7
100
AcDb2dPolyline
 66
     1
 10
0.0
 20
0.0
 30
0.0
  0
VERTEX
  5
3EDB
330
3EDA
100
AcDbEntity
  8
0
 62
     7
100
AcDbVertex
100
AcDb2dVertex
 10
212.5165716699611
 20
768.9981771160838
 30
0.0
  0
VERTEX
  5
3EDC
330
3EDA
100
AcDbEntity
  8
0
 62
     7
100
AcDbVertex
100
AcDb2dVertex
 10
212.5165716699611
 20
883.9982204901117
 30
0.0
  0
SEQEND
  5
3EDD
330
3EDA
100
AcDbEntity
  8
0
  0
POLYLINE
  5
3EDE
330
3E88
100
AcDbEntity
  8
0
 62
     7
100
AcDb2dPolyline
 66
     1
 10
0.0
 20
0.0
 30
0.0
  0
VERTEX
  5
3EDF
330
3EDE
100
AcDbEntity
  8
0
 62
     7
100
AcDbVertex
100
AcDb2dVertex
 10
232.5587591649506
 20
768.9981771160838
 30
0.0
  0
VERTEX
  5
3EE0
330
3EDE
100
AcDbEntity
  8
0
 62
     7
100
AcDbVertex
100
AcDb2dVertex
 10
232.5587591649506
 20
883.9982204901117
 30
0.0
  0
SEQEND
  5
3EE1
330
3EDE
100
AcDbEntity
  8
0
  0
POLYLINE
  5
3EE2
330
3E88
100
AcDbEntity
  8
0
 62
     7
100
AcDb2dPolyline
 66
     1
 10
0.0
 20
0.0
 30
0.0
  0
VERTEX
  5
3EE3
330
3EE2
100
AcDbEntity
  8
0
 62
     7
100
AcDbVertex
100
AcDb2dVertex
 10
252.518264368294
 20
768.9981771160838
 30
0.0
  0
VERTEX
  5
3EE4
330
3EE2
100
AcDbEntity
  8
0
 62
     7
100
AcDbVertex
100
AcDb2dVertex
 10
252.518264368294
 20
883.9982204901117
 30
0.0
  0
SEQEND
  5
3EE5
330
3EE2
100
AcDbEntity
  8
0
  0
POLYLINE
  5
3EE6
330
3E88
100
AcDbEntity
  8
0
 62
     7
100
AcDb2dPolyline
 66
     1
 10
0.0
 20
0.0
 30
0.0
  0
VERTEX
  5
3EE7
330
3EE6
100
AcDbEntity
  8
0
 62
     7
100
AcDbVertex
100
AcDb2dVertex
 10
272.5222113033972
 20
768.9981771160838
 30
0.0
  0
VERTEX
  5
3EE8
330
3EE6
100
AcDbEntity
  8
0
 62
     7
100
AcDbVertex
100
AcDb2dVertex
 10
272.5222113033972
 20
883.9982204901117
 30
0.0
  0
SEQEND
  5
3EE9
330
3EE6
100
AcDbEntity
  8
0
  0
POLYLINE
  5
3EEA
330
3E88
100
AcDbEntity
  8
0
 62
     7
100
AcDb2dPolyline
 66
     1
 10
0.0
 20
0.0
 30
0.0
  0
VERTEX
  5
3EEB
330
3EEA
100
AcDbEntity
  8
0
 62
     7
100
AcDbVertex
100
AcDb2dVertex
 10
292.5258137289519
 20
768.9981771160838
 30
0.0
  0
VERTEX
  5
3EEC
330
3EEA
100
AcDbEntity
  8
0
 62
     7
100
AcDbVertex
100
AcDb2dVertex
 10
292.5258137289519
 20
883.9982204901117
 30
0.0
  0
SEQEND
  5
3EED
330
3EEA
100
AcDbEntity
  8
0
  0
POLYLINE
  5
3EEE
330
3E88
100
AcDbEntity
  8
0
 62
     7
100
AcDb2dPolyline
 66
     1
 10
0.0
 20
0.0
 30
0.0
  0
VERTEX
  5
3EEF
330
3EEE
100
AcDbEntity
  8
0
 62
     7
100
AcDbVertex
100
AcDb2dVertex
 10
312.5239040017302
 20
768.9981771160838
 30
0.0
  0
VERTEX
  5
3EF0
330
3EEE
100
AcDbEntity
  8
0
 62
     7
100
AcDbVertex
100
AcDb2dVertex
 10
312.5239040017302
 20
883.9982204901117
 30
0.0
  0
SEQEND
  5
3EF1
330
3EEE
100
AcDbEntity
  8
0
  0
POLYLINE
  5
3EF2
330
3E88
100
AcDbEntity
  8
0
 62
     7
100
AcDb2dPolyline
 66
     1
 10
0.0
 20
0.0
 30
0.0
  0
VERTEX
  5
3EF3
330
3EF2
100
AcDbEntity
  8
0
 62
     7
100
AcDbVertex
100
AcDb2dVertex
 10
332.5219942745084
 20
768.9981771160838
 30
0.0
  0
VERTEX
  5
3EF4
330
3EF2
100
AcDbEntity
  8
0
 62
     7
100
AcDbVertex
100
AcDb2dVertex
 10
332.5219942745084
 20
883.9982204901117
 30
0.0
  0
SEQEND
  5
3EF5
330
3EF2
100
AcDbEntity
  8
0
  0
POLYLINE
  5
3EF6
330
3E88
100
AcDbEntity
  8
0
 62
     7
100
AcDb2dPolyline
 66
     1
 10
0.0
 20
0.0
 30
0.0
  0
VERTEX
  5
3EF7
330
3EF6
100
AcDbEntity
  8
0
 62
     7
100
AcDbVertex
100
AcDb2dVertex
 10
352.5200845472867
 20
768.9981771160838
 30
0.0
  0
VERTEX
  5
3EF8
330
3EF6
100
AcDbEntity
  8
0
 62
     7
100
AcDbVertex
100
AcDb2dVertex
 10
352.5200845472867
 20
883.9982204901117
 30
0.0
  0
SEQEND
  5
3EF9
330
3EF6
100
AcDbEntity
  8
0
  0
ENDBLK
  5
3EFA
330
3E88
100
AcDbEntity
  8
0
100
AcDbBlockEnd
  0
BLOCK
  5
3EFD
330
3EFC
100
AcDbEntity
  8
0
100
AcDbBlockBegin
  2
812343d
 70
     0
 10
0.0
 20
0.0
 30
0.0
  3
812343d
  1

  0
SPLINE
  5
3EFE
330
3EFC
100
AcDbEntity
  8
0
 62
     7
100
AcDbSpline
210
0.0
220
0.0
230
1.0
 70
     8
 71
     3
 72
     8
 73
     4
 74
     0
 42
0.000000001
 43
0.0000000001
 40
0.0
 40
0.0
 40
0.0
 40
0.0
 40
1.0
 40
1.0
 40
1.0
 40
1.0
 10
165.548206881356
 20
-37.35241427017576
 30
0.0
 10
132.9600151577322
 20
-37.18687743210955
 30
0.0
 10
83.71134166744022
 20
-36.79551458498508
 30
0.0
 10
51.12314994381643
 20
-36.79000243220873
 30
0.0
  0
SPLINE
  5
3EFF
330
3EFC
100
AcDbEntity
  8
0
 62
     7
100
AcDbSpline
210
0.0
220
0.0
230
1.0
 70
    11
 71
     3
 72
    29
 73
    25
 74
     0
 42
0.000000001
 43
0.0000000001
 40
0.0
 40
0.0
 40
0.0
 40
0.0
 40
1.0
 40
1.0
 40
1.0
 40
2.0
 40
2.0
 40
2.0
 40
3.0
 40
3.0
 40
3.0
 40
4.0
 40
4.0
 40
4.0
 40
5.0
 40
5.0
 40
5.0
 40
6.0
 40
6.0
 40
6.0
 40
7.0
 40
7.0
 40
7.0
 40
8.0
 40
8.0
 40
8.0
 40
8.0
 10
-205.0000623402431
 20
-178.9990654391912
 30
0.0
 10
-205.0000623402431
 20
-178.9990654391912
 30
0.0
 10
-205.0000623402431
 20
-20.0020521325863
 30
0.0
 10
-205.0000623402431
 20
-19.99653997980988
 30
0.0
 10
-205.0000623402431
 20
-8.953458656615794
 30
0.0
 10
-196.0412637856251
 20
0.0
 30
0.0
 10
-184.9985269719796
 20
0.0
 30
0.0
 10
-184.9985269719796
 20
0.0
 30
0.0
 10
185.0036946152074
 20
0.0
 30
0.0
 10
185.0036946152074
 20
0.0
 30
0.0
 10
196.0521158364036
 20
0.0
 30
0.0
 10
205.0055744930194
 20
-8.953458656615794
 30
0.0
 10
205.000062340243
 20
-20.0020521325863
 30
0.0
 10
205.000062340243
 20
-20.0020521325863
 30
0.0
 10
205.000062340243
 20
-178.9990654391912
 30
0.0
 10
205.000062340243
 20
-178.9990654391912
 30
0.0
 10
205.000062340243
 20
-178.9990654391912
 30
0.0
 10
205.000062340243
 20
-179.0045775919676
 30
0.0
 10
205.000062340243
 20
-179.0045775919676
 30
0.0
 10
205.000062340243
 20
-281.7278509495333
 30
0.0
 10
113.2175509699595
 20
-364.9999429426042
 30
0.0
 10
-0.0000000000000142
 20
-364.9999429426042
 30
0.0
 10
-113.2175509699595
 20
-364.9999429426042
 30
0.0
 10
-205.0000623402431
 20
-281.7223387967569
 30
0.0
 10
-205.0000623402431
 20
-178.9990654391912
 30
0.0
  0
SPLINE
  5
3F00
330
3EFC
100
AcDbEntity
  8
0
 62
     7
100
AcDbSpline
210
0.0
220
0.0
230
1.0
 70
    11
 71
     3
 72
    56
 73
    52
 74
     0
 42
0.000000001
 43
0.0000000001
 40
0.0
 40
0.0
 40
0.0
 40
0.0
 40
1.0
 40
1.0
 40
1.0
 40
2.0
 40
2.0
 40
2.0
 40
3.0
 40
3.0
 40
3.0
 40
4.0
 40
4.0
 40
4.0
 40
5.0
 40
5.0
 40
5.0
 40
6.0
 40
6.0
 40
6.0
 40
7.0
 40
7.0
 40
7.0
 40
8.0
 40
8.0
 40
8.0
 40
9.0
 40
9.0
 40
9.0
 40
10.0
 40
10.0
 40
10.0
 40
11.0
 40
11.0
 40
11.0
 40
12.0
 40
12.0
 40
12.0
 40
13.0
 40
13.0
 40
13.0
 40
14.0
 40
14.0
 40
14.0
 40
15.0
 40
15.0
 40
15.0
 40
16.0
 40
16.0
 40
16.0
 40
17.0
 40
17.0
 40
17.0
 40
17.0
 10
-185.9245686384147
 20
-4.465705022755059
 30
0.0
 10
-193.9628376793739
 20
-4.43814425887308
 30
0.0
 10
-200.5067965536059
 20
-10.93835042044253
 30
0.0
 10
-200.5288451647116
 20
-18.97661946140175
 30
0.0
 10
-200.5288451647116
 20
-19.00969237806009
 30
0.0
 10
-200.5288451647116
 20
-19.04276529471855
 30
0.0
 10
-200.5288451647116
 20
-19.07032605860053
 30
0.0
 10
-200.5288451647116
 20
-19.07032605860053
 30
0.0
 10
-200.5178208591588
 20
-19.0482774474948
 30
0.0
 10
-200.5178208591588
 20
-19.0482774474948
 30
0.0
 10
-200.5178208591588
 20
-19.0482774474948
 30
0.0
 10
-200.5178208591588
 20
-178.9990654391912
 30
0.0
 10
-200.5178208591588
 20
-178.9990654391912
 30
0.0
 10
-200.5178208591588
 20
-178.9990654391912
 30
0.0
 10
-200.5508937758172
 20
-178.9659925225328
 30
0.0
 10
-200.5508937758172
 20
-178.9659925225328
 30
0.0
 10
-200.0988972481524
 20
-208.3903808072774
 30
0.0
 10
-192.6340643507129
 20
-236.4858235085869
 30
0.0
 10
-178.2228854263644
 20
-262.1776230898376
 30
0.0
 10
-150.4862494198438
 20
-311.6316242710504
 30
0.0
 10
-97.95715600849684
 20
-346.1611273006125
 30
0.0
 10
-42.61100801886115
 20
-356.371701299796
 30
0.0
 10
14.36708170213737
 20
-366.879931548905
 30
0.0
 10
73.06530759892112
 20
-356.0354599804356
 30
0.0
 10
121.305257131132
 20
-323.5292615293607
 30
0.0
 10
169.4955972883553
 20
-291.0561359949443
 30
0.0
 10
199.6081433962785
 20
-237.0976724667672
 30
0.0
 10
200.5617458265956
 20
-178.9659925225328
 30
0.0
 10
200.5617458265956
 20
-178.9659925225328
 30
0.0
 10
200.5286729099372
 20
-178.9990654391912
 30
0.0
 10
200.5286729099372
 20
-178.9990654391912
 30
0.0
 10
200.5286729099372
 20
-178.9990654391912
 30
0.0
 10
200.5286729099372
 20
-19.0482774474948
 30
0.0
 10
200.5286729099372
 20
-19.0482774474948
 30
0.0
 10
200.5286729099372
 20
-19.0482774474948
 30
0.0
 10
200.5341850627137
 20
-19.07032605860053
 30
0.0
 10
200.5341850627137
 20
-19.07032605860053
 30
0.0
 10
200.5617458265956
 20
-11.03756917041761
 30
0.0
 10
194.0673963273512
 20
-4.493265786637152
 30
0.0
 10
186.0292995411663
 20
-4.465705022755059
 30
0.0
 10
185.9962266245079
 20
-4.465705022755059
 30
0.0
 10
185.9631537078495
 20
-4.465705022755059
 30
0.0
 10
185.9300807911911
 20
-4.465705022755059
 30
0.0
 10
185.9300807911911
 20
-4.465705022755059
 30
0.0
 10
185.9576415550731
 20
-4.476729328307897
 30
0.0
 10
185.9576415550731
 20
-4.476729328307897
 30
0.0
 10
185.9576415550731
 20
-4.476729328307897
 30
0.0
 10
-185.9521294022967
 20
-4.476729328307897
 30
0.0
 10
-185.9521294022967
 20
-4.476729328307897
 30
0.0
 10
-185.9521294022967
 20
-4.476729328307897
 30
0.0
 10
-185.9245686384147
 20
-4.465705022755059
 30
0.0
 10
-185.9245686384147
 20
-4.465705022755059
 30
0.0
  0
SPLINE
  5
3F01
330
3EFC
100
AcDbEntity
  8
0
 62
     7
100
AcDbSpline
210
0.0
220
0.0
230
1.0
 70
    11
 71
     3
 72
    17
 73
    13
 74
     0
 42
0.000000001
 43
0.0000000001
 40
0.0
 40
0.0
 40
0.0
 40
0.0
 40
1.0
 40
1.0
 40
1.0
 40
2.0
 40
2.0
 40
2.0
 40
3.0
 40
3.0
 40
3.0
 40
4.0
 40
4.0
 40
4.0
 40
4.0
 10
-23.00083549772203
 20
-80.4881103314404
 30
0.0
 10
-23.00083549772203
 20
-67.76899005467232
 30
0.0
 10
-12.70775146166683
 20
-57.47022161106645
 30
0.0
 10
-0.0000000000000142
 20
-57.47022161106645
 30
0.0
 10
12.70775146166679
 20
-57.47022161106645
 30
0.0
 10
23.00617539572414
 20
-67.76899005467232
 30
0.0
 10
23.00617539572414
 20
-80.4881103314404
 30
0.0
 10
23.00617539572414
 20
-93.18518199710302
 30
0.0
 10
12.70775146166679
 20
-103.4949747462617
 30
0.0
 10
-0.0000000000000142
 20
-103.4949747462617
 30
0.0
 10
-12.70775146166683
 20
-103.4949747462617
 30
0.0
 10
-23.00083549772203
 20
-93.18518199710302
 30
0.0
 10
-23.00083549772203
 20
-80.4881103314404
 30
0.0
  0
SPLINE
  5
3F02
330
3EFC
100
AcDbEntity
  8
0
 62
     7
100
AcDbSpline
210
0.0
220
0.0
230
1.0
 70
    11
 71
     3
 72
    17
 73
    13
 74
     0
 42
0.000000001
 43
0.0000000001
 40
0.0
 40
0.0
 40
0.0
 40
0.0
 40
1.0
 40
1.0
 40
1.0
 40
2.0
 40
2.0
 40
2.0
 40
3.0
 40
3.0
 40
3.0
 40
4.0
 40
4.0
 40
4.0
 40
4.0
 10
-37.46179605183249
 20
-80.4881103314404
 30
0.0
 10
-37.46179605183249
 20
-59.78584254147711
 30
0.0
 10
-20.68521456731136
 20
-43.01442870018393
 30
0.0
 10
-0.0000000000000142
 20
-43.01442870018393
 30
0.0
 10
20.69072672008771
 20
-43.01442870018393
 30
0.0
 10
37.46162379705821
 20
-59.78584254147711
 30
0.0
 10
37.46162379705821
 20
-80.4881103314404
 30
0.0
 10
37.46162379705821
 20
-101.179353815851
 30
0.0
 10
20.69072672008771
 20
-117.9507676571442
 30
0.0
 10
-0.0000000000000142
 20
-117.9507676571442
 30
0.0
 10
-20.68521456731136
 20
-117.9507676571442
 30
0.0
 10
-37.46179605183249
 20
-101.179353815851
 30
0.0
 10
-37.46179605183249
 20
-80.4881103314404
 30
0.0
  0
POLYLINE
  5
3F03
330
3EFC
100
AcDbEntity
  8
0
 62
     7
100
AcDb2dPolyline
 66
     1
 10
0.0
 20
0.0
 30
0.0
  0
VERTEX
  5
3F04
330
3F03
100
AcDbEntity
  8
0
 62
     7
100
AcDbVertex
100
AcDb2dVertex
 10
-0.0000000000000142
 20
-24.28034396094381
 30
0.0
  0
VERTEX
  5
3F05
330
3F03
100
AcDbEntity
  8
0
 62
     7
100
AcDbVertex
100
AcDb2dVertex
 10
-0.0000000000000142
 20
-136.6848523963843
 30
0.0
  0
SEQEND
  5
3F06
330
3F03
100
AcDbEntity
  8
0
  0
POLYLINE
  5
3F07
330
3EFC
100
AcDbEntity
  8
0
 62
     7
100
AcDb2dPolyline
 66
     1
 10
0.0
 20
0.0
 30
0.0
  0
VERTEX
  5
3F08
330
3F07
100
AcDbEntity
  8
0
 62
     7
100
AcDbVertex
100
AcDb2dVertex
 10
-56.20087617952619
 20
-80.4881103314404
 30
0.0
  0
VERTEX
  5
3F09
330
3F07
100
AcDbEntity
  8
0
 62
     7
100
AcDbVertex
100
AcDb2dVertex
 10
56.19519177197547
 20
-80.4881103314404
 30
0.0
  0
SEQEND
  5
3F0A
330
3F07
100
AcDbEntity
  8
0
  0
SPLINE
  5
3F0B
330
3EFC
100
AcDbEntity
  8
0
 62
     7
100
AcDbSpline
210
0.0
220
0.0
230
1.0
 70
    11
 71
     3
 72
    26
 73
    22
 74
     0
 42
0.000000001
 43
0.0000000001
 40
0.0
 40
0.0
 40
0.0
 40
0.0
 40
1.0
 40
1.0
 40
1.0
 40
2.0
 40
2.0
 40
2.0
 40
3.0
 40
3.0
 40
3.0
 40
4.0
 40
4.0
 40
4.0
 40
5.0
 40
5.0
 40
5.0
 40
6.0
 40
6.0
 40
6.0
 40
7.0
 40
7.0
 40
7.0
 40
7.0
 10
-51.12332219859071
 20
-36.79000243220873
 30
0.0
 10
-52.23143716142132
 20
-36.79000243220873
 30
0.0
 10
-53.12457816597235
 20
-37.68314343675979
 30
0.0
 10
-53.12457816597235
 20
-38.79125839959039
 30
0.0
 10
-53.12457816597235
 20
-38.79125839959039
 30
0.0
 10
-53.12457816597235
 20
-80.71410859527293
 30
0.0
 10
-53.12457816597235
 20
-80.71410859527293
 30
0.0
 10
-53.12457816597235
 20
-110.0558145883714
 30
0.0
 10
-29.34084471922731
 20
-133.8454046974414
 30
0.0
 10
-0.0000000000000142
 20
-133.8454046974414
 30
0.0
 10
29.34084471922728
 20
-133.8454046974414
 30
0.0
 10
53.11889375842167
 20
-110.0558145883714
 30
0.0
 10
53.11889375842167
 20
-80.71410859527293
 30
0.0
 10
53.11889375842167
 20
-80.71410859527293
 30
0.0
 10
53.11889375842167
 20
-38.79125839959039
 30
0.0
 10
53.11889375842167
 20
-38.79125839959039
 30
0.0
 10
53.11889375842167
 20
-37.68314343675979
 30
0.0
 10
52.23126490664703
 20
-36.79000243220873
 30
0.0
 10
51.12314994381643
 20
-36.79000243220873
 30
0.0
 10
51.12314994381643
 20
-36.79000243220873
 30
0.0
 10
-51.12332219859071
 20
-36.79000243220873
 30
0.0
 10
-51.12332219859071
 20
-36.79000243220873
 30
0.0
  0
SPLINE
  5
3F0C
330
3EFC
100
AcDbEntity
  8
0
 62
     7
100
AcDbSpline
210
0.0
220
0.0
230
1.0
 70
     8
 71
     3
 72
     8
 73
     4
 74
     0
 42
0.000000001
 43
0.0000000001
 40
0.0
 40
0.0
 40
0.0
 40
0.0
 40
1.0
 40
1.0
 40
1.0
 40
1.0
 10
-51.12332219859071
 20
-36.79000243220873
 30
0.0
 10
-83.71134166744027
 20
-36.79000243220873
 30
0.0
 10
-167.9298013903093
 20
-37.18687743210955
 30
0.0
 10
-200.5178208591588
 20
-37.35241427017576
 30
0.0
  0
SPLINE
  5
3F0D
330
3EFC
100
AcDbEntity
  8
0
 62
     7
100
AcDbSpline
210
0.0
220
0.0
230
1.0
 70
     8
 71
     3
 72
     8
 73
     4
 74
     0
 42
0.000000001
 43
0.0000000001
 40
0.0
 40
0.0
 40
0.0
 40
0.0
 40
1.0
 40
1.0
 40
1.0
 40
1.0
 10
200.5286729099372
 20
-37.35241427017576
 30
0.0
 10
167.9353135430856
 20
-37.18687743210955
 30
0.0
 10
83.71134166744022
 20
-36.79551458498508
 30
0.0
 10
51.12314994381643
 20
-36.79000243220873
 30
0.0
  0
ENDBLK
  5
3F0E
330
3EFC
100
AcDbEntity
  8
0
100
AcDbBlockEnd
  0
BLOCK
  5
4270
330
426F
100
AcDbEntity
  8
0
100
AcDbBlockBegin
  2
*D6
 70
     1
 10
0.0
 20
0.0
 30
0.0
  3
*D6
  1

  0
LINE
  5
4272
330
426F
100
AcDbEntity
  8
0
 62
     0
370
    -2
100
AcDbLine
 10
2545.456436710963
 20
4096.916658052858
 30
0.0
 11
2545.456436710963
 21
4913.757445361376
 31
0.0
  0
LINE
  5
4273
330
426F
100
AcDbEntity
  8
0
 62
     0
370
    -2
100
AcDbLine
 10
13367.27787953767
 20
4359.224987268912
 30
0.0
 11
13367.27787953767
 21
4913.757445361376
 31
0.0
  0
LINE
  5
4274
330
426F
100
AcDbEntity
  8
0
 62
     0
370
    -2
100
AcDbLine
 10
2553.456436710963
 20
4913.757445361376
 30
0.0
 11
13359.27787953767
 21
4913.757445361376
 31
0.0
  0
INSERT
  5
4275
330
426F
100
AcDbEntity
  8
0
 62
     0
370
    -2
100
AcDbBlockReference
  2
_DOT
 10
2545.456436710963
 20
4913.757445361376
 30
0.0
 41
8.0
 42
8.0
 43
8.0
 50
180.0
  0
INSERT
  5
4276
330
426F
100
AcDbEntity
  8
0
 62
     0
370
    -2
100
AcDbBlockReference
  2
_DOT
 10
13367.27787953767
 20
4913.757445361376
 30
0.0
 41
8.0
 42
8.0
 43
8.0
  0
MTEXT
  5
4277
330
426F
100
AcDbEntity
  8
0
 62
     0
100
AcDbMText
 10
7956.367158124315
 20
4939.761196768153
 30
0.0
 40
20.0
 41
0.0
 46
0.0
 71
     5
 72
     1
  1
\A1;10822
  7
ＭＳ ゴシック
 73
     1
 44
1.0
  0
POINT
  5
4278
330
426F
100
AcDbEntity
  8
Defpoints
 62
     0
100
AcDbPoint
 10
2545.456436710963
 20
4091.916658052858
 30
0.0
  0
POINT
  5
4279
330
426F
100
AcDbEntity
  8
Defpoints
 62
     0
100
AcDbPoint
 10
13367.27787953767
 20
4354.224987268912
 30
0.0
  0
POINT
  5
427A
330
426F
100
AcDbEntity
  8
Defpoints
 62
     0
100
AcDbPoint
 10
13367.27787953767
 20
4913.757445361376
 30
0.0
  0
ENDBLK
  5
4271
330
426F
100
AcDbEntity
  8
0
100
AcDbBlockEnd
  0
BLOCK
  5
427F
330
427E
100
AcDbEntity
  8
0
100
AcDbBlockBegin
  2
*D7
 70
     1
 10
0.0
 20
0.0
 30
0.0
  3
*D7
  1

  0
LINE
  5
4281
330
427E
100
AcDbEntity
  8
0
 62
     0
370
    -2
100
AcDbLine
 10
4329.737011085022
 20
3286.916658051182
 30
0.0
 11
4329.737011085022
 21
3327.596645024688
 31
0.0
  0
LINE
  5
4282
330
427E
100
AcDbEntity
  8
0
 62
     0
370
    -2
100
AcDbLine
 10
4411.737011085022
 20
3286.916658051182
 30
0.0
 11
4411.737011085022
 21
3327.596645024688
 31
0.0
  0
LINE
  5
4283
330
427E
100
AcDbEntity
  8
0
 62
     0
370
    -2
100
AcDbLine
 10
4337.737011085022
 20
3327.596645024688
 30
0.0
 11
4403.737011085022
 21
3327.596645024688
 31
0.0
  0
INSERT
  5
4284
330
427E
100
AcDbEntity
  8
0
 62
     0
370
    -2
100
AcDbBlockReference
  2
_DOT
 10
4329.737011085022
 20
3327.596645024688
 30
0.0
 41
8.0
 42
8.0
 43
8.0
 50
180.0
  0
INSERT
  5
4285
330
427E
100
AcDbEntity
  8
0
 62
     0
370
    -2
100
AcDbBlockReference
  2
_DOT
 10
4411.737011085022
 20
3327.596645024688
 30
0.0
 41
8.0
 42
8.0
 43
8.0
  0
MTEXT
  5
4286
330
427E
100
AcDbEntity
  8
0
 62
     0
100
AcDbMText
 10
4370.737011085022
 20
3353.600396431466
 30
0.0
 40
20.0
 41
0.0
 46
0.0
 71
     5
 72
     1
  1
\A1;82
  7
ＭＳ ゴシック
 73
     1
 44
1.0
  0
POINT
  5
4287
330
427E
100
AcDbEntity
  8
Defpoints
 62
     0
100
AcDbPoint
 10
4329.737011085022
 20
3281.916658051182
 30
0.0
  0
POINT
  5
4288
330
427E
100
AcDbEntity
  8
Defpoints
 62
     0
100
AcDbPoint
 10
4411.737011085022
 20
3281.916658051182
 30
0.0
  0
POINT
  5
4289
330
427E
100
AcDbEntity
  8
Defpoints
 62
     0
100
AcDbPoint
 10
4411.737011085022
 20
3327.596645024688
 30
0.0
  0
ENDBLK
  5
4280
330
427E
100
AcDbEntity
  8
0
100
AcDbBlockEnd
  0
BLOCK
  5
428E
330
428D
100
AcDbEntity
  8
0
100
AcDbBlockBegin
  2
*D8
 70
     1
 10
0.0
 20
0.0
 30
0.0
  3
*D8
  1

  0
LINE
  5
4290
330
428D
100
AcDbEntity
  8
0
 62
     0
370
    -2
100
AcDbLine
 10
4329.737011085022
 20
3286.916658051182
 30
0.0
 11
4329.737011085022
 21
3307.515447657025
 31
0.0
  0
LINE
  5
4291
330
428D
100
AcDbEntity
  8
0
 62
     0
370
    -2
100
AcDbLine
 10
4411.737011085022
 20
3286.916658051182
 30
0.0
 11
4411.737011085022
 21
3307.515447657025
 31
0.0
  0
LINE
  5
4292
330
428D
100
AcDbEntity
  8
0
 62
     0
370
    -2
100
AcDbLine
 10
4337.737011085022
 20
3307.515447657025
 30
0.0
 11
4403.737011085022
 21
3307.515447657025
 31
0.0
  0
INSERT
  5
4293
330
428D
100
AcDbEntity
  8
0
 62
     0
370
    -2
100
AcDbBlockReference
  2
_DOT
 10
4329.737011085022
 20
3307.515447657025
 30
0.0
 41
8.0
 42
8.0
 43
8.0
 50
180.0
  0
INSERT
  5
4294
330
428D
100
AcDbEntity
  8
0
 62
     0
370
    -2
100
AcDbBlockReference
  2
_DOT
 10
4411.737011085022
 20
3307.515447657025
 30
0.0
 41
8.0
 42
8.0
 43
8.0
  0
MTEXT
  5
4295
330
428D
100
AcDbEntity
  8
0
 62
     0
100
AcDbMText
 10
4370.737011085022
 20
3333.519199063803
 30
0.0
 40
20.0
 41
0.0
 46
0.0
 71
     5
 72
     1
  1
\A1;82
  7
ＭＳ ゴシック
 73
     1
 44
1.0
  0
POINT
  5
4296
330
428D
100
AcDbEntity
  8
Defpoints
 62
     0
100
AcDbPoint
 10
4329.737011085022
 20
3281.916658051182
 30
0.0
  0
POINT
  5
4297
330
428D
100
AcDbEntity
  8
Defpoints
 62
     0
100
AcDbPoint
 10
4411.737011085022
 20
3281.916658051182
 30
0.0
  0
POINT
  5
4298
330
428D
100
AcDbEntity
  8
Defpoints
 62
     0
100
AcDbPoint
 10
4411.737011085022
 20
3307.515447657025
 30
0.0
  0
ENDBLK
  5
428F
330
428D
100
AcDbEntity
  8
0
100
AcDbBlockEnd
  0
BLOCK
  5
429B
330
429A
100
AcDbEntity
  8
0
100
AcDbBlockBegin
  2
*D9
 70
     1
 10
0.0
 20
0.0
 30
0.0
  3
*D9
  1

  0
LINE
  5
429D
330
429A
100
AcDbEntity
  8
0
 62
     0
370
    -2
100
AcDbLine
 10
144.3165100943875
 20
1530.735009672066
 30
0.0
 11
144.3165100943875
 21
1641.377875037652
 31
0.0
  0
LINE
  5
429E
330
429A
100
AcDbEntity
  8
0
 62
     0
370
    -2
100
AcDbLine
 10
1226.316510094387
 20
1530.735009672066
 30
0.0
 11
1226.316510094387
 21
1641.377875037652
 31
0.0
  0
LINE
  5
429F
330
429A
100
AcDbEntity
  8
0
 62
     0
370
    -2
100
AcDbLine
 10
152.3165100943875
 20
1641.377875037652
 30
0.0
 11
1218.316510094387
 21
1641.377875037652
 31
0.0
  0
INSERT
  5
42A0
330
429A
100
AcDbEntity
  8
0
 62
     0
370
    -2
100
AcDbBlockReference
  2
_DOT
 10
144.3165100943875
 20
1641.377875037652
 30
0.0
 41
8.0
 42
8.0
 43
8.0
 50
180.0
  0
INSERT
  5
42A1
330
429A
100
AcDbEntity
  8
0
 62
     0
370
    -2
100
AcDbBlockReference
  2
_DOT
 10
1226.316510094387
 20
1641.377875037652
 30
0.0
 41
8.0
 42
8.0
 43
8.0
  0
MTEXT
  5
42A2
330
429A
100
AcDbEntity
  8
0
 62
     0
100
AcDbMText
 10
685.3165100943875
 20
1667.38162644443
 30
0.0
 40
20.0
 41
0.0
 46
0.0
 71
     5
 72
     1
  1
\A1;1082
  7
ＭＳ ゴシック
 73
     1
 44
1.0
  0
POINT
  5
42A3
330
429A
100
AcDbEntity
  8
Defpoints
 62
     0
100
AcDbPoint
 10
144.3165100943875
 20
1525.735009672066
 30
0.0
  0
POINT
  5
42A4
330
429A
100
AcDbEntity
  8
Defpoints
 62
     0
100
AcDbPoint
 10
1226.316510094387
 20
1525.735009672066
 30
0.0
  0
POINT
  5
42A5
330
429A
100
AcDbEntity
  8
Defpoints
 62
     0
100
AcDbPoint
 10
1226.316510094387
 20
1641.377875037652
 30
0.0
  0
ENDBLK
  5
429C
330
429A
100
AcDbEntity
  8
0
100
AcDbBlockEnd
  0
BLOCK
  5
42AA
330
42A9
100
AcDbEntity
  8
0
100
AcDbBlockBegin
  2
*D10
 70
     1
 10
0.0
 20
0.0
 30
0.0
  3
*D10
  1

  0
LINE
  5
42AC
330
42A9
100
AcDbEntity
  8
0
 62
     0
370
    -2
100
AcDbLine
 10
185.3165100944811
 20
1530.735009672066
 30
0.0
 11
185.3165100944811
 21
1581.184204049239
 31
0.0
  0
LINE
  5
42AD
330
42A9
100
AcDbEntity
  8
0
 62
     0
370
    -2
100
AcDbLine
 10
1185.316510094294
 20
1530.735009672066
 30
0.0
 11
1185.316510094294
 21
1581.184204049239
 31
0.0
  0
LINE
  5
42AE
330
42A9
100
AcDbEntity
  8
0
 62
     0
370
    -2
100
AcDbLine
 10
193.3165100944811
 20
1581.184204049239
 30
0.0
 11
1177.316510094294
 21
1581.184204049239
 31
0.0
  0
INSERT
  5
42AF
330
42A9
100
AcDbEntity
  8
0
 62
     0
370
    -2
100
AcDbBlockReference
  2
_DOT
 10
185.3165100944811
 20
1581.184204049239
 30
0.0
 41
8.0
 42
8.0
 43
8.0
 50
180.0
  0
INSERT
  5
42B0
330
42A9
100
AcDbEntity
  8
0
 62
     0
370
    -2
100
AcDbBlockReference
  2
_DOT
 10
1185.316510094294
 20
1581.184204049239
 30
0.0
 41
8.0
 42
8.0
 43
8.0
  0
MTEXT
  5
42B1
330
42A9
100
AcDbEntity
  8
0
 62
     0
100
AcDbMText
 10
685.3165100943875
 20
1607.187955456016
 30
0.0
 40
20.0
 41
0.0
 46
0.0
 71
     5
 72
     1
  1
\A1;1000
  7
ＭＳ ゴシック
 73
     1
 44
1.0
  0
POINT
  5
42B2
330
42A9
100
AcDbEntity
  8
Defpoints
 62
     0
100
AcDbPoint
 10
185.3165100944811
 20
1525.735009672066
 30
0.0
  0
POINT
  5
42B3
330
42A9
100
AcDbEntity
  8
Defpoints
 62
     0
100
AcDbPoint
 10
1185.316510094294
 20
1525.735009672066
 30
0.0
  0
POINT
  5
42B4
330
42A9
100
AcDbEntity
  8
Defpoints
 62
     0
100
AcDbPoint
 10
1185.316510094294
 20
1581.184204049239
 30
0.0
  0
ENDBLK
  5
42AB
330
42A9
100
AcDbEntity
  8
0
100
AcDbBlockEnd
  0
BLOCK
  5
42D6
330
42D5
100
AcDbEntity
  8
0
100
AcDbBlockBegin
  2
_None
 70
     0
 10
0.0
 20
0.0
 30
0.0
  3
_None
  1

  0
ENDBLK
  5
42D7
330
42D5
100
AcDbEntity
  8
0
100
AcDbBlockEnd
  0
BLOCK
  5
42DB
330
42DA
100
AcDbEntity
  8
0
  6
ByBlock
 62
     0
370
    -2
390
1D
100
AcDbBlockBegin
  2
VW_FILLEDARROW
 70
     0
 10
0.0
 20
0.0
 30
0.0
  3
VW_FILLEDARROW
  1
VW_FILLEDARROW
  0
SOLID
  5
42DC
330
42DA
100
AcDbEntity
  8
0
 62
     0
370
    -2
390
1D
100
AcDbTrace
 10
0.0
 20
0.0
 30
0.0
 11
-0.9999389648437499
 21
-0.2679328381102956
 31
0.0
 12
-0.9999389648437499
 22
0.2679328381102958
 32
0.0
 13
-0.9999389648437499
 23
0.2679328381102958
 33
0.0
  0
ENDBLK
  5
42DD
330
42DA
100
AcDbEntity
  8
0
390
1D
100
AcDbBlockEnd
  0
BLOCK
  5
4332
330
4331
100
AcDbEntity
  8
0
100
AcDbBlockBegin
  2
*D13
 70
     1
 10
0.0
 20
0.0
 30
0.0
  3
*D13
  1

  0
LINE
  5
4333
330
4331
100
AcDbEntity
  8
DIM
 62
     0
370
    -2
100
AcDbLine
 10
408.8492926397859
 20
2137.423719608204
 30
0.0
 11
408.8492926397859
 21
2377.731815639259
 31
0.0
  0
LINE
  5
4334
330
4331
100
AcDbEntity
  8
DIM
 62
     0
370
    -2
100
AcDbLine
 10
808.8492926397861
 20
2137.423719608204
 30
0.0
 11
808.8492926397861
 21
2377.731815639259
 31
0.0
  0
LINE
  5
4335
330
4331
100
AcDbEntity
  8
DIM
 62
     0
370
    -2
100
AcDbLine
 10
418.8492926397859
 20
2377.731815639259
 30
0.0
 11
798.8492926397861
 21
2377.731815639259
 31
0.0
  0
INSERT
  5
4336
330
4331
100
AcDbEntity
  8
DIM
 62
     0
370
    -2
100
AcDbBlockReference
  2
_DOT
 10
408.8492926397859
 20
2377.731815639259
 30
0.0
 41
10.0
 42
10.0
 43
10.0
 50
180.0
  0
INSERT
  5
4337
330
4331
100
AcDbEntity
  8
DIM
 62
     0
370
    -2
100
AcDbBlockReference
  2
_DOT
 10
808.8492926397861
 20
2377.731815639259
 30
0.0
 41
10.0
 42
10.0
 43
10.0
  0
MTEXT
  5
4338
330
4331
100
AcDbEntity
  8
DIM
 62
     0
100
AcDbMText
 10
608.849292639786
 20
2409.731815639259
 30
0.0
 40
24.0
 41
0.0
 46
0.0
 71
     5
 72
     1
  1
\A1;400
  7
ＭＳ ゴシック
 73
     1
 44
1.0
  0
POINT
  5
4339
330
4331
100
AcDbEntity
  8
Defpoints
 62
     0
100
AcDbPoint
 10
408.8492926397859
 20
2107.423719608204
 30
0.0
  0
POINT
  5
433A
330
4331
100
AcDbEntity
  8
Defpoints
 62
     0
100
AcDbPoint
 10
808.8492926397861
 20
2107.423719608204
 30
0.0
  0
POINT
  5
433B
330
4331
100
AcDbEntity
  8
Defpoints
 62
     0
100
AcDbPoint
 10
808.8492926397861
 20
2377.731815639259
 30
0.0
  0
ENDBLK
  5
433C
330
4331
100
AcDbEntity
  8
0
100
AcDbBlockEnd
  0
BLOCK
  5
433F
330
433E
100
AcDbEntity
  8
0
100
AcDbBlockBegin
  2
*D14
 70
     1
 10
0.0
 20
0.0
 30
0.0
  3
*D14
  1

  0
LINE
  5
4340
330
433E
100
AcDbEntity
  8
DIM
 62
     0
370
    -2
100
AcDbLine
 10
414.8492926397863
 20
2010.41001774679
 30
0.0
 11
414.8492926397863
 21
1765.709029049573
 31
0.0
  0
LINE
  5
4341
330
433E
100
AcDbEntity
  8
DIM
 62
     0
370
    -2
100
AcDbLine
 10
802.8492926397861
 20
2010.41001774679
 30
0.0
 11
802.8492926397861
 21
1765.709029049573
 31
0.0
  0
LINE
  5
4342
330
433E
100
AcDbEntity
  8
DIM
 62
     0
370
    -2
100
AcDbLine
 10
424.8492926397863
 20
1765.709029049573
 30
0.0
 11
792.8492926397861
 21
1765.709029049573
 31
0.0
  0
INSERT
  5
4343
330
433E
100
AcDbEntity
  8
DIM
 62
     0
370
    -2
100
AcDbBlockReference
  2
_DOT
 10
414.8492926397863
 20
1765.709029049573
 30
0.0
 41
10.0
 42
10.0
 43
10.0
 50
180.0
  0
INSERT
  5
4344
330
433E
100
AcDbEntity
  8
DIM
 62
     0
370
    -2
100
AcDbBlockReference
  2
_DOT
 10
802.8492926397861
 20
1765.709029049573
 30
0.0
 41
10.0
 42
10.0
 43
10.0
  0
MTEXT
  5
4345
330
433E
100
AcDbEntity
  8
DIM
 62
     0
100
AcDbMText
 10
608.8492926397862
 20
1797.713530737706
 30
0.0
 40
24.0
 41
0.0
 46
0.0
 71
     5
 72
     1
  1
\A1;388
  7
ＭＳ ゴシック
 73
     1
 44
1.0
  0
POINT
  5
4346
330
433E
100
AcDbEntity
  8
Defpoints
 62
     0
100
AcDbPoint
 10
414.8492926397863
 20
2040.41001774679
 30
0.0
  0
POINT
  5
4347
330
433E
100
AcDbEntity
  8
Defpoints
 62
     0
100
AcDbPoint
 10
802.8492926397861
 20
2040.41001774679
 30
0.0
  0
POINT
  5
4348
330
433E
100
AcDbEntity
  8
Defpoints
 62
     0
100
AcDbPoint
 10
802.8492926397861
 20
1765.709029049573
 30
0.0
  0
ENDBLK
  5
4349
330
433E
100
AcDbEntity
  8
0
100
AcDbBlockEnd
  0
BLOCK
  5
434D
330
434C
100
AcDbEntity
  8
0
100
AcDbBlockBegin
  2
*D15
 70
     1
 10
0.0
 20
0.0
 30
0.0
  3
*D15
  1

  0
LINE
  5
434E
330
434C
100
AcDbEntity
  8
DIM
 62
     0
370
    -2
100
AcDbLine
 10
574.2319605092689
 20
863.4236438260428
 30
0.0
 11
574.2319605092689
 21
709.6395439750593
 31
0.0
  0
LINE
  5
434F
330
434C
100
AcDbEntity
  8
DIM
 62
     0
370
    -2
100
AcDbLine
 10
674.2319605092689
 20
863.4236438260428
 30
0.0
 11
674.2319605092689
 21
709.6395439750593
 31
0.0
  0
LINE
  5
4350
330
434C
100
AcDbEntity
  8
DIM
 62
     0
370
    -2
100
AcDbLine
 10
584.2319605092689
 20
709.6395439750593
 30
0.0
 11
664.2319605092689
 21
709.6395439750593
 31
0.0
  0
INSERT
  5
4351
330
434C
100
AcDbEntity
  8
DIM
 62
     0
370
    -2
100
AcDbBlockReference
  2
_DOT
 10
574.2319605092689
 20
709.6395439750593
 30
0.0
 41
10.0
 42
10.0
 43
10.0
 50
180.0
  0
INSERT
  5
4352
330
434C
100
AcDbEntity
  8
DIM
 62
     0
370
    -2
100
AcDbBlockReference
  2
_DOT
 10
674.2319605092689
 20
709.6395439750593
 30
0.0
 41
10.0
 42
10.0
 43
10.0
  0
MTEXT
  5
4353
330
434C
100
AcDbEntity
  8
DIM
 62
     0
100
AcDbMText
 10
624.2319605092689
 20
741.6440456631923
 30
0.0
 40
24.0
 41
0.0
 46
0.0
 71
     5
 72
     1
  1
\A1;100
  7
ＭＳ ゴシック
 73
     1
 44
1.0
  0
POINT
  5
4354
330
434C
100
AcDbEntity
  8
Defpoints
 62
     0
100
AcDbPoint
 10
574.2319605092689
 20
893.4236438260428
 30
0.0
  0
POINT
  5
4355
330
434C
100
AcDbEntity
  8
Defpoints
 62
     0
100
AcDbPoint
 10
674.2319605092689
 20
893.4236438260428
 30
0.0
  0
POINT
  5
4356
330
434C
100
AcDbEntity
  8
Defpoints
 62
     0
100
AcDbPoint
 10
674.2319605092689
 20
709.6395439750593
 30
0.0
  0
ENDBLK
  5
4357
330
434C
100
AcDbEntity
  8
0
100
AcDbBlockEnd
  0
BLOCK
  5
435C
330
435B
100
AcDbEntity
  8
0
100
AcDbBlockBegin
  2
*D16
 70
     1
 10
0.0
 20
0.0
 30
0.0
  3
*D16
  1

  0
LINE
  5
435D
330
435B
100
AcDbEntity
  8
DIM
 62
     0
370
    -2
100
AcDbLine
 10
1500.26913432836
 20
893.4236438260436
 30
0.0
 11
1718.354221388753
 21
893.4236438260436
 31
0.0
  0
LINE
  5
435E
330
435B
100
AcDbEntity
  8
DIM
 62
     0
370
    -2
100
AcDbLine
 10
1650.26913432836
 20
1093.423643826044
 30
0.0
 11
1718.354221388753
 21
1093.423643826044
 31
0.0
  0
LINE
  5
435F
330
435B
100
AcDbEntity
  8
DIM
 62
     0
370
    -2
100
AcDbLine
 10
1718.354221388753
 20
903.4236438260436
 30
0.0
 11
1718.354221388753
 21
1083.423643826044
 31
0.0
  0
INSERT
  5
4360
330
435B
100
AcDbEntity
  8
DIM
 62
     0
370
    -2
100
AcDbBlockReference
  2
_DOT
 10
1718.354221388753
 20
893.4236438260436
 30
0.0
 41
10.0
 42
10.0
 43
10.0
 50
270.0
  0
INSERT
  5
4361
330
435B
100
AcDbEntity
  8
DIM
 62
     0
370
    -2
100
AcDbBlockReference
  2
_DOT
 10
1718.354221388753
 20
1093.423643826044
 30
0.0
 41
10.0
 42
10.0
 43
10.0
 50
90.0
  0
MTEXT
  5
4362
330
435B
100
AcDbEntity
  8
DIM
 62
     0
100
AcDbMText
 10
1686.34971970062
 20
993.4236438260436
 30
0.0
 40
24.0
 41
0.0
 46
0.0
 71
     5
 72
     1
  1
\A1;200
  7
ＭＳ ゴシック
 11
0.0
 21
1.0
 31
0.0
 73
     1
 44
1.0
  0
POINT
  5
4363
330
435B
100
AcDbEntity
  8
Defpoints
 62
     0
100
AcDbPoint
 10
1470.26913432836
 20
893.4236438260436
 30
0.0
  0
POINT
  5
4364
330
435B
100
AcDbEntity
  8
Defpoints
 62
     0
100
AcDbPoint
 10
1620.26913432836
 20
1093.423643826044
 30
0.0
  0
POINT
  5
4365
330
435B
100
AcDbEntity
  8
Defpoints
 62
     0
100
AcDbPoint
 10
1718.354221388753
 20
1093.423643826044
 30
0.0
  0
ENDBLK
  5
4366
330
435B
100
AcDbEntity
  8
0
100
AcDbBlockEnd
  0
BLOCK
  5
436B
330
436A
100
AcDbEntity
  8
0
100
AcDbBlockBegin
  2
*D17
 70
     1
 10
0.0
 20
0.0
 30
0.0
  3
*D17
  1

  0
LINE
  5
436C
330
436A
100
AcDbEntity
  8
DIM
 62
     0
370
    -2
100
AcDbLine
 10
1420.269134328358
 20
741.912684452371
 30
0.0
 11
1420.269134328358
 21
709.6395439750594
 31
0.0
  0
LINE
  5
436D
330
436A
100
AcDbEntity
  8
DIM
 62
     0
370
    -2
100
AcDbLine
 10
1620.26913432836
 20
1063.423643826044
 30
0.0
 11
1620.26913432836
 21
709.6395439750594
 31
0.0
  0
LINE
  5
436E
330
436A
100
AcDbEntity
  8
DIM
 62
     0
370
    -2
100
AcDbLine
 10
1430.269134328358
 20
709.6395439750594
 30
0.0
 11
1610.26913432836
 21
709.6395439750594
 31
0.0
  0
INSERT
  5
436F
330
436A
100
AcDbEntity
  8
DIM
 62
     0
370
    -2
100
AcDbBlockReference
  2
_DOT
 10
1420.269134328358
 20
709.6395439750594
 30
0.0
 41
10.0
 42
10.0
 43
10.0
 50
180.0
  0
INSERT
  5
4370
330
436A
100
AcDbEntity
  8
DIM
 62
     0
370
    -2
100
AcDbBlockReference
  2
_DOT
 10
1620.26913432836
 20
709.6395439750594
 30
0.0
 41
10.0
 42
10.0
 43
10.0
  0
MTEXT
  5
4371
330
436A
100
AcDbEntity
  8
DIM
 62
     0
100
AcDbMText
 10
1520.269134328359
 20
741.6440456631924
 30
0.0
 40
24.0
 41
0.0
 46
0.0
 71
     5
 72
     1
  1
\A1;200
  7
ＭＳ ゴシック
 73
     1
 44
1.0
  0
POINT
  5
4372
330
436A
100
AcDbEntity
  8
Defpoints
 62
     0
100
AcDbPoint
 10
1420.269134328358
 20
771.912684452371
 30
0.0
  0
POINT
  5
4373
330
436A
100
AcDbEntity
  8
Defpoints
 62
     0
100
AcDbPoint
 10
1620.26913432836
 20
1093.423643826044
 30
0.0
  0
POINT
  5
4374
330
436A
100
AcDbEntity
  8
Defpoints
 62
     0
100
AcDbPoint
 10
1620.26913432836
 20
709.6395439750594
 30
0.0
  0
ENDBLK
  5
4375
330
436A
100
AcDbEntity
  8
0
100
AcDbBlockEnd
  0
BLOCK
  5
437A
330
4379
100
AcDbEntity
  8
0
100
AcDbBlockBegin
  2
*D18
 70
     1
 10
0.0
 20
0.0
 30
0.0
  3
*D18
  1

  0
LINE
  5
437B
330
4379
100
AcDbEntity
  8
DIM
 62
     0
370
    -2
100
AcDbLine
 10
1423.749244307917
 20
1093.423643826043
 30
0.0
 11
1423.749244307917
 21
1283.504424118652
 31
0.0
  0
LINE
  5
437C
330
4379
100
AcDbEntity
  8
DIM
 62
     0
370
    -2
100
AcDbLine
 10
1423.749244307917
 20
1083.423643826043
 30
0.0
 11
1423.749244307917
 21
993.4236374097978
 31
0.0
  0
LINE
  5
437D
330
4379
100
AcDbEntity
  8
DIM
 62
     0
370
    -2
100
AcDbLine
 10
1423.749244307917
 20
1083.423643826043
 30
0.0
 11
1423.749244307917
 21
1073.423643826043
 31
0.0
  0
INSERT
  5
437E
330
4379
100
AcDbEntity
  8
DIM
 62
     0
370
    -2
100
AcDbBlockReference
  2
_DOT
 10
1423.749244307917
 20
1093.423643826043
 30
0.0
 41
10.0
 42
10.0
 43
10.0
 50
90.0
  0
INSERT
  5
437F
330
4379
100
AcDbEntity
  8
DIM
 62
     0
370
    -2
100
AcDbBlockReference
  2
_DOT
 10
1423.749244307917
 20
983.4236374097978
 30
0.0
 41
10.0
 42
10.0
 43
10.0
 50
270.0
  0
MTEXT
  5
4380
330
4379
100
AcDbEntity
  8
DIM
 62
     0
100
AcDbMText
 10
1389.739990837866
 20
1198.464033972348
 30
0.0
 40
24.0
 41
0.0
 46
0.0
 71
     5
 72
     1
  1
\A1;110(深さ)
  7
ＭＳ ゴシック
 11
0.0
 21
1.0
 31
0.0
 73
     1
 44
1.0
  0
POINT
  5
4381
330
4379
100
AcDbEntity
  8
Defpoints
 62
     0
100
AcDbPoint
 10
1423.749244307917
 20
1093.423643826043
 30
0.0
  0
POINT
  5
4382
330
4379
100
AcDbEntity
  8
Defpoints
 62
     0
100
AcDbPoint
 10
1423.798015842832
 20
983.4236374097978
 30
0.0
  0
POINT
  5
4383
330
4379
100
AcDbEntity
  8
Defpoints
 62
     0
100
AcDbPoint
 10
1423.749244307917
 20
983.4236374097978
 30
0.0
  0
ENDBLK
  5
4384
330
4379
100
AcDbEntity
  8
0
100
AcDbBlockEnd
  0
BLOCK
  5
43CB
330
43CA
100
AcDbEntity
  8
0
100
AcDbBlockBegin
  2
*D19
 70
     1
 10
0.0
 20
0.0
 30
0.0
  3
*D19
  1

  0
LINE
  5
43CC
330
43CA
100
AcDbEntity
  8
DIM
 62
     0
370
    -2
100
AcDbLine
 10
1190.26913432836
 20
1093.423643826044
 30
0.0
 11
1006.198292807846
 21
1093.423643826044
 31
0.0
  0
LINE
  5
43CD
330
43CA
100
AcDbEntity
  8
DIM
 62
     0
370
    -2
100
AcDbLine
 10
1370.269134328359
 20
808.1725857632316
 30
0.0
 11
1006.198292807846
 21
808.1725857632316
 31
0.0
  0
LINE
  5
43CE
330
43CA
100
AcDbEntity
  8
DIM
 62
     0
370
    -2
100
AcDbLine
 10
1006.198292807846
 20
1083.423643826044
 30
0.0
 11
1006.198292807846
 21
818.1725857632316
 31
0.0
  0
INSERT
  5
43CF
330
43CA
100
AcDbEntity
  8
DIM
 62
     0
370
    -2
100
AcDbBlockReference
  2
_DOT
 10
1006.198292807846
 20
1093.423643826044
 30
0.0
 41
10.0
 42
10.0
 43
10.0
 50
90.0
  0
INSERT
  5
43D0
330
43CA
100
AcDbEntity
  8
DIM
 62
     0
370
    -2
100
AcDbBlockReference
  2
_DOT
 10
1006.198292807846
 20
808.1725857632316
 30
0.0
 41
10.0
 42
10.0
 43
10.0
 50
270.0
  0
MTEXT
  5
43D1
330
43CA
100
AcDbEntity
  8
DIM
 62
     0
100
AcDbMText
 10
974.1937911197131
 20
950.7981147946379
 30
0.0
 40
24.0
 41
0.0
 46
0.0
 71
     5
 72
     1
  1
\A1;285
  7
ＭＳ ゴシック
 11
0.0
 21
1.0
 31
0.0
 73
     1
 44
1.0
  0
POINT
  5
43D2
330
43CA
100
AcDbEntity
  8
Defpoints
 62
     0
100
AcDbPoint
 10
1220.26913432836
 20
1093.423643826044
 30
0.0
  0
POINT
  5
43D3
330
43CA
100
AcDbEntity
  8
Defpoints
 62
     0
100
AcDbPoint
 10
1400.269134328359
 20
808.1725857632316
 30
0.0
  0
POINT
  5
43D4
330
43CA
100
AcDbEntity
  8
Defpoints
 62
     0
100
AcDbPoint
 10
1006.198292807846
 20
808.1725857632316
 30
0.0
  0
ENDBLK
  5
43D5
330
43CA
100
AcDbEntity
  8
0
100
AcDbBlockEnd
  0
BLOCK
  5
43DC
330
43DB
100
AcDbEntity
  8
0
100
AcDbBlockBegin
  2
*D20
 70
     1
 10
0.0
 20
0.0
 30
0.0
  3
*D20
  1

  0
LINE
  5
43DD
330
43DB
100
AcDbEntity
  8
DIM
 62
     0
370
    -2
100
AcDbLine
 10
1154.056194436745
 20
851.6905896263017
 30
0.0
 11
1114.108047238607
 21
851.6905896263017
 31
0.0
  0
LINE
  5
43DE
330
43DB
100
AcDbEntity
  8
DIM
 62
     0
370
    -2
100
AcDbLine
 10
1154.056194436745
 20
893.4236438260436
 30
0.0
 11
1114.108047238607
 21
893.4236438260436
 31
0.0
  0
LINE
  5
43DF
330
43DB
100
AcDbEntity
  8
DIM
 62
     0
370
    -2
100
AcDbLine
 10
1114.108047238607
 20
861.6905896263017
 30
0.0
 11
1114.108047238607
 21
883.4236438260436
 31
0.0
  0
INSERT
  5
43E0
330
43DB
100
AcDbEntity
  8
DIM
 62
     0
370
    -2
100
AcDbBlockReference
  2
_DOT
 10
1114.108047238607
 20
851.6905896263017
 30
0.0
 41
10.0
 42
10.0
 43
10.0
 50
270.0
  0
INSERT
  5
43E1
330
43DB
100
AcDbEntity
  8
DIM
 62
     0
370
    -2
100
AcDbBlockReference
  2
_DOT
 10
1114.108047238607
 20
893.4236438260436
 30
0.0
 41
10.0
 42
10.0
 43
10.0
 50
90.0
  0
MTEXT
  5
43E2
330
43DB
100
AcDbEntity
  8
DIM
 62
     0
100
AcDbMText
 10
1082.108047238607
 20
872.5571167261727
 30
0.0
 40
24.0
 41
0.0
 46
0.0
 71
     5
 72
     1
  1
\A1;　
  7
ＭＳ ゴシック
 11
0.0
 21
1.0
 31
0.0
 73
     1
 44
1.0
  0
POINT
  5
43E3
330
43DB
100
AcDbEntity
  8
Defpoints
 62
     0
100
AcDbPoint
 10
1184.056194436745
 20
851.6905896263017
 30
0.0
  0
POINT
  5
43E4
330
43DB
100
AcDbEntity
  8
Defpoints
 62
     0
100
AcDbPoint
 10
1184.056194436745
 20
893.4236438260436
 30
0.0
  0
POINT
  5
43E5
330
43DB
100
AcDbEntity
  8
Defpoints
 62
     0
100
AcDbPoint
 10
1114.108047238607
 20
893.4236438260436
 30
0.0
  0
ENDBLK
  5
43E6
330
43DB
100
AcDbEntity
  8
0
100
AcDbBlockEnd
  0
BLOCK
  5
451D
330
451C
100
AcDbEntity
  8
0
100
AcDbBlockBegin
  2
*D21
 70
     1
 10
0.0
 20
0.0
 30
0.0
  3
*D21
  1

  0
LINE
  5
451F
330
451C
100
AcDbEntity
  8
DIM
 62
     0
370
    -2
100
AcDbLine
 10
194.3304168876267
 20
1752.183509582138
 30
0.0
 11
194.3304168876267
 21
2017.491605613193
 31
0.0
  0
LINE
  5
4520
330
451C
100
AcDbEntity
  8
DIM
 62
     0
370
    -2
100
AcDbLine
 10
594.3304168876272
 20
1752.183509582138
 30
0.0
 11
594.3304168876272
 21
2017.491605613193
 31
0.0
  0
LINE
  5
4521
330
451C
100
AcDbEntity
  8
DIM
 62
     0
370
    -2
100
AcDbLine
 10
202.3304168876267
 20
2017.491605613193
 30
0.0
 11
586.3304168876272
 21
2017.491605613193
 31
0.0
  0
INSERT
  5
4522
330
451C
100
AcDbEntity
  8
DIM
 62
     0
370
    -2
100
AcDbBlockReference
  2
_DOT
 10
194.3304168876267
 20
2017.491605613193
 30
0.0
 41
8.0
 42
8.0
 43
8.0
 50
180.0
  0
INSERT
  5
4523
330
451C
100
AcDbEntity
  8
DIM
 62
     0
370
    -2
100
AcDbBlockReference
  2
_DOT
 10
594.3304168876272
 20
2017.491605613193
 30
0.0
 41
8.0
 42
8.0
 43
8.0
  0
MTEXT
  5
4524
330
451C
100
AcDbEntity
  8
DIM
 62
     0
100
AcDbMText
 10
394.3304168876269
 20
2043.491605613193
 30
0.0
 40
20.0
 41
0.0
 46
0.0
 71
     5
 72
     1
  1
\A1;400
  7
ＭＳ ゴシック
 73
     1
 44
1.0
  0
POINT
  5
4525
330
451C
100
AcDbEntity
  8
Defpoints
 62
     0
100
AcDbPoint
 10
194.3304168876267
 20
1747.183509582138
 30
0.0
  0
POINT
  5
4526
330
451C
100
AcDbEntity
  8
Defpoints
 62
     0
100
AcDbPoint
 10
594.3304168876272
 20
1747.183509582138
 30
0.0
  0
POINT
  5
4527
330
451C
100
AcDbEntity
  8
Defpoints
 62
     0
100
AcDbPoint
 10
594.3304168876272
 20
2017.491605613193
 30
0.0
  0
ENDBLK
  5
451E
330
451C
100
AcDbEntity
  8
0
100
AcDbBlockEnd
  0
BLOCK
  5
4529
330
4528
100
AcDbEntity
  8
0
100
AcDbBlockBegin
  2
*D22
 70
     1
 10
0.0
 20
0.0
 30
0.0
  3
*D22
  1

  0
LINE
  5
452B
330
4528
100
AcDbEntity
  8
DIM
 62
     0
370
    -2
100
AcDbLine
 10
200.3304168876272
 20
1675.169807720724
 30
0.0
 11
200.3304168876272
 21
1405.468819023507
 31
0.0
  0
LINE
  5
452C
330
4528
100
AcDbEntity
  8
DIM
 62
     0
370
    -2
100
AcDbLine
 10
588.3304168876272
 20
1675.169807720724
 30
0.0
 11
588.3304168876272
 21
1405.468819023507
 31
0.0
  0
LINE
  5
452D
330
4528
100
AcDbEntity
  8
DIM
 62
     0
370
    -2
100
AcDbLine
 10
208.3304168876272
 20
1405.468819023507
 30
0.0
 11
580.3304168876272
 21
1405.468819023507
 31
0.0
  0
INSERT
  5
452E
330
4528
100
AcDbEntity
  8
DIM
 62
     0
370
    -2
100
AcDbBlockReference
  2
_DOT
 10
200.3304168876272
 20
1405.468819023507
 30
0.0
 41
8.0
 42
8.0
 43
8.0
 50
180.0
  0
INSERT
  5
452F
330
4528
100
AcDbEntity
  8
DIM
 62
     0
370
    -2
100
AcDbBlockReference
  2
_DOT
 10
588.3304168876272
 20
1405.468819023507
 30
0.0
 41
8.0
 42
8.0
 43
8.0
  0
MTEXT
  5
4530
330
4528
100
AcDbEntity
  8
DIM
 62
     0
100
AcDbMText
 10
394.3304168876272
 20
1431.472570430285
 30
0.0
 40
20.0
 41
0.0
 46
0.0
 71
     5
 72
     1
  1
\A1;388
  7
ＭＳ ゴシック
 73
     1
 44
1.0
  0
POINT
  5
4531
330
4528
100
AcDbEntity
  8
Defpoints
 62
     0
100
AcDbPoint
 10
200.3304168876272
 20
1680.169807720724
 30
0.0
  0
POINT
  5
4532
330
4528
100
AcDbEntity
  8
Defpoints
 62
     0
100
AcDbPoint
 10
588.3304168876272
 20
1680.169807720724
 30
0.0
  0
POINT
  5
4533
330
4528
100
AcDbEntity
  8
Defpoints
 62
     0
100
AcDbPoint
 10
588.3304168876272
 20
1405.468819023507
 30
0.0
  0
ENDBLK
  5
452A
330
4528
100
AcDbEntity
  8
0
100
AcDbBlockEnd
  0
BLOCK
  5
4535
330
4534
100
AcDbEntity
  8
0
100
AcDbBlockBegin
  2
*D23
 70
     1
 10
0.0
 20
0.0
 30
0.0
  3
*D23
  1

  0
LINE
  5
4537
330
4534
100
AcDbEntity
  8
DIM
 62
     0
370
    -2
100
AcDbLine
 10
362.5492386258416
 20
771.3081721319302
 30
0.0
 11
362.5492386258416
 21
637.2571264806877
 31
0.0
  0
LINE
  5
4538
330
4534
100
AcDbEntity
  8
DIM
 62
     0
370
    -2
100
AcDbLine
 10
462.5492386258416
 20
771.3081721319302
 30
0.0
 11
462.5492386258416
 21
637.2571264806877
 31
0.0
  0
LINE
  5
4539
330
4534
100
AcDbEntity
  8
DIM
 62
     0
370
    -2
100
AcDbLine
 10
370.5492386258416
 20
637.2571264806877
 30
0.0
 11
454.5492386258416
 21
637.2571264806877
 31
0.0
  0
INSERT
  5
453A
330
4534
100
AcDbEntity
  8
DIM
 62
     0
370
    -2
100
AcDbBlockReference
  2
_DOT
 10
362.5492386258416
 20
637.2571264806877
 30
0.0
 41
8.0
 42
8.0
 43
8.0
 50
180.0
  0
INSERT
  5
453B
330
4534
100
AcDbEntity
  8
DIM
 62
     0
370
    -2
100
AcDbBlockReference
  2
_DOT
 10
462.5492386258416
 20
637.2571264806877
 30
0.0
 41
8.0
 42
8.0
 43
8.0
  0
MTEXT
  5
453C
330
4534
100
AcDbEntity
  8
DIM
 62
     0
100
AcDbMText
 10
412.5492386258416
 20
663.2608778874652
 30
0.0
 40
20.0
 41
0.0
 46
0.0
 71
     5
 72
     1
  1
\A1;100
  7
ＭＳ ゴシック
 73
     1
 44
1.0
  0
POINT
  5
453D
330
4534
100
AcDbEntity
  8
Defpoints
 62
     0
100
AcDbPoint
 10
362.5492386258416
 20
776.3081721319302
 30
0.0
  0
POINT
  5
453E
330
4534
100
AcDbEntity
  8
Defpoints
 62
     0
100
AcDbPoint
 10
462.5492386258416
 20
776.3081721319302
 30
0.0
  0
POINT
  5
453F
330
4534
100
AcDbEntity
  8
Defpoints
 62
     0
100
AcDbPoint
 10
462.5492386258416
 20
637.2571264806877
 30
0.0
  0
ENDBLK
  5
4536
330
4534
100
AcDbEntity
  8
0
100
AcDbBlockEnd
  0
BLOCK
  5
4541
330
4540
100
AcDbEntity
  8
0
100
AcDbBlockBegin
  2
*D24
 70
     1
 10
0.0
 20
0.0
 30
0.0
  3
*D24
  1

  0
LINE
  5
4543
330
4540
100
AcDbEntity
  8
DIM
 62
     0
370
    -2
100
AcDbLine
 10
1289.441433610126
 20
821.0412263316719
 30
0.0
 11
1506.671499505326
 21
821.0412263316719
 31
0.0
  0
LINE
  5
4544
330
4540
100
AcDbEntity
  8
DIM
 62
     0
370
    -2
100
AcDbLine
 10
1418.586412444933
 20
1021.041226331673
 30
0.0
 11
1506.671499505326
 21
1021.041226331673
 31
0.0
  0
LINE
  5
4545
330
4540
100
AcDbEntity
  8
DIM
 62
     0
370
    -2
100
AcDbLine
 10
1506.671499505326
 20
829.0412263316719
 30
0.0
 11
1506.671499505326
 21
1013.041226331673
 31
0.0
  0
INSERT
  5
4546
330
4540
100
AcDbEntity
  8
DIM
 62
     0
370
    -2
100
AcDbBlockReference
  2
_DOT
 10
1506.671499505326
 20
821.0412263316719
 30
0.0
 41
8.0
 42
8.0
 43
8.0
 50
270.0
  0
INSERT
  5
4547
330
4540
100
AcDbEntity
  8
DIM
 62
     0
370
    -2
100
AcDbBlockReference
  2
_DOT
 10
1506.671499505326
 20
1021.041226331673
 30
0.0
 41
8.0
 42
8.0
 43
8.0
 50
90.0
  0
MTEXT
  5
4548
330
4540
100
AcDbEntity
  8
DIM
 62
     0
100
AcDbMText
 10
1480.667748098549
 20
921.0412263316724
 30
0.0
 40
20.0
 41
0.0
 46
0.0
 71
     5
 72
     1
  1
\A1;200
  7
ＭＳ ゴシック
 11
0.0
 21
1.0
 31
0.0
 73
     1
 44
1.0
  0
POINT
  5
4549
330
4540
100
AcDbEntity
  8
Defpoints
 62
     0
100
AcDbPoint
 10
1284.441433610126
 20
821.0412263316719
 30
0.0
  0
POINT
  5
454A
330
4540
100
AcDbEntity
  8
Defpoints
 62
     0
100
AcDbPoint
 10
1413.586412444933
 20
1021.041226331673
 30
0.0
  0
POINT
  5
454B
330
4540
100
AcDbEntity
  8
Defpoints
 62
     0
100
AcDbPoint
 10
1506.671499505326
 20
1021.041226331673
 30
0.0
  0
ENDBLK
  5
4542
330
4540
100
AcDbEntity
  8
0
100
AcDbBlockEnd
  0
BLOCK
  5
454D
330
454C
100
AcDbEntity
  8
0
100
AcDbBlockBegin
  2
*D25
 70
     1
 10
0.0
 20
0.0
 30
0.0
  3
*D25
  1

  0
LINE
  5
454F
330
454C
100
AcDbEntity
  8
DIM
 62
     0
370
    -2
100
AcDbLine
 10
1208.586412444931
 20
722.2056952367996
 30
0.0
 11
1208.586412444931
 21
637.2571264806878
 31
0.0
  0
LINE
  5
4550
330
454C
100
AcDbEntity
  8
DIM
 62
     0
370
    -2
100
AcDbLine
 10
1408.586412444933
 20
979.6946461875284
 30
0.0
 11
1408.586412444933
 21
637.2571264806878
 31
0.0
  0
LINE
  5
4551
330
454C
100
AcDbEntity
  8
DIM
 62
     0
370
    -2
100
AcDbLine
 10
1216.586412444931
 20
637.2571264806878
 30
0.0
 11
1400.586412444933
 21
637.2571264806878
 31
0.0
  0
INSERT
  5
4552
330
454C
100
AcDbEntity
  8
DIM
 62
     0
370
    -2
100
AcDbBlockReference
  2
_DOT
 10
1208.586412444931
 20
637.2571264806878
 30
0.0
 41
8.0
 42
8.0
 43
8.0
 50
180.0
  0
INSERT
  5
4553
330
454C
100
AcDbEntity
  8
DIM
 62
     0
370
    -2
100
AcDbBlockReference
  2
_DOT
 10
1408.586412444933
 20
637.2571264806878
 30
0.0
 41
8.0
 42
8.0
 43
8.0
  0
MTEXT
  5
4554
330
454C
100
AcDbEntity
  8
DIM
 62
     0
100
AcDbMText
 10
1308.586412444932
 20
663.2608778874653
 30
0.0
 40
20.0
 41
0.0
 46
0.0
 71
     5
 72
     1
  1
\A1;200
  7
ＭＳ ゴシック
 73
     1
 44
1.0
  0
POINT
  5
4555
330
454C
100
AcDbEntity
  8
Defpoints
 62
     0
100
AcDbPoint
 10
1208.586412444931
 20
727.2056952367996
 30
0.0
  0
POINT
  5
4556
330
454C
100
AcDbEntity
  8
Defpoints
 62
     0
100
AcDbPoint
 10
1408.586412444933
 20
984.6946461875284
 30
0.0
  0
POINT
  5
4557
330
454C
100
AcDbEntity
  8
Defpoints
 62
     0
100
AcDbPoint
 10
1408.586412444933
 20
637.2571264806878
 30
0.0
  0
ENDBLK
  5
454E
330
454C
100
AcDbEntity
  8
0
100
AcDbBlockEnd
  0
BLOCK
  5
4559
330
4558
100
AcDbEntity
  8
0
100
AcDbBlockBegin
  2
*D26
 70
     1
 10
0.0
 20
0.0
 30
0.0
  3
*D26
  1

  0
LINE
  5
455B
330
4558
100
AcDbEntity
  8
DIM
 62
     0
370
    -2
100
AcDbLine
 10
1212.066522424489
 20
1021.041226331671
 30
0.0
 11
1212.066522424489
 21
1196.281941599897
 31
0.0
  0
LINE
  5
455C
330
4558
100
AcDbEntity
  8
DIM
 62
     0
370
    -2
100
AcDbLine
 10
1212.066522424489
 20
1013.041226331671
 30
0.0
 11
1212.066522424489
 21
919.0412199154263
 31
0.0
  0
LINE
  5
455D
330
4558
100
AcDbEntity
  8
DIM
 62
     0
370
    -2
100
AcDbLine
 10
1212.066522424489
 20
1013.041226331671
 30
0.0
 11
1212.066522424489
 21
1005.041226331671
 31
0.0
  0
INSERT
  5
455E
330
4558
100
AcDbEntity
  8
DIM
 62
     0
370
    -2
100
AcDbBlockReference
  2
_DOT
 10
1212.066522424489
 20
1021.041226331671
 30
0.0
 41
8.0
 42
8.0
 43
8.0
 50
90.0
  0
INSERT
  5
455F
330
4558
100
AcDbEntity
  8
DIM
 62
     0
370
    -2
100
AcDbBlockReference
  2
_DOT
 10
1212.066522424489
 20
911.0412199154263
 30
0.0
 41
8.0
 42
8.0
 43
8.0
 50
270.0
  0
MTEXT
  5
4560
330
4558
100
AcDbEntity
  8
DIM
 62
     0
100
AcDbMText
 10
1184.39214453278
 20
1126.081616477976
 30
0.0
 40
20.0
 41
0.0
 46
0.0
 71
     5
 72
     1
  1
\A1;110(深さ)
  7
ＭＳ ゴシック
 11
0.0
 21
1.0
 31
0.0
 73
     1
 44
1.0
  0
POINT
  5
4561
330
4558
100
AcDbEntity
  8
Defpoints
 62
     0
100
AcDbPoint
 10
1212.066522424489
 20
1021.041226331671
 30
0.0
  0
POINT
  5
4562
330
4558
100
AcDbEntity
  8
Defpoints
 62
     0
100
AcDbPoint
 10
1212.115293959405
 20
911.0412199154263
 30
0.0
  0
POINT
  5
4563
330
4558
100
AcDbEntity
  8
Defpoints
 62
     0
100
AcDbPoint
 10
1212.066522424489
 20
911.0412199154263
 30
0.0
  0
ENDBLK
  5
455A
330
4558
100
AcDbEntity
  8
0
100
AcDbBlockEnd
  0
BLOCK
  5
4565
330
4564
100
AcDbEntity
  8
0
100
AcDbBlockBegin
  2
*D27
 70
     1
 10
0.0
 20
0.0
 30
0.0
  3
*D27
  1

  0
LINE
  5
4567
330
4564
100
AcDbEntity
  8
DIM
 62
     0
370
    -2
100
AcDbLine
 10
1003.586412444933
 20
1021.041226331673
 30
0.0
 11
794.5155709244186
 21
1021.041226331673
 31
0.0
  0
LINE
  5
4568
330
4564
100
AcDbEntity
  8
DIM
 62
     0
370
    -2
100
AcDbLine
 10
1183.586412444932
 20
735.79016826886
 30
0.0
 11
794.5155709244186
 21
735.79016826886
 31
0.0
  0
LINE
  5
4569
330
4564
100
AcDbEntity
  8
DIM
 62
     0
370
    -2
100
AcDbLine
 10
794.5155709244186
 20
1013.041226331673
 30
0.0
 11
794.5155709244186
 21
743.79016826886
 31
0.0
  0
INSERT
  5
456A
330
4564
100
AcDbEntity
  8
DIM
 62
     0
370
    -2
100
AcDbBlockReference
  2
_DOT
 10
794.5155709244186
 20
1021.041226331673
 30
0.0
 41
8.0
 42
8.0
 43
8.0
 50
90.0
  0
INSERT
  5
456B
330
4564
100
AcDbEntity
  8
DIM
 62
     0
370
    -2
100
AcDbBlockReference
  2
_DOT
 10
794.5155709244186
 20
735.79016826886
 30
0.0
 41
8.0
 42
8.0
 43
8.0
 50
270.0
  0
MTEXT
  5
456C
330
4564
100
AcDbEntity
  8
DIM
 62
     0
100
AcDbMText
 10
768.5118195176411
 20
878.4156973002663
 30
0.0
 40
20.0
 41
0.0
 46
0.0
 71
     5
 72
     1
  1
\A1;285
  7
ＭＳ ゴシック
 11
0.0
 21
1.0
 31
0.0
 73
     1
 44
1.0
  0
POINT
  5
456D
330
4564
100
AcDbEntity
  8
Defpoints
 62
     0
100
AcDbPoint
 10
1008.586412444933
 20
1021.041226331673
 30
0.0
  0
POINT
  5
456E
330
4564
100
AcDbEntity
  8
Defpoints
 62
     0
100
AcDbPoint
 10
1188.586412444932
 20
735.79016826886
 30
0.0
  0
POINT
  5
456F
330
4564
100
AcDbEntity
  8
Defpoints
 62
     0
100
AcDbPoint
 10
794.5155709244186
 20
735.79016826886
 30
0.0
  0
ENDBLK
  5
4566
330
4564
100
AcDbEntity
  8
0
100
AcDbBlockEnd
  0
BLOCK
  5
4571
330
4570
100
AcDbEntity
  8
0
100
AcDbBlockBegin
  2
*D28
 70
     1
 10
0.0
 20
0.0
 30
0.0
  3
*D28
  1

  0
LINE
  5
4573
330
4570
100
AcDbEntity
  8
DIM
 62
     0
370
    -2
100
AcDbLine
 10
967.3734725533177
 20
779.3081721319302
 30
0.0
 11
902.4253253551797
 21
779.3081721319302
 31
0.0
  0
LINE
  5
4574
330
4570
100
AcDbEntity
  8
DIM
 62
     0
370
    -2
100
AcDbLine
 10
967.3734725533177
 20
821.0412263316721
 30
0.0
 11
902.4253253551797
 21
821.0412263316721
 31
0.0
  0
LINE
  5
4575
330
4570
100
AcDbEntity
  8
DIM
 62
     0
370
    -2
100
AcDbLine
 10
902.4253253551797
 20
787.3081721319302
 30
0.0
 11
902.4253253551797
 21
813.0412263316721
 31
0.0
  0
INSERT
  5
4576
330
4570
100
AcDbEntity
  8
DIM
 62
     0
370
    -2
100
AcDbBlockReference
  2
_DOT
 10
902.4253253551797
 20
779.3081721319302
 30
0.0
 41
8.0
 42
8.0
 43
8.0
 50
270.0
  0
INSERT
  5
4577
330
4570
100
AcDbEntity
  8
DIM
 62
     0
370
    -2
100
AcDbBlockReference
  2
_DOT
 10
902.4253253551797
 20
821.0412263316721
 30
0.0
 41
8.0
 42
8.0
 43
8.0
 50
90.0
  0
MTEXT
  5
4578
330
4570
100
AcDbEntity
  8
DIM
 62
     0
100
AcDbMText
 10
876.4253253551797
 20
800.1746992318011
 30
0.0
 40
20.0
 41
0.0
 46
0.0
 71
     5
 72
     1
  1
\A1;　
  7
ＭＳ ゴシック
 11
0.0
 21
1.0
 31
0.0
 73
     1
 44
1.0
  0
POINT
  5
4579
330
4570
100
AcDbEntity
  8
Defpoints
 62
     0
100
AcDbPoint
 10
972.3734725533177
 20
779.3081721319302
 30
0.0
  0
POINT
  5
457A
330
4570
100
AcDbEntity
  8
Defpoints
 62
     0
100
AcDbPoint
 10
972.3734725533177
 20
821.0412263316721
 30
0.0
  0
POINT
  5
457B
330
4570
100
AcDbEntity
  8
Defpoints
 62
     0
100
AcDbPoint
 10
902.4253253551797
 20
821.0412263316721
 30
0.0
  0
ENDBLK
  5
4572
330
4570
100
AcDbEntity
  8
0
100
AcDbBlockEnd
  0
BLOCK
  5
459D
330
459C
100
AcDbEntity
  8
0
100
AcDbBlockBegin
  2
*D29
 70
     1
 10
0.0
 20
0.0
 30
0.0
  3
*D29
  1

  0
LINE
  5
459F
330
459C
100
AcDbEntity
  8
DIM
 62
     0
370
    -2
100
AcDbLine
 10
625.4565870544791
 20
1021.041226331673
 30
0.0
 11
733.2008315777152
 21
1021.041226331673
 31
0.0
  0
LINE
  5
45A0
330
459C
100
AcDbEntity
  8
DIM
 62
     0
370
    -2
100
AcDbLine
 10
441.4954926016187
 20
735.79016826886
 30
0.0
 11
733.2008315777152
 21
735.79016826886
 31
0.0
  0
LINE
  5
45A1
330
459C
100
AcDbEntity
  8
DIM
 62
     0
370
    -2
100
AcDbLine
 10
733.2008315777152
 20
1013.041226331673
 30
0.0
 11
733.2008315777152
 21
743.79016826886
 31
0.0
  0
INSERT
  5
45A2
330
459C
100
AcDbEntity
  8
DIM
 62
     0
370
    -2
100
AcDbBlockReference
  2
_DOT
 10
733.2008315777152
 20
1021.041226331673
 30
0.0
 41
8.0
 42
8.0
 43
8.0
 50
90.0
  0
INSERT
  5
45A3
330
459C
100
AcDbEntity
  8
DIM
 62
     0
370
    -2
100
AcDbBlockReference
  2
_DOT
 10
733.2008315777152
 20
735.79016826886
 30
0.0
 41
8.0
 42
8.0
 43
8.0
 50
270.0
  0
MTEXT
  5
45A4
330
459C
100
AcDbEntity
  8
DIM
 62
     0
100
AcDbMText
 10
707.1970801709377
 20
878.4156973002664
 30
0.0
 40
20.0
 41
0.0
 46
0.0
 71
     5
 72
     1
  1
\A1;285
  7
ＭＳ ゴシック
 11
0.0
 21
1.0
 31
0.0
 73
     1
 44
1.0
  0
POINT
  5
45A5
330
459C
100
AcDbEntity
  8
Defpoints
 62
     0
100
AcDbPoint
 10
620.4565870544791
 20
1021.041226331673
 30
0.0
  0
POINT
  5
45A6
330
459C
100
AcDbEntity
  8
Defpoints
 62
     0
100
AcDbPoint
 10
436.4954926016187
 20
735.79016826886
 30
0.0
  0
POINT
  5
45A7
330
459C
100
AcDbEntity
  8
Defpoints
 62
     0
100
AcDbPoint
 10
733.2008315777152
 20
735.79016826886
 30
0.0
  0
ENDBLK
  5
459E
330
459C
100
AcDbEntity
  8
0
100
AcDbBlockEnd
  0
ENDSEC
  0
SECTION
  2
ENTITIES
  0
MTEXT
  5
177
330
A
100
AcDbEntity
  8
TEMPLATE
390
1D
100
AcDbMText
 10
63.3617156381846
 20
274.9854013051426
 30
0.0
 40
13.03072916666666
 41
0.0
 46
0.0
 71
     1
 72
     1
  1
品名
  7
ＭＳ ゴシック
 73
     1
 44
0.7828267384257843
  0
MTEXT
  5
178
330
A
100
AcDbEntity
  8
TEMPLATE
390
1D
100
AcDbMText
 10
63.3617156381846
 20
206.9854013051424
 30
0.0
 40
13.03072916666666
 41
0.0
 46
0.0
 71
     1
 72
     1
  1
仕様
  7
ＭＳ ゴシック
 73
     1
 44
0.7828267384257843
  0
LINE
  5
179
330
A
100
AcDbEntity
  8
TEMPLATE
390
1D
100
AcDbLine
 10
1617.761715637798
 20
213.7173388051428
 30
0.0
 11
57.761715637799
 21
213.7173388051428
 31
0.0
  0
LWPOLYLINE
  5
17A
330
A
100
AcDbEntity
  8
TEMPLATE
390
1D
100
AcDbPolyline
 90
        5
 70
   128
 43
0.0
 10
1617.761715637798
 20
2317.717338805142
 10
57.761715637799
 20
2317.717338805142
 10
57.761715637799
 20
77.7173388051426
 10
1617.761715637798
 20
77.7173388051426
 10
1617.761715637798
 20
2317.717338805142
  0
LINE
  5
17B
330
A
100
AcDbEntity
  8
TEMPLATE
390
1D
100
AcDbLine
 10
1617.761715637798
 20
281.7173388051426
 30
0.0
 11
57.761715637799
 21
281.7173388051426
 31
0.0
  0
LINE
  5
17C
330
A
100
AcDbEntity
  8
TEMPLATE
390
1D
100
AcDbLine
 10
1617.761715638186
 20
145.7173388051426
 30
0.0
 11
1015.361715638184
 21
145.7173388051426
 31
0.0
  0
MTEXT
  5
17E
330
A
100
AcDbEntity
  8
TEMPLATE
390
1D
100
AcDbMText
 10
1039.258840639993
 20
121.7890232264961
 30
0.0
 40
19.54609375
 41
0.0
 46
0.0
 71
     1
 72
     1
  1
大洋金物株式会社 ティーフォルム事業部
  7
ＭＳ ゴシック
 73
     1
 44
0.7828267384257843
  0
MTEXT
  5
180
330
A
100
AcDbEntity
  8
TEMPLATE
390
1D
100
AcDbMText
 10
1464.961715638392
 20
184.1194325551426
 30
0.0
 40
19.54609375
 41
0.0
 46
19.54609375
 71
     1
 72
     1
  1
{1:8}
  7
ＭＳ ゴシック
 73
     1
 44
0.7828267384257843
1001
ACAD
1000
ACAD_MTEXT_DEFINED_HEIGHT_BEGIN
1070
    46
1040
19.54609375
1000
ACAD_MTEXT_DEFINED_HEIGHT_END
  0
MTEXT
  5
181
330
A
100
AcDbEntity
  8
TEMPLATE
390
1D
100
AcDbMText
 10
1422.561715638392
 20
206.9854013051424
 30
0.0
 40
13.03072916666666
 41
0.0
 46
0.0
 71
     1
 72
     1
  1
縮尺
  7
ＭＳ ゴシック
 73
     1
 44
0.7828267384257843
  0
LINE
  5
182
330
A
100
AcDbEntity
  8
TEMPLATE
390
1D
100
AcDbLine
 10
1416.961715638392
 20
145.7173388051426
 30
0.0
 11
1416.961715638392
 21
213.7173388051428
 31
0.0
  0
MTEXT
  5
183
330
A
100
AcDbEntity
  8
TEMPLATE
390
1D
100
AcDbMText
 10
1221.761715638392
 20
206.9854013051424
 30
0.0
 40
13.03072916666666
 41
0.0
 46
0.0
 71
     1
 72
     1
  1
容量
  7
ＭＳ ゴシック
 73
     1
 44
0.7828267384257843
  0
LINE
  5
184
330
A
100
AcDbEntity
  8
TEMPLATE
390
1D
100
AcDbLine
 10
1216.161715638392
 20
145.7173388051426
 30
0.0
 11
1216.161715638392
 21
213.7173388051428
 31
0.0
  0
MTEXT
  5
185
330
A
100
AcDbEntity
  8
TEMPLATE
390
1D
100
AcDbMText
 10
1020.961715638392
 20
274.9854013051426
 30
0.0
 40
13.03072916666666
 41
0.0
 46
0.0
 71
     1
 72
     1
  1
品番
  7
ＭＳ ゴシック
 73
     1
 44
0.7828267384257843
  0
MTEXT
  5
186
330
A
100
AcDbEntity
  8
TEMPLATE
390
1D
100
AcDbMText
 10
1020.961715638392
 20
206.9854013051424
 30
0.0
 40
13.03072916666666
 41
0.0
 46
0.0
 71
     1
 72
     1
  1
重量
  7
ＭＳ ゴシック
 73
     1
 44
0.7828267384257843
  0
MTEXT
  5
187
330
A
100
AcDbEntity
  8
TEMPLATE
390
1D
100
AcDbMText
 10
1063.361715638392
 20
252.1194325551426
 30
0.0
 40
19.54609375
 41
0.0
 46
19.54609375
 71
     1
 72
     1
  1
{ALC70-0402}
  7
ＭＳ ゴシック
 73
     1
 44
0.7828267384257843
1001
ACAD
1000
ACAD_MTEXT_DEFINED_HEIGHT_BEGIN
1070
    46
1040
19.54609375
1000
ACAD_MTEXT_DEFINED_HEIGHT_END
  0
LINE
  5
188
330
A
100
AcDbEntity
  8
TEMPLATE
390
1D
100
AcDbLine
 10
1015.361715638392
 20
77.7173388051426
 30
0.0
 11
1015.361715638392
 21
281.7173388051426
 31
0.0
  0
MTEXT
  5
189
330
A
100
AcDbEntity
  8
TEMPLATE
390
1D
100
AcDbMText
 10
105.7617156381846
 20
252.1194325551426
 30
0.0
 40
19.54609375
 41
0.0
 46
22.82037608585642
 71
     1
 72
     1
  1
{洗面器　-ALICE CERAMICA, \fＭＳ ゴシック|b0|i0|c1|p0;Equilibrium\fＭＳ ゴシック|b0|i0|c0|p0;-}
  7
ＭＳ ゴシック
 73
     1
 44
0.7828267384257843
1001
ACAD
1000
ACAD_MTEXT_DEFINED_HEIGHT_BEGIN
1070
    46
1040
22.82037608585642
1000
ACAD_MTEXT_DEFINED_HEIGHT_END
  0
INSERT
  5
68C
330
A
100
AcDbEntity
  8
TEMPLATE
100
AcDbBlockReference
  2
block 2
 10
735.4194414162062
 20
6.698461211469094
 30
0.0
 41
0.3048
 42
0.3048
 43
0.3048
  0
MTEXT
  5
D60
330
A
100
AcDbEntity
  8
TEMPLATE
390
1D
100
AcDbMText
 10
1063.361715638184
 20
184.1194325551426
 30
0.0
 40
19.54609375
 41
0.0
 46
22.72108134300363
 71
     1
 72
     1
  1
{4.5kg}
  7
ＭＳ ゴシック
 73
     1
 44
0.7828267384257843
1001
ACAD
1000
ACAD_MTEXT_DEFINED_HEIGHT_BEGIN
1070
    46
1040
22.72108134300363
1000
ACAD_MTEXT_DEFINED_HEIGHT_END
  0
LWPOLYLINE
  5
D69
330
A
100
AcDbEntity
  8
BORDER
100
AcDbPolyline
 90
        4
 70
     1
 43
0.0
 10
0.0
 20
0.0
 10
0.0
 20
2376.0
 10
1680.0
 20
2376.0
 10
1680.0
 20
0.0
  0
INSERT
  5
1343
330
A
100
AcDbEntity
  8
TEMPLATE
100
AcDbBlockReference
  2
block 2
 10
1677.394776693175
 20
19.54825712983655
 30
0.0
 41
0.3048
 42
0.3048
 43
0.3048
  0
HATCH
  5
3CE3
102
{ACAD_REACTORS
330
3CF4
102
}
330
A
100
AcDbEntity
  8
TEMPLATE
100
AcDbHatch
 10
0.0
 20
0.0
 30
0.0
210
0.0
220
0.0
230
1.0
  2
SOLID
 70
     1
 71
     1
 91
        6
 92
        1
 93
        8
 72
     1
 10
1547.654180558225
 20
122.686885999047
 11
1547.654180558225
 21
117.9593598945186
 72
     1
 10
1547.654180558225
 20
117.9593598945186
 11
1540.165707317976
 21
117.9593598945186
 72
     1
 10
1540.165707317976
 20
117.9593598945186
 11
1540.165707317976
 21
98.68688600020374
 72
     1
 10
1540.165707317976
 20
98.68688600020374
 11
1533.579616795355
 21
98.68688600020374
 72
     1
 10
1533.579616795355
 20
98.68688600020374
 11
1533.579616795355
 21
117.9593598945186
 72
     1
 10
1533.579616795355
 20
117.9593598945186
 11
1526.22385564772
 21
117.9593598945186
 72
     1
 10
1526.22385564772
 20
117.9593598945186
 11
1526.22385564772
 21
122.686885999047
 72
     1
 10
1526.22385564772
 20
122.686885999047
 11
1547.654180558225
 21
122.686885999047
 97
        1
330
3CE4
 92
        1
 93
        1
 72
     4
 94
        3
 73
     0
 74
     1
 95
       56
 96
       52
 40
0.0
 40
0.0
 40
0.0
 40
0.0
 40
1.0
 40
1.0
 40
1.0
 40
2.0
 40
2.0
 40
2.0
 40
3.0
 40
3.0
 40
3.0
 40
4.0
 40
4.0
 40
4.0
 40
5.0
 40
5.0
 40
5.0
 40
6.0
 40
6.0
 40
6.0
 40
7.0
 40
7.0
 40
7.0
 40
8.0
 40
8.0
 40
8.0
 40
9.0
 40
9.0
 40
9.0
 40
10.0
 40
10.0
 40
10.0
 40
11.0
 40
11.0
 40
11.0
 40
12.0
 40
12.0
 40
12.0
 40
13.0
 40
13.0
 40
13.0
 40
14.0
 40
14.0
 40
14.0
 40
15.0
 40
15.0
 40
15.0
 40
16.0
 40
16.0
 40
16.0
 40
17.0
 40
17.0
 40
17.0
 40
17.0
 10
1557.687928905659
 20
122.1153908307171
 10
1558.611021851194
 20
122.3752208739253
 10
1559.802693125861
 20
122.1578825052133
 10
1559.802693125861
 20
122.1578825052133
 10
1559.802693125861
 20
122.1578825052133
 10
1559.230186250996
 20
120.4398262712745
 10
1559.230186250996
 20
120.4398262712745
 10
1559.230186250996
 20
120.4398262712745
 10
1558.060296422918
 20
120.710547037778
 10
1557.157973217439
 20
119.9990197824878
 10
1556.456801076102
 20
119.442581187894
 10
1556.002544841606
 20
117.9640613543017
 10
1555.828293268882
 20
117.4019095933891
 10
1555.828293268882
 20
117.4019095933891
 10
1555.051421673821
 20
115.0173768010701
 10
1555.051421673821
 20
115.0173768010701
 10
1555.051421673821
 20
115.0173768010701
 10
1557.598720194077
 20
115.0173768010701
 10
1557.598720194077
 20
115.0173768010701
 10
1557.598720194077
 20
115.0173768010701
 10
1557.202547817156
 20
113.516599423694
 10
1557.202547817156
 20
113.516599423694
 10
1557.202547817156
 20
113.516599423694
 10
1554.634479556845
 20
113.516599423694
 10
1554.634479556845
 20
113.516599423694
 10
1554.634479556845
 20
113.516599423694
 10
1550.03972505708
 20
98.68688600020374
 10
1550.03972505708
 20
98.68688600020374
 10
1550.03972505708
 20
98.68688600020374
 10
1548.60113787557
 20
98.68688600020374
 10
1548.60113787557
 20
98.68688600020374
 10
1548.60113787557
 20
98.68688600020374
 10
1553.200058225776
 20
113.516599423694
 10
1553.200058225776
 20
113.516599423694
 10
1553.200058225776
 20
113.516599423694
 10
1551.305072372401
 20
113.516599423694
 10
1551.305072372401
 20
113.516599423694
 10
1551.305072372401
 20
113.516599423694
 10
1551.702315968007
 20
115.0173768010701
 10
1551.702315968007
 20
115.0173768010701
 10
1551.702315968007
 20
115.0173768010701
 10
1553.617000342751
 20
115.0173768010701
 10
1553.617000342751
 20
115.0173768010701
 10
1553.617000342751
 20
115.0173768010701
 10
1554.294248600129
 20
117.0969693411219
 10
1554.294248600129
 20
117.0969693411219
 10
1554.841879396648
 20
118.8404967748988
 10
1555.306550257245
 20
119.7765633689486
 10
1555.704865071536
 20
120.4823179457708
 10
1556.098954523236
 20
121.1886676440845
 10
1556.878920750054
 20
121.8825197910759
 10
1557.687928905659
 20
122.1153908307171
 97
        1
330
3CEF
 92
        1
 93
        1
 72
     4
 94
        3
 73
     0
 74
     1
 95
       32
 96
       28
 40
0.0
 40
0.0
 40
0.0
 40
0.0
 40
1.0
 40
1.0
 40
1.0
 40
2.0
 40
2.0
 40
2.0
 40
3.0
 40
3.0
 40
3.0
 40
4.0
 40
4.0
 40
4.0
 40
5.0
 40
5.0
 40
5.0
 40
6.0
 40
6.0
 40
6.0
 40
7.0
 40
7.0
 40
7.0
 40
8.0
 40
8.0
 40
8.0
 40
9.0
 40
9.0
 40
9.0
 40
9.0
 10
1561.188374006773
 20
114.1104116479568
 10
1560.322353212278
 20
112.9902144644232
 10
1559.655460068853
 20
111.9820786577475
 10
1558.575790658894
 20
108.813473300319
 10
1557.583187523147
 20
105.9151126122006
 10
1556.951525572023
 20
103.8064781433614
 10
1556.856127596928
 20
101.2384098830501
 10
1556.78352277496
 20
99.32735574940358
 10
1557.947223339525
 20
98.68688600020374
 10
1559.653436655782
 20
98.68688600020374
 10
1560.388768770734
 20
98.68688600020374
 10
1562.244357581369
 20
98.73366254943912
 10
1563.565765341194
 20
100.3671520194295
 10
1564.490822187649
 20
101.5147843037232
 10
1565.343393236436
 20
102.70443216532
 10
1566.486383573095
 20
106.6068818339716
 10
1567.437506740881
 20
109.8693378506166
 10
1568.096068183424
 20
111.9779128073066
 10
1568.047387245416
 20
113.1784513921987
 10
1568.047387245416
 20
113.1784513921987
 10
1568.047387245416
 20
113.1784513921987
 10
1568.047387245416
 20
113.1784513921987
 10
1567.737209924023
 20
115.1812732598413
 10
1566.283090071584
 20
115.6044641524784
 10
1565.452300469388
 20
115.6044641524784
 10
1564.634008418515
 20
115.6044641524784
 10
1562.44134279507
 20
115.7460435553167
 10
1561.188374006773
 20
114.1104116479568
 97
        1
330
3CF2
 92
        1
 93
        1
 72
     4
 94
        3
 73
     0
 74
     1
 95
       38
 96
       34
 40
0.0
 40
0.0
 40
0.0
 40
0.0
 40
1.0
 40
1.0
 40
1.0
 40
2.0
 40
2.0
 40
2.0
 40
3.0
 40
3.0
 40
3.0
 40
4.0
 40
4.0
 40
4.0
 40
5.0
 40
5.0
 40
5.0
 40
6.0
 40
6.0
 40
6.0
 40
7.0
 40
7.0
 40
7.0
 40
8.0
 40
8.0
 40
8.0
 40
9.0
 40
9.0
 40
9.0
 40
10.0
 40
10.0
 40
10.0
 40
11.0
 40
11.0
 40
11.0
 40
11.0
 10
1573.306951963385
 20
114.9598285528377
 10
1573.306951963385
 20
114.9598285528377
 10
1574.78594789417
 20
114.9598285528377
 10
1574.78594789417
 20
114.9598285528377
 10
1574.78594789417
 20
114.9598285528377
 10
1574.125244014258
 20
112.8444692111441
 10
1574.125244014258
 20
112.8444692111441
 10
1574.627288504525
 20
113.4382814354068
 10
1575.419633258367
 20
114.2291383855198
 10
1576.100095171798
 20
114.6279292970036
 10
1577.116562679355
 20
115.2217415212663
 10
1577.697401255102
 20
115.3000595095535
 10
1578.336204664126
 20
115.2844673264751
 10
1578.336204664126
 20
115.2844673264751
 10
1577.711922219496
 20
113.2842639933952
 10
1577.711922219496
 20
113.2842639933952
 10
1577.305335216473
 20
113.4564326408989
 10
1576.052366428176
 20
113.1286992355056
 10
1575.333578690689
 20
112.611657683652
 10
1574.685372362099
 20
112.1454395071763
 10
1574.237245878966
 20
111.748731520913
 10
1573.706278484211
 20
110.7514269253833
 10
1573.179357915597
 20
109.7526345261248
 10
1572.763487017306
 20
108.1600299026035
 10
1572.047793911575
 20
105.8496492481308
 10
1572.047793911575
 20
105.8496492481308
 10
1569.812636613634
 20
98.68688600020374
 10
1569.812636613634
 20
98.68688600020374
 10
1569.812636613634
 20
98.68688600020374
 10
1568.377203576029
 20
98.68688600020374
 10
1568.377203576029
 20
98.68688600020374
 10
1568.377203576029
 20
98.68688600020374
 10
1573.306951963385
 20
114.9598285528377
 10
1573.306951963385
 20
114.9598285528377
 97
        1
330
3CF0
 92
        1
 93
        1
 72
     4
 94
        3
 73
     0
 74
     1
 95
      104
 96
      100
 40
0.0
 40
0.0
 40
0.0
 40
0.0
 40
1.0
 40
1.0
 40
1.0
 40
2.0
 40
2.0
 40
2.0
 40
3.0
 40
3.0
 40
3.0
 40
4.0
 40
4.0
 40
4.0
 40
5.0
 40
5.0
 40
5.0
 40
6.0
 40
6.0
 40
6.0
 40
7.0
 40
7.0
 40
7.0
 40
8.0
 40
8.0
 40
8.0
 40
9.0
 40
9.0
 40
9.0
 40
10.0
 40
10.0
 40
10.0
 40
11.0
 40
11.0
 40
11.0
 40
12.0
 40
12.0
 40
12.0
 40
13.0
 40
13.0
 40
13.0
 40
14.0
 40
14.0
 40
14.0
 40
15.0
 40
15.0
 40
15.0
 40
16.0
 40
16.0
 40
16.0
 40
17.0
 40
17.0
 40
17.0
 40
18.0
 40
18.0
 40
18.0
 40
19.0
 40
19.0
 40
19.0
 40
20.0
 40
20.0
 40
20.0
 40
21.0
 40
21.0
 40
21.0
 40
22.0
 40
22.0
 40
22.0
 40
23.0
 40
23.0
 40
23.0
 40
24.0
 40
24.0
 40
24.0
 40
25.0
 40
25.0
 40
25.0
 40
26.0
 40
26.0
 40
26.0
 40
27.0
 40
27.0
 40
27.0
 40
28.0
 40
28.0
 40
28.0
 40
29.0
 40
29.0
 40
29.0
 40
30.0
 40
30.0
 40
30.0
 40
31.0
 40
31.0
 40
31.0
 40
32.0
 40
32.0
 40
32.0
 40
33.0
 40
33.0
 40
33.0
 40
33.0
 10
1581.447856894813
 20
114.9686363509126
 10
1581.447856894813
 20
114.9686363509126
 10
1582.739151507166
 20
114.9686363509126
 10
1582.739151507166
 20
114.9686363509126
 10
1582.739151507166
 20
114.9686363509126
 10
1582.086779328135
 20
112.8512535961477
 10
1582.086779328135
 20
112.8512535961477
 10
1582.652977915191
 20
113.7390558372332
 10
1583.161211668969
 20
114.134752116961
 10
1583.836436513275
 20
114.6460805024957
 10
1584.513684770653
 20
115.1501484058336
 10
1585.31757488143
 20
115.2528663752741
 10
1585.875560791902
 20
115.2528663752741
 10
1586.566377819287
 20
115.2528663752741
 10
1587.233270962711
 20
115.1164645294122
 10
1587.58379752123
 20
114.3592914557206
 10
1587.852435362513
 20
113.7655387436069
 10
1587.864932913836
 20
113.6954929440522
 10
1587.788162241427
 20
112.5234606786051
 10
1588.490286577151
 20
113.725070482182
 10
1589.008875444882
 20
114.2426476433779
 10
1589.890488422455
 20
114.7399311617122
 10
1590.81566429321
 20
115.2528663752741
 10
1591.354963388847
 20
115.2912517114787
 10
1591.981507295145
 20
115.198888855991
 10
1592.90454072853
 20
115.0625465222783
 10
1593.493711005159
 20
114.7332062888577
 10
1593.801745889182
 20
113.7323309643788
 10
1594.11085199189
 20
112.7345502716558
 10
1593.943860901363
 20
112.1993575143102
 10
1593.562149976686
 20
110.6109187412297
 10
1593.387898403962
 20
109.8874890561087
 10
1593.135804940144
 20
109.0115297327048
 10
1592.80598860953
 20
107.9692339524144
 10
1592.80598860953
 20
107.9692339524144
 10
1589.890488422455
 20
98.68688600020374
 10
1589.890488422455
 20
98.68688600020374
 10
1589.890488422455
 20
98.68688600020374
 10
1588.374118862001
 20
98.68688600020374
 10
1588.374118862001
 20
98.68688600020374
 10
1588.374118862001
 20
98.68688600020374
 10
1590.926713963532
 20
106.8018436346014
 10
1590.926713963532
 20
106.8018436346014
 10
1591.459823795657
 20
108.4997252499769
 10
1591.82070546813
 20
109.7396608776091
 10
1592.007454592176
 20
110.5170680820132
 10
1592.241813435546
 20
111.4868185524844
 10
1592.335128485421
 20
111.8068153784877
 10
1592.224197839397
 20
112.5126294674591
 10
1592.122551088641
 20
113.1696435941238
 10
1591.790592320658
 20
113.5974764343949
 10
1591.222251296233
 20
113.5974764343949
 10
1590.616536642139
 20
113.5974764343949
 10
1590.12591848451
 20
113.5300491694029
 10
1589.439386331865
 20
112.8403628728524
 10
1588.752735154922
 20
112.1454395071763
 10
1588.185346324883
 20
111.3297064787168
 10
1587.740433497805
 20
110.3915569594466
 10
1587.296472865113
 20
109.4476942738576
 10
1586.846322968909
 20
108.2513215394063
 10
1586.389983809193
 20
106.8018436346014
 10
1586.389983809193
 20
106.8018436346014
 10
1583.836436513275
 20
98.68688600020374
 10
1583.836436513275
 20
98.68688600020374
 10
1583.836436513275
 20
98.68688600020374
 10
1582.410287370939
 20
98.68688600020374
 10
1582.410287370939
 20
98.68688600020374
 10
1582.410287370939
 20
98.68688600020374
 10
1585.329953408454
 20
107.9650681019736
 10
1585.329953408454
 20
107.9650681019736
 10
1585.637988292478
 20
108.9524936807437
 10
1585.86937152839
 20
109.757335985908
 10
1586.021841654524
 20
110.3863794024701
 10
1586.28107657624
 20
111.4692029563347
 10
1586.353681398209
 20
112.2014404395306
 10
1586.157648378894
 20
112.8512535961477
 10
1585.964709991335
 20
113.4989838275443
 10
1585.625609765454
 20
113.6644276021936
 10
1585.0592921541
 20
113.6644276021936
 10
1584.58426617955
 20
113.6644276021936
 10
1584.120666537637
 20
113.4605984913397
 10
1583.591722555952
 20
113.0550231948524
 10
1582.925781606914
 20
112.5447660280024
 10
1582.659286203001
 20
112.1257409858062
 10
1582.332564504143
 20
111.6278623459804
 10
1581.891698503207
 20
110.9692413912885
 10
1581.68531036994
 20
110.5258758800881
 10
1581.31300236483
 20
109.5529712657117
 10
1580.940575335421
 20
108.5743534850165
 10
1580.588025363831
 20
107.4355289987976
 10
1580.342121163525
 20
106.6478261925898
 10
1580.342121163525
 20
106.6478261925898
 10
1577.837373829914
 20
98.68688600020374
 10
1577.837373829914
 20
98.68688600020374
 10
1577.837373829914
 20
98.68688600020374
 10
1576.343856934735
 20
98.68688600020374
 10
1576.343856934735
 20
98.68688600020374
 10
1576.343856934735
 20
98.68688600020374
 10
1581.447856894813
 20
114.9686363509126
 10
1581.447856894813
 20
114.9686363509126
 97
        1
330
3CF1
 92
       16
 93
        1
 72
     4
 94
        3
 73
     0
 74
     1
 95
       29
 96
       25
 40
0.0
 40
0.0
 40
0.0
 40
0.0
 40
1.0
 40
1.0
 40
1.0
 40
2.0
 40
2.0
 40
2.0
 40
3.0
 40
3.0
 40
3.0
 40
4.0
 40
4.0
 40
4.0
 40
5.0
 40
5.0
 40
5.0
 40
6.0
 40
6.0
 40
6.0
 40
7.0
 40
7.0
 40
7.0
 40
8.0
 40
8.0
 40
8.0
 40
8.0
 10
1558.405704936611
 20
101.7185539024279
 10
1558.399396648801
 20
102.8522603438195
 10
1558.757302713815
 20
104.8665085440999
 10
1559.674146883688
 20
107.5615757307067
 10
1560.922949821544
 20
111.2109202290046
 10
1561.671850706503
 20
112.5447660280024
 10
1562.327198492992
 20
113.1940435752771
 10
1563.284629948588
 20
114.1394535767441
 10
1564.5717587105
 20
114.1865871988744
 10
1564.951446222105
 20
114.1394535767441
 10
1565.491816536427
 20
114.0745853341658
 10
1566.255119361481
 20
113.7209046317411
 10
1566.300705667734
 20
112.5302450636088
 10
1566.337127103016
 20
111.5112185336377
 10
1566.043494159088
 20
109.6027829345539
 10
1565.015719343191
 20
106.6068818339716
 10
1563.831189526422
 20
103.1255401327366
 10
1563.119662271132
 20
101.7569987507817
 10
1562.549297833636
 20
101.1605679919562
 10
1561.474746468504
 20
100.042453733643
 10
1560.322353212278
 20
100.1498136507176
 10
1560.152267489994
 20
100.1498136507176
 10
1559.931358392333
 20
100.1498136507176
 10
1558.408799568367
 20
100.3895285875116
 10
1558.405704936611
 20
101.7185539024279
 97
        1
330
3CF3
 75
     0
 76
     1
 98
        1
 10
1487.540661136605
 20
58.0166403409717
1001
ACAD
1010
0.0
1020
0.0
1030
0.0
  0
POLYLINE
  5
3CE4
102
{ACAD_REACTORS
330
3CE3
330
3CF4
102
}
330
A
100
AcDbEntity
  8
TEMPLATE
100
AcDb2dPolyline
 66
     1
 10
0.0
 20
0.0
 30
0.0
  0
VERTEX
  5
3CE5
330
3CE4
100
AcDbEntity
  8
TEMPLATE
100
AcDbVertex
100
AcDb2dVertex
 10
1547.654180558225
 20
122.686885999047
 30
0.0
  0
VERTEX
  5
3CE6
330
3CE4
100
AcDbEntity
  8
TEMPLATE
100
AcDbVertex
100
AcDb2dVertex
 10
1547.654180558225
 20
117.9593598945186
 30
0.0
  0
VERTEX
  5
3CE7
330
3CE4
100
AcDbEntity
  8
TEMPLATE
100
AcDbVertex
100
AcDb2dVertex
 10
1540.165707317976
 20
117.9593598945186
 30
0.0
  0
VERTEX
  5
3CE8
330
3CE4
100
AcDbEntity
  8
TEMPLATE
100
AcDbVertex
100
AcDb2dVertex
 10
1540.165707317976
 20
98.68688600020374
 30
0.0
  0
VERTEX
  5
3CE9
330
3CE4
100
AcDbEntity
  8
TEMPLATE
100
AcDbVertex
100
AcDb2dVertex
 10
1533.579616795355
 20
98.68688600020374
 30
0.0
  0
VERTEX
  5
3CEA
330
3CE4
100
AcDbEntity
  8
TEMPLATE
100
AcDbVertex
100
AcDb2dVertex
 10
1533.579616795355
 20
117.9593598945186
 30
0.0
  0
VERTEX
  5
3CEB
330
3CE4
100
AcDbEntity
  8
TEMPLATE
100
AcDbVertex
100
AcDb2dVertex
 10
1526.22385564772
 20
117.9593598945186
 30
0.0
  0
VERTEX
  5
3CEC
330
3CE4
100
AcDbEntity
  8
TEMPLATE
100
AcDbVertex
100
AcDb2dVertex
 10
1526.22385564772
 20
122.686885999047
 30
0.0
  0
VERTEX
  5
3CED
330
3CE4
100
AcDbEntity
  8
TEMPLATE
100
AcDbVertex
100
AcDb2dVertex
 10
1547.654180558225
 20
122.686885999047
 30
0.0
  0
SEQEND
  5
3CEE
330
3CE4
100
AcDbEntity
  8
TEMPLATE
  0
SPLINE
  5
3CEF
102
{ACAD_REACTORS
330
3CE3
330
3CF4
102
}
330
A
100
AcDbEntity
  8
TEMPLATE
100
AcDbSpline
210
0.0
220
0.0
230
1.0
 70
    11
 71
     3
 72
    56
 73
    52
 74
     0
 42
0.000000001
 43
0.0000000001
 40
0.0
 40
0.0
 40
0.0
 40
0.0
 40
1.0
 40
1.0
 40
1.0
 40
2.0
 40
2.0
 40
2.0
 40
3.0
 40
3.0
 40
3.0
 40
4.0
 40
4.0
 40
4.0
 40
5.0
 40
5.0
 40
5.0
 40
6.0
 40
6.0
 40
6.0
 40
7.0
 40
7.0
 40
7.0
 40
8.0
 40
8.0
 40
8.0
 40
9.0
 40
9.0
 40
9.0
 40
10.0
 40
10.0
 40
10.0
 40
11.0
 40
11.0
 40
11.0
 40
12.0
 40
12.0
 40
12.0
 40
13.0
 40
13.0
 40
13.0
 40
14.0
 40
14.0
 40
14.0
 40
15.0
 40
15.0
 40
15.0
 40
16.0
 40
16.0
 40
16.0
 40
17.0
 40
17.0
 40
17.0
 40
17.0
 10
1557.687928905659
 20
122.1153908307171
 30
0.0
 10
1558.611021851194
 20
122.3752208739253
 30
0.0
 10
1559.802693125861
 20
122.1578825052133
 30
0.0
 10
1559.802693125861
 20
122.1578825052133
 30
0.0
 10
1559.802693125861
 20
122.1578825052133
 30
0.0
 10
1559.230186250996
 20
120.4398262712745
 30
0.0
 10
1559.230186250996
 20
120.4398262712745
 30
0.0
 10
1559.230186250996
 20
120.4398262712745
 30
0.0
 10
1558.060296422918
 20
120.710547037778
 30
0.0
 10
1557.157973217439
 20
119.9990197824878
 30
0.0
 10
1556.456801076102
 20
119.442581187894
 30
0.0
 10
1556.002544841606
 20
117.9640613543017
 30
0.0
 10
1555.828293268882
 20
117.4019095933891
 30
0.0
 10
1555.828293268882
 20
117.4019095933891
 30
0.0
 10
1555.051421673821
 20
115.0173768010701
 30
0.0
 10
1555.051421673821
 20
115.0173768010701
 30
0.0
 10
1555.051421673821
 20
115.0173768010701
 30
0.0
 10
1557.598720194077
 20
115.0173768010701
 30
0.0
 10
1557.598720194077
 20
115.0173768010701
 30
0.0
 10
1557.598720194077
 20
115.0173768010701
 30
0.0
 10
1557.202547817156
 20
113.516599423694
 30
0.0
 10
1557.202547817156
 20
113.516599423694
 30
0.0
 10
1557.202547817156
 20
113.516599423694
 30
0.0
 10
1554.634479556845
 20
113.516599423694
 30
0.0
 10
1554.634479556845
 20
113.516599423694
 30
0.0
 10
1554.634479556845
 20
113.516599423694
 30
0.0
 10
1550.03972505708
 20
98.68688600020374
 30
0.0
 10
1550.03972505708
 20
98.68688600020374
 30
0.0
 10
1550.03972505708
 20
98.68688600020374
 30
0.0
 10
1548.60113787557
 20
98.68688600020374
 30
0.0
 10
1548.60113787557
 20
98.68688600020374
 30
0.0
 10
1548.60113787557
 20
98.68688600020374
 30
0.0
 10
1553.200058225776
 20
113.516599423694
 30
0.0
 10
1553.200058225776
 20
113.516599423694
 30
0.0
 10
1553.200058225776
 20
113.516599423694
 30
0.0
 10
1551.305072372401
 20
113.516599423694
 30
0.0
 10
1551.305072372401
 20
113.516599423694
 30
0.0
 10
1551.305072372401
 20
113.516599423694
 30
0.0
 10
1551.702315968007
 20
115.0173768010701
 30
0.0
 10
1551.702315968007
 20
115.0173768010701
 30
0.0
 10
1551.702315968007
 20
115.0173768010701
 30
0.0
 10
1553.617000342751
 20
115.0173768010701
 30
0.0
 10
1553.617000342751
 20
115.0173768010701
 30
0.0
 10
1553.617000342751
 20
115.0173768010701
 30
0.0
 10
1554.294248600129
 20
117.0969693411219
 30
0.0
 10
1554.294248600129
 20
117.0969693411219
 30
0.0
 10
1554.841879396648
 20
118.8404967748988
 30
0.0
 10
1555.306550257245
 20
119.7765633689486
 30
0.0
 10
1555.704865071536
 20
120.4823179457708
 30
0.0
 10
1556.098954523236
 20
121.1886676440845
 30
0.0
 10
1556.878920750054
 20
121.8825197910759
 30
0.0
 10
1557.687928905659
 20
122.1153908307171
 30
0.0
  0
SPLINE
  5
3CF0
102
{ACAD_REACTORS
330
3CE3
330
3CF4
102
}
330
A
100
AcDbEntity
  8
TEMPLATE
100
AcDbSpline
210
0.0
220
0.0
230
1.0
 70
    11
 71
     3
 72
    38
 73
    34
 74
     0
 42
0.000000001
 43
0.0000000001
 40
0.0
 40
0.0
 40
0.0
 40
0.0
 40
1.0
 40
1.0
 40
1.0
 40
2.0
 40
2.0
 40
2.0
 40
3.0
 40
3.0
 40
3.0
 40
4.0
 40
4.0
 40
4.0
 40
5.0
 40
5.0
 40
5.0
 40
6.0
 40
6.0
 40
6.0
 40
7.0
 40
7.0
 40
7.0
 40
8.0
 40
8.0
 40
8.0
 40
9.0
 40
9.0
 40
9.0
 40
10.0
 40
10.0
 40
10.0
 40
11.0
 40
11.0
 40
11.0
 40
11.0
 10
1573.306951963385
 20
114.9598285528377
 30
0.0
 10
1573.306951963385
 20
114.9598285528377
 30
0.0
 10
1574.78594789417
 20
114.9598285528377
 30
0.0
 10
1574.78594789417
 20
114.9598285528377
 30
0.0
 10
1574.78594789417
 20
114.9598285528377
 30
0.0
 10
1574.125244014258
 20
112.8444692111441
 30
0.0
 10
1574.125244014258
 20
112.8444692111441
 30
0.0
 10
1574.627288504525
 20
113.4382814354068
 30
0.0
 10
1575.419633258367
 20
114.2291383855198
 30
0.0
 10
1576.100095171798
 20
114.6279292970036
 30
0.0
 10
1577.116562679355
 20
115.2217415212663
 30
0.0
 10
1577.697401255102
 20
115.3000595095535
 30
0.0
 10
1578.336204664126
 20
115.2844673264751
 30
0.0
 10
1578.336204664126
 20
115.2844673264751
 30
0.0
 10
1577.711922219496
 20
113.2842639933952
 30
0.0
 10
1577.711922219496
 20
113.2842639933952
 30
0.0
 10
1577.305335216473
 20
113.4564326408989
 30
0.0
 10
1576.052366428176
 20
113.1286992355056
 30
0.0
 10
1575.333578690689
 20
112.611657683652
 30
0.0
 10
1574.685372362099
 20
112.1454395071763
 30
0.0
 10
1574.237245878966
 20
111.748731520913
 30
0.0
 10
1573.706278484211
 20
110.7514269253833
 30
0.0
 10
1573.179357915597
 20
109.7526345261248
 30
0.0
 10
1572.763487017306
 20
108.1600299026035
 30
0.0
 10
1572.047793911575
 20
105.8496492481308
 30
0.0
 10
1572.047793911575
 20
105.8496492481308
 30
0.0
 10
1569.812636613634
 20
98.68688600020374
 30
0.0
 10
1569.812636613634
 20
98.68688600020374
 30
0.0
 10
1569.812636613634
 20
98.68688600020374
 30
0.0
 10
1568.377203576029
 20
98.68688600020374
 30
0.0
 10
1568.377203576029
 20
98.68688600020374
 30
0.0
 10
1568.377203576029
 20
98.68688600020374
 30
0.0
 10
1573.306951963385
 20
114.9598285528377
 30
0.0
 10
1573.306951963385
 20
114.9598285528377
 30
0.0
  0
SPLINE
  5
3CF1
102
{ACAD_REACTORS
330
3CE3
330
3CF4
102
}
330
A
100
AcDbEntity
  8
TEMPLATE
100
AcDbSpline
210
0.0
220
0.0
230
1.0
 70
    11
 71
     3
 72
   104
 73
   100
 74
     0
 42
0.000000001
 43
0.0000000001
 40
0.0
 40
0.0
 40
0.0
 40
0.0
 40
1.0
 40
1.0
 40
1.0
 40
2.0
 40
2.0
 40
2.0
 40
3.0
 40
3.0
 40
3.0
 40
4.0
 40
4.0
 40
4.0
 40
5.0
 40
5.0
 40
5.0
 40
6.0
 40
6.0
 40
6.0
 40
7.0
 40
7.0
 40
7.0
 40
8.0
 40
8.0
 40
8.0
 40
9.0
 40
9.0
 40
9.0
 40
10.0
 40
10.0
 40
10.0
 40
11.0
 40
11.0
 40
11.0
 40
12.0
 40
12.0
 40
12.0
 40
13.0
 40
13.0
 40
13.0
 40
14.0
 40
14.0
 40
14.0
 40
15.0
 40
15.0
 40
15.0
 40
16.0
 40
16.0
 40
16.0
 40
17.0
 40
17.0
 40
17.0
 40
18.0
 40
18.0
 40
18.0
 40
19.0
 40
19.0
 40
19.0
 40
20.0
 40
20.0
 40
20.0
 40
21.0
 40
21.0
 40
21.0
 40
22.0
 40
22.0
 40
22.0
 40
23.0
 40
23.0
 40
23.0
 40
24.0
 40
24.0
 40
24.0
 40
25.0
 40
25.0
 40
25.0
 40
26.0
 40
26.0
 40
26.0
 40
27.0
 40
27.0
 40
27.0
 40
28.0
 40
28.0
 40
28.0
 40
29.0
 40
29.0
 40
29.0
 40
30.0
 40
30.0
 40
30.0
 40
31.0
 40
31.0
 40
31.0
 40
32.0
 40
32.0
 40
32.0
 40
33.0
 40
33.0
 40
33.0
 40
33.0
 10
1581.447856894813
 20
114.9686363509126
 30
0.0
 10
1581.447856894813
 20
114.9686363509126
 30
0.0
 10
1582.739151507166
 20
114.9686363509126
 30
0.0
 10
1582.739151507166
 20
114.9686363509126
 30
0.0
 10
1582.739151507166
 20
114.9686363509126
 30
0.0
 10
1582.086779328135
 20
112.8512535961477
 30
0.0
 10
1582.086779328135
 20
112.8512535961477
 30
0.0
 10
1582.652977915191
 20
113.7390558372332
 30
0.0
 10
1583.161211668969
 20
114.134752116961
 30
0.0
 10
1583.836436513275
 20
114.6460805024957
 30
0.0
 10
1584.513684770653
 20
115.1501484058336
 30
0.0
 10
1585.31757488143
 20
115.2528663752741
 30
0.0
 10
1585.875560791902
 20
115.2528663752741
 30
0.0
 10
1586.566377819287
 20
115.2528663752741
 30
0.0
 10
1587.233270962711
 20
115.1164645294122
 30
0.0
 10
1587.58379752123
 20
114.3592914557206
 30
0.0
 10
1587.852435362513
 20
113.7655387436069
 30
0.0
 10
1587.864932913836
 20
113.6954929440522
 30
0.0
 10
1587.788162241427
 20
112.5234606786051
 30
0.0
 10
1588.490286577151
 20
113.725070482182
 30
0.0
 10
1589.008875444882
 20
114.2426476433779
 30
0.0
 10
1589.890488422455
 20
114.7399311617122
 30
0.0
 10
1590.81566429321
 20
115.2528663752741
 30
0.0
 10
1591.354963388847
 20
115.2912517114787
 30
0.0
 10
1591.981507295145
 20
115.198888855991
 30
0.0
 10
1592.90454072853
 20
115.0625465222783
 30
0.0
 10
1593.493711005159
 20
114.7332062888577
 30
0.0
 10
1593.801745889182
 20
113.7323309643788
 30
0.0
 10
1594.11085199189
 20
112.7345502716558
 30
0.0
 10
1593.943860901363
 20
112.1993575143102
 30
0.0
 10
1593.562149976686
 20
110.6109187412297
 30
0.0
 10
1593.387898403962
 20
109.8874890561087
 30
0.0
 10
1593.135804940144
 20
109.0115297327048
 30
0.0
 10
1592.80598860953
 20
107.9692339524144
 30
0.0
 10
1592.80598860953
 20
107.9692339524144
 30
0.0
 10
1589.890488422455
 20
98.68688600020374
 30
0.0
 10
1589.890488422455
 20
98.68688600020374
 30
0.0
 10
1589.890488422455
 20
98.68688600020374
 30
0.0
 10
1588.374118862001
 20
98.68688600020374
 30
0.0
 10
1588.374118862001
 20
98.68688600020374
 30
0.0
 10
1588.374118862001
 20
98.68688600020374
 30
0.0
 10
1590.926713963532
 20
106.8018436346014
 30
0.0
 10
1590.926713963532
 20
106.8018436346014
 30
0.0
 10
1591.459823795657
 20
108.4997252499769
 30
0.0
 10
1591.82070546813
 20
109.7396608776091
 30
0.0
 10
1592.007454592176
 20
110.5170680820132
 30
0.0
 10
1592.241813435546
 20
111.4868185524844
 30
0.0
 10
1592.335128485421
 20
111.8068153784877
 30
0.0
 10
1592.224197839397
 20
112.5126294674591
 30
0.0
 10
1592.122551088641
 20
113.1696435941238
 30
0.0
 10
1591.790592320658
 20
113.5974764343949
 30
0.0
 10
1591.222251296233
 20
113.5974764343949
 30
0.0
 10
1590.616536642139
 20
113.5974764343949
 30
0.0
 10
1590.12591848451
 20
113.5300491694029
 30
0.0
 10
1589.439386331865
 20
112.8403628728524
 30
0.0
 10
1588.752735154922
 20
112.1454395071763
 30
0.0
 10
1588.185346324883
 20
111.3297064787168
 30
0.0
 10
1587.740433497805
 20
110.3915569594466
 30
0.0
 10
1587.296472865113
 20
109.4476942738576
 30
0.0
 10
1586.846322968909
 20
108.2513215394063
 30
0.0
 10
1586.389983809193
 20
106.8018436346014
 30
0.0
 10
1586.389983809193
 20
106.8018436346014
 30
0.0
 10
1583.836436513275
 20
98.68688600020374
 30
0.0
 10
1583.836436513275
 20
98.68688600020374
 30
0.0
 10
1583.836436513275
 20
98.68688600020374
 30
0.0
 10
1582.410287370939
 20
98.68688600020374
 30
0.0
 10
1582.410287370939
 20
98.68688600020374
 30
0.0
 10
1582.410287370939
 20
98.68688600020374
 30
0.0
 10
1585.329953408454
 20
107.9650681019736
 30
0.0
 10
1585.329953408454
 20
107.9650681019736
 30
0.0
 10
1585.637988292478
 20
108.9524936807437
 30
0.0
 10
1585.86937152839
 20
109.757335985908
 30
0.0
 10
1586.021841654524
 20
110.3863794024701
 30
0.0
 10
1586.28107657624
 20
111.4692029563347
 30
0.0
 10
1586.353681398209
 20
112.2014404395306
 30
0.0
 10
1586.157648378894
 20
112.8512535961477
 30
0.0
 10
1585.964709991335
 20
113.4989838275443
 30
0.0
 10
1585.625609765454
 20
113.6644276021936
 30
0.0
 10
1585.0592921541
 20
113.6644276021936
 30
0.0
 10
1584.58426617955
 20
113.6644276021936
 30
0.0
 10
1584.120666537637
 20
113.4605984913397
 30
0.0
 10
1583.591722555952
 20
113.0550231948524
 30
0.0
 10
1582.925781606914
 20
112.5447660280024
 30
0.0
 10
1582.659286203001
 20
112.1257409858062
 30
0.0
 10
1582.332564504143
 20
111.6278623459804
 30
0.0
 10
1581.891698503207
 20
110.9692413912885
 30
0.0
 10
1581.68531036994
 20
110.5258758800881
 30
0.0
 10
1581.31300236483
 20
109.5529712657117
 30
0.0
 10
1580.940575335421
 20
108.5743534850165
 30
0.0
 10
1580.588025363831
 20
107.4355289987976
 30
0.0
 10
1580.342121163525
 20
106.6478261925898
 30
0.0
 10
1580.342121163525
 20
106.6478261925898
 30
0.0
 10
1577.837373829914
 20
98.68688600020374
 30
0.0
 10
1577.837373829914
 20
98.68688600020374
 30
0.0
 10
1577.837373829914
 20
98.68688600020374
 30
0.0
 10
1576.343856934735
 20
98.68688600020374
 30
0.0
 10
1576.343856934735
 20
98.68688600020374
 30
0.0
 10
1576.343856934735
 20
98.68688600020374
 30
0.0
 10
1581.447856894813
 20
114.9686363509126
 30
0.0
 10
1581.447856894813
 20
114.9686363509126
 30
0.0
  0
SPLINE
  5
3CF2
102
{ACAD_REACTORS
330
3CE3
330
3CF4
102
}
330
A
100
AcDbEntity
  8
TEMPLATE
100
AcDbSpline
210
0.0
220
0.0
230
1.0
 70
    11
 71
     3
 72
    32
 73
    28
 74
     0
 42
0.000000001
 43
0.0000000001
 40
0.0
 40
0.0
 40
0.0
 40
0.0
 40
1.0
 40
1.0
 40
1.0
 40
2.0
 40
2.0
 40
2.0
 40
3.0
 40
3.0
 40
3.0
 40
4.0
 40
4.0
 40
4.0
 40
5.0
 40
5.0
 40
5.0
 40
6.0
 40
6.0
 40
6.0
 40
7.0
 40
7.0
 40
7.0
 40
8.0
 40
8.0
 40
8.0
 40
9.0
 40
9.0
 40
9.0
 40
9.0
 10
1561.188374006773
 20
114.1104116479568
 30
0.0
 10
1560.322353212278
 20
112.9902144644232
 30
0.0
 10
1559.655460068853
 20
111.9820786577475
 30
0.0
 10
1558.575790658894
 20
108.813473300319
 30
0.0
 10
1557.583187523147
 20
105.9151126122006
 30
0.0
 10
1556.951525572023
 20
103.8064781433614
 30
0.0
 10
1556.856127596928
 20
101.2384098830501
 30
0.0
 10
1556.78352277496
 20
99.32735574940358
 30
0.0
 10
1557.947223339525
 20
98.68688600020374
 30
0.0
 10
1559.653436655782
 20
98.68688600020374
 30
0.0
 10
1560.388768770734
 20
98.68688600020374
 30
0.0
 10
1562.244357581369
 20
98.73366254943912
 30
0.0
 10
1563.565765341194
 20
100.3671520194295
 30
0.0
 10
1564.490822187649
 20
101.5147843037232
 30
0.0
 10
1565.343393236436
 20
102.70443216532
 30
0.0
 10
1566.486383573095
 20
106.6068818339716
 30
0.0
 10
1567.437506740881
 20
109.8693378506166
 30
0.0
 10
1568.096068183424
 20
111.9779128073066
 30
0.0
 10
1568.047387245416
 20
113.1784513921987
 30
0.0
 10
1568.047387245416
 20
113.1784513921987
 30
0.0
 10
1568.047387245416
 20
113.1784513921987
 30
0.0
 10
1568.047387245416
 20
113.1784513921987
 30
0.0
 10
1567.737209924023
 20
115.1812732598413
 30
0.0
 10
1566.283090071584
 20
115.6044641524784
 30
0.0
 10
1565.452300469388
 20
115.6044641524784
 30
0.0
 10
1564.634008418515
 20
115.6044641524784
 30
0.0
 10
1562.44134279507
 20
115.7460435553167
 30
0.0
 10
1561.188374006773
 20
114.1104116479568
 30
0.0
  0
SPLINE
  5
3CF3
102
{ACAD_REACTORS
330
3CE3
330
3CF4
102
}
330
A
100
AcDbEntity
  8
TEMPLATE
100
AcDbSpline
210
0.0
220
0.0
230
1.0
 70
    11
 71
     3
 72
    29
 73
    25
 74
     0
 42
0.000000001
 43
0.0000000001
 40
0.0
 40
0.0
 40
0.0
 40
0.0
 40
1.0
 40
1.0
 40
1.0
 40
2.0
 40
2.0
 40
2.0
 40
3.0
 40
3.0
 40
3.0
 40
4.0
 40
4.0
 40
4.0
 40
5.0
 40
5.0
 40
5.0
 40
6.0
 40
6.0
 40
6.0
 40
7.0
 40
7.0
 40
7.0
 40
8.0
 40
8.0
 40
8.0
 40
8.0
 10
1558.405704936611
 20
101.7185539024279
 30
0.0
 10
1558.399396648801
 20
102.8522603438195
 30
0.0
 10
1558.757302713815
 20
104.8665085440999
 30
0.0
 10
1559.674146883688
 20
107.5615757307067
 30
0.0
 10
1560.922949821544
 20
111.2109202290046
 30
0.0
 10
1561.671850706503
 20
112.5447660280024
 30
0.0
 10
1562.327198492992
 20
113.1940435752771
 30
0.0
 10
1563.284629948588
 20
114.1394535767441
 30
0.0
 10
1564.5717587105
 20
114.1865871988744
 30
0.0
 10
1564.951446222105
 20
114.1394535767441
 30
0.0
 10
1565.491816536427
 20
114.0745853341658
 30
0.0
 10
1566.255119361481
 20
113.7209046317411
 30
0.0
 10
1566.300705667734
 20
112.5302450636088
 30
0.0
 10
1566.337127103016
 20
111.5112185336377
 30
0.0
 10
1566.043494159088
 20
109.6027829345539
 30
0.0
 10
1565.015719343191
 20
106.6068818339716
 30
0.0
 10
1563.831189526422
 20
103.1255401327366
 30
0.0
 10
1563.119662271132
 20
101.7569987507817
 30
0.0
 10
1562.549297833636
 20
101.1605679919562
 30
0.0
 10
1561.474746468504
 20
100.042453733643
 30
0.0
 10
1560.322353212278
 20
100.1498136507176
 30
0.0
 10
1560.152267489994
 20
100.1498136507176
 30
0.0
 10
1559.931358392333
 20
100.1498136507176
 30
0.0
 10
1558.408799568367
 20
100.3895285875116
 30
0.0
 10
1558.405704936611
 20
101.7185539024279
 30
0.0
  0
MTEXT
  5
3D0E
330
A
100
AcDbEntity
  8
TEMPLATE
390
1D
100
AcDbMText
 10
1268.051654997698
 20
184.1194325551426
 30
0.0
 40
19.54609375
 41
0.0
 46
19.54609375
 71
     1
 72
     1
  1
{6.5L}
  7
ＭＳ ゴシック
 73
     1
 44
0.7828267384257843
1001
ACAD
1000
ACAD_MTEXT_DEFINED_HEIGHT_BEGIN
1070
    46
1040
19.54609375
1000
ACAD_MTEXT_DEFINED_HEIGHT_END
  0
MTEXT
  5
3D12
330
A
100
AcDbEntity
  8
TEMPLATE
390
1D
100
AcDbMText
 10
105.7617156381846
 20
184.1194325551428
 30
0.0
 40
19.54609375
 41
0.0
 46
48.94388282328545
 71
     1
 72
     1
  1
{オーバーフローなし、専用排水金具付属\P陶器}
  7
ＭＳ ゴシック
 73
     1
 44
0.7828267384257843
1001
ACAD
1000
ACAD_MTEXT_DEFINED_HEIGHT_BEGIN
1070
    46
1040
48.94388282328545
1000
ACAD_MTEXT_DEFINED_HEIGHT_END
  0
MTEXT
  5
3DB7
102
{ACAD_XDICTIONARY
360
3DB8
102
}
330
A
100
AcDbEntity
  8
TEMPLATE
100
AcDbMText
 10
58.76275698768336
 20
71.9342530318656
 30
0.0
 40
16.0
 41
0.0
 46
16.0
 71
     1
 72
     1
  1
{20230308N}
  7
ＭＳ ゴシック
 73
     1
 44
1.0
1001
ACAD
1000
ACAD_MTEXT_DEFINED_HEIGHT_BEGIN
1070
    46
1040
16.0
1000
ACAD_MTEXT_DEFINED_HEIGHT_END
  0
CIRCLE
  5
445C
330
A
100
AcDbEntity
  8
0
  6
Continuous
 62
     7
370
    25
100
AcDbCircle
 10
394.3304168876272
 20
1711.33627122183
 30
0.0
 40
200.0000000000001
  0
CIRCLE
  5
445D
330
A
100
AcDbEntity
  8
0
  6
Continuous
 62
     7
370
    25
100
AcDbCircle
 10
394.3304168876272
 20
1711.33627122183
 30
0.0
 40
193.9999999999999
  0
CIRCLE
  5
445E
330
A
100
AcDbEntity
  8
0
  6
Continuous
 62
     7
370
    25
100
AcDbCircle
 10
394.3304168876272
 20
1711.33627122183
 30
0.0
 40
42.50000000000014
  0
CIRCLE
  5
445F
330
A
100
AcDbEntity
  8
0
  6
Continuous
 62
     7
370
    25
100
AcDbCircle
 10
394.3304168876272
 20
1711.33627122183
 30
0.0
 40
22.99999999999997
  0
LINE
  5
4460
330
A
100
AcDbEntity
  8
0
  6
Continuous
 62
     7
370
    18
100
AcDbLine
 10
351.8304168876272
 20
1711.33627122183
 30
0.0
 11
351.8304168876272
 21
1711.33627122183
 31
0.0
  0
LINE
  5
4461
330
A
100
AcDbEntity
  8
0
  6
Continuous
 62
     7
370
    18
100
AcDbLine
 10
417.3304168876272
 20
1711.33627122183
 30
0.0
 11
417.3304168876272
 21
1711.33627122183
 31
0.0
  0
LINE
  5
4462
330
A
100
AcDbEntity
  8
0
  6
Continuous
 62
     7
370
    18
100
AcDbLine
 10
243.7239464946539
 20
1579.739572647093
 30
0.0
 11
243.7239464946539
 21
1579.739572647093
 31
0.0
  0
LINE
  5
4463
330
A
100
AcDbEntity
  8
0
  6
Continuous
 62
     7
370
    25
100
AcDbLine
 10
1014.586412444932
 20
1021.041226331673
 30
0.0
 11
1402.586412444932
 21
1021.041226331673
 31
0.0
  0
SPLINE
  5
4464
102
{ACAD_REACTORS
102
}
330
A
100
AcDbEntity
  8
0
  6
Continuous
 62
     7
370
    25
100
AcDbSpline
210
0.0
220
0.0
230
1.0
 70
     8
 71
     3
 72
     9
 73
     5
 74
     0
 42
0.000000001
 43
0.00000001
 40
0.0
 40
0.0
 40
0.0
 40
0.0
 40
0.8393686078189909
 40
1.0
 40
1.0
 40
1.0
 40
1.0
 10
1008.586412444933
 20
1021.041226331673
 30
0.0
 10
1015.447526747056
 20
942.0937592761385
 30
0.0
 10
1160.777601998433
 20
930.4618090362314
 30
0.0
 10
1158.586412444933
 20
833.335345902683
 30
0.0
 10
1158.586412444933
 20
821.0412263316721
 30
0.0
  0
SPLINE
  5
4465
330
A
100
AcDbEntity
  8
0
  6
Continuous
 62
     7
370
    25
100
AcDbSpline
210
0.0
220
0.0
230
1.0
 70
     8
 71
     3
 72
     9
 73
     5
 74
     0
 42
0.000000001
 43
0.00000001
 40
0.0
 40
0.0
 40
0.0
 40
0.0
 40
0.8393686078189909
 40
1.0
 40
1.0
 40
1.0
 40
1.0
 10
1408.586412444933
 20
1021.041226331673
 30
0.0
 10
1401.725298142809
 20
942.0937592761385
 30
0.0
 10
1256.395222891431
 20
930.4618090362314
 30
0.0
 10
1258.586412444933
 20
833.335345902683
 30
0.0
 10
1258.586412444933
 20
821.0412263316721
 30
0.0
  0
LINE
  5
4466
330
A
100
AcDbEntity
  8
0
  6
Continuous
 62
     7
370
    25
100
AcDbLine
 10
1166.086412444933
 20
911.0412263316721
 30
0.0
 11
1166.086412444933
 21
898.0412263316721
 31
0.0
  0
LINE
  5
4467
330
A
100
AcDbEntity
  8
0
  6
Continuous
 62
     7
370
    25
100
AcDbLine
 10
1251.086412444933
 20
898.0412263316721
 30
0.0
 11
1251.086412444933
 21
911.0412263316721
 31
0.0
  0
LINE
  5
4468
330
A
100
AcDbEntity
  8
0
  6
Continuous
 62
     7
370
    25
100
AcDbLine
 10
1231.586412444932
 20
888.0412263316721
 30
0.0
 11
1251.086412444933
 21
898.0412263316721
 31
0.0
  0
LINE
  5
4469
330
A
100
AcDbEntity
  8
0
  6
Continuous
 62
     7
370
    25
100
AcDbLine
 10
1166.086412444933
 20
898.0412263316721
 30
0.0
 11
1185.58641244493
 21
888.0412263316721
 31
0.0
  0
LINE
  5
446A
330
A
100
AcDbEntity
  8
0
  6
Continuous
 62
     7
370
    25
100
AcDbLine
 10
1185.58641244493
 20
888.0412263316721
 30
0.0
 11
1185.58641244493
 21
821.0412263316721
 31
0.0
  0
LINE
  5
446B
330
A
100
AcDbEntity
  8
0
  6
Continuous
 62
     7
370
    25
100
AcDbLine
 10
1231.586412444932
 20
821.0412263316721
 30
0.0
 11
1231.586412444932
 21
888.0412263316721
 31
0.0
  0
LINE
  5
446C
330
A
100
AcDbEntity
  8
0
  6
Continuous
 62
     7
370
    25
100
AcDbLine
 10
1185.58641244493
 20
821.0412263316721
 30
0.0
 11
1158.586412444933
 21
821.0412263316721
 31
0.0
  0
LINE
  5
446D
330
A
100
AcDbEntity
  8
0
  6
Continuous
 62
     7
370
    25
100
AcDbLine
 10
1008.586412444933
 20
1021.041226331673
 30
0.0
 11
1014.586412444932
 21
1021.041226331673
 31
0.0
  0
LINE
  5
446E
330
A
100
AcDbEntity
  8
0
  6
Continuous
 62
     7
370
    25
100
AcDbLine
 10
1258.586412444933
 20
821.0412263316721
 30
0.0
 11
1231.586412444932
 21
821.0412263316721
 31
0.0
  0
LINE
  5
446F
330
A
100
AcDbEntity
  8
0
  6
Continuous
 62
     7
370
    25
100
AcDbLine
 10
1402.586412444932
 20
1021.041226331673
 30
0.0
 11
1408.586412444933
 21
1021.041226331673
 31
0.0
  0
LINE
  5
4470
102
{ACAD_REACTORS
330
4487
102
}
330
A
100
AcDbEntity
  8
0
  6
Continuous
 62
     7
370
    18
100
AcDbLine
 10
1402.273912444932
 20
1021.041226331673
 30
0.0
 11
1212.066522424489
 21
1021.041226331671
 31
0.0
  0
SPLINE
  5
4471
102
{ACAD_REACTORS
330
4487
102
}
330
A
100
AcDbEntity
  8
HIDDEN
 48
0.5
100
AcDbSpline
210
0.0
220
0.0
230
1.0
 70
  1064
 71
     3
 72
    84
 73
    80
 74
    78
 42
0.000000001
 43
0.0000000001
 44
0.0
 40
0.0
 40
0.0
 40
0.0
 40
0.0
 40
2.66156275543284
 40
9.587832049952965
 40
15.86402134117245
 40
21.51039595743186
 40
26.77019104027449
 40
32.13803867834366
 40
38.37907267221197
 40
40.73595480920789
 40
49.28037558587857
 40
53.94305235153147
 40
59.0730148325821
 40
65.55127062641938
 40
71.69578671036871
 40
79.14828188756881
 40
86.12115695813762
 40
96.61122621592625
 40
104.9034170125141
 40
112.9809847119712
 40
125.476980888673
 40
131.4419882936322
 40
141.0474550026951
 40
152.32294990987
 40
164.3233576645794
 40
175.0550813632301
 40
182.8350819281638
 40
192.2102293920639
 40
195.0596789924646
 40
196.0188889690451
 40
196.4039941428993
 40
196.6783914834636
 40
196.8401548547424
 40
196.9515493092932
 40
198.1048143946992
 40
201.5615439435561
 40
205.2998521368903
 40
221.1096965221733
 40
242.9949396231942
 40
251.9375985993111
 40
267.5403271192832
 40
275.3744322552571
 40
278.1796316273661
 40
280.4418891855181
 40
281.3241696331971
 40
281.7087534180843
 40
281.9515493092923
 40
282.2583159816546
 40
283.0124290897452
 40
283.748913983707
 40
284.9591211370414
 40
288.212805752063
 40
291.6919336646853
 40
293.431139965467
 40
300.8847374527808
 40
307.1520285613576
 40
313.5084460832064
 40
319.8119056577761
 40
325.8901982858285
 40
333.7698412061274
 40
341.50488487219
 40
350.4528600085424
 40
361.8739236107496
 40
375.0877127336139
 40
384.3243200761779
 40
396.7863686429142
 40
405.4448635913564
 40
414.2214128156822
 40
424.4877581550352
 40
434.530981063455
 40
441.607121257429
 40
447.2083102737673
 40
455.2382702186527
 40
459.7574711720987
 40
465.5275332319286
 40
469.7138855361683
 40
475.0142541420951
 40
477.5442543355583
 40
478.9029402203157
 40
478.9029402203157
 40
478.9029402203157
 40
478.9029402203157
 10
1014.586412444932
 20
1021.041226331673
 30
0.0
 10
1014.680350608569
 20
1020.158938104126
 30
0.0
 10
1015.018747039085
 20
1016.980643198959
 30
0.0
 10
1016.074257967141
 20
1011.782459846674
 30
0.0
 10
1017.985617411631
 20
1005.787197486742
 30
0.0
 10
1020.272480533581
 20
1000.524556919478
 30
0.0
 10
1022.915728875075
 20
995.7814148533475
 30
0.0
 10
1025.919985161248
 20
991.0260977333849
 30
0.0
 10
1028.635763470368
 20
987.2403909849377
 30
0.0
 10
1032.16652702125
 20
982.7474977332255
 30
0.0
 10
1035.600639530842
 20
978.8483181149445
 30
0.0
 10
1039.934159031893
 20
974.5345714217254
 30
0.0
 10
1043.986943520485
 20
970.9271569290264
 30
0.0
 10
1048.530827517646
 20
967.1356710343643
 30
0.0
 10
1053.753809027232
 20
962.9515765436861
 30
0.0
 10
1059.214472850119
 20
958.8033617734641
 30
0.0
 10
1065.957776947194
 20
953.9540314056974
 30
0.0
 10
1073.086789833325
 20
949.1665148922164
 30
0.0
 10
1080.688010135584
 20
944.4329679548987
 30
0.0
 10
1089.005654577648
 20
939.5933988033635
 30
0.0
 10
1096.817278290454
 20
935.4343019587909
 30
0.0
 10
1105.219719624691
 20
931.3192576451071
 30
0.0
 10
1113.367172934487
 20
927.6134716943192
 30
0.0
 10
1123.513311817859
 20
923.4595060607062
 30
0.0
 10
1134.181151016293
 20
919.6145852525457
 30
0.0
 10
1143.887308137503
 20
916.566747815336
 30
0.0
 10
1152.846397772093
 20
914.0841327513695
 30
0.0
 10
1159.326723626364
 20
912.5057836865917
 30
0.0
 10
1163.618825402198
 20
911.5620903278705
 30
0.0
 10
1164.986167882877
 20
911.2711851229435
 30
0.0
 10
1165.51423618046
 20
911.1604662339655
 30
0.0
 10
1165.782178922984
 20
911.1041792658513
 30
0.0
 10
1165.960941850784
 20
911.0676795892191
 30
0.0
 10
1166.42594240499
 20
910.9655735033834
 30
0.0
 10
1168.018069560678
 20
911.1442760029084
 30
0.0
 10
1170.786160490376
 20
911.0011968976897
 30
0.0
 10
1178.464033166834
 20
911.094573441649
 30
0.0
 10
1192.266555056916
 20
911.0107025399641
 30
0.0
 10
1207.815966860272
 20
911.0444864137176
 30
0.0
 10
1223.292352618295
 20
911.0403595666842
 30
0.0
 10
1234.085789047598
 20
911.0402126699754
 30
0.0
 10
1242.8328355192
 20
911.0427435312426
 30
0.0
 10
1247.133690693603
 20
911.0395097902881
 30
0.0
 10
1249.116360425066
 20
911.045116712332
 30
0.0
 10
1250.293548715673
 20
911.0371866618731
 30
0.0
 10
1250.795815721165
 20
911.0464673693893
 30
0.0
 10
1251.109095389284
 20
911.0279888882071
 30
0.0
 10
1251.531360461305
 20
911.1477036368616
 30
0.0
 10
1252.119607730277
 20
911.2522414837381
 30
0.0
 10
1252.999482523719
 20
911.4463552041659
 30
0.0
 10
1254.694147370706
 20
911.8088920260493
 30
0.0
 10
1257.277026164934
 20
912.3928731146891
 30
0.0
 10
1260.024475435281
 20
913.04583624799
 30
0.0
 10
1264.124126119129
 20
914.0632495153014
 30
0.0
 10
1269.104948874956
 20
915.3884607378931
 30
0.0
 10
1275.527534755139
 20
917.2716409993859
 30
0.0
 10
1281.53958413651
 20
919.1865254489292
 30
0.0
 10
1287.445994813668
 20
921.21989093802
 30
0.0
 10
1293.780921073509
 20
923.5628775057661
 30
0.0
 10
1300.497514149647
 20
926.2442807936065
 30
0.0
 10
1308.012496251249
 20
929.4967361952504
 30
0.0
 10
1316.493592163942
 20
933.4794820786002
 30
0.0
 10
1326.444432328048
 20
938.6141345649696
 30
0.0
 10
1336.238007390383
 20
944.2416328023006
 30
0.0
 10
1346.083164043131
 20
950.4504180372717
 30
0.0
 10
1354.422789844531
 20
956.1879855547431
 30
0.0
 10
1362.413852552395
 20
962.1462928706355
 30
0.0
 10
1369.622407789752
 20
967.9164208915489
 30
0.0
 10
1377.042958213348
 20
974.1690493730092
 30
0.0
 10
1383.383376298443
 20
980.7626336706505
 30
0.0
 10
1388.146855823873
 20
986.6589424162684
 30
0.0
 10
1392.119505044859
 20
992.306087926108
 30
0.0
 10
1395.299951965522
 20
997.4649410810575
 30
0.0
 10
1398.009461728736
 20
1002.943293719921
 30
0.0
 10
1399.751948490194
 20
1007.452444870372
 30
0.0
 10
1401.181963888444
 20
1012.336613289999
 30
0.0
 10
1401.990544319657
 20
1016.265906677615
 30
0.0
 10
1402.413316232414
 20
1019.300604895614
 30
0.0
 10
1402.54159317496
 20
1020.590532576291
 30
0.0
 10
1402.586412444932
 20
1021.041226331673
 30
0.0
 11
1014.586412444932
 21
1021.041226331673
 31
0.0
 11
1014.891308825361
 21
1018.397185012346
 31
0.0
 11
1016.244215735783
 21
1011.604332207232
 31
0.0
 11
1018.154179786015
 21
1005.625821577816
 31
0.0
 11
1020.409664293054
 21
1000.449497018281
 31
0.0
 11
1022.938984280337
 21
995.8377744859265
 31
0.0
 11
1025.805087173932
 21
991.2991356515565
 31
0.0
 11
1029.443207217373
 21
986.2281803310934
 31
0.0
 11
1030.899574482889
 21
984.3751051044435
 31
0.0
 11
1036.543808295795
 21
977.9602979308763
 31
0.0
 11
1039.852047067257
 21
974.6745543541565
 31
0.0
 11
1043.666687810156
 21
971.2445352493114
 31
0.0
 11
1048.630266531706
 21
967.0815213884935
 31
0.0
 11
1053.428225636671
 21
963.2429453070545
 31
0.0
 11
1059.361736026976
 21
958.7337171231704
 31
0.0
 11
1065.02298555608
 21
954.6629382641584
 31
0.0
 11
1073.731464176299
 21
948.8145236794704
 31
0.0
 11
1080.770393965156
 21
944.4311578911114
 31
0.0
 11
1087.752152541237
 21
940.3688744046184
 31
0.0
 11
1098.782191062342
 21
934.4962114080654
 31
0.0
 11
1104.139249267905
 21
931.8726183139614
 31
0.0
 11
1112.88278065049
 21
927.8957288685955
 31
0.0
 11
1123.317601911281
 21
923.6235759386227
 31
0.0
 11
1134.607115633561
 21
919.5545875884627
 31
0.0
 11
1144.845918685319
 21
916.3394972924534
 31
0.0
 11
1152.343374994495
 21
914.2618645813216
 31
0.0
 11
1161.452294527825
 21
912.043537530323
 31
0.0
 11
1164.235239196459
 21
911.4315064881805
 31
0.0
 11
1165.173477049429
 21
911.2320233800599
 31
0.0
 11
1165.550358496067
 21
911.1528629725992
 31
0.0
 11
1165.818964204383
 21
911.0967837967066
 31
0.0
 11
1165.977339657682
 21
911.0638504689086
 31
0.0
 11
1166.086412444934
 21
911.0412263316709
 31
0.0
 11
1167.23967753034
 21
911.0412263316719
 31
0.0
 11
1170.696407079197
 21
911.0412263316721
 31
0.0
 11
1174.434715272531
 21
911.0412263316721
 31
0.0
 11
1190.244559657814
 21
911.0412263316721
 31
0.0
 11
1212.129802758835
 21
911.0412263316721
 31
0.0
 11
1221.072461734952
 21
911.0412263316721
 31
0.0
 11
1236.675190254924
 21
911.0412263316721
 31
0.0
 11
1244.509295390898
 21
911.0412263316721
 31
0.0
 11
1247.314494763007
 21
911.0412263316721
 31
0.0
 11
1249.576752321159
 21
911.0412263316721
 31
0.0
 11
1250.459032768838
 21
911.0412263316721
 31
0.0
 11
1250.843616553725
 21
911.0412263316721
 31
0.0
 11
1251.086412444933
 21
911.0412263316721
 31
0.0
 11
1251.386763199932
 21
911.1036379911909
 31
0.0
 11
1252.124804569564
 21
911.2584976583271
 31
0.0
 11
1252.845177525032
 21
911.4117060264543
 31
0.0
 11
1254.028003389257
 21
911.6676832303267
 31
0.0
 11
1257.202335243694
 21
912.3818826786144
 31
0.0
 11
1260.586929556774
 21
913.187396408016
 31
0.0
 11
1262.274949970059
 21
913.6062348506309
 31
0.0
 11
1269.477912676832
 21
915.5228578567876
 31
0.0
 11
1275.492018080372
 21
917.2862279355732
 31
0.0
 11
1281.548638277964
 21
919.2153198188657
 31
0.0
 11
1287.508793989768
 21
921.267183971115
 31
0.0
 11
1293.209666138095
 21
923.3756663686388
 31
0.0
 11
1300.527695444492
 21
926.2971761875726
 31
0.0
 11
1307.626418203316
 21
929.3694775577594
 31
0.0
 11
1315.725787006383
 21
933.1729607025475
 31
0.0
 11
1325.875280451541
 21
938.4101810160685
 31
0.0
 11
1337.332407639915
 21
944.9933762564474
 31
0.0
 11
1345.144985656325
 21
949.9207020969225
 31
0.0
 11
1355.413046476569
 21
956.9825419047534
 31
0.0
 11
1362.35193215225
 21
962.1614800538364
 31
0.0
 11
1369.214097743742
 21
967.6330885634025
 31
0.0
 11
1376.977405295563
 21
974.3508934491294
 31
0.0
 11
1383.941480075732
 21
981.5874664532814
 31
0.0
 11
1388.385753478176
 21
987.0938440256155
 31
0.0
 11
1391.61529807933
 21
991.6702356244525
 31
0.0
 11
1395.77474551976
 21
998.5389512035665
 31
0.0
 11
1397.769805753253
 21
1002.593937260554
 31
0.0
 11
1399.853489614899
 21
1007.974632172831
 31
0.0
 11
1401.028699259732
 21
1011.992645102863
 31
0.0
 11
1402.100608969405
 21
1017.183494448876
 31
0.0
 11
1402.445773345436
 21
1019.68983890494
 31
0.0
 11
1402.586412444932
 21
1021.041226331673
 31
0.0
  0
CIRCLE
  5
4472
330
A
100
AcDbEntity
  8
HIDDEN
 48
1.1
100
AcDbCircle
 10
1209.230368555758
 20
1711.33627122183
 30
0.0
 40
200.0000000000001
  0
CIRCLE
  5
4474
330
A
100
AcDbEntity
  8
HIDDEN
 48
0.3
100
AcDbCircle
 10
1209.230368555758
 20
1711.33627122183
 30
0.0
 40
22.99999999999997
  0
LINE
  5
4475
330
A
100
AcDbEntity
  8
MODEL
100
AcDbLine
 10
1232.229807672768
 20
1711.175646494566
 30
0.0
 11
1232.229807672768
 21
1711.175646494566
 31
0.0
  0
MTEXT
  5
4476
330
A
100
AcDbEntity
  8
DIM
390
1D
100
AcDbMText
 10
1103.666835512802
 20
2053.015135345918
 30
0.0
 40
20.0
 41
0.0
 46
0.0
 71
     1
 72
     1
  1
カウンター切込寸法
  7
ＭＳ ゴシック
 73
     1
 44
0.7828267384257843
  0
MTEXT
  5
4477
330
A
100
AcDbEntity
  8
DIM
390
1D
100
AcDbMText
 10
907.4351675453091
 20
1428.294939569225
 30
0.0
 40
20.0
 41
949.7161250932049
 46
111.8331968503937
 71
     1
 72
     1
  1
{※陶器製品には寸法公差があります。\P  洗面器の収め方をご確認の上、必ず現物を合わせて\P  カウンターに切込を行ってください。}
  7
ＭＳ ゴシック
 73
     1
 44
0.9822934569727008
1001
ACAD
1000
ACAD_MTEXT_DEFINED_HEIGHT_BEGIN
1070
    46
1040
111.8331968503937
1000
ACAD_MTEXT_DEFINED_HEIGHT_END
  0
DIMENSION
  5
447B
330
A
100
AcDbEntity
  8
DIM
100
AcDbDimension
  2
*D21
 10
594.3304168876272
 20
2017.491605613193
 30
0.0
 11
394.3304168876269
 21
2043.491605613193
 31
0.0
 70
    32
 71
     5
 42
400.0000000000005
 73
     0
 74
     0
 75
     0
  3
tfrom線あり
100
AcDbAlignedDimension
 13
194.3304168876267
 23
1747.183509582138
 33
0.0
 14
594.3304168876272
 24
1747.183509582138
 34
0.0
100
AcDbRotatedDimension
  0
DIMENSION
  5
447C
330
A
100
AcDbEntity
  8
DIM
100
AcDbDimension
  2
*D22
 10
588.3304168876272
 20
1405.468819023507
 30
0.0
 11
394.3304168876272
 21
1431.472570430285
 31
0.0
 70
    32
 71
     5
 42
388.0
 73
     0
 74
     0
 75
     0
  3
tfrom線あり
100
AcDbAlignedDimension
 13
200.3304168876272
 23
1680.169807720724
 33
0.0
 14
588.3304168876272
 24
1680.169807720724
 34
0.0
100
AcDbRotatedDimension
  0
DIMENSION
  5
447D
330
A
100
AcDbEntity
  8
DIM
100
AcDbDimension
  2
*D23
 10
462.5492386258416
 20
637.2571264806877
 30
0.0
 11
412.5492386258416
 21
663.2608778874652
 31
0.0
 70
    32
 71
     5
 42
100.0
 73
     0
 74
     0
 75
     0
  3
tfrom線あり
100
AcDbAlignedDimension
 13
362.5492386258416
 23
776.3081721319302
 33
0.0
 14
462.5492386258416
 24
776.3081721319302
 34
0.0
100
AcDbRotatedDimension
  0
DIMENSION
  5
447F
330
A
100
AcDbEntity
  8
DIM
100
AcDbDimension
  2
*D24
 10
1506.671499505326
 20
1021.041226331673
 30
0.0
 11
1480.667748098549
 21
921.0412263316724
 31
0.0
 70
    32
 71
     5
 42
200.0000000000011
 73
     0
 74
     0
 75
     0
  3
tfrom線あり
100
AcDbAlignedDimension
 13
1284.441433610126
 23
821.0412263316719
 33
0.0
 14
1413.586412444933
 24
1021.041226331673
 34
0.0
 50
90.0
100
AcDbRotatedDimension
  0
DIMENSION
  5
4482
330
A
100
AcDbEntity
  8
DIM
100
AcDbDimension
  2
*D25
 10
1408.586412444933
 20
637.2571264806878
 30
0.0
 11
1308.586412444932
 21
637.2571264806878
 31
0.0
 70
   160
 71
     5
 42
200.000000000002
 73
     0
 74
     0
 75
     0
  3
tfrom線あり
100
AcDbAlignedDimension
 13
1208.586412444931
 23
727.2056952367996
 33
0.0
 14
1408.586412444933
 24
984.6946461875284
 34
0.0
100
AcDbRotatedDimension
  0
DIMENSION
  5
4485
102
{ACAD_REACTORS
330
4487
102
}
102
{ACAD_XDICTIONARY
360
4486
102
}
330
A
100
AcDbEntity
  8
DIM
100
AcDbDimension
  2
*D26
 10
1212.066522424489
 20
911.0412199154263
 30
0.0
 11
1212.066522424489
 21
1126.081616477976
 31
0.0
 70
   160
 71
     5
 42
110.0000064162451
 73
     0
 74
     1
 75
     1
  3
tfrom線あり
100
AcDbAlignedDimension
 13
1212.066522424489
 23
1021.041226331671
 33
0.0
 14
1212.115293959405
 24
911.0412199154263
 34
0.0
 50
90.0
100
AcDbRotatedDimension
1001
ACAD
1000
DSTYLE
1002
{
1070
     3
1000
<>(深さ)
1070
   172
1070
     1
1070
    75
1070
     1
1070
    76
1070
     1
1002
}
  0
HATCH
  5
448A
330
A
100
AcDbEntity
  8
DIM
100
AcDbHatch
 10
0.0
 20
0.0
 30
0.0
210
0.0
220
0.0
230
1.0
  2
ANSI31
 70
     0
 71
     0
 91
        1
 92
        1
 93
        1
 72
     2
 10
1209.230368555758
 20
1711.33627122183
 40
35.0
 50
0.0
 51
360.0
 73
     1
 97
        0
 75
     0
 76
     1
 52
0.0
 41
2.0
 77
     0
 78
     1
 53
45.0
 43
-204.1363875757651
 44
-383.6547754767612
 45
-4.490128060534577
 46
4.490128060534577
 79
     0
 98
        0
1001
ACAD
1010
0.0
1020
0.0
1030
0.0
  0
CIRCLE
  5
448B
330
A
100
AcDbEntity
  8
MODEL
100
AcDbCircle
 10
1209.230368555758
 20
1711.33627122183
 30
0.0
 40
35.0
  0
LINE
  5
448C
330
A
100
AcDbEntity
  8
DIM
100
AcDbLine
 10
1226.581094594167
 20
1741.732855009159
 30
0.0
 11
1342.246683033122
 21
1925.787081485608
 31
0.0
  0
LINE
  5
448D
330
A
100
AcDbEntity
  8
DIM
100
AcDbLine
 10
1342.246683033122
 20
1925.787081485608
 30
0.0
 11
1422.737746971311
 21
1925.787081485608
 31
0.0
  0
MTEXT
  5
448E
330
A
100
AcDbEntity
  8
DIM
390
1D
100
AcDbMText
 10
1359.845485220605
 20
1960.142790528983
 30
0.0
 40
20.0
 41
0.0
 46
28.40135167875453
 71
     1
 72
     1
  1
{%%c70}
  7
ＭＳ ゴシック
 73
     1
 44
0.7828267384257843
1001
ACAD
1000
ACAD_MTEXT_DEFINED_HEIGHT_BEGIN
1070
    46
1040
28.40135167875453
1000
ACAD_MTEXT_DEFINED_HEIGHT_END
  0
LINE
  5
448F
330
A
100
AcDbEntity
  8
MODEL
100
AcDbLine
 10
1251.086412444932
 20
898.0412263316721
 30
0.0
 11
1251.086412444932
 21
908.041226331672
 31
0.0
  0
LINE
  5
4490
330
A
100
AcDbEntity
  8
MODEL
100
AcDbLine
 10
1166.086412444932
 20
898.0412263316721
 30
0.0
 11
1166.086412444932
 21
908.041226331672
 31
0.0
  0
LINE
  5
4491
330
A
100
AcDbEntity
  8
MODEL
  6
Continuous
390
1D
100
AcDbLine
 10
1212.579038872684
 20
900.789739541268
 30
0.0
 11
1212.579038872684
 21
895.79016826886
 31
0.0
  0
POLYLINE
  5
4492
330
A
100
AcDbEntity
  8
MODEL
  6
Continuous
100
AcDb2dPolyline
 66
     1
 10
0.0
 20
0.0
 30
0.0
  0
VERTEX
  5
4493
330
4492
100
AcDbEntity
  8
MODEL
  6
Continuous
100
AcDbVertex
100
AcDb2dVertex
 10
1228.586412444932
 20
889.795532958322
 30
0.0
  0
VERTEX
  5
4494
330
4492
100
AcDbEntity
  8
MODEL
  6
Continuous
100
AcDbVertex
100
AcDb2dVertex
 10
1228.586412444932
 20
735.79016826886
 30
0.0
  0
SEQEND
  5
4495
330
4492
100
AcDbEntity
  8
MODEL
  6
Continuous
  0
POLYLINE
  5
4496
102
{ACAD_REACTORS
102
}
330
A
100
AcDbEntity
  8
MODEL
  6
Continuous
100
AcDb2dPolyline
 66
     1
 10
0.0
 20
0.0
 30
0.0
  0
VERTEX
  5
4497
330
4496
100
AcDbEntity
  8
MODEL
  6
Continuous
100
AcDbVertex
100
AcDb2dVertex
 10
1188.586412444932
 20
889.7848262926941
 30
0.0
  0
VERTEX
  5
4498
330
4496
100
AcDbEntity
  8
MODEL
  6
Continuous
100
AcDbVertex
100
AcDb2dVertex
 10
1188.586412444932
 20
735.79016826886
 30
0.0
  0
SEQEND
  5
4499
330
4496
100
AcDbEntity
  8
MODEL
  6
Continuous
  0
POLYLINE
  5
449A
330
A
100
AcDbEntity
  8
MODEL
  6
Continuous
100
AcDb2dPolyline
 66
     1
 10
0.0
 20
0.0
 30
0.0
  0
VERTEX
  5
449B
330
449A
100
AcDbEntity
  8
MODEL
  6
Continuous
100
AcDbVertex
100
AcDb2dVertex
 10
1241.22739937071
 20
895.79016826886
 30
0.0
  0
VERTEX
  5
449C
330
449A
100
AcDbEntity
  8
MODEL
  6
Continuous
100
AcDbVertex
100
AcDb2dVertex
 10
1175.934011858054
 20
895.79016826886
 30
0.0
  0
SEQEND
  5
449D
330
449A
100
AcDbEntity
  8
MODEL
  6
Continuous
  0
ARC
  5
449E
330
A
100
AcDbEntity
  8
MODEL
  6
Continuous
100
AcDbCircle
 10
1178.076915761268
 20
880.112994916067
 30
0.0
 40
14.28264130761
100
AcDbArc
 50
42.62319145322483
 51
98.6275887280082
  0
ARC
  5
449F
330
A
100
AcDbEntity
  8
MODEL
  6
Continuous
100
AcDbCircle
 10
1239.086045761488
 20
880.112994916067
 30
0.0
 40
14.28264130761
100
AcDbArc
 50
81.37241127198995
 51
137.3184104408069
  0
ARC
  5
44A0
330
A
100
AcDbEntity
  8
MODEL
  6
Continuous
100
AcDbCircle
 10
1175.938142296504
 20
895.0120929402241
 30
0.0
 40
0.7780845392933852
100
AcDbArc
 50
90.27878537560984
 51
269.7212146243901
  0
ARC
  5
44A1
330
A
100
AcDbEntity
  8
MODEL
  6
Continuous
100
AcDbCircle
 10
1241.22481922625
 20
895.0120929402241
 30
0.0
 40
0.7780845392933852
100
AcDbArc
 50
270.2787853756098
 51
89.72121462432318
  0
LINE
  5
44A2
330
A
100
AcDbEntity
  8
MODEL
  6
Continuous
390
1D
100
AcDbLine
 10
1204.579731179458
 20
900.789739541268
 30
0.0
 11
1204.579731179458
 21
895.79016826886
 31
0.0
  0
LINE
  5
44A3
330
A
100
AcDbEntity
  8
MODEL
  6
Continuous
100
AcDbLine
 10
1244.579561104512
 20
900.789739541268
 30
0.0
 11
1244.579385026071
 21
901.7895129329971
 31
0.0
  0
LINE
  5
44A4
330
A
100
AcDbEntity
  8
MODEL
  6
Continuous
100
AcDbLine
 10
1172.579561104511
 20
900.789739541268
 30
0.0
 11
1172.579385026071
 21
901.7895129329971
 31
0.0
  0
LINE
  5
44A5
330
A
100
AcDbEntity
  8
MODEL
  6
Continuous
100
AcDbLine
 10
1172.579561104511
 20
900.789739541268
 30
0.0
 11
1244.579561104512
 21
900.789739541268
 31
0.0
  0
LINE
  5
44A6
330
A
100
AcDbEntity
  8
MODEL
  6
Continuous
100
AcDbLine
 10
1172.579385026071
 20
901.7895129329971
 30
0.0
 11
1244.579385026071
 21
901.7895129329971
 31
0.0
  0
ARC
  5
44A7
330
A
100
AcDbEntity
  8
MODEL
  6
Continuous
100
AcDbCircle
 10
1208.523021046156
 20
831.9034629744409
 30
0.0
 40
78.6391846490151
100
AcDbArc
 50
62.70939830928383
 51
117.1982289120087
  0
LINE
  5
44A8
330
A
100
AcDbEntity
  8
MODEL
100
AcDbLine
 10
1188.580705614383
 20
735.79016826886
 30
0.0
 11
1228.580705614383
 21
735.79016826886
 31
0.0
  0
LWPOLYLINE
  5
44A9
330
A
100
AcDbEntity
  8
MODEL
100
AcDbPolyline
 90
        4
 70
     1
 43
0.0
 10
1178.019640030939
 20
770.6121850502747
 10
1178.019640030939
 20
773.6121850502747
 10
1238.019640030939
 20
773.6121850502747
 10
1238.019640030939
 20
770.6121850502747
  0
LWPOLYLINE
  5
44AA
330
A
100
AcDbEntity
  8
MODEL
100
AcDbPolyline
 90
        4
 70
     0
 43
0.0
 10
1185.519640030939
 20
766.1634179376937
 10
1185.519640030939
 20
770.6121850502747
 10
1230.519640030939
 20
770.6121850502747
 10
1230.519640030939
 20
766.1595864176601
  0
LWPOLYLINE
  5
44AB
330
A
100
AcDbEntity
  8
MODEL
100
AcDbPolyline
 90
        2
 70
     0
 43
0.0
 10
1229.972238663552
 20
765.6121850502747
 10
1186.067041398324
 20
765.6121850502747
  0
LINE
  5
44AC
330
A
100
AcDbEntity
  8
MODEL
100
AcDbLine
 10
1208.019640030939
 20
770.6121850502747
 30
0.0
 11
1208.019640030939
 21
765.6121850502747
 31
0.0
  0
ARC
  5
44AD
330
A
100
AcDbEntity
  8
MODEL
100
AcDbCircle
 10
1186.067041398324
 20
766.159586417661
 30
0.0
 40
0.5474013673863283
100
AcDbArc
 50
177.7181671112313
 51
271.1652682122306
  0
ARC
  5
44AE
330
A
100
AcDbEntity
  8
MODEL
100
AcDbCircle
 10
1229.972238663552
 20
766.1595864176601
 30
0.0
 40
0.5474013673863283
100
AcDbArc
 50
268.8347317877694
 51
2.281832888768697
  0
LINE
  5
44AF
330
A
100
AcDbEntity
  8
MODEL
100
AcDbLine
 10
1178.019640030939
 20
772.7073263137365
 30
0.0
 11
1238.019640030939
 21
772.7073263137365
 31
0.0
  0
LINE
  5
44B0
330
A
100
AcDbEntity
  8
MODEL
100
AcDbLine
 10
1238.019640030939
 20
772.7073263137365
 30
0.0
 11
1239.51035666228
 21
772.7073263137365
 31
0.0
  0
LINE
  5
44B1
330
A
100
AcDbEntity
  8
MODEL
100
AcDbLine
 10
1239.51035666228
 20
772.7073263137365
 30
0.0
 11
1239.51035666228
 21
774.2276834369738
 31
0.0
  0
LINE
  5
44B2
330
A
100
AcDbEntity
  8
MODEL
100
AcDbLine
 10
1239.51035666228
 20
774.2276834369738
 30
0.0
 11
1238.070018335003
 21
776.3081721319302
 31
0.0
  0
LINE
  5
44B3
330
A
100
AcDbEntity
  8
MODEL
100
AcDbLine
 10
1178.586412444931
 20
772.7073263137365
 30
0.0
 11
1177.095695813588
 21
772.7073263137365
 31
0.0
  0
LINE
  5
44B4
330
A
100
AcDbEntity
  8
MODEL
100
AcDbLine
 10
1177.095695813588
 20
772.7073263137365
 30
0.0
 11
1177.095695813588
 21
774.2276834369738
 31
0.0
  0
LINE
  5
44B5
330
A
100
AcDbEntity
  8
MODEL
100
AcDbLine
 10
1177.095695813588
 20
774.2276834369738
 30
0.0
 11
1178.536034140867
 21
776.3081721319302
 31
0.0
  0
LINE
  5
44B6
330
A
100
AcDbEntity
  8
MODEL
100
AcDbLine
 10
1178.536034140867
 20
776.3081721319302
 30
0.0
 11
1238.070018335003
 21
776.3081721319302
 31
0.0
  0
LWPOLYLINE
  5
44B7
330
A
100
AcDbEntity
  8
MODEL
100
AcDbPolyline
 90
        4
 70
     1
 43
0.0
 10
1178.303026237934
 20
815.3452392500166
 10
1178.303026237934
 20
818.3452392500166
 10
1238.303026237934
 20
818.3452392500166
 10
1238.303026237934
 20
815.3452392500166
  0
LWPOLYLINE
  5
44B8
330
A
100
AcDbEntity
  8
MODEL
100
AcDbPolyline
 90
        4
 70
     0
 43
0.0
 10
1185.803026237934
 20
810.8964721374356
 10
1185.803026237934
 20
815.3452392500166
 10
1230.803026237934
 20
815.3452392500166
 10
1230.803026237934
 20
810.892640617402
  0
LWPOLYLINE
  5
44B9
330
A
100
AcDbEntity
  8
MODEL
100
AcDbPolyline
 90
        2
 70
     0
 43
0.0
 10
1230.255624870548
 20
810.3452392500166
 10
1186.350427605321
 20
810.3452392500166
  0
LINE
  5
44BA
330
A
100
AcDbEntity
  8
MODEL
100
AcDbLine
 10
1208.303026237934
 20
815.3452392500166
 30
0.0
 11
1208.303026237934
 21
810.3452392500166
 31
0.0
  0
ARC
  5
44BB
330
A
100
AcDbEntity
  8
MODEL
100
AcDbCircle
 10
1186.350427605321
 20
810.8926406174029
 30
0.0
 40
0.5474013673863283
100
AcDbArc
 50
177.7181671112313
 51
271.1652682122306
  0
ARC
  5
44BC
330
A
100
AcDbEntity
  8
MODEL
100
AcDbCircle
 10
1230.255624870548
 20
810.892640617402
 30
0.0
 40
0.5474013673863283
100
AcDbArc
 50
268.8347317877694
 51
2.281832888768697
  0
LINE
  5
44BD
330
A
100
AcDbEntity
  8
MODEL
100
AcDbLine
 10
1178.303026237934
 20
817.4403805134784
 30
0.0
 11
1238.303026237934
 21
817.4403805134784
 31
0.0
  0
LINE
  5
44BE
330
A
100
AcDbEntity
  8
MODEL
100
AcDbLine
 10
1238.303026237934
 20
817.4403805134784
 30
0.0
 11
1239.793742869276
 21
817.4403805134784
 31
0.0
  0
LINE
  5
44BF
330
A
100
AcDbEntity
  8
MODEL
100
AcDbLine
 10
1239.793742869276
 20
817.4403805134784
 30
0.0
 11
1239.793742869276
 21
818.9607376367157
 31
0.0
  0
LINE
  5
44C0
330
A
100
AcDbEntity
  8
MODEL
100
AcDbLine
 10
1239.793742869276
 20
818.9607376367157
 30
0.0
 11
1238.353404541998
 21
821.0412263316721
 31
0.0
  0
LINE
  5
44C1
330
A
100
AcDbEntity
  8
MODEL
100
AcDbLine
 10
1178.869798651926
 20
817.4403805134784
 30
0.0
 11
1177.379082020585
 21
817.4403805134784
 31
0.0
  0
LINE
  5
44C2
330
A
100
AcDbEntity
  8
MODEL
100
AcDbLine
 10
1177.379082020585
 20
817.4403805134784
 30
0.0
 11
1177.379082020585
 21
818.9607376367157
 31
0.0
  0
LINE
  5
44C3
330
A
100
AcDbEntity
  8
MODEL
100
AcDbLine
 10
1177.379082020585
 20
818.9607376367157
 30
0.0
 11
1178.819420347862
 21
821.0412263316721
 31
0.0
  0
LINE
  5
44C4
330
A
100
AcDbEntity
  8
MODEL
100
AcDbLine
 10
1178.819420347862
 20
821.0412263316721
 30
0.0
 11
1238.353404541998
 21
821.0412263316721
 31
0.0
  0
HATCH
  5
44C5
330
A
100
AcDbEntity
  8
MODEL
100
AcDbHatch
 10
0.0
 20
0.0
 30
0.0
210
0.0
220
0.0
230
1.0
  2
ANSI31
 70
     0
 71
     0
 91
        1
 92
        1
 93
        4
 72
     1
 10
972.3734725533177
 20
821.0412263316721
 11
972.3734725533177
 21
779.3081721319302
 72
     1
 10
972.3734725533177
 20
779.3081721319302
 11
1173.586412444931
 21
779.3081721319302
 72
     1
 10
1173.586412444931
 20
779.3081721319302
 11
1173.586412444931
 21
821.0412263316721
 72
     1
 10
1173.586412444931
 20
821.0412263316721
 11
972.3734725533179
 21
821.0412263316721
 97
        0
 75
     0
 76
     1
 52
0.0
 41
3.0
 77
     0
 78
     1
 53
45.0
 43
-205.7803436865925
 44
-173.8296264835326
 45
-6.735192090801865
 46
6.735192090801865
 79
     0
 98
        0
1001
ACAD
1010
0.0
1020
0.0
1030
0.0
  0
LWPOLYLINE
  5
44C6
102
{ACAD_REACTORS
330
44D1
102
}
330
A
100
AcDbEntity
  8
MODEL
100
AcDbPolyline
 90
        4
 70
     1
 43
0.0
 10
972.3734725533177
 20
821.0412263316721
 10
972.3734725533177
 20
779.3081721319302
 10
1173.586412444931
 20
779.3081721319302
 10
1173.586412444931
 20
821.0412263316721
  0
HATCH
  5
44C7
330
A
100
AcDbEntity
  8
MODEL
100
AcDbHatch
 10
0.0
 20
0.0
 30
0.0
210
0.0
220
0.0
230
1.0
  2
ANSI31
 70
     0
 71
     0
 91
        1
 92
        1
 93
        4
 72
     1
 10
1444.799352336544
 20
821.0412263316714
 11
1444.799352336544
 21
779.3081721319295
 72
     1
 10
1444.799352336544
 20
779.3081721319295
 11
1243.586412444931
 21
779.3081721319302
 72
     1
 10
1243.586412444931
 20
779.3081721319302
 11
1243.586412444931
 21
821.0412263316721
 72
     1
 10
1243.586412444931
 20
821.0412263316721
 11
1444.799352336544
 21
821.0412263316714
 97
        0
 75
     0
 76
     1
 52
0.0
 41
3.0
 77
     0
 78
     1
 53
45.0
 43
-208.7803436865922
 44
-173.8296264835325
 45
-6.735192090801865
 46
6.735192090801865
 79
     0
 98
        0
1001
ACAD
1010
0.0
1020
0.0
1030
0.0
  0
LWPOLYLINE
  5
44C8
330
A
100
AcDbEntity
  8
MODEL
100
AcDbPolyline
 90
        4
 70
     1
 43
0.0
 10
1444.799352336544
 20
821.0412263316714
 10
1444.799352336544
 20
779.3081721319295
 10
1243.586412444931
 20
779.3081721319302
 10
1243.586412444931
 20
821.0412263316721
  0
LWPOLYLINE
  5
44C9
330
A
100
AcDbEntity
  8
MODEL
100
AcDbPolyline
 90
        4
 70
     1
 43
0.0
 10
1146.086412444931
 20
776.3081721319302
 10
1146.086412444931
 20
779.3081721319302
 10
1271.086412444931
 20
779.3081721319302
 10
1271.086412444931
 20
776.3081721319302
  0
MTEXT
  5
44CD
330
A
100
AcDbEntity
  8
DIM
390
1D
100
AcDbMText
 10
866.3274258453807
 20
774.7227122668058
 30
0.0
 40
15.0
 41
949.716125093205
 46
53.90183745460366
 71
     1
 72
     1
  1
(カウンター厚み)
  7
ＭＳ ゴシック
 11
6.123233995736766E-17
 21
1.0
 31
0.0
 73
     1
 44
0.9822934569727008
1001
ACAD
1000
ACAD_MTEXT_DEFINED_HEIGHT_BEGIN
1070
    46
1040
53.90183745460366
1000
ACAD_MTEXT_DEFINED_HEIGHT_END
  0
MTEXT
  5
44CE
330
A
100
AcDbEntity
  8
DIM
390
1D
100
AcDbMText
 10
839.8257440555676
 20
774.1780959094992
 30
0.0
 40
20.0
 41
949.7161250932049
 46
20.0
 71
     1
 72
     1
  1
{MIN20～MAX40}
  7
ＭＳ ゴシック
 11
6.123233995736766E-17
 21
1.0
 31
0.0
 73
     1
 44
0.9822934569727008
1001
ACAD
1000
ACAD_MTEXT_DEFINED_HEIGHT_BEGIN
1070
    46
1040
20.0
1000
ACAD_MTEXT_DEFINED_HEIGHT_END
  0
DIMENSION
  5
44CF
102
{ACAD_REACTORS
330
44D1
102
}
102
{ACAD_XDICTIONARY
360
44D0
102
}
330
A
100
AcDbEntity
  8
DIM
100
AcDbDimension
  2
*D28
 10
902.4253253551797
 20
821.0412263316721
 30
0.0
 11
902.4253253551797
 21
800.1746992318011
 31
0.0
 70
   160
  1
　
 71
     5
 42
41.7330541997419
 73
     0
 74
     0
 75
     0
  3
tfrom線あり
100
AcDbAlignedDimension
 13
972.3734725533177
 23
779.3081721319302
 33
0.0
 14
972.3734725533177
 24
821.0412263316721
 34
0.0
 50
90.0
100
AcDbRotatedDimension
1001
ACAD
1000
DSTYLE
1002
{
1070
   172
1070
     1
1002
}
  0
LINE
  5
44D2
330
A
100
AcDbEntity
  8
0
  6
Continuous
 62
     7
370
    25
100
AcDbLine
 10
218.5492386258429
 20
1021.041226331673
 30
0.0
 11
606.5492386258429
 21
1021.041226331673
 31
0.0
  0
SPLINE
  5
44D3
102
{ACAD_REACTORS
102
}
330
A
100
AcDbEntity
  8
0
  6
Continuous
 62
     7
370
    25
100
AcDbSpline
210
0.0
220
0.0
230
1.0
 70
     8
 71
     3
 72
     9
 73
     5
 74
     0
 42
0.000000001
 43
0.00000001
 40
0.0
 40
0.0
 40
0.0
 40
0.0
 40
0.8393686078189909
 40
1.0
 40
1.0
 40
1.0
 40
1.0
 10
212.5492386258438
 20
1021.041226331673
 30
0.0
 10
219.4103529279664
 20
942.0937592761385
 30
0.0
 10
364.7404281793433
 20
930.4618090362314
 30
0.0
 10
362.5492386258438
 20
833.335345902683
 30
0.0
 10
362.5492386258438
 20
821.0412263316721
 30
0.0
  0
SPLINE
  5
44D4
330
A
100
AcDbEntity
  8
0
  6
Continuous
 62
     7
370
    25
100
AcDbSpline
210
0.0
220
0.0
230
1.0
 70
     8
 71
     3
 72
     9
 73
     5
 74
     0
 42
0.000000001
 43
0.00000001
 40
0.0
 40
0.0
 40
0.0
 40
0.0
 40
0.8393686078189909
 40
1.0
 40
1.0
 40
1.0
 40
1.0
 10
612.5492386258438
 20
1021.041226331673
 30
0.0
 10
605.6881243237194
 20
942.0937592761385
 30
0.0
 10
460.3580490723425
 20
930.4618090362314
 30
0.0
 10
462.5492386258438
 20
833.335345902683
 30
0.0
 10
462.5492386258438
 20
821.0412263316721
 30
0.0
  0
LINE
  5
44D5
330
A
100
AcDbEntity
  8
0
  6
Continuous
 62
     7
370
    25
100
AcDbLine
 10
370.0492386258438
 20
911.0412263316721
 30
0.0
 11
370.0492386258438
 21
898.0412263316721
 31
0.0
  0
LINE
  5
44D6
330
A
100
AcDbEntity
  8
0
  6
Continuous
 62
     7
370
    25
100
AcDbLine
 10
455.0492386258438
 20
898.0412263316721
 30
0.0
 11
455.0492386258438
 21
911.0412263316721
 31
0.0
  0
LINE
  5
44D7
330
A
100
AcDbEntity
  8
0
  6
Continuous
 62
     7
370
    25
100
AcDbLine
 10
435.5492386258429
 20
888.0412263316721
 30
0.0
 11
455.0492386258438
 21
898.0412263316721
 31
0.0
  0
LINE
  5
44D8
330
A
100
AcDbEntity
  8
0
  6
Continuous
 62
     7
370
    25
100
AcDbLine
 10
370.0492386258438
 20
898.0412263316721
 30
0.0
 11
389.5492386258406
 21
888.0412263316721
 31
0.0
  0
LINE
  5
44D9
330
A
100
AcDbEntity
  8
0
  6
Continuous
 62
     7
370
    25
100
AcDbLine
 10
389.5492386258406
 20
888.0412263316721
 30
0.0
 11
389.5492386258406
 21
821.0412263316721
 31
0.0
  0
LINE
  5
44DA
330
A
100
AcDbEntity
  8
0
  6
Continuous
 62
     7
370
    25
100
AcDbLine
 10
435.5492386258429
 20
821.0412263316721
 30
0.0
 11
435.5492386258429
 21
888.0412263316721
 31
0.0
  0
LINE
  5
44DB
330
A
100
AcDbEntity
  8
0
  6
Continuous
 62
     7
370
    25
100
AcDbLine
 10
389.5492386258406
 20
821.0412263316721
 30
0.0
 11
362.5492386258438
 21
821.0412263316721
 31
0.0
  0
LINE
  5
44DC
330
A
100
AcDbEntity
  8
0
  6
Continuous
 62
     7
370
    25
100
AcDbLine
 10
212.5492386258438
 20
1021.041226331673
 30
0.0
 11
218.5492386258429
 21
1021.041226331673
 31
0.0
  0
LINE
  5
44DD
330
A
100
AcDbEntity
  8
0
  6
Continuous
 62
     7
370
    25
100
AcDbLine
 10
462.5492386258438
 20
821.0412263316721
 30
0.0
 11
435.5492386258429
 21
821.0412263316721
 31
0.0
  0
LINE
  5
44DE
330
A
100
AcDbEntity
  8
0
  6
Continuous
 62
     7
370
    25
100
AcDbLine
 10
606.5492386258429
 20
1021.041226331673
 30
0.0
 11
612.5492386258438
 21
1021.041226331673
 31
0.0
  0
LINE
  5
44DF
102
{ACAD_REACTORS
330
4487
102
}
330
A
100
AcDbEntity
  8
0
  6
Continuous
 62
     7
370
    18
100
AcDbLine
 10
606.2367386258429
 20
1021.041226331673
 30
0.0
 11
416.0293486054006
 21
1021.041226331671
 31
0.0
  0
SPLINE
  5
44E0
102
{ACAD_REACTORS
330
4487
102
}
330
A
100
AcDbEntity
  8
HIDDEN
 48
0.5
100
AcDbSpline
210
0.0
220
0.0
230
1.0
 70
  1064
 71
     3
 72
    84
 73
    80
 74
    78
 42
0.000000001
 43
0.0000000001
 44
0.0
 40
0.0
 40
0.0
 40
0.0
 40
0.0
 40
2.661562755432795
 40
9.587832049952997
 40
15.86402134117269
 40
21.51039595743173
 40
26.77019104027443
 40
32.13803867834405
 40
38.37907267221168
 40
40.73595480920773
 40
49.28037558587886
 40
53.94305235153126
 40
59.0730148325819
 40
65.55127062641905
 40
71.69578671036923
 40
79.1482818875693
 40
86.12115695813722
 40
96.61122621592628
 40
104.9034170125147
 40
112.9809847119712
 40
125.4769808886735
 40
131.4419882936318
 40
141.0474550026948
 40
152.32294990987
 40
164.3233576645787
 40
175.0550813632297
 40
182.8350819281633
 40
192.2102293920636
 40
195.0596789924647
 40
196.0188889690457
 40
196.4039941428986
 40
196.6783914834634
 40
196.8401548547418
 40
196.9515493092939
 40
198.1048143947
 40
201.5615439435568
 40
205.2998521368908
 40
221.1096965221731
 40
242.9949396231939
 40
251.9375985993109
 40
267.5403271192826
 40
275.374432255257
 40
278.1796316273657
 40
280.4418891855179
 40
281.3241696331978
 40
281.7087534180836
 40
281.9515493092921
 40
282.2583159816543
 40
283.0124290897447
 40
283.7489139837075
 40
284.9591211370409
 40
288.2128057520628
 40
291.6919336646851
 40
293.4311399654668
 40
300.8847374527808
 40
307.1520285613574
 40
313.5084460832061
 40
319.8119056577768
 40
325.8901982858286
 40
333.7698412061271
 40
341.5048848721897
 40
350.452860008542
 40
361.8739236107496
 40
375.0877127336136
 40
384.3243200761776
 40
396.7863686429147
 40
405.4448635913561
 40
414.2214128156816
 40
424.4877581550352
 40
434.5309810634546
 40
441.6071212574294
 40
447.2083102737677
 40
455.238270218653
 40
459.7574711720987
 40
465.5275332319289
 40
469.7138855361682
 40
475.0142541420952
 40
477.5442543355584
 40
478.9029402203158
 40
478.9029402203158
 40
478.9029402203158
 40
478.9029402203158
 10
218.5492386258429
 20
1021.041226331673
 30
0.0
 10
218.6431767894798
 20
1020.158938104126
 30
0.0
 10
218.9815732199956
 20
1016.98064319896
 30
0.0
 10
220.0370841480522
 20
1011.782459846674
 30
0.0
 10
221.9484435925429
 20
1005.787197486741
 30
0.0
 10
224.2353067144914
 20
1000.524556919478
 30
0.0
 10
226.8785550559861
 20
995.7814148533472
 30
0.0
 10
229.8828113421601
 20
991.0260977333851
 30
0.0
 10
232.5985896512779
 20
987.2403909849369
 30
0.0
 10
236.1293532021608
 20
982.7474977332257
 30
0.0
 10
239.5634657117537
 20
978.848318114945
 30
0.0
 10
243.8969852128041
 20
974.5345714217253
 30
0.0
 10
247.9497697013952
 20
970.9271569290264
 30
0.0
 10
252.4936536985574
 20
967.135671034364
 30
0.0
 10
257.716635208144
 20
962.9515765436865
 30
0.0
 10
263.17729903103
 20
958.8033617734644
 30
0.0
 10
269.9206031281047
 20
953.9540314056968
 30
0.0
 10
277.0496160142361
 20
949.1665148922161
 30
0.0
 10
284.650836316496
 20
944.4329679548991
 30
0.0
 10
292.9684807585588
 20
939.593398803363
 30
0.0
 10
300.7801044713658
 20
935.4343019587918
 30
0.0
 10
309.182545805602
 20
931.3192576451065
 30
0.0
 10
317.3299991153977
 20
927.6134716943193
 30
0.0
 10
327.4761379987692
 20
923.4595060607063
 30
0.0
 10
338.1439771972035
 20
919.6145852525453
 30
0.0
 10
347.8501343184136
 20
916.5667478153365
 30
0.0
 10
356.8092239530035
 20
914.0841327513689
 30
0.0
 10
363.289549807275
 20
912.5057836865928
 30
0.0
 10
367.5816515831092
 20
911.5620903278698
 30
0.0
 10
368.9489940637877
 20
911.2711851229437
 30
0.0
 10
369.4770623613705
 20
911.1604662339653
 30
0.0
 10
369.7450051038943
 20
911.1041792658514
 30
0.0
 10
369.9237680316953
 20
911.0676795892191
 30
0.0
 10
370.3887685859004
 20
910.9655735033837
 30
0.0
 10
371.9808957415909
 20
911.1442760029081
 30
0.0
 10
374.7489866712869
 20
911.0011968976899
 30
0.0
 10
382.4268593477462
 20
911.094573441649
 30
0.0
 10
396.2293812378258
 20
911.0107025399641
 30
0.0
 10
411.7787930411828
 20
911.044486413717
 30
0.0
 10
427.2551787992056
 20
911.0403595666849
 30
0.0
 10
438.0486152285089
 20
911.0402126699755
 30
0.0
 10
446.7956617001104
 20
911.0427435312424
 30
0.0
 10
451.0965168745139
 20
911.0395097902883
 30
0.0
 10
453.079186605977
 20
911.0451167123317
 30
0.0
 10
454.2563748965836
 20
911.037186661873
 30
0.0
 10
454.7586419020765
 20
911.0464673693893
 30
0.0
 10
455.0719215701941
 20
911.0279888882073
 30
0.0
 10
455.4941866422151
 20
911.1477036368614
 30
0.0
 10
456.082433911188
 20
911.2522414837381
 30
0.0
 10
456.9623087046295
 20
911.4463552041659
 30
0.0
 10
458.6569735516169
 20
911.8088920260494
 30
0.0
 10
461.2398523458446
 20
912.3928731146893
 30
0.0
 10
463.9873016161916
 20
913.0458362479901
 30
0.0
 10
468.08695230004
 20
914.0632495153015
 30
0.0
 10
473.0677750558665
 20
915.3884607378927
 30
0.0
 10
479.4903609360497
 20
917.271640999386
 30
0.0
 10
485.502410317421
 20
919.1865254489295
 30
0.0
 10
491.4088209945796
 20
921.2198909380197
 30
0.0
 10
497.7437472544194
 20
923.5628775057662
 30
0.0
 10
504.4603403305582
 20
926.2442807936065
 30
0.0
 10
511.9753224321591
 20
929.4967361952503
 30
0.0
 10
520.4564183448525
 20
933.4794820786004
 30
0.0
 10
530.4072585089589
 20
938.6141345649692
 30
0.0
 10
540.200833571294
 20
944.241632802301
 30
0.0
 10
550.045990224041
 20
950.4504180372716
 30
0.0
 10
558.3856160254422
 20
956.1879855547427
 30
0.0
 10
566.3766787333057
 20
962.1462928706358
 30
0.0
 10
573.5852339706622
 20
967.9164208915489
 30
0.0
 10
581.0057843942593
 20
974.169049373009
 30
0.0
 10
587.346202479353
 20
980.7626336706512
 30
0.0
 10
592.109682004785
 20
986.658942416268
 30
0.0
 10
596.0823312257708
 20
992.3060879261086
 30
0.0
 10
599.2627781464337
 20
997.4649410810564
 30
0.0
 10
601.9722879096468
 20
1002.943293719922
 30
0.0
 10
603.7147746711062
 20
1007.452444870371
 30
0.0
 10
605.144790069354
 20
1012.33661329
 30
0.0
 10
605.9533705005672
 20
1016.265906677615
 30
0.0
 10
606.3761424133272
 20
1019.300604895614
 30
0.0
 10
606.5044193558713
 20
1020.590532576291
 30
0.0
 10
606.5492386258429
 20
1021.041226331673
 30
0.0
 11
218.5492386258429
 21
1021.041226331673
 31
0.0
 11
218.8541350062715
 21
1018.397185012346
 31
0.0
 11
220.2070419166939
 21
1011.604332207232
 31
0.0
 11
222.1170059669266
 21
1005.625821577816
 31
0.0
 11
224.3724904739647
 21
1000.449497018281
 31
0.0
 11
226.9018104612478
 21
995.8377744859265
 31
0.0
 11
229.7679133548436
 21
991.2991356515565
 31
0.0
 11
233.4060333982834
 21
986.2281803310934
 31
0.0
 11
234.8624006637997
 21
984.3751051044435
 31
0.0
 11
240.5066344767065
 21
977.9602979308763
 31
0.0
 11
243.8148732481677
 21
974.6745543541565
 31
0.0
 11
247.6295139910667
 21
971.2445352493114
 31
0.0
 11
252.5930927126165
 21
967.0815213884935
 31
0.0
 11
257.3910518175826
 21
963.2429453070545
 31
0.0
 11
263.3245622078875
 21
958.7337171231704
 31
0.0
 11
268.9858117369904
 21
954.6629382641584
 31
0.0
 11
277.6942903572099
 21
948.8145236794704
 31
0.0
 11
284.7332201460677
 21
944.4311578911114
 31
0.0
 11
291.7149787221479
 21
940.3688744046184
 31
0.0
 11
302.7450172432536
 21
934.4962114080654
 31
0.0
 11
308.1020754488154
 21
931.8726183139614
 31
0.0
 11
316.8456068314008
 21
927.8957288685955
 31
0.0
 11
327.2804280921919
 21
923.6235759386227
 31
0.0
 11
338.5699418144713
 21
919.5545875884627
 31
0.0
 11
348.8087448662295
 21
916.3394972924534
 31
0.0
 11
356.3062011754055
 21
914.2618645813216
 31
0.0
 11
365.4151207087357
 21
912.043537530323
 31
0.0
 11
368.1980653773699
 21
911.4315064881805
 31
0.0
 11
369.1363032303407
 21
911.2320233800599
 31
0.0
 11
369.5131846769773
 21
911.1528629725992
 31
0.0
 11
369.7817903852938
 21
911.0967837967066
 31
0.0
 11
369.9401658385923
 21
911.0638504689086
 31
0.0
 11
370.0492386258456
 21
911.0412263316709
 31
0.0
 11
371.2025037112517
 21
911.0412263316719
 31
0.0
 11
374.6592332601085
 21
911.0412263316721
 31
0.0
 11
378.3975414534425
 21
911.0412263316721
 31
0.0
 11
394.2073858387248
 21
911.0412263316721
 31
0.0
 11
416.0926289397457
 21
911.0412263316721
 31
0.0
 11
425.0352879158627
 21
911.0412263316721
 31
0.0
 11
440.6380164358343
 21
911.0412263316721
 31
0.0
 11
448.4721215718087
 21
911.0412263316721
 31
0.0
 11
451.2773209439174
 21
911.0412263316721
 31
0.0
 11
453.5395785020696
 21
911.0412263316721
 31
0.0
 11
454.4218589497495
 21
911.0412263316721
 31
0.0
 11
454.8064427346353
 21
911.0412263316721
 31
0.0
 11
455.0492386258438
 21
911.0412263316721
 31
0.0
 11
455.3495893808426
 21
911.1036379911909
 31
0.0
 11
456.0876307504745
 21
911.2584976583271
 31
0.0
 11
456.8080037059435
 21
911.4117060264543
 31
0.0
 11
457.9908295701675
 21
911.6676832303267
 31
0.0
 11
461.1651614246048
 21
912.3818826786144
 31
0.0
 11
464.5497557376848
 21
913.187396408016
 31
0.0
 11
466.2377761509697
 21
913.6062348506309
 31
0.0
 11
473.4407388577429
 21
915.5228578567876
 31
0.0
 11
479.4548442612827
 21
917.2862279355732
 31
0.0
 11
485.5114644588748
 21
919.2153198188657
 31
0.0
 11
491.4716201706797
 21
921.267183971115
 31
0.0
 11
497.1724923190059
 21
923.3756663686388
 31
0.0
 11
504.4905216254028
 21
926.2971761875726
 31
0.0
 11
511.5892443842267
 21
929.3694775577594
 31
0.0
 11
519.6886131872934
 21
933.1729607025475
 31
0.0
 11
529.8381066324519
 21
938.4101810160685
 31
0.0
 11
541.2952338208256
 21
944.9933762564474
 31
0.0
 11
549.1078118372357
 21
949.9207020969225
 31
0.0
 11
559.3758726574806
 21
956.9825419047534
 31
0.0
 11
566.3147583331606
 21
962.1614800538364
 31
0.0
 11
573.1769239246523
 21
967.6330885634025
 31
0.0
 11
580.9402314764739
 21
974.3508934491294
 31
0.0
 11
587.9043062566425
 21
981.5874664532814
 31
0.0
 11
592.3485796590876
 21
987.0938440256155
 31
0.0
 11
595.5781242602416
 21
991.6702356244525
 31
0.0
 11
599.7375717006717
 21
998.5389512035665
 31
0.0
 11
601.7326319341637
 21
1002.593937260554
 31
0.0
 11
603.8163157958106
 21
1007.974632172831
 31
0.0
 11
604.9915254406424
 21
1011.992645102863
 31
0.0
 11
606.0634351503159
 21
1017.183494448876
 31
0.0
 11
606.4085995263476
 21
1019.68983890494
 31
0.0
 11
606.5492386258429
 21
1021.041226331673
 31
0.0
  0
LINE
  5
44E1
330
A
100
AcDbEntity
  8
MODEL
100
AcDbLine
 10
455.0492386258429
 20
898.0412263316721
 30
0.0
 11
455.0492386258429
 21
908.041226331672
 31
0.0
  0
LINE
  5
44E2
330
A
100
AcDbEntity
  8
MODEL
100
AcDbLine
 10
370.0492386258429
 20
898.0412263316721
 30
0.0
 11
370.0492386258429
 21
908.041226331672
 31
0.0
  0
LINE
  5
44E3
330
A
100
AcDbEntity
  8
MODEL
  6
Continuous
390
1D
100
AcDbLine
 10
416.5418650535948
 20
900.789739541268
 30
0.0
 11
416.5418650535948
 21
895.79016826886
 31
0.0
  0
POLYLINE
  5
44E4
330
A
100
AcDbEntity
  8
MODEL
  6
Continuous
100
AcDb2dPolyline
 66
     1
 10
0.0
 20
0.0
 30
0.0
  0
VERTEX
  5
44E5
330
44E4
100
AcDbEntity
  8
MODEL
  6
Continuous
100
AcDbVertex
100
AcDb2dVertex
 10
432.5492386258429
 20
889.795532958322
 30
0.0
  0
VERTEX
  5
44E6
330
44E4
100
AcDbEntity
  8
MODEL
  6
Continuous
100
AcDbVertex
100
AcDb2dVertex
 10
432.5492386258429
 20
735.79016826886
 30
0.0
  0
SEQEND
  5
44E7
330
44E4
100
AcDbEntity
  8
MODEL
  6
Continuous
  0
POLYLINE
  5
44E8
102
{ACAD_REACTORS
102
}
330
A
100
AcDbEntity
  8
MODEL
  6
Continuous
100
AcDb2dPolyline
 66
     1
 10
0.0
 20
0.0
 30
0.0
  0
VERTEX
  5
44E9
330
44E8
100
AcDbEntity
  8
MODEL
  6
Continuous
100
AcDbVertex
100
AcDb2dVertex
 10
392.5492386258429
 20
889.7848262926941
 30
0.0
  0
VERTEX
  5
44EA
330
44E8
100
AcDbEntity
  8
MODEL
  6
Continuous
100
AcDbVertex
100
AcDb2dVertex
 10
392.5492386258429
 20
735.79016826886
 30
0.0
  0
SEQEND
  5
44EB
330
44E8
100
AcDbEntity
  8
MODEL
  6
Continuous
  0
POLYLINE
  5
44EC
330
A
100
AcDbEntity
  8
MODEL
  6
Continuous
100
AcDb2dPolyline
 66
     1
 10
0.0
 20
0.0
 30
0.0
  0
VERTEX
  5
44ED
330
44EC
100
AcDbEntity
  8
MODEL
  6
Continuous
100
AcDbVertex
100
AcDb2dVertex
 10
445.1902255516216
 20
895.79016826886
 30
0.0
  0
VERTEX
  5
44EE
330
44EC
100
AcDbEntity
  8
MODEL
  6
Continuous
100
AcDbVertex
100
AcDb2dVertex
 10
379.8968380389647
 20
895.79016826886
 30
0.0
  0
SEQEND
  5
44EF
330
44EC
100
AcDbEntity
  8
MODEL
  6
Continuous
  0
ARC
  5
44F0
330
A
100
AcDbEntity
  8
MODEL
  6
Continuous
100
AcDbCircle
 10
382.0397419421788
 20
880.112994916067
 30
0.0
 40
14.28264130761
100
AcDbArc
 50
42.62319145322548
 51
98.6275887280082
  0
ARC
  5
44F1
330
A
100
AcDbEntity
  8
MODEL
  6
Continuous
100
AcDbCircle
 10
443.0488719423984
 20
880.112994916067
 30
0.0
 40
14.28264130761
100
AcDbArc
 50
81.37241127198807
 51
137.3184104408062
  0
ARC
  5
44F2
330
A
100
AcDbEntity
  8
MODEL
  6
Continuous
100
AcDbCircle
 10
379.9009684774155
 20
895.0120929402241
 30
0.0
 40
0.7780845392933852
100
AcDbArc
 50
90.27878537560984
 51
269.7212146243901
  0
ARC
  5
44F3
330
A
100
AcDbEntity
  8
MODEL
  6
Continuous
100
AcDbCircle
 10
445.1876454071617
 20
895.0120929402241
 30
0.0
 40
0.7780845392933852
100
AcDbArc
 50
270.2787853756098
 51
89.72121462435669
  0
LINE
  5
44F4
330
A
100
AcDbEntity
  8
MODEL
  6
Continuous
390
1D
100
AcDbLine
 10
408.5425573603688
 20
900.789739541268
 30
0.0
 11
408.5425573603688
 21
895.79016826886
 31
0.0
  0
LINE
  5
44F5
330
A
100
AcDbEntity
  8
MODEL
  6
Continuous
100
AcDbLine
 10
448.5423872854235
 20
900.789739541268
 30
0.0
 11
448.5422112069818
 21
901.7895129329971
 31
0.0
  0
LINE
  5
44F6
330
A
100
AcDbEntity
  8
MODEL
  6
Continuous
100
AcDbLine
 10
376.5423872854226
 20
900.789739541268
 30
0.0
 11
376.5422112069818
 21
901.7895129329971
 31
0.0
  0
LINE
  5
44F7
330
A
100
AcDbEntity
  8
MODEL
  6
Continuous
100
AcDbLine
 10
376.5423872854226
 20
900.789739541268
 30
0.0
 11
448.5423872854235
 21
900.789739541268
 31
0.0
  0
LINE
  5
44F8
330
A
100
AcDbEntity
  8
MODEL
  6
Continuous
100
AcDbLine
 10
376.5422112069818
 20
901.7895129329971
 30
0.0
 11
448.5422112069818
 21
901.7895129329971
 31
0.0
  0
ARC
  5
44F9
330
A
100
AcDbEntity
  8
MODEL
  6
Continuous
100
AcDbCircle
 10
412.4858472270666
 20
831.9034629744409
 30
0.0
 40
78.6391846490151
100
AcDbArc
 50
62.70939830928346
 51
117.1982289120087
  0
LINE
  5
44FA
330
A
100
AcDbEntity
  8
MODEL
100
AcDbLine
 10
392.5435317952933
 20
735.79016826886
 30
0.0
 11
432.5435317952933
 21
735.79016826886
 31
0.0
  0
LWPOLYLINE
  5
44FB
330
A
100
AcDbEntity
  8
MODEL
100
AcDbPolyline
 90
        4
 70
     1
 43
0.0
 10
381.9824662118499
 20
770.6121850502747
 10
381.9824662118499
 20
773.6121850502747
 10
441.9824662118499
 20
773.6121850502747
 10
441.9824662118499
 20
770.6121850502747
  0
LWPOLYLINE
  5
44FC
330
A
100
AcDbEntity
  8
MODEL
100
AcDbPolyline
 90
        4
 70
     0
 43
0.0
 10
389.4824662118499
 20
766.1634179376937
 10
389.4824662118499
 20
770.6121850502747
 10
434.4824662118499
 20
770.6121850502747
 10
434.4824662118499
 20
766.1595864176601
  0
LWPOLYLINE
  5
44FD
330
A
100
AcDbEntity
  8
MODEL
100
AcDbPolyline
 90
        2
 70
     0
 43
0.0
 10
433.9350648444624
 20
765.6121850502747
 10
390.0298675792355
 20
765.6121850502747
  0
LINE
  5
44FE
330
A
100
AcDbEntity
  8
MODEL
100
AcDbLine
 10
411.9824662118499
 20
770.6121850502747
 30
0.0
 11
411.9824662118499
 21
765.6121850502747
 31
0.0
  0
ARC
  5
44FF
330
A
100
AcDbEntity
  8
MODEL
100
AcDbCircle
 10
390.0298675792355
 20
766.159586417661
 30
0.0
 40
0.5474013673863283
100
AcDbArc
 50
177.7181671112311
 51
271.1652682122306
  0
ARC
  5
4500
330
A
100
AcDbEntity
  8
MODEL
100
AcDbCircle
 10
433.9350648444624
 20
766.1595864176601
 30
0.0
 40
0.5474013673863283
100
AcDbArc
 50
268.8347317877694
 51
2.281832888768934
  0
LINE
  5
4501
330
A
100
AcDbEntity
  8
MODEL
100
AcDbLine
 10
381.9824662118499
 20
772.7073263137365
 30
0.0
 11
441.9824662118499
 21
772.7073263137365
 31
0.0
  0
LINE
  5
4502
330
A
100
AcDbEntity
  8
MODEL
100
AcDbLine
 10
441.9824662118499
 20
772.7073263137365
 30
0.0
 11
443.4731828431904
 21
772.7073263137365
 31
0.0
  0
LINE
  5
4503
330
A
100
AcDbEntity
  8
MODEL
100
AcDbLine
 10
443.4731828431904
 20
772.7073263137365
 30
0.0
 11
443.4731828431904
 21
774.2276834369738
 31
0.0
  0
LINE
  5
4504
330
A
100
AcDbEntity
  8
MODEL
100
AcDbLine
 10
443.4731828431904
 20
774.2276834369738
 30
0.0
 11
442.0328445159139
 21
776.3081721319302
 31
0.0
  0
LINE
  5
4505
330
A
100
AcDbEntity
  8
MODEL
100
AcDbLine
 10
382.5492386258416
 20
772.7073263137365
 30
0.0
 11
381.0585219944996
 21
772.7073263137365
 31
0.0
  0
LINE
  5
4506
330
A
100
AcDbEntity
  8
MODEL
100
AcDbLine
 10
381.0585219944996
 20
772.7073263137365
 30
0.0
 11
381.0585219944996
 21
774.2276834369738
 31
0.0
  0
LINE
  5
4507
330
A
100
AcDbEntity
  8
MODEL
100
AcDbLine
 10
381.0585219944996
 20
774.2276834369738
 30
0.0
 11
382.4988603217776
 21
776.3081721319302
 31
0.0
  0
LINE
  5
4508
330
A
100
AcDbEntity
  8
MODEL
100
AcDbLine
 10
382.4988603217776
 20
776.3081721319302
 30
0.0
 11
442.0328445159139
 21
776.3081721319302
 31
0.0
  0
LWPOLYLINE
  5
4509
330
A
100
AcDbEntity
  8
MODEL
100
AcDbPolyline
 90
        4
 70
     1
 43
0.0
 10
382.2658524188455
 20
815.3452392500166
 10
382.2658524188455
 20
818.3452392500166
 10
442.2658524188455
 20
818.3452392500166
 10
442.2658524188455
 20
815.3452392500166
  0
LWPOLYLINE
  5
450A
330
A
100
AcDbEntity
  8
MODEL
100
AcDbPolyline
 90
        4
 70
     0
 43
0.0
 10
389.7658524188455
 20
810.8964721374356
 10
389.7658524188455
 20
815.3452392500166
 10
434.7658524188455
 20
815.3452392500166
 10
434.7658524188455
 20
810.892640617402
  0
LWPOLYLINE
  5
450B
330
A
100
AcDbEntity
  8
MODEL
100
AcDbPolyline
 90
        2
 70
     0
 43
0.0
 10
434.2184510514589
 20
810.3452392500166
 10
390.3132537862316
 20
810.3452392500166
  0
LINE
  5
450C
330
A
100
AcDbEntity
  8
MODEL
100
AcDbLine
 10
412.2658524188455
 20
815.3452392500166
 30
0.0
 11
412.2658524188455
 21
810.3452392500166
 31
0.0
  0
ARC
  5
450D
330
A
100
AcDbEntity
  8
MODEL
100
AcDbCircle
 10
390.3132537862316
 20
810.8926406174029
 30
0.0
 40
0.5474013673863283
100
AcDbArc
 50
177.7181671112311
 51
271.1652682122306
  0
ARC
  5
450E
330
A
100
AcDbEntity
  8
MODEL
100
AcDbCircle
 10
434.2184510514589
 20
810.892640617402
 30
0.0
 40
0.5474013673863283
100
AcDbArc
 50
268.8347317877694
 51
2.281832888768934
  0
LINE
  5
450F
330
A
100
AcDbEntity
  8
MODEL
100
AcDbLine
 10
382.2658524188455
 20
817.4403805134784
 30
0.0
 11
442.2658524188455
 21
817.4403805134784
 31
0.0
  0
LINE
  5
4510
330
A
100
AcDbEntity
  8
MODEL
100
AcDbLine
 10
442.2658524188455
 20
817.4403805134784
 30
0.0
 11
443.7565690501865
 21
817.4403805134784
 31
0.0
  0
LINE
  5
4511
330
A
100
AcDbEntity
  8
MODEL
100
AcDbLine
 10
443.7565690501865
 20
817.4403805134784
 30
0.0
 11
443.7565690501865
 21
818.9607376367157
 31
0.0
  0
LINE
  5
4512
330
A
100
AcDbEntity
  8
MODEL
100
AcDbLine
 10
443.7565690501865
 20
818.9607376367157
 30
0.0
 11
442.3162307229095
 21
821.0412263316721
 31
0.0
  0
LINE
  5
4513
330
A
100
AcDbEntity
  8
MODEL
100
AcDbLine
 10
382.8326248328376
 20
817.4403805134784
 30
0.0
 11
381.3419082014957
 21
817.4403805134784
 31
0.0
  0
LINE
  5
4514
330
A
100
AcDbEntity
  8
MODEL
100
AcDbLine
 10
381.3419082014957
 20
817.4403805134784
 30
0.0
 11
381.3419082014957
 21
818.9607376367157
 31
0.0
  0
LINE
  5
4515
330
A
100
AcDbEntity
  8
MODEL
100
AcDbLine
 10
381.3419082014957
 20
818.9607376367157
 30
0.0
 11
382.7822465287736
 21
821.0412263316721
 31
0.0
  0
LINE
  5
4516
330
A
100
AcDbEntity
  8
MODEL
100
AcDbLine
 10
382.7822465287736
 20
821.0412263316721
 30
0.0
 11
442.3162307229095
 21
821.0412263316721
 31
0.0
  0
HATCH
  5
4517
330
A
100
AcDbEntity
  8
MODEL
100
AcDbHatch
 10
0.0
 20
0.0
 30
0.0
210
0.0
220
0.0
230
1.0
  2
ANSI31
 70
     0
 71
     0
 91
        1
 92
        1
 93
        4
 72
     1
 10
176.3362987342289
 20
821.0412263316721
 11
176.3362987342289
 21
779.3081721319302
 72
     1
 10
176.3362987342289
 20
779.3081721319302
 11
377.5492386258418
 21
779.3081721319302
 72
     1
 10
377.5492386258416
 20
779.3081721319302
 11
377.5492386258416
 21
821.0412263316721
 72
     1
 10
377.5492386258416
 20
821.0412263316721
 11
176.3362987342286
 21
821.0412263316721
 97
        0
 75
     0
 76
     1
 52
0.0
 41
3.0
 77
     0
 78
     1
 53
45.0
 43
-1001.817517505682
 44
-173.8296264835326
 45
-6.735192090801865
 46
6.735192090801865
 79
     0
 98
        0
1001
ACAD
1010
0.0
1020
0.0
1030
0.0
  0
LWPOLYLINE
  5
4518
102
{ACAD_REACTORS
330
44D1
102
}
330
A
100
AcDbEntity
  8
MODEL
100
AcDbPolyline
 90
        4
 70
     1
 43
0.0
 10
176.3362987342289
 20
821.0412263316721
 10
176.3362987342289
 20
779.3081721319302
 10
377.5492386258416
 20
779.3081721319302
 10
377.5492386258416
 20
821.0412263316721
  0
HATCH
  5
4519
330
A
100
AcDbEntity
  8
MODEL
100
AcDbHatch
 10
0.0
 20
0.0
 30
0.0
210
0.0
220
0.0
230
1.0
  2
ANSI31
 70
     0
 71
     0
 91
        1
 92
        1
 93
        4
 72
     1
 10
648.7621785174547
 20
821.0412263316714
 11
648.7621785174547
 21
779.3081721319295
 72
     1
 10
648.7621785174547
 20
779.3081721319295
 11
447.5492386258416
 21
779.3081721319302
 72
     1
 10
447.5492386258416
 20
779.3081721319302
 11
447.5492386258416
 21
821.0412263316721
 72
     1
 10
447.5492386258416
 20
821.0412263316721
 11
648.7621785174547
 21
821.0412263316714
 97
        0
 75
     0
 76
     1
 52
0.0
 41
3.0
 77
     0
 78
     1
 53
45.0
 43
-1004.817517505681
 44
-173.8296264835325
 45
-6.735192090801865
 46
6.735192090801865
 79
     0
 98
        0
1001
ACAD
1010
0.0
1020
0.0
1030
0.0
  0
LWPOLYLINE
  5
451A
330
A
100
AcDbEntity
  8
MODEL
100
AcDbPolyline
 90
        4
 70
     1
 43
0.0
 10
648.7621785174547
 20
821.0412263316714
 10
648.7621785174547
 20
779.3081721319295
 10
447.5492386258416
 20
779.3081721319302
 10
447.5492386258416
 20
821.0412263316721
  0
LWPOLYLINE
  5
451B
330
A
100
AcDbEntity
  8
MODEL
100
AcDbPolyline
 90
        4
 70
     1
 43
0.0
 10
350.0492386258416
 20
776.3081721319302
 10
350.0492386258416
 20
779.3081721319302
 10
475.0492386258416
 20
779.3081721319302
 10
475.0492386258416
 20
776.3081721319302
  0
MTEXT
  5
457C
330
A
100
AcDbEntity
  8
TEMPLATE
390
1D
100
AcDbMText
 10
1061.257769885408
 20
313.494691011882
 30
0.0
 40
20.0
 41
0.0
 46
26.77902834168282
 71
     1
 72
     1
  1
{ALC70-0402-008 マットブラック}
  7
ＭＳ ゴシック
 73
     1
 44
0.7828267384257843
1001
ACAD
1000
ACAD_MTEXT_DEFINED_HEIGHT_BEGIN
1070
    46
1040
26.77902834168282
1000
ACAD_MTEXT_DEFINED_HEIGHT_END
  0
MTEXT
  5
457D
330
A
100
AcDbEntity
  8
TEMPLATE
390
1D
100
AcDbMText
 10
1061.257769885408
 20
347.7894940823276
 30
0.0
 40
20.0
 41
0.0
 46
25.55693919887927
 71
     1
 72
     1
  1
{ALC70-0402-001 ホワイト}
  7
ＭＳ ゴシック
 73
     1
 44
0.7828267384257843
1001
ACAD
1000
ACAD_MTEXT_DEFINED_HEIGHT_BEGIN
1070
    46
1040
25.55693919887927
1000
ACAD_MTEXT_DEFINED_HEIGHT_END
  0
DIMENSION
  5
4599
330
A
100
AcDbEntity
  8
DIM
100
AcDbDimension
  2
*D29
 10
733.2008315777152
 20
735.79016826886
 30
0.0
 11
707.1970801709377
 21
878.4156973002664
 31
0.0
 70
    32
 71
     5
 42
285.2510580628128
 73
     0
 74
     0
 75
     0
  3
tfrom線あり
100
AcDbAlignedDimension
 13
620.4565870544791
 23
1021.041226331673
 33
0.0
 14
436.4954926016187
 24
735.79016826886
 34
0.0
 50
90.0
100
AcDbRotatedDimension
  0
VIEWPORT
  5
349
330
B
100
AcDbEntity
 67
     1
  8
0
100
AcDbViewport
 10
202.5
 20
128.5
 30
0.0
 40
486.0
 41
308.4
 68
     1
 69
     1
 12
202.5
 22
128.5
 13
0.0
 23
0.0
 14
0.5
 24
0.5
 15
0.0
 25
0.0
 16
0.0
 26
0.0
 36
1.0
 17
0.0
 27
0.0
 37
0.0
 42
50.0
 43
0.0
 44
0.0
 45
308.4
 50
0.0
 51
0.0
 72
   100
 90
   557152
  1

281
     0
 71
     1
 74
     0
110
0.0
120
0.0
130
0.0
111
1.0
121
0.0
131
0.0
112
0.0
122
1.0
132
0.0
 79
     0
146
0.0
170
     0
 61
     5
348
26C
292
     1
282
     1
141
0.0
142
0.0
 63
   256
  0
VIEWPORT
  5
34A
330
B
100
AcDbEntity
 67
     1
  8
0
100
AcDbViewport
 10
202.5
 20
128.5
 30
0.0
 40
324.0
 41
205.6
 68
     2
 69
     2
 12
986.6781359294573
 22
1427.077061889956
 13
0.0
 23
0.0
 14
0.5
 24
0.5
 15
0.0
 25
0.0
 16
0.0
 26
0.0
 36
1.0
 17
0.0
 27
0.0
 37
0.0
 42
50.0
 43
0.0
 44
0.0
 45
2890.021615685494
 50
0.0
 51
0.0
 72
   100
 90
   557152
  1

281
     0
 71
     1
 74
     0
110
0.0
120
0.0
130
0.0
111
1.0
121
0.0
131
0.0
112
0.0
122
1.0
132
0.0
 79
     0
146
0.0
170
     0
 61
     5
348
26C
292
     1
282
     1
141
0.0
142
0.0
 63
   256
  0
ENDSEC
  0
SECTION
  2
OBJECTS
  0
DICTIONARY
  5
19
330
0
100
AcDbDictionary
281
     1
  3
ACAD_COLOR
350
674
  3
ACAD_DETAILVIEWSTYLE
350
BBF
  3
ACAD_FIELDLIST
350
3BE4
  3
ACAD_GROUP
350
1A
  3
ACAD_IMAGE_VARS
350
27B
  3
ACAD_LAYOUT
350
1E
  3
ACAD_MATERIAL
350
263
  3
ACAD_MLEADERSTYLE
350
336
  3
ACAD_MLINESTYLE
350
1B
  3
ACAD_PLOTSETTINGS
350
22
  3
ACAD_PLOTSTYLENAME
350
1F
  3
ACAD_SCALELIST
350
241
  3
ACAD_SECTIONVIEWSTYLE
350
BC0
  3
ACAD_TABLESTYLE
350
278
  3
ACAD_VISUALSTYLE
350
267
  3
ACDB_RECOMPOSE_DATA
350
45AD
  3
AcDbVariableDictionary
350
330
  3
APPDATA
350
27A
  3
DimOffsetDictionary
350
E38
  0
SUN
  5
904
330
15
100
AcDbSun
 90
        1
290
     0
 63
     7
421
 16777215
 40
1.0
291
     1
 91
  2455826
 92
 54000000
292
     0
 70
     2
 71
   256
280
     1
  0
DICTIONARY
  5
2E1
330
2
100
AcDbDictionary
280
     1
281
     1
  3
ACAD_LAYERSTATES
360
2E2
  3
ACLYDICTIONARY
360
DDE
  0
DICTIONARY
  5
3E3E
330
A
100
AcDbDictionary
280
     1
281
     1
  3
ACAD_SORTENTS
360
3E3F
  0
DICTIONARY
  5
3DB8
330
3DB7
100
AcDbDictionary
280
     1
281
     1
  3
ACAD_FIELD
360
457E
  0
DICTIONARY
  5
4486
330
4485
100
AcDbDictionary
280
     1
281
     1
  3
ACAD_DIMASSOC
360
4487
  0
DICTIONARY
  5
44D0
330
44CF
100
AcDbDictionary
280
     1
281
     1
  3
ACAD_DIMASSOC
360
44D1
  0
DICTIONARY
  5
674
102
{ACAD_REACTORS
330
19
102
}
330
19
100
AcDbDictionary
281
     1
  0
DICTIONARY
  5
BBF
102
{ACAD_REACTORS
330
19
102
}
330
19
100
AcDbDictionary
281
     1
  0
FIELDLIST
  5
3BE4
102
{ACAD_REACTORS
330
19
102
}
330
19
100
AcDbIdSet
 90
        2
330
3DBB
330
3DBA
100
AcDbFieldList
  0
DICTIONARY
  5
1A
102
{ACAD_REACTORS
330
19
102
}
330
19
100
AcDbDictionary
281
     1
  3
*A1
350
3CF4
  0
RASTERVARIABLES
  5
27B
102
{ACAD_REACTORS
330
19
102
}
330
19
100
AcDbRasterVariables
 90
        0
 70
     1
 71
     1
 72
     1
  0
DICTIONARY
  5
1E
102
{ACAD_REACTORS
330
19
102
}
330
19
100
AcDbDictionary
281
     1
  3
Layout1
350
21
  3
Model
350
20
  0
DICTIONARY
  5
263
102
{ACAD_REACTORS
330
19
102
}
330
19
100
AcDbDictionary
281
     1
  3
ByBlock
350
265
  3
ByLayer
350
264
  3
Global
350
266
  0
DICTIONARY
  5
336
102
{ACAD_REACTORS
330
19
102
}
330
19
100
AcDbDictionary
281
     1
  3
Standard
350
D59
  0
DICTIONARY
  5
1B
102
{ACAD_REACTORS
330
19
102
}
330
19
100
AcDbDictionary
281
     1
  3
Standard
350
1C
  0
DICTIONARY
  5
22
102
{ACAD_REACTORS
330
19
102
}
330
19
100
AcDbDictionary
281
     1
  0
ACDBDICTIONARYWDFLT
  5
1F
102
{ACAD_REACTORS
330
19
102
}
330
19
100
AcDbDictionary
281
     1
  3
Normal
350
1D
100
AcDbDictionaryWithDefault
340
1D
  0
DICTIONARY
  5
241
102
{ACAD_REACTORS
330
19
102
}
330
19
100
AcDbDictionary
281
     1
  3
A0
350
242
  3
A1
350
243
  3
A2
350
244
  3
A3
350
245
  3
A4
350
246
  3
A5
350
247
  3
A6
350
248
  3
A7
350
249
  3
A8
350
24A
  3
A9
350
24B
  3
B0
350
24C
  3
B1
350
24D
  3
B2
350
24E
  3
B3
350
24F
  3
B4
350
250
  3
B5
350
251
  3
B6
350
252
  3
B7
350
253
  3
B8
350
254
  3
B9
350
255
  3
C0
350
256
  3
C1
350
257
  3
C2
350
258
  3
C3
350
259
  3
C4
350
25A
  3
C5
350
25B
  3
C6
350
25C
  3
C7
350
25D
  3
C8
350
25E
  3
C9
350
25F
  3
D0
350
260
  3
D1
350
261
  3
D2
350
262
  0
DICTIONARY
  5
BC0
102
{ACAD_REACTORS
330
19
102
}
330
19
100
AcDbDictionary
281
     1
  0
DICTIONARY
  5
278
102
{ACAD_REACTORS
330
19
102
}
330
19
100
AcDbDictionary
281
     1
  3
Standard
350
279
  0
DICTIONARY
  5
267
102
{ACAD_REACTORS
330
19
102
}
330
19
100
AcDbDictionary
281
     1
  3
2dWireframe
350
26C
  3
3D Hidden
350
26E
  3
3dWireframe
350
26D
  3
Basic
350
26F
  3
Brighten
350
273
  3
ColorChange
350
277
  3
Conceptual
350
271
  3
Dim
350
272
  3
EdgeColorOff
350
8FE
  3
Facepattern
350
276
  3
Flat
350
268
  3
FlatWithEdges
350
269
  3
Gouraud
350
26A
  3
GouraudWithEdges
350
26B
  3
Hidden
350
8FB
  3
JitterOff
350
8FC
  3
Linepattern
350
275
  3
OverhangOff
350
8FD
  3
Realistic
350
270
  3
Shaded
350
903
  3
Shaded with edges
350
902
  3
Shades of Gray
350
8FF
  3
Sketchy
350
900
  3
Thicken
350
274
  3
Wireframe
350
8FA
  3
X-Ray
350
901
  0
XRECORD
  5
45AD
102
{ACAD_REACTORS
330
19
102
}
330
19
100
AcDbXrecord
280
     1
 90
        1
330
279
  0
DICTIONARY
  5
330
102
{ACAD_REACTORS
330
19
102
}
330
19
100
AcDbDictionary
281
     1
  3
CANNOSCALE
350
331
  3
CMLEADERSTYLE
350
D5E
  3
CTABLESTYLE
350
335
  3
HPTRANSPARENCY
350
D52
  3
XCLIPFRAME
350
896
  0
DICTIONARY
  5
27A
102
{ACAD_REACTORS
330
19
102
}
330
19
100
AcDbDictionary
281
     1
  0
DICTIONARY
  5
E38
102
{ACAD_REACTORS
330
19
102
}
330
19
100
AcDbDictionary
281
     1
  3
DIMRAILANGLE
350
246C
  3
DIMRAILFIRSTOFFSET
350
246A
  3
DIMRAILOFFSET
350
246B
  3
DIMRAILSENABLED
350
246D
  0
DICTIONARY
  5
2E2
102
{ACAD_REACTORS
330
2E1
102
}
330
2E1
100
AcDbDictionary
281
     1
  0
DICTIONARY
  5
DDE
102
{ACAD_REACTORS
330
2E1
102
}
330
2E1
100
AcDbDictionary
281
     1
1001
ACAD
1000
<All
  0
SORTENTSTABLE
  5
3E3F
102
{ACAD_REACTORS
330
3E3E
102
}
330
3E3E
100
AcDbSortentsTable
330
A
331
3CE3
  5
3C4B
331
3CE4
  5
3CE2
331
3CEF
  5
3CE3
331
3CF0
  5
3CE4
331
3CF1
  5
3CEF
331
3CF2
  5
3CF0
331
3CF3
  5
3CF1
331
3D0E
  5
3CF2
331
3D12
  5
3CF3
331
3DB7
  5
3D2F
  0
DICTIONARY
  5
457E
102
{ACAD_REACTORS
330
3DB8
102
}
330
3DB8
100
AcDbDictionary
280
     1
281
     1
  3
TEXT
360
3DBA
  0
DIMASSOC
  5
4487
102
{ACAD_REACTORS
330
4486
102
}
330
4486
100
AcDbDimAssoc
330
4485
 90
        3
 70
     0
 71
     1
  1
AcDbOsnapPointRef
 72
     1
331
4470
 73
     0
 91
        0
 40
0.0
 10
0.0
 20
0.0
 30
0.0
 75
     0
  1
AcDbOsnapPointRef
 72
     8
331
4471
 73
     0
 91
        0
 40
242.980431445213
 10
0.0
 20
0.0
 30
0.0
 75
     1
  1
AcDbOsnapPointRef
 72
     1
331
4470
 73
     0
 91
        0
 40
0.0
 10
0.0
 20
0.0
 30
0.0
 75
     0
  0
DIMASSOC
  5
44D1
102
{ACAD_REACTORS
330
44D0
102
}
330
44D0
100
AcDbDimAssoc
330
44CF
 90
        3
 70
     0
 71
     1
  1
AcDbOsnapPointRef
 72
     1
331
44C6
 73
     2
 91
        1
 40
1.0
 10
0.0
 20
0.0
 30
0.0
 75
     0
  1
AcDbOsnapPointRef
 72
    13
331
44C6
 73
     2
 91
        1
 40
0.0
 10
0.0
 20
0.0
 30
0.0
 75
     0
  0
GROUP
  5
3CF4
102
{ACAD_REACTORS
330
1A
102
}
330
1A
100
AcDbGroup
300

 70
     1
 71
     1
340
3CE3
340
3CE4
340
3CEF
340
3CF0
340
3CF1
340
3CF2
340
3CF3
  0
LAYOUT
  5
21
102
{ACAD_REACTORS
330
1E
102
}
330
1E
100
AcDbPlotSettings
  1

  2
none_device
  4
ISO_A3_(420.00_x_297.00_MM)
  6

 40
7.5
 41
20.0
 42
7.5
 43
20.0
 44
420.0
 45
297.0
 46
0.0
 47
0.0
 48
0.0
 49
0.0
140
0.0
141
0.0
142
1.0
143
1.0
 70
     0
 72
     1
 73
     0
 74
     0
  7

 75
     0
 76
     0
 77
     2
 78
   300
147
1.0
148
0.0
149
0.0
100
AcDbLayout
  1
Layout1
 70
     0
 71
     0
 10
-7.5
 20
-20.0
 11
412.5
 21
277.0
 12
0.0
 22
0.0
 32
0.0
 14
0.0
 24
0.0
 34
0.0
 15
0.0
 25
0.0
 35
0.0
146
0.0
 13
0.0
 23
0.0
 33
0.0
 16
0.0
 26
0.0
 36
0.0
 17
0.0
 27
0.0
 37
0.0
 76
     0
330
B
331
349
  0
LAYOUT
  5
20
102
{ACAD_REACTORS
330
1E
102
}
330
1E
100
AcDbPlotSettings
  1

  2
none_device
  4
ISO_A3_(420.00_x_297.00_MM)
  6

 40
7.5
 41
20.0
 42
7.5
 43
20.0
 44
420.0
 45
297.0
 46
0.0
 47
0.0
 48
0.0
 49
0.0
140
0.0
141
0.0
142
1.0
143
1.0
 70
  1024
 72
     1
 73
     0
 74
     0
  7

 75
     0
 76
     0
 77
     2
 78
   300
147
1.0
148
0.0
149
0.0
100
AcDbLayout
  1
Model
 70
     0
 71
     1
 10
0.0
 20
0.0
 11
1680.0
 21
2376.0
 12
0.0
 22
0.0
 32
0.0
 14
0.0
 24
0.0
 34
-0.0000000000000071
 15
1680.0
 25
2376.0
 35
0.0000000000000142
146
0.0
 13
0.0
 23
0.0
 33
0.0
 16
0.0
 26
0.0
 36
0.0
 17
0.0
 27
0.0
 37
0.0
 76
     0
330
A
331
15
  0
MATERIAL
  5
265
102
{ACAD_REACTORS
330
263
102
}
330
263
100
AcDbMaterial
  1
ByBlock
 72
     1
 94
      127
  0
MATERIAL
  5
264
102
{ACAD_REACTORS
330
263
102
}
330
263
100
AcDbMaterial
  1
ByLayer
 72
     1
 94
      127
  0
MATERIAL
  5
266
102
{ACAD_REACTORS
330
263
102
}
330
263
100
AcDbMaterial
  1
Global
 72
     1
 94
      127
  0
MLEADERSTYLE
  5
D59
102
{ACAD_REACTORS
330
336
102
}
330
336
100
AcDbMLeaderStyle
170
     2
171
     1
172
     0
 90
        2
 40
0.0
 41
0.0
173
     1
 91
-1056964608
340
11
 92
       -2
290
     1
 42
2.0
291
     1
 43
8.0
  3
Standard
341
0
 44
4.0
300

342
17
174
     1
178
     6
175
     1
176
     0
 93
-1056964608
 45
4.0
292
     0
297
     0
 46
4.0
343
0
 94
-1056964608
 47
1.0
 49
1.0
140
1.0
293
     1
141
0.0
294
     1
177
     0
142
1.0
295
     0
296
     0
143
3.75
1001
ACAD_MLEADERVER
1070
     2
  0
MLINESTYLE
  5
1C
102
{ACAD_REACTORS
330
1B
102
}
330
1B
100
AcDbMlineStyle
  2
Standard
 70
     0
  3

 62
     0
 51
90.0
 52
90.0
 71
     2
 49
0.5
 62
   256
  6
BYLAYER
 49
-0.5
 62
   256
  6
BYLAYER
  0
ACDBPLACEHOLDER
  5
1D
102
{ACAD_REACTORS
330
1F
102
}
330
1F
  0
SCALE
  5
242
102
{ACAD_REACTORS
330
241
102
}
330
241
100
AcDbScale
 70
     0
300
1:1
140
1.0
141
1.0
290
     1
  0
SCALE
  5
243
102
{ACAD_REACTORS
330
241
102
}
330
241
100
AcDbScale
 70
     0
300
1:2
140
1.0
141
2.0
290
     0
  0
SCALE
  5
244
102
{ACAD_REACTORS
330
241
102
}
330
241
100
AcDbScale
 70
     0
300
1:4
140
1.0
141
4.0
290
     0
  0
SCALE
  5
245
102
{ACAD_REACTORS
330
241
102
}
330
241
100
AcDbScale
 70
     0
300
1:5
140
1.0
141
5.0
290
     0
  0
SCALE
  5
246
102
{ACAD_REACTORS
330
241
102
}
330
241
100
AcDbScale
 70
     0
300
1:8
140
1.0
141
8.0
290
     0
  0
SCALE
  5
247
102
{ACAD_REACTORS
330
241
102
}
330
241
100
AcDbScale
 70
     0
300
1:10
140
1.0
141
10.0
290
     0
  0
SCALE
  5
248
102
{ACAD_REACTORS
330
241
102
}
330
241
100
AcDbScale
 70
     0
300
1:16
140
1.0
141
16.0
290
     0
  0
SCALE
  5
249
102
{ACAD_REACTORS
330
241
102
}
330
241
100
AcDbScale
 70
     0
300
1:20
140
1.0
141
20.0
290
     0
  0
SCALE
  5
24A
102
{ACAD_REACTORS
330
241
102
}
330
241
100
AcDbScale
 70
     0
300
1:30
140
1.0
141
30.0
290
     0
  0
SCALE
  5
24B
102
{ACAD_REACTORS
330
241
102
}
330
241
100
AcDbScale
 70
     0
300
1:40
140
1.0
141
40.0
290
     0
  0
SCALE
  5
24C
102
{ACAD_REACTORS
330
241
102
}
330
241
100
AcDbScale
 70
     0
300
1:50
140
1.0
141
50.0
290
     0
  0
SCALE
  5
24D
102
{ACAD_REACTORS
330
241
102
}
330
241
100
AcDbScale
 70
     0
300
1:100
140
1.0
141
100.0
290
     0
  0
SCALE
  5
24E
102
{ACAD_REACTORS
330
241
102
}
330
241
100
AcDbScale
 70
     0
300
2:1
140
2.0
141
1.0
290
     0
  0
SCALE
  5
24F
102
{ACAD_REACTORS
330
241
102
}
330
241
100
AcDbScale
 70
     0
300
4:1
140
4.0
141
1.0
290
     0
  0
SCALE
  5
250
102
{ACAD_REACTORS
330
241
102
}
330
241
100
AcDbScale
 70
     0
300
8:1
140
8.0
141
1.0
290
     0
  0
SCALE
  5
251
102
{ACAD_REACTORS
330
241
102
}
330
241
100
AcDbScale
 70
     0
300
10:1
140
10.0
141
1.0
290
     0
  0
SCALE
  5
252
102
{ACAD_REACTORS
330
241
102
}
330
241
100
AcDbScale
 70
     0
300
100:1
140
100.0
141
1.0
290
     0
  0
SCALE
  5
253
102
{ACAD_REACTORS
330
241
102
}
330
241
100
AcDbScale
 70
     0
300
1/128" = 1'-0"
140
0.0078125
141
12.0
290
     0
  0
SCALE
  5
254
102
{ACAD_REACTORS
330
241
102
}
330
241
100
AcDbScale
 70
     0
300
1/64" = 1'-0"
140
0.015625
141
12.0
290
     0
  0
SCALE
  5
255
102
{ACAD_REACTORS
330
241
102
}
330
241
100
AcDbScale
 70
     0
300
1/32" = 1'-0"
140
0.03125
141
12.0
290
     0
  0
SCALE
  5
256
102
{ACAD_REACTORS
330
241
102
}
330
241
100
AcDbScale
 70
     0
300
1/16" = 1'-0"
140
0.0625
141
12.0
290
     0
  0
SCALE
  5
257
102
{ACAD_REACTORS
330
241
102
}
330
241
100
AcDbScale
 70
     0
300
3/32" = 1'-0"
140
0.09375
141
12.0
290
     0
  0
SCALE
  5
258
102
{ACAD_REACTORS
330
241
102
}
330
241
100
AcDbScale
 70
     0
300
1/8" = 1'-0"
140
0.125
141
12.0
290
     0
  0
SCALE
  5
259
102
{ACAD_REACTORS
330
241
102
}
330
241
100
AcDbScale
 70
     0
300
3/16" = 1'-0"
140
0.1875
141
12.0
290
     0
  0
SCALE
  5
25A
102
{ACAD_REACTORS
330
241
102
}
330
241
100
AcDbScale
 70
     0
300
1/4" = 1'-0"
140
0.25
141
12.0
290
     0
  0
SCALE
  5
25B
102
{ACAD_REACTORS
330
241
102
}
330
241
100
AcDbScale
 70
     0
300
3/8" = 1'-0"
140
0.375
141
12.0
290
     0
  0
SCALE
  5
25C
102
{ACAD_REACTORS
330
241
102
}
330
241
100
AcDbScale
 70
     0
300
1/2" = 1'-0"
140
0.5
141
12.0
290
     0
  0
SCALE
  5
25D
102
{ACAD_REACTORS
330
241
102
}
330
241
100
AcDbScale
 70
     0
300
3/4" = 1'-0"
140
0.75
141
12.0
290
     0
  0
SCALE
  5
25E
102
{ACAD_REACTORS
330
241
102
}
330
241
100
AcDbScale
 70
     0
300
1" = 1'-0"
140
1.0
141
12.0
290
     0
  0
SCALE
  5
25F
102
{ACAD_REACTORS
330
241
102
}
330
241
100
AcDbScale
 70
     0
300
1-1/2" = 1'-0"
140
1.5
141
12.0
290
     0
  0
SCALE
  5
260
102
{ACAD_REACTORS
330
241
102
}
330
241
100
AcDbScale
 70
     0
300
3" = 1'-0"
140
3.0
141
12.0
290
     0
  0
SCALE
  5
261
102
{ACAD_REACTORS
330
241
102
}
330
241
100
AcDbScale
 70
     0
300
6" = 1'-0"
140
6.0
141
12.0
290
     0
  0
SCALE
  5
262
102
{ACAD_REACTORS
330
241
102
}
330
241
100
AcDbScale
 70
     0
300
1'-0" = 1'-0"
140
12.0
141
12.0
290
     0
  0
TABLESTYLE
  5
279
102
{ACAD_REACTORS
330
278
102
}
102
{ACAD_XDICTIONARY
360
45AB
102
}
330
278
100
AcDbTableStyle
  3
Standard
 70
     0
 71
     0
 40
0.06
 41
0.06
280
     0
281
     0
  7
Standard
140
4.5
170
     2
 62
     0
 63
   257
283
     0
 90
        4
 91
        0
  1

274
    -2
284
     1
 64
     0
275
    -2
285
     1
 65
     0
276
    -2
286
     1
 66
     0
277
    -2
287
     1
 67
     0
278
    -2
288
     1
 68
     0
279
    -2
289
     1
 69
     0
  7
Standard
140
6.0
170
     5
 62
     0
 63
   257
283
     0
 90
        4
 91
        0
  1

274
    -2
284
     1
 64
     0
275
    -2
285
     1
 65
     0
276
    -2
286
     1
 66
     0
277
    -2
287
     1
 67
     0
278
    -2
288
     1
 68
     0
279
    -2
289
     1
 69
     0
  7
Standard
140
4.5
170
     5
 62
     0
 63
   257
283
     0
 90
        4
 91
        0
  1

274
    -2
284
     1
 64
     0
275
    -2
285
     1
 65
     0
276
    -2
286
     1
 66
     0
277
    -2
287
     1
 67
     0
278
    -2
288
     1
 68
     0
279
    -2
289
     1
 69
     0
  0
VISUALSTYLE
  5
26C
102
{ACAD_REACTORS
330
267
102
}
330
267
100
AcDbVisualStyle
  2
2dWireframe
 70
     4
 71
     0
 72
     2
 73
     0
 90
        0
 40
-0.6
 41
-30.0
 62
     5
 63
     7
421
 16777215
 74
     1
 91
        4
 64
     7
 65
   257
 75
     1
175
     1
 42
1.0
 92
        0
 66
   257
 43
1.0
 76
     1
 77
     6
 78
     2
 67
     7
 79
     5
170
     0
171
     0
290
     0
174
     0
 93
        1
 44
0.0
173
     0
291
     0
 45
0.0
  0
VISUALSTYLE
  5
26E
102
{ACAD_REACTORS
330
267
102
}
330
267
100
AcDbVisualStyle
  2
3D Hidden
 70
     6
 71
     1
 72
     2
 73
     2
 90
        0
 40
-0.6
 41
-30.0
 62
     5
 63
     7
421
 16777215
 74
     2
 91
        2
 64
     7
 65
   257
 75
     2
175
     1
 42
40.0
 92
        0
 66
   257
 43
1.0
 76
     1
 77
     6
 78
     2
 67
     7
 79
     3
170
     0
171
     0
290
     0
174
     0
 93
        1
 44
0.0
173
     0
291
     0
 45
0.0
  0
VISUALSTYLE
  5
26D
102
{ACAD_REACTORS
330
267
102
}
330
267
100
AcDbVisualStyle
  2
3dWireframe
 70
     5
 71
     0
 72
     2
 73
     0
 90
        0
 40
-0.6
 41
-30.0
 62
     5
 63
     7
421
 16777215
 74
     1
 91
        4
 64
     7
 65
   257
 75
     1
175
     1
 42
1.0
 92
        0
 66
   257
 43
1.0
 76
     1
 77
     6
 78
     2
 67
     7
 79
     5
170
     0
171
     0
290
     0
174
     0
 93
        1
 44
0.0
173
     0
291
     0
 45
0.0
  0
VISUALSTYLE
  5
26F
102
{ACAD_REACTORS
330
267
102
}
330
267
100
AcDbVisualStyle
  2
Basic
 70
     7
 71
     1
 72
     0
 73
     1
 90
        0
 40
-0.6
 41
-30.0
 62
     5
 63
     7
421
 16777215
 74
     0
 91
        4
 64
     7
 65
   257
 75
     1
175
     1
 42
1.0
 92
        8
 66
     7
 43
1.0
 76
     1
 77
     6
 78
     2
 67
     7
 79
     5
170
     0
171
     0
290
     0
174
     0
 93
        1
 44
0.0
173
     0
291
     1
 45
0.0
  0
VISUALSTYLE
  5
273
102
{ACAD_REACTORS
330
267
102
}
330
267
100
AcDbVisualStyle
  2
Brighten
 70
    12
 71
     2
 72
     2
 73
     0
 90
        0
 40
-0.6
 41
-30.0
 62
     5
 63
     7
421
 16777215
 74
     1
 91
        4
 64
     7
 65
   257
 75
     1
175
     1
 42
1.0
 92
        8
 66
     7
 43
1.0
 76
     1
 77
     6
 78
     2
 67
     7
 79
     5
170
     0
171
     0
290
     0
174
     0
 93
        1
 44
50.0
173
     0
291
     1
 45
0.0
  0
VISUALSTYLE
  5
277
102
{ACAD_REACTORS
330
267
102
}
330
267
100
AcDbVisualStyle
  2
ColorChange
 70
    16
 71
     2
 72
     2
 73
     3
 90
        0
 40
-0.6
 41
-30.0
 62
     5
 63
     8
421
  8421504
 74
     1
 91
        4
 64
     7
 65
   257
 75
     1
175
     1
 42
1.0
 92
        8
 66
     8
424
  8421504
 43
1.0
 76
     1
 77
     6
 78
     2
 67
     7
 79
     5
170
     0
171
     0
290
     0
174
     0
 93
        1
 44
0.0
173
     0
291
     1
 45
0.0
  0
VISUALSTYLE
  5
271
102
{ACAD_REACTORS
330
267
102
}
330
267
100
AcDbVisualStyle
  2
Conceptual
 70
     9
 71
     3
 72
     2
 73
     0
 90
        0
 40
-0.6
 41
-30.0
 62
     5
 63
     7
421
 16777215
 74
     2
 91
        2
 64
     7
 65
   257
 75
     1
175
     1
 42
40.0
 92
        8
 66
     7
 43
1.0
 76
     1
 77
     6
 78
     2
 67
     7
 79
     3
170
     0
171
     0
290
     0
174
     0
 93
        1
 44
0.0
173
     0
291
     0
 45
0.0
  0
VISUALSTYLE
  5
272
102
{ACAD_REACTORS
330
267
102
}
330
267
100
AcDbVisualStyle
  2
Dim
 70
    11
 71
     2
 72
     2
 73
     0
 90
        0
 40
-0.6
 41
-30.0
 62
     5
 63
     7
421
 16777215
 74
     1
 91
        4
 64
     7
 65
   257
 75
     1
175
     1
 42
1.0
 92
        8
 66
     7
 43
1.0
 76
     1
 77
     6
 78
     2
 67
     7
 79
     5
170
     0
171
     0
290
     0
174
     0
 93
        1
 44
-50.0
173
     0
291
     1
 45
0.0
  0
VISUALSTYLE
  5
8FE
102
{ACAD_REACTORS
330
267
102
}
330
267
100
AcDbVisualStyle
  2
EdgeColorOff
 70
    22
 71
     2
 72
     2
 73
     0
 90
        0
 40
0.6
 41
30.0
 62
     5
 63
     7
421
 16777215
 74
     1
 91
        4
 64
     7
 65
   257
 75
     1
175
     1
 42
1.0
 92
        8
 66
     7
 43
1.0
 76
     1
 77
     6
 78
     2
 67
     7
 79
     5
170
     0
171
     0
290
     0
174
     0
 93
        1
 44
0.0
173
     0
291
     1
 45
0.0
  0
VISUALSTYLE
  5
276
102
{ACAD_REACTORS
330
267
102
}
330
267
100
AcDbVisualStyle
  2
Facepattern
 70
    15
 71
     2
 72
     2
 73
     0
 90
        0
 40
-0.6
 41
-30.0
 62
     5
 63
     7
421
 16777215
 74
     1
 91
        4
 64
     7
 65
   257
 75
     1
175
     1
 42
1.0
 92
        8
 66
     7
 43
1.0
 76
     1
 77
     6
 78
     2
 67
     7
 79
     5
170
     0
171
     0
290
     0
174
     0
 93
        1
 44
0.0
173
     0
291
     1
 45
0.0
  0
VISUALSTYLE
  5
268
102
{ACAD_REACTORS
330
267
102
}
330
267
100
AcDbVisualStyle
  2
Flat
 70
     0
 71
     2
 72
     1
 73
     1
 90
        2
 40
-0.6
 41
30.0
 62
     5
 63
     7
421
 16777215
 74
     0
 91
        4
 64
     7
 65
   257
 75
     1
175
     1
 42
1.0
 92
        8
 66
     7
 43
1.0
 76
     1
 77
     6
 78
     2
 67
     7
 79
     5
170
     0
171
     0
290
     0
174
     0
 93
       13
 44
0.0
173
     0
291
     1
 45
0.0
  0
VISUALSTYLE
  5
269
102
{ACAD_REACTORS
330
267
102
}
330
267
100
AcDbVisualStyle
  2
FlatWithEdges
 70
     1
 71
     2
 72
     1
 73
     1
 90
        2
 40
-0.6
 41
30.0
 62
     5
 63
     7
421
 16777215
 74
     1
 91
        4
 64
     7
 65
   257
 75
     1
175
     1
 42
1.0
 92
        0
 66
   257
 43
1.0
 76
     1
 77
     6
 78
     2
 67
     7
 79
     5
170
     0
171
     0
290
     0
174
     0
 93
       13
 44
0.0
173
     0
291
     1
 45
0.0
  0
VISUALSTYLE
  5
26A
102
{ACAD_REACTORS
330
267
102
}
330
267
100
AcDbVisualStyle
  2
Gouraud
 70
     2
 71
     2
 72
     2
 73
     1
 90
        2
 40
-0.6
 41
30.0
 62
     5
 63
     7
421
 16777215
 74
     0
 91
        4
 64
     7
 65
   257
 75
     1
175
     1
 42
1.0
 92
        0
 66
     7
 43
1.0
 76
     1
 77
     6
 78
     2
 67
     7
 79
     5
170
     0
171
     0
290
     0
174
     0
 93
       13
 44
0.0
173
     0
291
     1
 45
0.0
  0
VISUALSTYLE
  5
26B
102
{ACAD_REACTORS
330
267
102
}
330
267
100
AcDbVisualStyle
  2
GouraudWithEdges
 70
     3
 71
     2
 72
     2
 73
     1
 90
        2
 40
-0.6
 41
30.0
 62
     5
 63
     7
421
 16777215
 74
     1
 91
        4
 64
     7
 65
   257
 75
     1
175
     1
 42
1.0
 92
        0
 66
   257
 43
1.0
 76
     1
 77
     6
 78
     2
 67
     7
 79
     5
170
     0
171
     0
290
     0
174
     0
 93
       13
 44
0.0
173
     0
291
     1
 45
0.0
  0
VISUALSTYLE
  5
8FB
102
{ACAD_REACTORS
330
267
102
}
330
267
100
AcDbVisualStyle
  2
Hidden
 70
     6
 71
     1
 72
     2
 73
     2
 90
        0
 40
0.6
 41
30.0
 62
     5
 63
     7
421
 16777215
 74
     2
 91
        2
 64
     7
 65
   257
 75
     2
175
     1
 42
40.0
 92
        0
 66
   257
 43
1.0
 76
     1
 77
     6
 78
     2
 67
     7
 79
     3
170
     0
171
     0
290
     0
174
     0
 93
        1
 44
0.0
173
     0
291
     0
 45
0.0
  0
VISUALSTYLE
  5
8FC
102
{ACAD_REACTORS
330
267
102
}
330
267
100
AcDbVisualStyle
  2
JitterOff
 70
    20
 71
     2
 72
     2
 73
     0
 90
        0
 40
0.6
 41
30.0
 62
     5
 63
     7
421
 16777215
 74
     1
 91
        4
 64
     7
 65
   257
 75
     1
175
     1
 42
1.0
 92
       10
 66
     7
 43
1.0
 76
     1
 77
     6
 78
     2
 67
     7
 79
     5
170
     0
171
     0
290
     0
174
     0
 93
        1
 44
0.0
173
     0
291
     1
 45
0.0
  0
VISUALSTYLE
  5
275
102
{ACAD_REACTORS
330
267
102
}
330
267
100
AcDbVisualStyle
  2
Linepattern
 70
    14
 71
     2
 72
     2
 73
     0
 90
        0
 40
-0.6
 41
-30.0
 62
     5
 63
     7
421
 16777215
 74
     1
 91
        4
 64
     7
 65
   257
 75
     7
175
     7
 42
1.0
 92
        8
 66
     7
 43
1.0
 76
     1
 77
     6
 78
     2
 67
     7
 79
     5
170
     0
171
     0
290
     0
174
     0
 93
        1
 44
0.0
173
     0
291
     1
 45
0.0
  0
VISUALSTYLE
  5
8FD
102
{ACAD_REACTORS
330
267
102
}
330
267
100
AcDbVisualStyle
  2
OverhangOff
 70
    21
 71
     2
 72
     2
 73
     0
 90
        0
 40
0.6
 41
30.0
 62
     5
 63
     7
421
 16777215
 74
     1
 91
        4
 64
     7
 65
   257
 75
     1
175
     1
 42
1.0
 92
        9
 66
     7
 43
1.0
 76
     1
 77
     6
 78
     2
 67
     7
 79
     5
170
     0
171
     0
290
     0
174
     0
 93
        1
 44
0.0
173
     0
291
     1
 45
0.0
  0
VISUALSTYLE
  5
270
102
{ACAD_REACTORS
330
267
102
}
330
267
100
AcDbVisualStyle
  2
Realistic
 70
     8
 71
     2
 72
     2
 73
     0
 90
        0
 40
-0.6
 41
-30.0
 62
     5
 63
     7
421
 16777215
 74
     1
 91
        0
 64
     7
 65
   257
 75
     1
175
     1
 42
1.0
 92
        8
 66
     8
424
  7895160
 43
1.0
 76
     1
 77
     6
 78
     2
 67
     7
 79
     5
170
     0
171
     0
290
     0
174
     0
 93
       13
 44
0.0
173
     0
291
     0
 45
0.0
  0
VISUALSTYLE
  5
903
102
{ACAD_REACTORS
330
267
102
}
330
267
100
AcDbVisualStyle
  2
Shaded
 70
    27
 71
     2
 72
     2
 73
     1
 90
        2
 40
0.6
 41
30.0
 62
     5
 63
     7
421
 16777215
 74
     0
 91
        4
 64
     7
 65
   257
 75
     1
175
     1
 42
1.0
 92
        8
 66
   257
 43
1.0
 76
     1
 77
     6
 78
     2
 67
     8
425
  7895160
 79
     3
170
     0
171
     0
290
     0
174
     0
 93
        5
 44
0.0
173
     0
291
     0
 45
0.0
  0
VISUALSTYLE
  5
902
102
{ACAD_REACTORS
330
267
102
}
330
267
100
AcDbVisualStyle
  2
Shaded with edges
 70
    26
 71
     2
 72
     2
 73
     1
 90
        2
 40
0.6
 41
30.0
 62
     5
 63
     7
421
 16777215
 74
     1
 91
       10
 64
     7
 65
   257
 75
     2
175
     1
 42
1.0
 92
        8
 66
   257
 43
1.0
 76
     1
 77
     6
 78
     2
 67
     7
 79
     3
170
     0
171
     0
290
     0
174
     0
 93
        5
 44
0.0
173
     0
291
     0
 45
0.0
  0
VISUALSTYLE
  5
8FF
102
{ACAD_REACTORS
330
267
102
}
330
267
100
AcDbVisualStyle
  2
Shades of Gray
 70
    23
 71
     2
 72
     2
 73
     3
 90
        0
 40
0.6
 41
30.0
 62
     5
 63
     7
421
 16777215
 74
     2
 91
        2
 64
     7
 65
     7
 75
     1
175
     1
 42
40.0
 92
        8
 66
     7
 43
1.0
 76
     1
 77
     6
 78
     2
 67
     7
 79
     3
170
     0
171
     0
290
     0
174
     0
 93
        1
 44
0.0
173
     0
291
     0
 45
0.0
  0
VISUALSTYLE
  5
900
102
{ACAD_REACTORS
330
267
102
}
330
267
100
AcDbVisualStyle
  2
Sketchy
 70
    24
 71
     1
 72
     2
 73
     2
 90
        0
 40
0.6
 41
30.0
 62
     5
 63
     7
421
 16777215
 74
     2
 91
        2
 64
     7
 65
     7
 75
     1
175
     1
 42
40.0
 92
       11
 66
     7
 43
1.0
 76
     1
 77
     6
 78
     2
 67
     7
 79
     6
170
     0
171
     0
290
     0
174
     0
 93
        1
 44
0.0
173
     0
291
     0
 45
0.0
  0
VISUALSTYLE
  5
274
102
{ACAD_REACTORS
330
267
102
}
330
267
100
AcDbVisualStyle
  2
Thicken
 70
    13
 71
     2
 72
     2
 73
     0
 90
        0
 40
-0.6
 41
-30.0
 62
     5
 63
     7
421
 16777215
 74
     1
 91
        4
 64
     7
 65
   257
 75
     1
175
     1
 42
1.0
 92
       12
 66
     7
 43
1.0
 76
     1
 77
     6
 78
     2
 67
     7
 79
     5
170
     0
171
     0
290
     0
174
     0
 93
        1
 44
0.0
173
     0
291
     1
 45
0.0
  0
VISUALSTYLE
  5
8FA
102
{ACAD_REACTORS
330
267
102
}
330
267
100
AcDbVisualStyle
  2
Wireframe
 70
     5
 71
     0
 72
     2
 73
     0
 90
        0
 40
0.6
 41
30.0
 62
     5
 63
     7
421
 16777215
 74
     1
 91
        4
 64
     7
 65
   257
 75
     1
175
     1
 42
1.0
 92
        0
 66
   257
 43
1.0
 76
     1
 77
     6
 78
     2
 67
     7
 79
     3
170
     0
171
     0
290
     0
174
     0
 93
        1
 44
0.0
173
     0
291
     0
 45
0.0
  0
VISUALSTYLE
  5
901
102
{ACAD_REACTORS
330
267
102
}
330
267
100
AcDbVisualStyle
  2
X-Ray
 70
    25
 71
     2
 72
     2
 73
     1
 90
        1
 40
0.5
 41
30.0
 62
     5
 63
     7
421
 16777215
 74
     1
 91
        0
 64
     7
 65
   257
 75
     1
175
     1
 42
1.0
 92
        8
 66
     7
 43
1.0
 76
     1
 77
     6
 78
     2
 67
     7
 79
     3
170
     0
171
     0
290
     0
174
     0
 93
       13
 44
0.0
173
     0
291
     0
 45
0.0
  0
DICTIONARYVAR
  5
331
102
{ACAD_REACTORS
330
330
102
}
330
330
100
DictionaryVariables
280
     0
  1
1:1
  0
DICTIONARYVAR
  5
D5E
102
{ACAD_REACTORS
330
330
102
}
330
330
100
DictionaryVariables
280
     0
  1
Standard
  0
DICTIONARYVAR
  5
335
102
{ACAD_REACTORS
330
330
102
}
330
330
100
DictionaryVariables
280
     0
  1
Standard
  0
DICTIONARYVAR
  5
D52
102
{ACAD_REACTORS
330
330
102
}
330
330
100
DictionaryVariables
280
     0
  1
ByLayer
  0
DICTIONARYVAR
  5
896
102
{ACAD_REACTORS
330
330
102
}
330
330
100
DictionaryVariables
280
     0
  1
0
  0
DICTIONARYVAR
  5
246C
102
{ACAD_REACTORS
330
E38
102
}
330
E38
100
DictionaryVariables
280
     0
  1
0.261799
  0
DICTIONARYVAR
  5
246A
102
{ACAD_REACTORS
330
E38
102
}
330
E38
100
DictionaryVariables
280
     0
  1
0.400000
  0
DICTIONARYVAR
  5
246B
102
{ACAD_REACTORS
330
E38
102
}
330
E38
100
DictionaryVariables
280
     0
  1
0.250000
  0
DICTIONARYVAR
  5
246D
102
{ACAD_REACTORS
330
E38
102
}
330
E38
100
DictionaryVariables
280
     0
  1
1
  0
FIELD
  5
3DBA
102
{ACAD_REACTORS
330
457E
102
}
330
457E
100
AcDbField
  1
_text
  2
{%<\_FldIdx 0>%N}
 90
        1
360
3DBB
 97
        0
 91
       63
 92
        0
 94
       11
 95
        2
 96
        0
300

 93
        1
  6
ACFD_FIELDTEXT_CHECKSUM
 93
        2
 90
        2
140
4510.0
 94
        0
300

302

304
ACVALUE_END
  7
ACFD_FIELD_VALUE
 93
        6
 90
        4
  1
{20230308N}
 94
        0
300

302

304
ACVALUE_END
301
{20230308N}
 98
       11
  0
DICTIONARY
  5
45AB
330
279
100
AcDbDictionary
280
     1
281
     1
  3
ACAD_ROUNDTRIP_2008_TABLESTYLE_CELLSTYLEMAP
360
45AC
  0
FIELD
  5
3DBB
330
3DBA
100
AcDbField
  1
AcVar
  2
\AcVar CreateDate \f "yyyyMMdd"
 90
        0
 97
        0
 91
       63
 92
        0
 94
       11
 95
        2
 96
        0
300

 93
        1
  6
Variable
 93
        2
 90
        4
  1
CreateDate
 94
        0
300

302

304
ACVALUE_END
  7
ACFD_FIELD_VALUE
 93
        6
 90
        8
 92
       16
310
E70703000000080008001B002B000000
 94
        0
300
yyyyMMdd
302

304
ACVALUE_END
301
20230308
 98
        8
  0
CELLSTYLEMAP
  5
45AC
102
{ACAD_REACTORS
330
45AB
102
}
330
45AB
100
AcDbCellStyleMap
 90
        3
300
CELLSTYLE
  1
TABLEFORMAT_BEGIN
 90
        5
170
     1
 91
        0
 92
    32768
 62
   257
 93
        1
300
CONTENTFORMAT
  1
CONTENTFORMAT_BEGIN
 90
        0
 91
        0
 92
        4
 93
        0
300

 40
0.0
140
1.0
 94
        5
 62
     0
340
17
144
6.0
309
CONTENTFORMAT_END
171
     1
301
MARGIN
  1
CELLMARGIN_BEGIN
 40
0.06
 40
0.06
 40
0.06
 40
0.06
 40
0.18
 40
0.18
309
CELLMARGIN_END
 94
        6
 95
        1
302
GRIDFORMAT
  1
GRIDFORMAT_BEGIN
 90
        0
 91
        1
 62
     0
 92
       -2
340
0
 93
        0
 40
0.045
309
GRIDFORMAT_END
 95
        2
302
GRIDFORMAT
  1
GRIDFORMAT_BEGIN
 90
        0
 91
        1
 62
     0
 92
       -2
340
0
 93
        0
 40
0.045
309
GRIDFORMAT_END
 95
        4
302
GRIDFORMAT
  1
GRIDFORMAT_BEGIN
 90
        0
 91
        1
 62
     0
 92
       -2
340
0
 93
        0
 40
0.045
309
GRIDFORMAT_END
 95
        8
302
GRIDFORMAT
  1
GRIDFORMAT_BEGIN
 90
        0
 91
        1
 62
     0
 92
       -2
340
0
 93
        0
 40
0.045
309
GRIDFORMAT_END
 95
       16
302
GRIDFORMAT
  1
GRIDFORMAT_BEGIN
 90
        0
 91
        1
 62
     0
 92
       -2
340
0
 93
        0
 40
0.045
309
GRIDFORMAT_END
 95
       32
302
GRIDFORMAT
  1
GRIDFORMAT_BEGIN
 90
        0
 91
        1
 62
     0
 92
       -2
340
0
 93
        0
 40
0.045
309
GRIDFORMAT_END
309
TABLEFORMAT_END
  1
CELLSTYLE_BEGIN
 90
        1
 91
        1
300
_TITLE
309
CELLSTYLE_END
300
CELLSTYLE
  1
TABLEFORMAT_BEGIN
 90
        5
170
     1
 91
        0
 92
        0
 62
   257
 93
        1
300
CONTENTFORMAT
  1
CONTENTFORMAT_BEGIN
 90
        0
 91
        0
 92
        4
 93
        0
300

 40
0.0
140
1.0
 94
        5
 62
     0
340
17
144
4.5
309
CONTENTFORMAT_END
171
     1
301
MARGIN
  1
CELLMARGIN_BEGIN
 40
0.06
 40
0.06
 40
0.06
 40
0.06
 40
0.18
 40
0.18
309
CELLMARGIN_END
 94
        6
 95
        1
302
GRIDFORMAT
  1
GRIDFORMAT_BEGIN
 90
        0
 91
        1
 62
     0
 92
       -2
340
0
 93
        0
 40
0.045
309
GRIDFORMAT_END
 95
        2
302
GRIDFORMAT
  1
GRIDFORMAT_BEGIN
 90
        0
 91
        1
 62
     0
 92
       -2
340
0
 93
        0
 40
0.045
309
GRIDFORMAT_END
 95
        4
302
GRIDFORMAT
  1
GRIDFORMAT_BEGIN
 90
        0
 91
        1
 62
     0
 92
       -2
340
0
 93
        0
 40
0.045
309
GRIDFORMAT_END
 95
        8
302
GRIDFORMAT
  1
GRIDFORMAT_BEGIN
 90
        0
 91
        1
 62
     0
 92
       -2
340
0
 93
        0
 40
0.045
309
GRIDFORMAT_END
 95
       16
302
GRIDFORMAT
  1
GRIDFORMAT_BEGIN
 90
        0
 91
        1
 62
     0
 92
       -2
340
0
 93
        0
 40
0.045
309
GRIDFORMAT_END
 95
       32
302
GRIDFORMAT
  1
GRIDFORMAT_BEGIN
 90
        0
 91
        1
 62
     0
 92
       -2
340
0
 93
        0
 40
0.045
309
GRIDFORMAT_END
309
TABLEFORMAT_END
  1
CELLSTYLE_BEGIN
 90
        2
 91
        1
300
_HEADER
309
CELLSTYLE_END
300
CELLSTYLE
  1
TABLEFORMAT_BEGIN
 90
        5
170
     1
 91
        0
 92
        0
 62
   257
 93
        1
300
CONTENTFORMAT
  1
CONTENTFORMAT_BEGIN
 90
        0
 91
        0
 92
        4
 93
        0
300

 40
0.0
140
1.0
 94
        2
 62
     0
340
17
144
4.5
309
CONTENTFORMAT_END
171
     1
301
MARGIN
  1
CELLMARGIN_BEGIN
 40
0.06
 40
0.06
 40
0.06
 40
0.06
 40
0.18
 40
0.18
309
CELLMARGIN_END
 94
        6
 95
        1
302
GRIDFORMAT
  1
GRIDFORMAT_BEGIN
 90
        0
 91
        1
 62
     0
 92
       -2
340
0
 93
        0
 40
0.045
309
GRIDFORMAT_END
 95
        2
302
GRIDFORMAT
  1
GRIDFORMAT_BEGIN
 90
        0
 91
        1
 62
     0
 92
       -2
340
0
 93
        0
 40
0.045
309
GRIDFORMAT_END
 95
        4
302
GRIDFORMAT
  1
GRIDFORMAT_BEGIN
 90
        0
 91
        1
 62
     0
 92
       -2
340
0
 93
        0
 40
0.045
309
GRIDFORMAT_END
 95
        8
302
GRIDFORMAT
  1
GRIDFORMAT_BEGIN
 90
        0
 91
        1
 62
     0
 92
       -2
340
0
 93
        0
 40
0.045
309
GRIDFORMAT_END
 95
       16
302
GRIDFORMAT
  1
GRIDFORMAT_BEGIN
 90
        0
 91
        1
 62
     0
 92
       -2
340
0
 93
        0
 40
0.045
309
GRIDFORMAT_END
 95
       32
302
GRIDFORMAT
  1
GRIDFORMAT_BEGIN
 90
        0
 91
        1
 62
     0
 92
       -2
340
0
 93
        0
 40
0.045
309
GRIDFORMAT_END
309
TABLEFORMAT_END
  1
CELLSTYLE_BEGIN
 90
        3
 91
        2
300
_DATA
309
CELLSTYLE_END
  0
ENDSEC
  0
EOF
