  0
SECTION
  2
HEADER
  9
$ACADVER
  1
AC1021
  9
$ACADMAINTVER
 70
    25
  9
$DWGCODEPAGE
  3
ANSI_932
  9
$LASTSAVEDBY
  1
tform
  9
$INSBASE
 10
0.0
 20
0.0
 30
0.0
  9
$EXTMIN
 10
0.0
 20
0.0
 30
-0.0000000000000142
  9
$EXTMAX
 10
420.0
 20
594.0
 30
0.0000000000000142
  9
$LIMMIN
 10
0.0
 20
0.0
  9
$LIMMAX
 10
420.0
 20
594.0
  9
$ORTHOMODE
 70
     1
  9
$REGENMODE
 70
     1
  9
$FILLMODE
 70
     1
  9
$QTEXTMODE
 70
     0
  9
$MIRRTEXT
 70
     1
  9
$LTSCALE
 40
50.0
  9
$ATTMODE
 70
     1
  9
$TEXTSIZE
 40
2.5
  9
$TRACEWID
 40
1.0
  9
$TEXTSTYLE
  7
ＭＳ ゴシック
  9
$CLAYER
  8
DIM
  9
$CELTYPE
  6
ByLayer
  9
$CECOLOR
 62
   256
  9
$CELTSCALE
 40
0.05
  9
$DISPSILH
 70
     0
  9
$DIMSCALE
 40
1.0
  9
$DIMASZ
 40
1.0
  9
$DIMEXO
 40
5.0
  9
$DIMDLI
 40
0.9999999999999999
  9
$DIMRND
 40
0.0
  9
$DIMDLE
 40
0.0
  9
$DIMEXE
 40
0.0
  9
$DIMTP
 40
0.0
  9
$DIMTM
 40
0.0
  9
$DIMTXT
 40
5.0
  9
$DIMCEN
 40
0.0
  9
$DIMTSZ
 40
0.0
  9
$DIMTOL
 70
     0
  9
$DIMLIM
 70
     0
  9
$DIMTIH
 70
     0
  9
$DIMTOH
 70
     0
  9
$DIMSE1
 70
     0
  9
$DIMSE2
 70
     0
  9
$DIMTAD
 70
     1
  9
$DIMZIN
 70
    11
  9
$DIMBLK
  1
DOT
  9
$DIMASO
 70
     1
  9
$DIMSHO
 70
     1
  9
$DIMPOST
  1
<>
  9
$DIMAPOST
  1
[]
  9
$DIMALT
 70
     0
  9
$DIMALTD
 70
     1
  9
$DIMALTF
 40
1.0
  9
$DIMLFAC
 40
1.0
  9
$DIMTOFL
 70
     0
  9
$DIMTVP
 40
0.0
  9
$DIMTIX
 70
     1
  9
$DIMSOXD
 70
     0
  9
$DIMSAH
 70
     0
  9
$DIMBLK1
  1

  9
$DIMBLK2
  1

  9
$DIMSTYLE
  2
tfrom線あり
  9
$DIMCLRD
 70
     0
  9
$DIMCLRE
 70
     0
  9
$DIMCLRT
 70
     0
  9
$DIMTFAC
 40
1.0
  9
$DIMGAP
 40
5.0
  9
$DIMJUST
 70
     0
  9
$DIMSD1
 70
     0
  9
$DIMSD2
 70
     0
  9
$DIMTOLJ
 70
     1
  9
$DIMTZIN
 70
    11
  9
$DIMALTZ
 70
    11
  9
$DIMALTTZ
 70
    11
  9
$DIMUPT
 70
     0
  9
$DIMDEC
 70
     0
  9
$DIMTDEC
 70
     1
  9
$DIMALTU
 70
     2
  9
$DIMALTTD
 70
     2
  9
$DIMTXSTY
  7
ＭＳ ゴシック
  9
$DIMAUNIT
 70
     0
  9
$DIMADEC
 70
     2
  9
$DIMALTRND
 40
0.0
  9
$DIMAZIN
 70
     0
  9
$DIMDSEP
 70
    46
  9
$DIMATFIT
 70
     0
  9
$DIMFRAC
 70
     2
  9
$DIMLDRBLK
  1
DOT
  9
$DIMLUNIT
 70
     2
  9
$DIMLWD
 70
    -2
  9
$DIMLWE
 70
    -2
  9
$DIMTMOVE
 70
     0
  9
$DIMFXL
 40
1.0
  9
$DIMFXLON
 70
     0
  9
$DIMJOGANG
 40
0.7853981633974483
  9
$DIMTFILL
 70
     0
  9
$DIMTFILLCLR
 70
     0
  9
$DIMARCSYM
 70
     0
  9
$DIMLTYPE
  6

  9
$DIMLTEX1
  6

  9
$DIMLTEX2
  6

  9
$LUNITS
 70
     2
  9
$LUPREC
 70
     0
  9
$SKETCHINC
 40
0.1
  9
$FILLETRAD
 40
0.0
  9
$AUNITS
 70
     0
  9
$AUPREC
 70
     0
  9
$MENU
  1
acad
  9
$ELEVATION
 40
0.0
  9
$PELEVATION
 40
0.0
  9
$THICKNESS
 40
0.0
  9
$LIMCHECK
 70
     0
  9
$CHAMFERA
 40
0.0
  9
$CHAMFERB
 40
0.0
  9
$CHAMFERC
 40
0.0
  9
$CHAMFERD
 40
0.0
  9
$SKPOLY
 70
     0
  9
$TDCREATE
 40
2447893.375
  9
$TDUCREATE
 40
0.0
  9
$TDUPDATE
 40
2459502.64199919
  9
$TDUUPDATE
 40
2459502.26699919
  9
$TDINDWG
 40
0.332680544
  9
$TDUSRTIMER
 40
0.0003767593
  9
$USRTIMER
 70
     1
  9
$ANGBASE
 50
0.0
  9
$ANGDIR
 70
     0
  9
$PDMODE
 70
     1
  9
$PDSIZE
 40
-2.0
  9
$PLINEWID
 40
0.0
  9
$SPLFRAME
 70
     0
  9
$SPLINETYPE
 70
     6
  9
$SPLINESEGS
 70
     8
  9
$HANDSEED
  5
6C2C
  9
$SURFTAB1
 70
     6
  9
$SURFTAB2
 70
     6
  9
$SURFTYPE
 70
     6
  9
$SURFU
 70
     6
  9
$SURFV
 70
     6
  9
$UCSBASE
  2

  9
$UCSNAME
  2

  9
$UCSORG
 10
0.0
 20
0.0
 30
0.0
  9
$UCSXDIR
 10
1.0
 20
0.0
 30
0.0
  9
$UCSYDIR
 10
0.0
 20
1.0
 30
0.0
  9
$UCSORTHOREF
  2

  9
$UCSORTHOVIEW
 70
     0
  9
$UCSORGTOP
 10
0.0
 20
0.0
 30
0.0
  9
$UCSORGBOTTOM
 10
0.0
 20
0.0
 30
0.0
  9
$UCSORGLEFT
 10
0.0
 20
0.0
 30
0.0
  9
$UCSORGRIGHT
 10
0.0
 20
0.0
 30
0.0
  9
$UCSORGFRONT
 10
0.0
 20
0.0
 30
0.0
  9
$UCSORGBACK
 10
0.0
 20
0.0
 30
0.0
  9
$PUCSBASE
  2

  9
$PUCSNAME
  2

  9
$PUCSORG
 10
0.0
 20
0.0
 30
0.0
  9
$PUCSXDIR
 10
1.0
 20
0.0
 30
0.0
  9
$PUCSYDIR
 10
0.0
 20
1.0
 30
0.0
  9
$PUCSORTHOREF
  2

  9
$PUCSORTHOVIEW
 70
     0
  9
$PUCSORGTOP
 10
0.0
 20
0.0
 30
0.0
  9
$PUCSORGBOTTOM
 10
0.0
 20
0.0
 30
0.0
  9
$PUCSORGLEFT
 10
0.0
 20
0.0
 30
0.0
  9
$PUCSORGRIGHT
 10
0.0
 20
0.0
 30
0.0
  9
$PUCSORGFRONT
 10
0.0
 20
0.0
 30
0.0
  9
$PUCSORGBACK
 10
0.0
 20
0.0
 30
0.0
  9
$USERI1
 70
     0
  9
$USERI2
 70
     0
  9
$USERI3
 70
     0
  9
$USERI4
 70
     0
  9
$USERI5
 70
     0
  9
$USERR1
 40
0.0
  9
$USERR2
 40
0.0
  9
$USERR3
 40
0.0
  9
$USERR4
 40
0.0
  9
$USERR5
 40
0.0
  9
$WORLDVIEW
 70
     1
  9
$SHADEDGE
 70
     3
  9
$SHADEDIF
 70
    70
  9
$TILEMODE
 70
     1
  9
$MAXACTVP
 70
    64
  9
$PINSBASE
 10
0.0
 20
0.0
 30
0.0
  9
$PLIMCHECK
 70
     0
  9
$PEXTMIN
 10
0.0
 20
0.0
 30
0.0
  9
$PEXTMAX
 10
0.0
 20
0.0
 30
0.0
  9
$PLIMMIN
 10
-7.5
 20
-20.0
  9
$PLIMMAX
 10
412.5
 20
277.0
  9
$UNITMODE
 70
     0
  9
$VISRETAIN
 70
     0
  9
$PLINEGEN
 70
     1
  9
$PSLTSCALE
 70
     0
  9
$TREEDEPTH
 70
  3020
  9
$CMLSTYLE
  2
Standard
  9
$CMLJUST
 70
     0
  9
$CMLSCALE
 40
1.0
  9
$PROXYGRAPHICS
 70
     0
  9
$MEASUREMENT
 70
     1
  9
$CELWEIGHT
370
    -1
  9
$ENDCAPS
280
     0
  9
$JOINSTYLE
280
     0
  9
$LWDISPLAY
290
     1
  9
$INSUNITS
 70
     4
  9
$HYPERLINKBASE
  1

  9
$STYLESHEET
  1

  9
$XEDIT
290
     1
  9
$CEPSNTYPE
380
     0
  9
$PSTYLEMODE
290
     1
  9
$FINGERPRINTGUID
  2

  9
$VERSIONGUID
  2

  9
$EXTNAMES
290
     1
  9
$PSVPSCALE
 40
0.0
  9
$OLESTARTUP
290
     0
  9
$SORTENTS
280
   127
  9
$INDEXCTL
280
     0
  9
$HIDETEXT
280
     1
  9
$XCLIPFRAME
290
     0
  9
$HALOGAP
280
     0
  9
$OBSCOLOR
 70
   257
  9
$OBSLTYPE
280
     0
  9
$INTERSECTIONDISPLAY
280
     0
  9
$INTERSECTIONCOLOR
 70
   257
  9
$DIMASSOC
280
     2
  9
$PROJECTNAME
  1

  9
$CAMERADISPLAY
290
     0
  9
$LENSLENGTH
 40
50.0
  9
$CAMERAHEIGHT
 40
0.0
  9
$STEPSPERSEC
 40
2.0
  9
$STEPSIZE
 40
6.0
  9
$3DDWFPREC
 40
2.0
  9
$PSOLWIDTH
 40
0.25
  9
$PSOLHEIGHT
 40
4.0
  9
$LOFTANG1
 40
1.570796326794897
  9
$LOFTANG2
 40
1.570796326794897
  9
$LOFTMAG1
 40
0.0
  9
$LOFTMAG2
 40
0.0
  9
$LOFTPARAM
 70
     7
  9
$LOFTNORMALS
280
     1
  9
$LATITUDE
 40
37.795
  9
$LONGITUDE
 40
-122.394
  9
$NORTHDIRECTION
 40
0.0
  9
$TIMEZONE
 70
 -8000
  9
$LIGHTGLYPHDISPLAY
280
     1
  9
$TILEMODELIGHTSYNCH
280
     1
  9
$SOLIDHIST
280
     1
  9
$SHOWHIST
280
     1
  9
$DWFFRAME
280
     2
  9
$DGNFRAME
280
     2
  9
$REALWORLDSCALE
290
     1
  9
$INTERFERECOLOR
 62
   256
  9
$CSHADOW
280
     0
  9
$SHADOWPLANELOCATION
 40
0.0
  0
ENDSEC
  0
SECTION
  2
CLASSES
  0
CLASS
  1
LWPOLYLINE
  2
AcDbPolyline
  3
ObjectDBX Classes
 90
        0
 91
        1
280
     0
281
     1
  0
CLASS
  1
IMAGE
  2
AcDbRasterImage
  3
ISM
 90
      127
 91
        4
280
     0
281
     1
  0
CLASS
  1
OLE2FRAME
  2
AcDbOle2Frame
  3
ObjectDBX Classes
 90
        0
 91
        1
280
     0
281
     1
  0
CLASS
  1
HATCH
  2
AcDbHatch
  3
ObjectDBX Classes
 90
        0
 91
        1
280
     0
281
     1
  0
CLASS
  1
DICTIONARYVAR
  2
AcDbDictionaryVar
  3
ObjectDBX Classes
 90
        0
 91
        3
280
     0
281
     0
  0
CLASS
  1
RASTERVARIABLES
  2
AcDbRasterVariables
  3
ISM
 90
        0
 91
        3
280
     0
281
     0
  0
CLASS
  1
IMAGEDEF
  2
AcDbRasterImageDef
  3
ISM
 90
        0
 91
        3
280
     0
281
     0
  0
CLASS
  1
IMAGEDEF_REACTOR
  2
AcDbRasterImageDefReactor
  3
ISM
 90
        1
 91
        3
280
     0
281
     0
  0
CLASS
  1
IDBUFFER
  2
AcDbIdBuffer
  3
ObjectDBX Classes
 90
        0
 91
        3
280
     0
281
     0
  0
CLASS
  1
SPATIAL_FILTER
  2
AcDbSpatialFilter
  3
ObjectDBX Classes
 90
        0
 91
        3
280
     0
281
     0
  0
CLASS
  1
XRECORD
  2
AcDbXrecord
  3
ObjectDBX Classes
 90
        0
 91
        1
280
     0
281
     0
  0
CLASS
  1
SORTENTSTABLE
  2
AcDbSortentsTable
  3
ObjectDBX Classes
 90
        0
 91
        3
280
     0
281
     0
  0
CLASS
  1
LAYER_INDEX
  2
AcDbLayerIndex
  3
ObjectDBX Classes
 90
        0
 91
        3
280
     0
281
     0
  0
CLASS
  1
SPATIAL_INDEX
  2
AcDbSpatialIndex
  3
AutoCAD 2000
 90
        0
 91
        3
280
     0
281
     0
  0
CLASS
  1
OBJECT_PTR
  2
CAseDLPNTableRecord
  3
ASE-LPNTableRecord
 90
        1
 91
        3
280
     0
281
     0
  0
CLASS
  1
LAYOUT
  2
AcDbLayout
  3
ObjectDBX Classes
 90
        0
 91
        1
280
     0
281
     0
  0
CLASS
  1
PLOTSETTINGS
  2
AcDbPlotSettings
  3
ObjectDBX Classes
 90
        0
 91
        3
280
     0
281
     0
  0
CLASS
  1
ACDBDICTIONARYWDFLT
  2
AcDbDictionaryWithDefault
  3
ObjectDBX Classes
 90
        0
 91
        3
280
     0
281
     0
  0
CLASS
  1
ACDBPLACEHOLDER
  2
AcDbPlaceHolder
  3
ObjectDBX Classes
 90
        0
 91
        1
280
     0
281
     0
  0
CLASS
  1
SCALE
  2
AcDbScale
  3
ObjectDBX Classes
 90
     1153
 91
        3
280
     0
281
     0
  0
CLASS
  1
MATERIAL
  2
AcDbMaterial
  3
ObjectDBX Classes
 90
     1153
 91
        3
280
     0
281
     0
  0
CLASS
  1
VISUALSTYLE
  2
AcDbVisualStyle
  3
ObjectDBX Classes
 90
     4095
 91
        3
280
     0
281
     0
  0
CLASS
  1
TABLESTYLE
  2
AcDbTableStyle
  3
ObjectDBX Classes
 90
     4095
 91
        3
280
     0
281
     0
  0
CLASS
  1
DIMASSOC
  2
AcDbDimAssoc
  3
"AcDbDimAssoc|Product Desc:     AcDim ARX App For Dimension|Company:          Autodesk, Inc.|WEB Address:      www.autodesk.com"
 90
        0
 91
        3
280
     0
281
     0
  0
CLASS
  1
CELLSTYLEMAP
  2
AcDbCellStyleMap
  3
ObjectDBX Classes
 90
     1152
 91
        3
280
     0
281
     0
  0
CLASS
  1
SUN
  2
AcDbSun
  3
SCENEOE
 90
     1153
 91
        3
280
     0
281
     0
  0
CLASS
  1
MLEADERSTYLE
  2
AcDbMLeaderStyle
  3
ACDB_MLEADERSTYLE_CLASS
 90
     4095
 91
        3
280
     0
281
     0
  0
CLASS
  1
FIELD
  2
AcDbField
  3
ObjectDBX Classes
 90
     1152
 91
        3
280
     0
281
     0
  0
CLASS
  1
FIELDLIST
  2
AcDbFieldList
  3
ObjectDBX Classes
 90
     1152
 91
        3
280
     0
281
     0
  0
CLASS
  1
MULTILEADER
  2
AcDbMLeader
  3
ACDB_MLEADER_CLASS
 90
     1025
 91
        3
280
     0
281
     1
  0
ENDSEC
  0
SECTION
  2
TABLES
  0
TABLE
  2
VPORT
  5
7
330
0
100
AcDbSymbolTable
 70
     1
  0
VPORT
  5
15
330
7
100
AcDbSymbolTableRecord
100
AcDbViewportTableRecord
  2
*ACTIVE
 70
     0
 10
0.0
 20
0.0
 11
1.0
 21
1.0
 12
301.0201356709081
 22
223.401285469834
 13
0.0
 23
0.0
 14
1.0
 24
1.0
 15
0.0
 25
0.0
 16
0.0
 26
0.0
 36
1.0
 17
-91.02013567090808
 27
73.59871453016603
 37
-46.86809886248109
 40
605.88
 41
2.165535956580733
 42
50.0
 43
0.0
 44
0.0
 50
0.0
 51
0.0
 71
    16
 72
  2000
 73
     1
 74
     1
 75
     0
 76
     0
 77
     0
 78
     0
281
     0
 65
     1
110
0.0
120
0.0
130
0.0
111
1.0
121
0.0
131
0.0
112
0.0
122
1.0
132
0.0
 79
     0
146
0.0
348
26C
 60
     3
 61
     5
292
     1
282
     1
141
0.0
142
0.0
 63
   256
361
904
  0
ENDTAB
  0
TABLE
  2
LTYPE
  5
4
330
0
100
AcDbSymbolTable
 70
     4
  0
LTYPE
  5
11
330
4
100
AcDbSymbolTableRecord
100
AcDbLinetypeTableRecord
  2
ByBlock
 70
     0
  3

 72
    65
 73
     0
 40
0.0
  0
LTYPE
  5
12
330
4
100
AcDbSymbolTableRecord
100
AcDbLinetypeTableRecord
  2
ByLayer
 70
     0
  3

 72
    65
 73
     0
 40
0.0
  0
LTYPE
  5
13
330
4
100
AcDbSymbolTableRecord
100
AcDbLinetypeTableRecord
  2
Continuous
 70
     0
  3
Solid line
 72
    65
 73
     0
 40
0.0
  0
LTYPE
  5
D6C
330
4
100
AcDbSymbolTableRecord
100
AcDbLinetypeTableRecord
  2
BORDER
 70
     0
  3
Border __  __  . __  __  . __  __  . __  __  . 
 72
    65
 73
     6
 40
44.45
 49
12.7
 74
     0
 49
-6.35
 74
     0
 49
12.7
 74
     0
 49
-6.35
 74
     0
 49
0.0
 74
     0
 49
-6.35
 74
     0
  0
LTYPE
  5
1638
330
4
100
AcDbSymbolTableRecord
100
AcDbLinetypeTableRecord
  2
HIDDEN2
 70
     0
  3
Hidden (.5x) _ _ _ _ _ _ _ _ _ _ _ _ _ _ _ _ _ 
 72
    65
 73
     2
 40
4.7625
 49
3.175
 74
     4
 75
     0
340
0
 46
0.0
 50
0.0
 44
0.0
 45
0.0
 49
-1.5875
 74
     4
 75
     0
340
0
 46
0.0
 50
0.0
 44
0.0
 45
0.0
  0
LTYPE
  5
692D
330
4
100
AcDbSymbolTableRecord
100
AcDbLinetypeTableRecord
  2
CENTER
 70
     0
  3
 Center _____  _  _____  _  _____  _  _____  _ 
 72
    65
 73
     4
 40
50.8
 49
31.75
 74
     0
 49
-6.35
 74
     0
 49
6.35
 74
     0
 49
-6.35
 74
     0
  0
ENDTAB
  0
TABLE
  2
LAYER
  5
2
102
{ACAD_XDICTIONARY
360
2E1
102
}
330
0
100
AcDbSymbolTable
 70
     8
  0
LAYER
  5
14
330
2
100
AcDbSymbolTableRecord
100
AcDbLayerTableRecord
  2
0
 70
     0
 62
     7
  6
Continuous
370
    -3
390
1D
347
266
  0
LAYER
  5
4B
330
2
100
AcDbSymbolTableRecord
100
AcDbLayerTableRecord
  2
TEMPLATE
 70
     0
 62
     7
  6
Continuous
370
    20
390
1D
347
266
  0
LAYER
  5
4C
330
2
100
AcDbSymbolTableRecord
100
AcDbLayerTableRecord
  2
DIM
 70
     0
 62
     3
  6
Continuous
370
    13
390
1D
347
266
  0
LAYER
  5
4D
330
2
100
AcDbSymbolTableRecord
100
AcDbLayerTableRecord
  2
MODEL
 70
     0
 62
     7
  6
Continuous
370
    20
390
1D
347
266
  0
LAYER
  5
667
330
2
100
AcDbSymbolTableRecord
100
AcDbLayerTableRecord
  2
LOGO
 70
     0
 62
     7
  6
Continuous
370
    -3
390
1D
347
266
  0
LAYER
  5
D6B
330
2
100
AcDbSymbolTableRecord
100
AcDbLayerTableRecord
  2
BORDER
 70
     0
 62
     4
  6
BORDER
290
     0
370
    20
390
1D
347
266
1001
AcAecLayerStandard
1000

1000

  0
LAYER
  5
D8C
330
2
100
AcDbSymbolTableRecord
100
AcDbLayerTableRecord
  2
Defpoints
 70
     0
 62
     7
  6
Continuous
290
     0
370
    -3
390
1D
347
266
  0
LAYER
  5
3445
330
2
100
AcDbSymbolTableRecord
100
AcDbLayerTableRecord
  2
Layer50
 70
     0
 62
     7
  6
Continuous
370
    -3
390
1D
347
266
  0
ENDTAB
  0
TABLE
  2
STYLE
  5
3
330
0
100
AcDbSymbolTable
 70
     2
  0
STYLE
  5
17
330
3
100
AcDbSymbolTableRecord
100
AcDbTextStyleTableRecord
  2
Standard
 70
     0
 40
0.0
 41
1.0
 50
0.0
 71
     0
 42
2.5
  3
txt
  4
BIGFONT.SHX
  0
STYLE
  5
39
330
3
100
AcDbSymbolTableRecord
100
AcDbTextStyleTableRecord
  2
ＭＳ ゴシック
 70
     0
 40
0.0
 41
1.0
 50
0.0
 71
     0
 42
2.5
  3
msgothic.ttc
  4
ＭＳ ゴシック
1001
ACAD
1000
ＭＳ ゴシック
1071
        0
  0
ENDTAB
  0
TABLE
  2
VIEW
  5
5
330
0
100
AcDbSymbolTable
 70
     0
  0
ENDTAB
  0
TABLE
  2
UCS
  5
6
330
0
100
AcDbSymbolTable
 70
     0
  0
ENDTAB
  0
TABLE
  2
APPID
  5
8
330
0
100
AcDbSymbolTable
 70
     4
  0
APPID
  5
16
330
8
100
AcDbSymbolTableRecord
100
AcDbRegAppTableRecord
  2
ACAD
 70
     0
  0
APPID
  5
7AC
330
8
100
AcDbSymbolTableRecord
100
AcDbRegAppTableRecord
  2
AcAecLayerStandard
 70
     0
  0
APPID
  5
E29
330
8
100
AcDbSymbolTableRecord
100
AcDbRegAppTableRecord
  2
ACAD_MLEADERVER
 70
     0
  0
APPID
  5
6C28
330
8
100
AcDbSymbolTableRecord
100
AcDbRegAppTableRecord
  2
PLOTTRANSPARENCY
 70
     0
  0
ENDTAB
  0
TABLE
  2
DIMSTYLE
  5
9
330
0
100
AcDbSymbolTable
 70
     1
100
AcDbDimStyleTable
  0
DIMSTYLE
105
57
102
{ACAD_REACTORS
330
6B68
330
6C13
102
}
330
9
100
AcDbSymbolTableRecord
100
AcDbDimStyleTableRecord
  2
tfrom線あり
 70
     0
  3
<>
  4
[]
 41
1.0
 42
5.0
 43
0.9999999999999999
 44
0.0
 73
     0
 74
     0
 77
     1
 78
    11
140
5.0
141
0.0
143
1.0
147
5.0
171
     1
174
     1
178
     0
179
     2
271
     0
272
     1
276
     2
284
    11
285
    11
286
    11
289
     0
340
39
341
4E
342
4E
  0
ENDTAB
  0
TABLE
  2
BLOCK_RECORD
  5
1
330
0
100
AcDbSymbolTable
 70
     8
  0
BLOCK_RECORD
  5
A
330
1
100
AcDbSymbolTableRecord
100
AcDbBlockTableRecord
  2
*MODEL_SPACE
340
20
 70
     0
280
     1
281
     0
  0
BLOCK_RECORD
  5
B
330
1
100
AcDbSymbolTableRecord
100
AcDbBlockTableRecord
  2
*PAPER_SPACE
340
21
 70
     0
280
     1
281
     0
  0
BLOCK_RECORD
  5
4E
330
1
100
AcDbSymbolTableRecord
100
AcDbBlockTableRecord
  2
_DOT
340
0
102
{BLKREFS
331
6427
331
6428
331
646F
331
6470
331
647E
331
647F
331
648B
331
648C
331
649D
331
649E
331
64E7
331
64E8
331
66CE
331
66CF
331
66DE
331
66DF
331
66F0
331
66F1
331
6706
331
6707
331
693E
331
693F
331
69F2
331
69F3
331
6B71
331
6B72
331
6B88
331
6B89
331
6BA1
331
6BA2
331
6C1A
331
6C1B
102
}
 70
     0
280
     1
281
     0
  0
BLOCK_RECORD
  5
68A
330
1
100
AcDbSymbolTableRecord
100
AcDbBlockTableRecord
  2
名称未設定-1
340
0
102
{BLKREFS
331
6B5
102
}
 70
     1
280
     1
281
     0
  0
BLOCK_RECORD
  5
68D
330
1
100
AcDbSymbolTableRecord
100
AcDbBlockTableRecord
  2
block 2
340
0
102
{BLKREFS
331
68C
331
1343
102
}
 70
     0
280
     1
281
     0
  0
BLOCK_RECORD
  5
690
330
1
100
AcDbSymbolTableRecord
100
AcDbBlockTableRecord
  2
block 3
340
0
102
{BLKREFS
331
68F
102
}
 70
     0
280
     1
281
     0
  0
BLOCK_RECORD
  5
693
330
1
100
AcDbSymbolTableRecord
100
AcDbBlockTableRecord
  2
block 4
340
0
102
{BLKREFS
331
692
102
}
 70
     0
280
     1
281
     0
  0
BLOCK_RECORD
  5
6A2
330
1
100
AcDbSymbolTableRecord
100
AcDbBlockTableRecord
  2
block 5
340
0
102
{BLKREFS
331
6A1
102
}
 70
     0
280
     1
281
     0
  0
BLOCK_RECORD
  5
6B6B
330
1
100
AcDbSymbolTableRecord
100
AcDbBlockTableRecord
  2
*D31
340
0
 70
     0
280
     1
281
     0
  0
BLOCK_RECORD
  5
6C14
330
1
100
AcDbSymbolTableRecord
100
AcDbBlockTableRecord
  2
*D34
340
0
 70
     0
280
     1
281
     0
  0
ENDTAB
  0
ENDSEC
  0
SECTION
  2
BLOCKS
  0
BLOCK
  5
D
330
A
100
AcDbEntity
  8
0
390
1D
100
AcDbBlockBegin
  2
*MODEL_SPACE
 70
     0
 10
0.0
 20
0.0
 30
0.0
  3
*MODEL_SPACE
  1
*MODEL_SPACE
  0
ENDBLK
  5
E
330
A
100
AcDbEntity
  8
0
390
1D
100
AcDbBlockEnd
  0
BLOCK
  5
F
330
B
100
AcDbEntity
 67
     1
  8
0
390
1D
100
AcDbBlockBegin
  2
*PAPER_SPACE
 70
     0
 10
0.0
 20
0.0
 30
0.0
  3
*PAPER_SPACE
  1
*PAPER_SPACE
  0
ENDBLK
  5
10
330
B
100
AcDbEntity
 67
     1
  8
0
390
1D
100
AcDbBlockEnd
  0
BLOCK
  5
38A8
330
4E
100
AcDbEntity
  8
0
390
1D
100
AcDbBlockBegin
  2
_DOT
 70
     0
 10
0.0
 20
0.0
 30
0.0
  3
_DOT
  1
_DOT
  0
POLYLINE
  5
38AA
330
4E
100
AcDbEntity
  8
0
  6
ByBlock
 62
     0
370
    -2
390
1D
100
AcDb2dPolyline
 66
     1
 10
0.0
 20
0.0
 30
0.0
 70
     1
 40
0.5
 41
0.5
  0
VERTEX
  5
38AB
330
38AA
100
AcDbEntity
  8
0
  6
ByBlock
 62
     0
370
    -2
390
1D
100
AcDbVertex
100
AcDb2dVertex
 10
-0.25
 20
0.0
 30
0.0
 42
1.0
  0
VERTEX
  5
38AC
330
38AA
100
AcDbEntity
  8
0
  6
ByBlock
 62
     0
370
    -2
390
1D
100
AcDbVertex
100
AcDb2dVertex
 10
0.25
 20
0.0
 30
0.0
 42
1.0
  0
SEQEND
  5
38AD
330
38AA
100
AcDbEntity
  8
0
390
1D
  0
LINE
  5
38AE
330
4E
100
AcDbEntity
  8
0
  6
ByBlock
 62
     0
370
    -2
390
1D
100
AcDbLine
 10
-0.5
 20
0.0
 30
0.0
 11
-1.0
 21
0.0
 31
0.0
  0
ENDBLK
  5
38AF
330
4E
100
AcDbEntity
  8
0
390
1D
100
AcDbBlockEnd
  0
BLOCK
  5
68B
330
68A
100
AcDbEntity
  8
0
100
AcDbBlockBegin
  2
名称未設定-1
 70
     0
 10
0.0
 20
0.0
 30
0.0
  3
名称未設定-1
  1
名称未設定-1
  0
INSERT
  5
68F
330
68A
100
AcDbEntity
  8
LOGO
100
AcDbBlockReference
  2
block 3
 10
0.0
 20
0.0
 30
0.0
  0
ENDBLK
  5
6B1
330
68A
100
AcDbEntity
  8
0
100
AcDbBlockEnd
  0
BLOCK
  5
68E
330
68D
100
AcDbEntity
  8
0
100
AcDbBlockBegin
  2
block 2
 70
     0
 10
0.0
 20
0.0
 30
0.0
  3
block 2
  1
block 2
  0
ENDBLK
  5
6B0
330
68D
100
AcDbEntity
  8
0
100
AcDbBlockEnd
  0
BLOCK
  5
691
330
690
100
AcDbEntity
  8
0
100
AcDbBlockBegin
  2
block 3
 70
     0
 10
0.0
 20
0.0
 30
0.0
  3
block 3
  1
block 3
  0
INSERT
  5
692
330
690
100
AcDbEntity
  8
LOGO
100
AcDbBlockReference
  2
block 4
 10
0.0
 20
0.0
 30
0.0
  0
INSERT
  5
6A1
330
690
100
AcDbEntity
  8
LOGO
100
AcDbBlockReference
  2
block 5
 10
0.0
 20
0.0
 30
0.0
  0
ENDBLK
  5
6AF
330
690
100
AcDbEntity
  8
0
100
AcDbBlockEnd
  0
BLOCK
  5
694
330
693
100
AcDbEntity
  8
0
100
AcDbBlockBegin
  2
block 4
 70
     0
 10
0.0
 20
0.0
 30
0.0
  3
block 4
  1
block 4
  0
POLYLINE
  5
695
330
693
100
AcDbEntity
  8
LOGO
370
     0
100
AcDb2dPolyline
 66
     1
 10
0.0
 20
0.0
 30
0.0
  0
VERTEX
  5
696
330
695
100
AcDbEntity
  8
LOGO
370
     0
100
AcDbVertex
100
AcDb2dVertex
 10
83.79545727667795
 20
167.6444858234922
 30
0.0
  0
VERTEX
  5
697
330
695
100
AcDbEntity
  8
LOGO
370
     0
100
AcDbVertex
100
AcDb2dVertex
 10
83.79545727667795
 20
159.7968976406313
 30
0.0
  0
VERTEX
  5
698
330
695
100
AcDbEntity
  8
LOGO
370
     0
100
AcDbVertex
100
AcDb2dVertex
 10
71.3631329975216
 20
159.7968976406313
 30
0.0
  0
VERTEX
  5
699
330
695
100
AcDbEntity
  8
LOGO
370
     0
100
AcDbVertex
100
AcDb2dVertex
 10
71.3631329975216
 20
127.8027915271048
 30
0.0
  0
VERTEX
  5
69A
330
695
100
AcDbEntity
  8
LOGO
370
     0
100
AcDbVertex
100
AcDb2dVertex
 10
60.43011526263018
 20
127.8027915271048
 30
0.0
  0
VERTEX
  5
69B
330
695
100
AcDbEntity
  8
LOGO
370
     0
100
AcDbVertex
100
AcDb2dVertex
 10
60.43011526263018
 20
159.7968976406313
 30
0.0
  0
VERTEX
  5
69C
330
695
100
AcDbEntity
  8
LOGO
370
     0
100
AcDbVertex
100
AcDb2dVertex
 10
48.21793273020759
 20
159.7968976406313
 30
0.0
  0
VERTEX
  5
69D
330
695
100
AcDbEntity
  8
LOGO
370
     0
100
AcDbVertex
100
AcDb2dVertex
 10
48.21793273020759
 20
167.6444858234922
 30
0.0
  0
VERTEX
  5
69E
330
695
100
AcDbEntity
  8
LOGO
370
     0
100
AcDbVertex
100
AcDb2dVertex
 10
83.79545727667795
 20
167.6444858234922
 30
0.0
  0
SEQEND
  5
69F
330
695
100
AcDbEntity
  8
LOGO
370
     0
  0
HATCH
  5
6A0
330
693
100
AcDbEntity
  8
LOGO
 62
   250
420
  2234388
100
AcDbHatch
 10
0.0
 20
0.0
 30
0.0
210
0.0
220
0.0
230
1.0
  2
SOLID
 70
     1
 71
     0
 91
        1
 92
        1
 93
        8
 72
     1
 10
83.79545727667795
 20
167.6444858234922
 11
83.79545727667795
 21
159.7968976406313
 72
     1
 10
83.79545727667795
 20
159.7968976406313
 11
71.3631329975216
 21
159.7968976406313
 72
     1
 10
71.3631329975216
 20
159.7968976406313
 11
71.3631329975216
 21
127.8027915271048
 72
     1
 10
71.3631329975216
 20
127.8027915271048
 11
60.43011526263018
 21
127.8027915271048
 72
     1
 10
60.43011526263018
 20
127.8027915271048
 11
60.43011526263018
 21
159.7968976406313
 72
     1
 10
60.43011526263018
 20
159.7968976406313
 11
48.21793273020759
 21
159.7968976406313
 72
     1
 10
48.21793273020759
 20
159.7968976406313
 11
48.21793273020759
 21
167.6444858234922
 72
     1
 10
48.21793273020759
 20
167.6444858234922
 11
83.79545727667795
 21
167.6444858234922
 97
        0
 75
     2
 76
     1
 98
        0
  0
ENDBLK
  5
6AE
330
693
100
AcDbEntity
  8
0
100
AcDbBlockEnd
  0
BLOCK
  5
6A3
330
6A2
100
AcDbEntity
  8
0
100
AcDbBlockBegin
  2
block 5
 70
     0
 10
0.0
 20
0.0
 30
0.0
  3
block 5
  1
block 5
  0
SPLINE
  5
6A4
330
6A2
100
AcDbEntity
  8
LOGO
370
     0
100
AcDbSpline
210
0.0
220
0.0
230
1.0
 70
    11
 71
     3
 72
    56
 73
    52
 74
     0
 42
0.000000001
 43
0.0000000001
 40
0.0
 40
0.0
 40
0.0
 40
0.0
 40
1.0
 40
1.0
 40
1.0
 40
2.0
 40
2.0
 40
2.0
 40
3.0
 40
3.0
 40
3.0
 40
4.0
 40
4.0
 40
4.0
 40
5.0
 40
5.0
 40
5.0
 40
6.0
 40
6.0
 40
6.0
 40
7.0
 40
7.0
 40
7.0
 40
8.0
 40
8.0
 40
8.0
 40
9.0
 40
9.0
 40
9.0
 40
10.0
 40
10.0
 40
10.0
 40
11.0
 40
11.0
 40
11.0
 40
12.0
 40
12.0
 40
12.0
 40
13.0
 40
13.0
 40
13.0
 40
14.0
 40
14.0
 40
14.0
 40
15.0
 40
15.0
 40
15.0
 40
16.0
 40
16.0
 40
16.0
 40
17.0
 40
17.0
 40
17.0
 40
17.0
 10
100.4504378777679
 20
166.69157178364
 30
0.0
 10
101.9848844191641
 20
167.1313385124438
 30
0.0
 10
103.9637485713373
 20
166.7649523658846
 30
0.0
 10
103.9637485713373
 20
166.7649523658846
 30
0.0
 10
103.9637485713373
 20
166.7649523658846
 30
0.0
 10
103.0132460999156
 20
163.911205638077
 30
0.0
 10
103.0132460999156
 20
163.911205638077
 30
0.0
 10
103.0132460999156
 20
163.911205638077
 30
0.0
 10
101.0674548862189
 20
164.3601018759394
 30
0.0
 10
99.57090442016032
 20
163.1805004036133
 30
0.0
 10
98.40508333886608
 20
162.258247733807
 30
0.0
 10
97.65301849830304
 20
159.804132345923
 30
0.0
 10
97.3598406791005
 20
158.8699940888517
 30
0.0
 10
97.3598406791005
 20
158.8699940888517
 30
0.0
 10
96.07137411762282
 20
154.9119212747295
 30
0.0
 10
96.07137411762282
 20
154.9119212747295
 30
0.0
 10
96.07137411762282
 20
154.9119212747295
 30
0.0
 10
100.3012651448482
 20
154.9119212747295
 30
0.0
 10
100.3012651448482
 20
154.9119212747295
 30
0.0
 10
100.3012651448482
 20
154.9119212747295
 30
0.0
 10
99.64152892419852
 20
152.4199098115079
 30
0.0
 10
99.64152892419852
 20
152.4199098115079
 30
0.0
 10
99.64152892419852
 20
152.4199098115079
 30
0.0
 10
95.38097652692731
 20
152.4199098115079
 30
0.0
 10
95.38097652692731
 20
152.4199098115079
 30
0.0
 10
95.38097652692731
 20
152.4199098115079
 30
0.0
 10
87.75353009080013
 20
127.8027915271048
 30
0.0
 10
87.75353009080013
 20
127.8027915271048
 30
0.0
 10
87.75353009080013
 20
127.8027915271048
 30
0.0
 10
85.36538832498108
 20
127.8027915271048
 30
0.0
 10
85.36538832498108
 20
127.8027915271048
 30
0.0
 10
85.36538832498108
 20
127.8027915271048
 30
0.0
 10
93.00006946639998
 20
152.4199098115079
 30
0.0
 10
93.00006946639998
 20
152.4199098115079
 30
0.0
 10
93.00006946639998
 20
152.4199098115079
 30
0.0
 10
89.85297266450198
 20
152.4199098115079
 30
0.0
 10
89.85297266450198
 20
152.4199098115079
 30
0.0
 10
89.85297266450198
 20
152.4199098115079
 30
0.0
 10
90.51270888515164
 20
154.9119212747295
 30
0.0
 10
90.51270888515164
 20
154.9119212747295
 30
0.0
 10
90.51270888515164
 20
154.9119212747295
 30
0.0
 10
93.6904670570955
 20
154.9119212747295
 30
0.0
 10
93.6904670570955
 20
154.9119212747295
 30
0.0
 10
93.6904670570955
 20
154.9119212747295
 30
0.0
 10
94.81598049462158
 20
158.3616699146644
 30
0.0
 10
94.81598049462158
 20
158.3616699146644
 30
0.0
 10
95.7237637538445
 20
161.2605474231013
 30
0.0
 10
96.4968436907311
 20
162.8139420021662
 30
0.0
 10
97.15657991138076
 20
163.9844139654337
 30
0.0
 10
97.81183750494507
 20
165.1523021053827
 30
0.0
 10
99.1047826935081
 20
166.3084769129547
 30
0.0
 10
100.4504378777679
 20
166.69157178364
 30
0.0
  0
HATCH
  5
6A5
330
6A2
100
AcDbEntity
  8
LOGO
 62
   250
420
  2234388
100
AcDbHatch
 10
0.0
 20
0.0
 30
0.0
210
0.0
220
0.0
230
1.0
  2
SOLID
 70
     1
 71
     0
 91
        1
 92
        1
 93
        1
 72
     4
 94
        3
 73
     0
 74
     1
 95
       56
 96
       52
 40
0.0
 40
0.0
 40
0.0
 40
0.0
 40
1.0
 40
1.0
 40
1.0
 40
2.0
 40
2.0
 40
2.0
 40
3.0
 40
3.0
 40
3.0
 40
4.0
 40
4.0
 40
4.0
 40
5.0
 40
5.0
 40
5.0
 40
6.0
 40
6.0
 40
6.0
 40
7.0
 40
7.0
 40
7.0
 40
8.0
 40
8.0
 40
8.0
 40
9.0
 40
9.0
 40
9.0
 40
10.0
 40
10.0
 40
10.0
 40
11.0
 40
11.0
 40
11.0
 40
12.0
 40
12.0
 40
12.0
 40
13.0
 40
13.0
 40
13.0
 40
14.0
 40
14.0
 40
14.0
 40
15.0
 40
15.0
 40
15.0
 40
16.0
 40
16.0
 40
16.0
 40
17.0
 40
17.0
 40
17.0
 40
17.0
 10
100.4504378777679
 20
166.69157178364
 10
101.9848844191641
 20
167.1313385124438
 10
103.9637485713373
 20
166.7649523658846
 10
103.9637485713373
 20
166.7649523658846
 10
103.9637485713373
 20
166.7649523658846
 10
103.0132460999156
 20
163.911205638077
 10
103.0132460999156
 20
163.911205638077
 10
103.0132460999156
 20
163.911205638077
 10
101.0674548862189
 20
164.3601018759394
 10
99.57090442016032
 20
163.1805004036133
 10
98.40508333886608
 20
162.258247733807
 10
97.65301849830304
 20
159.804132345923
 10
97.3598406791005
 20
158.8699940888517
 10
97.3598406791005
 20
158.8699940888517
 10
96.07137411762282
 20
154.9119212747295
 10
96.07137411762282
 20
154.9119212747295
 10
96.07137411762282
 20
154.9119212747295
 10
100.3012651448482
 20
154.9119212747295
 10
100.3012651448482
 20
154.9119212747295
 10
100.3012651448482
 20
154.9119212747295
 10
99.64152892419852
 20
152.4199098115079
 10
99.64152892419852
 20
152.4199098115079
 10
99.64152892419852
 20
152.4199098115079
 10
95.38097652692731
 20
152.4199098115079
 10
95.38097652692731
 20
152.4199098115079
 10
95.38097652692731
 20
152.4199098115079
 10
87.75353009080013
 20
127.8027915271048
 10
87.75353009080013
 20
127.8027915271048
 10
87.75353009080013
 20
127.8027915271048
 10
85.36538832498108
 20
127.8027915271048
 10
85.36538832498108
 20
127.8027915271048
 10
85.36538832498108
 20
127.8027915271048
 10
93.00006946639998
 20
152.4199098115079
 10
93.00006946639998
 20
152.4199098115079
 10
93.00006946639998
 20
152.4199098115079
 10
89.85297266450198
 20
152.4199098115079
 10
89.85297266450198
 20
152.4199098115079
 10
89.85297266450198
 20
152.4199098115079
 10
90.51270888515164
 20
154.9119212747295
 10
90.51270888515164
 20
154.9119212747295
 10
90.51270888515164
 20
154.9119212747295
 10
93.6904670570955
 20
154.9119212747295
 10
93.6904670570955
 20
154.9119212747295
 10
93.6904670570955
 20
154.9119212747295
 10
94.81598049462158
 20
158.3616699146644
 10
94.81598049462158
 20
158.3616699146644
 10
95.7237637538445
 20
161.2605474231013
 10
96.4968436907311
 20
162.8139420021662
 10
97.15657991138076
 20
163.9844139654337
 10
97.81183750494507
 20
165.1523021053827
 10
99.1047826935081
 20
166.3084769129547
 10
100.4504378777679
 20
166.69157178364
 97
        0
 75
     2
 76
     1
 98
        0
  0
SPLINE
  5
6A6
330
6A2
100
AcDbEntity
  8
LOGO
370
     0
100
AcDbSpline
210
0.0
220
0.0
230
1.0
 70
    11
 71
     3
 72
    38
 73
    34
 74
     0
 42
0.000000001
 43
0.0000000001
 40
0.0
 40
0.0
 40
0.0
 40
0.0
 40
1.0
 40
1.0
 40
1.0
 40
2.0
 40
2.0
 40
2.0
 40
3.0
 40
3.0
 40
3.0
 40
4.0
 40
4.0
 40
4.0
 40
5.0
 40
5.0
 40
5.0
 40
6.0
 40
6.0
 40
6.0
 40
7.0
 40
7.0
 40
7.0
 40
8.0
 40
8.0
 40
8.0
 40
9.0
 40
9.0
 40
9.0
 40
10.0
 40
10.0
 40
10.0
 40
11.0
 40
11.0
 40
11.0
 40
11.0
 10
126.377554584636
 20
154.8151140277308
 30
0.0
 10
126.377554584636
 20
154.8151140277308
 30
0.0
 10
128.8311532078563
 20
154.8151140277308
 30
0.0
 10
128.8311532078563
 20
154.8151140277308
 30
0.0
 10
128.8311532078563
 20
154.8151140277308
 30
0.0
 10
127.7345785914971
 20
151.3062819612468
 30
0.0
 10
127.7345785914971
 20
151.3062819612468
 30
0.0
 10
128.571392836906
 20
152.2922689395754
 30
0.0
 10
129.8860421413442
 20
153.604506675583
 30
0.0
 10
131.0163787157314
 20
154.2664822097754
 30
0.0
 10
132.7044766171327
 20
155.2500576196734
 30
0.0
 10
133.6642808525008
 20
155.3847609420097
 30
0.0
 10
134.7284715499351
 20
155.3565111403944
 30
0.0
 10
134.7284715499351
 20
155.3565111403944
 30
0.0
 10
133.6877075172549
 20
152.0345756272799
 30
0.0
 10
133.6877075172549
 20
152.0345756272799
 30
0.0
 10
133.011434827367
 20
152.3184516825359
 30
0.0
 10
130.930940291334
 20
151.7768823149844
 30
0.0
 10
129.739280976855
 20
150.9162968950455
 30
0.0
 10
128.66613302525
 20
150.1454562717016
 30
0.0
 10
127.9192358313239
 20
149.4857200510519
 30
0.0
 10
127.0393578639405
 20
147.8282835196966
 30
0.0
 10
126.164647543194
 20
146.1699857139017
 30
0.0
 10
125.4742499524985
 20
143.5262176944419
 30
0.0
 10
124.2822461282437
 20
139.6959580071401
 30
0.0
 10
124.2822461282437
 20
139.6959580071401
 30
0.0
 10
120.5753209406769
 20
127.8027915271048
 30
0.0
 10
120.5753209406769
 20
127.8027915271048
 30
0.0
 10
120.5753209406769
 20
127.8027915271048
 30
0.0
 10
118.1964809388044
 20
127.8027915271048
 30
0.0
 10
118.1964809388044
 20
127.8027915271048
 30
0.0
 10
118.1964809388044
 20
127.8027915271048
 30
0.0
 10
126.377554584636
 20
154.8151140277308
 30
0.0
 10
126.377554584636
 20
154.8151140277308
 30
0.0
  0
HATCH
  5
6A7
330
6A2
100
AcDbEntity
  8
LOGO
 62
   250
420
  2234388
100
AcDbHatch
 10
0.0
 20
0.0
 30
0.0
210
0.0
220
0.0
230
1.0
  2
SOLID
 70
     1
 71
     0
 91
        1
 92
        1
 93
        1
 72
     4
 94
        3
 73
     0
 74
     1
 95
       38
 96
       34
 40
0.0
 40
0.0
 40
0.0
 40
0.0
 40
1.0
 40
1.0
 40
1.0
 40
2.0
 40
2.0
 40
2.0
 40
3.0
 40
3.0
 40
3.0
 40
4.0
 40
4.0
 40
4.0
 40
5.0
 40
5.0
 40
5.0
 40
6.0
 40
6.0
 40
6.0
 40
7.0
 40
7.0
 40
7.0
 40
8.0
 40
8.0
 40
8.0
 40
9.0
 40
9.0
 40
9.0
 40
10.0
 40
10.0
 40
10.0
 40
11.0
 40
11.0
 40
11.0
 40
11.0
 10
126.377554584636
 20
154.8151140277308
 10
126.377554584636
 20
154.8151140277308
 10
128.8311532078563
 20
154.8151140277308
 10
128.8311532078563
 20
154.8151140277308
 10
128.8311532078563
 20
154.8151140277308
 10
127.7345785914971
 20
151.3062819612468
 10
127.7345785914971
 20
151.3062819612468
 10
128.571392836906
 20
152.2922689395754
 10
129.8860421413442
 20
153.604506675583
 10
131.0163787157314
 20
154.2664822097754
 10
132.7044766171327
 20
155.2500576196734
 10
133.6642808525008
 20
155.3847609420097
 10
134.7284715499351
 20
155.3565111403944
 10
134.7284715499351
 20
155.3565111403944
 10
133.6877075172549
 20
152.0345756272799
 10
133.6877075172549
 20
152.0345756272799
 10
133.011434827367
 20
152.3184516825359
 10
130.930940291334
 20
151.7768823149844
 10
129.739280976855
 20
150.9162968950455
 10
128.66613302525
 20
150.1454562717016
 10
127.9192358313239
 20
149.4857200510519
 10
127.0393578639405
 20
147.8282835196966
 10
126.164647543194
 20
146.1699857139017
 10
125.4742499524985
 20
143.5262176944419
 10
124.2822461282437
 20
139.6959580071401
 10
124.2822461282437
 20
139.6959580071401
 10
120.5753209406769
 20
127.8027915271048
 10
120.5753209406769
 20
127.8027915271048
 10
120.5753209406769
 20
127.8027915271048
 10
118.1964809388044
 20
127.8027915271048
 10
118.1964809388044
 20
127.8027915271048
 10
118.1964809388044
 20
127.8027915271048
 10
126.377554584636
 20
154.8151140277308
 10
126.377554584636
 20
154.8151140277308
 97
        0
 75
     2
 76
     1
 98
        0
  0
SPLINE
  5
6A8
330
6A2
100
AcDbEntity
  8
LOGO
370
     0
100
AcDbSpline
210
0.0
220
0.0
230
1.0
 70
    11
 71
     3
 72
   104
 73
   100
 74
     0
 42
0.000000001
 43
0.0000000001
 40
0.0
 40
0.0
 40
0.0
 40
0.0
 40
1.0
 40
1.0
 40
1.0
 40
2.0
 40
2.0
 40
2.0
 40
3.0
 40
3.0
 40
3.0
 40
4.0
 40
4.0
 40
4.0
 40
5.0
 40
5.0
 40
5.0
 40
6.0
 40
6.0
 40
6.0
 40
7.0
 40
7.0
 40
7.0
 40
8.0
 40
8.0
 40
8.0
 40
9.0
 40
9.0
 40
9.0
 40
10.0
 40
10.0
 40
10.0
 40
11.0
 40
11.0
 40
11.0
 40
12.0
 40
12.0
 40
12.0
 40
13.0
 40
13.0
 40
13.0
 40
14.0
 40
14.0
 40
14.0
 40
15.0
 40
15.0
 40
15.0
 40
16.0
 40
16.0
 40
16.0
 40
17.0
 40
17.0
 40
17.0
 40
18.0
 40
18.0
 40
18.0
 40
19.0
 40
19.0
 40
19.0
 40
20.0
 40
20.0
 40
20.0
 40
21.0
 40
21.0
 40
21.0
 40
22.0
 40
22.0
 40
22.0
 40
23.0
 40
23.0
 40
23.0
 40
24.0
 40
24.0
 40
24.0
 40
25.0
 40
25.0
 40
25.0
 40
26.0
 40
26.0
 40
26.0
 40
27.0
 40
27.0
 40
27.0
 40
28.0
 40
28.0
 40
28.0
 40
29.0
 40
29.0
 40
29.0
 40
30.0
 40
30.0
 40
30.0
 40
31.0
 40
31.0
 40
31.0
 40
32.0
 40
32.0
 40
32.0
 40
33.0
 40
33.0
 40
33.0
 40
33.0
 10
139.8926730891197
 20
154.8294111834263
 30
0.0
 10
139.8926730891197
 20
154.8294111834263
 30
0.0
 10
142.0344903652445
 20
154.8294111834263
 30
0.0
 10
142.0344903652445
 20
154.8294111834263
 30
0.0
 10
142.0344903652445
 20
154.8294111834263
 30
0.0
 10
140.9516961399171
 20
151.3157559800812
 30
0.0
 10
140.9516961399171
 20
151.3157559800812
 30
0.0
 10
141.8928968473923
 20
152.7887075264977
 30
0.0
 10
142.7341897198865
 20
153.4484437471474
 30
0.0
 10
143.8552245303272
 20
154.2926649527359
 30
0.0
 10
144.9803934580775
 20
155.1296514530327
 30
0.0
 10
146.3139908001845
 20
155.3044901642492
 30
0.0
 10
147.241066606852
 20
155.3044901642492
 30
0.0
 10
148.3855280820469
 20
155.3044901642492
 30
0.0
 10
149.4969166187653
 20
155.0752189084569
 30
0.0
 10
150.0784491203092
 20
153.8172414621372
 30
0.0
 10
150.5228667310863
 20
152.833838307127
 30
0.0
 10
150.5414702589793
 20
152.7201500811143
 30
0.0
 10
150.4140016419347
 20
150.7765981809602
 30
0.0
 10
151.5818897818837
 20
152.7699317437168
 30
0.0
 10
152.4424752018226
 20
153.6256940267945
 30
0.0
 10
153.9038856707499
 20
154.4507949398263
 30
0.0
 10
155.4455669174378
 20
155.3044901642492
 30
0.0
 10
156.339225275853
 20
155.3659851592288
 30
0.0
 10
157.3748216618963
 20
155.2147453676543
 30
0.0
 10
158.911679771723
 20
154.9877134254046
 30
0.0
 10
159.8859534176746
 20
154.4390816074493
 30
0.0
 10
160.3965169054045
 20
152.7816450760939
 30
0.0
 10
160.9070803931344
 20
151.1219692311958
 30
0.0
 10
160.6328506116007
 20
150.2303779314354
 30
0.0
 10
159.9992971339115
 20
147.597634224801
 30
0.0
 10
159.7105979417943
 20
146.4014962832367
 30
0.0
 10
159.2947746424084
 20
144.9400858143094
 30
0.0
 10
158.7463150793409
 20
143.2092687007094
 30
0.0
 10
158.7463150793409
 20
143.2092687007094
 30
0.0
 10
153.9038856707499
 20
127.8027915271048
 30
0.0
 10
153.9038856707499
 20
127.8027915271048
 30
0.0
 10
153.9038856707499
 20
127.8027915271048
 30
0.0
 10
151.3882752878863
 20
127.8027915271048
 30
0.0
 10
151.3882752878863
 20
127.8027915271048
 30
0.0
 10
151.3882752878863
 20
127.8027915271048
 30
0.0
 10
155.6250565106276
 20
141.2751908193897
 30
0.0
 10
155.6250565106276
 20
141.2751908193897
 30
0.0
 10
156.5094131050963
 20
144.0936252951782
 30
0.0
 10
157.109893644309
 20
146.1506931664571
 30
0.0
 10
157.4220195011804
 20
147.4415712963654
 30
0.0
 10
157.8095929989511
 20
149.0530157726519
 30
0.0
 10
157.9656559273867
 20
149.5826995529385
 30
0.0
 10
157.7816877071116
 20
150.7529992613181
 30
0.0
 10
157.6111553680925
 20
151.8430281919372
 30
0.0
 10
157.0582171779396
 20
152.5547853887321
 30
0.0
 10
156.1170164704645
 20
152.5547853887321
 30
0.0
 10
155.1096698860365
 20
152.5547853887321
 30
0.0
 10
154.2962823053817
 20
152.4412694176073
 30
0.0
 10
153.156643967048
 20
151.2945686288697
 30
0.0
 10
152.0170056287143
 20
150.1476955852443
 30
0.0
 10
151.076149431015
 20
148.7930831468137
 30
0.0
 10
150.3337308641742
 20
147.2290087646991
 30
0.0
 10
149.5957909244188
 20
145.6683794803425
 30
0.0
 10
148.8530278478023
 20
143.6822806228776
 30
0.0
 10
148.0964843801539
 20
141.2751908193897
 30
0.0
 10
148.0964843801539
 20
141.2751908193897
 30
0.0
 10
143.8552245303272
 20
127.8027915271048
 30
0.0
 10
143.8552245303272
 20
127.8027915271048
 30
0.0
 10
143.8552245303272
 20
127.8027915271048
 30
0.0
 10
141.486030802177
 20
127.8027915271048
 30
0.0
 10
141.486030802177
 20
127.8027915271048
 30
0.0
 10
141.486030802177
 20
127.8027915271048
 30
0.0
 10
146.3329388378533
 20
143.2092687007094
 30
0.0
 10
146.3329388378533
 20
143.2092687007094
 30
0.0
 10
146.8483254624444
 20
144.8408669988801
 30
0.0
 10
147.2314203331297
 20
146.1837661049335
 30
0.0
 10
147.4867020769946
 20
147.224185627838
 30
0.0
 10
147.9169947869641
 20
149.0197705792876
 30
0.0
 10
148.0306830129768
 20
150.2400242051577
 30
0.0
 10
147.709255392159
 20
151.3157559800812
 30
0.0
 10
147.3874832615654
 20
152.3916600098926
 30
0.0
 10
146.8245542879144
 20
152.6683013598569
 30
0.0
 10
145.8840425999909
 20
152.6683013598569
 30
0.0
 10
145.0989048209514
 20
152.6683013598569
 30
0.0
 10
144.3282364524954
 20
152.3275811915945
 30
0.0
 10
143.4531816219731
 20
151.6538923250251
 30
0.0
 10
142.34627171234
 20
150.8074318058939
 30
0.0
 10
141.901854101563
 20
150.1097995099067
 30
0.0
 10
141.3578731655808
 20
149.289521733736
 30
0.0
 10
140.6299240093235
 20
148.192602607601
 30
0.0
 10
140.2850697237515
 20
147.455696197173
 30
0.0
 10
139.6652966370942
 20
145.8385673095858
 30
0.0
 10
139.0506911970739
 20
144.2214384219986
 30
0.0
 10
138.463991048893
 20
142.3252566160164
 30
0.0
 10
138.0571250036777
 20
141.0154304484394
 30
0.0
 10
138.0571250036777
 20
141.0154304484394
 30
0.0
 10
133.9009590684727
 20
127.8027915271048
 30
0.0
 10
133.9009590684727
 20
127.8027915271048
 30
0.0
 10
133.9009590684727
 20
127.8027915271048
 30
0.0
 10
131.4180771143097
 20
127.8027915271048
 30
0.0
 10
131.4180771143097
 20
127.8027915271048
 30
0.0
 10
131.4180771143097
 20
127.8027915271048
 30
0.0
 10
139.8926730891197
 20
154.8294111834263
 30
0.0
 10
139.8926730891197
 20
154.8294111834263
 30
0.0
  0
HATCH
  5
6A9
330
6A2
100
AcDbEntity
  8
LOGO
 62
   250
420
  2234388
100
AcDbHatch
 10
0.0
 20
0.0
 30
0.0
210
0.0
220
0.0
230
1.0
  2
SOLID
 70
     1
 71
     0
 91
        1
 92
        1
 93
        1
 72
     4
 94
        3
 73
     0
 74
     1
 95
      104
 96
      100
 40
0.0
 40
0.0
 40
0.0
 40
0.0
 40
1.0
 40
1.0
 40
1.0
 40
2.0
 40
2.0
 40
2.0
 40
3.0
 40
3.0
 40
3.0
 40
4.0
 40
4.0
 40
4.0
 40
5.0
 40
5.0
 40
5.0
 40
6.0
 40
6.0
 40
6.0
 40
7.0
 40
7.0
 40
7.0
 40
8.0
 40
8.0
 40
8.0
 40
9.0
 40
9.0
 40
9.0
 40
10.0
 40
10.0
 40
10.0
 40
11.0
 40
11.0
 40
11.0
 40
12.0
 40
12.0
 40
12.0
 40
13.0
 40
13.0
 40
13.0
 40
14.0
 40
14.0
 40
14.0
 40
15.0
 40
15.0
 40
15.0
 40
16.0
 40
16.0
 40
16.0
 40
17.0
 40
17.0
 40
17.0
 40
18.0
 40
18.0
 40
18.0
 40
19.0
 40
19.0
 40
19.0
 40
20.0
 40
20.0
 40
20.0
 40
21.0
 40
21.0
 40
21.0
 40
22.0
 40
22.0
 40
22.0
 40
23.0
 40
23.0
 40
23.0
 40
24.0
 40
24.0
 40
24.0
 40
25.0
 40
25.0
 40
25.0
 40
26.0
 40
26.0
 40
26.0
 40
27.0
 40
27.0
 40
27.0
 40
28.0
 40
28.0
 40
28.0
 40
29.0
 40
29.0
 40
29.0
 40
30.0
 40
30.0
 40
30.0
 40
31.0
 40
31.0
 40
31.0
 40
32.0
 40
32.0
 40
32.0
 40
33.0
 40
33.0
 40
33.0
 40
33.0
 10
139.8926730891197
 20
154.8294111834263
 10
139.8926730891197
 20
154.8294111834263
 10
142.0344903652445
 20
154.8294111834263
 10
142.0344903652445
 20
154.8294111834263
 10
142.0344903652445
 20
154.8294111834263
 10
140.9516961399171
 20
151.3157559800812
 10
140.9516961399171
 20
151.3157559800812
 10
141.8928968473923
 20
152.7887075264977
 10
142.7341897198865
 20
153.4484437471474
 10
143.8552245303272
 20
154.2926649527359
 10
144.9803934580775
 20
155.1296514530327
 10
146.3139908001845
 20
155.3044901642492
 10
147.241066606852
 20
155.3044901642492
 10
148.3855280820469
 20
155.3044901642492
 10
149.4969166187653
 20
155.0752189084569
 10
150.0784491203092
 20
153.8172414621372
 10
150.5228667310863
 20
152.833838307127
 10
150.5414702589793
 20
152.7201500811143
 10
150.4140016419347
 20
150.7765981809602
 10
151.5818897818837
 20
152.7699317437168
 10
152.4424752018226
 20
153.6256940267945
 10
153.9038856707499
 20
154.4507949398263
 10
155.4455669174378
 20
155.3044901642492
 10
156.339225275853
 20
155.3659851592288
 10
157.3748216618963
 20
155.2147453676543
 10
158.911679771723
 20
154.9877134254046
 10
159.8859534176746
 20
154.4390816074493
 10
160.3965169054045
 20
152.7816450760939
 10
160.9070803931344
 20
151.1219692311958
 10
160.6328506116007
 20
150.2303779314354
 10
159.9992971339115
 20
147.597634224801
 10
159.7105979417943
 20
146.4014962832367
 10
159.2947746424084
 20
144.9400858143094
 10
158.7463150793409
 20
143.2092687007094
 10
158.7463150793409
 20
143.2092687007094
 10
153.9038856707499
 20
127.8027915271048
 10
153.9038856707499
 20
127.8027915271048
 10
153.9038856707499
 20
127.8027915271048
 10
151.3882752878863
 20
127.8027915271048
 10
151.3882752878863
 20
127.8027915271048
 10
151.3882752878863
 20
127.8027915271048
 10
155.6250565106276
 20
141.2751908193897
 10
155.6250565106276
 20
141.2751908193897
 10
156.5094131050963
 20
144.0936252951782
 10
157.109893644309
 20
146.1506931664571
 10
157.4220195011804
 20
147.4415712963654
 10
157.8095929989511
 20
149.0530157726519
 10
157.9656559273867
 20
149.5826995529385
 10
157.7816877071116
 20
150.7529992613181
 10
157.6111553680925
 20
151.8430281919372
 10
157.0582171779396
 20
152.5547853887321
 10
156.1170164704645
 20
152.5547853887321
 10
155.1096698860365
 20
152.5547853887321
 10
154.2962823053817
 20
152.4412694176073
 10
153.156643967048
 20
151.2945686288697
 10
152.0170056287143
 20
150.1476955852443
 10
151.076149431015
 20
148.7930831468137
 10
150.3337308641742
 20
147.2290087646991
 10
149.5957909244188
 20
145.6683794803425
 10
148.8530278478023
 20
143.6822806228776
 10
148.0964843801539
 20
141.2751908193897
 10
148.0964843801539
 20
141.2751908193897
 10
143.8552245303272
 20
127.8027915271048
 10
143.8552245303272
 20
127.8027915271048
 10
143.8552245303272
 20
127.8027915271048
 10
141.486030802177
 20
127.8027915271048
 10
141.486030802177
 20
127.8027915271048
 10
141.486030802177
 20
127.8027915271048
 10
146.3329388378533
 20
143.2092687007094
 10
146.3329388378533
 20
143.2092687007094
 10
146.8483254624444
 20
144.8408669988801
 10
147.2314203331297
 20
146.1837661049335
 10
147.4867020769946
 20
147.224185627838
 10
147.9169947869641
 20
149.0197705792876
 10
148.0306830129768
 20
150.2400242051577
 10
147.709255392159
 20
151.3157559800812
 10
147.3874832615654
 20
152.3916600098926
 10
146.8245542879144
 20
152.6683013598569
 10
145.8840425999909
 20
152.6683013598569
 10
145.0989048209514
 20
152.6683013598569
 10
144.3282364524954
 20
152.3275811915945
 10
143.4531816219731
 20
151.6538923250251
 10
142.34627171234
 20
150.8074318058939
 10
141.901854101563
 20
150.1097995099067
 10
141.3578731655808
 20
149.289521733736
 10
140.6299240093235
 20
148.192602607601
 10
140.2850697237515
 20
147.455696197173
 10
139.6652966370942
 20
145.8385673095858
 10
139.0506911970739
 20
144.2214384219986
 10
138.463991048893
 20
142.3252566160164
 10
138.0571250036777
 20
141.0154304484394
 10
138.0571250036777
 20
141.0154304484394
 10
133.9009590684727
 20
127.8027915271048
 10
133.9009590684727
 20
127.8027915271048
 10
133.9009590684727
 20
127.8027915271048
 10
131.4180771143097
 20
127.8027915271048
 10
131.4180771143097
 20
127.8027915271048
 10
131.4180771143097
 20
127.8027915271048
 10
139.8926730891197
 20
154.8294111834263
 10
139.8926730891197
 20
154.8294111834263
 97
        0
 75
     2
 76
     1
 98
        0
  0
SPLINE
  5
6AA
330
6A2
100
AcDbEntity
  8
LOGO
370
     0
100
AcDbSpline
210
0.0
220
0.0
230
1.0
 70
    11
 71
     3
 72
    29
 73
    25
 74
     0
 42
0.000000001
 43
0.0000000001
 40
0.0
 40
0.0
 40
0.0
 40
0.0
 40
1.0
 40
1.0
 40
1.0
 40
2.0
 40
2.0
 40
2.0
 40
3.0
 40
3.0
 40
3.0
 40
4.0
 40
4.0
 40
4.0
 40
5.0
 40
5.0
 40
5.0
 40
6.0
 40
6.0
 40
6.0
 40
7.0
 40
7.0
 40
7.0
 40
8.0
 40
8.0
 40
8.0
 40
8.0
 10
101.6420971922469
 20
132.8388354296931
 30
0.0
 10
101.630039350094
 20
134.7164137077823
 30
0.0
 10
102.2236296937908
 20
138.0598810818841
 30
0.0
 10
103.7487744712405
 20
142.5378191476827
 30
0.0
 10
105.819967243327
 20
148.5896501242061
 30
0.0
 10
107.0602024361932
 20
150.8074318058939
 30
0.0
 10
108.1522984254671
 20
151.8833358357054
 30
0.0
 10
109.741177511439
 20
153.4532668840085
 30
0.0
 10
111.8740375333931
 20
153.5290590346837
 30
0.0
 10
112.5075910110823
 20
153.4532668840085
 30
0.0
 10
113.4012493694975
 20
153.3490526768302
 30
0.0
 10
114.6683563248758
 20
152.7580461564518
 30
0.0
 10
114.7493161221879
 20
150.7838328862519
 30
0.0
 10
114.8106388622796
 20
149.0909118479895
 30
0.0
 10
114.3186789024427
 20
145.9191825971221
 30
0.0
 10
112.6164561002338
 20
140.9489400617108
 30
0.0
 10
110.6444821435766
 20
135.1746117095912
 30
0.0
 10
109.4669477299053
 20
132.8960240524753
 30
0.0
 10
108.5212683953448
 20
131.9072809959403
 30
0.0
 10
106.7346406980658
 20
130.0538184021569
 30
0.0
 10
104.8222669326213
 20
130.2336525051225
 30
0.0
 10
104.5408024457958
 20
130.2336525051225
 30
0.0
 10
104.1721769856939
 20
130.2336525051225
 30
0.0
 10
101.6465758193322
 20
130.6305277668397
 30
0.0
 10
101.6420971922469
 20
132.8388354296931
 30
0.0
  0
SPLINE
  5
6AB
330
6A2
100
AcDbEntity
  8
LOGO
370
     0
100
AcDbSpline
210
0.0
220
0.0
230
1.0
 70
    11
 71
     3
 72
    32
 73
    28
 74
     0
 42
0.000000001
 43
0.0000000001
 40
0.0
 40
0.0
 40
0.0
 40
0.0
 40
1.0
 40
1.0
 40
1.0
 40
2.0
 40
2.0
 40
2.0
 40
3.0
 40
3.0
 40
3.0
 40
4.0
 40
4.0
 40
4.0
 40
5.0
 40
5.0
 40
5.0
 40
6.0
 40
6.0
 40
6.0
 40
7.0
 40
7.0
 40
7.0
 40
8.0
 40
8.0
 40
8.0
 40
9.0
 40
9.0
 40
9.0
 40
9.0
 10
106.2595617172429
 20
153.4105476718098
 30
0.0
 10
104.8222669326213
 20
151.5474388043041
 30
0.0
 10
103.7177685914188
 20
149.8758773721411
 30
0.0
 10
101.9232171692965
 20
144.6141795664062
 30
0.0
 10
100.2754269116635
 20
139.7999999594306
 30
0.0
 10
99.22777268346732
 20
136.3052927937542
 30
0.0
 10
99.06964269637689
 20
132.039572749846
 30
0.0
 10
98.94665270641765
 20
128.8673267343149
 30
0.0
 10
100.8807305877373
 20
127.8027915271048
 30
0.0
 10
103.7129454545577
 20
127.8027915271048
 30
0.0
 10
104.9352661390825
 20
127.8027915271048
 30
0.0
 10
108.0151835347002
 20
127.8827177950895
 30
0.0
 10
110.2045431598849
 20
130.5926316915021
 30
0.0
 10
111.7417457794874
 20
132.4984597712065
 30
0.0
 10
113.155269389579
 20
134.475256864725
 30
0.0
 10
115.0562743324223
 20
140.9489400617108
 30
0.0
 10
116.6361961642235
 20
146.3680788349845
 30
0.0
 10
117.7282921534974
 20
149.8639917848761
 30
0.0
 10
117.6480213757369
 20
151.8595646611754
 30
0.0
 10
117.6480213757369
 20
151.8595646611754
 30
0.0
 10
117.6480213757369
 20
151.8595646611754
 30
0.0
 10
117.6480213757369
 20
151.8595646611754
 30
0.0
 10
117.13229024137
 20
155.18150017429
 30
0.0
 10
114.7162431837115
 20
155.886194920681
 30
0.0
 10
113.3351034925446
 20
155.886194920681
 30
0.0
 10
111.9829026225447
 20
155.886194920681
 30
0.0
 10
108.3414342923792
 20
156.1251124501957
 30
0.0
 10
106.2595617172429
 20
153.4105476718098
 30
0.0
  0
HATCH
  5
6AC
330
6A2
100
AcDbEntity
  8
LOGO
 62
   250
420
  2234388
100
AcDbHatch
 10
0.0
 20
0.0
 30
0.0
210
0.0
220
0.0
230
1.0
  2
SOLID
 70
     1
 71
     0
 91
        2
 92
        1
 93
        1
 72
     4
 94
        3
 73
     0
 74
     1
 95
       29
 96
       25
 40
0.0
 40
0.0
 40
0.0
 40
0.0
 40
1.0
 40
1.0
 40
1.0
 40
2.0
 40
2.0
 40
2.0
 40
3.0
 40
3.0
 40
3.0
 40
4.0
 40
4.0
 40
4.0
 40
5.0
 40
5.0
 40
5.0
 40
6.0
 40
6.0
 40
6.0
 40
7.0
 40
7.0
 40
7.0
 40
8.0
 40
8.0
 40
8.0
 40
8.0
 10
101.6420971922469
 20
132.8388354296931
 10
101.630039350094
 20
134.7164137077823
 10
102.2236296937908
 20
138.0598810818841
 10
103.7487744712405
 20
142.5378191476827
 10
105.819967243327
 20
148.5896501242061
 10
107.0602024361932
 20
150.8074318058939
 10
108.1522984254671
 20
151.8833358357054
 10
109.741177511439
 20
153.4532668840085
 10
111.8740375333931
 20
153.5290590346837
 10
112.5075910110823
 20
153.4532668840085
 10
113.4012493694975
 20
153.3490526768302
 10
114.6683563248758
 20
152.7580461564518
 10
114.7493161221879
 20
150.7838328862519
 10
114.8106388622796
 20
149.0909118479895
 10
114.3186789024427
 20
145.9191825971221
 10
112.6164561002338
 20
140.9489400617108
 10
110.6444821435766
 20
135.1746117095912
 10
109.4669477299053
 20
132.8960240524753
 10
108.5212683953448
 20
131.9072809959403
 10
106.7346406980658
 20
130.0538184021569
 10
104.8222669326213
 20
130.2336525051225
 10
104.5408024457958
 20
130.2336525051225
 10
104.1721769856939
 20
130.2336525051225
 10
101.6465758193322
 20
130.6305277668397
 10
101.6420971922469
 20
132.8388354296931
 97
        0
 92
        1
 93
        1
 72
     4
 94
        3
 73
     0
 74
     1
 95
       32
 96
       28
 40
0.0
 40
0.0
 40
0.0
 40
0.0
 40
1.0
 40
1.0
 40
1.0
 40
2.0
 40
2.0
 40
2.0
 40
3.0
 40
3.0
 40
3.0
 40
4.0
 40
4.0
 40
4.0
 40
5.0
 40
5.0
 40
5.0
 40
6.0
 40
6.0
 40
6.0
 40
7.0
 40
7.0
 40
7.0
 40
8.0
 40
8.0
 40
8.0
 40
9.0
 40
9.0
 40
9.0
 40
9.0
 10
106.2595617172429
 20
153.4105476718098
 10
104.8222669326213
 20
151.5474388043041
 10
103.7177685914188
 20
149.8758773721411
 10
101.9232171692965
 20
144.6141795664062
 10
100.2754269116635
 20
139.7999999594306
 10
99.22777268346732
 20
136.3052927937542
 10
99.06964269637689
 20
132.039572749846
 10
98.94665270641765
 20
128.8673267343149
 10
100.8807305877373
 20
127.8027915271048
 10
103.7129454545577
 20
127.8027915271048
 10
104.9352661390825
 20
127.8027915271048
 10
108.0151835347002
 20
127.8827177950895
 10
110.2045431598849
 20
130.5926316915021
 10
111.7417457794874
 20
132.4984597712065
 10
113.155269389579
 20
134.475256864725
 10
115.0562743324223
 20
140.9489400617108
 10
116.6361961642235
 20
146.3680788349845
 10
117.7282921534974
 20
149.8639917848761
 10
117.6480213757369
 20
151.8595646611754
 10
117.6480213757369
 20
151.8595646611754
 10
117.6480213757369
 20
151.8595646611754
 10
117.6480213757369
 20
151.8595646611754
 10
117.13229024137
 20
155.18150017429
 10
114.7162431837115
 20
155.886194920681
 10
113.3351034925446
 20
155.886194920681
 10
111.9829026225447
 20
155.886194920681
 10
108.3414342923792
 20
156.1251124501957
 10
106.2595617172429
 20
153.4105476718098
 97
        0
 75
     2
 76
     1
 98
        0
  0
ENDBLK
  5
6AD
330
6A2
100
AcDbEntity
  8
0
100
AcDbBlockEnd
  0
BLOCK
  5
6B6C
330
6B6B
100
AcDbEntity
  8
0
100
AcDbBlockBegin
  2
*D31
 70
     1
 10
0.0
 20
0.0
 30
0.0
  3
*D31
  1
*D31
  0
LINE
  5
6B6E
330
6B6B
100
AcDbEntity
  8
DIM
 62
     0
 48
0.05
370
    -2
100
AcDbLine
 10
124.9404289094497
 20
217.7420231213872
 30
0.0
 11
124.9404289094497
 21
199.993930177084
 31
0.0
  0
LINE
  5
6B6F
330
6B6B
100
AcDbEntity
  8
DIM
 62
     0
 48
0.05
370
    -2
100
AcDbLine
 10
143.9404289094497
 20
217.7420231213872
 30
0.0
 11
143.9404289094497
 21
199.993930177084
 31
0.0
  0
LINE
  5
6B70
330
6B6B
100
AcDbEntity
  8
DIM
 62
     0
 48
0.05
370
    -2
100
AcDbLine
 10
125.9404289094497
 20
199.993930177084
 30
0.0
 11
142.9404289094497
 21
199.993930177084
 31
0.0
  0
INSERT
  5
6B71
330
6B6B
100
AcDbEntity
  8
DIM
 62
     0
370
    -2
100
AcDbBlockReference
  2
_DOT
 10
124.9404289094497
 20
199.993930177084
 30
0.0
 50
180.0
  0
INSERT
  5
6B72
330
6B6B
100
AcDbEntity
  8
DIM
 62
     0
370
    -2
100
AcDbBlockReference
  2
_DOT
 10
143.9404289094497
 20
199.993930177084
 30
0.0
  0
MTEXT
  5
6B73
330
6B6B
100
AcDbEntity
  8
DIM
 62
     0
 48
0.05
100
AcDbMText
 10
134.4404289094497
 20
208.026430177084
 30
0.0
 40
5.0
 41
0.0
 46
0.0
 71
     5
 72
     1
  1
\A1;G1/2"
  7
ＭＳ ゴシック
 73
     1
 44
1.0
  0
POINT
  5
6B74
330
6B6B
100
AcDbEntity
  8
Defpoints
 62
     0
100
AcDbPoint
 10
124.9404289094497
 20
222.7420231213872
 30
0.0
  0
POINT
  5
6B75
330
6B6B
100
AcDbEntity
  8
Defpoints
 62
     0
100
AcDbPoint
 10
143.9404289094497
 20
222.7420231213872
 30
0.0
  0
POINT
  5
6B76
330
6B6B
100
AcDbEntity
  8
Defpoints
 62
     0
100
AcDbPoint
 10
143.9404289094497
 20
199.993930177084
 30
0.0
  0
ENDBLK
  5
6B6D
330
6B6B
100
AcDbEntity
  8
0
100
AcDbBlockEnd
  0
BLOCK
  5
6C15
330
6C14
100
AcDbEntity
  8
0
100
AcDbBlockBegin
  2
*D34
 70
     1
 10
0.0
 20
0.0
 30
0.0
  3
*D34
  1

  0
LINE
  5
6C17
330
6C14
100
AcDbEntity
  8
DIM
 62
     0
 48
0.05
370
    -2
100
AcDbLine
 10
274.9683887526684
 20
217.7420231213873
 30
0.0
 11
274.9683887526684
 21
199.9939301770841
 31
0.0
  0
LINE
  5
6C18
330
6C14
100
AcDbEntity
  8
DIM
 62
     0
 48
0.05
370
    -2
100
AcDbLine
 10
293.9683887526684
 20
217.7420231213873
 30
0.0
 11
293.9683887526684
 21
199.9939301770841
 31
0.0
  0
LINE
  5
6C19
330
6C14
100
AcDbEntity
  8
DIM
 62
     0
 48
0.05
370
    -2
100
AcDbLine
 10
275.9683887526684
 20
199.9939301770841
 30
0.0
 11
292.9683887526684
 21
199.9939301770841
 31
0.0
  0
INSERT
  5
6C1A
330
6C14
100
AcDbEntity
  8
DIM
 62
     0
370
    -2
100
AcDbBlockReference
  2
_DOT
 10
274.9683887526684
 20
199.9939301770841
 30
0.0
 50
180.0
  0
INSERT
  5
6C1B
330
6C14
100
AcDbEntity
  8
DIM
 62
     0
370
    -2
100
AcDbBlockReference
  2
_DOT
 10
293.9683887526684
 20
199.9939301770841
 30
0.0
  0
MTEXT
  5
6C1C
330
6C14
100
AcDbEntity
  8
DIM
 62
     0
 48
0.05
100
AcDbMText
 10
284.4683887526684
 20
208.0275677911894
 30
0.0
 40
5.0
 41
0.0
 46
0.0
 71
     5
 72
     1
  1
\A1;G1/2"
  7
ＭＳ ゴシック
 73
     1
 44
1.0
  0
POINT
  5
6C1D
330
6C14
100
AcDbEntity
  8
Defpoints
 62
     0
100
AcDbPoint
 10
274.9683887526684
 20
222.7420231213873
 30
0.0
  0
POINT
  5
6C1E
330
6C14
100
AcDbEntity
  8
Defpoints
 62
     0
100
AcDbPoint
 10
293.9683887526684
 20
222.7420231213873
 30
0.0
  0
POINT
  5
6C1F
330
6C14
100
AcDbEntity
  8
Defpoints
 62
     0
100
AcDbPoint
 10
293.9683887526684
 20
199.9939301770841
 30
0.0
  0
ENDBLK
  5
6C16
330
6C14
100
AcDbEntity
  8
0
100
AcDbBlockEnd
  0
ENDSEC
  0
SECTION
  2
ENTITIES
  0
MTEXT
  5
177
330
A
100
AcDbEntity
  8
TEMPLATE
390
1D
100
AcDbMText
 10
15.84042890954615
 20
68.74635032628565
 30
0.0
 40
3.257682291666665
 41
0.0
 46
0.0
 71
     1
 72
     1
  1
品名
  7
ＭＳ ゴシック
 73
     1
 44
0.7828267384257843
  0
MTEXT
  5
178
330
A
100
AcDbEntity
  8
TEMPLATE
390
1D
100
AcDbMText
 10
15.84042890954615
 20
51.7463503262856
 30
0.0
 40
3.257682291666665
 41
0.0
 46
0.0
 71
     1
 72
     1
  1
仕様
  7
ＭＳ ゴシック
 73
     1
 44
0.7828267384257843
  0
LINE
  5
179
330
A
100
AcDbEntity
  8
TEMPLATE
390
1D
100
AcDbLine
 10
404.4404289094496
 20
53.42933470128568
 30
0.0
 11
14.44042890944975
 21
53.42933470128568
 31
0.0
  0
LWPOLYLINE
  5
17A
330
A
100
AcDbEntity
  8
TEMPLATE
390
1D
100
AcDbPolyline
 90
        5
 70
   128
 43
0.0
 10
404.4404289094496
 20
579.4293347012853
 10
14.44042890944975
 20
579.4293347012853
 10
14.44042890944975
 20
19.42933470128565
 10
404.4404289094496
 20
19.42933470128565
 10
404.4404289094496
 20
579.4293347012853
  0
LINE
  5
17B
330
A
100
AcDbEntity
  8
TEMPLATE
390
1D
100
AcDbLine
 10
404.4404289094496
 20
70.42933470128564
 30
0.0
 11
14.44042890944975
 21
70.42933470128564
 31
0.0
  0
LINE
  5
17C
330
A
100
AcDbEntity
  8
TEMPLATE
390
1D
100
AcDbLine
 10
404.4404289095464
 20
36.42933470128565
 30
0.0
 11
253.840428909546
 21
36.42933470128565
 31
0.0
  0
MTEXT
  5
17E
330
A
100
AcDbEntity
  8
TEMPLATE
390
1D
100
AcDbMText
 10
259.8147101599982
 20
30.44725580662403
 30
0.0
 40
4.8865234375
 41
0.0
 46
0.0
 71
     1
 72
     1
  1
大洋金物株式会社 ティーフォルム事業部
  7
ＭＳ ゴシック
 73
     1
 44
0.7828267384257843
  0
MTEXT
  5
180
330
A
100
AcDbEntity
  8
TEMPLATE
390
1D
100
AcDbMText
 10
366.240428909598
 20
46.02985813878564
 30
0.0
 40
4.8865234375
 41
0.0
 46
4.8865234375
 71
     1
 72
     1
  1
{1:2}
  7
ＭＳ ゴシック
 73
     1
 44
0.7828267384257843
1001
ACAD
1000
ACAD_MTEXT_DEFINED_HEIGHT_BEGIN
1070
    46
1040
4.8865234375
1000
ACAD_MTEXT_DEFINED_HEIGHT_END
  0
MTEXT
  5
181
330
A
100
AcDbEntity
  8
TEMPLATE
390
1D
100
AcDbMText
 10
355.640428909598
 20
51.7463503262856
 30
0.0
 40
3.257682291666665
 41
0.0
 46
0.0
 71
     1
 72
     1
  1
縮尺
  7
ＭＳ ゴシック
 73
     1
 44
0.7828267384257843
  0
LINE
  5
182
330
A
100
AcDbEntity
  8
TEMPLATE
390
1D
100
AcDbLine
 10
354.240428909598
 20
36.42933470128565
 30
0.0
 11
354.240428909598
 21
53.42933470128568
 31
0.0
  0
MTEXT
  5
183
330
A
100
AcDbEntity
  8
TEMPLATE
390
1D
100
AcDbMText
 10
305.440428909598
 20
51.7463503262856
 30
0.0
 40
3.257682291666665
 41
0.0
 46
0.0
 71
     1
 72
     1
  1
容量
  7
ＭＳ ゴシック
 73
     1
 44
0.7828267384257843
  0
LINE
  5
184
330
A
100
AcDbEntity
  8
TEMPLATE
390
1D
100
AcDbLine
 10
304.040428909598
 20
36.42933470128565
 30
0.0
 11
304.040428909598
 21
53.42933470128568
 31
0.0
  0
MTEXT
  5
185
330
A
100
AcDbEntity
  8
TEMPLATE
390
1D
100
AcDbMText
 10
255.240428909598
 20
68.74635032628565
 30
0.0
 40
3.257682291666665
 41
0.0
 46
0.0
 71
     1
 72
     1
  1
品番
  7
ＭＳ ゴシック
 73
     1
 44
0.7828267384257843
  0
MTEXT
  5
186
330
A
100
AcDbEntity
  8
TEMPLATE
390
1D
100
AcDbMText
 10
255.240428909598
 20
51.7463503262856
 30
0.0
 40
3.257682291666665
 41
0.0
 46
0.0
 71
     1
 72
     1
  1
重量
  7
ＭＳ ゴシック
 73
     1
 44
0.7828267384257843
  0
MTEXT
  5
187
330
A
100
AcDbEntity
  8
TEMPLATE
390
1D
100
AcDbMText
 10
265.840428909598
 20
63.02985813878564
 30
0.0
 40
4.8865234375
 41
0.0
 46
4.8865234375
 71
     1
 72
     1
  1
{ALH73-9904}
  7
ＭＳ ゴシック
 73
     1
 44
0.7828267384257843
1001
ACAD
1000
ACAD_MTEXT_DEFINED_HEIGHT_BEGIN
1070
    46
1040
4.8865234375
1000
ACAD_MTEXT_DEFINED_HEIGHT_END
  0
LINE
  5
188
330
A
100
AcDbEntity
  8
TEMPLATE
390
1D
100
AcDbLine
 10
253.840428909598
 20
19.42933470128565
 30
0.0
 11
253.840428909598
 21
70.42933470128564
 31
0.0
  0
MTEXT
  5
189
330
A
100
AcDbEntity
  8
TEMPLATE
390
1D
100
AcDbMText
 10
26.44042890954615
 20
63.02985813878564
 30
0.0
 40
4.8865234375
 41
0.0
 46
5.507344722044204
 71
     1
 72
     1
  1
{シャワーホース　-ALMAR,Emotion-}
  7
ＭＳ ゴシック
 73
     1
 44
0.7828267384257843
1001
ACAD
1000
ACAD_MTEXT_DEFINED_HEIGHT_BEGIN
1070
    46
1040
5.507344722044204
1000
ACAD_MTEXT_DEFINED_HEIGHT_END
  0
INSERT
  5
6B5
330
A
100
AcDbEntity
  8
TEMPLATE
100
AcDbBlockReference
  2
名称未設定-1
 10
374.15014961769
 20
5.189353151330764
 30
0.0
 41
0.1524
 42
0.1524
 43
0.1524
  0
INSERT
  5
68C
330
A
100
AcDbEntity
  8
TEMPLATE
100
AcDbBlockReference
  2
block 2
 10
919.2743017702577
 20
8.373076514336368
 30
0.0
 41
0.3809999999999999
 42
0.3809999999999999
 43
0.3809999999999999
  0
LWPOLYLINE
  5
D69
330
A
100
AcDbEntity
  8
BORDER
 48
0.025
100
AcDbPolyline
 90
        4
 70
     1
 43
0.0
 10
0.0
 20
0.0
 10
0.0
 20
594.0
 10
420.0
 20
594.0
 10
420.0
 20
0.0
  0
INSERT
  5
1343
330
A
100
AcDbEntity
  8
TEMPLATE
100
AcDbBlockReference
  2
block 2
 10
2096.743470866468
 20
24.43532141229569
 30
0.0
 41
0.3809999999999999
 42
0.3809999999999999
 43
0.3809999999999999
  0
POINT
  5
3697
330
A
100
AcDbEntity
  8
Layer50
  6
HIDDEN2
 62
     7
100
AcDbPoint
 10
396.8678405503807
 20
449.3605456225488
 30
0.0
  0
POINT
  5
36AA
330
A
100
AcDbEntity
  8
Layer50
  6
HIDDEN2
 62
     7
100
AcDbPoint
 10
396.8678405503807
 20
469.8605456225488
 30
0.0
  0
POINT
  5
36B6
330
A
100
AcDbEntity
  8
Layer50
  6
HIDDEN2
 62
     7
100
AcDbPoint
 10
405.6628405503807
 20
460.6105456225488
 30
0.0
  0
POINT
  5
36BC
330
A
100
AcDbEntity
  8
Layer50
  6
HIDDEN2
 62
     7
100
AcDbPoint
 10
403.6628405503807
 20
460.6105456225488
 30
0.0
  0
MTEXT
  5
4530
102
{ACAD_XDICTIONARY
360
4532
102
}
330
A
100
AcDbEntity
  8
MODEL
 48
0.05
100
AcDbMText
 10
14.6329326238789
 20
17.30781899803597
 30
0.0
 40
4.0
 41
0.0
 46
4.0
 71
     1
 72
     1
  1
{20211014M}
  7
ＭＳ ゴシック
 73
     1
 44
1.0
1001
ACAD
1000
ACAD_MTEXT_DEFINED_HEIGHT_BEGIN
1070
    46
1040
4.0
1000
ACAD_MTEXT_DEFINED_HEIGHT_END
  0
MTEXT
  5
5062
330
A
100
AcDbEntity
  8
TEMPLATE
390
1D
100
AcDbMText
 10
26.44042890954615
 20
46.10276168560644
 30
0.0
 40
4.8865234375
 41
0.0
 46
4.8865234375
 71
     1
 72
     1
  1
{1.5M}
  7
ＭＳ ゴシック
 73
     1
 44
0.7828267384257843
1001
ACAD
1000
ACAD_MTEXT_DEFINED_HEIGHT_BEGIN
1070
    46
1040
4.8865234375
1000
ACAD_MTEXT_DEFINED_HEIGHT_END
  0
LINE
  5
685C
330
A
100
AcDbEntity
  8
MODEL
390
1D
100
AcDbLine
 10
126.4408081732498
 20
276.2427695490872
 30
0.0
 11
126.4408081732498
 21
275.2420231213872
 31
0.0
  0
LINE
  5
685E
330
A
100
AcDbEntity
  8
MODEL
390
1D
100
AcDbLine
 10
142.4365860786498
 20
288.2403652308872
 30
0.0
 11
142.4365860786498
 21
291.2403652308872
 31
0.0
  0
LINE
  5
6861
330
A
100
AcDbEntity
  8
MODEL
390
1D
100
AcDbLine
 10
142.4358084869497
 20
276.2408687214872
 30
0.0
 11
142.4358084869497
 21
279.2408687214872
 31
0.0
  0
LINE
  5
6864
330
A
100
AcDbEntity
  8
MODEL
390
1D
100
AcDbLine
 10
126.4417204962497
 20
288.2438794797872
 30
0.0
 11
126.4417204962497
 21
285.2438794797872
 31
0.0
  0
LINE
  5
6866
330
A
100
AcDbEntity
  8
MODEL
390
1D
100
AcDbLine
 10
126.4428682000498
 20
300.2445710647872
 30
0.0
 11
126.4428682000498
 21
297.2445710647872
 31
0.0
  0
LINE
  5
6868
330
A
100
AcDbEntity
  8
MODEL
390
1D
100
AcDbLine
 10
141.6374291952497
 20
297.2398129468872
 30
0.0
 11
141.6374291952497
 21
299.8135497995872
 31
0.0
  0
LINE
  5
686A
330
A
100
AcDbEntity
  8
MODEL
390
1D
100
AcDbLine
 10
141.6365792440498
 20
285.2403864513872
 30
0.0
 11
141.6365792440498
 21
287.8118896243872
 31
0.0
  0
LINE
  5
686D
330
A
100
AcDbEntity
  8
MODEL
390
1D
100
AcDbLine
 10
127.2420985401498
 20
297.3952139519872
 30
0.0
 11
127.2420985401498
 21
294.6713179719872
 31
0.0
  0
LINE
  5
6870
330
A
100
AcDbEntity
  8
MODEL
390
1D
100
AcDbLine
 10
127.2411361919497
 20
285.3962694856872
 30
0.0
 11
127.2411361919497
 21
282.6694289614872
 31
0.0
  0
SPLINE
  5
6875
330
A
100
AcDbEntity
  8
MODEL
390
1D
100
AcDbSpline
210
0.0
220
0.0
230
1.0
 70
     8
 71
     3
 72
    20
 73
    16
 74
     0
 42
0.000000001
 43
0.0
 40
0.0
 40
0.0
 40
0.0
 40
0.0
 40
0.0147122720287422
 40
0.0147122720287422
 40
0.2098963628116255
 40
0.2098963628116255
 40
0.4050804535945069
 40
0.4050804535945069
 40
0.6002645443773896
 40
0.6002645443773896
 40
0.7954486351602716
 40
0.7954486351602716
 40
0.9906327259431538
 40
0.9906327259431538
 40
1.0
 40
1.0
 40
1.0
 40
1.0
 10
126.4408081186295
 20
276.2427772216573
 30
0.0
 10
126.4406890056493
 20
276.2595990256299
 30
0.0
 10
126.4443786219835
 20
276.2764208296026
 30
0.0
 10
126.5521670496387
 20
276.5164133652826
 30
0.0
 10
127.3319835759628
 20
276.73958409699
 30
0.0
 10
129.8937720884366
 20
277.1859255604045
 30
0.0
 10
131.6656664121812
 20
277.4090962921119
 30
0.0
 10
135.3802566003223
 20
277.8554377555266
 30
0.0
 10
137.3083398666424
 20
278.0786084872339
 30
0.0
 10
140.4233786149323
 20
278.5249499506485
 30
0.0
 10
141.5980800373919
 20
278.7481206823558
 30
0.0
 10
142.6440518463945
 20
279.1944621457704
 30
0.0
 10
142.5112075487137
 20
279.4176328774777
 30
0.0
 10
141.7165513856035
 20
279.6515140179944
 30
0.0
 10
141.6787339621782
 20
279.6622244268038
 30
0.0
 10
141.6395246494316
 20
279.6729348356131
 30
0.0
  0
SPLINE
  5
6876
330
A
100
AcDbEntity
  8
MODEL
390
1D
100
AcDbSpline
210
0.0
220
0.0
230
1.0
 70
     8
 71
     3
 72
    20
 73
    16
 74
     0
 42
0.000000001
 43
0.0
 40
0.0
 40
0.0
 40
0.0
 40
0.0
 40
0.0218736732587529
 40
0.0218736732587529
 40
0.217147432195722
 40
0.217147432195722
 40
0.4124211911326937
 40
0.4124211911326937
 40
0.6076949500696641
 40
0.6076949500696641
 40
0.8029687090066345
 40
0.8029687090066345
 40
0.9982424679436055
 40
0.9982424679436055
 40
1.0
 40
1.0
 40
1.0
 40
1.0
 10
126.4412149720946
 20
282.2438566960448
 30
0.0
 10
126.4411684907604
 20
282.2688552605875
 30
0.0
 10
126.4494758406653
 20
282.2938538251302
 30
0.0
 10
126.6165669457218
 20
282.5420231213802
 30
0.0
 10
127.4449897076982
 20
282.7651938530875
 30
0.0
 10
130.0788975510274
 20
283.2115353165021
 30
0.0
 10
131.8740212641709
 20
283.4347060482094
 30
0.0
 10
135.5987749319489
 20
283.8810475116241
 30
0.0
 10
137.5137523070187
 20
284.1042182433314
 30
0.0
 10
140.5722040753571
 20
284.550559706746
 30
0.0
 10
141.7036470131587
 20
284.7737304384534
 30
0.0
 10
142.6529762172045
 20
285.220071901868
 30
0.0
 10
142.4671279756299
 20
285.4432426335753
 30
0.0
 10
141.6560742309262
 20
285.6684219798408
 30
0.0
 10
141.6487900310282
 20
285.670430594399
 30
0.0
 10
141.6414565201351
 20
285.6724392089571
 30
0.0
  0
SPLINE
  5
6877
330
A
100
AcDbEntity
  8
MODEL
390
1D
100
AcDbSpline
210
0.0
220
0.0
230
1.0
 70
     8
 71
     3
 72
    18
 73
    14
 74
     0
 42
0.000000001
 43
0.0
 40
0.0
 40
0.0
 40
0.0
 40
0.0
 40
0.0293517748406857
 40
0.0293517748406857
 40
0.2246893754768011
 40
0.2246893754768011
 40
0.4200269761129165
 40
0.4200269761129165
 40
0.6153645767490306
 40
0.6153645767490306
 40
0.8107021773851446
 40
0.8107021773851446
 40
0.9999999999999999
 40
0.9999999999999999
 40
0.9999999999999999
 40
0.9999999999999999
 10
126.4417205866006
 20
288.243860054108
 30
0.0
 10
126.4415617507924
 20
288.2773940846621
 30
0.0
 10
126.4563364178516
 20
288.3109281152163
 30
0.0
 10
126.6865936650157
 20
288.5676328774777
 30
0.0
 10
127.5630268714039
 20
288.790803609185
 30
0.0
 10
130.2671597721647
 20
289.2371450725997
 30
0.0
 10
132.0842218442901
 20
289.460315804307
 30
0.0
 10
135.8164601956717
 20
289.9066572677216
 30
0.0
 10
137.7169544518263
 20
290.129827999429
 30
0.0
 10
140.7166196401336
 20
290.5761694628436
 30
0.0
 10
141.8039903737338
 20
290.7993401945509
 30
0.0
 10
142.6428223797527
 20
291.2387812881649
 30
0.0
 10
142.4314024161344
 20
291.4550516500717
 30
0.0
 10
141.6454631367732
 20
291.6713220119784
 30
0.0
  0
SPLINE
  5
6878
330
A
100
AcDbEntity
  8
MODEL
390
1D
100
AcDbSpline
210
0.0
220
0.0
230
1.0
 70
     8
 71
     3
 72
    18
 73
    14
 74
     0
 42
0.000000001
 43
0.0
 40
0.0
 40
0.0
 40
0.0
 40
0.0
 40
0.0367208966517774
 40
0.0367208966517774
 40
0.2320627953392488
 40
0.2320627953392488
 40
0.4274046940267227
 40
0.4274046940267227
 40
0.6227465927141954
 40
0.6227465927141954
 40
0.8180884914016642
 40
0.8180884914016642
 40
1.0
 40
1.0
 40
1.0
 40
1.0
 10
126.4422825220217
 20
294.2442151947849
 30
0.0
 10
126.4421527796569
 20
294.2861674304792
 30
0.0
 10
126.4652574978836
 20
294.3281196661736
 30
0.0
 10
126.7621968451838
 20
294.5932426335754
 30
0.0
 10
127.6860101762348
 20
294.8164133652826
 30
0.0
 10
130.4584233560249
 20
295.2627548286973
 30
0.0
 10
132.2961169789228
 20
295.4859255604046
 30
0.0
 10
136.0331558349845
 20
295.9322670238192
 30
0.0
 10
137.9178001606363
 20
296.1554377555265
 30
0.0
 10
140.8565214474023
 20
296.6017792189411
 30
0.0
 10
141.8990379534333
 20
296.8249499506484
 30
0.0
 10
142.6271814708281
 20
297.2559477013038
 30
0.0
 10
142.3985985581787
 20
297.4637747202519
 30
0.0
 10
141.6441947940269
 20
297.6716017392
 30
0.0
  0
SPLINE
  5
6879
330
A
100
AcDbEntity
  8
MODEL
390
1D
100
AcDbSpline
210
0.0
220
0.0
230
1.0
 70
     8
 71
     3
 72
    18
 73
    14
 74
     0
 42
0.000000001
 43
0.0
 40
0.0
 40
0.0
 40
0.0
 40
0.0
 40
0.0440859524534965
 40
0.0440859524534965
 40
0.2393666612383502
 40
0.2393666612383502
 40
0.4346473700232
 40
0.4346473700232
 40
0.6299280788080562
 40
0.6299280788080562
 40
0.8252087875929087
 40
0.8252087875929087
 40
1.0
 40
1.0
 40
1.0
 40
1.0
 10
126.4428682127096
 20
300.2445347116806
 30
0.0
 10
126.442842610754
 20
300.294917027109
 30
0.0
 10
126.4761499865446
 20
300.3452993425372
 30
0.0
 10
126.843322113369
 20
300.6188523896729
 30
0.0
 10
127.8138511741437
 20
300.8420231213802
 30
0.0
 10
130.6525507482418
 20
301.2883645847948
 30
0.0
 10
132.5095542757508
 20
301.5115353165021
 30
0.0
 10
136.2487060051063
 20
301.9578767799168
 30
0.0
 10
138.1161449877384
 20
302.1810475116241
 30
0.0
 10
140.9918088815413
 20
302.6273889750387
 30
0.0
 10
141.9887213952321
 20
302.850559706746
 30
0.0
 10
142.6099136435037
 20
303.2734853605428
 30
0.0
 10
142.365173458787
 20
303.4732402826324
 30
0.0
 10
141.638745604951
 20
303.6729952047219
 30
0.0
  0
SPLINE
  5
687A
330
A
100
AcDbEntity
  8
MODEL
390
1D
100
AcDbSpline
210
0.0
220
0.0
230
1.0
 70
     8
 71
     3
 72
    18
 73
    14
 74
     0
 42
0.000000001
 43
0.0
 40
0.0
 40
0.0
 40
0.0
 40
0.0
 40
0.0517210735297886
 40
0.0517210735297886
 40
0.2470853427832308
 40
0.2470853427832308
 40
0.4424496120366731
 40
0.4424496120366731
 40
0.637813881290118
 40
0.637813881290118
 40
0.8331781505435576
 40
0.8331781505435576
 40
1.0
 40
1.0
 40
1.0
 40
1.0
 10
126.4434471272627
 20
306.2440436010146
 30
0.0
 10
126.4432184392761
 20
306.3031262053641
 30
0.0
 10
126.4886091583816
 20
306.3622088097136
 30
0.0
 10
126.9299111252978
 20
306.6444621457704
 30
0.0
 10
127.9464579234913
 20
306.8676328774778
 30
0.0
 10
130.8494023348343
 20
307.3139743408923
 30
0.0
 10
132.7243802333523
 20
307.5371450725997
 30
0.0
 10
136.4629556850634
 20
307.9834865360144
 30
0.0
 10
138.3118462860256
 20
308.2066572677216
 30
0.0
 10
141.1223846455281
 20
308.6529987311363
 30
0.0
 10
142.0729761999258
 20
308.8761694628436
 30
0.0
 10
142.5889479873137
 20
309.2899060249877
 30
0.0
 10
142.3348186983293
 20
309.4804718554245
 30
0.0
 10
141.6453649406547
 20
309.6710376858613
 30
0.0
  0
SPLINE
  5
6886
330
A
100
AcDbEntity
  8
MODEL
390
1D
100
AcDbSpline
210
0.0
220
0.0
230
1.0
 70
     8
 71
     3
 72
    12
 73
     8
 74
     0
 42
0.000000001
 43
0.0
 40
0.0
 40
0.0
 40
0.0
 40
0.0
 40
0.3734566606267352
 40
0.3734566606267352
 40
0.8201933968849585
 40
0.8201933968849585
 40
1.0
 40
1.0
 40
1.0
 40
1.0
 10
134.4406792331319
 20
277.7420898799059
 30
0.0
 10
135.8465887379264
 20
277.9286529929176
 30
0.0
 10
137.2514864846676
 20
278.1152161059294
 30
0.0
 10
139.8250836443829
 20
278.5249499506485
 30
0.0
 10
140.8823149245965
 20
278.7481206823558
 30
0.0
 10
141.5424486848428
 20
279.0611151691433
 30
0.0
 10
141.6362766454227
 20
279.1509389242236
 30
0.0
 10
141.6362705799536
 20
279.2407626793037
 30
0.0
  0
SPLINE
  5
6887
330
A
100
AcDbEntity
  8
MODEL
390
1D
100
AcDbSpline
210
0.0
220
0.0
230
1.0
 70
     8
 71
     3
 72
    12
 73
     8
 74
     0
 42
0.000000001
 43
0.0
 40
0.0
 40
0.0
 40
0.0
 40
0.0
 40
0.3906589241213732
 40
0.3906589241213732
 40
0.8374679992932923
 40
0.8374679992932923
 40
1.0
 40
1.0
 40
1.0
 40
1.0
 10
134.4401784399058
 20
283.7420138598806
 30
0.0
 10
135.9106341662066
 20
283.9371388982666
 30
0.0
 10
137.3793789384233
 20
284.1322639366527
 30
0.0
 10
139.9590265587653
 20
284.550559706746
 30
0.0
 10
140.9773252027867
 20
284.7737304384534
 30
0.0
 10
141.5599216400909
 20
285.0780821209049
 30
0.0
 10
141.6366592788359
 20
285.159263071649
 30
0.0
 10
141.6365792001381
 20
285.2404440223931
 30
0.0
  0
SPLINE
  5
6888
330
A
100
AcDbEntity
  8
MODEL
390
1D
100
AcDbSpline
210
0.0
220
0.0
230
1.0
 70
     8
 71
     3
 72
    12
 73
     8
 74
     0
 42
0.000000001
 43
0.0
 40
0.0
 40
0.0
 40
0.0
 40
0.0
 40
0.4077717273781807
 40
0.4077717273781807
 40
0.8546171524391749
 40
0.8546171524391749
 40
1.0
 40
1.0
 40
1.0
 40
1.0
 10
134.4403833373818
 20
289.7420309803344
 30
0.0
 10
135.9752341598337
 20
289.9456868972683
 30
0.0
 10
137.5073373565289
 20
290.1493428142023
 30
0.0
 10
140.0890005670641
 20
290.5761694628436
 30
0.0
 10
141.0676342273044
 20
290.7993401945509
 30
0.0
 10
141.575777164313
 20
291.0951203671257
 30
0.0
 10
141.6371907334541
 20
291.1677298079931
 30
0.0
 10
141.6369704432248
 20
291.2403392488605
 30
0.0
  0
SPLINE
  5
6889
330
A
100
AcDbEntity
  8
MODEL
390
1D
100
AcDbSpline
210
0.0
220
0.0
230
1.0
 70
     8
 71
     3
 72
    12
 73
     8
 74
     0
 42
0.000000001
 43
0.0
 40
0.0
 40
0.0
 40
0.0
 40
0.0
 40
0.4249796051996793
 40
0.4249796051996793
 40
0.8719628334600084
 40
0.8719628334600084
 40
1.0
 40
1.0
 40
1.0
 40
1.0
 10
134.4406249502513
 20
295.7420543385095
 30
0.0
 10
136.0399729647731
 20
295.954239054751
 30
0.0
 10
137.6351619701605
 20
296.1664237709924
 30
0.0
 10
140.2149121936059
 20
296.6017792189411
 30
0.0
 10
141.1531770490339
 20
296.8249499506484
 30
0.0
 10
141.5897067030696
 20
297.1120473497023
 30
0.0
 10
141.6375438200392
 20
297.1759740170488
 30
0.0
 10
141.6374290678789
 20
297.2399006843953
 30
0.0
  0
SPLINE
  5
688A
330
A
100
AcDbEntity
  8
MODEL
390
1D
100
AcDbSpline
210
0.0
220
0.0
230
1.0
 70
     8
 71
     3
 72
    12
 73
     8
 74
     0
 42
0.000000001
 43
0.0
 40
0.0
 40
0.0
 40
0.0
 40
0.0
 40
0.44220904295616
 40
0.44220904295616
 40
0.8892805601490689
 40
0.8892805601490689
 40
0.9999999999999999
 40
0.9999999999999999
 40
0.9999999999999999
 40
0.9999999999999999
 10
134.4401607137957
 20
301.7419878491625
 30
0.0
 10
136.1043919727371
 20
301.9627313138855
 30
0.0
 10
137.762647814259
 20
302.1834747786084
 30
0.0
 10
140.3366708843311
 20
302.6273889750387
 30
0.0
 10
141.2338921466527
 20
302.850559706746
 30
0.0
 10
141.6019670546946
 20
303.1289997576909
 30
0.0
 10
141.6379510268761
 20
303.1842690769285
 30
0.0
 10
141.6379336386245
 20
303.239538396166
 30
0.0
  0
SPLINE
  5
688B
330
A
100
AcDbEntity
  8
MODEL
390
1D
100
AcDbSpline
210
0.0
220
0.0
230
1.0
 70
     8
 71
     3
 72
    14
 73
    10
 74
     0
 42
0.000000001
 43
0.0
 40
0.0
 40
0.0
 40
0.0
 40
0.0
 40
0.0122304068723726
 40
0.0122304068723726
 40
0.4592445091253071
 40
0.4592445091253071
 40
0.9062586113782297
 40
0.9062586113782297
 40
1.0
 40
1.0
 40
1.0
 40
1.0
 10
134.4402513012537
 20
307.7419977993245
 30
0.0
 10
134.4862807782053
 20
307.7481038009853
 30
0.0
 10
134.5323143330204
 20
307.7542098026461
 30
0.0
 10
136.260703007501
 20
307.9834865360144
 30
0.0
 10
137.9247045483669
 20
308.2066572677216
 30
0.0
 10
140.4541890719192
 20
308.6529987311363
 30
0.0
 10
141.3097214708772
 20
308.8761694628436
 30
0.0
 10
141.6127346477254
 20
309.1461403607751
 30
0.0
 10
141.6385682702235
 20
309.1929405269992
 30
0.0
 10
141.6384600269794
 20
309.2397406932234
 30
0.0
  0
LINE
  5
6899
330
A
100
AcDbEntity
  8
MODEL
390
1D
100
AcDbLine
 10
142.4361515223497
 20
282.2403380737872
 30
0.0
 11
142.4361515223497
 21
285.2403380737872
 31
0.0
  0
LINE
  5
689D
330
A
100
AcDbEntity
  8
MODEL
390
1D
100
AcDbLine
 10
126.4412148882498
 20
282.2439081071872
 30
0.0
 11
126.4412148882498
 21
279.2439081071872
 31
0.0
  0
LINE
  5
689F
330
A
100
AcDbEntity
  8
MODEL
390
1D
100
AcDbLine
 10
126.4422825011497
 20
294.2442220203872
 30
0.0
 11
126.4422825011497
 21
291.2442220203872
 31
0.0
  0
LINE
  5
68A1
330
A
100
AcDbEntity
  8
MODEL
390
1D
100
AcDbLine
 10
141.6379336442497
 20
303.2394848396872
 30
0.0
 11
141.6379336442497
 21
305.8122839821872
 31
0.0
  0
LINE
  5
68A2
330
A
100
AcDbEntity
  8
MODEL
390
1D
100
AcDbLine
 10
126.4434471450497
 20
306.2440390185872
 30
0.0
 11
126.4434471450497
 21
303.2440390185872
 31
0.0
  0
LINE
  5
68A4
330
A
100
AcDbEntity
  8
MODEL
390
1D
100
AcDbLine
 10
141.6369705005497
 20
291.2403198760872
 30
0.0
 11
141.6369705005497
 21
293.8135114479872
 31
0.0
  0
LINE
  5
68A6
330
A
100
AcDbEntity
  8
MODEL
390
1D
100
AcDbLine
 10
141.6362705687497
 20
279.2406995240872
 30
0.0
 11
141.6362705687497
 21
281.8122817805872
 31
0.0
  0
SPLINE
  5
68B4
330
A
100
AcDbEntity
  8
MODEL
390
1D
100
AcDbSpline
210
0.0
220
0.0
230
1.0
 70
     8
 71
     3
 72
    12
 73
     8
 74
     0
 42
0.000000001
 43
0.0
 40
0.0
 40
0.0
 40
0.0
 40
0.0
 40
0.3945723764507078
 40
0.3945723764507078
 40
0.8002439253062616
 40
0.8002439253062616
 40
1.0
 40
1.0
 40
1.0
 40
1.0
 10
134.44025000584
 20
304.7419979525825
 30
0.0
 10
132.7812023898366
 20
304.5249331714501
 30
0.0
 10
131.1273797088514
 20
304.3078683903175
 30
0.0
 10
128.5146803847617
 20
303.8676328774778
 30
0.0
 10
127.5870814314101
 20
303.6444621457704
 30
0.0
 10
127.1119053496217
 20
303.3114002731189
 30
0.0
 10
127.1034432747879
 20
303.2015091321745
 30
0.0
 10
127.2352835569453
 20
303.0916179912302
 30
0.0
  0
SPLINE
  5
68B5
330
A
100
AcDbEntity
  8
MODEL
390
1D
100
AcDbSpline
210
0.0
220
0.0
230
1.0
 70
     8
 71
     3
 72
    14
 73
    10
 74
     0
 42
0.000000001
 43
0.0
 40
0.0
 40
0.0
 40
0.0
 40
0.0
 40
0.0043978426866684
 40
0.0043978426866684
 40
0.4087103469810853
 40
0.4087103469810853
 40
0.8130228512755235
 40
0.8130228512755235
 40
1.0
 40
1.0
 40
1.0
 40
1.0
 10
134.440162398457
 20
298.7419885568623
 30
0.0
 10
134.4216067585846
 20
298.739561053978
 30
0.0
 10
134.4030503860037
 20
298.7371335510938
 30
0.0
 10
132.6785058061985
 20
298.5115353165021
 30
0.0
 10
130.9839900873465
 20
298.2883645847949
 30
0.0
 10
128.3936767259821
 20
297.8420231213802
 30
0.0
 10
127.5080689580251
 20
297.6188523896729
 30
0.0
 10
127.1083254999909
 20
297.2924747903813
 30
0.0
 10
127.1133230792999
 20
297.189267922797
 30
0.0
 10
127.2420026992421
 20
297.0860610552127
 30
0.0
  0
SPLINE
  5
68B6
330
A
100
AcDbEntity
  8
MODEL
390
1D
100
AcDbSpline
210
0.0
220
0.0
230
1.0
 70
     8
 71
     3
 72
    14
 73
    10
 74
     0
 42
0.000000001
 43
0.0
 40
0.0
 40
0.0
 40
0.0
 40
0.0
 40
0.0199616479392845
 40
0.0199616479392845
 40
0.4254646194432735
 40
0.4254646194432735
 40
0.8309675909472624
 40
0.8309675909472624
 40
1.0
 40
1.0
 40
1.0
 40
1.0
 10
134.4406273146009
 20
292.742054291607
 30
0.0
 10
134.3566699439277
 20
292.7310682917753
 30
0.0
 10
134.2727012693456
 20
292.7200822919436
 30
0.0
 10
132.483744272843
 20
292.4859255604046
 30
0.0
 10
130.8068488419486
 20
292.2627548286973
 30
0.0
 10
128.2770218153902
 20
291.8164133652827
 30
0.0
 10
127.4340421508061
 20
291.5932426335754
 30
0.0
 10
127.1108853907724
 20
291.2770440104308
 30
0.0
 10
127.1229673490261
 20
291.1840161189936
 30
0.0
 10
127.2357630860017
 20
291.0909882275564
 30
0.0
  0
SPLINE
  5
68B7
330
A
100
AcDbEntity
  8
MODEL
390
1D
100
AcDbSpline
210
0.0
220
0.0
230
1.0
 70
     8
 71
     3
 72
    14
 73
    10
 74
     0
 42
0.000000001
 43
0.0
 40
0.0
 40
0.0
 40
0.0
 40
0.0
 40
0.0355039592010494
 40
0.0355039592010494
 40
0.4415316177679535
 40
0.4415316177679535
 40
0.8475592763348468
 40
0.8475592763348468
 40
1.0
 40
1.0
 40
1.0
 40
1.0
 10
134.4403764942658
 20
286.7420301676087
 30
0.0
 10
134.2912626698123
 20
286.7225156237438
 30
0.0
 10
134.1421232708017
 20
286.7030010798791
 30
0.0
 10
132.2903899624906
 20
286.4603158043071
 30
0.0
 10
130.6323208216762
 20
286.2371450725997
 30
0.0
 10
128.1647995497319
 20
285.7908036091851
 30
0.0
 10
127.3650542489027
 20
285.5676328774778
 30
0.0
 10
127.1138121199194
 20
285.26067399212
 30
0.0
 10
127.1324180661368
 20
285.1768858384696
 30
0.0
 10
127.2329294745981
 20
285.093097684819
 30
0.0
  0
SPLINE
  5
68B8
330
A
100
AcDbEntity
  8
MODEL
390
1D
100
AcDbSpline
210
0.0
220
0.0
230
1.0
 70
     8
 71
     3
 72
    14
 73
    10
 74
     0
 42
0.000000001
 43
0.0
 40
0.0
 40
0.0
 40
0.0
 40
0.0
 40
0.0509503024229068
 40
0.0509503024229068
 40
0.4563879768027366
 40
0.4563879768027366
 40
0.8618256511825556
 40
0.8618256511825556
 40
0.9999999999999999
 40
0.9999999999999999
 40
0.9999999999999999
 40
0.9999999999999999
 10
134.4401656663817
 20
280.742012643387
 30
0.0
 10
134.2258819259131
 20
280.7139673555636
 30
0.0
 10
134.0115623606754
 20
280.6859220677403
 30
0.0
 10
132.0985819331319
 20
280.4347060482095
 30
0.0
 10
130.4605315448884
 20
280.2115353165022
 30
0.0
 10
128.0570906378505
 20
279.7651938530876
 30
0.0
 10
127.301154867547
 20
279.5420231213802
 30
0.0
 10
127.117314726705
 20
279.2427951496151
 30
0.0
 10
127.1425861603348
 20
279.1667379095574
 30
0.0
 10
127.2354826944941
 20
279.0906806694996
 30
0.0
  0
LINE
  5
68BB
330
A
100
AcDbEntity
  8
MODEL
390
1D
100
AcDbLine
 10
142.4382416385498
 20
306.2394513647872
 30
0.0
 11
142.4382416385498
 21
309.2394513647872
 31
0.0
  0
SPLINE
  5
68BC
330
A
100
AcDbEntity
  8
MODEL
390
1D
100
AcDbSpline
210
0.0
220
0.0
230
1.0
 70
     8
 71
     3
 72
     8
 73
     4
 74
     0
 42
0.000000001
 43
0.0
 40
0.0
 40
0.0
 40
0.0
 40
0.0
 40
1.0
 40
1.0
 40
1.0
 40
1.0
 10
142.2362584519233
 20
290.7402765009251
 30
0.0
 10
142.2363052632541
 20
290.8772991276371
 30
0.0
 10
141.9992654889101
 20
291.0143217543492
 30
0.0
 10
141.5347394907495
 20
291.1513443810613
 30
0.0
  0
SPLINE
  5
68BD
330
A
100
AcDbEntity
  8
MODEL
390
1D
100
AcDbSpline
210
0.0
220
0.0
230
1.0
 70
     8
 71
     3
 72
     8
 73
     4
 74
     0
 42
0.000000001
 43
0.0
 40
0.0
 40
0.0
 40
0.0
 40
0.0
 40
1.0
 40
1.0
 40
1.0
 40
1.0
 10
142.2371785741555
 20
302.7400862958016
 30
0.0
 10
142.2366976672379
 20
302.8768014755253
 30
0.0
 10
141.9986286931102
 20
303.0135166552489
 30
0.0
 10
141.5379242810295
 20
303.1502318349725
 30
0.0
  0
SPLINE
  5
68BE
330
A
100
AcDbEntity
  8
MODEL
390
1D
100
AcDbSpline
210
0.0
220
0.0
230
1.0
 70
     8
 71
     3
 72
     8
 73
     4
 74
     0
 42
0.000000001
 43
0.0
 40
0.0
 40
0.0
 40
0.0
 40
0.0
 40
1.0
 40
1.0
 40
1.0
 40
1.0
 10
142.237725700008
 20
308.7394601697124
 30
0.0
 10
142.2377702204563
 20
308.8764352615889
 30
0.0
 10
141.9982614653487
 20
309.0134103534655
 30
0.0
 10
141.5369461105136
 20
309.1503854453421
 30
0.0
  0
LINE
  5
68C7
330
A
100
AcDbEntity
  8
MODEL
390
1D
100
AcDbLine
 10
142.4370959809498
 20
294.2396736772872
 30
0.0
 11
142.4370959809498
 21
297.2396736772872
 31
0.0
  0
SPLINE
  5
68C8
330
A
100
AcDbEntity
  8
MODEL
390
1D
100
AcDbSpline
210
0.0
220
0.0
230
1.0
 70
     8
 71
     3
 72
    12
 73
     8
 74
     0
 42
0.000000001
 43
0.0
 40
0.0
 40
0.0
 40
0.0
 40
0.0
 40
0.0598288023107923
 40
0.0598288023107923
 40
0.7300800248051434
 40
0.7300800248051434
 40
1.0
 40
1.0
 40
1.0
 40
1.0
 10
138.4402275474844
 20
275.2420163846154
 30
0.0
 10
138.5848481324965
 20
275.2619373293907
 30
0.0
 10
138.7268299998049
 20
275.2818582741659
 30
0.0
 10
140.4233786149323
 20
275.5249499506485
 30
0.0
 10
141.5980800373919
 20
275.7481206823558
 30
0.0
 10
142.3316800185746
 20
276.0611655334157
 30
0.0
 10
142.4359321592074
 20
276.1510396527682
 30
0.0
 10
142.4358084336745
 20
276.2409137721208
 30
0.0
  0
SPLINE
  5
68C9
330
A
100
AcDbEntity
  8
MODEL
390
1D
100
AcDbSpline
210
0.0
220
0.0
230
1.0
 70
     8
 71
     3
 72
    18
 73
    14
 74
     0
 42
0.000000001
 43
0.0
 40
0.0
 40
0.0
 40
0.0
 40
0.0
 40
0.1475163710173632
 40
0.1475163710173632
 40
0.3428761847242035
 40
0.3428761847242035
 40
0.538235998431047
 40
0.538235998431047
 40
0.7335958121378892
 40
0.7335958121378892
 40
0.9289556258447313
 40
0.9289556258447313
 40
1.0
 40
1.0
 40
1.0
 40
1.0
 10
127.2358219022468
 20
278.8133031290432
 30
0.0
 10
126.6267320649316
 20
278.9818195492531
 30
0.0
 10
126.352846009896
 20
279.150335969463
 30
0.0
 10
126.6165669457218
 20
279.5420231213802
 30
0.0
 10
127.4449897076982
 20
279.7651938530876
 30
0.0
 10
130.0788975510274
 20
280.2115353165022
 30
0.0
 10
131.8740212641709
 20
280.4347060482095
 30
0.0
 10
135.5987749319489
 20
280.8810475116241
 30
0.0
 10
137.5137523070187
 20
281.1042182433314
 30
0.0
 10
140.5722040753571
 20
281.5505597067461
 30
0.0
 10
141.7036470131587
 20
281.7737304384534
 30
0.0
 10
142.3509277174624
 20
282.0780592377442
 30
0.0
 10
142.4361923558538
 20
282.1592173053277
 30
0.0
 10
142.4361515095564
 20
282.2403753729112
 30
0.0
  0
SPLINE
  5
68CA
330
A
100
AcDbEntity
  8
MODEL
390
1D
100
AcDbSpline
210
0.0
220
0.0
230
1.0
 70
     8
 71
     3
 72
    18
 73
    14
 74
     0
 42
0.000000001
 43
0.0
 40
0.0
 40
0.0
 40
0.0
 40
0.0
 40
0.1548197377310696
 40
0.1548197377310696
 40
0.3502180914357188
 40
0.3502180914357188
 40
0.5456164451403666
 40
0.5456164451403666
 40
0.7410147988450138
 40
0.7410147988450138
 40
0.9364131525496622
 40
0.9364131525496622
 40
1.0
 40
1.0
 40
1.0
 40
1.0
 10
127.2328031811685
 20
284.813988370064
 30
0.0
 10
126.5947331987724
 20
284.9908129619661
 30
0.0
 10
126.3278086495706
 20
285.1676375538684
 30
0.0
 10
126.6865936650157
 20
285.5676328774778
 30
0.0
 10
127.5630268714039
 20
285.7908036091851
 30
0.0
 10
130.2671597721647
 20
286.2371450725997
 30
0.0
 10
132.0842218442901
 20
286.4603158043071
 30
0.0
 10
135.8164601956717
 20
286.9066572677217
 30
0.0
 10
137.7169544518263
 20
287.129827999429
 30
0.0
 10
140.7166196401336
 20
287.5761694628437
 30
0.0
 10
141.8039903737338
 20
287.799340194551
 30
0.0
 10
142.3686225346202
 20
288.0951355057566
 30
0.0
 10
142.4368593871951
 20
288.1677600852548
 30
0.0
 10
142.436586007173
 20
288.2403846647531
 30
0.0
  0
SPLINE
  5
68CB
330
A
100
AcDbEntity
  8
MODEL
390
1D
100
AcDbSpline
210
0.0
220
0.0
230
1.0
 70
     8
 71
     3
 72
    18
 73
    14
 74
     0
 42
0.000000001
 43
0.0
 40
0.0
 40
0.0
 40
0.0
 40
0.0
 40
0.1625228552784887
 40
0.1625228552784887
 40
0.3579114330761165
 40
0.3579114330761165
 40
0.553300010873748
 40
0.553300010873748
 40
0.7486885886713758
 40
0.7486885886713758
 40
0.9440771664690022
 40
0.9440771664690022
 40
1.0
 40
1.0
 40
1.0
 40
1.0
 10
127.2351880908757
 20
290.8131763308911
 30
0.0
 10
126.5640177604148
 20
290.9988081878834
 30
0.0
 10
126.304335442029
 20
291.1844400448757
 30
0.0
 10
126.7621968451838
 20
291.5932426335754
 30
0.0
 10
127.6860101762348
 20
291.8164133652827
 30
0.0
 10
130.4584233560249
 20
292.2627548286973
 30
0.0
 10
132.2961169789228
 20
292.4859255604046
 30
0.0
 10
136.0331558349845
 20
292.9322670238193
 30
0.0
 10
137.9178001606363
 20
293.1554377555265
 30
0.0
 10
140.8565214474023
 20
293.6017792189412
 30
0.0
 10
141.8990379534333
 20
293.8249499506485
 30
0.0
 10
142.3839826994513
 20
294.1119951412364
 30
0.0
 10
142.4371363996526
 20
294.1758696001169
 30
0.0
 10
142.4370959579292
 20
294.2397440589974
 30
0.0
  0
SPLINE
  5
68CC
330
A
100
AcDbEntity
  8
MODEL
390
1D
100
AcDbSpline
210
0.0
220
0.0
230
1.0
 70
     8
 71
     3
 72
    18
 73
    14
 74
     0
 42
0.000000001
 43
0.0
 40
0.0
 40
0.0
 40
0.0
 40
0.0
 40
0.1704631713719853
 40
0.1704631713719853
 40
0.3657205261984892
 40
0.3657205261984892
 40
0.5609778810249892
 40
0.5609778810249892
 40
0.7562352358514944
 40
0.7562352358514944
 40
0.9514925906779983
 40
0.9514925906779983
 40
1.0
 40
1.0
 40
1.0
 40
1.0
 10
127.2418878488627
 20
296.8111855084908
 30
0.0
 10
126.5339464209354
 20
297.0060175583158
 30
0.0
 10
126.2822646807401
 20
297.2008496081407
 30
0.0
 10
126.843322113369
 20
297.6188523896729
 30
0.0
 10
127.8138511741437
 20
297.8420231213802
 30
0.0
 10
130.6525507482418
 20
298.2883645847949
 30
0.0
 10
132.5095542757508
 20
298.5115353165021
 30
0.0
 10
136.2487060051063
 20
298.9578767799168
 30
0.0
 10
138.1161449877384
 20
299.1810475116241
 30
0.0
 10
140.9918088815413
 20
299.6273889750387
 30
0.0
 10
141.9887213952321
 20
299.8505597067461
 30
0.0
 10
142.3979469660915
 20
300.1291723143368
 30
0.0
 10
142.4379249622586
 20
300.1846141902203
 30
0.0
 10
142.4376550356389
 20
300.2400560661037
 30
0.0
  0
SPLINE
  5
68CD
330
A
100
AcDbEntity
  8
MODEL
390
1D
100
AcDbSpline
210
0.0
220
0.0
230
1.0
 70
     8
 71
     3
 72
    18
 73
    14
 74
     0
 42
0.000000001
 43
0.0
 40
0.0
 40
0.0
 40
0.0
 40
0.0
 40
0.1775637018167084
 40
0.1775637018167084
 40
0.3729498175599331
 40
0.3729498175599331
 40
0.5683359333031539
 40
0.5683359333031539
 40
0.7637220490463785
 40
0.7637220490463785
 40
0.9591081647895994
 40
0.9591081647895994
 40
1.0
 40
1.0
 40
1.0
 40
1.0
 10
127.2354026905946
 20
302.8128496968763
 30
0.0
 10
126.5004336993587
 20
303.0156636026052
 30
0.0
 10
126.2638858410515
 20
303.2184775083342
 30
0.0
 10
126.9299111252978
 20
303.6444621457704
 30
0.0
 10
127.9464579234913
 20
303.8676328774778
 30
0.0
 10
130.8494023348343
 20
304.3139743408925
 30
0.0
 10
132.7243802333523
 20
304.5371450725997
 30
0.0
 10
136.4629556850634
 20
304.9834865360144
 30
0.0
 10
138.3118462860256
 20
305.2066572677217
 30
0.0
 10
141.1223846455281
 20
305.6529987311363
 30
0.0
 10
142.0729761999258
 20
305.8761694628436
 30
0.0
 10
142.4095410738449
 20
306.1460469973862
 30
0.0
 10
142.4382468890404
 20
306.1927538002214
 30
0.0
 10
142.4382416379074
 20
306.2394606030567
 30
0.0
  0
LINE
  5
68DB
330
A
100
AcDbEntity
  8
MODEL
390
1D
100
AcDbLine
 10
127.2407683879497
 20
279.3931354626872
 30
0.0
 11
127.2407683879497
 21
277.5926914698872
 31
0.0
  0
LINE
  5
68DC
330
A
100
AcDbEntity
  8
MODEL
390
1D
100
AcDbLine
 10
127.2407683879497
 20
276.8913665572872
 30
0.0
 11
127.2407683879497
 21
276.6700586002872
 31
0.0
  0
LINE
  5
68E0
330
A
100
AcDbEntity
  8
MODEL
390
1D
100
AcDbLine
 10
127.2426245555498
 20
303.3956398104872
 30
0.0
 11
127.2426245555498
 21
300.6701543341872
 31
0.0
  0
LINE
  5
68E2
330
A
100
AcDbEntity
  8
MODEL
390
1D
100
AcDbLine
 10
127.2415904307497
 20
291.3983926634872
 30
0.0
 11
127.2415904307497
 21
288.6703038943872
 31
0.0
  0
LINE
  5
68E8
330
A
100
AcDbEntity
  8
MODEL
390
1D
100
AcDbLine
 10
142.4376551986498
 20
300.2400215070872
 30
0.0
 11
142.4376551986498
 21
303.2400215070872
 31
0.0
  0
SPLINE
  5
68EB
330
A
100
AcDbEntity
  8
MODEL
390
1D
100
AcDbSpline
210
0.0
220
0.0
230
1.0
 70
    12
 71
     2
 72
    10
 73
     7
 74
     0
 42
0.000000001
 43
0.0
 40
0.0
 40
0.0
 40
0.0
 40
0.2549250643780597
 40
0.2549250643780597
 40
0.6274625321890299
 40
0.6274625321890299
 40
1.0
 40
1.0
 40
1.0
 10
141.2595686465938
 20
278.6891013807627
 30
0.0
 41
0.9421133791115934
 10
140.3891739126899
 20
278.4428328439035
 30
0.0
 41
0.9083220198871208
 10
138.040428909439
 20
278.2253564547136
 30
0.0
 41
1.0
 10
134.4404289094389
 20
277.8920231213803
 30
0.0
 41
0.8660254037844387
 10
130.840428909439
 20
277.5586897880469
 30
0.0
 41
1.0
 10
127.240428909439
 20
277.2253564547136
 30
0.0
 41
0.8660254037844387
 10
127.2404289094389
 20
276.8920231213802
 30
0.0
 41
1.0
  0
LINE
  5
68EC
330
A
100
AcDbEntity
  8
MODEL
390
1D
100
AcDbLine
 10
127.2404289094497
 20
277.5920231213872
 30
0.0
 11
127.2404289094497
 21
276.8920231213872
 31
0.0
  0
LINE
  5
68ED
330
A
100
AcDbEntity
  8
MODEL
390
1D
100
AcDbLine
 10
141.6404289094498
 20
275.2420231213872
 30
0.0
 11
141.6404289094498
 21
275.5920231213872
 31
0.0
  0
SPLINE
  5
68EE
330
A
100
AcDbEntity
  8
MODEL
390
1D
100
AcDbSpline
210
0.0
220
0.0
230
1.0
 70
    12
 71
     2
 72
     6
 73
     3
 74
     0
 42
0.000000001
 43
0.0
 40
0.0
 40
0.0
 40
0.0
 40
0.9999999999999999
 40
0.9999999999999999
 40
0.9999999999999999
 10
127.6211545119477
 20
277.7949067582937
 30
0.0
 41
0.9421188028123799
 10
127.240428909439
 20
277.68716739303
 30
0.0
 41
0.9577107402138824
 10
127.2404289094389
 20
277.5920231213802
 30
0.0
 41
1.0
  0
SPLINE
  5
68EF
330
A
100
AcDbEntity
  8
MODEL
390
1D
100
AcDbSpline
210
0.0
220
0.0
230
1.0
 70
    12
 71
     2
 72
     6
 73
     3
 74
     0
 42
0.000000001
 43
0.0
 40
0.0
 40
0.0
 40
0.0
 40
1.0
 40
1.0
 40
1.0
 10
141.640428909439
 20
275.5920231213802
 30
0.0
 41
1.0
 10
141.640428909439
 20
275.4295546433519
 30
0.0
 41
0.9298849255803483
 10
140.5837942412395
 20
275.2420109250885
 30
0.0
 41
0.9331587442753793
  0
LINE
  5
68F2
330
A
100
AcDbEntity
  8
MODEL
390
1D
100
AcDbLine
 10
142.9404289094497
 20
275.2420231213872
 30
0.0
 11
125.9404289094497
 21
275.2420231213872
 31
0.0
  0
CIRCLE
  5
6902
330
A
100
AcDbEntity
  8
MODEL
  6
CENTER
 48
0.015
390
1D
100
AcDbCircle
 10
209.4404289094497
 20
350.5420231213872
 30
0.0
 40
75.0
  0
LINE
  5
6903
330
A
100
AcDbEntity
  8
MODEL
390
1D
100
AcDbLine
 10
284.4404289094497
 20
350.5420231213872
 30
0.0
 11
284.4682111445222
 21
307.7419977993245
 31
0.0
  0
LINE
  5
6904
330
A
100
AcDbEntity
  8
MODEL
390
1D
100
AcDbLine
 10
134.4404289094497
 20
350.5420231213872
 30
0.0
 11
134.4404289094497
 21
307.7420049468872
 31
0.0
  0
LINE
  5
6905
330
A
100
AcDbEntity
  8
MODEL
390
1D
100
AcDbLine
 10
142.9404289094497
 20
274.2420231213872
 30
0.0
 11
142.9404289094497
 21
275.2420231213872
 31
0.0
  0
LINE
  5
6906
330
A
100
AcDbEntity
  8
MODEL
390
1D
100
AcDbLine
 10
125.9404289094497
 20
275.2420231213872
 30
0.0
 11
125.9404289094497
 21
274.2420231213872
 31
0.0
  0
LINE
  5
690A
330
A
100
AcDbEntity
  8
MODEL
390
1D
100
AcDbLine
 10
121.6904289094497
 20
235.2420231213872
 30
0.0
 11
147.1904289094497
 21
235.2420231213872
 31
0.0
  0
ARC
  5
690B
330
A
100
AcDbEntity
  8
MODEL
390
1D
100
AcDbCircle
 10
122.0038129978498
 20
235.5420231213872
 30
0.0
 40
0.3
100
AcDbArc
 50
177.4999999999928
 51
270.0
  0
ARC
  5
690C
330
A
100
AcDbEntity
  8
MODEL
390
1D
100
AcDbCircle
 10
146.8770448210498
 20
235.5420231213872
 30
0.0
 40
0.3
100
AcDbArc
 50
270.0
 51
2.500000000007149
  0
LINE
  5
690D
330
A
100
AcDbEntity
  8
MODEL
390
1D
100
AcDbLine
 10
121.7040985313498
 20
235.5551089375872
 30
0.0
 11
147.1767592874498
 21
235.5551089375872
 31
0.0
  0
LINE
  5
690F
330
A
100
AcDbEntity
  8
MODEL
390
1D
100
AcDbLine
 10
122.4209350693393
 20
273.7424990105872
 30
0.0
 11
146.4599227494602
 21
273.7424990105872
 31
0.0
  0
LINE
  5
6910
330
A
100
AcDbEntity
  8
MODEL
390
1D
100
AcDbLine
 10
146.4599227494602
 20
273.7424990105872
 30
0.0
 11
145.9381130558601
 21
274.2420231213872
 31
0.0
  0
LINE
  5
6911
330
A
100
AcDbEntity
  8
MODEL
390
1D
100
AcDbLine
 10
122.9427447630393
 20
274.2420231213872
 30
0.0
 11
122.4209350693393
 21
273.7424990105872
 31
0.0
  0
DIMENSION
  5
6B68
330
A
100
AcDbEntity
  8
DIM
 48
0.05
100
AcDbDimension
  2
*D31
 10
143.9404289094497
 20
199.993930177084
 30
0.0
 11
134.4404289094497
 21
199.993930177084
 31
0.0
 70
   160
  1
G1/2"
 71
     5
 42
19.0
 73
     0
 74
     0
 75
     0
  3
tfrom線あり
100
AcDbAlignedDimension
 13
124.9404289094497
 23
222.7420231213872
 33
0.0
 14
143.9404289094497
 24
222.7420231213872
 34
0.0
100
AcDbRotatedDimension
  0
LINE
  5
6BC9
330
A
100
AcDbEntity
  8
MODEL
 48
0.05
100
AcDbLine
 10
122.9427447630393
 20
274.2420231213872
 30
0.0
 11
145.9381130558601
 21
274.2420231213872
 31
0.0
  0
LINE
  5
6BCC
330
A
100
AcDbEntity
  8
MODEL
 48
0.05
100
AcDbLine
 10
147.1767592874498
 20
235.5551089375872
 30
0.0
 11
146.4599227494602
 21
273.7424990105872
 31
0.0
  0
LINE
  5
6BCD
330
A
100
AcDbEntity
  8
MODEL
 48
0.05
100
AcDbLine
 10
121.7040985313753
 20
235.5551089375968
 30
0.0
 11
122.4209350693393
 21
273.7424990105872
 31
0.0
  0
LINE
  5
6BCF
330
A
100
AcDbEntity
  8
MODEL
390
1D
100
AcDbLine
 10
276.4687680165183
 20
276.2427695490872
 30
0.0
 11
276.4687680165183
 21
275.2420231213872
 31
0.0
  0
LINE
  5
6BD0
330
A
100
AcDbEntity
  8
MODEL
390
1D
100
AcDbLine
 10
292.4645459219183
 20
288.2403652308872
 30
0.0
 11
292.4645459219183
 21
291.2403652308872
 31
0.0
  0
LINE
  5
6BD1
330
A
100
AcDbEntity
  8
MODEL
390
1D
100
AcDbLine
 10
292.4637683302182
 20
276.2408687214872
 30
0.0
 11
292.4637683302182
 21
279.2408687214872
 31
0.0
  0
LINE
  5
6BD2
330
A
100
AcDbEntity
  8
MODEL
390
1D
100
AcDbLine
 10
276.4696803395182
 20
288.2438794797872
 30
0.0
 11
276.4696803395182
 21
285.2438794797872
 31
0.0
  0
LINE
  5
6BD3
330
A
100
AcDbEntity
  8
MODEL
390
1D
100
AcDbLine
 10
276.4708280433183
 20
300.2445710647872
 30
0.0
 11
276.4708280433183
 21
297.2445710647872
 31
0.0
  0
LINE
  5
6BD4
330
A
100
AcDbEntity
  8
MODEL
390
1D
100
AcDbLine
 10
291.6653890385182
 20
297.2398129468872
 30
0.0
 11
291.6653890385182
 21
299.8135497995872
 31
0.0
  0
LINE
  5
6BD5
330
A
100
AcDbEntity
  8
MODEL
390
1D
100
AcDbLine
 10
291.6645390873183
 20
285.2403864513872
 30
0.0
 11
291.6645390873183
 21
287.8118896243872
 31
0.0
  0
LINE
  5
6BD6
330
A
100
AcDbEntity
  8
MODEL
390
1D
100
AcDbLine
 10
277.2700583834183
 20
297.3952139519872
 30
0.0
 11
277.2700583834183
 21
294.6713179719872
 31
0.0
  0
LINE
  5
6BD7
330
A
100
AcDbEntity
  8
MODEL
390
1D
100
AcDbLine
 10
277.2690960352182
 20
285.3962694856872
 30
0.0
 11
277.2690960352182
 21
282.6694289614872
 31
0.0
  0
SPLINE
  5
6BD8
330
A
100
AcDbEntity
  8
MODEL
390
1D
100
AcDbSpline
210
0.0
220
0.0
230
1.0
 70
     8
 71
     3
 72
    20
 73
    16
 74
     0
 42
0.000000001
 43
0.0
 40
0.0
 40
0.0
 40
0.0
 40
0.0
 40
0.0147122720287422
 40
0.0147122720287422
 40
0.2098963628116255
 40
0.2098963628116255
 40
0.4050804535945069
 40
0.4050804535945069
 40
0.6002645443773896
 40
0.6002645443773896
 40
0.7954486351602716
 40
0.7954486351602716
 40
0.9906327259431538
 40
0.9906327259431538
 40
1.0
 40
1.0
 40
1.0
 40
1.0
 10
276.468767961898
 20
276.2427772216573
 30
0.0
 10
276.4686488489178
 20
276.2595990256299
 30
0.0
 10
276.4723384652521
 20
276.2764208296026
 30
0.0
 10
276.5801268929072
 20
276.5164133652826
 30
0.0
 10
277.3599434192313
 20
276.73958409699
 30
0.0
 10
279.9217319317052
 20
277.1859255604045
 30
0.0
 10
281.6936262554497
 20
277.4090962921119
 30
0.0
 10
285.4082164435908
 20
277.8554377555266
 30
0.0
 10
287.3362997099109
 20
278.0786084872339
 30
0.0
 10
290.4513384582008
 20
278.5249499506485
 30
0.0
 10
291.6260398806604
 20
278.7481206823558
 30
0.0
 10
292.672011689663
 20
279.1944621457704
 30
0.0
 10
292.5391673919822
 20
279.4176328774777
 30
0.0
 10
291.7445112288721
 20
279.6515140179944
 30
0.0
 10
291.7066938054467
 20
279.6622244268038
 30
0.0
 10
291.6674844927001
 20
279.6729348356131
 30
0.0
  0
SPLINE
  5
6BD9
330
A
100
AcDbEntity
  8
MODEL
390
1D
100
AcDbSpline
210
0.0
220
0.0
230
1.0
 70
     8
 71
     3
 72
    20
 73
    16
 74
     0
 42
0.000000001
 43
0.0
 40
0.0
 40
0.0
 40
0.0
 40
0.0
 40
0.0218736732587529
 40
0.0218736732587529
 40
0.217147432195722
 40
0.217147432195722
 40
0.4124211911326937
 40
0.4124211911326937
 40
0.6076949500696641
 40
0.6076949500696641
 40
0.8029687090066345
 40
0.8029687090066345
 40
0.9982424679436055
 40
0.9982424679436055
 40
1.0
 40
1.0
 40
1.0
 40
1.0
 10
276.4691748153631
 20
282.2438566960448
 30
0.0
 10
276.4691283340289
 20
282.2688552605875
 30
0.0
 10
276.4774356839338
 20
282.2938538251302
 30
0.0
 10
276.6445267889903
 20
282.5420231213802
 30
0.0
 10
277.4729495509667
 20
282.7651938530875
 30
0.0
 10
280.106857394296
 20
283.2115353165021
 30
0.0
 10
281.9019811074394
 20
283.4347060482094
 30
0.0
 10
285.6267347752174
 20
283.8810475116241
 30
0.0
 10
287.5417121502873
 20
284.1042182433314
 30
0.0
 10
290.6001639186256
 20
284.550559706746
 30
0.0
 10
291.7316068564272
 20
284.7737304384534
 30
0.0
 10
292.680936060473
 20
285.220071901868
 30
0.0
 10
292.4950878188984
 20
285.4432426335753
 30
0.0
 10
291.6840340741948
 20
285.6684219798408
 30
0.0
 10
291.6767498742967
 20
285.670430594399
 30
0.0
 10
291.6694163634036
 20
285.6724392089571
 30
0.0
  0
SPLINE
  5
6BDA
330
A
100
AcDbEntity
  8
MODEL
390
1D
100
AcDbSpline
210
0.0
220
0.0
230
1.0
 70
     8
 71
     3
 72
    18
 73
    14
 74
     0
 42
0.000000001
 43
0.0
 40
0.0
 40
0.0
 40
0.0
 40
0.0
 40
0.0293517748406857
 40
0.0293517748406857
 40
0.2246893754768011
 40
0.2246893754768011
 40
0.4200269761129165
 40
0.4200269761129165
 40
0.6153645767490306
 40
0.6153645767490306
 40
0.8107021773851446
 40
0.8107021773851446
 40
0.9999999999999999
 40
0.9999999999999999
 40
0.9999999999999999
 40
0.9999999999999999
 10
276.4696804298691
 20
288.243860054108
 30
0.0
 10
276.4695215940609
 20
288.2773940846621
 30
0.0
 10
276.4842962611201
 20
288.3109281152163
 30
0.0
 10
276.7145535082842
 20
288.5676328774777
 30
0.0
 10
277.5909867146725
 20
288.790803609185
 30
0.0
 10
280.2951196154332
 20
289.2371450725997
 30
0.0
 10
282.1121816875586
 20
289.460315804307
 30
0.0
 10
285.8444200389403
 20
289.9066572677216
 30
0.0
 10
287.7449142950948
 20
290.129827999429
 30
0.0
 10
290.7445794834021
 20
290.5761694628436
 30
0.0
 10
291.8319502170023
 20
290.7993401945509
 30
0.0
 10
292.6707822230212
 20
291.2387812881649
 30
0.0
 10
292.459362259403
 20
291.4550516500717
 30
0.0
 10
291.6734229800417
 20
291.6713220119784
 30
0.0
  0
SPLINE
  5
6BDB
330
A
100
AcDbEntity
  8
MODEL
390
1D
100
AcDbSpline
210
0.0
220
0.0
230
1.0
 70
     8
 71
     3
 72
    18
 73
    14
 74
     0
 42
0.000000001
 43
0.0
 40
0.0
 40
0.0
 40
0.0
 40
0.0
 40
0.0367208966517774
 40
0.0367208966517774
 40
0.2320627953392488
 40
0.2320627953392488
 40
0.4274046940267227
 40
0.4274046940267227
 40
0.6227465927141954
 40
0.6227465927141954
 40
0.8180884914016642
 40
0.8180884914016642
 40
1.0
 40
1.0
 40
1.0
 40
1.0
 10
276.4702423652902
 20
294.2442151947849
 30
0.0
 10
276.4701126229254
 20
294.2861674304792
 30
0.0
 10
276.4932173411521
 20
294.3281196661736
 30
0.0
 10
276.7901566884523
 20
294.5932426335754
 30
0.0
 10
277.7139700195033
 20
294.8164133652826
 30
0.0
 10
280.4863831992934
 20
295.2627548286973
 30
0.0
 10
282.3240768221913
 20
295.4859255604046
 30
0.0
 10
286.061115678253
 20
295.9322670238192
 30
0.0
 10
287.9457600039048
 20
296.1554377555265
 30
0.0
 10
290.8844812906708
 20
296.6017792189411
 30
0.0
 10
291.9269977967018
 20
296.8249499506484
 30
0.0
 10
292.6551413140966
 20
297.2559477013038
 30
0.0
 10
292.4265584014472
 20
297.4637747202519
 30
0.0
 10
291.6721546372954
 20
297.6716017392
 30
0.0
  0
SPLINE
  5
6BDC
330
A
100
AcDbEntity
  8
MODEL
390
1D
100
AcDbSpline
210
0.0
220
0.0
230
1.0
 70
     8
 71
     3
 72
    18
 73
    14
 74
     0
 42
0.000000001
 43
0.0
 40
0.0
 40
0.0
 40
0.0
 40
0.0
 40
0.0440859524534965
 40
0.0440859524534965
 40
0.2393666612383502
 40
0.2393666612383502
 40
0.4346473700232
 40
0.4346473700232
 40
0.6299280788080562
 40
0.6299280788080562
 40
0.8252087875929087
 40
0.8252087875929087
 40
1.0
 40
1.0
 40
1.0
 40
1.0
 10
276.4708280559781
 20
300.2445347116806
 30
0.0
 10
276.4708024540225
 20
300.294917027109
 30
0.0
 10
276.5041098298131
 20
300.3452993425372
 30
0.0
 10
276.8712819566375
 20
300.6188523896729
 30
0.0
 10
277.8418110174122
 20
300.8420231213802
 30
0.0
 10
280.6805105915103
 20
301.2883645847948
 30
0.0
 10
282.5375141190193
 20
301.5115353165021
 30
0.0
 10
286.2766658483748
 20
301.9578767799168
 30
0.0
 10
288.1441048310069
 20
302.1810475116241
 30
0.0
 10
291.0197687248098
 20
302.6273889750387
 30
0.0
 10
292.0166812385006
 20
302.850559706746
 30
0.0
 10
292.6378734867722
 20
303.2734853605428
 30
0.0
 10
292.3931333020555
 20
303.4732402826324
 30
0.0
 10
291.6667054482195
 20
303.6729952047219
 30
0.0
  0
SPLINE
  5
6BDD
330
A
100
AcDbEntity
  8
MODEL
390
1D
100
AcDbSpline
210
0.0
220
0.0
230
1.0
 70
     8
 71
     3
 72
    18
 73
    14
 74
     0
 42
0.000000001
 43
0.0
 40
0.0
 40
0.0
 40
0.0
 40
0.0
 40
0.0517210735297886
 40
0.0517210735297886
 40
0.2470853427832308
 40
0.2470853427832308
 40
0.4424496120366731
 40
0.4424496120366731
 40
0.637813881290118
 40
0.637813881290118
 40
0.8331781505435576
 40
0.8331781505435576
 40
1.0
 40
1.0
 40
1.0
 40
1.0
 10
276.4714069705312
 20
306.2440436010146
 30
0.0
 10
276.4711782825446
 20
306.3031262053641
 30
0.0
 10
276.5165690016501
 20
306.3622088097136
 30
0.0
 10
276.9578709685663
 20
306.6444621457704
 30
0.0
 10
277.9744177667598
 20
306.8676328774778
 30
0.0
 10
280.8773621781028
 20
307.3139743408923
 30
0.0
 10
282.7523400766208
 20
307.5371450725997
 30
0.0
 10
286.4909155283319
 20
307.9834865360144
 30
0.0
 10
288.3398061292941
 20
308.2066572677216
 30
0.0
 10
291.1503444887966
 20
308.6529987311363
 30
0.0
 10
292.1009360431943
 20
308.8761694628436
 30
0.0
 10
292.6169078305822
 20
309.2899060249877
 30
0.0
 10
292.3627785415978
 20
309.4804718554245
 30
0.0
 10
291.6733247839232
 20
309.6710376858613
 30
0.0
  0
SPLINE
  5
6BDE
330
A
100
AcDbEntity
  8
MODEL
390
1D
100
AcDbSpline
210
0.0
220
0.0
230
1.0
 70
     8
 71
     3
 72
    12
 73
     8
 74
     0
 42
0.000000001
 43
0.0
 40
0.0
 40
0.0
 40
0.0
 40
0.0
 40
0.3734566606267352
 40
0.3734566606267352
 40
0.8201933968849585
 40
0.8201933968849585
 40
1.0
 40
1.0
 40
1.0
 40
1.0
 10
284.4686390764004
 20
277.7420898799059
 30
0.0
 10
285.8745485811949
 20
277.9286529929176
 30
0.0
 10
287.2794463279361
 20
278.1152161059294
 30
0.0
 10
289.8530434876514
 20
278.5249499506485
 30
0.0
 10
290.910274767865
 20
278.7481206823558
 30
0.0
 10
291.5704085281113
 20
279.0611151691433
 30
0.0
 10
291.6642364886912
 20
279.1509389242236
 30
0.0
 10
291.6642304232221
 20
279.2407626793037
 30
0.0
  0
SPLINE
  5
6BDF
330
A
100
AcDbEntity
  8
MODEL
390
1D
100
AcDbSpline
210
0.0
220
0.0
230
1.0
 70
     8
 71
     3
 72
    12
 73
     8
 74
     0
 42
0.000000001
 43
0.0
 40
0.0
 40
0.0
 40
0.0
 40
0.0
 40
0.3906589241213732
 40
0.3906589241213732
 40
0.8374679992932923
 40
0.8374679992932923
 40
1.0
 40
1.0
 40
1.0
 40
1.0
 10
284.4681382831743
 20
283.7420138598806
 30
0.0
 10
285.9385940094751
 20
283.9371388982666
 30
0.0
 10
287.4073387816918
 20
284.1322639366527
 30
0.0
 10
289.9869864020338
 20
284.550559706746
 30
0.0
 10
291.0052850460552
 20
284.7737304384534
 30
0.0
 10
291.5878814833594
 20
285.0780821209049
 30
0.0
 10
291.6646191221045
 20
285.159263071649
 30
0.0
 10
291.6645390434066
 20
285.2404440223931
 30
0.0
  0
SPLINE
  5
6BE0
330
A
100
AcDbEntity
  8
MODEL
390
1D
100
AcDbSpline
210
0.0
220
0.0
230
1.0
 70
     8
 71
     3
 72
    12
 73
     8
 74
     0
 42
0.000000001
 43
0.0
 40
0.0
 40
0.0
 40
0.0
 40
0.0
 40
0.4077717273781807
 40
0.4077717273781807
 40
0.8546171524391749
 40
0.8546171524391749
 40
1.0
 40
1.0
 40
1.0
 40
1.0
 10
284.4683431806503
 20
289.7420309803344
 30
0.0
 10
286.0031940031022
 20
289.9456868972683
 30
0.0
 10
287.5352971997974
 20
290.1493428142023
 30
0.0
 10
290.1169604103326
 20
290.5761694628436
 30
0.0
 10
291.0955940705729
 20
290.7993401945509
 30
0.0
 10
291.6037370075815
 20
291.0951203671257
 30
0.0
 10
291.6651505767226
 20
291.1677298079931
 30
0.0
 10
291.6649302864934
 20
291.2403392488605
 30
0.0
  0
SPLINE
  5
6BE1
330
A
100
AcDbEntity
  8
MODEL
390
1D
100
AcDbSpline
210
0.0
220
0.0
230
1.0
 70
     8
 71
     3
 72
    12
 73
     8
 74
     0
 42
0.000000001
 43
0.0
 40
0.0
 40
0.0
 40
0.0
 40
0.0
 40
0.4249796051996793
 40
0.4249796051996793
 40
0.8719628334600084
 40
0.8719628334600084
 40
1.0
 40
1.0
 40
1.0
 40
1.0
 10
284.4685847935198
 20
295.7420543385095
 30
0.0
 10
286.0679328080416
 20
295.954239054751
 30
0.0
 10
287.663121813429
 20
296.1664237709924
 30
0.0
 10
290.2428720368744
 20
296.6017792189411
 30
0.0
 10
291.1811368923024
 20
296.8249499506484
 30
0.0
 10
291.6176665463381
 20
297.1120473497023
 30
0.0
 10
291.6655036633077
 20
297.1759740170488
 30
0.0
 10
291.6653889111474
 20
297.2399006843953
 30
0.0
  0
SPLINE
  5
6BE2
330
A
100
AcDbEntity
  8
MODEL
390
1D
100
AcDbSpline
210
0.0
220
0.0
230
1.0
 70
     8
 71
     3
 72
    12
 73
     8
 74
     0
 42
0.000000001
 43
0.0
 40
0.0
 40
0.0
 40
0.0
 40
0.0
 40
0.44220904295616
 40
0.44220904295616
 40
0.8892805601490689
 40
0.8892805601490689
 40
0.9999999999999999
 40
0.9999999999999999
 40
0.9999999999999999
 40
0.9999999999999999
 10
284.4681205570643
 20
301.7419878491625
 30
0.0
 10
286.1323518160056
 20
301.9627313138855
 30
0.0
 10
287.7906076575275
 20
302.1834747786084
 30
0.0
 10
290.3646307275997
 20
302.6273889750387
 30
0.0
 10
291.2618519899212
 20
302.850559706746
 30
0.0
 10
291.6299268979631
 20
303.1289997576909
 30
0.0
 10
291.6659108701446
 20
303.1842690769285
 30
0.0
 10
291.665893481893
 20
303.239538396166
 30
0.0
  0
SPLINE
  5
6BE3
330
A
100
AcDbEntity
  8
MODEL
390
1D
100
AcDbSpline
210
0.0
220
0.0
230
1.0
 70
     8
 71
     3
 72
    14
 73
    10
 74
     0
 42
0.000000001
 43
0.0
 40
0.0
 40
0.0
 40
0.0
 40
0.0
 40
0.0122304068723726
 40
0.0122304068723726
 40
0.4592445091253071
 40
0.4592445091253071
 40
0.9062586113782297
 40
0.9062586113782297
 40
1.0
 40
1.0
 40
1.0
 40
1.0
 10
284.4682111445222
 20
307.7419977993245
 30
0.0
 10
284.5142406214738
 20
307.7481038009853
 30
0.0
 10
284.5602741762889
 20
307.7542098026461
 30
0.0
 10
286.2886628507695
 20
307.9834865360144
 30
0.0
 10
287.9526643916354
 20
308.2066572677216
 30
0.0
 10
290.4821489151877
 20
308.6529987311363
 30
0.0
 10
291.3376813141457
 20
308.8761694628436
 30
0.0
 10
291.640694490994
 20
309.1461403607751
 30
0.0
 10
291.666528113492
 20
309.1929405269992
 30
0.0
 10
291.6664198702479
 20
309.2397406932234
 30
0.0
  0
LINE
  5
6BE4
330
A
100
AcDbEntity
  8
MODEL
390
1D
100
AcDbLine
 10
292.4641113656182
 20
282.2403380737872
 30
0.0
 11
292.4641113656182
 21
285.2403380737872
 31
0.0
  0
LINE
  5
6BE5
330
A
100
AcDbEntity
  8
MODEL
390
1D
100
AcDbLine
 10
276.4691747315183
 20
282.2439081071872
 30
0.0
 11
276.4691747315183
 21
279.2439081071872
 31
0.0
  0
LINE
  5
6BE6
330
A
100
AcDbEntity
  8
MODEL
390
1D
100
AcDbLine
 10
276.4702423444182
 20
294.2442220203872
 30
0.0
 11
276.4702423444182
 21
291.2442220203872
 31
0.0
  0
LINE
  5
6BE7
330
A
100
AcDbEntity
  8
MODEL
390
1D
100
AcDbLine
 10
291.6658934875182
 20
303.2394848396872
 30
0.0
 11
291.6658934875182
 21
305.8122839821872
 31
0.0
  0
LINE
  5
6BE8
330
A
100
AcDbEntity
  8
MODEL
390
1D
100
AcDbLine
 10
276.4714069883182
 20
306.2440390185872
 30
0.0
 11
276.4714069883182
 21
303.2440390185872
 31
0.0
  0
LINE
  5
6BE9
330
A
100
AcDbEntity
  8
MODEL
390
1D
100
AcDbLine
 10
291.6649303438182
 20
291.2403198760872
 30
0.0
 11
291.6649303438182
 21
293.8135114479872
 31
0.0
  0
LINE
  5
6BEA
330
A
100
AcDbEntity
  8
MODEL
390
1D
100
AcDbLine
 10
291.6642304120182
 20
279.2406995240872
 30
0.0
 11
291.6642304120182
 21
281.8122817805872
 31
0.0
  0
SPLINE
  5
6BEB
330
A
100
AcDbEntity
  8
MODEL
390
1D
100
AcDbSpline
210
0.0
220
0.0
230
1.0
 70
     8
 71
     3
 72
    12
 73
     8
 74
     0
 42
0.000000001
 43
0.0
 40
0.0
 40
0.0
 40
0.0
 40
0.0
 40
0.3945723764507078
 40
0.3945723764507078
 40
0.8002439253062616
 40
0.8002439253062616
 40
1.0
 40
1.0
 40
1.0
 40
1.0
 10
284.4682098491085
 20
304.7419979525825
 30
0.0
 10
282.8091622331051
 20
304.5249331714501
 30
0.0
 10
281.1553395521199
 20
304.3078683903175
 30
0.0
 10
278.5426402280302
 20
303.8676328774778
 30
0.0
 10
277.6150412746786
 20
303.6444621457704
 30
0.0
 10
277.1398651928902
 20
303.3114002731189
 30
0.0
 10
277.1314031180564
 20
303.2015091321745
 30
0.0
 10
277.2632434002138
 20
303.0916179912302
 30
0.0
  0
SPLINE
  5
6BEC
330
A
100
AcDbEntity
  8
MODEL
390
1D
100
AcDbSpline
210
0.0
220
0.0
230
1.0
 70
     8
 71
     3
 72
    14
 73
    10
 74
     0
 42
0.000000001
 43
0.0
 40
0.0
 40
0.0
 40
0.0
 40
0.0
 40
0.0043978426866684
 40
0.0043978426866684
 40
0.4087103469810853
 40
0.4087103469810853
 40
0.8130228512755235
 40
0.8130228512755235
 40
1.0
 40
1.0
 40
1.0
 40
1.0
 10
284.4681222417255
 20
298.7419885568623
 30
0.0
 10
284.4495666018531
 20
298.739561053978
 30
0.0
 10
284.4310102292723
 20
298.7371335510938
 30
0.0
 10
282.706465649467
 20
298.5115353165021
 30
0.0
 10
281.0119499306151
 20
298.2883645847949
 30
0.0
 10
278.4216365692506
 20
297.8420231213802
 30
0.0
 10
277.5360288012936
 20
297.6188523896729
 30
0.0
 10
277.1362853432594
 20
297.2924747903813
 30
0.0
 10
277.1412829225684
 20
297.189267922797
 30
0.0
 10
277.2699625425106
 20
297.0860610552127
 30
0.0
  0
SPLINE
  5
6BED
330
A
100
AcDbEntity
  8
MODEL
390
1D
100
AcDbSpline
210
0.0
220
0.0
230
1.0
 70
     8
 71
     3
 72
    14
 73
    10
 74
     0
 42
0.000000001
 43
0.0
 40
0.0
 40
0.0
 40
0.0
 40
0.0
 40
0.0199616479392845
 40
0.0199616479392845
 40
0.4254646194432735
 40
0.4254646194432735
 40
0.8309675909472624
 40
0.8309675909472624
 40
1.0
 40
1.0
 40
1.0
 40
1.0
 10
284.4685871578694
 20
292.742054291607
 30
0.0
 10
284.3846297871962
 20
292.7310682917753
 30
0.0
 10
284.3006611126141
 20
292.7200822919436
 30
0.0
 10
282.5117041161116
 20
292.4859255604046
 30
0.0
 10
280.8348086852171
 20
292.2627548286973
 30
0.0
 10
278.3049816586587
 20
291.8164133652827
 30
0.0
 10
277.4620019940746
 20
291.5932426335754
 30
0.0
 10
277.1388452340409
 20
291.2770440104308
 30
0.0
 10
277.1509271922946
 20
291.1840161189936
 30
0.0
 10
277.2637229292702
 20
291.0909882275564
 30
0.0
  0
SPLINE
  5
6BEE
330
A
100
AcDbEntity
  8
MODEL
390
1D
100
AcDbSpline
210
0.0
220
0.0
230
1.0
 70
     8
 71
     3
 72
    14
 73
    10
 74
     0
 42
0.000000001
 43
0.0
 40
0.0
 40
0.0
 40
0.0
 40
0.0
 40
0.0355039592010494
 40
0.0355039592010494
 40
0.4415316177679535
 40
0.4415316177679535
 40
0.8475592763348468
 40
0.8475592763348468
 40
1.0
 40
1.0
 40
1.0
 40
1.0
 10
284.4683363375343
 20
286.7420301676087
 30
0.0
 10
284.3192225130808
 20
286.7225156237438
 30
0.0
 10
284.1700831140702
 20
286.7030010798791
 30
0.0
 10
282.3183498057591
 20
286.4603158043071
 30
0.0
 10
280.6602806649447
 20
286.2371450725997
 30
0.0
 10
278.1927593930004
 20
285.7908036091851
 30
0.0
 10
277.3930140921712
 20
285.5676328774778
 30
0.0
 10
277.1417719631879
 20
285.26067399212
 30
0.0
 10
277.1603779094053
 20
285.1768858384696
 30
0.0
 10
277.2608893178666
 20
285.093097684819
 30
0.0
  0
SPLINE
  5
6BEF
330
A
100
AcDbEntity
  8
MODEL
390
1D
100
AcDbSpline
210
0.0
220
0.0
230
1.0
 70
     8
 71
     3
 72
    14
 73
    10
 74
     0
 42
0.000000001
 43
0.0
 40
0.0
 40
0.0
 40
0.0
 40
0.0
 40
0.0509503024229068
 40
0.0509503024229068
 40
0.4563879768027366
 40
0.4563879768027366
 40
0.8618256511825556
 40
0.8618256511825556
 40
0.9999999999999999
 40
0.9999999999999999
 40
0.9999999999999999
 40
0.9999999999999999
 10
284.4681255096502
 20
280.742012643387
 30
0.0
 10
284.2538417691816
 20
280.7139673555636
 30
0.0
 10
284.0395222039439
 20
280.6859220677403
 30
0.0
 10
282.1265417764004
 20
280.4347060482095
 30
0.0
 10
280.4884913881569
 20
280.2115353165022
 30
0.0
 10
278.085050481119
 20
279.7651938530876
 30
0.0
 10
277.3291147108155
 20
279.5420231213802
 30
0.0
 10
277.1452745699735
 20
279.2427951496151
 30
0.0
 10
277.1705460036033
 20
279.1667379095574
 30
0.0
 10
277.2634425377626
 20
279.0906806694996
 30
0.0
  0
LINE
  5
6BF0
330
A
100
AcDbEntity
  8
MODEL
390
1D
100
AcDbLine
 10
292.4662014818183
 20
306.2394513647872
 30
0.0
 11
292.4662014818183
 21
309.2394513647872
 31
0.0
  0
SPLINE
  5
6BF1
330
A
100
AcDbEntity
  8
MODEL
390
1D
100
AcDbSpline
210
0.0
220
0.0
230
1.0
 70
     8
 71
     3
 72
     8
 73
     4
 74
     0
 42
0.000000001
 43
0.0
 40
0.0
 40
0.0
 40
0.0
 40
0.0
 40
1.0
 40
1.0
 40
1.0
 40
1.0
 10
292.2642182951918
 20
290.7402765009251
 30
0.0
 10
292.2642651065227
 20
290.8772991276371
 30
0.0
 10
292.0272253321787
 20
291.0143217543492
 30
0.0
 10
291.562699334018
 20
291.1513443810613
 30
0.0
  0
SPLINE
  5
6BF2
330
A
100
AcDbEntity
  8
MODEL
390
1D
100
AcDbSpline
210
0.0
220
0.0
230
1.0
 70
     8
 71
     3
 72
     8
 73
     4
 74
     0
 42
0.000000001
 43
0.0
 40
0.0
 40
0.0
 40
0.0
 40
0.0
 40
1.0
 40
1.0
 40
1.0
 40
1.0
 10
292.2651384174241
 20
302.7400862958016
 30
0.0
 10
292.2646575105064
 20
302.8768014755253
 30
0.0
 10
292.0265885363787
 20
303.0135166552489
 30
0.0
 10
291.565884124298
 20
303.1502318349725
 30
0.0
  0
SPLINE
  5
6BF3
330
A
100
AcDbEntity
  8
MODEL
390
1D
100
AcDbSpline
210
0.0
220
0.0
230
1.0
 70
     8
 71
     3
 72
     8
 73
     4
 74
     0
 42
0.000000001
 43
0.0
 40
0.0
 40
0.0
 40
0.0
 40
0.0
 40
1.0
 40
1.0
 40
1.0
 40
1.0
 10
292.2656855432765
 20
308.7394601697124
 30
0.0
 10
292.2657300637248
 20
308.8764352615889
 30
0.0
 10
292.0262213086172
 20
309.0134103534655
 30
0.0
 10
291.5649059537822
 20
309.1503854453421
 30
0.0
  0
LINE
  5
6BF4
330
A
100
AcDbEntity
  8
MODEL
390
1D
100
AcDbLine
 10
292.4650558242183
 20
294.2396736772872
 30
0.0
 11
292.4650558242183
 21
297.2396736772872
 31
0.0
  0
SPLINE
  5
6BF5
330
A
100
AcDbEntity
  8
MODEL
390
1D
100
AcDbSpline
210
0.0
220
0.0
230
1.0
 70
     8
 71
     3
 72
    12
 73
     8
 74
     0
 42
0.000000001
 43
0.0
 40
0.0
 40
0.0
 40
0.0
 40
0.0
 40
0.0598288023107923
 40
0.0598288023107923
 40
0.7300800248051434
 40
0.7300800248051434
 40
1.0
 40
1.0
 40
1.0
 40
1.0
 10
288.4681873907529
 20
275.2420163846154
 30
0.0
 10
288.612807975765
 20
275.2619373293907
 30
0.0
 10
288.7547898430734
 20
275.2818582741659
 30
0.0
 10
290.4513384582008
 20
275.5249499506485
 30
0.0
 10
291.6260398806604
 20
275.7481206823558
 30
0.0
 10
292.3596398618431
 20
276.0611655334157
 30
0.0
 10
292.4638920024759
 20
276.1510396527682
 30
0.0
 10
292.463768276943
 20
276.2409137721208
 30
0.0
  0
SPLINE
  5
6BF6
330
A
100
AcDbEntity
  8
MODEL
390
1D
100
AcDbSpline
210
0.0
220
0.0
230
1.0
 70
     8
 71
     3
 72
    18
 73
    14
 74
     0
 42
0.000000001
 43
0.0
 40
0.0
 40
0.0
 40
0.0
 40
0.0
 40
0.1475163710173632
 40
0.1475163710173632
 40
0.3428761847242035
 40
0.3428761847242035
 40
0.538235998431047
 40
0.538235998431047
 40
0.7335958121378892
 40
0.7335958121378892
 40
0.9289556258447313
 40
0.9289556258447313
 40
1.0
 40
1.0
 40
1.0
 40
1.0
 10
277.2637817455153
 20
278.8133031290432
 30
0.0
 10
276.6546919082001
 20
278.9818195492531
 30
0.0
 10
276.3808058531645
 20
279.150335969463
 30
0.0
 10
276.6445267889903
 20
279.5420231213802
 30
0.0
 10
277.4729495509667
 20
279.7651938530876
 30
0.0
 10
280.106857394296
 20
280.2115353165022
 30
0.0
 10
281.9019811074394
 20
280.4347060482095
 30
0.0
 10
285.6267347752174
 20
280.8810475116241
 30
0.0
 10
287.5417121502873
 20
281.1042182433314
 30
0.0
 10
290.6001639186256
 20
281.5505597067461
 30
0.0
 10
291.7316068564272
 20
281.7737304384534
 30
0.0
 10
292.378887560731
 20
282.0780592377442
 30
0.0
 10
292.4641521991223
 20
282.1592173053277
 30
0.0
 10
292.4641113528249
 20
282.2403753729112
 30
0.0
  0
SPLINE
  5
6BF7
330
A
100
AcDbEntity
  8
MODEL
390
1D
100
AcDbSpline
210
0.0
220
0.0
230
1.0
 70
     8
 71
     3
 72
    18
 73
    14
 74
     0
 42
0.000000001
 43
0.0
 40
0.0
 40
0.0
 40
0.0
 40
0.0
 40
0.1548197377310696
 40
0.1548197377310696
 40
0.3502180914357188
 40
0.3502180914357188
 40
0.5456164451403666
 40
0.5456164451403666
 40
0.7410147988450138
 40
0.7410147988450138
 40
0.9364131525496622
 40
0.9364131525496622
 40
1.0
 40
1.0
 40
1.0
 40
1.0
 10
277.260763024437
 20
284.813988370064
 30
0.0
 10
276.6226930420409
 20
284.9908129619661
 30
0.0
 10
276.3557684928391
 20
285.1676375538684
 30
0.0
 10
276.7145535082842
 20
285.5676328774778
 30
0.0
 10
277.5909867146725
 20
285.7908036091851
 30
0.0
 10
280.2951196154332
 20
286.2371450725997
 30
0.0
 10
282.1121816875586
 20
286.4603158043071
 30
0.0
 10
285.8444200389403
 20
286.9066572677217
 30
0.0
 10
287.7449142950948
 20
287.129827999429
 30
0.0
 10
290.7445794834021
 20
287.5761694628437
 30
0.0
 10
291.8319502170023
 20
287.799340194551
 30
0.0
 10
292.3965823778887
 20
288.0951355057566
 30
0.0
 10
292.4648192304636
 20
288.1677600852548
 30
0.0
 10
292.4645458504415
 20
288.2403846647531
 30
0.0
  0
SPLINE
  5
6BF8
330
A
100
AcDbEntity
  8
MODEL
390
1D
100
AcDbSpline
210
0.0
220
0.0
230
1.0
 70
     8
 71
     3
 72
    18
 73
    14
 74
     0
 42
0.000000001
 43
0.0
 40
0.0
 40
0.0
 40
0.0
 40
0.0
 40
0.1625228552784887
 40
0.1625228552784887
 40
0.3579114330761165
 40
0.3579114330761165
 40
0.553300010873748
 40
0.553300010873748
 40
0.7486885886713758
 40
0.7486885886713758
 40
0.9440771664690022
 40
0.9440771664690022
 40
1.0
 40
1.0
 40
1.0
 40
1.0
 10
277.2631479341442
 20
290.8131763308911
 30
0.0
 10
276.5919776036833
 20
290.9988081878834
 30
0.0
 10
276.3322952852975
 20
291.1844400448757
 30
0.0
 10
276.7901566884523
 20
291.5932426335754
 30
0.0
 10
277.7139700195033
 20
291.8164133652827
 30
0.0
 10
280.4863831992934
 20
292.2627548286973
 30
0.0
 10
282.3240768221913
 20
292.4859255604046
 30
0.0
 10
286.061115678253
 20
292.9322670238193
 30
0.0
 10
287.9457600039048
 20
293.1554377555265
 30
0.0
 10
290.8844812906708
 20
293.6017792189412
 30
0.0
 10
291.9269977967018
 20
293.8249499506485
 30
0.0
 10
292.4119425427198
 20
294.1119951412364
 30
0.0
 10
292.4650962429211
 20
294.1758696001169
 30
0.0
 10
292.4650558011977
 20
294.2397440589974
 30
0.0
  0
SPLINE
  5
6BF9
330
A
100
AcDbEntity
  8
MODEL
390
1D
100
AcDbSpline
210
0.0
220
0.0
230
1.0
 70
     8
 71
     3
 72
    18
 73
    14
 74
     0
 42
0.000000001
 43
0.0
 40
0.0
 40
0.0
 40
0.0
 40
0.0
 40
0.1704631713719853
 40
0.1704631713719853
 40
0.3657205261984892
 40
0.3657205261984892
 40
0.5609778810249892
 40
0.5609778810249892
 40
0.7562352358514944
 40
0.7562352358514944
 40
0.9514925906779983
 40
0.9514925906779983
 40
1.0
 40
1.0
 40
1.0
 40
1.0
 10
277.2698476921312
 20
296.8111855084908
 30
0.0
 10
276.5619062642039
 20
297.0060175583158
 30
0.0
 10
276.3102245240086
 20
297.2008496081407
 30
0.0
 10
276.8712819566375
 20
297.6188523896729
 30
0.0
 10
277.8418110174122
 20
297.8420231213802
 30
0.0
 10
280.6805105915103
 20
298.2883645847949
 30
0.0
 10
282.5375141190193
 20
298.5115353165021
 30
0.0
 10
286.2766658483748
 20
298.9578767799168
 30
0.0
 10
288.1441048310069
 20
299.1810475116241
 30
0.0
 10
291.0197687248098
 20
299.6273889750387
 30
0.0
 10
292.0166812385006
 20
299.8505597067461
 30
0.0
 10
292.42590680936
 20
300.1291723143368
 30
0.0
 10
292.4658848055271
 20
300.1846141902203
 30
0.0
 10
292.4656148789074
 20
300.2400560661037
 30
0.0
  0
SPLINE
  5
6BFA
330
A
100
AcDbEntity
  8
MODEL
390
1D
100
AcDbSpline
210
0.0
220
0.0
230
1.0
 70
     8
 71
     3
 72
    18
 73
    14
 74
     0
 42
0.000000001
 43
0.0
 40
0.0
 40
0.0
 40
0.0
 40
0.0
 40
0.1775637018167084
 40
0.1775637018167084
 40
0.3729498175599331
 40
0.3729498175599331
 40
0.5683359333031539
 40
0.5683359333031539
 40
0.7637220490463785
 40
0.7637220490463785
 40
0.9591081647895994
 40
0.9591081647895994
 40
1.0
 40
1.0
 40
1.0
 40
1.0
 10
277.2633625338631
 20
302.8128496968763
 30
0.0
 10
276.5283935426272
 20
303.0156636026052
 30
0.0
 10
276.29184568432
 20
303.2184775083342
 30
0.0
 10
276.9578709685663
 20
303.6444621457704
 30
0.0
 10
277.9744177667598
 20
303.8676328774778
 30
0.0
 10
280.8773621781028
 20
304.3139743408925
 30
0.0
 10
282.7523400766208
 20
304.5371450725997
 30
0.0
 10
286.4909155283319
 20
304.9834865360144
 30
0.0
 10
288.3398061292941
 20
305.2066572677217
 30
0.0
 10
291.1503444887966
 20
305.6529987311363
 30
0.0
 10
292.1009360431943
 20
305.8761694628436
 30
0.0
 10
292.4375009171134
 20
306.1460469973862
 30
0.0
 10
292.4662067323089
 20
306.1927538002214
 30
0.0
 10
292.4662014811759
 20
306.2394606030567
 30
0.0
  0
LINE
  5
6BFB
330
A
100
AcDbEntity
  8
MODEL
390
1D
100
AcDbLine
 10
277.2687282312182
 20
279.3931354626872
 30
0.0
 11
277.2687282312182
 21
277.5926914698872
 31
0.0
  0
LINE
  5
6BFC
330
A
100
AcDbEntity
  8
MODEL
390
1D
100
AcDbLine
 10
277.2687282312182
 20
276.8913665572872
 30
0.0
 11
277.2687282312182
 21
276.6700586002872
 31
0.0
  0
LINE
  5
6BFD
330
A
100
AcDbEntity
  8
MODEL
390
1D
100
AcDbLine
 10
277.2705843988183
 20
303.3956398104872
 30
0.0
 11
277.2705843988183
 21
300.6701543341872
 31
0.0
  0
LINE
  5
6BFE
330
A
100
AcDbEntity
  8
MODEL
390
1D
100
AcDbLine
 10
277.2695502740182
 20
291.3983926634872
 30
0.0
 11
277.2695502740182
 21
288.6703038943872
 31
0.0
  0
LINE
  5
6BFF
330
A
100
AcDbEntity
  8
MODEL
390
1D
100
AcDbLine
 10
292.4656150419183
 20
300.2400215070872
 30
0.0
 11
292.4656150419183
 21
303.2400215070872
 31
0.0
  0
SPLINE
  5
6C00
330
A
100
AcDbEntity
  8
MODEL
390
1D
100
AcDbSpline
210
0.0
220
0.0
230
1.0
 70
    12
 71
     2
 72
    10
 73
     7
 74
     0
 42
0.000000001
 43
0.0
 40
0.0
 40
0.0
 40
0.0
 40
0.2549250643780597
 40
0.2549250643780597
 40
0.6274625321890299
 40
0.6274625321890299
 40
1.0
 40
1.0
 40
1.0
 10
291.2875284898624
 20
278.6891013807627
 30
0.0
 41
0.9421133791115934
 10
290.4171337559584
 20
278.4428328439035
 30
0.0
 41
0.9083220198871208
 10
288.0683887527075
 20
278.2253564547136
 30
0.0
 41
1.0
 10
284.4683887527074
 20
277.8920231213803
 30
0.0
 41
0.8660254037844387
 10
280.8683887527075
 20
277.5586897880469
 30
0.0
 41
1.0
 10
277.2683887527076
 20
277.2253564547136
 30
0.0
 41
0.8660254037844387
 10
277.2683887527074
 20
276.8920231213802
 30
0.0
 41
1.0
  0
LINE
  5
6C01
330
A
100
AcDbEntity
  8
MODEL
390
1D
100
AcDbLine
 10
277.2683887527182
 20
277.5920231213872
 30
0.0
 11
277.2683887527182
 21
276.8920231213872
 31
0.0
  0
LINE
  5
6C02
330
A
100
AcDbEntity
  8
MODEL
390
1D
100
AcDbLine
 10
291.6683887527183
 20
275.2420231213872
 30
0.0
 11
291.6683887527183
 21
275.5920231213872
 31
0.0
  0
SPLINE
  5
6C03
330
A
100
AcDbEntity
  8
MODEL
390
1D
100
AcDbSpline
210
0.0
220
0.0
230
1.0
 70
    12
 71
     2
 72
     6
 73
     3
 74
     0
 42
0.000000001
 43
0.0
 40
0.0
 40
0.0
 40
0.0
 40
0.9999999999999999
 40
0.9999999999999999
 40
0.9999999999999999
 10
277.6491143552162
 20
277.7949067582937
 30
0.0
 41
0.9421188028123799
 10
277.2683887527075
 20
277.68716739303
 30
0.0
 41
0.9577107402138824
 10
277.2683887527074
 20
277.5920231213802
 30
0.0
 41
1.0
  0
SPLINE
  5
6C04
330
A
100
AcDbEntity
  8
MODEL
390
1D
100
AcDbSpline
210
0.0
220
0.0
230
1.0
 70
    12
 71
     2
 72
     6
 73
     3
 74
     0
 42
0.000000001
 43
0.0
 40
0.0
 40
0.0
 40
0.0
 40
1.0
 40
1.0
 40
1.0
 10
291.6683887527075
 20
275.5920231213802
 30
0.0
 41
1.0
 10
291.6683887527075
 20
275.4295546433519
 30
0.0
 41
0.9298849255803483
 10
290.611754084508
 20
275.2420109250885
 30
0.0
 41
0.9331587442753793
  0
LINE
  5
6C05
330
A
100
AcDbEntity
  8
MODEL
390
1D
100
AcDbLine
 10
292.9683887527182
 20
275.2420231213872
 30
0.0
 11
275.9683887527182
 21
275.2420231213872
 31
0.0
  0
LINE
  5
6C06
330
A
100
AcDbEntity
  8
MODEL
390
1D
100
AcDbLine
 10
292.9683887527182
 20
274.2420231213872
 30
0.0
 11
292.9683887527182
 21
275.2420231213872
 31
0.0
  0
LINE
  5
6C07
330
A
100
AcDbEntity
  8
MODEL
390
1D
100
AcDbLine
 10
275.9683887527182
 20
275.2420231213872
 30
0.0
 11
275.9683887527182
 21
274.2420231213872
 31
0.0
  0
LINE
  5
6C08
330
A
100
AcDbEntity
  8
MODEL
390
1D
100
AcDbLine
 10
271.7183887527182
 20
235.2420231213872
 30
0.0
 11
297.2183887527182
 21
235.2420231213872
 31
0.0
  0
ARC
  5
6C09
330
A
100
AcDbEntity
  8
MODEL
390
1D
100
AcDbCircle
 10
272.0317728411183
 20
235.5420231213872
 30
0.0
 40
0.3
100
AcDbArc
 50
177.4999999999926
 51
270.0
  0
ARC
  5
6C0A
330
A
100
AcDbEntity
  8
MODEL
390
1D
100
AcDbCircle
 10
296.9050046643183
 20
235.5420231213872
 30
0.0
 40
0.3
100
AcDbArc
 50
270.0
 51
2.500000000006912
  0
LINE
  5
6C0B
330
A
100
AcDbEntity
  8
MODEL
390
1D
100
AcDbLine
 10
271.7320583746183
 20
235.5551089375872
 30
0.0
 11
297.2047191307183
 21
235.5551089375872
 31
0.0
  0
LINE
  5
6C0C
330
A
100
AcDbEntity
  8
MODEL
390
1D
100
AcDbLine
 10
272.4488949126078
 20
273.7424990105872
 30
0.0
 11
296.4878825927287
 21
273.7424990105872
 31
0.0
  0
LINE
  5
6C0D
330
A
100
AcDbEntity
  8
MODEL
390
1D
100
AcDbLine
 10
296.4878825927287
 20
273.7424990105872
 30
0.0
 11
295.9660728991287
 21
274.2420231213872
 31
0.0
  0
LINE
  5
6C0E
330
A
100
AcDbEntity
  8
MODEL
390
1D
100
AcDbLine
 10
272.9707046063078
 20
274.2420231213872
 30
0.0
 11
272.4488949126078
 21
273.7424990105872
 31
0.0
  0
LINE
  5
6C0F
330
A
100
AcDbEntity
  8
MODEL
 48
0.05
100
AcDbLine
 10
272.9707046063078
 20
274.2420231213872
 30
0.0
 11
295.9660728991287
 21
274.2420231213872
 31
0.0
  0
LINE
  5
6C10
330
A
100
AcDbEntity
  8
MODEL
 48
0.05
100
AcDbLine
 10
297.2047191307183
 20
235.5551089375872
 30
0.0
 11
296.4878825927287
 21
273.7424990105872
 31
0.0
  0
LINE
  5
6C11
330
A
100
AcDbEntity
  8
MODEL
 48
0.05
100
AcDbLine
 10
271.7320583746438
 20
235.5551089375968
 30
0.0
 11
272.4488949126078
 21
273.7424990105872
 31
0.0
  0
DIMENSION
  5
6C13
330
A
100
AcDbEntity
  8
DIM
 48
0.05
100
AcDbDimension
  2
*D34
 10
293.9683887526684
 20
199.9939301770841
 30
0.0
 11
284.4683887526684
 21
199.9939301770841
 31
0.0
 70
   160
  1
G1/2"
 71
     5
 42
19.0
 73
     0
 74
     0
 75
     0
  3
tfrom線あり
100
AcDbAlignedDimension
 13
274.9683887526684
 23
222.7420231213873
 33
0.0
 14
293.9683887526684
 24
222.7420231213873
 34
0.0
100
AcDbRotatedDimension
  0
MTEXT
  5
6C22
330
A
100
AcDbEntity
  8
TEMPLATE
390
1D
100
AcDbMText
 10
25.75565717014914
 20
38.81577433819628
 30
0.0
 40
4.8865234375
 41
0.0
 46
4.9598212890625
 71
     1
 72
     1
  1
{メタル/クローム}
  7
ＭＳ ゴシック
 73
     1
 44
0.7828267384257843
1001
ACAD
1000
ACAD_MTEXT_DEFINED_HEIGHT_BEGIN
1070
    46
1040
4.9598212890625
1000
ACAD_MTEXT_DEFINED_HEIGHT_END
  0
MTEXT
  5
6C23
330
A
100
AcDbEntity
  8
TEMPLATE
390
1D
100
AcDbMText
 10
265.840428909598
 20
79.04990660776129
 30
0.0
 40
4.8865234375
 41
0.0
 46
5.458461156332062
 71
     1
 72
     1
  1
{ALH73-9904-0SS (ステンレススチール)}
  7
ＭＳ ゴシック
 73
     1
 44
0.7828267384257843
1001
ACAD
1000
ACAD_MTEXT_DEFINED_HEIGHT_BEGIN
1070
    46
1040
5.458461156332062
1000
ACAD_MTEXT_DEFINED_HEIGHT_END
  0
MTEXT
  5
6C24
330
A
100
AcDbEntity
  8
TEMPLATE
390
1D
100
AcDbMText
 10
265.840428909598
 20
87.13137574208965
 30
0.0
 40
4.8865234375
 41
0.0
 46
5.458461156332062
 71
     1
 72
     1
  1
{ALH73-9904-0GM (ブラッシュドガンメタル)}
  7
ＭＳ ゴシック
 73
     1
 44
0.7828267384257843
1001
ACAD
1000
ACAD_MTEXT_DEFINED_HEIGHT_BEGIN
1070
    46
1040
5.458461156332062
1000
ACAD_MTEXT_DEFINED_HEIGHT_END
  0
VIEWPORT
  5
349
330
B
100
AcDbEntity
 67
     1
  8
0
100
AcDbViewport
 10
202.5
 20
128.5
 30
0.0
 40
486.0
 41
308.4
 68
     1
 69
     1
 12
202.5
 22
128.5
 13
0.0
 23
0.0
 14
0.5
 24
0.5
 15
0.0
 25
0.0
 16
0.0
 26
0.0
 36
1.0
 17
0.0
 27
0.0
 37
0.0
 42
50.0
 43
0.0
 44
0.0
 45
308.4
 50
0.0
 51
0.0
 72
   100
 90
   557152
  1

281
     0
 71
     1
 74
     0
110
0.0
120
0.0
130
0.0
111
1.0
121
0.0
131
0.0
112
0.0
122
1.0
132
0.0
 79
     0
146
0.0
170
     0
 61
     5
348
26C
292
     1
282
     1
141
0.0
142
0.0
 63
   256
  0
VIEWPORT
  5
34A
330
B
100
AcDbEntity
 67
     1
  8
0
100
AcDbViewport
 10
202.5
 20
128.5
 30
0.0
 40
324.0
 41
205.6
 68
     2
 69
     2
 12
986.6781359294573
 22
1427.077061889956
 13
0.0
 23
0.0
 14
0.5
 24
0.5
 15
0.0
 25
0.0
 16
0.0
 26
0.0
 36
1.0
 17
0.0
 27
0.0
 37
0.0
 42
50.0
 43
0.0
 44
0.0
 45
2890.021615685494
 50
0.0
 51
0.0
 72
   100
 90
   557152
  1

281
     0
 71
     1
 74
     0
110
0.0
120
0.0
130
0.0
111
1.0
121
0.0
131
0.0
112
0.0
122
1.0
132
0.0
 79
     0
146
0.0
170
     0
 61
     5
348
26C
292
     1
282
     1
141
0.0
142
0.0
 63
   256
  0
ENDSEC
  0
SECTION
  2
OBJECTS
  0
DICTIONARY
  5
19
330
0
100
AcDbDictionary
281
     1
  3
ACAD_COLOR
350
674
  3
ACAD_DETAILVIEWSTYLE
350
BBF
  3
ACAD_FIELDLIST
350
44C1
  3
ACAD_GROUP
350
1A
  3
ACAD_IMAGE_VARS
350
27B
  3
ACAD_LAYOUT
350
1E
  3
ACAD_MATERIAL
350
263
  3
ACAD_MLEADERSTYLE
350
336
  3
ACAD_MLINESTYLE
350
1B
  3
ACAD_PLOTSETTINGS
350
22
  3
ACAD_PLOTSTYLENAME
350
1F
  3
ACAD_SCALELIST
350
241
  3
ACAD_SECTIONVIEWSTYLE
350
BC0
  3
ACAD_TABLESTYLE
350
278
  3
ACAD_VISUALSTYLE
350
267
  3
ACDB_RECOMPOSE_DATA
350
6C2B
  3
AcDbVariableDictionary
350
330
  3
APPDATA
350
27A
  3
DimOffsetDictionary
350
E38
  0
SUN
  5
904
330
15
100
AcDbSun
 90
        1
290
     0
 63
     7
421
 16777215
 40
1.0
291
     1
 91
  2455826
 92
 54000000
292
     0
 70
     2
 71
   256
280
     1
  0
DICTIONARY
  5
2E1
330
2
100
AcDbDictionary
280
     1
281
     1
  3
ACAD_LAYERSTATES
360
2E2
  3
ACLYDICTIONARY
360
DDE
  0
DICTIONARY
  5
4532
330
4530
100
AcDbDictionary
280
     1
281
     1
  3
ACAD_FIELD
360
6C21
  0
DICTIONARY
  5
674
102
{ACAD_REACTORS
330
19
102
}
330
19
100
AcDbDictionary
281
     1
  0
DICTIONARY
  5
BBF
102
{ACAD_REACTORS
330
19
102
}
330
19
100
AcDbDictionary
281
     1
  0
FIELDLIST
  5
44C1
102
{ACAD_REACTORS
330
19
102
}
330
19
100
AcDbIdSet
 90
        2
330
4534
330
4531
100
AcDbFieldList
  0
DICTIONARY
  5
1A
102
{ACAD_REACTORS
330
19
102
}
330
19
100
AcDbDictionary
281
     1
  0
RASTERVARIABLES
  5
27B
102
{ACAD_REACTORS
330
19
102
}
330
19
100
AcDbRasterVariables
 90
        0
 70
     1
 71
     1
 72
     1
  0
DICTIONARY
  5
1E
102
{ACAD_REACTORS
330
19
102
}
330
19
100
AcDbDictionary
281
     1
  3
Layout1
350
21
  3
Model
350
20
  0
DICTIONARY
  5
263
102
{ACAD_REACTORS
330
19
102
}
330
19
100
AcDbDictionary
281
     1
  3
ByBlock
350
66D4
  3
ByLayer
350
264
  3
Global
350
266
  0
DICTIONARY
  5
336
102
{ACAD_REACTORS
330
19
102
}
330
19
100
AcDbDictionary
281
     1
  3
Standard
350
D59
  0
DICTIONARY
  5
1B
102
{ACAD_REACTORS
330
19
102
}
330
19
100
AcDbDictionary
281
     1
  3
Standard
350
1C
  0
DICTIONARY
  5
22
102
{ACAD_REACTORS
330
19
102
}
330
19
100
AcDbDictionary
281
     1
  0
ACDBDICTIONARYWDFLT
  5
1F
102
{ACAD_REACTORS
330
19
102
}
330
19
100
AcDbDictionary
281
     1
  3
Normal
350
1D
100
AcDbDictionaryWithDefault
340
1D
  0
DICTIONARY
  5
241
102
{ACAD_REACTORS
330
19
102
}
330
19
100
AcDbDictionary
281
     1
  3
A0
350
242
  3
A1
350
243
  3
A2
350
244
  3
A3
350
245
  3
A4
350
246
  3
A5
350
247
  3
A6
350
248
  3
A7
350
249
  3
A8
350
24A
  3
A9
350
24B
  3
B0
350
24C
  3
B1
350
24D
  3
B2
350
24E
  3
B3
350
24F
  3
B4
350
250
  3
B5
350
251
  3
B6
350
252
  3
B7
350
253
  3
B8
350
254
  3
B9
350
255
  3
C0
350
256
  3
C1
350
257
  3
C2
350
258
  3
C3
350
259
  3
C4
350
25A
  3
C5
350
25B
  3
C6
350
25C
  3
C7
350
25D
  3
C8
350
25E
  3
C9
350
25F
  3
D0
350
260
  3
D1
350
261
  3
D2
350
262
  0
DICTIONARY
  5
BC0
102
{ACAD_REACTORS
330
19
102
}
330
19
100
AcDbDictionary
281
     1
  0
DICTIONARY
  5
278
102
{ACAD_REACTORS
330
19
102
}
330
19
100
AcDbDictionary
281
     1
  3
Standard
350
279
  0
DICTIONARY
  5
267
102
{ACAD_REACTORS
330
19
102
}
330
19
100
AcDbDictionary
281
     1
  3
2dWireframe
350
26C
  3
3D Hidden
350
26E
  3
3dWireframe
350
26D
  3
Basic
350
26F
  3
Brighten
350
273
  3
ColorChange
350
277
  3
Conceptual
350
271
  3
Dim
350
272
  3
EdgeColorOff
350
8FE
  3
Facepattern
350
276
  3
Flat
350
268
  3
FlatWithEdges
350
269
  3
Gouraud
350
26A
  3
GouraudWithEdges
350
26B
  3
Hidden
350
8FB
  3
JitterOff
350
8FC
  3
Linepattern
350
275
  3
OverhangOff
350
8FD
  3
Realistic
350
270
  3
Shaded
350
903
  3
Shaded with edges
350
902
  3
Shades of Gray
350
8FF
  3
Sketchy
350
900
  3
Thicken
350
274
  3
Wireframe
350
8FA
  3
X-Ray
350
901
  0
XRECORD
  5
6C2B
102
{ACAD_REACTORS
330
19
102
}
330
19
100
AcDbXrecord
280
     1
 90
        1
330
279
  0
DICTIONARY
  5
330
102
{ACAD_REACTORS
330
19
102
}
330
19
100
AcDbDictionary
281
     1
  3
CANNOSCALE
350
331
  3
CMLEADERSTYLE
350
D5E
  3
CTABLESTYLE
350
335
  3
HPTRANSPARENCY
350
D52
  3
XCLIPFRAME
350
896
  0
DICTIONARY
  5
27A
102
{ACAD_REACTORS
330
19
102
}
330
19
100
AcDbDictionary
281
     1
  0
DICTIONARY
  5
E38
102
{ACAD_REACTORS
330
19
102
}
330
19
100
AcDbDictionary
281
     1
  3
DIMRAILANGLE
350
38B2
  3
DIMRAILFIRSTOFFSET
350
38B0
  3
DIMRAILOFFSET
350
38B1
  3
DIMRAILSENABLED
350
38B3
  0
DICTIONARY
  5
2E2
102
{ACAD_REACTORS
330
2E1
102
}
330
2E1
100
AcDbDictionary
281
     1
  0
DICTIONARY
  5
DDE
102
{ACAD_REACTORS
330
2E1
102
}
330
2E1
100
AcDbDictionary
281
     1
1001
ACAD
1000
<All
  0
DICTIONARY
  5
6C21
102
{ACAD_REACTORS
330
4532
102
}
330
4532
100
AcDbDictionary
280
     1
281
     1
  3
TEXT
360
4531
  0
LAYOUT
  5
21
102
{ACAD_REACTORS
330
1E
102
}
330
1E
100
AcDbPlotSettings
  1

  2
none_device
  4
ISO_A3_(420.00_x_297.00_MM)
  6

 40
7.5
 41
20.0
 42
7.5
 43
20.0
 44
420.0
 45
297.0
 46
0.0
 47
0.0
 48
0.0
 49
0.0
140
0.0
141
0.0
142
1.0
143
1.0
 70
     0
 72
     1
 73
     0
 74
     0
  7

 75
     0
 76
     0
 77
     2
 78
   300
147
1.0
148
0.0
149
0.0
100
AcDbLayout
  1
Layout1
 70
     0
 71
     0
 10
-7.5
 20
-20.0
 11
412.5
 21
277.0
 12
0.0
 22
0.0
 32
0.0
 14
0.0
 24
0.0
 34
0.0
 15
0.0
 25
0.0
 35
0.0
146
0.0
 13
0.0
 23
0.0
 33
0.0
 16
0.0
 26
0.0
 36
0.0
 17
0.0
 27
0.0
 37
0.0
 76
     0
330
B
331
349
  0
LAYOUT
  5
20
102
{ACAD_REACTORS
330
1E
102
}
330
1E
100
AcDbPlotSettings
  1

  2
none_device
  4
ISO_A3_(420.00_x_297.00_MM)
  6

 40
7.5
 41
20.0
 42
7.5
 43
20.0
 44
420.0
 45
297.0
 46
0.0
 47
0.0
 48
0.0
 49
0.0
140
0.0
141
0.0
142
1.0
143
1.0
 70
  1024
 72
     1
 73
     0
 74
     0
  7

 75
     0
 76
     0
 77
     2
 78
   300
147
1.0
148
0.0
149
0.0
100
AcDbLayout
  1
Model
 70
     0
 71
     1
 10
0.0
 20
0.0
 11
420.0
 21
594.0
 12
0.0
 22
0.0
 32
0.0
 14
0.0
 24
0.0
 34
-0.0000000000000142
 15
420.0
 25
594.0
 35
0.0000000000000142
146
0.0
 13
0.0
 23
0.0
 33
0.0
 16
0.0
 26
0.0
 36
0.0
 17
0.0
 27
0.0
 37
0.0
 76
     0
330
A
331
15
  0
MATERIAL
  5
66D4
102
{ACAD_REACTORS
330
263
102
}
330
263
100
AcDbMaterial
  1
ByBlock
 72
     1
 94
      127
  0
MATERIAL
  5
264
102
{ACAD_REACTORS
330
263
102
}
330
263
100
AcDbMaterial
  1
ByLayer
 72
     1
 94
      127
  0
MATERIAL
  5
266
102
{ACAD_REACTORS
330
263
102
}
330
263
100
AcDbMaterial
  1
Global
 72
     1
 94
      127
  0
MLEADERSTYLE
  5
D59
102
{ACAD_REACTORS
330
336
102
}
330
336
100
AcDbMLeaderStyle
170
     2
171
     1
172
     0
 90
        2
 40
0.0
 41
0.0
173
     1
 91
-1056964608
340
11
 92
       -2
290
     1
 42
2.0
291
     1
 43
8.0
  3
Standard
341
0
 44
4.0
300

342
17
174
     1
178
     6
175
     1
176
     0
 93
-1056964608
 45
4.0
292
     0
297
     0
 46
4.0
343
0
 94
-1056964608
 47
1.0
 49
1.0
140
1.0
293
     1
141
0.0
294
     1
177
     0
142
1.0
295
     0
296
     0
143
3.75
1001
ACAD_MLEADERVER
1070
     2
  0
MLINESTYLE
  5
1C
102
{ACAD_REACTORS
330
1B
102
}
330
1B
100
AcDbMlineStyle
  2
Standard
 70
     0
  3

 62
     0
 51
90.0
 52
90.0
 71
     2
 49
0.5
 62
   256
  6
BYLAYER
 49
-0.5
 62
   256
  6
BYLAYER
  0
ACDBPLACEHOLDER
  5
1D
102
{ACAD_REACTORS
330
1F
102
}
330
1F
  0
SCALE
  5
242
102
{ACAD_REACTORS
330
241
102
}
330
241
100
AcDbScale
 70
     0
300
1:1
140
1.0
141
1.0
290
     1
  0
SCALE
  5
243
102
{ACAD_REACTORS
330
241
102
}
330
241
100
AcDbScale
 70
     0
300
1:2
140
1.0
141
2.0
290
     0
  0
SCALE
  5
244
102
{ACAD_REACTORS
330
241
102
}
330
241
100
AcDbScale
 70
     0
300
1:4
140
1.0
141
4.0
290
     0
  0
SCALE
  5
245
102
{ACAD_REACTORS
330
241
102
}
330
241
100
AcDbScale
 70
     0
300
1:5
140
1.0
141
5.0
290
     0
  0
SCALE
  5
246
102
{ACAD_REACTORS
330
241
102
}
330
241
100
AcDbScale
 70
     0
300
1:8
140
1.0
141
8.0
290
     0
  0
SCALE
  5
247
102
{ACAD_REACTORS
330
241
102
}
330
241
100
AcDbScale
 70
     0
300
1:10
140
1.0
141
10.0
290
     0
  0
SCALE
  5
248
102
{ACAD_REACTORS
330
241
102
}
330
241
100
AcDbScale
 70
     0
300
1:16
140
1.0
141
16.0
290
     0
  0
SCALE
  5
249
102
{ACAD_REACTORS
330
241
102
}
330
241
100
AcDbScale
 70
     0
300
1:20
140
1.0
141
20.0
290
     0
  0
SCALE
  5
24A
102
{ACAD_REACTORS
330
241
102
}
330
241
100
AcDbScale
 70
     0
300
1:30
140
1.0
141
30.0
290
     0
  0
SCALE
  5
24B
102
{ACAD_REACTORS
330
241
102
}
330
241
100
AcDbScale
 70
     0
300
1:40
140
1.0
141
40.0
290
     0
  0
SCALE
  5
24C
102
{ACAD_REACTORS
330
241
102
}
330
241
100
AcDbScale
 70
     0
300
1:50
140
1.0
141
50.0
290
     0
  0
SCALE
  5
24D
102
{ACAD_REACTORS
330
241
102
}
330
241
100
AcDbScale
 70
     0
300
1:100
140
1.0
141
100.0
290
     0
  0
SCALE
  5
24E
102
{ACAD_REACTORS
330
241
102
}
330
241
100
AcDbScale
 70
     0
300
2:1
140
2.0
141
1.0
290
     0
  0
SCALE
  5
24F
102
{ACAD_REACTORS
330
241
102
}
330
241
100
AcDbScale
 70
     0
300
4:1
140
4.0
141
1.0
290
     0
  0
SCALE
  5
250
102
{ACAD_REACTORS
330
241
102
}
330
241
100
AcDbScale
 70
     0
300
8:1
140
8.0
141
1.0
290
     0
  0
SCALE
  5
251
102
{ACAD_REACTORS
330
241
102
}
330
241
100
AcDbScale
 70
     0
300
10:1
140
10.0
141
1.0
290
     0
  0
SCALE
  5
252
102
{ACAD_REACTORS
330
241
102
}
330
241
100
AcDbScale
 70
     0
300
100:1
140
100.0
141
1.0
290
     0
  0
SCALE
  5
253
102
{ACAD_REACTORS
330
241
102
}
330
241
100
AcDbScale
 70
     0
300
1/128" = 1'-0"
140
0.0078125
141
12.0
290
     0
  0
SCALE
  5
254
102
{ACAD_REACTORS
330
241
102
}
330
241
100
AcDbScale
 70
     0
300
1/64" = 1'-0"
140
0.015625
141
12.0
290
     0
  0
SCALE
  5
255
102
{ACAD_REACTORS
330
241
102
}
330
241
100
AcDbScale
 70
     0
300
1/32" = 1'-0"
140
0.03125
141
12.0
290
     0
  0
SCALE
  5
256
102
{ACAD_REACTORS
330
241
102
}
330
241
100
AcDbScale
 70
     0
300
1/16" = 1'-0"
140
0.0625
141
12.0
290
     0
  0
SCALE
  5
257
102
{ACAD_REACTORS
330
241
102
}
330
241
100
AcDbScale
 70
     0
300
3/32" = 1'-0"
140
0.09375
141
12.0
290
     0
  0
SCALE
  5
258
102
{ACAD_REACTORS
330
241
102
}
330
241
100
AcDbScale
 70
     0
300
1/8" = 1'-0"
140
0.125
141
12.0
290
     0
  0
SCALE
  5
259
102
{ACAD_REACTORS
330
241
102
}
330
241
100
AcDbScale
 70
     0
300
3/16" = 1'-0"
140
0.1875
141
12.0
290
     0
  0
SCALE
  5
25A
102
{ACAD_REACTORS
330
241
102
}
330
241
100
AcDbScale
 70
     0
300
1/4" = 1'-0"
140
0.25
141
12.0
290
     0
  0
SCALE
  5
25B
102
{ACAD_REACTORS
330
241
102
}
330
241
100
AcDbScale
 70
     0
300
3/8" = 1'-0"
140
0.375
141
12.0
290
     0
  0
SCALE
  5
25C
102
{ACAD_REACTORS
330
241
102
}
330
241
100
AcDbScale
 70
     0
300
1/2" = 1'-0"
140
0.5
141
12.0
290
     0
  0
SCALE
  5
25D
102
{ACAD_REACTORS
330
241
102
}
330
241
100
AcDbScale
 70
     0
300
3/4" = 1'-0"
140
0.75
141
12.0
290
     0
  0
SCALE
  5
25E
102
{ACAD_REACTORS
330
241
102
}
330
241
100
AcDbScale
 70
     0
300
1" = 1'-0"
140
1.0
141
12.0
290
     0
  0
SCALE
  5
25F
102
{ACAD_REACTORS
330
241
102
}
330
241
100
AcDbScale
 70
     0
300
1-1/2" = 1'-0"
140
1.5
141
12.0
290
     0
  0
SCALE
  5
260
102
{ACAD_REACTORS
330
241
102
}
330
241
100
AcDbScale
 70
     0
300
3" = 1'-0"
140
3.0
141
12.0
290
     0
  0
SCALE
  5
261
102
{ACAD_REACTORS
330
241
102
}
330
241
100
AcDbScale
 70
     0
300
6" = 1'-0"
140
6.0
141
12.0
290
     0
  0
SCALE
  5
262
102
{ACAD_REACTORS
330
241
102
}
330
241
100
AcDbScale
 70
     0
300
1'-0" = 1'-0"
140
12.0
141
12.0
290
     0
  0
TABLESTYLE
  5
279
102
{ACAD_REACTORS
330
278
102
}
102
{ACAD_XDICTIONARY
360
6C29
102
}
330
278
100
AcDbTableStyle
  3
Standard
 70
     0
 71
     0
 40
0.06
 41
0.06
280
     0
281
     0
  7
Standard
140
4.5
170
     2
 62
     0
 63
   257
283
     0
 90
        4
 91
        0
  1

274
    -2
284
     1
 64
     0
275
    -2
285
     1
 65
     0
276
    -2
286
     1
 66
     0
277
    -2
287
     1
 67
     0
278
    -2
288
     1
 68
     0
279
    -2
289
     1
 69
     0
  7
Standard
140
6.0
170
     5
 62
     0
 63
   257
283
     0
 90
        4
 91
        0
  1

274
    -2
284
     1
 64
     0
275
    -2
285
     1
 65
     0
276
    -2
286
     1
 66
     0
277
    -2
287
     1
 67
     0
278
    -2
288
     1
 68
     0
279
    -2
289
     1
 69
     0
  7
Standard
140
4.5
170
     5
 62
     0
 63
   257
283
     0
 90
        4
 91
        0
  1

274
    -2
284
     1
 64
     0
275
    -2
285
     1
 65
     0
276
    -2
286
     1
 66
     0
277
    -2
287
     1
 67
     0
278
    -2
288
     1
 68
     0
279
    -2
289
     1
 69
     0
  0
VISUALSTYLE
  5
26C
102
{ACAD_REACTORS
330
267
102
}
330
267
100
AcDbVisualStyle
  2
2dWireframe
 70
     4
 71
     0
 72
     2
 73
     0
 90
        0
 40
-0.6
 41
-30.0
 62
     5
 63
     7
421
 16777215
 74
     1
 91
        4
 64
     7
 65
   257
 75
     1
175
     1
 42
1.0
 92
        0
 66
   257
 43
1.0
 76
     1
 77
     6
 78
     2
 67
     7
 79
     5
170
     0
171
     0
290
     0
174
     0
 93
        1
 44
0.0
173
     0
291
     0
 45
0.0
  0
VISUALSTYLE
  5
26E
102
{ACAD_REACTORS
330
267
102
}
330
267
100
AcDbVisualStyle
  2
3D Hidden
 70
     6
 71
     1
 72
     2
 73
     2
 90
        0
 40
-0.6
 41
-30.0
 62
     5
 63
     7
421
 16777215
 74
     2
 91
        2
 64
     7
 65
   257
 75
     2
175
     1
 42
40.0
 92
        0
 66
   257
 43
1.0
 76
     1
 77
     6
 78
     2
 67
     7
 79
     3
170
     0
171
     0
290
     0
174
     0
 93
        1
 44
0.0
173
     0
291
     0
 45
0.0
  0
VISUALSTYLE
  5
26D
102
{ACAD_REACTORS
330
267
102
}
330
267
100
AcDbVisualStyle
  2
3dWireframe
 70
     5
 71
     0
 72
     2
 73
     0
 90
        0
 40
-0.6
 41
-30.0
 62
     5
 63
     7
421
 16777215
 74
     1
 91
        4
 64
     7
 65
   257
 75
     1
175
     1
 42
1.0
 92
        0
 66
   257
 43
1.0
 76
     1
 77
     6
 78
     2
 67
     7
 79
     5
170
     0
171
     0
290
     0
174
     0
 93
        1
 44
0.0
173
     0
291
     0
 45
0.0
  0
VISUALSTYLE
  5
26F
102
{ACAD_REACTORS
330
267
102
}
330
267
100
AcDbVisualStyle
  2
Basic
 70
     7
 71
     1
 72
     0
 73
     1
 90
        0
 40
-0.6
 41
-30.0
 62
     5
 63
     7
421
 16777215
 74
     0
 91
        4
 64
     7
 65
   257
 75
     1
175
     1
 42
1.0
 92
        8
 66
     7
 43
1.0
 76
     1
 77
     6
 78
     2
 67
     7
 79
     5
170
     0
171
     0
290
     0
174
     0
 93
        1
 44
0.0
173
     0
291
     1
 45
0.0
  0
VISUALSTYLE
  5
273
102
{ACAD_REACTORS
330
267
102
}
330
267
100
AcDbVisualStyle
  2
Brighten
 70
    12
 71
     2
 72
     2
 73
     0
 90
        0
 40
-0.6
 41
-30.0
 62
     5
 63
     7
421
 16777215
 74
     1
 91
        4
 64
     7
 65
   257
 75
     1
175
     1
 42
1.0
 92
        8
 66
     7
 43
1.0
 76
     1
 77
     6
 78
     2
 67
     7
 79
     5
170
     0
171
     0
290
     0
174
     0
 93
        1
 44
50.0
173
     0
291
     1
 45
0.0
  0
VISUALSTYLE
  5
277
102
{ACAD_REACTORS
330
267
102
}
330
267
100
AcDbVisualStyle
  2
ColorChange
 70
    16
 71
     2
 72
     2
 73
     3
 90
        0
 40
-0.6
 41
-30.0
 62
     5
 63
     8
421
  8421504
 74
     1
 91
        4
 64
     7
 65
   257
 75
     1
175
     1
 42
1.0
 92
        8
 66
     8
424
  8421504
 43
1.0
 76
     1
 77
     6
 78
     2
 67
     7
 79
     5
170
     0
171
     0
290
     0
174
     0
 93
        1
 44
0.0
173
     0
291
     1
 45
0.0
  0
VISUALSTYLE
  5
271
102
{ACAD_REACTORS
330
267
102
}
330
267
100
AcDbVisualStyle
  2
Conceptual
 70
     9
 71
     3
 72
     2
 73
     0
 90
        0
 40
-0.6
 41
-30.0
 62
     5
 63
     7
421
 16777215
 74
     2
 91
        2
 64
     7
 65
   257
 75
     1
175
     1
 42
40.0
 92
        8
 66
     7
 43
1.0
 76
     1
 77
     6
 78
     2
 67
     7
 79
     3
170
     0
171
     0
290
     0
174
     0
 93
        1
 44
0.0
173
     0
291
     0
 45
0.0
  0
VISUALSTYLE
  5
272
102
{ACAD_REACTORS
330
267
102
}
330
267
100
AcDbVisualStyle
  2
Dim
 70
    11
 71
     2
 72
     2
 73
     0
 90
        0
 40
-0.6
 41
-30.0
 62
     5
 63
     7
421
 16777215
 74
     1
 91
        4
 64
     7
 65
   257
 75
     1
175
     1
 42
1.0
 92
        8
 66
     7
 43
1.0
 76
     1
 77
     6
 78
     2
 67
     7
 79
     5
170
     0
171
     0
290
     0
174
     0
 93
        1
 44
-50.0
173
     0
291
     1
 45
0.0
  0
VISUALSTYLE
  5
8FE
102
{ACAD_REACTORS
330
267
102
}
330
267
100
AcDbVisualStyle
  2
EdgeColorOff
 70
    22
 71
     2
 72
     2
 73
     0
 90
        0
 40
0.6
 41
30.0
 62
     5
 63
     7
421
 16777215
 74
     1
 91
        4
 64
     7
 65
   257
 75
     1
175
     1
 42
1.0
 92
        8
 66
     7
 43
1.0
 76
     1
 77
     6
 78
     2
 67
     7
 79
     5
170
     0
171
     0
290
     0
174
     0
 93
        1
 44
0.0
173
     0
291
     1
 45
0.0
  0
VISUALSTYLE
  5
276
102
{ACAD_REACTORS
330
267
102
}
330
267
100
AcDbVisualStyle
  2
Facepattern
 70
    15
 71
     2
 72
     2
 73
     0
 90
        0
 40
-0.6
 41
-30.0
 62
     5
 63
     7
421
 16777215
 74
     1
 91
        4
 64
     7
 65
   257
 75
     1
175
     1
 42
1.0
 92
        8
 66
     7
 43
1.0
 76
     1
 77
     6
 78
     2
 67
     7
 79
     5
170
     0
171
     0
290
     0
174
     0
 93
        1
 44
0.0
173
     0
291
     1
 45
0.0
  0
VISUALSTYLE
  5
268
102
{ACAD_REACTORS
330
267
102
}
330
267
100
AcDbVisualStyle
  2
Flat
 70
     0
 71
     2
 72
     1
 73
     1
 90
        2
 40
-0.6
 41
30.0
 62
     5
 63
     7
421
 16777215
 74
     0
 91
        4
 64
     7
 65
   257
 75
     1
175
     1
 42
1.0
 92
        8
 66
     7
 43
1.0
 76
     1
 77
     6
 78
     2
 67
     7
 79
     5
170
     0
171
     0
290
     0
174
     0
 93
       13
 44
0.0
173
     0
291
     1
 45
0.0
  0
VISUALSTYLE
  5
269
102
{ACAD_REACTORS
330
267
102
}
330
267
100
AcDbVisualStyle
  2
FlatWithEdges
 70
     1
 71
     2
 72
     1
 73
     1
 90
        2
 40
-0.6
 41
30.0
 62
     5
 63
     7
421
 16777215
 74
     1
 91
        4
 64
     7
 65
   257
 75
     1
175
     1
 42
1.0
 92
        0
 66
   257
 43
1.0
 76
     1
 77
     6
 78
     2
 67
     7
 79
     5
170
     0
171
     0
290
     0
174
     0
 93
       13
 44
0.0
173
     0
291
     1
 45
0.0
  0
VISUALSTYLE
  5
26A
102
{ACAD_REACTORS
330
267
102
}
330
267
100
AcDbVisualStyle
  2
Gouraud
 70
     2
 71
     2
 72
     2
 73
     1
 90
        2
 40
-0.6
 41
30.0
 62
     5
 63
     7
421
 16777215
 74
     0
 91
        4
 64
     7
 65
   257
 75
     1
175
     1
 42
1.0
 92
        0
 66
     7
 43
1.0
 76
     1
 77
     6
 78
     2
 67
     7
 79
     5
170
     0
171
     0
290
     0
174
     0
 93
       13
 44
0.0
173
     0
291
     1
 45
0.0
  0
VISUALSTYLE
  5
26B
102
{ACAD_REACTORS
330
267
102
}
330
267
100
AcDbVisualStyle
  2
GouraudWithEdges
 70
     3
 71
     2
 72
     2
 73
     1
 90
        2
 40
-0.6
 41
30.0
 62
     5
 63
     7
421
 16777215
 74
     1
 91
        4
 64
     7
 65
   257
 75
     1
175
     1
 42
1.0
 92
        0
 66
   257
 43
1.0
 76
     1
 77
     6
 78
     2
 67
     7
 79
     5
170
     0
171
     0
290
     0
174
     0
 93
       13
 44
0.0
173
     0
291
     1
 45
0.0
  0
VISUALSTYLE
  5
8FB
102
{ACAD_REACTORS
330
267
102
}
330
267
100
AcDbVisualStyle
  2
Hidden
 70
     6
 71
     1
 72
     2
 73
     2
 90
        0
 40
0.6
 41
30.0
 62
     5
 63
     7
421
 16777215
 74
     2
 91
        2
 64
     7
 65
   257
 75
     2
175
     1
 42
40.0
 92
        0
 66
   257
 43
1.0
 76
     1
 77
     6
 78
     2
 67
     7
 79
     3
170
     0
171
     0
290
     0
174
     0
 93
        1
 44
0.0
173
     0
291
     0
 45
0.0
  0
VISUALSTYLE
  5
8FC
102
{ACAD_REACTORS
330
267
102
}
330
267
100
AcDbVisualStyle
  2
JitterOff
 70
    20
 71
     2
 72
     2
 73
     0
 90
        0
 40
0.6
 41
30.0
 62
     5
 63
     7
421
 16777215
 74
     1
 91
        4
 64
     7
 65
   257
 75
     1
175
     1
 42
1.0
 92
       10
 66
     7
 43
1.0
 76
     1
 77
     6
 78
     2
 67
     7
 79
     5
170
     0
171
     0
290
     0
174
     0
 93
        1
 44
0.0
173
     0
291
     1
 45
0.0
  0
VISUALSTYLE
  5
275
102
{ACAD_REACTORS
330
267
102
}
330
267
100
AcDbVisualStyle
  2
Linepattern
 70
    14
 71
     2
 72
     2
 73
     0
 90
        0
 40
-0.6
 41
-30.0
 62
     5
 63
     7
421
 16777215
 74
     1
 91
        4
 64
     7
 65
   257
 75
     7
175
     7
 42
1.0
 92
        8
 66
     7
 43
1.0
 76
     1
 77
     6
 78
     2
 67
     7
 79
     5
170
     0
171
     0
290
     0
174
     0
 93
        1
 44
0.0
173
     0
291
     1
 45
0.0
  0
VISUALSTYLE
  5
8FD
102
{ACAD_REACTORS
330
267
102
}
330
267
100
AcDbVisualStyle
  2
OverhangOff
 70
    21
 71
     2
 72
     2
 73
     0
 90
        0
 40
0.6
 41
30.0
 62
     5
 63
     7
421
 16777215
 74
     1
 91
        4
 64
     7
 65
   257
 75
     1
175
     1
 42
1.0
 92
        9
 66
     7
 43
1.0
 76
     1
 77
     6
 78
     2
 67
     7
 79
     5
170
     0
171
     0
290
     0
174
     0
 93
        1
 44
0.0
173
     0
291
     1
 45
0.0
  0
VISUALSTYLE
  5
270
102
{ACAD_REACTORS
330
267
102
}
330
267
100
AcDbVisualStyle
  2
Realistic
 70
     8
 71
     2
 72
     2
 73
     0
 90
        0
 40
-0.6
 41
-30.0
 62
     5
 63
     7
421
 16777215
 74
     1
 91
        0
 64
     7
 65
   257
 75
     1
175
     1
 42
1.0
 92
        8
 66
     8
424
  7895160
 43
1.0
 76
     1
 77
     6
 78
     2
 67
     7
 79
     5
170
     0
171
     0
290
     0
174
     0
 93
       13
 44
0.0
173
     0
291
     0
 45
0.0
  0
VISUALSTYLE
  5
903
102
{ACAD_REACTORS
330
267
102
}
330
267
100
AcDbVisualStyle
  2
Shaded
 70
    27
 71
     2
 72
     2
 73
     1
 90
        2
 40
0.6
 41
30.0
 62
     5
 63
     7
421
 16777215
 74
     0
 91
        4
 64
     7
 65
   257
 75
     1
175
     1
 42
1.0
 92
        8
 66
   257
 43
1.0
 76
     1
 77
     6
 78
     2
 67
     8
425
  7895160
 79
     3
170
     0
171
     0
290
     0
174
     0
 93
        5
 44
0.0
173
     0
291
     0
 45
0.0
  0
VISUALSTYLE
  5
902
102
{ACAD_REACTORS
330
267
102
}
330
267
100
AcDbVisualStyle
  2
Shaded with edges
 70
    26
 71
     2
 72
     2
 73
     1
 90
        2
 40
0.6
 41
30.0
 62
     5
 63
     7
421
 16777215
 74
     1
 91
       10
 64
     7
 65
   257
 75
     2
175
     1
 42
1.0
 92
        8
 66
   257
 43
1.0
 76
     1
 77
     6
 78
     2
 67
     7
 79
     3
170
     0
171
     0
290
     0
174
     0
 93
        5
 44
0.0
173
     0
291
     0
 45
0.0
  0
VISUALSTYLE
  5
8FF
102
{ACAD_REACTORS
330
267
102
}
330
267
100
AcDbVisualStyle
  2
Shades of Gray
 70
    23
 71
     2
 72
     2
 73
     3
 90
        0
 40
0.6
 41
30.0
 62
     5
 63
     7
421
 16777215
 74
     2
 91
        2
 64
     7
 65
     7
 75
     1
175
     1
 42
40.0
 92
        8
 66
     7
 43
1.0
 76
     1
 77
     6
 78
     2
 67
     7
 79
     3
170
     0
171
     0
290
     0
174
     0
 93
        1
 44
0.0
173
     0
291
     0
 45
0.0
  0
VISUALSTYLE
  5
900
102
{ACAD_REACTORS
330
267
102
}
330
267
100
AcDbVisualStyle
  2
Sketchy
 70
    24
 71
     1
 72
     2
 73
     2
 90
        0
 40
0.6
 41
30.0
 62
     5
 63
     7
421
 16777215
 74
     2
 91
        2
 64
     7
 65
     7
 75
     1
175
     1
 42
40.0
 92
       11
 66
     7
 43
1.0
 76
     1
 77
     6
 78
     2
 67
     7
 79
     6
170
     0
171
     0
290
     0
174
     0
 93
        1
 44
0.0
173
     0
291
     0
 45
0.0
  0
VISUALSTYLE
  5
274
102
{ACAD_REACTORS
330
267
102
}
330
267
100
AcDbVisualStyle
  2
Thicken
 70
    13
 71
     2
 72
     2
 73
     0
 90
        0
 40
-0.6
 41
-30.0
 62
     5
 63
     7
421
 16777215
 74
     1
 91
        4
 64
     7
 65
   257
 75
     1
175
     1
 42
1.0
 92
       12
 66
     7
 43
1.0
 76
     1
 77
     6
 78
     2
 67
     7
 79
     5
170
     0
171
     0
290
     0
174
     0
 93
        1
 44
0.0
173
     0
291
     1
 45
0.0
  0
VISUALSTYLE
  5
8FA
102
{ACAD_REACTORS
330
267
102
}
330
267
100
AcDbVisualStyle
  2
Wireframe
 70
     5
 71
     0
 72
     2
 73
     0
 90
        0
 40
0.6
 41
30.0
 62
     5
 63
     7
421
 16777215
 74
     1
 91
        4
 64
     7
 65
   257
 75
     1
175
     1
 42
1.0
 92
        0
 66
   257
 43
1.0
 76
     1
 77
     6
 78
     2
 67
     7
 79
     3
170
     0
171
     0
290
     0
174
     0
 93
        1
 44
0.0
173
     0
291
     0
 45
0.0
  0
VISUALSTYLE
  5
901
102
{ACAD_REACTORS
330
267
102
}
330
267
100
AcDbVisualStyle
  2
X-Ray
 70
    25
 71
     2
 72
     2
 73
     1
 90
        1
 40
0.5
 41
30.0
 62
     5
 63
     7
421
 16777215
 74
     1
 91
        0
 64
     7
 65
   257
 75
     1
175
     1
 42
1.0
 92
        8
 66
     7
 43
1.0
 76
     1
 77
     6
 78
     2
 67
     7
 79
     3
170
     0
171
     0
290
     0
174
     0
 93
       13
 44
0.0
173
     0
291
     0
 45
0.0
  0
DICTIONARYVAR
  5
331
102
{ACAD_REACTORS
330
330
102
}
330
330
100
DictionaryVariables
280
     0
  1
1:1
  0
DICTIONARYVAR
  5
D5E
102
{ACAD_REACTORS
330
330
102
}
330
330
100
DictionaryVariables
280
     0
  1
Standard
  0
DICTIONARYVAR
  5
335
102
{ACAD_REACTORS
330
330
102
}
330
330
100
DictionaryVariables
280
     0
  1
Standard
  0
DICTIONARYVAR
  5
D52
102
{ACAD_REACTORS
330
330
102
}
330
330
100
DictionaryVariables
280
     0
  1
ByLayer
  0
DICTIONARYVAR
  5
896
102
{ACAD_REACTORS
330
330
102
}
330
330
100
DictionaryVariables
280
     0
  1
0
  0
DICTIONARYVAR
  5
38B2
102
{ACAD_REACTORS
330
E38
102
}
330
E38
100
DictionaryVariables
280
     0
  1
0.261799
  0
DICTIONARYVAR
  5
38B0
102
{ACAD_REACTORS
330
E38
102
}
330
E38
100
DictionaryVariables
280
     0
  1
0.400000
  0
DICTIONARYVAR
  5
38B1
102
{ACAD_REACTORS
330
E38
102
}
330
E38
100
DictionaryVariables
280
     0
  1
0.250000
  0
DICTIONARYVAR
  5
38B3
102
{ACAD_REACTORS
330
E38
102
}
330
E38
100
DictionaryVariables
280
     0
  1
1
  0
FIELD
  5
4531
102
{ACAD_REACTORS
330
4539
330
6C20
330
6C21
102
}
330
6C21
100
AcDbField
  1
_text
  2
{%<\_FldIdx 0>%M}
 90
        1
360
4534
 97
        0
 91
       63
 92
        0
 94
       11
 95
        2
 96
        0
300

 93
        1
  6
ACFD_FIELDTEXT_CHECKSUM
 93
        2
 90
        2
140
4447.0
 94
        0
300

302

304
ACVALUE_END
  7
ACFD_FIELD_VALUE
 93
        6
 90
        4
  1
{20211014M}
 94
        0
300

302

304
ACVALUE_END
301
{20211014M}
 98
       11
  0
DICTIONARY
  5
6C29
330
279
100
AcDbDictionary
280
     1
281
     1
  3
ACAD_ROUNDTRIP_2008_TABLESTYLE_CELLSTYLEMAP
360
6C2A
  0
FIELD
  5
4534
330
4531
100
AcDbField
  1
AcVar
  2
\AcVar CreateDate \f "yyyyMMdd"
 90
        0
 97
        0
 91
       63
 92
        0
 94
        8
 95
        2
 96
        0
300

 93
        1
  6
Variable
 93
        2
 90
        4
  1
CreateDate
 94
        0
300

302

304
ACVALUE_END
  7
ACFD_FIELD_VALUE
 93
        6
 90
        8
 92
       16
310
E5070A0000000E000500360038000000
 94
        0
300
yyyyMMdd
302

304
ACVALUE_END
301
20211014
 98
        8
  0
CELLSTYLEMAP
  5
6C2A
102
{ACAD_REACTORS
330
6C29
102
}
330
6C29
100
AcDbCellStyleMap
 90
        3
300
CELLSTYLE
  1
TABLEFORMAT_BEGIN
 90
        5
170
     1
 91
        0
 92
    32768
 62
   257
 93
        1
300
CONTENTFORMAT
  1
CONTENTFORMAT_BEGIN
 90
        0
 91
        0
 92
        4
 93
        0
300

 40
0.0
140
1.0
 94
        5
 62
     0
340
17
144
6.0
309
CONTENTFORMAT_END
171
     1
301
MARGIN
  1
CELLMARGIN_BEGIN
 40
0.06
 40
0.06
 40
0.06
 40
0.06
 40
0.18
 40
0.18
309
CELLMARGIN_END
 94
        6
 95
        1
302
GRIDFORMAT
  1
GRIDFORMAT_BEGIN
 90
        0
 91
        1
 62
     0
 92
       -2
340
0
 93
        0
 40
0.045
309
GRIDFORMAT_END
 95
        2
302
GRIDFORMAT
  1
GRIDFORMAT_BEGIN
 90
        0
 91
        1
 62
     0
 92
       -2
340
0
 93
        0
 40
0.045
309
GRIDFORMAT_END
 95
        4
302
GRIDFORMAT
  1
GRIDFORMAT_BEGIN
 90
        0
 91
        1
 62
     0
 92
       -2
340
0
 93
        0
 40
0.045
309
GRIDFORMAT_END
 95
        8
302
GRIDFORMAT
  1
GRIDFORMAT_BEGIN
 90
        0
 91
        1
 62
     0
 92
       -2
340
0
 93
        0
 40
0.045
309
GRIDFORMAT_END
 95
       16
302
GRIDFORMAT
  1
GRIDFORMAT_BEGIN
 90
        0
 91
        1
 62
     0
 92
       -2
340
0
 93
        0
 40
0.045
309
GRIDFORMAT_END
 95
       32
302
GRIDFORMAT
  1
GRIDFORMAT_BEGIN
 90
        0
 91
        1
 62
     0
 92
       -2
340
0
 93
        0
 40
0.045
309
GRIDFORMAT_END
309
TABLEFORMAT_END
  1
CELLSTYLE_BEGIN
 90
        1
 91
        1
300
_TITLE
309
CELLSTYLE_END
300
CELLSTYLE
  1
TABLEFORMAT_BEGIN
 90
        5
170
     1
 91
        0
 92
        0
 62
   257
 93
        1
300
CONTENTFORMAT
  1
CONTENTFORMAT_BEGIN
 90
        0
 91
        0
 92
        4
 93
        0
300

 40
0.0
140
1.0
 94
        5
 62
     0
340
17
144
4.5
309
CONTENTFORMAT_END
171
     1
301
MARGIN
  1
CELLMARGIN_BEGIN
 40
0.06
 40
0.06
 40
0.06
 40
0.06
 40
0.18
 40
0.18
309
CELLMARGIN_END
 94
        6
 95
        1
302
GRIDFORMAT
  1
GRIDFORMAT_BEGIN
 90
        0
 91
        1
 62
     0
 92
       -2
340
0
 93
        0
 40
0.045
309
GRIDFORMAT_END
 95
        2
302
GRIDFORMAT
  1
GRIDFORMAT_BEGIN
 90
        0
 91
        1
 62
     0
 92
       -2
340
0
 93
        0
 40
0.045
309
GRIDFORMAT_END
 95
        4
302
GRIDFORMAT
  1
GRIDFORMAT_BEGIN
 90
        0
 91
        1
 62
     0
 92
       -2
340
0
 93
        0
 40
0.045
309
GRIDFORMAT_END
 95
        8
302
GRIDFORMAT
  1
GRIDFORMAT_BEGIN
 90
        0
 91
        1
 62
     0
 92
       -2
340
0
 93
        0
 40
0.045
309
GRIDFORMAT_END
 95
       16
302
GRIDFORMAT
  1
GRIDFORMAT_BEGIN
 90
        0
 91
        1
 62
     0
 92
       -2
340
0
 93
        0
 40
0.045
309
GRIDFORMAT_END
 95
       32
302
GRIDFORMAT
  1
GRIDFORMAT_BEGIN
 90
        0
 91
        1
 62
     0
 92
       -2
340
0
 93
        0
 40
0.045
309
GRIDFORMAT_END
309
TABLEFORMAT_END
  1
CELLSTYLE_BEGIN
 90
        2
 91
        1
300
_HEADER
309
CELLSTYLE_END
300
CELLSTYLE
  1
TABLEFORMAT_BEGIN
 90
        5
170
     1
 91
        0
 92
        0
 62
   257
 93
        1
300
CONTENTFORMAT
  1
CONTENTFORMAT_BEGIN
 90
        0
 91
        0
 92
        4
 93
        0
300

 40
0.0
140
1.0
 94
        2
 62
     0
340
17
144
4.5
309
CONTENTFORMAT_END
171
     1
301
MARGIN
  1
CELLMARGIN_BEGIN
 40
0.06
 40
0.06
 40
0.06
 40
0.06
 40
0.18
 40
0.18
309
CELLMARGIN_END
 94
        6
 95
        1
302
GRIDFORMAT
  1
GRIDFORMAT_BEGIN
 90
        0
 91
        1
 62
     0
 92
       -2
340
0
 93
        0
 40
0.045
309
GRIDFORMAT_END
 95
        2
302
GRIDFORMAT
  1
GRIDFORMAT_BEGIN
 90
        0
 91
        1
 62
     0
 92
       -2
340
0
 93
        0
 40
0.045
309
GRIDFORMAT_END
 95
        4
302
GRIDFORMAT
  1
GRIDFORMAT_BEGIN
 90
        0
 91
        1
 62
     0
 92
       -2
340
0
 93
        0
 40
0.045
309
GRIDFORMAT_END
 95
        8
302
GRIDFORMAT
  1
GRIDFORMAT_BEGIN
 90
        0
 91
        1
 62
     0
 92
       -2
340
0
 93
        0
 40
0.045
309
GRIDFORMAT_END
 95
       16
302
GRIDFORMAT
  1
GRIDFORMAT_BEGIN
 90
        0
 91
        1
 62
     0
 92
       -2
340
0
 93
        0
 40
0.045
309
GRIDFORMAT_END
 95
       32
302
GRIDFORMAT
  1
GRIDFORMAT_BEGIN
 90
        0
 91
        1
 62
     0
 92
       -2
340
0
 93
        0
 40
0.045
309
GRIDFORMAT_END
309
TABLEFORMAT_END
  1
CELLSTYLE_BEGIN
 90
        3
 91
        2
300
_DATA
309
CELLSTYLE_END
  0
ENDSEC
  0
EOF
