  0
SECTION
  2
HEADER
  9
$ACADVER
  1
AC1021
  9
$ACADMAINTVER
 70
    25
  9
$DWGCODEPAGE
  3
ANSI_932
  9
$LASTSAVEDBY
  1
tform
  9
$INSBASE
 10
0.0
 20
0.0
 30
0.0
  9
$EXTMIN
 10
0.0
 20
0.0
 30
-0.0000000000000071
  9
$EXTMAX
 10
630.0
 20
891.0
 30
0.0000000000000071
  9
$LIMMIN
 10
0.0
 20
0.0
  9
$LIMMAX
 10
630.0
 20
891.0
  9
$ORTHOMODE
 70
     1
  9
$REGENMODE
 70
     1
  9
$FILLMODE
 70
     1
  9
$QTEXTMODE
 70
     0
  9
$MIRRTEXT
 70
     1
  9
$LTSCALE
 40
1.5
  9
$ATTMODE
 70
     1
  9
$TEXTSIZE
 40
2.5
  9
$TRACEWID
 40
1.0
  9
$TEXTSTYLE
  7
ＭＳ ゴシック
  9
$CLAYER
  8
DIM
  9
$CELTYPE
  6
ByLayer
  9
$CECOLOR
 62
   256
  9
$CELTSCALE
 40
1.0
  9
$DISPSILH
 70
     0
  9
$DIMSCALE
 40
1.0
  9
$DIMASZ
 40
3.0
  9
$DIMEXO
 40
10.0
  9
$DIMDLI
 40
0.9999999999999999
  9
$DIMRND
 40
0.0
  9
$DIMDLE
 40
0.0
  9
$DIMEXE
 40
0.0
  9
$DIMTP
 40
0.0
  9
$DIMTM
 40
0.0
  9
$DIMTXT
 40
8.0
  9
$DIMCEN
 40
0.0
  9
$DIMTSZ
 40
0.0
  9
$DIMTOL
 70
     0
  9
$DIMLIM
 70
     0
  9
$DIMTIH
 70
     0
  9
$DIMTOH
 70
     0
  9
$DIMSE1
 70
     0
  9
$DIMSE2
 70
     0
  9
$DIMTAD
 70
     1
  9
$DIMZIN
 70
    11
  9
$DIMBLK
  1
DOT
  9
$DIMASO
 70
     1
  9
$DIMSHO
 70
     1
  9
$DIMPOST
  1
<>
  9
$DIMAPOST
  1
[]
  9
$DIMALT
 70
     0
  9
$DIMALTD
 70
     1
  9
$DIMALTF
 40
1.0
  9
$DIMLFAC
 40
1.0
  9
$DIMTOFL
 70
     0
  9
$DIMTVP
 40
0.0
  9
$DIMTIX
 70
     1
  9
$DIMSOXD
 70
     0
  9
$DIMSAH
 70
     0
  9
$DIMBLK1
  1

  9
$DIMBLK2
  1

  9
$DIMSTYLE
  2
tfrom線あり
  9
$DIMCLRD
 70
     0
  9
$DIMCLRE
 70
     0
  9
$DIMCLRT
 70
     0
  9
$DIMTFAC
 40
1.0
  9
$DIMGAP
 40
2.0
  9
$DIMJUST
 70
     0
  9
$DIMSD1
 70
     0
  9
$DIMSD2
 70
     0
  9
$DIMTOLJ
 70
     1
  9
$DIMTZIN
 70
    11
  9
$DIMALTZ
 70
    11
  9
$DIMALTTZ
 70
    11
  9
$DIMUPT
 70
     0
  9
$DIMDEC
 70
     0
  9
$DIMTDEC
 70
     1
  9
$DIMALTU
 70
     2
  9
$DIMALTTD
 70
     2
  9
$DIMTXSTY
  7
ＭＳ ゴシック
  9
$DIMAUNIT
 70
     0
  9
$DIMADEC
 70
     2
  9
$DIMALTRND
 40
0.0
  9
$DIMAZIN
 70
     0
  9
$DIMDSEP
 70
    46
  9
$DIMATFIT
 70
     0
  9
$DIMFRAC
 70
     2
  9
$DIMLDRBLK
  1
DOT
  9
$DIMLUNIT
 70
     2
  9
$DIMLWD
 70
    -2
  9
$DIMLWE
 70
    -2
  9
$DIMTMOVE
 70
     0
  9
$DIMFXL
 40
1.0
  9
$DIMFXLON
 70
     0
  9
$DIMJOGANG
 40
0.7853981633974483
  9
$DIMTFILL
 70
     0
  9
$DIMTFILLCLR
 70
     0
  9
$DIMARCSYM
 70
     0
  9
$DIMLTYPE
  6

  9
$DIMLTEX1
  6

  9
$DIMLTEX2
  6

  9
$LUNITS
 70
     2
  9
$LUPREC
 70
     0
  9
$SKETCHINC
 40
0.1
  9
$FILLETRAD
 40
0.0
  9
$AUNITS
 70
     0
  9
$AUPREC
 70
     0
  9
$MENU
  1
acad
  9
$ELEVATION
 40
0.0
  9
$PELEVATION
 40
0.0
  9
$THICKNESS
 40
0.0
  9
$LIMCHECK
 70
     0
  9
$CHAMFERA
 40
0.0
  9
$CHAMFERB
 40
0.0
  9
$CHAMFERC
 40
0.0
  9
$CHAMFERD
 40
0.0
  9
$SKPOLY
 70
     0
  9
$TDCREATE
 40
2447893.375
  9
$TDUCREATE
 40
0.0
  9
$TDUPDATE
 40
2460207.708923009
  9
$TDUUPDATE
 40
2460207.333923009
  9
$TDINDWG
 40
0.0030954514
  9
$TDUSRTIMER
 40
0.0025143981
  9
$USRTIMER
 70
     1
  9
$ANGBASE
 50
0.0
  9
$ANGDIR
 70
     0
  9
$PDMODE
 70
     1
  9
$PDSIZE
 40
-2.0
  9
$PLINEWID
 40
0.0
  9
$SPLFRAME
 70
     0
  9
$SPLINETYPE
 70
     6
  9
$SPLINESEGS
 70
     8
  9
$HANDSEED
  5
1775A
  9
$SURFTAB1
 70
     6
  9
$SURFTAB2
 70
     6
  9
$SURFTYPE
 70
     6
  9
$SURFU
 70
     6
  9
$SURFV
 70
     6
  9
$UCSBASE
  2

  9
$UCSNAME
  2

  9
$UCSORG
 10
0.0
 20
0.0
 30
0.0
  9
$UCSXDIR
 10
1.0
 20
0.0
 30
0.0
  9
$UCSYDIR
 10
0.0
 20
1.0
 30
0.0
  9
$UCSORTHOREF
  2

  9
$UCSORTHOVIEW
 70
     0
  9
$UCSORGTOP
 10
0.0
 20
0.0
 30
0.0
  9
$UCSORGBOTTOM
 10
0.0
 20
0.0
 30
0.0
  9
$UCSORGLEFT
 10
0.0
 20
0.0
 30
0.0
  9
$UCSORGRIGHT
 10
0.0
 20
0.0
 30
0.0
  9
$UCSORGFRONT
 10
0.0
 20
0.0
 30
0.0
  9
$UCSORGBACK
 10
0.0
 20
0.0
 30
0.0
  9
$PUCSBASE
  2

  9
$PUCSNAME
  2

  9
$PUCSORG
 10
0.0
 20
0.0
 30
0.0
  9
$PUCSXDIR
 10
1.0
 20
0.0
 30
0.0
  9
$PUCSYDIR
 10
0.0
 20
1.0
 30
0.0
  9
$PUCSORTHOREF
  2

  9
$PUCSORTHOVIEW
 70
     0
  9
$PUCSORGTOP
 10
0.0
 20
0.0
 30
0.0
  9
$PUCSORGBOTTOM
 10
0.0
 20
0.0
 30
0.0
  9
$PUCSORGLEFT
 10
0.0
 20
0.0
 30
0.0
  9
$PUCSORGRIGHT
 10
0.0
 20
0.0
 30
0.0
  9
$PUCSORGFRONT
 10
0.0
 20
0.0
 30
0.0
  9
$PUCSORGBACK
 10
0.0
 20
0.0
 30
0.0
  9
$USERI1
 70
     0
  9
$USERI2
 70
     0
  9
$USERI3
 70
     0
  9
$USERI4
 70
     0
  9
$USERI5
 70
     0
  9
$USERR1
 40
0.0
  9
$USERR2
 40
0.0
  9
$USERR3
 40
0.0
  9
$USERR4
 40
0.0
  9
$USERR5
 40
0.0
  9
$WORLDVIEW
 70
     1
  9
$SHADEDGE
 70
     3
  9
$SHADEDIF
 70
    70
  9
$TILEMODE
 70
     1
  9
$MAXACTVP
 70
    64
  9
$PINSBASE
 10
0.0
 20
0.0
 30
0.0
  9
$PLIMCHECK
 70
     0
  9
$PEXTMIN
 10
0.0
 20
0.0
 30
0.0
  9
$PEXTMAX
 10
0.0
 20
0.0
 30
0.0
  9
$PLIMMIN
 10
-7.5
 20
-20.0
  9
$PLIMMAX
 10
412.5
 20
277.0
  9
$UNITMODE
 70
     0
  9
$VISRETAIN
 70
     0
  9
$PLINEGEN
 70
     1
  9
$PSLTSCALE
 70
     0
  9
$TREEDEPTH
 70
  3020
  9
$CMLSTYLE
  2
Standard
  9
$CMLJUST
 70
     0
  9
$CMLSCALE
 40
1.0
  9
$PROXYGRAPHICS
 70
     0
  9
$MEASUREMENT
 70
     1
  9
$CELWEIGHT
370
    -1
  9
$ENDCAPS
280
     0
  9
$JOINSTYLE
280
     0
  9
$LWDISPLAY
290
     1
  9
$INSUNITS
 70
     4
  9
$HYPERLINKBASE
  1

  9
$STYLESHEET
  1

  9
$XEDIT
290
     1
  9
$CEPSNTYPE
380
     0
  9
$PSTYLEMODE
290
     1
  9
$FINGERPRINTGUID
  2

  9
$VERSIONGUID
  2

  9
$EXTNAMES
290
     1
  9
$PSVPSCALE
 40
0.0
  9
$OLESTARTUP
290
     0
  9
$SORTENTS
280
   127
  9
$INDEXCTL
280
     0
  9
$HIDETEXT
280
     1
  9
$XCLIPFRAME
290
     0
  9
$HALOGAP
280
     0
  9
$OBSCOLOR
 70
   257
  9
$OBSLTYPE
280
     0
  9
$INTERSECTIONDISPLAY
280
     0
  9
$INTERSECTIONCOLOR
 70
   257
  9
$DIMASSOC
280
     2
  9
$PROJECTNAME
  1

  9
$CAMERADISPLAY
290
     0
  9
$LENSLENGTH
 40
50.0
  9
$CAMERAHEIGHT
 40
0.0
  9
$STEPSPERSEC
 40
2.0
  9
$STEPSIZE
 40
6.0
  9
$3DDWFPREC
 40
2.0
  9
$PSOLWIDTH
 40
0.25
  9
$PSOLHEIGHT
 40
4.0
  9
$LOFTANG1
 40
1.570796326794897
  9
$LOFTANG2
 40
1.570796326794897
  9
$LOFTMAG1
 40
0.0
  9
$LOFTMAG2
 40
0.0
  9
$LOFTPARAM
 70
     7
  9
$LOFTNORMALS
280
     1
  9
$LATITUDE
 40
37.795
  9
$LONGITUDE
 40
-122.394
  9
$NORTHDIRECTION
 40
0.0
  9
$TIMEZONE
 70
 -8000
  9
$LIGHTGLYPHDISPLAY
280
     1
  9
$TILEMODELIGHTSYNCH
280
     1
  9
$SOLIDHIST
280
     1
  9
$SHOWHIST
280
     1
  9
$DWFFRAME
280
     2
  9
$DGNFRAME
280
     2
  9
$REALWORLDSCALE
290
     1
  9
$INTERFERECOLOR
 62
   256
  9
$CSHADOW
280
     0
  9
$SHADOWPLANELOCATION
 40
0.0
  0
ENDSEC
  0
SECTION
  2
CLASSES
  0
CLASS
  1
LWPOLYLINE
  2
AcDbPolyline
  3
ObjectDBX Classes
 90
        0
 91
        1
280
     0
281
     1
  0
CLASS
  1
IMAGE
  2
AcDbRasterImage
  3
ISM
 90
      127
 91
        4
280
     0
281
     1
  0
CLASS
  1
OLE2FRAME
  2
AcDbOle2Frame
  3
ObjectDBX Classes
 90
        0
 91
        1
280
     0
281
     1
  0
CLASS
  1
HATCH
  2
AcDbHatch
  3
ObjectDBX Classes
 90
        0
 91
        1
280
     0
281
     1
  0
CLASS
  1
DICTIONARYVAR
  2
AcDbDictionaryVar
  3
ObjectDBX Classes
 90
        0
 91
        3
280
     0
281
     0
  0
CLASS
  1
RASTERVARIABLES
  2
AcDbRasterVariables
  3
ISM
 90
        0
 91
        3
280
     0
281
     0
  0
CLASS
  1
IMAGEDEF
  2
AcDbRasterImageDef
  3
ISM
 90
        0
 91
        3
280
     0
281
     0
  0
CLASS
  1
IMAGEDEF_REACTOR
  2
AcDbRasterImageDefReactor
  3
ISM
 90
        1
 91
        3
280
     0
281
     0
  0
CLASS
  1
IDBUFFER
  2
AcDbIdBuffer
  3
ObjectDBX Classes
 90
        0
 91
        3
280
     0
281
     0
  0
CLASS
  1
SPATIAL_FILTER
  2
AcDbSpatialFilter
  3
ObjectDBX Classes
 90
        0
 91
        3
280
     0
281
     0
  0
CLASS
  1
XRECORD
  2
AcDbXrecord
  3
ObjectDBX Classes
 90
        0
 91
        1
280
     0
281
     0
  0
CLASS
  1
SORTENTSTABLE
  2
AcDbSortentsTable
  3
ObjectDBX Classes
 90
        0
 91
        3
280
     0
281
     0
  0
CLASS
  1
LAYER_INDEX
  2
AcDbLayerIndex
  3
ObjectDBX Classes
 90
        0
 91
        3
280
     0
281
     0
  0
CLASS
  1
SPATIAL_INDEX
  2
AcDbSpatialIndex
  3
AutoCAD 2000
 90
        0
 91
        3
280
     0
281
     0
  0
CLASS
  1
OBJECT_PTR
  2
CAseDLPNTableRecord
  3
ASE-LPNTableRecord
 90
        1
 91
        3
280
     0
281
     0
  0
CLASS
  1
LAYOUT
  2
AcDbLayout
  3
ObjectDBX Classes
 90
        0
 91
        1
280
     0
281
     0
  0
CLASS
  1
PLOTSETTINGS
  2
AcDbPlotSettings
  3
ObjectDBX Classes
 90
        0
 91
        3
280
     0
281
     0
  0
CLASS
  1
ACDBDICTIONARYWDFLT
  2
AcDbDictionaryWithDefault
  3
ObjectDBX Classes
 90
        0
 91
        3
280
     0
281
     0
  0
CLASS
  1
ACDBPLACEHOLDER
  2
AcDbPlaceHolder
  3
ObjectDBX Classes
 90
        0
 91
        1
280
     0
281
     0
  0
CLASS
  1
SCALE
  2
AcDbScale
  3
ObjectDBX Classes
 90
     1153
 91
        3
280
     0
281
     0
  0
CLASS
  1
MATERIAL
  2
AcDbMaterial
  3
ObjectDBX Classes
 90
     1153
 91
        3
280
     0
281
     0
  0
CLASS
  1
VISUALSTYLE
  2
AcDbVisualStyle
  3
ObjectDBX Classes
 90
     4095
 91
        3
280
     0
281
     0
  0
CLASS
  1
TABLESTYLE
  2
AcDbTableStyle
  3
ObjectDBX Classes
 90
     4095
 91
        3
280
     0
281
     0
  0
CLASS
  1
DIMASSOC
  2
AcDbDimAssoc
  3
"AcDbDimAssoc|Product Desc:     AcDim ARX App For Dimension|Company:          Autodesk, Inc.|WEB Address:      www.autodesk.com"
 90
        0
 91
        3
280
     0
281
     0
  0
CLASS
  1
CELLSTYLEMAP
  2
AcDbCellStyleMap
  3
ObjectDBX Classes
 90
     1152
 91
        3
280
     0
281
     0
  0
CLASS
  1
SUN
  2
AcDbSun
  3
SCENEOE
 90
     1153
 91
        3
280
     0
281
     0
  0
CLASS
  1
MLEADERSTYLE
  2
AcDbMLeaderStyle
  3
ACDB_MLEADERSTYLE_CLASS
 90
     4095
 91
        3
280
     0
281
     0
  0
CLASS
  1
FIELD
  2
AcDbField
  3
ObjectDBX Classes
 90
     1152
 91
        3
280
     0
281
     0
  0
CLASS
  1
FIELDLIST
  2
AcDbFieldList
  3
ObjectDBX Classes
 90
     1152
 91
        3
280
     0
281
     0
  0
ENDSEC
  0
SECTION
  2
TABLES
  0
TABLE
  2
VPORT
  5
7
330
0
100
AcDbSymbolTable
 70
     1
  0
VPORT
  5
15
330
7
100
AcDbSymbolTableRecord
100
AcDbViewportTableRecord
  2
*ACTIVE
 70
     0
 10
0.0
 20
0.0
 11
1.0
 21
1.0
 12
406.0201356708997
 22
371.9012854698341
 13
0.0
 23
0.0
 14
1.0
 24
1.0
 15
0.0
 25
0.0
 16
0.0
 26
0.0
 36
1.0
 17
-91.02013567089966
 27
73.59871453016592
 37
-46.86809886248109
 40
908.82
 41
2.189300411522634
 42
50.0
 43
0.0
 44
0.0
 50
0.0
 51
0.0
 71
    16
 72
  2000
 73
     1
 74
     1
 75
     0
 76
     0
 77
     0
 78
     0
281
     0
 65
     1
110
0.0
120
0.0
130
0.0
111
1.0
121
0.0
131
0.0
112
0.0
122
1.0
132
0.0
 79
     0
146
0.0
348
3666
 60
     3
 61
     5
292
     1
282
     1
141
0.0
142
0.0
 63
   256
361
904
  0
ENDTAB
  0
TABLE
  2
LTYPE
  5
4
330
0
100
AcDbSymbolTable
 70
     4
  0
LTYPE
  5
11
330
4
100
AcDbSymbolTableRecord
100
AcDbLinetypeTableRecord
  2
ByBlock
 70
     0
  3

 72
    65
 73
     0
 40
0.0
  0
LTYPE
  5
12
330
4
100
AcDbSymbolTableRecord
100
AcDbLinetypeTableRecord
  2
ByLayer
 70
     0
  3

 72
    65
 73
     0
 40
0.0
  0
LTYPE
  5
13
330
4
100
AcDbSymbolTableRecord
100
AcDbLinetypeTableRecord
  2
Continuous
 70
     0
  3
Solid line
 72
    65
 73
     0
 40
0.0
  0
LTYPE
  5
D6C
330
4
100
AcDbSymbolTableRecord
100
AcDbLinetypeTableRecord
  2
BORDER
 70
     0
  3
Border __  __  . __  __  . __  __  . __  __  . 
 72
    65
 73
     6
 40
44.45
 49
12.7
 74
     0
 49
-6.35
 74
     0
 49
12.7
 74
     0
 49
-6.35
 74
     0
 49
0.0
 74
     0
 49
-6.35
 74
     0
  0
LTYPE
  5
D6D
330
4
100
AcDbSymbolTableRecord
100
AcDbLinetypeTableRecord
  2
HIDDEN
 70
     0
  3
Hidden _ _ _ _ _ _ _ _ _ _ _ _ _ _ _ _ _ _ _ _ 
 72
    65
 73
     2
 40
9.524999999999999
 49
6.35
 74
     0
 49
-3.175
 74
     0
  0
LTYPE
  5
176B6
330
4
100
AcDbSymbolTableRecord
100
AcDbLinetypeTableRecord
  2
CENTER
 70
     0
  3
 Center _____  _  _____  _  _____  _  _____  _ 
 72
    65
 73
     4
 40
50.8
 49
31.75
 74
     0
 49
-6.35
 74
     0
 49
6.35
 74
     0
 49
-6.35
 74
     0
  0
ENDTAB
  0
TABLE
  2
LAYER
  5
2
102
{ACAD_XDICTIONARY
360
2E1
102
}
330
0
100
AcDbSymbolTable
 70
     7
  0
LAYER
  5
14
330
2
100
AcDbSymbolTableRecord
100
AcDbLayerTableRecord
  2
0
 70
     0
 62
     7
  6
Continuous
370
    -3
390
1D
347
266
  0
LAYER
  5
4B
330
2
100
AcDbSymbolTableRecord
100
AcDbLayerTableRecord
  2
TEMPLATE
 70
     0
 62
     7
  6
Continuous
370
    20
390
1D
347
266
  0
LAYER
  5
4C
330
2
100
AcDbSymbolTableRecord
100
AcDbLayerTableRecord
  2
DIM
 70
     0
 62
     3
  6
Continuous
370
    13
390
1D
347
266
  0
LAYER
  5
4D
330
2
100
AcDbSymbolTableRecord
100
AcDbLayerTableRecord
  2
MODEL
 70
     0
 62
     7
  6
Continuous
370
    20
390
1D
347
266
  0
LAYER
  5
88C
330
2
100
AcDbSymbolTableRecord
100
AcDbLayerTableRecord
  2
HIDDEN
 70
     0
 62
     8
  6
HIDDEN
370
    20
390
1D
347
266
1001
AcAecLayerStandard
1000

1000

  0
LAYER
  5
D6B
330
2
100
AcDbSymbolTableRecord
100
AcDbLayerTableRecord
  2
BORDER
 70
     0
 62
     4
  6
BORDER
290
     0
370
    20
390
1D
347
266
1001
AcAecLayerStandard
1000

1000

  0
LAYER
  5
A5DF
330
2
100
AcDbSymbolTableRecord
100
AcDbLayerTableRecord
  2
Defpoints
 70
     0
 62
     7
  6
Continuous
290
     0
370
    -3
390
1D
347
266
  0
ENDTAB
  0
TABLE
  2
STYLE
  5
3
330
0
100
AcDbSymbolTable
 70
     3
  0
STYLE
  5
17
330
3
100
AcDbSymbolTableRecord
100
AcDbTextStyleTableRecord
  2
Standard
 70
     0
 40
0.0
 41
1.0
 50
0.0
 71
     0
 42
2.5
  3
txt
  4
BIGFONT.SHX
  0
STYLE
  5
39
330
3
100
AcDbSymbolTableRecord
100
AcDbTextStyleTableRecord
  2
ＭＳ ゴシック
 70
     0
 40
0.0
 41
1.0
 50
0.0
 71
     0
 42
2.5
  3
msgothic.ttc
  4
ＭＳ ゴシック
1001
ACAD
1000
ＭＳ ゴシック
1071
        0
  0
STYLE
  5
1773F
330
3
100
AcDbSymbolTableRecord
100
AcDbTextStyleTableRecord
  2
SEACAD_arial_ttf
 70
     0
 40
0.0
 41
1.0
 50
0.0
 71
     0
 42
2.5
  3
arial.ttf
  4

  0
ENDTAB
  0
TABLE
  2
VIEW
  5
5
330
0
100
AcDbSymbolTable
 70
     0
  0
ENDTAB
  0
TABLE
  2
UCS
  5
6
330
0
100
AcDbSymbolTable
 70
     0
  0
ENDTAB
  0
TABLE
  2
APPID
  5
8
330
0
100
AcDbSymbolTable
 70
     4
  0
APPID
  5
16
330
8
100
AcDbSymbolTableRecord
100
AcDbRegAppTableRecord
  2
ACAD
 70
     0
  0
APPID
  5
7AC
330
8
100
AcDbSymbolTableRecord
100
AcDbRegAppTableRecord
  2
AcAecLayerStandard
 70
     0
  0
APPID
  5
E29
330
8
100
AcDbSymbolTableRecord
100
AcDbRegAppTableRecord
  2
ACAD_MLEADERVER
 70
     0
  0
APPID
  5
175C3
330
8
100
AcDbSymbolTableRecord
100
AcDbRegAppTableRecord
  2
PLOTTRANSPARENCY
 70
     0
  0
ENDTAB
  0
TABLE
  2
DIMSTYLE
  5
9
330
0
100
AcDbSymbolTable
 70
     4
100
AcDbDimStyleTable
  0
DIMSTYLE
105
18
330
9
100
AcDbSymbolTableRecord
100
AcDbDimStyleTableRecord
  2
Standard
 70
     0
178
     0
340
17
  0
DIMSTYLE
105
57
102
{ACAD_REACTORS
330
174F5
330
174FB
330
174FE
330
17501
330
17507
330
17508
330
17511
330
17517
330
175D3
330
175ED
330
175FE
330
176D6
102
}
330
9
100
AcDbSymbolTableRecord
100
AcDbDimStyleTableRecord
  2
tfrom線あり
 70
     0
  3
<>
  4
[]
 41
3.0
 42
10.0
 43
0.9999999999999999
 44
0.0
 73
     0
 74
     0
 77
     1
 78
    11
140
8.0
141
0.0
143
1.0
147
2.0
171
     1
174
     1
178
     0
179
     2
271
     0
272
     1
276
     2
284
    11
285
    11
286
    11
289
     0
340
39
341
4E
342
4E
  0
DIMSTYLE
105
1773D
330
9
100
AcDbSymbolTableRecord
100
AcDbDimStyleTableRecord
  2
ISO-25
 70
     0
 41
2.5
 42
0.625
 43
3.75
 44
1.25
 73
     0
 74
     0
 77
     1
 78
     8
140
2.5
141
2.5
143
0.0393700787
147
0.625
171
     3
172
     1
178
     0
271
     2
272
     2
274
     3
278
    44
283
     0
284
     8
340
17
  0
DIMSTYLE
105
1773E
330
9
100
AcDbSymbolTableRecord
100
AcDbDimStyleTableRecord
  2
$DDT_AUDIT_GENERATED_(34E)
 70
     0
 41
6.0
 42
0.0
 44
3.0
 78
     8
140
6.0
141
3.0
144
2.0
147
3.0
173
     1
176
   136
177
   136
271
     0
178
   136
271
     0
272
     0
278
    44
284
     8
340
1773F
343
17740
344
17740
  0
ENDTAB
  0
TABLE
  2
BLOCK_RECORD
  5
1
330
0
100
AcDbSymbolTable
 70
    35
  0
BLOCK_RECORD
  5
A
102
{ACAD_XDICTIONARY
360
1733E
102
}
330
1
100
AcDbSymbolTableRecord
100
AcDbBlockTableRecord
  2
*MODEL_SPACE
340
20
 70
     0
280
     1
281
     0
  0
BLOCK_RECORD
  5
B
330
1
100
AcDbSymbolTableRecord
100
AcDbBlockTableRecord
  2
*PAPER_SPACE
340
21
 70
     0
280
     1
281
     0
  0
BLOCK_RECORD
  5
4E
330
1
100
AcDbSymbolTableRecord
100
AcDbBlockTableRecord
  2
_DOT
340
0
102
{BLKREFS
331
17326
331
17327
331
17335
331
17336
331
173AB
331
173AC
331
173BA
331
173BB
331
173D8
331
173D9
331
173E4
331
173E5
331
1742A
331
1742B
331
17439
331
1743A
331
17448
331
17449
331
17457
331
17458
331
17466
331
17467
331
17476
331
17477
331
17483
331
17484
331
17498
331
17499
331
174A8
331
174A9
331
174B8
331
174B9
331
17544
331
17545
331
17550
331
17551
331
1755C
331
1755D
331
17568
331
17569
331
17574
331
17575
331
17580
331
17581
331
1758C
331
1758D
331
17598
331
17599
331
175A4
331
175A5
331
175B0
331
175B1
331
175DC
331
175DD
331
175F8
331
175F9
331
17609
331
1760A
331
17677
331
17678
331
176D0
331
176D1
331
176DF
331
176E0
102
}
 70
     0
280
     1
281
     0
  0
BLOCK_RECORD
  5
68D
330
1
100
AcDbSymbolTableRecord
100
AcDbBlockTableRecord
  2
block 2
340
0
102
{BLKREFS
331
68C
331
1343
102
}
 70
     0
280
     1
281
     0
  0
BLOCK_RECORD
  5
17320
330
1
100
AcDbSymbolTableRecord
100
AcDbBlockTableRecord
  2
*D2
340
0
 70
     0
280
     1
281
     0
  0
BLOCK_RECORD
  5
1732F
330
1
100
AcDbSymbolTableRecord
100
AcDbBlockTableRecord
  2
*D3
340
0
 70
     0
280
     1
281
     0
  0
BLOCK_RECORD
  5
173A6
330
1
100
AcDbSymbolTableRecord
100
AcDbBlockTableRecord
  2
*D4
340
0
 70
     0
280
     1
281
     0
  0
BLOCK_RECORD
  5
173B5
330
1
100
AcDbSymbolTableRecord
100
AcDbBlockTableRecord
  2
*D5
340
0
 70
     0
280
     1
281
     0
  0
BLOCK_RECORD
  5
173D2
330
1
100
AcDbSymbolTableRecord
100
AcDbBlockTableRecord
  2
*D6
340
0
 70
     0
280
     1
281
     0
  0
BLOCK_RECORD
  5
173DE
330
1
100
AcDbSymbolTableRecord
100
AcDbBlockTableRecord
  2
*D7
340
0
 70
     0
280
     1
281
     0
  0
BLOCK_RECORD
  5
17425
330
1
100
AcDbSymbolTableRecord
100
AcDbBlockTableRecord
  2
*D8
340
0
 70
     0
280
     1
281
     0
  0
BLOCK_RECORD
  5
17434
330
1
100
AcDbSymbolTableRecord
100
AcDbBlockTableRecord
  2
*D9
340
0
 70
     0
280
     1
281
     0
  0
BLOCK_RECORD
  5
17443
330
1
100
AcDbSymbolTableRecord
100
AcDbBlockTableRecord
  2
*D10
340
0
 70
     0
280
     1
281
     0
  0
BLOCK_RECORD
  5
17452
330
1
100
AcDbSymbolTableRecord
100
AcDbBlockTableRecord
  2
*D11
340
0
 70
     0
280
     1
281
     0
  0
BLOCK_RECORD
  5
17461
330
1
100
AcDbSymbolTableRecord
100
AcDbBlockTableRecord
  2
*D12
340
0
 70
     0
280
     1
281
     0
  0
BLOCK_RECORD
  5
17471
330
1
100
AcDbSymbolTableRecord
100
AcDbBlockTableRecord
  2
*D13
340
0
 70
     0
280
     1
281
     0
  0
BLOCK_RECORD
  5
1747E
330
1
100
AcDbSymbolTableRecord
100
AcDbBlockTableRecord
  2
*D14
340
0
 70
     0
280
     1
281
     0
  0
BLOCK_RECORD
  5
17493
330
1
100
AcDbSymbolTableRecord
100
AcDbBlockTableRecord
  2
*D15
340
0
 70
     0
280
     1
281
     0
  0
BLOCK_RECORD
  5
174A3
330
1
100
AcDbSymbolTableRecord
100
AcDbBlockTableRecord
  2
*D16
340
0
 70
     0
280
     1
281
     0
  0
BLOCK_RECORD
  5
174B3
330
1
100
AcDbSymbolTableRecord
100
AcDbBlockTableRecord
  2
*D17
340
0
 70
     0
280
     1
281
     0
  0
BLOCK_RECORD
  5
1753E
330
1
100
AcDbSymbolTableRecord
100
AcDbBlockTableRecord
  2
*D18
340
0
 70
     0
280
     1
281
     0
  0
BLOCK_RECORD
  5
1754A
330
1
100
AcDbSymbolTableRecord
100
AcDbBlockTableRecord
  2
*D19
340
0
 70
     0
280
     1
281
     0
  0
BLOCK_RECORD
  5
17556
330
1
100
AcDbSymbolTableRecord
100
AcDbBlockTableRecord
  2
*D20
340
0
 70
     0
280
     1
281
     0
  0
BLOCK_RECORD
  5
17562
330
1
100
AcDbSymbolTableRecord
100
AcDbBlockTableRecord
  2
*D21
340
0
 70
     0
280
     1
281
     0
  0
BLOCK_RECORD
  5
1756E
330
1
100
AcDbSymbolTableRecord
100
AcDbBlockTableRecord
  2
*D22
340
0
 70
     0
280
     1
281
     0
  0
BLOCK_RECORD
  5
1757A
330
1
100
AcDbSymbolTableRecord
100
AcDbBlockTableRecord
  2
*D23
340
0
 70
     0
280
     1
281
     0
  0
BLOCK_RECORD
  5
17586
330
1
100
AcDbSymbolTableRecord
100
AcDbBlockTableRecord
  2
*D24
340
0
 70
     0
280
     1
281
     0
  0
BLOCK_RECORD
  5
17592
330
1
100
AcDbSymbolTableRecord
100
AcDbBlockTableRecord
  2
*D25
340
0
 70
     0
280
     1
281
     0
  0
BLOCK_RECORD
  5
1759E
330
1
100
AcDbSymbolTableRecord
100
AcDbBlockTableRecord
  2
*D26
340
0
 70
     0
280
     1
281
     0
  0
BLOCK_RECORD
  5
175AA
330
1
100
AcDbSymbolTableRecord
100
AcDbBlockTableRecord
  2
*D27
340
0
 70
     0
280
     1
281
     0
  0
BLOCK_RECORD
  5
175D6
330
1
100
AcDbSymbolTableRecord
100
AcDbBlockTableRecord
  2
*D28
340
0
 70
     0
280
     1
281
     0
  0
BLOCK_RECORD
  5
175F0
330
1
100
AcDbSymbolTableRecord
100
AcDbBlockTableRecord
  2
*D29
340
0
 70
     0
280
     1
281
     0
  0
BLOCK_RECORD
  5
17601
330
1
100
AcDbSymbolTableRecord
100
AcDbBlockTableRecord
  2
*D30
340
0
 70
     0
280
     1
281
     0
  0
BLOCK_RECORD
  5
17671
330
1
100
AcDbSymbolTableRecord
100
AcDbBlockTableRecord
  2
*D31
340
0
 70
     0
280
     1
281
     0
  0
BLOCK_RECORD
  5
176CA
330
1
100
AcDbSymbolTableRecord
100
AcDbBlockTableRecord
  2
*D32
340
0
 70
     0
280
     1
281
     0
  0
BLOCK_RECORD
  5
176D9
330
1
100
AcDbSymbolTableRecord
100
AcDbBlockTableRecord
  2
*D33
340
0
 70
     0
280
     1
281
     0
  0
BLOCK_RECORD
  5
17740
330
1
100
AcDbSymbolTableRecord
100
AcDbBlockTableRecord
  2
_SE_FILLED
340
0
 70
     0
280
     1
281
     0
1001
ACAD
1000
DesignCenter Data
1002
{
1070
     1
1070
     0
1002
}
  0
ENDTAB
  0
ENDSEC
  0
SECTION
  2
BLOCKS
  0
BLOCK
  5
D
330
A
100
AcDbEntity
  8
0
390
1D
100
AcDbBlockBegin
  2
*MODEL_SPACE
 70
     0
 10
0.0
 20
0.0
 30
0.0
  3
*MODEL_SPACE
  1
*MODEL_SPACE
  0
ENDBLK
  5
E
330
A
100
AcDbEntity
  8
0
390
1D
100
AcDbBlockEnd
  0
BLOCK
  5
F
330
B
100
AcDbEntity
 67
     1
  8
0
390
1D
100
AcDbBlockBegin
  2
*PAPER_SPACE
 70
     0
 10
0.0
 20
0.0
 30
0.0
  3
*PAPER_SPACE
  1
*PAPER_SPACE
  0
ENDBLK
  5
10
330
B
100
AcDbEntity
 67
     1
  8
0
390
1D
100
AcDbBlockEnd
  0
BLOCK
  5
175E5
330
4E
100
AcDbEntity
  8
0
390
1D
100
AcDbBlockBegin
  2
_DOT
 70
     0
 10
0.0
 20
0.0
 30
0.0
  3
_DOT
  1
_DOT
  0
POLYLINE
  5
175E7
330
4E
100
AcDbEntity
  8
0
  6
ByBlock
 62
     0
370
    -2
390
1D
100
AcDb2dPolyline
 66
     1
 10
0.0
 20
0.0
 30
0.0
 70
     1
 40
0.5
 41
0.5
  0
VERTEX
  5
175E8
330
175E7
100
AcDbEntity
  8
0
  6
ByBlock
 62
     0
370
    -2
390
1D
100
AcDbVertex
100
AcDb2dVertex
 10
-0.25
 20
0.0
 30
0.0
 42
1.0
  0
VERTEX
  5
175E9
330
175E7
100
AcDbEntity
  8
0
  6
ByBlock
 62
     0
370
    -2
390
1D
100
AcDbVertex
100
AcDb2dVertex
 10
0.25
 20
0.0
 30
0.0
 42
1.0
  0
SEQEND
  5
175EA
330
175E7
100
AcDbEntity
  8
0
390
1D
  0
LINE
  5
175EB
330
4E
100
AcDbEntity
  8
0
  6
ByBlock
 62
     0
370
    -2
390
1D
100
AcDbLine
 10
-0.5
 20
0.0
 30
0.0
 11
-1.0
 21
0.0
 31
0.0
  0
ENDBLK
  5
175EC
330
4E
100
AcDbEntity
  8
0
390
1D
100
AcDbBlockEnd
  0
BLOCK
  5
68E
330
68D
100
AcDbEntity
  8
0
100
AcDbBlockBegin
  2
block 2
 70
     0
 10
0.0
 20
0.0
 30
0.0
  3
block 2
  1
block 2
  0
ENDBLK
  5
6B0
330
68D
100
AcDbEntity
  8
0
100
AcDbBlockEnd
  0
BLOCK
  5
17321
330
17320
100
AcDbEntity
  8
0
100
AcDbBlockBegin
  2
*D2
 70
     1
 10
0.0
 20
0.0
 30
0.0
  3
*D2
  1

  0
LINE
  5
17323
330
17320
100
AcDbEntity
  8
DIM
 62
     0
370
    -2
100
AcDbLine
 10
405.9245501690548
 20
309.7529598971253
 30
0.0
 11
405.9245501690548
 21
297.8784471131835
 31
0.0
  0
LINE
  5
17324
330
17320
100
AcDbEntity
  8
DIM
 62
     0
370
    -2
100
AcDbLine
 10
370.465565794055
 20
307.7217551386165
 30
0.0
 11
370.465565794055
 21
297.8784471131835
 31
0.0
  0
LINE
  5
17325
330
17320
100
AcDbEntity
  8
DIM
 62
     0
370
    -2
100
AcDbLine
 10
402.9245501690548
 20
297.8784471131835
 30
0.0
 11
373.465565794055
 21
297.8784471131835
 31
0.0
  0
INSERT
  5
17326
330
17320
100
AcDbEntity
  8
DIM
 62
     0
370
    -2
100
AcDbBlockReference
  2
_DOT
 10
405.9245501690548
 20
297.8784471131835
 30
0.0
 41
3.0
 42
3.0
 43
3.0
  0
INSERT
  5
17327
330
17320
100
AcDbEntity
  8
DIM
 62
     0
370
    -2
100
AcDbBlockReference
  2
_DOT
 10
370.465565794055
 20
297.8784471131835
 30
0.0
 41
3.0
 42
3.0
 43
3.0
 50
180.0
  0
MTEXT
  5
17328
330
17320
100
AcDbEntity
  8
DIM
 62
     0
100
AcDbMText
 10
388.1950579815549
 20
307.8784471131835
 30
0.0
 40
8.0
 41
0.0
 46
0.0
 71
     5
 72
     1
  1
\A1;35
  7
ＭＳ ゴシック
 73
     1
 44
1.0
  0
POINT
  5
17329
330
17320
100
AcDbEntity
  8
Defpoints
 62
     0
100
AcDbPoint
 10
405.9245501690548
 20
319.7529598971253
 30
0.0
  0
POINT
  5
1732A
330
17320
100
AcDbEntity
  8
Defpoints
 62
     0
100
AcDbPoint
 10
370.465565794055
 20
317.7217551386165
 30
0.0
  0
POINT
  5
1732B
330
17320
100
AcDbEntity
  8
Defpoints
 62
     0
100
AcDbPoint
 10
370.465565794055
 20
297.8784471131835
 30
0.0
  0
ENDBLK
  5
17322
330
17320
100
AcDbEntity
  8
0
100
AcDbBlockEnd
  0
BLOCK
  5
17330
330
1732F
100
AcDbEntity
  8
0
100
AcDbBlockBegin
  2
*D3
 70
     1
 10
0.0
 20
0.0
 30
0.0
  3
*D3
  1

  0
LINE
  5
17332
330
1732F
100
AcDbEntity
  8
DIM
 62
     0
370
    -2
100
AcDbLine
 10
336.4182475173941
 20
457.0429158371509
 30
0.0
 11
315.1384266419193
 21
457.0429158371509
 31
0.0
  0
LINE
  5
17333
330
1732F
100
AcDbEntity
  8
DIM
 62
     0
370
    -2
100
AcDbLine
 10
331.4592515249408
 20
386.1825642746509
 30
0.0
 11
315.1384266419193
 21
386.1825642746509
 31
0.0
  0
LINE
  5
17334
330
1732F
100
AcDbEntity
  8
DIM
 62
     0
370
    -2
100
AcDbLine
 10
315.1384266419193
 20
454.0429158371509
 30
0.0
 11
315.1384266419193
 21
389.1825642746509
 31
0.0
  0
INSERT
  5
17335
330
1732F
100
AcDbEntity
  8
DIM
 62
     0
370
    -2
100
AcDbBlockReference
  2
_DOT
 10
315.1384266419193
 20
457.0429158371509
 30
0.0
 41
3.0
 42
3.0
 43
3.0
 50
90.0
  0
INSERT
  5
17336
330
1732F
100
AcDbEntity
  8
DIM
 62
     0
370
    -2
100
AcDbBlockReference
  2
_DOT
 10
315.1384266419193
 20
386.1825642746509
 30
0.0
 41
3.0
 42
3.0
 43
3.0
 50
270.0
  0
MTEXT
  5
17337
330
1732F
100
AcDbEntity
  8
DIM
 62
     0
100
AcDbMText
 10
305.1384266419193
 20
421.6127400559009
 30
0.0
 40
8.0
 41
0.0
 46
0.0
 71
     5
 72
     1
  1
\A1;71
  7
ＭＳ ゴシック
 11
0.0
 21
1.0
 31
0.0
 73
     1
 44
1.0
  0
POINT
  5
17338
330
1732F
100
AcDbEntity
  8
Defpoints
 62
     0
100
AcDbPoint
 10
346.4182475173941
 20
457.0429158371509
 30
0.0
  0
POINT
  5
17339
330
1732F
100
AcDbEntity
  8
Defpoints
 62
     0
100
AcDbPoint
 10
341.4592515249408
 20
386.1825642746509
 30
0.0
  0
POINT
  5
1733A
330
1732F
100
AcDbEntity
  8
Defpoints
 62
     0
100
AcDbPoint
 10
315.1384266419193
 20
386.1825642746509
 30
0.0
  0
ENDBLK
  5
17331
330
1732F
100
AcDbEntity
  8
0
100
AcDbBlockEnd
  0
BLOCK
  5
173A7
330
173A6
100
AcDbEntity
  8
0
100
AcDbBlockBegin
  2
*D4
 70
     1
 10
0.0
 20
0.0
 30
0.0
  3
*D4
  1

  0
LINE
  5
173A8
330
173A6
100
AcDbEntity
  8
DIM
 62
     0
370
    -2
100
AcDbLine
 10
1.0
 20
135.0035410091185
 30
0.0
 11
1.0
 21
195.1497860279634
 31
0.0
  0
LINE
  5
173A9
330
173A6
100
AcDbEntity
  8
DIM
 62
     0
370
    -2
100
AcDbLine
 10
115.1779939209723
 20
135.0035410091185
 30
0.0
 11
115.1779939209723
 21
195.1497860279634
 31
0.0
  0
LINE
  5
173AA
330
173A6
100
AcDbEntity
  8
DIM
 62
     0
370
    -2
100
AcDbLine
 10
4.0
 20
195.1497860279634
 30
0.0
 11
112.1779939209723
 21
195.1497860279634
 31
0.0
  0
INSERT
  5
173AB
330
173A6
100
AcDbEntity
  8
DIM
 62
     0
370
    -2
100
AcDbBlockReference
  2
_DOT
 10
1.0
 20
195.1497860279634
 30
0.0
 41
3.0
 42
3.0
 43
3.0
 50
180.0
  0
INSERT
  5
173AC
330
173A6
100
AcDbEntity
  8
DIM
 62
     0
370
    -2
100
AcDbBlockReference
  2
_DOT
 10
115.1779939209723
 20
195.1497860279634
 30
0.0
 41
3.0
 42
3.0
 43
3.0
  0
MTEXT
  5
173AD
330
173A6
100
AcDbEntity
  8
DIM
 62
     0
100
AcDbMText
 10
58.08899696048616
 20
205.1497860279634
 30
0.0
 40
8.0
 41
0.0
 46
0.0
 71
     5
 72
     1
  1
\A1;114
  7
ＭＳ ゴシック
 73
     1
 44
1.0
  0
POINT
  5
173AE
330
173A6
100
AcDbEntity
  8
Defpoints
 62
     0
100
AcDbPoint
 10
1.0
 20
125.0035410091185
 30
0.0
  0
POINT
  5
173AF
330
173A6
100
AcDbEntity
  8
Defpoints
 62
     0
100
AcDbPoint
 10
115.1779939209723
 20
125.0035410091185
 30
0.0
  0
POINT
  5
173B0
330
173A6
100
AcDbEntity
  8
Defpoints
 62
     0
100
AcDbPoint
 10
115.1779939209723
 20
195.1497860279634
 30
0.0
  0
ENDBLK
  5
173B1
330
173A6
100
AcDbEntity
  8
0
100
AcDbBlockEnd
  0
BLOCK
  5
173B6
330
173B5
100
AcDbEntity
  8
0
100
AcDbBlockBegin
  2
*D5
 70
     1
 10
0.0
 20
0.0
 30
0.0
  3
*D5
  1

  0
LINE
  5
173B7
330
173B5
100
AcDbEntity
  8
DIM
 62
     0
370
    -2
100
AcDbLine
 10
20.20208557550177
 20
115.0035410091185
 30
0.0
 11
20.20208557550177
 21
38.30487537993926
 31
0.0
  0
LINE
  5
173B8
330
173B5
100
AcDbEntity
  8
DIM
 62
     0
370
    -2
100
AcDbLine
 10
95.97590834547054
 20
115.0035410091185
 30
0.0
 11
95.97590834547054
 21
38.30487537993926
 31
0.0
  0
LINE
  5
173B9
330
173B5
100
AcDbEntity
  8
DIM
 62
     0
370
    -2
100
AcDbLine
 10
23.20208557550177
 20
38.30487537993926
 30
0.0
 11
92.97590834547054
 21
38.30487537993926
 31
0.0
  0
INSERT
  5
173BA
330
173B5
100
AcDbEntity
  8
DIM
 62
     0
370
    -2
100
AcDbBlockReference
  2
_DOT
 10
20.20208557550177
 20
38.30487537993926
 30
0.0
 41
3.0
 42
3.0
 43
3.0
 50
180.0
  0
INSERT
  5
173BB
330
173B5
100
AcDbEntity
  8
DIM
 62
     0
370
    -2
100
AcDbBlockReference
  2
_DOT
 10
95.97590834547054
 20
38.30487537993926
 30
0.0
 41
3.0
 42
3.0
 43
3.0
  0
MTEXT
  5
173BC
330
173B5
100
AcDbEntity
  8
DIM
 62
     0
100
AcDbMText
 10
58.08899696048616
 20
48.30487537993926
 30
0.0
 40
8.0
 41
0.0
 46
0.0
 71
     5
 72
     1
  1
\A1;76
  7
ＭＳ ゴシック
 73
     1
 44
1.0
  0
POINT
  5
173BD
330
173B5
100
AcDbEntity
  8
Defpoints
 62
     0
100
AcDbPoint
 10
20.20208557550177
 20
125.0035410091185
 30
0.0
  0
POINT
  5
173BE
330
173B5
100
AcDbEntity
  8
Defpoints
 62
     0
100
AcDbPoint
 10
95.97590834547054
 20
125.0035410091185
 30
0.0
  0
POINT
  5
173BF
330
173B5
100
AcDbEntity
  8
Defpoints
 62
     0
100
AcDbPoint
 10
95.97590834547054
 20
38.30487537993926
 30
0.0
  0
ENDBLK
  5
173C0
330
173B5
100
AcDbEntity
  8
0
100
AcDbBlockEnd
  0
BLOCK
  5
173D3
330
173D2
100
AcDbEntity
  8
0
100
AcDbBlockBegin
  2
*D6
 70
     1
 10
0.0
 20
0.0
 30
0.0
  3
*D6
  1

  0
LINE
  5
173D5
330
173D2
100
AcDbEntity
  8
DIM
 62
     0
370
    -2
100
AcDbLine
 10
228.7947264437692
 20
485.5501747355622
 30
0.0
 11
228.7947264437692
 21
580.7695422638294
 31
0.0
  0
LINE
  5
173D6
330
173D2
100
AcDbEntity
  8
DIM
 62
     0
370
    -2
100
AcDbLine
 10
400.0617173252274
 20
485.5501747355622
 30
0.0
 11
400.0617173252274
 21
580.7695422638294
 31
0.0
  0
LINE
  5
173D7
330
173D2
100
AcDbEntity
  8
DIM
 62
     0
370
    -2
100
AcDbLine
 10
231.7947264437692
 20
580.7695422638294
 30
0.0
 11
397.0617173252274
 21
580.7695422638294
 31
0.0
  0
INSERT
  5
173D8
330
173D2
100
AcDbEntity
  8
DIM
 62
     0
370
    -2
100
AcDbBlockReference
  2
_DOT
 10
228.7947264437692
 20
580.7695422638294
 30
0.0
 41
3.0
 42
3.0
 43
3.0
 50
180.0
  0
INSERT
  5
173D9
330
173D2
100
AcDbEntity
  8
DIM
 62
     0
370
    -2
100
AcDbBlockReference
  2
_DOT
 10
400.0617173252274
 20
580.7695422638294
 30
0.0
 41
3.0
 42
3.0
 43
3.0
  0
MTEXT
  5
173DA
330
173D2
100
AcDbEntity
  8
DIM
 62
     0
100
AcDbMText
 10
314.4282218844983
 20
590.7695422638294
 30
0.0
 40
8.0
 41
0.0
 46
0.0
 71
     5
 72
     1
  1
\A1;171
  7
ＭＳ ゴシック
 73
     1
 44
1.0
  0
POINT
  5
173DB
330
173D2
100
AcDbEntity
  8
Defpoints
 62
     0
100
AcDbPoint
 10
228.7947264437692
 20
475.5501747355622
 30
0.0
  0
POINT
  5
173DC
330
173D2
100
AcDbEntity
  8
Defpoints
 62
     0
100
AcDbPoint
 10
400.0617173252274
 20
475.5501747355622
 30
0.0
  0
POINT
  5
173DD
330
173D2
100
AcDbEntity
  8
Defpoints
 62
     0
100
AcDbPoint
 10
400.0617173252274
 20
580.7695422638294
 30
0.0
  0
ENDBLK
  5
173D4
330
173D2
100
AcDbEntity
  8
0
100
AcDbBlockEnd
  0
BLOCK
  5
173DF
330
173DE
100
AcDbEntity
  8
0
100
AcDbBlockBegin
  2
*D7
 70
     1
 10
0.0
 20
0.0
 30
0.0
  3
*D7
  1

  0
LINE
  5
173E1
330
173DE
100
AcDbEntity
  8
DIM
 62
     0
370
    -2
100
AcDbLine
 10
257.5978548070218
 20
465.5501747355622
 30
0.0
 11
257.5978548070218
 21
345.5021762917933
 31
0.0
  0
LINE
  5
173E2
330
173DE
100
AcDbEntity
  8
DIM
 62
     0
370
    -2
100
AcDbLine
 10
371.2585889619747
 20
465.5501747355622
 30
0.0
 11
371.2585889619747
 21
345.5021762917933
 31
0.0
  0
LINE
  5
173E3
330
173DE
100
AcDbEntity
  8
DIM
 62
     0
370
    -2
100
AcDbLine
 10
260.5978548070218
 20
345.5021762917933
 30
0.0
 11
368.2585889619747
 21
345.5021762917933
 31
0.0
  0
INSERT
  5
173E4
330
173DE
100
AcDbEntity
  8
DIM
 62
     0
370
    -2
100
AcDbBlockReference
  2
_DOT
 10
257.5978548070218
 20
345.5021762917933
 30
0.0
 41
3.0
 42
3.0
 43
3.0
 50
180.0
  0
INSERT
  5
173E5
330
173DE
100
AcDbEntity
  8
DIM
 62
     0
370
    -2
100
AcDbBlockReference
  2
_DOT
 10
371.2585889619747
 20
345.5021762917933
 30
0.0
 41
3.0
 42
3.0
 43
3.0
  0
MTEXT
  5
173E6
330
173DE
100
AcDbEntity
  8
DIM
 62
     0
100
AcDbMText
 10
314.4282218844983
 20
355.5021762917933
 30
0.0
 40
8.0
 41
0.0
 46
0.0
 71
     5
 72
     1
  1
\A1;114
  7
ＭＳ ゴシック
 73
     1
 44
1.0
  0
POINT
  5
173E7
330
173DE
100
AcDbEntity
  8
Defpoints
 62
     0
100
AcDbPoint
 10
257.5978548070218
 20
475.5501747355622
 30
0.0
  0
POINT
  5
173E8
330
173DE
100
AcDbEntity
  8
Defpoints
 62
     0
100
AcDbPoint
 10
371.2585889619747
 20
475.5501747355622
 30
0.0
  0
POINT
  5
173E9
330
173DE
100
AcDbEntity
  8
Defpoints
 62
     0
100
AcDbPoint
 10
371.2585889619747
 20
345.5021762917933
 30
0.0
  0
ENDBLK
  5
173E0
330
173DE
100
AcDbEntity
  8
0
100
AcDbBlockEnd
  0
BLOCK
  5
17426
330
17425
100
AcDbEntity
  8
0
100
AcDbBlockBegin
  2
*D8
 70
     1
 10
0.0
 20
0.0
 30
0.0
  3
*D8
  1

  0
LINE
  5
17427
330
17425
100
AcDbEntity
  8
DIM
 62
     0
370
    -2
100
AcDbLine
 10
310.8882141886731
 20
255.67108222145
 30
0.0
 11
310.8882141886731
 21
266.2446265812835
 31
0.0
  0
LINE
  5
17428
330
17425
100
AcDbEntity
  8
DIM
 62
     0
370
    -2
100
AcDbLine
 10
86.88821418867315
 20
255.67108222145
 30
0.0
 11
86.88821418867315
 21
266.2446265812835
 31
0.0
  0
LINE
  5
17429
330
17425
100
AcDbEntity
  8
DIM
 62
     0
370
    -2
100
AcDbLine
 10
307.8882141886731
 20
266.2446265812835
 30
0.0
 11
89.88821418867315
 21
266.2446265812835
 31
0.0
  0
INSERT
  5
1742A
330
17425
100
AcDbEntity
  8
DIM
 62
     0
370
    -2
100
AcDbBlockReference
  2
_DOT
 10
310.8882141886731
 20
266.2446265812835
 30
0.0
 41
3.0
 42
3.0
 43
3.0
  0
INSERT
  5
1742B
330
17425
100
AcDbEntity
  8
DIM
 62
     0
370
    -2
100
AcDbBlockReference
  2
_DOT
 10
86.88821418867315
 20
266.2446265812835
 30
0.0
 41
3.0
 42
3.0
 43
3.0
 50
180.0
  0
MTEXT
  5
1742C
330
17425
100
AcDbEntity
  8
DIM
 62
     0
100
AcDbMText
 10
198.8882141886731
 20
276.2461271439945
 30
0.0
 40
8.0
 41
0.0
 46
0.0
 71
     5
 72
     1
  1
\A1;224
  7
ＭＳ ゴシック
 73
     1
 44
1.0
  0
POINT
  5
1742D
330
17425
100
AcDbEntity
  8
Defpoints
 62
     0
100
AcDbPoint
 10
310.8882141886731
 20
245.67108222145
 30
0.0
  0
POINT
  5
1742E
330
17425
100
AcDbEntity
  8
Defpoints
 62
     0
100
AcDbPoint
 10
86.88821418867315
 20
245.67108222145
 30
0.0
  0
POINT
  5
1742F
330
17425
100
AcDbEntity
  8
Defpoints
 62
     0
100
AcDbPoint
 10
86.88821418867315
 20
266.2446265812835
 30
0.0
  0
ENDBLK
  5
17430
330
17425
100
AcDbEntity
  8
0
100
AcDbBlockEnd
  0
BLOCK
  5
17435
330
17434
100
AcDbEntity
  8
0
100
AcDbBlockBegin
  2
*D9
 70
     1
 10
0.0
 20
0.0
 30
0.0
  3
*D9
  1

  0
LINE
  5
17436
330
17434
100
AcDbEntity
  8
DIM
 62
     0
370
    -2
100
AcDbLine
 10
86.88821418867315
 20
255.67108222145
 30
0.0
 11
86.88821418867315
 21
266.2446265812835
 31
0.0
  0
LINE
  5
17437
330
17434
100
AcDbEntity
  8
DIM
 62
     0
370
    -2
100
AcDbLine
 10
63.88821418867315
 20
255.67108222145
 30
0.0
 11
63.88821418867315
 21
266.2446265812835
 31
0.0
  0
LINE
  5
17438
330
17434
100
AcDbEntity
  8
DIM
 62
     0
370
    -2
100
AcDbLine
 10
83.88821418867315
 20
266.2446265812835
 30
0.0
 11
66.88821418867315
 21
266.2446265812835
 31
0.0
  0
INSERT
  5
17439
330
17434
100
AcDbEntity
  8
DIM
 62
     0
370
    -2
100
AcDbBlockReference
  2
_DOT
 10
86.88821418867315
 20
266.2446265812835
 30
0.0
 41
3.0
 42
3.0
 43
3.0
  0
INSERT
  5
1743A
330
17434
100
AcDbEntity
  8
DIM
 62
     0
370
    -2
100
AcDbBlockReference
  2
_DOT
 10
63.88821418867315
 20
266.2446265812835
 30
0.0
 41
3.0
 42
3.0
 43
3.0
 50
180.0
  0
MTEXT
  5
1743B
330
17434
100
AcDbEntity
  8
DIM
 62
     0
100
AcDbMText
 10
75.38821418867315
 20
276.2461271439945
 30
0.0
 40
8.0
 41
0.0
 46
0.0
 71
     5
 72
     1
  1
\A1;23
  7
ＭＳ ゴシック
 73
     1
 44
1.0
  0
POINT
  5
1743C
330
17434
100
AcDbEntity
  8
Defpoints
 62
     0
100
AcDbPoint
 10
86.88821418867315
 20
245.67108222145
 30
0.0
  0
POINT
  5
1743D
330
17434
100
AcDbEntity
  8
Defpoints
 62
     0
100
AcDbPoint
 10
63.88821418867315
 20
245.67108222145
 30
0.0
  0
POINT
  5
1743E
330
17434
100
AcDbEntity
  8
Defpoints
 62
     0
100
AcDbPoint
 10
63.88821418867315
 20
266.2446265812835
 30
0.0
  0
ENDBLK
  5
1743F
330
17434
100
AcDbEntity
  8
0
100
AcDbBlockEnd
  0
BLOCK
  5
17444
330
17443
100
AcDbEntity
  8
0
100
AcDbBlockBegin
  2
*D10
 70
     1
 10
0.0
 20
0.0
 30
0.0
  3
*D10
  1

  0
LINE
  5
17445
330
17443
100
AcDbEntity
  8
DIM
 62
     0
370
    -2
100
AcDbLine
 10
48.88821418867315
 20
255.6710822214501
 30
0.0
 11
48.88821418867315
 21
266.2446265812835
 31
0.0
  0
LINE
  5
17446
330
17443
100
AcDbEntity
  8
DIM
 62
     0
370
    -2
100
AcDbLine
 10
63.88821418867315
 20
255.67108222145
 30
0.0
 11
63.88821418867315
 21
266.2446265812835
 31
0.0
  0
LINE
  5
17447
330
17443
100
AcDbEntity
  8
DIM
 62
     0
370
    -2
100
AcDbLine
 10
51.88821418867315
 20
266.2446265812835
 30
0.0
 11
60.88821418867315
 21
266.2446265812835
 31
0.0
  0
INSERT
  5
17448
330
17443
100
AcDbEntity
  8
DIM
 62
     0
370
    -2
100
AcDbBlockReference
  2
_DOT
 10
48.88821418867315
 20
266.2446265812835
 30
0.0
 41
3.0
 42
3.0
 43
3.0
 50
180.0
  0
INSERT
  5
17449
330
17443
100
AcDbEntity
  8
DIM
 62
     0
370
    -2
100
AcDbBlockReference
  2
_DOT
 10
63.88821418867315
 20
266.2446265812835
 30
0.0
 41
3.0
 42
3.0
 43
3.0
  0
MTEXT
  5
1744A
330
17443
100
AcDbEntity
  8
DIM
 62
     0
100
AcDbMText
 10
56.38821418867315
 20
276.2461271439945
 30
0.0
 40
8.0
 41
0.0
 46
0.0
 71
     5
 72
     1
  1
\A1;15
  7
ＭＳ ゴシック
 73
     1
 44
1.0
  0
POINT
  5
1744B
330
17443
100
AcDbEntity
  8
Defpoints
 62
     0
100
AcDbPoint
 10
48.88821418867315
 20
245.6710822214501
 30
0.0
  0
POINT
  5
1744C
330
17443
100
AcDbEntity
  8
Defpoints
 62
     0
100
AcDbPoint
 10
63.88821418867315
 20
245.67108222145
 30
0.0
  0
POINT
  5
1744D
330
17443
100
AcDbEntity
  8
Defpoints
 62
     0
100
AcDbPoint
 10
63.88821418867315
 20
266.2446265812835
 30
0.0
  0
ENDBLK
  5
1744E
330
17443
100
AcDbEntity
  8
0
100
AcDbBlockEnd
  0
BLOCK
  5
17453
330
17452
100
AcDbEntity
  8
0
100
AcDbBlockBegin
  2
*D11
 70
     1
 10
0.0
 20
0.0
 30
0.0
  3
*D11
  1

  0
LINE
  5
17454
330
17452
100
AcDbEntity
  8
DIM
 62
     0
370
    -2
100
AcDbLine
 10
38.88821418867315
 20
245.6710822214501
 30
0.0
 11
14.00450168813314
 21
245.6710822214501
 31
0.0
  0
LINE
  5
17455
330
17452
100
AcDbEntity
  8
DIM
 62
     0
370
    -2
100
AcDbLine
 10
41.88821418867315
 20
135.6710822214501
 30
0.0
 11
14.00450168813313
 21
135.6710822214501
 31
0.0
  0
LINE
  5
17456
330
17452
100
AcDbEntity
  8
DIM
 62
     0
370
    -2
100
AcDbLine
 10
14.00450168813314
 20
242.6710822214501
 30
0.0
 11
14.00450168813313
 21
138.6710822214501
 31
0.0
  0
INSERT
  5
17457
330
17452
100
AcDbEntity
  8
DIM
 62
     0
370
    -2
100
AcDbBlockReference
  2
_DOT
 10
14.00450168813314
 20
245.6710822214501
 30
0.0
 41
3.0
 42
3.0
 43
3.0
 50
90.0
  0
INSERT
  5
17458
330
17452
100
AcDbEntity
  8
DIM
 62
     0
370
    -2
100
AcDbBlockReference
  2
_DOT
 10
14.00450168813313
 20
135.6710822214501
 30
0.0
 41
3.0
 42
3.0
 43
3.0
 50
270.0
  0
MTEXT
  5
17459
330
17452
100
AcDbEntity
  8
DIM
 62
     0
100
AcDbMText
 10
4.00300112542212
 20
190.6710822214501
 30
0.0
 40
8.0
 41
0.0
 46
0.0
 71
     5
 72
     1
  1
\A1;110
  7
ＭＳ ゴシック
 11
6.459479416000910E-17
 21
1.0
 31
0.0
 73
     1
 44
1.0
  0
POINT
  5
1745A
330
17452
100
AcDbEntity
  8
Defpoints
 62
     0
100
AcDbPoint
 10
48.88821418867315
 20
245.6710822214501
 30
0.0
  0
POINT
  5
1745B
330
17452
100
AcDbEntity
  8
Defpoints
 62
     0
100
AcDbPoint
 10
51.88821418867315
 20
135.6710822214501
 30
0.0
  0
POINT
  5
1745C
330
17452
100
AcDbEntity
  8
Defpoints
 62
     0
100
AcDbPoint
 10
14.00450168813313
 20
135.6710822214501
 30
0.0
  0
ENDBLK
  5
1745D
330
17452
100
AcDbEntity
  8
0
100
AcDbBlockEnd
  0
BLOCK
  5
17462
330
17461
100
AcDbEntity
  8
0
100
AcDbBlockBegin
  2
*D12
 70
     1
 10
0.0
 20
0.0
 30
0.0
  3
*D12
  1

  0
LINE
  5
17463
330
17461
100
AcDbEntity
  8
DIM
 62
     0
370
    -2
100
AcDbLine
 10
355.8882141886731
 20
135.67108222145
 30
0.0
 11
391.1066488915631
 21
135.67108222145
 31
0.0
  0
LINE
  5
17464
330
17461
100
AcDbEntity
  8
DIM
 62
     0
370
    -2
100
AcDbLine
 10
340.8882141886731
 20
150.67108222145
 30
0.0
 11
391.1066488915631
 21
150.67108222145
 31
0.0
  0
LINE
  5
17465
330
17461
100
AcDbEntity
  8
DIM
 62
     0
370
    -2
100
AcDbLine
 10
391.1066488915631
 20
138.67108222145
 30
0.0
 11
391.1066488915631
 21
147.67108222145
 31
0.0
  0
INSERT
  5
17466
330
17461
100
AcDbEntity
  8
DIM
 62
     0
370
    -2
100
AcDbBlockReference
  2
_DOT
 10
391.1066488915631
 20
135.67108222145
 30
0.0
 41
3.0
 42
3.0
 43
3.0
 50
270.0
  0
INSERT
  5
17467
330
17461
100
AcDbEntity
  8
DIM
 62
     0
370
    -2
100
AcDbBlockReference
  2
_DOT
 10
391.1066488915631
 20
150.67108222145
 30
0.0
 41
3.0
 42
3.0
 43
3.0
 50
90.0
  0
MTEXT
  5
17468
330
17461
100
AcDbEntity
  8
DIM
 62
     0
100
AcDbMText
 10
381.105148328852
 20
143.1710822214499
 30
0.0
 40
8.0
 41
0.0
 46
0.0
 71
     5
 72
     1
  1
\A1;15
  7
ＭＳ ゴシック
 11
0.0
 21
1.0
 31
0.0
 73
     1
 44
1.0
  0
POINT
  5
17469
330
17461
100
AcDbEntity
  8
Defpoints
 62
     0
100
AcDbPoint
 10
345.8882141886731
 20
135.67108222145
 30
0.0
  0
POINT
  5
1746A
330
17461
100
AcDbEntity
  8
Defpoints
 62
     0
100
AcDbPoint
 10
330.8882141886731
 20
150.67108222145
 30
0.0
  0
POINT
  5
1746B
330
17461
100
AcDbEntity
  8
Defpoints
 62
     0
100
AcDbPoint
 10
391.1066488915631
 20
150.67108222145
 30
0.0
  0
ENDBLK
  5
1746C
330
17461
100
AcDbEntity
  8
0
100
AcDbBlockEnd
  0
BLOCK
  5
17472
330
17471
100
AcDbEntity
  8
0
100
AcDbBlockBegin
  2
*D13
 70
     1
 10
0.0
 20
0.0
 30
0.0
  3
*D13
  1

  0
LINE
  5
17473
330
17471
100
AcDbEntity
  8
DIM
 62
     0
370
    -2
100
AcDbLine
 10
48.88821418867315
 20
259.0433614715038
 30
0.0
 11
48.88821418867315
 21
325.2927672551965
 31
0.0
  0
LINE
  5
17474
330
17471
100
AcDbEntity
  8
DIM
 62
     0
370
    -2
100
AcDbLine
 10
348.8882141886731
 20
259.0433614715037
 30
0.0
 11
348.8882141886731
 21
325.2927672551965
 31
0.0
  0
LINE
  5
17475
330
17471
100
AcDbEntity
  8
DIM
 62
     0
370
    -2
100
AcDbLine
 10
51.88821418867315
 20
325.2927672551965
 30
0.0
 11
345.8882141886731
 21
325.2927672551965
 31
0.0
  0
INSERT
  5
17476
330
17471
100
AcDbEntity
  8
DIM
 62
     0
370
    -2
100
AcDbBlockReference
  2
_DOT
 10
48.88821418867315
 20
325.2927672551965
 30
0.0
 41
3.0
 42
3.0
 43
3.0
 50
180.0
  0
INSERT
  5
17477
330
17471
100
AcDbEntity
  8
DIM
 62
     0
370
    -2
100
AcDbBlockReference
  2
_DOT
 10
348.8882141886731
 20
325.2927672551965
 30
0.0
 41
3.0
 42
3.0
 43
3.0
  0
MTEXT
  5
17478
330
17471
100
AcDbEntity
  8
DIM
 62
     0
100
AcDbMText
 10
198.8882141886731
 20
335.2942678179076
 30
0.0
 40
8.0
 41
0.0
 46
0.0
 71
     5
 72
     1
  1
\A1;300
  7
ＭＳ ゴシック
 73
     1
 44
1.0
  0
POINT
  5
17479
330
17471
100
AcDbEntity
  8
Defpoints
 62
     0
100
AcDbPoint
 10
48.88821418867315
 20
249.0433614715038
 30
0.0
  0
POINT
  5
1747A
330
17471
100
AcDbEntity
  8
Defpoints
 62
     0
100
AcDbPoint
 10
348.8882141886731
 20
249.0433614715037
 30
0.0
  0
POINT
  5
1747B
330
17471
100
AcDbEntity
  8
Defpoints
 62
     0
100
AcDbPoint
 10
348.8882141886731
 20
325.2927672551965
 30
0.0
  0
ENDBLK
  5
1747C
330
17471
100
AcDbEntity
  8
0
100
AcDbBlockEnd
  0
BLOCK
  5
1747F
330
1747E
100
AcDbEntity
  8
0
100
AcDbBlockBegin
  2
*D14
 70
     1
 10
0.0
 20
0.0
 30
0.0
  3
*D14
  1

  0
LINE
  5
17480
330
1747E
100
AcDbEntity
  8
DIM
 62
     0
370
    -2
100
AcDbLine
 10
56.38821418867315
 20
270.351570035494
 30
0.0
 11
56.38821418867315
 21
295.5006040459749
 31
0.0
  0
LINE
  5
17481
330
1747E
100
AcDbEntity
  8
DIM
 62
     0
370
    -2
100
AcDbLine
 10
341.3882141886731
 20
270.3515700354942
 30
0.0
 11
341.3882141886731
 21
295.5006040459749
 31
0.0
  0
LINE
  5
17482
330
1747E
100
AcDbEntity
  8
DIM
 62
     0
370
    -2
100
AcDbLine
 10
59.38821418867315
 20
295.5006040459749
 30
0.0
 11
338.3882141886731
 21
295.5006040459749
 31
0.0
  0
INSERT
  5
17483
330
1747E
100
AcDbEntity
  8
DIM
 62
     0
370
    -2
100
AcDbBlockReference
  2
_DOT
 10
56.38821418867315
 20
295.5006040459749
 30
0.0
 41
3.0
 42
3.0
 43
3.0
 50
180.0
  0
INSERT
  5
17484
330
1747E
100
AcDbEntity
  8
DIM
 62
     0
370
    -2
100
AcDbBlockReference
  2
_DOT
 10
341.3882141886731
 20
295.5006040459749
 30
0.0
 41
3.0
 42
3.0
 43
3.0
  0
MTEXT
  5
17485
330
1747E
100
AcDbEntity
  8
DIM
 62
     0
100
AcDbMText
 10
198.8882141886731
 20
305.502104608686
 30
0.0
 40
8.0
 41
0.0
 46
0.0
 71
     5
 72
     1
  1
\A1;285
  7
ＭＳ ゴシック
 73
     1
 44
1.0
  0
POINT
  5
17486
330
1747E
100
AcDbEntity
  8
Defpoints
 62
     0
100
AcDbPoint
 10
56.38821418867315
 20
260.351570035494
 30
0.0
  0
POINT
  5
17487
330
1747E
100
AcDbEntity
  8
Defpoints
 62
     0
100
AcDbPoint
 10
341.3882141886731
 20
260.3515700354942
 30
0.0
  0
POINT
  5
17488
330
1747E
100
AcDbEntity
  8
Defpoints
 62
     0
100
AcDbPoint
 10
341.3882141886731
 20
295.5006040459749
 30
0.0
  0
ENDBLK
  5
17489
330
1747E
100
AcDbEntity
  8
0
100
AcDbBlockEnd
  0
BLOCK
  5
17494
330
17493
100
AcDbEntity
  8
0
100
AcDbBlockBegin
  2
*D15
 70
     1
 10
0.0
 20
0.0
 30
0.0
  3
*D15
  1

  0
LINE
  5
17495
330
17493
100
AcDbEntity
  8
DIM
 62
     0
370
    -2
100
AcDbLine
 10
358.8882141886731
 20
71.5
 30
0.0
 11
389.2564835060271
 21
71.5
 31
0.0
  0
LINE
  5
17496
330
17493
100
AcDbEntity
  8
DIM
 62
     0
370
    -2
100
AcDbLine
 10
358.8882141886731
 20
26.5
 30
0.0
 11
389.2564835060271
 21
26.5
 31
0.0
  0
LINE
  5
17497
330
17493
100
AcDbEntity
  8
DIM
 62
     0
370
    -2
100
AcDbLine
 10
389.2564835060271
 20
68.5
 30
0.0
 11
389.2564835060271
 21
29.5
 31
0.0
  0
INSERT
  5
17498
330
17493
100
AcDbEntity
  8
DIM
 62
     0
370
    -2
100
AcDbBlockReference
  2
_DOT
 10
389.2564835060271
 20
71.5
 30
0.0
 41
3.0
 42
3.0
 43
3.0
 50
90.0
  0
INSERT
  5
17499
330
17493
100
AcDbEntity
  8
DIM
 62
     0
370
    -2
100
AcDbBlockReference
  2
_DOT
 10
389.2564835060271
 20
26.5
 30
0.0
 41
3.0
 42
3.0
 43
3.0
 50
270.0
  0
MTEXT
  5
1749A
330
17493
100
AcDbEntity
  8
DIM
 62
     0
100
AcDbMText
 10
379.254982943316
 20
49.0
 30
0.0
 40
8.0
 41
0.0
 46
0.0
 71
     5
 72
     1
  1
\A1;45
  7
ＭＳ ゴシック
 11
0.0
 21
1.0
 31
0.0
 73
     1
 44
1.0
  0
POINT
  5
1749B
330
17493
100
AcDbEntity
  8
Defpoints
 62
     0
100
AcDbPoint
 10
348.8882141886731
 20
71.5
 30
0.0
  0
POINT
  5
1749C
330
17493
100
AcDbEntity
  8
Defpoints
 62
     0
100
AcDbPoint
 10
348.8882141886731
 20
26.5
 30
0.0
  0
POINT
  5
1749D
330
17493
100
AcDbEntity
  8
Defpoints
 62
     0
100
AcDbPoint
 10
389.2564835060271
 20
26.5
 30
0.0
  0
ENDBLK
  5
1749E
330
17493
100
AcDbEntity
  8
0
100
AcDbBlockEnd
  0
BLOCK
  5
174A4
330
174A3
100
AcDbEntity
  8
0
100
AcDbBlockBegin
  2
*D16
 70
     1
 10
0.0
 20
0.0
 30
0.0
  3
*D16
  1

  0
LINE
  5
174A5
330
174A3
100
AcDbEntity
  8
DIM
 62
     0
370
    -2
100
AcDbLine
 10
363.6034914040001
 20
26.5
 30
0.0
 11
389.2564835060271
 21
26.5
 31
0.0
  0
LINE
  5
174A6
330
174A3
100
AcDbEntity
  8
DIM
 62
     0
370
    -2
100
AcDbLine
 10
355.8882141886731
 20
1.499999999999999
 30
0.0
 11
389.2564835060271
 21
1.499999999999997
 31
0.0
  0
LINE
  5
174A7
330
174A3
100
AcDbEntity
  8
DIM
 62
     0
370
    -2
100
AcDbLine
 10
389.2564835060271
 20
23.5
 30
0.0
 11
389.2564835060271
 21
4.499999999999997
 31
0.0
  0
INSERT
  5
174A8
330
174A3
100
AcDbEntity
  8
DIM
 62
     0
370
    -2
100
AcDbBlockReference
  2
_DOT
 10
389.2564835060271
 20
26.5
 30
0.0
 41
3.0
 42
3.0
 43
3.0
 50
90.0
  0
INSERT
  5
174A9
330
174A3
100
AcDbEntity
  8
DIM
 62
     0
370
    -2
100
AcDbBlockReference
  2
_DOT
 10
389.2564835060271
 20
1.499999999999997
 30
0.0
 41
3.0
 42
3.0
 43
3.0
 50
270.0
  0
MTEXT
  5
174AA
330
174A3
100
AcDbEntity
  8
DIM
 62
     0
100
AcDbMText
 10
379.254982943316
 20
14.0
 30
0.0
 40
8.0
 41
0.0
 46
0.0
 71
     5
 72
     1
  1
\A1;25
  7
ＭＳ ゴシック
 11
0.0
 21
1.0
 31
0.0
 73
     1
 44
1.0
  0
POINT
  5
174AB
330
174A3
100
AcDbEntity
  8
Defpoints
 62
     0
100
AcDbPoint
 10
353.6034914040001
 20
26.5
 30
0.0
  0
POINT
  5
174AC
330
174A3
100
AcDbEntity
  8
Defpoints
 62
     0
100
AcDbPoint
 10
345.8882141886731
 20
1.5
 30
0.0
  0
POINT
  5
174AD
330
174A3
100
AcDbEntity
  8
Defpoints
 62
     0
100
AcDbPoint
 10
389.2564835060271
 20
1.499999999999997
 30
0.0
  0
ENDBLK
  5
174AE
330
174A3
100
AcDbEntity
  8
0
100
AcDbBlockEnd
  0
BLOCK
  5
174B4
330
174B3
100
AcDbEntity
  8
0
100
AcDbBlockBegin
  2
*D17
 70
     1
 10
0.0
 20
0.0
 30
0.0
  3
*D17
  1

  0
LINE
  5
174B5
330
174B3
100
AcDbEntity
  8
DIM
 62
     0
370
    -2
100
AcDbLine
 10
38.88821418867315
 20
71.5
 30
0.0
 11
14.00450168813313
 21
71.49999999999999
 31
0.0
  0
LINE
  5
174B6
330
174B3
100
AcDbEntity
  8
DIM
 62
     0
370
    -2
100
AcDbLine
 10
38.88821418867315
 20
51.49999999999999
 30
0.0
 11
14.00450168813314
 21
51.49999999999999
 31
0.0
  0
LINE
  5
174B7
330
174B3
100
AcDbEntity
  8
DIM
 62
     0
370
    -2
100
AcDbLine
 10
14.00450168813313
 20
68.49999999999999
 30
0.0
 11
14.00450168813313
 21
54.49999999999999
 31
0.0
  0
INSERT
  5
174B8
330
174B3
100
AcDbEntity
  8
DIM
 62
     0
370
    -2
100
AcDbBlockReference
  2
_DOT
 10
14.00450168813313
 20
71.49999999999999
 30
0.0
 41
3.0
 42
3.0
 43
3.0
 50
90.00000000000001
  0
INSERT
  5
174B9
330
174B3
100
AcDbEntity
  8
DIM
 62
     0
370
    -2
100
AcDbBlockReference
  2
_DOT
 10
14.00450168813314
 20
51.49999999999999
 30
0.0
 41
3.0
 42
3.0
 43
3.0
 50
270.0
  0
MTEXT
  5
174BA
330
174B3
100
AcDbEntity
  8
DIM
 62
     0
100
AcDbMText
 10
4.003001125422117
 20
62.13778991319599
 30
0.0
 40
8.0
 41
0.0
 46
0.0
 71
     5
 72
     1
  1
\A1;20
  7
ＭＳ ゴシック
 11
-3.552713678800501E-16
 21
1.0
 31
0.0
 73
     1
 44
1.0
  0
POINT
  5
174BB
330
174B3
100
AcDbEntity
  8
Defpoints
 62
     0
100
AcDbPoint
 10
48.88821418867315
 20
71.5
 30
0.0
  0
POINT
  5
174BC
330
174B3
100
AcDbEntity
  8
Defpoints
 62
     0
100
AcDbPoint
 10
48.88821418867315
 20
51.5
 30
0.0
  0
POINT
  5
174BD
330
174B3
100
AcDbEntity
  8
Defpoints
 62
     0
100
AcDbPoint
 10
14.00450168813313
 20
51.49999999999999
 30
0.0
  0
ENDBLK
  5
174BE
330
174B3
100
AcDbEntity
  8
0
100
AcDbBlockEnd
  0
BLOCK
  5
1753F
330
1753E
100
AcDbEntity
  8
0
100
AcDbBlockBegin
  2
*D18
 70
     1
 10
0.0
 20
0.0
 30
0.0
  3
*D18
  1

  0
LINE
  5
17541
330
1753E
100
AcDbEntity
  8
DIM
 62
     0
370
    -2
100
AcDbLine
 10
334.9585087227263
 20
305.0404827532877
 30
0.0
 11
334.9585087227264
 21
274.0326076281703
 31
0.0
  0
LINE
  5
17542
330
1753E
100
AcDbEntity
  8
DIM
 62
     0
370
    -2
100
AcDbLine
 10
110.9585087227263
 20
305.0404827532869
 30
0.0
 11
110.9585087227264
 21
274.0326076281703
 31
0.0
  0
LINE
  5
17543
330
1753E
100
AcDbEntity
  8
DIM
 62
     0
370
    -2
100
AcDbLine
 10
331.9585087227264
 20
274.0326076281703
 30
0.0
 11
113.9585087227264
 21
274.0326076281703
 31
0.0
  0
INSERT
  5
17544
330
1753E
100
AcDbEntity
  8
DIM
 62
     0
370
    -2
100
AcDbBlockReference
  2
_DOT
 10
334.9585087227264
 20
274.0326076281703
 30
0.0
 41
3.0
 42
3.0
 43
3.0
  0
INSERT
  5
17545
330
1753E
100
AcDbEntity
  8
DIM
 62
     0
370
    -2
100
AcDbBlockReference
  2
_DOT
 10
110.9585087227264
 20
274.0326076281703
 30
0.0
 41
3.0
 42
3.0
 43
3.0
 50
180.0
  0
MTEXT
  5
17546
330
1753E
100
AcDbEntity
  8
DIM
 62
     0
100
AcDbMText
 10
222.9585087227264
 20
280.0341081908813
 30
0.0
 40
8.0
 41
0.0
 46
0.0
 71
     5
 72
     1
  1
\A1;224
  7
ＭＳ ゴシック
 73
     1
 44
1.0
  0
POINT
  5
17547
330
1753E
100
AcDbEntity
  8
Defpoints
 62
     0
100
AcDbPoint
 10
334.9585087227262
 20
315.0404827532877
 30
0.0
  0
POINT
  5
17548
330
1753E
100
AcDbEntity
  8
Defpoints
 62
     0
100
AcDbPoint
 10
110.9585087227263
 20
315.0404827532869
 30
0.0
  0
POINT
  5
17549
330
1753E
100
AcDbEntity
  8
Defpoints
 62
     0
100
AcDbPoint
 10
110.9585087227264
 20
274.0326076281703
 30
0.0
  0
ENDBLK
  5
17540
330
1753E
100
AcDbEntity
  8
0
100
AcDbBlockEnd
  0
BLOCK
  5
1754B
330
1754A
100
AcDbEntity
  8
0
100
AcDbBlockBegin
  2
*D19
 70
     1
 10
0.0
 20
0.0
 30
0.0
  3
*D19
  1

  0
LINE
  5
1754D
330
1754A
100
AcDbEntity
  8
DIM
 62
     0
370
    -2
100
AcDbLine
 10
128.6459529332528
 20
603.1267136627844
 30
0.0
 11
128.6459529332528
 21
613.7002580226178
 31
0.0
  0
LINE
  5
1754E
330
1754A
100
AcDbEntity
  8
DIM
 62
     0
370
    -2
100
AcDbLine
 10
105.6459529332528
 20
603.1267136627844
 30
0.0
 11
105.6459529332528
 21
613.7002580226178
 31
0.0
  0
LINE
  5
1754F
330
1754A
100
AcDbEntity
  8
DIM
 62
     0
370
    -2
100
AcDbLine
 10
125.6459529332528
 20
613.7002580226178
 30
0.0
 11
108.6459529332528
 21
613.7002580226178
 31
0.0
  0
INSERT
  5
17550
330
1754A
100
AcDbEntity
  8
DIM
 62
     0
370
    -2
100
AcDbBlockReference
  2
_DOT
 10
128.6459529332528
 20
613.7002580226178
 30
0.0
 41
3.0
 42
3.0
 43
3.0
  0
INSERT
  5
17551
330
1754A
100
AcDbEntity
  8
DIM
 62
     0
370
    -2
100
AcDbBlockReference
  2
_DOT
 10
105.6459529332528
 20
613.7002580226178
 30
0.0
 41
3.0
 42
3.0
 43
3.0
 50
180.0
  0
MTEXT
  5
17552
330
1754A
100
AcDbEntity
  8
DIM
 62
     0
100
AcDbMText
 10
117.1459529332528
 20
623.7017585853289
 30
0.0
 40
8.0
 41
0.0
 46
0.0
 71
     5
 72
     1
  1
\A1;23
  7
ＭＳ ゴシック
 73
     1
 44
1.0
  0
POINT
  5
17553
330
1754A
100
AcDbEntity
  8
Defpoints
 62
     0
100
AcDbPoint
 10
128.6459529332528
 20
593.1267136627844
 30
0.0
  0
POINT
  5
17554
330
1754A
100
AcDbEntity
  8
Defpoints
 62
     0
100
AcDbPoint
 10
105.6459529332528
 20
593.1267136627844
 30
0.0
  0
POINT
  5
17555
330
1754A
100
AcDbEntity
  8
Defpoints
 62
     0
100
AcDbPoint
 10
105.6459529332528
 20
613.7002580226178
 30
0.0
  0
ENDBLK
  5
1754C
330
1754A
100
AcDbEntity
  8
0
100
AcDbBlockEnd
  0
BLOCK
  5
17557
330
17556
100
AcDbEntity
  8
0
100
AcDbBlockBegin
  2
*D20
 70
     1
 10
0.0
 20
0.0
 30
0.0
  3
*D20
  1

  0
LINE
  5
17559
330
17556
100
AcDbEntity
  8
DIM
 62
     0
370
    -2
100
AcDbLine
 10
72.95850872272638
 20
603.1267136627844
 30
0.0
 11
72.95850872272638
 21
613.7002580226177
 31
0.0
  0
LINE
  5
1755A
330
17556
100
AcDbEntity
  8
DIM
 62
     0
370
    -2
100
AcDbLine
 10
87.95850872272635
 20
603.1267136627843
 30
0.0
 11
87.95850872272635
 21
613.7002580226177
 31
0.0
  0
LINE
  5
1755B
330
17556
100
AcDbEntity
  8
DIM
 62
     0
370
    -2
100
AcDbLine
 10
75.95850872272638
 20
613.7002580226177
 30
0.0
 11
84.95850872272635
 21
613.7002580226177
 31
0.0
  0
INSERT
  5
1755C
330
17556
100
AcDbEntity
  8
DIM
 62
     0
370
    -2
100
AcDbBlockReference
  2
_DOT
 10
72.95850872272638
 20
613.7002580226177
 30
0.0
 41
3.0
 42
3.0
 43
3.0
 50
180.0
  0
INSERT
  5
1755D
330
17556
100
AcDbEntity
  8
DIM
 62
     0
370
    -2
100
AcDbBlockReference
  2
_DOT
 10
87.95850872272635
 20
613.7002580226177
 30
0.0
 41
3.0
 42
3.0
 43
3.0
  0
MTEXT
  5
1755E
330
17556
100
AcDbEntity
  8
DIM
 62
     0
100
AcDbMText
 10
80.45850872272638
 20
619.7017585853288
 30
0.0
 40
8.0
 41
0.0
 46
0.0
 71
     5
 72
     1
  1
\A1;15
  7
ＭＳ ゴシック
 73
     1
 44
1.0
  0
POINT
  5
1755F
330
17556
100
AcDbEntity
  8
Defpoints
 62
     0
100
AcDbPoint
 10
72.95850872272638
 20
593.1267136627844
 30
0.0
  0
POINT
  5
17560
330
17556
100
AcDbEntity
  8
Defpoints
 62
     0
100
AcDbPoint
 10
87.95850872272635
 20
593.1267136627843
 30
0.0
  0
POINT
  5
17561
330
17556
100
AcDbEntity
  8
Defpoints
 62
     0
100
AcDbPoint
 10
87.95850872272635
 20
613.7002580226177
 30
0.0
  0
ENDBLK
  5
17558
330
17556
100
AcDbEntity
  8
0
100
AcDbBlockEnd
  0
BLOCK
  5
17563
330
17562
100
AcDbEntity
  8
0
100
AcDbBlockBegin
  2
*D21
 70
     1
 10
0.0
 20
0.0
 30
0.0
  3
*D21
  1

  0
LINE
  5
17565
330
17562
100
AcDbEntity
  8
DIM
 62
     0
370
    -2
100
AcDbLine
 10
62.95850872272638
 20
593.1267136627844
 30
0.0
 11
48.92718339532809
 21
593.1267136627844
 31
0.0
  0
LINE
  5
17566
330
17562
100
AcDbEntity
  8
DIM
 62
     0
370
    -2
100
AcDbLine
 10
65.95850872272638
 20
483.1267136627844
 30
0.0
 11
48.92718339532809
 21
483.1267136627844
 31
0.0
  0
LINE
  5
17567
330
17562
100
AcDbEntity
  8
DIM
 62
     0
370
    -2
100
AcDbLine
 10
48.92718339532809
 20
590.1267136627844
 30
0.0
 11
48.92718339532809
 21
486.1267136627844
 31
0.0
  0
INSERT
  5
17568
330
17562
100
AcDbEntity
  8
DIM
 62
     0
370
    -2
100
AcDbBlockReference
  2
_DOT
 10
48.92718339532809
 20
593.1267136627844
 30
0.0
 41
3.0
 42
3.0
 43
3.0
 50
90.0
  0
INSERT
  5
17569
330
17562
100
AcDbEntity
  8
DIM
 62
     0
370
    -2
100
AcDbBlockReference
  2
_DOT
 10
48.92718339532809
 20
483.1267136627844
 30
0.0
 41
3.0
 42
3.0
 43
3.0
 50
270.0
  0
MTEXT
  5
1756A
330
17562
100
AcDbEntity
  8
DIM
 62
     0
100
AcDbMText
 10
42.92568283261704
 20
538.1267136627844
 30
0.0
 40
8.0
 41
0.0
 46
0.0
 71
     5
 72
     1
  1
\A1;110
  7
ＭＳ ゴシック
 11
6.459479416000910E-17
 21
1.0
 31
0.0
 73
     1
 44
1.0
  0
POINT
  5
1756B
330
17562
100
AcDbEntity
  8
Defpoints
 62
     0
100
AcDbPoint
 10
72.95850872272638
 20
593.1267136627844
 30
0.0
  0
POINT
  5
1756C
330
17562
100
AcDbEntity
  8
Defpoints
 62
     0
100
AcDbPoint
 10
75.95850872272638
 20
483.1267136627844
 30
0.0
  0
POINT
  5
1756D
330
17562
100
AcDbEntity
  8
Defpoints
 62
     0
100
AcDbPoint
 10
48.92718339532809
 20
483.1267136627844
 30
0.0
  0
ENDBLK
  5
17564
330
17562
100
AcDbEntity
  8
0
100
AcDbBlockEnd
  0
BLOCK
  5
1756F
330
1756E
100
AcDbEntity
  8
0
100
AcDbBlockBegin
  2
*D22
 70
     1
 10
0.0
 20
0.0
 30
0.0
  3
*D22
  1

  0
LINE
  5
17571
330
1756E
100
AcDbEntity
  8
DIM
 62
     0
370
    -2
100
AcDbLine
 10
379.9585087227263
 20
483.1267136627843
 30
0.0
 11
396.4500872437488
 21
483.1267136627843
 31
0.0
  0
LINE
  5
17572
330
1756E
100
AcDbEntity
  8
DIM
 62
     0
370
    -2
100
AcDbLine
 10
364.9585087227263
 20
498.1267136627843
 30
0.0
 11
396.4500872437488
 21
498.1267136627843
 31
0.0
  0
LINE
  5
17573
330
1756E
100
AcDbEntity
  8
DIM
 62
     0
370
    -2
100
AcDbLine
 10
396.4500872437488
 20
486.1267136627843
 30
0.0
 11
396.4500872437488
 21
495.1267136627843
 31
0.0
  0
INSERT
  5
17574
330
1756E
100
AcDbEntity
  8
DIM
 62
     0
370
    -2
100
AcDbBlockReference
  2
_DOT
 10
396.4500872437488
 20
483.1267136627843
 30
0.0
 41
3.0
 42
3.0
 43
3.0
 50
270.0
  0
INSERT
  5
17575
330
1756E
100
AcDbEntity
  8
DIM
 62
     0
370
    -2
100
AcDbBlockReference
  2
_DOT
 10
396.4500872437488
 20
498.1267136627843
 30
0.0
 41
3.0
 42
3.0
 43
3.0
 50
90.0
  0
MTEXT
  5
17576
330
1756E
100
AcDbEntity
  8
DIM
 62
     0
100
AcDbMText
 10
390.4485866810378
 20
490.6267136627843
 30
0.0
 40
8.0
 41
0.0
 46
0.0
 71
     5
 72
     1
  1
\A1;15
  7
ＭＳ ゴシック
 11
0.0
 21
1.0
 31
0.0
 73
     1
 44
1.0
  0
POINT
  5
17577
330
1756E
100
AcDbEntity
  8
Defpoints
 62
     0
100
AcDbPoint
 10
369.9585087227263
 20
483.1267136627843
 30
0.0
  0
POINT
  5
17578
330
1756E
100
AcDbEntity
  8
Defpoints
 62
     0
100
AcDbPoint
 10
354.9585087227263
 20
498.1267136627843
 30
0.0
  0
POINT
  5
17579
330
1756E
100
AcDbEntity
  8
Defpoints
 62
     0
100
AcDbPoint
 10
396.4500872437488
 20
498.1267136627843
 30
0.0
  0
ENDBLK
  5
17570
330
1756E
100
AcDbEntity
  8
0
100
AcDbBlockEnd
  0
BLOCK
  5
1757B
330
1757A
100
AcDbEntity
  8
0
100
AcDbBlockBegin
  2
*D23
 70
     1
 10
0.0
 20
0.0
 30
0.0
  3
*D23
  1

  0
LINE
  5
1757D
330
1757A
100
AcDbEntity
  8
DIM
 62
     0
370
    -2
100
AcDbLine
 10
72.95850872272638
 20
606.498992912838
 30
0.0
 11
72.95850872272638
 21
638.0399409472827
 31
0.0
  0
LINE
  5
1757E
330
1757A
100
AcDbEntity
  8
DIM
 62
     0
370
    -2
100
AcDbLine
 10
372.9585087227263
 20
606.4989929128379
 30
0.0
 11
372.9585087227263
 21
638.0399409472827
 31
0.0
  0
LINE
  5
1757F
330
1757A
100
AcDbEntity
  8
DIM
 62
     0
370
    -2
100
AcDbLine
 10
75.95850872272638
 20
638.0399409472827
 30
0.0
 11
369.9585087227263
 21
638.0399409472827
 31
0.0
  0
INSERT
  5
17580
330
1757A
100
AcDbEntity
  8
DIM
 62
     0
370
    -2
100
AcDbBlockReference
  2
_DOT
 10
72.95850872272638
 20
638.0399409472827
 30
0.0
 41
3.0
 42
3.0
 43
3.0
 50
180.0
  0
INSERT
  5
17581
330
1757A
100
AcDbEntity
  8
DIM
 62
     0
370
    -2
100
AcDbBlockReference
  2
_DOT
 10
372.9585087227263
 20
638.0399409472827
 30
0.0
 41
3.0
 42
3.0
 43
3.0
  0
MTEXT
  5
17582
330
1757A
100
AcDbEntity
  8
DIM
 62
     0
100
AcDbMText
 10
222.9585087227263
 20
644.0414415099938
 30
0.0
 40
8.0
 41
0.0
 46
0.0
 71
     5
 72
     1
  1
\A1;300
  7
ＭＳ ゴシック
 73
     1
 44
1.0
  0
POINT
  5
17583
330
1757A
100
AcDbEntity
  8
Defpoints
 62
     0
100
AcDbPoint
 10
72.95850872272638
 20
596.498992912838
 30
0.0
  0
POINT
  5
17584
330
1757A
100
AcDbEntity
  8
Defpoints
 62
     0
100
AcDbPoint
 10
372.9585087227263
 20
596.4989929128379
 30
0.0
  0
POINT
  5
17585
330
1757A
100
AcDbEntity
  8
Defpoints
 62
     0
100
AcDbPoint
 10
372.9585087227263
 20
638.0399409472827
 30
0.0
  0
ENDBLK
  5
1757C
330
1757A
100
AcDbEntity
  8
0
100
AcDbBlockEnd
  0
BLOCK
  5
17587
330
17586
100
AcDbEntity
  8
0
100
AcDbBlockBegin
  2
*D24
 70
     1
 10
0.0
 20
0.0
 30
0.0
  3
*D24
  1

  0
LINE
  5
17589
330
17586
100
AcDbEntity
  8
DIM
 62
     0
370
    -2
100
AcDbLine
 10
80.45850872272638
 20
382.20486584816
 30
0.0
 11
80.45850872272638
 21
412.3976406428185
 31
0.0
  0
LINE
  5
1758A
330
17586
100
AcDbEntity
  8
DIM
 62
     0
370
    -2
100
AcDbLine
 10
365.4585087227263
 20
382.2048658481603
 30
0.0
 11
365.4585087227263
 21
412.3976406428185
 31
0.0
  0
LINE
  5
1758B
330
17586
100
AcDbEntity
  8
DIM
 62
     0
370
    -2
100
AcDbLine
 10
83.45850872272638
 20
412.3976406428185
 30
0.0
 11
362.4585087227263
 21
412.3976406428185
 31
0.0
  0
INSERT
  5
1758C
330
17586
100
AcDbEntity
  8
DIM
 62
     0
370
    -2
100
AcDbBlockReference
  2
_DOT
 10
80.45850872272638
 20
412.3976406428185
 30
0.0
 41
3.0
 42
3.0
 43
3.0
 50
180.0
  0
INSERT
  5
1758D
330
17586
100
AcDbEntity
  8
DIM
 62
     0
370
    -2
100
AcDbBlockReference
  2
_DOT
 10
365.4585087227263
 20
412.3976406428185
 30
0.0
 41
3.0
 42
3.0
 43
3.0
  0
MTEXT
  5
1758E
330
17586
100
AcDbEntity
  8
DIM
 62
     0
100
AcDbMText
 10
222.9585087227264
 20
418.3991412055295
 30
0.0
 40
8.0
 41
0.0
 46
0.0
 71
     5
 72
     1
  1
\A1;285
  7
ＭＳ ゴシック
 73
     1
 44
1.0
  0
POINT
  5
1758F
330
17586
100
AcDbEntity
  8
Defpoints
 62
     0
100
AcDbPoint
 10
80.45850872272638
 20
372.20486584816
 30
0.0
  0
POINT
  5
17590
330
17586
100
AcDbEntity
  8
Defpoints
 62
     0
100
AcDbPoint
 10
365.4585087227263
 20
372.2048658481603
 30
0.0
  0
POINT
  5
17591
330
17586
100
AcDbEntity
  8
Defpoints
 62
     0
100
AcDbPoint
 10
365.4585087227263
 20
412.3976406428185
 30
0.0
  0
ENDBLK
  5
17588
330
17586
100
AcDbEntity
  8
0
100
AcDbBlockEnd
  0
BLOCK
  5
17593
330
17592
100
AcDbEntity
  8
0
100
AcDbBlockBegin
  2
*D25
 70
     1
 10
0.0
 20
0.0
 30
0.0
  3
*D25
  1

  0
LINE
  5
17595
330
17592
100
AcDbEntity
  8
DIM
 62
     0
370
    -2
100
AcDbLine
 10
557.3670166367853
 20
385.0404827532878
 30
0.0
 11
566.451953977821
 21
385.0404827532878
 31
0.0
  0
LINE
  5
17596
330
17592
100
AcDbEntity
  8
DIM
 62
     0
370
    -2
100
AcDbLine
 10
530.8255423227263
 20
340.0404827532878
 30
0.0
 11
566.451953977821
 21
340.0404827532878
 31
0.0
  0
LINE
  5
17597
330
17592
100
AcDbEntity
  8
DIM
 62
     0
370
    -2
100
AcDbLine
 10
566.451953977821
 20
382.0404827532878
 30
0.0
 11
566.451953977821
 21
343.0404827532878
 31
0.0
  0
INSERT
  5
17598
330
17592
100
AcDbEntity
  8
DIM
 62
     0
370
    -2
100
AcDbBlockReference
  2
_DOT
 10
566.451953977821
 20
385.0404827532878
 30
0.0
 41
3.0
 42
3.0
 43
3.0
 50
90.0
  0
INSERT
  5
17599
330
17592
100
AcDbEntity
  8
DIM
 62
     0
370
    -2
100
AcDbBlockReference
  2
_DOT
 10
566.451953977821
 20
340.0404827532878
 30
0.0
 41
3.0
 42
3.0
 43
3.0
 50
270.0
  0
MTEXT
  5
1759A
330
17592
100
AcDbEntity
  8
DIM
 62
     0
100
AcDbMText
 10
560.4504534151099
 20
362.5404827532878
 30
0.0
 40
8.0
 41
0.0
 46
0.0
 71
     5
 72
     1
  1
\A1;45
  7
ＭＳ ゴシック
 11
0.0
 21
1.0
 31
0.0
 73
     1
 44
1.0
  0
POINT
  5
1759B
330
17592
100
AcDbEntity
  8
Defpoints
 62
     0
100
AcDbPoint
 10
547.3670166367853
 20
385.0404827532878
 30
0.0
  0
POINT
  5
1759C
330
17592
100
AcDbEntity
  8
Defpoints
 62
     0
100
AcDbPoint
 10
520.8255423227263
 20
340.0404827532878
 30
0.0
  0
POINT
  5
1759D
330
17592
100
AcDbEntity
  8
Defpoints
 62
     0
100
AcDbPoint
 10
566.451953977821
 20
340.0404827532878
 30
0.0
  0
ENDBLK
  5
17594
330
17592
100
AcDbEntity
  8
0
100
AcDbBlockEnd
  0
BLOCK
  5
1759F
330
1759E
100
AcDbEntity
  8
0
100
AcDbBlockBegin
  2
*D26
 70
     1
 10
0.0
 20
0.0
 30
0.0
  3
*D26
  1

  0
LINE
  5
175A1
330
1759E
100
AcDbEntity
  8
DIM
 62
     0
370
    -2
100
AcDbLine
 10
405.3612301485798
 20
340.0404827532878
 30
0.0
 11
431.0142222506067
 21
340.0404827532878
 31
0.0
  0
LINE
  5
175A2
330
1759E
100
AcDbEntity
  8
DIM
 62
     0
370
    -2
100
AcDbLine
 10
397.6459529332528
 20
315.0404827532878
 30
0.0
 11
431.0142222506067
 21
315.0404827532878
 31
0.0
  0
LINE
  5
175A3
330
1759E
100
AcDbEntity
  8
DIM
 62
     0
370
    -2
100
AcDbLine
 10
431.0142222506067
 20
337.0404827532878
 30
0.0
 11
431.0142222506067
 21
318.0404827532878
 31
0.0
  0
INSERT
  5
175A4
330
1759E
100
AcDbEntity
  8
DIM
 62
     0
370
    -2
100
AcDbBlockReference
  2
_DOT
 10
431.0142222506067
 20
340.0404827532878
 30
0.0
 41
3.0
 42
3.0
 43
3.0
 50
90.0
  0
INSERT
  5
175A5
330
1759E
100
AcDbEntity
  8
DIM
 62
     0
370
    -2
100
AcDbBlockReference
  2
_DOT
 10
431.0142222506067
 20
315.0404827532878
 30
0.0
 41
3.0
 42
3.0
 43
3.0
 50
270.0
  0
MTEXT
  5
175A6
330
1759E
100
AcDbEntity
  8
DIM
 62
     0
100
AcDbMText
 10
421.0127216878957
 20
327.5404827532878
 30
0.0
 40
8.0
 41
0.0
 46
0.0
 71
     5
 72
     1
  1
\A1;25
  7
ＭＳ ゴシック
 11
0.0
 21
1.0
 31
0.0
 73
     1
 44
1.0
  0
POINT
  5
175A7
330
1759E
100
AcDbEntity
  8
Defpoints
 62
     0
100
AcDbPoint
 10
395.3612301485798
 20
340.0404827532878
 30
0.0
  0
POINT
  5
175A8
330
1759E
100
AcDbEntity
  8
Defpoints
 62
     0
100
AcDbPoint
 10
387.6459529332528
 20
315.0404827532878
 30
0.0
  0
POINT
  5
175A9
330
1759E
100
AcDbEntity
  8
Defpoints
 62
     0
100
AcDbPoint
 10
431.0142222506067
 20
315.0404827532878
 30
0.0
  0
ENDBLK
  5
175A0
330
1759E
100
AcDbEntity
  8
0
100
AcDbBlockEnd
  0
BLOCK
  5
175AB
330
175AA
100
AcDbEntity
  8
0
100
AcDbBlockBegin
  2
*D27
 70
     1
 10
0.0
 20
0.0
 30
0.0
  3
*D27
  1

  0
LINE
  5
175AD
330
175AA
100
AcDbEntity
  8
DIM
 62
     0
370
    -2
100
AcDbLine
 10
422.583545050561
 20
385.0404827532873
 30
0.0
 11
392.67084169954
 21
385.0404827532873
 31
0.0
  0
LINE
  5
175AE
330
175AA
100
AcDbEntity
  8
DIM
 62
     0
370
    -2
100
AcDbLine
 10
401.733267167679
 20
365.0404827532873
 30
0.0
 11
392.6708416995401
 21
365.0404827532873
 31
0.0
  0
LINE
  5
175AF
330
175AA
100
AcDbEntity
  8
DIM
 62
     0
370
    -2
100
AcDbLine
 10
392.67084169954
 20
382.0404827532873
 30
0.0
 11
392.6708416995401
 21
368.0404827532873
 31
0.0
  0
INSERT
  5
175B0
330
175AA
100
AcDbEntity
  8
DIM
 62
     0
370
    -2
100
AcDbBlockReference
  2
_DOT
 10
392.67084169954
 20
385.0404827532873
 30
0.0
 41
3.0
 42
3.0
 43
3.0
 50
90.00000000000016
  0
INSERT
  5
175B1
330
175AA
100
AcDbEntity
  8
DIM
 62
     0
370
    -2
100
AcDbBlockReference
  2
_DOT
 10
392.6708416995401
 20
365.0404827532873
 30
0.0
 41
3.0
 42
3.0
 43
3.0
 50
270.0000000000002
  0
MTEXT
  5
175B2
330
175AA
100
AcDbEntity
  8
DIM
 62
     0
100
AcDbMText
 10
386.669341136829
 20
375.0404827532873
 30
0.0
 40
8.0
 41
0.0
 46
0.0
 71
     5
 72
     1
  1
\A1;20
  7
ＭＳ ゴシック
 11
-2.842170943040409E-15
 21
1.0
 31
0.0
 73
     1
 44
1.0
  0
POINT
  5
175B3
330
175AA
100
AcDbEntity
  8
Defpoints
 62
     0
100
AcDbPoint
 10
432.583545050561
 20
385.0404827532874
 30
0.0
  0
POINT
  5
175B4
330
175AA
100
AcDbEntity
  8
Defpoints
 62
     0
100
AcDbPoint
 10
411.733267167679
 20
365.0404827532874
 30
0.0
  0
POINT
  5
175B5
330
175AA
100
AcDbEntity
  8
Defpoints
 62
     0
100
AcDbPoint
 10
392.6708416995401
 20
365.0404827532873
 30
0.0
  0
ENDBLK
  5
175AC
330
175AA
100
AcDbEntity
  8
0
100
AcDbBlockEnd
  0
BLOCK
  5
175D7
330
175D6
100
AcDbEntity
  8
0
100
AcDbBlockBegin
  2
*D28
 70
     1
 10
0.0
 20
0.0
 30
0.0
  3
*D28
  1

  0
LINE
  5
175D9
330
175D6
100
AcDbEntity
  8
DIM
 62
     0
370
    -2
100
AcDbLine
 10
444.7007143491467
 20
315.0404827532878
 30
0.0
 11
584.1185172080559
 21
315.0404827532878
 31
0.0
  0
LINE
  5
175DA
330
175D6
100
AcDbEntity
  8
DIM
 62
     0
370
    -2
100
AcDbLine
 10
551.7007143491467
 20
385.0404827532878
 30
0.0
 11
584.1185172080559
 21
385.0404827532878
 31
0.0
  0
LINE
  5
175DB
330
175D6
100
AcDbEntity
  8
DIM
 62
     0
370
    -2
100
AcDbLine
 10
584.1185172080559
 20
318.0404827532878
 30
0.0
 11
584.1185172080559
 21
382.0404827532878
 31
0.0
  0
INSERT
  5
175DC
330
175D6
100
AcDbEntity
  8
DIM
 62
     0
370
    -2
100
AcDbBlockReference
  2
_DOT
 10
584.1185172080559
 20
315.0404827532878
 30
0.0
 41
3.0
 42
3.0
 43
3.0
 50
270.0
  0
INSERT
  5
175DD
330
175D6
100
AcDbEntity
  8
DIM
 62
     0
370
    -2
100
AcDbBlockReference
  2
_DOT
 10
584.1185172080559
 20
385.0404827532878
 30
0.0
 41
3.0
 42
3.0
 43
3.0
 50
90.0
  0
MTEXT
  5
175DE
330
175D6
100
AcDbEntity
  8
DIM
 62
     0
100
AcDbMText
 10
578.1170166453448
 20
350.0404827532878
 30
0.0
 40
8.0
 41
0.0
 46
0.0
 71
     5
 72
     1
  1
\A1;70
  7
ＭＳ ゴシック
 11
0.0
 21
1.0
 31
0.0
 73
     1
 44
1.0
  0
POINT
  5
175DF
330
175D6
100
AcDbEntity
  8
Defpoints
 62
     0
100
AcDbPoint
 10
434.7007143491467
 20
315.0404827532878
 30
0.0
  0
POINT
  5
175E0
330
175D6
100
AcDbEntity
  8
Defpoints
 62
     0
100
AcDbPoint
 10
541.7007143491467
 20
385.0404827532878
 30
0.0
  0
POINT
  5
175E1
330
175D6
100
AcDbEntity
  8
Defpoints
 62
     0
100
AcDbPoint
 10
584.1185172080559
 20
385.0404827532878
 30
0.0
  0
ENDBLK
  5
175D8
330
175D6
100
AcDbEntity
  8
0
100
AcDbBlockEnd
  0
BLOCK
  5
175F1
330
175F0
100
AcDbEntity
  8
0
100
AcDbBlockBegin
  2
*D29
 70
     1
 10
0.0
 20
0.0
 30
0.0
  3
*D29
  1

  0
LINE
  5
175F3
330
175F0
100
AcDbEntity
  8
DIM
 62
     0
370
    -2
100
AcDbLine
 10
551.7007143491467
 20
382.0404827532878
 30
0.0
 11
555.6149167752272
 21
382.0404827532878
 31
0.0
  0
LINE
  5
175F4
330
175F0
100
AcDbEntity
  8
DIM
 62
     0
370
    -2
100
AcDbLine
 10
551.7007143491467
 20
385.0404827532878
 30
0.0
 11
555.6149167752272
 21
385.0404827532878
 31
0.0
  0
LINE
  5
175F5
330
175F0
100
AcDbEntity
  8
DIM
 62
     0
370
    -2
100
AcDbLine
 10
555.6149167752272
 20
385.0404827532878
 30
0.0
 11
555.6149167752272
 21
402.6633505008201
 31
0.0
  0
LINE
  5
175F6
330
175F0
100
AcDbEntity
  8
DIM
 62
     0
370
    -2
100
AcDbLine
 10
555.6149167752272
 20
385.0404827532878
 30
0.0
 11
555.6149167752272
 21
382.0404827532878
 31
0.0
  0
LINE
  5
175F7
330
175F0
100
AcDbEntity
  8
DIM
 62
     0
370
    -2
100
AcDbLine
 10
555.6149167752272
 20
382.0404827532878
 30
0.0
 11
555.6149167752272
 21
379.0404827532878
 31
0.0
  0
INSERT
  5
175F8
330
175F0
100
AcDbEntity
  8
DIM
 62
     0
370
    -2
100
AcDbBlockReference
  2
_DOT
 10
555.6149167752272
 20
382.0404827532878
 30
0.0
 41
3.0
 42
3.0
 43
3.0
 50
270.0
  0
INSERT
  5
175F9
330
175F0
100
AcDbEntity
  8
DIM
 62
     0
370
    -2
100
AcDbBlockReference
  2
_DOT
 10
555.6149167752272
 20
385.0404827532878
 30
0.0
 41
3.0
 42
3.0
 43
3.0
 50
90.0
  0
MTEXT
  5
175FA
330
175F0
100
AcDbEntity
  8
DIM
 62
     0
100
AcDbMText
 10
549.6134162125162
 20
398.5945747098985
 30
0.0
 40
8.0
 41
0.0
 46
0.0
 71
     5
 72
     1
  1
\A1;3
  7
ＭＳ ゴシック
 11
0.0
 21
1.0
 31
0.0
 73
     1
 44
1.0
  0
POINT
  5
175FB
330
175F0
100
AcDbEntity
  8
Defpoints
 62
     0
100
AcDbPoint
 10
541.7007143491467
 20
382.0404827532878
 30
0.0
  0
POINT
  5
175FC
330
175F0
100
AcDbEntity
  8
Defpoints
 62
     0
100
AcDbPoint
 10
541.7007143491467
 20
385.0404827532878
 30
0.0
  0
POINT
  5
175FD
330
175F0
100
AcDbEntity
  8
Defpoints
 62
     0
100
AcDbPoint
 10
555.6149167752272
 20
385.0404827532878
 30
0.0
  0
ENDBLK
  5
175F2
330
175F0
100
AcDbEntity
  8
0
100
AcDbBlockEnd
  0
BLOCK
  5
17602
330
17601
100
AcDbEntity
  8
0
100
AcDbBlockBegin
  2
*D30
 70
     1
 10
0.0
 20
0.0
 30
0.0
  3
*D30
  1

  0
LINE
  5
17604
330
17601
100
AcDbEntity
  8
DIM
 62
     0
370
    -2
100
AcDbLine
 10
518.7007143491467
 20
340.0404827532878
 30
0.0
 11
537.3357867386799
 21
340.0404827532878
 31
0.0
  0
LINE
  5
17605
330
17601
100
AcDbEntity
  8
DIM
 62
     0
370
    -2
100
AcDbLine
 10
518.7007143491467
 20
343.0404827532878
 30
0.0
 11
537.3357867386799
 21
343.0404827532878
 31
0.0
  0
LINE
  5
17606
330
17601
100
AcDbEntity
  8
DIM
 62
     0
370
    -2
100
AcDbLine
 10
537.3357867386799
 20
343.0404827532878
 30
0.0
 11
537.3357867386799
 21
357.1780343351309
 31
0.0
  0
LINE
  5
17607
330
17601
100
AcDbEntity
  8
DIM
 62
     0
370
    -2
100
AcDbLine
 10
537.3357867386799
 20
343.0404827532878
 30
0.0
 11
537.3357867386799
 21
340.0404827532878
 31
0.0
  0
LINE
  5
17608
330
17601
100
AcDbEntity
  8
DIM
 62
     0
370
    -2
100
AcDbLine
 10
537.3357867386799
 20
340.0404827532878
 30
0.0
 11
537.3357867386799
 21
337.0404827532878
 31
0.0
  0
INSERT
  5
17609
330
17601
100
AcDbEntity
  8
DIM
 62
     0
370
    -2
100
AcDbBlockReference
  2
_DOT
 10
537.3357867386799
 20
340.0404827532878
 30
0.0
 41
3.0
 42
3.0
 43
3.0
 50
270.0
  0
INSERT
  5
1760A
330
17601
100
AcDbEntity
  8
DIM
 62
     0
370
    -2
100
AcDbBlockReference
  2
_DOT
 10
537.3357867386799
 20
343.0404827532878
 30
0.0
 41
3.0
 42
3.0
 43
3.0
 50
90.0
  0
MTEXT
  5
1760B
330
17601
100
AcDbEntity
  8
DIM
 62
     0
100
AcDbMText
 10
531.3342861759688
 20
353.1092585442094
 30
0.0
 40
8.0
 41
0.0
 46
0.0
 71
     5
 72
     1
  1
\A1;3
  7
ＭＳ ゴシック
 11
0.0
 21
1.0
 31
0.0
 73
     1
 44
1.0
  0
POINT
  5
1760C
330
17601
100
AcDbEntity
  8
Defpoints
 62
     0
100
AcDbPoint
 10
508.7007143491467
 20
340.0404827532878
 30
0.0
  0
POINT
  5
1760D
330
17601
100
AcDbEntity
  8
Defpoints
 62
     0
100
AcDbPoint
 10
508.7007143491467
 20
343.0404827532878
 30
0.0
  0
POINT
  5
1760E
330
17601
100
AcDbEntity
  8
Defpoints
 62
     0
100
AcDbPoint
 10
537.3357867386799
 20
343.0404827532878
 30
0.0
  0
ENDBLK
  5
17603
330
17601
100
AcDbEntity
  8
0
100
AcDbBlockEnd
  0
BLOCK
  5
17672
330
17671
100
AcDbEntity
  8
0
100
AcDbBlockBegin
  2
*D31
 70
     1
 10
0.0
 20
0.0
 30
0.0
  3
*D31
  1

  0
LINE
  5
17674
330
17671
100
AcDbEntity
  8
DIM
 62
     0
370
    -2
100
AcDbLine
 10
434.7007143491467
 20
352.6266867921325
 30
0.0
 11
434.7007143491467
 21
333.3026126560355
 31
0.0
  0
LINE
  5
17675
330
17671
100
AcDbEntity
  8
DIM
 62
     0
370
    -2
100
AcDbLine
 10
399.7007143491467
 20
352.6266867921311
 30
0.0
 11
399.7007143491467
 21
333.3026126560355
 31
0.0
  0
LINE
  5
17676
330
17671
100
AcDbEntity
  8
DIM
 62
     0
370
    -2
100
AcDbLine
 10
431.7007143491467
 20
333.3026126560355
 30
0.0
 11
402.7007143491467
 21
333.3026126560355
 31
0.0
  0
INSERT
  5
17677
330
17671
100
AcDbEntity
  8
DIM
 62
     0
370
    -2
100
AcDbBlockReference
  2
_DOT
 10
434.7007143491467
 20
333.3026126560355
 30
0.0
 41
3.0
 42
3.0
 43
3.0
  0
INSERT
  5
17678
330
17671
100
AcDbEntity
  8
DIM
 62
     0
370
    -2
100
AcDbBlockReference
  2
_DOT
 10
399.7007143491467
 20
333.3026126560355
 30
0.0
 41
3.0
 42
3.0
 43
3.0
 50
180.0
  0
MTEXT
  5
17679
330
17671
100
AcDbEntity
  8
DIM
 62
     0
100
AcDbMText
 10
417.2007143491467
 20
339.3041132187466
 30
0.0
 40
8.0
 41
0.0
 46
0.0
 71
     5
 72
     1
  1
\A1;35
  7
ＭＳ ゴシック
 73
     1
 44
1.0
  0
POINT
  5
1767A
330
17671
100
AcDbEntity
  8
Defpoints
 62
     0
100
AcDbPoint
 10
434.7007143491467
 20
362.6266867921325
 30
0.0
  0
POINT
  5
1767B
330
17671
100
AcDbEntity
  8
Defpoints
 62
     0
100
AcDbPoint
 10
399.7007143491467
 20
362.6266867921311
 30
0.0
  0
POINT
  5
1767C
330
17671
100
AcDbEntity
  8
Defpoints
 62
     0
100
AcDbPoint
 10
399.7007143491467
 20
333.3026126560355
 30
0.0
  0
ENDBLK
  5
17673
330
17671
100
AcDbEntity
  8
0
100
AcDbBlockEnd
  0
BLOCK
  5
176CB
330
176CA
100
AcDbEntity
  8
0
100
AcDbBlockBegin
  2
*D32
 70
     1
 10
0.0
 20
0.0
 30
0.0
  3
*D32
  1

  0
LINE
  5
176CD
330
176CA
100
AcDbEntity
  8
DIM
 62
     0
370
    -2
100
AcDbLine
 10
431.7007143491467
 20
305.0404827532878
 30
0.0
 11
431.7007143491467
 21
289.7877277318736
 31
0.0
  0
LINE
  5
176CE
330
176CA
100
AcDbEntity
  8
DIM
 62
     0
370
    -2
100
AcDbLine
 10
508.7007143491467
 20
330.0404827532878
 30
0.0
 11
508.7007143491467
 21
289.7877277318736
 31
0.0
  0
LINE
  5
176CF
330
176CA
100
AcDbEntity
  8
DIM
 62
     0
370
    -2
100
AcDbLine
 10
434.7007143491467
 20
289.7877277318736
 30
0.0
 11
505.7007143491467
 21
289.7877277318736
 31
0.0
  0
INSERT
  5
176D0
330
176CA
100
AcDbEntity
  8
DIM
 62
     0
370
    -2
100
AcDbBlockReference
  2
_DOT
 10
431.7007143491467
 20
289.7877277318736
 30
0.0
 41
3.0
 42
3.0
 43
3.0
 50
180.0
  0
INSERT
  5
176D1
330
176CA
100
AcDbEntity
  8
DIM
 62
     0
370
    -2
100
AcDbBlockReference
  2
_DOT
 10
508.7007143491467
 20
289.7877277318736
 30
0.0
 41
3.0
 42
3.0
 43
3.0
  0
MTEXT
  5
176D2
330
176CA
100
AcDbEntity
  8
DIM
 62
     0
100
AcDbMText
 10
470.2007143491467
 20
295.7892282945846
 30
0.0
 40
8.0
 41
0.0
 46
0.0
 71
     5
 72
     1
  1
\A1;77
  7
ＭＳ ゴシック
 73
     1
 44
1.0
  0
POINT
  5
176D3
330
176CA
100
AcDbEntity
  8
Defpoints
 62
     0
100
AcDbPoint
 10
431.7007143491467
 20
315.0404827532878
 30
0.0
  0
POINT
  5
176D4
330
176CA
100
AcDbEntity
  8
Defpoints
 62
     0
100
AcDbPoint
 10
508.7007143491467
 20
340.0404827532878
 30
0.0
  0
POINT
  5
176D5
330
176CA
100
AcDbEntity
  8
Defpoints
 62
     0
100
AcDbPoint
 10
508.7007143491467
 20
289.7877277318736
 30
0.0
  0
ENDBLK
  5
176CC
330
176CA
100
AcDbEntity
  8
0
100
AcDbBlockEnd
  0
BLOCK
  5
176DA
330
176D9
100
AcDbEntity
  8
0
100
AcDbBlockBegin
  2
*D33
 70
     1
 10
0.0
 20
0.0
 30
0.0
  3
*D33
  1

  0
LINE
  5
176DC
330
176D9
100
AcDbEntity
  8
DIM
 62
     0
370
    -2
100
AcDbLine
 10
431.7007143491467
 20
305.0404827532878
 30
0.0
 11
431.7007143491467
 21
274.0326076281704
 31
0.0
  0
LINE
  5
176DD
330
176D9
100
AcDbEntity
  8
DIM
 62
     0
370
    -2
100
AcDbLine
 10
509.7007143491466
 20
325.2382551417263
 30
0.0
 11
509.7007143491466
 21
274.0326076281704
 31
0.0
  0
LINE
  5
176DE
330
176D9
100
AcDbEntity
  8
DIM
 62
     0
370
    -2
100
AcDbLine
 10
434.7007143491467
 20
274.0326076281704
 30
0.0
 11
506.7007143491466
 21
274.0326076281704
 31
0.0
  0
INSERT
  5
176DF
330
176D9
100
AcDbEntity
  8
DIM
 62
     0
370
    -2
100
AcDbBlockReference
  2
_DOT
 10
431.7007143491467
 20
274.0326076281704
 30
0.0
 41
3.0
 42
3.0
 43
3.0
 50
180.0
  0
INSERT
  5
176E0
330
176D9
100
AcDbEntity
  8
DIM
 62
     0
370
    -2
100
AcDbBlockReference
  2
_DOT
 10
509.7007143491466
 20
274.0326076281704
 30
0.0
 41
3.0
 42
3.0
 43
3.0
  0
MTEXT
  5
176E1
330
176D9
100
AcDbEntity
  8
DIM
 62
     0
100
AcDbMText
 10
470.7007143491467
 20
280.0341081908814
 30
0.0
 40
8.0
 41
0.0
 46
0.0
 71
     5
 72
     1
  1
\A1;78
  7
ＭＳ ゴシック
 73
     1
 44
1.0
  0
POINT
  5
176E2
330
176D9
100
AcDbEntity
  8
Defpoints
 62
     0
100
AcDbPoint
 10
431.7007143491467
 20
315.0404827532878
 30
0.0
  0
POINT
  5
176E3
330
176D9
100
AcDbEntity
  8
Defpoints
 62
     0
100
AcDbPoint
 10
509.7007143491466
 20
335.2382551417263
 30
0.0
  0
POINT
  5
176E4
330
176D9
100
AcDbEntity
  8
Defpoints
 62
     0
100
AcDbPoint
 10
509.7007143491466
 20
274.0326076281704
 30
0.0
  0
ENDBLK
  5
176DB
330
176D9
100
AcDbEntity
  8
0
100
AcDbBlockEnd
  0
BLOCK
  5
17741
330
17740
100
AcDbEntity
  8
0
100
AcDbBlockBegin
  2
_SE_FILLED
 70
     0
 10
0.0
 20
0.0
 30
0.0
  3
_SE_FILLED
  1

  0
SOLID
  5
17742
330
17740
100
AcDbEntity
  8
0
 62
     0
100
AcDbTrace
 10
0.0
 20
0.0
 30
0.0
 11
-1.0
 21
-0.1665
 31
0.0
 12
-1.0
 22
0.1665
 32
0.0
 13
0.0
 23
0.0
 33
0.0
  0
LINE
  5
17743
330
17740
100
AcDbEntity
  8
0
 62
     0
100
AcDbLine
 10
0.0
 20
0.0
 30
0.0
 11
-1.0
 21
0.0
 31
0.0
  0
ENDBLK
  5
17744
330
17740
100
AcDbEntity
  8
0
100
AcDbBlockEnd
  0
ENDSEC
  0
SECTION
  2
ENTITIES
  0
MTEXT
  5
177
330
A
100
AcDbEntity
  8
TEMPLATE
390
1D
100
AcDbMText
 10
23.76064336431923
 20
103.1195254894285
 30
0.0
 40
4.886523437499998
 41
0.0
 46
0.0
 71
     1
 72
     1
  1
品名
  7
ＭＳ ゴシック
 73
     1
 44
0.7828267384257843
  0
MTEXT
  5
178
330
A
100
AcDbEntity
  8
TEMPLATE
390
1D
100
AcDbMText
 10
23.76064336431923
 20
77.6195254894284
 30
0.0
 40
4.886523437499998
 41
0.0
 46
0.0
 71
     1
 72
     1
  1
仕様
  7
ＭＳ ゴシック
 73
     1
 44
0.7828267384257843
  0
LINE
  5
179
330
A
100
AcDbEntity
  8
TEMPLATE
390
1D
100
AcDbLine
 10
606.6606433641745
 20
80.14400205192852
 30
0.0
 11
21.66064336417462
 21
80.14400205192852
 31
0.0
  0
LWPOLYLINE
  5
17A
330
A
100
AcDbEntity
  8
TEMPLATE
390
1D
100
AcDbPolyline
 90
        5
 70
   128
 43
0.0
 10
606.6606433641745
 20
869.1440020519278
 10
21.66064336417462
 20
869.1440020519278
 10
21.66064336417462
 20
29.14400205192847
 10
606.6606433641745
 20
29.14400205192847
 10
606.6606433641745
 20
869.1440020519278
  0
LINE
  5
17B
330
A
100
AcDbEntity
  8
TEMPLATE
390
1D
100
AcDbLine
 10
606.6606433641745
 20
105.6440020519285
 30
0.0
 11
21.66064336417462
 21
105.6440020519285
 31
0.0
  0
LINE
  5
17C
330
A
100
AcDbEntity
  8
TEMPLATE
390
1D
100
AcDbLine
 10
606.6606433643196
 20
54.64400205192847
 30
0.0
 11
380.760643364319
 21
54.64400205192847
 31
0.0
  0
MTEXT
  5
17E
330
A
100
AcDbEntity
  8
TEMPLATE
390
1D
100
AcDbMText
 10
389.7220652399973
 20
45.67088370993605
 30
0.0
 40
7.329785156250001
 41
0.0
 46
0.0
 71
     1
 72
     1
  1
大洋金物株式会社 ティーフォルム事業部
  7
ＭＳ ゴシック
 73
     1
 44
0.7828267384257843
  0
MTEXT
  5
180
330
A
100
AcDbEntity
  8
TEMPLATE
390
1D
100
AcDbMText
 10
549.360643364397
 20
69.04478720817846
 30
0.0
 40
7.329785156250001
 41
0.0
 46
7.329785156250001
 71
     1
 72
     1
  1
{1:3}
  7
ＭＳ ゴシック
 73
     1
 44
0.7828267384257843
1001
ACAD
1000
ACAD_MTEXT_DEFINED_HEIGHT_BEGIN
1070
    46
1040
7.329785156250001
1000
ACAD_MTEXT_DEFINED_HEIGHT_END
  0
MTEXT
  5
181
330
A
100
AcDbEntity
  8
TEMPLATE
390
1D
100
AcDbMText
 10
533.4606433643969
 20
77.6195254894284
 30
0.0
 40
4.886523437499998
 41
0.0
 46
0.0
 71
     1
 72
     1
  1
縮尺
  7
ＭＳ ゴシック
 73
     1
 44
0.7828267384257843
  0
LINE
  5
182
330
A
100
AcDbEntity
  8
TEMPLATE
390
1D
100
AcDbLine
 10
531.360643364397
 20
54.64400205192847
 30
0.0
 11
531.360643364397
 21
80.14400205192852
 31
0.0
  0
MTEXT
  5
183
330
A
100
AcDbEntity
  8
TEMPLATE
390
1D
100
AcDbMText
 10
458.1606433643969
 20
77.6195254894284
 30
0.0
 40
4.886523437499998
 41
0.0
 46
0.0
 71
     1
 72
     1
  1
容量
  7
ＭＳ ゴシック
 73
     1
 44
0.7828267384257843
  0
LINE
  5
184
330
A
100
AcDbEntity
  8
TEMPLATE
390
1D
100
AcDbLine
 10
456.060643364397
 20
54.64400205192847
 30
0.0
 11
456.060643364397
 21
80.14400205192852
 31
0.0
  0
MTEXT
  5
185
330
A
100
AcDbEntity
  8
TEMPLATE
390
1D
100
AcDbMText
 10
382.860643364397
 20
103.1195254894285
 30
0.0
 40
4.886523437499998
 41
0.0
 46
0.0
 71
     1
 72
     1
  1
品番
  7
ＭＳ ゴシック
 73
     1
 44
0.7828267384257843
  0
MTEXT
  5
186
330
A
100
AcDbEntity
  8
TEMPLATE
390
1D
100
AcDbMText
 10
382.860643364397
 20
77.6195254894284
 30
0.0
 40
4.886523437499998
 41
0.0
 46
0.0
 71
     1
 72
     1
  1
重量
  7
ＭＳ ゴシック
 73
     1
 44
0.7828267384257843
  0
MTEXT
  5
187
330
A
100
AcDbEntity
  8
TEMPLATE
390
1D
100
AcDbMText
 10
398.760643364397
 20
94.54478720817846
 30
0.0
 40
7.329785156250001
 41
0.0
 46
7.329785156250001
 71
     1
 72
     1
  1
{ALH74-0002}
  7
ＭＳ ゴシック
 73
     1
 44
0.7828267384257843
1001
ACAD
1000
ACAD_MTEXT_DEFINED_HEIGHT_BEGIN
1070
    46
1040
7.329785156250001
1000
ACAD_MTEXT_DEFINED_HEIGHT_END
  0
LINE
  5
188
330
A
100
AcDbEntity
  8
TEMPLATE
390
1D
100
AcDbLine
 10
380.760643364397
 20
29.14400205192847
 30
0.0
 11
380.760643364397
 21
105.6440020519285
 31
0.0
  0
MTEXT
  5
189
330
A
100
AcDbEntity
  8
TEMPLATE
390
1D
100
AcDbMText
 10
39.66064336431923
 20
94.54478720817846
 30
0.0
 40
7.329785156250001
 41
0.0
 46
7.54976120195464
 71
     1
 72
     1
  1
{シェルフ　-ALMAR-}
  7
ＭＳ ゴシック
 73
     1
 44
0.7828267384257843
1001
ACAD
1000
ACAD_MTEXT_DEFINED_HEIGHT_BEGIN
1070
    46
1040
7.54976120195464
1000
ACAD_MTEXT_DEFINED_HEIGHT_END
  0
INSERT
  5
68C
330
A
100
AcDbEntity
  8
TEMPLATE
100
AcDbBlockReference
  2
block 2
 10
367.7097207081031
 20
3.349230605734547
 30
0.0
 41
0.1524
 42
0.1524
 43
0.1524
  0
LWPOLYLINE
  5
D69
330
A
100
AcDbEntity
  8
BORDER
100
AcDbPolyline
 90
        4
 70
     1
 43
0.0
 10
0.0
 20
0.0
 10
0.0
 20
891.0
 10
630.0
 20
891.0
 10
630.0
 20
0.0
  0
INSERT
  5
1343
330
A
100
AcDbEntity
  8
TEMPLATE
100
AcDbBlockReference
  2
block 2
 10
838.6973883465873
 20
9.774128564918277
 30
0.0
 41
0.1524
 42
0.1524
 43
0.1524
  0
MTEXT
  5
36AC
102
{ACAD_XDICTIONARY
360
36AE
102
}
330
A
100
AcDbEntity
  8
TEMPLATE
 48
0.05
100
AcDbMText
 10
22.06848147481188
 20
25.15049698669364
 30
0.0
 40
7.0
 41
0.0
 46
7.0
 71
     1
 72
     1
  1
{20230919M}
  7
ＭＳ ゴシック
 73
     1
 44
1.0
1001
ACAD
1000
ACAD_MTEXT_DEFINED_HEIGHT_BEGIN
1070
    46
1040
7.0
1000
ACAD_MTEXT_DEFINED_HEIGHT_END
  0
HATCH
  5
172F9
102
{ACAD_REACTORS
330
1730A
102
}
330
A
100
AcDbEntity
  8
TEMPLATE
100
AcDbHatch
 10
0.0
 20
0.0
 30
0.0
210
0.0
220
0.0
230
1.0
  2
SOLID
 70
     1
 71
     1
 91
        6
 92
        1
 93
        8
 72
     1
 10
580.3195574690816
 20
45.81237511424545
 11
580.3195574690816
 21
44.03955282504737
 72
     1
 10
580.3195574690816
 20
44.03955282504737
 11
577.5113800039879
 21
44.03955282504737
 72
     1
 10
577.5113800039879
 20
44.03955282504737
 11
577.5113800039879
 21
36.81237511467916
 72
     1
 10
577.5113800039879
 20
36.81237511467916
 11
575.0415960580052
 21
36.81237511467916
 72
     1
 10
575.0415960580052
 20
36.81237511467916
 11
575.0415960580052
 21
44.03955282504737
 72
     1
 10
575.0415960580052
 20
44.03955282504737
 11
572.2831856276422
 21
44.03955282504737
 72
     1
 10
572.2831856276422
 20
44.03955282504737
 11
572.2831856276422
 21
45.81237511424545
 72
     1
 10
572.2831856276422
 20
45.81237511424545
 11
580.3195574690816
 21
45.81237511424545
 97
        1
330
172FA
 92
        1
 93
        1
 72
     4
 94
        3
 73
     0
 74
     1
 95
       56
 96
       52
 40
0.0
 40
0.0
 40
0.0
 40
0.0
 40
1.0
 40
1.0
 40
1.0
 40
2.0
 40
2.0
 40
2.0
 40
3.0
 40
3.0
 40
3.0
 40
4.0
 40
4.0
 40
4.0
 40
5.0
 40
5.0
 40
5.0
 40
6.0
 40
6.0
 40
6.0
 40
7.0
 40
7.0
 40
7.0
 40
8.0
 40
8.0
 40
8.0
 40
9.0
 40
9.0
 40
9.0
 40
10.0
 40
10.0
 40
10.0
 40
11.0
 40
11.0
 40
11.0
 40
12.0
 40
12.0
 40
12.0
 40
13.0
 40
13.0
 40
13.0
 40
14.0
 40
14.0
 40
14.0
 40
15.0
 40
15.0
 40
15.0
 40
16.0
 40
16.0
 40
16.0
 40
17.0
 40
17.0
 40
17.0
 40
17.0
 10
584.0822130993691
 20
45.59806442612169
 10
584.4283729539446
 20
45.69550069232489
 10
584.8752496819451
 20
45.61399880405779
 10
584.8752496819451
 20
45.61399880405779
 10
584.8752496819451
 20
45.61399880405779
 10
584.6605596038704
 20
44.96972771633077
 10
584.6605596038704
 20
44.96972771633077
 10
584.6605596038704
 20
44.96972771633077
 10
584.2218509183414
 20
45.07124800376958
 10
583.8834797162866
 20
44.80442528303579
 10
583.6205401632852
 20
44.59576081006296
 10
583.4501940753495
 20
44.04131587246591
 10
583.3848497355779
 20
43.83050896212374
 10
583.3848497355779
 20
43.83050896212374
 10
583.0935228874299
 20
42.93630916500408
 10
583.0935228874299
 20
42.93630916500408
 10
583.0935228874299
 20
42.93630916500408
 10
584.0487598325259
 20
42.93630916500408
 10
584.0487598325259
 20
42.93630916500408
 10
584.0487598325259
 20
42.93630916500408
 10
583.9001951911804
 20
42.37351764848811
 10
583.9001951911804
 20
42.37351764848811
 10
583.9001951911804
 20
42.37351764848811
 10
582.9371695935639
 20
42.37351764848811
 10
582.9371695935639
 20
42.37351764848811
 10
582.9371695935639
 20
42.37351764848811
 10
581.2141366561519
 20
36.81237511467916
 10
581.2141366561519
 20
36.81237511467916
 10
581.2141366561519
 20
36.81237511467916
 10
580.6746664630858
 20
36.81237511467916
 10
580.6746664630858
 20
36.81237511467916
 10
580.6746664630858
 20
36.81237511467916
 10
582.3992615944129
 20
42.37351764848811
 10
582.3992615944129
 20
42.37351764848811
 10
582.3992615944129
 20
42.37351764848811
 10
581.6886418993973
 20
42.37351764848811
 10
581.6886418993973
 20
42.37351764848811
 10
581.6886418993973
 20
42.37351764848811
 10
581.8376082477495
 20
42.93630916500408
 10
581.8376082477495
 20
42.93630916500408
 10
581.8376082477495
 20
42.93630916500408
 10
582.5556148882789
 20
42.93630916500408
 10
582.5556148882789
 20
42.93630916500408
 10
582.5556148882789
 20
42.93630916500408
 10
582.8095829847954
 20
43.71615636752356
 10
582.8095829847954
 20
43.71615636752356
 10
583.0149445334899
 20
44.36997915518985
 10
583.1891961062141
 20
44.72100412795849
 10
583.3385641615731
 20
44.98566209426688
 10
583.4863477059606
 20
45.25054323113452
 10
583.7788350410173
 20
45.51073778625616
 10
584.0822130993691
 20
45.59806442612169
 97
        1
330
17305
 92
        1
 93
        1
 72
     4
 94
        3
 73
     0
 74
     1
 95
       32
 96
       28
 40
0.0
 40
0.0
 40
0.0
 40
0.0
 40
1.0
 40
1.0
 40
1.0
 40
2.0
 40
2.0
 40
2.0
 40
3.0
 40
3.0
 40
3.0
 40
4.0
 40
4.0
 40
4.0
 40
5.0
 40
5.0
 40
5.0
 40
6.0
 40
6.0
 40
6.0
 40
7.0
 40
7.0
 40
7.0
 40
8.0
 40
8.0
 40
8.0
 40
9.0
 40
9.0
 40
9.0
 40
9.0
 10
585.394880012287
 20
42.5961972325865
 10
585.0701222143513
 20
42.17612328876155
 10
584.8200372855671
 20
41.79807236125814
 10
584.4151612568324
 20
40.60984535222244
 10
584.0429350809274
 20
39.52296009417805
 10
583.8060618492556
 20
38.73222216836346
 10
583.7702876085951
 20
37.76919657074652
 10
583.7430608003568
 20
37.0525512706291
 10
584.1794485120689
 20
36.81237511467916
 10
584.8192785056652
 20
36.81237511467916
 10
585.0950280487724
 20
36.81237511467916
 10
585.7908738527602
 20
36.82991632064248
 10
586.2864017626947
 20
37.44247487188884
 10
586.6332980801157
 20
37.87283697849896
 10
586.9530122234106
 20
38.3189549265978
 10
587.3816335996579
 20
39.78237355234214
 10
587.7383047875777
 20
41.00579455858404
 10
587.985265328531
 20
41.79651016734281
 10
587.9670099767781
 20
42.24671213667737
 10
587.9670099767781
 20
42.24671213667737
 10
587.9670099767781
 20
42.24671213667737
 10
587.9670099767781
 20
42.24671213667737
 10
587.8506934812557
 20
42.9977703370432
 10
587.305398536591
 20
43.1564669217822
 10
586.9938524357677
 20
43.1564669217822
 10
586.6869929166902
 20
43.1564669217822
 10
585.8647433078983
 20
43.20955919784658
 10
585.394880012287
 20
42.5961972325865
 97
        1
330
17308
 92
        1
 93
        1
 72
     4
 94
        3
 73
     0
 74
     1
 95
       38
 96
       34
 40
0.0
 40
0.0
 40
0.0
 40
0.0
 40
1.0
 40
1.0
 40
1.0
 40
2.0
 40
2.0
 40
2.0
 40
3.0
 40
3.0
 40
3.0
 40
4.0
 40
4.0
 40
4.0
 40
5.0
 40
5.0
 40
5.0
 40
6.0
 40
6.0
 40
6.0
 40
7.0
 40
7.0
 40
7.0
 40
8.0
 40
8.0
 40
8.0
 40
9.0
 40
9.0
 40
9.0
 40
10.0
 40
10.0
 40
10.0
 40
11.0
 40
11.0
 40
11.0
 40
11.0
 10
589.9393467460162
 20
42.91472857191693
 10
589.9393467460162
 20
42.91472857191693
 10
590.4939702200608
 20
42.91472857191693
 10
590.4939702200608
 20
42.91472857191693
 10
590.4939702200608
 20
42.91472857191693
 10
590.2462062650937
 20
42.12146881878184
 10
590.2462062650937
 20
42.12146881878184
 10
590.4344729489438
 20
42.34414840288034
 10
590.7316022316344
 20
42.6407197591727
 10
590.9867754491712
 20
42.79026635097919
 10
591.3679507645053
 20
43.01294593507769
 10
591.5857652304104
 20
43.04231518068534
 10
591.8253165087943
 20
43.03646811203098
 10
591.8253165087943
 20
43.03646811203098
 10
591.591210592058
 20
42.28639186212602
 10
591.591210592058
 20
42.28639186212602
 10
591.4387404659245
 20
42.35095510493986
 10
590.968877170313
 20
42.22805507791734
 10
590.6993317687555
 20
42.03416449597226
 10
590.4562543955343
 20
41.85933267979383
 10
590.2882069643596
 20
41.71056718494513
 10
590.0890941913261
 20
41.33657796162161
 10
589.8914989780961
 20
40.96203081189956
 10
589.735547391237
 20
40.36480407807901
 10
589.4671624765878
 20
39.49841133265191
 10
589.4671624765878
 20
39.49841133265191
 10
588.6289784898598
 20
36.81237511467916
 10
588.6289784898598
 20
36.81237511467916
 10
588.6289784898598
 20
36.81237511467916
 10
588.0906911007581
 20
36.81237511467916
 10
588.0906911007581
 20
36.81237511467916
 10
588.0906911007581
 20
36.81237511467916
 10
589.9393467460162
 20
42.91472857191693
 10
589.9393467460162
 20
42.91472857191693
 97
        1
330
17306
 92
        1
 93
        1
 72
     4
 94
        3
 73
     0
 74
     1
 95
      104
 96
      100
 40
0.0
 40
0.0
 40
0.0
 40
0.0
 40
1.0
 40
1.0
 40
1.0
 40
2.0
 40
2.0
 40
2.0
 40
3.0
 40
3.0
 40
3.0
 40
4.0
 40
4.0
 40
4.0
 40
5.0
 40
5.0
 40
5.0
 40
6.0
 40
6.0
 40
6.0
 40
7.0
 40
7.0
 40
7.0
 40
8.0
 40
8.0
 40
8.0
 40
9.0
 40
9.0
 40
9.0
 40
10.0
 40
10.0
 40
10.0
 40
11.0
 40
11.0
 40
11.0
 40
12.0
 40
12.0
 40
12.0
 40
13.0
 40
13.0
 40
13.0
 40
14.0
 40
14.0
 40
14.0
 40
15.0
 40
15.0
 40
15.0
 40
16.0
 40
16.0
 40
16.0
 40
17.0
 40
17.0
 40
17.0
 40
18.0
 40
18.0
 40
18.0
 40
19.0
 40
19.0
 40
19.0
 40
20.0
 40
20.0
 40
20.0
 40
21.0
 40
21.0
 40
21.0
 40
22.0
 40
22.0
 40
22.0
 40
23.0
 40
23.0
 40
23.0
 40
24.0
 40
24.0
 40
24.0
 40
25.0
 40
25.0
 40
25.0
 40
26.0
 40
26.0
 40
26.0
 40
27.0
 40
27.0
 40
27.0
 40
28.0
 40
28.0
 40
28.0
 40
29.0
 40
29.0
 40
29.0
 40
30.0
 40
30.0
 40
30.0
 40
31.0
 40
31.0
 40
31.0
 40
32.0
 40
32.0
 40
32.0
 40
33.0
 40
33.0
 40
33.0
 40
33.0
 10
592.9921860953021
 20
42.91803149619498
 10
592.9921860953021
 20
42.91803149619498
 10
593.4764215749343
 20
42.91803149619498
 10
593.4764215749343
 20
42.91803149619498
 10
593.4764215749343
 20
42.91803149619498
 10
593.2317820077977
 20
42.12401296315816
 10
593.2317820077977
 20
42.12401296315816
 10
593.4441064779436
 20
42.4569388035653
 10
593.6346941356106
 20
42.6053249084632
 10
593.8879034522253
 20
42.79707305303871
 10
594.1418715487417
 20
42.98609851679041
 10
594.4433303402833
 20
43.02461775533059
 10
594.6525750567104
 20
43.02461775533059
 10
594.9116314419795
 20
43.02461775533059
 10
595.1617163707637
 20
42.97346706313235
 10
595.2931638302083
 20
42.68952716049805
 10
595.3939030206897
 20
42.46686989345537
 10
595.3985896024354
 20
42.44060271862234
 10
595.369800600282
 20
42.0010906190797
 10
595.6330972261784
 20
42.451694295421
 10
595.8275680515779
 20
42.64578573086951
 10
596.1581729181679
 20
42.83226705024479
 10
596.5051138697007
 20
43.02461775533059
 10
596.7073510305648
 20
43.0390122564073
 10
596.9423049954265
 20
43.00437618559952
 10
597.2884425329456
 20
42.95324781045711
 10
597.5093813866816
 20
42.82974522292441
 10
597.6248944681903
 20
42.45441697624481
 10
597.7408092567058
 20
42.0802492164738
 10
597.678187597758
 20
41.87955193246919
 10
597.5350460010044
 20
41.28388739256386
 10
597.4697016612328
 20
41.01260126064356
 10
597.3751666123011
 20
40.68411651436711
 10
597.251485488321
 20
40.29325559675826
 10
597.251485488321
 20
40.29325559675826
 10
596.1581729181679
 20
36.81237511467916
 10
596.1581729181679
 20
36.81237511467916
 10
596.1581729181679
 20
36.81237511467916
 10
595.5895343329975
 20
36.81237511467916
 10
595.5895343329975
 20
36.81237511467916
 10
595.5895343329975
 20
36.81237511467916
 10
596.5467574960716
 20
39.85548422757834
 10
596.5467574960716
 20
39.85548422757834
 10
596.7466736831187
 20
40.49218983334411
 10
596.8820043102957
 20
40.95716569370618
 10
596.952035231813
 20
41.24869339535778
 10
597.0399197980768
 20
41.61234982178448
 10
597.0749129417799
 20
41.73234863153571
 10
597.0333139495209
 20
41.99702891489992
 10
596.9951964179876
 20
42.24340921239921
 10
596.8707118799938
 20
42.40384652750092
 10
596.6575839958344
 20
42.40384652750092
 10
596.4304410005492
 20
42.40384652750092
 10
596.2464591914385
 20
42.37856130312887
 10
595.9890096341963
 20
42.11992894192245
 10
595.7315154428426
 20
41.85933267979383
 10
595.5187446315782
 20
41.55343279412157
 10
595.3519023214238
 20
41.20162672439526
 10
595.1854170841642
 20
40.8476782172995
 10
595.0166108730879
 20
40.39903844188016
 10
594.8454836881943
 20
39.85548422757834
 10
594.8454836881943
 20
39.85548422757834
 10
593.8879034522253
 20
36.81237511467916
 10
593.8879034522253
 20
36.81237511467916
 10
593.8879034522253
 20
36.81237511467916
 10
593.3530975238492
 20
36.81237511467916
 10
593.3530975238492
 20
36.81237511467916
 10
593.3530975238492
 20
36.81237511467916
 10
594.4479722879174
 20
40.29169340284293
 10
594.4479722879174
 20
40.29169340284293
 10
594.5634853694261
 20
40.66197799488166
 10
594.6502540828932
 20
40.96379385931832
 10
594.7074303801934
 20
41.19968514052912
 10
594.804643475837
 20
41.60574397322828
 10
594.8318702840753
 20
41.88033302942674
 10
594.7583579018323
 20
42.12401296315816
 10
594.6860060064979
 20
42.36691179993202
 10
594.5588434217922
 20
42.42895321542549
 10
594.3464743175347
 20
42.42895321542549
 10
594.1683395770782
 20
42.42895321542549
 10
593.9944897113609
 20
42.3525172988552
 10
593.7961357182293
 20
42.20042656267251
 10
593.5464078623398
 20
42.00908012510374
 10
593.4464720858722
 20
41.85194573428019
 10
593.3239514488008
 20
41.66524124434543
 10
593.1586266984499
 20
41.41825838633597
 10
593.0812311484743
 20
41.25199631963583
 10
592.941615646558
 20
40.88715708924472
 10
592.8019555105301
 20
40.52017542148403
 10
592.6697492711836
 20
40.09311623915196
 10
592.5775351960687
 20
39.7977276868239
 10
592.5775351960687
 20
39.7977276868239
 10
591.6382549459648
 20
36.81237511467916
 10
591.6382549459648
 20
36.81237511467916
 10
591.6382549459648
 20
36.81237511467916
 10
591.0781861102724
 20
36.81237511467916
 10
591.0781861102724
 20
36.81237511467916
 10
591.0781861102724
 20
36.81237511467916
 10
592.9921860953021
 20
42.91803149619498
 10
592.9921860953021
 20
42.91803149619498
 97
        1
330
17307
 92
       16
 93
        1
 72
     4
 94
        3
 73
     0
 74
     1
 95
       29
 96
       25
 40
0.0
 40
0.0
 40
0.0
 40
0.0
 40
1.0
 40
1.0
 40
1.0
 40
2.0
 40
2.0
 40
2.0
 40
3.0
 40
3.0
 40
3.0
 40
4.0
 40
4.0
 40
4.0
 40
5.0
 40
5.0
 40
5.0
 40
6.0
 40
6.0
 40
6.0
 40
7.0
 40
7.0
 40
7.0
 40
8.0
 40
8.0
 40
8.0
 40
8.0
 10
584.3513791109762
 20
37.94925057801331
 10
584.3490135030473
 20
38.37439049353518
 10
584.4832282774277
 20
39.12973356864027
 10
584.82704484113
 20
40.1403837636178
 10
585.2953459428262
 20
41.50888795047954
 10
585.5761837746858
 20
42.00908012510374
 10
585.821939194619
 20
42.25255920533161
 10
586.1809759904676
 20
42.60708795588196
 10
586.6636492761844
 20
42.62476306418078
 10
586.8060320930364
 20
42.60708795588196
 10
587.0086709609071
 20
42.58276236491495
 10
587.2949095203024
 20
42.45013210150578
 10
587.3120043851471
 20
42.00363476345613
 10
587.325662423378
 20
41.621499814717
 10
587.2155500694051
 20
40.90583646506057
 10
586.8301345134438
 20
39.78237355234214
 10
586.3859358321553
 20
38.47687041437903
 10
586.1191131114214
 20
37.96366739614584
 10
585.9052264473606
 20
37.74000586158636
 10
585.5022696854361
 20
37.32071301471897
 10
585.0701222143513
 20
37.36097298362186
 10
585.006340068495
 20
37.36097298362186
 10
584.923499156872
 20
37.36097298362186
 10
584.3525395978846
 20
37.45086608491963
 10
584.3513791109762
 20
37.94925057801331
 97
        1
330
17309
 75
     0
 76
     1
 98
        1
 10
557.776987685974
 20
21.56103299246715
1001
ACAD
1010
0.0
1020
0.0
1030
0.0
  0
POLYLINE
  5
172FA
102
{ACAD_REACTORS
330
172F9
330
1730A
102
}
330
A
100
AcDbEntity
  8
TEMPLATE
100
AcDb2dPolyline
 66
     1
 10
0.0
 20
0.0
 30
0.0
  0
VERTEX
  5
172FB
330
172FA
100
AcDbEntity
  8
TEMPLATE
100
AcDbVertex
100
AcDb2dVertex
 10
580.3195574690816
 20
45.81237511424545
 30
0.0
  0
VERTEX
  5
172FC
330
172FA
100
AcDbEntity
  8
TEMPLATE
100
AcDbVertex
100
AcDb2dVertex
 10
580.3195574690816
 20
44.03955282504737
 30
0.0
  0
VERTEX
  5
172FD
330
172FA
100
AcDbEntity
  8
TEMPLATE
100
AcDbVertex
100
AcDb2dVertex
 10
577.5113800039879
 20
44.03955282504737
 30
0.0
  0
VERTEX
  5
172FE
330
172FA
100
AcDbEntity
  8
TEMPLATE
100
AcDbVertex
100
AcDb2dVertex
 10
577.5113800039879
 20
36.81237511467916
 30
0.0
  0
VERTEX
  5
172FF
330
172FA
100
AcDbEntity
  8
TEMPLATE
100
AcDbVertex
100
AcDb2dVertex
 10
575.0415960580052
 20
36.81237511467916
 30
0.0
  0
VERTEX
  5
17300
330
172FA
100
AcDbEntity
  8
TEMPLATE
100
AcDbVertex
100
AcDb2dVertex
 10
575.0415960580052
 20
44.03955282504737
 30
0.0
  0
VERTEX
  5
17301
330
172FA
100
AcDbEntity
  8
TEMPLATE
100
AcDbVertex
100
AcDb2dVertex
 10
572.2831856276422
 20
44.03955282504737
 30
0.0
  0
VERTEX
  5
17302
330
172FA
100
AcDbEntity
  8
TEMPLATE
100
AcDbVertex
100
AcDb2dVertex
 10
572.2831856276422
 20
45.81237511424545
 30
0.0
  0
VERTEX
  5
17303
330
172FA
100
AcDbEntity
  8
TEMPLATE
100
AcDbVertex
100
AcDb2dVertex
 10
580.3195574690816
 20
45.81237511424545
 30
0.0
  0
SEQEND
  5
17304
330
172FA
100
AcDbEntity
  8
TEMPLATE
  0
SPLINE
  5
17305
102
{ACAD_REACTORS
330
172F9
330
1730A
102
}
330
A
100
AcDbEntity
  8
TEMPLATE
100
AcDbSpline
210
0.0
220
0.0
230
1.0
 70
    11
 71
     3
 72
    56
 73
    52
 74
     0
 42
0.000000001
 43
0.0000000001
 40
0.0
 40
0.0
 40
0.0
 40
0.0
 40
1.0
 40
1.0
 40
1.0
 40
2.0
 40
2.0
 40
2.0
 40
3.0
 40
3.0
 40
3.0
 40
4.0
 40
4.0
 40
4.0
 40
5.0
 40
5.0
 40
5.0
 40
6.0
 40
6.0
 40
6.0
 40
7.0
 40
7.0
 40
7.0
 40
8.0
 40
8.0
 40
8.0
 40
9.0
 40
9.0
 40
9.0
 40
10.0
 40
10.0
 40
10.0
 40
11.0
 40
11.0
 40
11.0
 40
12.0
 40
12.0
 40
12.0
 40
13.0
 40
13.0
 40
13.0
 40
14.0
 40
14.0
 40
14.0
 40
15.0
 40
15.0
 40
15.0
 40
16.0
 40
16.0
 40
16.0
 40
17.0
 40
17.0
 40
17.0
 40
17.0
 10
584.0822130993691
 20
45.59806442612169
 30
0.0
 10
584.4283729539446
 20
45.69550069232489
 30
0.0
 10
584.8752496819451
 20
45.61399880405779
 30
0.0
 10
584.8752496819451
 20
45.61399880405779
 30
0.0
 10
584.8752496819451
 20
45.61399880405779
 30
0.0
 10
584.6605596038704
 20
44.96972771633077
 30
0.0
 10
584.6605596038704
 20
44.96972771633077
 30
0.0
 10
584.6605596038704
 20
44.96972771633077
 30
0.0
 10
584.2218509183414
 20
45.07124800376958
 30
0.0
 10
583.8834797162866
 20
44.80442528303579
 30
0.0
 10
583.6205401632852
 20
44.59576081006296
 30
0.0
 10
583.4501940753495
 20
44.04131587246591
 30
0.0
 10
583.3848497355779
 20
43.83050896212374
 30
0.0
 10
583.3848497355779
 20
43.83050896212374
 30
0.0
 10
583.0935228874299
 20
42.93630916500408
 30
0.0
 10
583.0935228874299
 20
42.93630916500408
 30
0.0
 10
583.0935228874299
 20
42.93630916500408
 30
0.0
 10
584.0487598325259
 20
42.93630916500408
 30
0.0
 10
584.0487598325259
 20
42.93630916500408
 30
0.0
 10
584.0487598325259
 20
42.93630916500408
 30
0.0
 10
583.9001951911804
 20
42.37351764848811
 30
0.0
 10
583.9001951911804
 20
42.37351764848811
 30
0.0
 10
583.9001951911804
 20
42.37351764848811
 30
0.0
 10
582.9371695935639
 20
42.37351764848811
 30
0.0
 10
582.9371695935639
 20
42.37351764848811
 30
0.0
 10
582.9371695935639
 20
42.37351764848811
 30
0.0
 10
581.2141366561519
 20
36.81237511467916
 30
0.0
 10
581.2141366561519
 20
36.81237511467916
 30
0.0
 10
581.2141366561519
 20
36.81237511467916
 30
0.0
 10
580.6746664630858
 20
36.81237511467916
 30
0.0
 10
580.6746664630858
 20
36.81237511467916
 30
0.0
 10
580.6746664630858
 20
36.81237511467916
 30
0.0
 10
582.3992615944129
 20
42.37351764848811
 30
0.0
 10
582.3992615944129
 20
42.37351764848811
 30
0.0
 10
582.3992615944129
 20
42.37351764848811
 30
0.0
 10
581.6886418993973
 20
42.37351764848811
 30
0.0
 10
581.6886418993973
 20
42.37351764848811
 30
0.0
 10
581.6886418993973
 20
42.37351764848811
 30
0.0
 10
581.8376082477495
 20
42.93630916500408
 30
0.0
 10
581.8376082477495
 20
42.93630916500408
 30
0.0
 10
581.8376082477495
 20
42.93630916500408
 30
0.0
 10
582.5556148882789
 20
42.93630916500408
 30
0.0
 10
582.5556148882789
 20
42.93630916500408
 30
0.0
 10
582.5556148882789
 20
42.93630916500408
 30
0.0
 10
582.8095829847954
 20
43.71615636752356
 30
0.0
 10
582.8095829847954
 20
43.71615636752356
 30
0.0
 10
583.0149445334899
 20
44.36997915518985
 30
0.0
 10
583.1891961062141
 20
44.72100412795849
 30
0.0
 10
583.3385641615731
 20
44.98566209426688
 30
0.0
 10
583.4863477059606
 20
45.25054323113452
 30
0.0
 10
583.7788350410173
 20
45.51073778625616
 30
0.0
 10
584.0822130993691
 20
45.59806442612169
 30
0.0
  0
SPLINE
  5
17306
102
{ACAD_REACTORS
330
172F9
330
1730A
102
}
330
A
100
AcDbEntity
  8
TEMPLATE
100
AcDbSpline
210
0.0
220
0.0
230
1.0
 70
    11
 71
     3
 72
    38
 73
    34
 74
     0
 42
0.000000001
 43
0.0000000001
 40
0.0
 40
0.0
 40
0.0
 40
0.0
 40
1.0
 40
1.0
 40
1.0
 40
2.0
 40
2.0
 40
2.0
 40
3.0
 40
3.0
 40
3.0
 40
4.0
 40
4.0
 40
4.0
 40
5.0
 40
5.0
 40
5.0
 40
6.0
 40
6.0
 40
6.0
 40
7.0
 40
7.0
 40
7.0
 40
8.0
 40
8.0
 40
8.0
 40
9.0
 40
9.0
 40
9.0
 40
10.0
 40
10.0
 40
10.0
 40
11.0
 40
11.0
 40
11.0
 40
11.0
 10
589.9393467460162
 20
42.91472857191693
 30
0.0
 10
589.9393467460162
 20
42.91472857191693
 30
0.0
 10
590.4939702200608
 20
42.91472857191693
 30
0.0
 10
590.4939702200608
 20
42.91472857191693
 30
0.0
 10
590.4939702200608
 20
42.91472857191693
 30
0.0
 10
590.2462062650937
 20
42.12146881878184
 30
0.0
 10
590.2462062650937
 20
42.12146881878184
 30
0.0
 10
590.4344729489438
 20
42.34414840288034
 30
0.0
 10
590.7316022316344
 20
42.6407197591727
 30
0.0
 10
590.9867754491712
 20
42.79026635097919
 30
0.0
 10
591.3679507645053
 20
43.01294593507769
 30
0.0
 10
591.5857652304104
 20
43.04231518068534
 30
0.0
 10
591.8253165087943
 20
43.03646811203098
 30
0.0
 10
591.8253165087943
 20
43.03646811203098
 30
0.0
 10
591.591210592058
 20
42.28639186212602
 30
0.0
 10
591.591210592058
 20
42.28639186212602
 30
0.0
 10
591.4387404659245
 20
42.35095510493986
 30
0.0
 10
590.968877170313
 20
42.22805507791734
 30
0.0
 10
590.6993317687555
 20
42.03416449597226
 30
0.0
 10
590.4562543955343
 20
41.85933267979383
 30
0.0
 10
590.2882069643596
 20
41.71056718494513
 30
0.0
 10
590.0890941913261
 20
41.33657796162161
 30
0.0
 10
589.8914989780961
 20
40.96203081189956
 30
0.0
 10
589.735547391237
 20
40.36480407807901
 30
0.0
 10
589.4671624765878
 20
39.49841133265191
 30
0.0
 10
589.4671624765878
 20
39.49841133265191
 30
0.0
 10
588.6289784898598
 20
36.81237511467916
 30
0.0
 10
588.6289784898598
 20
36.81237511467916
 30
0.0
 10
588.6289784898598
 20
36.81237511467916
 30
0.0
 10
588.0906911007581
 20
36.81237511467916
 30
0.0
 10
588.0906911007581
 20
36.81237511467916
 30
0.0
 10
588.0906911007581
 20
36.81237511467916
 30
0.0
 10
589.9393467460162
 20
42.91472857191693
 30
0.0
 10
589.9393467460162
 20
42.91472857191693
 30
0.0
  0
SPLINE
  5
17307
102
{ACAD_REACTORS
330
172F9
330
1730A
102
}
330
A
100
AcDbEntity
  8
TEMPLATE
100
AcDbSpline
210
0.0
220
0.0
230
1.0
 70
    11
 71
     3
 72
   104
 73
   100
 74
     0
 42
0.000000001
 43
0.0000000001
 40
0.0
 40
0.0
 40
0.0
 40
0.0
 40
1.0
 40
1.0
 40
1.0
 40
2.0
 40
2.0
 40
2.0
 40
3.0
 40
3.0
 40
3.0
 40
4.0
 40
4.0
 40
4.0
 40
5.0
 40
5.0
 40
5.0
 40
6.0
 40
6.0
 40
6.0
 40
7.0
 40
7.0
 40
7.0
 40
8.0
 40
8.0
 40
8.0
 40
9.0
 40
9.0
 40
9.0
 40
10.0
 40
10.0
 40
10.0
 40
11.0
 40
11.0
 40
11.0
 40
12.0
 40
12.0
 40
12.0
 40
13.0
 40
13.0
 40
13.0
 40
14.0
 40
14.0
 40
14.0
 40
15.0
 40
15.0
 40
15.0
 40
16.0
 40
16.0
 40
16.0
 40
17.0
 40
17.0
 40
17.0
 40
18.0
 40
18.0
 40
18.0
 40
19.0
 40
19.0
 40
19.0
 40
20.0
 40
20.0
 40
20.0
 40
21.0
 40
21.0
 40
21.0
 40
22.0
 40
22.0
 40
22.0
 40
23.0
 40
23.0
 40
23.0
 40
24.0
 40
24.0
 40
24.0
 40
25.0
 40
25.0
 40
25.0
 40
26.0
 40
26.0
 40
26.0
 40
27.0
 40
27.0
 40
27.0
 40
28.0
 40
28.0
 40
28.0
 40
29.0
 40
29.0
 40
29.0
 40
30.0
 40
30.0
 40
30.0
 40
31.0
 40
31.0
 40
31.0
 40
32.0
 40
32.0
 40
32.0
 40
33.0
 40
33.0
 40
33.0
 40
33.0
 10
592.9921860953021
 20
42.91803149619498
 30
0.0
 10
592.9921860953021
 20
42.91803149619498
 30
0.0
 10
593.4764215749343
 20
42.91803149619498
 30
0.0
 10
593.4764215749343
 20
42.91803149619498
 30
0.0
 10
593.4764215749343
 20
42.91803149619498
 30
0.0
 10
593.2317820077977
 20
42.12401296315816
 30
0.0
 10
593.2317820077977
 20
42.12401296315816
 30
0.0
 10
593.4441064779436
 20
42.4569388035653
 30
0.0
 10
593.6346941356106
 20
42.6053249084632
 30
0.0
 10
593.8879034522253
 20
42.79707305303871
 30
0.0
 10
594.1418715487417
 20
42.98609851679041
 30
0.0
 10
594.4433303402833
 20
43.02461775533059
 30
0.0
 10
594.6525750567104
 20
43.02461775533059
 30
0.0
 10
594.9116314419795
 20
43.02461775533059
 30
0.0
 10
595.1617163707637
 20
42.97346706313235
 30
0.0
 10
595.2931638302083
 20
42.68952716049805
 30
0.0
 10
595.3939030206897
 20
42.46686989345537
 30
0.0
 10
595.3985896024354
 20
42.44060271862234
 30
0.0
 10
595.369800600282
 20
42.0010906190797
 30
0.0
 10
595.6330972261784
 20
42.451694295421
 30
0.0
 10
595.8275680515779
 20
42.64578573086951
 30
0.0
 10
596.1581729181679
 20
42.83226705024479
 30
0.0
 10
596.5051138697007
 20
43.02461775533059
 30
0.0
 10
596.7073510305648
 20
43.0390122564073
 30
0.0
 10
596.9423049954265
 20
43.00437618559952
 30
0.0
 10
597.2884425329456
 20
42.95324781045711
 30
0.0
 10
597.5093813866816
 20
42.82974522292441
 30
0.0
 10
597.6248944681903
 20
42.45441697624481
 30
0.0
 10
597.7408092567058
 20
42.0802492164738
 30
0.0
 10
597.678187597758
 20
41.87955193246919
 30
0.0
 10
597.5350460010044
 20
41.28388739256386
 30
0.0
 10
597.4697016612328
 20
41.01260126064356
 30
0.0
 10
597.3751666123011
 20
40.68411651436711
 30
0.0
 10
597.251485488321
 20
40.29325559675826
 30
0.0
 10
597.251485488321
 20
40.29325559675826
 30
0.0
 10
596.1581729181679
 20
36.81237511467916
 30
0.0
 10
596.1581729181679
 20
36.81237511467916
 30
0.0
 10
596.1581729181679
 20
36.81237511467916
 30
0.0
 10
595.5895343329975
 20
36.81237511467916
 30
0.0
 10
595.5895343329975
 20
36.81237511467916
 30
0.0
 10
595.5895343329975
 20
36.81237511467916
 30
0.0
 10
596.5467574960716
 20
39.85548422757834
 30
0.0
 10
596.5467574960716
 20
39.85548422757834
 30
0.0
 10
596.7466736831187
 20
40.49218983334411
 30
0.0
 10
596.8820043102957
 20
40.95716569370618
 30
0.0
 10
596.952035231813
 20
41.24869339535778
 30
0.0
 10
597.0399197980768
 20
41.61234982178448
 30
0.0
 10
597.0749129417799
 20
41.73234863153571
 30
0.0
 10
597.0333139495209
 20
41.99702891489992
 30
0.0
 10
596.9951964179876
 20
42.24340921239921
 30
0.0
 10
596.8707118799938
 20
42.40384652750092
 30
0.0
 10
596.6575839958344
 20
42.40384652750092
 30
0.0
 10
596.4304410005492
 20
42.40384652750092
 30
0.0
 10
596.2464591914385
 20
42.37856130312887
 30
0.0
 10
595.9890096341963
 20
42.11992894192245
 30
0.0
 10
595.7315154428426
 20
41.85933267979383
 30
0.0
 10
595.5187446315782
 20
41.55343279412157
 30
0.0
 10
595.3519023214238
 20
41.20162672439526
 30
0.0
 10
595.1854170841642
 20
40.8476782172995
 30
0.0
 10
595.0166108730879
 20
40.39903844188016
 30
0.0
 10
594.8454836881943
 20
39.85548422757834
 30
0.0
 10
594.8454836881943
 20
39.85548422757834
 30
0.0
 10
593.8879034522253
 20
36.81237511467916
 30
0.0
 10
593.8879034522253
 20
36.81237511467916
 30
0.0
 10
593.8879034522253
 20
36.81237511467916
 30
0.0
 10
593.3530975238492
 20
36.81237511467916
 30
0.0
 10
593.3530975238492
 20
36.81237511467916
 30
0.0
 10
593.3530975238492
 20
36.81237511467916
 30
0.0
 10
594.4479722879174
 20
40.29169340284293
 30
0.0
 10
594.4479722879174
 20
40.29169340284293
 30
0.0
 10
594.5634853694261
 20
40.66197799488166
 30
0.0
 10
594.6502540828932
 20
40.96379385931832
 30
0.0
 10
594.7074303801934
 20
41.19968514052912
 30
0.0
 10
594.804643475837
 20
41.60574397322828
 30
0.0
 10
594.8318702840753
 20
41.88033302942674
 30
0.0
 10
594.7583579018323
 20
42.12401296315816
 30
0.0
 10
594.6860060064979
 20
42.36691179993202
 30
0.0
 10
594.5588434217922
 20
42.42895321542549
 30
0.0
 10
594.3464743175347
 20
42.42895321542549
 30
0.0
 10
594.1683395770782
 20
42.42895321542549
 30
0.0
 10
593.9944897113609
 20
42.3525172988552
 30
0.0
 10
593.7961357182293
 20
42.20042656267251
 30
0.0
 10
593.5464078623398
 20
42.00908012510374
 30
0.0
 10
593.4464720858722
 20
41.85194573428019
 30
0.0
 10
593.3239514488008
 20
41.66524124434543
 30
0.0
 10
593.1586266984499
 20
41.41825838633597
 30
0.0
 10
593.0812311484743
 20
41.25199631963583
 30
0.0
 10
592.941615646558
 20
40.88715708924472
 30
0.0
 10
592.8019555105301
 20
40.52017542148403
 30
0.0
 10
592.6697492711836
 20
40.09311623915196
 30
0.0
 10
592.5775351960687
 20
39.7977276868239
 30
0.0
 10
592.5775351960687
 20
39.7977276868239
 30
0.0
 10
591.6382549459648
 20
36.81237511467916
 30
0.0
 10
591.6382549459648
 20
36.81237511467916
 30
0.0
 10
591.6382549459648
 20
36.81237511467916
 30
0.0
 10
591.0781861102724
 20
36.81237511467916
 30
0.0
 10
591.0781861102724
 20
36.81237511467916
 30
0.0
 10
591.0781861102724
 20
36.81237511467916
 30
0.0
 10
592.9921860953021
 20
42.91803149619498
 30
0.0
 10
592.9921860953021
 20
42.91803149619498
 30
0.0
  0
SPLINE
  5
17308
102
{ACAD_REACTORS
330
172F9
330
1730A
102
}
330
A
100
AcDbEntity
  8
TEMPLATE
100
AcDbSpline
210
0.0
220
0.0
230
1.0
 70
    11
 71
     3
 72
    32
 73
    28
 74
     0
 42
0.000000001
 43
0.0000000001
 40
0.0
 40
0.0
 40
0.0
 40
0.0
 40
1.0
 40
1.0
 40
1.0
 40
2.0
 40
2.0
 40
2.0
 40
3.0
 40
3.0
 40
3.0
 40
4.0
 40
4.0
 40
4.0
 40
5.0
 40
5.0
 40
5.0
 40
6.0
 40
6.0
 40
6.0
 40
7.0
 40
7.0
 40
7.0
 40
8.0
 40
8.0
 40
8.0
 40
9.0
 40
9.0
 40
9.0
 40
9.0
 10
585.394880012287
 20
42.5961972325865
 30
0.0
 10
585.0701222143513
 20
42.17612328876155
 30
0.0
 10
584.8200372855671
 20
41.79807236125814
 30
0.0
 10
584.4151612568324
 20
40.60984535222244
 30
0.0
 10
584.0429350809274
 20
39.52296009417805
 30
0.0
 10
583.8060618492556
 20
38.73222216836346
 30
0.0
 10
583.7702876085951
 20
37.76919657074652
 30
0.0
 10
583.7430608003568
 20
37.0525512706291
 30
0.0
 10
584.1794485120689
 20
36.81237511467916
 30
0.0
 10
584.8192785056652
 20
36.81237511467916
 30
0.0
 10
585.0950280487724
 20
36.81237511467916
 30
0.0
 10
585.7908738527602
 20
36.82991632064248
 30
0.0
 10
586.2864017626947
 20
37.44247487188884
 30
0.0
 10
586.6332980801157
 20
37.87283697849896
 30
0.0
 10
586.9530122234106
 20
38.3189549265978
 30
0.0
 10
587.3816335996579
 20
39.78237355234214
 30
0.0
 10
587.7383047875777
 20
41.00579455858404
 30
0.0
 10
587.985265328531
 20
41.79651016734281
 30
0.0
 10
587.9670099767781
 20
42.24671213667737
 30
0.0
 10
587.9670099767781
 20
42.24671213667737
 30
0.0
 10
587.9670099767781
 20
42.24671213667737
 30
0.0
 10
587.9670099767781
 20
42.24671213667737
 30
0.0
 10
587.8506934812557
 20
42.9977703370432
 30
0.0
 10
587.305398536591
 20
43.1564669217822
 30
0.0
 10
586.9938524357677
 20
43.1564669217822
 30
0.0
 10
586.6869929166902
 20
43.1564669217822
 30
0.0
 10
585.8647433078983
 20
43.20955919784658
 30
0.0
 10
585.394880012287
 20
42.5961972325865
 30
0.0
  0
SPLINE
  5
17309
102
{ACAD_REACTORS
330
172F9
330
1730A
102
}
330
A
100
AcDbEntity
  8
TEMPLATE
100
AcDbSpline
210
0.0
220
0.0
230
1.0
 70
    11
 71
     3
 72
    29
 73
    25
 74
     0
 42
0.000000001
 43
0.0000000001
 40
0.0
 40
0.0
 40
0.0
 40
0.0
 40
1.0
 40
1.0
 40
1.0
 40
2.0
 40
2.0
 40
2.0
 40
3.0
 40
3.0
 40
3.0
 40
4.0
 40
4.0
 40
4.0
 40
5.0
 40
5.0
 40
5.0
 40
6.0
 40
6.0
 40
6.0
 40
7.0
 40
7.0
 40
7.0
 40
8.0
 40
8.0
 40
8.0
 40
8.0
 10
584.3513791109762
 20
37.94925057801331
 30
0.0
 10
584.3490135030473
 20
38.37439049353518
 30
0.0
 10
584.4832282774277
 20
39.12973356864027
 30
0.0
 10
584.82704484113
 20
40.1403837636178
 30
0.0
 10
585.2953459428262
 20
41.50888795047954
 30
0.0
 10
585.5761837746858
 20
42.00908012510374
 30
0.0
 10
585.821939194619
 20
42.25255920533161
 30
0.0
 10
586.1809759904676
 20
42.60708795588196
 30
0.0
 10
586.6636492761844
 20
42.62476306418078
 30
0.0
 10
586.8060320930364
 20
42.60708795588196
 30
0.0
 10
587.0086709609071
 20
42.58276236491495
 30
0.0
 10
587.2949095203024
 20
42.45013210150578
 30
0.0
 10
587.3120043851471
 20
42.00363476345613
 30
0.0
 10
587.325662423378
 20
41.621499814717
 30
0.0
 10
587.2155500694051
 20
40.90583646506057
 30
0.0
 10
586.8301345134438
 20
39.78237355234214
 30
0.0
 10
586.3859358321553
 20
38.47687041437903
 30
0.0
 10
586.1191131114214
 20
37.96366739614584
 30
0.0
 10
585.9052264473606
 20
37.74000586158636
 30
0.0
 10
585.5022696854361
 20
37.32071301471897
 30
0.0
 10
585.0701222143513
 20
37.36097298362186
 30
0.0
 10
585.006340068495
 20
37.36097298362186
 30
0.0
 10
584.923499156872
 20
37.36097298362186
 30
0.0
 10
584.3525395978846
 20
37.45086608491963
 30
0.0
 10
584.3513791109762
 20
37.94925057801331
 30
0.0
  0
LINE
  5
174E6
102
{ACAD_REACTORS
330
174FD
330
17500
102
}
330
A
100
AcDbEntity
  8
MODEL
100
AcDbLine
 10
72.95850872272638
 20
593.1267136627844
 30
0.0
 11
72.95850872272638
 21
486.1267136627844
 31
0.0
  0
LINE
  5
174E7
102
{ACAD_REACTORS
330
17503
102
}
330
A
100
AcDbEntity
  8
MODEL
100
AcDbLine
 10
75.95850872272638
 20
483.1267136627844
 30
0.0
 11
369.9585087227263
 21
483.1267136627843
 31
0.0
  0
LINE
  5
174E8
330
A
100
AcDbEntity
  8
MODEL
100
AcDbLine
 10
372.9585087227263
 20
486.1267136627843
 30
0.0
 11
372.9585087227263
 21
593.1267136627843
 31
0.0
  0
LINE
  5
174E9
330
A
100
AcDbEntity
  8
MODEL
100
AcDbLine
 10
372.9585087227263
 20
593.1267136627843
 30
0.0
 11
72.95850872272638
 21
593.1267136627844
 31
0.0
  0
LINE
  5
174EA
330
A
100
AcDbEntity
  8
MODEL
100
AcDbLine
 10
342.9585087227263
 20
593.1267136627841
 30
0.0
 11
102.9585087227264
 21
593.1267136627843
 31
0.0
  0
LINE
  5
174EB
330
A
100
AcDbEntity
  8
MODEL
100
AcDbLine
 10
357.9585087227263
 20
501.1267136627843
 30
0.0
 11
357.9585087227263
 21
593.1267136627843
 31
0.0
  0
LINE
  5
174EC
102
{ACAD_REACTORS
330
17503
102
}
330
A
100
AcDbEntity
  8
MODEL
100
AcDbLine
 10
222.9585087227264
 20
498.1267136627843
 30
0.0
 11
354.9585087227263
 21
498.1267136627843
 31
0.0
  0
LINE
  5
174ED
330
A
100
AcDbEntity
  8
MODEL
100
AcDbLine
 10
222.9585087227264
 20
498.1267136627843
 30
0.0
 11
90.95850872272635
 21
498.1267136627843
 31
0.0
  0
LINE
  5
174EE
102
{ACAD_REACTORS
330
174FD
102
}
330
A
100
AcDbEntity
  8
MODEL
100
AcDbLine
 10
87.95850872272635
 20
501.1267136627843
 30
0.0
 11
87.95850872272635
 21
593.1267136627843
 31
0.0
  0
LINE
  5
174EF
330
A
100
AcDbEntity
  8
MODEL
100
AcDbLine
 10
334.9585087227263
 20
590.1267136627843
 30
0.0
 11
357.9585087227263
 21
590.1267136627843
 31
0.0
  0
LINE
  5
174F0
330
A
100
AcDbEntity
  8
HIDDEN
100
AcDbLine
 10
334.9585087227263
 20
590.1267136627843
 30
0.0
 11
110.9585087227264
 21
590.1267136627843
 31
0.0
  0
LINE
  5
174F1
330
A
100
AcDbEntity
  8
MODEL
100
AcDbLine
 10
334.9585087227263
 20
593.1267136627843
 30
0.0
 11
334.9585087227263
 21
519.1267136627838
 31
0.0
  0
LINE
  5
174F2
330
A
100
AcDbEntity
  8
MODEL
100
AcDbLine
 10
110.9585087227264
 20
590.1267136627843
 30
0.0
 11
87.95850872272635
 21
590.1267136627843
 31
0.0
  0
LINE
  5
174F3
330
A
100
AcDbEntity
  8
MODEL
100
AcDbLine
 10
110.9585087227264
 20
593.1267136627843
 30
0.0
 11
110.9585087227264
 21
519.1267136627841
 31
0.0
  0
LINE
  5
174F4
330
A
100
AcDbEntity
  8
MODEL
100
AcDbLine
 10
331.9585087227263
 20
516.1267136627838
 30
0.0
 11
113.9585087227264
 21
516.1267136627841
 31
0.0
  0
DIMENSION
  5
174F5
330
A
100
AcDbEntity
  8
DIM
100
AcDbDimension
  2
*D18
 10
110.9585087227264
 20
274.0326076281703
 30
0.0
 11
222.9585087227264
 21
280.0341081908813
 31
0.0
 70
    32
 71
     5
 42
223.9999999999999
 73
     0
 74
     0
 75
     0
 52
-90.0
  3
tfrom線あり
100
AcDbAlignedDimension
 13
334.9585087227262
 23
315.0404827532877
 33
0.0
 14
110.9585087227263
 24
315.0404827532869
 34
0.0
 50
0.0000000000002068
100
AcDbRotatedDimension
  0
DIMENSION
  5
174FB
102
{ACAD_REACTORS
330
174FD
102
}
102
{ACAD_XDICTIONARY
360
174FC
102
}
330
A
100
AcDbEntity
  8
DIM
100
AcDbDimension
  2
*D20
 10
87.95850872272635
 20
613.7002580226177
 30
0.0
 11
80.45850872272638
 21
613.7002580226177
 31
0.0
 70
   160
 71
     5
 42
14.99999999999997
 73
     0
 74
     0
 75
     0
  3
tfrom線あり
100
AcDbAlignedDimension
 13
72.95850872272638
 23
593.1267136627844
 33
0.0
 14
87.95850872272635
 24
593.1267136627843
 34
0.0
100
AcDbRotatedDimension
  0
DIMENSION
  5
174FE
102
{ACAD_REACTORS
330
17500
102
}
102
{ACAD_XDICTIONARY
360
174FF
102
}
330
A
100
AcDbEntity
  8
DIM
100
AcDbDimension
  2
*D21
 10
48.92718339532809
 20
483.1267136627844
 30
0.0
 11
42.92568283261704
 21
538.1267136627844
 31
0.0
 70
    32
 71
     5
 42
110.0
 73
     0
 74
     0
 75
     0
  3
tfrom線あり
100
AcDbAlignedDimension
 13
72.95850872272638
 23
593.1267136627844
 33
0.0
 14
75.95850872272638
 24
483.1267136627844
 34
0.0
 50
90.0
100
AcDbRotatedDimension
  0
DIMENSION
  5
17501
102
{ACAD_REACTORS
330
17503
102
}
102
{ACAD_XDICTIONARY
360
17502
102
}
330
A
100
AcDbEntity
  8
DIM
100
AcDbDimension
  2
*D22
 10
396.4500872437488
 20
498.1267136627843
 30
0.0
 11
396.4500872437488
 21
490.6267136627843
 31
0.0
 70
   160
 71
     5
 42
15.0
 73
     0
 74
     0
 75
     0
  3
tfrom線あり
100
AcDbAlignedDimension
 13
369.9585087227263
 23
483.1267136627843
 33
0.0
 14
354.9585087227263
 24
498.1267136627843
 34
0.0
 50
90.0
100
AcDbRotatedDimension
  0
DIMENSION
  5
17507
330
A
100
AcDbEntity
  8
DIM
100
AcDbDimension
  2
*D23
 10
372.9585087227263
 20
638.0399409472827
 30
0.0
 11
222.9585087227263
 21
638.0399409472827
 31
0.0
 70
   160
 71
     5
 42
299.9999999999999
 73
     0
 74
     0
 75
     0
  3
tfrom線あり
100
AcDbAlignedDimension
 13
72.95850872272638
 23
596.498992912838
 33
0.0
 14
372.9585087227263
 24
596.4989929128379
 34
0.0
100
AcDbRotatedDimension
  0
DIMENSION
  5
17508
330
A
100
AcDbEntity
  8
DIM
100
AcDbDimension
  2
*D24
 10
365.4585087227263
 20
412.3976406428185
 30
0.0
 11
222.9585087227264
 21
418.3991412055295
 31
0.0
 70
    32
 71
     5
 42
284.9999999999999
 73
     0
 74
     0
 75
     0
  3
tfrom線あり
100
AcDbAlignedDimension
 13
80.45850872272638
 23
372.20486584816
 33
0.0
 14
365.4585087227263
 24
372.2048658481603
 34
0.0
100
AcDbRotatedDimension
  0
LINE
  5
17509
330
A
100
AcDbEntity
  8
MODEL
100
AcDbLine
 10
372.9585087227263
 20
385.0404827532877
 30
0.0
 11
72.95850872272638
 21
385.0404827532877
 31
0.0
  0
LINE
  5
1750A
330
A
100
AcDbEntity
  8
MODEL
100
AcDbLine
 10
72.95850872272638
 20
385.0404827532877
 30
0.0
 11
72.95850872272638
 21
318.0404827532877
 31
0.0
  0
LINE
  5
1750B
330
A
100
AcDbEntity
  8
MODEL
100
AcDbLine
 10
75.95850872272638
 20
315.0404827532877
 30
0.0
 11
369.9585087227263
 21
315.0404827532877
 31
0.0
  0
LINE
  5
1750C
330
A
100
AcDbEntity
  8
MODEL
100
AcDbLine
 10
372.9585087227263
 20
318.0404827532877
 30
0.0
 11
372.9585087227263
 21
385.0404827532877
 31
0.0
  0
CIRCLE
  5
1750D
330
A
100
AcDbEntity
  8
MODEL
100
AcDbCircle
 10
365.4585087227263
 20
365.0404827532877
 30
0.0
 40
4.0
  0
LINE
  5
1750E
330
A
100
AcDbEntity
  8
MODEL
100
AcDbLine
 10
357.9585087227263
 20
382.0404827532877
 30
0.0
 11
357.9585087227263
 21
331.6911280214195
 31
0.0
  0
LINE
  5
1750F
330
A
100
AcDbEntity
  8
MODEL
100
AcDbLine
 10
336.2186597864173
 20
330.0404827532877
 30
0.0
 11
356.6983576590354
 21
330.0404827532877
 31
0.0
  0
LINE
  5
17510
330
A
100
AcDbEntity
  8
MODEL
100
AcDbLine
 10
372.9585087227263
 20
382.0404827532877
 30
0.0
 11
222.9585087227264
 21
382.0404827532877
 31
0.0
  0
DIMENSION
  5
17511
330
A
100
AcDbEntity
  8
DIM
100
AcDbDimension
  2
*D25
 10
566.451953977821
 20
340.0404827532878
 30
0.0
 11
560.4504534151099
 21
362.5404827532878
 31
0.0
 70
    32
 71
     5
 42
45.0
 73
     0
 74
     0
 75
     0
  3
tfrom線あり
100
AcDbAlignedDimension
 13
547.3670166367853
 23
385.0404827532878
 33
0.0
 14
520.8255423227263
 24
340.0404827532878
 34
0.0
 50
90.0
100
AcDbRotatedDimension
  0
LINE
  5
17512
330
A
100
AcDbEntity
  8
MODEL
100
AcDbLine
 10
334.9585087227263
 20
340.0404827532877
 30
0.0
 11
222.9585087227264
 21
340.0404827532877
 31
0.0
  0
LINE
  5
17516
330
A
100
AcDbEntity
  8
MODEL
100
AcDbLine
 10
334.9585087227263
 20
343.0404827532877
 30
0.0
 11
222.9585087227264
 21
343.0404827532877
 31
0.0
  0
DIMENSION
  5
17517
102
{ACAD_XDICTIONARY
360
17518
102
}
330
A
100
AcDbEntity
  8
DIM
100
AcDbDimension
  2
*D27
 10
392.6708416995401
 20
365.0404827532873
 30
0.0
 11
392.67084169954
 21
375.0404827532873
 31
0.0
 70
   160
 71
     5
 42
19.99999999999995
 73
     0
 74
     0
 75
     0
 52
-90.0
  3
tfrom線あり
100
AcDbAlignedDimension
 13
432.583545050561
 23
385.0404827532874
 33
0.0
 14
411.733267167679
 24
365.0404827532874
 34
0.0
 50
90.00000000000016
100
AcDbRotatedDimension
  0
LINE
  5
1751A
330
A
100
AcDbEntity
  8
MODEL
100
AcDbLine
 10
334.9585087227263
 20
343.0404827532877
 30
0.0
 11
334.9585087227263
 21
331.6911280214193
 31
0.0
  0
LINE
  5
1751B
330
A
100
AcDbEntity
  8
MODEL
100
AcDbLine
 10
334.9585087227263
 20
331.6911280214195
 30
0.0
 11
336.2186597864173
 21
330.0404827532877
 31
0.0
  0
LINE
  5
1751C
330
A
100
AcDbEntity
  8
MODEL
100
AcDbLine
 10
357.9585087227263
 20
331.6911280214195
 30
0.0
 11
356.6983576590354
 21
330.0404827532877
 31
0.0
  0
CIRCLE
  5
1751D
330
A
100
AcDbEntity
  8
MODEL
100
AcDbCircle
 10
80.45850872272638
 20
365.0404827532877
 30
0.0
 40
4.0
  0
LINE
  5
1751E
330
A
100
AcDbEntity
  8
MODEL
100
AcDbLine
 10
72.95850872272638
 20
382.0404827532877
 30
0.0
 11
222.9585087227264
 21
382.0404827532877
 31
0.0
  0
LINE
  5
1751F
330
A
100
AcDbEntity
  8
MODEL
100
AcDbLine
 10
110.9585087227264
 20
343.0404827532877
 30
0.0
 11
222.9585087227264
 21
343.0404827532877
 31
0.0
  0
LINE
  5
17520
330
A
100
AcDbEntity
  8
MODEL
100
AcDbLine
 10
110.9585087227264
 20
340.0404827532877
 30
0.0
 11
222.9585087227264
 21
340.0404827532877
 31
0.0
  0
LINE
  5
17521
330
A
100
AcDbEntity
  8
MODEL
100
AcDbLine
 10
110.9585087227264
 20
331.6911280214195
 30
0.0
 11
109.6983576590363
 21
330.0404827532877
 31
0.0
  0
LINE
  5
17522
330
A
100
AcDbEntity
  8
MODEL
100
AcDbLine
 10
87.95850872272635
 20
331.6911280214195
 30
0.0
 11
89.21865978641735
 21
330.0404827532877
 31
0.0
  0
LINE
  5
17523
330
A
100
AcDbEntity
  8
MODEL
100
AcDbLine
 10
87.95850872272635
 20
382.0404827532877
 30
0.0
 11
87.95850872272635
 21
331.6911280214195
 31
0.0
  0
LINE
  5
17524
330
A
100
AcDbEntity
  8
MODEL
100
AcDbLine
 10
109.6983576590363
 20
330.0404827532877
 30
0.0
 11
89.21865978641735
 21
330.0404827532877
 31
0.0
  0
LINE
  5
17525
330
A
100
AcDbEntity
  8
MODEL
100
AcDbLine
 10
110.9585087227264
 20
343.0404827532877
 30
0.0
 11
110.9585087227264
 21
331.6911280214193
 31
0.0
  0
LINE
  5
17526
102
{ACAD_REACTORS
330
175D5
330
175EF
102
}
330
A
100
AcDbEntity
  8
MODEL
100
AcDbLine
 10
435.9433550362656
 20
385.0404827532878
 30
0.0
 11
541.7007143491467
 21
385.0404827532878
 31
0.0
  0
LINE
  5
17527
102
{ACAD_REACTORS
330
175EF
102
}
330
A
100
AcDbEntity
  8
MODEL
100
AcDbLine
 10
436.4264792919567
 20
382.0404827532878
 30
0.0
 11
541.7007143491467
 21
382.0404827532878
 31
0.0
  0
LINE
  5
17528
330
A
100
AcDbEntity
  8
MODEL
100
AcDbLine
 10
435.9433550362656
 20
343.0404827532878
 30
0.0
 11
508.7007143491467
 21
343.0404827532878
 31
0.0
  0
LINE
  5
17529
102
{ACAD_REACTORS
330
176D8
102
}
330
A
100
AcDbEntity
  8
MODEL
100
AcDbLine
 10
431.7007143491467
 20
380.7978420661685
 30
0.0
 11
431.7007143491467
 21
315.0404827532878
 31
0.0
  0
LINE
  5
1752A
330
A
100
AcDbEntity
  8
MODEL
100
AcDbLine
 10
434.7007143491467
 20
380.522777703512
 30
0.0
 11
434.7007143491467
 21
315.0404827532878
 31
0.0
  0
LINE
  5
1752B
330
A
100
AcDbEntity
  8
MODEL
100
AcDbLine
 10
541.7007143491467
 20
385.0404827532878
 30
0.0
 11
541.7007143491467
 21
382.0404827532878
 31
0.0
  0
LINE
  5
1752C
330
A
100
AcDbEntity
  8
HIDDEN
100
AcDbLine
 10
526.7007143491467
 20
385.0404827532878
 30
0.0
 11
526.7007143491467
 21
382.0404827532878
 31
0.0
  0
LINE
  5
1752D
330
A
100
AcDbEntity
  8
MODEL
100
AcDbLine
 10
508.7007143491467
 20
343.0404827532878
 30
0.0
 11
508.7007143491467
 21
340.0404827532878
 31
0.0
  0
LINE
  5
1752E
330
A
100
AcDbEntity
  8
MODEL
100
AcDbLine
 10
436.4264792919567
 20
340.0404827532878
 30
0.0
 11
508.7007143491467
 21
340.0404827532878
 31
0.0
  0
ARC
  5
1752F
330
A
100
AcDbEntity
  8
MODEL
100
AcDbCircle
 10
435.9433550362656
 20
380.7978420661685
 30
0.0
 40
4.242640687119285
100
AcDbArc
 50
90.0
 51
180.0
  0
ARC
  5
17530
330
A
100
AcDbEntity
  8
MODEL
100
AcDbCircle
 10
436.4264792919567
 20
380.3004565022291
 30
0.0
 40
1.74002625105868
100
AcDbArc
 50
90.0
 51
187.3406832466043
  0
ARC
  5
17531
330
A
100
AcDbEntity
  8
MODEL
100
AcDbCircle
 10
436.4264792919567
 20
338.3004565022291
 30
0.0
 40
1.74002625105868
100
AcDbArc
 50
90.0
 51
187.3406832466043
  0
ARC
  5
17532
330
A
100
AcDbEntity
  8
HIDDEN
 62
     0
 48
0.25
100
AcDbCircle
 10
435.9433550362656
 20
338.7978420661685
 30
0.0
 40
4.242640687119285
100
AcDbArc
 50
90.0
 51
180.0
  0
CIRCLE
  5
17533
330
A
100
AcDbEntity
  8
MODEL
100
AcDbCircle
 10
365.4585087227263
 20
365.0404827532877
 30
0.0
 40
2.413795961155415
  0
CIRCLE
  5
17534
330
A
100
AcDbEntity
  8
MODEL
100
AcDbCircle
 10
80.45850872272638
 20
365.0404827532877
 30
0.0
 40
2.413795961155415
  0
LINE
  5
17535
102
{ACAD_REACTORS
330
175D5
102
}
330
A
100
AcDbEntity
  8
MODEL
100
AcDbLine
 10
431.7007143491467
 20
315.0404827532878
 30
0.0
 11
434.7007143491467
 21
315.0404827532878
 31
0.0
  0
ARC
  5
17536
330
A
100
AcDbEntity
  8
MODEL
100
AcDbCircle
 10
354.9585087227263
 20
501.1267136627843
 30
0.0
 40
3.0
100
AcDbArc
 50
270.0
 51
0.0
  0
ARC
  5
17537
330
A
100
AcDbEntity
  8
MODEL
100
AcDbCircle
 10
90.95850872272635
 20
501.1267136627843
 30
0.0
 40
3.0
100
AcDbArc
 50
180.0
 51
270.0
  0
ARC
  5
17538
330
A
100
AcDbEntity
  8
MODEL
100
AcDbCircle
 10
113.9585087227264
 20
519.1267136627841
 30
0.0
 40
3.000000000000001
100
AcDbArc
 50
180.0
 51
270.0
  0
ARC
  5
17539
330
A
100
AcDbEntity
  8
MODEL
100
AcDbCircle
 10
331.9585087227263
 20
519.1267136627838
 30
0.0
 40
3.0
100
AcDbArc
 50
270.0
 51
0.0
  0
ARC
  5
1753A
330
A
100
AcDbEntity
  8
MODEL
100
AcDbCircle
 10
75.95850872272638
 20
486.1267136627844
 30
0.0
 40
3.0
100
AcDbArc
 50
180.0
 51
270.0
  0
ARC
  5
1753B
330
A
100
AcDbEntity
  8
MODEL
100
AcDbCircle
 10
369.9585087227263
 20
486.1267136627843
 30
0.0
 40
3.0
100
AcDbArc
 50
270.0
 51
0.0
  0
ARC
  5
1753C
330
A
100
AcDbEntity
  8
MODEL
100
AcDbCircle
 10
75.95850872272638
 20
318.0404827532877
 30
0.0
 40
3.000000000000001
100
AcDbArc
 50
180.0
 51
270.0
  0
ARC
  5
1753D
330
A
100
AcDbEntity
  8
MODEL
100
AcDbCircle
 10
369.9585087227263
 20
318.0404827532877
 30
0.0
 40
3.0
100
AcDbArc
 50
270.0
 51
0.0
  0
DIMENSION
  5
175D3
102
{ACAD_REACTORS
330
175D5
102
}
102
{ACAD_XDICTIONARY
360
175D4
102
}
330
A
100
AcDbEntity
  8
DIM
100
AcDbDimension
  2
*D28
 10
584.1185172080559
 20
385.0404827532878
 30
0.0
 11
578.1170166453448
 21
350.0404827532878
 31
0.0
 70
    32
 71
     5
 42
70.0
 73
     0
 74
     0
 75
     0
  3
tfrom線あり
100
AcDbAlignedDimension
 13
434.7007143491467
 23
315.0404827532878
 33
0.0
 14
541.7007143491467
 24
385.0404827532878
 34
0.0
 50
90.0
100
AcDbRotatedDimension
  0
DIMENSION
  5
175ED
102
{ACAD_REACTORS
330
175EF
102
}
102
{ACAD_XDICTIONARY
360
175EE
102
}
330
A
100
AcDbEntity
  8
DIM
100
AcDbDimension
  2
*D29
 10
555.6149167752272
 20
385.0404827532878
 30
0.0
 11
555.6149167752272
 21
398.5945747098985
 31
0.0
 70
   160
 71
     5
 42
3.0
 73
     0
 74
     1
 75
     1
  3
tfrom線あり
100
AcDbAlignedDimension
 13
541.7007143491467
 23
382.0404827532878
 33
0.0
 14
541.7007143491467
 24
385.0404827532878
 34
0.0
 50
90.0
100
AcDbRotatedDimension
1001
ACAD
1000
DSTYLE
1002
{
1070
   172
1070
     1
1002
}
  0
DIMENSION
  5
175FE
102
{ACAD_XDICTIONARY
360
175FF
102
}
330
A
100
AcDbEntity
  8
DIM
100
AcDbDimension
  2
*D30
 10
537.3357867386799
 20
343.0404827532878
 30
0.0
 11
537.3357867386799
 21
353.1092585442094
 31
0.0
 70
   160
 71
     5
 42
3.0
 73
     0
 74
     1
 75
     1
  3
tfrom線あり
100
AcDbAlignedDimension
 13
508.7007143491467
 23
340.0404827532878
 33
0.0
 14
508.7007143491467
 24
343.0404827532878
 34
0.0
 50
90.0
100
AcDbRotatedDimension
1001
ACAD
1000
DSTYLE
1002
{
1070
   172
1070
     1
1002
}
  0
MTEXT
  5
17612
330
A
100
AcDbEntity
  8
TEMPLATE
390
1D
100
AcDbMText
 10
39.66064336431923
 20
67.34900837331531
 30
0.0
 40
7.329785156250001
 41
0.0
 46
8.185514888212476
 71
     1
 72
     1
  1
{SUS サラタッピング 4.2x35、プラグ付属}
  7
ＭＳ ゴシック
 73
     1
 44
0.7828267384257843
1001
ACAD
1000
ACAD_MTEXT_DEFINED_HEIGHT_BEGIN
1070
    46
1040
8.185514888212476
1000
ACAD_MTEXT_DEFINED_HEIGHT_END
  0
LINE
  5
17656
102
{ACAD_REACTORS
330
176BD
102
}
330
A
100
AcDbEntity
  8
MODEL
100
AcDbLine
 10
408.6178250311597
 20
365.0404827532874
 30
0.0
 11
411.6163420066658
 21
366.2315961203288
 31
0.0
  0
LINE
  5
17657
102
{ACAD_REACTORS
330
176BD
102
}
330
A
100
AcDbEntity
  8
MODEL
100
AcDbLine
 10
417.4367438244911
 20
367.3142557361622
 30
0.0
 11
419.3793848195685
 21
362.7667097704131
 31
0.0
  0
LINE
  5
17658
102
{ACAD_REACTORS
330
176BD
102
}
330
A
100
AcDbEntity
  8
MODEL
100
AcDbLine
 10
419.293308992951
 20
367.3142557361622
 30
0.0
 11
421.2359499880284
 21
362.7667097704131
 31
0.0
  0
LINE
  5
17659
102
{ACAD_REACTORS
330
176BD
102
}
330
A
100
AcDbEntity
  8
MODEL
100
AcDbLine
 10
421.2411806451058
 20
367.3142557361623
 30
0.0
 11
423.1838216401832
 21
362.7667097704131
 31
0.0
  0
LINE
  5
1765A
102
{ACAD_REACTORS
330
176BD
102
}
330
A
100
AcDbEntity
  8
MODEL
100
AcDbLine
 10
423.0673103190009
 20
367.3142557361623
 30
0.0
 11
425.0099513140783
 21
362.7667097704131
 31
0.0
  0
LINE
  5
1765B
102
{ACAD_REACTORS
330
176BD
102
}
330
A
100
AcDbEntity
  8
MODEL
100
AcDbLine
 10
425.1369239494153
 20
367.3142557361623
 30
0.0
 11
427.0795649444926
 21
362.7667097704131
 31
0.0
  0
LINE
  5
1765C
102
{ACAD_REACTORS
330
176BD
102
}
330
A
100
AcDbEntity
  8
MODEL
100
AcDbLine
 10
427.3282795580894
 20
367.3142557361623
 30
0.0
 11
429.2709205531667
 21
362.7667097704131
 31
0.0
  0
LINE
  5
17662
102
{ACAD_REACTORS
330
176BD
102
}
330
A
100
AcDbEntity
  8
HIDDEN
100
AcDbLine
 10
434.7007143491467
 20
366.7261008783672
 30
0.0
 11
434.7007143491467
 21
363.3548646282081
 31
0.0
  0
LINE
  5
1766C
102
{ACAD_REACTORS
330
176BD
102
}
330
A
100
AcDbEntity
  8
HIDDEN
100
AcDbLine
 10
431.7007143491467
 20
366.2315961203288
 30
0.0
 11
434.7007143491467
 21
367.4542787144429
 31
0.0
  0
LINE
  5
1766D
102
{ACAD_REACTORS
330
176BD
102
}
330
A
100
AcDbEntity
  8
MODEL
100
AcDbLine
 10
431.7007143491467
 20
366.2315961203288
 30
0.0
 11
411.6163420066658
 21
366.2315961203288
 31
0.0
  0
LINE
  5
17687
102
{ACAD_REACTORS
330
176BD
102
}
330
A
100
AcDbEntity
  8
MODEL
100
AcDbLine
 10
411.6323979605343
 20
367.3142557361622
 30
0.0
 11
413.5750389556117
 21
362.7667097704131
 31
0.0
  0
LINE
  5
17688
102
{ACAD_REACTORS
330
176BD
102
}
330
A
100
AcDbEntity
  8
MODEL
100
AcDbLine
 10
413.4889631289943
 20
367.3142557361622
 30
0.0
 11
415.4316041240717
 21
362.7667097704131
 31
0.0
  0
LINE
  5
17689
102
{ACAD_REACTORS
330
176BD
102
}
330
A
100
AcDbEntity
  8
MODEL
100
AcDbLine
 10
415.436834781149
 20
367.3142557361623
 30
0.0
 11
417.3794757762264
 21
362.7667097704131
 31
0.0
  0
LINE
  5
1768A
102
{ACAD_REACTORS
330
176BD
102
}
330
A
100
AcDbEntity
  8
MODEL
100
AcDbLine
 10
429.5722277013716
 20
367.3142557361623
 30
0.0
 11
431.514868696449
 21
362.7667097704131
 31
0.0
  0
LINE
  5
1768B
102
{ACAD_REACTORS
330
176BD
102
}
330
A
100
AcDbEntity
  8
MODEL
100
AcDbLine
 10
408.6178250311597
 20
365.0404827532874
 30
0.0
 11
411.6163420066658
 21
363.8493693862459
 31
0.0
  0
LINE
  5
1768C
102
{ACAD_REACTORS
330
176BD
102
}
330
A
100
AcDbEntity
  8
HIDDEN
100
AcDbLine
 10
431.7007143491467
 20
363.8493693862458
 30
0.0
 11
434.7007143491467
 21
362.6266867921317
 31
0.0
  0
LINE
  5
1768D
102
{ACAD_REACTORS
330
176BD
102
}
330
A
100
AcDbEntity
  8
MODEL
100
AcDbLine
 10
431.7007143491467
 20
363.8493693862458
 30
0.0
 11
411.6163420066658
 21
363.8493693862459
 31
0.0
  0
LINE
  5
17694
330
A
100
AcDbEntity
  8
HIDDEN
100
AcDbLine
 10
357.9585087227263
 20
590.1267136627843
 30
0.0
 11
372.9585087227263
 21
590.1267136627843
 31
0.0
  0
LINE
  5
17695
330
A
100
AcDbEntity
  8
HIDDEN
100
AcDbLine
 10
87.95850872272638
 20
590.1267136627843
 30
0.0
 11
72.95850872272638
 21
590.1267136627843
 31
0.0
  0
LINE
  5
17699
330
A
100
AcDbEntity
  8
MODEL
  6
CENTER
 62
   253
 48
0.09
100
AcDbLine
 10
80.45850872272638
 20
358.8680799846111
 30
0.0
 11
80.45850872272638
 21
371.2128855219642
 31
0.0
  0
LINE
  5
176B5
330
A
100
AcDbEntity
  8
MODEL
  6
CENTER
 62
   253
 48
0.09
100
AcDbLine
 10
74.28610595404982
 20
365.0404827532876
 30
0.0
 11
86.63091149140294
 21
365.0404827532876
 31
0.0
  0
LINE
  5
176B7
330
A
100
AcDbEntity
  8
MODEL
  6
CENTER
 62
   253
 48
0.09
100
AcDbLine
 10
365.4585087227263
 20
358.8680799846111
 30
0.0
 11
365.4585087227263
 21
371.2128855219642
 31
0.0
  0
LINE
  5
176B8
330
A
100
AcDbEntity
  8
MODEL
  6
CENTER
 62
   253
 48
0.09
100
AcDbLine
 10
371.6309114914029
 20
365.0404827532876
 30
0.0
 11
359.2861059540497
 21
365.0404827532876
 31
0.0
  0
DIMENSION
  5
176D6
102
{ACAD_REACTORS
330
176D8
102
}
102
{ACAD_XDICTIONARY
360
176D7
102
}
330
A
100
AcDbEntity
  8
DIM
100
AcDbDimension
  2
*D33
 10
509.7007143491466
 20
274.0326076281704
 30
0.0
 11
470.7007143491467
 21
280.0341081908814
 31
0.0
 70
    32
 71
     5
 42
77.99999999999989
 73
     0
 74
     0
 75
     0
  3
tfrom線あり
100
AcDbAlignedDimension
 13
431.7007143491467
 23
315.0404827532878
 33
0.0
 14
509.7007143491466
 24
335.2382551417263
 34
0.0
100
AcDbRotatedDimension
  0
MTEXT
  5
1770E
330
A
100
AcDbEntity
  8
TEMPLATE
390
1D
100
AcDbMText
 10
398.2434425189052
 20
162.5556353926413
 30
0.0
 40
7.329785156250001
 41
0.0
 46
8.187691734498094
 71
     1
 72
     1
  1
{ALH74-0002-0MB (マットブラック)}
  7
ＭＳ ゴシック
 73
     1
 44
0.7828267384257843
1001
ACAD
1000
ACAD_MTEXT_DEFINED_HEIGHT_BEGIN
1070
    46
1040
8.187691734498094
1000
ACAD_MTEXT_DEFINED_HEIGHT_END
  0
MTEXT
  5
1770F
330
A
100
AcDbEntity
  8
TEMPLATE
390
1D
100
AcDbMText
 10
398.2434425189052
 20
129.2136384056265
 30
0.0
 40
7.329785156250001
 41
0.0
 46
8.187691734498094
 71
     1
 72
     1
  1
{ALH74-0002-OHB (ブラッシュドハイブラス)}
  7
ＭＳ ゴシック
 73
     1
 44
0.7828267384257843
1001
ACAD
1000
ACAD_MTEXT_DEFINED_HEIGHT_BEGIN
1070
    46
1040
8.187691734498094
1000
ACAD_MTEXT_DEFINED_HEIGHT_END
  0
MTEXT
  5
17710
330
A
100
AcDbEntity
  8
TEMPLATE
390
1D
100
AcDbMText
 10
398.2434425189052
 20
117.8853147526412
 30
0.0
 40
7.329785156250001
 41
0.0
 46
8.187691734498094
 71
     1
 72
     1
  1
{ALH74-0002-0DG (ポリッシュドディープグレイ)}
  7
ＭＳ ゴシック
 73
     1
 44
0.7828267384257843
1001
ACAD
1000
ACAD_MTEXT_DEFINED_HEIGHT_BEGIN
1070
    46
1040
8.187691734498094
1000
ACAD_MTEXT_DEFINED_HEIGHT_END
  0
MTEXT
  5
17711
330
A
100
AcDbEntity
  8
TEMPLATE
390
1D
100
AcDbMText
 10
398.2434425189052
 20
140.6185895092223
 30
0.0
 40
7.329785156250001
 41
0.0
 46
8.187691734498094
 71
     1
 72
     1
  1
{ALH74-0002-0CP (ブラッシュドコッパー)}
  7
ＭＳ ゴシック
 73
     1
 44
0.7828267384257843
1001
ACAD
1000
ACAD_MTEXT_DEFINED_HEIGHT_BEGIN
1070
    46
1040
8.187691734498094
1000
ACAD_MTEXT_DEFINED_HEIGHT_END
  0
MTEXT
  5
17712
330
A
100
AcDbEntity
  8
TEMPLATE
390
1D
100
AcDbMText
 10
398.2434425189052
 20
151.9385538039592
 30
0.0
 40
7.329785156250001
 41
0.0
 46
8.187691734498094
 71
     1
 72
     1
  1
{ALH74-0002-0BS (ブラッシュドステンレス)}
  7
ＭＳ ゴシック
 73
     1
 44
0.7828267384257843
1001
ACAD
1000
ACAD_MTEXT_DEFINED_HEIGHT_BEGIN
1070
    46
1040
8.187691734498094
1000
ACAD_MTEXT_DEFINED_HEIGHT_END
  0
MTEXT
  5
17751
330
A
100
AcDbEntity
  8
TEMPLATE
390
1D
100
AcDbMText
 10
39.61454475337207
 20
56.40776498976687
 30
0.0
 40
7.0
 41
0.0
 46
11.6243591346755
 71
     1
 72
     1
  1
{耐荷重:3kgf}
  7
ＭＳ ゴシック
 73
     1
 44
0.7828267384257843
1001
ACAD
1000
ACAD_MTEXT_DEFINED_HEIGHT_BEGIN
1070
    46
1040
11.6243591346755
1000
ACAD_MTEXT_DEFINED_HEIGHT_END
  0
VIEWPORT
  5
349
330
B
100
AcDbEntity
 67
     1
  8
0
100
AcDbViewport
 10
202.5
 20
128.5
 30
0.0
 40
486.0
 41
308.4
 68
     1
 69
     1
 12
202.5
 22
128.5
 13
0.0
 23
0.0
 14
0.5
 24
0.5
 15
0.0
 25
0.0
 16
0.0
 26
0.0
 36
1.0
 17
0.0
 27
0.0
 37
0.0
 42
50.0
 43
0.0
 44
0.0
 45
308.4
 50
0.0
 51
0.0
 72
   100
 90
   557152
  1

281
     0
 71
     1
 74
     0
110
0.0
120
0.0
130
0.0
111
1.0
121
0.0
131
0.0
112
0.0
122
1.0
132
0.0
 79
     0
146
0.0
170
     0
 61
     5
348
26C
292
     1
282
     1
141
0.0
142
0.0
 63
   256
  0
VIEWPORT
  5
34A
330
B
100
AcDbEntity
 67
     1
  8
0
100
AcDbViewport
 10
202.5
 20
128.5
 30
0.0
 40
324.0
 41
205.6
 68
     2
 69
     2
 12
986.6781359294573
 22
1427.077061889956
 13
0.0
 23
0.0
 14
0.5
 24
0.5
 15
0.0
 25
0.0
 16
0.0
 26
0.0
 36
1.0
 17
0.0
 27
0.0
 37
0.0
 42
50.0
 43
0.0
 44
0.0
 45
2890.021615685494
 50
0.0
 51
0.0
 72
   100
 90
   557152
  1

281
     0
 71
     1
 74
     0
110
0.0
120
0.0
130
0.0
111
1.0
121
0.0
131
0.0
112
0.0
122
1.0
132
0.0
 79
     0
146
0.0
170
     0
 61
     5
348
26C
292
     1
282
     1
141
0.0
142
0.0
 63
   256
  0
ENDSEC
  0
SECTION
  2
OBJECTS
  0
DICTIONARY
  5
19
330
0
100
AcDbDictionary
281
     1
  3
ACAD_COLOR
350
674
  3
ACAD_DETAILVIEWSTYLE
350
BBF
  3
ACAD_FIELDLIST
350
36B0
  3
ACAD_GROUP
350
1A
  3
ACAD_IMAGE_VARS
350
27B
  3
ACAD_LAYOUT
350
1E
  3
ACAD_MATERIAL
350
263
  3
ACAD_MLEADERSTYLE
350
336
  3
ACAD_MLINESTYLE
350
1B
  3
ACAD_PLOTSETTINGS
350
22
  3
ACAD_PLOTSTYLENAME
350
1F
  3
ACAD_SCALELIST
350
241
  3
ACAD_SECTIONVIEWSTYLE
350
BC0
  3
ACAD_TABLESTYLE
350
278
  3
ACAD_VISUALSTYLE
350
267
  3
ACDB_RECOMPOSE_DATA
350
17759
  3
AcDbVariableDictionary
350
330
  3
APPDATA
350
27A
  3
CENTERLINE
350
366B
  3
DimOffsetDictionary
350
E38
  0
SUN
  5
904
330
15
100
AcDbSun
 90
        1
290
     0
 63
     7
421
 16777215
 40
1.0
291
     1
 91
  2455826
 92
 54000000
292
     0
 70
     2
 71
   256
280
     1
  0
DICTIONARY
  5
2E1
330
2
100
AcDbDictionary
280
     1
281
     1
  3
ACAD_LAYERSTATES
360
2E2
  3
ACLYDICTIONARY
360
DDE
  0
DICTIONARY
  5
1733E
330
A
100
AcDbDictionary
280
     1
281
     1
  3
ACAD_SORTENTS
360
1733F
  0
DICTIONARY
  5
36AE
330
36AC
100
AcDbDictionary
280
     1
281
     1
  3
ACAD_FIELD
360
17753
  0
DICTIONARY
  5
174FC
330
174FB
100
AcDbDictionary
280
     1
281
     1
  3
ACAD_DIMASSOC
360
174FD
  0
DICTIONARY
  5
174FF
330
174FE
100
AcDbDictionary
280
     1
281
     1
  3
ACAD_DIMASSOC
360
17500
  0
DICTIONARY
  5
17502
330
17501
100
AcDbDictionary
280
     1
281
     1
  3
ACAD_DIMASSOC
360
17503
  0
DICTIONARY
  5
17518
330
17517
100
AcDbDictionary
280
     1
281
     1
  3
ACAD_DIMASSOC
360
17519
  0
DICTIONARY
  5
175D4
330
175D3
100
AcDbDictionary
280
     1
281
     1
  3
ACAD_DIMASSOC
360
175D5
  0
DICTIONARY
  5
175EE
330
175ED
100
AcDbDictionary
280
     1
281
     1
  3
ACAD_DIMASSOC
360
175EF
  0
DICTIONARY
  5
175FF
330
175FE
100
AcDbDictionary
280
     1
281
     1
  3
ACAD_DIMASSOC
360
17600
  0
DICTIONARY
  5
176D7
330
176D6
100
AcDbDictionary
280
     1
281
     1
  3
ACAD_DIMASSOC
360
176D8
  0
DICTIONARY
  5
674
102
{ACAD_REACTORS
330
19
102
}
330
19
100
AcDbDictionary
281
     1
  0
DICTIONARY
  5
BBF
102
{ACAD_REACTORS
330
19
102
}
330
19
100
AcDbDictionary
281
     1
  0
FIELDLIST
  5
36B0
102
{ACAD_REACTORS
330
19
102
}
330
19
100
AcDbIdSet
 90
        2
330
36B1
330
36AD
100
AcDbFieldList
  0
DICTIONARY
  5
1A
102
{ACAD_REACTORS
330
19
102
}
330
19
100
AcDbDictionary
281
     1
  3
*A1
350
1730A
  3
*A2
350
176BD
  0
RASTERVARIABLES
  5
27B
102
{ACAD_REACTORS
330
19
102
}
330
19
100
AcDbRasterVariables
 90
        0
 70
     1
 71
     1
 72
     1
  0
DICTIONARY
  5
1E
102
{ACAD_REACTORS
330
19
102
}
330
19
100
AcDbDictionary
281
     1
  3
Layout1
350
21
  3
Model
350
20
  0
DICTIONARY
  5
263
102
{ACAD_REACTORS
330
19
102
}
330
19
100
AcDbDictionary
281
     1
  3
ByBlock
350
265
  3
ByLayer
350
264
  3
Global
350
266
  0
DICTIONARY
  5
336
102
{ACAD_REACTORS
330
19
102
}
330
19
100
AcDbDictionary
281
     1
  3
Standard
350
D59
  0
DICTIONARY
  5
1B
102
{ACAD_REACTORS
330
19
102
}
330
19
100
AcDbDictionary
281
     1
  3
Standard
350
1C
  0
DICTIONARY
  5
22
102
{ACAD_REACTORS
330
19
102
}
330
19
100
AcDbDictionary
281
     1
  0
ACDBDICTIONARYWDFLT
  5
1F
102
{ACAD_REACTORS
330
19
102
}
330
19
100
AcDbDictionary
281
     1
  3
Normal
350
1D
100
AcDbDictionaryWithDefault
340
1D
  0
DICTIONARY
  5
241
102
{ACAD_REACTORS
330
19
102
}
330
19
100
AcDbDictionary
281
     1
  3
A0
350
242
  3
A1
350
243
  3
A2
350
244
  3
A3
350
245
  3
A4
350
246
  3
A5
350
247
  3
A6
350
248
  3
A7
350
249
  3
A8
350
24A
  3
A9
350
24B
  3
B0
350
24C
  3
B1
350
24D
  3
B2
350
24E
  3
B3
350
24F
  3
B4
350
250
  3
B5
350
251
  3
B6
350
252
  3
B7
350
253
  3
B8
350
254
  3
B9
350
255
  3
C0
350
256
  3
C1
350
257
  3
C2
350
258
  3
C3
350
259
  3
C4
350
25A
  3
C5
350
25B
  3
C6
350
25C
  3
C7
350
25D
  3
C8
350
25E
  3
C9
350
25F
  3
D0
350
260
  3
D1
350
261
  3
D2
350
262
  0
DICTIONARY
  5
BC0
102
{ACAD_REACTORS
330
19
102
}
330
19
100
AcDbDictionary
281
     1
  0
DICTIONARY
  5
278
102
{ACAD_REACTORS
330
19
102
}
330
19
100
AcDbDictionary
281
     1
  3
Standard
350
279
  0
DICTIONARY
  5
267
102
{ACAD_REACTORS
330
19
102
}
330
19
100
AcDbDictionary
281
     1
  3
*A1
350
3666
  3
2dWireframe
350
26C
  3
3D Hidden
350
26E
  3
3dWireframe
350
26D
  3
Basic
350
26F
  3
Brighten
350
273
  3
ColorChange
350
277
  3
Conceptual
350
271
  3
Dim
350
272
  3
EdgeColorOff
350
8FE
  3
Facepattern
350
276
  3
Flat
350
268
  3
FlatWithEdges
350
269
  3
Gouraud
350
26A
  3
GouraudWithEdges
350
26B
  3
Hidden
350
8FB
  3
JitterOff
350
8FC
  3
Linepattern
350
275
  3
OverhangOff
350
8FD
  3
Realistic
350
270
  3
Shaded
350
903
  3
Shaded with edges
350
902
  3
Shades of Gray
350
8FF
  3
Sketchy
350
900
  3
Thicken
350
274
  3
Wireframe
350
8FA
  3
X-Ray
350
901
  0
XRECORD
  5
17759
102
{ACAD_REACTORS
330
19
102
}
330
19
100
AcDbXrecord
280
     1
 90
        1
330
279
  0
DICTIONARY
  5
330
102
{ACAD_REACTORS
330
19
102
}
330
19
100
AcDbDictionary
281
     1
  3
CANNOSCALE
350
331
  3
CMLEADERSTYLE
350
D5E
  3
CTABLESTYLE
350
335
  3
HPTRANSPARENCY
350
D52
  3
XCLIPFRAME
350
896
  0
DICTIONARY
  5
27A
102
{ACAD_REACTORS
330
19
102
}
330
19
100
AcDbDictionary
281
     1
  0
DICTIONARY
  5
366B
102
{ACAD_REACTORS
330
19
102
}
330
19
100
AcDbDictionary
281
     1
  3
CLEXTENSION
350
36AB
  0
DICTIONARY
  5
E38
102
{ACAD_REACTORS
330
19
102
}
330
19
100
AcDbDictionary
281
     1
  3
DIMRAILANGLE
350
36A9
  3
DIMRAILFIRSTOFFSET
350
36A7
  3
DIMRAILOFFSET
350
36A8
  3
DIMRAILSENABLED
350
36AA
  0
DICTIONARY
  5
2E2
102
{ACAD_REACTORS
330
2E1
102
}
330
2E1
100
AcDbDictionary
281
     1
  0
DICTIONARY
  5
DDE
102
{ACAD_REACTORS
330
2E1
102
}
330
2E1
100
AcDbDictionary
281
     1
1001
ACAD
1000
<All
  0
SORTENTSTABLE
  5
1733F
102
{ACAD_REACTORS
330
1733E
102
}
330
1733E
100
AcDbSortentsTable
330
A
331
172F9
  5
172B7
331
172FA
  5
172F8
331
17305
  5
172F9
331
17306
  5
172FA
331
17307
  5
17305
331
17308
  5
17306
331
17309
  5
17307
  0
DICTIONARY
  5
17753
102
{ACAD_REACTORS
330
36AE
102
}
330
36AE
100
AcDbDictionary
280
     1
281
     1
  3
TEXT
360
36AD
  0
DIMASSOC
  5
174FD
102
{ACAD_REACTORS
330
174FC
102
}
330
174FC
100
AcDbDimAssoc
330
174FB
 90
        3
 70
     0
 71
     1
  1
AcDbOsnapPointRef
 72
    13
331
174E6
 73
     0
 91
        0
 40
0.0
 10
0.0
 20
0.0
 30
0.0
 75
     0
  1
AcDbOsnapPointRef
 72
     1
331
174EE
 73
     0
 91
        0
 40
0.0
 10
0.0
 20
0.0
 30
0.0
 75
     0
  0
DIMASSOC
  5
17500
102
{ACAD_REACTORS
330
174FF
102
}
330
174FF
100
AcDbDimAssoc
330
174FE
 90
        1
 70
     0
 71
     1
  1
AcDbOsnapPointRef
 72
    13
331
174E6
 73
     0
 91
        0
 40
0.0
 10
0.0
 20
0.0
 30
0.0
 75
     0
  0
DIMASSOC
  5
17503
102
{ACAD_REACTORS
330
17502
102
}
330
17502
100
AcDbDimAssoc
330
17501
 90
        3
 70
     0
 71
     1
  1
AcDbOsnapPointRef
 72
     1
331
174E7
 73
     0
 91
        0
 40
0.0
 10
0.0
 20
0.0
 30
0.0
 75
     0
  1
AcDbOsnapPointRef
 72
     1
331
174EC
 73
     0
 91
        0
 40
0.0
 10
0.0
 20
0.0
 30
0.0
 75
     0
  0
DIMASSOC
  5
17519
102
{ACAD_REACTORS
330
17518
102
}
330
17518
100
AcDbDimAssoc
330
17517
 90
        0
 70
     0
 71
     1
  0
DIMASSOC
  5
175D5
102
{ACAD_REACTORS
330
175D4
102
}
330
175D4
100
AcDbDimAssoc
330
175D3
 90
        3
 70
     0
 71
     1
  1
AcDbOsnapPointRef
 72
     1
331
17535
 73
     0
 91
        0
 40
0.0
 10
0.0
 20
0.0
 30
0.0
 75
     0
  1
AcDbOsnapPointRef
 72
     1
331
17526
 73
     0
 91
        0
 40
0.0
 10
0.0
 20
0.0
 30
0.0
 75
     0
  0
DIMASSOC
  5
175EF
102
{ACAD_REACTORS
330
175EE
102
}
330
175EE
100
AcDbDimAssoc
330
175ED
 90
        3
 70
     0
 71
     1
  1
AcDbOsnapPointRef
 72
     1
331
17527
 73
     0
 91
        0
 40
0.0
 10
0.0
 20
0.0
 30
0.0
 75
     0
  1
AcDbOsnapPointRef
 72
     1
331
17526
 73
     0
 91
        0
 40
0.0
 10
0.0
 20
0.0
 30
0.0
 75
     0
  0
DIMASSOC
  5
17600
102
{ACAD_REACTORS
330
175FF
102
}
330
175FF
100
AcDbDimAssoc
330
175FE
 90
        0
 70
     0
 71
     1
  0
DIMASSOC
  5
176D8
102
{ACAD_REACTORS
330
176D7
102
}
330
176D7
100
AcDbDimAssoc
330
176D6
 90
        1
 70
     0
 71
     1
  1
AcDbOsnapPointRef
 72
     1
331
17529
 73
     0
 91
        0
 40
0.0
 10
0.0
 20
0.0
 30
0.0
 75
     0
  0
GROUP
  5
1730A
102
{ACAD_REACTORS
330
1A
102
}
330
1A
100
AcDbGroup
300

 70
     1
 71
     1
340
172F9
340
172FA
340
17305
340
17306
340
17307
340
17308
340
17309
  0
GROUP
  5
176BD
102
{ACAD_REACTORS
330
1A
102
}
330
1A
100
AcDbGroup
300

 70
     1
 71
     1
340
17656
340
17657
340
17658
340
17659
340
1765A
340
1765B
340
1765C
340
17662
340
1766C
340
1766D
340
17687
340
17688
340
17689
340
1768A
340
1768B
340
1768C
340
1768D
  0
LAYOUT
  5
21
102
{ACAD_REACTORS
330
1E
102
}
330
1E
100
AcDbPlotSettings
  1

  2
none_device
  4
ISO_A3_(420.00_x_297.00_MM)
  6

 40
7.5
 41
20.0
 42
7.5
 43
20.0
 44
420.0
 45
297.0
 46
0.0
 47
0.0
 48
0.0
 49
0.0
140
0.0
141
0.0
142
1.0
143
1.0
 70
     0
 72
     1
 73
     0
 74
     0
  7

 75
     0
 76
     0
 77
     2
 78
   300
147
1.0
148
0.0
149
0.0
100
AcDbLayout
  1
Layout1
 70
     0
 71
     0
 10
-7.5
 20
-20.0
 11
412.5
 21
277.0
 12
0.0
 22
0.0
 32
0.0
 14
0.0
 24
0.0
 34
0.0
 15
0.0
 25
0.0
 35
0.0
146
0.0
 13
0.0
 23
0.0
 33
0.0
 16
0.0
 26
0.0
 36
0.0
 17
0.0
 27
0.0
 37
0.0
 76
     0
330
B
331
349
  0
LAYOUT
  5
20
102
{ACAD_REACTORS
330
1E
102
}
330
1E
100
AcDbPlotSettings
  1

  2
Adobe PDF
  4
A4
  6

 40
0.0600000000000023
 41
0.0000000000000205
 42
0.0
 43
0.04
 44
210.0
 45
297.0
 46
0.0
 47
0.0
 48
0.0
 49
0.0
140
0.0
141
0.0
142
1.0
143
3.000857387825093
 70
  1584
 72
     1
 73
     0
 74
     1
  7
monochrome.ctb
 75
     0
 76
     0
 77
     2
 78
   300
147
0.3332380952380952
148
-91.02013567089966
149
73.59871453016592
100
AcDbLayout
  1
Model
 70
     0
 71
     1
 10
0.0
 20
0.0
 11
630.0
 21
891.0
 12
0.0
 22
0.0
 32
0.0
 14
0.0
 24
0.0
 34
-0.0000000000000071
 15
630.0
 25
891.0
 35
0.0000000000000071
146
0.0
 13
0.0
 23
0.0
 33
0.0
 16
0.0
 26
0.0
 36
0.0
 17
0.0
 27
0.0
 37
0.0
 76
     0
330
A
331
15
1001
PLOTTRANSPARENCY
1071
        0
  0
MATERIAL
  5
265
102
{ACAD_REACTORS
330
263
102
}
330
263
100
AcDbMaterial
  1
ByBlock
 72
     1
 94
      127
  0
MATERIAL
  5
264
102
{ACAD_REACTORS
330
263
102
}
330
263
100
AcDbMaterial
  1
ByLayer
 72
     1
 94
      127
  0
MATERIAL
  5
266
102
{ACAD_REACTORS
330
263
102
}
330
263
100
AcDbMaterial
  1
Global
 72
     1
 94
      127
  0
MLEADERSTYLE
  5
D59
102
{ACAD_REACTORS
330
336
102
}
330
336
100
AcDbMLeaderStyle
170
     2
171
     1
172
     0
 90
        2
 40
0.0
 41
0.0
173
     1
 91
-1056964608
340
11
 92
       -2
290
     1
 42
2.0
291
     1
 43
8.0
  3
Standard
341
0
 44
4.0
300

342
17
174
     1
178
     6
175
     1
176
     0
 93
-1056964608
 45
4.0
292
     0
297
     0
 46
4.0
343
0
 94
-1056964608
 47
1.0
 49
1.0
140
1.0
293
     1
141
0.0
294
     1
177
     0
142
1.0
295
     0
296
     0
143
3.75
1001
ACAD_MLEADERVER
1070
     2
  0
MLINESTYLE
  5
1C
102
{ACAD_REACTORS
330
1B
102
}
330
1B
100
AcDbMlineStyle
  2
Standard
 70
     0
  3

 62
     0
 51
90.0
 52
90.0
 71
     2
 49
0.5
 62
   256
  6
BYLAYER
 49
-0.5
 62
   256
  6
BYLAYER
  0
ACDBPLACEHOLDER
  5
1D
102
{ACAD_REACTORS
330
1F
102
}
330
1F
  0
SCALE
  5
242
102
{ACAD_REACTORS
330
241
102
}
330
241
100
AcDbScale
 70
     0
300
1:1
140
1.0
141
1.0
290
     1
  0
SCALE
  5
243
102
{ACAD_REACTORS
330
241
102
}
330
241
100
AcDbScale
 70
     0
300
1:2
140
1.0
141
2.0
290
     0
  0
SCALE
  5
244
102
{ACAD_REACTORS
330
241
102
}
330
241
100
AcDbScale
 70
     0
300
1:4
140
1.0
141
4.0
290
     0
  0
SCALE
  5
245
102
{ACAD_REACTORS
330
241
102
}
330
241
100
AcDbScale
 70
     0
300
1:5
140
1.0
141
5.0
290
     0
  0
SCALE
  5
246
102
{ACAD_REACTORS
330
241
102
}
330
241
100
AcDbScale
 70
     0
300
1:8
140
1.0
141
8.0
290
     0
  0
SCALE
  5
247
102
{ACAD_REACTORS
330
241
102
}
330
241
100
AcDbScale
 70
     0
300
1:10
140
1.0
141
10.0
290
     0
  0
SCALE
  5
248
102
{ACAD_REACTORS
330
241
102
}
330
241
100
AcDbScale
 70
     0
300
1:16
140
1.0
141
16.0
290
     0
  0
SCALE
  5
249
102
{ACAD_REACTORS
330
241
102
}
330
241
100
AcDbScale
 70
     0
300
1:20
140
1.0
141
20.0
290
     0
  0
SCALE
  5
24A
102
{ACAD_REACTORS
330
241
102
}
330
241
100
AcDbScale
 70
     0
300
1:30
140
1.0
141
30.0
290
     0
  0
SCALE
  5
24B
102
{ACAD_REACTORS
330
241
102
}
330
241
100
AcDbScale
 70
     0
300
1:40
140
1.0
141
40.0
290
     0
  0
SCALE
  5
24C
102
{ACAD_REACTORS
330
241
102
}
330
241
100
AcDbScale
 70
     0
300
1:50
140
1.0
141
50.0
290
     0
  0
SCALE
  5
24D
102
{ACAD_REACTORS
330
241
102
}
330
241
100
AcDbScale
 70
     0
300
1:100
140
1.0
141
100.0
290
     0
  0
SCALE
  5
24E
102
{ACAD_REACTORS
330
241
102
}
330
241
100
AcDbScale
 70
     0
300
2:1
140
2.0
141
1.0
290
     0
  0
SCALE
  5
24F
102
{ACAD_REACTORS
330
241
102
}
330
241
100
AcDbScale
 70
     0
300
4:1
140
4.0
141
1.0
290
     0
  0
SCALE
  5
250
102
{ACAD_REACTORS
330
241
102
}
330
241
100
AcDbScale
 70
     0
300
8:1
140
8.0
141
1.0
290
     0
  0
SCALE
  5
251
102
{ACAD_REACTORS
330
241
102
}
330
241
100
AcDbScale
 70
     0
300
10:1
140
10.0
141
1.0
290
     0
  0
SCALE
  5
252
102
{ACAD_REACTORS
330
241
102
}
330
241
100
AcDbScale
 70
     0
300
100:1
140
100.0
141
1.0
290
     0
  0
SCALE
  5
253
102
{ACAD_REACTORS
330
241
102
}
330
241
100
AcDbScale
 70
     0
300
1/128" = 1'-0"
140
0.0078125
141
12.0
290
     0
  0
SCALE
  5
254
102
{ACAD_REACTORS
330
241
102
}
330
241
100
AcDbScale
 70
     0
300
1/64" = 1'-0"
140
0.015625
141
12.0
290
     0
  0
SCALE
  5
255
102
{ACAD_REACTORS
330
241
102
}
330
241
100
AcDbScale
 70
     0
300
1/32" = 1'-0"
140
0.03125
141
12.0
290
     0
  0
SCALE
  5
256
102
{ACAD_REACTORS
330
241
102
}
330
241
100
AcDbScale
 70
     0
300
1/16" = 1'-0"
140
0.0625
141
12.0
290
     0
  0
SCALE
  5
257
102
{ACAD_REACTORS
330
241
102
}
330
241
100
AcDbScale
 70
     0
300
3/32" = 1'-0"
140
0.09375
141
12.0
290
     0
  0
SCALE
  5
258
102
{ACAD_REACTORS
330
241
102
}
330
241
100
AcDbScale
 70
     0
300
1/8" = 1'-0"
140
0.125
141
12.0
290
     0
  0
SCALE
  5
259
102
{ACAD_REACTORS
330
241
102
}
330
241
100
AcDbScale
 70
     0
300
3/16" = 1'-0"
140
0.1875
141
12.0
290
     0
  0
SCALE
  5
25A
102
{ACAD_REACTORS
330
241
102
}
330
241
100
AcDbScale
 70
     0
300
1/4" = 1'-0"
140
0.25
141
12.0
290
     0
  0
SCALE
  5
25B
102
{ACAD_REACTORS
330
241
102
}
330
241
100
AcDbScale
 70
     0
300
3/8" = 1'-0"
140
0.375
141
12.0
290
     0
  0
SCALE
  5
25C
102
{ACAD_REACTORS
330
241
102
}
330
241
100
AcDbScale
 70
     0
300
1/2" = 1'-0"
140
0.5
141
12.0
290
     0
  0
SCALE
  5
25D
102
{ACAD_REACTORS
330
241
102
}
330
241
100
AcDbScale
 70
     0
300
3/4" = 1'-0"
140
0.75
141
12.0
290
     0
  0
SCALE
  5
25E
102
{ACAD_REACTORS
330
241
102
}
330
241
100
AcDbScale
 70
     0
300
1" = 1'-0"
140
1.0
141
12.0
290
     0
  0
SCALE
  5
25F
102
{ACAD_REACTORS
330
241
102
}
330
241
100
AcDbScale
 70
     0
300
1-1/2" = 1'-0"
140
1.5
141
12.0
290
     0
  0
SCALE
  5
260
102
{ACAD_REACTORS
330
241
102
}
330
241
100
AcDbScale
 70
     0
300
3" = 1'-0"
140
3.0
141
12.0
290
     0
  0
SCALE
  5
261
102
{ACAD_REACTORS
330
241
102
}
330
241
100
AcDbScale
 70
     0
300
6" = 1'-0"
140
6.0
141
12.0
290
     0
  0
SCALE
  5
262
102
{ACAD_REACTORS
330
241
102
}
330
241
100
AcDbScale
 70
     0
300
1'-0" = 1'-0"
140
12.0
141
12.0
290
     0
  0
TABLESTYLE
  5
279
102
{ACAD_REACTORS
330
278
102
}
102
{ACAD_XDICTIONARY
360
17757
102
}
330
278
100
AcDbTableStyle
  3
Standard
 70
     0
 71
     0
 40
0.06
 41
0.06
280
     0
281
     0
  7
Standard
140
4.5
170
     2
 62
     0
 63
   257
283
     0
 90
        4
 91
        0
  1

274
    -2
284
     1
 64
     0
275
    -2
285
     1
 65
     0
276
    -2
286
     1
 66
     0
277
    -2
287
     1
 67
     0
278
    -2
288
     1
 68
     0
279
    -2
289
     1
 69
     0
  7
Standard
140
6.0
170
     5
 62
     0
 63
   257
283
     0
 90
        4
 91
        0
  1

274
    -2
284
     1
 64
     0
275
    -2
285
     1
 65
     0
276
    -2
286
     1
 66
     0
277
    -2
287
     1
 67
     0
278
    -2
288
     1
 68
     0
279
    -2
289
     1
 69
     0
  7
Standard
140
4.5
170
     5
 62
     0
 63
   257
283
     0
 90
        4
 91
        0
  1

274
    -2
284
     1
 64
     0
275
    -2
285
     1
 65
     0
276
    -2
286
     1
 66
     0
277
    -2
287
     1
 67
     0
278
    -2
288
     1
 68
     0
279
    -2
289
     1
 69
     0
  0
VISUALSTYLE
  5
3666
102
{ACAD_REACTORS
330
267
102
}
330
267
100
AcDbVisualStyle
  2
*
 70
    10
 71
     0
 72
     2
 73
     0
 90
        0
 40
-0.6
 41
-30.0
 62
     5
 63
     7
421
 16777215
 74
     1
 91
        4
 64
     7
 65
   257
 75
     1
175
     1
 42
1.0
 92
        8
 66
     7
 43
1.0
 76
     1
 77
     6
 78
     2
 67
     7
 79
     5
170
     0
171
     0
290
     0
174
     0
 93
        1
 44
0.0
173
     0
291
     0
 45
0.0
  0
VISUALSTYLE
  5
26C
102
{ACAD_REACTORS
330
267
102
}
330
267
100
AcDbVisualStyle
  2
2dWireframe
 70
     4
 71
     0
 72
     2
 73
     0
 90
        0
 40
-0.6
 41
-30.0
 62
     5
 63
     7
421
 16777215
 74
     1
 91
        4
 64
     7
 65
   257
 75
     1
175
     1
 42
1.0
 92
        0
 66
   257
 43
1.0
 76
     1
 77
     6
 78
     2
 67
     7
 79
     5
170
     0
171
     0
290
     0
174
     0
 93
        1
 44
0.0
173
     0
291
     0
 45
0.0
  0
VISUALSTYLE
  5
26E
102
{ACAD_REACTORS
330
267
102
}
330
267
100
AcDbVisualStyle
  2
3D Hidden
 70
     6
 71
     1
 72
     2
 73
     2
 90
        0
 40
-0.6
 41
-30.0
 62
     5
 63
     7
421
 16777215
 74
     2
 91
        2
 64
     7
 65
   257
 75
     2
175
     1
 42
40.0
 92
        0
 66
   257
 43
1.0
 76
     1
 77
     6
 78
     2
 67
     7
 79
     3
170
     0
171
     0
290
     0
174
     0
 93
        1
 44
0.0
173
     0
291
     0
 45
0.0
  0
VISUALSTYLE
  5
26D
102
{ACAD_REACTORS
330
267
102
}
330
267
100
AcDbVisualStyle
  2
3dWireframe
 70
     5
 71
     0
 72
     2
 73
     0
 90
        0
 40
-0.6
 41
-30.0
 62
     5
 63
     7
421
 16777215
 74
     1
 91
        4
 64
     7
 65
   257
 75
     1
175
     1
 42
1.0
 92
        0
 66
   257
 43
1.0
 76
     1
 77
     6
 78
     2
 67
     7
 79
     5
170
     0
171
     0
290
     0
174
     0
 93
        1
 44
0.0
173
     0
291
     0
 45
0.0
  0
VISUALSTYLE
  5
26F
102
{ACAD_REACTORS
330
267
102
}
330
267
100
AcDbVisualStyle
  2
Basic
 70
     7
 71
     1
 72
     0
 73
     1
 90
        0
 40
-0.6
 41
-30.0
 62
     5
 63
     7
421
 16777215
 74
     0
 91
        4
 64
     7
 65
   257
 75
     1
175
     1
 42
1.0
 92
        8
 66
     7
 43
1.0
 76
     1
 77
     6
 78
     2
 67
     7
 79
     5
170
     0
171
     0
290
     0
174
     0
 93
        1
 44
0.0
173
     0
291
     1
 45
0.0
  0
VISUALSTYLE
  5
273
102
{ACAD_REACTORS
330
267
102
}
330
267
100
AcDbVisualStyle
  2
Brighten
 70
    12
 71
     2
 72
     2
 73
     0
 90
        0
 40
-0.6
 41
-30.0
 62
     5
 63
     7
421
 16777215
 74
     1
 91
        4
 64
     7
 65
   257
 75
     1
175
     1
 42
1.0
 92
        8
 66
     7
 43
1.0
 76
     1
 77
     6
 78
     2
 67
     7
 79
     5
170
     0
171
     0
290
     0
174
     0
 93
        1
 44
50.0
173
     0
291
     1
 45
0.0
  0
VISUALSTYLE
  5
277
102
{ACAD_REACTORS
330
267
102
}
330
267
100
AcDbVisualStyle
  2
ColorChange
 70
    16
 71
     2
 72
     2
 73
     3
 90
        0
 40
-0.6
 41
-30.0
 62
     5
 63
     8
421
  8421504
 74
     1
 91
        4
 64
     7
 65
   257
 75
     1
175
     1
 42
1.0
 92
        8
 66
     8
424
  8421504
 43
1.0
 76
     1
 77
     6
 78
     2
 67
     7
 79
     5
170
     0
171
     0
290
     0
174
     0
 93
        1
 44
0.0
173
     0
291
     1
 45
0.0
  0
VISUALSTYLE
  5
271
102
{ACAD_REACTORS
330
267
102
}
330
267
100
AcDbVisualStyle
  2
Conceptual
 70
     9
 71
     3
 72
     2
 73
     0
 90
        0
 40
-0.6
 41
-30.0
 62
     5
 63
     7
421
 16777215
 74
     2
 91
        2
 64
     7
 65
   257
 75
     1
175
     1
 42
40.0
 92
        8
 66
     7
 43
1.0
 76
     1
 77
     6
 78
     2
 67
     7
 79
     3
170
     0
171
     0
290
     0
174
     0
 93
        1
 44
0.0
173
     0
291
     0
 45
0.0
  0
VISUALSTYLE
  5
272
102
{ACAD_REACTORS
330
267
102
}
330
267
100
AcDbVisualStyle
  2
Dim
 70
    11
 71
     2
 72
     2
 73
     0
 90
        0
 40
-0.6
 41
-30.0
 62
     5
 63
     7
421
 16777215
 74
     1
 91
        4
 64
     7
 65
   257
 75
     1
175
     1
 42
1.0
 92
        8
 66
     7
 43
1.0
 76
     1
 77
     6
 78
     2
 67
     7
 79
     5
170
     0
171
     0
290
     0
174
     0
 93
        1
 44
-50.0
173
     0
291
     1
 45
0.0
  0
VISUALSTYLE
  5
8FE
102
{ACAD_REACTORS
330
267
102
}
330
267
100
AcDbVisualStyle
  2
EdgeColorOff
 70
    22
 71
     2
 72
     2
 73
     0
 90
        0
 40
0.6
 41
30.0
 62
     5
 63
     7
421
 16777215
 74
     1
 91
        4
 64
     7
 65
   257
 75
     1
175
     1
 42
1.0
 92
        8
 66
     7
 43
1.0
 76
     1
 77
     6
 78
     2
 67
     7
 79
     5
170
     0
171
     0
290
     0
174
     0
 93
        1
 44
0.0
173
     0
291
     1
 45
0.0
  0
VISUALSTYLE
  5
276
102
{ACAD_REACTORS
330
267
102
}
330
267
100
AcDbVisualStyle
  2
Facepattern
 70
    15
 71
     2
 72
     2
 73
     0
 90
        0
 40
-0.6
 41
-30.0
 62
     5
 63
     7
421
 16777215
 74
     1
 91
        4
 64
     7
 65
   257
 75
     1
175
     1
 42
1.0
 92
        8
 66
     7
 43
1.0
 76
     1
 77
     6
 78
     2
 67
     7
 79
     5
170
     0
171
     0
290
     0
174
     0
 93
        1
 44
0.0
173
     0
291
     1
 45
0.0
  0
VISUALSTYLE
  5
268
102
{ACAD_REACTORS
330
267
102
}
330
267
100
AcDbVisualStyle
  2
Flat
 70
     0
 71
     2
 72
     1
 73
     1
 90
        2
 40
-0.6
 41
30.0
 62
     5
 63
     7
421
 16777215
 74
     0
 91
        4
 64
     7
 65
   257
 75
     1
175
     1
 42
1.0
 92
        8
 66
     7
 43
1.0
 76
     1
 77
     6
 78
     2
 67
     7
 79
     5
170
     0
171
     0
290
     0
174
     0
 93
       13
 44
0.0
173
     0
291
     1
 45
0.0
  0
VISUALSTYLE
  5
269
102
{ACAD_REACTORS
330
267
102
}
330
267
100
AcDbVisualStyle
  2
FlatWithEdges
 70
     1
 71
     2
 72
     1
 73
     1
 90
        2
 40
-0.6
 41
30.0
 62
     5
 63
     7
421
 16777215
 74
     1
 91
        4
 64
     7
 65
   257
 75
     1
175
     1
 42
1.0
 92
        0
 66
   257
 43
1.0
 76
     1
 77
     6
 78
     2
 67
     7
 79
     5
170
     0
171
     0
290
     0
174
     0
 93
       13
 44
0.0
173
     0
291
     1
 45
0.0
  0
VISUALSTYLE
  5
26A
102
{ACAD_REACTORS
330
267
102
}
330
267
100
AcDbVisualStyle
  2
Gouraud
 70
     2
 71
     2
 72
     2
 73
     1
 90
        2
 40
-0.6
 41
30.0
 62
     5
 63
     7
421
 16777215
 74
     0
 91
        4
 64
     7
 65
   257
 75
     1
175
     1
 42
1.0
 92
        0
 66
     7
 43
1.0
 76
     1
 77
     6
 78
     2
 67
     7
 79
     5
170
     0
171
     0
290
     0
174
     0
 93
       13
 44
0.0
173
     0
291
     1
 45
0.0
  0
VISUALSTYLE
  5
26B
102
{ACAD_REACTORS
330
267
102
}
330
267
100
AcDbVisualStyle
  2
GouraudWithEdges
 70
     3
 71
     2
 72
     2
 73
     1
 90
        2
 40
-0.6
 41
30.0
 62
     5
 63
     7
421
 16777215
 74
     1
 91
        4
 64
     7
 65
   257
 75
     1
175
     1
 42
1.0
 92
        0
 66
   257
 43
1.0
 76
     1
 77
     6
 78
     2
 67
     7
 79
     5
170
     0
171
     0
290
     0
174
     0
 93
       13
 44
0.0
173
     0
291
     1
 45
0.0
  0
VISUALSTYLE
  5
8FB
102
{ACAD_REACTORS
330
267
102
}
330
267
100
AcDbVisualStyle
  2
Hidden
 70
     6
 71
     1
 72
     2
 73
     2
 90
        0
 40
0.6
 41
30.0
 62
     5
 63
     7
421
 16777215
 74
     2
 91
        2
 64
     7
 65
   257
 75
     2
175
     1
 42
40.0
 92
        0
 66
   257
 43
1.0
 76
     1
 77
     6
 78
     2
 67
     7
 79
     3
170
     0
171
     0
290
     0
174
     0
 93
        1
 44
0.0
173
     0
291
     0
 45
0.0
  0
VISUALSTYLE
  5
8FC
102
{ACAD_REACTORS
330
267
102
}
330
267
100
AcDbVisualStyle
  2
JitterOff
 70
    20
 71
     2
 72
     2
 73
     0
 90
        0
 40
0.6
 41
30.0
 62
     5
 63
     7
421
 16777215
 74
     1
 91
        4
 64
     7
 65
   257
 75
     1
175
     1
 42
1.0
 92
       10
 66
     7
 43
1.0
 76
     1
 77
     6
 78
     2
 67
     7
 79
     5
170
     0
171
     0
290
     0
174
     0
 93
        1
 44
0.0
173
     0
291
     1
 45
0.0
  0
VISUALSTYLE
  5
275
102
{ACAD_REACTORS
330
267
102
}
330
267
100
AcDbVisualStyle
  2
Linepattern
 70
    14
 71
     2
 72
     2
 73
     0
 90
        0
 40
-0.6
 41
-30.0
 62
     5
 63
     7
421
 16777215
 74
     1
 91
        4
 64
     7
 65
   257
 75
     7
175
     7
 42
1.0
 92
        8
 66
     7
 43
1.0
 76
     1
 77
     6
 78
     2
 67
     7
 79
     5
170
     0
171
     0
290
     0
174
     0
 93
        1
 44
0.0
173
     0
291
     1
 45
0.0
  0
VISUALSTYLE
  5
8FD
102
{ACAD_REACTORS
330
267
102
}
330
267
100
AcDbVisualStyle
  2
OverhangOff
 70
    21
 71
     2
 72
     2
 73
     0
 90
        0
 40
0.6
 41
30.0
 62
     5
 63
     7
421
 16777215
 74
     1
 91
        4
 64
     7
 65
   257
 75
     1
175
     1
 42
1.0
 92
        9
 66
     7
 43
1.0
 76
     1
 77
     6
 78
     2
 67
     7
 79
     5
170
     0
171
     0
290
     0
174
     0
 93
        1
 44
0.0
173
     0
291
     1
 45
0.0
  0
VISUALSTYLE
  5
270
102
{ACAD_REACTORS
330
267
102
}
330
267
100
AcDbVisualStyle
  2
Realistic
 70
     8
 71
     2
 72
     2
 73
     0
 90
        0
 40
-0.6
 41
-30.0
 62
     5
 63
     7
421
 16777215
 74
     1
 91
        0
 64
     7
 65
   257
 75
     1
175
     1
 42
1.0
 92
        8
 66
     8
424
  7895160
 43
1.0
 76
     1
 77
     6
 78
     2
 67
     7
 79
     5
170
     0
171
     0
290
     0
174
     0
 93
       13
 44
0.0
173
     0
291
     0
 45
0.0
  0
VISUALSTYLE
  5
903
102
{ACAD_REACTORS
330
267
102
}
330
267
100
AcDbVisualStyle
  2
Shaded
 70
    27
 71
     2
 72
     2
 73
     1
 90
        2
 40
0.6
 41
30.0
 62
     5
 63
     7
421
 16777215
 74
     0
 91
        4
 64
     7
 65
   257
 75
     1
175
     1
 42
1.0
 92
        8
 66
   257
 43
1.0
 76
     1
 77
     6
 78
     2
 67
     8
425
  7895160
 79
     3
170
     0
171
     0
290
     0
174
     0
 93
        5
 44
0.0
173
     0
291
     0
 45
0.0
  0
VISUALSTYLE
  5
902
102
{ACAD_REACTORS
330
267
102
}
330
267
100
AcDbVisualStyle
  2
Shaded with edges
 70
    26
 71
     2
 72
     2
 73
     1
 90
        2
 40
0.6
 41
30.0
 62
     5
 63
     7
421
 16777215
 74
     1
 91
       10
 64
     7
 65
   257
 75
     2
175
     1
 42
1.0
 92
        8
 66
   257
 43
1.0
 76
     1
 77
     6
 78
     2
 67
     7
 79
     3
170
     0
171
     0
290
     0
174
     0
 93
        5
 44
0.0
173
     0
291
     0
 45
0.0
  0
VISUALSTYLE
  5
8FF
102
{ACAD_REACTORS
330
267
102
}
330
267
100
AcDbVisualStyle
  2
Shades of Gray
 70
    23
 71
     2
 72
     2
 73
     3
 90
        0
 40
0.6
 41
30.0
 62
     5
 63
     7
421
 16777215
 74
     2
 91
        2
 64
     7
 65
     7
 75
     1
175
     1
 42
40.0
 92
        8
 66
     7
 43
1.0
 76
     1
 77
     6
 78
     2
 67
     7
 79
     3
170
     0
171
     0
290
     0
174
     0
 93
        1
 44
0.0
173
     0
291
     0
 45
0.0
  0
VISUALSTYLE
  5
900
102
{ACAD_REACTORS
330
267
102
}
330
267
100
AcDbVisualStyle
  2
Sketchy
 70
    24
 71
     1
 72
     2
 73
     2
 90
        0
 40
0.6
 41
30.0
 62
     5
 63
     7
421
 16777215
 74
     2
 91
        2
 64
     7
 65
     7
 75
     1
175
     1
 42
40.0
 92
       11
 66
     7
 43
1.0
 76
     1
 77
     6
 78
     2
 67
     7
 79
     6
170
     0
171
     0
290
     0
174
     0
 93
        1
 44
0.0
173
     0
291
     0
 45
0.0
  0
VISUALSTYLE
  5
274
102
{ACAD_REACTORS
330
267
102
}
330
267
100
AcDbVisualStyle
  2
Thicken
 70
    13
 71
     2
 72
     2
 73
     0
 90
        0
 40
-0.6
 41
-30.0
 62
     5
 63
     7
421
 16777215
 74
     1
 91
        4
 64
     7
 65
   257
 75
     1
175
     1
 42
1.0
 92
       12
 66
     7
 43
1.0
 76
     1
 77
     6
 78
     2
 67
     7
 79
     5
170
     0
171
     0
290
     0
174
     0
 93
        1
 44
0.0
173
     0
291
     1
 45
0.0
  0
VISUALSTYLE
  5
8FA
102
{ACAD_REACTORS
330
267
102
}
330
267
100
AcDbVisualStyle
  2
Wireframe
 70
     5
 71
     0
 72
     2
 73
     0
 90
        0
 40
0.6
 41
30.0
 62
     5
 63
     7
421
 16777215
 74
     1
 91
        4
 64
     7
 65
   257
 75
     1
175
     1
 42
1.0
 92
        0
 66
   257
 43
1.0
 76
     1
 77
     6
 78
     2
 67
     7
 79
     3
170
     0
171
     0
290
     0
174
     0
 93
        1
 44
0.0
173
     0
291
     0
 45
0.0
  0
VISUALSTYLE
  5
901
102
{ACAD_REACTORS
330
267
102
}
330
267
100
AcDbVisualStyle
  2
X-Ray
 70
    25
 71
     2
 72
     2
 73
     1
 90
        1
 40
0.5
 41
30.0
 62
     5
 63
     7
421
 16777215
 74
     1
 91
        0
 64
     7
 65
   257
 75
     1
175
     1
 42
1.0
 92
        8
 66
     7
 43
1.0
 76
     1
 77
     6
 78
     2
 67
     7
 79
     3
170
     0
171
     0
290
     0
174
     0
 93
       13
 44
0.0
173
     0
291
     0
 45
0.0
  0
DICTIONARYVAR
  5
331
102
{ACAD_REACTORS
330
330
102
}
330
330
100
DictionaryVariables
280
     0
  1
1:1
  0
DICTIONARYVAR
  5
D5E
102
{ACAD_REACTORS
330
330
102
}
330
330
100
DictionaryVariables
280
     0
  1
Standard
  0
DICTIONARYVAR
  5
335
102
{ACAD_REACTORS
330
330
102
}
330
330
100
DictionaryVariables
280
     0
  1
Standard
  0
DICTIONARYVAR
  5
D52
102
{ACAD_REACTORS
330
330
102
}
330
330
100
DictionaryVariables
280
     0
  1
ByLayer
  0
DICTIONARYVAR
  5
896
102
{ACAD_REACTORS
330
330
102
}
330
330
100
DictionaryVariables
280
     0
  1
0
  0
DICTIONARYVAR
  5
36AB
102
{ACAD_REACTORS
330
366B
102
}
330
366B
100
DictionaryVariables
280
     0
  1
0.250000
  0
DICTIONARYVAR
  5
36A9
102
{ACAD_REACTORS
330
E38
102
}
330
E38
100
DictionaryVariables
280
     0
  1
0.261799
  0
DICTIONARYVAR
  5
36A7
102
{ACAD_REACTORS
330
E38
102
}
330
E38
100
DictionaryVariables
280
     0
  1
0.400000
  0
DICTIONARYVAR
  5
36A8
102
{ACAD_REACTORS
330
E38
102
}
330
E38
100
DictionaryVariables
280
     0
  1
0.250000
  0
DICTIONARYVAR
  5
36AA
102
{ACAD_REACTORS
330
E38
102
}
330
E38
100
DictionaryVariables
280
     0
  1
1
  0
FIELD
  5
36AD
102
{ACAD_REACTORS
330
17726
330
17752
330
17753
102
}
330
17753
100
AcDbField
  1
_text
  2
{%<\_FldIdx 0>%M}
 90
        1
360
36B1
 97
        0
 91
       63
 92
        0
 94
       11
 95
        2
 96
        0
300

 93
        1
  6
ACFD_FIELDTEXT_CHECKSUM
 93
        2
 90
        2
140
4559.0
 94
        0
300

302

304
ACVALUE_END
  7
ACFD_FIELD_VALUE
 93
        6
 90
        4
  1
{20230919M}
 94
        0
300

302

304
ACVALUE_END
301
{20230919M}
 98
       11
  0
DICTIONARY
  5
17757
330
279
100
AcDbDictionary
280
     1
281
     1
  3
ACAD_ROUNDTRIP_2008_TABLESTYLE_CELLSTYLEMAP
360
17758
  0
FIELD
  5
36B1
330
36AD
100
AcDbField
  1
AcVar
  2
\AcVar Date \f "yyyyMMdd"
 90
        0
 97
        0
 91
       63
 92
        0
 94
        8
 95
       64
 96
        0
300
Variable not supported
 93
        1
  6
Variable
 93
        2
 90
        4
  1
Date
 94
        0
300

302

304
ACVALUE_END
  7
ACFD_FIELD_VALUE
 93
        6
 90
        8
 92
       16
310
E70709000000130007003B001E000000
 94
        0
300
yyyyMMdd
302

304
ACVALUE_END
301
20230919
 98
        8
  0
CELLSTYLEMAP
  5
17758
102
{ACAD_REACTORS
330
17757
102
}
330
17757
100
AcDbCellStyleMap
 90
        3
300
CELLSTYLE
  1
TABLEFORMAT_BEGIN
 90
        5
170
     1
 91
        0
 92
    32768
 62
   257
 93
        1
300
CONTENTFORMAT
  1
CONTENTFORMAT_BEGIN
 90
        0
 91
        0
 92
        4
 93
        0
300

 40
0.0
140
1.0
 94
        5
 62
     0
340
17
144
6.0
309
CONTENTFORMAT_END
171
     1
301
MARGIN
  1
CELLMARGIN_BEGIN
 40
0.06
 40
0.06
 40
0.06
 40
0.06
 40
0.18
 40
0.18
309
CELLMARGIN_END
 94
        6
 95
        1
302
GRIDFORMAT
  1
GRIDFORMAT_BEGIN
 90
        0
 91
        1
 62
     0
 92
       -2
340
0
 93
        0
 40
0.045
309
GRIDFORMAT_END
 95
        2
302
GRIDFORMAT
  1
GRIDFORMAT_BEGIN
 90
        0
 91
        1
 62
     0
 92
       -2
340
0
 93
        0
 40
0.045
309
GRIDFORMAT_END
 95
        4
302
GRIDFORMAT
  1
GRIDFORMAT_BEGIN
 90
        0
 91
        1
 62
     0
 92
       -2
340
0
 93
        0
 40
0.045
309
GRIDFORMAT_END
 95
        8
302
GRIDFORMAT
  1
GRIDFORMAT_BEGIN
 90
        0
 91
        1
 62
     0
 92
       -2
340
0
 93
        0
 40
0.045
309
GRIDFORMAT_END
 95
       16
302
GRIDFORMAT
  1
GRIDFORMAT_BEGIN
 90
        0
 91
        1
 62
     0
 92
       -2
340
0
 93
        0
 40
0.045
309
GRIDFORMAT_END
 95
       32
302
GRIDFORMAT
  1
GRIDFORMAT_BEGIN
 90
        0
 91
        1
 62
     0
 92
       -2
340
0
 93
        0
 40
0.045
309
GRIDFORMAT_END
309
TABLEFORMAT_END
  1
CELLSTYLE_BEGIN
 90
        1
 91
        1
300
_TITLE
309
CELLSTYLE_END
300
CELLSTYLE
  1
TABLEFORMAT_BEGIN
 90
        5
170
     1
 91
        0
 92
        0
 62
   257
 93
        1
300
CONTENTFORMAT
  1
CONTENTFORMAT_BEGIN
 90
        0
 91
        0
 92
        4
 93
        0
300

 40
0.0
140
1.0
 94
        5
 62
     0
340
17
144
4.5
309
CONTENTFORMAT_END
171
     1
301
MARGIN
  1
CELLMARGIN_BEGIN
 40
0.06
 40
0.06
 40
0.06
 40
0.06
 40
0.18
 40
0.18
309
CELLMARGIN_END
 94
        6
 95
        1
302
GRIDFORMAT
  1
GRIDFORMAT_BEGIN
 90
        0
 91
        1
 62
     0
 92
       -2
340
0
 93
        0
 40
0.045
309
GRIDFORMAT_END
 95
        2
302
GRIDFORMAT
  1
GRIDFORMAT_BEGIN
 90
        0
 91
        1
 62
     0
 92
       -2
340
0
 93
        0
 40
0.045
309
GRIDFORMAT_END
 95
        4
302
GRIDFORMAT
  1
GRIDFORMAT_BEGIN
 90
        0
 91
        1
 62
     0
 92
       -2
340
0
 93
        0
 40
0.045
309
GRIDFORMAT_END
 95
        8
302
GRIDFORMAT
  1
GRIDFORMAT_BEGIN
 90
        0
 91
        1
 62
     0
 92
       -2
340
0
 93
        0
 40
0.045
309
GRIDFORMAT_END
 95
       16
302
GRIDFORMAT
  1
GRIDFORMAT_BEGIN
 90
        0
 91
        1
 62
     0
 92
       -2
340
0
 93
        0
 40
0.045
309
GRIDFORMAT_END
 95
       32
302
GRIDFORMAT
  1
GRIDFORMAT_BEGIN
 90
        0
 91
        1
 62
     0
 92
       -2
340
0
 93
        0
 40
0.045
309
GRIDFORMAT_END
309
TABLEFORMAT_END
  1
CELLSTYLE_BEGIN
 90
        2
 91
        1
300
_HEADER
309
CELLSTYLE_END
300
CELLSTYLE
  1
TABLEFORMAT_BEGIN
 90
        5
170
     1
 91
        0
 92
        0
 62
   257
 93
        1
300
CONTENTFORMAT
  1
CONTENTFORMAT_BEGIN
 90
        0
 91
        0
 92
        4
 93
        0
300

 40
0.0
140
1.0
 94
        2
 62
     0
340
17
144
4.5
309
CONTENTFORMAT_END
171
     1
301
MARGIN
  1
CELLMARGIN_BEGIN
 40
0.06
 40
0.06
 40
0.06
 40
0.06
 40
0.18
 40
0.18
309
CELLMARGIN_END
 94
        6
 95
        1
302
GRIDFORMAT
  1
GRIDFORMAT_BEGIN
 90
        0
 91
        1
 62
     0
 92
       -2
340
0
 93
        0
 40
0.045
309
GRIDFORMAT_END
 95
        2
302
GRIDFORMAT
  1
GRIDFORMAT_BEGIN
 90
        0
 91
        1
 62
     0
 92
       -2
340
0
 93
        0
 40
0.045
309
GRIDFORMAT_END
 95
        4
302
GRIDFORMAT
  1
GRIDFORMAT_BEGIN
 90
        0
 91
        1
 62
     0
 92
       -2
340
0
 93
        0
 40
0.045
309
GRIDFORMAT_END
 95
        8
302
GRIDFORMAT
  1
GRIDFORMAT_BEGIN
 90
        0
 91
        1
 62
     0
 92
       -2
340
0
 93
        0
 40
0.045
309
GRIDFORMAT_END
 95
       16
302
GRIDFORMAT
  1
GRIDFORMAT_BEGIN
 90
        0
 91
        1
 62
     0
 92
       -2
340
0
 93
        0
 40
0.045
309
GRIDFORMAT_END
 95
       32
302
GRIDFORMAT
  1
GRIDFORMAT_BEGIN
 90
        0
 91
        1
 62
     0
 92
       -2
340
0
 93
        0
 40
0.045
309
GRIDFORMAT_END
309
TABLEFORMAT_END
  1
CELLSTYLE_BEGIN
 90
        3
 91
        2
300
_DATA
309
CELLSTYLE_END
  0
ENDSEC
  0
EOF
