  0
SECTION
  2
HEADER
  9
$ACADVER
  1
AC1021
  9
$ACADMAINTVER
 70
    25
  9
$DWGCODEPAGE
  3
ANSI_932
  9
$LASTSAVEDBY
  1
Shimosaki
  9
$INSBASE
 10
0.0
 20
0.0
 30
0.0
  9
$EXTMIN
 10
74.99999999952001
 20
72.90233526259723
 30
0.0
  9
$EXTMAX
 10
2025.0
 20
2906.256860444454
 30
0.0
  9
$LIMMIN
 10
0.0
 20
0.0
  9
$LIMMAX
 10
2100.0
 20
2970.000000000001
  9
$ORTHOMODE
 70
     0
  9
$REGENMODE
 70
     1
  9
$FILLMODE
 70
     1
  9
$QTEXTMODE
 70
     0
  9
$MIRRTEXT
 70
     1
  9
$LTSCALE
 40
25.4
  9
$ATTMODE
 70
     1
  9
$TEXTSIZE
 40
0.0
  9
$TRACEWID
 40
1.0
  9
$TEXTSTYLE
  7
Standard
  9
$CLAYER
  8
template
  9
$CELTYPE
  6
Continuous
  9
$CECOLOR
 62
   256
  9
$CELTSCALE
 40
1.0
  9
$DISPSILH
 70
     0
  9
$DIMSCALE
 40
1.0
  9
$DIMASZ
 40
31.75
  9
$DIMEXO
 40
0.0
  9
$DIMDLI
 40
6.99999999999994
  9
$DIMRND
 40
0.0
  9
$DIMDLE
 40
0.0
  9
$DIMEXE
 40
19.9999999999962
  9
$DIMTP
 40
0.0
  9
$DIMTM
 40
0.0
  9
$DIMTXT
 40
24.4326171875
  9
$DIMCEN
 40
0.0
  9
$DIMTSZ
 40
0.0
  9
$DIMTOL
 70
     0
  9
$DIMLIM
 70
     0
  9
$DIMTIH
 70
     0
  9
$DIMTOH
 70
     0
  9
$DIMSE1
 70
     0
  9
$DIMSE2
 70
     0
  9
$DIMTAD
 70
     1
  9
$DIMZIN
 70
    11
  9
$DIMBLK
  1
VW_FILLEDARROW
  9
$DIMASO
 70
     1
  9
$DIMSHO
 70
     1
  9
$DIMPOST
  1
<>
  9
$DIMAPOST
  1
[]
  9
$DIMALT
 70
     0
  9
$DIMALTD
 70
     1
  9
$DIMALTF
 40
1.0
  9
$DIMLFAC
 40
1.0
  9
$DIMTOFL
 70
     0
  9
$DIMTVP
 40
0.0
  9
$DIMTIX
 70
     1
  9
$DIMSOXD
 70
     0
  9
$DIMSAH
 70
     0
  9
$DIMBLK1
  1

  9
$DIMBLK2
  1

  9
$DIMSTYLE
  2
JIS
  9
$DIMCLRD
 70
     0
  9
$DIMCLRE
 70
     0
  9
$DIMCLRT
 70
     0
  9
$DIMTFAC
 40
1.0
  9
$DIMGAP
 40
1.00000000000108
  9
$DIMJUST
 70
     0
  9
$DIMSD1
 70
     0
  9
$DIMSD2
 70
     0
  9
$DIMTOLJ
 70
     1
  9
$DIMTZIN
 70
    11
  9
$DIMALTZ
 70
    11
  9
$DIMALTTZ
 70
    11
  9
$DIMUPT
 70
     0
  9
$DIMDEC
 70
     1
  9
$DIMTDEC
 70
     1
  9
$DIMALTU
 70
     2
  9
$DIMALTTD
 70
     2
  9
$DIMTXSTY
  7
ＭＳ ゴシック
  9
$DIMAUNIT
 70
     0
  9
$DIMADEC
 70
     2
  9
$DIMALTRND
 40
0.0
  9
$DIMAZIN
 70
     0
  9
$DIMDSEP
 70
    46
  9
$DIMATFIT
 70
     0
  9
$DIMFRAC
 70
     2
  9
$DIMLDRBLK
  1

  9
$DIMLUNIT
 70
     2
  9
$DIMLWD
 70
    -2
  9
$DIMLWE
 70
    -2
  9
$DIMTMOVE
 70
     0
  9
$DIMFXL
 40
1.0
  9
$DIMFXLON
 70
     0
  9
$DIMJOGANG
 40
0.7853981633974483
  9
$DIMTFILL
 70
     0
  9
$DIMTFILLCLR
 70
     0
  9
$DIMARCSYM
 70
     0
  9
$DIMLTYPE
  6

  9
$DIMLTEX1
  6

  9
$DIMLTEX2
  6

  9
$LUNITS
 70
     2
  9
$LUPREC
 70
     4
  9
$SKETCHINC
 40
0.1
  9
$FILLETRAD
 40
0.0
  9
$AUNITS
 70
     0
  9
$AUPREC
 70
     0
  9
$MENU
  1
acad
  9
$ELEVATION
 40
0.0
  9
$PELEVATION
 40
0.0
  9
$THICKNESS
 40
0.0
  9
$LIMCHECK
 70
     0
  9
$CHAMFERA
 40
0.0
  9
$CHAMFERB
 40
0.0
  9
$CHAMFERC
 40
0.0
  9
$CHAMFERD
 40
0.0
  9
$SKPOLY
 70
     0
  9
$TDCREATE
 40
2447893.375
  9
$TDUCREATE
 40
0.0
  9
$TDUPDATE
 40
2458113.473153981
  9
$TDUUPDATE
 40
2458113.098153981
  9
$TDINDWG
 40
0.0018628819
  9
$TDUSRTIMER
 40
2458113.096291122
  9
$USRTIMER
 70
     1
  9
$ANGBASE
 50
0.0
  9
$ANGDIR
 70
     0
  9
$PDMODE
 70
     1
  9
$PDSIZE
 40
-2.0
  9
$PLINEWID
 40
0.0
  9
$SPLFRAME
 70
     0
  9
$SPLINETYPE
 70
     6
  9
$SPLINESEGS
 70
     8
  9
$HANDSEED
  5
295
  9
$SURFTAB1
 70
     6
  9
$SURFTAB2
 70
     6
  9
$SURFTYPE
 70
     6
  9
$SURFU
 70
     6
  9
$SURFV
 70
     6
  9
$UCSBASE
  2

  9
$UCSNAME
  2

  9
$UCSORG
 10
0.0
 20
0.0
 30
0.0
  9
$UCSXDIR
 10
1.0
 20
0.0
 30
0.0
  9
$UCSYDIR
 10
0.0
 20
1.0
 30
0.0
  9
$UCSORTHOREF
  2

  9
$UCSORTHOVIEW
 70
     0
  9
$UCSORGTOP
 10
0.0
 20
0.0
 30
0.0
  9
$UCSORGBOTTOM
 10
0.0
 20
0.0
 30
0.0
  9
$UCSORGLEFT
 10
0.0
 20
0.0
 30
0.0
  9
$UCSORGRIGHT
 10
0.0
 20
0.0
 30
0.0
  9
$UCSORGFRONT
 10
0.0
 20
0.0
 30
0.0
  9
$UCSORGBACK
 10
0.0
 20
0.0
 30
0.0
  9
$PUCSBASE
  2

  9
$PUCSNAME
  2

  9
$PUCSORG
 10
0.0
 20
0.0
 30
0.0
  9
$PUCSXDIR
 10
1.0
 20
0.0
 30
0.0
  9
$PUCSYDIR
 10
0.0
 20
1.0
 30
0.0
  9
$PUCSORTHOREF
  2

  9
$PUCSORTHOVIEW
 70
     0
  9
$PUCSORGTOP
 10
0.0
 20
0.0
 30
0.0
  9
$PUCSORGBOTTOM
 10
0.0
 20
0.0
 30
0.0
  9
$PUCSORGLEFT
 10
0.0
 20
0.0
 30
0.0
  9
$PUCSORGRIGHT
 10
0.0
 20
0.0
 30
0.0
  9
$PUCSORGFRONT
 10
0.0
 20
0.0
 30
0.0
  9
$PUCSORGBACK
 10
0.0
 20
0.0
 30
0.0
  9
$USERI1
 70
     0
  9
$USERI2
 70
     0
  9
$USERI3
 70
     0
  9
$USERI4
 70
     0
  9
$USERI5
 70
     0
  9
$USERR1
 40
0.0
  9
$USERR2
 40
0.0
  9
$USERR3
 40
0.0
  9
$USERR4
 40
0.0
  9
$USERR5
 40
0.0
  9
$WORLDVIEW
 70
     1
  9
$SHADEDGE
 70
     3
  9
$SHADEDIF
 70
    70
  9
$TILEMODE
 70
     1
  9
$MAXACTVP
 70
    64
  9
$PINSBASE
 10
0.0
 20
0.0
 30
0.0
  9
$PLIMCHECK
 70
     0
  9
$PEXTMIN
 10
1.000000000000000E+20
 20
1.000000000000000E+20
 30
1.000000000000000E+20
  9
$PEXTMAX
 10
-1.000000000000000E+20
 20
-1.000000000000000E+20
 30
-1.000000000000000E+20
  9
$PLIMMIN
 10
0.0
 20
0.0
  9
$PLIMMAX
 10
0.0
 20
0.0
  9
$UNITMODE
 70
     0
  9
$VISRETAIN
 70
     0
  9
$PLINEGEN
 70
     1
  9
$PSLTSCALE
 70
     0
  9
$TREEDEPTH
 70
  3020
  9
$CMLSTYLE
  2
Standard
  9
$CMLJUST
 70
     0
  9
$CMLSCALE
 40
1.0
  9
$PROXYGRAPHICS
 70
     0
  9
$MEASUREMENT
 70
     1
  9
$CELWEIGHT
370
     0
  9
$ENDCAPS
280
     0
  9
$JOINSTYLE
280
     0
  9
$LWDISPLAY
290
     1
  9
$INSUNITS
 70
     4
  9
$HYPERLINKBASE
  1

  9
$STYLESHEET
  1

  9
$XEDIT
290
     1
  9
$CEPSNTYPE
380
     0
  9
$PSTYLEMODE
290
     1
  9
$FINGERPRINTGUID
  2

  9
$VERSIONGUID
  2

  9
$EXTNAMES
290
     1
  9
$PSVPSCALE
 40
0.0
  9
$OLESTARTUP
290
     0
  9
$SORTENTS
280
   127
  9
$INDEXCTL
280
     0
  9
$HIDETEXT
280
     1
  9
$XCLIPFRAME
290
     0
  9
$HALOGAP
280
     0
  9
$OBSCOLOR
 70
   257
  9
$OBSLTYPE
280
     0
  9
$INTERSECTIONDISPLAY
280
     0
  9
$INTERSECTIONCOLOR
 70
   257
  9
$DIMASSOC
280
     2
  9
$PROJECTNAME
  1

  9
$CAMERADISPLAY
290
     0
  9
$LENSLENGTH
 40
50.0
  9
$CAMERAHEIGHT
 40
0.0
  9
$STEPSPERSEC
 40
2.0
  9
$STEPSIZE
 40
6.0
  9
$3DDWFPREC
 40
2.0
  9
$PSOLWIDTH
 40
0.25
  9
$PSOLHEIGHT
 40
4.0
  9
$LOFTANG1
 40
1.570796326794897
  9
$LOFTANG2
 40
1.570796326794897
  9
$LOFTMAG1
 40
0.0
  9
$LOFTMAG2
 40
0.0
  9
$LOFTPARAM
 70
     7
  9
$LOFTNORMALS
280
     1
  9
$LATITUDE
 40
37.795
  9
$LONGITUDE
 40
-122.394
  9
$NORTHDIRECTION
 40
0.0
  9
$TIMEZONE
 70
 -8000
  9
$LIGHTGLYPHDISPLAY
280
     1
  9
$TILEMODELIGHTSYNCH
280
     1
  9
$SOLIDHIST
280
     0
  9
$SHOWHIST
280
     1
  9
$DWFFRAME
280
     2
  9
$DGNFRAME
280
     2
  9
$REALWORLDSCALE
290
     1
  9
$INTERFERECOLOR
 62
   256
  9
$CSHADOW
280
     0
  9
$SHADOWPLANELOCATION
 40
0.0
  0
ENDSEC
  0
SECTION
  2
CLASSES
  0
CLASS
  1
LWPOLYLINE
  2
AcDbPolyline
  3
ObjectDBX Classes
 90
        0
 91
        1
280
     0
281
     1
  0
CLASS
  1
IMAGE
  2
AcDbRasterImage
  3
ISM
 90
      127
 91
        5
280
     0
281
     1
  0
CLASS
  1
OLE2FRAME
  2
AcDbOle2Frame
  3
ObjectDBX Classes
 90
        0
 91
        1
280
     0
281
     1
  0
CLASS
  1
HATCH
  2
AcDbHatch
  3
ObjectDBX Classes
 90
        0
 91
        1
280
     0
281
     1
  0
CLASS
  1
DICTIONARYVAR
  2
AcDbDictionaryVar
  3
ObjectDBX Classes
 90
        0
 91
        4
280
     0
281
     0
  0
CLASS
  1
RASTERVARIABLES
  2
AcDbRasterVariables
  3
ISM
 90
        0
 91
        4
280
     0
281
     0
  0
CLASS
  1
IMAGEDEF
  2
AcDbRasterImageDef
  3
ISM
 90
        0
 91
        4
280
     0
281
     0
  0
CLASS
  1
IMAGEDEF_REACTOR
  2
AcDbRasterImageDefReactor
  3
ISM
 90
        1
 91
        4
280
     0
281
     0
  0
CLASS
  1
IDBUFFER
  2
AcDbIdBuffer
  3
ObjectDBX Classes
 90
        0
 91
        4
280
     0
281
     0
  0
CLASS
  1
SPATIAL_FILTER
  2
AcDbSpatialFilter
  3
ObjectDBX Classes
 90
        0
 91
        4
280
     0
281
     0
  0
CLASS
  1
XRECORD
  2
AcDbXrecord
  3
ObjectDBX Classes
 90
        0
 91
        1
280
     0
281
     0
  0
CLASS
  1
SORTENTSTABLE
  2
AcDbSortentsTable
  3
ObjectDBX Classes
 90
        0
 91
        4
280
     0
281
     0
  0
CLASS
  1
LAYER_INDEX
  2
AcDbLayerIndex
  3
ObjectDBX Classes
 90
        0
 91
        4
280
     0
281
     0
  0
CLASS
  1
SPATIAL_INDEX
  2
AcDbSpatialIndex
  3
AutoCAD 2000
 90
        0
 91
        4
280
     0
281
     0
  0
CLASS
  1
OBJECT_PTR
  2
CAseDLPNTableRecord
  3
ASE-LPNTableRecord
 90
        1
 91
        4
280
     0
281
     0
  0
CLASS
  1
LAYOUT
  2
AcDbLayout
  3
ObjectDBX Classes
 90
        0
 91
        1
280
     0
281
     0
  0
CLASS
  1
PLOTSETTINGS
  2
AcDbPlotSettings
  3
ObjectDBX Classes
 90
        0
 91
        4
280
     0
281
     0
  0
CLASS
  1
ACDBDICTIONARYWDFLT
  2
AcDbDictionaryWithDefault
  3
ObjectDBX Classes
 90
        0
 91
        4
280
     0
281
     0
  0
CLASS
  1
ACDBPLACEHOLDER
  2
AcDbPlaceHolder
  3
ObjectDBX Classes
 90
        0
 91
        1
280
     0
281
     0
  0
CLASS
  1
SCALE
  2
AcDbScale
  3
ObjectDBX Classes
 90
     1153
 91
        4
280
     0
281
     0
  0
CLASS
  1
VISUALSTYLE
  2
AcDbVisualStyle
  3
ObjectDBX Classes
 90
     4095
 91
        4
280
     0
281
     0
  0
CLASS
  1
MATERIAL
  2
AcDbMaterial
  3
ObjectDBX Classes
 90
     1153
 91
        4
280
     0
281
     0
  0
CLASS
  1
TABLESTYLE
  2
AcDbTableStyle
  3
ObjectDBX Classes
 90
     4095
 91
        4
280
     0
281
     0
  0
CLASS
  1
MLEADERSTYLE
  2
AcDbMLeaderStyle
  3
ACDB_MLEADERSTYLE_CLASS
 90
     4095
 91
        4
280
     0
281
     0
  0
CLASS
  1
SUN
  2
AcDbSun
  3
SCENEOE
 90
     1153
 91
        4
280
     0
281
     0
  0
CLASS
  1
CELLSTYLEMAP
  2
AcDbCellStyleMap
  3
ObjectDBX Classes
 90
     1152
 91
        4
280
     0
281
     0
  0
ENDSEC
  0
SECTION
  2
TABLES
  0
TABLE
  2
VPORT
  5
7
330
0
100
AcDbSymbolTable
 70
     1
  0
VPORT
  5
15
330
7
100
AcDbSymbolTableRecord
100
AcDbViewportTableRecord
  2
*ACTIVE
 70
     0
 10
0.0
 20
0.0
 11
1.0
 21
1.0
 12
1077.958580935159
 22
1027.962999864352
 13
0.0
 23
0.0
 14
1.0
 24
1.0
 15
0.0
 25
0.0
 16
0.0
 26
0.0
 36
1.0
 17
0.0
 27
0.0
 37
0.0
 40
1452.811681337554
 41
2.396092362344583
 42
50.0
 43
0.0
 44
0.0
 50
0.0
 51
0.0
 71
    16
 72
  2000
 73
     1
 74
     1
 75
     0
 76
     0
 77
     0
 78
     0
281
     0
 65
     0
110
0.0
120
0.0
130
0.0
111
1.0
121
0.0
131
0.0
112
0.0
122
1.0
132
0.0
 79
     0
146
0.0
348
254
 60
     3
 61
     5
292
     1
282
     1
141
0.0
142
0.0
 63
   250
361
271
  0
ENDTAB
  0
TABLE
  2
LTYPE
  5
4
330
0
100
AcDbSymbolTable
 70
    14
  0
LTYPE
  5
11
330
4
100
AcDbSymbolTableRecord
100
AcDbLinetypeTableRecord
  2
ByBlock
 70
     0
  3

 72
    65
 73
     0
 40
0.0
  0
LTYPE
  5
12
330
4
100
AcDbSymbolTableRecord
100
AcDbLinetypeTableRecord
  2
ByLayer
 70
     0
  3

 72
    65
 73
     0
 40
0.0
  0
LTYPE
  5
13
330
4
100
AcDbSymbolTableRecord
100
AcDbLinetypeTableRecord
  2
Continuous
 70
     0
  3
Solid line
 72
    65
 73
     0
 40
0.0
  0
LTYPE
  5
3D
330
4
100
AcDbSymbolTableRecord
100
AcDbLinetypeTableRecord
  2
STYLE_01
 70
     0
  3

 72
    65
 73
     2
 40
0.5905511811023623
 49
0.4724409448818898
 74
     0
 49
-0.1181102362204724
 74
     0
  0
LTYPE
  5
3E
330
4
100
AcDbSymbolTableRecord
100
AcDbLinetypeTableRecord
  2
STYLE_02
 70
     0
  3

 72
    65
 73
     2
 40
0.7500000000000001
 49
0.5
 74
     0
 49
-0.2500000000000001
 74
     0
  0
LTYPE
  5
3F
330
4
100
AcDbSymbolTableRecord
100
AcDbLinetypeTableRecord
  2
STYLE_03
 70
     0
  3

 72
    65
 73
     4
 40
0.078740157480315
 49
0.0492125984251968
 74
     0
 49
-0.0098425196850394
 74
     0
 49
0.0098425196850394
 74
     0
 49
-0.0098425196850394
 74
     0
  0
LTYPE
  5
40
330
4
100
AcDbSymbolTableRecord
100
AcDbLinetypeTableRecord
  2
STYLE_04
 70
     0
  3

 72
    65
 73
     4
 40
2.0
 49
1.25
 74
     0
 49
-0.2499999999999999
 74
     0
 49
0.2499999999999999
 74
     0
 49
-0.2499999999999999
 74
     0
  0
LTYPE
  5
41
330
4
100
AcDbSymbolTableRecord
100
AcDbLinetypeTableRecord
  2
STYLE_05
 70
     0
  3

 72
    65
 73
     2
 40
0.41656
 49
0.13885
 74
     0
 49
-0.27771
 74
     0
  0
LTYPE
  5
42
330
4
100
AcDbSymbolTableRecord
100
AcDbLinetypeTableRecord
  2
STYLE_06
 70
     0
  3

 72
    65
 73
     4
 40
2.08328
 49
1.25
 74
     0
 49
-0.41656
 74
     0
 49
0.1388600000000001
 74
     0
 49
-0.2778600000000001
 74
     0
  0
LTYPE
  5
43
330
4
100
AcDbSymbolTableRecord
100
AcDbLinetypeTableRecord
  2
STYLE_07
 70
     0
  3

 72
    65
 73
     6
 40
3.75
 49
1.25
 74
     0
 49
-0.41656
 74
     0
 49
1.25
 74
     0
 49
-0.4167199999999999
 74
     0
 49
0.1388600000000001
 74
     0
 49
-0.2778599999999998
 74
     0
  0
LTYPE
  5
44
330
4
100
AcDbSymbolTableRecord
100
AcDbLinetypeTableRecord
  2
STYLE_08
 70
     0
  3

 72
    65
 73
     6
 40
2.5
 49
1.25
 74
     0
 49
-0.41656
 74
     0
 49
0.1388600000000001
 74
     0
 49
-0.2778600000000001
 74
     0
 49
0.1388599999999998
 74
     0
 49
-0.2778600000000001
 74
     0
  0
LTYPE
  5
45
330
4
100
AcDbSymbolTableRecord
100
AcDbLinetypeTableRecord
  2
STYLE_09
 70
     0
  3

 72
    65
 73
     4
 40
10.0
 49
7.5
 74
     0
 49
-0.5555699999999997
 74
     0
 49
1.388860000000001
 74
     0
 49
-0.5555699999999997
 74
     0
  0
LTYPE
  5
46
330
4
100
AcDbSymbolTableRecord
100
AcDbLinetypeTableRecord
  2
STYLE_10
 70
     0
  3

 72
    65
 73
     6
 40
11.875
 49
7.5
 74
     0
 49
-0.5555699999999997
 74
     0
 49
1.388860000000001
 74
     0
 49
-0.5555699999999997
 74
     0
 49
1.25
 74
     0
 49
-0.625
 74
     0
  0
LTYPE
  5
47
330
4
100
AcDbSymbolTableRecord
100
AcDbLinetypeTableRecord
  2
STYLE_11
 70
     0
  3

 72
    65
 73
     2
 40
0.1388889763779528
 49
0.0694444881889764
 74
     0
 49
-0.0694444881889764
 74
     0
  0
LTYPE
  5
48
330
4
100
AcDbSymbolTableRecord
100
AcDbLinetypeTableRecord
  2
STYLE_12
 70
     0
  3

 72
    65
 73
     2
 40
0.3472222222222222
 49
0.2083333333333333
 74
     0
 49
-0.1388888888888889
 74
     0
  0
LTYPE
  5
49
330
4
100
AcDbSymbolTableRecord
100
AcDbLinetypeTableRecord
  2
STYLE_13
 70
     0
  3

 72
    65
 73
     2
 40
0.7874015748031495
 49
0.3937007874015748
 74
     0
 49
-0.3937007874015748
 74
     0
  0
ENDTAB
  0
TABLE
  2
LAYER
  5
2
330
0
100
AcDbSymbolTable
 70
     5
  0
LAYER
  5
14
330
2
100
AcDbSymbolTableRecord
100
AcDbLayerTableRecord
  2
0
 70
     0
 62
     7
  6
Continuous
370
    -3
390
1D
347
26B
  0
LAYER
  5
4A
330
2
100
AcDbSymbolTableRecord
100
AcDbLayerTableRecord
  2
Defpoints
 70
     0
 62
     7
  6
Continuous
290
     0
370
    -3
390
1D
347
26B
  0
LAYER
  5
4B
330
2
100
AcDbSymbolTableRecord
100
AcDbLayerTableRecord
  2
template
 70
     0
 62
     7
  6
Continuous
370
    -3
390
1D
347
26B
  0
LAYER
  5
4C
330
2
100
AcDbSymbolTableRecord
100
AcDbLayerTableRecord
  2
notes
 70
     0
 62
     7
  6
Continuous
370
    -3
390
1D
347
26B
  0
LAYER
  5
4D
330
2
100
AcDbSymbolTableRecord
100
AcDbLayerTableRecord
  2
ＡＲＪ70-0304
 70
     0
 62
     7
  6
Continuous
370
    -3
390
1D
347
26B
  0
ENDTAB
  0
TABLE
  2
STYLE
  5
3
330
0
100
AcDbSymbolTable
 70
     2
  0
STYLE
  5
17
330
3
100
AcDbSymbolTableRecord
100
AcDbTextStyleTableRecord
  2
Standard
 70
     0
 40
0.0
 41
1.0
 50
0.0
 71
     0
 42
0.0
  3
txt
  4
BIGFONT.SHX
  0
STYLE
  5
3C
330
3
100
AcDbSymbolTableRecord
100
AcDbTextStyleTableRecord
  2
ＭＳ ゴシック
 70
     0
 40
0.0
 41
1.0
 50
0.0
 71
     0
 42
0.0
  3
msgothic.ttc
  4
ＭＳ ゴシック
1001
ACAD
1000
ＭＳ ゴシック
1071
        0
  0
ENDTAB
  0
TABLE
  2
VIEW
  5
5
330
0
100
AcDbSymbolTable
 70
     0
  0
ENDTAB
  0
TABLE
  2
UCS
  5
6
330
0
100
AcDbSymbolTable
 70
     0
  0
ENDTAB
  0
TABLE
  2
APPID
  5
8
330
0
100
AcDbSymbolTable
 70
     2
  0
APPID
  5
16
330
8
100
AcDbSymbolTableRecord
100
AcDbRegAppTableRecord
  2
ACAD
 70
     0
  0
APPID
  5
28E
330
8
100
AcDbSymbolTableRecord
100
AcDbRegAppTableRecord
  2
ACAD_MLEADERVER
 70
     0
  0
ENDTAB
  0
TABLE
  2
DIMSTYLE
  5
9
330
0
100
AcDbSymbolTable
 70
     3
100
AcDbDimStyleTable
  0
DIMSTYLE
105
18
330
9
100
AcDbSymbolTableRecord
100
AcDbDimStyleTableRecord
  2
Standard
 70
     0
178
     0
340
17
  0
DIMSTYLE
105
56
330
9
100
AcDbSymbolTableRecord
100
AcDbDimStyleTableRecord
  2
tform線あり
 70
     0
  3
<>
  4
[]
 41
3.999755859375
 42
25.0
 43
0.9999999999999999
 44
0.0
 73
     0
 74
     0
 77
     1
 78
    11
140
24.4326171875
141
0.0
143
1.0
147
0.4999999999999999
171
     1
174
     1
178
     0
179
     2
271
     1
272
     1
276
     2
284
    11
285
    11
286
    11
289
     0
340
3C
341
4E
342
4E
  0
DIMSTYLE
105
5B
330
9
100
AcDbSymbolTableRecord
100
AcDbDimStyleTableRecord
  2
JIS
 70
     0
  3
<>
  4
[]
 41
31.75
 42
0.0
 43
6.99999999999994
 44
19.9999999999962
 73
     0
 74
     0
 77
     1
 78
    11
140
24.4326171875
141
0.0
143
1.0
147
1.00000000000108
171
     1
174
     1
178
     0
179
     2
271
     1
272
     1
276
     2
284
    11
285
    11
286
    11
289
     0
340
3C
341
57
342
57
  0
ENDTAB
  0
TABLE
  2
BLOCK_RECORD
  5
1
330
0
100
AcDbSymbolTable
 70
    29
  0
BLOCK_RECORD
  5
A
330
1
100
AcDbSymbolTableRecord
100
AcDbBlockTableRecord
  2
*MODEL_SPACE
340
20
 70
     0
280
     1
281
     0
  0
BLOCK_RECORD
  5
B
330
1
100
AcDbSymbolTableRecord
100
AcDbBlockTableRecord
  2
*PAPER_SPACE
340
21
 70
     0
280
     1
281
     0
  0
BLOCK_RECORD
  5
4E
330
1
100
AcDbSymbolTableRecord
100
AcDbBlockTableRecord
  2
_DOT
340
0
102
{BLKREFS
331
69
331
6A
331
75
331
76
331
82
331
83
331
94
331
95
331
A1
331
A2
331
AE
331
AF
331
BB
331
BC
331
C8
331
C9
331
D5
331
D6
331
E2
331
E3
331
EF
331
F0
331
FD
331
FE
331
27B
331
27C
331
117
331
118
331
287
331
12D
331
12E
331
13A
331
13B
331
147
331
148
331
154
331
155
331
161
331
162
331
16E
331
16F
331
17B
331
17C
331
188
331
189
102
}
 70
     0
280
     1
281
     0
  0
BLOCK_RECORD
  5
57
330
1
100
AcDbSymbolTableRecord
100
AcDbBlockTableRecord
  2
VW_FILLEDARROW
340
0
 70
     0
280
     1
281
     0
  0
BLOCK_RECORD
  5
23
330
1
100
AcDbSymbolTableRecord
100
AcDbBlockTableRecord
  2
グループ
340
0
102
{BLKREFS
331
19A
102
}
 70
     0
280
     1
281
     0
  0
BLOCK_RECORD
  5
24
330
1
100
AcDbSymbolTableRecord
100
AcDbBlockTableRecord
  2
*D3
340
0
 70
     0
280
     1
281
     0
  0
BLOCK_RECORD
  5
25
330
1
100
AcDbSymbolTableRecord
100
AcDbBlockTableRecord
  2
*D4
340
0
 70
     0
280
     1
281
     0
  0
BLOCK_RECORD
  5
26
330
1
100
AcDbSymbolTableRecord
100
AcDbBlockTableRecord
  2
*D5
340
0
 70
     0
280
     1
281
     0
  0
BLOCK_RECORD
  5
27
330
1
100
AcDbSymbolTableRecord
100
AcDbBlockTableRecord
  2
グループ-1
340
0
102
{BLKREFS
331
1B8
102
}
 70
     0
280
     1
281
     0
  0
BLOCK_RECORD
  5
28
330
1
100
AcDbSymbolTableRecord
100
AcDbBlockTableRecord
  2
*D7
340
0
 70
     0
280
     1
281
     0
  0
BLOCK_RECORD
  5
29
330
1
100
AcDbSymbolTableRecord
100
AcDbBlockTableRecord
  2
*D8
340
0
 70
     0
280
     1
281
     0
  0
BLOCK_RECORD
  5
2A
330
1
100
AcDbSymbolTableRecord
100
AcDbBlockTableRecord
  2
*D9
340
0
 70
     0
280
     1
281
     0
  0
BLOCK_RECORD
  5
2B
330
1
100
AcDbSymbolTableRecord
100
AcDbBlockTableRecord
  2
*D10
340
0
 70
     0
280
     1
281
     0
  0
BLOCK_RECORD
  5
2C
330
1
100
AcDbSymbolTableRecord
100
AcDbBlockTableRecord
  2
*D11
340
0
 70
     0
280
     1
281
     0
  0
BLOCK_RECORD
  5
2D
330
1
100
AcDbSymbolTableRecord
100
AcDbBlockTableRecord
  2
*D12
340
0
 70
     0
280
     1
281
     0
  0
BLOCK_RECORD
  5
2E
330
1
100
AcDbSymbolTableRecord
100
AcDbBlockTableRecord
  2
*D13
340
0
 70
     0
280
     1
281
     0
  0
BLOCK_RECORD
  5
2F
330
1
100
AcDbSymbolTableRecord
100
AcDbBlockTableRecord
  2
*D14
340
0
 70
     0
280
     1
281
     0
  0
BLOCK_RECORD
  5
30
330
1
100
AcDbSymbolTableRecord
100
AcDbBlockTableRecord
  2
*D15
340
0
 70
     0
280
     1
281
     0
  0
BLOCK_RECORD
  5
31
330
1
100
AcDbSymbolTableRecord
100
AcDbBlockTableRecord
  2
*D16
340
0
 70
     0
280
     1
281
     0
  0
BLOCK_RECORD
  5
32
330
1
100
AcDbSymbolTableRecord
100
AcDbBlockTableRecord
  2
*D17
340
0
 70
     0
280
     1
281
     0
  0
BLOCK_RECORD
  5
33
330
1
100
AcDbSymbolTableRecord
100
AcDbBlockTableRecord
  2
*D18
340
0
 70
     0
280
     1
281
     0
  0
BLOCK_RECORD
  5
34
330
1
100
AcDbSymbolTableRecord
100
AcDbBlockTableRecord
  2
*D19
340
0
 70
     0
280
     1
281
     0
  0
BLOCK_RECORD
  5
35
330
1
100
AcDbSymbolTableRecord
100
AcDbBlockTableRecord
  2
*D20
340
0
 70
     0
280
     1
281
     0
  0
BLOCK_RECORD
  5
36
330
1
100
AcDbSymbolTableRecord
100
AcDbBlockTableRecord
  2
*D21
340
0
 70
     0
280
     1
281
     0
  0
BLOCK_RECORD
  5
37
330
1
100
AcDbSymbolTableRecord
100
AcDbBlockTableRecord
  2
*D22
340
0
 70
     0
280
     1
281
     0
  0
BLOCK_RECORD
  5
38
330
1
100
AcDbSymbolTableRecord
100
AcDbBlockTableRecord
  2
*D23
340
0
 70
     0
280
     1
281
     0
  0
BLOCK_RECORD
  5
39
330
1
100
AcDbSymbolTableRecord
100
AcDbBlockTableRecord
  2
*D24
340
0
 70
     0
280
     1
281
     0
  0
BLOCK_RECORD
  5
3A
330
1
100
AcDbSymbolTableRecord
100
AcDbBlockTableRecord
  2
*D25
340
0
 70
     0
280
     1
281
     0
  0
BLOCK_RECORD
  5
3B
330
1
100
AcDbSymbolTableRecord
100
AcDbBlockTableRecord
  2
*D26
340
0
 70
     0
280
     1
281
     0
  0
BLOCK_RECORD
  5
275
330
1
100
AcDbSymbolTableRecord
100
AcDbBlockTableRecord
  2
*D27
340
0
 70
     0
280
     1
281
     0
  0
BLOCK_RECORD
  5
281
330
1
100
AcDbSymbolTableRecord
100
AcDbBlockTableRecord
  2
*D28
340
0
 70
     0
280
     1
281
     0
  0
ENDTAB
  0
ENDSEC
  0
SECTION
  2
BLOCKS
  0
BLOCK
  5
D
330
A
100
AcDbEntity
  8
0
390
1D
100
AcDbBlockBegin
  2
*MODEL_SPACE
 70
     0
 10
0.0
 20
0.0
 30
0.0
  3
*MODEL_SPACE
  1
*MODEL_SPACE
  0
ENDBLK
  5
E
330
A
100
AcDbEntity
  8
0
390
1D
100
AcDbBlockEnd
  0
BLOCK
  5
F
330
B
100
AcDbEntity
 67
     1
  8
0
390
1D
100
AcDbBlockBegin
  2
*PAPER_SPACE
 70
     0
 10
0.0
 20
0.0
 30
0.0
  3
*PAPER_SPACE
  1
*PAPER_SPACE
  0
ENDBLK
  5
10
330
B
100
AcDbEntity
 67
     1
  8
0
390
1D
100
AcDbBlockEnd
  0
BLOCK
  5
4F
330
4E
100
AcDbEntity
  8
0
390
1D
100
AcDbBlockBegin
  2
_DOT
 70
     0
 10
0.0
 20
0.0
 30
0.0
  3
_DOT
  1
_DOT
  0
POLYLINE
  5
50
330
4E
100
AcDbEntity
  8
0
  6
ByBlock
 62
     0
370
    -2
390
1D
100
AcDb2dPolyline
 66
     1
 10
0.0
 20
0.0
 30
0.0
 70
     1
 40
0.5
 41
0.5
  0
VERTEX
  5
51
330
50
100
AcDbEntity
  8
0
  6
ByBlock
 62
     0
370
    -2
390
1D
100
AcDbVertex
100
AcDb2dVertex
 10
-0.25
 20
0.0
 30
0.0
 42
1.0
  0
VERTEX
  5
52
330
50
100
AcDbEntity
  8
0
  6
ByBlock
 62
     0
370
    -2
390
1D
100
AcDbVertex
100
AcDb2dVertex
 10
0.25
 20
0.0
 30
0.0
 42
1.0
  0
SEQEND
  5
53
330
50
100
AcDbEntity
  8
0
390
1D
  0
LINE
  5
54
330
4E
100
AcDbEntity
  8
0
  6
ByBlock
 62
     0
370
    -2
390
1D
100
AcDbLine
 10
-0.5
 20
0.0
 30
0.0
 11
-1.0
 21
0.0
 31
0.0
  0
ENDBLK
  5
55
330
4E
100
AcDbEntity
  8
0
390
1D
100
AcDbBlockEnd
  0
BLOCK
  5
58
330
57
100
AcDbEntity
  8
0
  6
ByBlock
 62
     0
370
    -2
390
1D
100
AcDbBlockBegin
  2
VW_FILLEDARROW
 70
     0
 10
0.0
 20
0.0
 30
0.0
  3
VW_FILLEDARROW
  1
VW_FILLEDARROW
  0
SOLID
  5
59
330
57
100
AcDbEntity
  8
0
 62
     0
370
    -2
390
1D
100
AcDbTrace
 10
0.0
 20
0.0
 30
0.0
 11
-0.9921874999999999
 21
-0.2658558393652545
 31
0.0
 12
-0.9921874999999999
 22
0.2658558393652548
 32
0.0
 13
-0.9921874999999999
 23
0.2658558393652548
 33
0.0
  0
ENDBLK
  5
5A
330
57
100
AcDbEntity
  8
0
390
1D
100
AcDbBlockEnd
  0
BLOCK
  5
5C
330
23
100
AcDbEntity
  8
template
390
1D
100
AcDbBlockBegin
  2
グループ
 70
     0
 10
0.0
 20
0.0
 30
0.0
  3
グループ
  1
グループ
  0
LWPOLYLINE
  5
5D
330
23
100
AcDbEntity
  8
0
  6
Continuous
 62
     7
370
    15
390
1D
100
AcDbPolyline
 90
        8
 70
   129
 43
0.0
 10
-14889.27148963984
 20
136.2766629512553
 10
-14889.27148963984
 20
130.2792742576794
 10
-14898.77268655784
 20
130.2792742576794
 10
-14898.77268655784
 20
105.8283109941708
 10
-14907.12806381963
 20
105.8283109941708
 10
-14907.12806381963
 20
130.2792742576794
 10
-14916.46102076594
 20
130.2792742576794
 10
-14916.46102076594
 20
136.2766629512553
  0
LWPOLYLINE
  5
5E
330
23
100
AcDbEntity
  8
0
  6
Continuous
 62
     7
370
    15
390
1D
100
AcDbPolyline
 90
      101
 70
   128
 43
0.0
 10
-14876.54319780928
 20
135.5484144583188
 10
-14876.52784778049
 20
135.5527752150052
 42
-0.0222221607816773
 10
-14876.23784320383
 20
135.6213996802489
 10
-14876.22204943984
 20
135.6244031033443
 42
-0.0146883565612168
 10
-14875.95934673461
 20
135.6664062902951
 42
-0.0127458844177012
 10
-14875.69470776746
 20
135.6939432583669
 10
-14875.63225268914
 20
135.6988366809555
 42
-0.0198099018572598
 10
-14875.24140357967
 20
135.7139218383523
 10
-14875.18959211022
 20
135.7138680626872
 42
-0.0147617382766714
 10
-14874.69496864925
 20
135.6987480374424
 10
-14874.62227719438
 20
135.6943754305549
 42
-0.0162624548996327
 10
-14874.23212356491
 20
135.6581425552824
 10
-14874.11059117366
 20
135.642855996287
 42
-0.0080020874670959
 10
-14873.96501214256
 20
135.6221731490175
 10
-14873.92669267197
 20
135.6161018712076
 42
-0.0053821929727043
 10
-14873.85820856665
 20
135.6044943473848
 10
-14874.58461426585
 20
133.4235658916709
 42
0.0108667757363474
 10
-14874.65193133596
 20
133.4367530068876
 10
-14874.68939935917
 20
133.4432507494853
 42
0.0170663203293826
 10
-14874.83261614609
 20
133.4630803467777
 10
-14874.90049147877
 20
133.4701275173645
 42
0.0220162375255039
 10
-14875.18087088662
 20
133.4868098781347
 10
-14875.25872645367
 20
133.4880092454012
 42
0.0282606915766924
 10
-14875.59436277725
 20
133.4742059684322
 10
-14875.63827605102
 20
133.4699059784285
 42
0.0169677213715746
 10
-14875.88420054598
 20
133.4373689288766
 42
0.0190576269858494
 10
-14876.12710850857
 20
133.3872220567669
 10
-14876.13336769667
 20
133.3856790826608
 42
0.0213685642880587
 10
-14876.38375218117
 20
133.3124787975509
 10
-14876.38924207607
 20
133.3106158014969
 42
0.0237595297559914
 10
-14876.64273696095
 20
133.2109312796094
 10
-14876.64783903499
 20
133.2086395041231
 42
0.0261857468820002
 10
-14876.9000098112
 20
133.0791031667608
 10
-14876.9104360003
 20
133.0730376922888
 42
0.0272553061989948
 10
-14877.14686577555
 20
132.9176654863359
 10
-14877.18162878907
 20
132.8920043382377
 42
0.0325996893178083
 10
-14877.33178413271
 20
132.7652564652724
 10
-14877.35549356186
 20
132.7424384367332
 42
0.013805096068599
 10
-14877.44737671804
 20
132.648988775208
 42
0.0125280103778462
 10
-14877.53421925081
 20
132.550825448689
 10
-14877.55789969578
 20
132.5226669504204
 42
0.020521802482084
 10
-14877.68299977134
 20
132.3608736361348
 10
-14877.70546611179
 20
132.3292139063642
 42
0.016311012958498
 10
-14877.86117649104
 20
132.0938834712961
 10
-14877.86390038709
 20
132.0894597093088
 42
0.0131897341860984
 10
-14878.01070090797
 20
131.8363276169947
 10
-14878.01240100336
 20
131.8332093778088
 42
0.0107895576071478
 10
-14878.15017770559
 20
131.5669941681372
 10
-14878.1509105951
 20
131.5654999355272
 42
0.0091371507207685
 10
-14878.27939054375
 20
131.2909747377677
 10
-14878.30913617516
 20
131.2242682306087
 42
0.013541832636462
 10
-14878.48085011425
 20
130.8093304452851
 10
-14878.51445492268
 20
130.7214643030139
 42
0.0092834542431433
 10
-14878.68568398258
 20
130.2475658047533
 10
-14878.71130111026
 20
130.1723247350876
 42
0.0054261043581147
 10
-14878.81893925859
 20
129.8445607618949
 10
-14878.836465245
 20
129.78917259893
 42
0.0008225090827054
 10
-14878.9051352966
 20
129.5709038415157
 10
-14879.88982442853
 20
126.5460125482591
 10
-14876.65720058846
 20
126.5460125482591
 10
-14877.16139301831
 20
124.6415342499067
 10
-14880.4174493003
 20
124.6415342499067
 10
-14886.24659833265
 20
105.8283111839019
 10
-14888.07169594296
 20
105.8283111839019
 10
-14882.23701790746
 20
124.6415342499067
 10
-14884.6421342765
 20
124.6415342499067
 10
-14884.13794184665
 20
126.5460125482591
 10
-14881.7093930357
 20
126.5460125482591
 10
-14880.84923811751
 20
129.1824255489582
 42
-0.0005863560639375
 10
-14880.81250343921
 20
129.2992519695696
 10
-14880.73641560565
 20
129.5402442686354
 42
-0.0087522378922632
 10
-14880.53694746219
 20
130.1355203557852
 10
-14880.44468318676
 20
130.3956605243445
 42
-0.0077400953821882
 10
-14880.18674952764
 20
131.0886652018428
 10
-14880.17098455606
 20
131.1290960852481
 42
-0.0082369946322403
 10
-14879.92390008545
 20
131.7331751514246
 42
-0.0085725238376318
 10
-14879.65665398945
 20
132.3286011907011
 10
-14879.55502438844
 20
132.545022292698
 42
-0.0168109410598623
 10
-14879.26807995971
 20
133.1062298188012
 10
-14879.14223656929
 20
133.3331938517246
 42
-0.000781772686992
 10
-14879.0879522192
 20
133.4307380968296
 10
-14879.08782391324
 20
133.430967805464
 42
-0.0036626142169533
 10
-14879.03293604916
 20
133.5275656855347
 42
-0.0080221150643185
 10
-14878.97581179371
 20
133.6228449203499
 10
-14878.94511184239
 20
133.6722358694099
 42
-0.0202139325561909
 10
-14878.81745610257
 20
133.8602174701054
 10
-14878.7633886374
 20
133.9332963343322
 42
-0.0249323791789218
 10
-14878.50422584366
 20
134.249341576501
 10
-14878.48008602955
 20
134.275955849399
 42
-0.0242132121531235
 10
-14878.14040528801
 20
134.6158393356038
 10
-14878.09249371528
 20
134.6593484717645
 42
-0.0251017527841256
 10
-14877.80851201462
 20
134.8923412175538
 10
-14877.80706653779
 20
134.8934104751459
 42
-0.0130868069026903
 10
-14877.50880588785
 20
135.1021909436752
 10
-14877.50724406871
 20
135.1032243839454
 42
-0.0290329526407537
 10
-14877.19613292731
 20
135.2840498855794
 10
-14877.16628736532
 20
135.2991522684183
 42
-0.0160250190057801
 10
-14876.90038295156
 20
135.4231683786322
 42
-0.0267600374750737
 10
-14876.62510687407
 20
135.5239166991856
 10
-14876.59837095457
 20
135.5321092580066
 42
-0.0049981587554758
 10
-14876.54319780928
 20
135.5484144583188
 42
-0.0049981587554758
  0
LWPOLYLINE
  5
5F
330
23
100
AcDbEntity
  8
0
  6
Continuous
 62
     7
370
    15
390
1D
100
AcDbPolyline
 90
      118
 70
   128
 43
0.0
 10
-14856.72883024483
 20
126.472029220432
 10
-14854.85370832034
 20
126.472029220432
 10
-14855.69174722594
 20
123.7904626940317
 42
-0.0010587229429541
 10
-14855.66029141076
 20
123.8273672269235
 10
-14855.60209731973
 20
123.8953494835628
 42
-0.0071874740338375
 10
-14855.45172210154
 20
124.0659901756919
 10
-14855.30999932837
 20
124.2222263169051
 42
-0.0148118053494105
 10
-14854.85987003566
 20
124.6898401629142
 10
-14854.77264770075
 20
124.7752374837833
 42
-0.0086273358676128
 10
-14854.43709889975
 20
125.092613117788
 10
-14854.3932651835
 20
125.1326627621428
 42
-0.0103138323120336
 10
-14854.13524148129
 20
125.3588258994591
 10
-14854.0894670749
 20
125.3973079467724
 42
-0.0060206748535445
 10
-14853.91661901085
 20
125.5391025974739
 10
-14853.91458787993
 20
125.5407283031273
 42
-0.0067069027284829
 10
-14853.7422950653
 20
125.6748789369001
 10
-14853.73974629932
 20
125.6768091068151
 42
-0.0076184352044441
 10
-14853.5688410335
 20
125.8021839820192
 42
-0.0089652861620054
 10
-14853.39388007073
 20
125.9218172423771
 10
-14853.35752835058
 20
125.945728455863
 42
-0.0156916245872924
 10
-14853.16156885346
 20
126.0659909423093
 42
-0.0023299011134291
 10
-14852.96130680995
 20
126.1791688815876
 10
-14852.9459226771
 20
126.1877688769148
 42
-0.0107669341460552
 10
-14852.71168585196
 20
126.3121690102842
 10
-14852.68942105093
 20
126.3233857602143
 42
-0.0078058045874515
 10
-14852.40583093299
 20
126.460747215847
 10
-14852.39592384527
 20
126.4653563437212
 42
-0.0181829330518415
 10
-14852.08561444067
 20
126.5962200848084
 10
-14852.03155899811
 20
126.6167352047501
 42
-0.0208411536050823
 10
-14851.68247403063
 20
126.7328256672533
 10
-14851.66811793051
 20
126.736944112205
 42
-0.0222799817156297
 10
-14851.33939813659
 20
126.8155856783471
 10
-14851.33050917335
 20
126.8172976889317
 42
-0.0215509523889907
 10
-14851.01403820507
 20
126.8642133774667
 10
-14850.97155624402
 20
126.868650904258
 42
-0.0182545924929386
 10
-14850.73744746472
 20
126.8844947296484
 10
-14850.69804644838
 20
126.8857192747273
 42
-0.0072962856524003
 10
-14850.54212356868
 20
126.8882886032497
 10
-14850.51302389811
 20
126.8883434386536
 42
-0.0059227516359182
 10
-14850.41527439897
 20
126.8873697268632
 10
-14850.38603218146
 20
126.8867319602592
 42
-0.001183311167826
 10
-14850.34678089776
 20
126.8857829559497
 10
-14851.14216749337
 20
124.3470490108507
 42
0.0143932051487445
 10
-14851.16856887573
 20
124.3572479809003
 10
-14851.17584084814
 20
124.3598191997532
 42
0.0234388603492969
 10
-14851.21767171407
 20
124.3724384354704
 10
-14851.22635337698
 20
124.3746193974737
 42
0.0199162743025805
 10
-14851.28664221107
 20
124.3872361328101
 10
-14851.30745614886
 20
124.3907333322372
 42
0.0293643550688901
 10
-14851.41053100762
 20
124.4018833778902
 10
-14851.43521618835
 20
124.403094994909
 42
0.0214606686826608
 10
-14851.5883571043
 20
124.4040335553264
 10
-14851.59772901512
 20
124.4036886437823
 42
0.016756405419524
 10
-14851.76924920623
 20
124.3916116014139
 10
-14851.77770899898
 20
124.3907302609871
 42
0.0137677553297316
 10
-14851.96506231225
 20
124.3659809524433
 10
-14851.97241405176
 20
124.3648030324755
 42
0.0118497261460423
 10
-14852.17291181584
 20
124.3277856822904
 10
-14852.1790618231
 20
124.3264988195663
 42
0.0106421143918263
 10
-14852.38994271039
 20
124.2776664439913
 10
-14852.39485151878
 20
124.2764191013064
 42
0.0099746379705723
 10
-14852.61330998794
 20
124.2162445729906
 10
-14852.67485802811
 20
124.197962694361
 42
0.0191613675864824
 10
-14853.01084249065
 20
124.0839853140669
 10
-14853.09890226338
 20
124.0502984037451
 42
0.0205274080154066
 10
-14853.48420903527
 20
123.8844699959236
 10
-14853.54185831726
 20
123.8568020313484
 42
0.0181256912222962
 10
-14853.80013525792
 20
123.7211182123733
 10
-14853.85309064126
 20
123.6908005991445
 42
0.014070924246028
 10
-14853.99804557586
 20
123.6023059257241
 10
-14854.02429444446
 20
123.5852491070218
 42
0.0086667884419653
 10
-14854.11322060602
 20
123.5252464391258
 42
0.0036408191951888
 10
-14854.20065384412
 20
123.4630655812888
 10
-14854.23588071853
 20
123.4376246354207
 42
0.005226078124251
 10
-14854.39210941588
 20
123.3222922488126
 10
-14854.40831627218
 20
123.3100641381684
 42
0.0050024435916225
 10
-14854.59431961517
 20
123.1667815699578
 10
-14854.60963777175
 20
123.1547355474604
 42
0.0136138710326849
 10
-14854.82007904009
 20
122.9797690425366
 10
-14854.85374691587
 20
122.9501900698328
 42
0.0172815186936329
 10
-14855.11815045755
 20
122.7011933971885
 10
-14855.12071280337
 20
122.6986075800623
 42
0.0189403857996965
 10
-14855.37129460196
 20
122.4258023152539
 10
-14855.40392609549
 20
122.3874583837627
 42
0.0185044199500879
 10
-14855.59588253447
 20
122.1442098026378
 42
0.0088565243884938
 10
-14855.7743426411
 20
121.8906933824864
 10
-14855.78352062075
 20
121.8771520027276
 42
0.0157195347173614
 10
-14855.96674122706
 20
121.587629793455
 10
-14856.01282416898
 20
121.5094775964425
 42
0.0095451879751955
 10
-14856.17790971915
 20
121.2168829540346
 10
-14856.18905763807
 20
121.1962122819173
 42
0.0100351706271527
 10
-14856.32110138724
 20
120.939156721412
 42
0.0086935915407696
 10
-14856.44343253899
 20
120.6773235761118
 10
-14856.44675328045
 20
120.6698812530358
 42
0.0072580174848128
 10
-14856.56709973233
 20
120.3892892615948
 10
-14856.5703613657
 20
120.3813692354347
 42
0.0060005122624938
 10
-14856.689562034
 20
120.081759564928
 10
-14856.69277301238
 20
120.073398036925
 42
0.0049017786975387
 10
-14856.8116731712
 20
119.7544690564389
 10
-14856.81483897763
 20
119.7457161190903
 42
0.0039415167559818
 10
-14856.93427525561
 20
119.4071740569067
 10
-14856.93740635834
 20
119.3980708558008
 42
0.0031035838744439
 10
-14857.05821114398
 20
119.0396309941831
 10
-14857.06132118856
 20
119.0302103726526
 42
0.0025070747141609
 10
-14857.18422253998
 20
118.6515631553958
 10
-14857.2215164363
 20
118.5346714904558
 42
0.0029081910267035
 10
-14857.4135347341
 20
117.9205078322123
 10
-14857.45433790263
 20
117.7872845898883
 42
0.000926645372927
 10
-14857.72275527702
 20
116.9050601297346
 10
-14857.74364274963
 20
116.8359482506018
 42
-0.0005809993668816
 10
-14858.02097943018
 20
115.9221401440896
 10
-14858.08726122836
 20
115.7046552122369
 42
-0.0012018708181138
 10
-14858.23424553788
 20
115.2264925474092
 10
-14858.28656539011
 20
115.0577334044124
 42
-0.0002691059606135
 10
-14858.33013487062
 20
114.9174657862013
 10
-14861.16309076891
 20
105.8283111839019
 10
-14862.98107966088
 20
105.8283111839019
 10
-14856.72883024483
 20
126.472029220432
  0
SPLINE
  5
60
330
23
100
AcDbEntity
  8
0
  6
Continuous
 62
     7
370
    15
390
1D
100
AcDbSpline
210
0.0
220
0.0
230
1.0
 70
    15
 71
     2
 72
   782
 73
   779
 74
     0
 42
0.000000001
 43
0.000001
 40
0.0
 40
0.0
 40
0.0
 40
1.0
 40
1.0
 40
2.0
 40
2.0
 40
3.0
 40
3.0
 40
4.0
 40
4.0
 40
5.0
 40
5.0
 40
6.0
 40
6.0
 40
7.0
 40
7.0
 40
8.0
 40
8.0
 40
9.0
 40
9.0
 40
10.0
 40
10.0
 40
11.0
 40
11.0
 40
12.0
 40
12.0
 40
13.0
 40
13.0
 40
14.0
 40
14.0
 40
15.0
 40
15.0
 40
16.0
 40
16.0
 40
17.0
 40
17.0
 40
18.0
 40
18.0
 40
19.0
 40
19.0
 40
20.0
 40
20.0
 40
21.0
 40
21.0
 40
22.0
 40
22.0
 40
23.0
 40
23.0
 40
24.0
 40
24.0
 40
25.0
 40
25.0
 40
26.0
 40
26.0
 40
27.0
 40
27.0
 40
28.0
 40
28.0
 40
29.0
 40
29.0
 40
30.0
 40
30.0
 40
31.0
 40
31.0
 40
32.0
 40
32.0
 40
33.0
 40
33.0
 40
34.0
 40
34.0
 40
35.0
 40
35.0
 40
36.0
 40
36.0
 40
37.0
 40
37.0
 40
38.0
 40
38.0
 40
39.0
 40
39.0
 40
40.0
 40
40.0
 40
41.0
 40
41.0
 40
42.0
 40
42.0
 40
43.0
 40
43.0
 40
44.0
 40
44.0
 40
45.0
 40
45.0
 40
46.0
 40
46.0
 40
47.0
 40
47.0
 40
48.0
 40
48.0
 40
49.0
 40
49.0
 40
50.0
 40
50.0
 40
51.0
 40
51.0
 40
52.0
 40
52.0
 40
53.0
 40
53.0
 40
54.0
 40
54.0
 40
55.0
 40
55.0
 40
56.0
 40
56.0
 40
57.0
 40
57.0
 40
58.0
 40
58.0
 40
59.0
 40
59.0
 40
60.0
 40
60.0
 40
61.0
 40
61.0
 40
62.0
 40
62.0
 40
63.0
 40
63.0
 40
64.0
 40
64.0
 40
65.0
 40
65.0
 40
66.0
 40
66.0
 40
67.0
 40
67.0
 40
68.0
 40
68.0
 40
69.0
 40
69.0
 40
70.0
 40
70.0
 40
71.0
 40
71.0
 40
72.0
 40
72.0
 40
73.0
 40
73.0
 40
74.0
 40
74.0
 40
75.0
 40
75.0
 40
76.0
 40
76.0
 40
77.0
 40
77.0
 40
78.0
 40
78.0
 40
79.0
 40
79.0
 40
80.0
 40
80.0
 40
81.0
 40
81.0
 40
82.0
 40
82.0
 40
83.0
 40
83.0
 40
84.0
 40
84.0
 40
85.0
 40
85.0
 40
86.0
 40
86.0
 40
87.0
 40
87.0
 40
88.0
 40
88.0
 40
89.0
 40
89.0
 40
90.0
 40
90.0
 40
91.0
 40
91.0
 40
92.0
 40
92.0
 40
93.0
 40
93.0
 40
94.0
 40
94.0
 40
95.0
 40
95.0
 40
96.0
 40
96.0
 40
97.0
 40
97.0
 40
98.0
 40
98.0
 40
99.0
 40
99.0
 40
100.0
 40
100.0
 40
101.0
 40
101.0
 40
102.0
 40
102.0
 40
103.0
 40
103.0
 40
104.0
 40
104.0
 40
105.0
 40
105.0
 40
106.0
 40
106.0
 40
107.0
 40
107.0
 40
108.0
 40
108.0
 40
109.0
 40
109.0
 40
110.0
 40
110.0
 40
111.0
 40
111.0
 40
112.0
 40
112.0
 40
113.0
 40
113.0
 40
114.0
 40
114.0
 40
115.0
 40
115.0
 40
116.0
 40
116.0
 40
117.0
 40
117.0
 40
118.0
 40
118.0
 40
119.0
 40
119.0
 40
120.0
 40
120.0
 40
121.0
 40
121.0
 40
122.0
 40
122.0
 40
123.0
 40
123.0
 40
124.0
 40
124.0
 40
125.0
 40
125.0
 40
126.0
 40
126.0
 40
127.0
 40
127.0
 40
128.0
 40
128.0
 40
129.0
 40
129.0
 40
130.0
 40
130.0
 40
131.0
 40
131.0
 40
132.0
 40
132.0
 40
133.0
 40
133.0
 40
134.0
 40
134.0
 40
135.0
 40
135.0
 40
136.0
 40
136.0
 40
137.0
 40
137.0
 40
138.0
 40
138.0
 40
139.0
 40
139.0
 40
140.0
 40
140.0
 40
141.0
 40
141.0
 40
142.0
 40
142.0
 40
143.0
 40
143.0
 40
144.0
 40
144.0
 40
145.0
 40
145.0
 40
146.0
 40
146.0
 40
147.0
 40
147.0
 40
148.0
 40
148.0
 40
149.0
 40
149.0
 40
150.0
 40
150.0
 40
151.0
 40
151.0
 40
152.0
 40
152.0
 40
153.0
 40
153.0
 40
154.0
 40
154.0
 40
155.0
 40
155.0
 40
156.0
 40
156.0
 40
157.0
 40
157.0
 40
158.0
 40
158.0
 40
159.0
 40
159.0
 40
160.0
 40
160.0
 40
161.0
 40
161.0
 40
162.0
 40
162.0
 40
163.0
 40
163.0
 40
164.0
 40
164.0
 40
165.0
 40
165.0
 40
166.0
 40
166.0
 40
167.0
 40
167.0
 40
168.0
 40
168.0
 40
169.0
 40
169.0
 40
170.0
 40
170.0
 40
171.0
 40
171.0
 40
172.0
 40
172.0
 40
173.0
 40
173.0
 40
174.0
 40
174.0
 40
175.0
 40
175.0
 40
176.0
 40
176.0
 40
177.0
 40
177.0
 40
178.0
 40
178.0
 40
179.0
 40
179.0
 40
180.0
 40
180.0
 40
181.0
 40
181.0
 40
182.0
 40
182.0
 40
183.0
 40
183.0
 40
184.0
 40
184.0
 40
185.0
 40
185.0
 40
186.0
 40
186.0
 40
187.0
 40
187.0
 40
188.0
 40
188.0
 40
189.0
 40
189.0
 40
190.0
 40
190.0
 40
191.0
 40
191.0
 40
192.0
 40
192.0
 40
193.0
 40
193.0
 40
194.0
 40
194.0
 40
195.0
 40
195.0
 40
196.0
 40
196.0
 40
197.0
 40
197.0
 40
198.0
 40
198.0
 40
199.0
 40
199.0
 40
200.0
 40
200.0
 40
201.0
 40
201.0
 40
202.0
 40
202.0
 40
203.0
 40
203.0
 40
204.0
 40
204.0
 40
205.0
 40
205.0
 40
206.0
 40
206.0
 40
207.0
 40
207.0
 40
208.0
 40
208.0
 40
209.0
 40
209.0
 40
210.0
 40
210.0
 40
211.0
 40
211.0
 40
212.0
 40
212.0
 40
213.0
 40
213.0
 40
214.0
 40
214.0
 40
215.0
 40
215.0
 40
216.0
 40
216.0
 40
217.0
 40
217.0
 40
218.0
 40
218.0
 40
219.0
 40
219.0
 40
220.0
 40
220.0
 40
221.0
 40
221.0
 40
222.0
 40
222.0
 40
223.0
 40
223.0
 40
224.0
 40
224.0
 40
225.0
 40
225.0
 40
226.0
 40
226.0
 40
227.0
 40
227.0
 40
228.0
 40
228.0
 40
229.0
 40
229.0
 40
230.0
 40
230.0
 40
231.0
 40
231.0
 40
232.0
 40
232.0
 40
233.0
 40
233.0
 40
234.0
 40
234.0
 40
235.0
 40
235.0
 40
236.0
 40
236.0
 40
237.0
 40
237.0
 40
238.0
 40
238.0
 40
239.0
 40
239.0
 40
240.0
 40
240.0
 40
241.0
 40
241.0
 40
242.0
 40
242.0
 40
243.0
 40
243.0
 40
244.0
 40
244.0
 40
245.0
 40
245.0
 40
246.0
 40
246.0
 40
247.0
 40
247.0
 40
248.0
 40
248.0
 40
249.0
 40
249.0
 40
250.0
 40
250.0
 40
251.0
 40
251.0
 40
252.0
 40
252.0
 40
253.0
 40
253.0
 40
254.0
 40
254.0
 40
255.0
 40
255.0
 40
256.0
 40
256.0
 40
257.0
 40
257.0
 40
258.0
 40
258.0
 40
259.0
 40
259.0
 40
260.0
 40
260.0
 40
261.0
 40
261.0
 40
262.0
 40
262.0
 40
263.0
 40
263.0
 40
264.0
 40
264.0
 40
265.0
 40
265.0
 40
266.0
 40
266.0
 40
267.0
 40
267.0
 40
268.0
 40
268.0
 40
269.0
 40
269.0
 40
270.0
 40
270.0
 40
271.0
 40
271.0
 40
272.0
 40
272.0
 40
273.0
 40
273.0
 40
274.0
 40
274.0
 40
275.0
 40
275.0
 40
276.0
 40
276.0
 40
277.0
 40
277.0
 40
278.0
 40
278.0
 40
279.0
 40
279.0
 40
280.0
 40
280.0
 40
281.0
 40
281.0
 40
282.0
 40
282.0
 40
283.0
 40
283.0
 40
284.0
 40
284.0
 40
285.0
 40
285.0
 40
286.0
 40
286.0
 40
287.0
 40
287.0
 40
288.0
 40
288.0
 40
289.0
 40
289.0
 40
290.0
 40
290.0
 40
291.0
 40
291.0
 40
292.0
 40
292.0
 40
293.0
 40
293.0
 40
294.0
 40
294.0
 40
295.0
 40
295.0
 40
296.0
 40
296.0
 40
297.0
 40
297.0
 40
298.0
 40
298.0
 40
299.0
 40
299.0
 40
300.0
 40
300.0
 40
301.0
 40
301.0
 40
302.0
 40
302.0
 40
303.0
 40
303.0
 40
304.0
 40
304.0
 40
305.0
 40
305.0
 40
306.0
 40
306.0
 40
307.0
 40
307.0
 40
308.0
 40
308.0
 40
309.0
 40
309.0
 40
310.0
 40
310.0
 40
311.0
 40
311.0
 40
312.0
 40
312.0
 40
313.0
 40
313.0
 40
314.0
 40
314.0
 40
315.0
 40
315.0
 40
316.0
 40
316.0
 40
317.0
 40
317.0
 40
318.0
 40
318.0
 40
319.0
 40
319.0
 40
320.0
 40
320.0
 40
321.0
 40
321.0
 40
322.0
 40
322.0
 40
323.0
 40
323.0
 40
324.0
 40
324.0
 40
325.0
 40
325.0
 40
326.0
 40
326.0
 40
327.0
 40
327.0
 40
328.0
 40
328.0
 40
329.0
 40
329.0
 40
330.0
 40
330.0
 40
331.0
 40
331.0
 40
332.0
 40
332.0
 40
333.0
 40
333.0
 40
334.0
 40
334.0
 40
335.0
 40
335.0
 40
336.0
 40
336.0
 40
337.0
 40
337.0
 40
338.0
 40
338.0
 40
339.0
 40
339.0
 40
340.0
 40
340.0
 40
341.0
 40
341.0
 40
342.0
 40
342.0
 40
343.0
 40
343.0
 40
344.0
 40
344.0
 40
345.0
 40
345.0
 40
346.0
 40
346.0
 40
347.0
 40
347.0
 40
348.0
 40
348.0
 40
349.0
 40
349.0
 40
350.0
 40
350.0
 40
351.0
 40
351.0
 40
352.0
 40
352.0
 40
353.0
 40
353.0
 40
354.0
 40
354.0
 40
355.0
 40
355.0
 40
356.0
 40
356.0
 40
357.0
 40
357.0
 40
358.0
 40
358.0
 40
359.0
 40
359.0
 40
360.0
 40
360.0
 40
361.0
 40
361.0
 40
362.0
 40
362.0
 40
363.0
 40
363.0
 40
364.0
 40
364.0
 40
365.0
 40
365.0
 40
366.0
 40
366.0
 40
367.0
 40
367.0
 40
368.0
 40
368.0
 40
369.0
 40
369.0
 40
370.0
 40
370.0
 40
371.0
 40
371.0
 40
372.0
 40
372.0
 40
373.0
 40
373.0
 40
374.0
 40
374.0
 40
375.0
 40
375.0
 40
376.0
 40
376.0
 40
377.0
 40
377.0
 40
378.0
 40
378.0
 40
379.0
 40
379.0
 40
380.0
 40
380.0
 40
381.0
 40
381.0
 40
382.0
 40
382.0
 40
383.0
 40
383.0
 40
384.0
 40
384.0
 40
385.0
 40
385.0
 40
386.0
 40
386.0
 40
387.0
 40
387.0
 40
388.0
 40
388.0
 40
389.0
 40
389.0
 40
389.0
 10
-14846.4001257941
 20
126.4829555837941
 30
0.0
 41
1.0
 10
-14845.58170168538
 20
126.4829555837941
 30
0.0
 41
1.0
 10
-14844.76327757666
 20
126.4829555837941
 30
0.0
 41
1.0
 10
-14845.17703131218
 20
125.1403293195444
 30
0.0
 41
1.0
 10
-14845.59078504769
 20
123.7977030552947
 30
0.0
 41
1.0
 10
-14845.57244555241
 20
123.8264038283911
 30
0.0
 41
0.9999957264465521
 10
-14845.5539385555
 20
123.8549968786642
 30
0.0
 41
1.0
 10
-14845.52350923146
 20
123.9020097568864
 30
0.0
 41
1.0
 10
-14845.49307990742
 20
123.9490226351086
 30
0.0
 41
1.0
 10
-14845.41371426232
 20
124.0716414420038
 30
0.0
 41
0.9995394069078269
 10
-14845.32705587078
 20
124.1892195037351
 30
0.0
 41
1.0
 10
-14845.29129900855
 20
124.2377343962916
 30
0.0
 41
1.0
 10
-14845.25554214631
 20
124.2862492888481
 30
0.0
 41
1.0
 10
-14845.12181547846
 20
124.4676895640228
 30
0.0
 41
0.9994460617139916
 10
-14844.97631499714
 20
124.6398319617172
 30
0.0
 41
1.0
 10
-14844.97192681617
 20
124.645023642094
 30
0.0
 41
1.0
 10
-14844.9675386352
 20
124.6502153224709
 30
0.0
 41
1.0
 10
-14844.83081451586
 20
124.8119743593551
 30
0.0
 41
0.999435939493358
 10
-14844.6835402855
 20
124.9641905605313
 30
0.0
 41
1.0
 10
-14844.68115693155
 20
124.9666538908997
 30
0.0
 41
1.0
 10
-14844.6787735776
 20
124.9691172212682
 30
0.0
 41
1.0
 10
-14844.53626605515
 20
125.1164067616934
 30
0.0
 41
0.9995293688568311
 10
-14844.38499437417
 20
125.25467997386
 30
0.0
 41
1.0
 10
-14844.36570061491
 20
125.2723158595014
 30
0.0
 41
1.0
 10
-14844.34640685566
 20
125.2899517451427
 30
0.0
 41
1.0
 10
-14844.23372269319
 20
125.3929531860173
 30
0.0
 41
0.9997087614803722
 10
-14844.11619980423
 20
125.4903974668218
 30
0.0
 41
1.0
 10
-14844.09703373104
 20
125.5062890453418
 30
0.0
 41
1.0
 10
-14844.07786765785
 20
125.5221806238618
 30
0.0
 41
1.0
 10
-14843.99867691525
 20
125.5878417476414
 30
0.0
 41
0.9999595338694763
 10
-14843.91831764442
 20
125.6520674782748
 30
0.0
 41
1.0
 10
-14843.83795837355
 20
125.7162932089427
 30
0.0
 41
0.9999749417501494
 10
-14843.75669783923
 20
125.7793747628696
 30
0.0
 41
1.0
 10
-14843.735711693
 20
125.7956660502192
 30
0.0
 41
1.0
 10
-14843.71472554678
 20
125.8119573375688
 30
0.0
 41
1.0
 10
-14843.63015766154
 20
125.8776063473571
 30
0.0
 41
0.9999792037127798
 10
-14843.54475006182
 20
125.942159128969
 30
0.0
 41
1.0
 10
-14843.52392523568
 20
125.9578989513937
 30
0.0
 41
1.0
 10
-14843.50310040955
 20
125.9736387738184
 30
0.0
 41
1.0
 10
-14843.45934246199
 20
126.0067119106571
 30
0.0
 41
0.9999993373733771
 10
-14843.4156607759
 20
126.0398857060368
 30
0.0
 41
1.0
 10
-14843.37197908977
 20
126.0730595014525
 30
0.0
 41
0.9999160953819218
 10
-14843.32745267885
 20
126.1050905666554
 30
0.0
 41
1.0
 10
-14843.29463079142
 20
126.1287017222421
 30
0.0
 41
1.0
 10
-14843.261808904
 20
126.1523128778288
 30
0.0
 41
1.0
 10
-14843.15163871824
 20
126.2315662542002
 30
0.0
 41
0.9980964527235
 10
-14843.03254972473
 20
126.2966537270578
 30
0.0
 41
1.0
 10
-14842.9955171178
 20
126.3168937066518
 30
0.0
 41
1.0
 10
-14842.95848451087
 20
126.3371336862458
 30
0.0
 41
1.0
 10
-14842.77915749761
 20
126.4351439369414
 30
0.0
 41
0.9984572810571913
 10
-14842.59006893125
 20
126.5126661982865
 30
0.0
 41
1.0
 10
-14842.58642266186
 20
126.5141610906226
 30
0.0
 41
1.0
 10
-14842.58277639247
 20
126.5156559829587
 30
0.0
 41
1.0
 10
-14842.4009803649
 20
126.5901884596331
 30
0.0
 41
0.9987838528033717
 10
-14842.21272770634
 20
126.6464540997986
 30
0.0
 41
1.0
 10
-14842.20848975714
 20
126.6477207534888
 30
0.0
 41
1.0
 10
-14842.20425180794
 20
126.6489874071791
 30
0.0
 41
1.0
 10
-14842.02447504778
 20
126.7027197399642
 30
0.0
 41
0.9990652816206074
 10
-14841.84072911606
 20
126.7407234195064
 30
0.0
 41
1.0
 10
-14841.83554071503
 20
126.7417965226138
 30
0.0
 41
1.0
 10
-14841.83035231399
 20
126.7428696257213
 30
0.0
 41
1.0
 10
-14841.65698318433
 20
126.7787270990511
 30
0.0
 41
0.9992909934269943
 10
-14841.48140741789
 20
126.8014375315149
 30
0.0
 41
1.0
 10
-14841.30583165143
 20
126.8241479639817
 30
0.0
 41
0.9994553539446749
 10
-14841.12914021833
 20
126.8352272681879
 30
0.0
 41
1.0
 10
-14841.09370581054
 20
126.8374491562356
 30
0.0
 41
1.0
 10
-14841.05827140275
 20
126.8396710442832
 30
0.0
 41
1.0
 10
-14840.89204563618
 20
126.8500941066956
 30
0.0
 41
0.9990928098291093
 10
-14840.72553584427
 20
126.8463344654606
 30
0.0
 41
1.0
 10
-14840.686974009
 20
126.8454637739275
 30
0.0
 41
1.0
 10
-14840.64841217372
 20
126.8445930823945
 30
0.0
 41
1.0
 10
-14840.55902605236
 20
126.8425748242258
 30
0.0
 41
0.9998382089206066
 10
-14840.46977036958
 20
126.837342697698
 30
0.0
 41
1.0
 10
-14840.46934046337
 20
126.837317496796
 30
0.0
 41
1.0
 10
-14840.46891055715
 20
126.8372922958939
 30
0.0
 41
1.0
 10
-14840.38051468682
 20
126.8321105711712
 30
0.0
 41
0.9997558016759226
 10
-14840.2924341096
 20
126.8230280558034
 30
0.0
 41
1.0
 10
-14840.29195797117
 20
126.8229789583208
 30
0.0
 41
1.0
 10
-14840.29148183274
 20
126.8229298608382
 30
0.0
 41
1.0
 10
-14840.2043535324
 20
126.8139455404382
 30
0.0
 41
0.9996565144179562
 10
-14840.11781567905
 20
126.8004082337479
 30
0.0
 41
1.0
 10
-14840.11734975367
 20
126.8003353480161
 30
0.0
 41
1.0
 10
-14840.11688382829
 20
126.8002624622843
 30
0.0
 41
1.0
 10
-14840.03127782572
 20
126.7868709270594
 30
0.0
 41
0.9995321806868341
 10
-14839.94665074538
 20
126.7682704386295
 30
0.0
 41
1.0
 10
-14839.94626155082
 20
126.7681848961658
 30
0.0
 41
1.0
 10
-14839.94587235626
 20
126.7680993537021
 30
0.0
 41
1.0
 10
-14839.86202366507
 20
126.749669950206
 30
0.0
 41
0.9993819199217049
 10
-14839.77967713086
 20
126.7253945669397
 30
0.0
 41
1.0
 10
-14839.77943869737
 20
126.7253242778319
 30
0.0
 41
1.0
 10
-14839.77920026387
 20
126.7252539887241
 30
0.0
 41
1.0
 10
-14839.69733059668
 20
126.7011191836851
 30
0.0
 41
0.9992088568501131
 10
-14839.61763807768
 20
126.6705539478846
 30
0.0
 41
1.0
 10
-14839.5379570868
 20
126.6399943471515
 30
0.0
 41
0.9990226101775452
 10
-14839.46128641689
 20
126.6025169155366
 30
0.0
 41
1.0
 10
-14839.38462727508
 20
126.5650451189786
 30
0.0
 41
0.998842427397395
 10
-14839.31192364787
 20
126.5203803437261
 30
0.0
 41
1.0
 10
-14839.31165593949
 20
126.520215879656
 30
0.0
 41
1.0
 10
-14839.31138823112
 20
126.5200514155858
 30
0.0
 41
1.0
 10
-14839.23814918715
 20
126.4750577121926
 30
0.0
 41
0.9986928844489467
 10
-14839.16988632045
 20
126.422821977914
 30
0.0
 41
1.0
 10
-14839.16930502822
 20
126.4223771646835
 30
0.0
 41
1.0
 10
-14839.16872373599
 20
126.4219323514531
 30
0.0
 41
1.0
 10
-14839.09929828483
 20
126.3688069907074
 30
0.0
 41
0.9986007262277975
 10
-14839.03587211505
 20
126.3086462210065
 30
0.0
 41
1.0
 10
-14839.0349776996
 20
126.3077978531802
 30
0.0
 41
1.0
 10
-14839.03408328416
 20
126.3069494853539
 30
0.0
 41
1.0
 10
-14838.96886828346
 20
126.2450919799733
 30
0.0
 41
0.9985581491387746
 10
-14838.91066067175
 20
126.1765994896836
 30
0.0
 41
1.0
 10
-14838.90140221817
 20
126.1657051319993
 30
0.0
 41
1.0
 10
-14838.89214376458
 20
126.1548107743151
 30
0.0
 41
1.0
 10
-14838.81541924569
 20
126.0645295686358
 30
0.0
 41
0.9970460233516176
 10
-14838.75342734453
 20
125.9635624844517
 30
0.0
 41
1.0
 10
-14838.73895797945
 20
125.9399960253698
 30
0.0
 41
1.0
 10
-14838.72448861437
 20
125.9164295662879
 30
0.0
 41
1.0
 10
-14838.68475191436
 20
125.8517098422615
 30
0.0
 41
0.9988468816637138
 10
-14838.65140554361
 20
125.7834773898367
 30
0.0
 41
1.0
 10
-14838.64436952111
 20
125.7690804686907
 30
0.0
 41
1.0
 10
-14838.63733349862
 20
125.7546835475448
 30
0.0
 41
1.0
 10
-14838.61805917286
 20
125.7152449374116
 30
0.0
 41
0.9998431189997561
 10
-14838.60019384536
 20
125.6751483829682
 30
0.0
 41
1.0
 10
-14838.58232851784
 20
125.6350518284649
 30
0.0
 41
0.9999989989806247
 10
-14838.56434979429
 20
125.5950059905978
 30
0.0
 41
1.0
 10
-14838.55817748277
 20
125.581257773958
 30
0.0
 41
1.0
 10
-14838.55200517126
 20
125.5675095573183
 30
0.0
 41
1.0
 10
-14838.52168182464
 20
125.4999672860986
 30
0.0
 41
0.9998790356320997
 10
-14838.4934739445
 20
125.431514534155
 30
0.0
 41
1.0
 10
-14838.48663876323
 20
125.4149274327701
 30
0.0
 41
1.0
 10
-14838.47980358197
 20
125.3983403313852
 30
0.0
 41
1.0
 10
-14838.45624591957
 20
125.3411723764629
 30
0.0
 41
0.9998227574561659
 10
-14838.43485717117
 20
125.2831580681545
 30
0.0
 41
1.0
 10
-14838.41346842278
 20
125.2251437598692
 30
0.0
 41
0.9996797971042796
 10
-14838.39504213781
 20
125.1661216407413
 30
0.0
 41
1.0
 10
-14838.39113833509
 20
125.1536171825811
 30
0.0
 41
1.0
 10
-14838.38723453237
 20
125.141112724421
 30
0.0
 41
1.0
 10
-14838.36100064196
 20
125.0570816889738
 30
0.0
 41
0.997927493873283
 10
-14838.34577611848
 20
124.9703773303228
 30
0.0
 41
1.0
 10
-14838.34355243122
 20
124.9577133294817
 30
0.0
 41
1.0
 10
-14838.34132874395
 20
124.9450493286407
 30
0.0
 41
1.0
 10
-14838.33039880426
 20
124.8828028213597
 30
0.0
 41
0.9994985982141674
 10
-14838.32343063908
 20
124.81998932023
 30
0.0
 41
1.0
 10
-14838.31646247391
 20
124.7571758191327
 30
0.0
 41
0.9996372611194273
 10
-14838.31288660814
 20
124.6940782404959
 30
0.0
 41
1.0
 10
-14838.31271803065
 20
124.6911036233687
 30
0.0
 41
1.0
 10
-14838.31254945316
 20
124.6881290062415
 30
0.0
 41
1.0
 10
-14838.30863643241
 20
124.6190821934428
 30
0.0
 41
0.9997730630732127
 10
-14838.30766811892
 20
124.5499313694573
 30
0.0
 41
1.0
 10
-14838.30761101251
 20
124.5458531902675
 30
0.0
 41
1.0
 10
-14838.30755390609
 20
124.5417750110776
 30
0.0
 41
1.0
 10
-14838.30647137976
 20
124.4644678287441
 30
0.0
 41
0.9998772614072426
 10
-14838.30781146649
 20
124.3871646821643
 30
0.0
 41
1.0
 10
-14838.30790072969
 20
124.3820155183449
 30
0.0
 41
1.0
 10
-14838.30798999289
 20
124.3768663545254
 30
0.0
 41
1.0
 10
-14838.30950860602
 20
124.289264880296
 30
0.0
 41
0.9999415567324954
 10
-14838.31292091627
 20
124.2017167186248
 30
0.0
 41
1.0
 10
-14838.31316223694
 20
124.1955252588831
 30
0.0
 41
1.0
 10
-14838.31340355762
 20
124.1893337991414
 30
0.0
 41
1.0
 10
-14838.31729850921
 20
124.0894027181225
 30
0.0
 41
0.9999716810418616
 10
-14838.32269709232
 20
123.9895415800218
 30
0.0
 41
1.0
 10
-14838.32590989111
 20
123.9301123302362
 30
0.0
 41
1.0
 10
-14838.32912268991
 20
123.8706830804506
 30
0.0
 41
1.0
 10
-14838.33719659906
 20
123.7213346791725
 30
0.0
 41
0.9999819129910189
 10
-14838.34706639068
 20
123.5720942014559
 30
0.0
 41
1.0
 10
-14838.3569361823
 20
123.4228537237445
 30
0.0
 41
1.0
 10
-14838.35937550286
 20
123.3856606778954
 30
0.0
 41
1.0
 10
-14838.33667726922
 20
123.4244016749134
 30
0.0
 41
0.9999982128181374
 10
-14838.31383271066
 20
123.4630565685259
 30
0.0
 41
1.0
 10
-14838.28692315058
 20
123.5085897829096
 30
0.0
 41
1.0
 10
-14838.2600135905
 20
123.5541229972932
 30
0.0
 41
1.0
 10
-14838.18334991199
 20
123.6838443193518
 30
0.0
 41
0.9998609190058337
 10
-14838.10240259914
 20
123.8109367012501
 30
0.0
 41
1.0
 10
-14838.07275427766
 20
123.8574864342084
 30
0.0
 41
1.0
 10
-14838.04310595618
 20
123.9040361671667
 30
0.0
 41
1.0
 10
-14837.96083373594
 20
124.0332087371713
 30
0.0
 41
0.9999067609733194
 10
-14837.87506472645
 20
124.1600864266429
 30
0.0
 41
1.0
 10
-14837.87266002325
 20
124.1636436927011
 30
0.0
 41
1.0
 10
-14837.87025532005
 20
124.1672009587593
 30
0.0
 41
1.0
 10
-14837.78929571698
 20
124.2869641160923
 30
0.0
 41
0.9998784952150266
 10
-14837.70464210731
 20
124.4041453327932
 30
0.0
 41
1.0
 10
-14837.61998849764
 20
124.5213265494858
 30
0.0
 41
0.9998532968282033
 10
-14837.53137087683
 20
124.6355394579329
 30
0.0
 41
1.0
 10
-14837.51140908783
 20
124.6612667789704
 30
0.0
 41
1.0
 10
-14837.49144729882
 20
124.6869941000079
 30
0.0
 41
1.0
 10
-14837.37296324906
 20
124.8396997109801
 30
0.0
 41
0.9991551975792367
 10
-14837.24233879944
 20
124.9821592730646
 30
0.0
 41
1.0
 10
-14837.23882918343
 20
124.9859868747177
 30
0.0
 41
1.0
 10
-14837.23531956743
 20
124.9898144763708
 30
0.0
 41
1.0
 10
-14837.11171434978
 20
125.1246188351803
 30
0.0
 41
0.9997418144181613
 10
-14836.98211221011
 20
125.2536682457603
 30
0.0
 41
1.0
 10
-14836.85251007042
 20
125.3827176563632
 30
0.0
 41
0.9989238204633183
 10
-14836.71150752218
 20
125.4992026183993
 30
0.0
 41
1.0
 10
-14836.66625984403
 20
125.5365826100165
 30
0.0
 41
1.0
 10
-14836.62101216588
 20
125.5739626016336
 30
0.0
 41
1.0
 10
-14836.48077210866
 20
125.6898176549205
 30
0.0
 41
0.9990825084097139
 10
-14836.33113217606
 20
125.7932466527532
 30
0.0
 41
1.0
 10
-14836.32108681201
 20
125.8001898658286
 30
0.0
 41
1.0
 10
-14836.31104144796
 20
125.8071330789041
 30
0.0
 41
1.0
 10
-14836.18149224347
 20
125.8966756505749
 30
0.0
 41
0.999816489982526
 10
-14836.04860804008
 20
125.9811898921025
 30
0.0
 41
1.0
 10
-14836.03676247952
 20
125.9887236586483
 30
0.0
 41
1.0
 10
-14836.02491691896
 20
125.9962574251941
 30
0.0
 41
1.0
 10
-14835.91572383666
 20
126.0657041336472
 30
0.0
 41
0.9997473449131845
 10
-14835.80351987945
 20
126.1301730914347
 30
0.0
 41
1.0
 10
-14835.69131592225
 20
126.1946420492267
 30
0.0
 41
0.9999327861141504
 10
-14835.57764731151
 20
126.2564920408946
 30
0.0
 41
1.0
 10
-14835.57709530891
 20
126.2567923995924
 30
0.0
 41
1.0
 10
-14835.57654330632
 20
126.2570927582901
 30
0.0
 41
1.0
 10
-14835.46177069043
 20
126.3195434673302
 30
0.0
 41
0.999695642048463
 10
-14835.34405736458
 20
126.3762569343112
 30
0.0
 41
1.0
 10
-14835.3136169597
 20
126.3909229110345
 30
0.0
 41
1.0
 10
-14835.28317655482
 20
126.4055888877577
 30
0.0
 41
1.0
 10
-14835.18019944808
 20
126.4552025462007
 30
0.0
 41
0.9998070570176845
 10
-14835.07535305912
 20
126.500733133109
 30
0.0
 41
1.0
 10
-14834.97050667017
 20
126.5462637200164
 30
0.0
 41
0.9997827436146584
 10
-14834.86385373354
 20
126.5873848913342
 30
0.0
 41
1.0
 10
-14834.84463088393
 20
126.5947964649604
 30
0.0
 41
1.0
 10
-14834.82540803431
 20
126.6022080385867
 30
0.0
 41
1.0
 10
-14834.68030939843
 20
126.6581523571653
 30
0.0
 41
0.9988031841980289
 10
-14834.53043903583
 20
126.6996524213327
 30
0.0
 41
1.0
 10
-14834.50552178746
 20
126.7065521671397
 30
0.0
 41
1.0
 10
-14834.4806045391
 20
126.7134519129467
 30
0.0
 41
1.0
 10
-14834.31333451346
 20
126.7597700553514
 30
0.0
 41
0.9984748040553773
 10
-14834.14197760481
 20
126.7873642876166
 30
0.0
 41
1.0
 10
-14834.13723846856
 20
126.7881274481299
 30
0.0
 41
1.0
 10
-14834.13249933231
 20
126.7888906086432
 30
0.0
 41
1.0
 10
-14833.97062069615
 20
126.8149585198824
 30
0.0
 41
0.9984436495479065
 10
-14833.80684595244
 20
126.8228364737001
 30
0.0
 41
1.0
 10
-14833.78514874431
 20
126.8238801608997
 30
0.0
 41
1.0
 10
-14833.76345153618
 20
126.8249238480992
 30
0.0
 41
1.0
 10
-14833.64307120872
 20
126.8307144275191
 30
0.0
 41
0.9987954789333774
 10
-14833.5227029638
 20
126.8246778997764
 30
0.0
 41
1.0
 10
-14833.5027381713
 20
126.8236766554376
 30
0.0
 41
1.0
 10
-14833.48277337881
 20
126.8226754110988
 30
0.0
 41
1.0
 10
-14833.4023347189
 20
126.8186413720349
 30
0.0
 41
0.9997941595877194
 10
-14833.3221259408
 20
126.811347306113
 30
0.0
 41
1.0
 10
-14833.24191716268
 20
126.8040532401901
 30
0.0
 41
0.99985894662363
 10
-14833.16199861585
 20
126.7940693857426
 30
0.0
 41
1.0
 10
-14833.12959241404
 20
126.790021028823
 30
0.0
 41
1.0
 10
-14833.09718621223
 20
126.7859726719034
 30
0.0
 41
1.0
 10
-14832.95245526177
 20
126.7678921036163
 30
0.0
 41
0.9993495063250358
 10
-14832.809404018
 20
126.7394263938743
 30
0.0
 41
1.0
 10
-14832.77647032084
 20
126.7328729306587
 30
0.0
 41
1.0
 10
-14832.74353662369
 20
126.726319467443
 30
0.0
 41
1.0
 10
-14832.6342428005
 20
126.7045711333131
 30
0.0
 41
0.9996788715558254
 10
-14832.52619122853
 20
126.6773133339454
 30
0.0
 41
1.0
 10
-14832.52412822599
 20
126.6767929073722
 30
0.0
 41
1.0
 10
-14832.52206522345
 20
126.676272480799
 30
0.0
 41
1.0
 10
-14832.41813965657
 20
126.6500555345819
 30
0.0
 41
0.9995480654493757
 10
-14832.31597742134
 20
126.6176405779581
 30
0.0
 41
1.0
 10
-14832.31428777922
 20
126.6171044730455
 30
0.0
 41
1.0
 10
-14832.31259813709
 20
126.6165683681329
 30
0.0
 41
1.0
 10
-14832.21381518611
 20
126.5852256213329
 30
0.0
 41
0.999386795945538
 10
-14832.11746802767
 20
126.5470462520439
 30
0.0
 41
1.0
 10
-14832.11622507859
 20
126.5465537101498
 30
0.0
 41
1.0
 10
-14832.11498212951
 20
126.5460611682558
 30
0.0
 41
1.0
 10
-14832.02112086923
 20
126.5088668827562
 30
0.0
 41
0.9992050256520555
 10
-14831.9305211942
 20
126.4643129835154
 30
0.0
 41
1.0
 10
-14831.92978651149
 20
126.4639516910565
 30
0.0
 41
1.0
 10
-14831.92905182878
 20
126.4635903985976
 30
0.0
 41
1.0
 10
-14831.83992151917
 20
126.4197590842798
 30
0.0
 41
0.9990222350740326
 10
-14831.75501145777
 20
126.3682258165784
 30
0.0
 41
1.0
 10
-14831.75482757249
 20
126.3681142136744
 30
0.0
 41
1.0
 10
-14831.75464368721
 20
126.3680026107705
 30
0.0
 41
1.0
 10
-14831.67010139637
 20
126.3166925488769
 30
0.0
 41
0.9988642743808481
 10
-14831.59082686175
 20
126.2575683613547
 30
0.0
 41
1.0
 10
-14831.51155232713
 20
126.1984441738288
 30
0.0
 41
0.998768123330966
 10
-14831.43852854286
 20
126.1317534824252
 30
0.0
 41
1.0
 10
-14831.43819961489
 20
126.1314530812128
 30
0.0
 41
1.0
 10
-14831.43787068693
 20
126.1311526800005
 30
0.0
 41
1.0
 10
-14831.36418904672
 20
126.0638611861732
 30
0.0
 41
0.9987496570894242
 10
-14831.29759524139
 20
125.989548372081
 30
0.0
 41
1.0
 10
-14831.29682307163
 20
125.9886866987248
 30
0.0
 41
1.0
 10
-14831.29605090187
 20
125.9878250253687
 30
0.0
 41
1.0
 10
-14831.22791275702
 20
125.9117888645616
 30
0.0
 41
0.9988147669827598
 10
-14831.16749050279
 20
125.8294878577115
 30
0.0
 41
1.0
 10
-14831.16637117672
 20
125.8279632263651
 30
0.0
 41
1.0
 10
-14831.16525185065
 20
125.8264385950188
 30
0.0
 41
1.0
 10
-14831.10259094425
 20
125.7410883254573
 30
0.0
 41
0.9989452636214914
 10
-14831.04802403128
 20
125.650349636282
 30
0.0
 41
1.0
 10
-14831.04667530521
 20
125.6481068552716
 30
0.0
 41
1.0
 10
-14831.04532657913
 20
125.6458640742612
 30
0.0
 41
1.0
 10
-14830.988062214
 20
125.5506398230612
 30
0.0
 41
0.9991046436069777
 10
-14830.93905300069
 20
125.4509153900461
 30
0.0
 41
1.0
 10
-14830.93758913909
 20
125.4479367099634
 30
0.0
 41
1.0
 10
-14830.9361252775
 20
125.4449580298806
 30
0.0
 41
1.0
 10
-14830.884188341
 20
125.339276236733
 30
0.0
 41
0.9992763831094799
 10
-14830.84043521246
 20
125.2299521747929
 30
0.0
 41
1.0
 10
-14830.83895594279
 20
125.22625598724
 30
0.0
 41
1.0
 10
-14830.83747667311
 20
125.2225597996871
 30
0.0
 41
1.0
 10
-14830.79076500525
 20
125.1058433627126
 30
0.0
 41
0.9994163472875592
 10
-14830.75213197407
 20
124.9862097742947
 30
0.0
 41
1.0
 10
-14830.75089382181
 20
124.9823756304722
 30
0.0
 41
1.0
 10
-14830.74965566955
 20
124.9785414866497
 30
0.0
 41
1.0
 10
-14830.70977210853
 20
124.8550354251635
 30
0.0
 41
0.9997268055891922
 10
-14830.67570405262
 20
124.7298003932051
 30
0.0
 41
1.0
 10
-14830.67477387236
 20
124.7263810271152
 30
0.0
 41
1.0
 10
-14830.67384369209
 20
124.7229616610254
 30
0.0
 41
1.0
 10
-14830.64163599671
 20
124.6045653612777
 30
0.0
 41
0.9996701318997594
 10
-14830.61555037994
 20
124.4846714079911
 30
0.0
 41
1.0
 10
-14830.58946476316
 20
124.3647774547005
 30
0.0
 41
0.9995785451111286
 10
-14830.57038118582
 20
124.2435716936378
 30
0.0
 41
1.0
 10
-14830.56616140364
 20
124.2167705388808
 30
0.0
 41
1.0
 10
-14830.56194162147
 20
124.1899693841238
 30
0.0
 41
1.0
 10
-14830.53536664554
 20
124.0211834104411
 30
0.0
 41
0.9979925101226231
 10
-14830.53034105961
 20
123.8503920823712
 30
0.0
 41
1.0
 10
-14830.52951624719
 20
123.8223613589552
 30
0.0
 41
1.0
 10
-14830.52869143477
 20
123.7943306355392
 30
0.0
 41
1.0
 10
-14830.52531547369
 20
123.6796007543453
 30
0.0
 41
0.9995314902259428
 10
-14830.52896566583
 20
123.5648792705276
 30
0.0
 41
1.0
 10
-14830.53261585796
 20
123.4501577867779
 30
0.0
 41
0.9996245486943953
 10
-14830.5425449531
 20
123.335808515655
 30
0.0
 41
1.0
 10
-14830.54270800109
 20
123.3339307595181
 30
0.0
 41
1.0
 10
-14830.54287104909
 20
123.3320530033811
 30
0.0
 41
1.0
 10
-14830.5531262402
 20
123.2139482200285
 30
0.0
 41
0.999728609499756
 10
-14830.56887156376
 20
123.0964493111781
 30
0.0
 41
1.0
 10
-14830.56926505642
 20
123.0935128864332
 30
0.0
 41
1.0
 10
-14830.56965854908
 20
123.0905764616882
 30
0.0
 41
1.0
 10
-14830.58619085794
 20
122.9672047034072
 30
0.0
 41
0.9998265533968421
 10
-14830.60730631667
 20
122.8445342286432
 30
0.0
 41
1.0
 10
-14830.60798285881
 20
122.8406038501148
 30
0.0
 41
1.0
 10
-14830.60865940095
 20
122.8366734715864
 30
0.0
 41
1.0
 10
-14830.63112794395
 20
122.706142239837
 30
0.0
 41
0.9999022530849186
 10
-14830.65723740855
 20
122.5762902712599
 30
0.0
 41
1.0
 10
-14830.65821604973
 20
122.5714231288149
 30
0.0
 41
1.0
 10
-14830.6591946909
 20
122.5665559863698
 30
0.0
 41
1.0
 10
-14830.68726143787
 20
122.4269697328386
 30
0.0
 41
0.9999524761941733
 10
-14830.71804440673
 20
122.2879572395644
 30
0.0
 41
1.0
 10
-14830.71932051388
 20
122.2821944803759
 30
0.0
 41
1.0
 10
-14830.72059662103
 20
122.2764317211875
 30
0.0
 41
1.0
 10
-14830.75393180422
 20
122.1258937094068
 30
0.0
 41
0.9999813588735051
 10
-14830.78910280501
 20
121.9757739967582
 30
0.0
 41
1.0
 10
-14830.79065673047
 20
121.969141406338
 30
0.0
 41
1.0
 10
-14830.79221065592
 20
121.9625088159178
 30
0.0
 41
1.0
 10
-14830.83048950764
 20
121.7991239223914
 30
0.0
 41
0.99999552376688
 10
-14830.86974538561
 20
121.635971018815
 30
0.0
 41
1.0
 10
-14830.88202702125
 20
121.5849268282896
 30
0.0
 41
1.0
 10
-14830.89430865688
 20
121.5338826377642
 30
0.0
 41
1.0
 10
-14830.95812780606
 20
121.2686413533969
 30
0.0
 41
0.9999993604853975
 10
-14831.02254675315
 20
121.0035451030574
 30
0.0
 41
1.0
 10
-14831.02726558877
 20
120.9841261947021
 30
0.0
 41
1.0
 10
-14831.03198442439
 20
120.9647072863468
 30
0.0
 41
1.0
 10
-14831.10584104266
 20
120.6607732195501
 30
0.0
 41
0.9999659914733918
 10
-14831.18470063855
 20
120.358098672979
 30
0.0
 41
1.0
 10
-14831.18965332747
 20
120.3390895358214
 30
0.0
 41
1.0
 10
-14831.1946060164
 20
120.3200803986638
 30
0.0
 41
1.0
 10
-14831.28337099012
 20
119.9793875778241
 30
0.0
 41
0.9999441976021275
 10
-14831.37931402306
 20
119.6406461526213
 30
0.0
 41
1.0
 10
-14831.39601454151
 20
119.5816824400059
 30
0.0
 41
1.0
 10
-14831.41271505996
 20
119.5227187273904
 30
0.0
 41
1.0
 10
-14831.5420591298
 20
119.0660498769708
 30
0.0
 41
0.999962512073564
 10
-14831.67929189714
 20
118.6116893429116
 30
0.0
 41
1.0
 10
-14831.71508184023
 20
118.4931933162425
 30
0.0
 41
1.0
 10
-14831.75087178333
 20
118.3746972895735
 30
0.0
 41
1.0
 10
-14831.82539198733
 20
118.1279702115951
 30
0.0
 41
0.9999793386322157
 10
-14831.90307801044
 20
117.8822215724476
 30
0.0
 41
1.0
 10
-14831.98076403358
 20
117.6364729332117
 30
0.0
 41
1.0
 10
-14831.99154359245
 20
117.6024550288366
 30
0.0
 41
1.0
 10
-14833.84191664572
 20
111.7153831063692
 30
0.0
 41
1.0
 10
-14835.69228969899
 20
105.8283111839019
 30
0.0
 41
1.0
 10
-14836.65354638901
 20
105.8283111839019
 30
0.0
 41
1.0
 10
-14837.61480307904
 20
105.8283111839019
 30
0.0
 41
1.0
 10
-14835.99585830036
 20
110.9763396856913
 30
0.0
 41
1.0
 10
-14834.37691352168
 20
116.1243681874807
 30
0.0
 41
1.0
 10
-14834.33174769844
 20
116.2683994099532
 30
0.0
 41
1.0
 10
-14834.2865818752
 20
116.4124306324257
 30
0.0
 41
1.0
 10
-14834.11627745791
 20
116.9555216613591
 30
0.0
 41
0.999991165788435
 10
-14833.95054464629
 20
117.5000251925467
 30
0.0
 41
1.0
 10
-14833.92084870283
 20
117.5975891324625
 30
0.0
 41
1.0
 10
-14833.89115275937
 20
117.6951530723783
 30
0.0
 41
1.0
 10
-14833.78481183465
 20
118.0445287237682
 30
0.0
 41
0.9999952428169521
 10
-14833.68062824528
 20
118.3945537482598
 30
0.0
 41
1.0
 10
-14833.67556877497
 20
118.4115520224724
 30
0.0
 41
1.0
 10
-14833.67050930465
 20
118.4285502966851
 30
0.0
 41
1.0
 10
-14833.57644465597
 20
118.7445787725619
 30
0.0
 41
0.9999931687544543
 10
-14833.48471881808
 20
119.06129398588
 30
0.0
 41
1.0
 10
-14833.47978355368
 20
119.0783346949391
 30
0.0
 41
1.0
 10
-14833.47484828929
 20
119.0953754039983
 30
0.0
 41
1.0
 10
-14833.39299298026
 20
119.3780091989667
 30
0.0
 41
0.9999893840795412
 10
-14833.31374575375
 20
119.661385328397
 30
0.0
 41
1.0
 10
-14833.23449852728
 20
119.9447614577057
 30
0.0
 41
0.9999833980060527
 10
-14833.15852228652
 20
120.2290320407911
 30
0.0
 41
1.0
 10
-14833.1495183498
 20
120.2627209192518
 30
0.0
 41
1.0
 10
-14833.14051441309
 20
120.2964097977127
 30
0.0
 41
1.0
 10
-14833.07154986423
 20
120.5544456299755
 30
0.0
 41
0.9999233658067589
 10
-14833.00899489302
 20
120.8141097886501
 30
0.0
 41
1.0
 10
-14832.9464399218
 20
121.0737739473725
 30
0.0
 41
1.0
 10
-14832.90695650295
 20
121.2375806117986
 30
0.0
 41
1.0
 10
-14832.90197789896
 20
121.2582355736934
 30
0.0
 41
1.0
 10
-14832.89699929498
 20
121.2788905355882
 30
0.0
 41
1.0
 10
-14832.86747308408
 20
121.4013872762408
 30
0.0
 41
0.9999868670845939
 10
-14832.83920400009
 20
121.5241802218702
 30
0.0
 41
1.0
 10
-14832.83530651294
 20
121.5411098092475
 30
0.0
 41
1.0
 10
-14832.83140902579
 20
121.5580393966247
 30
0.0
 41
1.0
 10
-14832.81093491611
 20
121.6469731674586
 30
0.0
 41
0.9999778173349717
 10
-14832.79164731798
 20
121.7361717847461
 30
0.0
 41
1.0
 10
-14832.77235971983
 20
121.8253704021482
 30
0.0
 41
0.999960269286411
 10
-14832.75466536116
 20
121.9148986907521
 30
0.0
 41
1.0
 10
-14832.75146152912
 20
121.9311091454632
 30
0.0
 41
1.0
 10
-14832.74825769708
 20
121.9473196001743
 30
0.0
 41
1.0
 10
-14832.72415567429
 20
122.0692687983832
 30
0.0
 41
0.9995617985318896
 10
-14832.70731232707
 20
122.1924305460995
 30
0.0
 41
1.0
 10
-14832.70484783717
 20
122.2104513634622
 30
0.0
 41
1.0
 10
-14832.70238334726
 20
122.228472180825
 30
0.0
 41
1.0
 10
-14832.68210008621
 20
122.3767872305177
 30
0.0
 41
0.9991121410637042
 10
-14832.67437473263
 20
122.5262833293168
 30
0.0
 41
1.0
 10
-14832.6734559426
 20
122.5440631658123
 30
0.0
 41
1.0
 10
-14832.67253715258
 20
122.5618430023078
 30
0.0
 41
1.0
 10
-14832.66664937904
 20
122.675779428042
 30
0.0
 41
0.9989792494917228
 10
-14832.67106847115
 20
122.7897822640211
 30
0.0
 41
1.0
 10
-14832.67171644302
 20
122.8064985099444
 30
0.0
 41
1.0
 10
-14832.67236441489
 20
122.8232147558676
 30
0.0
 41
1.0
 10
-14832.67548756327
 20
122.9037850999155
 30
0.0
 41
0.9997820295391148
 10
-14832.68197156065
 20
122.9841548216637
 30
0.0
 41
1.0
 10
-14832.68845555802
 20
123.0645245433991
 30
0.0
 41
0.9998335105972985
 10
-14832.69786775353
 20
123.1446041598402
 30
0.0
 41
1.0
 10
-14832.69946267821
 20
123.1581738903321
 30
0.0
 41
1.0
 10
-14832.70105760289
 20
123.1717436208239
 30
0.0
 41
1.0
 10
-14832.71365964775
 20
123.2789626982427
 30
0.0
 41
0.999687645787933
 10
-14832.73160356055
 20
123.3854181259584
 30
0.0
 41
1.0
 10
-14832.73383522369
 20
123.3986578612015
 30
0.0
 41
1.0
 10
-14832.73606688684
 20
123.4118975964445
 30
0.0
 41
1.0
 10
-14832.74986270826
 20
123.493743740402
 30
0.0
 41
0.9995547496493317
 10
-14832.76851603015
 20
123.5746212375891
 30
0.0
 41
1.0
 10
-14832.76888998703
 20
123.576242648299
 30
0.0
 41
1.0
 10
-14832.7692639439
 20
123.5778640590089
 30
0.0
 41
1.0
 10
-14832.78716935205
 20
123.6554987347854
 30
0.0
 41
0.9994899427176437
 10
-14832.80999426073
 20
123.7318320176148
 30
0.0
 41
1.0
 10
-14832.81045278746
 20
123.7333654673886
 30
0.0
 41
1.0
 10
-14832.8109113142
 20
123.7348989171623
 30
0.0
 41
1.0
 10
-14832.8328191694
 20
123.808165300436
 30
0.0
 41
0.9993784877591761
 10
-14832.85983480451
 20
123.8797060056081
 30
0.0
 41
1.0
 10
-14832.86036649549
 20
123.8811139883242
 30
0.0
 41
1.0
 10
-14832.86089818646
 20
123.8825219710402
 30
0.0
 41
1.0
 10
-14832.88685043962
 20
123.9512467107633
 30
0.0
 41
0.9992430832250994
 10
-14832.91806697478
 20
124.0177458628355
 30
0.0
 41
1.0
 10
-14832.91864909083
 20
124.0189859179525
 30
0.0
 41
1.0
 10
-14832.91923120689
 20
124.0202259730695
 30
0.0
 41
1.0
 10
-14832.94928350994
 20
124.0842450148998
 30
0.0
 41
0.9990789632802777
 10
-14832.98471413671
 20
124.1454516266535
 30
0.0
 41
1.0
 10
-14832.9853098429
 20
124.1464807125164
 30
0.0
 41
1.0
 10
-14832.98590554908
 20
124.1475097983792
 30
0.0
 41
1.0
 10
-14833.02014476349
 20
124.206658238403
 30
0.0
 41
0.9988874801114062
 10
-14833.05980403952
 20
124.2623179508209
 30
0.0
 41
1.0
 10
-14833.06035956558
 20
124.2630976024923
 30
0.0
 41
1.0
 10
-14833.06091509165
 20
124.2638772541636
 30
0.0
 41
1.0
 10
-14833.09946331555
 20
124.3179776632316
 30
0.0
 41
0.9986762060691157
 10
-14833.14336578683
 20
124.3678313776777
 30
0.0
 41
1.0
 10
-14833.14380974716
 20
124.3683355194938
 30
0.0
 41
1.0
 10
-14833.14425370749
 20
124.3688396613099
 30
0.0
 41
1.0
 10
-14833.18726825811
 20
124.4176850921176
 30
0.0
 41
0.9984621642487682
 10
-14833.23542581488
 20
124.4614683925879
 30
0.0
 41
1.0
 10
-14833.23567244939
 20
124.4616926247452
 30
0.0
 41
1.0
 10
-14833.2359190839
 20
124.4619168569025
 30
0.0
 41
1.0
 10
-14833.28358337166
 20
124.5052516930555
 30
0.0
 41
0.998272469385286
 10
-14833.3360020035
 20
124.5426960435768
 30
0.0
 41
1.0
 10
-14833.38842063535
 20
124.580140394097
 30
0.0
 41
0.9981399180160502
 10
-14833.44500669874
 20
124.6109269135402
 30
0.0
 41
1.0
 10
-14833.44505236082
 20
124.6109517566963
 30
0.0
 41
1.0
 10
-14833.4450980229
 20
124.6109765998524
 30
0.0
 41
1.0
 10
-14833.50177541045
 20
124.6418128056119
 30
0.0
 41
0.9980927086833359
 10
-14833.56182076151
 20
124.6654296144634
 30
0.0
 41
1.0
 10
-14833.56226093122
 20
124.665602740338
 30
0.0
 41
1.0
 10
-14833.56270110093
 20
124.6657758662127
 30
0.0
 41
1.0
 10
-14833.62362679143
 20
124.6897389268185
 30
0.0
 41
0.9981411356553458
 10
-14833.68701531284
 20
124.7061115683243
 30
0.0
 41
1.0
 10
-14833.68789742953
 20
124.706339410528
 30
0.0
 41
1.0
 10
-14833.68877954623
 20
124.7065672527317
 30
0.0
 41
1.0
 10
-14833.75393230103
 20
124.7233955786487
 30
0.0
 41
0.9983031812928893
 10
-14833.82059973002
 20
124.7325349398238
 30
0.0
 41
1.0
 10
-14833.82947075543
 20
124.7337510584954
 30
0.0
 41
1.0
 10
-14833.83834178083
 20
124.734967177167
 30
0.0
 41
1.0
 10
-14833.89269142333
 20
124.7424179071571
 30
0.0
 41
0.9983887708273115
 10
-14833.94753527263
 20
124.7436625807916
 30
0.0
 41
1.0
 10
-14833.95559867785
 20
124.7438455786665
 30
0.0
 41
1.0
 10
-14833.96366208307
 20
124.7440285765414
 30
0.0
 41
1.0
 10
-14834.0023791219
 20
124.7449072544244
 30
0.0
 41
0.9998869563079434
 10
-14834.04110507512
 20
124.7446213850653
 30
0.0
 41
1.0
 10
-14834.0798310283
 20
124.7443355157068
 30
0.0
 41
0.9999972320113033
 10
-14834.11855520753
 20
124.7438674161766
 30
0.0
 41
1.0
 10
-14834.13790822412
 20
124.7436334760872
 30
0.0
 41
1.0
 10
-14834.1572612407
 20
124.7433995359977
 30
0.0
 41
1.0
 10
-14834.23469145309
 20
124.7424635562898
 30
0.0
 41
0.9997304945085908
 10
-14834.3119947593
 20
124.7379344625038
 30
0.0
 41
1.0
 10
-14834.32104440101
 20
124.7374042565138
 30
0.0
 41
1.0
 10
-14834.33009404271
 20
124.7368740505237
 30
0.0
 41
1.0
 10
-14834.42549663235
 20
124.7312845447577
 30
0.0
 41
0.9997888306417838
 10
-14834.5205889682
 20
124.7217795802688
 30
0.0
 41
1.0
 10
-14834.52931002978
 20
124.7209078656366
 30
0.0
 41
1.0
 10
-14834.53803109135
 20
124.7200361510045
 30
0.0
 41
1.0
 10
-14834.65056555034
 20
124.7087877572503
 30
0.0
 41
0.9984170238191516
 10
-14834.76112469769
 20
124.684971675316
 30
0.0
 41
1.0
 10
-14834.79750582868
 20
124.6771346395088
 30
0.0
 41
1.0
 10
-14834.83388695967
 20
124.6692976037017
 30
0.0
 41
1.0
 10
-14834.94907802809
 20
124.6444837371914
 30
0.0
 41
0.9976592854195808
 10
-14835.05980619449
 20
124.6041850600463
 30
0.0
 41
1.0
 10
-14835.1705343609
 20
124.5638863828947
 30
0.0
 41
0.9993255074352341
 10
-14835.2780061597
 20
124.5155694843996
 30
0.0
 41
1.0
 10
-14835.28263133862
 20
124.5134901082035
 30
0.0
 41
1.0
 10
-14835.28725651753
 20
124.5114107320073
 30
0.0
 41
1.0
 10
-14835.40397867417
 20
124.4589350811132
 30
0.0
 41
0.9976475078272122
 10
-14835.5124260185
 20
124.3909870914455
 30
0.0
 41
1.0
 10
-14835.53076841261
 20
124.3794946126428
 30
0.0
 41
1.0
 10
-14835.54911080673
 20
124.3680021338402
 30
0.0
 41
1.0
 10
-14835.6333129983
 20
124.3152450130611
 30
0.0
 41
0.9995131336407513
 10
-14835.71406071326
 20
124.2573388011065
 30
0.0
 41
1.0
 10
-14835.79480842823
 20
124.1994325891445
 30
0.0
 41
0.9995810107607314
 10
-14835.87207007595
 20
124.1369509066779
 30
0.0
 41
1.0
 10
-14835.87504010716
 20
124.1345490352181
 30
0.0
 41
1.0
 10
-14835.87801013836
 20
124.1321471637582
 30
0.0
 41
1.0
 10
-14835.9612118485
 20
124.0648617383732
 30
0.0
 41
0.9996617837956345
 10
-14836.04080253564
 20
123.9933412828131
 30
0.0
 41
1.0
 10
-14836.05293328651
 20
123.9824405498245
 30
0.0
 41
1.0
 10
-14836.06506403739
 20
123.971539816836
 30
0.0
 41
1.0
 10
-14836.1333395648
 20
123.9101872013466
 30
0.0
 41
0.9997267750051392
 10
-14836.19867307308
 20
123.8457106648234
 30
0.0
 41
1.0
 10
-14836.26400658129
 20
123.781234128376
 30
0.0
 41
0.999966728896314
 10
-14836.32827952437
 20
123.7157003215501
 30
0.0
 41
1.0
 10
-14836.39710697222
 20
123.6455226627186
 30
0.0
 41
1.0
 10
-14836.46593442006
 20
123.5753450038872
 30
0.0
 41
1.0
 10
-14836.66786225877
 20
123.3694558794633
 30
0.0
 41
0.9988205335172758
 10
-14836.84886787577
 20
123.1449516473843
 30
0.0
 41
1.0
 10
-14836.87950784066
 20
123.1069483969702
 30
0.0
 41
1.0
 10
-14836.91014780555
 20
123.068945146556
 30
0.0
 41
1.0
 10
-14837.15243335237
 20
122.7684344135991
 30
0.0
 41
0.9997077826754864
 10
-14837.37991130349
 20
122.4565646193488
 30
0.0
 41
1.0
 10
-14837.3816347186
 20
122.4542018360044
 30
0.0
 41
1.0
 10
-14837.3833581337
 20
122.45183905266
 30
0.0
 41
1.0
 10
-14837.61428291507
 20
122.1352436916892
 30
0.0
 41
0.9989147567079638
 10
-14837.81474641795
 20
121.7985342305101
 30
0.0
 41
1.0
 10
-14837.83948756325
 20
121.7569776499668
 30
0.0
 41
1.0
 10
-14837.86422870855
 20
121.7154210694236
 30
0.0
 41
1.0
 10
-14838.0194400072
 20
121.4547196849529
 30
0.0
 41
0.9997476598182148
 10
-14838.16278499471
 20
121.1873099363597
 30
0.0
 41
1.0
 10
-14838.30612998222
 20
120.9199001877857
 30
0.0
 41
0.9996258967109927
 10
-14838.43463823415
 20
120.6450522511632
 30
0.0
 41
1.0
 10
-14838.4478381436
 20
120.616820851065
 30
0.0
 41
1.0
 10
-14838.46103805305
 20
120.5885894509668
 30
0.0
 41
1.0
 10
-14838.60124677406
 20
120.2887170530024
 30
0.0
 41
0.9998735413945126
 10
-14838.73184812078
 20
119.984537453541
 30
0.0
 41
1.0
 10
-14838.73529094882
 20
119.9765188681096
 30
0.0
 41
1.0
 10
-14838.73873377687
 20
119.9685002826781
 30
0.0
 41
1.0
 10
-14838.86244946748
 20
119.6803578541142
 30
0.0
 41
0.9999377418862824
 10
-14838.97970426967
 20
119.3895263863983
 30
0.0
 41
1.0
 10
-14839.09695907187
 20
119.0986949186704
 30
0.0
 41
0.9999508299501476
 10
-14839.20842301527
 20
118.8055952417854
 30
0.0
 41
1.0
 10
-14839.21150378391
 20
118.7974942158792
 30
0.0
 41
1.0
 10
-14839.21458455255
 20
118.789393189973
 30
0.0
 41
1.0
 10
-14839.33221003323
 20
118.4800914612913
 30
0.0
 41
0.9999609228431974
 10
-14839.44434863607
 20
118.1687584453584
 30
0.0
 41
1.0
 10
-14839.44730464645
 20
118.1605516048739
 30
0.0
 41
1.0
 10
-14839.45026065682
 20
118.1523447643895
 30
0.0
 41
1.0
 10
-14839.56831128036
 20
117.8245980676637
 30
0.0
 41
0.9999674607406429
 10
-14839.68105880639
 20
117.4949894477918
 30
0.0
 41
1.0
 10
-14839.73245719699
 20
117.3447302519691
 30
0.0
 41
1.0
 10
-14839.7838555876
 20
117.1944710561465
 30
0.0
 41
1.0
 10
-14839.89986619435
 20
116.8553230736685
 30
0.0
 41
0.9999287532309611
 10
-14840.00774759832
 20
116.5135023346975
 30
0.0
 41
1.0
 10
-14840.0542248548
 20
116.3662397892305
 30
0.0
 41
1.0
 10
-14840.10070211129
 20
116.2189772437635
 30
0.0
 41
1.0
 10
-14840.11562900265
 20
116.1716815945757
 30
0.0
 41
0.9999998223602199
 10
-14840.13049951102
 20
116.1243681874807
 30
0.0
 41
1.0
 10
-14841.75115564782
 20
110.9763396856913
 30
0.0
 41
1.0
 10
-14843.37181178461
 20
105.8283111839019
 30
0.0
 41
1.0
 10
-14844.2771202285
 20
105.8283111839019
 30
0.0
 41
1.0
 10
-14845.18242867239
 20
105.8283111839019
 30
0.0
 41
1.0
 10
-14843.33034426101
 20
111.7153831063692
 30
0.0
 41
1.0
 10
-14841.47825984962
 20
117.6024550288366
 30
0.0
 41
1.0
 10
-14841.46813809132
 20
117.6344982422866
 30
0.0
 41
1.0
 10
-14841.39553042247
 20
117.8647977841124
 30
0.0
 41
1.0
 10
-14841.3229227536
 20
118.0950973259974
 30
0.0
 41
0.9999825681970496
 10
-14841.25303971436
 20
118.3262382211498
 30
0.0
 41
1.0
 10
-14841.20474865221
 20
118.4859628046081
 30
0.0
 41
1.0
 10
-14841.15645759006
 20
118.6456873880663
 30
0.0
 41
1.0
 10
-14841.05930523676
 20
118.9670226098029
 30
0.0
 41
0.9999672528965222
 10
-14840.96736643115
 20
119.2898881553531
 30
0.0
 41
1.0
 10
-14840.96457754741
 20
119.2996820009784
 30
0.0
 41
1.0
 10
-14840.96178866367
 20
119.3094758466037
 30
0.0
 41
1.0
 10
-14840.87542762545
 20
119.6127537011986
 30
0.0
 41
0.9999899749170301
 10
-14840.79178601599
 20
119.916792789392
 30
0.0
 41
1.0
 10
-14840.78168009695
 20
119.9535280271363
 30
0.0
 41
1.0
 10
-14840.77157417792
 20
119.9902632648806
 30
0.0
 41
1.0
 10
-14840.70814440643
 20
120.2208318779163
 30
0.0
 41
0.9999214200505486
 10
-14840.65051497808
 20
120.4529182200538
 30
0.0
 41
1.0
 10
-14840.63774912587
 20
120.5043291055459
 30
0.0
 41
1.0
 10
-14840.62498327367
 20
120.555739991038
 30
0.0
 41
1.0
 10
-14840.59288554968
 20
120.6850045623546
 30
0.0
 41
0.9999828681676961
 10
-14840.5623032977
 20
120.8146360367305
 30
0.0
 41
1.0
 10
-14840.53172104571
 20
120.9442675111991
 30
0.0
 41
0.99993898444772
 10
-14840.50401005692
 20
121.074542967103
 30
0.0
 41
1.0
 10
-14840.4968723132
 20
121.1080990709379
 30
0.0
 41
1.0
 10
-14840.48973456948
 20
121.1416551747727
 30
0.0
 41
1.0
 10
-14840.44774809326
 20
121.3390428382905
 30
0.0
 41
0.9998933699441926
 10
-14840.41154382887
 20
121.5375724459794
 30
0.0
 41
1.0
 10
-14840.41017100364
 20
121.5451004667394
 30
0.0
 41
1.0
 10
-14840.40879817841
 20
121.5526284874995
 30
0.0
 41
1.0
 10
-14840.36984826357
 20
121.766214136687
 30
0.0
 41
0.9996850305193417
 10
-14840.34166458731
 20
121.9814851421642
 30
0.0
 41
1.0
 10
-14840.33966955394
 20
121.9967234962645
 30
0.0
 41
1.0
 10
-14840.33767452058
 20
122.0119618503647
 30
0.0
 41
1.0
 10
-14840.31026665812
 20
122.2213070775032
 30
0.0
 41
0.9994697936705444
 10
-14840.2965420989
 20
122.4319922728171
 30
0.0
 41
1.0
 10
-14840.29606502965
 20
122.4393157450699
 30
0.0
 41
1.0
 10
-14840.2955879604
 20
122.4466392173227
 30
0.0
 41
1.0
 10
-14840.28281753968
 20
122.6426774681896
 30
0.0
 41
0.9991804893132242
 10
-14840.28594585596
 20
122.8391063181211
 30
0.0
 41
1.0
 10
-14840.28602973478
 20
122.8443731195458
 30
0.0
 41
1.0
 10
-14840.2861136136
 20
122.8496399209704
 30
0.0
 41
1.0
 10
-14840.28907417223
 20
123.0355351681067
 30
0.0
 41
0.9988448329322939
 10
-14840.30986571785
 20
123.220287757928
 30
0.0
 41
1.0
 10
-14840.31145979156
 20
123.2344526137117
 30
0.0
 41
1.0
 10
-14840.31305386526
 20
123.2486174694955
 30
0.0
 41
1.0
 10
-14840.33065726348
 20
123.4050403477732
 30
0.0
 41
0.9985503209452733
 10
-14840.36497353578
 20
123.5586645318508
 30
0.0
 41
1.0
 10
-14840.37255952784
 20
123.5926248592384
 30
0.0
 41
1.0
 10
-14840.38014551991
 20
123.6265851866261
 30
0.0
 41
1.0
 10
-14840.39928980807
 20
123.7122887159258
 30
0.0
 41
0.9991036781379096
 10
-14840.42561466973
 20
123.7960658032653
 30
0.0
 41
1.0
 10
-14840.42959689521
 20
123.8087389658519
 30
0.0
 41
1.0
 10
-14840.43357912069
 20
123.8214121284385
 30
0.0
 41
1.0
 10
-14840.4519395314
 20
123.8798428906719
 30
0.0
 41
0.9998874504363888
 10
-14840.47204473906
 20
123.9376964928133
 30
0.0
 41
1.0
 10
-14840.49214994672
 20
123.9955500950065
 30
0.0
 41
0.9994041637547774
 10
-14840.51619855965
 20
124.0518787988718
 30
0.0
 41
1.0
 10
-14840.52039534389
 20
124.0617088633932
 30
0.0
 41
1.0
 10
-14840.52459212813
 20
124.0715389279146
 30
0.0
 41
1.0
 10
-14840.55247095912
 20
124.1368390938743
 30
0.0
 41
0.9991846840697773
 10
-14840.5855273158
 20
124.1996771251377
 30
0.0
 41
1.0
 10
-14840.58666392219
 20
124.2018377415808
 30
0.0
 41
1.0
 10
-14840.58780052858
 20
124.2039983580238
 30
0.0
 41
1.0
 10
-14840.61858367249
 20
124.262515156408
 30
0.0
 41
0.9989253167926888
 10
-14840.65465309655
 20
124.3179300848083
 30
0.0
 41
1.0
 10
-14840.65570722121
 20
124.3195495795506
 30
0.0
 41
1.0
 10
-14840.65676134588
 20
124.3211690742929
 30
0.0
 41
1.0
 10
-14840.69072252059
 20
124.3733450131779
 30
0.0
 41
0.9986467172841829
 10
-14840.72991967325
 20
124.421711046828
 30
0.0
 41
1.0
 10
-14840.73079380195
 20
124.4227896491101
 30
0.0
 41
1.0
 10
-14840.73166793065
 20
124.4238682513921
 30
0.0
 41
1.0
 10
-14840.76911682589
 20
124.4700770804633
 30
0.0
 41
0.9984001104258714
 10
-14840.8115435564
 20
124.5117621878262
 30
0.0
 41
1.0
 10
-14840.8121306945
 20
124.5123390626993
 30
0.0
 41
1.0
 10
-14840.8127178326
 20
124.5129159375724
 30
0.0
 41
1.0
 10
-14840.8539702869
 20
124.5534472951831
 30
0.0
 41
0.9982442159092889
 10
-14840.89972638825
 20
124.5888158564553
 30
0.0
 41
1.0
 10
-14840.89994118371
 20
124.5889818890942
 30
0.0
 41
1.0
 10
-14840.90015597916
 20
124.5891479217331
 30
0.0
 41
1.0
 10
-14840.94548248958
 20
124.6241844177137
 30
0.0
 41
0.998245006083053
 10
-14840.99463346866
 20
124.6536162007492
 30
0.0
 41
1.0
 10
-14841.04378444773
 20
124.6830479837857
 30
0.0
 41
0.9983922639626522
 10
-14841.09595075391
 20
124.7067276184428
 30
0.0
 41
1.0
 10
-14841.09617763123
 20
124.7068306039212
 30
0.0
 41
1.0
 10
-14841.09640450855
 20
124.7069335893996
 30
0.0
 41
1.0
 10
-14841.14902456935
 20
124.7308191950143
 30
0.0
 41
0.9986517147153073
 10
-14841.20383754221
 20
124.7491203141331
 30
0.0
 41
1.0
 10
-14841.20451546365
 20
124.7493466605671
 30
0.0
 41
1.0
 10
-14841.20519338508
 20
124.7495730070011
 30
0.0
 41
1.0
 10
-14841.2613622008
 20
124.7683268189822
 30
0.0
 41
0.9989435598963322
 10
-14841.31901558795
 20
124.7818445212182
 30
0.0
 41
1.0
 10
-14841.32009570754
 20
124.7820977714723
 30
0.0
 41
1.0
 10
-14841.32117582712
 20
124.7823510217263
 30
0.0
 41
1.0
 10
-14841.38098945344
 20
124.796375224469
 30
0.0
 41
0.9992249241236266
 10
-14841.44172096233
 20
124.8056505671822
 30
0.0
 41
1.0
 10
-14841.44313465062
 20
124.80586647559
 30
0.0
 41
1.0
 10
-14841.44454833891
 20
124.8060823839978
 30
0.0
 41
1.0
 10
-14841.5081072244
 20
124.8157895435296
 30
0.0
 41
0.9994396597836352
 10
-14841.57217316093
 20
124.8212224658745
 30
0.0
 41
1.0
 10
-14841.59131382841
 20
124.8228456335931
 30
0.0
 41
1.0
 10
-14841.61045449589
 20
124.8244688013117
 30
0.0
 41
1.0
 10
-14841.71280176737
 20
124.8331480590933
 30
0.0
 41
0.9987693403126741
 10
-14841.81550539097
 20
124.8316449956418
 30
0.0
 41
1.0
 10
-14841.8257597252
 20
124.8314949238676
 30
0.0
 41
1.0
 10
-14841.83601405942
 20
124.8313448520934
 30
0.0
 41
1.0
 10
-14841.9455698256
 20
124.8297415078053
 30
0.0
 41
0.9989753644968167
 10
-14842.05453182562
 20
124.8182385008809
 30
0.0
 41
1.0
 10
-14842.16349382563
 20
124.8067354939567
 30
0.0
 41
0.998319006730558
 10
-14842.27039263659
 20
124.7827005021699
 30
0.0
 41
1.0
 10
-14842.2792935882
 20
124.7806992236068
 30
0.0
 41
1.0
 10
-14842.28819453981
 20
124.7786979450436
 30
0.0
 41
1.0
 10
-14842.412895254
 20
124.750660396128
 30
0.0
 41
0.9985539388303484
 10
-14842.53386500768
 20
124.709396720081
 30
0.0
 41
1.0
 10
-14842.53621043864
 20
124.7085966762677
 30
0.0
 41
1.0
 10
-14842.53855586959
 20
124.7077966324543
 30
0.0
 41
1.0
 10
-14842.66421648519
 20
124.6649328687738
 30
0.0
 41
0.9988468746494921
 10
-14842.78518682749
 20
124.6102147837146
 30
0.0
 41
1.0
 10
-14842.78836964948
 20
124.6087751091547
 30
0.0
 41
1.0
 10
-14842.79155247146
 20
124.6073354345949
 30
0.0
 41
1.0
 10
-14842.91888845773
 20
124.5497380004182
 30
0.0
 41
0.9991322885923508
 10
-14843.04098904177
 20
124.4817426682451
 30
0.0
 41
1.0
 10
-14843.05859105284
 20
124.4719404662428
 30
0.0
 41
1.0
 10
-14843.07619306391
 20
124.4621382642406
 30
0.0
 41
1.0
 10
-14843.17836974495
 20
124.4052381484643
 30
0.0
 41
0.9993860037850318
 10
-14843.27631074902
 20
124.3413221328817
 30
0.0
 41
1.0
 10
-14843.28192906191
 20
124.3376556381588
 30
0.0
 41
1.0
 10
-14843.28754737481
 20
124.3339891434359
 30
0.0
 41
1.0
 10
-14843.37425175313
 20
124.2774061172678
 30
0.0
 41
0.9998821494953124
 10
-14843.45917812891
 20
124.2181878872166
 30
0.0
 41
1.0
 10
-14843.54410450469
 20
124.1589696571597
 30
0.0
 41
0.9997976482747752
 10
-14843.62658013508
 20
124.0963832491308
 30
0.0
 41
1.0
 10
-14843.6412163999
 20
124.0852765593345
 30
0.0
 41
1.0
 10
-14843.65585266473
 20
124.0741698695383
 30
0.0
 41
1.0
 10
-14843.76760082475
 20
123.9893700819344
 30
0.0
 41
0.9998091630800919
 10
-14843.8759511028
 20
123.9002697312108
 30
0.0
 41
1.0
 10
-14843.88895685526
 20
123.889574630777
 30
0.0
 41
1.0
 10
-14843.90196260773
 20
123.8788795303433
 30
0.0
 41
1.0
 10
-14844.03632439071
 20
123.7683889787516
 30
0.0
 41
0.9995035112316252
 10
-14844.16346026846
 20
123.6496551617411
 30
0.0
 41
1.0
 10
-14844.17310757886
 20
123.6406454155756
 30
0.0
 41
1.0
 10
-14844.18275488926
 20
123.63163566941
 30
0.0
 41
1.0
 10
-14844.30617795202
 20
123.5163692976548
 30
0.0
 41
0.9994630424299383
 10
-14844.4217863578
 20
123.393266554428
 30
0.0
 41
1.0
 10
-14844.42546919657
 20
123.3893449749143
 30
0.0
 41
1.0
 10
-14844.42915203534
 20
123.3854233954006
 30
0.0
 41
1.0
 10
-14844.53739476358
 20
123.2701638111942
 30
0.0
 41
0.9995160693748721
 10
-14844.63826079311
 20
123.1483963933204
 30
0.0
 41
1.0
 10
-14844.64019451321
 20
123.1460619690974
 30
0.0
 41
1.0
 10
-14844.6421282333
 20
123.1437275448745
 30
0.0
 41
1.0
 10
-14844.73912682265
 20
123.0266289754387
 30
0.0
 41
0.9996561470512955
 10
-14844.82985304131
 20
122.9046062129987
 30
0.0
 41
1.0
 10
-14844.83601070719
 20
122.8963244239918
 30
0.0
 41
1.0
 10
-14844.84216837306
 20
122.8880426349848
 30
0.0
 41
1.0
 10
-14844.92057925995
 20
122.7825834505891
 30
0.0
 41
0.999834905517558
 10
-14844.99510654191
 20
122.674344866886
 30
0.0
 41
1.0
 10
-14845.0696338239
 20
122.566106283141
 30
0.0
 41
0.9999728109565004
 10
-14845.14255671985
 20
122.456780357516
 30
0.0
 41
1.0
 10
-14845.14387193521
 20
122.4548085880892
 30
0.0
 41
1.0
 10
-14845.14518715057
 20
122.4528368186625
 30
0.0
 41
1.0
 10
-14845.22074047721
 20
122.3395673542493
 30
0.0
 41
0.9999972147320856
 10
-14845.29575828738
 20
122.2259425117276
 30
0.0
 41
1.0
 10
-14845.30072983015
 20
122.2184124230248
 30
0.0
 41
1.0
 10
-14845.30570137293
 20
122.2108823343219
 30
0.0
 41
1.0
 10
-14845.39066226858
 20
122.0821973144891
 30
0.0
 41
0.9999371979008407
 10
-14845.47271761802
 20
121.9516404006454
 30
0.0
 41
1.0
 10
-14845.47622650235
 20
121.9460574726393
 30
0.0
 41
1.0
 10
-14845.47973538667
 20
121.9404745446332
 30
0.0
 41
1.0
 10
-14845.56880850478
 20
121.7987517747507
 30
0.0
 41
0.9998272025610778
 10
-14845.65255189564
 20
121.6538158980533
 30
0.0
 41
1.0
 10
-14845.66776706769
 20
121.6274827835611
 30
0.0
 41
1.0
 10
-14845.68298223973
 20
121.6011496690689
 30
0.0
 41
1.0
 10
-14845.79715597466
 20
121.4035475634225
 30
0.0
 41
0.9995217214838239
 10
-14845.89889566421
 20
121.1992652355703
 30
0.0
 41
1.0
 10
-14845.90653922687
 20
121.1839177858002
 30
0.0
 41
1.0
 10
-14845.91418278954
 20
121.1685703360301
 30
0.0
 41
1.0
 10
-14846.00108808211
 20
120.9940738780036
 30
0.0
 41
0.9998269762605965
 10
-14846.08144254835
 20
120.8164655913401
 30
0.0
 41
1.0
 10
-14846.16179701459
 20
120.6388573046982
 30
0.0
 41
0.9998944747389259
 10
-14846.23695780912
 20
120.4589895791424
 30
0.0
 41
1.0
 10
-14846.24191147876
 20
120.447134924119
 30
0.0
 41
1.0
 10
-14846.24686514839
 20
120.4352802690957
 30
0.0
 41
1.0
 10
-14846.32751220893
 20
120.242283329112
 30
0.0
 41
0.9999506734408605
 10
-14846.40430973782
 20
120.0477225242773
 30
0.0
 41
1.0
 10
-14846.41890970295
 20
120.0107346028369
 30
0.0
 41
1.0
 10
-14846.43350966808
 20
119.9737466813964
 30
0.0
 41
1.0
 10
-14846.48110726659
 20
119.8531617197745
 30
0.0
 41
0.9999912393922251
 10
-14846.52769371075
 20
119.7321825167253
 30
0.0
 41
1.0
 10
-14846.57428015474
 20
119.6112033141224
 30
0.0
 41
0.9999927113994089
 10
-14846.61994144911
 20
119.489871906678
 30
0.0
 41
1.0
 10
-14846.63390988054
 20
119.4527549246038
 30
0.0
 41
1.0
 10
-14846.64787831196
 20
119.4156379425297
 30
0.0
 41
1.0
 10
-14846.72147646913
 20
119.2200725710841
 30
0.0
 41
0.9999487550950972
 10
-14846.79110009408
 20
119.0230572059781
 30
0.0
 41
1.0
 10
-14846.81469370401
 20
118.9562938957002
 30
0.0
 41
1.0
 10
-14846.83828731394
 20
118.8895305854222
 30
0.0
 41
1.0
 10
-14846.93297294834
 20
118.6215967505055
 30
0.0
 41
0.9999808436955202
 10
-14847.02433453701
 20
118.3525113191724
 30
0.0
 41
1.0
 10
-14847.11569612565
 20
118.0834258879005
 30
0.0
 41
0.9999873932900559
 10
-14847.20435083439
 20
117.8134365328295
 30
0.0
 41
1.0
 10
-14847.22444319125
 20
117.7522472001091
 30
0.0
 41
1.0
 10
-14847.24453554811
 20
117.6910578673887
 30
0.0
 41
1.0
 10
-14847.37337497062
 20
117.2986898467045
 30
0.0
 41
0.9999794883034162
 10
-14847.49717775562
 20
116.904703640274
 30
0.0
 41
1.0
 10
-14847.50833001507
 20
116.8692130299889
 30
0.0
 41
1.0
 10
-14847.51948227453
 20
116.8337224197038
 30
0.0
 41
1.0
 10
-14847.66204043836
 20
116.380049667826
 30
0.0
 41
0.999998276165707
 10
-14847.80291287831
 20
115.9258506459082
 30
0.0
 41
1.0
 10
-14849.39105321088
 20
110.877080914905
 30
0.0
 41
1.0
 10
-14850.97919354346
 20
105.8283111839019
 30
0.0
 41
1.0
 10
-14851.92794415493
 20
105.8283111839019
 30
0.0
 41
1.0
 10
-14852.87669476641
 20
105.8283111839019
 30
0.0
 41
1.0
 10
-14849.63841028025
 20
116.155633383848
 30
0.0
 41
1.0
 10
-14846.4001257941
 20
126.4829555837941
 30
0.0
 41
1.0
  0
LWPOLYLINE
  5
61
330
23
100
AcDbEntity
  8
0
  6
Continuous
 62
     7
370
    15
390
1D
100
AcDbPolyline
 90
      232
 70
   128
 43
0.0
 10
-14872.10367156793
 20
125.398612752279
 42
0.0004370800677671
 10
-14872.15654874206
 20
125.3299461129507
 10
-14872.19583297313
 20
125.278839000126
 42
0.0030481992174487
 10
-14872.32617169019
 20
125.1071173078603
 10
-14872.364683362
 20
125.0557305239936
 42
0.0042058245767795
 10
-14872.56866841276
 20
124.7787247787975
 10
-14872.62107353517
 20
124.7062919321393
 42
0.0120948898746935
 10
-14872.91711745198
 20
124.2755423275203
 10
-14873.013309951
 20
124.1280615924462
 42
0.0141601263920074
 10
-14873.31695399797
 20
123.6323922556303
 10
-14873.35649126546
 20
123.5635482880943
 42
0.0071131081331294
 10
-14873.56176358864
 20
123.1940454893602
 42
0.0068458791000487
 10
-14873.75664311546
 20
122.8189539259319
 10
-14873.76345497794
 20
122.8053922121603
 42
0.0064120880282523
 10
-14873.96159722798
 20
122.3979677372457
 10
-14873.9691319135
 20
122.3819558805203
 42
0.0058857236454721
 10
-14874.17188730545
 20
121.9375797693058
 10
-14874.18006223167
 20
121.9190896158514
 42
0.0053189741917919
 10
-14874.38876654437
 20
121.4331261418497
 10
-14874.39751435002
 20
121.4121442637372
 42
0.0047503650404395
 10
-14874.61348807612
 20
120.8799448306509
 10
-14874.62275632451
 20
120.8564684544197
 42
0.0042071762170301
 10
-14874.84730370827
 20
120.2733748602864
 10
-14874.85705311059
 20
120.2474086854802
 42
0.0036680086506941
 10
-14875.09150775399
 20
119.608773300705
 10
-14875.10171553375
 20
119.5803247666045
 42
0.0032573142626401
 10
-14875.3473478197
 20
118.8814721068892
 10
-14875.41599834062
 20
118.6820090226075
 42
0.0026133366657157
 10
-14875.76444353932
 20
117.6521457391264
 10
-14875.82770032685
 20
117.4619149036235
 42
0.0020592950739699
 10
-14876.04156339578
 20
116.8098112511202
 10
-14876.04461518686
 20
116.800374762989
 42
0.0025609928517969
 10
-14876.24643568843
 20
116.1652295403446
 10
-14876.24902705548
 20
116.1569271996551
 42
0.0031362356213435
 10
-14876.43851784124
 20
115.5361643432248
 10
-14876.44064888415
 20
115.5290230370506
 42
0.0037229918025332
 10
-14876.61744927109
 20
114.9200377350394
 10
-14876.61912786032
 20
114.9140908447859
 42
0.0043077623705945
 10
-14876.78286866236
 20
114.3142721130957
 42
0.0047654161812346
 10
-14876.93569738488
 20
113.7115860241852
 10
-14876.97016199372
 20
113.5700242470436
 42
0.0112969368447814
 10
-14877.16602635186
 20
112.6783320864369
 10
-14877.19403274096
 20
112.5355040403217
 42
0.0130056762563854
 10
-14877.3948699846
 20
111.3485629686768
 10
-14877.41540973476
 20
111.2044848551532
 42
0.0138721532153991
 10
-14877.51911273929
 20
110.2976553693741
 10
-14877.53840822719
 20
110.0741576474907
 42
0.0071254697001969
 10
-14877.57175487312
 20
109.6109706386019
 10
-14877.5767158473
 20
109.5249666437192
 42
0.0028881799224797
 10
-14877.59185414057
 20
109.2332249341991
 42
0.0060297297122958
 10
-14877.60178634034
 20
108.941275998175
 10
-14877.60284862201
 20
108.892883626168
 42
0.022952316411727
 10
-14877.59511759423
 20
108.5701287798677
 10
-14877.59089182071
 20
108.5097252458847
 42
0.0123673300691433
 10
-14877.57181317419
 20
108.3086045206767
 42
0.0128577674478913
 10
-14877.54261778379
 20
108.1087066707596
 10
-14877.5354919104
 20
108.0673778561529
 42
0.0285717853783516
 10
-14877.4709979087
 20
107.7892617048498
 10
-14877.45732938503
 20
107.742606935343
 42
0.0316283099164032
 10
-14877.34151880512
 20
107.4235924335362
 10
-14877.33847011335
 20
107.4166060611817
 42
0.0338984824301484
 10
-14877.1890384024
 20
107.1290400970215
 10
-14877.18672967302
 20
107.1252490677301
 42
0.0350228718394068
 10
-14877.00436938235
 20
106.8681970830689
 10
-14877.00348413057
 20
106.8671180052972
 42
0.0347476747560523
 10
-14876.78905944334
 20
106.639932958085
 42
0.0331337701890938
 10
-14876.54581611759
 20
106.4438042960058
 10
-14876.54471601908
 20
106.4430315928348
 42
0.0305233319110394
 10
-14876.2761713235
 20
106.2779034227391
 10
-14876.272941279
 20
106.2761794108808
 42
0.02737444811605
 10
-14875.98038756742
 20
106.1400412669883
 10
-14875.97528303229
 20
106.1379976825208
 42
0.0240964406186186
 10
-14875.65980595665
 20
106.0290139562397
 10
-14875.65322262744
 20
106.0270892165645
 42
0.02096361798208
 10
-14875.31582247479
 20
105.9436210686343
 10
-14875.30819001433
 20
105.9420691556311
 42
0.0181388704709785
 10
-14874.94986762233
 20
105.8826530624166
 10
-14874.94158677396
 20
105.8815868786
 42
0.0156086547565954
 10
-14874.56339940977
 20
105.8448506920231
 10
-14874.52020415744
 20
105.8420121895439
 42
0.0137148329004691
 10
-14874.19253101214
 20
105.8294919342927
 10
-14874.1465948222
 20
105.8289975011775
 42
0.0051057823892265
 10
-14873.91044923562
 20
105.8288672467686
 42
0.0052256693337913
 10
-14873.67435195183
 20
105.8336160712332
 10
-14873.60412516809
 20
105.835763037247
 42
0.0161507179044496
 10
-14873.22838808999
 20
105.8594134075735
 10
-14873.20837512962
 20
105.8613236028609
 42
0.0101216737827459
 10
-14872.79434790813
 20
105.9093165332264
 10
-14872.7602946187
 20
105.9139642300361
 42
0.0245291776376663
 10
-14872.28350496315
 20
106.0030393081124
 10
-14872.19868164765
 20
106.0232352284532
 42
0.0143509212538228
 10
-14871.84205054369
 20
106.1190398622371
 42
0.0156557857053041
 10
-14871.49183447894
 20
106.2360510780623
 10
-14871.48433326447
 20
106.23882123981
 42
0.0170137333633343
 10
-14871.12773726878
 20
106.3844788546814
 10
-14871.12063334638
 20
106.3876666902447
 42
0.0183105364417846
 10
-14870.76128367822
 20
106.5650017320649
 10
-14870.75433691357
 20
106.5687521669411
 42
0.0194899958160286
 10
-14870.39585617258
 20
106.7807311488352
 10
-14870.38884229325
 20
106.7852564911268
 42
0.0204869852953776
 10
-14870.03482799115
 20
107.0347765062183
 10
-14870.02756238257
 20
107.040356571561
 42
0.021251693853612
 10
-14869.68157245149
 20
107.33026056843
 10
-14869.6350557574
 20
107.3727278785424
 42
0.021524891823905
 10
-14869.3750295885
 20
107.631492157544
 10
-14869.32999985404
 20
107.680336278978
 42
0.0114578554969839
 10
-14869.17520770044
 20
107.8561592123519
 10
-14869.16401316455
 20
107.8694779757803
 42
0.0061531305069585
 10
-14869.03753851846
 20
108.023767509203
 42
0.0006325587099129
 10
-14868.91316003315
 20
108.1797708863401
 10
-14868.89011989926
 20
108.2087444055383
 42
0.0041897761548641
 10
-14868.72166449519
 20
108.4242637817207
 10
-14868.66320237539
 20
108.5003651285851
 42
0.0092993880044187
 10
-14868.38659044817
 20
108.8746438924722
 10
-14868.30419595496
 20
108.990580896048
 42
0.0159321727074908
 10
-14867.95758947233
 20
109.5127551167939
 10
-14867.91323333695
 20
109.5844346810226
 42
0.0085547317016928
 10
-14867.67872157161
 20
109.9783096302685
 42
0.0084601156886399
 10
-14867.45774539417
 20
110.3799364793024
 10
-14867.44962992034
 20
110.3952961615737
 42
0.0081429654293039
 10
-14867.22638064992
 20
110.8350176740723
 10
-14867.21752048572
 20
110.8531965161339
 42
0.0076574581322405
 10
-14866.99111297515
 20
111.3363793913999
 10
-14866.98163333443
 20
111.3574438696899
 42
0.0070682724209644
 10
-14866.75118842658
 20
111.8894811745661
 10
-14866.74119814264
 20
111.9134703634827
 42
0.0064559514445899
 10
-14866.50586493448
 20
112.4997826299471
 10
-14866.49545557629
 20
112.5267175554441
 42
0.0058311413913849
 10
-14866.25440883953
 20
113.1727496498332
 10
-14866.24365376214
 20
113.2026339909883
 42
0.0052312425822029
 10
-14865.9960724841
 20
113.9138364048405
 10
-14865.98502864772
 20
113.9466631168923
 42
0.0046680544798536
 10
-14865.73010022004
 20
114.7284894324901
 10
-14865.68810806991
 20
114.861472670044
 42
0.0041666856455832
 10
-14865.48482205755
 20
115.5244414449448
 10
-14865.44715961695
 20
115.6510225523861
 42
0.0015170975163587
 10
-14865.32597303847
 20
116.0628909040922
 42
-0.000488799307515
 10
-14865.20563326493
 20
116.4750093175612
 10
-14865.12915600786
 20
116.7359667020753
 42
0.0002583378916838
 10
-14864.85594143866
 20
117.6700234022663
 10
-14864.77416858794
 20
117.9501226657917
 42
0.0006636169683758
 10
-14864.5803008282
 20
118.6174755884244
 10
-14864.57520417355
 20
118.6351071723429
 42
0.0010589131308715
 10
-14864.39375547294
 20
119.2678385143531
 10
-14864.38877340259
 20
119.2853514209038
 42
0.0015655524465383
 10
-14864.22050319528
 20
119.8839681005743
 10
-14864.21567299488
 20
119.9013602594299
 42
0.0021640440489439
 10
-14864.06138302288
 20
120.4663872775284
 10
-14864.05674880351
 20
120.4836520072689
 42
0.0028763871840181
 10
-14863.91723308539
 20
121.0156199583691
 10
-14863.9128472212
 20
121.0327439366359
 42
0.0037310511934425
 10
-14863.78889052939
 20
121.5321915305476
 10
-14863.78481530912
 20
121.549151801721
 42
0.0047652197762726
 10
-14863.67719140859
 20
122.0166295700983
 10
-14863.67350080929
 20
122.0333891251299
 42
0.0060276699292432
 10
-14863.58297071011
 20
122.4694649203925
 10
-14863.57975201984
 20
122.4859661345978
 42
0.007582433774088
 10
-14863.50706271041
 20
122.8912332991276
 10
-14863.50441733301
 20
122.9073882466981
 42
0.0095130624643912
 10
-14863.4503020974
 20
123.2824775996498
 10
-14863.44331587351
 20
123.3384111577885
 42
0.0121054653242652
 10
-14863.41672454294
 20
123.6033069862403
 10
-14863.41585805319
 20
123.614710429053
 42
0.0069050827356739
 10
-14863.40076923514
 20
123.8576516560138
 10
-14863.39963393547
 20
123.8811779131748
 42
0.0169063976826938
 10
-14863.39680665649
 20
124.0773706403593
 10
-14863.39797730802
 20
124.1377064016992
 42
0.005200773284876
 10
-14863.40023075662
 20
124.2132997918607
 42
0.0054038123270552
 10
-14863.42019426846
 20
124.3333180879387
 10
-14863.42528012432
 20
124.3619765744515
 42
0.0112050460495464
 10
-14863.4606644864
 20
124.5383030128728
 10
-14863.47848944842
 20
124.6178445995115
 42
0.0240764468018194
 10
-14863.56938681457
 20
124.9480816349986
 10
-14863.58794557738
 20
125.0047018000082
 42
0.0256812331821153
 10
-14863.73130849757
 20
125.3764260062637
 10
-14863.73671792338
 20
125.3885573412212
 42
0.0268360501173618
 10
-14863.90614516424
 20
125.7195504752744
 10
-14863.91168157188
 20
125.729070145596
 42
0.0274670231750414
 10
-14864.10388254829
 20
126.0213575205039
 10
-14864.10926384826
 20
126.0286366680456
 42
0.0275035967116448
 10
-14864.32083672782
 20
126.2841525583494
 10
-14864.32590622878
 20
126.2896316459755
 42
0.0269557673497417
 10
-14864.55330977222
 20
126.5102739319423
 10
-14864.55805283001
 20
126.5144038864068
 42
0.025912480217644
 10
-14864.79760766144
 20
126.7020944135552
 10
-14864.80213850665
 20
126.7052799159106
 42
0.0245162153018884
 10
-14865.05005485971
 20
126.862012924996
 10
-14865.05458140604
 20
126.8645731221973
 42
0.022928258880678
 10
-14865.30700096286
 20
126.9924413146957
 10
-14865.3117814567
 20
126.9945936144574
 42
0.0212984135731448
 10
-14865.56481940916
 20
127.0957925317
 10
-14865.57012369413
 20
127.0976560944598
 42
0.0197555462331711
 10
-14865.81990203186
 20
127.1744715124248
 42
0.0183511896791414
 10
-14866.07483075732
 20
127.23205441939
 10
-14866.16119595404
 20
127.2482572097751
 42
0.03380578771536
 10
-14866.4467033033
 20
127.2820656149156
 10
-14866.53770870835
 20
127.2866452701773
 42
0.0091990524575583
 10
-14866.64355581698
 20
127.2900211260992
 42
0.0028333980702272
 10
-14866.74946973297
 20
127.2908492336158
 10
-14866.75038518602
 20
127.2908512034398
 42
-0.0023619827736412
 10
-14866.85813120114
 20
127.2915920445184
 10
-14866.8945363713
 20
127.2920143509814
 42
0.0008824598486556
 10
-14867.07509236113
 20
127.2937901292195
 10
-14867.11895379356
 20
127.2941440907452
 42
0.0038132665734044
 10
-14867.38723668944
 20
127.2942630268119
 10
-14867.40377034423
 20
127.2941442606684
 42
0.0060665569351206
 10
-14867.70505083583
 20
127.2883239612475
 10
-14867.71930116785
 20
127.28787565328
 42
0.0080356953361822
 10
-14868.04875988419
 20
127.2722079312125
 10
-14868.06082989927
 20
127.2714393482725
 42
0.0098996399116547
 10
-14868.41359298391
 20
127.2419541190756
 10
-14868.4236386933
 20
127.2409138228763
 42
0.0117740981389616
 10
-14868.79479555166
 20
127.1936215753456
 10
-14868.80301824813
 20
127.1923764587759
 42
0.0137435215124182
 10
-14869.18760706761
 20
127.1232794852157
 10
-14869.19426410674
 20
127.1218935889806
 42
0.0158359869359562
 10
-14869.58726120053
 20
127.0270015005033
 10
-14869.59267438741
 20
127.0255115596292
 42
0.0180554124010394
 10
-14869.98898943201
 20
126.9008735433943
 10
-14869.9935462201
 20
126.8992575071243
 42
0.0203657431290235
 10
-14870.38802373792
 20
126.7409971656049
 10
-14870.39216727692
 20
126.7391355441666
 42
0.0226819684655179
 10
-14870.77960333312
 20
126.5434929655
 10
-14870.78380312414
 20
126.5411273735756
 42
0.024863498459115
 10
-14871.15898506532
 20
126.3045007276351
 10
-14871.20717999411
 20
126.2706436858006
 42
0.0267044190864995
 10
-14871.48147269103
 20
126.0552033099348
 42
0.0139303002178896
 10
-14871.73763985698
 20
125.8179644690105
 10
-14871.74249324269
 20
125.8132118061626
 42
0.028346096344286
 10
-14871.98656583692
 20
125.5454811457047
 10
-14872.02623434207
 20
125.4966795682444
 42
0.0070695364835062
 10
-14872.10367156793
 20
125.398612752279
 42
0.0070695364835062
  0
LWPOLYLINE
  5
62
330
23
100
AcDbEntity
  8
0
  6
Continuous
 62
     7
370
    15
390
1D
100
AcDbPolyline
 90
      226
 70
   128
 43
0.0
 10
-14875.63249200518
 20
109.6770239460948
 42
-0.002627763685132
 10
-14875.63256988898
 20
109.7437958714888
 10
-14875.63235253074
 20
109.7969510892813
 42
-0.0088680296609561
 10
-14875.62857591445
 20
109.9699668718156
 10
-14875.62622955534
 20
110.0292468971379
 42
-0.0077381705591063
 10
-14875.61018344457
 20
110.3205073929506
 10
-14875.6093155334
 20
110.3327956266212
 42
-0.0068872530502641
 10
-14875.58268345363
 20
110.6480173788803
 10
-14875.58147922947
 20
110.6602583577089
 42
-0.0062130021463427
 10
-14875.54388551263
 20
110.9991280490013
 10
-14875.54238160911
 20
111.0113019208638
 42
-0.0056726929685156
 10
-14875.4934597496
 20
111.3734971429598
 10
-14875.49168630396
 20
111.3855909432225
 42
-0.0052341884493588
 10
-14875.43107571768
 20
111.7707841988249
 10
-14875.42905772892
 20
111.7827891287329
 42
-0.004976845020016
 10
-14875.35631904752
 20
112.1906336960172
 10
-14875.33207003277
 20
112.3191816791716
 42
-0.0089029805603264
 10
-14875.19498918097
 20
112.9809571266583
 10
-14875.16224380566
 20
113.1259885571174
 42
-0.0080318257090355
 10
-14874.93269519131
 20
114.0716981890014
 10
-14874.92071026487
 20
114.1178288241613
 42
-0.0074265721329973
 10
-14874.63669872606
 20
115.147893402411
 10
-14874.61681918295
 20
115.2160274629829
 42
-0.0069711922713595
 10
-14874.2895146044
 20
116.2822952034592
 10
-14874.22956265733
 20
116.4683165617094
 42
-0.0052070422906139
 10
-14874.00013743203
 20
117.155588638861
 10
-14873.9828562398
 20
117.2056159196507
 42
-0.0009167004447409
 10
-14873.77976435257
 20
117.7900717676323
 42
-0.0025162726936265
 10
-14873.57266672225
 20
118.3731130319608
 10
-14873.53544211056
 20
118.476262577551
 42
-0.0028212681453057
 10
-14873.28726619154
 20
119.1519932098713
 10
-14873.27743542887
 20
119.1783006543386
 42
-0.0031964916829338
 10
-14873.04114317113
 20
119.7985054166752
 10
-14873.03150871728
 20
119.8233154064325
 42
-0.0036281836468815
 10
-14872.80640275603
 20
120.3907560877115
 10
-14872.79696434576
 20
120.4140535194858
 42
-0.0041269166809864
 10
-14872.58234664921
 20
120.9314944151924
 10
-14872.54971369266
 20
121.008372861849
 42
-0.0047472213042516
 10
-14872.39266888724
 20
121.3687943294369
 10
-14872.38577480587
 20
121.3842149271206
 42
-0.0025651659947082
 10
-14872.23741677218
 20
121.7115429825174
 42
-0.0057144634978022
 10
-14872.08366707834
 20
122.0363526560143
 10
-14872.05563637299
 20
122.0938610383027
 42
-0.0065388068396075
 10
-14871.87216934526
 20
122.4580935349391
 10
-14871.86371088955
 20
122.4743531141927
 42
-0.0074510843055405
 10
-14871.68752864361
 20
122.8010413954314
 10
-14871.67934897308
 20
122.8156821727
 42
-0.0084648979889906
 10
-14871.50971511998
 20
123.1075911836615
 10
-14871.50185899354
 20
123.1205981752316
 42
-0.0095638542851835
 10
-14871.3380235459
 20
123.3804870472909
 10
-14871.33054860225
 20
123.3918564087045
 42
-0.0107191626811915
 10
-14871.17174702184
 20
123.6224676432903
 10
-14871.16473028806
 20
123.6322037357146
 42
-0.0118458573903318
 10
-14871.01018218959
 20
123.8362759309655
 42
-0.012918451813637
 10
-14870.84572956594
 20
124.0324364471998
 10
-14870.81558479362
 20
124.0665625260465
 42
-0.0217742579613564
 10
-14870.63897247129
 20
124.2497692962856
 10
-14870.6282269268
 20
124.259986129516
 42
-0.0097266568632257
 10
-14870.46216930798
 20
124.4118337039258
 42
-0.0187720905747032
 10
-14870.28782173207
 20
124.5539025573305
 10
-14870.25711574145
 20
124.5770616396823
 42
-0.0179428207512623
 10
-14870.02469502142
 20
124.7396138168228
 10
-14870.0210426945
 20
124.7419777517145
 42
-0.017004787768732
 10
-14869.78527905697
 20
124.883438265862
 10
-14869.78149606825
 20
124.8855365708853
 42
-0.0160190788399106
 10
-14869.54458752059
 20
125.0071878728863
 42
-0.0151102861512387
 10
-14869.30055573817
 20
125.113870648931
 10
-14869.24816923593
 20
125.1349107818357
 42
-0.0271945441875156
 10
-14868.88950667686
 20
125.2567755925443
 10
-14868.82044187639
 20
125.276125133807
 42
-0.0237596594006701
 10
-14868.40464502936
 20
125.3715758457897
 10
-14868.33658217563
 20
125.3838305339176
 42
-0.0213715440597301
 10
-14868.05070724419
 20
125.4227775654263
 10
-14867.99056007796
 20
125.4283672801275
 42
-0.0101465655768029
 10
-14867.82306754597
 20
125.4405108233912
 10
-14867.81372715977
 20
125.4409977383885
 42
-0.0100375910887428
 10
-14867.66457305921
 20
125.4457735563137
 10
-14867.65431378953
 20
125.4458959953282
 42
-0.0103625633327461
 10
-14867.52560579488
 20
125.4447645618015
 10
-14867.5033401436
 20
125.4441072033365
 42
-0.0115689250154239
 10
-14867.41928940608
 20
125.4396776970914
 42
-0.0072438037478573
 10
-14867.33545112664
 20
125.4320884973415
 10
-14867.31865061717
 20
125.4303219546177
 42
-0.0217917313227896
 10
-14867.20208085386
 20
125.4129020618973
 10
-14867.13648076329
 20
125.4001554534834
 42
-0.0332943556730564
 10
-14866.93208859826
 20
125.3461151621755
 10
-14866.9019160297
 20
125.3359470850533
 42
-0.0184824084832412
 10
-14866.76341097325
 20
125.2834960696705
 42
-0.019800205065472
 10
-14866.62933663276
 20
125.2206120094771
 10
-14866.62744999537
 20
125.2196342225911
 42
-0.0212242342955176
 10
-14866.49531105294
 20
125.1438714837781
 10
-14866.49349575743
 20
125.1427256815896
 42
-0.0226090605822397
 10
-14866.36499185619
 20
125.0532460380143
 10
-14866.36314741447
 20
125.0518337850376
 42
-0.0238457052211611
 10
-14866.23996533316
 20
124.9478378891651
 10
-14866.23801260461
 20
124.9460230114091
 42
-0.0248160564223978
 10
-14866.12181109732
 20
124.8267484102116
 10
-14866.11970746391
 20
124.824363076496
 42
-0.0254109591456022
 10
-14866.01210224606
 20
124.6890746905453
 10
-14866.00985422413
 20
124.685933142131
 42
-0.0255528488263158
 10
-14865.91240754531
 20
124.5339060878606
 10
-14865.91007644542
 20
124.5298244762891
 42
-0.0252146793212701
 10
-14865.8242954194
 20
124.3603222302732
 10
-14865.82199318025
 20
124.3551401483794
 42
-0.0244265635920353
 10
-14865.74933848648
 20
124.1673935763224
 10
-14865.74009208503
 20
124.1395281580085
 42
-0.0231319612891804
 10
-14865.69416930603
 20
123.9762271111936
 42
-0.0112130424356209
 10
-14865.6595332835
 20
123.8100235110531
 10
-14865.65833075838
 20
123.8035269241175
 42
-0.0210527881403516
 10
-14865.63264428302
 20
123.6224712787668
 10
-14865.62913368819
 20
123.5870657301289
 42
-0.0190029892339402
 10
-14865.61369221464
 20
123.3335298837617
 10
-14865.6128822382
 20
123.2980542694875
 42
-0.013797455373823
 10
-14865.61443109103
 20
122.9730228629033
 10
-14865.61527654599
 20
122.9469041181445
 42
-0.0081336634233214
 10
-14865.63013588121
 20
122.6415566505621
 42
-0.0073526923557594
 10
-14865.65444441459
 20
122.336808406231
 10
-14865.65570583837
 20
122.3234717316109
 42
-0.0066886138694495
 10
-14865.69144142441
 20
121.9928856881215
 10
-14865.69309851388
 20
121.9792640691223
 42
-0.0061359187378092
 10
-14865.74094911592
 20
121.6225000891344
 10
-14865.74298661701
 20
121.6086052861931
 42
-0.0056698610077096
 10
-14865.80363694775
 20
121.2253267175085
 10
-14865.8060423811
 20
121.2111675981243
 42
-0.0052721077281012
 10
-14865.88017458189
 20
120.8010402584596
 10
-14865.88293773074
 20
120.7866236230604
 42
-0.0049289272141037
 10
-14865.97123184888
 20
120.3493151117342
 10
-14865.97434434352
 20
120.3346462591221
 42
-0.0047415956692926
 10
-14866.07758233511
 20
119.8698495014677
 10
-14866.11235054541
 20
119.7200424063283
 42
-0.0084404470900197
 10
-14866.30236698896
 20
118.959818381876
 10
-14866.30849367697
 20
118.9369542576437
 42
-0.0039635940267009
 10
-14866.52994736127
 20
118.1359653933525
 10
-14866.54332415644
 20
118.0890337768046
 42
-0.007247504082236
 10
-14866.81077104436
 20
117.1998140602344
 10
-14866.88098337119
 20
116.9780737102368
 42
-0.0051345458826599
 10
-14867.16774274319
 20
116.1037485226311
 10
-14867.18926900993
 20
116.0403222555727
 42
-0.001915001660428
 10
-14867.44480241682
 20
115.2967731352751
 10
-14867.45127002124
 20
115.2781856702796
 42
-0.0021524362746852
 10
-14867.69974807228
 20
114.5738598486457
 10
-14867.70895849301
 20
114.5481062702551
 42
-0.0024331286822638
 10
-14867.94521375201
 20
113.8975069622261
 10
-14867.9542617045
 20
113.8729636560318
 42
-0.0027449721789587
 10
-14868.1788762754
 20
113.2738337769472
 10
-14868.18776628278
 20
113.2505111871065
 42
-0.0031083229771101
 10
-14868.4013087694
 20
112.7005871495153
 10
-14868.41004490112
 20
112.6784974335427
 42
-0.0035311343280419
 10
-14868.61308608667
 20
112.1755143079274
 10
-14868.62167142582
 20
112.1546715843945
 42
-0.0040245640948567
 10
-14868.81478322961
 20
111.6963622618246
 10
-14868.82321934335
 20
111.676782893426
 42
-0.0046015135814333
 10
-14869.00697563638
 20
111.2608778641102
 10
-14869.01526181414
 20
111.2425807248025
 42
-0.0052768638286386
 10
-14869.19023933316
 20
110.866807840388
 10
-14869.19837154374
 20
110.8498145019319
 42
-0.0060672675621007
 10
-14869.36515115655
 20
110.5118988787308
 10
-14869.37312063707
 20
110.4962336196633
 42
-0.0069904648830809
 10
-14869.53228903103
 20
110.1938978130697
 10
-14869.54008043062
 20
110.1795872638963
 42
-0.0080637022762903
 10
-14869.69223229099
 20
109.9105519606892
 10
-14869.69982132361
 20
109.8976240951072
 42
-0.0093006455681559
 10
-14869.84556200016
 20
109.6596096965854
 10
-14869.85291266691
 20
109.6480917273965
 42
-0.0107060778044034
 10
-14869.99286121034
 20
109.4388214100331
 10
-14869.99992297858
 20
109.4287358675224
 42
-0.0122723111477143
 10
-14870.13471669682
 20
109.2459425379782
 10
-14870.13504292036
 20
109.2455221501866
 42
-0.0141836319687283
 10
-14870.27862452334
 20
109.070952392339
 10
-14870.28557227898
 20
109.0629773920926
 42
-0.0175957477210905
 10
-14870.42547844703
 20
108.9133565036695
 42
-0.0080466359674576
 10
-14870.57294221207
 20
108.7710339755077
 10
-14870.61897675658
 20
108.7280135374272
 42
-0.0269600260364349
 10
-14870.87225700257
 20
108.5156902789064
 10
-14870.93882413886
 20
108.465738864294
 42
-0.0178362839756081
 10
-14871.17876862851
 20
108.2987209380417
 10
-14871.1860135995
 20
108.2940524258434
 42
-0.0174650732649803
 10
-14871.42234979695
 20
108.1531914608777
 42
-0.0169240130155032
 10
-14871.66781604283
 20
108.0288992010923
 10
-14871.71380219837
 20
108.0075372455331
 42
-0.0318883036822861
 10
-14872.06415305399
 20
107.8711989360231
 10
-14872.13251858917
 20
107.8494983155449
 42
-0.028443590989389
 10
-14872.50856871545
 20
107.7532808800727
 10
-14872.54372687596
 20
107.7463872842422
 42
-0.0243909341026587
 10
-14872.85717033687
 20
107.7006662532142
 10
-14872.90745106363
 20
107.6958207063126
 42
-0.0196639292902971
 10
-14873.12304664116
 20
107.683572420799
 10
-14873.17487071233
 20
107.6826691600623
 42
-0.0100501510634623
 10
-14873.28729399399
 20
107.6829695584154
 10
-14873.31895385533
 20
107.6836906303005
 42
-0.0019752031213447
 10
-14873.36804619202
 20
107.6850027905105
 10
-14873.37080649524
 20
107.6850874823368
 42
0.0065378752043036
 10
-14873.41438306999
 20
107.6858543735516
 42
-0.0167974694719776
 10
-14873.45791389292
 20
107.6875142720772
 10
-14873.46199323219
 20
107.6878072829725
 42
-0.0081283276273709
 10
-14873.51355302992
 20
107.6923542766105
 10
-14873.5252926038
 20
107.6935821941888
 42
-0.0126703440134065
 10
-14873.6000108996
 20
107.7033169852606
 10
-14873.62279876727
 20
107.7068752411756
 42
-0.0117852088375014
 10
-14873.74233775311
 20
107.7284382363329
 10
-14873.79771820487
 20
107.7397817765673
 42
-0.0251774592326362
 10
-14874.02456224386
 20
107.798279785995
 10
-14874.06928143373
 20
107.8122466053348
 42
-0.014652519992137
 10
-14874.25567442127
 20
107.8765131325338
 42
-0.0166929435885037
 10
-14874.43765207737
 20
107.9523202655808
 10
-14874.44230870867
 20
107.9544451662023
 42
-0.0191684358421179
 10
-14874.6274923399
 20
108.0476812499857
 10
-14874.63082492567
 20
108.0495224975455
 42
-0.0221181781806682
 10
-14874.81413522958
 20
108.1616559959222
 10
-14874.81648503358
 20
108.1632402939072
 42
-0.0254984685369533
 10
-14874.99277518395
 20
108.2956514438627
 10
-14875.01525733167
 20
108.3144037528118
 42
-0.0292492648754342
 10
-14875.14002627051
 20
108.4314965524563
 42
-0.015904895744449
 10
-14875.253866268
 20
108.5595165440945
 10
-14875.25518505854
 20
108.5610981570755
 42
-0.0343813379597703
 10
-14875.35782232016
 20
108.7029694828382
 10
-14875.38931385154
 20
108.753472874958
 42
-0.0369117275680326
 10
-14875.47520635343
 20
108.9169501158874
 42
-0.0191751379833252
 10
-14875.54239973901
 20
109.0893547219668
 10
-14875.54416306274
 20
109.0944480665682
 42
-0.0378178042190988
 10
-14875.59395778153
 20
109.2833888426761
 10
-14875.59995307724
 20
109.3159494607541
 42
-0.0184846046516261
 10
-14875.62067027655
 20
109.4577022813914
 42
-0.0179866351354795
 10
-14875.63100328163
 20
109.6005930944454
 10
-14875.63105972407
 20
109.6021507810851
 42
-0.0085497186261504
 10
-14875.63249200518
 20
109.6770239460948
 42
-0.0085497186261504
  0
ENDBLK
  5
63
330
23
100
AcDbEntity
  8
template
390
1D
100
AcDbBlockEnd
  0
BLOCK
  5
64
330
24
100
AcDbEntity
  8
template
390
1D
100
AcDbBlockBegin
  2
*D3
 70
     1
 10
0.0
 20
0.0
 30
0.0
  3
*D3
  1
*D3
  0
LINE
  5
65
330
24
100
AcDbEntity
  8
template
  6
Continuous
 62
     0
370
    -2
100
AcDbLine
 10
1722.999999999758
 20
2277.70060763559
 30
0.0
 11
1817.376254782041
 21
2277.70060763559
 31
0.0
  0
LINE
  5
66
330
24
100
AcDbEntity
  8
template
  6
Continuous
 62
     0
370
    -2
100
AcDbLine
 10
1722.999999999758
 20
2310.700607635588
 30
0.0
 11
1817.376254782041
 21
2310.700607635588
 31
0.0
  0
LINE
  5
67
330
24
100
AcDbEntity
  8
template
  6
Continuous
 62
     0
370
    -2
100
AcDbLine
 10
1817.376254782041
 20
2273.700851776215
 30
0.0
 11
1817.376254782041
 21
2269.70109591684
 31
0.0
  0
LINE
  5
68
102
{ACAD_REACTORS
330
69
102
}
330
24
100
AcDbEntity
  8
template
  6
Continuous
 62
     0
370
    -2
100
AcDbLine
 10
1817.376254782041
 20
2314.700363494963
 30
0.0
 11
1817.376254782041
 21
2318.700119354338
 31
0.0
  0
INSERT
  5
69
330
24
100
AcDbEntity
  8
template
 62
     0
370
    -2
100
AcDbBlockReference
  2
_DOT
 10
1817.376254782041
 20
2277.70060763559
 30
0.0
 41
3.999755859375
 42
3.999755859375
 43
3.999755859375
 50
90.0
  0
INSERT
  5
6A
102
{ACAD_REACTORS
330
6B
102
}
330
24
100
AcDbEntity
  8
template
 62
     0
370
    -2
100
AcDbBlockReference
  2
_DOT
 10
1817.376254782041
 20
2310.700607635588
 30
0.0
 41
3.999755859375
 42
3.999755859375
 43
3.999755859375
 50
270.0
  0
MTEXT
  5
6B
330
24
100
AcDbEntity
  8
template
  6
Continuous
 62
     0
370
     5
100
AcDbMText
 10
1800.159946188291
 20
2294.200607635589
 30
0.0
 40
24.4326171875
 41
0.0
 46
0.0
 71
     5
 72
     1
  1
\A1;33
  7
ＭＳ ゴシック
 11
0.0
 21
1.0
 31
0.0
 73
     1
 44
1.0
  0
POINT
  5
6C
330
24
100
AcDbEntity
  8
Defpoints
 62
     0
100
AcDbPoint
 10
1697.999999999758
 20
2277.70060763559
 30
0.0
  0
POINT
  5
6D
330
24
100
AcDbEntity
  8
Defpoints
 62
     0
100
AcDbPoint
 10
1697.999999999758
 20
2310.700607635588
 30
0.0
  0
POINT
  5
6E
330
24
100
AcDbEntity
  8
Defpoints
 62
     0
100
AcDbPoint
 10
1817.376254782041
 20
2310.700607635588
 30
0.0
  0
ENDBLK
  5
70
330
24
100
AcDbEntity
  8
template
390
1D
100
AcDbBlockEnd
  0
BLOCK
  5
71
330
25
100
AcDbEntity
  8
template
390
1D
100
AcDbBlockBegin
  2
*D4
 70
     1
 10
0.0
 20
0.0
 30
0.0
  3
*D4
  1
*D4
  0
LINE
  5
72
330
25
100
AcDbEntity
  8
template
  6
Continuous
 62
     0
370
    -2
100
AcDbLine
 10
656.9999999997583
 20
1089.778409752038
 30
0.0
 11
656.9999999997583
 21
1140.259567803155
 31
0.0
  0
LINE
  5
73
330
25
100
AcDbEntity
  8
template
  6
Continuous
 62
     0
370
    -2
100
AcDbLine
 10
516.9999999997583
 20
1089.778409752038
 30
0.0
 11
516.9999999997583
 21
1140.259567803155
 31
0.0
  0
LINE
  5
74
330
25
100
AcDbEntity
  8
template
  6
Continuous
 62
     0
370
    -2
100
AcDbLine
 10
653.0002441403833
 20
1140.259567803155
 30
0.0
 11
520.9997558591333
 21
1140.259567803155
 31
0.0
  0
INSERT
  5
75
102
{ACAD_REACTORS
330
76
102
}
330
25
100
AcDbEntity
  8
template
 62
     0
370
    -2
100
AcDbBlockReference
  2
_DOT
 10
656.9999999997583
 20
1140.259567803155
 30
0.0
 41
3.999755859375
 42
3.999755859375
 43
3.999755859375
  0
INSERT
  5
76
330
25
100
AcDbEntity
  8
template
 62
     0
370
    -2
100
AcDbBlockReference
  2
_DOT
 10
516.9999999997583
 20
1140.259567803155
 30
0.0
 41
3.999755859375
 42
3.999755859375
 43
3.999755859375
 50
180.0
  0
MTEXT
  5
77
102
{ACAD_REACTORS
330
78
102
}
330
25
100
AcDbEntity
  8
template
  6
Continuous
 62
     0
370
     5
100
AcDbMText
 10
586.9999999997583
 20
1157.475876396905
 30
0.0
 40
24.4326171875
 41
0.0
 46
0.0
 71
     5
 72
     1
  1
\A1;140
  7
ＭＳ ゴシック
 73
     1
 44
1.0
  0
POINT
  5
78
330
25
100
AcDbEntity
  8
Defpoints
 62
     0
100
AcDbPoint
 10
656.9999999997583
 20
1064.778409752038
 30
0.0
  0
POINT
  5
79
330
25
100
AcDbEntity
  8
Defpoints
 62
     0
100
AcDbPoint
 10
516.9999999997583
 20
1064.778409752038
 30
0.0
  0
POINT
  5
7A
330
25
100
AcDbEntity
  8
Defpoints
 62
     0
100
AcDbPoint
 10
516.9999999997583
 20
1140.259567803155
 30
0.0
  0
ENDBLK
  5
7D
330
25
100
AcDbEntity
  8
template
390
1D
100
AcDbBlockEnd
  0
BLOCK
  5
7E
330
26
100
AcDbEntity
  8
template
390
1D
100
AcDbBlockBegin
  2
*D5
 70
     1
 10
0.0
 20
0.0
 30
0.0
  3
*D5
  1
*D5
  0
LINE
  5
7F
330
26
100
AcDbEntity
  8
template
  6
Continuous
 62
     0
370
    -2
100
AcDbLine
 10
238.9999999997601
 20
1044.778409752038
 30
0.0
 11
194.9999999997601
 21
1044.778409752038
 31
0.0
  0
LINE
  5
80
330
26
100
AcDbEntity
  8
template
  6
Continuous
 62
     0
370
    -2
100
AcDbLine
 10
230.9999999997601
 20
1094.778409752038
 30
0.0
 11
194.9999999997601
 21
1094.778409752038
 31
0.0
  0
LINE
  5
81
330
26
100
AcDbEntity
  8
template
  6
Continuous
 62
     0
370
    -2
100
AcDbLine
 10
194.9999999997601
 20
1048.778165611413
 30
0.0
 11
194.9999999997601
 21
1090.778653892663
 31
0.0
  0
INSERT
  5
82
102
{ACAD_REACTORS
330
83
102
}
330
26
100
AcDbEntity
  8
template
 62
     0
370
    -2
100
AcDbBlockReference
  2
_DOT
 10
194.9999999997601
 20
1044.778409752038
 30
0.0
 41
3.999755859375
 42
3.999755859375
 43
3.999755859375
 50
270.0
  0
INSERT
  5
83
330
26
100
AcDbEntity
  8
template
 62
     0
370
    -2
100
AcDbBlockReference
  2
_DOT
 10
194.9999999997601
 20
1094.778409752038
 30
0.0
 41
3.999755859375
 42
3.999755859375
 43
3.999755859375
 50
90.0
  0
MTEXT
  5
84
102
{ACAD_REACTORS
330
85
102
}
330
26
100
AcDbEntity
  8
template
  6
Continuous
 62
     0
370
     5
100
AcDbMText
 10
177.7836914060101
 20
1069.778409752038
 30
0.0
 40
24.4326171875
 41
0.0
 46
0.0
 71
     5
 72
     1
  1
\A1;50
  7
ＭＳ ゴシック
 11
0.0
 21
1.0
 31
0.0
 73
     1
 44
1.0
  0
POINT
  5
85
330
26
100
AcDbEntity
  8
Defpoints
 62
     0
100
AcDbPoint
 10
263.9999999997601
 20
1044.778409752038
 30
0.0
  0
POINT
  5
86
330
26
100
AcDbEntity
  8
Defpoints
 62
     0
100
AcDbPoint
 10
255.9999999997601
 20
1094.778409752038
 30
0.0
  0
POINT
  5
87
330
26
100
AcDbEntity
  8
Defpoints
 62
     0
100
AcDbPoint
 10
194.9999999997601
 20
1094.778409752038
 30
0.0
  0
ENDBLK
  5
8A
330
26
100
AcDbEntity
  8
template
390
1D
100
AcDbBlockEnd
  0
BLOCK
  5
8B
330
27
100
AcDbEntity
  8
notes
390
1D
100
AcDbBlockBegin
  2
グループ-1
 70
     0
 10
0.0
 20
0.0
 30
0.0
  3
グループ-1
  1
グループ-1
  0
LINE
  5
8C
330
27
100
AcDbEntity
  8
0
  6
Continuous
 62
     7
370
     5
390
1D
100
AcDbLine
 10
-15024.82374266063
 20
2317.861169101789
 30
0.0
 11
-15061.82374266063
 21
2280.861169101789
 31
0.0
  0
LINE
  5
8D
330
27
100
AcDbEntity
  8
0
  6
Continuous
 62
     7
370
     5
390
1D
100
AcDbLine
 10
-15044.82374266063
 20
2317.861169101789
 30
0.0
 11
-15081.82374266063
 21
2280.861169101789
 31
0.0
  0
LINE
  5
8E
330
27
100
AcDbEntity
  8
0
  6
Continuous
 62
     7
370
     5
390
1D
100
AcDbLine
 10
-15064.82374266063
 20
2317.861169101789
 30
0.0
 11
-15101.82374266063
 21
2280.861169101789
 31
0.0
  0
ENDBLK
  5
8F
330
27
100
AcDbEntity
  8
notes
390
1D
100
AcDbBlockEnd
  0
BLOCK
  5
90
330
28
100
AcDbEntity
  8
notes
390
1D
100
AcDbBlockBegin
  2
*D7
 70
     1
 10
0.0
 20
0.0
 30
0.0
  3
*D7
  1
*D7
  0
LINE
  5
91
330
28
100
AcDbEntity
  8
notes
  6
Continuous
 62
     0
370
    -2
100
AcDbLine
 10
936.8968278528084
 20
2018.200607600371
 30
0.0
 11
936.8968278528084
 21
2460.70060763559
 31
0.0
  0
LINE
  5
92
330
28
100
AcDbEntity
  8
notes
  6
Continuous
 62
     0
370
    -2
100
AcDbLine
 10
236.8973693541668
 20
2018.200607600371
 30
0.0
 11
236.8973693541668
 21
2460.70060763559
 31
0.0
  0
LINE
  5
93
330
28
100
AcDbEntity
  8
notes
  6
Continuous
 62
     0
370
    -2
100
AcDbLine
 10
932.8970719934334
 20
2460.70060763559
 30
0.0
 11
240.8971252135418
 21
2460.70060763559
 31
0.0
  0
INSERT
  5
94
102
{ACAD_REACTORS
330
95
102
}
330
28
100
AcDbEntity
  8
notes
 62
     0
370
    -2
100
AcDbBlockReference
  2
_DOT
 10
936.8968278528084
 20
2460.70060763559
 30
0.0
 41
3.999755859375
 42
3.999755859375
 43
3.999755859375
  0
INSERT
  5
95
330
28
100
AcDbEntity
  8
notes
 62
     0
370
    -2
100
AcDbBlockReference
  2
_DOT
 10
236.8973693541668
 20
2460.70060763559
 30
0.0
 41
3.999755859375
 42
3.999755859375
 43
3.999755859375
 50
180.0
  0
MTEXT
  5
96
102
{ACAD_REACTORS
330
97
102
}
330
28
100
AcDbEntity
  8
notes
  6
Continuous
 62
     0
370
     5
100
AcDbMText
 10
586.8970986034876
 20
2477.91691622934
 30
0.0
 40
24.4326171875
 41
0.0
 46
0.0
 71
     5
 72
     1
  1
\A1;700
  7
ＭＳ ゴシック
 73
     1
 44
1.0
  0
POINT
  5
97
330
28
100
AcDbEntity
  8
Defpoints
 62
     0
100
AcDbPoint
 10
936.8968278528084
 20
1993.200607600371
 30
0.0
  0
POINT
  5
98
330
28
100
AcDbEntity
  8
Defpoints
 62
     0
100
AcDbPoint
 10
236.8973693541668
 20
1993.200607600371
 30
0.0
  0
POINT
  5
99
330
28
100
AcDbEntity
  8
Defpoints
 62
     0
100
AcDbPoint
 10
236.8973693541668
 20
2460.70060763559
 30
0.0
  0
ENDBLK
  5
9C
330
28
100
AcDbEntity
  8
notes
390
1D
100
AcDbBlockEnd
  0
BLOCK
  5
9D
330
29
100
AcDbEntity
  8
notes
390
1D
100
AcDbBlockBegin
  2
*D8
 70
     1
 10
0.0
 20
0.0
 30
0.0
  3
*D8
  1
*D8
  0
LINE
  5
9E
330
29
100
AcDbEntity
  8
notes
  6
Continuous
 62
     0
370
    -2
100
AcDbLine
 10
736.8970986034822
 20
2330.700607635588
 30
0.0
 11
736.8970986034822
 21
2410.700607635588
 31
0.0
  0
LINE
  5
9F
330
29
100
AcDbEntity
  8
notes
  6
Continuous
 62
     0
370
    -2
100
AcDbLine
 10
436.8970986034803
 20
2330.700607635588
 30
0.0
 11
436.8970986034803
 21
2410.700607635588
 31
0.0
  0
LINE
  5
A0
330
29
100
AcDbEntity
  8
notes
  6
Continuous
 62
     0
370
    -2
100
AcDbLine
 10
732.8973427441072
 20
2410.700607635588
 30
0.0
 11
440.8968544628553
 21
2410.700607635588
 31
0.0
  0
INSERT
  5
A1
102
{ACAD_REACTORS
330
A2
102
}
330
29
100
AcDbEntity
  8
notes
 62
     0
370
    -2
100
AcDbBlockReference
  2
_DOT
 10
736.8970986034822
 20
2410.700607635588
 30
0.0
 41
3.999755859375
 42
3.999755859375
 43
3.999755859375
  0
INSERT
  5
A2
330
29
100
AcDbEntity
  8
notes
 62
     0
370
    -2
100
AcDbBlockReference
  2
_DOT
 10
436.8970986034803
 20
2410.700607635588
 30
0.0
 41
3.999755859375
 42
3.999755859375
 43
3.999755859375
 50
180.0
  0
MTEXT
  5
A3
102
{ACAD_REACTORS
330
A4
102
}
330
29
100
AcDbEntity
  8
notes
  6
Continuous
 62
     0
370
     5
100
AcDbMText
 10
586.8970986034813
 20
2427.916916229338
 30
0.0
 40
24.4326171875
 41
0.0
 46
0.0
 71
     5
 72
     1
  1
\A1;300
  7
ＭＳ ゴシック
 73
     1
 44
1.0
  0
POINT
  5
A4
330
29
100
AcDbEntity
  8
Defpoints
 62
     0
100
AcDbPoint
 10
736.8970986034822
 20
2305.700607635588
 30
0.0
  0
POINT
  5
A5
330
29
100
AcDbEntity
  8
Defpoints
 62
     0
100
AcDbPoint
 10
436.8970986034803
 20
2305.700607635588
 30
0.0
  0
POINT
  5
A6
330
29
100
AcDbEntity
  8
Defpoints
 62
     0
100
AcDbPoint
 10
436.8970986034803
 20
2410.700607635588
 30
0.0
  0
ENDBLK
  5
A9
330
29
100
AcDbEntity
  8
notes
390
1D
100
AcDbBlockEnd
  0
BLOCK
  5
AA
330
2A
100
AcDbEntity
  8
notes
390
1D
100
AcDbBlockBegin
  2
*D9
 70
     1
 10
0.0
 20
0.0
 30
0.0
  3
*D9
  1
*D9
  0
LINE
  5
AB
330
2A
100
AcDbEntity
  8
notes
  6
Continuous
 62
     0
370
    -2
100
AcDbLine
 10
661.8970914894655
 20
1780.700607635592
 30
0.0
 11
1036.89682785281
 21
1780.700607635592
 31
0.0
  0
LINE
  5
AC
330
2A
100
AcDbEntity
  8
notes
  6
Continuous
 62
     0
370
    -2
100
AcDbLine
 10
756.8970986034822
 20
2310.700607635588
 30
0.0
 11
1036.89682785281
 21
2310.700607635588
 31
0.0
  0
LINE
  5
AD
330
2A
100
AcDbEntity
  8
notes
  6
Continuous
 62
     0
370
    -2
100
AcDbLine
 10
1036.89682785281
 20
1784.700363494967
 30
0.0
 11
1036.89682785281
 21
2306.700851776213
 31
0.0
  0
INSERT
  5
AE
102
{ACAD_REACTORS
330
AF
102
}
330
2A
100
AcDbEntity
  8
notes
 62
     0
370
    -2
100
AcDbBlockReference
  2
_DOT
 10
1036.89682785281
 20
1780.700607635592
 30
0.0
 41
3.999755859375
 42
3.999755859375
 43
3.999755859375
 50
270.0
  0
INSERT
  5
AF
330
2A
100
AcDbEntity
  8
notes
 62
     0
370
    -2
100
AcDbBlockReference
  2
_DOT
 10
1036.89682785281
 20
2310.700607635588
 30
0.0
 41
3.999755859375
 42
3.999755859375
 43
3.999755859375
 50
90.0
  0
MTEXT
  5
B0
102
{ACAD_REACTORS
330
B1
102
}
330
2A
100
AcDbEntity
  8
notes
  6
Continuous
 62
     0
370
     5
100
AcDbMText
 10
1019.68051925906
 20
2045.70060763559
 30
0.0
 40
24.4326171875
 41
0.0
 46
0.0
 71
     5
 72
     1
  1
\A1;530
  7
ＭＳ ゴシック
 11
0.0
 21
1.0
 31
0.0
 73
     1
 44
1.0
  0
POINT
  5
B1
330
2A
100
AcDbEntity
  8
Defpoints
 62
     0
100
AcDbPoint
 10
636.8970914894655
 20
1780.700607635592
 30
0.0
  0
POINT
  5
B2
330
2A
100
AcDbEntity
  8
Defpoints
 62
     0
100
AcDbPoint
 10
731.8970986034822
 20
2310.700607635588
 30
0.0
  0
POINT
  5
B3
330
2A
100
AcDbEntity
  8
Defpoints
 62
     0
100
AcDbPoint
 10
1036.89682785281
 20
2310.700607635588
 30
0.0
  0
ENDBLK
  5
B6
330
2A
100
AcDbEntity
  8
notes
390
1D
100
AcDbBlockEnd
  0
BLOCK
  5
B7
330
2B
100
AcDbEntity
  8
notes
390
1D
100
AcDbBlockBegin
  2
*D10
 70
     1
 10
0.0
 20
0.0
 30
0.0
  3
*D10
  1
*D10
  0
LINE
  5
B8
330
2B
100
AcDbEntity
  8
notes
  6
Continuous
 62
     0
370
    -2
100
AcDbLine
 10
324.3972339964387
 20
2165.700607600364
 30
0.0
 11
136.8973693541668
 21
2165.700607600364
 31
0.0
  0
LINE
  5
B9
330
2B
100
AcDbEntity
  8
notes
  6
Continuous
 62
     0
370
    -2
100
AcDbLine
 10
416.8970986034803
 20
2310.700607635588
 30
0.0
 11
136.8973693541668
 21
2310.700607635588
 31
0.0
  0
LINE
  5
BA
330
2B
100
AcDbEntity
  8
notes
  6
Continuous
 62
     0
370
    -2
100
AcDbLine
 10
136.8973693541668
 20
2169.700363459739
 30
0.0
 11
136.8973693541668
 21
2306.700851776213
 31
0.0
  0
INSERT
  5
BB
102
{ACAD_REACTORS
330
BC
102
}
330
2B
100
AcDbEntity
  8
notes
 62
     0
370
    -2
100
AcDbBlockReference
  2
_DOT
 10
136.8973693541668
 20
2165.700607600364
 30
0.0
 41
3.999755859375
 42
3.999755859375
 43
3.999755859375
 50
270.0
  0
INSERT
  5
BC
330
2B
100
AcDbEntity
  8
notes
 62
     0
370
    -2
100
AcDbBlockReference
  2
_DOT
 10
136.8973693541668
 20
2310.700607635588
 30
0.0
 41
3.999755859375
 42
3.999755859375
 43
3.999755859375
 50
90.0
  0
MTEXT
  5
BD
102
{ACAD_REACTORS
330
BE
102
}
330
2B
100
AcDbEntity
  8
notes
  6
Continuous
 62
     0
370
     5
100
AcDbMText
 10
119.6810607604168
 20
2238.200607617976
 30
0.0
 40
24.4326171875
 41
0.0
 46
0.0
 71
     5
 72
     1
  1
\A1;145
  7
ＭＳ ゴシック
 11
0.0
 21
1.0
 31
0.0
 73
     1
 44
1.0
  0
POINT
  5
BE
330
2B
100
AcDbEntity
  8
Defpoints
 62
     0
100
AcDbPoint
 10
349.3972339964387
 20
2165.700607600364
 30
0.0
  0
POINT
  5
BF
330
2B
100
AcDbEntity
  8
Defpoints
 62
     0
100
AcDbPoint
 10
441.8970986034803
 20
2310.700607635588
 30
0.0
  0
POINT
  5
C0
330
2B
100
AcDbEntity
  8
Defpoints
 62
     0
100
AcDbPoint
 10
136.8973693541668
 20
2310.700607635588
 30
0.0
  0
ENDBLK
  5
C3
330
2B
100
AcDbEntity
  8
notes
390
1D
100
AcDbBlockEnd
  0
BLOCK
  5
C4
330
2C
100
AcDbEntity
  8
notes
390
1D
100
AcDbBlockBegin
  2
*D11
 70
     1
 10
0.0
 20
0.0
 30
0.0
  3
*D11
  1
*D11
  0
LINE
  5
C5
330
2C
100
AcDbEntity
  8
notes
  6
Continuous
 62
     0
370
    -2
100
AcDbLine
 10
323.6408156143591
 20
1820.700607600374
 30
0.0
 11
136.8973693541668
 21
1820.700607600374
 31
0.0
  0
LINE
  5
C6
330
2C
100
AcDbEntity
  8
notes
  6
Continuous
 62
     0
370
    -2
100
AcDbLine
 10
324.397233996435
 20
2165.700607600364
 30
0.0
 11
136.8973693541668
 21
2165.700607600364
 31
0.0
  0
LINE
  5
C7
330
2C
100
AcDbEntity
  8
notes
  6
Continuous
 62
     0
370
    -2
100
AcDbLine
 10
136.8973693541668
 20
1824.700363459749
 30
0.0
 11
136.8973693541668
 21
2161.700851740989
 31
0.0
  0
INSERT
  5
C8
102
{ACAD_REACTORS
330
C9
102
}
330
2C
100
AcDbEntity
  8
notes
 62
     0
370
    -2
100
AcDbBlockReference
  2
_DOT
 10
136.8973693541668
 20
1820.700607600374
 30
0.0
 41
3.999755859375
 42
3.999755859375
 43
3.999755859375
 50
270.0
  0
INSERT
  5
C9
330
2C
100
AcDbEntity
  8
notes
 62
     0
370
    -2
100
AcDbBlockReference
  2
_DOT
 10
136.8973693541668
 20
2165.700607600364
 30
0.0
 41
3.999755859375
 42
3.999755859375
 43
3.999755859375
 50
90.0
  0
MTEXT
  5
CA
102
{ACAD_REACTORS
330
CB
102
}
330
2C
100
AcDbEntity
  8
notes
  6
Continuous
 62
     0
370
     5
100
AcDbMText
 10
119.6810607604168
 20
1993.200607600369
 30
0.0
 40
24.4326171875
 41
0.0
 46
0.0
 71
     5
 72
     1
  1
\A1;345
  7
ＭＳ ゴシック
 11
8.238176646494148E-17
 21
1.0
 31
0.0
 73
     1
 44
1.0
  0
POINT
  5
CB
330
2C
100
AcDbEntity
  8
Defpoints
 62
     0
100
AcDbPoint
 10
348.6408156143591
 20
1820.700607600374
 30
0.0
  0
POINT
  5
CC
330
2C
100
AcDbEntity
  8
Defpoints
 62
     0
100
AcDbPoint
 10
349.397233996435
 20
2165.700607600364
 30
0.0
  0
POINT
  5
CD
330
2C
100
AcDbEntity
  8
Defpoints
 62
     0
100
AcDbPoint
 10
136.8973693541668
 20
2165.700607600364
 30
0.0
  0
ENDBLK
  5
D0
330
2C
100
AcDbEntity
  8
notes
390
1D
100
AcDbBlockEnd
  0
BLOCK
  5
D1
330
2D
100
AcDbEntity
  8
notes
390
1D
100
AcDbBlockBegin
  2
*D12
 70
     1
 10
0.0
 20
0.0
 30
0.0
  3
*D12
  1
*D12
  0
LINE
  5
D2
330
2D
100
AcDbEntity
  8
notes
  6
Continuous
 62
     0
370
    -2
100
AcDbLine
 10
896.794736320435
 20
1852.104417968452
 30
0.0
 11
896.794736320435
 21
1680.700607635592
 31
0.0
  0
LINE
  5
D3
330
2D
100
AcDbEntity
  8
notes
  6
Continuous
 62
     0
370
    -2
100
AcDbLine
 10
276.9994608865275
 20
1852.104417968471
 30
0.0
 11
276.9994608865275
 21
1680.700607635592
 31
0.0
  0
LINE
  5
D4
330
2D
100
AcDbEntity
  8
notes
  6
Continuous
 62
     0
370
    -2
100
AcDbLine
 10
892.79498046106
 20
1680.700607635592
 30
0.0
 11
280.9992167459025
 21
1680.700607635592
 31
0.0
  0
INSERT
  5
D5
102
{ACAD_REACTORS
330
D6
102
}
330
2D
100
AcDbEntity
  8
notes
 62
     0
370
    -2
100
AcDbBlockReference
  2
_DOT
 10
896.794736320435
 20
1680.700607635592
 30
0.0
 41
3.999755859375
 42
3.999755859375
 43
3.999755859375
  0
INSERT
  5
D6
330
2D
100
AcDbEntity
  8
notes
 62
     0
370
    -2
100
AcDbBlockReference
  2
_DOT
 10
276.9994608865275
 20
1680.700607635592
 30
0.0
 41
3.999755859375
 42
3.999755859375
 43
3.999755859375
 50
180.0
  0
MTEXT
  5
D7
102
{ACAD_REACTORS
330
D8
102
}
330
2D
100
AcDbEntity
  8
notes
  6
Continuous
 62
     0
370
     5
100
AcDbMText
 10
586.8970986034813
 20
1697.916916229342
 30
0.0
 40
24.4326171875
 41
0.0
 46
0.0
 71
     5
 72
     1
  1
\A1;620
  7
ＭＳ ゴシック
 73
     1
 44
1.0
  0
POINT
  5
D8
330
2D
100
AcDbEntity
  8
Defpoints
 62
     0
100
AcDbPoint
 10
896.794736320435
 20
1877.104417968452
 30
0.0
  0
POINT
  5
D9
330
2D
100
AcDbEntity
  8
Defpoints
 62
     0
100
AcDbPoint
 10
276.9994608865275
 20
1877.104417968471
 30
0.0
  0
POINT
  5
DA
330
2D
100
AcDbEntity
  8
Defpoints
 62
     0
100
AcDbPoint
 10
276.9994608865275
 20
1680.700607635592
 30
0.0
  0
ENDBLK
  5
DD
330
2D
100
AcDbEntity
  8
notes
390
1D
100
AcDbBlockEnd
  0
BLOCK
  5
DE
330
2E
100
AcDbEntity
  8
notes
390
1D
100
AcDbBlockBegin
  2
*D13
 70
     1
 10
0.0
 20
0.0
 30
0.0
  3
*D13
  1
*D13
  0
LINE
  5
DF
330
2E
100
AcDbEntity
  8
notes
  6
Continuous
 62
     0
370
    -2
100
AcDbLine
 10
646.4427272339074
 20
929.778409752026
 30
0.0
 11
1036.89682785281
 21
929.778409752026
 31
0.0
  0
LINE
  5
E0
330
2E
100
AcDbEntity
  8
notes
  6
Continuous
 62
     0
370
    -2
100
AcDbLine
 10
956.8970914913064
 20
1094.778409752038
 30
0.0
 11
1036.89682785281
 21
1094.778409752038
 31
0.0
  0
LINE
  5
E1
330
2E
100
AcDbEntity
  8
notes
  6
Continuous
 62
     0
370
    -2
100
AcDbLine
 10
1036.89682785281
 20
933.778165611401
 30
0.0
 11
1036.89682785281
 21
1090.778653892663
 31
0.0
  0
INSERT
  5
E2
102
{ACAD_REACTORS
330
E3
102
}
330
2E
100
AcDbEntity
  8
notes
 62
     0
370
    -2
100
AcDbBlockReference
  2
_DOT
 10
1036.89682785281
 20
929.778409752026
 30
0.0
 41
3.999755859375
 42
3.999755859375
 43
3.999755859375
 50
270.0
  0
INSERT
  5
E3
330
2E
100
AcDbEntity
  8
notes
 62
     0
370
    -2
100
AcDbBlockReference
  2
_DOT
 10
1036.89682785281
 20
1094.778409752038
 30
0.0
 41
3.999755859375
 42
3.999755859375
 43
3.999755859375
 50
90.0
  0
MTEXT
  5
E4
102
{ACAD_REACTORS
330
E5
102
}
330
2E
100
AcDbEntity
  8
notes
  6
Continuous
 62
     0
370
     5
100
AcDbMText
 10
1019.68051925906
 20
1012.278409752032
 30
0.0
 40
24.4326171875
 41
0.0
 46
0.0
 71
     5
 72
     1
  1
\A1;165
  7
ＭＳ ゴシック
 11
0.0
 21
1.0
 31
0.0
 73
     1
 44
1.0
  0
POINT
  5
E5
330
2E
100
AcDbEntity
  8
Defpoints
 62
     0
100
AcDbPoint
 10
621.4427272339074
 20
929.778409752026
 30
0.0
  0
POINT
  5
E6
330
2E
100
AcDbEntity
  8
Defpoints
 62
     0
100
AcDbPoint
 10
931.8970914913064
 20
1094.778409752038
 30
0.0
  0
POINT
  5
E7
330
2E
100
AcDbEntity
  8
Defpoints
 62
     0
100
AcDbPoint
 10
1036.89682785281
 20
1094.778409752038
 30
0.0
  0
ENDBLK
  5
EA
330
2E
100
AcDbEntity
  8
notes
390
1D
100
AcDbBlockEnd
  0
BLOCK
  5
EB
330
2F
100
AcDbEntity
  8
notes
390
1D
100
AcDbBlockBegin
  2
*D14
 70
     1
 10
0.0
 20
0.0
 30
0.0
  3
*D14
  1
*D14
  0
LINE
  5
EC
330
2F
100
AcDbEntity
  8
notes
  6
Continuous
 62
     0
370
    -2
100
AcDbLine
 10
1366.239211845905
 20
964.7888271189317
 30
0.0
 11
1221.955459507806
 21
964.7888271189317
 31
0.0
  0
LINE
  5
ED
330
2F
100
AcDbEntity
  8
notes
  6
Continuous
 62
     0
370
    -2
100
AcDbLine
 10
1301.427458592871
 20
1094.78882711765
 30
0.0
 11
1221.955459507806
 21
1094.78882711765
 31
0.0
  0
LINE
  5
EE
330
2F
100
AcDbEntity
  8
notes
  6
Continuous
 62
     0
370
    -2
100
AcDbLine
 10
1221.955459507806
 20
968.7885829783067
 30
0.0
 11
1221.955459507806
 21
1090.789071258275
 31
0.0
  0
INSERT
  5
EF
102
{ACAD_REACTORS
330
F0
102
}
330
2F
100
AcDbEntity
  8
notes
 62
     0
370
    -2
100
AcDbBlockReference
  2
_DOT
 10
1221.955459507806
 20
964.7888271189317
 30
0.0
 41
3.999755859375
 42
3.999755859375
 43
3.999755859375
 50
270.0
  0
INSERT
  5
F0
330
2F
100
AcDbEntity
  8
notes
 62
     0
370
    -2
100
AcDbBlockReference
  2
_DOT
 10
1221.955459507806
 20
1094.78882711765
 30
0.0
 41
3.999755859375
 42
3.999755859375
 43
3.999755859375
 50
90.0
  0
MTEXT
  5
F1
102
{ACAD_REACTORS
330
F2
102
}
330
2F
100
AcDbEntity
  8
notes
  6
Continuous
 62
     0
370
     5
100
AcDbMText
 10
1204.739150914056
 20
1029.788827118291
 30
0.0
 40
24.4326171875
 41
0.0
 46
0.0
 71
     5
 72
     1
  1
\A1;130
  7
ＭＳ ゴシック
 11
0.0
 21
1.0
 31
0.0
 73
     1
 44
1.0
  0
POINT
  5
F2
330
2F
100
AcDbEntity
  8
Defpoints
 62
     0
100
AcDbPoint
 10
1391.239211845905
 20
964.7888271189317
 30
0.0
  0
POINT
  5
F3
330
2F
100
AcDbEntity
  8
Defpoints
 62
     0
100
AcDbPoint
 10
1326.427458592871
 20
1094.78882711765
 30
0.0
  0
POINT
  5
F4
330
2F
100
AcDbEntity
  8
Defpoints
 62
     0
100
AcDbPoint
 10
1221.955459507806
 20
1094.78882711765
 30
0.0
  0
ENDBLK
  5
F7
330
2F
100
AcDbEntity
  8
notes
390
1D
100
AcDbBlockEnd
  0
BLOCK
  5
F8
330
30
100
AcDbEntity
  8
notes
390
1D
100
AcDbBlockBegin
  2
*D15
 70
     1
 10
0.0
 20
0.0
 30
0.0
  3
*D15
  1
*D15
  0
LINE
  5
F9
330
30
100
AcDbEntity
  8
notes
  6
Continuous
 62
     0
370
    -2
100
AcDbLine
 10
1552.427458522414
 20
929.7888271176492
 30
0.0
 11
1221.955459507806
 21
929.7888271176492
 31
0.0
  0
LINE
  5
FA
330
30
100
AcDbEntity
  8
notes
  6
Continuous
 62
     0
370
    -2
100
AcDbLine
 10
1366.239211845905
 20
964.7888271189317
 30
0.0
 11
1221.955459507806
 21
964.7888271189317
 31
0.0
  0
LINE
  5
FB
330
30
100
AcDbEntity
  8
notes
  6
Continuous
 62
     0
370
    -2
100
AcDbLine
 10
1221.955459507806
 20
925.7890712582742
 30
0.0
 11
1221.955459507806
 21
921.7893153988992
 31
0.0
  0
LINE
  5
FC
102
{ACAD_REACTORS
330
FD
102
}
330
30
100
AcDbEntity
  8
notes
  6
Continuous
 62
     0
370
    -2
100
AcDbLine
 10
1221.955459507806
 20
968.7885829783067
 30
0.0
 11
1221.955459507806
 21
972.7883388376817
 31
0.0
  0
INSERT
  5
FD
330
30
100
AcDbEntity
  8
notes
 62
     0
370
    -2
100
AcDbBlockReference
  2
_DOT
 10
1221.955459507806
 20
929.7888271176492
 30
0.0
 41
3.999755859375
 42
3.999755859375
 43
3.999755859375
 50
90.0
  0
INSERT
  5
FE
102
{ACAD_REACTORS
330
FF
102
}
330
30
100
AcDbEntity
  8
notes
 62
     0
370
    -2
100
AcDbBlockReference
  2
_DOT
 10
1221.955459507806
 20
964.7888271189317
 30
0.0
 41
3.999755859375
 42
3.999755859375
 43
3.999755859375
 50
270.0
  0
MTEXT
  5
FF
330
30
100
AcDbEntity
  8
notes
  6
Continuous
 62
     0
370
     5
100
AcDbMText
 10
1204.739150914056
 20
947.2888271182906
 30
0.0
 40
24.4326171875
 41
0.0
 46
0.0
 71
     5
 72
     1
  1
\A1;35
  7
ＭＳ ゴシック
 11
0.0
 21
1.0
 31
0.0
 73
     1
 44
1.0
  0
POINT
  5
100
330
30
100
AcDbEntity
  8
Defpoints
 62
     0
100
AcDbPoint
 10
1577.427458522414
 20
929.7888271176492
 30
0.0
  0
POINT
  5
101
330
30
100
AcDbEntity
  8
Defpoints
 62
     0
100
AcDbPoint
 10
1391.239211845905
 20
964.7888271189317
 30
0.0
  0
POINT
  5
102
330
30
100
AcDbEntity
  8
Defpoints
 62
     0
100
AcDbPoint
 10
1221.955459507806
 20
964.7888271189317
 30
0.0
  0
ENDBLK
  5
104
330
30
100
AcDbEntity
  8
notes
390
1D
100
AcDbBlockEnd
  0
BLOCK
  5
105
330
31
100
AcDbEntity
  8
notes
390
1D
100
AcDbBlockBegin
  2
*D16
 70
     1
 10
0.0
 20
0.0
 30
0.0
  3
*D16
  1
*D16
  0
LINE
  5
106
330
31
100
AcDbEntity
  8
0
  6
Continuous
 62
     0
370
    -2
390
1D
100
AcDbLine
 10
543.1106585243288
 20
-405.4707406855048
 30
0.0
 11
557.3899690107592
 21
-405.4707406855048
 31
0.0
  0
LINE
  5
107
330
31
100
AcDbEntity
  8
0
  6
Continuous
 62
     0
370
    -2
390
1D
100
AcDbLine
 10
543.1106585243288
 20
-525.4707406855056
 30
0.0
 11
557.3899690107592
 21
-525.4707406855056
 31
0.0
  0
LINE
  5
108
330
31
100
AcDbEntity
  8
0
  6
Continuous
 62
     0
370
    -2
390
1D
100
AcDbLine
 10
557.3899690107592
 20
-405.4707406855048
 30
0.0
 11
557.3899690107592
 21
-246.0302148731516
 31
0.0
  0
LINE
  5
109
330
31
100
AcDbEntity
  8
0
  6
Continuous
 62
     0
370
    -2
390
1D
100
AcDbLine
 10
557.3899690107592
 20
-405.4707406855048
 30
0.0
 11
557.3899690107592
 21
-525.4707406855056
 31
0.0
  0
CIRCLE
  5
10A
102
{ACAD_REACTORS
330
10B
102
}
330
31
100
AcDbEntity
  8
0
  6
Continuous
 62
     0
370
    -2
390
1D
100
AcDbCircle
 10
557.3899690107592
 20
-405.4707406855048
 30
0.0
 40
1.9998779296875
  0
HATCH
  5
10B
330
31
100
AcDbEntity
  8
0
  6
Continuous
 62
     0
370
    -2
390
1D
100
AcDbHatch
 10
0.0
 20
0.0
 30
0.0
210
0.0
220
0.0
230
1.0
  2
SOLID
 70
     1
 71
     1
 91
        1
 92
        1
 93
        1
 72
     2
 10
557.3899690107592
 20
-405.4707406855048
 40
1.9998779296875
 50
0.0
 51
360.0
 73
     0
 97
        1
330
10A
 75
     0
 76
     1
 98
        1
 10
0.0
 20
0.0
  0
CIRCLE
  5
10C
102
{ACAD_REACTORS
330
10D
102
}
330
31
100
AcDbEntity
  8
0
  6
Continuous
 62
     0
370
    -2
390
1D
100
AcDbCircle
 10
557.3899690107592
 20
-525.4707406855056
 30
0.0
 40
1.9998779296875
  0
HATCH
  5
10D
330
31
100
AcDbEntity
  8
0
  6
Continuous
 62
     0
370
    -2
390
1D
100
AcDbHatch
 10
0.0
 20
0.0
 30
0.0
210
0.0
220
0.0
230
1.0
  2
SOLID
 70
     1
 71
     1
 91
        1
 92
        1
 93
        1
 72
     2
 10
557.3899690107592
 20
-525.4707406855056
 40
1.9998779296875
 50
0.0
 51
360.0
 73
     0
 97
        1
330
10C
 75
     0
 76
     1
 98
        1
 10
0.0
 20
0.0
  0
MTEXT
  5
10E
330
31
100
AcDbEntity
  8
0
 62
     0
390
1D
100
AcDbMText
 10
523.5123518232595
 20
-388.9052148731516
 30
0.0
 40
24.4326171875
 41
0.0
 46
0.0
 71
     1
 72
     1
  1
120(深さ)
  7
ＭＳ ゴシック
 11
0.0
 21
1.0
 31
0.0
 73
     1
 44
0.7828267384257843
  0
POINT
  5
10F
330
31
100
AcDbEntity
  8
Defpoints
 62
     0
370
     0
390
1D
100
AcDbPoint
 10
568.1106585243288
 20
-525.4707406855056
 30
0.0
  0
POINT
  5
110
330
31
100
AcDbEntity
  8
Defpoints
 62
     0
370
     0
390
1D
100
AcDbPoint
 10
568.1106585243288
 20
-405.4707406855048
 30
0.0
  0
POINT
  5
111
330
31
100
AcDbEntity
  8
Defpoints
 62
     0
370
     0
390
1D
100
AcDbPoint
 10
557.3899690107592
 20
-405.4707406855048
 30
0.0
  0
ENDBLK
  5
112
330
31
100
AcDbEntity
  8
notes
390
1D
100
AcDbBlockEnd
  0
BLOCK
  5
113
330
32
100
AcDbEntity
  8
notes
390
1D
100
AcDbBlockBegin
  2
*D17
 70
     1
 10
0.0
 20
0.0
 30
0.0
  3
*D17
  1
*D17
  0
LINE
  5
114
330
32
100
AcDbEntity
  8
notes
  6
Continuous
 62
     0
370
    -2
100
AcDbLine
 10
1776.427458522407
 20
1119.78882711765
 30
0.0
 11
1776.427458522407
 21
1194.78882711765
 31
0.0
  0
LINE
  5
115
330
32
100
AcDbEntity
  8
notes
  6
Continuous
 62
     0
370
    -2
100
AcDbLine
 10
1851.427458522414
 20
1116.788827117803
 30
0.0
 11
1851.427458522414
 21
1194.78882711765
 31
0.0
  0
LINE
  5
116
330
32
100
AcDbEntity
  8
notes
  6
Continuous
 62
     0
370
    -2
100
AcDbLine
 10
1780.427214381782
 20
1194.78882711765
 30
0.0
 11
1847.427702663039
 21
1194.78882711765
 31
0.0
  0
INSERT
  5
117
102
{ACAD_REACTORS
330
118
102
}
330
32
100
AcDbEntity
  8
notes
 62
     0
370
    -2
100
AcDbBlockReference
  2
_DOT
 10
1776.427458522407
 20
1194.78882711765
 30
0.0
 41
3.999755859375
 42
3.999755859375
 43
3.999755859375
 50
180.0
  0
INSERT
  5
118
330
32
100
AcDbEntity
  8
notes
 62
     0
370
    -2
100
AcDbBlockReference
  2
_DOT
 10
1851.427458522414
 20
1194.78882711765
 30
0.0
 41
3.999755859375
 42
3.999755859375
 43
3.999755859375
  0
MTEXT
  5
119
102
{ACAD_REACTORS
330
11A
102
}
330
32
100
AcDbEntity
  8
notes
  6
Continuous
 62
     0
370
     5
100
AcDbMText
 10
1813.92745852241
 20
1212.0051357114
 30
0.0
 40
24.4326171875
 41
0.0
 46
0.0
 71
     5
 72
     1
  1
\A1;75
  7
ＭＳ ゴシック
 73
     1
 44
1.0
  0
POINT
  5
11A
330
32
100
AcDbEntity
  8
Defpoints
 62
     0
100
AcDbPoint
 10
1776.427458522407
 20
1094.78882711765
 30
0.0
  0
POINT
  5
11B
330
32
100
AcDbEntity
  8
Defpoints
 62
     0
100
AcDbPoint
 10
1851.427458522414
 20
1091.788827117803
 30
0.0
  0
POINT
  5
11C
330
32
100
AcDbEntity
  8
Defpoints
 62
     0
100
AcDbPoint
 10
1851.427458522414
 20
1194.78882711765
 30
0.0
  0
ENDBLK
  5
11F
330
32
100
AcDbEntity
  8
notes
390
1D
100
AcDbBlockEnd
  0
BLOCK
  5
120
330
33
100
AcDbEntity
  8
notes
390
1D
100
AcDbBlockBegin
  2
*D18
 70
     1
 10
0.0
 20
0.0
 30
0.0
  3
*D18
  1
*D18
  0
LINE
  5
121
330
33
100
AcDbEntity
  8
0
  6
Continuous
 62
     0
370
    -2
390
1D
100
AcDbLine
 10
-447.7873475893302
 20
743.8909446220496
 30
0.0
 11
-274.8196892387132
 21
839.5096249131252
 31
0.0
  0
CIRCLE
  5
122
102
{ACAD_REACTORS
330
123
102
}
330
33
100
AcDbEntity
  8
0
  6
Continuous
 62
     0
370
    -2
390
1D
100
AcDbCircle
 10
-447.7873475893302
 20
743.8909446220496
 30
0.0
 40
1.9998779296875
  0
HATCH
  5
123
330
33
100
AcDbEntity
  8
0
  6
Continuous
 62
     0
370
    -2
390
1D
100
AcDbHatch
 10
0.0
 20
0.0
 30
0.0
210
0.0
220
0.0
230
1.0
  2
SOLID
 70
     1
 71
     1
 91
        1
 92
        1
 93
        1
 72
     2
 10
-447.7873475893302
 20
743.8909446220496
 40
1.9998779296875
 50
0.0
 51
360.0
 73
     0
 97
        1
330
122
 75
     0
 76
     1
 98
        1
 10
0.0
 20
0.0
  0
LINE
  5
124
330
33
100
AcDbEntity
  8
0
  6
Continuous
 62
     0
370
    -2
390
1D
100
AcDbLine
 10
-274.8196892387132
 20
839.5096249131252
 30
0.0
 11
-151.3196892387132
 21
839.5096249131252
 31
0.0
  0
MTEXT
  5
125
330
33
100
AcDbEntity
  8
0
 62
     0
390
1D
100
AcDbMText
 10
-214.8196892387132
 20
873.3872421006254
 30
0.0
 40
24.4326171875
 41
0.0
 46
0.0
 71
     1
 72
     1
  1
φ35
  7
ＭＳ ゴシック
 73
     1
 44
0.7828267384257843
  0
POINT
  5
126
330
33
100
AcDbEntity
  8
Defpoints
 62
     0
370
     0
390
1D
100
AcDbPoint
 10
-478.4184552032239
 20
726.9576860358852
 30
0.0
  0
POINT
  5
127
330
33
100
AcDbEntity
  8
Defpoints
 62
     0
370
     0
390
1D
100
AcDbPoint
 10
-447.7873475893302
 20
743.8909446220496
 30
0.0
  0
ENDBLK
  5
128
330
33
100
AcDbEntity
  8
notes
390
1D
100
AcDbBlockEnd
  0
BLOCK
  5
129
330
34
100
AcDbEntity
  8
notes
390
1D
100
AcDbBlockBegin
  2
*D19
 70
     1
 10
0.0
 20
0.0
 30
0.0
  3
*D19
  1
*D19
  0
LINE
  5
12A
330
34
100
AcDbEntity
  8
notes
  6
Continuous
 62
     0
370
    -2
100
AcDbLine
 10
1611.42745852241
 20
904.7888271176492
 30
0.0
 11
1611.42745852241
 21
829.7888271176492
 31
0.0
  0
LINE
  5
12B
330
34
100
AcDbEntity
  8
notes
  6
Continuous
 62
     0
370
    -2
100
AcDbLine
 10
1851.42745852241
 20
939.7888271176494
 30
0.0
 11
1851.42745852241
 21
829.7888271176492
 31
0.0
  0
LINE
  5
12C
330
34
100
AcDbEntity
  8
notes
  6
Continuous
 62
     0
370
    -2
100
AcDbLine
 10
1615.427214381785
 20
829.7888271176492
 30
0.0
 11
1847.427702663035
 21
829.7888271176492
 31
0.0
  0
INSERT
  5
12D
102
{ACAD_REACTORS
330
12E
102
}
330
34
100
AcDbEntity
  8
notes
 62
     0
370
    -2
100
AcDbBlockReference
  2
_DOT
 10
1611.42745852241
 20
829.7888271176492
 30
0.0
 41
3.999755859375
 42
3.999755859375
 43
3.999755859375
 50
180.0
  0
INSERT
  5
12E
330
34
100
AcDbEntity
  8
notes
 62
     0
370
    -2
100
AcDbBlockReference
  2
_DOT
 10
1851.42745852241
 20
829.7888271176492
 30
0.0
 41
3.999755859375
 42
3.999755859375
 43
3.999755859375
  0
MTEXT
  5
12F
102
{ACAD_REACTORS
330
130
102
}
330
34
100
AcDbEntity
  8
notes
  6
Continuous
 62
     0
370
     5
100
AcDbMText
 10
1731.42745852241
 20
847.0051357113992
 30
0.0
 40
24.4326171875
 41
0.0
 46
0.0
 71
     5
 72
     1
  1
\A1;240
  7
ＭＳ ゴシック
 73
     1
 44
1.0
  0
POINT
  5
130
330
34
100
AcDbEntity
  8
Defpoints
 62
     0
100
AcDbPoint
 10
1611.42745852241
 20
929.7888271176492
 30
0.0
  0
POINT
  5
131
330
34
100
AcDbEntity
  8
Defpoints
 62
     0
100
AcDbPoint
 10
1851.42745852241
 20
964.7888271176494
 30
0.0
  0
POINT
  5
132
330
34
100
AcDbEntity
  8
Defpoints
 62
     0
100
AcDbPoint
 10
1851.42745852241
 20
829.7888271176492
 30
0.0
  0
ENDBLK
  5
135
330
34
100
AcDbEntity
  8
notes
390
1D
100
AcDbBlockEnd
  0
BLOCK
  5
136
330
35
100
AcDbEntity
  8
notes
390
1D
100
AcDbBlockBegin
  2
*D20
 70
     1
 10
0.0
 20
0.0
 30
0.0
  3
*D20
  1
*D20
  0
LINE
  5
137
330
35
100
AcDbEntity
  8
notes
  6
Continuous
 62
     0
370
    -2
100
AcDbLine
 10
1386.42745852241
 20
939.7888271176494
 30
0.0
 11
1386.42745852241
 21
779.7888271176492
 31
0.0
  0
LINE
  5
138
330
35
100
AcDbEntity
  8
notes
  6
Continuous
 62
     0
370
    -2
100
AcDbLine
 10
1851.42745852241
 20
939.7888271176494
 30
0.0
 11
1851.42745852241
 21
779.7888271176492
 31
0.0
  0
LINE
  5
139
330
35
100
AcDbEntity
  8
notes
  6
Continuous
 62
     0
370
    -2
100
AcDbLine
 10
1390.427214381785
 20
779.7888271176492
 30
0.0
 11
1847.427702663035
 21
779.7888271176492
 31
0.0
  0
INSERT
  5
13A
102
{ACAD_REACTORS
330
13B
102
}
330
35
100
AcDbEntity
  8
notes
 62
     0
370
    -2
100
AcDbBlockReference
  2
_DOT
 10
1386.42745852241
 20
779.7888271176492
 30
0.0
 41
3.999755859375
 42
3.999755859375
 43
3.999755859375
 50
180.0
  0
INSERT
  5
13B
330
35
100
AcDbEntity
  8
notes
 62
     0
370
    -2
100
AcDbBlockReference
  2
_DOT
 10
1851.42745852241
 20
779.7888271176492
 30
0.0
 41
3.999755859375
 42
3.999755859375
 43
3.999755859375
  0
MTEXT
  5
13C
102
{ACAD_REACTORS
330
13D
102
}
330
35
100
AcDbEntity
  8
notes
  6
Continuous
 62
     0
370
     5
100
AcDbMText
 10
1618.92745852241
 20
797.0051357113992
 30
0.0
 40
24.4326171875
 41
0.0
 46
0.0
 71
     5
 72
     1
  1
\A1;465
  7
ＭＳ ゴシック
 73
     1
 44
1.0
  0
POINT
  5
13D
330
35
100
AcDbEntity
  8
Defpoints
 62
     0
100
AcDbPoint
 10
1386.42745852241
 20
964.7888271176494
 30
0.0
  0
POINT
  5
13E
330
35
100
AcDbEntity
  8
Defpoints
 62
     0
100
AcDbPoint
 10
1851.42745852241
 20
964.7888271176494
 30
0.0
  0
POINT
  5
13F
330
35
100
AcDbEntity
  8
Defpoints
 62
     0
100
AcDbPoint
 10
1851.42745852241
 20
779.7888271176492
 30
0.0
  0
ENDBLK
  5
142
330
35
100
AcDbEntity
  8
notes
390
1D
100
AcDbBlockEnd
  0
BLOCK
  5
143
330
36
100
AcDbEntity
  8
notes
390
1D
100
AcDbBlockBegin
  2
*D21
 70
     1
 10
0.0
 20
0.0
 30
0.0
  3
*D21
  1
*D21
  0
LINE
  5
144
330
36
100
AcDbEntity
  8
notes
  6
Continuous
 62
     0
370
    -2
100
AcDbLine
 10
866.9000157453722
 20
939.778409751239
 30
0.0
 11
866.9000157453722
 21
829.7888271176492
 31
0.0
  0
LINE
  5
145
330
36
100
AcDbEntity
  8
notes
  6
Continuous
 62
     0
370
    -2
100
AcDbLine
 10
306.900015745374
 20
939.778409751239
 30
0.0
 11
306.900015745374
 21
829.7888271176492
 31
0.0
  0
LINE
  5
146
330
36
100
AcDbEntity
  8
notes
  6
Continuous
 62
     0
370
    -2
100
AcDbLine
 10
862.9002598859972
 20
829.7888271176492
 30
0.0
 11
310.899771604749
 21
829.7888271176492
 31
0.0
  0
INSERT
  5
147
102
{ACAD_REACTORS
330
148
102
}
330
36
100
AcDbEntity
  8
notes
 62
     0
370
    -2
100
AcDbBlockReference
  2
_DOT
 10
866.9000157453722
 20
829.7888271176492
 30
0.0
 41
3.999755859375
 42
3.999755859375
 43
3.999755859375
  0
INSERT
  5
148
330
36
100
AcDbEntity
  8
notes
 62
     0
370
    -2
100
AcDbBlockReference
  2
_DOT
 10
306.900015745374
 20
829.7888271176492
 30
0.0
 41
3.999755859375
 42
3.999755859375
 43
3.999755859375
 50
180.0
  0
MTEXT
  5
149
102
{ACAD_REACTORS
330
14A
102
}
330
36
100
AcDbEntity
  8
notes
  6
Continuous
 62
     0
370
     5
100
AcDbMText
 10
586.9000157453731
 20
847.0051357113992
 30
0.0
 40
24.4326171875
 41
0.0
 46
0.0
 71
     5
 72
     1
  1
\A1;560
  7
ＭＳ ゴシック
 73
     1
 44
1.0
  0
POINT
  5
14A
330
36
100
AcDbEntity
  8
Defpoints
 62
     0
100
AcDbPoint
 10
866.9000157453722
 20
964.778409751239
 30
0.0
  0
POINT
  5
14B
330
36
100
AcDbEntity
  8
Defpoints
 62
     0
100
AcDbPoint
 10
306.900015745374
 20
964.778409751239
 30
0.0
  0
POINT
  5
14C
330
36
100
AcDbEntity
  8
Defpoints
 62
     0
100
AcDbPoint
 10
306.900015745374
 20
829.7888271176492
 30
0.0
  0
ENDBLK
  5
14F
330
36
100
AcDbEntity
  8
notes
390
1D
100
AcDbBlockEnd
  0
BLOCK
  5
150
330
37
100
AcDbEntity
  8
notes
390
1D
100
AcDbBlockBegin
  2
*D22
 70
     1
 10
0.0
 20
0.0
 30
0.0
  3
*D22
  1
*D22
  0
LINE
  5
151
330
37
100
AcDbEntity
  8
notes
  6
Continuous
 62
     0
370
    -2
100
AcDbLine
 10
1636.376254782041
 20
2310.700607635588
 30
0.0
 11
1941.376254782041
 21
2310.700607635588
 31
0.0
  0
LINE
  5
152
330
37
100
AcDbEntity
  8
notes
  6
Continuous
 62
     0
370
    -2
100
AcDbLine
 10
1636.376254782041
 20
1912.70060763559
 30
0.0
 11
1941.376254782041
 21
1912.70060763559
 31
0.0
  0
LINE
  5
153
330
37
100
AcDbEntity
  8
notes
  6
Continuous
 62
     0
370
    -2
100
AcDbLine
 10
1941.376254782041
 20
2306.700851776213
 30
0.0
 11
1941.376254782041
 21
1916.700363494965
 31
0.0
  0
INSERT
  5
154
102
{ACAD_REACTORS
330
155
102
}
330
37
100
AcDbEntity
  8
notes
 62
     0
370
    -2
100
AcDbBlockReference
  2
_DOT
 10
1941.376254782041
 20
2310.700607635588
 30
0.0
 41
3.999755859375
 42
3.999755859375
 43
3.999755859375
 50
90.0
  0
INSERT
  5
155
330
37
100
AcDbEntity
  8
notes
 62
     0
370
    -2
100
AcDbBlockReference
  2
_DOT
 10
1941.376254782041
 20
1912.70060763559
 30
0.0
 41
3.999755859375
 42
3.999755859375
 43
3.999755859375
 50
270.0
  0
MTEXT
  5
156
102
{ACAD_REACTORS
330
157
102
}
330
37
100
AcDbEntity
  8
notes
  6
Continuous
 62
     0
370
     5
100
AcDbMText
 10
1924.159946188291
 20
2111.700607635589
 30
0.0
 40
24.4326171875
 41
0.0
 46
0.0
 71
     5
 72
     1
  1
\A1;398
  7
ＭＳ ゴシック
 11
0.0
 21
1.0
 31
0.0
 73
     1
 44
1.0
  0
POINT
  5
157
330
37
100
AcDbEntity
  8
Defpoints
 62
     0
100
AcDbPoint
 10
1611.376254782041
 20
2310.700607635588
 30
0.0
  0
POINT
  5
158
330
37
100
AcDbEntity
  8
Defpoints
 62
     0
100
AcDbPoint
 10
1611.376254782041
 20
1912.70060763559
 30
0.0
  0
POINT
  5
159
330
37
100
AcDbEntity
  8
Defpoints
 62
     0
100
AcDbPoint
 10
1941.376254782041
 20
1912.70060763559
 30
0.0
  0
ENDBLK
  5
15C
330
37
100
AcDbEntity
  8
notes
390
1D
100
AcDbBlockEnd
  0
BLOCK
  5
15D
330
38
100
AcDbEntity
  8
notes
390
1D
100
AcDbBlockBegin
  2
*D23
 70
     1
 10
0.0
 20
0.0
 30
0.0
  3
*D23
  1
*D23
  0
LINE
  5
15E
330
38
100
AcDbEntity
  8
notes
  6
Continuous
 62
     0
370
    -2
100
AcDbLine
 10
1336.399999999758
 20
1887.70060763559
 30
0.0
 11
1336.399999999758
 21
1846.354352930003
 31
0.0
  0
LINE
  5
15F
330
38
100
AcDbEntity
  8
notes
  6
Continuous
 62
     0
370
    -2
100
AcDbLine
 10
1666.399999999758
 20
1887.70060763559
 30
0.0
 11
1666.399999999758
 21
1846.354352930003
 31
0.0
  0
LINE
  5
160
330
38
100
AcDbEntity
  8
notes
  6
Continuous
 62
     0
370
    -2
100
AcDbLine
 10
1340.399755859133
 20
1846.354352930003
 30
0.0
 11
1662.400244140383
 21
1846.354352930003
 31
0.0
  0
INSERT
  5
161
102
{ACAD_REACTORS
330
162
102
}
330
38
100
AcDbEntity
  8
notes
 62
     0
370
    -2
100
AcDbBlockReference
  2
_DOT
 10
1336.399999999758
 20
1846.354352930003
 30
0.0
 41
3.999755859375
 42
3.999755859375
 43
3.999755859375
 50
180.0
  0
INSERT
  5
162
330
38
100
AcDbEntity
  8
notes
 62
     0
370
    -2
100
AcDbBlockReference
  2
_DOT
 10
1666.399999999758
 20
1846.354352930003
 30
0.0
 41
3.999755859375
 42
3.999755859375
 43
3.999755859375
  0
MTEXT
  5
163
102
{ACAD_REACTORS
330
164
102
}
330
38
100
AcDbEntity
  8
notes
  6
Continuous
 62
     0
370
     5
100
AcDbMText
 10
1501.399999999758
 20
1863.570661523753
 30
0.0
 40
24.4326171875
 41
0.0
 46
0.0
 71
     5
 72
     1
  1
\A1;330
  7
ＭＳ ゴシック
 73
     1
 44
1.0
  0
POINT
  5
164
330
38
100
AcDbEntity
  8
Defpoints
 62
     0
100
AcDbPoint
 10
1336.399999999758
 20
1912.70060763559
 30
0.0
  0
POINT
  5
165
330
38
100
AcDbEntity
  8
Defpoints
 62
     0
100
AcDbPoint
 10
1666.399999999758
 20
1912.70060763559
 30
0.0
  0
POINT
  5
166
330
38
100
AcDbEntity
  8
Defpoints
 62
     0
100
AcDbPoint
 10
1666.399999999758
 20
1846.354352930003
 30
0.0
  0
ENDBLK
  5
169
330
38
100
AcDbEntity
  8
notes
390
1D
100
AcDbBlockEnd
  0
BLOCK
  5
16A
330
39
100
AcDbEntity
  8
notes
390
1D
100
AcDbBlockBegin
  2
*D24
 70
     1
 10
0.0
 20
0.0
 30
0.0
  3
*D24
  1
*D24
  0
LINE
  5
16B
330
39
100
AcDbEntity
  8
notes
  6
Continuous
 62
     0
370
    -2
100
AcDbLine
 10
1611.376254782041
 20
2335.700607635588
 30
0.0
 11
1611.376254782041
 21
2410.700607635588
 31
0.0
  0
LINE
  5
16C
330
39
100
AcDbEntity
  8
notes
  6
Continuous
 62
     0
370
    -2
100
AcDbLine
 10
1391.376254782041
 20
2335.700607635588
 30
0.0
 11
1391.376254782041
 21
2410.700607635588
 31
0.0
  0
LINE
  5
16D
330
39
100
AcDbEntity
  8
notes
  6
Continuous
 62
     0
370
    -2
100
AcDbLine
 10
1607.376498922666
 20
2410.700607635588
 30
0.0
 11
1395.376010641416
 21
2410.700607635588
 31
0.0
  0
INSERT
  5
16E
102
{ACAD_REACTORS
330
16F
102
}
330
39
100
AcDbEntity
  8
notes
 62
     0
370
    -2
100
AcDbBlockReference
  2
_DOT
 10
1611.376254782041
 20
2410.700607635588
 30
0.0
 41
3.999755859375
 42
3.999755859375
 43
3.999755859375
  0
INSERT
  5
16F
330
39
100
AcDbEntity
  8
notes
 62
     0
370
    -2
100
AcDbBlockReference
  2
_DOT
 10
1391.376254782041
 20
2410.700607635588
 30
0.0
 41
3.999755859375
 42
3.999755859375
 43
3.999755859375
 50
180.0
  0
MTEXT
  5
170
102
{ACAD_REACTORS
330
171
102
}
330
39
100
AcDbEntity
  8
notes
  6
Continuous
 62
     0
370
     5
100
AcDbMText
 10
1501.376254782041
 20
2427.916916229338
 30
0.0
 40
24.4326171875
 41
0.0
 46
0.0
 71
     5
 72
     1
  1
\A1;220
  7
ＭＳ ゴシック
 73
     1
 44
1.0
  0
POINT
  5
171
330
39
100
AcDbEntity
  8
Defpoints
 62
     0
100
AcDbPoint
 10
1611.376254782041
 20
2310.700607635588
 30
0.0
  0
POINT
  5
172
330
39
100
AcDbEntity
  8
Defpoints
 62
     0
100
AcDbPoint
 10
1391.376254782041
 20
2310.700607635588
 30
0.0
  0
POINT
  5
173
330
39
100
AcDbEntity
  8
Defpoints
 62
     0
100
AcDbPoint
 10
1391.376254782041
 20
2410.700607635588
 30
0.0
  0
ENDBLK
  5
176
330
39
100
AcDbEntity
  8
notes
390
1D
100
AcDbBlockEnd
  0
BLOCK
  5
177
330
3A
100
AcDbEntity
  8
notes
390
1D
100
AcDbBlockBegin
  2
*D25
 70
     1
 10
0.0
 20
0.0
 30
0.0
  3
*D25
  1
*D25
  0
LINE
  5
178
330
3A
100
AcDbEntity
  8
notes
  6
Continuous
 62
     0
370
    -2
100
AcDbLine
 10
1691.399999999758
 20
1912.70060763559
 30
0.0
 11
1817.399999999758
 21
1912.70060763559
 31
0.0
  0
LINE
  5
179
330
3A
100
AcDbEntity
  8
notes
  6
Continuous
 62
     0
370
    -2
100
AcDbLine
 10
1691.399999999758
 20
2082.70060763559
 30
0.0
 11
1817.399999999758
 21
2082.70060763559
 31
0.0
  0
LINE
  5
17A
330
3A
100
AcDbEntity
  8
notes
  6
Continuous
 62
     0
370
    -2
100
AcDbLine
 10
1817.399999999758
 20
1916.700363494965
 30
0.0
 11
1817.399999999758
 21
2078.700851776215
 31
0.0
  0
INSERT
  5
17B
102
{ACAD_REACTORS
330
17C
102
}
330
3A
100
AcDbEntity
  8
notes
 62
     0
370
    -2
100
AcDbBlockReference
  2
_DOT
 10
1817.399999999758
 20
1912.70060763559
 30
0.0
 41
3.999755859375
 42
3.999755859375
 43
3.999755859375
 50
270.0
  0
INSERT
  5
17C
330
3A
100
AcDbEntity
  8
notes
 62
     0
370
    -2
100
AcDbBlockReference
  2
_DOT
 10
1817.399999999758
 20
2082.70060763559
 30
0.0
 41
3.999755859375
 42
3.999755859375
 43
3.999755859375
 50
90.0
  0
MTEXT
  5
17D
102
{ACAD_REACTORS
330
17E
102
}
330
3A
100
AcDbEntity
  8
notes
  6
Continuous
 62
     0
370
     5
100
AcDbMText
 10
1800.183691406008
 20
1997.70060763559
 30
0.0
 40
24.4326171875
 41
0.0
 46
0.0
 71
     5
 72
     1
  1
\A1;170
  7
ＭＳ ゴシック
 11
0.0
 21
1.0
 31
0.0
 73
     1
 44
1.0
  0
POINT
  5
17E
330
3A
100
AcDbEntity
  8
Defpoints
 62
     0
100
AcDbPoint
 10
1666.399999999758
 20
1912.70060763559
 30
0.0
  0
POINT
  5
17F
330
3A
100
AcDbEntity
  8
Defpoints
 62
     0
100
AcDbPoint
 10
1666.399999999758
 20
2082.70060763559
 30
0.0
  0
POINT
  5
180
330
3A
100
AcDbEntity
  8
Defpoints
 62
     0
100
AcDbPoint
 10
1817.399999999758
 20
2082.70060763559
 30
0.0
  0
ENDBLK
  5
183
330
3A
100
AcDbEntity
  8
notes
390
1D
100
AcDbBlockEnd
  0
BLOCK
  5
184
330
3B
100
AcDbEntity
  8
notes
390
1D
100
AcDbBlockBegin
  2
*D26
 70
     1
 10
0.0
 20
0.0
 30
0.0
  3
*D26
  1
*D26
  0
LINE
  5
185
330
3B
100
AcDbEntity
  8
notes
  6
Continuous
 62
     0
370
    -2
100
AcDbLine
 10
1691.376254782041
 20
2277.70060763559
 30
0.0
 11
1817.376254782041
 21
2277.70060763559
 31
0.0
  0
LINE
  5
186
330
3B
100
AcDbEntity
  8
notes
  6
Continuous
 62
     0
370
    -2
100
AcDbLine
 10
1691.376254782041
 20
2082.70060763559
 30
0.0
 11
1817.376254782041
 21
2082.70060763559
 31
0.0
  0
LINE
  5
187
330
3B
100
AcDbEntity
  8
notes
  6
Continuous
 62
     0
370
    -2
100
AcDbLine
 10
1817.376254782041
 20
2273.700851776215
 30
0.0
 11
1817.376254782041
 21
2086.700363494965
 31
0.0
  0
INSERT
  5
188
102
{ACAD_REACTORS
330
189
102
}
330
3B
100
AcDbEntity
  8
notes
 62
     0
370
    -2
100
AcDbBlockReference
  2
_DOT
 10
1817.376254782041
 20
2277.70060763559
 30
0.0
 41
3.999755859375
 42
3.999755859375
 43
3.999755859375
 50
90.0
  0
INSERT
  5
189
330
3B
100
AcDbEntity
  8
notes
 62
     0
370
    -2
100
AcDbBlockReference
  2
_DOT
 10
1817.376254782041
 20
2082.70060763559
 30
0.0
 41
3.999755859375
 42
3.999755859375
 43
3.999755859375
 50
270.0
  0
MTEXT
  5
18A
102
{ACAD_REACTORS
330
18B
102
}
330
3B
100
AcDbEntity
  8
notes
  6
Continuous
 62
     0
370
     5
100
AcDbMText
 10
1800.159946188291
 20
2180.20060763559
 30
0.0
 40
24.4326171875
 41
0.0
 46
0.0
 71
     5
 72
     1
  1
\A1;195
  7
ＭＳ ゴシック
 11
0.0
 21
1.0
 31
0.0
 73
     1
 44
1.0
  0
POINT
  5
18B
330
3B
100
AcDbEntity
  8
Defpoints
 62
     0
100
AcDbPoint
 10
1666.376254782041
 20
2277.70060763559
 30
0.0
  0
POINT
  5
18C
330
3B
100
AcDbEntity
  8
Defpoints
 62
     0
100
AcDbPoint
 10
1666.376254782041
 20
2082.70060763559
 30
0.0
  0
POINT
  5
18D
330
3B
100
AcDbEntity
  8
Defpoints
 62
     0
100
AcDbPoint
 10
1817.376254782041
 20
2082.70060763559
 30
0.0
  0
ENDBLK
  5
190
330
3B
100
AcDbEntity
  8
notes
390
1D
100
AcDbBlockEnd
  0
BLOCK
  5
276
330
275
100
AcDbEntity
  8
0
100
AcDbBlockBegin
  2
*D27
 70
     1
 10
0.0
 20
0.0
 30
0.0
  3
*D27
  1
*D27
  0
LINE
  5
278
330
275
100
AcDbEntity
  8
notes
  6
Continuous
 62
     0
370
    -2
100
AcDbLine
 10
1593.110658524087
 20
974.7888271176494
 30
0.0
 11
1607.389969010517
 21
974.7888271176494
 31
0.0
  0
LINE
  5
279
330
275
100
AcDbEntity
  8
notes
  6
Continuous
 62
     0
370
    -2
100
AcDbLine
 10
1593.110658524087
 20
1094.78882711765
 30
0.0
 11
1607.389969010517
 21
1094.78882711765
 31
0.0
  0
LINE
  5
27A
330
275
100
AcDbEntity
  8
notes
  6
Continuous
 62
     0
370
    -2
100
AcDbLine
 10
1607.389969010517
 20
978.7885829770244
 30
0.0
 11
1607.389969010517
 21
1090.789071258275
 31
0.0
  0
INSERT
  5
27B
330
275
100
AcDbEntity
  8
notes
 62
     0
370
    -2
100
AcDbBlockReference
  2
_DOT
 10
1607.389969010517
 20
974.7888271176494
 30
0.0
 41
3.999755859375
 42
3.999755859375
 43
3.999755859375
 50
270.0
  0
INSERT
  5
27C
330
275
100
AcDbEntity
  8
notes
 62
     0
370
    -2
100
AcDbBlockReference
  2
_DOT
 10
1607.389969010517
 20
1094.78882711765
 30
0.0
 41
3.999755859375
 42
3.999755859375
 43
3.999755859375
 50
90.0
  0
MTEXT
  5
27D
330
275
100
AcDbEntity
  8
notes
  6
Continuous
 62
     0
370
     5
100
AcDbMText
 10
1588.011373795674
 20
1177.542312890941
 30
0.0
 40
24.4326171875
 41
0.0
 46
0.0
 71
     5
 72
     1
  1
\A1;120(深さ)
  7
ＭＳ ゴシック
 11
0.0
 21
1.0
 31
0.0
 73
     1
 44
1.0
  0
POINT
  5
27E
330
275
100
AcDbEntity
  8
Defpoints
 62
     0
100
AcDbPoint
 10
1618.110658524087
 20
974.7888271176494
 30
0.0
  0
POINT
  5
27F
330
275
100
AcDbEntity
  8
Defpoints
 62
     0
100
AcDbPoint
 10
1618.110658524087
 20
1094.78882711765
 30
0.0
  0
POINT
  5
280
330
275
100
AcDbEntity
  8
Defpoints
 62
     0
100
AcDbPoint
 10
1607.389969010517
 20
1094.78882711765
 30
0.0
  0
ENDBLK
  5
277
330
275
100
AcDbEntity
  8
0
100
AcDbBlockEnd
  0
BLOCK
  5
282
330
281
100
AcDbEntity
  8
0
100
AcDbBlockBegin
  2
*D28
 70
     1
 10
0.0
 20
0.0
 30
0.0
  3
*D28
  1
*D28
  0
LINE
  5
284
330
281
100
AcDbEntity
  8
notes
  6
Continuous
 62
     0
370
    -2
100
AcDbLine
 10
824.9408654485459
 20
2339.769192716277
 30
0.0
 11
775.1803107610459
 21
2339.769192716277
 31
0.0
  0
LINE
  5
285
330
281
100
AcDbEntity
  8
notes
  6
Continuous
 62
     0
370
    -2
100
AcDbLine
 10
775.1803107610459
 20
2339.769192716277
 30
0.0
 11
605.7131367577945
 21
2246.085623860871
 31
0.0
  0
MTEXT
  5
286
330
281
100
AcDbEntity
  8
notes
  6
Continuous
 62
     0
370
     5
100
AcDbMText
 10
802.5605881047959
 20
2357.901724454558
 30
0.0
 40
24.4326171875
 41
0.0
 46
0.0
 71
     5
 72
     1
  1
\A1;%%c35
  7
ＭＳ ゴシック
 73
     1
 44
1.0
  0
INSERT
  5
287
330
281
100
AcDbEntity
  8
notes
 62
     0
370
    -2
100
AcDbBlockReference
  2
_DOT
 10
602.2126524104281
 20
2244.150512425204
 30
0.0
 41
3.999755859375
 42
3.999755859375
 43
3.999755859375
 50
208.9343652401027
  0
POINT
  5
288
330
281
100
AcDbEntity
  8
Defpoints
 62
     0
100
AcDbPoint
 10
602.2126524104281
 20
2244.150512425204
 30
0.0
  0
POINT
  5
289
330
281
100
AcDbEntity
  8
Defpoints
 62
     0
100
AcDbPoint
 10
571.5815447965344
 20
2227.21725383904
 30
0.0
  0
ENDBLK
  5
283
330
281
100
AcDbEntity
  8
0
100
AcDbBlockEnd
  0
ENDSEC
  0
SECTION
  2
ENTITIES
  0
MTEXT
  5
191
330
A
100
AcDbEntity
  8
template
 62
     7
390
1D
100
AcDbMText
 10
82.00000000000023
 20
352.8419385694542
 30
0.0
 40
16.28841145833333
 41
0.0
 46
0.0
 71
     1
 72
     1
  1
品名
  7
ＭＳ ゴシック
 73
     1
 44
0.7828267384257843
  0
MTEXT
  5
192
330
A
100
AcDbEntity
  8
template
 62
     7
390
1D
100
AcDbMText
 10
82.00000000000023
 20
267.8419385694542
 30
0.0
 40
16.28841145833333
 41
0.0
 46
0.0
 71
     1
 72
     1
  1
仕様
  7
ＭＳ ゴシック
 73
     1
 44
0.7828267384257843
  0
MTEXT
  5
193
330
A
100
AcDbEntity
  8
template
 62
     7
390
1D
100
AcDbMText
 10
135.0000000000002
 20
324.259477631954
 30
0.0
 40
24.4326171875
 41
0.0
 46
0.0
 71
     1
 72
     1
  1
洗面器 -POZZI GINORI,Q3-
  7
ＭＳ ゴシック
 73
     1
 44
0.7828267384257843
  0
LINE
  5
194
330
A
100
AcDbEntity
  8
template
  6
Continuous
 62
     7
370
     5
390
1D
100
AcDbLine
 10
2024.999999999518
 20
276.2568604444541
 30
0.0
 11
74.99999999952001
 21
276.2568604444541
 31
0.0
  0
LWPOLYLINE
  5
195
330
A
100
AcDbEntity
  8
template
  6
Continuous
 62
     7
370
     5
390
1D
100
AcDbPolyline
 90
        5
 70
   128
 43
0.0
 10
2025.0
 20
2906.256860444454
 10
75.00000000000023
 20
2906.256860444454
 10
75.00000000000023
 20
106.2568604444541
 10
2025.0
 20
106.2568604444541
 10
2025.0
 20
2906.256860444454
  0
LINE
  5
196
330
A
100
AcDbEntity
  8
template
  6
Continuous
 62
     7
370
     5
390
1D
100
AcDbLine
 10
2024.999999999518
 20
361.2568604444541
 30
0.0
 11
74.99999999952001
 21
361.2568604444541
 31
0.0
  0
LINE
  5
197
330
A
100
AcDbEntity
  8
template
  6
Continuous
 62
     7
370
     5
390
1D
100
AcDbLine
 10
2025.0
 20
191.2568604444541
 30
0.0
 11
1272.0
 21
191.2568604444541
 31
0.0
  0
MTEXT
  5
198
330
A
100
AcDbEntity
  8
template
 62
     7
390
1D
100
AcDbMText
 10
75.00000000020395
 20
94.40303838759723
 30
0.0
 40
21.71788194444445
 41
0.0
 46
0.0
 71
     1
 72
     1
  1
110722SO
  7
ＭＳ ゴシック
 73
     1
 44
0.7828267384257843
  0
MTEXT
  5
199
330
A
100
AcDbEntity
  8
template
 62
     7
390
1D
100
AcDbMText
 10
1301.87140625226
 20
161.3464659711465
 30
0.0
 40
24.4326171875
 41
0.0
 46
0.0
 71
     1
 72
     1
  1
大洋金物株式会社 ティーフォルム事業部
  7
ＭＳ ゴシック
 73
     1
 44
0.7828267384257843
  0
INSERT
  5
19A
330
A
100
AcDbEntity
  8
template
 62
     7
390
1D
100
AcDbBlockReference
  2
グループ
 10
16826.69999744267
 20
29.4931838282132
 30
0.0
  0
MTEXT
  5
19B
330
A
100
AcDbEntity
  8
template
 62
     7
390
1D
100
AcDbMText
 10
1834.000000000259
 20
239.259477631954
 30
0.0
 40
24.4326171875
 41
0.0
 46
0.0
 71
     1
 72
     1
  1
1:10
  7
ＭＳ ゴシック
 73
     1
 44
0.7828267384257843
  0
MTEXT
  5
19C
330
A
100
AcDbEntity
  8
template
 62
     7
390
1D
100
AcDbMText
 10
1781.000000000259
 20
267.8419385694542
 30
0.0
 40
16.28841145833333
 41
0.0
 46
0.0
 71
     1
 72
     1
  1
縮尺
  7
ＭＳ ゴシック
 73
     1
 44
0.7828267384257843
  0
LINE
  5
19D
330
A
100
AcDbEntity
  8
template
  6
Continuous
 62
     7
370
     5
390
1D
100
AcDbLine
 10
1774.000000000259
 20
191.2568604444541
 30
0.0
 11
1774.000000000259
 21
276.2568604444541
 31
0.0
  0
MTEXT
  5
19E
330
A
100
AcDbEntity
  8
template
 62
     7
390
1D
100
AcDbMText
 10
1530.000000000259
 20
267.8419385694542
 30
0.0
 40
16.28841145833333
 41
0.0
 46
0.0
 71
     1
 72
     1
  1
容量
  7
ＭＳ ゴシック
 73
     1
 44
0.7828267384257843
  0
LINE
  5
19F
330
A
100
AcDbEntity
  8
template
  6
Continuous
 62
     7
370
     5
390
1D
100
AcDbLine
 10
1523.000000000259
 20
191.2568604444541
 30
0.0
 11
1523.000000000259
 21
276.2568604444541
 31
0.0
  0
MTEXT
  5
1A0
330
A
100
AcDbEntity
  8
template
 62
     7
390
1D
100
AcDbMText
 10
1279.000000000259
 20
352.8419385694542
 30
0.0
 40
16.28841145833333
 41
0.0
 46
0.0
 71
     1
 72
     1
  1
品番
  7
ＭＳ ゴシック
 73
     1
 44
0.7828267384257843
  0
MTEXT
  5
1A1
330
A
100
AcDbEntity
  8
template
 62
     7
390
1D
100
AcDbMText
 10
1279.000000000259
 20
267.8419385694542
 30
0.0
 40
16.28841145833333
 41
0.0
 46
0.0
 71
     1
 72
     1
  1
重量
  7
ＭＳ ゴシック
 73
     1
 44
0.7828267384257843
  0
MTEXT
  5
1A2
330
A
100
AcDbEntity
  8
template
 62
     7
390
1D
100
AcDbMText
 10
1332.000000000259
 20
324.259477631954
 30
0.0
 40
24.4326171875
 41
0.0
 46
0.0
 71
     1
 72
     1
  1
ARJ70-0304(旧品番:AQI70-0304)
  7
ＭＳ ゴシック
 73
     1
 44
0.7828267384257843
  0
MTEXT
  5
1A3
330
A
100
AcDbEntity
  8
template
 62
     7
390
1D
100
AcDbMText
 10
1332.000000000259
 20
239.259477631954
 30
0.0
 40
24.4326171875
 41
0.0
 46
0.0
 71
     1
 72
     1
  1
17kg
  7
ＭＳ ゴシック
 73
     1
 44
0.7828267384257843
  0
LINE
  5
1A4
330
A
100
AcDbEntity
  8
template
  6
Continuous
 62
     7
370
     5
390
1D
100
AcDbLine
 10
1272.000000000259
 20
106.2568604444541
 30
0.0
 11
1272.000000000259
 21
361.2568604444541
 31
0.0
  0
MTEXT
  5
1A5
330
A
100
AcDbEntity
  8
template
 62
     7
390
1D
100
AcDbMText
 10
135.0000000000002
 20
239.259477631954
 30
0.0
 40
24.4326171875
 41
0.0
 46
0.0
 71
     1
 72
     1
  1
カウンタートップ/オーバーフロー付き/壁固定ボルト,\Pカウンタ ー固定金具付属/陶器/ホワイト
  7
ＭＳ ゴシック
 73
     1
 44
1.304711230709641
  0
DIMENSION
  5
1A6
330
A
100
AcDbEntity
  8
template
  6
Continuous
 62
     7
370
     5
390
1D
100
AcDbDimension
  2
*D3
 10
1817.376254782041
 20
2310.700607635588
 30
0.0
 11
1800.159946188291
 21
2294.200607635589
 31
0.0
 70
    32
 71
     5
 42
32.99999999999864
 73
     0
 74
     0
 75
     0
  3
tform線あり
100
AcDbAlignedDimension
 13
1697.999999999758
 23
2277.70060763559
 33
0.0
 14
1697.999999999758
 24
2310.700607635588
 34
0.0
 50
90.0
100
AcDbRotatedDimension
1001
ACAD
1000
DSTYLE
1002
{
1070
   279
1070
     2
1070
   340
1005
3C
1070
   147
1040
5.0
1002
}
  0
LINE
  5
1A7
330
A
100
AcDbEntity
  8
template
  6
STYLE_13
 62
     7
370
    15
390
1D
100
AcDbLine
 10
516.9999999997583
 20
1024.778409752038
 30
0.0
 11
516.9999999997583
 21
1064.778409752038
 31
0.0
  0
LINE
  5
1A8
330
A
100
AcDbEntity
  8
template
  6
STYLE_13
 62
     7
370
    15
390
1D
100
AcDbLine
 10
536.9999999997583
 20
1044.778409752038
 30
0.0
 11
496.9999999997583
 21
1044.778409752038
 31
0.0
  0
CIRCLE
  5
1A9
330
A
100
AcDbEntity
  8
template
  6
STYLE_13
 62
     7
370
    15
390
1D
100
AcDbCircle
 10
516.9999999997583
 20
1044.778409752038
 30
0.0
 40
10.0
  0
LINE
  5
1AA
330
A
100
AcDbEntity
  8
template
  6
STYLE_13
 62
     7
370
    15
390
1D
100
AcDbLine
 10
656.9999999997583
 20
1024.778409752038
 30
0.0
 11
656.9999999997583
 21
1064.778409752038
 31
0.0
  0
LINE
  5
1AB
330
A
100
AcDbEntity
  8
template
  6
STYLE_13
 62
     7
370
    15
390
1D
100
AcDbLine
 10
676.9999999997583
 20
1044.778409752038
 30
0.0
 11
636.9999999997583
 21
1044.778409752038
 31
0.0
  0
CIRCLE
  5
1AC
330
A
100
AcDbEntity
  8
template
  6
STYLE_13
 62
     7
370
    15
390
1D
100
AcDbCircle
 10
656.9999999997583
 20
1044.778409752038
 30
0.0
 40
10.0
  0
DIMENSION
  5
1AD
330
A
100
AcDbEntity
  8
template
  6
Continuous
 62
     7
370
     5
390
1D
100
AcDbDimension
  2
*D4
 10
516.9999999997583
 20
1140.259567803155
 30
0.0
 11
586.9999999997583
 21
1157.475876396905
 31
0.0
 70
    32
 71
     5
 42
140.0
 73
     0
 74
     0
 75
     0
  3
tform線あり
100
AcDbAlignedDimension
 13
656.9999999997583
 23
1064.778409752038
 33
0.0
 14
516.9999999997583
 24
1064.778409752038
 34
0.0
100
AcDbRotatedDimension
1001
ACAD
1000
DSTYLE
1002
{
1070
   279
1070
     2
1070
   340
1005
3C
1070
   147
1040
5.0
1002
}
  0
DIMENSION
  5
1AE
330
A
100
AcDbEntity
  8
template
  6
Continuous
 62
     7
370
     5
390
1D
100
AcDbDimension
  2
*D5
 10
194.9999999997601
 20
1094.778409752038
 30
0.0
 11
177.7836914060101
 21
1069.778409752038
 31
0.0
 70
    32
 71
     5
 42
50.0
 73
     0
 74
     0
 75
     0
  3
tform線あり
100
AcDbAlignedDimension
 13
263.9999999997601
 23
1044.778409752038
 33
0.0
 14
255.9999999997601
 24
1094.778409752038
 34
0.0
 50
90.0
100
AcDbRotatedDimension
1001
ACAD
1000
DSTYLE
1002
{
1070
   279
1070
     2
1070
   340
1005
3C
1070
   147
1040
5.0
1002
}
  0
MTEXT
  5
1AF
330
A
100
AcDbEntity
  8
template
 62
     7
390
1D
100
AcDbMText
 10
1091.019411732981
 20
1456.262184990655
 30
0.0
 40
24.4326171875
 41
0.0
 46
0.0
 71
     1
 72
     1
  1
※カウンタートップ置きの場合も壁固定が必要です。\P
  7
ＭＳ ゴシック
 73
     1
 44
0.7828267384257843
  0
MTEXT
  5
1B0
330
A
100
AcDbEntity
  8
template
 62
     7
390
1D
100
AcDbMText
 10
768.2649900983745
 20
1176.184017651574
 30
0.0
 40
24.4326171875
 41
0.0
 46
0.0
 71
     1
 72
     1
  1
壁取付ボルト穴(2ヶ所）
  7
ＭＳ ゴシック
 73
     1
 44
0.7828267384257843
  0
LINE
  5
1B1
330
A
100
AcDbEntity
  8
template
  6
Continuous
 62
     7
370
     5
390
1D
100
AcDbLine
 10
665.9661410374522
 20
1053.022813713055
 30
0.0
 11
763.3021827912582
 21
1150.358855466859
 31
0.0
  0
CIRCLE
  5
1B2
330
A
100
AcDbEntity
  8
template
  6
Continuous
 62
     7
370
     5
390
1D
100
AcDbCircle
 10
1249.999999999758
 20
1984.201854143755
 30
0.0
 40
6.0
  0
CIRCLE
  5
1B3
330
A
100
AcDbEntity
  8
template
  6
Continuous
 62
     7
370
     5
390
1D
100
AcDbCircle
 10
1749.999999995596
 20
1984.201854143755
 30
0.0
 40
6.0
  0
LINE
  5
1B4
330
A
100
AcDbEntity
  8
template
  6
Continuous
 62
     7
370
     5
390
1D
100
AcDbLine
 10
1253.466966864082
 20
1979.304901979885
 30
0.0
 11
1377.999999999758
 21
1740.259567803155
 31
0.0
  0
MTEXT
  5
1B5
330
A
100
AcDbEntity
  8
template
 62
     7
390
1D
100
AcDbMText
 10
1377.999999999758
 20
1740.994880145243
 30
0.0
 40
24.4326171875
 41
0.0
 46
0.0
 71
     1
 72
     1
  1
固定金具用穴(2ヵ所)
  7
ＭＳ ゴシック
 73
     1
 44
0.7828267384257843
  0
MTEXT
  5
1B6
330
A
100
AcDbEntity
  8
notes
 62
     7
390
1D
100
AcDbMText
 10
1091.019411732981
 20
1618.431487413117
 30
0.0
 40
24.4326171875
 41
880.0
 46
0.0
 71
     1
 72
     1
  1
※陶器製品には寸法公差があります。\P　必ず現物を合わせて固定金具用穴あけ、カウンターの切込　を行ってください。
  7
ＭＳ ゴシック
 73
     1
 44
1.174240107638676
  0
MTEXT
  5
1B7
330
A
100
AcDbEntity
  8
notes
 62
     7
390
1D
100
AcDbMText
 10
1365.342931936812
 20
2559.506014770206
 30
0.0
 40
24.4326171875
 41
0.0
 46
0.0
 71
     1
 72
     1
  1
カウンター切込寸法
  7
ＭＳ ゴシック
 73
     1
 44
0.7828267384257843
  0
INSERT
  5
1B8
330
A
100
AcDbEntity
  8
notes
 62
     7
390
1D
100
AcDbBlockReference
  2
グループ-1
 10
16826.69999744267
 20
29.4931838282132
 30
0.0
  0
DIMENSION
  5
1B9
330
A
100
AcDbEntity
  8
notes
  6
Continuous
 62
     7
370
     5
390
1D
100
AcDbDimension
  2
*D7
 10
236.8973693541668
 20
2460.70060763559
 30
0.0
 11
586.8970986034876
 21
2477.91691622934
 31
0.0
 70
    32
 71
     5
 42
699.9994584986416
 73
     0
 74
     0
 75
     0
  3
tform線あり
100
AcDbAlignedDimension
 13
936.8968278528084
 23
1993.200607600371
 33
0.0
 14
236.8973693541668
 24
1993.200607600371
 34
0.0
100
AcDbRotatedDimension
1001
ACAD
1000
DSTYLE
1002
{
1070
   279
1070
     2
1070
   340
1005
3C
1070
   147
1040
5.0
1002
}
  0
DIMENSION
  5
1BA
330
A
100
AcDbEntity
  8
notes
  6
Continuous
 62
     7
370
     5
390
1D
100
AcDbDimension
  2
*D8
 10
436.8970986034803
 20
2410.700607635588
 30
0.0
 11
586.8970986034813
 21
2427.916916229338
 31
0.0
 70
    32
 71
     5
 42
300.0000000000018
 73
     0
 74
     0
 75
     0
  3
tform線あり
100
AcDbAlignedDimension
 13
736.8970986034822
 23
2305.700607635588
 33
0.0
 14
436.8970986034803
 24
2305.700607635588
 34
0.0
100
AcDbRotatedDimension
1001
ACAD
1000
DSTYLE
1002
{
1070
   279
1070
     2
1070
   340
1005
3C
1070
   147
1040
5.0
1002
}
  0
DIMENSION
  5
1BB
330
A
100
AcDbEntity
  8
notes
  6
Continuous
 62
     7
370
     5
390
1D
100
AcDbDimension
  2
*D9
 10
1036.89682785281
 20
2310.700607635588
 30
0.0
 11
1019.68051925906
 21
2045.70060763559
 31
0.0
 70
    32
 71
     5
 42
529.9999999999966
 73
     0
 74
     0
 75
     0
  3
tform線あり
100
AcDbAlignedDimension
 13
636.8970914894655
 23
1780.700607635592
 33
0.0
 14
731.8970986034822
 24
2310.700607635588
 34
0.0
 50
90.0
100
AcDbRotatedDimension
1001
ACAD
1000
DSTYLE
1002
{
1070
   279
1070
     2
1070
   340
1005
3C
1070
   147
1040
5.0
1002
}
  0
DIMENSION
  5
1BC
330
A
100
AcDbEntity
  8
notes
  6
Continuous
 62
     7
370
     5
390
1D
100
AcDbDimension
  2
*D10
 10
136.8973693541668
 20
2310.700607635588
 30
0.0
 11
119.6810607604168
 21
2238.200607617976
 31
0.0
 70
    32
 71
     5
 42
145.0000000352238
 73
     0
 74
     0
 75
     0
  3
tform線あり
100
AcDbAlignedDimension
 13
349.3972339964387
 23
2165.700607600364
 33
0.0
 14
441.8970986034803
 24
2310.700607635588
 34
0.0
 50
90.0
100
AcDbRotatedDimension
1001
ACAD
1000
DSTYLE
1002
{
1070
   279
1070
     2
1070
   340
1005
3C
1070
   147
1040
5.0
1002
}
  0
DIMENSION
  5
1BD
330
A
100
AcDbEntity
  8
notes
  6
Continuous
 62
     7
370
     5
390
1D
100
AcDbDimension
  2
*D11
 10
136.8973693541668
 20
2165.700607600364
 30
0.0
 11
119.6810607604168
 21
1993.200607600369
 31
0.0
 70
    32
 71
     5
 42
344.9999999999902
 73
     0
 74
     0
 75
     0
  3
tform線あり
100
AcDbAlignedDimension
 13
348.6408156143591
 23
1820.700607600374
 33
0.0
 14
349.397233996435
 24
2165.700607600364
 34
0.0
 50
90.0
100
AcDbRotatedDimension
1001
ACAD
1000
DSTYLE
1002
{
1070
   279
1070
     2
1070
   340
1005
3C
1070
   147
1040
5.0
1002
}
  0
DIMENSION
  5
1BE
330
A
100
AcDbEntity
  8
notes
  6
Continuous
 62
     7
370
     5
390
1D
100
AcDbDimension
  2
*D12
 10
276.9994608865275
 20
1680.700607635592
 30
0.0
 11
586.8970986034813
 21
1697.916916229342
 31
0.0
 70
    32
 71
     5
 42
619.7952754339076
 73
     0
 74
     0
 75
     0
  3
tform線あり
100
AcDbAlignedDimension
 13
896.794736320435
 23
1877.104417968452
 33
0.0
 14
276.9994608865275
 24
1877.104417968471
 34
0.0
100
AcDbRotatedDimension
1001
ACAD
1000
DSTYLE
1002
{
1070
   271
1070
     0
1070
   279
1070
     2
1070
   340
1005
3C
1070
   147
1040
5.0
1002
}
  0
DIMENSION
  5
1BF
330
A
100
AcDbEntity
  8
notes
  6
Continuous
 62
     7
370
     5
390
1D
100
AcDbDimension
  2
*D13
 10
1036.89682785281
 20
1094.778409752038
 30
0.0
 11
1019.68051925906
 21
1012.278409752032
 31
0.0
 70
    32
 71
     5
 42
165.0000000000124
 73
     0
 74
     0
 75
     0
  3
tform線あり
100
AcDbAlignedDimension
 13
621.4427272339074
 23
929.778409752026
 33
0.0
 14
931.8970914913064
 24
1094.778409752038
 34
0.0
 50
90.0
100
AcDbRotatedDimension
1001
ACAD
1000
DSTYLE
1002
{
1070
   279
1070
     2
1070
   340
1005
3C
1070
   147
1040
5.0
1002
}
  0
DIMENSION
  5
1C0
330
A
100
AcDbEntity
  8
notes
  6
Continuous
 62
     7
370
     5
390
1D
100
AcDbDimension
  2
*D14
 10
1221.955459507806
 20
1094.78882711765
 30
0.0
 11
1204.739150914056
 21
1029.788827118291
 31
0.0
 70
    32
 71
     5
 42
129.9999999987185
 73
     0
 74
     0
 75
     0
  3
tform線あり
100
AcDbAlignedDimension
 13
1391.239211845905
 23
964.7888271189317
 33
0.0
 14
1326.427458592871
 24
1094.78882711765
 34
0.0
 50
90.0
100
AcDbRotatedDimension
1001
ACAD
1000
DSTYLE
1002
{
1070
   279
1070
     2
1070
   340
1005
3C
1070
   147
1040
5.0
1002
}
  0
DIMENSION
  5
1C1
330
A
100
AcDbEntity
  8
notes
  6
Continuous
 62
     7
370
     5
390
1D
100
AcDbDimension
  2
*D15
 10
1221.955459507806
 20
964.7888271189317
 30
0.0
 11
1204.739150914056
 21
947.2888271182906
 31
0.0
 70
    32
 71
     5
 42
35.00000000128249
 73
     0
 74
     0
 75
     0
  3
tform線あり
100
AcDbAlignedDimension
 13
1577.427458522414
 23
929.7888271176492
 33
0.0
 14
1391.239211845905
 24
964.7888271189317
 34
0.0
 50
90.0
100
AcDbRotatedDimension
1001
ACAD
1000
DSTYLE
1002
{
1070
   279
1070
     2
1070
   340
1005
3C
1070
   147
1040
5.0
1002
}
  0
DIMENSION
  5
1C2
330
A
100
AcDbEntity
  8
notes
  6
Continuous
 62
     7
370
     5
390
1D
100
AcDbDimension
  2
*D27
 10
1607.389969010517
 20
1094.78882711765
 30
0.0
 11
1588.011373795674
 21
1177.542312890941
 31
0.0
 70
   160
 71
     5
 42
120.0000000000007
 73
     0
 74
     0
 75
     0
  3
tform線あり
100
AcDbAlignedDimension
 13
1618.110658524087
 23
974.7888271176494
 33
0.0
 14
1618.110658524087
 24
1094.78882711765
 34
0.0
 50
90.0
100
AcDbRotatedDimension
1001
ACAD
1000
DSTYLE
1002
{
1070
   279
1070
     2
1070
   340
1005
3C
1070
     3
1000
<>(深さ)
1070
   174
1070
     0
1070
   147
1040
5.0
1002
}
  0
DIMENSION
  5
1C3
330
A
100
AcDbEntity
  8
notes
  6
Continuous
 62
     7
370
     5
390
1D
100
AcDbDimension
  2
*D17
 10
1851.427458522414
 20
1194.78882711765
 30
0.0
 11
1813.92745852241
 21
1212.0051357114
 31
0.0
 70
    32
 71
     5
 42
75.00000000000728
 73
     0
 74
     0
 75
     0
  3
tform線あり
100
AcDbAlignedDimension
 13
1776.427458522407
 23
1094.78882711765
 33
0.0
 14
1851.427458522414
 24
1091.788827117803
 34
0.0
100
AcDbRotatedDimension
1001
ACAD
1000
DSTYLE
1002
{
1070
   279
1070
     2
1070
   340
1005
3C
1070
   147
1040
5.0
1002
}
  0
DIMENSION
  5
1C4
330
A
100
AcDbEntity
  8
notes
  6
Continuous
 62
     7
370
     5
390
1D
100
AcDbDimension
  2
*D28
 10
571.5815447965344
 20
2227.21725383904
 30
0.0
 11
802.5605881047959
 21
2339.769192716277
 31
0.0
 70
   163
 71
     5
 42
34.99999999999772
 73
     0
 74
     0
 75
     0
  3
tform線あり
100
AcDbDiametricDimension
 15
602.2126524104281
 25
2244.150512425204
 35
0.0
 40
0.0
1001
ACAD
1000
DSTYLE
1002
{
1070
   289
1070
     0
1070
   342
1005
4E
1070
   340
1005
3C
1070
    73
1070
     1
1070
    74
1070
     1
1070
     3
1000

1070
   174
1070
     0
1070
   147
1040
5.0
1002
}
  0
DIMENSION
  5
1C5
330
A
100
AcDbEntity
  8
notes
  6
Continuous
 62
     7
370
     5
390
1D
100
AcDbDimension
  2
*D19
 10
1851.42745852241
 20
829.7888271176492
 30
0.0
 11
1731.42745852241
 21
847.0051357113992
 31
0.0
 70
    32
 71
     5
 42
240.0
 73
     0
 74
     0
 75
     0
  3
tform線あり
100
AcDbAlignedDimension
 13
1611.42745852241
 23
929.7888271176492
 33
0.0
 14
1851.42745852241
 24
964.7888271176494
 34
0.0
100
AcDbRotatedDimension
1001
ACAD
1000
DSTYLE
1002
{
1070
   279
1070
     2
1070
   340
1005
3C
1070
   147
1040
5.0
1002
}
  0
DIMENSION
  5
1C6
330
A
100
AcDbEntity
  8
notes
  6
Continuous
 62
     7
370
     5
390
1D
100
AcDbDimension
  2
*D20
 10
1851.42745852241
 20
779.7888271176492
 30
0.0
 11
1618.92745852241
 21
797.0051357113992
 31
0.0
 70
    32
 71
     5
 42
465.0
 73
     0
 74
     0
 75
     0
  3
tform線あり
100
AcDbAlignedDimension
 13
1386.42745852241
 23
964.7888271176494
 33
0.0
 14
1851.42745852241
 24
964.7888271176494
 34
0.0
100
AcDbRotatedDimension
1001
ACAD
1000
DSTYLE
1002
{
1070
   279
1070
     2
1070
   340
1005
3C
1070
   147
1040
5.0
1002
}
  0
DIMENSION
  5
1C7
330
A
100
AcDbEntity
  8
notes
  6
Continuous
 62
     7
370
     5
390
1D
100
AcDbDimension
  2
*D21
 10
306.900015745374
 20
829.7888271176492
 30
0.0
 11
586.9000157453731
 21
847.0051357113992
 31
0.0
 70
    32
 71
     5
 42
559.9999999999982
 73
     0
 74
     0
 75
     0
  3
tform線あり
100
AcDbAlignedDimension
 13
866.9000157453722
 23
964.778409751239
 33
0.0
 14
306.900015745374
 24
964.778409751239
 34
0.0
100
AcDbRotatedDimension
1001
ACAD
1000
DSTYLE
1002
{
1070
   279
1070
     2
1070
   340
1005
3C
1070
   147
1040
5.0
1002
}
  0
POLYLINE
  5
1C8
330
A
100
AcDbEntity
  8
notes
  6
Continuous
 62
     7
370
     5
390
1D
100
AcDb2dPolyline
 66
     1
 10
0.0
 20
0.0
 30
0.0
 70
     1
 75
     5
  0
VERTEX
  5
1C9
330
1C8
100
AcDbEntity
  8
notes
  6
Continuous
 62
     7
370
     5
390
1D
100
AcDbVertex
100
AcDb2dVertex
 10
1611.376254782041
 20
2277.70060763559
 30
0.0
  0
VERTEX
  5
1CA
330
1C8
100
AcDbEntity
  8
notes
  6
Continuous
 62
     7
370
     5
390
1D
100
AcDbVertex
100
AcDb2dVertex
 10
1611.376254782041
 20
2082.70060763559
 30
0.0
  0
VERTEX
  5
1CB
330
1C8
100
AcDbEntity
  8
notes
  6
Continuous
 62
     7
370
     5
390
1D
100
AcDbVertex
100
AcDb2dVertex
 10
1666.399999999758
 20
2082.70060763559
 30
0.0
  0
VERTEX
  5
1CC
330
1C8
100
AcDbEntity
  8
notes
  6
Continuous
 62
     7
370
     5
390
1D
100
AcDbVertex
100
AcDb2dVertex
 10
1666.399999999758
 20
1912.70060763559
 30
0.0
  0
VERTEX
  5
1CD
330
1C8
100
AcDbEntity
  8
notes
  6
Continuous
 62
     7
370
     5
390
1D
100
AcDbVertex
100
AcDb2dVertex
 10
1336.399999999758
 20
1912.70060763559
 30
0.0
  0
VERTEX
  5
1CE
330
1C8
100
AcDbEntity
  8
notes
  6
Continuous
 62
     7
370
     5
390
1D
100
AcDbVertex
100
AcDb2dVertex
 10
1336.399999999758
 20
2082.70060763559
 30
0.0
  0
VERTEX
  5
1CF
330
1C8
100
AcDbEntity
  8
notes
  6
Continuous
 62
     7
370
     5
390
1D
100
AcDbVertex
100
AcDb2dVertex
 10
1391.376254782041
 20
2082.70060763559
 30
0.0
  0
VERTEX
  5
1D0
330
1C8
100
AcDbEntity
  8
notes
  6
Continuous
 62
     7
370
     5
390
1D
100
AcDbVertex
100
AcDb2dVertex
 10
1391.376254782041
 20
2277.70060763559
 30
0.0
  0
SEQEND
  5
1D1
330
1C8
100
AcDbEntity
  8
notes
  6
Continuous
 62
     7
370
     5
390
1D
  0
DIMENSION
  5
1D2
330
A
100
AcDbEntity
  8
notes
  6
Continuous
 62
     7
370
     5
390
1D
100
AcDbDimension
  2
*D22
 10
1941.376254782041
 20
1912.70060763559
 30
0.0
 11
1924.159946188291
 21
2111.700607635589
 31
0.0
 70
    32
 71
     5
 42
397.9999999999984
 73
     0
 74
     0
 75
     0
  3
tform線あり
100
AcDbAlignedDimension
 13
1611.376254782041
 23
2310.700607635588
 33
0.0
 14
1611.376254782041
 24
1912.70060763559
 34
0.0
 50
90.0
100
AcDbRotatedDimension
1001
ACAD
1000
DSTYLE
1002
{
1070
   279
1070
     2
1070
   340
1005
3C
1070
   147
1040
5.0
1002
}
  0
DIMENSION
  5
1D3
330
A
100
AcDbEntity
  8
notes
  6
Continuous
 62
     7
370
     5
390
1D
100
AcDbDimension
  2
*D23
 10
1666.399999999758
 20
1846.354352930003
 30
0.0
 11
1501.399999999758
 21
1863.570661523753
 31
0.0
 70
    32
 71
     5
 42
330.0
 73
     0
 74
     0
 75
     0
  3
tform線あり
100
AcDbAlignedDimension
 13
1336.399999999758
 23
1912.70060763559
 33
0.0
 14
1666.399999999758
 24
1912.70060763559
 34
0.0
100
AcDbRotatedDimension
1001
ACAD
1000
DSTYLE
1002
{
1070
   279
1070
     2
1070
   340
1005
3C
1070
   147
1040
5.0
1002
}
  0
DIMENSION
  5
1D4
330
A
100
AcDbEntity
  8
notes
  6
Continuous
 62
     7
370
     5
390
1D
100
AcDbDimension
  2
*D24
 10
1391.376254782041
 20
2410.700607635588
 30
0.0
 11
1501.376254782041
 21
2427.916916229338
 31
0.0
 70
    32
 71
     5
 42
220.0
 73
     0
 74
     0
 75
     0
  3
tform線あり
100
AcDbAlignedDimension
 13
1611.376254782041
 23
2310.700607635588
 33
0.0
 14
1391.376254782041
 24
2310.700607635588
 34
0.0
100
AcDbRotatedDimension
1001
ACAD
1000
DSTYLE
1002
{
1070
   279
1070
     2
1070
   340
1005
3C
1070
   147
1040
5.0
1002
}
  0
DIMENSION
  5
1D5
330
A
100
AcDbEntity
  8
notes
  6
Continuous
 62
     7
370
     5
390
1D
100
AcDbDimension
  2
*D25
 10
1817.399999999758
 20
2082.70060763559
 30
0.0
 11
1800.183691406008
 21
1997.70060763559
 31
0.0
 70
    32
 71
     5
 42
169.9999999999998
 73
     0
 74
     0
 75
     0
  3
tform線あり
100
AcDbAlignedDimension
 13
1666.399999999758
 23
1912.70060763559
 33
0.0
 14
1666.399999999758
 24
2082.70060763559
 34
0.0
 50
90.0
100
AcDbRotatedDimension
1001
ACAD
1000
DSTYLE
1002
{
1070
   279
1070
     2
1070
   340
1005
3C
1070
   147
1040
5.0
1002
}
  0
DIMENSION
  5
1D6
330
A
100
AcDbEntity
  8
notes
  6
Continuous
 62
     7
370
     5
390
1D
100
AcDbDimension
  2
*D26
 10
1817.376254782041
 20
2082.70060763559
 30
0.0
 11
1800.159946188291
 21
2180.20060763559
 31
0.0
 70
    32
 71
     5
 42
195.0
 73
     0
 74
     0
 75
     0
  3
tform線あり
100
AcDbAlignedDimension
 13
1666.376254782041
 23
2277.70060763559
 33
0.0
 14
1666.376254782041
 24
2082.70060763559
 34
0.0
 50
90.0
100
AcDbRotatedDimension
1001
ACAD
1000
DSTYLE
1002
{
1070
   279
1070
     2
1070
   340
1005
3C
1070
   147
1040
5.0
1002
}
  0
ARC
  5
1D7
330
A
100
AcDbEntity
  8
ＡＲＪ70-0304
  6
Continuous
 62
     7
370
    15
390
1D
100
AcDbCircle
 10
580.0603484803707
 20
2470.99999983198
 30
0.0
 40
690.3332470058754
100
AcDbArc
 50
251.4265245887428
 51
270.56744032724
  0
ARC
  5
1D8
330
A
100
AcDbEntity
  8
ＡＲＪ70-0304
  6
Continuous
 62
     7
370
    15
390
1D
100
AcDbCircle
 10
593.7338345004084
 20
2470.99999983198
 30
0.0
 40
690.3332470058757
100
AcDbArc
 50
269.4325596727599
 51
288.5734901203931
  0
ARC
  5
1D9
330
A
100
AcDbEntity
  8
ＡＲＪ70-0304
  6
Continuous
 62
     7
370
    15
390
1D
100
AcDbCircle
 10
731.8970986034822
 20
2305.700607635588
 30
0.0
 40
5.0
100
AcDbArc
 50
0.0
 51
90.0
  0
LINE
  5
1DA
330
A
100
AcDbEntity
  8
ＡＲＪ70-0304
  6
Continuous
 62
     7
370
    15
390
1D
100
AcDbLine
 10
731.8970986034822
 20
2310.700607635588
 30
0.0
 11
441.8970986034803
 21
2310.700607635588
 31
0.0
  0
ARC
  5
1DB
330
A
100
AcDbEntity
  8
ＡＲＪ70-0304
  6
Continuous
 62
     7
370
    15
390
1D
100
AcDbCircle
 10
441.8970986034803
 20
2305.700607635588
 30
0.0
 40
5.0
100
AcDbArc
 50
90.0
 51
180.0
  0
LINE
  5
1DC
330
A
100
AcDbEntity
  8
ＡＲＪ70-0304
  6
Continuous
 62
     7
370
    15
390
1D
100
AcDbLine
 10
436.8970986034803
 20
2305.700607635588
 30
0.0
 11
436.8970986034803
 21
2190.726526464352
 31
0.0
  0
LINE
  5
1DD
330
A
100
AcDbEntity
  8
ＡＲＪ70-0304
  6
Continuous
 62
     7
370
    15
390
1D
100
AcDbLine
 10
736.8970986034676
 20
2190.726523448526
 30
0.0
 11
736.8970986034822
 21
2305.700607635588
 31
0.0
  0
CIRCLE
  5
1DE
330
A
100
AcDbEntity
  8
ＡＲＪ70-0304
  6
Continuous
 62
     7
370
    15
390
1D
100
AcDbCircle
 10
586.8970986034822
 20
2070.683883132124
 30
0.0
 40
35.0
  0
CIRCLE
  5
1DF
330
A
100
AcDbEntity
  8
ＡＲＪ70-0304
  6
Continuous
 62
     7
370
    15
390
1D
100
AcDbCircle
 10
586.8970986034822
 20
2070.683883132124
 30
0.0
 40
22.5
  0
CIRCLE
  5
1E0
330
A
100
AcDbEntity
  8
ＡＲＪ70-0304
  6
Continuous
 62
     7
370
    15
390
1D
100
AcDbCircle
 10
586.8970986034822
 20
2235.683883132122
 30
0.0
 40
17.5
  0
LINE
  5
1E1
330
A
100
AcDbEntity
  8
ＡＲＪ70-0304
  6
Continuous
 62
     7
370
    15
390
1D
100
AcDbLine
 10
436.8970986034803
 20
2199.629347825479
 30
0.0
 11
436.8970986034803
 21
2190.726526464354
 31
0.0
  0
ARC
  5
1E2
330
A
100
AcDbEntity
  8
ＡＲＪ70-0304
  6
Continuous
 62
     7
370
    15
390
1D
100
AcDbCircle
 10
580.0603484803707
 20
1515.401215368758
 30
0.0
 40
690.3332470058756
100
AcDbArc
 50
101.9690222688465
 51
108.5734754112572
  0
ARC
  5
1E3
330
A
100
AcDbEntity
  8
ＡＲＪ70-0304
  6
Continuous
 62
     7
370
    15
390
1D
100
AcDbCircle
 10
593.7338345004084
 20
1515.401215368758
 30
0.0
 40
690.3332470058758
100
AcDbArc
 50
71.42650987960688
 51
78.03097652388232
  0
ARC
  5
1E4
330
A
100
AcDbEntity
  8
ＡＲＪ70-0304
  6
Continuous
 62
     7
370
    15
390
1D
100
AcDbCircle
 10
424.9985682672234
 20
1993.200607600371
 30
0.0
 40
188.1011989130549
100
AcDbArc
 50
110.1586285358577
 51
249.8413714641424
  0
ARC
  5
1E5
330
A
100
AcDbEntity
  8
ＡＲＪ70-0304
  6
Continuous
 62
     7
370
    15
390
1D
100
AcDbCircle
 10
748.7956289397537
 20
1993.200607600371
 30
0.0
 40
188.1011989130564
100
AcDbArc
 50
290.1586285358575
 51
69.84137146414238
  0
ARC
  5
1E6
330
A
100
AcDbEntity
  8
ＡＲＪ70-0304
  6
Continuous
 62
     7
370
    15
390
1D
100
AcDbCircle
 10
424.998498450532
 20
1993.200607600371
 30
0.0
 40
148.101198913055
100
AcDbArc
 50
110.3631143946035
 51
249.6368856053967
  0
ARC
  5
1E7
330
A
100
AcDbEntity
  8
ＡＲＪ70-0304
  6
Continuous
 62
     7
370
    15
390
1D
100
AcDbCircle
 10
586.8970190457314
 20
1472.083233317808
 30
0.0
 40
693.6173742825615
100
AcDbArc
 50
72.07870124285535
 51
107.9212856133786
  0
ARC
  5
1E8
330
A
100
AcDbEntity
  8
ＡＲＪ70-0304
  6
Continuous
 62
     7
370
    15
390
1D
100
AcDbCircle
 10
748.7956987564305
 20
1993.200607600371
 30
0.0
 40
148.101198913056
100
AcDbArc
 50
290.3631143946033
 51
69.63688560539657
  0
ARC
  5
1E9
330
A
100
AcDbEntity
  8
ＡＲＪ70-0304
  6
Continuous
 62
     7
370
    15
390
1D
100
AcDbCircle
 10
586.8970190457314
 20
2514.317981882931
 30
0.0
 40
693.6173742825617
100
AcDbArc
 50
252.0787143866214
 51
287.9212987571447
  0
LINE
  5
1EA
330
A
100
AcDbEntity
  8
ＡＲＪ70-0304
  6
Continuous
 62
     7
370
    15
390
1D
100
AcDbLine
 10
931.8970914913064
 20
1094.778409752038
 30
0.0
 11
241.8971057156562
 21
1094.778409752038
 31
0.0
  0
LINE
  5
1EB
330
A
100
AcDbEntity
  8
ＡＲＪ70-0304
  6
STYLE_02
 62
     7
370
    15
390
1D
100
AcDbLine
 10
621.8749970368137
 20
964.7784097520298
 30
0.0
 11
551.9192001701506
 21
964.7784097520444
 31
0.0
  0
LINE
  5
1EC
330
A
100
AcDbEntity
  8
ＡＲＪ70-0304
  6
Continuous
 62
     7
370
    15
390
1D
100
AcDbLine
 10
867.3941814620978
 20
964.7784097520189
 30
0.0
 11
306.4000157448538
 21
964.778409752038
 31
0.0
  0
ARC
  5
1ED
330
A
100
AcDbEntity
  8
ＡＲＪ70-0304
  6
Continuous
 62
     7
370
    15
390
1D
100
AcDbCircle
 10
241.8971057156562
 20
1089.778409752038
 30
0.0
 40
5.0
100
AcDbArc
 50
90.0
 51
205.5522884453065
  0
ARC
  5
1EE
330
A
100
AcDbEntity
  8
ＡＲＪ70-0304
  6
Continuous
 62
     7
370
    15
390
1D
100
AcDbCircle
 10
1191.897417985229
 20
1543.062172817841
 30
0.0
 40
1057.6
100
AcDbArc
 50
205.5079172193077
 51
213.146984278196
  0
ARC
  5
1EF
330
A
100
AcDbEntity
  8
ＡＲＪ70-0304
  6
Continuous
 62
     7
370
    15
390
1D
100
AcDbCircle
 10
931.8970914913064
 20
1089.778409752038
 30
0.0
 40
4.999999999999647
100
AcDbArc
 50
334.4477115546973
 51
90.0
  0
ARC
  5
1F0
330
A
100
AcDbEntity
  8
ＡＲＪ70-0304
  6
Continuous
 62
     7
370
    15
390
1D
100
AcDbCircle
 10
-18.10322077826618
 20
1543.062172817841
 30
0.0
 40
1057.600000000002
100
AcDbArc
 50
326.853015721804
 51
334.4920827806923
  0
LINE
  5
1F1
330
A
100
AcDbEntity
  8
ＡＲＪ70-0304
  6
STYLE_13
 62
     7
370
    15
390
1D
100
AcDbLine
 10
896.8970474205182
 20
1094.778409752038
 30
0.0
 11
896.8970475763656
 21
1094.778409743762
 31
0.0
  0
LINE
  5
1F2
330
A
100
AcDbEntity
  8
ＡＲＪ70-0304
  6
Continuous
 62
     7
370
    15
390
1D
100
AcDbLine
 10
552.4427272339037
 20
957.44294212385
 30
0.0
 11
552.442727233911
 21
929.778409752026
 31
0.0
  0
LINE
  5
1F3
330
A
100
AcDbEntity
  8
ＡＲＪ70-0304
  6
Continuous
 62
     7
370
    15
390
1D
100
AcDbLine
 10
621.4427272339074
 20
957.69535065765
 30
0.0
 11
621.4427272339074
 21
929.778409752026
 31
0.0
  0
LINE
  5
1F4
330
A
100
AcDbEntity
  8
ＡＲＪ70-0304
  6
Continuous
 62
     7
370
    15
390
1D
100
AcDbLine
 10
625.8105903094895
 20
962.1042588852451
 30
0.0
 11
621.4427272339074
 21
957.69535065765
 31
0.0
  0
LINE
  5
1F5
330
A
100
AcDbEntity
  8
ＡＲＪ70-0304
  6
Continuous
 62
     7
370
    15
390
1D
100
AcDbLine
 10
547.4238266629711
 20
962.1596300259062
 30
0.0
 11
552.4427272339037
 21
957.44294212385
 31
0.0
  0
LINE
  5
1F6
330
A
100
AcDbEntity
  8
ＡＲＪ70-0304
  6
STYLE_13
 62
     7
370
    15
390
1D
100
AcDbLine
 10
551.9192001701506
 20
974.7784097520444
 30
0.0
 11
564.3970986034822
 21
962.6330717657711
 31
0.0
  0
LINE
  5
1F7
330
A
100
AcDbEntity
  8
ＡＲＪ70-0304
  6
STYLE_13
 62
     7
370
    15
390
1D
100
AcDbLine
 10
621.8749970368137
 20
974.7784097520298
 30
0.0
 11
609.3970986034822
 21
962.6330717657711
 31
0.0
  0
LINE
  5
1F8
330
A
100
AcDbEntity
  8
ＡＲＪ70-0304
  6
STYLE_02
 62
     7
370
    15
390
1D
100
AcDbLine
 10
564.3970986034822
 20
962.6330717657711
 30
0.0
 11
609.3970986034822
 21
962.6330717657711
 31
0.0
  0
LINE
  5
1F9
330
A
100
AcDbEntity
  8
ＡＲＪ70-0304
  6
STYLE_02
 62
     7
370
    15
390
1D
100
AcDbLine
 10
564.3970986034822
 20
962.6330717657711
 30
0.0
 11
564.3970986034858
 21
929.7784097520279
 31
0.0
  0
LINE
  5
1FA
330
A
100
AcDbEntity
  8
ＡＲＪ70-0304
  6
STYLE_02
 62
     7
370
    15
390
1D
100
AcDbLine
 10
609.3970986034822
 20
962.6330717657711
 30
0.0
 11
609.3970986034822
 21
929.778409752027
 31
0.0
  0
LINE
  5
1FB
330
A
100
AcDbEntity
  8
ＡＲＪ70-0304
  6
STYLE_13
 62
     7
370
    15
390
1D
100
AcDbLine
 10
551.9192001701506
 20
974.7784097520444
 30
0.0
 11
621.8749970368137
 21
974.7784097520298
 31
0.0
  0
LINE
  5
1FC
330
A
100
AcDbEntity
  8
ＡＲＪ70-0304
  6
STYLE_13
 62
     7
370
    15
390
1D
100
AcDbLine
 10
551.919200170147
 20
974.7784097520289
 30
0.0
 11
463.0009814506868
 21
983.5738314061955
 31
0.0
  0
ARC
  5
1FD
330
A
100
AcDbEntity
  8
ＡＲＪ70-0304
  6
STYLE_13
 62
     7
370
    15
390
1D
100
AcDbCircle
 10
496.7358455794367
 20
1251.357268052705
 30
0.0
 40
269.900000000002
100
AcDbArc
 50
215.9991478915169
 51
262.8198081981265
  0
LINE
  5
1FE
330
A
100
AcDbEntity
  8
ＡＲＪ70-0304
  6
STYLE_13
 62
     7
370
    15
390
1D
100
AcDbLine
 10
621.8749970368174
 20
974.7784097520289
 30
0.0
 11
710.7932157562775
 21
983.5738314061955
 31
0.0
  0
ARC
  5
1FF
330
A
100
AcDbEntity
  8
ＡＲＪ70-0304
  6
STYLE_13
 62
     7
370
    15
390
1D
100
AcDbCircle
 10
677.0583516275276
 20
1251.357268052705
 30
0.0
 40
269.9000000000008
100
AcDbArc
 50
277.1801918018735
 51
324.0008521084827
  0
LINE
  5
200
330
A
100
AcDbEntity
  8
ＡＲＪ70-0304
  6
Continuous
 62
     7
370
    15
390
1D
100
AcDbLine
 10
547.4238266629711
 20
962.1596300259062
 30
0.0
 11
520.949004008455
 21
964.7784097520316
 31
0.0
  0
LINE
  5
201
330
A
100
AcDbEntity
  8
ＡＲＪ70-0304
  6
Continuous
 62
     7
370
    15
390
1D
100
AcDbLine
 10
625.8105903094859
 20
962.1042588852442
 30
0.0
 11
652.8451931985094
 21
964.7784097520316
 31
0.0
  0
ARC
  5
202
330
A
100
AcDbEntity
  8
ＡＲＪ70-0304
  6
STYLE_13
 62
     7
370
    15
390
1D
100
AcDbCircle
 10
274.3346707843305
 20
1089.778409752038
 30
0.0
 40
5.00000000000164
100
AcDbArc
 50
35.99914789150535
 51
90.0
  0
ARC
  5
203
330
A
100
AcDbEntity
  8
ＡＲＪ70-0304
  6
STYLE_13
 62
     7
370
    15
390
1D
100
AcDbCircle
 10
899.4595264226357
 20
1089.778409752038
 30
0.0
 40
5.0
100
AcDbArc
 50
90.0
 51
144.0008521084845
  0
ARC
  5
204
330
A
100
AcDbEntity
  8
ＡＲＪ70-0304
  6
Continuous
 62
     7
370
    15
390
1D
100
AcDbCircle
 10
1670.78885808878
 20
989.8411217803773
 30
0.0
 40
57.30001799999933
100
AcDbArc
 50
322.285105896736
 51
334.0738258085535
  0
LINE
  5
205
330
A
100
AcDbEntity
  8
ＡＲＪ70-0304
  6
STYLE_13
 62
     7
370
    15
390
1D
100
AcDbLine
 10
1633.927458522414
 20
961.7888271176494
 30
0.0
 11
1633.927458522414
 21
929.7888271176492
 31
0.0
  0
LINE
  5
206
330
A
100
AcDbEntity
  8
ＡＲＪ70-0304
  6
STYLE_13
 62
     7
370
    15
390
1D
100
AcDbLine
 10
1588.927458522414
 20
961.7888271176494
 30
0.0
 11
1588.927458522414
 21
929.7888271176492
 31
0.0
  0
LINE
  5
207
330
A
100
AcDbEntity
  8
ＡＲＪ70-0304
  6
Continuous
 62
     7
370
    15
390
1D
100
AcDbLine
 10
1851.427458522414
 20
1091.788827117803
 30
0.0
 11
1851.427458522407
 21
964.7888271176494
 31
0.0
  0
ARC
  5
208
330
A
100
AcDbEntity
  8
ＡＲＪ70-0304
  6
Continuous
 62
     7
370
    15
390
1D
100
AcDbCircle
 10
1670.78885808878
 20
989.8411217803773
 30
0.0
 40
57.30001799999935
100
AcDbArc
 50
275.0000000000787
 51
322.285105896736
  0
LINE
  5
209
330
A
100
AcDbEntity
  8
ＡＲＪ70-0304
  6
Continuous
 62
     7
370
    15
390
1D
100
AcDbLine
 10
1577.427458522414
 20
929.7888271176492
 30
0.0
 11
1645.42745852241
 21
929.7888271176492
 31
0.0
  0
LINE
  5
20A
330
A
100
AcDbEntity
  8
ＡＲＪ70-0304
  6
Continuous
 62
     7
370
    15
390
1D
100
AcDbLine
 10
1645.427458522414
 20
929.7888271176492
 30
0.0
 11
1675.782883717022
 21
932.7591476482161
 31
0.0
  0
LINE
  5
20B
330
A
100
AcDbEntity
  8
ＡＲＪ70-0304
  6
Continuous
 62
     7
370
    15
390
1D
100
AcDbLine
 10
1577.427458522414
 20
929.7888271176492
 30
0.0
 11
1577.427458522418
 21
957.1569134245277
 31
0.0
  0
LINE
  5
20C
330
A
100
AcDbEntity
  8
ＡＲＪ70-0304
  6
STYLE_13
 62
     7
370
    15
390
1D
100
AcDbLine
 10
1576.427458522414
 20
974.7888271176494
 30
0.0
 11
1481.674009654429
 21
984.7478158997023
 31
0.0
  0
LINE
  5
20D
330
A
100
AcDbEntity
  8
ＡＲＪ70-0304
  6
Continuous
 62
     7
370
    15
390
1D
100
AcDbLine
 10
1326.427458592871
 20
1094.78882711765
 30
0.0
 11
1848.427428404814
 21
1094.78882711765
 31
0.0
  0
LINE
  5
20E
330
A
100
AcDbEntity
  8
ＡＲＪ70-0304
  6
STYLE_13
 62
     7
370
    15
390
1D
100
AcDbLine
 10
1646.427458522414
 20
974.7888271176494
 30
0.0
 11
1633.927458522414
 21
961.7888271176494
 31
0.0
  0
LINE
  5
20F
330
A
100
AcDbEntity
  8
ＡＲＪ70-0304
  6
STYLE_13
 62
     7
370
    15
390
1D
100
AcDbLine
 10
1588.927458522414
 20
961.7888271176494
 30
0.0
 11
1576.427458522414
 21
974.7888271176494
 31
0.0
  0
LINE
  5
210
330
A
100
AcDbEntity
  8
ＡＲＪ70-0304
  6
STYLE_13
 62
     7
370
    15
390
1D
100
AcDbLine
 10
1633.927458522414
 20
961.7888271176494
 30
0.0
 11
1588.927458522414
 21
961.7888271176494
 31
0.0
  0
LINE
  5
211
330
A
100
AcDbEntity
  8
ＡＲＪ70-0304
  6
STYLE_13
 62
     7
370
    15
390
1D
100
AcDbLine
 10
1646.427458522414
 20
974.7888271176494
 30
0.0
 11
1576.427458522414
 21
974.7888271176494
 31
0.0
  0
LINE
  5
212
330
A
100
AcDbEntity
  8
ＡＲＪ70-0304
  6
Continuous
 62
     7
370
    15
390
1D
100
AcDbLine
 10
1758.927458522407
 20
1094.78882711765
 30
0.0
 11
1758.927458522407
 21
1079.78882711765
 31
0.0
  0
LINE
  5
213
330
A
100
AcDbEntity
  8
ＡＲＪ70-0304
  6
Continuous
 62
     7
370
    15
390
1D
100
AcDbLine
 10
1793.927458522407
 20
1094.78882711765
 30
0.0
 11
1793.927458522407
 21
1079.78882711765
 31
0.0
  0
ARC
  5
214
330
A
100
AcDbEntity
  8
ＡＲＪ70-0304
  6
Continuous
 62
     7
370
    15
390
1D
100
AcDbCircle
 10
1848.427458522414
 20
1091.788827117803
 30
0.0
 40
3.0
100
AcDbArc
 50
0.0
 51
90.0
  0
LINE
  5
215
330
A
100
AcDbEntity
  8
ＡＲＪ70-0304
  6
STYLE_13
 62
     7
370
    15
390
1D
100
AcDbLine
 10
1361.456220182312
 20
1094.78882711765
 30
0.0
 11
1380.944127327914
 21
1055.089067545817
 31
0.0
  0
LINE
  5
216
330
A
100
AcDbEntity
  8
ＡＲＪ70-0304
  6
Continuous
 62
     7
370
    15
390
1D
100
AcDbLine
 10
1391.239211846745
 20
964.7888271176494
 30
0.0
 11
1851.42745852241
 21
964.7888271176494
 31
0.0
  0
ARC
  5
217
330
A
100
AcDbEntity
  8
ＡＲＪ70-0304
  6
STYLE_13
 62
     7
370
    15
390
1D
100
AcDbCircle
 10
1494.949124489422
 20
1111.052096611474
 30
0.0
 40
127.0000000000011
100
AcDbArc
 50
206.1456018119885
 51
264.0000000000179
  0
LINE
  5
218
330
A
100
AcDbEntity
  8
ＡＲＪ70-0304
  6
Continuous
 62
     7
370
    15
390
1D
100
AcDbLine
 10
1577.427458522418
 20
957.1569134245241
 30
0.0
 11
1570.510945873006
 21
964.3500865799083
 31
0.0
  0
ARC
  5
219
330
A
100
AcDbEntity
  8
ＡＲＪ70-0304
  6
Continuous
 62
     7
370
    15
390
1D
100
AcDbCircle
 10
1326.427458592871
 20
1089.78882711765
 30
0.0
 40
5.000000000000227
100
AcDbArc
 50
90.0
 51
204.6578151811035
  0
ARC
  5
21A
330
A
100
AcDbEntity
  8
ＡＲＪ70-0304
  6
Continuous
 62
     7
370
    15
390
1D
100
AcDbCircle
 10
2275.592299108761
 20
1544.821047817619
 30
0.0
 40
1057.599999999998
100
AcDbArc
 50
205.6086701532219
 51
213.2601906885449
  0
LINE
  5
21B
330
A
100
AcDbEntity
  8
ＡＲＪ70-0304
  6
Continuous
 62
     7
370
    15
390
1D
100
AcDbLine
 10
552.442727233911
 20
929.778409752026
 30
0.0
 11
621.4427272339074
 21
929.778409752026
 31
0.0
  0
ARC
  5
21C
330
A
100
AcDbEntity
  8
ＡＲＪ70-0304
  6
STYLE_13
 62
     7
370
    15
390
1D
100
AcDbCircle
 10
1500.435669392549
 20
1110.251448250064
 30
0.0
 40
206.6000000000009
100
AcDbArc
 50
321.7735767293491
 51
355.707782541747
  0
ARC
  5
21D
330
A
100
AcDbEntity
  8
ＡＲＪ70-0304
  6
STYLE_13
 62
     7
370
    15
390
1D
100
AcDbCircle
 10
1647.023332997558
 20
994.7888271176494
 30
0.0
 40
19.99999999999966
100
AcDbArc
 50
270.0
 51
321.7735767293484
  0
ARC
  5
21E
330
A
100
AcDbEntity
  8
ＡＲＪ70-0304
  6
STYLE_02
 62
     7
370
     5
390
1D
100
AcDbCircle
 10
1494.502015147035
 20
2470.99999983198
 30
0.0
 40
690.3332470058754
100
AcDbArc
 50
251.4265245887428
 51
270.56744032724
  0
ARC
  5
21F
330
A
100
AcDbEntity
  8
ＡＲＪ70-0304
  6
STYLE_02
 62
     7
370
     5
390
1D
100
AcDbCircle
 10
1508.175501167072
 20
2470.99999983198
 30
0.0
 40
690.3332470058757
100
AcDbArc
 50
269.4325596727599
 51
288.5734901203931
  0
ARC
  5
220
330
A
100
AcDbEntity
  8
ＡＲＪ70-0304
  6
STYLE_02
 62
     7
370
     5
390
1D
100
AcDbCircle
 10
1646.338765270146
 20
2305.700607635588
 30
0.0
 40
5.0
100
AcDbArc
 50
0.0
 51
90.0
  0
LINE
  5
221
330
A
100
AcDbEntity
  8
ＡＲＪ70-0304
  6
STYLE_02
 62
     7
370
     5
390
1D
100
AcDbLine
 10
1646.338765270146
 20
2310.700607635588
 30
0.0
 11
1356.338765270146
 21
2310.700607635588
 31
0.0
  0
ARC
  5
222
330
A
100
AcDbEntity
  8
ＡＲＪ70-0304
  6
STYLE_02
 62
     7
370
     5
390
1D
100
AcDbCircle
 10
1356.338765270146
 20
2305.700607635588
 30
0.0
 40
5.0
100
AcDbArc
 50
90.0
 51
180.0
  0
LINE
  5
223
330
A
100
AcDbEntity
  8
ＡＲＪ70-0304
  6
STYLE_02
 62
     7
370
     5
390
1D
100
AcDbLine
 10
1351.338765270146
 20
2305.700607635588
 30
0.0
 11
1351.338765270146
 21
2190.726526464352
 31
0.0
  0
LINE
  5
224
330
A
100
AcDbEntity
  8
ＡＲＪ70-0304
  6
STYLE_02
 62
     7
370
     5
390
1D
100
AcDbLine
 10
1651.338765270131
 20
2190.726523448526
 30
0.0
 11
1651.338765270146
 21
2305.700607635588
 31
0.0
  0
CIRCLE
  5
225
330
A
100
AcDbEntity
  8
ＡＲＪ70-0304
  6
STYLE_02
 62
     7
370
     5
390
1D
100
AcDbCircle
 10
1501.338765270146
 20
2070.683883132124
 30
0.0
 40
22.5
  0
CIRCLE
  5
226
330
A
100
AcDbEntity
  8
ＡＲＪ70-0304
  6
STYLE_02
 62
     7
370
     5
390
1D
100
AcDbCircle
 10
1501.338765270146
 20
2235.683883132122
 30
0.0
 40
17.5
  0
LINE
  5
227
330
A
100
AcDbEntity
  8
ＡＲＪ70-0304
  6
STYLE_02
 62
     7
370
     5
390
1D
100
AcDbLine
 10
1351.338765270146
 20
2199.629347825479
 30
0.0
 11
1351.338765270146
 21
2190.726526464354
 31
0.0
  0
ARC
  5
228
330
A
100
AcDbEntity
  8
ＡＲＪ70-0304
  6
STYLE_02
 62
     7
370
     5
390
1D
100
AcDbCircle
 10
1494.502015147035
 20
1515.401215368758
 30
0.0
 40
690.3332470058756
100
AcDbArc
 50
101.9690222688465
 51
108.5734754112572
  0
ARC
  5
229
330
A
100
AcDbEntity
  8
ＡＲＪ70-0304
  6
STYLE_02
 62
     7
370
     5
390
1D
100
AcDbCircle
 10
1508.175501167072
 20
1515.401215368758
 30
0.0
 40
690.3332470058758
100
AcDbArc
 50
71.42650987960688
 51
78.0309765238823
  0
ARC
  5
22A
330
A
100
AcDbEntity
  8
ＡＲＪ70-0304
  6
STYLE_02
 62
     7
370
     5
390
1D
100
AcDbCircle
 10
1339.440234933889
 20
1993.200607600371
 30
0.0
 40
188.1011989130549
100
AcDbArc
 50
110.1586285358577
 51
249.8413714641424
  0
ARC
  5
22B
330
A
100
AcDbEntity
  8
ＡＲＪ70-0304
  6
STYLE_02
 62
     7
370
     5
390
1D
100
AcDbCircle
 10
1663.237295606418
 20
1993.200607600371
 30
0.0
 40
188.1011989130564
100
AcDbArc
 50
290.1586285358574
 51
69.84137146414238
  0
LINE
  5
22C
330
A
100
AcDbEntity
  8
ＡＲＪ70-0304
  6
Continuous
 62
     7
370
     5
390
1D
100
AcDbLine
 10
1191.376254782041
 20
2310.700607635588
 30
0.0
 11
1811.376254782041
 21
2310.700607635588
 31
0.0
  0
MTEXT
  5
273
330
A
100
AcDbEntity
  8
template
 62
     7
390
1D
100
AcDbMText
 10
1586.576660236205
 20
239.259477631954
 30
0.0
 40
24.4326171875
 41
0.0
 46
24.4326171875
 71
     1
 72
     1
  1
{4L}
  7
ＭＳ ゴシック
 73
     1
 44
0.7828267384257843
1001
ACAD
1000
ACAD_MTEXT_DEFINED_HEIGHT_BEGIN
1070
    46
1040
24.4326171875
1000
ACAD_MTEXT_DEFINED_HEIGHT_END
  0
ENDSEC
  0
SECTION
  2
OBJECTS
  0
DICTIONARY
  5
19
330
0
100
AcDbDictionary
281
     1
  3
ACAD_DETAILVIEWSTYLE
350
293
  3
ACAD_GROUP
350
1A
  3
ACAD_IMAGE_VARS
350
272
  3
ACAD_LAYOUT
350
1E
  3
ACAD_MATERIAL
350
268
  3
ACAD_MLEADERSTYLE
350
26E
  3
ACAD_MLINESTYLE
350
1B
  3
ACAD_PLOTSETTINGS
350
22
  3
ACAD_PLOTSTYLENAME
350
1F
  3
ACAD_SCALELIST
350
22D
  3
ACAD_SECTIONVIEWSTYLE
350
294
  3
ACAD_TABLESTYLE
350
26C
  3
ACAD_VISUALSTYLE
350
24F
  3
ACDB_RECOMPOSE_DATA
350
28F
  3
AcDbVariableDictionary
350
28A
  3
APPDATA
350
270
  0
SUN
  5
271
330
15
100
AcDbSun
 90
        1
290
     0
 63
     7
421
 16777215
 40
1.0
291
     1
 91
  2455826
 92
 54000000
292
     0
 70
     2
 71
   256
280
     1
  0
DICTIONARY
  5
293
102
{ACAD_REACTORS
330
19
102
}
330
19
100
AcDbDictionary
281
     1
  0
DICTIONARY
  5
1A
102
{ACAD_REACTORS
330
19
102
}
330
19
100
AcDbDictionary
281
     1
  0
RASTERVARIABLES
  5
272
102
{ACAD_REACTORS
330
19
102
}
330
19
100
AcDbRasterVariables
 90
        0
 70
     1
 71
     1
 72
     1
  0
DICTIONARY
  5
1E
102
{ACAD_REACTORS
330
19
102
}
330
19
100
AcDbDictionary
281
     1
  3
Layout1
350
21
  3
Model
350
20
  0
DICTIONARY
  5
268
102
{ACAD_REACTORS
330
19
102
}
330
19
100
AcDbDictionary
281
     1
  3
ByBlock
350
26A
  3
ByLayer
350
269
  3
Global
350
26B
  0
DICTIONARY
  5
26E
102
{ACAD_REACTORS
330
19
102
}
330
19
100
AcDbDictionary
281
     1
  3
Standard
350
26F
  0
DICTIONARY
  5
1B
102
{ACAD_REACTORS
330
19
102
}
330
19
100
AcDbDictionary
281
     1
  3
Standard
350
1C
  0
DICTIONARY
  5
22
102
{ACAD_REACTORS
330
19
102
}
330
19
100
AcDbDictionary
281
     1
  0
ACDBDICTIONARYWDFLT
  5
1F
102
{ACAD_REACTORS
330
19
102
}
330
19
100
AcDbDictionary
281
     1
  3
Normal
350
1D
100
AcDbDictionaryWithDefault
340
1D
  0
DICTIONARY
  5
22D
102
{ACAD_REACTORS
330
19
102
}
330
19
100
AcDbDictionary
281
     1
  3
A0
350
22E
  3
A1
350
22F
  3
A2
350
230
  3
A3
350
231
  3
A4
350
232
  3
A5
350
233
  3
A6
350
234
  3
A7
350
235
  3
A8
350
236
  3
A9
350
237
  3
B0
350
238
  3
B1
350
239
  3
B2
350
23A
  3
B3
350
23B
  3
B4
350
23C
  3
B5
350
23D
  3
B6
350
23E
  3
B7
350
23F
  3
B8
350
240
  3
B9
350
241
  3
C0
350
242
  3
C1
350
243
  3
C2
350
244
  3
C3
350
245
  3
C4
350
246
  3
C5
350
247
  3
C6
350
248
  3
C7
350
249
  3
C8
350
24A
  3
C9
350
24B
  3
D0
350
24C
  3
D1
350
24D
  3
D2
350
24E
  0
DICTIONARY
  5
294
102
{ACAD_REACTORS
330
19
102
}
330
19
100
AcDbDictionary
281
     1
  0
DICTIONARY
  5
26C
102
{ACAD_REACTORS
330
19
102
}
330
19
100
AcDbDictionary
281
     1
  3
Standard
350
26D
  0
DICTIONARY
  5
24F
102
{ACAD_REACTORS
330
19
102
}
330
19
100
AcDbDictionary
281
     1
  3
2dWireframe
350
254
  3
Basic
350
257
  3
Brighten
350
25B
  3
ColorChange
350
25F
  3
Conceptual
350
259
  3
Dim
350
25A
  3
EdgeColorOff
350
262
  3
Facepattern
350
25E
  3
Flat
350
250
  3
FlatWithEdges
350
251
  3
Gouraud
350
252
  3
GouraudWithEdges
350
253
  3
Hidden
350
256
  3
JitterOff
350
260
  3
Linepattern
350
25D
  3
OverhangOff
350
261
  3
Realistic
350
258
  3
Shaded
350
267
  3
Shaded with edges
350
266
  3
Shades of Gray
350
263
  3
Sketchy
350
264
  3
Thicken
350
25C
  3
Wireframe
350
255
  3
X-Ray
350
265
  0
XRECORD
  5
28F
102
{ACAD_REACTORS
330
19
102
}
330
19
100
AcDbXrecord
280
     1
 90
        1
330
26D
  0
DICTIONARY
  5
28A
102
{ACAD_REACTORS
330
19
102
}
330
19
100
AcDbDictionary
281
     1
  3
CANNOSCALE
350
28B
  3
CMLEADERSTYLE
350
291
  3
CTABLESTYLE
350
290
  3
MSLTSCALE
350
292
  0
DICTIONARY
  5
270
102
{ACAD_REACTORS
330
19
102
}
330
19
100
AcDbDictionary
281
     1
  0
LAYOUT
  5
21
102
{ACAD_REACTORS
330
1E
102
}
330
1E
100
AcDbPlotSettings
  1

  2

  4

  6

 40
0.0
 41
0.0
 42
0.0
 43
0.0
 44
0.0
 45
0.0
 46
0.0
 47
0.0
 48
0.0
 49
0.0
140
0.0
141
0.0
142
1.0
143
1.0
 70
     0
 72
     0
 73
     0
 74
     0
  7

 75
     0
 76
     0
 77
     2
 78
   300
147
1.0
148
0.0
149
0.0
100
AcDbLayout
  1
Layout1
 70
     0
 71
     0
 10
0.0
 20
0.0
 11
0.0
 21
0.0
 12
0.0
 22
0.0
 32
0.0
 14
0.0
 24
0.0
 34
0.0
 15
0.0
 25
0.0
 35
0.0
146
0.0
 13
0.0
 23
0.0
 33
0.0
 16
0.0
 26
0.0
 36
0.0
 17
0.0
 27
0.0
 37
0.0
 76
     0
330
B
  0
LAYOUT
  5
20
102
{ACAD_REACTORS
330
1E
102
}
330
1E
100
AcDbPlotSettings
  1

  2

  4

  6

 40
0.0
 41
0.0
 42
0.0
 43
0.0
 44
0.0
 45
0.0
 46
0.0
 47
0.0
 48
0.0
 49
0.0
140
0.0
141
0.0
142
1.0
143
1.0
 70
  1024
 72
     0
 73
     0
 74
     0
  7

 75
     0
 76
     0
 77
     2
 78
   300
147
1.0
148
0.0
149
0.0
100
AcDbLayout
  1
Model
 70
     0
 71
     1
 10
0.0
 20
0.0
 11
2100.0
 21
2970.000000000001
 12
0.0
 22
0.0
 32
0.0
 14
74.99999999952001
 24
72.90233526259723
 34
0.0
 15
2025.0
 25
2906.256860444454
 35
0.0
146
0.0
 13
0.0
 23
0.0
 33
0.0
 16
0.0
 26
0.0
 36
0.0
 17
0.0
 27
0.0
 37
0.0
 76
     0
330
A
331
15
  0
MATERIAL
  5
26A
102
{ACAD_REACTORS
330
268
102
}
330
268
100
AcDbMaterial
  1
ByBlock
 72
     1
 94
      127
  0
MATERIAL
  5
269
102
{ACAD_REACTORS
330
268
102
}
330
268
100
AcDbMaterial
  1
ByLayer
 72
     1
 94
      127
  0
MATERIAL
  5
26B
102
{ACAD_REACTORS
330
268
102
}
330
268
100
AcDbMaterial
  1
Global
 72
     1
 94
      127
  0
MLEADERSTYLE
  5
26F
102
{ACAD_REACTORS
330
26E
102
}
330
26E
100
AcDbMLeaderStyle
170
     2
171
     1
172
     0
 90
        2
 40
0.0
 41
0.0
173
     1
 91
-1056964608
340
11
 92
       -2
290
     1
 42
2.0
291
     1
 43
8.0
  3
Standard
341
0
 44
4.0
300

342
17
174
     1
178
     6
175
     1
176
     0
 93
-1056964608
 45
4.0
292
     0
297
     0
 46
4.0
343
0
 94
-1056964608
 47
1.0
 49
1.0
140
1.0
293
     1
141
0.0
294
     1
177
     0
142
1.0
295
     0
296
     0
143
3.75
1001
ACAD_MLEADERVER
1070
     2
  0
MLINESTYLE
  5
1C
102
{ACAD_REACTORS
330
1B
102
}
330
1B
100
AcDbMlineStyle
  2
Standard
 70
     0
  3

 62
     0
 51
90.0
 52
90.0
 71
     2
 49
0.5
 62
   256
  6
BYLAYER
 49
-0.5
 62
   256
  6
BYLAYER
  0
ACDBPLACEHOLDER
  5
1D
102
{ACAD_REACTORS
330
1F
102
}
330
1F
  0
SCALE
  5
22E
102
{ACAD_REACTORS
330
22D
102
}
330
22D
100
AcDbScale
 70
     0
300
1:1
140
1.0
141
1.0
290
     1
  0
SCALE
  5
22F
102
{ACAD_REACTORS
330
22D
102
}
330
22D
100
AcDbScale
 70
     0
300
1:2
140
1.0
141
2.0
290
     0
  0
SCALE
  5
230
102
{ACAD_REACTORS
330
22D
102
}
330
22D
100
AcDbScale
 70
     0
300
1:4
140
1.0
141
4.0
290
     0
  0
SCALE
  5
231
102
{ACAD_REACTORS
330
22D
102
}
330
22D
100
AcDbScale
 70
     0
300
1:5
140
1.0
141
5.0
290
     0
  0
SCALE
  5
232
102
{ACAD_REACTORS
330
22D
102
}
330
22D
100
AcDbScale
 70
     0
300
1:8
140
1.0
141
8.0
290
     0
  0
SCALE
  5
233
102
{ACAD_REACTORS
330
22D
102
}
330
22D
100
AcDbScale
 70
     0
300
1:10
140
1.0
141
10.0
290
     0
  0
SCALE
  5
234
102
{ACAD_REACTORS
330
22D
102
}
330
22D
100
AcDbScale
 70
     0
300
1:16
140
1.0
141
16.0
290
     0
  0
SCALE
  5
235
102
{ACAD_REACTORS
330
22D
102
}
330
22D
100
AcDbScale
 70
     0
300
1:20
140
1.0
141
20.0
290
     0
  0
SCALE
  5
236
102
{ACAD_REACTORS
330
22D
102
}
330
22D
100
AcDbScale
 70
     0
300
1:30
140
1.0
141
30.0
290
     0
  0
SCALE
  5
237
102
{ACAD_REACTORS
330
22D
102
}
330
22D
100
AcDbScale
 70
     0
300
1:40
140
1.0
141
40.0
290
     0
  0
SCALE
  5
238
102
{ACAD_REACTORS
330
22D
102
}
330
22D
100
AcDbScale
 70
     0
300
1:50
140
1.0
141
50.0
290
     0
  0
SCALE
  5
239
102
{ACAD_REACTORS
330
22D
102
}
330
22D
100
AcDbScale
 70
     0
300
1:100
140
1.0
141
100.0
290
     0
  0
SCALE
  5
23A
102
{ACAD_REACTORS
330
22D
102
}
330
22D
100
AcDbScale
 70
     0
300
2:1
140
2.0
141
1.0
290
     0
  0
SCALE
  5
23B
102
{ACAD_REACTORS
330
22D
102
}
330
22D
100
AcDbScale
 70
     0
300
4:1
140
4.0
141
1.0
290
     0
  0
SCALE
  5
23C
102
{ACAD_REACTORS
330
22D
102
}
330
22D
100
AcDbScale
 70
     0
300
8:1
140
8.0
141
1.0
290
     0
  0
SCALE
  5
23D
102
{ACAD_REACTORS
330
22D
102
}
330
22D
100
AcDbScale
 70
     0
300
10:1
140
10.0
141
1.0
290
     0
  0
SCALE
  5
23E
102
{ACAD_REACTORS
330
22D
102
}
330
22D
100
AcDbScale
 70
     0
300
100:1
140
100.0
141
1.0
290
     0
  0
SCALE
  5
23F
102
{ACAD_REACTORS
330
22D
102
}
330
22D
100
AcDbScale
 70
     0
300
1/128" = 1'-0"
140
0.0078125
141
12.0
290
     0
  0
SCALE
  5
240
102
{ACAD_REACTORS
330
22D
102
}
330
22D
100
AcDbScale
 70
     0
300
1/64" = 1'-0"
140
0.015625
141
12.0
290
     0
  0
SCALE
  5
241
102
{ACAD_REACTORS
330
22D
102
}
330
22D
100
AcDbScale
 70
     0
300
1/32" = 1'-0"
140
0.03125
141
12.0
290
     0
  0
SCALE
  5
242
102
{ACAD_REACTORS
330
22D
102
}
330
22D
100
AcDbScale
 70
     0
300
1/16" = 1'-0"
140
0.0625
141
12.0
290
     0
  0
SCALE
  5
243
102
{ACAD_REACTORS
330
22D
102
}
330
22D
100
AcDbScale
 70
     0
300
3/32" = 1'-0"
140
0.09375
141
12.0
290
     0
  0
SCALE
  5
244
102
{ACAD_REACTORS
330
22D
102
}
330
22D
100
AcDbScale
 70
     0
300
1/8" = 1'-0"
140
0.125
141
12.0
290
     0
  0
SCALE
  5
245
102
{ACAD_REACTORS
330
22D
102
}
330
22D
100
AcDbScale
 70
     0
300
3/16" = 1'-0"
140
0.1875
141
12.0
290
     0
  0
SCALE
  5
246
102
{ACAD_REACTORS
330
22D
102
}
330
22D
100
AcDbScale
 70
     0
300
1/4" = 1'-0"
140
0.25
141
12.0
290
     0
  0
SCALE
  5
247
102
{ACAD_REACTORS
330
22D
102
}
330
22D
100
AcDbScale
 70
     0
300
3/8" = 1'-0"
140
0.375
141
12.0
290
     0
  0
SCALE
  5
248
102
{ACAD_REACTORS
330
22D
102
}
330
22D
100
AcDbScale
 70
     0
300
1/2" = 1'-0"
140
0.5
141
12.0
290
     0
  0
SCALE
  5
249
102
{ACAD_REACTORS
330
22D
102
}
330
22D
100
AcDbScale
 70
     0
300
3/4" = 1'-0"
140
0.75
141
12.0
290
     0
  0
SCALE
  5
24A
102
{ACAD_REACTORS
330
22D
102
}
330
22D
100
AcDbScale
 70
     0
300
1" = 1'-0"
140
1.0
141
12.0
290
     0
  0
SCALE
  5
24B
102
{ACAD_REACTORS
330
22D
102
}
330
22D
100
AcDbScale
 70
     0
300
1-1/2" = 1'-0"
140
1.5
141
12.0
290
     0
  0
SCALE
  5
24C
102
{ACAD_REACTORS
330
22D
102
}
330
22D
100
AcDbScale
 70
     0
300
3" = 1'-0"
140
3.0
141
12.0
290
     0
  0
SCALE
  5
24D
102
{ACAD_REACTORS
330
22D
102
}
330
22D
100
AcDbScale
 70
     0
300
6" = 1'-0"
140
6.0
141
12.0
290
     0
  0
SCALE
  5
24E
102
{ACAD_REACTORS
330
22D
102
}
330
22D
100
AcDbScale
 70
     0
300
1'-0" = 1'-0"
140
12.0
141
12.0
290
     0
  0
TABLESTYLE
  5
26D
102
{ACAD_REACTORS
330
26C
102
}
102
{ACAD_XDICTIONARY
360
28C
102
}
330
26C
100
AcDbTableStyle
  3
Standard
 70
     0
 71
     0
 40
0.06
 41
0.06
280
     0
281
     0
  7
Standard
140
4.5
170
     2
 62
     0
 63
   257
283
     0
 90
        4
 91
        0
  1

274
    -2
284
     1
 64
     0
275
    -2
285
     1
 65
     0
276
    -2
286
     1
 66
     0
277
    -2
287
     1
 67
     0
278
    -2
288
     1
 68
     0
279
    -2
289
     1
 69
     0
  7
Standard
140
6.0
170
     5
 62
     0
 63
   257
283
     0
 90
        4
 91
        0
  1

274
    -2
284
     1
 64
     0
275
    -2
285
     1
 65
     0
276
    -2
286
     1
 66
     0
277
    -2
287
     1
 67
     0
278
    -2
288
     1
 68
     0
279
    -2
289
     1
 69
     0
  7
Standard
140
4.5
170
     5
 62
     0
 63
   257
283
     0
 90
        4
 91
        0
  1

274
    -2
284
     1
 64
     0
275
    -2
285
     1
 65
     0
276
    -2
286
     1
 66
     0
277
    -2
287
     1
 67
     0
278
    -2
288
     1
 68
     0
279
    -2
289
     1
 69
     0
  0
VISUALSTYLE
  5
254
102
{ACAD_REACTORS
330
24F
102
}
330
24F
100
AcDbVisualStyle
  2
2dWireframe
 70
     4
 71
     0
 72
     2
 73
     0
 90
        0
 40
0.6
 41
30.0
 62
     5
 63
     7
421
 16777215
 74
     1
 91
        4
 64
     7
 65
   257
 75
     1
175
     1
 42
1.0
 92
        0
 66
   257
 43
1.0
 76
     1
 77
     6
 78
     2
 67
     7
 79
     5
170
     0
171
     0
290
     0
174
     0
 93
        1
 44
0.0
173
     0
291
     0
 45
0.0
  0
VISUALSTYLE
  5
257
102
{ACAD_REACTORS
330
24F
102
}
330
24F
100
AcDbVisualStyle
  2
Basic
 70
     7
 71
     1
 72
     0
 73
     1
 90
        0
 40
0.6
 41
30.0
 62
     5
 63
     7
421
 16777215
 74
     0
 91
        4
 64
     7
 65
   257
 75
     1
175
     1
 42
1.0
 92
        8
 66
     7
 43
1.0
 76
     1
 77
     6
 78
     2
 67
     7
 79
     5
170
     0
171
     0
290
     0
174
     0
 93
        1
 44
0.0
173
     0
291
     1
 45
0.0
  0
VISUALSTYLE
  5
25B
102
{ACAD_REACTORS
330
24F
102
}
330
24F
100
AcDbVisualStyle
  2
Brighten
 70
    12
 71
     2
 72
     2
 73
     0
 90
        0
 40
0.6
 41
30.0
 62
     5
 63
     7
421
 16777215
 74
     1
 91
        4
 64
     7
 65
   257
 75
     1
175
     1
 42
1.0
 92
        8
 66
     7
 43
1.0
 76
     1
 77
     6
 78
     2
 67
     7
 79
     5
170
     0
171
     0
290
     0
174
     0
 93
        1
 44
50.0
173
     0
291
     1
 45
0.0
  0
VISUALSTYLE
  5
25F
102
{ACAD_REACTORS
330
24F
102
}
330
24F
100
AcDbVisualStyle
  2
ColorChange
 70
    16
 71
     2
 72
     2
 73
     3
 90
        0
 40
0.6
 41
30.0
 62
     5
 63
     8
421
  8421504
 74
     1
 91
        4
 64
     7
 65
   257
 75
     1
175
     1
 42
1.0
 92
        8
 66
     8
424
  8421504
 43
1.0
 76
     1
 77
     6
 78
     2
 67
     7
 79
     5
170
     0
171
     0
290
     0
174
     0
 93
        1
 44
0.0
173
     0
291
     1
 45
0.0
  0
VISUALSTYLE
  5
259
102
{ACAD_REACTORS
330
24F
102
}
330
24F
100
AcDbVisualStyle
  2
Conceptual
 70
     9
 71
     3
 72
     2
 73
     0
 90
        0
 40
0.6
 41
30.0
 62
     5
 63
     7
421
 16777215
 74
     2
 91
        2
 64
     7
 65
   257
 75
     1
175
     1
 42
179.0
 92
        8
 66
     7
 43
1.0
 76
     1
 77
     6
 78
     2
 67
     7
 79
     3
170
     0
171
     0
290
     0
174
     0
 93
        1
 44
0.0
173
     0
291
     0
 45
0.0
  0
VISUALSTYLE
  5
25A
102
{ACAD_REACTORS
330
24F
102
}
330
24F
100
AcDbVisualStyle
  2
Dim
 70
    11
 71
     2
 72
     2
 73
     0
 90
        0
 40
0.6
 41
30.0
 62
     5
 63
     7
421
 16777215
 74
     1
 91
        4
 64
     7
 65
   257
 75
     1
175
     1
 42
1.0
 92
        8
 66
     7
 43
1.0
 76
     1
 77
     6
 78
     2
 67
     7
 79
     5
170
     0
171
     0
290
     0
174
     0
 93
        1
 44
-50.0
173
     0
291
     1
 45
0.0
  0
VISUALSTYLE
  5
262
102
{ACAD_REACTORS
330
24F
102
}
330
24F
100
AcDbVisualStyle
  2
EdgeColorOff
 70
    22
 71
     2
 72
     2
 73
     0
 90
        0
 40
0.6
 41
30.0
 62
     5
 63
     7
421
 16777215
 74
     1
 91
        4
 64
     7
 65
   257
 75
     1
175
     1
 42
1.0
 92
        8
 66
     7
 43
1.0
 76
     1
 77
     6
 78
     2
 67
     7
 79
     5
170
     0
171
     0
290
     0
174
     0
 93
        1
 44
0.0
173
     0
291
     1
 45
0.0
  0
VISUALSTYLE
  5
25E
102
{ACAD_REACTORS
330
24F
102
}
330
24F
100
AcDbVisualStyle
  2
Facepattern
 70
    15
 71
     2
 72
     2
 73
     0
 90
        0
 40
0.6
 41
30.0
 62
     5
 63
     7
421
 16777215
 74
     1
 91
        4
 64
     7
 65
   257
 75
     1
175
     1
 42
1.0
 92
        8
 66
     7
 43
1.0
 76
     1
 77
     6
 78
     2
 67
     7
 79
     5
170
     0
171
     0
290
     0
174
     0
 93
        1
 44
0.0
173
     0
291
     1
 45
0.0
  0
VISUALSTYLE
  5
250
102
{ACAD_REACTORS
330
24F
102
}
330
24F
100
AcDbVisualStyle
  2
Flat
 70
     0
 71
     2
 72
     1
 73
     1
 90
        2
 40
0.6
 41
30.0
 62
     5
 63
     7
421
 16777215
 74
     0
 91
        0
 64
     7
 65
   257
 75
     1
175
     1
 42
1.0
 92
        8
 66
     7
 43
1.0
 76
     1
 77
     6
 78
     2
 67
     7
 79
     5
170
     0
171
     0
290
     0
174
     0
 93
       13
 44
0.0
173
     0
291
     1
 45
0.0
  0
VISUALSTYLE
  5
251
102
{ACAD_REACTORS
330
24F
102
}
330
24F
100
AcDbVisualStyle
  2
FlatWithEdges
 70
     1
 71
     2
 72
     1
 73
     1
 90
        2
 40
0.6
 41
30.0
 62
     5
 63
     7
421
 16777215
 74
     1
 91
        0
 64
     7
 65
   257
 75
     1
175
     1
 42
1.0
 92
        0
 66
   257
 43
1.0
 76
     1
 77
     6
 78
     2
 67
     7
 79
     5
170
     0
171
     0
290
     0
174
     0
 93
       13
 44
0.0
173
     0
291
     1
 45
0.0
  0
VISUALSTYLE
  5
252
102
{ACAD_REACTORS
330
24F
102
}
330
24F
100
AcDbVisualStyle
  2
Gouraud
 70
     2
 71
     2
 72
     2
 73
     1
 90
        2
 40
0.6
 41
30.0
 62
     5
 63
     7
421
 16777215
 74
     0
 91
        0
 64
     7
 65
   257
 75
     1
175
     1
 42
1.0
 92
        0
 66
     7
 43
1.0
 76
     1
 77
     6
 78
     2
 67
     7
 79
     5
170
     0
171
     0
290
     0
174
     0
 93
       13
 44
0.0
173
     0
291
     1
 45
0.0
  0
VISUALSTYLE
  5
253
102
{ACAD_REACTORS
330
24F
102
}
330
24F
100
AcDbVisualStyle
  2
GouraudWithEdges
 70
     3
 71
     2
 72
     2
 73
     1
 90
        2
 40
0.6
 41
30.0
 62
     5
 63
     7
421
 16777215
 74
     1
 91
        0
 64
     7
 65
   257
 75
     1
175
     1
 42
1.0
 92
        0
 66
   257
 43
1.0
 76
     1
 77
     6
 78
     2
 67
     7
 79
     5
170
     0
171
     0
290
     0
174
     0
 93
       13
 44
0.0
173
     0
291
     1
 45
0.0
  0
VISUALSTYLE
  5
256
102
{ACAD_REACTORS
330
24F
102
}
330
24F
100
AcDbVisualStyle
  2
Hidden
 70
     6
 71
     1
 72
     2
 73
     2
 90
        0
 40
0.6
 41
30.0
 62
     5
 63
     7
421
 16777215
 74
     2
 91
        2
 64
     7
 65
   257
 75
     2
175
     1
 42
40.0
 92
        0
 66
   257
 43
1.0
 76
     1
 77
     6
 78
     2
 67
     7
 79
     3
170
     0
171
     0
290
     0
174
     0
 93
        1
 44
0.0
173
     0
291
     0
 45
0.0
  0
VISUALSTYLE
  5
260
102
{ACAD_REACTORS
330
24F
102
}
330
24F
100
AcDbVisualStyle
  2
JitterOff
 70
    20
 71
     2
 72
     2
 73
     0
 90
        0
 40
0.6
 41
30.0
 62
     5
 63
     7
421
 16777215
 74
     1
 91
        4
 64
     7
 65
   257
 75
     1
175
     1
 42
1.0
 92
       10
 66
     7
 43
1.0
 76
     1
 77
     6
 78
     2
 67
     7
 79
     5
170
     0
171
     0
290
     0
174
     0
 93
        1
 44
0.0
173
     0
291
     1
 45
0.0
  0
VISUALSTYLE
  5
25D
102
{ACAD_REACTORS
330
24F
102
}
330
24F
100
AcDbVisualStyle
  2
Linepattern
 70
    14
 71
     2
 72
     2
 73
     0
 90
        0
 40
0.6
 41
30.0
 62
     5
 63
     7
421
 16777215
 74
     1
 91
        4
 64
     7
 65
   257
 75
     7
175
     7
 42
1.0
 92
        8
 66
     7
 43
1.0
 76
     1
 77
     6
 78
     2
 67
     7
 79
     5
170
     0
171
     0
290
     0
174
     0
 93
        1
 44
0.0
173
     0
291
     1
 45
0.0
  0
VISUALSTYLE
  5
261
102
{ACAD_REACTORS
330
24F
102
}
330
24F
100
AcDbVisualStyle
  2
OverhangOff
 70
    21
 71
     2
 72
     2
 73
     0
 90
        0
 40
0.6
 41
30.0
 62
     5
 63
     7
421
 16777215
 74
     1
 91
        4
 64
     7
 65
   257
 75
     1
175
     1
 42
1.0
 92
        9
 66
     7
 43
1.0
 76
     1
 77
     6
 78
     2
 67
     7
 79
     5
170
     0
171
     0
290
     0
174
     0
 93
        1
 44
0.0
173
     0
291
     1
 45
0.0
  0
VISUALSTYLE
  5
258
102
{ACAD_REACTORS
330
24F
102
}
330
24F
100
AcDbVisualStyle
  2
Realistic
 70
     8
 71
     2
 72
     3
 73
     0
 90
        2
 40
0.6
 41
30.0
 62
     5
 63
     7
421
 16777215
 74
     0
 91
        0
 64
     7
 65
   257
 75
     1
175
     1
 42
1.0
 92
        8
 66
   257
 43
1.0
 76
     1
 77
     6
 78
     2
 67
     7
 79
     3
170
     0
171
     0
290
     0
174
     0
 93
       13
 44
0.0
173
     0
291
     0
 45
0.0
  0
VISUALSTYLE
  5
267
102
{ACAD_REACTORS
330
24F
102
}
330
24F
100
AcDbVisualStyle
  2
Shaded
 70
    27
 71
     2
 72
     2
 73
     1
 90
        2
 40
0.6
 41
30.0
 62
     5
 63
     7
421
 16777215
 74
     0
 91
        4
 64
     7
 65
   257
 75
     1
175
     1
 42
1.0
 92
        8
 66
   257
 43
1.0
 76
     1
 77
     6
 78
     2
 67
     8
425
  7895160
 79
     3
170
     0
171
     0
290
     0
174
     0
 93
        5
 44
0.0
173
     0
291
     0
 45
0.0
  0
VISUALSTYLE
  5
266
102
{ACAD_REACTORS
330
24F
102
}
330
24F
100
AcDbVisualStyle
  2
Shaded with edges
 70
    26
 71
     2
 72
     2
 73
     1
 90
        2
 40
0.6
 41
30.0
 62
     5
 63
     7
421
 16777215
 74
     1
 91
       10
 64
     7
 65
   257
 75
     2
175
     1
 42
1.0
 92
        8
 66
   257
 43
1.0
 76
     1
 77
     6
 78
     2
 67
     7
 79
     3
170
     0
171
     0
290
     0
174
     0
 93
        5
 44
0.0
173
     0
291
     0
 45
0.0
  0
VISUALSTYLE
  5
263
102
{ACAD_REACTORS
330
24F
102
}
330
24F
100
AcDbVisualStyle
  2
Shades of Gray
 70
    23
 71
     2
 72
     2
 73
     3
 90
        0
 40
0.6
 41
30.0
 62
     5
 63
     7
421
 16777215
 74
     2
 91
        2
 64
     7
 65
     7
 75
     1
175
     1
 42
40.0
 92
        8
 66
     7
 43
1.0
 76
     1
 77
     6
 78
     2
 67
     7
 79
     3
170
     0
171
     0
290
     0
174
     0
 93
        1
 44
0.0
173
     0
291
     0
 45
0.0
  0
VISUALSTYLE
  5
264
102
{ACAD_REACTORS
330
24F
102
}
330
24F
100
AcDbVisualStyle
  2
Sketchy
 70
    24
 71
     1
 72
     2
 73
     2
 90
        0
 40
0.6
 41
30.0
 62
     5
 63
     7
421
 16777215
 74
     2
 91
        2
 64
     7
 65
     7
 75
     1
175
     1
 42
40.0
 92
       11
 66
     7
 43
1.0
 76
     1
 77
     6
 78
     2
 67
     7
 79
     6
170
     0
171
     0
290
     0
174
     0
 93
        1
 44
0.0
173
     0
291
     0
 45
0.0
  0
VISUALSTYLE
  5
25C
102
{ACAD_REACTORS
330
24F
102
}
330
24F
100
AcDbVisualStyle
  2
Thicken
 70
    13
 71
     2
 72
     2
 73
     0
 90
        0
 40
0.6
 41
30.0
 62
     5
 63
     7
421
 16777215
 74
     1
 91
        4
 64
     7
 65
   257
 75
     1
175
     1
 42
1.0
 92
       12
 66
     7
 43
1.0
 76
     1
 77
     6
 78
     2
 67
     7
 79
     5
170
     0
171
     0
290
     0
174
     0
 93
        1
 44
0.0
173
     0
291
     1
 45
0.0
  0
VISUALSTYLE
  5
255
102
{ACAD_REACTORS
330
24F
102
}
330
24F
100
AcDbVisualStyle
  2
Wireframe
 70
     5
 71
     0
 72
     2
 73
     0
 90
        0
 40
0.6
 41
30.0
 62
     5
 63
     7
421
 16777215
 74
     1
 91
        4
 64
     7
 65
   257
 75
     1
175
     1
 42
1.0
 92
        0
 66
   257
 43
1.0
 76
     1
 77
     6
 78
     2
 67
     7
 79
     3
170
     0
171
     0
290
     0
174
     0
 93
        1
 44
0.0
173
     0
291
     0
 45
0.0
  0
VISUALSTYLE
  5
265
102
{ACAD_REACTORS
330
24F
102
}
330
24F
100
AcDbVisualStyle
  2
X-Ray
 70
    25
 71
     2
 72
     2
 73
     1
 90
        1
 40
0.5
 41
30.0
 62
     5
 63
     7
421
 16777215
 74
     1
 91
        0
 64
     7
 65
   257
 75
     1
175
     1
 42
1.0
 92
        8
 66
     7
 43
1.0
 76
     1
 77
     6
 78
     2
 67
     7
 79
     3
170
     0
171
     0
290
     0
174
     0
 93
       13
 44
0.0
173
     0
291
     0
 45
0.0
  0
DICTIONARYVAR
  5
28B
102
{ACAD_REACTORS
330
28A
102
}
330
28A
100
DictionaryVariables
280
     0
  1
1:1
  0
DICTIONARYVAR
  5
291
102
{ACAD_REACTORS
330
28A
102
}
330
28A
100
DictionaryVariables
280
     0
  1
Standard
  0
DICTIONARYVAR
  5
290
102
{ACAD_REACTORS
330
28A
102
}
330
28A
100
DictionaryVariables
280
     0
  1
Standard
  0
DICTIONARYVAR
  5
292
102
{ACAD_REACTORS
330
28A
102
}
330
28A
100
DictionaryVariables
280
     0
  1
0
  0
DICTIONARY
  5
28C
330
26D
100
AcDbDictionary
280
     1
281
     1
  3
ACAD_ROUNDTRIP_2008_TABLESTYLE_CELLSTYLEMAP
360
28D
  0
CELLSTYLEMAP
  5
28D
102
{ACAD_REACTORS
330
28C
102
}
330
28C
100
AcDbCellStyleMap
 90
        3
300
CELLSTYLE
  1
TABLEFORMAT_BEGIN
 90
        5
170
     1
 91
        0
 92
    32768
 62
   257
 93
        1
300
CONTENTFORMAT
  1
CONTENTFORMAT_BEGIN
 90
        0
 91
        0
 92
        4
 93
        0
300

 40
0.0
140
1.0
 94
        5
 62
     0
340
17
144
6.0
309
CONTENTFORMAT_END
171
     1
301
MARGIN
  1
CELLMARGIN_BEGIN
 40
1.5
 40
1.5
 40
1.5
 40
1.5
 40
1.5
 40
1.5
309
CELLMARGIN_END
 94
        6
 95
        1
302
GRIDFORMAT
  1
GRIDFORMAT_BEGIN
 90
        0
 91
        1
 62
     0
 92
       -2
340
11
 93
        0
 40
0.045
309
GRIDFORMAT_END
 95
        2
302
GRIDFORMAT
  1
GRIDFORMAT_BEGIN
 90
        0
 91
        1
 62
     0
 92
       -2
340
11
 93
        0
 40
0.045
309
GRIDFORMAT_END
 95
        4
302
GRIDFORMAT
  1
GRIDFORMAT_BEGIN
 90
        0
 91
        1
 62
     0
 92
       -2
340
11
 93
        0
 40
0.045
309
GRIDFORMAT_END
 95
        8
302
GRIDFORMAT
  1
GRIDFORMAT_BEGIN
 90
        0
 91
        1
 62
     0
 92
       -2
340
11
 93
        0
 40
0.045
309
GRIDFORMAT_END
 95
       16
302
GRIDFORMAT
  1
GRIDFORMAT_BEGIN
 90
        0
 91
        1
 62
     0
 92
       -2
340
11
 93
        0
 40
0.045
309
GRIDFORMAT_END
 95
       32
302
GRIDFORMAT
  1
GRIDFORMAT_BEGIN
 90
        0
 91
        1
 62
     0
 92
       -2
340
11
 93
        0
 40
0.045
309
GRIDFORMAT_END
309
TABLEFORMAT_END
  1
CELLSTYLE_BEGIN
 90
        1
 91
        1
300
_TITLE
309
CELLSTYLE_END
300
CELLSTYLE
  1
TABLEFORMAT_BEGIN
 90
        5
170
     1
 91
        0
 92
        0
 62
   257
 93
        1
300
CONTENTFORMAT
  1
CONTENTFORMAT_BEGIN
 90
        0
 91
        0
 92
        4
 93
        0
300

 40
0.0
140
1.0
 94
        5
 62
     0
340
17
144
4.5
309
CONTENTFORMAT_END
171
     1
301
MARGIN
  1
CELLMARGIN_BEGIN
 40
1.5
 40
1.5
 40
1.5
 40
1.5
 40
1.5
 40
1.5
309
CELLMARGIN_END
 94
        6
 95
        1
302
GRIDFORMAT
  1
GRIDFORMAT_BEGIN
 90
        0
 91
        1
 62
     0
 92
       -2
340
11
 93
        0
 40
0.045
309
GRIDFORMAT_END
 95
        2
302
GRIDFORMAT
  1
GRIDFORMAT_BEGIN
 90
        0
 91
        1
 62
     0
 92
       -2
340
11
 93
        0
 40
0.045
309
GRIDFORMAT_END
 95
        4
302
GRIDFORMAT
  1
GRIDFORMAT_BEGIN
 90
        0
 91
        1
 62
     0
 92
       -2
340
11
 93
        0
 40
0.045
309
GRIDFORMAT_END
 95
        8
302
GRIDFORMAT
  1
GRIDFORMAT_BEGIN
 90
        0
 91
        1
 62
     0
 92
       -2
340
11
 93
        0
 40
0.045
309
GRIDFORMAT_END
 95
       16
302
GRIDFORMAT
  1
GRIDFORMAT_BEGIN
 90
        0
 91
        1
 62
     0
 92
       -2
340
11
 93
        0
 40
0.045
309
GRIDFORMAT_END
 95
       32
302
GRIDFORMAT
  1
GRIDFORMAT_BEGIN
 90
        0
 91
        1
 62
     0
 92
       -2
340
11
 93
        0
 40
0.045
309
GRIDFORMAT_END
309
TABLEFORMAT_END
  1
CELLSTYLE_BEGIN
 90
        2
 91
        1
300
_HEADER
309
CELLSTYLE_END
300
CELLSTYLE
  1
TABLEFORMAT_BEGIN
 90
        5
170
     1
 91
        0
 92
        0
 62
   257
 93
        1
300
CONTENTFORMAT
  1
CONTENTFORMAT_BEGIN
 90
        0
 91
        0
 92
        4
 93
        0
300

 40
0.0
140
1.0
 94
        2
 62
     0
340
17
144
4.5
309
CONTENTFORMAT_END
171
     1
301
MARGIN
  1
CELLMARGIN_BEGIN
 40
1.5
 40
1.5
 40
1.5
 40
1.5
 40
1.5
 40
1.5
309
CELLMARGIN_END
 94
        6
 95
        1
302
GRIDFORMAT
  1
GRIDFORMAT_BEGIN
 90
        0
 91
        1
 62
     0
 92
       -2
340
11
 93
        0
 40
0.045
309
GRIDFORMAT_END
 95
        2
302
GRIDFORMAT
  1
GRIDFORMAT_BEGIN
 90
        0
 91
        1
 62
     0
 92
       -2
340
11
 93
        0
 40
0.045
309
GRIDFORMAT_END
 95
        4
302
GRIDFORMAT
  1
GRIDFORMAT_BEGIN
 90
        0
 91
        1
 62
     0
 92
       -2
340
11
 93
        0
 40
0.045
309
GRIDFORMAT_END
 95
        8
302
GRIDFORMAT
  1
GRIDFORMAT_BEGIN
 90
        0
 91
        1
 62
     0
 92
       -2
340
11
 93
        0
 40
0.045
309
GRIDFORMAT_END
 95
       16
302
GRIDFORMAT
  1
GRIDFORMAT_BEGIN
 90
        0
 91
        1
 62
     0
 92
       -2
340
11
 93
        0
 40
0.045
309
GRIDFORMAT_END
 95
       32
302
GRIDFORMAT
  1
GRIDFORMAT_BEGIN
 90
        0
 91
        1
 62
     0
 92
       -2
340
11
 93
        0
 40
0.045
309
GRIDFORMAT_END
309
TABLEFORMAT_END
  1
CELLSTYLE_BEGIN
 90
        3
 91
        2
300
_DATA
309
CELLSTYLE_END
  0
ENDSEC
  0
EOF
