  0
SECTION
  2
HEADER
  9
$ACADVER
  1
AC1021
  9
$ACADMAINTVER
 70
    25
  9
$DWGCODEPAGE
  3
ANSI_932
  9
$LASTSAVEDBY
  1
Shimosaki
  9
$INSBASE
 10
0.0
 20
0.0
 30
0.0
  9
$EXTMIN
 10
0.0
 20
0.0
 30
-0.0002922902370228
  9
$EXTMAX
 10
2100.0
 20
2970.000000000001
 30
0.0000000099449415
  9
$LIMMIN
 10
0.0
 20
0.0
  9
$LIMMAX
 10
2100.0
 20
2970.000000000001
  9
$ORTHOMODE
 70
     0
  9
$REGENMODE
 70
     1
  9
$FILLMODE
 70
     1
  9
$QTEXTMODE
 70
     0
  9
$MIRRTEXT
 70
     1
  9
$LTSCALE
 40
50.8
  9
$ATTMODE
 70
     1
  9
$TEXTSIZE
 40
0.0
  9
$TRACEWID
 40
1.0
  9
$TEXTSTYLE
  7
Standard
  9
$CLAYER
  8
notes
  9
$CELTYPE
  6
Continuous
  9
$CECOLOR
 62
   256
  9
$CELTSCALE
 40
1.0
  9
$DISPSILH
 70
     0
  9
$DIMSCALE
 40
1.0
  9
$DIMASZ
 40
31.75
  9
$DIMEXO
 40
0.0
  9
$DIMDLI
 40
6.99999999999994
  9
$DIMRND
 40
0.0
  9
$DIMDLE
 40
0.0
  9
$DIMEXE
 40
19.9999999999962
  9
$DIMTP
 40
0.0
  9
$DIMTM
 40
0.0
  9
$DIMTXT
 40
24.4326171875
  9
$DIMCEN
 40
0.0
  9
$DIMTSZ
 40
0.0
  9
$DIMTOL
 70
     0
  9
$DIMLIM
 70
     0
  9
$DIMTIH
 70
     0
  9
$DIMTOH
 70
     0
  9
$DIMSE1
 70
     0
  9
$DIMSE2
 70
     0
  9
$DIMTAD
 70
     1
  9
$DIMZIN
 70
    11
  9
$DIMBLK
  1
VW_FILLEDARROW
  9
$DIMASO
 70
     1
  9
$DIMSHO
 70
     1
  9
$DIMPOST
  1
<>
  9
$DIMAPOST
  1
[]
  9
$DIMALT
 70
     0
  9
$DIMALTD
 70
     3
  9
$DIMALTF
 40
0.0393700787401575
  9
$DIMLFAC
 40
1.0
  9
$DIMTOFL
 70
     0
  9
$DIMTVP
 40
0.0
  9
$DIMTIX
 70
     1
  9
$DIMSOXD
 70
     0
  9
$DIMSAH
 70
     0
  9
$DIMBLK1
  1

  9
$DIMBLK2
  1

  9
$DIMSTYLE
  2
JIS
  9
$DIMCLRD
 70
     0
  9
$DIMCLRE
 70
     0
  9
$DIMCLRT
 70
     0
  9
$DIMTFAC
 40
1.0
  9
$DIMGAP
 40
1.00000000000108
  9
$DIMJUST
 70
     0
  9
$DIMSD1
 70
     0
  9
$DIMSD2
 70
     0
  9
$DIMTOLJ
 70
     1
  9
$DIMTZIN
 70
    11
  9
$DIMALTZ
 70
    15
  9
$DIMALTTZ
 70
    15
  9
$DIMUPT
 70
     0
  9
$DIMDEC
 70
     1
  9
$DIMTDEC
 70
     1
  9
$DIMALTU
 70
     4
  9
$DIMALTTD
 70
     2
  9
$DIMTXSTY
  7
ＭＳ ゴシック
  9
$DIMAUNIT
 70
     0
  9
$DIMADEC
 70
     2
  9
$DIMALTRND
 40
0.0
  9
$DIMAZIN
 70
     0
  9
$DIMDSEP
 70
    46
  9
$DIMATFIT
 70
     0
  9
$DIMFRAC
 70
     2
  9
$DIMLDRBLK
  1

  9
$DIMLUNIT
 70
     2
  9
$DIMLWD
 70
    -2
  9
$DIMLWE
 70
    -2
  9
$DIMTMOVE
 70
     0
  9
$DIMFXL
 40
1.0
  9
$DIMFXLON
 70
     0
  9
$DIMJOGANG
 40
0.7853981633974483
  9
$DIMTFILL
 70
     0
  9
$DIMTFILLCLR
 70
     0
  9
$DIMARCSYM
 70
     0
  9
$DIMLTYPE
  6

  9
$DIMLTEX1
  6

  9
$DIMLTEX2
  6

  9
$LUNITS
 70
     2
  9
$LUPREC
 70
     4
  9
$SKETCHINC
 40
0.1
  9
$FILLETRAD
 40
0.0
  9
$AUNITS
 70
     0
  9
$AUPREC
 70
     0
  9
$MENU
  1
acad
  9
$ELEVATION
 40
0.0
  9
$PELEVATION
 40
0.0
  9
$THICKNESS
 40
0.0
  9
$LIMCHECK
 70
     0
  9
$CHAMFERA
 40
0.0
  9
$CHAMFERB
 40
0.0
  9
$CHAMFERC
 40
0.0
  9
$CHAMFERD
 40
0.0
  9
$SKPOLY
 70
     0
  9
$TDCREATE
 40
2447893.375
  9
$TDUCREATE
 40
0.0
  9
$TDUPDATE
 40
2458113.456651702
  9
$TDUUPDATE
 40
2458113.081651702
  9
$TDINDWG
 40
0.0040023727
  9
$TDUSRTIMER
 40
2458113.077649352
  9
$USRTIMER
 70
     1
  9
$ANGBASE
 50
0.0
  9
$ANGDIR
 70
     0
  9
$PDMODE
 70
     1
  9
$PDSIZE
 40
-2.0
  9
$PLINEWID
 40
0.0
  9
$SPLFRAME
 70
     0
  9
$SPLINETYPE
 70
     6
  9
$SPLINESEGS
 70
     8
  9
$HANDSEED
  5
293
  9
$SURFTAB1
 70
     6
  9
$SURFTAB2
 70
     6
  9
$SURFTYPE
 70
     6
  9
$SURFU
 70
     6
  9
$SURFV
 70
     6
  9
$UCSBASE
  2

  9
$UCSNAME
  2

  9
$UCSORG
 10
0.0
 20
0.0
 30
0.0
  9
$UCSXDIR
 10
1.0
 20
0.0
 30
0.0
  9
$UCSYDIR
 10
0.0
 20
1.0
 30
0.0
  9
$UCSORTHOREF
  2

  9
$UCSORTHOVIEW
 70
     0
  9
$UCSORGTOP
 10
0.0
 20
0.0
 30
0.0
  9
$UCSORGBOTTOM
 10
0.0
 20
0.0
 30
0.0
  9
$UCSORGLEFT
 10
0.0
 20
0.0
 30
0.0
  9
$UCSORGRIGHT
 10
0.0
 20
0.0
 30
0.0
  9
$UCSORGFRONT
 10
0.0
 20
0.0
 30
0.0
  9
$UCSORGBACK
 10
0.0
 20
0.0
 30
0.0
  9
$PUCSBASE
  2

  9
$PUCSNAME
  2

  9
$PUCSORG
 10
0.0
 20
0.0
 30
0.0
  9
$PUCSXDIR
 10
1.0
 20
0.0
 30
0.0
  9
$PUCSYDIR
 10
0.0
 20
1.0
 30
0.0
  9
$PUCSORTHOREF
  2

  9
$PUCSORTHOVIEW
 70
     0
  9
$PUCSORGTOP
 10
0.0
 20
0.0
 30
0.0
  9
$PUCSORGBOTTOM
 10
0.0
 20
0.0
 30
0.0
  9
$PUCSORGLEFT
 10
0.0
 20
0.0
 30
0.0
  9
$PUCSORGRIGHT
 10
0.0
 20
0.0
 30
0.0
  9
$PUCSORGFRONT
 10
0.0
 20
0.0
 30
0.0
  9
$PUCSORGBACK
 10
0.0
 20
0.0
 30
0.0
  9
$USERI1
 70
     0
  9
$USERI2
 70
     0
  9
$USERI3
 70
     0
  9
$USERI4
 70
     0
  9
$USERI5
 70
     0
  9
$USERR1
 40
0.0
  9
$USERR2
 40
0.0
  9
$USERR3
 40
0.0
  9
$USERR4
 40
0.0
  9
$USERR5
 40
0.0
  9
$WORLDVIEW
 70
     1
  9
$SHADEDGE
 70
     3
  9
$SHADEDIF
 70
    70
  9
$TILEMODE
 70
     1
  9
$MAXACTVP
 70
    64
  9
$PINSBASE
 10
0.0
 20
0.0
 30
0.0
  9
$PLIMCHECK
 70
     0
  9
$PEXTMIN
 10
1.000000000000000E+20
 20
1.000000000000000E+20
 30
1.000000000000000E+20
  9
$PEXTMAX
 10
-1.000000000000000E+20
 20
-1.000000000000000E+20
 30
-1.000000000000000E+20
  9
$PLIMMIN
 10
0.0
 20
0.0
  9
$PLIMMAX
 10
0.0
 20
0.0
  9
$UNITMODE
 70
     0
  9
$VISRETAIN
 70
     0
  9
$PLINEGEN
 70
     1
  9
$PSLTSCALE
 70
     0
  9
$TREEDEPTH
 70
  3020
  9
$CMLSTYLE
  2
Standard
  9
$CMLJUST
 70
     0
  9
$CMLSCALE
 40
1.0
  9
$PROXYGRAPHICS
 70
     0
  9
$MEASUREMENT
 70
     1
  9
$CELWEIGHT
370
     0
  9
$ENDCAPS
280
     0
  9
$JOINSTYLE
280
     0
  9
$LWDISPLAY
290
     1
  9
$INSUNITS
 70
     4
  9
$HYPERLINKBASE
  1

  9
$STYLESHEET
  1

  9
$XEDIT
290
     1
  9
$CEPSNTYPE
380
     0
  9
$PSTYLEMODE
290
     1
  9
$FINGERPRINTGUID
  2

  9
$VERSIONGUID
  2

  9
$EXTNAMES
290
     1
  9
$PSVPSCALE
 40
0.0
  9
$OLESTARTUP
290
     0
  9
$SORTENTS
280
   127
  9
$INDEXCTL
280
     0
  9
$HIDETEXT
280
     1
  9
$XCLIPFRAME
290
     0
  9
$HALOGAP
280
     0
  9
$OBSCOLOR
 70
   257
  9
$OBSLTYPE
280
     0
  9
$INTERSECTIONDISPLAY
280
     0
  9
$INTERSECTIONCOLOR
 70
   257
  9
$DIMASSOC
280
     2
  9
$PROJECTNAME
  1

  9
$CAMERADISPLAY
290
     0
  9
$LENSLENGTH
 40
50.0
  9
$CAMERAHEIGHT
 40
0.0
  9
$STEPSPERSEC
 40
2.0
  9
$STEPSIZE
 40
6.0
  9
$3DDWFPREC
 40
2.0
  9
$PSOLWIDTH
 40
0.25
  9
$PSOLHEIGHT
 40
4.0
  9
$LOFTANG1
 40
1.570796326794897
  9
$LOFTANG2
 40
1.570796326794897
  9
$LOFTMAG1
 40
0.0
  9
$LOFTMAG2
 40
0.0
  9
$LOFTPARAM
 70
     7
  9
$LOFTNORMALS
280
     1
  9
$LATITUDE
 40
37.795
  9
$LONGITUDE
 40
-122.394
  9
$NORTHDIRECTION
 40
0.0
  9
$TIMEZONE
 70
 -8000
  9
$LIGHTGLYPHDISPLAY
280
     1
  9
$TILEMODELIGHTSYNCH
280
     1
  9
$SOLIDHIST
280
     0
  9
$SHOWHIST
280
     1
  9
$DWFFRAME
280
     2
  9
$DGNFRAME
280
     2
  9
$REALWORLDSCALE
290
     1
  9
$INTERFERECOLOR
 62
   256
  9
$CSHADOW
280
     0
  9
$SHADOWPLANELOCATION
 40
0.0
  0
ENDSEC
  0
SECTION
  2
CLASSES
  0
CLASS
  1
LWPOLYLINE
  2
AcDbPolyline
  3
ObjectDBX Classes
 90
        0
 91
        1
280
     0
281
     1
  0
CLASS
  1
IMAGE
  2
AcDbRasterImage
  3
ISM
 90
      127
 91
        5
280
     0
281
     1
  0
CLASS
  1
OLE2FRAME
  2
AcDbOle2Frame
  3
ObjectDBX Classes
 90
        0
 91
        1
280
     0
281
     1
  0
CLASS
  1
HATCH
  2
AcDbHatch
  3
ObjectDBX Classes
 90
        0
 91
        1
280
     0
281
     1
  0
CLASS
  1
DICTIONARYVAR
  2
AcDbDictionaryVar
  3
ObjectDBX Classes
 90
        0
 91
        4
280
     0
281
     0
  0
CLASS
  1
RASTERVARIABLES
  2
AcDbRasterVariables
  3
ISM
 90
        0
 91
        4
280
     0
281
     0
  0
CLASS
  1
IMAGEDEF
  2
AcDbRasterImageDef
  3
ISM
 90
        0
 91
        4
280
     0
281
     0
  0
CLASS
  1
IMAGEDEF_REACTOR
  2
AcDbRasterImageDefReactor
  3
ISM
 90
        1
 91
        4
280
     0
281
     0
  0
CLASS
  1
IDBUFFER
  2
AcDbIdBuffer
  3
ObjectDBX Classes
 90
        0
 91
        4
280
     0
281
     0
  0
CLASS
  1
SPATIAL_FILTER
  2
AcDbSpatialFilter
  3
ObjectDBX Classes
 90
        0
 91
        4
280
     0
281
     0
  0
CLASS
  1
XRECORD
  2
AcDbXrecord
  3
ObjectDBX Classes
 90
        0
 91
        1
280
     0
281
     0
  0
CLASS
  1
SORTENTSTABLE
  2
AcDbSortentsTable
  3
ObjectDBX Classes
 90
        0
 91
        4
280
     0
281
     0
  0
CLASS
  1
LAYER_INDEX
  2
AcDbLayerIndex
  3
ObjectDBX Classes
 90
        0
 91
        4
280
     0
281
     0
  0
CLASS
  1
SPATIAL_INDEX
  2
AcDbSpatialIndex
  3
AutoCAD 2000
 90
        0
 91
        4
280
     0
281
     0
  0
CLASS
  1
OBJECT_PTR
  2
CAseDLPNTableRecord
  3
ASE-LPNTableRecord
 90
        1
 91
        4
280
     0
281
     0
  0
CLASS
  1
LAYOUT
  2
AcDbLayout
  3
ObjectDBX Classes
 90
        0
 91
        1
280
     0
281
     0
  0
CLASS
  1
PLOTSETTINGS
  2
AcDbPlotSettings
  3
ObjectDBX Classes
 90
        0
 91
        4
280
     0
281
     0
  0
CLASS
  1
ACDBDICTIONARYWDFLT
  2
AcDbDictionaryWithDefault
  3
ObjectDBX Classes
 90
        0
 91
        4
280
     0
281
     0
  0
CLASS
  1
ACDBPLACEHOLDER
  2
AcDbPlaceHolder
  3
ObjectDBX Classes
 90
        0
 91
        1
280
     0
281
     0
  0
CLASS
  1
SCALE
  2
AcDbScale
  3
ObjectDBX Classes
 90
     1153
 91
        4
280
     0
281
     0
  0
CLASS
  1
VISUALSTYLE
  2
AcDbVisualStyle
  3
ObjectDBX Classes
 90
     4095
 91
        4
280
     0
281
     0
  0
CLASS
  1
MATERIAL
  2
AcDbMaterial
  3
ObjectDBX Classes
 90
     1153
 91
        4
280
     0
281
     0
  0
CLASS
  1
TABLESTYLE
  2
AcDbTableStyle
  3
ObjectDBX Classes
 90
     4095
 91
        4
280
     0
281
     0
  0
CLASS
  1
MLEADERSTYLE
  2
AcDbMLeaderStyle
  3
ACDB_MLEADERSTYLE_CLASS
 90
     4095
 91
        4
280
     0
281
     0
  0
CLASS
  1
SUN
  2
AcDbSun
  3
SCENEOE
 90
     1153
 91
        4
280
     0
281
     0
  0
CLASS
  1
CELLSTYLEMAP
  2
AcDbCellStyleMap
  3
ObjectDBX Classes
 90
     1152
 91
        4
280
     0
281
     0
  0
ENDSEC
  0
SECTION
  2
TABLES
  0
TABLE
  2
VPORT
  5
7
330
0
100
AcDbSymbolTable
 70
     1
  0
VPORT
  5
15
330
7
100
AcDbSymbolTableRecord
100
AcDbViewportTableRecord
  2
*ACTIVE
 70
     0
 10
0.0
 20
0.0
 11
1.0
 21
1.0
 12
1665.308478153628
 22
2686.38555112279
 13
0.0
 23
0.0
 14
1.0
 24
1.0
 15
0.0
 25
0.0
 16
0.0
 26
0.0
 36
1.0
 17
0.0
 27
0.0
 37
0.0
 40
3712.499999999998
 41
2.396092362344583
 42
50.0
 43
0.0
 44
0.0
 50
0.0
 51
0.0
 71
    16
 72
  2000
 73
     1
 74
     1
 75
     0
 76
     0
 77
     0
 78
     0
281
     0
 65
     0
110
0.0
120
0.0
130
0.0
111
1.0
121
0.0
131
0.0
112
0.0
122
1.0
132
0.0
 79
     0
146
0.0
348
247
 60
     3
 61
     5
292
     1
282
     1
141
0.0
142
0.0
 63
   250
361
264
  0
ENDTAB
  0
TABLE
  2
LTYPE
  5
4
330
0
100
AcDbSymbolTable
 70
    12
  0
LTYPE
  5
11
330
4
100
AcDbSymbolTableRecord
100
AcDbLinetypeTableRecord
  2
ByBlock
 70
     0
  3

 72
    65
 73
     0
 40
0.0
  0
LTYPE
  5
12
330
4
100
AcDbSymbolTableRecord
100
AcDbLinetypeTableRecord
  2
ByLayer
 70
     0
  3

 72
    65
 73
     0
 40
0.0
  0
LTYPE
  5
13
330
4
100
AcDbSymbolTableRecord
100
AcDbLinetypeTableRecord
  2
Continuous
 70
     0
  3
Solid line
 72
    65
 73
     0
 40
0.0
  0
LTYPE
  5
3B
330
4
100
AcDbSymbolTableRecord
100
AcDbLinetypeTableRecord
  2
STYLE_01
 70
     0
  3

 72
    65
 73
     2
 40
0.1476377952755905
 49
0.1181102362204724
 74
     0
 49
-0.0295275590551181
 74
     0
  0
LTYPE
  5
3C
330
4
100
AcDbSymbolTableRecord
100
AcDbLinetypeTableRecord
  2
STYLE_02
 70
     0
  3

 72
    65
 73
     2
 40
0.6944250000000001
 49
0.48607
 74
     0
 49
-0.2083550000000001
 74
     0
  0
LTYPE
  5
3D
330
4
100
AcDbSymbolTableRecord
100
AcDbLinetypeTableRecord
  2
STYLE_03
 70
     0
  3

 72
    65
 73
     2
 40
1.25
 49
1.04164
 74
     0
 49
-0.2083599999999999
 74
     0
  0
LTYPE
  5
3E
330
4
100
AcDbSymbolTableRecord
100
AcDbLinetypeTableRecord
  2
STYLE_04
 70
     0
  3

 72
    65
 73
     2
 40
1.52771
 49
1.319425
 74
     0
 49
-0.208285
 74
     0
  0
LTYPE
  5
3F
330
4
100
AcDbSymbolTableRecord
100
AcDbLinetypeTableRecord
  2
STYLE_05
 70
     0
  3

 72
    65
 73
     2
 40
0.20828
 49
0.069425
 74
     0
 49
-0.138855
 74
     0
  0
LTYPE
  5
40
330
4
100
AcDbSymbolTableRecord
100
AcDbLinetypeTableRecord
  2
STYLE_06
 70
     0
  3

 72
    65
 73
     4
 40
1.04164
 49
0.625
 74
     0
 49
-0.20828
 74
     0
 49
0.06943
 74
     0
 49
-0.13893
 74
     0
  0
LTYPE
  5
41
330
4
100
AcDbSymbolTableRecord
100
AcDbLinetypeTableRecord
  2
STYLE_07
 70
     0
  3

 72
    65
 73
     6
 40
1.875
 49
0.625
 74
     0
 49
-0.20828
 74
     0
 49
0.6250000000000001
 74
     0
 49
-0.2083599999999999
 74
     0
 49
0.06943
 74
     0
 49
-0.1389299999999999
 74
     0
  0
LTYPE
  5
42
330
4
100
AcDbSymbolTableRecord
100
AcDbLinetypeTableRecord
  2
STYLE_08
 70
     0
  3

 72
    65
 73
     6
 40
1.25
 49
0.625
 74
     0
 49
-0.20828
 74
     0
 49
0.06943
 74
     0
 49
-0.13893
 74
     0
 49
0.0694299999999999
 74
     0
 49
-0.13893
 74
     0
  0
LTYPE
  5
43
330
4
100
AcDbSymbolTableRecord
100
AcDbLinetypeTableRecord
  2
STYLE_09
 70
     0
  3

 72
    65
 73
     4
 40
5.0
 49
3.75
 74
     0
 49
-0.2777849999999998
 74
     0
 49
0.6944300000000003
 74
     0
 49
-0.2777849999999998
 74
     0
  0
LTYPE
  5
44
330
4
100
AcDbSymbolTableRecord
100
AcDbLinetypeTableRecord
  2
STYLE_10
 70
     0
  3

 72
    65
 73
     6
 40
5.9375
 49
3.75
 74
     0
 49
-0.2777849999999998
 74
     0
 49
0.6944300000000003
 74
     0
 49
-0.2777849999999998
 74
     0
 49
0.625
 74
     0
 49
-0.3125
 74
     0
  0
LTYPE
  5
45
330
4
100
AcDbSymbolTableRecord
100
AcDbLinetypeTableRecord
  2
STYLE_11
 70
     0
  3

 72
    65
 73
     2
 40
0.3937007874015748
 49
0.1968503937007874
 74
     0
 49
-0.1968503937007874
 74
     0
  0
ENDTAB
  0
TABLE
  2
LAYER
  5
2
330
0
100
AcDbSymbolTable
 70
     5
  0
LAYER
  5
14
330
2
100
AcDbSymbolTableRecord
100
AcDbLayerTableRecord
  2
0
 70
     0
 62
     7
  6
Continuous
370
    -3
390
1D
347
25E
  0
LAYER
  5
46
330
2
100
AcDbSymbolTableRecord
100
AcDbLayerTableRecord
  2
Defpoints
 70
     0
 62
     7
  6
Continuous
290
     0
370
    -3
390
1D
347
25E
  0
LAYER
  5
47
330
2
100
AcDbSymbolTableRecord
100
AcDbLayerTableRecord
  2
template
 70
     0
 62
     7
  6
Continuous
370
    -3
390
1D
347
25E
  0
LAYER
  5
48
330
2
100
AcDbSymbolTableRecord
100
AcDbLayerTableRecord
  2
notes
 70
     0
 62
     7
  6
Continuous
370
    -3
390
1D
347
25E
  0
LAYER
  5
49
330
2
100
AcDbSymbolTableRecord
100
AcDbLayerTableRecord
  2
ARJ70-1401
 70
     0
 62
     7
  6
Continuous
370
    -3
390
1D
347
25E
  0
ENDTAB
  0
TABLE
  2
STYLE
  5
3
330
0
100
AcDbSymbolTable
 70
     2
  0
STYLE
  5
17
330
3
100
AcDbSymbolTableRecord
100
AcDbTextStyleTableRecord
  2
Standard
 70
     0
 40
0.0
 41
1.0
 50
0.0
 71
     0
 42
0.0
  3
txt
  4
BIGFONT.SHX
  0
STYLE
  5
3A
330
3
100
AcDbSymbolTableRecord
100
AcDbTextStyleTableRecord
  2
ＭＳ ゴシック
 70
     0
 40
0.0
 41
1.0
 50
0.0
 71
     0
 42
0.0
  3
msgothic.ttc
  4
ＭＳ ゴシック
1001
ACAD
1000
ＭＳ ゴシック
1071
        0
  0
ENDTAB
  0
TABLE
  2
VIEW
  5
5
330
0
100
AcDbSymbolTable
 70
     0
  0
ENDTAB
  0
TABLE
  2
UCS
  5
6
330
0
100
AcDbSymbolTable
 70
     0
  0
ENDTAB
  0
TABLE
  2
APPID
  5
8
330
0
100
AcDbSymbolTable
 70
     2
  0
APPID
  5
16
330
8
100
AcDbSymbolTableRecord
100
AcDbRegAppTableRecord
  2
ACAD
 70
     0
  0
APPID
  5
28C
330
8
100
AcDbSymbolTableRecord
100
AcDbRegAppTableRecord
  2
ACAD_MLEADERVER
 70
     0
  0
ENDTAB
  0
TABLE
  2
DIMSTYLE
  5
9
330
0
100
AcDbSymbolTable
 70
     3
100
AcDbDimStyleTable
  0
DIMSTYLE
105
18
330
9
100
AcDbSymbolTableRecord
100
AcDbDimStyleTableRecord
  2
Standard
 70
     0
178
     0
340
17
  0
DIMSTYLE
105
52
330
9
100
AcDbSymbolTableRecord
100
AcDbDimStyleTableRecord
  2
tform線あり
 70
     0
  3
<>
  4
[]
 41
3.999755859375
 42
25.0
 43
0.9999999999999999
 44
0.0
 73
     0
 74
     0
 77
     1
 78
    11
140
24.4326171875
141
0.0
143
0.0393700787401575
147
0.4999999999999999
171
     3
174
     1
178
     0
179
     2
271
     1
272
     1
273
     4
276
     2
284
    11
285
    15
286
    15
289
     0
340
3A
341
4A
342
4A
  0
DIMSTYLE
105
57
330
9
100
AcDbSymbolTableRecord
100
AcDbDimStyleTableRecord
  2
JIS
 70
     0
  3
<>
  4
[]
 41
31.75
 42
0.0
 43
6.99999999999994
 44
19.9999999999962
 73
     0
 74
     0
 77
     1
 78
    11
140
24.4326171875
141
0.0
143
0.0393700787401575
147
1.00000000000108
171
     3
174
     1
178
     0
179
     2
271
     1
272
     1
273
     4
276
     2
284
    11
285
    15
286
    15
289
     0
340
3A
341
53
342
53
  0
ENDTAB
  0
TABLE
  2
BLOCK_RECORD
  5
1
330
0
100
AcDbSymbolTable
 70
    28
  0
BLOCK_RECORD
  5
A
330
1
100
AcDbSymbolTableRecord
100
AcDbBlockTableRecord
  2
*MODEL_SPACE
340
20
 70
     0
280
     1
281
     0
  0
BLOCK_RECORD
  5
B
330
1
100
AcDbSymbolTableRecord
100
AcDbBlockTableRecord
  2
*PAPER_SPACE
340
21
 70
     0
280
     1
281
     0
  0
BLOCK_RECORD
  5
4A
330
1
100
AcDbSymbolTableRecord
100
AcDbBlockTableRecord
  2
_DOT
340
0
102
{BLKREFS
331
64
331
65
331
71
331
72
331
26D
331
87
331
88
331
94
331
95
331
A1
331
A2
331
AE
331
AF
331
BB
331
BC
331
C8
331
C9
331
D5
331
D6
331
E2
331
E3
331
EF
331
F0
331
FC
331
FD
331
276
331
277
331
117
331
118
331
124
331
125
331
131
331
132
331
13E
331
13F
331
14B
331
14C
331
158
331
159
331
165
331
166
331
282
331
283
102
}
 70
     0
280
     1
281
     0
  0
BLOCK_RECORD
  5
53
330
1
100
AcDbSymbolTableRecord
100
AcDbBlockTableRecord
  2
VW_FILLEDARROW
340
0
 70
     0
280
     1
281
     0
  0
BLOCK_RECORD
  5
23
330
1
100
AcDbSymbolTableRecord
100
AcDbBlockTableRecord
  2
グループ
340
0
102
{BLKREFS
331
186
102
}
 70
     0
280
     1
281
     0
  0
BLOCK_RECORD
  5
24
330
1
100
AcDbSymbolTableRecord
100
AcDbBlockTableRecord
  2
*D3
340
0
 70
     0
280
     1
281
     0
  0
BLOCK_RECORD
  5
25
330
1
100
AcDbSymbolTableRecord
100
AcDbBlockTableRecord
  2
*D4
340
0
 70
     0
280
     1
281
     0
  0
BLOCK_RECORD
  5
26
330
1
100
AcDbSymbolTableRecord
100
AcDbBlockTableRecord
  2
*D5
340
0
 70
     0
280
     1
281
     0
  0
BLOCK_RECORD
  5
27
330
1
100
AcDbSymbolTableRecord
100
AcDbBlockTableRecord
  2
*D6
340
0
 70
     0
280
     1
281
     0
  0
BLOCK_RECORD
  5
28
330
1
100
AcDbSymbolTableRecord
100
AcDbBlockTableRecord
  2
*D7
340
0
 70
     0
280
     1
281
     0
  0
BLOCK_RECORD
  5
29
330
1
100
AcDbSymbolTableRecord
100
AcDbBlockTableRecord
  2
*D8
340
0
 70
     0
280
     1
281
     0
  0
BLOCK_RECORD
  5
2A
330
1
100
AcDbSymbolTableRecord
100
AcDbBlockTableRecord
  2
*D9
340
0
 70
     0
280
     1
281
     0
  0
BLOCK_RECORD
  5
2B
330
1
100
AcDbSymbolTableRecord
100
AcDbBlockTableRecord
  2
*D10
340
0
 70
     0
280
     1
281
     0
  0
BLOCK_RECORD
  5
2C
330
1
100
AcDbSymbolTableRecord
100
AcDbBlockTableRecord
  2
*D11
340
0
 70
     0
280
     1
281
     0
  0
BLOCK_RECORD
  5
2D
330
1
100
AcDbSymbolTableRecord
100
AcDbBlockTableRecord
  2
*D12
340
0
 70
     0
280
     1
281
     0
  0
BLOCK_RECORD
  5
2E
330
1
100
AcDbSymbolTableRecord
100
AcDbBlockTableRecord
  2
*D13
340
0
 70
     0
280
     1
281
     0
  0
BLOCK_RECORD
  5
2F
330
1
100
AcDbSymbolTableRecord
100
AcDbBlockTableRecord
  2
*D14
340
0
 70
     0
280
     1
281
     0
  0
BLOCK_RECORD
  5
30
330
1
100
AcDbSymbolTableRecord
100
AcDbBlockTableRecord
  2
*D15
340
0
 70
     0
280
     1
281
     0
  0
BLOCK_RECORD
  5
31
330
1
100
AcDbSymbolTableRecord
100
AcDbBlockTableRecord
  2
*D16
340
0
 70
     0
280
     1
281
     0
  0
BLOCK_RECORD
  5
32
330
1
100
AcDbSymbolTableRecord
100
AcDbBlockTableRecord
  2
*D17
340
0
 70
     0
280
     1
281
     0
  0
BLOCK_RECORD
  5
33
330
1
100
AcDbSymbolTableRecord
100
AcDbBlockTableRecord
  2
*D18
340
0
 70
     0
280
     1
281
     0
  0
BLOCK_RECORD
  5
34
330
1
100
AcDbSymbolTableRecord
100
AcDbBlockTableRecord
  2
*D19
340
0
 70
     0
280
     1
281
     0
  0
BLOCK_RECORD
  5
35
330
1
100
AcDbSymbolTableRecord
100
AcDbBlockTableRecord
  2
*D20
340
0
 70
     0
280
     1
281
     0
  0
BLOCK_RECORD
  5
36
330
1
100
AcDbSymbolTableRecord
100
AcDbBlockTableRecord
  2
*D21
340
0
 70
     0
280
     1
281
     0
  0
BLOCK_RECORD
  5
37
330
1
100
AcDbSymbolTableRecord
100
AcDbBlockTableRecord
  2
*D22
340
0
 70
     0
280
     1
281
     0
  0
BLOCK_RECORD
  5
38
330
1
100
AcDbSymbolTableRecord
100
AcDbBlockTableRecord
  2
*D23
340
0
 70
     0
280
     1
281
     0
  0
BLOCK_RECORD
  5
39
330
1
100
AcDbSymbolTableRecord
100
AcDbBlockTableRecord
  2
*D24
340
0
 70
     0
280
     1
281
     0
  0
BLOCK_RECORD
  5
267
330
1
100
AcDbSymbolTableRecord
100
AcDbBlockTableRecord
  2
*D25
340
0
 70
     0
280
     1
281
     0
  0
BLOCK_RECORD
  5
270
330
1
100
AcDbSymbolTableRecord
100
AcDbBlockTableRecord
  2
*D26
340
0
 70
     0
280
     1
281
     0
  0
BLOCK_RECORD
  5
27C
330
1
100
AcDbSymbolTableRecord
100
AcDbBlockTableRecord
  2
*D27
340
0
 70
     0
280
     1
281
     0
  0
ENDTAB
  0
ENDSEC
  0
SECTION
  2
BLOCKS
  0
BLOCK
  5
D
330
A
100
AcDbEntity
  8
0
390
1D
100
AcDbBlockBegin
  2
*MODEL_SPACE
 70
     0
 10
0.0
 20
0.0
 30
0.0
  3
*MODEL_SPACE
  1
*MODEL_SPACE
  0
ENDBLK
  5
E
330
A
100
AcDbEntity
  8
0
390
1D
100
AcDbBlockEnd
  0
BLOCK
  5
F
330
B
100
AcDbEntity
 67
     1
  8
0
390
1D
100
AcDbBlockBegin
  2
*PAPER_SPACE
 70
     0
 10
0.0
 20
0.0
 30
0.0
  3
*PAPER_SPACE
  1
*PAPER_SPACE
  0
ENDBLK
  5
10
330
B
100
AcDbEntity
 67
     1
  8
0
390
1D
100
AcDbBlockEnd
  0
BLOCK
  5
4B
330
4A
100
AcDbEntity
  8
0
390
1D
100
AcDbBlockBegin
  2
_DOT
 70
     0
 10
0.0
 20
0.0
 30
0.0
  3
_DOT
  1
_DOT
  0
POLYLINE
  5
4C
330
4A
100
AcDbEntity
  8
0
  6
ByBlock
 62
     0
370
    -2
390
1D
100
AcDb2dPolyline
 66
     1
 10
0.0
 20
0.0
 30
0.0
 70
     1
 40
0.5
 41
0.5
  0
VERTEX
  5
4D
330
4C
100
AcDbEntity
  8
0
  6
ByBlock
 62
     0
370
    -2
390
1D
100
AcDbVertex
100
AcDb2dVertex
 10
-0.25
 20
0.0
 30
0.0
 42
1.0
  0
VERTEX
  5
4E
330
4C
100
AcDbEntity
  8
0
  6
ByBlock
 62
     0
370
    -2
390
1D
100
AcDbVertex
100
AcDb2dVertex
 10
0.25
 20
0.0
 30
0.0
 42
1.0
  0
SEQEND
  5
4F
330
4C
100
AcDbEntity
  8
0
390
1D
  0
LINE
  5
50
330
4A
100
AcDbEntity
  8
0
  6
ByBlock
 62
     0
370
    -2
390
1D
100
AcDbLine
 10
-0.5
 20
0.0
 30
0.0
 11
-1.0
 21
0.0
 31
0.0
  0
ENDBLK
  5
51
330
4A
100
AcDbEntity
  8
0
390
1D
100
AcDbBlockEnd
  0
BLOCK
  5
54
330
53
100
AcDbEntity
  8
0
  6
ByBlock
 62
     0
370
    -2
390
1D
100
AcDbBlockBegin
  2
VW_FILLEDARROW
 70
     0
 10
0.0
 20
0.0
 30
0.0
  3
VW_FILLEDARROW
  1
VW_FILLEDARROW
  0
SOLID
  5
55
330
53
100
AcDbEntity
  8
0
 62
     0
370
    -2
390
1D
100
AcDbTrace
 10
0.0
 20
0.0
 30
0.0
 11
-0.9921874999999999
 21
-0.2658558393652545
 31
0.0
 12
-0.9921874999999999
 22
0.2658558393652548
 32
0.0
 13
-0.9921874999999999
 23
0.2658558393652548
 33
0.0
  0
ENDBLK
  5
56
330
53
100
AcDbEntity
  8
0
390
1D
100
AcDbBlockEnd
  0
BLOCK
  5
58
330
23
100
AcDbEntity
  8
template
390
1D
100
AcDbBlockBegin
  2
グループ
 70
     0
 10
0.0
 20
0.0
 30
0.0
  3
グループ
  1
グループ
  0
LWPOLYLINE
  5
59
330
23
100
AcDbEntity
  8
0
  6
Continuous
 62
     7
370
    15
390
1D
100
AcDbPolyline
 90
        8
 70
   129
 43
0.0
 10
887.4285078030748
 20
-1334.489721023686
 10
887.4285078030748
 20
-1340.487109717262
 10
877.9273108850715
 20
-1340.487109717262
 10
877.9273108850715
 20
-1364.938072980771
 10
869.5719336232887
 20
-1364.938072980771
 10
869.5719336232887
 20
-1340.487109717262
 10
860.2389766769793
 20
-1340.487109717262
 10
860.2389766769793
 20
-1334.489721023686
  0
LWPOLYLINE
  5
5A
330
23
100
AcDbEntity
  8
0
  6
Continuous
 62
     7
370
    15
390
1D
100
AcDbPolyline
 90
      101
 70
   128
 43
0.0
 10
900.1567996336317
 20
-1335.217969516622
 10
900.1721496624168
 20
-1335.213608759937
 42
-0.0222221607812452
 10
900.4621542390878
 20
-1335.144984294693
 10
900.4779480030738
 20
-1335.141980871597
 42
-0.0146883565588934
 10
900.7406507083056
 20
-1335.099977684646
 42
-0.0127458844187264
 10
901.0052896754536
 20
-1335.072440716574
 10
901.0677447537714
 20
-1335.067547293986
 42
-0.0198099018564238
 10
901.4585938632479
 20
-1335.052462136589
 10
901.510405332692
 20
-1335.052515912254
 42
-0.014761738276327
 10
902.005028793663
 20
-1335.067635937499
 10
902.0777202485461
 20
-1335.072008544387
 42
-0.0162624549002029
 10
902.4678738780058
 20
-1335.108241419659
 10
902.5894062692702
 20
-1335.123527978656
 42
-0.0080020874659354
 10
902.7349853003566
 20
-1335.144210825924
 10
902.7733047709486
 20
-1335.150282103735
 42
-0.0053821929678317
 10
902.8417888762664
 20
-1335.161889627557
 10
902.1153831770678
 20
-1337.34281808327
 42
0.01086677573739
 10
902.0480661069431
 20
-1337.329630968052
 10
902.0105980837475
 20
-1337.323133225456
 42
0.0170663203307341
 10
901.8673812968334
 20
-1337.303303628164
 10
901.7995059641489
 20
-1337.296256457577
 42
0.022016237527672
 10
901.5191265562925
 20
-1337.279574096807
 10
901.4412709892413
 20
-1337.27837472954
 42
0.028260691578763
 10
901.1056346656636
 20
-1337.292178006509
 10
901.0617213918907
 20
-1337.296477996513
 42
0.0169677213689564
 10
900.8157968969324
 20
-1337.329015046065
 42
0.0190576269861447
 10
900.5728889343558
 20
-1337.37916191817
 10
900.5666297462415
 20
-1337.380704892281
 42
0.0213685642848188
 10
900.3162452617622
 20
-1337.453905177386
 10
900.3107553668475
 20
-1337.455768173445
 42
0.0237595297595475
 10
900.0572604819502
 20
-1337.555452695339
 10
900.0521584079191
 20
-1337.557744470818
 42
0.0261857468820483
 10
899.7999876316902
 20
-1337.687280808192
 10
899.789561442602
 20
-1337.693346282661
 42
0.0272553062022719
 10
899.5531316673637
 20
-1337.848718488605
 10
899.5183686538545
 20
-1337.874379636697
 42
0.03259968931689
 10
899.3682133102027
 20
-1338.001127509669
 10
899.3445038810788
 20
-1338.023945538182
 42
0.0138050960634597
 10
899.2526207248695
 20
-1338.117395199733
 42
0.0125280103795566
 10
899.1657781920396
 20
-1338.215558526329
 10
899.1420977471277
 20
-1338.243717024521
 42
0.0205218024740018
 10
899.0169976716155
 20
-1338.405510338748
 10
898.9945313311268
 20
-1338.437170068577
 42
0.0163110129586428
 10
898.8388209518752
 20
-1338.672500503648
 10
898.8360970558246
 20
-1338.676924265632
 42
0.0131897341900631
 10
898.6892965349159
 20
-1338.930056358002
 10
898.6875964395522
 20
-1338.933174597133
 42
0.0107895576063121
 10
898.5498197373457
 20
-1339.199389806759
 10
898.5490868478164
 20
-1339.200884039414
 42
0.0091371507222248
 10
898.4206068991648
 20
-1339.475409237178
 10
898.3908612677576
 20
-1339.542115744332
 42
0.0135418326351088
 10
898.2191473286844
 20
-1339.957053529605
 10
898.1855425202551
 20
-1340.044919671873
 42
0.0092834542406019
 10
898.0143134603309
 20
-1340.518818170188
 10
897.9886963326218
 20
-1340.594059239956
 42
0.0054261043575737
 10
897.8810581843202
 20
-1340.921823213047
 10
897.8635321980961
 20
-1340.977211375424
 42
0.0008225090817605
 10
897.7948621463128
 20
-1341.195480133426
 10
896.8101730143793
 20
-1344.220371426682
 10
900.0427968544532
 20
-1344.220371426682
 10
899.5386044245997
 20
-1346.124849725035
 10
896.2825481426164
 20
-1346.124849725035
 10
890.4533991102626
 20
-1364.93807279104
 10
888.6283014999523
 20
-1364.93807279104
 10
894.4629795354532
 20
-1346.124849725035
 10
892.0578631664129
 20
-1346.124849725035
 10
892.5620555962663
 20
-1344.220371426682
 10
894.9906044072163
 20
-1344.220371426682
 10
895.850759325405
 20
-1341.583958425983
 42
-0.0005863560652156
 10
895.8874940036009
 20
-1341.467132005716
 10
895.9635818372689
 20
-1341.226139706306
 42
-0.0087522378926788
 10
896.1630499807259
 20
-1340.630863619159
 10
896.255314256141
 20
-1340.370723450642
 42
-0.0077400953830428
 10
896.5132479152703
 20
-1339.677718773099
 10
896.529012886849
 20
-1339.637287889713
 42
-0.0082369946330594
 10
896.7760973574611
 20
-1339.033208823517
 42
-0.0085725238362489
 10
897.0433434534679
 20
-1338.437782784221
 10
897.1449730544707
 20
-1338.221361682246
 42
-0.0168109410597172
 10
897.4319174832015
 20
-1337.66015415614
 10
897.5577608736922
 20
-1337.433190123086
 42
-0.0007817726868056
 10
897.6120452237171
 20
-1337.335645878112
 10
897.61217352973
 20
-1337.335416169383
 42
-0.0036626142161349
 10
897.6670613937556
 20
-1337.238818289407
 42
-0.0080221150672844
 10
897.7241856491647
 20
-1337.14353905465
 10
897.7548856005235
 20
-1337.094148105532
 42
-0.0202139325568902
 10
897.8825413403317
 20
-1336.906166504848
 10
897.9366088055178
 20
-1336.833087640609
 42
-0.0249323791798366
 10
898.1957715992382
 20
-1336.517042398454
 10
898.219911413364
 20
-1336.490428125543
 42
-0.0242132121540895
 10
898.559592154907
 20
-1336.150544639338
 10
898.6075037276536
 20
-1336.107035503155
 42
-0.0251017527859385
 10
898.8914854282973
 20
-1335.874042757388
 10
898.8929309051103
 20
-1335.872973499809
 42
-0.0130868069035934
 10
899.1911915550684
 20
-1335.664193031266
 10
899.1927533742123
 20
-1335.663159590991
 42
-0.0290329526388077
 10
899.5038645156044
 20
-1335.482334089362
 10
899.5337100775943
 20
-1335.46723170652
 42
-0.0160250190047949
 10
899.7996144913552
 20
-1335.343215596309
 42
-0.0267600374780309
 10
900.0748905688253
 20
-1335.24246727576
 10
900.1016264883448
 20
-1335.234274716935
 42
-0.0049981587669928
 10
900.1567996336317
 20
-1335.217969516622
 42
-0.0049981587669928
  0
LWPOLYLINE
  5
5B
330
23
100
AcDbEntity
  8
0
  6
Continuous
 62
     7
370
    15
390
1D
100
AcDbPolyline
 90
      118
 70
   128
 43
0.0
 10
919.9711671980787
 20
-1344.29435475451
 10
921.8462891225781
 20
-1344.29435475451
 10
921.0082502169782
 20
-1346.97592128091
 42
-0.0010587229244717
 10
921.0397060325761
 20
-1346.939016747524
 10
921.0979001231822
 20
-1346.871034491379
 42
-0.0071874740413046
 10
921.2482753412742
 20
-1346.700393799356
 10
921.3899981145424
 20
-1346.544157658037
 42
-0.0148118053513779
 10
921.8401274072513
 20
-1346.076543812027
 10
921.9273497421573
 20
-1345.99114649117
 42
-0.0086273358692718
 10
922.2628985431654
 20
-1345.673770857153
 10
922.3067322593917
 20
-1345.63372121282
 42
-0.0103138323115429
 10
922.5647559616248
 20
-1345.407558075482
 10
922.6105303679605
 20
-1345.369076028215
 42
-0.0060206748564274
 10
922.7833784320641
 20
-1345.227281377468
 10
922.7854095629551
 20
-1345.225655671832
 42
-0.0067069027290416
 10
922.9577023776126
 20
-1345.091505038041
 10
922.9602511435459
 20
-1345.089574868161
 42
-0.0076184352049488
 10
923.1311564094099
 20
-1344.964199992922
 42
-0.0089652861668072
 10
923.3061173721434
 20
-1344.84456673259
 10
923.3424690922884
 20
-1344.820655519107
 42
-0.0156916245939222
 10
923.5384285894495
 20
-1344.700393032632
 42
-0.0023299011069693
 10
923.7386906334059
 20
-1344.587215093104
 10
923.7540747658092
 20
-1344.578615098027
 42
-0.0107669341481016
 10
923.9883115909171
 20
-1344.454214964674
 10
924.0105763919853
 20
-1344.442998214727
 42
-0.0078058045897393
 10
924.2941665099372
 20
-1344.305636759089
 10
924.3040735976472
 20
-1344.30102763122
 42
-0.0181829330470019
 10
924.6143830022639
 20
-1344.170163890124
 10
924.6684384448263
 20
-1344.149648770182
 42
-0.0208411536031712
 10
925.0175234122798
 20
-1344.033558307688
 10
925.0318795124078
 20
-1344.029439862734
 42
-0.022279981713889
 10
925.3605993063245
 20
-1343.950798296594
 10
925.369488269567
 20
-1343.949086286008
 42
-0.0215509523880639
 10
925.6859592378414
 20
-1343.902170597475
 10
925.7284411988906
 20
-1343.897733070684
 42
-0.0182545924872353
 10
925.9625499781955
 20
-1343.881889245293
 10
926.0019509945457
 20
-1343.880664700214
 42
-0.0072962856529007
 10
926.1578738742326
 20
-1343.878095371692
 10
926.1869735448086
 20
-1343.878040536288
 42
-0.0059227516318757
 10
926.2847230439495
 20
-1343.879014248078
 10
926.3139652614603
 20
-1343.879652014683
 42
-0.0011833111901854
 10
926.3532165451538
 20
-1343.880601018992
 10
925.5578299495467
 20
-1346.419334964091
 42
0.0143932051598805
 10
925.5314285671955
 20
-1346.409135994045
 10
925.5241565947788
 20
-1346.406564775188
 42
0.0234388603530011
 10
925.4823257288471
 20
-1346.393945539473
 10
925.473644065934
 20
-1346.391764577468
 42
0.019916274298183
 10
925.4133552318523
 20
-1346.379147842132
 10
925.3925412940478
 20
-1346.375650642704
 42
0.0293643550666261
 10
925.2894664352875
 20
-1346.364500597051
 10
925.2647812545683
 20
-1346.363288980032
 42
0.0214606686863714
 10
925.1116403386152
 20
-1346.362350419615
 10
925.1022684277979
 20
-1346.362695331159
 42
0.0167564054173993
 10
924.9307482366868
 20
-1346.374772373527
 10
924.9222884439305
 20
-1346.375653713954
 42
0.0137677553240766
 10
924.7349351306646
 20
-1346.400403022498
 10
924.7275833911579
 20
-1346.401580942466
 42
0.0118497261482254
 10
924.5270856270553
 20
-1346.438598292655
 10
924.5209356198093
 20
-1346.439885155375
 42
0.0106421143889724
 10
924.3100547325253
 20
-1346.48871753095
 10
924.3051459241352
 20
-1346.489964873635
 42
0.0099746379706321
 10
924.0866874549707
 20
-1346.55013940195
 10
924.0251394148024
 20
-1346.56842128058
 42
0.0191613675859732
 10
923.6891549522869
 20
-1346.682398660867
 10
923.6010951795374
 20
-1346.716085571193
 42
0.0205274080144368
 10
923.2157884076407
 20
-1346.881913979018
 10
923.1581391256583
 20
-1346.909581943591
 42
0.0181256912196064
 10
922.8998621849918
 20
-1347.045265762568
 10
922.8469068016844
 20
-1347.075583375779
 42
0.0140709242402873
 10
922.7019518670495
 20
-1347.164078049217
 10
922.6757029984327
 20
-1347.181134867932
 42
0.0086667884395987
 10
922.5867768368885
 20
-1347.241137535816
 42
0.0036408192034625
 10
922.4993435988384
 20
-1347.30331839362
 10
922.4641167243865
 20
-1347.328759339521
 42
0.0052260781272892
 10
922.3078880270106
 20
-1347.444091726144
 10
922.2916811707357
 20
-1347.456319836773
 42
0.0050024435898219
 10
922.1056778276798
 20
-1347.599602405033
 10
922.0903596711618
 20
-1347.611648427481
 42
0.013613871027649
 10
921.8799184028425
 20
-1347.786614932389
 10
921.8462505270429
 20
-1347.816193905109
 42
0.017281518691684
 10
921.5818469853781
 20
-1348.065190577734
 10
921.5792846395377
 20
-1348.067776394879
 42
0.0189403857992159
 10
921.3287028409577
 20
-1348.340581659684
 10
921.2960713474276
 20
-1348.378925591175
 42
0.0185044199499275
 10
921.1041149084426
 20
-1348.622174172303
 42
0.0088565243898951
 10
920.9256548018152
 20
-1348.875690592452
 10
920.9164768221657
 20
-1348.889231972214
 42
0.0157195347234652
 10
920.7332562158285
 20
-1349.178754181534
 10
920.687173273908
 20
-1349.256906378538
 42
0.0095451879775554
 10
920.5220877237631
 20
-1349.549501020907
 10
920.5109398048392
 20
-1349.570171693028
 42
0.0100351706251944
 10
920.3788960556742
 20
-1349.827227253529
 42
0.0086935915418291
 10
920.2565649038802
 20
-1350.089060398933
 10
920.2532441624656
 20
-1350.096502721906
 42
0.0072580174866602
 10
920.1328977105229
 20
-1350.377094713483
 10
920.1296360772144
 20
-1350.385014739506
 42
0.0060005122616345
 10
920.0104354088706
 20
-1350.684624410115
 10
920.0072244305301
 20
-1350.692985938017
 42
0.0049017786975175
 10
919.888324271672
 20
-1351.011914918622
 10
919.8851584652822
 20
-1351.020667855851
 42
0.0039415167599449
 10
919.7657221872311
 20
-1351.359209918249
 10
919.7625910845734
 20
-1351.368313119141
 42
0.0031035838769637
 10
919.6417862988756
 20
-1351.726752980928
 10
919.6386762543499
 20
-1351.736173602289
 42
0.0025070747154479
 10
919.5157749030382
 20
-1352.114820819221
 10
919.4784810066092
 20
-1352.231712484486
 42
0.0029081910283904
 10
919.2864627088076
 20
-1352.845876142747
 10
919.2456595402813
 20
-1352.979099385053
 42
0.0009266453734212
 10
918.9772421659271
 20
-1353.861323845108
 10
918.9563546933473
 20
-1353.930435724142
 42
-0.0005809993666308
 10
918.6790180127348
 20
-1354.844243830852
 10
918.6127362144622
 20
-1355.06172876301
 42
-0.0012018708165088
 10
918.4657519050327
 20
-1355.539891427532
 10
918.4134320534521
 20
-1355.708650568446
 42
-0.0002691059599173
 10
918.3698625722985
 20
-1355.84891818874
 10
915.5369066740093
 20
-1364.93807279104
 10
913.7189177820308
 20
-1364.93807279104
 10
919.9711671980787
 20
-1344.29435475451
  0
SPLINE
  5
5C
330
23
100
AcDbEntity
  8
0
  6
Continuous
 62
     7
370
    15
390
1D
100
AcDbSpline
210
0.0
220
0.0
230
1.0
 70
    15
 71
     2
 72
   782
 73
   779
 74
     0
 42
0.000000001
 43
0.000001
 40
0.0
 40
0.0
 40
0.0
 40
1.0
 40
1.0
 40
2.0
 40
2.0
 40
3.0
 40
3.0
 40
4.0
 40
4.0
 40
5.0
 40
5.0
 40
6.0
 40
6.0
 40
7.0
 40
7.0
 40
8.0
 40
8.0
 40
9.0
 40
9.0
 40
10.0
 40
10.0
 40
11.0
 40
11.0
 40
12.0
 40
12.0
 40
13.0
 40
13.0
 40
14.0
 40
14.0
 40
15.0
 40
15.0
 40
16.0
 40
16.0
 40
17.0
 40
17.0
 40
18.0
 40
18.0
 40
19.0
 40
19.0
 40
20.0
 40
20.0
 40
21.0
 40
21.0
 40
22.0
 40
22.0
 40
23.0
 40
23.0
 40
24.0
 40
24.0
 40
25.0
 40
25.0
 40
26.0
 40
26.0
 40
27.0
 40
27.0
 40
28.0
 40
28.0
 40
29.0
 40
29.0
 40
30.0
 40
30.0
 40
31.0
 40
31.0
 40
32.0
 40
32.0
 40
33.0
 40
33.0
 40
34.0
 40
34.0
 40
35.0
 40
35.0
 40
36.0
 40
36.0
 40
37.0
 40
37.0
 40
38.0
 40
38.0
 40
39.0
 40
39.0
 40
40.0
 40
40.0
 40
41.0
 40
41.0
 40
42.0
 40
42.0
 40
43.0
 40
43.0
 40
44.0
 40
44.0
 40
45.0
 40
45.0
 40
46.0
 40
46.0
 40
47.0
 40
47.0
 40
48.0
 40
48.0
 40
49.0
 40
49.0
 40
50.0
 40
50.0
 40
51.0
 40
51.0
 40
52.0
 40
52.0
 40
53.0
 40
53.0
 40
54.0
 40
54.0
 40
55.0
 40
55.0
 40
56.0
 40
56.0
 40
57.0
 40
57.0
 40
58.0
 40
58.0
 40
59.0
 40
59.0
 40
60.0
 40
60.0
 40
61.0
 40
61.0
 40
62.0
 40
62.0
 40
63.0
 40
63.0
 40
64.0
 40
64.0
 40
65.0
 40
65.0
 40
66.0
 40
66.0
 40
67.0
 40
67.0
 40
68.0
 40
68.0
 40
69.0
 40
69.0
 40
70.0
 40
70.0
 40
71.0
 40
71.0
 40
72.0
 40
72.0
 40
73.0
 40
73.0
 40
74.0
 40
74.0
 40
75.0
 40
75.0
 40
76.0
 40
76.0
 40
77.0
 40
77.0
 40
78.0
 40
78.0
 40
79.0
 40
79.0
 40
80.0
 40
80.0
 40
81.0
 40
81.0
 40
82.0
 40
82.0
 40
83.0
 40
83.0
 40
84.0
 40
84.0
 40
85.0
 40
85.0
 40
86.0
 40
86.0
 40
87.0
 40
87.0
 40
88.0
 40
88.0
 40
89.0
 40
89.0
 40
90.0
 40
90.0
 40
91.0
 40
91.0
 40
92.0
 40
92.0
 40
93.0
 40
93.0
 40
94.0
 40
94.0
 40
95.0
 40
95.0
 40
96.0
 40
96.0
 40
97.0
 40
97.0
 40
98.0
 40
98.0
 40
99.0
 40
99.0
 40
100.0
 40
100.0
 40
101.0
 40
101.0
 40
102.0
 40
102.0
 40
103.0
 40
103.0
 40
104.0
 40
104.0
 40
105.0
 40
105.0
 40
106.0
 40
106.0
 40
107.0
 40
107.0
 40
108.0
 40
108.0
 40
109.0
 40
109.0
 40
110.0
 40
110.0
 40
111.0
 40
111.0
 40
112.0
 40
112.0
 40
113.0
 40
113.0
 40
114.0
 40
114.0
 40
115.0
 40
115.0
 40
116.0
 40
116.0
 40
117.0
 40
117.0
 40
118.0
 40
118.0
 40
119.0
 40
119.0
 40
120.0
 40
120.0
 40
121.0
 40
121.0
 40
122.0
 40
122.0
 40
123.0
 40
123.0
 40
124.0
 40
124.0
 40
125.0
 40
125.0
 40
126.0
 40
126.0
 40
127.0
 40
127.0
 40
128.0
 40
128.0
 40
129.0
 40
129.0
 40
130.0
 40
130.0
 40
131.0
 40
131.0
 40
132.0
 40
132.0
 40
133.0
 40
133.0
 40
134.0
 40
134.0
 40
135.0
 40
135.0
 40
136.0
 40
136.0
 40
137.0
 40
137.0
 40
138.0
 40
138.0
 40
139.0
 40
139.0
 40
140.0
 40
140.0
 40
141.0
 40
141.0
 40
142.0
 40
142.0
 40
143.0
 40
143.0
 40
144.0
 40
144.0
 40
145.0
 40
145.0
 40
146.0
 40
146.0
 40
147.0
 40
147.0
 40
148.0
 40
148.0
 40
149.0
 40
149.0
 40
150.0
 40
150.0
 40
151.0
 40
151.0
 40
152.0
 40
152.0
 40
153.0
 40
153.0
 40
154.0
 40
154.0
 40
155.0
 40
155.0
 40
156.0
 40
156.0
 40
157.0
 40
157.0
 40
158.0
 40
158.0
 40
159.0
 40
159.0
 40
160.0
 40
160.0
 40
161.0
 40
161.0
 40
162.0
 40
162.0
 40
163.0
 40
163.0
 40
164.0
 40
164.0
 40
165.0
 40
165.0
 40
166.0
 40
166.0
 40
167.0
 40
167.0
 40
168.0
 40
168.0
 40
169.0
 40
169.0
 40
170.0
 40
170.0
 40
171.0
 40
171.0
 40
172.0
 40
172.0
 40
173.0
 40
173.0
 40
174.0
 40
174.0
 40
175.0
 40
175.0
 40
176.0
 40
176.0
 40
177.0
 40
177.0
 40
178.0
 40
178.0
 40
179.0
 40
179.0
 40
180.0
 40
180.0
 40
181.0
 40
181.0
 40
182.0
 40
182.0
 40
183.0
 40
183.0
 40
184.0
 40
184.0
 40
185.0
 40
185.0
 40
186.0
 40
186.0
 40
187.0
 40
187.0
 40
188.0
 40
188.0
 40
189.0
 40
189.0
 40
190.0
 40
190.0
 40
191.0
 40
191.0
 40
192.0
 40
192.0
 40
193.0
 40
193.0
 40
194.0
 40
194.0
 40
195.0
 40
195.0
 40
196.0
 40
196.0
 40
197.0
 40
197.0
 40
198.0
 40
198.0
 40
199.0
 40
199.0
 40
200.0
 40
200.0
 40
201.0
 40
201.0
 40
202.0
 40
202.0
 40
203.0
 40
203.0
 40
204.0
 40
204.0
 40
205.0
 40
205.0
 40
206.0
 40
206.0
 40
207.0
 40
207.0
 40
208.0
 40
208.0
 40
209.0
 40
209.0
 40
210.0
 40
210.0
 40
211.0
 40
211.0
 40
212.0
 40
212.0
 40
213.0
 40
213.0
 40
214.0
 40
214.0
 40
215.0
 40
215.0
 40
216.0
 40
216.0
 40
217.0
 40
217.0
 40
218.0
 40
218.0
 40
219.0
 40
219.0
 40
220.0
 40
220.0
 40
221.0
 40
221.0
 40
222.0
 40
222.0
 40
223.0
 40
223.0
 40
224.0
 40
224.0
 40
225.0
 40
225.0
 40
226.0
 40
226.0
 40
227.0
 40
227.0
 40
228.0
 40
228.0
 40
229.0
 40
229.0
 40
230.0
 40
230.0
 40
231.0
 40
231.0
 40
232.0
 40
232.0
 40
233.0
 40
233.0
 40
234.0
 40
234.0
 40
235.0
 40
235.0
 40
236.0
 40
236.0
 40
237.0
 40
237.0
 40
238.0
 40
238.0
 40
239.0
 40
239.0
 40
240.0
 40
240.0
 40
241.0
 40
241.0
 40
242.0
 40
242.0
 40
243.0
 40
243.0
 40
244.0
 40
244.0
 40
245.0
 40
245.0
 40
246.0
 40
246.0
 40
247.0
 40
247.0
 40
248.0
 40
248.0
 40
249.0
 40
249.0
 40
250.0
 40
250.0
 40
251.0
 40
251.0
 40
252.0
 40
252.0
 40
253.0
 40
253.0
 40
254.0
 40
254.0
 40
255.0
 40
255.0
 40
256.0
 40
256.0
 40
257.0
 40
257.0
 40
258.0
 40
258.0
 40
259.0
 40
259.0
 40
260.0
 40
260.0
 40
261.0
 40
261.0
 40
262.0
 40
262.0
 40
263.0
 40
263.0
 40
264.0
 40
264.0
 40
265.0
 40
265.0
 40
266.0
 40
266.0
 40
267.0
 40
267.0
 40
268.0
 40
268.0
 40
269.0
 40
269.0
 40
270.0
 40
270.0
 40
271.0
 40
271.0
 40
272.0
 40
272.0
 40
273.0
 40
273.0
 40
274.0
 40
274.0
 40
275.0
 40
275.0
 40
276.0
 40
276.0
 40
277.0
 40
277.0
 40
278.0
 40
278.0
 40
279.0
 40
279.0
 40
280.0
 40
280.0
 40
281.0
 40
281.0
 40
282.0
 40
282.0
 40
283.0
 40
283.0
 40
284.0
 40
284.0
 40
285.0
 40
285.0
 40
286.0
 40
286.0
 40
287.0
 40
287.0
 40
288.0
 40
288.0
 40
289.0
 40
289.0
 40
290.0
 40
290.0
 40
291.0
 40
291.0
 40
292.0
 40
292.0
 40
293.0
 40
293.0
 40
294.0
 40
294.0
 40
295.0
 40
295.0
 40
296.0
 40
296.0
 40
297.0
 40
297.0
 40
298.0
 40
298.0
 40
299.0
 40
299.0
 40
300.0
 40
300.0
 40
301.0
 40
301.0
 40
302.0
 40
302.0
 40
303.0
 40
303.0
 40
304.0
 40
304.0
 40
305.0
 40
305.0
 40
306.0
 40
306.0
 40
307.0
 40
307.0
 40
308.0
 40
308.0
 40
309.0
 40
309.0
 40
310.0
 40
310.0
 40
311.0
 40
311.0
 40
312.0
 40
312.0
 40
313.0
 40
313.0
 40
314.0
 40
314.0
 40
315.0
 40
315.0
 40
316.0
 40
316.0
 40
317.0
 40
317.0
 40
318.0
 40
318.0
 40
319.0
 40
319.0
 40
320.0
 40
320.0
 40
321.0
 40
321.0
 40
322.0
 40
322.0
 40
323.0
 40
323.0
 40
324.0
 40
324.0
 40
325.0
 40
325.0
 40
326.0
 40
326.0
 40
327.0
 40
327.0
 40
328.0
 40
328.0
 40
329.0
 40
329.0
 40
330.0
 40
330.0
 40
331.0
 40
331.0
 40
332.0
 40
332.0
 40
333.0
 40
333.0
 40
334.0
 40
334.0
 40
335.0
 40
335.0
 40
336.0
 40
336.0
 40
337.0
 40
337.0
 40
338.0
 40
338.0
 40
339.0
 40
339.0
 40
340.0
 40
340.0
 40
341.0
 40
341.0
 40
342.0
 40
342.0
 40
343.0
 40
343.0
 40
344.0
 40
344.0
 40
345.0
 40
345.0
 40
346.0
 40
346.0
 40
347.0
 40
347.0
 40
348.0
 40
348.0
 40
349.0
 40
349.0
 40
350.0
 40
350.0
 40
351.0
 40
351.0
 40
352.0
 40
352.0
 40
353.0
 40
353.0
 40
354.0
 40
354.0
 40
355.0
 40
355.0
 40
356.0
 40
356.0
 40
357.0
 40
357.0
 40
358.0
 40
358.0
 40
359.0
 40
359.0
 40
360.0
 40
360.0
 40
361.0
 40
361.0
 40
362.0
 40
362.0
 40
363.0
 40
363.0
 40
364.0
 40
364.0
 40
365.0
 40
365.0
 40
366.0
 40
366.0
 40
367.0
 40
367.0
 40
368.0
 40
368.0
 40
369.0
 40
369.0
 40
370.0
 40
370.0
 40
371.0
 40
371.0
 40
372.0
 40
372.0
 40
373.0
 40
373.0
 40
374.0
 40
374.0
 40
375.0
 40
375.0
 40
376.0
 40
376.0
 40
377.0
 40
377.0
 40
378.0
 40
378.0
 40
379.0
 40
379.0
 40
380.0
 40
380.0
 40
381.0
 40
381.0
 40
382.0
 40
382.0
 40
383.0
 40
383.0
 40
384.0
 40
384.0
 40
385.0
 40
385.0
 40
386.0
 40
386.0
 40
387.0
 40
387.0
 40
388.0
 40
388.0
 40
389.0
 40
389.0
 40
389.0
 10
930.2998716488113
 20
-1344.283428391147
 30
0.0
 41
1.0
 10
931.1182957575318
 20
-1344.283428391147
 30
0.0
 41
1.0
 10
931.9367198662522
 20
-1344.283428391147
 30
0.0
 41
1.0
 10
931.5229661307355
 20
-1345.626054655397
 30
0.0
 41
1.0
 10
931.1092123952187
 20
-1346.968680919647
 30
0.0
 41
1.0
 10
931.1275518903724
 20
-1346.939980146757
 30
0.0
 41
0.9999957264353334
 10
931.1460588871898
 20
-1346.911387096627
 30
0.0
 41
1.0
 10
931.1764882113409
 20
-1346.86437421823
 30
0.0
 41
1.0
 10
931.206917535492
 20
-1346.817361339833
 30
0.0
 41
1.0
 10
931.2862831805996
 20
-1346.694742532927
 30
0.0
 41
0.9995394069080855
 10
931.3729415721515
 20
-1346.577164471186
 30
0.0
 41
1.0
 10
931.4086984344108
 20
-1346.528649578593
 30
0.0
 41
1.0
 10
931.4444552966701
 20
-1346.480134686
 30
0.0
 41
1.0
 10
931.5781819644887
 20
-1346.298694410873
 30
0.0
 41
0.9994460617143494
 10
931.7236824457757
 20
-1346.126552013224
 30
0.0
 41
1.0
 10
931.72807062675
 20
-1346.121360332842
 30
0.0
 41
1.0
 10
931.7324588077244
 20
-1346.116168652461
 30
0.0
 41
1.0
 10
931.8691829270621
 20
-1345.954409615576
 30
0.0
 41
0.9994359394933763
 10
932.0164571574151
 20
-1345.80219341441
 30
0.0
 41
1.0
 10
932.0188405113706
 20
-1345.799730084035
 30
0.0
 41
1.0
 10
932.0212238653261
 20
-1345.797266753659
 30
0.0
 41
1.0
 10
932.1637313877693
 20
-1345.649977213243
 30
0.0
 41
0.9995293688567944
 10
932.3150030687486
 20
-1345.511704001081
 30
0.0
 41
1.0
 10
932.3342968280126
 20
-1345.49406811543
 30
0.0
 41
1.0
 10
932.3535905872766
 20
-1345.476432229778
 30
0.0
 41
1.0
 10
932.4662747497322
 20
-1345.373430788916
 30
0.0
 41
0.999708761480295
 10
932.5837976386858
 20
-1345.275986508119
 30
0.0
 41
1.0
 10
932.6029637118684
 20
-1345.260094929606
 30
0.0
 41
1.0
 10
932.6221297850508
 20
-1345.244203351092
 30
0.0
 41
1.0
 10
932.701320527651
 20
-1345.178542227313
 30
0.0
 41
0.9999595338700135
 10
932.781679798496
 20
-1345.114316496667
 30
0.0
 41
1.0
 10
932.8620390693484
 20
-1345.050090766014
 30
0.0
 41
0.9999749417498401
 10
932.943299603691
 20
-1344.987009212068
 30
0.0
 41
1.0
 10
932.9642857498659
 20
-1344.970717924757
 30
0.0
 41
1.0
 10
932.9852718960408
 20
-1344.954426637445
 30
0.0
 41
1.0
 10
933.069839781333
 20
-1344.888777627612
 30
0.0
 41
0.9999792037130208
 10
933.1552473810971
 20
-1344.824224845972
 30
0.0
 41
1.0
 10
933.1760722070195
 20
-1344.808485023706
 30
0.0
 41
1.0
 10
933.1968970329419
 20
-1344.79274520144
 30
0.0
 41
1.0
 10
933.2406549808724
 20
-1344.759672064325
 30
0.0
 41
0.9999993373740191
 10
933.2843366670097
 20
-1344.726498268905
 30
0.0
 41
1.0
 10
933.3280183531507
 20
-1344.693324473482
 30
0.0
 41
0.9999160953816699
 10
933.3725447640684
 20
-1344.661293408285
 30
0.0
 41
1.0
 10
933.4053666514899
 20
-1344.637682252699
 30
0.0
 41
1.0
 10
933.4381885389115
 20
-1344.614071097113
 30
0.0
 41
1.0
 10
933.5483587246692
 20
-1344.534817720745
 30
0.0
 41
0.9980964527231613
 10
933.66744771817
 20
-1344.469730247889
 30
0.0
 41
1.0
 10
933.7044803250972
 20
-1344.449490268296
 30
0.0
 41
1.0
 10
933.7415129320244
 20
-1344.429250288704
 30
0.0
 41
1.0
 10
933.9208399452983
 20
-1344.331240038002
 30
0.0
 41
0.9984572810572789
 10
934.1099285116588
 20
-1344.253717776655
 30
0.0
 41
1.0
 10
934.1135747810539
 20
-1344.252222884317
 30
0.0
 41
1.0
 10
934.117221050449
 20
-1344.25072799198
 30
0.0
 41
1.0
 10
934.2990170780171
 20
-1344.176195515309
 30
0.0
 41
0.9987838528033893
 10
934.487269736577
 20
-1344.119929875143
 30
0.0
 41
1.0
 10
934.4915076857766
 20
-1344.118663221452
 30
0.0
 41
1.0
 10
934.4957456349762
 20
-1344.117396567762
 30
0.0
 41
1.0
 10
934.6755223951371
 20
-1344.063664234977
 30
0.0
 41
0.999065281620722
 10
934.8592683268521
 20
-1344.025660555435
 30
0.0
 41
1.0
 10
934.8644567278818
 20
-1344.024587452329
 30
0.0
 41
1.0
 10
934.8696451289117
 20
-1344.023514349223
 30
0.0
 41
1.0
 10
935.0430142585666
 20
-1343.987656875893
 30
0.0
 41
0.9992909934270359
 10
935.2185900250263
 20
-1343.964946443426
 30
0.0
 41
1.0
 10
935.3941657914828
 20
-1343.94223601096
 30
0.0
 41
0.9994553539448302
 10
935.5708572245744
 20
-1343.931156706754
 30
0.0
 41
1.0
 10
935.6062916323717
 20
-1343.928934818706
 30
0.0
 41
1.0
 10
935.641726040169
 20
-1343.926712930658
 30
0.0
 41
1.0
 10
935.8079518067381
 20
-1343.916289868246
 30
0.0
 41
0.999092809829273
 10
935.974461598641
 20
-1343.920049509481
 30
0.0
 41
1.0
 10
936.0130234339139
 20
-1343.920920201014
 30
0.0
 41
1.0
 10
936.0515852691867
 20
-1343.921790892547
 30
0.0
 41
1.0
 10
936.1409713905447
 20
-1343.923809150715
 30
0.0
 41
0.999838208920621
 10
936.2302270733298
 20
-1343.929041277243
 30
0.0
 41
1.0
 10
936.2306569795473
 20
-1343.929066478146
 30
0.0
 41
1.0
 10
936.2310868857649
 20
-1343.929091679048
 30
0.0
 41
1.0
 10
936.3194827561138
 20
-1343.934273403771
 30
0.0
 41
0.9997558016759435
 10
936.4075633333168
 20
-1343.943355919138
 30
0.0
 41
1.0
 10
936.4080394717428
 20
-1343.94340501662
 30
0.0
 41
1.0
 10
936.4085156101686
 20
-1343.943454114102
 30
0.0
 41
1.0
 10
936.4956439105135
 20
-1343.952438434504
 30
0.0
 41
0.9996565144182056
 10
936.5821817638598
 20
-1343.965975741194
 30
0.0
 41
1.0
 10
936.5826476892364
 20
-1343.966048626925
 30
0.0
 41
1.0
 10
936.5831136146129
 20
-1343.966121512656
 30
0.0
 41
1.0
 10
936.6687196172007
 20
-1343.979513047882
 30
0.0
 41
0.9995321806866535
 10
936.7533466975298
 20
-1343.998113536312
 30
0.0
 41
1.0
 10
936.7537358921034
 20
-1343.998199078778
 30
0.0
 41
1.0
 10
936.754125086677
 20
-1343.998284621244
 30
0.0
 41
1.0
 10
936.8379737778592
 20
-1344.016714024742
 30
0.0
 41
0.9993819199219618
 10
936.920320312054
 20
-1344.040989408002
 30
0.0
 41
1.0
 10
936.9205587455527
 20
-1344.041059697111
 30
0.0
 41
1.0
 10
936.9207971790515
 20
-1344.041129986221
 30
0.0
 41
1.0
 10
937.0026668462502
 20
-1344.065264791263
 30
0.0
 41
0.9992088568505916
 10
937.0823593652384
 20
-1344.095830027057
 30
0.0
 41
1.0
 10
937.1620403561174
 20
-1344.12638962779
 30
0.0
 41
0.9990226101773474
 10
937.2387110260246
 20
-1344.163867059405
 30
0.0
 41
1.0
 10
937.3153701678222
 20
-1344.201338855958
 30
0.0
 41
0.9988424273972117
 10
937.3880737950342
 20
-1344.24600363121
 30
0.0
 41
1.0
 10
937.3883415034139
 20
-1344.246168095283
 30
0.0
 41
1.0
 10
937.3886092117937
 20
-1344.246332559355
 30
0.0
 41
1.0
 10
937.4618482557645
 20
-1344.291326262753
 30
0.0
 41
0.9986928844491282
 10
937.5301111224742
 20
-1344.343561997032
 30
0.0
 41
1.0
 10
937.530692414697
 20
-1344.34400681026
 30
0.0
 41
1.0
 10
937.5312737069198
 20
-1344.344451623488
 30
0.0
 41
1.0
 10
937.600699158075
 20
-1344.397576984224
 30
0.0
 41
0.998600726227902
 10
937.6641253278419
 20
-1344.457737753917
 30
0.0
 41
1.0
 10
937.6650197432991
 20
-1344.458586121752
 30
0.0
 41
1.0
 10
937.6659141587563
 20
-1344.459434489587
 30
0.0
 41
1.0
 10
937.7311291594372
 20
-1344.521291994951
 30
0.0
 41
0.9985581491382038
 10
937.789336771139
 20
-1344.589784485222
 30
0.0
 41
1.0
 10
937.7985952247349
 20
-1344.600678842924
 30
0.0
 41
1.0
 10
937.8078536783307
 20
-1344.611573200626
 30
0.0
 41
1.0
 10
937.8845781972235
 20
-1344.701854406301
 30
0.0
 41
0.9970460233520153
 10
937.946570098383
 20
-1344.802821490482
 30
0.0
 41
1.0
 10
937.9610394634624
 20
-1344.826387949563
 30
0.0
 41
1.0
 10
937.9755088285419
 20
-1344.849954408644
 30
0.0
 41
1.0
 10
938.0152455285546
 20
-1344.914674132677
 30
0.0
 41
0.9988468816636342
 10
938.0485918993063
 20
-1344.982906585105
 30
0.0
 41
1.0
 10
938.0556279217984
 20
-1344.997303506243
 30
0.0
 41
1.0
 10
938.0626639442905
 20
-1345.011700427382
 30
0.0
 41
1.0
 10
938.0819382700581
 20
-1345.051139037533
 30
0.0
 41
0.9998431189996929
 10
938.0998035975529
 20
-1345.091235591973
 30
0.0
 41
1.0
 10
938.1176689250815
 20
-1345.131332146489
 30
0.0
 41
0.9999989990028213
 10
938.1356476485108
 20
-1345.171377984089
 30
0.0
 41
1.0
 10
938.1418199600846
 20
-1345.185126200856
 30
0.0
 41
1.0
 10
938.1479922716583
 20
-1345.198874417623
 30
0.0
 41
1.0
 10
938.1783156182686
 20
-1345.266416688831
 30
0.0
 41
0.9998790356321278
 10
938.2065234984066
 20
-1345.334869440769
 30
0.0
 41
1.0
 10
938.2133586796906
 20
-1345.351456542196
 30
0.0
 41
1.0
 10
938.2201938609745
 20
-1345.368043643622
 30
0.0
 41
1.0
 10
938.2437515233563
 20
-1345.425211598511
 30
0.0
 41
0.9998227574561287
 10
938.2651402717449
 20
-1345.483225906787
 30
0.0
 41
1.0
 10
938.2865290201344
 20
-1345.541240215065
 30
0.0
 41
0.9996797971040683
 10
938.3049553050935
 20
-1345.600262334183
 30
0.0
 41
1.0
 10
938.308859107819
 20
-1345.612766792352
 30
0.0
 41
1.0
 10
938.3127629105445
 20
-1345.62527125052
 30
0.0
 41
1.0
 10
938.3389968009549
 20
-1345.709302285976
 30
0.0
 41
0.9979274938734355
 10
938.3542213244341
 20
-1345.796006644637
 30
0.0
 41
1.0
 10
938.3564450116949
 20
-1345.808670645456
 30
0.0
 41
1.0
 10
938.3586686989557
 20
-1345.821334646275
 30
0.0
 41
1.0
 10
938.3695986386547
 20
-1345.883581153569
 30
0.0
 41
0.9994985982137418
 10
938.3765668038316
 20
-1345.946394654711
 30
0.0
 41
1.0
 10
938.3835349690083
 20
-1346.009208155848
 30
0.0
 41
0.9996372611200992
 10
938.3871108347761
 20
-1346.072305734531
 30
0.0
 41
1.0
 10
938.3872794122656
 20
-1346.075280351615
 30
0.0
 41
1.0
 10
938.387447989755
 20
-1346.0782549687
 30
0.0
 41
1.0
 10
938.3913610105012
 20
-1346.147301781544
 30
0.0
 41
0.9997730630736238
 10
938.3923293239893
 20
-1346.216452605576
 30
0.0
 41
1.0
 10
938.3923864304074
 20
-1346.22053078472
 30
0.0
 41
1.0
 10
938.3924435368256
 20
-1346.224608963864
 30
0.0
 41
1.0
 10
938.3935260631498
 20
-1346.301916146185
 30
0.0
 41
0.9998772614069082
 10
938.392185976418
 20
-1346.379219292753
 30
0.0
 41
1.0
 10
938.3920967132193
 20
-1346.384368456585
 30
0.0
 41
1.0
 10
938.3920074500206
 20
-1346.389517620416
 30
0.0
 41
1.0
 10
938.3904888368914
 20
-1346.477119094651
 30
0.0
 41
0.9999415567326905
 10
938.387076526645
 20
-1346.564667256336
 30
0.0
 41
1.0
 10
938.3868352059699
 20
-1346.570858716068
 30
0.0
 41
1.0
 10
938.3865938852948
 20
-1346.5770501758
 30
0.0
 41
1.0
 10
938.382698933698
 20
-1346.676981256959
 30
0.0
 41
0.9999716810434098
 10
938.3773003505797
 20
-1346.776842395179
 30
0.0
 41
1.0
 10
938.374087551791
 20
-1346.836271644834
 30
0.0
 41
1.0
 10
938.3708747530025
 20
-1346.895700894489
 30
0.0
 41
1.0
 10
938.3628008438498
 20
-1347.045049295772
 30
0.0
 41
0.9999819129906373
 10
938.3529310522329
 20
-1347.194289773485
 30
0.0
 41
1.0
 10
938.3430612606163
 20
-1347.343530251197
 30
0.0
 41
1.0
 10
938.3406219400524
 20
-1347.380723297046
 30
0.0
 41
1.0
 10
938.3633201738828
 20
-1347.341982299718
 30
0.0
 41
0.9999982127994569
 10
938.3861647326473
 20
-1347.303327405744
 30
0.0
 41
1.0
 10
938.4130742925279
 20
-1347.257794191696
 30
0.0
 41
1.0
 10
938.4399838524085
 20
-1347.212260977648
 30
0.0
 41
1.0
 10
938.516647530934
 20
-1347.082539655579
 30
0.0
 41
0.9998609190057378
 10
938.5975948437966
 20
-1346.955447273649
 30
0.0
 41
1.0
 10
938.6272431652792
 20
-1346.90889754069
 30
0.0
 41
1.0
 10
938.6568914867619
 20
-1346.862347807731
 30
0.0
 41
1.0
 10
938.7391637069984
 20
-1346.733175237737
 30
0.0
 41
0.99990676097348
 10
938.8249327164608
 20
-1346.606297548298
 30
0.0
 41
1.0
 10
938.8273374196605
 20
-1346.602740282245
 30
0.0
 41
1.0
 10
938.8297421228601
 20
-1346.599183016192
 30
0.0
 41
1.0
 10
938.9107017259212
 20
-1346.479419858862
 30
0.0
 41
0.9998784952150989
 10
938.9953553356062
 20
-1346.362238642148
 30
0.0
 41
1.0
 10
939.0800089452869
 20
-1346.24505742544
 30
0.0
 41
0.9998532968284253
 10
939.1686265661086
 20
-1346.130844516971
 30
0.0
 41
1.0
 10
939.188588355101
 20
-1346.105117195949
 30
0.0
 41
1.0
 10
939.2085501440936
 20
-1346.079389874927
 30
0.0
 41
1.0
 10
939.3270341938519
 20
-1345.92668426396
 30
0.0
 41
0.9991551975795396
 10
939.4576586434748
 20
-1345.784224701877
 30
0.0
 41
1.0
 10
939.4611682594532
 20
-1345.780397100254
 30
0.0
 41
1.0
 10
939.4646778754316
 20
-1345.776569498631
 30
0.0
 41
1.0
 10
939.5882830930965
 20
-1345.641765139795
 30
0.0
 41
0.9997418144181018
 10
939.7178852327988
 20
-1345.512715729181
 30
0.0
 41
1.0
 10
939.8474873724988
 20
-1345.383666318569
 30
0.0
 41
0.9989238204633436
 10
939.9884899207489
 20
-1345.267181356531
 30
0.0
 41
1.0
 10
940.0337375988888
 20
-1345.229801364922
 30
0.0
 41
1.0
 10
940.0789852770289
 20
-1345.192421373313
 30
0.0
 41
1.0
 10
940.2192253342513
 20
-1345.076566320021
 30
0.0
 41
0.9990825084096853
 10
940.368865266855
 20
-1344.973137322188
 30
0.0
 41
1.0
 10
940.3789106309085
 20
-1344.966194109111
 30
0.0
 41
1.0
 10
940.3889559949621
 20
-1344.959250896034
 30
0.0
 41
1.0
 10
940.518505199454
 20
-1344.869708324358
 30
0.0
 41
0.9998164899825488
 10
940.6513894028352
 20
-1344.785194082839
 30
0.0
 41
1.0
 10
940.6632349633619
 20
-1344.777660316312
 30
0.0
 41
1.0
 10
940.6750805238887
 20
-1344.770126549786
 30
0.0
 41
1.0
 10
940.7842736062125
 20
-1344.700679841322
 30
0.0
 41
0.999747344913069
 10
940.8964775634608
 20
-1344.636210883507
 30
0.0
 41
1.0
 10
941.0086815207092
 20
-1344.571741925692
 30
0.0
 41
0.9999327861147479
 10
941.1223501314688
 20
-1344.509891934012
 30
0.0
 41
1.0
 10
941.1229021340321
 20
-1344.509591575332
 30
0.0
 41
1.0
 10
941.1234541365952
 20
-1344.509291216651
 30
0.0
 41
1.0
 10
941.2382267524795
 20
-1344.446840507612
 30
0.0
 41
0.9996956420483157
 10
941.3559400783207
 20
-1344.390127040636
 30
0.0
 41
1.0
 10
941.3863804832122
 20
-1344.375461063907
 30
0.0
 41
1.0
 10
941.4168208881035
 20
-1344.360795087178
 30
0.0
 41
1.0
 10
941.5197979948473
 20
-1344.311181428734
 30
0.0
 41
0.9998070570175864
 10
941.6246443837905
 20
-1344.265650841832
 30
0.0
 41
1.0
 10
941.7294907727335
 20
-1344.220120254931
 30
0.0
 41
0.999782743614761
 10
941.8361437093431
 20
-1344.178999083619
 30
0.0
 41
1.0
 10
941.8553665589736
 20
-1344.171587509987
 30
0.0
 41
1.0
 10
941.8745894086042
 20
-1344.164175936355
 30
0.0
 41
1.0
 10
942.0196880444776
 20
-1344.108231617778
 30
0.0
 41
0.9988031841976367
 10
942.169558407082
 20
-1344.06673155361
 30
0.0
 41
1.0
 10
942.194475655446
 20
-1344.059831807803
 30
0.0
 41
1.0
 10
942.2193929038101
 20
-1344.052932061996
 30
0.0
 41
1.0
 10
942.3866629294564
 20
-1344.006613919589
 30
0.0
 41
0.9984748040550027
 10
942.5580198381041
 20
-1343.979019687325
 30
0.0
 41
1.0
 10
942.5627589743532
 20
-1343.978256526811
 30
0.0
 41
1.0
 10
942.5674981106023
 20
-1343.977493366298
 30
0.0
 41
1.0
 10
942.7293767467531
 20
-1343.95142545506
 30
0.0
 41
0.9984436495479933
 10
942.8931514904777
 20
-1343.943547501241
 30
0.0
 41
1.0
 10
942.914848698609
 20
-1343.942503814042
 30
0.0
 41
1.0
 10
942.9365459067403
 20
-1343.941460126842
 30
0.0
 41
1.0
 10
943.0569262342024
 20
-1343.935669547423
 30
0.0
 41
0.9987954789335233
 10
943.1772944791123
 20
-1343.941706075165
 30
0.0
 41
1.0
 10
943.1972592716081
 20
-1343.942707319503
 30
0.0
 41
1.0
 10
943.217224064104
 20
-1343.943708563842
 30
0.0
 41
1.0
 10
943.2976627240237
 20
-1343.947742602907
 30
0.0
 41
0.9997941595877502
 10
943.3778715021166
 20
-1343.955036668828
 30
0.0
 41
1.0
 10
943.4580802802146
 20
-1343.96233073475
 30
0.0
 41
0.9998589466236496
 10
943.5379988270732
 20
-1343.9723145892
 30
0.0
 41
1.0
 10
943.5704050288779
 20
-1343.976362946119
 30
0.0
 41
1.0
 10
943.6028112306825
 20
-1343.980411303038
 30
0.0
 41
1.0
 10
943.7475421811531
 20
-1343.998491871326
 30
0.0
 41
0.999349506324908
 10
943.8905934249179
 20
-1344.026957581068
 30
0.0
 41
1.0
 10
943.9235271220716
 20
-1344.033511044283
 30
0.0
 41
1.0
 10
943.9564608192254
 20
-1344.040064507498
 30
0.0
 41
1.0
 10
944.0657546424286
 20
-1344.061812841633
 30
0.0
 41
0.9996788715561211
 10
944.1738062143846
 20
-1344.089070640996
 30
0.0
 41
1.0
 10
944.1758692169242
 20
-1344.089591067569
 30
0.0
 41
1.0
 10
944.1779322194639
 20
-1344.090111494142
 30
0.0
 41
1.0
 10
944.2818577863418
 20
-1344.116328440359
 30
0.0
 41
0.9995480654492639
 10
944.3840200215704
 20
-1344.148743396983
 30
0.0
 41
1.0
 10
944.3857096636996
 20
-1344.149279501897
 30
0.0
 41
1.0
 10
944.3873993058286
 20
-1344.149815606811
 30
0.0
 41
1.0
 10
944.4861822567998
 20
-1344.181158353608
 30
0.0
 41
0.9993867959456058
 10
944.5825294152424
 20
-1344.219337722898
 30
0.0
 41
1.0
 10
944.5837723643266
 20
-1344.219830264793
 30
0.0
 41
1.0
 10
944.5850153134107
 20
-1344.220322806689
 30
0.0
 41
1.0
 10
944.6788765736845
 20
-1344.257517092187
 30
0.0
 41
0.9992050256521701
 10
944.7694762487183
 20
-1344.302070991426
 30
0.0
 41
1.0
 10
944.7702109314317
 20
-1344.302432283887
 30
0.0
 41
1.0
 10
944.7709456141451
 20
-1344.302793576349
 30
0.0
 41
1.0
 10
944.8600759237526
 20
-1344.346624890665
 30
0.0
 41
0.9990222350741896
 10
944.9449859851454
 20
-1344.398158158363
 30
0.0
 41
1.0
 10
944.9451698704281
 20
-1344.398269761268
 30
0.0
 41
1.0
 10
944.9453537557107
 20
-1344.398381364173
 30
0.0
 41
1.0
 10
945.0298960465386
 20
-1344.449691426061
 30
0.0
 41
0.9988642743805378
 10
945.109170581158
 20
-1344.508815613587
 30
0.0
 41
1.0
 10
945.1884451157778
 20
-1344.567939801113
 30
0.0
 41
0.9987681233310948
 10
945.2614689000537
 20
-1344.634630492513
 30
0.0
 41
1.0
 10
945.2617978280193
 20
-1344.634930893727
 30
0.0
 41
1.0
 10
945.2621267559848
 20
-1344.635231294941
 30
0.0
 41
1.0
 10
945.3358083961925
 20
-1344.70252278877
 30
0.0
 41
0.9987496570898327
 10
945.4024022015196
 20
-1344.776835602857
 30
0.0
 41
1.0
 10
945.4031743712801
 20
-1344.777697276215
 30
0.0
 41
1.0
 10
945.4039465410406
 20
-1344.778558949573
 30
0.0
 41
1.0
 10
945.4720846858877
 20
-1344.854595110374
 30
0.0
 41
0.9988147669826568
 10
945.5325069401127
 20
-1344.936896117216
 30
0.0
 41
1.0
 10
945.5336262661909
 20
-1344.93842074857
 30
0.0
 41
1.0
 10
945.5347455922691
 20
-1344.939945379923
 30
0.0
 41
1.0
 10
945.5974064986501
 20
-1345.025295649471
 30
0.0
 41
0.9989452636216534
 10
945.6519734116112
 20
-1345.116034338628
 30
0.0
 41
1.0
 10
945.6533221376967
 20
-1345.118277119655
 30
0.0
 41
1.0
 10
945.6546708637823
 20
-1345.12051990068
 30
0.0
 41
1.0
 10
945.7119352289151
 20
-1345.21574415189
 30
0.0
 41
0.9991046436070149
 10
945.7609444422367
 20
-1345.315468584916
 30
0.0
 41
1.0
 10
945.7624083038266
 20
-1345.318447264989
 30
0.0
 41
1.0
 10
945.7638721654166
 20
-1345.321425945061
 30
0.0
 41
1.0
 10
945.8158091019185
 20
-1345.427107738232
 30
0.0
 41
0.9992763831100686
 10
945.8595622304736
 20
-1345.536431800188
 30
0.0
 41
1.0
 10
945.8610415001368
 20
-1345.540127987721
 30
0.0
 41
1.0
 10
945.8625207698001
 20
-1345.543824175254
 30
0.0
 41
1.0
 10
945.909232437682
 20
-1345.660540612278
 30
0.0
 41
0.9994163472883417
 10
945.9478654688706
 20
-1345.780174200739
 30
0.0
 41
1.0
 10
945.9491036211176
 20
-1345.784008344522
 30
0.0
 41
1.0
 10
945.9503417733646
 20
-1345.787842488306
 30
0.0
 41
1.0
 10
945.9902253343828
 20
-1345.911348549787
 30
0.0
 41
0.9997268055890305
 10
946.0242933902944
 20
-1346.036583581736
 30
0.0
 41
1.0
 10
946.0252235705634
 20
-1346.040002947843
 30
0.0
 41
1.0
 10
946.0261537508323
 20
-1346.04342231395
 30
0.0
 41
1.0
 10
946.0583614462054
 20
-1346.161818613682
 30
0.0
 41
0.9996701318999964
 10
946.0844470629768
 20
-1346.28171256695
 30
0.0
 41
1.0
 10
946.1105326797467
 20
-1346.40160652021
 30
0.0
 41
0.9995785451109173
 10
946.1296162570865
 20
-1346.522812281242
 30
0.0
 41
1.0
 10
946.1338360392606
 20
-1346.549613436009
 30
0.0
 41
1.0
 10
946.1380558214346
 20
-1346.576414590776
 30
0.0
 41
1.0
 10
946.164630797373
 20
-1346.745200564478
 30
0.0
 41
0.9979925101216898
 10
946.1696563832994
 20
-1346.91599189257
 30
0.0
 41
1.0
 10
946.170481195724
 20
-1346.944022616047
 30
0.0
 41
1.0
 10
946.1713060081486
 20
-1346.972053339523
 30
0.0
 41
1.0
 10
946.1746819692261
 20
-1347.086783220655
 30
0.0
 41
0.9995314902262715
 10
946.1710317770873
 20
-1347.201504704414
 30
0.0
 41
1.0
 10
946.1673815849491
 20
-1347.316226188162
 30
0.0
 41
0.9996245486943958
 10
946.1574524898181
 20
-1347.430575459288
 30
0.0
 41
1.0
 10
946.1572894418238
 20
-1347.432453215424
 30
0.0
 41
1.0
 10
946.1571263938295
 20
-1347.43433097156
 30
0.0
 41
1.0
 10
946.1468712027093
 20
-1347.55243575496
 30
0.0
 41
0.9997286095001247
 10
946.131125879138
 20
-1347.669934663854
 30
0.0
 41
1.0
 10
946.130732386488
 20
-1347.672871088554
 30
0.0
 41
1.0
 10
946.1303388938379
 20
-1347.675807513253
 30
0.0
 41
1.0
 10
946.1138065849666
 20
-1347.799179271547
 30
0.0
 41
0.9998265533969509
 10
946.0926911262345
 20
-1347.921849746332
 30
0.0
 41
1.0
 10
946.0920145840967
 20
-1347.925780124843
 30
0.0
 41
1.0
 10
946.0913380419588
 20
-1347.929710503355
 30
0.0
 41
1.0
 10
946.0688694989512
 20
-1348.060241735162
 30
0.0
 41
0.9999022530854565
 10
946.042760034341
 20
-1348.190093703802
 30
0.0
 41
1.0
 10
946.041781393176
 20
-1348.194960846187
 30
0.0
 41
1.0
 10
946.0408027520112
 20
-1348.199827988572
 30
0.0
 41
1.0
 10
946.0127360050691
 20
-1348.339414241992
 30
0.0
 41
0.9999524761934924
 10
945.9819530362328
 20
-1348.478426735163
 30
0.0
 41
1.0
 10
945.9806769290587
 20
-1348.484189494458
 30
0.0
 41
1.0
 10
945.9794008218848
 20
-1348.489952253754
 30
0.0
 41
1.0
 10
945.9460656386982
 20
-1348.640490265527
 30
0.0
 41
0.9999813588737747
 10
945.9108946379008
 20
-1348.79060997819
 30
0.0
 41
1.0
 10
945.9093407124456
 20
-1348.797242568607
 30
0.0
 41
1.0
 10
945.9077867869903
 20
-1348.803875159024
 30
0.0
 41
1.0
 10
945.8695079352854
 20
-1348.967260052507
 30
0.0
 41
0.9999955237628675
 10
945.8302520572996
 20
-1349.130412956136
 30
0.0
 41
1.0
 10
945.8179704216659
 20
-1349.181457146657
 30
0.0
 41
1.0
 10
945.8056887860321
 20
-1349.232501337177
 30
0.0
 41
1.0
 10
945.7418696367791
 20
-1349.497742621845
 30
0.0
 41
0.9999993604332911
 10
945.6774506896319
 20
-1349.762838872443
 30
0.0
 41
1.0
 10
945.6727318540763
 20
-1349.782257780519
 30
0.0
 41
1.0
 10
945.6680130185208
 20
-1349.801676688594
 30
0.0
 41
1.0
 10
945.594156400261
 20
-1350.105610755352
 30
0.0
 41
0.999965991472191
 10
945.5152968043761
 20
-1350.408285301909
 30
0.0
 41
1.0
 10
945.5103441154449
 20
-1350.427294439093
 30
0.0
 41
1.0
 10
945.5053914265138
 20
-1350.446303576278
 30
0.0
 41
1.0
 10
945.4166264527704
 20
-1350.78699639719
 30
0.0
 41
0.9999441976024506
 10
945.3206834198081
 20
-1351.125737822485
 30
0.0
 41
1.0
 10
945.303982901381
 20
-1351.184701535018
 30
0.0
 41
1.0
 10
945.2872823829539
 20
-1351.243665247551
 30
0.0
 41
1.0
 10
945.157938313139
 20
-1351.700334097906
 30
0.0
 41
0.9999625120735777
 10
945.0207055458154
 20
-1352.154694631903
 30
0.0
 41
1.0
 10
944.9849156027323
 20
-1352.27319065853
 30
0.0
 41
1.0
 10
944.9491256596491
 20
-1352.391686685158
 30
0.0
 41
1.0
 10
944.8746054556091
 20
-1352.638413763257
 30
0.0
 41
0.9999793386305091
 10
944.7969194324712
 20
-1352.884162402494
 30
0.0
 41
1.0
 10
944.7192334093337
 20
-1353.12991104173
 30
0.0
 41
1.0
 10
944.708453850463
 20
-1353.163928946105
 30
0.0
 41
1.0
 10
942.8580807971939
 20
-1359.051000868572
 30
0.0
 41
1.0
 10
941.0077077439247
 20
-1364.93807279104
 30
0.0
 41
1.0
 10
940.0464510539011
 20
-1364.93807279104
 30
0.0
 41
1.0
 10
939.0851943638776
 20
-1364.93807279104
 30
0.0
 41
1.0
 10
940.704139142556
 20
-1359.79004428925
 30
0.0
 41
1.0
 10
942.3230839212345
 20
-1354.642015787461
 30
0.0
 41
1.0
 10
942.3682497444047
 20
-1354.497984565204
 30
0.0
 41
1.0
 10
942.4134155675748
 20
-1354.353953342947
 30
0.0
 41
1.0
 10
942.5837199849386
 20
-1353.810862313782
 30
0.0
 41
0.999991165788255
 10
942.749452796626
 20
-1353.266358782395
 30
0.0
 41
1.0
 10
942.7791487401271
 20
-1353.168794842342
 30
0.0
 41
1.0
 10
942.8088446836282
 20
-1353.071230902289
 30
0.0
 41
1.0
 10
942.9151856083066
 20
-1352.72185525103
 30
0.0
 41
0.9999952428160223
 10
943.0193691976312
 20
-1352.371830226682
 30
0.0
 41
1.0
 10
943.0244286679647
 20
-1352.354831952403
 30
0.0
 41
1.0
 10
943.0294881382982
 20
-1352.337833678124
 30
0.0
 41
1.0
 10
943.1235527869537
 20
-1352.02180520234
 30
0.0
 41
0.9999931687505125
 10
943.2152786248298
 20
-1351.705089989061
 30
0.0
 41
1.0
 10
943.220213889289
 20
-1351.688049279791
 30
0.0
 41
1.0
 10
943.2251491537482
 20
-1351.671008570521
 30
0.0
 41
1.0
 10
943.3070044627038
 20
-1351.38837477579
 30
0.0
 41
0.9999893840823655
 10
943.3862516891603
 20
-1351.104998646544
 30
0.0
 41
1.0
 10
943.4654989156154
 20
-1350.821622517305
 30
0.0
 41
0.9999833980059574
 10
943.5414751563534
 20
-1350.53735193429
 30
0.0
 41
1.0
 10
943.5504790930797
 20
-1350.503663055796
 30
0.0
 41
1.0
 10
943.5594830298061
 20
-1350.469974177303
 30
0.0
 41
1.0
 10
943.6284475786715
 20
-1350.21193834501
 30
0.0
 41
0.9999233658066331
 10
943.6910025498906
 20
-1349.952274186291
 30
0.0
 41
1.0
 10
943.7535575211109
 20
-1349.692610027569
 30
0.0
 41
1.0
 10
943.7930409399685
 20
-1349.528803363143
 30
0.0
 41
1.0
 10
943.7980195439475
 20
-1349.508148401265
 30
0.0
 41
1.0
 10
943.8029981479264
 20
-1349.487493439388
 30
0.0
 41
1.0
 10
943.8325243588286
 20
-1349.364996698707
 30
0.0
 41
0.9999868670869415
 10
943.8607934428222
 20
-1349.242203753071
 30
0.0
 41
1.0
 10
943.8646909299814
 20
-1349.225274165648
 30
0.0
 41
1.0
 10
943.8685884171406
 20
-1349.208344578225
 30
0.0
 41
1.0
 10
943.8890625268212
 20
-1349.119410807414
 30
0.0
 41
0.9999778173351102
 10
943.9083501249338
 20
-1349.030212190195
 30
0.0
 41
1.0
 10
943.9276377230512
 20
-1348.941013572955
 30
0.0
 41
0.9999602692864088
 10
943.9453320816825
 20
-1348.851485284526
 30
0.0
 41
1.0
 10
943.9485359137589
 20
-1348.835274829647
 30
0.0
 41
1.0
 10
943.9517397458353
 20
-1348.819064374767
 30
0.0
 41
1.0
 10
943.9758417686221
 20
-1348.697115176565
 30
0.0
 41
0.9995617985320554
 10
943.9926851158408
 20
-1348.573953428858
 30
0.0
 41
1.0
 10
943.9951496057465
 20
-1348.555932611496
 30
0.0
 41
1.0
 10
943.9976140956522
 20
-1348.537911794134
 30
0.0
 41
1.0
 10
944.0178973567007
 20
-1348.389596744431
 30
0.0
 41
0.999112141063986
 10
944.0256227102891
 20
-1348.240100645625
 30
0.0
 41
1.0
 10
944.0265415003137
 20
-1348.222320809048
 30
0.0
 41
1.0
 10
944.0274602903382
 20
-1348.204540972472
 30
0.0
 41
1.0
 10
944.0333480638774
 20
-1348.090604546818
 30
0.0
 41
0.9989792494905241
 10
944.02892897176
 20
-1347.97660171092
 30
0.0
 41
1.0
 10
944.0282809998913
 20
-1347.959885464992
 30
0.0
 41
1.0
 10
944.0276330280226
 20
-1347.943169219064
 30
0.0
 41
1.0
 10
944.0245098796427
 20
-1347.862598875021
 30
0.0
 41
0.9997820295393856
 10
944.018025882267
 20
-1347.782229153278
 30
0.0
 41
1.0
 10
944.0115418848914
 20
-1347.701859431534
 30
0.0
 41
0.9998335105973902
 10
944.0021296893797
 20
-1347.621779815084
 30
0.0
 41
1.0
 10
944.0005347647033
 20
-1347.608210084601
 30
0.0
 41
1.0
 10
943.9989398400269
 20
-1347.594640354117
 30
0.0
 41
1.0
 10
943.9863377951629
 20
-1347.487421276704
 30
0.0
 41
0.9996876457879258
 10
943.9683938823642
 20
-1347.380965848986
 30
0.0
 41
1.0
 10
943.966162219219
 20
-1347.367726113744
 30
0.0
 41
1.0
 10
943.9639305560737
 20
-1347.354486378503
 30
0.0
 41
1.0
 10
943.9501347346522
 20
-1347.272640234542
 30
0.0
 41
0.9995547496494763
 10
943.9314814127599
 20
-1347.191762737352
 30
0.0
 41
1.0
 10
943.9311074558887
 20
-1347.190141326647
 30
0.0
 41
1.0
 10
943.9307334990173
 20
-1347.188519915941
 30
0.0
 41
1.0
 10
943.9128280908677
 20
-1347.110885240163
 30
0.0
 41
0.9994899427175575
 10
943.8900031821879
 20
-1347.034551957327
 30
0.0
 41
1.0
 10
943.889544655447
 20
-1347.033018507537
 30
0.0
 41
1.0
 10
943.889086128706
 20
-1347.031485057748
 30
0.0
 41
1.0
 10
943.8671782735089
 20
-1346.958218674494
 30
0.0
 41
0.9993784877591197
 10
943.840162638402
 20
-1346.886677969333
 30
0.0
 41
1.0
 10
943.8396309474251
 20
-1346.885269986613
 30
0.0
 41
1.0
 10
943.8390992564482
 20
-1346.883862003892
 30
0.0
 41
1.0
 10
943.8131470032953
 20
-1346.815137264174
 30
0.0
 41
0.9992430832254525
 10
943.7819304681361
 20
-1346.748638112106
 30
0.0
 41
1.0
 10
943.7813483520797
 20
-1346.747398056989
 30
0.0
 41
1.0
 10
943.7807662360233
 20
-1346.746158001872
 30
0.0
 41
1.0
 10
943.7507139329771
 20
-1346.682138960038
 30
0.0
 41
0.9990789632797902
 10
943.7152833062
 20
-1346.620932348288
 30
0.0
 41
1.0
 10
943.7146876000179
 20
-1346.619903262429
 30
0.0
 41
1.0
 10
943.7140918938358
 20
-1346.618874176569
 30
0.0
 41
1.0
 10
943.6798526794232
 20
-1346.559725736538
 30
0.0
 41
0.9988874801119577
 10
943.6401934033913
 20
-1346.504066024121
 30
0.0
 41
1.0
 10
943.6396378773268
 20
-1346.503286372445
 30
0.0
 41
1.0
 10
943.6390823512622
 20
-1346.50250672077
 30
0.0
 41
1.0
 10
943.6005341273587
 20
-1346.448406311702
 30
0.0
 41
0.9986762060692644
 10
943.556631656083
 20
-1346.398552597263
 30
0.0
 41
1.0
 10
943.5561876957512
 20
-1346.398048455447
 30
0.0
 41
1.0
 10
943.5557437354194
 20
-1346.397544313631
 30
0.0
 41
1.0
 10
943.5127291848072
 20
-1346.348698882825
 30
0.0
 41
0.9984621642489411
 10
943.464571628029
 20
-1346.304915582353
 30
0.0
 41
1.0
 10
943.4643249935124
 20
-1346.30469135019
 30
0.0
 41
1.0
 10
943.4640783589957
 20
-1346.304467118026
 30
0.0
 41
1.0
 10
943.4164140712512
 20
-1346.261132281882
 30
0.0
 41
0.9982724693850277
 10
943.3639954394098
 20
-1346.223687931365
 30
0.0
 41
1.0
 10
943.311576807568
 20
-1346.186243580846
 30
0.0
 41
0.9981399180157394
 10
943.2549907441745
 20
-1346.155457061403
 30
0.0
 41
1.0
 10
943.2549450820964
 20
-1346.155432218246
 30
0.0
 41
1.0
 10
943.2548994200181
 20
-1346.155407375089
 30
0.0
 41
1.0
 10
943.1982220324678
 20
-1346.124571169331
 30
0.0
 41
0.9980927086836943
 10
943.1381766814015
 20
-1346.100954360479
 30
0.0
 41
1.0
 10
943.1377365116898
 20
-1346.100781234604
 30
0.0
 41
1.0
 10
943.1372963419781
 20
-1346.100608108729
 30
0.0
 41
1.0
 10
943.0763706514875
 20
-1346.076645048126
 30
0.0
 41
0.9981411356561379
 10
943.0129821300873
 20
-1346.06027240662
 30
0.0
 41
1.0
 10
943.0121000133867
 20
-1346.060044564415
 30
0.0
 41
1.0
 10
943.011217896686
 20
-1346.05981672221
 30
0.0
 41
1.0
 10
942.946065141885
 20
-1346.042988396293
 30
0.0
 41
0.9983031812935299
 10
942.8793977128913
 20
-1346.033849035117
 30
0.0
 41
1.0
 10
942.8705266874854
 20
-1346.032632916446
 30
0.0
 41
1.0
 10
942.8616556620793
 20
-1346.031416797774
 30
0.0
 41
1.0
 10
942.8073060195762
 20
-1346.023966067783
 30
0.0
 41
0.9983887708263414
 10
942.7524621702843
 20
-1346.02272139415
 30
0.0
 41
1.0
 10
942.7443987650687
 20
-1346.022538396275
 30
0.0
 41
1.0
 10
942.7363353598531
 20
-1346.0223553984
 30
0.0
 41
1.0
 10
942.6976183209935
 20
-1346.021476720517
 30
0.0
 41
0.999886956307876
 10
942.6588923677888
 20
-1346.021762589876
 30
0.0
 41
1.0
 10
942.6201664145808
 20
-1346.022048459236
 30
0.0
 41
0.9999972320124223
 10
942.5814422353643
 20
-1346.022516558765
 30
0.0
 41
1.0
 10
942.5620892187899
 20
-1346.022750498854
 30
0.0
 41
1.0
 10
942.5427362022153
 20
-1346.022984438944
 30
0.0
 41
1.0
 10
942.4653059898483
 20
-1346.023920418652
 30
0.0
 41
0.99973049450882
 10
942.3880026836143
 20
-1346.028449512437
 30
0.0
 41
1.0
 10
942.3789530419065
 20
-1346.028979718428
 30
0.0
 41
1.0
 10
942.3699034001985
 20
-1346.029509924418
 30
0.0
 41
1.0
 10
942.2745008105535
 20
-1346.035099430183
 30
0.0
 41
0.9997888306415968
 10
942.1794084747122
 20
-1346.044604394672
 30
0.0
 41
1.0
 10
942.1706874131382
 20
-1346.045476109304
 30
0.0
 41
1.0
 10
942.1619663515643
 20
-1346.046347823937
 30
0.0
 41
1.0
 10
942.0494318925757
 20
-1346.05759621769
 30
0.0
 41
0.9984170238191028
 10
941.9388727452242
 20
-1346.081412299626
 30
0.0
 41
1.0
 10
941.902491614238
 20
-1346.089249335432
 30
0.0
 41
1.0
 10
941.8661104832518
 20
-1346.097086371238
 30
0.0
 41
1.0
 10
941.7509194148305
 20
-1346.121900237748
 30
0.0
 41
0.9976592854199005
 10
941.6401912484255
 20
-1346.162198914895
 30
0.0
 41
1.0
 10
941.5294630820209
 20
-1346.202497592042
 30
0.0
 41
0.9993255074352395
 10
941.4219912832305
 20
-1346.250814490534
 30
0.0
 41
1.0
 10
941.4173661043068
 20
-1346.252893866734
 30
0.0
 41
1.0
 10
941.4127409253831
 20
-1346.254973242934
 30
0.0
 41
1.0
 10
941.2960187687468
 20
-1346.307448893825
 30
0.0
 41
0.9976475078275494
 10
941.1875714244364
 20
-1346.375396883484
 30
0.0
 41
1.0
 10
941.1692290303018
 20
-1346.386889362298
 30
0.0
 41
1.0
 10
941.1508866361672
 20
-1346.398381841112
 30
0.0
 41
1.0
 10
941.0666844446151
 20
-1346.451138961881
 30
0.0
 41
0.9995131336407198
 10
940.9859367296561
 20
-1346.509045173835
 30
0.0
 41
1.0
 10
940.9051890147008
 20
-1346.566951385787
 30
0.0
 41
0.9995810107606381
 10
940.8279273669718
 20
-1346.629433068253
 30
0.0
 41
1.0
 10
940.8249573357608
 20
-1346.631834939718
 30
0.0
 41
1.0
 10
940.8219873045498
 20
-1346.634236811183
 30
0.0
 41
1.0
 10
940.7387855943994
 20
-1346.701522236579
 30
0.0
 41
0.9996617837954935
 10
940.6591949072622
 20
-1346.773042692141
 30
0.0
 41
1.0
 10
940.6470641563863
 20
-1346.783943425131
 30
0.0
 41
1.0
 10
940.6349334055103
 20
-1346.79484415812
 30
0.0
 41
1.0
 10
940.5666578781132
 20
-1346.856196773593
 30
0.0
 41
0.9997267750052307
 10
940.5013243698304
 20
-1346.920673310118
 30
0.0
 41
1.0
 10
940.4359908615447
 20
-1346.985149846645
 30
0.0
 41
0.9999667288956335
 10
940.371717918389
 20
-1347.050683653549
 30
0.0
 41
1.0
 10
940.3028904706193
 20
-1347.120861312301
 30
0.0
 41
1.0
 10
940.2340630228498
 20
-1347.191038971054
 30
0.0
 41
1.0
 10
940.0321351841504
 20
-1347.396928095468
 30
0.0
 41
0.9988205335174498
 10
939.8511295671702
 20
-1347.62143232753
 30
0.0
 41
1.0
 10
939.8204896022671
 20
-1347.659435577958
 30
0.0
 41
1.0
 10
939.7898496373641
 20
-1347.697438828385
 30
0.0
 41
1.0
 10
939.5475640905732
 20
-1347.997949561308
 30
0.0
 41
0.9997077826755066
 10
939.3200861394666
 20
-1348.309819355527
 30
0.0
 41
1.0
 10
939.3183627243378
 20
-1348.312182138904
 30
0.0
 41
1.0
 10
939.316639309209
 20
-1348.314544922281
 30
0.0
 41
1.0
 10
939.0857145278422
 20
-1348.631140283258
 30
0.0
 41
0.9989147567078731
 10
938.885251024958
 20
-1348.967849744444
 30
0.0
 41
1.0
 10
938.8605098796531
 20
-1349.009406324993
 30
0.0
 41
1.0
 10
938.8357687343481
 20
-1349.050962905542
 30
0.0
 41
1.0
 10
938.680557435708
 20
-1349.311664289999
 30
0.0
 41
0.9997476598181834
 10
938.5372124481985
 20
-1349.579074038582
 30
0.0
 41
1.0
 10
938.3938674606889
 20
-1349.846483787164
 30
0.0
 41
0.9996258967109621
 10
938.2653592087572
 20
-1350.121331723788
 30
0.0
 41
1.0
 10
938.2521592993053
 20
-1350.149563123889
 30
0.0
 41
1.0
 10
938.2389593898534
 20
-1350.177794523989
 30
0.0
 41
1.0
 10
938.0987506688575
 20
-1350.477666921934
 30
0.0
 41
0.9998735413946722
 10
937.9681493221374
 20
-1350.7818465214
 30
0.0
 41
1.0
 10
937.964706494078
 20
-1350.789865106863
 30
0.0
 41
1.0
 10
937.9612636660187
 20
-1350.797883692325
 30
0.0
 41
1.0
 10
937.8375479754168
 20
-1351.086026120869
 30
0.0
 41
0.9999377418858403
 10
937.7202931732422
 20
-1351.376857588543
 30
0.0
 41
1.0
 10
937.6030383710658
 20
-1351.667689056222
 30
0.0
 41
0.9999508299510196
 10
937.4915744276889
 20
-1351.960788733043
 30
0.0
 41
1.0
 10
937.4884936590269
 20
-1351.968889759005
 30
0.0
 41
1.0
 10
937.4854128903648
 20
-1351.976990784968
 30
0.0
 41
1.0
 10
937.3677874096627
 20
-1352.286292513716
 30
0.0
 41
0.999960922843368
 10
937.2556488067878
 20
-1352.597625529735
 30
0.0
 41
1.0
 10
937.2526927964385
 20
-1352.605832370143
 30
0.0
 41
1.0
 10
937.2497367860892
 20
-1352.614039210552
 30
0.0
 41
1.0
 10
937.1316861625207
 20
-1352.941785907373
 30
0.0
 41
0.9999674607398844
 10
937.0189386364513
 20
-1353.271394527371
 30
0.0
 41
1.0
 10
936.9675402458863
 20
-1353.42165372307
 30
0.0
 41
1.0
 10
936.9161418553213
 20
-1353.57191291877
 30
0.0
 41
1.0
 10
936.800131248564
 20
-1353.911060901271
 30
0.0
 41
0.9999287532305496
 10
936.6922498445942
 20
-1354.252881640244
 30
0.0
 41
1.0
 10
936.6457725884774
 20
-1354.400144184544
 30
0.0
 41
1.0
 10
936.5992953323605
 20
-1354.547406728845
 30
0.0
 41
1.0
 10
936.5843684406389
 20
-1354.594702379171
 30
0.0
 41
0.9999998222956358
 10
936.569497931893
 20
-1354.642015787461
 30
0.0
 41
1.0
 10
934.9488417950976
 20
-1359.79004428925
 30
0.0
 41
1.0
 10
933.3281856583021
 20
-1364.93807279104
 30
0.0
 41
1.0
 10
932.4228772144112
 20
-1364.93807279104
 30
0.0
 41
1.0
 10
931.5175687705203
 20
-1364.93807279104
 30
0.0
 41
1.0
 10
933.3696531819063
 20
-1359.051000868572
 30
0.0
 41
1.0
 10
935.2217375932923
 20
-1353.163928946105
 30
0.0
 41
1.0
 10
935.2318593515951
 20
-1353.131885732655
 30
0.0
 41
1.0
 10
935.3044670204448
 20
-1352.901586190829
 30
0.0
 41
1.0
 10
935.3770746892897
 20
-1352.671286649019
 30
0.0
 41
0.9999825681973007
 10
935.4469577285024
 20
-1352.44014575395
 30
0.0
 41
1.0
 10
935.4952487906652
 20
-1352.280421170448
 30
0.0
 41
1.0
 10
935.543539852828
 20
-1352.120696586945
 30
0.0
 41
1.0
 10
935.6406922061441
 20
-1351.799361365173
 30
0.0
 41
0.9999672528959805
 10
935.7326310117669
 20
-1351.476495819588
 30
0.0
 41
1.0
 10
935.7354198954347
 20
-1351.466701974205
 30
0.0
 41
1.0
 10
935.7382087791025
 20
-1351.456908128822
 30
0.0
 41
1.0
 10
935.8245698173893
 20
-1351.153630274006
 30
0.0
 41
0.9999899749175409
 10
935.9082114269249
 20
-1350.849591185549
 30
0.0
 41
1.0
 10
935.9183173459407
 20
-1350.812855947877
 30
0.0
 41
1.0
 10
935.9284232649566
 20
-1350.776120710205
 30
0.0
 41
1.0
 10
935.9918530364574
 20
-1350.545552097105
 30
0.0
 41
0.9999214200502784
 10
936.0494824648374
 20
-1350.313465754888
 30
0.0
 41
1.0
 10
936.0622483170217
 20
-1350.262054869476
 30
0.0
 41
1.0
 10
936.075014169206
 20
-1350.210643984065
 30
0.0
 41
1.0
 10
936.1071118932207
 20
-1350.081379412656
 30
0.0
 41
0.9999828681658809
 10
936.1376941452105
 20
-1349.951747938211
 30
0.0
 41
1.0
 10
936.1682763972057
 20
-1349.822116463745
 30
0.0
 41
0.9999389844479769
 10
936.1959873859945
 20
-1349.691841007847
 30
0.0
 41
1.0
 10
936.2031251297151
 20
-1349.658284904008
 30
0.0
 41
1.0
 10
936.2102628734356
 20
-1349.624728800169
 30
0.0
 41
1.0
 10
936.2522493496647
 20
-1349.427341136596
 30
0.0
 41
0.9998933699440634
 10
936.2884536140681
 20
-1349.228811528832
 30
0.0
 41
1.0
 10
936.2898264392841
 20
-1349.221283508137
 30
0.0
 41
1.0
 10
936.2911992645002
 20
-1349.213755487442
 30
0.0
 41
1.0
 10
936.330149179335
 20
-1349.000169838291
 30
0.0
 41
0.9996850305193886
 10
936.3583328555935
 20
-1348.784898832856
 30
0.0
 41
1.0
 10
936.3603278889627
 20
-1348.769660478735
 30
0.0
 41
1.0
 10
936.3623229223318
 20
-1348.754422124614
 30
0.0
 41
1.0
 10
936.3897307847909
 20
-1348.545076897459
 30
0.0
 41
0.9994697936707095
 10
936.403455344011
 20
-1348.334391702124
 30
0.0
 41
1.0
 10
936.4039324132607
 20
-1348.327068229914
 30
0.0
 41
1.0
 10
936.4044094825103
 20
-1348.319744757704
 30
0.0
 41
1.0
 10
936.4171799032307
 20
-1348.123706506794
 30
0.0
 41
0.9991804893136803
 10
936.4140515869578
 20
-1347.92727765682
 30
0.0
 41
1.0
 10
936.4139677081357
 20
-1347.922010855407
 30
0.0
 41
1.0
 10
936.4138838293136
 20
-1347.916744053994
 30
0.0
 41
1.0
 10
936.4109232706851
 20
-1347.730848806846
 30
0.0
 41
0.9988448329321524
 10
936.3901317250613
 20
-1347.546096217013
 30
0.0
 41
1.0
 10
936.3885376513583
 20
-1347.531931361242
 30
0.0
 41
1.0
 10
936.3869435776553
 20
-1347.517766505471
 30
0.0
 41
1.0
 10
936.3693401794376
 20
-1347.36134362718
 30
0.0
 41
0.9985503209458704
 10
936.3350239071381
 20
-1347.207719443091
 30
0.0
 41
1.0
 10
936.3274379150673
 20
-1347.173759115692
 30
0.0
 41
1.0
 10
936.3198519229965
 20
-1347.139798788294
 30
0.0
 41
1.0
 10
936.3007076348391
 20
-1347.054095259004
 30
0.0
 41
0.999103678137127
 10
936.2743827731872
 20
-1346.970318171676
 30
0.0
 41
1.0
 10
936.270400547731
 20
-1346.957645009165
 30
0.0
 41
1.0
 10
936.2664183222748
 20
-1346.944971846654
 30
0.0
 41
1.0
 10
936.2480579115359
 20
-1346.886541084351
 30
0.0
 41
0.9998874504367591
 10
936.2279527038577
 20
-1346.828687482128
 30
0.0
 41
1.0
 10
936.2078474961794
 20
-1346.770833879905
 30
0.0
 41
0.9994041637543277
 10
936.1837988832451
 20
-1346.714505176016
 30
0.0
 41
1.0
 10
936.1796020990209
 20
-1346.704675111533
 30
0.0
 41
1.0
 10
936.1754053147966
 20
-1346.694845047051
 30
0.0
 41
1.0
 10
936.1475264838023
 20
-1346.629544881084
 30
0.0
 41
0.999184684070209
 10
936.1144701271093
 20
-1346.566706849804
 30
0.0
 41
1.0
 10
936.1133335207141
 20
-1346.564546233349
 30
0.0
 41
1.0
 10
936.1121969143192
 20
-1346.562385616894
 30
0.0
 41
1.0
 10
936.0814137704162
 20
-1346.503868818523
 30
0.0
 41
0.9989253167921961
 10
936.0453443463612
 20
-1346.448453890133
 30
0.0
 41
1.0
 10
936.0442902216865
 20
-1346.44683439537
 30
0.0
 41
1.0
 10
936.0432360970119
 20
-1346.445214900608
 30
0.0
 41
1.0
 10
936.009274922306
 20
-1346.393038961743
 30
0.0
 41
0.9986467172835135
 10
935.9700777696689
 20
-1346.344672928114
 30
0.0
 41
1.0
 10
935.9692036409676
 20
-1346.343594325835
 30
0.0
 41
1.0
 10
935.9683295122665
 20
-1346.342515723556
 30
0.0
 41
1.0
 10
935.9308806170303
 20
-1346.296306894483
 30
0.0
 41
0.9984001104267284
 10
935.8884538865143
 20
-1346.254621787115
 30
0.0
 41
1.0
 10
935.8878667484048
 20
-1346.254044912234
 30
0.0
 41
1.0
 10
935.8872796102954
 20
-1346.253468037352
 30
0.0
 41
1.0
 10
935.8460271559966
 20
-1346.212936679746
 30
0.0
 41
0.9982442159082056
 10
935.8002710546616
 20
-1346.177568118486
 30
0.0
 41
1.0
 10
935.8000562591996
 20
-1346.177402085843
 30
0.0
 41
1.0
 10
935.7998414637375
 20
-1346.177236053199
 30
0.0
 41
1.0
 10
935.7545149533256
 20
-1346.142199557226
 30
0.0
 41
0.9982450060835437
 10
935.7053639742542
 20
-1346.112767774192
 30
0.0
 41
1.0
 10
935.656212995183
 20
-1346.083335991159
 30
0.0
 41
0.998392263963522
 10
935.6040466890175
 20
-1346.059656356505
 30
0.0
 41
1.0
 10
935.603819811693
 20
-1346.059553371023
 30
0.0
 41
1.0
 10
935.6035929343686
 20
-1346.059450385542
 30
0.0
 41
1.0
 10
935.5509728735549
 20
-1346.035564779925
 30
0.0
 41
0.998651714715001
 10
935.4961599006867
 20
-1346.017263660803
 30
0.0
 41
1.0
 10
935.495481979259
 20
-1346.017037314372
 30
0.0
 41
1.0
 10
935.4948040578313
 20
-1346.01681096794
 30
0.0
 41
1.0
 10
935.4386352421064
 20
-1345.998057155955
 30
0.0
 41
0.9989435598956151
 10
935.3809818549532
 20
-1345.98453945372
 30
0.0
 41
1.0
 10
935.379901735373
 20
-1345.984286203468
 30
0.0
 41
1.0
 10
935.3788216157927
 20
-1345.984032953215
 30
0.0
 41
1.0
 10
935.3190079894782
 20
-1345.970008750475
 30
0.0
 41
0.9992249241239819
 10
935.2582764805809
 20
-1345.96073340776
 30
0.0
 41
1.0
 10
935.2568627922897
 20
-1345.960517499352
 30
0.0
 41
1.0
 10
935.2554491039986
 20
-1345.960301590944
 30
0.0
 41
1.0
 10
935.1918902185205
 20
-1345.950594431413
 30
0.0
 41
0.9994396597833773
 10
935.1278242819847
 20
-1345.945161509067
 30
0.0
 41
1.0
 10
935.1086836145056
 20
-1345.943538341348
 30
0.0
 41
1.0
 10
935.0895429470265
 20
-1345.94191517363
 30
0.0
 41
1.0
 10
934.9871956755338
 20
-1345.933235915847
 30
0.0
 41
0.9987693403121468
 10
934.8844920519467
 20
-1345.934738979299
 30
0.0
 41
1.0
 10
934.8742377177207
 20
-1345.934889051074
 30
0.0
 41
1.0
 10
934.8639833834948
 20
-1345.935039122848
 30
0.0
 41
1.0
 10
934.7544276173148
 20
-1345.936642467135
 30
0.0
 41
0.9989753644966377
 10
934.6454656172971
 20
-1345.94814547406
 30
0.0
 41
1.0
 10
934.5365036172807
 20
-1345.959648480986
 30
0.0
 41
0.9983190067306238
 10
934.4296048063162
 20
-1345.983683472772
 30
0.0
 41
1.0
 10
934.4207038547092
 20
-1345.985684751335
 30
0.0
 41
1.0
 10
934.4118029031022
 20
-1345.987686029898
 30
0.0
 41
1.0
 10
934.2871021889252
 20
-1346.015723578809
 30
0.0
 41
0.9985539388303672
 10
934.1661324352484
 20
-1346.056987254854
 30
0.0
 41
1.0
 10
934.1637870042869
 20
-1346.057787298671
 30
0.0
 41
1.0
 10
934.1614415733252
 20
-1346.058587342487
 30
0.0
 41
1.0
 10
934.0357809577258
 20
-1346.101451106165
 30
0.0
 41
0.9988468746493592
 10
933.9148106154244
 20
-1346.156169191228
 30
0.0
 41
1.0
 10
933.9116277934367
 20
-1346.157608865787
 30
0.0
 41
1.0
 10
933.908444971449
 20
-1346.159048540347
 30
0.0
 41
1.0
 10
933.7811089851715
 20
-1346.216645974529
 30
0.0
 41
0.9991322885919013
 10
933.6590084011156
 20
-1346.28464130671
 30
0.0
 41
1.0
 10
933.6414063900705
 20
-1346.294443508701
 30
0.0
 41
1.0
 10
933.6238043790255
 20
-1346.304245710691
 30
0.0
 41
1.0
 10
933.5216276979689
 20
-1346.361145826471
 30
0.0
 41
0.999386003784907
 10
933.423686693896
 20
-1346.42506184206
 30
0.0
 41
1.0
 10
933.4180683810437
 20
-1346.428728336755
 30
0.0
 41
1.0
 10
933.4124500681913
 20
-1346.43239483145
 30
0.0
 41
1.0
 10
933.3257456898209
 20
-1346.488977857649
 30
0.0
 41
0.9998821494952946
 10
933.2408193140097
 20
-1346.548196087725
 30
0.0
 41
1.0
 10
933.1558929381994
 20
-1346.6074143178
 30
0.0
 41
0.9997976482743735
 10
933.0734173078005
 20
-1346.670000725838
 30
0.0
 41
1.0
 10
933.058781042992
 20
-1346.681107415621
 30
0.0
 41
1.0
 10
933.0441447781835
 20
-1346.692214105403
 30
0.0
 41
1.0
 10
932.9323966181694
 20
-1346.777013893005
 30
0.0
 41
0.999809163080035
 10
932.8240463401415
 20
-1346.866114243707
 30
0.0
 41
1.0
 10
932.8110405876646
 20
-1346.876809344152
 30
0.0
 41
1.0
 10
932.7980348351878
 20
-1346.887504444598
 30
0.0
 41
1.0
 10
932.6636730522067
 20
-1346.997994996191
 30
0.0
 41
0.9995035112317322
 10
932.5365371744462
 20
-1347.116728813203
 30
0.0
 41
1.0
 10
932.5268898640568
 20
-1347.125738559363
 30
0.0
 41
1.0
 10
932.5172425536673
 20
-1347.134748305522
 30
0.0
 41
1.0
 10
932.3938194909024
 20
-1347.250014677278
 30
0.0
 41
0.9994630424299179
 10
932.2782110851183
 20
-1347.373117420513
 30
0.0
 41
1.0
 10
932.2745282463454
 20
-1347.377039000028
 30
0.0
 41
1.0
 10
932.2708454075724
 20
-1347.380960579542
 30
0.0
 41
1.0
 10
932.1626026793331
 20
-1347.49622016375
 30
0.0
 41
0.9995160693750003
 10
932.0617366498024
 20
-1347.617987581621
 30
0.0
 41
1.0
 10
932.0598029297225
 20
-1347.620322005828
 30
0.0
 41
1.0
 10
932.0578692096426
 20
-1347.622656430035
 30
0.0
 41
1.0
 10
931.9608706202717
 20
-1347.739754999492
 30
0.0
 41
0.999656147051488
 10
931.8701444016045
 20
-1347.861777761943
 30
0.0
 41
1.0
 10
931.8639867356992
 20
-1347.870059550989
 30
0.0
 41
1.0
 10
931.857829069794
 20
-1347.878341340036
 30
0.0
 41
1.0
 10
931.7794181829349
 20
-1347.983800524397
 30
0.0
 41
0.999834905517257
 10
931.7048909010064
 20
-1348.092039108055
 30
0.0
 41
1.0
 10
931.6303636190812
 20
-1348.200277691709
 30
0.0
 41
0.9999728109567746
 10
931.5574407231795
 20
-1348.309603617251
 30
0.0
 41
1.0
 10
931.55612550776
 20
-1348.311575386765
 30
0.0
 41
1.0
 10
931.5548102923406
 20
-1348.313547156279
 30
0.0
 41
1.0
 10
931.4792569655982
 20
-1348.426816620852
 30
0.0
 41
0.9999972147275646
 10
931.4042391552196
 20
-1348.540441463695
 30
0.0
 41
1.0
 10
931.3992676126038
 20
-1348.547971552157
 30
0.0
 41
1.0
 10
931.3942960699882
 20
-1348.55550164062
 30
0.0
 41
1.0
 10
931.3093351743759
 20
-1348.68418666039
 30
0.0
 41
0.9999371979005065
 10
931.2272798249788
 20
-1348.814743574156
 30
0.0
 41
1.0
 10
931.2237709406099
 20
-1348.820326502232
 30
0.0
 41
1.0
 10
931.2202620562412
 20
-1348.825909430308
 30
0.0
 41
1.0
 10
931.1311889381093
 20
-1348.967632200222
 30
0.0
 41
0.9998272025610072
 10
931.0474455472264
 20
-1349.112568076966
 30
0.0
 41
1.0
 10
931.0322303752043
 20
-1349.138901191419
 30
0.0
 41
1.0
 10
931.0170152031824
 20
-1349.165234305873
 30
0.0
 41
1.0
 10
930.9028414682532
 20
-1349.362836411527
 30
0.0
 41
0.9995217214838156
 10
930.8011017786968
 20
-1349.56711873939
 30
0.0
 41
1.0
 10
930.7934582160613
 20
-1349.582466189094
 30
0.0
 41
1.0
 10
930.7858146534257
 20
-1349.597813638798
 30
0.0
 41
1.0
 10
930.6989093608354
 20
-1349.772310096881
 30
0.0
 41
0.9998269762607489
 10
930.6185548945648
 20
-1349.949918383601
 30
0.0
 41
1.0
 10
930.5382004282949
 20
-1350.12752667032
 30
0.0
 41
0.9998944747388798
 10
930.4630396337318
 20
-1350.307394395945
 30
0.0
 41
1.0
 10
930.4580859641385
 20
-1350.319249050867
 30
0.0
 41
1.0
 10
930.4531322945453
 20
-1350.33110370579
 30
0.0
 41
1.0
 10
930.3724852339907
 20
-1350.524100645813
 30
0.0
 41
0.9999506734408782
 10
930.295687705089
 20
-1350.718661450664
 30
0.0
 41
1.0
 10
930.2810877398128
 20
-1350.755649372483
 30
0.0
 41
1.0
 10
930.2664877745366
 20
-1350.792637294303
 30
0.0
 41
1.0
 10
930.2188901761822
 20
-1350.913222255529
 30
0.0
 41
0.9999912393946779
 10
930.1723037321628
 20
-1351.034201458216
 30
0.0
 41
1.0
 10
930.1257172881392
 20
-1351.155180660915
 30
0.0
 41
0.9999927113991551
 10
930.0800559937454
 20
-1351.276512068416
 30
0.0
 41
1.0
 10
930.0660875623481
 20
-1351.313629050414
 30
0.0
 41
1.0
 10
930.0521191309508
 20
-1351.350746032412
 30
0.0
 41
1.0
 10
929.9785209737614
 20
-1351.546311403911
 30
0.0
 41
0.9999487550950048
 10
929.9088973487941
 20
-1351.743326769081
 30
0.0
 41
1.0
 10
929.8853037388535
 20
-1351.810090079384
 30
0.0
 41
1.0
 10
929.8617101289128
 20
-1351.876853389688
 30
0.0
 41
1.0
 10
929.7670244945443
 20
-1352.144787224507
 30
0.0
 41
0.9999808436937928
 10
929.6756629059037
 20
-1352.413872655769
 30
0.0
 41
1.0
 10
929.584301317259
 20
-1352.682958087043
 30
0.0
 41
0.999987393292162
 10
929.4956466085447
 20
-1352.952947442045
 30
0.0
 41
1.0
 10
929.475554251675
 20
-1353.014136774799
 30
0.0
 41
1.0
 10
929.4554618948055
 20
-1353.075326107553
 30
0.0
 41
1.0
 10
929.3266224723498
 20
-1353.467694128068
 30
0.0
 41
0.9999794883025784
 10
929.2028196873914
 20
-1353.861680334347
 30
0.0
 41
1.0
 10
929.1916674279541
 20
-1353.897170944583
 30
0.0
 41
1.0
 10
929.1805151685169
 20
-1353.932661554819
 30
0.0
 41
1.0
 10
929.0379570046205
 20
-1354.386334306902
 30
0.0
 41
0.999998276168228
 10
928.8970845646029
 20
-1354.840533329033
 30
0.0
 41
1.0
 10
927.3089442320303
 20
-1359.889303060036
 30
0.0
 41
1.0
 10
925.7208038994577
 20
-1364.93807279104
 30
0.0
 41
1.0
 10
924.7720532879813
 20
-1364.93807279104
 30
0.0
 41
1.0
 10
923.8233026765049
 20
-1364.93807279104
 30
0.0
 41
1.0
 10
927.061587162658
 20
-1354.610750591093
 30
0.0
 41
1.0
 10
930.2998716488113
 20
-1344.283428391147
 30
0.0
 41
1.0
  0
LWPOLYLINE
  5
5D
330
23
100
AcDbEntity
  8
0
  6
Continuous
 62
     7
370
    15
390
1D
100
AcDbPolyline
 90
      232
 70
   128
 43
0.0
 10
904.5963258749842
 20
-1345.367771222662
 42
0.000437080068672
 10
904.543448700908
 20
-1345.436437861924
 10
904.5041644697848
 20
-1345.487544974815
 42
0.0030481992175739
 10
904.3738257526556
 20
-1345.659266667173
 10
904.3353140809152
 20
-1345.710653450948
 42
0.0042058245754892
 10
904.1313290302448
 20
-1345.987659196022
 10
904.0789239077446
 20
-1346.060092042802
 42
0.0120948898743192
 10
903.7828799909852
 20
-1346.490841647348
 10
903.6866874918562
 20
-1346.638322382584
 42
0.0141601263949725
 10
903.3830434449393
 20
-1347.133991719311
 10
903.3435061775153
 20
-1347.20283568674
 42
0.0071131081299427
 10
903.1382338542749
 20
-1347.572338485581
 42
0.0068458791003174
 10
902.943354327425
 20
-1347.947430049071
 10
902.9365424649741
 20
-1347.960991762781
 42
0.0064120880286279
 10
902.738400214936
 20
-1348.368416237687
 10
902.7308655294128
 20
-1348.384428094421
 42
0.0058857236449179
 10
902.5281101375411
 20
-1348.828804205456
 10
902.5199352112471
 20
-1348.84729435909
 42
0.0053189741894369
 10
902.3112308985757
 20
-1349.333257833017
 10
902.3024830928982
 20
-1349.354239711204
 42
0.0047503650418229
 10
902.0865093667484
 20
-1349.886439144411
 10
902.0772411183993
 20
-1349.909915520522
 42
0.0042071762170169
 10
901.8526937346735
 20
-1350.493009114586
 10
901.842944332323
 20
-1350.518975289461
 42
0.0036680086484977
 10
901.6084896890076
 20
-1351.157610674001
 10
901.5982819091631
 20
-1351.186059208337
 42
0.0032573142627019
 10
901.3526496231898
 20
-1351.884911868109
 10
901.2839991023557
 20
-1352.084374952143
 42
0.0026133366648819
 10
900.9355539035978
 20
-1353.114238235815
 10
900.8722971160972
 20
-1353.304469071208
 42
0.0020592950740407
 10
900.65843404713
 20
-1353.956572723821
 10
900.6553822559717
 20
-1353.966009212216
 42
0.0025609928536041
 10
900.453561754481
 20
-1354.601154434597
 10
900.4509703873514
 20
-1354.609456775547
 42
0.003136235624023
 10
900.2614796016774
 20
-1355.230219631717
 10
900.2593485587447
 20
-1355.237360937945
 42
0.003722991802947
 10
900.0825481718236
 20
-1355.846346239902
 10
900.0808695826223
 20
-1355.852293130059
 42
0.004307762370812
 10
899.9171287805522
 20
-1356.452111861845
 42
0.0047654161822918
 10
899.7643000580349
 20
-1357.054797950753
 10
899.729835449197
 20
-1357.196359727898
 42
0.0112969368444821
 10
899.533971091054
 20
-1358.088051888519
 10
899.5059647019568
 20
-1358.23087993462
 42
0.0130056762572012
 10
899.3051274583102
 20
-1359.417821006265
 10
899.2845877081631
 20
-1359.561899119741
 42
0.013872153214435
 10
899.1808847036252
 20
-1360.468728605567
 10
899.1615892157176
 20
-1360.692226327488
 42
0.0071254697007628
 10
899.1282425697948
 20
-1361.15541333634
 10
899.123281595631
 20
-1361.241417330907
 42
0.0028881799200266
 10
899.1081433023417
 20
-1361.533159040742
 42
0.006029729713342
 10
899.0982111025662
 20
-1361.825107976851
 10
899.097148820899
 20
-1361.873500348793
 42
0.0229523164159499
 10
899.1048798486847
 20
-1362.196255195074
 10
899.1091056222049
 20
-1362.256658729087
 42
0.0123673300669651
 10
899.1281842687234
 20
-1362.457779454265
 42
0.0128577674471499
 10
899.1573796591294
 20
-1362.65767730419
 10
899.1645055325167
 20
-1362.699006118788
 42
0.028571785376387
 10
899.2289995342124
 20
-1362.977122270102
 10
899.2426680578786
 20
-1363.023777039578
 42
0.031628309915651
 10
899.358478637793
 20
-1363.342791541405
 10
899.3615273295486
 20
-1363.349777913731
 42
0.0338984824238197
 10
899.5109590405158
 20
-1363.63734387792
 10
899.5132677698862
 20
-1363.641134907196
 42
0.0350228718357741
 10
899.6956280605592
 20
-1363.898186891872
 10
899.6965133123341
 20
-1363.899265969636
 42
0.0347476747524966
 10
899.9109379995743
 20
-1364.126451016857
 42
0.0331337701912438
 10
900.1541813253206
 20
-1364.322579678934
 10
900.1552814238369
 20
-1364.323352382106
 42
0.0305233319079946
 10
900.4238261194099
 20
-1364.488480552198
 10
900.4270561639114
 20
-1364.490204564061
 42
0.0273744481151985
 10
900.7196098754857
 20
-1364.626342707951
 10
900.7247144106233
 20
-1364.628386292421
 42
0.0240964406194192
 10
901.0401914862666
 20
-1364.737370018701
 10
901.046774815479
 20
-1364.739294758377
 42
0.0209636179811545
 10
901.3841749681343
 20
-1364.82276290631
 10
901.3918074285803
 20
-1364.824314819311
 42
0.0181388704692253
 10
901.7501298205788
 20
-1364.883730912524
 10
901.7584106689569
 20
-1364.884797096342
 42
0.0156086547586099
 10
902.1365980331458
 20
-1364.921533282918
 10
902.1797932854778
 20
-1364.924371785397
 42
0.0137148329024564
 10
902.5074664307716
 20
-1364.936892040649
 10
902.5534026207091
 20
-1364.937386473764
 42
0.0051057823885116
 10
902.7895482072898
 20
-1364.937516728173
 42
0.0052256693316559
 10
903.0256454910744
 20
-1364.932767903709
 10
903.0958722748179
 20
-1364.930620937695
 42
0.0161507179048285
 10
903.4716093529192
 20
-1364.906970567368
 10
903.4916223132923
 20
-1364.90506037208
 42
0.0101216737832246
 10
903.9056495347817
 20
-1364.857067441715
 10
903.9397028242097
 20
-1364.852419744905
 42
0.0245291776398438
 10
904.4164924797614
 20
-1364.763344666829
 10
904.5013157952864
 20
-1364.743148746483
 42
0.0143509212558649
 10
904.8579468992244
 20
-1364.647344112705
 42
0.0156557857036023
 10
905.208162963953
 20
-1364.530332896885
 10
905.2156641784463
 20
-1364.527562735132
 42
0.0170137333631044
 10
905.572260174131
 20
-1364.381905120259
 10
905.5793640965352
 20
-1364.378717284697
 42
0.018310536441182
 10
905.9387137646995
 20
-1364.201382242873
 10
905.9456605293402
 20
-1364.197631808
 42
0.0194899958151807
 10
906.30414127032
 20
-1363.985652826112
 10
906.3111551496609
 20
-1363.981127483814
 42
0.020486985295494
 10
906.6651694517564
 20
-1363.731607468727
 10
906.6724350603419
 20
-1363.72602740338
 42
0.0212516938554647
 10
907.0184249914449
 20
-1363.43612340649
 10
907.0649416855257
 20
-1363.393656096392
 42
0.0215248918249256
 10
907.3249678544132
 20
-1363.134891817398
 10
907.3699975887915
 20
-1363.08604769605
 42
0.0114578554954825
 10
907.5247897424711
 20
-1362.910224762589
 10
907.5359842784624
 20
-1362.896905999038
 42
0.0061531305135825
 10
907.6624589244522
 20
-1362.742616465738
 42
0.0006325587127649
 10
907.7868374086369
 20
-1362.586613090021
 10
907.8098775436554
 20
-1362.557639569403
 42
0.0041897761555912
 10
907.978332947629
 20
-1362.34212019334
 10
908.0367950675203
 20
-1362.266018846356
 42
0.0092993880040216
 10
908.313406994751
 20
-1361.891740082463
 10
908.3958014879406
 20
-1361.775803078907
 42
0.0159321727083017
 10
908.7424079705853
 20
-1361.253628858148
 10
908.7867641059784
 20
-1361.181949293891
 42
0.0085547317021975
 10
909.0212758713001
 20
-1360.788074344673
 42
0.0084601156888836
 10
909.2422520487365
 20
-1360.386447495652
 10
909.2503675225726
 20
-1360.371087813368
 42
0.0081429654285546
 10
909.4736167930126
 20
-1359.931366300822
 10
909.4824769571941
 20
-1359.913187458807
 42
0.0076574581327635
 10
909.7088844677629
 20
-1359.43000458355
 10
909.7183641084845
 20
-1359.408940105252
 42
0.0070682724198872
 10
909.9488090162903
 20
-1358.876902800473
 10
909.958799300273
 20
-1358.852913611458
 42
0.006455951444835
 10
910.1941325084548
 20
-1358.266601344939
 10
910.2045418666196
 20
-1358.239666419498
 42
0.0058311413908231
 10
910.4455886033822
 20
-1357.593634325114
 10
910.4563436807699
 20
-1357.563749983953
 42
0.0052312425819428
 10
910.7039249588145
 20
-1356.852547570108
 10
910.7149687951905
 20
-1356.819720858049
 42
0.0046680544796336
 10
910.9698972229213
 20
-1356.037894542306
 10
911.0118893729792
 20
-1355.904911304968
 42
0.0041666856445823
 10
911.2151753853636
 20
-1355.241942529997
 10
911.2528378260268
 20
-1355.115361422345
 42
0.0015170975157229
 10
911.3740244044404
 20
-1354.703493070849
 42
-0.0004887993117738
 10
911.4943641775317
 20
-1354.291374658916
 10
911.5708414350586
 20
-1354.030417272866
 42
0.0002583378929462
 10
911.8440560051262
 20
-1353.096360569676
 10
911.9258288547003
 20
-1352.816261310101
 42
0.0006636169672884
 10
912.1196966147108
 20
-1352.148908386517
 10
912.1247932690716
 20
-1352.13127680359
 42
0.0010589131324638
 10
912.3062419699745
 20
-1351.498545460588
 10
912.3112240404694
 20
-1351.481032553517
 42
0.001565552446299
 10
912.4794942476378
 20
-1350.882415874367
 10
912.4843244480555
 20
-1350.865023715422
 42
0.0021640440480012
 10
912.6386144200387
 20
-1350.299996697413
 10
912.6432486394666
 20
-1350.282731967427
 42
0.0028763871851085
 10
912.7827643575217
 20
-1349.750764016572
 10
912.7871502216867
 20
-1349.733640038427
 42
0.0037310511946254
 10
912.9111069135258
 20
-1349.234192444394
 10
912.9151821338141
 20
-1349.217232173151
 42
0.0047652197770852
 10
913.0228060343233
 20
-1348.749754404843
 10
913.0264966336481
 20
-1348.732994849687
 42
0.0060276699303047
 10
913.1170267328002
 20
-1348.296919054549
 10
913.1202454230869
 20
-1348.280417840253
 42
0.0075824337757439
 10
913.1929347325049
 20
-1347.875150675814
 10
913.1955801098862
 20
-1347.858995728357
 42
0.0095130624611646
 10
913.2496953455163
 20
-1347.483906375292
 10
913.2566815693995
 20
-1347.42797281717
 42
0.012105465323273
 10
913.2832728999769
 20
-1347.163076988701
 10
913.284139389736
 20
-1347.151673545777
 42
0.0069050827391867
 10
913.2992282077741
 20
-1346.908732318928
 10
913.3003635074421
 20
-1346.885206061895
 42
0.0169063976686719
 10
913.3031907864229
 20
-1346.689013334582
 10
913.3020201348918
 20
-1346.62867757324
 42
0.0052007732895035
 10
913.2997666862987
 20
-1346.553084183081
 42
0.0054038123299897
 10
913.2798031744611
 20
-1346.433065887079
 10
913.2747173185894
 20
-1346.40440740049
 42
0.011205046046723
 10
913.2393329565314
 20
-1346.228080962153
 10
913.2215079944901
 20
-1346.14853937543
 42
0.0240764468009334
 10
913.1306106283444
 20
-1345.81830233993
 10
913.1120518655309
 20
-1345.761682174936
 42
0.0256812331834335
 10
912.968688945341
 20
-1345.389957968678
 10
912.9632795195195
 20
-1345.377826633688
 42
0.026836050121676
 10
912.7938522786698
 20
-1345.046833499667
 10
912.7883158710343
 20
-1345.037313829354
 42
0.0274670231729367
 10
912.5961148946215
 20
-1344.745026454437
 10
912.5907335946592
 20
-1344.737747306896
 42
0.0275035967098132
 10
912.379160715097
 20
-1344.482231416592
 10
912.3740912141313
 20
-1344.476752328962
 42
0.0269557673522201
 10
912.1466876706909
 20
-1344.256110042999
 10
912.1419446129089
 20
-1344.251980088539
 42
0.02591248022068
 10
911.9023897814775
 20
-1344.064289561386
 10
911.8978589362955
 20
-1344.061104059056
 42
0.0245162153005956
 10
911.6499425832008
 20
-1343.904371049945
 10
911.6454160368772
 20
-1343.901810852745
 42
0.0229282588842563
 10
911.3929964800492
 20
-1343.773942660246
 10
911.388215986213
 20
-1343.771790360484
 42
0.0212984135700765
 10
911.1351780337507
 20
-1343.670591443241
 10
911.1298737487833
 20
-1343.668727880482
 42
0.0197555462347386
 10
910.8800954110582
 20
-1343.591912462517
 42
0.0183511896789388
 10
910.6251666855956
 20
-1343.534329555551
 10
910.5388014888716
 20
-1343.518126765166
 42
0.0338057877144312
 10
910.2532941396117
 20
-1343.484318360026
 10
910.1622887345717
 20
-1343.479738704764
 42
0.0091990524490717
 10
910.0564416259358
 20
-1343.476362848842
 42
0.0028333980789336
 10
909.9505277099402
 20
-1343.475534741326
 10
909.9496122568935
 20
-1343.475532771502
 42
-0.002361982780504
 10
909.8418662417961
 20
-1343.474791930423
 10
909.8054610716117
 20
-1343.47436962396
 42
0.000882459847429
 10
909.6249050816658
 20
-1343.472593845721
 10
909.5810436493559
 20
-1343.472239884196
 42
0.0038132665763906
 10
909.3127607534851
 20
-1343.472120948129
 10
909.2962270986836
 20
-1343.472239714273
 42
0.0060665569335579
 10
908.9949466070974
 20
-1343.478060013694
 10
908.980696275067
 20
-1343.478508321661
 42
0.0080356953336687
 10
908.6512375587239
 20
-1343.494176043728
 10
908.6391675436405
 20
-1343.494944626669
 42
0.0098996399106022
 10
908.2864044589874
 20
-1343.524429855867
 10
908.2763587496149
 20
-1343.525470152065
 42
0.0117740981366489
 10
907.9052018912673
 20
-1343.572762399595
 10
907.8969791947836
 20
-1343.574007516166
 42
0.013743521513845
 10
907.5123903752959
 20
-1343.643104489728
 10
907.5057333361751
 20
-1343.644490385961
 42
0.0158359869388291
 10
907.1127362423716
 20
-1343.739382474442
 10
907.1073230555055
 20
-1343.740872415312
 42
0.0180554124029893
 10
906.7110080108928
 20
-1343.865510431551
 10
906.7064512228097
 20
-1343.867126467817
 42
0.0203657431285382
 10
906.3119737049967
 20
-1344.025386809334
 10
906.307830165991
 20
-1344.027248430775
 42
0.0226819684657288
 10
905.9203941097855
 20
-1344.222891009447
 10
905.9161943187693
 20
-1344.225256601366
 42
0.024863498460645
 10
905.5410123775881
 20
-1344.461883247313
 10
905.4928174488037
 20
-1344.495740289139
 42
0.0267044190884283
 10
905.2185247518876
 20
-1344.711180665007
 42
0.0139303002198896
 10
904.9623575859551
 20
-1344.948419505913
 10
904.9575042002278
 20
-1344.953172168779
 42
0.0283460963446713
 10
904.7134316059995
 20
-1345.220902829225
 10
904.6737631008441
 20
-1345.269704406697
 42
0.0070695364819168
 10
904.5963258749842
 20
-1345.367771222662
 42
0.0070695364819168
  0
LWPOLYLINE
  5
5E
330
23
100
AcDbEntity
  8
0
  6
Continuous
 62
     7
370
    15
390
1D
100
AcDbPolyline
 90
      226
 70
   128
 43
0.0
 10
901.0675054377379
 20
-1361.089360028846
 42
-0.0026277636607057
 10
901.0674275539378
 20
-1361.022588103079
 10
901.0676449121698
 20
-1360.96943288566
 42
-0.0088680296727914
 10
901.071421528463
 20
-1360.796417103254
 10
901.0737678875753
 20
-1360.737137077804
 42
-0.0077381705613145
 10
901.0898139983392
 20
-1360.445876581996
 10
901.0906819095115
 20
-1360.43358834832
 42
-0.0068872530533739
 10
901.1173139892604
 20
-1360.118366596244
 10
901.1185182134458
 20
-1360.106125617232
 42
-0.0062130021487007
 10
901.1561119302742
 20
-1359.767255925989
 10
901.1576158338087
 20
-1359.755082054078
 42
-0.0056726929671088
 10
901.2065376933112
 20
-1359.392886831963
 10
901.2083111389554
 20
-1359.380793031719
 42
-0.0052341884495975
 10
901.2689217252145
 20
-1358.995599776206
 10
901.270939713992
 20
-1358.983594846208
 42
-0.0049768450167908
 10
901.3436783954222
 20
-1358.575750278755
 10
901.3679274101402
 20
-1358.44720229577
 42
-0.0089029805623325
 10
901.5050082619357
 20
-1357.785426848344
 10
901.5377536372534
 20
-1357.640395417824
 42
-0.0080318257098789
 10
901.7673022515961
 20
-1356.694685785963
 10
901.7792871780424
 20
-1356.64855515078
 42
-0.0074265721317039
 10
902.063298716895
 20
-1355.618490572391
 10
902.0831782600121
 20
-1355.5503565118
 42
-0.0069711922701489
 10
902.4104828385157
 20
-1354.484088771482
 10
902.4704347856227
 20
-1354.298067413107
 42
-0.0052070422891852
 10
902.6998600108805
 20
-1353.61079533608
 10
902.7171412030167
 20
-1353.560768055567
 42
-0.0009167004448999
 10
902.9202330903422
 20
-1352.976312207309
 42
-0.0025162726942414
 10
903.1273307206061
 20
-1352.393270943143
 10
903.1645553324153
 20
-1352.290121397227
 42
-0.0028212681456475
 10
903.4127312513733
 20
-1351.61439076507
 10
903.4225620141295
 20
-1351.588083320378
 42
-0.0031964916822847
 10
903.6588542717863
 20
-1350.967878558266
 10
903.6684887257826
 20
-1350.94306856813
 42
-0.0036281836451334
 10
903.8935946868864
 20
-1350.37562788723
 10
903.9030330970425
 20
-1350.352330455731
 42
-0.0041269166829688
 10
904.1176507937031
 20
-1349.834889559749
 10
904.1502837501229
 20
-1349.75801111339
 42
-0.0047472213055819
 10
904.3073285556775
 20
-1349.397589645504
 10
904.3142226368876
 20
-1349.382169048168
 42
-0.0025651659997371
 10
904.4625806707359
 20
-1349.054840992424
 42
-0.0057144634995036
 10
904.6163303645062
 20
-1348.730031319064
 10
904.6443610699047
 20
-1348.672522936675
 42
-0.0065388068374285
 10
904.8278280976482
 20
-1348.308290440002
 10
904.8362865534267
 20
-1348.292030860633
 42
-0.007451084301985
 10
905.0124687993045
 20
-1347.96534257951
 10
905.0206484698396
 20
-1347.950701802234
 42
-0.0084648979853902
 10
905.1902823229357
 20
-1347.65879279128
 10
905.1981384494238
 20
-1347.645785799629
 42
-0.0095638542805224
 10
905.361973897018
 20
-1347.385896927651
 10
905.3694488406923
 20
-1347.374527566191
 42
-0.0107191626804486
 10
905.5282504210772
 20
-1347.143916331651
 10
905.5352671548083
 20
-1347.134180239287
 42
-0.0118458573903881
 10
905.6898152533208
 20
-1346.930108043976
 42
-0.0129184518188581
 10
905.8542678769261
 20
-1346.733947527801
 10
905.8844126492861
 20
-1346.699821448905
 42
-0.0217742579635611
 10
906.0610249716208
 20
-1346.516614678656
 10
906.0717705160779
 20
-1346.506397845456
 42
-0.0097266568654902
 10
906.237828134937
 20
-1346.354550271016
 42
-0.018772090571699
 10
906.412175710829
 20
-1346.212481417625
 10
906.4428817015025
 20
-1346.189322335229
 42
-0.0179428207517514
 10
906.6753024214968
 20
-1346.026770158119
 10
906.6789547484071
 20
-1346.024406223234
 42
-0.0170047877699453
 10
906.9147183859429
 20
-1345.882945709079
 10
906.9185013746904
 20
-1345.880847404042
 42
-0.0160190788363567
 10
907.1554099223248
 20
-1345.759196102055
 42
-0.015110286149134
 10
907.3994417047717
 20
-1345.652513326
 10
907.4518282069832
 20
-1345.631473193106
 42
-0.027194544188635
 10
907.8104907660417
 20
-1345.5096083824
 10
907.8795555665323
 20
-1345.490258841133
 42
-0.0237596594021453
 10
908.2953524135521
 20
-1345.394808129152
 10
908.3634152672787
 20
-1345.382553441026
 42
-0.0213715440556681
 10
908.6492901987278
 20
-1345.343606409515
 10
908.7094373649438
 20
-1345.338016694814
 42
-0.0101465655820661
 10
908.8769298969399
 20
-1345.32587315155
 10
908.8862702831378
 20
-1345.325386236553
 42
-0.0100375910882628
 10
909.0354243837007
 20
-1345.320610418628
 10
909.0456836533772
 20
-1345.320487979613
 42
-0.0103625633384215
 10
909.1743916480359
 20
-1345.32161941314
 10
909.1966572993043
 20
-1345.322276771605
 42
-0.0115689250234876
 10
909.2807080368308
 20
-1345.32670627785
 42
-0.0072438037434452
 10
909.3645463162723
 20
-1345.334295477599
 10
909.3813468257428
 20
-1345.336062020323
 42
-0.0217917313138771
 10
909.4979165890545
 20
-1345.353481913044
 10
909.5635166796247
 20
-1345.366228521459
 42
-0.0332943556755175
 10
909.7679088446514
 20
-1345.420268812766
 10
909.7980814131985
 20
-1345.430436889884
 42
-0.0184824084810419
 10
909.936586469667
 20
-1345.482887905271
 42
-0.0198002050700385
 10
910.070660810166
 20
-1345.54577196547
 10
910.0725474475432
 20
-1345.54674975235
 42
-0.0212242342969898
 10
910.2046863899462
 20
-1345.622512491144
 10
910.2065016854885
 20
-1345.623658293352
 42
-0.0226090605795186
 10
910.3350055867112
 20
-1345.713137936917
 10
910.3368500284478
 20
-1345.714550189904
 42
-0.0238457052221405
 10
910.4600321097412
 20
-1345.818546085766
 10
910.4619848382997
 20
-1345.820360963532
 42
-0.0248160564147562
 10
910.5781863456
 20
-1345.93963556474
 10
910.5802899790024
 20
-1345.942020898445
 42
-0.0254109591447604
 10
910.6878951968686
 20
-1346.07730928441
 10
910.6901432187824
 20
-1346.08045083281
 42
-0.0255528488295252
 10
910.787589897579
 20
-1346.232477887044
 10
910.7899209974958
 20
-1346.236559498652
 42
-0.0252146793224302
 10
910.8757020235051
 20
-1346.40606174465
 10
910.8780042626624
 20
-1346.411243826562
 42
-0.0244265635952732
 10
910.9506589564237
 20
-1346.598990398608
 10
910.9599053578925
 20
-1346.626855816947
 42
-0.0231319612898874
 10
911.0058281368844
 20
-1346.790156863748
 42
-0.0112130424360945
 10
911.0404641594221
 20
-1346.956360463933
 10
911.0416666845351
 20
-1346.962857050824
 42
-0.0210527881240268
 10
911.0673531599059
 20
-1347.143912696265
 10
911.0708637547277
 20
-1347.179318244813
 42
-0.0190029892428993
 10
911.0863052282724
 20
-1347.432854091086
 10
911.0871152047164
 20
-1347.468329705454
 42
-0.0137974553661589
 10
911.0855663518807
 20
-1347.793361112188
 10
911.0847208969253
 20
-1347.81947985678
 42
-0.0081336634214535
 10
911.0698615617027
 20
-1348.124827324379
 42
-0.0073526923571413
 10
911.0455530283292
 20
-1348.429575568654
 10
911.0442916045454
 20
-1348.442912243331
 42
-0.0066886138693956
 10
911.0085560184986
 20
-1348.77349828683
 10
911.0068989290289
 20
-1348.787119905819
 42
-0.0061359187351422
 10
910.9590483269767
 20
-1349.143883885928
 10
910.9570108259052
 20
-1349.157778688748
 42
-0.0056698610060989
 10
910.8963604951372
 20
-1349.541057257592
 10
910.8939550618152
 20
-1349.555216376817
 42
-0.0052721077270442
 10
910.8198228610136
 20
-1349.965343716505
 10
910.8170597121738
 20
-1349.979760351881
 42
-0.0049289272182416
 10
910.7287655940738
 20
-1350.417068863003
 10
910.7256530993911
 20
-1350.431737715819
 42
-0.0047415956715274
 10
910.622415107859
 20
-1350.896534473229
 10
910.5876468974991
 20
-1351.046341568613
 42
-0.0084404470902943
 10
910.3976304539281
 20
-1351.806565593141
 10
910.3915037659416
 20
-1351.829429717298
 42
-0.003963594025745
 10
910.1700500816588
 20
-1352.630418581541
 10
910.156673286478
 20
-1352.677350198137
 42
-0.0072475040837424
 10
909.889226398617
 20
-1353.566569914521
 10
909.8190140717925
 20
-1353.788310264484
 42
-0.0051345458826775
 10
909.5322546997287
 20
-1354.66263545231
 10
909.5107284329689
 20
-1354.726061719417
 42
-0.0019150016603301
 10
909.2551950260945
 20
-1355.469610839666
 10
909.2487274216863
 20
-1355.488198304622
 42
-0.0021524362752204
 10
909.0002493706345
 20
-1356.192524126296
 10
908.9910389499375
 20
-1356.218277704598
 42
-0.0024331286818788
 10
908.7547836909021
 20
-1356.868877012716
 10
908.7457357383524
 20
-1356.893420319067
 42
-0.0027449721786554
 10
908.5211211675161
 20
-1357.492550197994
 10
908.5122311601234
 20
-1357.515872787848
 42
-0.0031083229768958
 10
908.2986886735139
 20
-1358.065796825426
 10
908.2899525418453
 20
-1358.087886541266
 42
-0.0035311343282267
 10
908.0869113562464
 20
-1358.590869667014
 10
908.0783260171041
 20
-1358.611712390511
 42
-0.0040245640950515
 10
907.8852142133044
 20
-1359.070021713117
 10
907.8767780997026
 20
-1359.089601081186
 42
-0.0046015135852397
 10
907.6930218065376
 20
-1359.505506110831
 10
907.6847356287051
 20
-1359.523803250293
 42
-0.0052768638270867
 10
907.5097581097536
 20
-1359.899576134553
 10
907.5016258991301
 20
-1359.91656947309
 42
-0.0060672675643335
 10
907.3348462863607
 20
-1360.254485096211
 10
907.3268768058782
 20
-1360.27015035521
 42
-0.0069904648870204
 10
907.1677084118778
 20
-1360.572486161872
 10
907.1599170122726
 20
-1360.586796711089
 42
-0.0080637022769591
 10
907.0077651519211
 20
-1360.855832014252
 10
907.0001761192864
 20
-1360.868759879859
 42
-0.0093006455659528
 10
906.8544354427584
 20
-1361.106774278356
 10
906.8470847760126
 20
-1361.118292247533
 42
-0.0107060778045797
 10
906.7071362325762
 20
-1361.327562564908
 10
906.7000744642934
 20
-1361.337648107479
 42
-0.0122723111405004
 10
906.5652807460986
 20
-1361.520441436963
 10
906.5649545225456
 20
-1361.520861824771
 42
-0.0141836319628715
 10
906.4213729195703
 20
-1361.695431582602
 10
906.4144251639178
 20
-1361.703406582868
 42
-0.0175957477207675
 10
906.2745189958837
 20
-1361.853027471272
 42
-0.0080466359667425
 10
906.1270552308409
 20
-1361.995349999435
 10
906.081020686336
 20
-1362.038370437514
 42
-0.0269600260398421
 10
905.8277404403563
 20
-1362.250693696021
 10
905.7611733040609
 20
-1362.300645110644
 42
-0.0178362839758901
 10
905.5212288144003
 20
-1362.4676630369
 10
905.5139838433965
 20
-1362.472331549107
 42
-0.0174650732648243
 10
905.2776476459585
 20
-1362.613192514064
 42
-0.0169240130160951
 10
905.0321814000989
 20
-1362.737484773842
 10
904.9861952445431
 20
-1362.758846729408
 42
-0.0318883036841081
 10
904.635844388922
 20
-1362.895185038919
 10
904.5674788537572
 20
-1362.916885659394
 42
-0.0284435909899725
 10
904.1914287274673
 20
-1363.013103094869
 10
904.1562705669658
 20
-1363.019996690698
 42
-0.0243909341008827
 10
903.8428271060498
 20
-1363.065717721727
 10
903.7925463792831
 20
-1363.070563268629
 42
-0.0196639292930969
 10
903.5769508017513
 20
-1363.082811554142
 10
903.5251267305882
 20
-1363.083714814879
 42
-0.010050151068206
 10
903.4127034489236
 20
-1363.083414416526
 10
903.381043587591
 20
-1363.082693344641
 42
-0.0019752031155657
 10
903.3319512508982
 20
-1363.081381184431
 10
903.3291909476666
 20
-1363.081296492604
 42
0.0065378752007836
 10
903.2856143729214
 20
-1363.08052960139
 42
-0.0167974694633442
 10
903.2420835499892
 20
-1363.078869702864
 10
903.2380042107275
 20
-1363.078576691969
 42
-0.0081283276274033
 10
903.1864444129924
 20
-1363.074029698331
 10
903.1747048391103
 20
-1363.072801780753
 42
-0.0126703440181839
 10
903.0999865433174
 20
-1363.063066989681
 10
903.0771986756401
 20
-1363.059508733766
 42
-0.0117852088434891
 10
902.9576596898025
 20
-1363.037945738608
 10
902.9022792380447
 20
-1363.026602198374
 42
-0.0251774592302268
 10
902.6754351990384
 20
-1362.968104188941
 10
902.6307160091868
 20
-1362.954137369606
 42
-0.0146525199894823
 10
902.4443230216473
 20
-1362.889870842408
 42
-0.0166929435859923
 10
902.2623453655232
 20
-1362.814063709354
 10
902.2576887342475
 20
-1362.811938808739
 42
-0.0191684358433512
 10
902.072505102998
 20
-1362.718702724949
 10
902.0691725172412
 20
-1362.716861477396
 42
-0.0221181781806163
 10
901.8858622133373
 20
-1362.604727979024
 10
901.8835124093306
 20
-1362.603143681034
 42
-0.0254984685376553
 10
901.7072222589453
 20
-1362.470732531065
 10
901.6847401112437
 20
-1362.451980222129
 42
-0.0292492648804605
 10
901.5599711724003
 20
-1362.334887422485
 42
-0.0159048957498429
 10
901.4461311749496
 20
-1362.206867430885
 10
901.4448123843708
 20
-1362.205285817866
 42
-0.0343813379558831
 10
901.3421751227445
 20
-1362.063414492096
 10
901.3106835913833
 20
-1362.012911100001
 42
-0.0369117275701862
 10
901.2247910894865
 20
-1361.849433859054
 42
-0.0191751379902623
 10
901.1575977039297
 20
-1361.677029253048
 10
901.1558343801701
 20
-1361.671935908373
 42
-0.0378178042228332
 10
901.1060396613857
 20
-1361.482995132291
 10
901.100044365656
 20
-1361.450434514098
 42
-0.0184846046466747
 10
901.079327166361
 20
-1361.30868169355
 42
-0.0179866351308685
 10
901.0689941612874
 20
-1361.165790880468
 10
901.0689377188417
 20
-1361.164233193856
 42
-0.0085497186138666
 10
901.0675054377379
 20
-1361.089360028846
 42
-0.0085497186138666
  0
ENDBLK
  5
5F
330
23
100
AcDbEntity
  8
template
390
1D
100
AcDbBlockEnd
  0
BLOCK
  5
60
330
24
100
AcDbEntity
  8
notes
390
1D
100
AcDbBlockBegin
  2
*D3
 70
     1
 10
0.0
 20
0.0
 30
0.0
  3
*D3
  1
*D3
  0
LINE
  5
61
330
24
100
AcDbEntity
  8
notes
  6
Continuous
 62
     0
370
    -2
100
AcDbLine
 10
965.5761758800845
 20
2366.354924560823
 30
0.0
 11
965.5761758800845
 21
2509.993022040317
 31
0.0
  0
LINE
  5
62
330
24
100
AcDbEntity
  8
notes
  6
Continuous
 62
     0
370
    -2
100
AcDbLine
 10
265.5761758800845
 20
2366.354924560823
 30
0.0
 11
265.5761758800845
 21
2509.993022040317
 31
0.0
  0
LINE
  5
63
330
24
100
AcDbEntity
  8
notes
  6
Continuous
 62
     0
370
    -2
100
AcDbLine
 10
961.5764200207095
 20
2509.993022040317
 30
0.0
 11
269.5759317394595
 21
2509.993022040317
 31
0.0
  0
INSERT
  5
64
102
{ACAD_REACTORS
330
65
102
}
330
24
100
AcDbEntity
  8
notes
 62
     0
370
    -2
100
AcDbBlockReference
  2
_DOT
 10
965.5761758800845
 20
2509.993022040317
 30
0.0
 41
3.999755859375
 42
3.999755859375
 43
3.999755859375
  0
INSERT
  5
65
330
24
100
AcDbEntity
  8
notes
 62
     0
370
    -2
100
AcDbBlockReference
  2
_DOT
 10
265.5761758800845
 20
2509.993022040317
 30
0.0
 41
3.999755859375
 42
3.999755859375
 43
3.999755859375
 50
180.0
  0
MTEXT
  5
66
102
{ACAD_REACTORS
330
67
102
}
330
24
100
AcDbEntity
  8
notes
  6
Continuous
 62
     0
370
     5
100
AcDbMText
 10
615.5761758800845
 20
2527.209330634067
 30
0.0
 40
24.4326171875
 41
0.0
 46
0.0
 71
     5
 72
     1
  1
\A1;700
  7
ＭＳ ゴシック
 73
     1
 44
1.0
  0
POINT
  5
67
330
24
100
AcDbEntity
  8
Defpoints
 62
     0
100
AcDbPoint
 10
965.5761758800845
 20
2341.354924560823
 30
0.0
  0
POINT
  5
68
330
24
100
AcDbEntity
  8
Defpoints
 62
     0
100
AcDbPoint
 10
265.5761758800845
 20
2341.354924560823
 30
0.0
  0
POINT
  5
69
330
24
100
AcDbEntity
  8
Defpoints
 62
     0
100
AcDbPoint
 10
265.5761758800845
 20
2509.993022040317
 30
0.0
  0
ENDBLK
  5
6C
330
24
100
AcDbEntity
  8
notes
390
1D
100
AcDbBlockEnd
  0
BLOCK
  5
6D
330
25
100
AcDbEntity
  8
notes
390
1D
100
AcDbBlockBegin
  2
*D4
 70
     1
 10
0.0
 20
0.0
 30
0.0
  3
*D4
  1
*D4
  0
LINE
  5
6E
330
25
100
AcDbEntity
  8
notes
  6
Continuous
 62
     0
370
    -2
100
AcDbLine
 10
915.5761758800845
 20
2366.993022040317
 30
0.0
 11
915.5761758800845
 21
2447.993022040317
 31
0.0
  0
LINE
  5
6F
330
25
100
AcDbEntity
  8
notes
  6
Continuous
 62
     0
370
    -2
100
AcDbLine
 10
315.5761758800845
 20
2366.993022040317
 30
0.0
 11
315.5761758800845
 21
2447.993022040317
 31
0.0
  0
LINE
  5
70
330
25
100
AcDbEntity
  8
notes
  6
Continuous
 62
     0
370
    -2
100
AcDbLine
 10
911.5764200207095
 20
2447.993022040317
 30
0.0
 11
319.5759317394595
 21
2447.993022040317
 31
0.0
  0
INSERT
  5
71
102
{ACAD_REACTORS
330
72
102
}
330
25
100
AcDbEntity
  8
notes
 62
     0
370
    -2
100
AcDbBlockReference
  2
_DOT
 10
915.5761758800845
 20
2447.993022040317
 30
0.0
 41
3.999755859375
 42
3.999755859375
 43
3.999755859375
  0
INSERT
  5
72
330
25
100
AcDbEntity
  8
notes
 62
     0
370
    -2
100
AcDbBlockReference
  2
_DOT
 10
315.5761758800845
 20
2447.993022040317
 30
0.0
 41
3.999755859375
 42
3.999755859375
 43
3.999755859375
 50
180.0
  0
MTEXT
  5
73
102
{ACAD_REACTORS
330
74
102
}
330
25
100
AcDbEntity
  8
notes
  6
Continuous
 62
     0
370
     5
100
AcDbMText
 10
615.5761758800845
 20
2465.209330634067
 30
0.0
 40
24.4326171875
 41
0.0
 46
0.0
 71
     5
 72
     1
  1
\A1;600
  7
ＭＳ ゴシック
 73
     1
 44
1.0
  0
POINT
  5
74
330
25
100
AcDbEntity
  8
Defpoints
 62
     0
100
AcDbPoint
 10
915.5761758800845
 20
2341.993022040317
 30
0.0
  0
POINT
  5
75
330
25
100
AcDbEntity
  8
Defpoints
 62
     0
100
AcDbPoint
 10
315.5761758800845
 20
2341.993022040317
 30
0.0
  0
POINT
  5
76
330
25
100
AcDbEntity
  8
Defpoints
 62
     0
100
AcDbPoint
 10
315.5761758800845
 20
2447.993022040317
 30
0.0
  0
ENDBLK
  5
79
330
25
100
AcDbEntity
  8
notes
390
1D
100
AcDbBlockEnd
  0
BLOCK
  5
7A
330
26
100
AcDbEntity
  8
notes
390
1D
100
AcDbBlockBegin
  2
*D5
 70
     1
 10
0.0
 20
0.0
 30
0.0
  3
*D5
  1
*D5
  0
LINE
  5
7B
330
26
100
AcDbEntity
  8
0
  6
Continuous
 62
     0
370
    -2
390
1D
100
AcDbLine
 10
1139.610533360628
 20
1929.260367495388
 30
0.0
 11
1255.868259784279
 21
2009.0
 31
0.0
  0
CIRCLE
  5
7C
102
{ACAD_REACTORS
330
7D
102
}
330
26
100
AcDbEntity
  8
0
  6
Continuous
 62
     0
370
    -2
390
1D
100
AcDbCircle
 10
1139.610533360628
 20
1929.260367495388
 30
0.0
 40
1.9998779296875
  0
HATCH
  5
7D
330
26
100
AcDbEntity
  8
0
  6
Continuous
 62
     0
370
    -2
390
1D
100
AcDbHatch
 10
0.0
 20
0.0
 30
0.0
210
0.0
220
0.0
230
1.0
  2
SOLID
 70
     1
 71
     1
 91
        1
 92
        1
 93
        1
 72
     2
 10
1139.610533360628
 20
1929.260367495388
 40
1.9998779296875
 50
0.0
 51
360.0
 73
     0
 97
        1
330
7C
 75
     0
 76
     1
 98
        1
 10
0.0
 20
0.0
  0
LINE
  5
7E
330
26
100
AcDbEntity
  8
0
  6
Continuous
 62
     0
370
    -2
390
1D
100
AcDbLine
 10
1255.868259784279
 20
2009.0
 30
0.0
 11
1339.368259784279
 21
2009.0
 31
0.0
  0
MTEXT
  5
7F
330
26
100
AcDbEntity
  8
0
 62
     0
390
1D
100
AcDbMText
 10
1275.868259784279
 20
2042.8776171875
 30
0.0
 40
24.4326171875
 41
0.0
 46
0.0
 71
     1
 72
     1
  1
φ35
  7
ＭＳ ゴシック
 73
     1
 44
0.7828267384257843
  0
POINT
  5
80
330
26
100
AcDbEntity
  8
Defpoints
 62
     0
370
     0
390
1D
100
AcDbPoint
 10
1110.747345271044
 20
1909.463489627778
 30
0.0
  0
POINT
  5
81
330
26
100
AcDbEntity
  8
Defpoints
 62
     0
370
     0
390
1D
100
AcDbPoint
 10
1139.610533360628
 20
1929.260367495388
 30
0.0
  0
ENDBLK
  5
82
330
26
100
AcDbEntity
  8
notes
390
1D
100
AcDbBlockEnd
  0
BLOCK
  5
83
330
27
100
AcDbEntity
  8
notes
390
1D
100
AcDbBlockBegin
  2
*D6
 70
     1
 10
0.0
 20
0.0
 30
0.0
  3
*D6
  1
*D6
  0
LINE
  5
84
330
27
100
AcDbEntity
  8
notes
  6
Continuous
 62
     0
370
    -2
100
AcDbLine
 10
515.4500147409256
 20
2323.8549506019
 30
0.0
 11
515.4500147409256
 21
2395.993022040317
 31
0.0
  0
LINE
  5
85
330
27
100
AcDbEntity
  8
notes
  6
Continuous
 62
     0
370
    -2
100
AcDbLine
 10
615.4500147409256
 20
2323.8549506019
 30
0.0
 11
615.4500147409256
 21
2395.993022040317
 31
0.0
  0
LINE
  5
86
330
27
100
AcDbEntity
  8
notes
  6
Continuous
 62
     0
370
    -2
100
AcDbLine
 10
519.4497706003006
 20
2395.993022040317
 30
0.0
 11
611.4502588815506
 21
2395.993022040317
 31
0.0
  0
INSERT
  5
87
102
{ACAD_REACTORS
330
88
102
}
330
27
100
AcDbEntity
  8
notes
 62
     0
370
    -2
100
AcDbBlockReference
  2
_DOT
 10
515.4500147409256
 20
2395.993022040317
 30
0.0
 41
3.999755859375
 42
3.999755859375
 43
3.999755859375
 50
180.0
  0
INSERT
  5
88
330
27
100
AcDbEntity
  8
notes
 62
     0
370
    -2
100
AcDbBlockReference
  2
_DOT
 10
615.4500147409256
 20
2395.993022040317
 30
0.0
 41
3.999755859375
 42
3.999755859375
 43
3.999755859375
  0
MTEXT
  5
89
102
{ACAD_REACTORS
330
8A
102
}
330
27
100
AcDbEntity
  8
notes
  6
Continuous
 62
     0
370
     5
100
AcDbMText
 10
565.4500147409256
 20
2413.209330634067
 30
0.0
 40
24.4326171875
 41
0.0
 46
0.0
 71
     5
 72
     1
  1
\A1;100
  7
ＭＳ ゴシック
 73
     1
 44
1.0
  0
POINT
  5
8A
330
27
100
AcDbEntity
  8
Defpoints
 62
     0
100
AcDbPoint
 10
515.4500147409256
 20
2298.8549506019
 30
0.0
  0
POINT
  5
8B
330
27
100
AcDbEntity
  8
Defpoints
 62
     0
100
AcDbPoint
 10
615.4500147409256
 20
2298.8549506019
 30
0.0
  0
POINT
  5
8C
330
27
100
AcDbEntity
  8
Defpoints
 62
     0
100
AcDbPoint
 10
615.4500147409256
 20
2395.993022040317
 30
0.0
  0
ENDBLK
  5
8F
330
27
100
AcDbEntity
  8
notes
390
1D
100
AcDbBlockEnd
  0
BLOCK
  5
90
330
28
100
AcDbEntity
  8
notes
390
1D
100
AcDbBlockBegin
  2
*D7
 70
     1
 10
0.0
 20
0.0
 30
0.0
  3
*D7
  1
*D7
  0
LINE
  5
91
330
28
100
AcDbEntity
  8
notes
  6
Continuous
 62
     0
370
    -2
100
AcDbLine
 10
715.4500147409256
 20
2323.8549506019
 30
0.0
 11
715.4500147409256
 21
2395.993022040317
 31
0.0
  0
LINE
  5
92
330
28
100
AcDbEntity
  8
notes
  6
Continuous
 62
     0
370
    -2
100
AcDbLine
 10
615.4500147409256
 20
2323.8549506019
 30
0.0
 11
615.4500147409256
 21
2395.993022040317
 31
0.0
  0
LINE
  5
93
330
28
100
AcDbEntity
  8
notes
  6
Continuous
 62
     0
370
    -2
100
AcDbLine
 10
711.4502588815506
 20
2395.993022040317
 30
0.0
 11
619.4497706003006
 21
2395.993022040317
 31
0.0
  0
INSERT
  5
94
102
{ACAD_REACTORS
330
95
102
}
330
28
100
AcDbEntity
  8
notes
 62
     0
370
    -2
100
AcDbBlockReference
  2
_DOT
 10
715.4500147409256
 20
2395.993022040317
 30
0.0
 41
3.999755859375
 42
3.999755859375
 43
3.999755859375
  0
INSERT
  5
95
330
28
100
AcDbEntity
  8
notes
 62
     0
370
    -2
100
AcDbBlockReference
  2
_DOT
 10
615.4500147409256
 20
2395.993022040317
 30
0.0
 41
3.999755859375
 42
3.999755859375
 43
3.999755859375
 50
180.0
  0
MTEXT
  5
96
102
{ACAD_REACTORS
330
97
102
}
330
28
100
AcDbEntity
  8
notes
  6
Continuous
 62
     0
370
     5
100
AcDbMText
 10
665.4500147409256
 20
2413.209330634067
 30
0.0
 40
24.4326171875
 41
0.0
 46
0.0
 71
     5
 72
     1
  1
\A1;100
  7
ＭＳ ゴシック
 73
     1
 44
1.0
  0
POINT
  5
97
330
28
100
AcDbEntity
  8
Defpoints
 62
     0
100
AcDbPoint
 10
715.4500147409256
 20
2298.8549506019
 30
0.0
  0
POINT
  5
98
330
28
100
AcDbEntity
  8
Defpoints
 62
     0
100
AcDbPoint
 10
615.4500147409256
 20
2298.8549506019
 30
0.0
  0
POINT
  5
99
330
28
100
AcDbEntity
  8
Defpoints
 62
     0
100
AcDbPoint
 10
615.4500147409256
 20
2395.993022040317
 30
0.0
  0
ENDBLK
  5
9C
330
28
100
AcDbEntity
  8
notes
390
1D
100
AcDbBlockEnd
  0
BLOCK
  5
9D
330
29
100
AcDbEntity
  8
notes
390
1D
100
AcDbBlockBegin
  2
*D8
 70
     1
 10
0.0
 20
0.0
 30
0.0
  3
*D8
  1
*D8
  0
LINE
  5
9E
330
29
100
AcDbEntity
  8
notes
  6
Continuous
 62
     0
370
    -2
100
AcDbLine
 10
840.2222389780229
 20
1861.354924560823
 30
0.0
 11
1065.576175880085
 21
1861.354924560823
 31
0.0
  0
LINE
  5
9F
330
29
100
AcDbEntity
  8
notes
  6
Continuous
 62
     0
370
    -2
100
AcDbLine
 10
990.5761758800845
 20
2341.354924560823
 30
0.0
 11
1065.576175880085
 21
2341.354924560823
 31
0.0
  0
LINE
  5
A0
330
29
100
AcDbEntity
  8
notes
  6
Continuous
 62
     0
370
    -2
100
AcDbLine
 10
1065.576175880085
 20
1865.354680420198
 30
0.0
 11
1065.576175880085
 21
2337.355168701448
 31
0.0
  0
INSERT
  5
A1
102
{ACAD_REACTORS
330
A2
102
}
330
29
100
AcDbEntity
  8
notes
 62
     0
370
    -2
100
AcDbBlockReference
  2
_DOT
 10
1065.576175880085
 20
1861.354924560823
 30
0.0
 41
3.999755859375
 42
3.999755859375
 43
3.999755859375
 50
270.0
  0
INSERT
  5
A2
330
29
100
AcDbEntity
  8
notes
 62
     0
370
    -2
100
AcDbBlockReference
  2
_DOT
 10
1065.576175880085
 20
2341.354924560823
 30
0.0
 41
3.999755859375
 42
3.999755859375
 43
3.999755859375
 50
90.0
  0
MTEXT
  5
A3
102
{ACAD_REACTORS
330
A4
102
}
330
29
100
AcDbEntity
  8
notes
  6
Continuous
 62
     0
370
     5
100
AcDbMText
 10
1048.359867286335
 20
2101.354924560823
 30
0.0
 40
24.4326171875
 41
0.0
 46
0.0
 71
     5
 72
     1
  1
\A1;480
  7
ＭＳ ゴシック
 11
0.0
 21
1.0
 31
0.0
 73
     1
 44
1.0
  0
POINT
  5
A4
330
29
100
AcDbEntity
  8
Defpoints
 62
     0
100
AcDbPoint
 10
815.2222389780229
 20
1861.354924560823
 30
0.0
  0
POINT
  5
A5
330
29
100
AcDbEntity
  8
Defpoints
 62
     0
100
AcDbPoint
 10
965.5761758800845
 20
2341.354924560823
 30
0.0
  0
POINT
  5
A6
330
29
100
AcDbEntity
  8
Defpoints
 62
     0
100
AcDbPoint
 10
1065.576175880085
 20
2341.354924560823
 30
0.0
  0
ENDBLK
  5
A9
330
29
100
AcDbEntity
  8
notes
390
1D
100
AcDbBlockEnd
  0
BLOCK
  5
AA
330
2A
100
AcDbEntity
  8
notes
390
1D
100
AcDbBlockBegin
  2
*D9
 70
     1
 10
0.0
 20
0.0
 30
0.0
  3
*D9
  1
*D9
  0
LINE
  5
AB
330
2A
100
AcDbEntity
  8
notes
  6
Continuous
 62
     0
370
    -2
100
AcDbLine
 10
240.5761758800845
 20
2221.354924560823
 30
0.0
 11
165.5761758800845
 21
2221.354924560823
 31
0.0
  0
LINE
  5
AC
330
2A
100
AcDbEntity
  8
notes
  6
Continuous
 62
     0
370
    -2
100
AcDbLine
 10
240.5761758800845
 20
2341.354924560823
 30
0.0
 11
165.5761758800845
 21
2341.354924560823
 31
0.0
  0
LINE
  5
AD
330
2A
100
AcDbEntity
  8
notes
  6
Continuous
 62
     0
370
    -2
100
AcDbLine
 10
165.5761758800845
 20
2225.354680420198
 30
0.0
 11
165.5761758800845
 21
2337.355168701448
 31
0.0
  0
INSERT
  5
AE
102
{ACAD_REACTORS
330
AF
102
}
330
2A
100
AcDbEntity
  8
notes
 62
     0
370
    -2
100
AcDbBlockReference
  2
_DOT
 10
165.5761758800845
 20
2221.354924560823
 30
0.0
 41
3.999755859375
 42
3.999755859375
 43
3.999755859375
 50
270.0
  0
INSERT
  5
AF
330
2A
100
AcDbEntity
  8
notes
 62
     0
370
    -2
100
AcDbBlockReference
  2
_DOT
 10
165.5761758800845
 20
2341.354924560823
 30
0.0
 41
3.999755859375
 42
3.999755859375
 43
3.999755859375
 50
90.0
  0
MTEXT
  5
B0
102
{ACAD_REACTORS
330
B1
102
}
330
2A
100
AcDbEntity
  8
notes
  6
Continuous
 62
     0
370
     5
100
AcDbMText
 10
148.3598672863345
 20
2281.354924560823
 30
0.0
 40
24.4326171875
 41
0.0
 46
0.0
 71
     5
 72
     1
  1
\A1;120
  7
ＭＳ ゴシック
 11
0.0
 21
1.0
 31
0.0
 73
     1
 44
1.0
  0
POINT
  5
B1
330
2A
100
AcDbEntity
  8
Defpoints
 62
     0
100
AcDbPoint
 10
265.5761758800845
 20
2221.354924560823
 30
0.0
  0
POINT
  5
B2
330
2A
100
AcDbEntity
  8
Defpoints
 62
     0
100
AcDbPoint
 10
265.5761758800845
 20
2341.354924560823
 30
0.0
  0
POINT
  5
B3
330
2A
100
AcDbEntity
  8
Defpoints
 62
     0
100
AcDbPoint
 10
165.5761758800845
 20
2341.354924560823
 30
0.0
  0
ENDBLK
  5
B6
330
2A
100
AcDbEntity
  8
notes
390
1D
100
AcDbBlockEnd
  0
BLOCK
  5
B7
330
2B
100
AcDbEntity
  8
notes
390
1D
100
AcDbBlockBegin
  2
*D10
 70
     1
 10
0.0
 20
0.0
 30
0.0
  3
*D10
  1
*D10
  0
LINE
  5
B8
330
2B
100
AcDbEntity
  8
notes
  6
Continuous
 62
     0
370
    -2
100
AcDbLine
 10
240.5761758800845
 20
1891.354924560823
 30
0.0
 11
165.5761758800845
 21
1891.354924560823
 31
0.0
  0
LINE
  5
B9
330
2B
100
AcDbEntity
  8
notes
  6
Continuous
 62
     0
370
    -2
100
AcDbLine
 10
240.5761758800845
 20
2221.354924560823
 30
0.0
 11
165.5761758800845
 21
2221.354924560823
 31
0.0
  0
LINE
  5
BA
330
2B
100
AcDbEntity
  8
notes
  6
Continuous
 62
     0
370
    -2
100
AcDbLine
 10
165.5761758800845
 20
1895.354680420198
 30
0.0
 11
165.5761758800845
 21
2217.355168701448
 31
0.0
  0
INSERT
  5
BB
102
{ACAD_REACTORS
330
BC
102
}
330
2B
100
AcDbEntity
  8
notes
 62
     0
370
    -2
100
AcDbBlockReference
  2
_DOT
 10
165.5761758800845
 20
1891.354924560823
 30
0.0
 41
3.999755859375
 42
3.999755859375
 43
3.999755859375
 50
270.0
  0
INSERT
  5
BC
330
2B
100
AcDbEntity
  8
notes
 62
     0
370
    -2
100
AcDbBlockReference
  2
_DOT
 10
165.5761758800845
 20
2221.354924560823
 30
0.0
 41
3.999755859375
 42
3.999755859375
 43
3.999755859375
 50
90.0
  0
MTEXT
  5
BD
102
{ACAD_REACTORS
330
BE
102
}
330
2B
100
AcDbEntity
  8
notes
  6
Continuous
 62
     0
370
     5
100
AcDbMText
 10
148.3598672863345
 20
2056.354924560823
 30
0.0
 40
24.4326171875
 41
0.0
 46
0.0
 71
     5
 72
     1
  1
\A1;330
  7
ＭＳ ゴシック
 11
8.612639221334548E-17
 21
1.0
 31
0.0
 73
     1
 44
1.0
  0
POINT
  5
BE
330
2B
100
AcDbEntity
  8
Defpoints
 62
     0
100
AcDbPoint
 10
265.5761758800845
 20
1891.354924560823
 30
0.0
  0
POINT
  5
BF
330
2B
100
AcDbEntity
  8
Defpoints
 62
     0
100
AcDbPoint
 10
265.5761758800845
 20
2221.354924560823
 30
0.0
  0
POINT
  5
C0
330
2B
100
AcDbEntity
  8
Defpoints
 62
     0
100
AcDbPoint
 10
165.5761758800845
 20
2221.354924560823
 30
0.0
  0
ENDBLK
  5
C3
330
2B
100
AcDbEntity
  8
notes
390
1D
100
AcDbBlockEnd
  0
BLOCK
  5
C4
330
2C
100
AcDbEntity
  8
notes
390
1D
100
AcDbBlockBegin
  2
*D11
 70
     1
 10
0.0
 20
0.0
 30
0.0
  3
*D11
  1
*D11
  0
LINE
  5
C5
330
2C
100
AcDbEntity
  8
notes
  6
Continuous
 62
     0
370
    -2
100
AcDbLine
 10
935.5761758800847
 20
1836.354924560823
 30
0.0
 11
935.5761758800847
 21
1761.354924560823
 31
0.0
  0
LINE
  5
C6
330
2C
100
AcDbEntity
  8
notes
  6
Continuous
 62
     0
370
    -2
100
AcDbLine
 10
295.5761758800845
 20
1836.354924560823
 30
0.0
 11
295.5761758800845
 21
1761.354924560823
 31
0.0
  0
LINE
  5
C7
330
2C
100
AcDbEntity
  8
notes
  6
Continuous
 62
     0
370
    -2
100
AcDbLine
 10
931.5764200207097
 20
1761.354924560823
 30
0.0
 11
299.5759317394595
 21
1761.354924560823
 31
0.0
  0
INSERT
  5
C8
102
{ACAD_REACTORS
330
C9
102
}
330
2C
100
AcDbEntity
  8
notes
 62
     0
370
    -2
100
AcDbBlockReference
  2
_DOT
 10
935.5761758800847
 20
1761.354924560823
 30
0.0
 41
3.999755859375
 42
3.999755859375
 43
3.999755859375
  0
INSERT
  5
C9
330
2C
100
AcDbEntity
  8
notes
 62
     0
370
    -2
100
AcDbBlockReference
  2
_DOT
 10
295.5761758800845
 20
1761.354924560823
 30
0.0
 41
3.999755859375
 42
3.999755859375
 43
3.999755859375
 50
180.0
  0
MTEXT
  5
CA
102
{ACAD_REACTORS
330
CB
102
}
330
2C
100
AcDbEntity
  8
notes
  6
Continuous
 62
     0
370
     5
100
AcDbMText
 10
615.5761758800846
 20
1778.571233154573
 30
0.0
 40
24.4326171875
 41
0.0
 46
0.0
 71
     5
 72
     1
  1
\A1;640
  7
ＭＳ ゴシック
 73
     1
 44
1.0
  0
POINT
  5
CB
330
2C
100
AcDbEntity
  8
Defpoints
 62
     0
100
AcDbPoint
 10
935.5761758800847
 20
1861.354924560823
 30
0.0
  0
POINT
  5
CC
330
2C
100
AcDbEntity
  8
Defpoints
 62
     0
100
AcDbPoint
 10
295.5761758800845
 20
1861.354924560823
 30
0.0
  0
POINT
  5
CD
330
2C
100
AcDbEntity
  8
Defpoints
 62
     0
100
AcDbPoint
 10
295.5761758800845
 20
1761.354924560823
 30
0.0
  0
ENDBLK
  5
D0
330
2C
100
AcDbEntity
  8
notes
390
1D
100
AcDbBlockEnd
  0
BLOCK
  5
D1
330
2D
100
AcDbEntity
  8
notes
390
1D
100
AcDbBlockBegin
  2
*D12
 70
     1
 10
0.0
 20
0.0
 30
0.0
  3
*D12
  1
*D12
  0
LINE
  5
D2
330
2D
100
AcDbEntity
  8
notes
  6
Continuous
 62
     0
370
    -2
100
AcDbLine
 10
1861.125048478039
 20
1188.447047824374
 30
0.0
 11
1861.125048478039
 21
1244.923570174689
 31
0.0
  0
LINE
  5
D3
330
2D
100
AcDbEntity
  8
notes
  6
Continuous
 62
     0
370
    -2
100
AcDbLine
 10
1801.125048394856
 20
1186.923570174689
 30
0.0
 11
1801.125048394856
 21
1244.923570174689
 31
0.0
  0
LINE
  5
D4
330
2D
100
AcDbEntity
  8
notes
  6
Continuous
 62
     0
370
    -2
100
AcDbLine
 10
1857.125292618664
 20
1244.923570174689
 30
0.0
 11
1805.124804254231
 21
1244.923570174689
 31
0.0
  0
INSERT
  5
D5
102
{ACAD_REACTORS
330
D6
102
}
330
2D
100
AcDbEntity
  8
notes
 62
     0
370
    -2
100
AcDbBlockReference
  2
_DOT
 10
1861.125048478039
 20
1244.923570174689
 30
0.0
 41
3.999755859375
 42
3.999755859375
 43
3.999755859375
  0
INSERT
  5
D6
330
2D
100
AcDbEntity
  8
notes
 62
     0
370
    -2
100
AcDbBlockReference
  2
_DOT
 10
1801.125048394856
 20
1244.923570174689
 30
0.0
 41
3.999755859375
 42
3.999755859375
 43
3.999755859375
 50
180.0
  0
MTEXT
  5
D7
102
{ACAD_REACTORS
330
D8
102
}
330
2D
100
AcDbEntity
  8
notes
  6
Continuous
 62
     0
370
     5
100
AcDbMText
 10
1831.125048436448
 20
1262.139878768439
 30
0.0
 40
24.4326171875
 41
0.0
 46
0.0
 71
     5
 72
     1
  1
\A1;60
  7
ＭＳ ゴシック
 73
     1
 44
1.0
  0
POINT
  5
D8
330
2D
100
AcDbEntity
  8
Defpoints
 62
     0
100
AcDbPoint
 10
1861.125048478039
 20
1163.447047824374
 30
0.0
  0
POINT
  5
D9
330
2D
100
AcDbEntity
  8
Defpoints
 62
     0
100
AcDbPoint
 10
1801.125048394856
 20
1161.923570174689
 30
0.0
  0
POINT
  5
DA
330
2D
100
AcDbEntity
  8
Defpoints
 62
     0
100
AcDbPoint
 10
1801.125048394856
 20
1244.923570174689
 30
0.0
  0
ENDBLK
  5
DD
330
2D
100
AcDbEntity
  8
notes
390
1D
100
AcDbBlockEnd
  0
BLOCK
  5
DE
330
2E
100
AcDbEntity
  8
notes
390
1D
100
AcDbBlockBegin
  2
*D13
 70
     1
 10
0.0
 20
0.0
 30
0.0
  3
*D13
  1
*D13
  0
LINE
  5
DF
330
2E
100
AcDbEntity
  8
notes
  6
Continuous
 62
     0
370
    -2
100
AcDbLine
 10
1646.125039933054
 20
956.9469156977196
 30
0.0
 11
1646.125039933054
 21
875.877549474755
 31
0.0
  0
LINE
  5
E0
330
2E
100
AcDbEntity
  8
notes
  6
Continuous
 62
     0
370
    -2
100
AcDbLine
 10
1861.125039933054
 20
981.9454802679596
 30
0.0
 11
1861.125039933054
 21
875.877549474755
 31
0.0
  0
LINE
  5
E1
330
2E
100
AcDbEntity
  8
notes
  6
Continuous
 62
     0
370
    -2
100
AcDbLine
 10
1650.124795792429
 20
875.877549474755
 30
0.0
 11
1857.125284073679
 21
875.877549474755
 31
0.0
  0
INSERT
  5
E2
102
{ACAD_REACTORS
330
E3
102
}
330
2E
100
AcDbEntity
  8
notes
 62
     0
370
    -2
100
AcDbBlockReference
  2
_DOT
 10
1646.125039933054
 20
875.877549474755
 30
0.0
 41
3.999755859375
 42
3.999755859375
 43
3.999755859375
 50
180.0
  0
INSERT
  5
E3
330
2E
100
AcDbEntity
  8
notes
 62
     0
370
    -2
100
AcDbBlockReference
  2
_DOT
 10
1861.125039933054
 20
875.877549474755
 30
0.0
 41
3.999755859375
 42
3.999755859375
 43
3.999755859375
  0
MTEXT
  5
E4
102
{ACAD_REACTORS
330
E5
102
}
330
2E
100
AcDbEntity
  8
notes
  6
Continuous
 62
     0
370
     5
100
AcDbMText
 10
1753.625039933054
 20
893.093858068505
 30
0.0
 40
24.4326171875
 41
0.0
 46
0.0
 71
     5
 72
     1
  1
\A1;215
  7
ＭＳ ゴシック
 73
     1
 44
1.0
  0
POINT
  5
E5
330
2E
100
AcDbEntity
  8
Defpoints
 62
     0
100
AcDbPoint
 10
1646.125039933054
 20
981.9469156977196
 30
0.0
  0
POINT
  5
E6
330
2E
100
AcDbEntity
  8
Defpoints
 62
     0
100
AcDbPoint
 10
1861.125039933054
 20
1006.94548026796
 30
0.0
  0
POINT
  5
E7
330
2E
100
AcDbEntity
  8
Defpoints
 62
     0
100
AcDbPoint
 10
1861.125039933054
 20
875.877549474755
 30
0.0
  0
ENDBLK
  5
EA
330
2E
100
AcDbEntity
  8
notes
390
1D
100
AcDbBlockEnd
  0
BLOCK
  5
EB
330
2F
100
AcDbEntity
  8
notes
390
1D
100
AcDbBlockBegin
  2
*D14
 70
     1
 10
0.0
 20
0.0
 30
0.0
  3
*D14
  1
*D14
  0
LINE
  5
EC
330
2F
100
AcDbEntity
  8
notes
  6
Continuous
 62
     0
370
    -2
100
AcDbLine
 10
1451.125105502352
 20
981.9455918392927
 30
0.0
 11
1451.125105502352
 21
825.877549474755
 31
0.0
  0
LINE
  5
ED
330
2F
100
AcDbEntity
  8
notes
  6
Continuous
 62
     0
370
    -2
100
AcDbLine
 10
1861.125105502352
 20
981.9454802679596
 30
0.0
 11
1861.125105502352
 21
825.877549474755
 31
0.0
  0
LINE
  5
EE
330
2F
100
AcDbEntity
  8
notes
  6
Continuous
 62
     0
370
    -2
100
AcDbLine
 10
1455.124861361727
 20
825.877549474755
 30
0.0
 11
1857.125349642977
 21
825.877549474755
 31
0.0
  0
INSERT
  5
EF
102
{ACAD_REACTORS
330
F0
102
}
330
2F
100
AcDbEntity
  8
notes
 62
     0
370
    -2
100
AcDbBlockReference
  2
_DOT
 10
1451.125105502352
 20
825.877549474755
 30
0.0
 41
3.999755859375
 42
3.999755859375
 43
3.999755859375
 50
180.0
  0
INSERT
  5
F0
330
2F
100
AcDbEntity
  8
notes
 62
     0
370
    -2
100
AcDbBlockReference
  2
_DOT
 10
1861.125105502352
 20
825.877549474755
 30
0.0
 41
3.999755859375
 42
3.999755859375
 43
3.999755859375
  0
MTEXT
  5
F1
102
{ACAD_REACTORS
330
F2
102
}
330
2F
100
AcDbEntity
  8
notes
  6
Continuous
 62
     0
370
     5
100
AcDbMText
 10
1656.125105502352
 20
843.093858068505
 30
0.0
 40
24.4326171875
 41
0.0
 46
0.0
 71
     5
 72
     1
  1
\A1;410
  7
ＭＳ ゴシック
 73
     1
 44
1.0
  0
POINT
  5
F2
330
2F
100
AcDbEntity
  8
Defpoints
 62
     0
100
AcDbPoint
 10
1451.125105502352
 20
1006.945591839293
 30
0.0
  0
POINT
  5
F3
330
2F
100
AcDbEntity
  8
Defpoints
 62
     0
100
AcDbPoint
 10
1861.125105502352
 20
1006.94548026796
 30
0.0
  0
POINT
  5
F4
330
2F
100
AcDbEntity
  8
Defpoints
 62
     0
100
AcDbPoint
 10
1861.125105502352
 20
825.877549474755
 30
0.0
  0
ENDBLK
  5
F7
330
2F
100
AcDbEntity
  8
notes
390
1D
100
AcDbBlockEnd
  0
BLOCK
  5
F8
330
30
100
AcDbEntity
  8
notes
390
1D
100
AcDbBlockBegin
  2
*D15
 70
     1
 10
0.0
 20
0.0
 30
0.0
  3
*D15
  1
*D15
  0
LINE
  5
F9
330
30
100
AcDbEntity
  8
notes
  6
Continuous
 62
     0
370
    -2
100
AcDbLine
 10
310.5761758800845
 20
978.9930220403164
 30
0.0
 11
310.5761758800845
 21
876.947001340382
 31
0.0
  0
LINE
  5
FA
330
30
100
AcDbEntity
  8
notes
  6
Continuous
 62
     0
370
    -2
100
AcDbLine
 10
920.5761758800847
 20
978.9930220403164
 30
0.0
 11
920.5761758800847
 21
876.947001340382
 31
0.0
  0
LINE
  5
FB
330
30
100
AcDbEntity
  8
notes
  6
Continuous
 62
     0
370
    -2
100
AcDbLine
 10
314.5759317394595
 20
876.947001340382
 30
0.0
 11
916.5764200207097
 21
876.947001340382
 31
0.0
  0
INSERT
  5
FC
102
{ACAD_REACTORS
330
FD
102
}
330
30
100
AcDbEntity
  8
notes
 62
     0
370
    -2
100
AcDbBlockReference
  2
_DOT
 10
310.5761758800845
 20
876.947001340382
 30
0.0
 41
3.999755859375
 42
3.999755859375
 43
3.999755859375
 50
180.0
  0
INSERT
  5
FD
330
30
100
AcDbEntity
  8
notes
 62
     0
370
    -2
100
AcDbBlockReference
  2
_DOT
 10
920.5761758800847
 20
876.947001340382
 30
0.0
 41
3.999755859375
 42
3.999755859375
 43
3.999755859375
  0
MTEXT
  5
FE
102
{ACAD_REACTORS
330
FF
102
}
330
30
100
AcDbEntity
  8
notes
  6
Continuous
 62
     0
370
     5
100
AcDbMText
 10
615.5761758800846
 20
894.163309934132
 30
0.0
 40
24.4326171875
 41
0.0
 46
0.0
 71
     5
 72
     1
  1
\A1;610
  7
ＭＳ ゴシック
 73
     1
 44
1.0
  0
POINT
  5
FF
330
30
100
AcDbEntity
  8
Defpoints
 62
     0
100
AcDbPoint
 10
310.5761758800845
 20
1003.993022040316
 30
0.0
  0
POINT
  5
100
330
30
100
AcDbEntity
  8
Defpoints
 62
     0
100
AcDbPoint
 10
920.5761758800847
 20
1003.993022040316
 30
0.0
  0
POINT
  5
101
330
30
100
AcDbEntity
  8
Defpoints
 62
     0
100
AcDbPoint
 10
920.5761758800847
 20
876.947001340382
 30
0.0
  0
ENDBLK
  5
104
330
30
100
AcDbEntity
  8
notes
390
1D
100
AcDbBlockEnd
  0
BLOCK
  5
105
330
31
100
AcDbEntity
  8
notes
390
1D
100
AcDbBlockBegin
  2
*D16
 70
     1
 10
0.0
 20
0.0
 30
0.0
  3
*D16
  1
*D16
  0
LINE
  5
106
330
31
100
AcDbEntity
  8
0
  6
Continuous
 62
     0
370
    -2
390
1D
100
AcDbLine
 10
2176.0
 20
799.930548134373
 30
0.0
 11
2158.0
 21
799.930548134373
 31
0.0
  0
LINE
  5
107
330
31
100
AcDbEntity
  8
0
  6
Continuous
 62
     0
370
    -2
390
1D
100
AcDbLine
 10
2176.0
 20
664.930548134373
 30
0.0
 11
2158.0
 21
664.930548134373
 31
0.0
  0
LINE
  5
108
330
31
100
AcDbEntity
  8
0
  6
Continuous
 62
     0
370
    -2
390
1D
100
AcDbLine
 10
2158.0
 20
799.930548134373
 30
0.0
 11
2158.0
 21
951.805548134373
 31
0.0
  0
LINE
  5
109
330
31
100
AcDbEntity
  8
0
  6
Continuous
 62
     0
370
    -2
390
1D
100
AcDbLine
 10
2158.0
 20
799.930548134373
 30
0.0
 11
2158.0
 21
664.930548134373
 31
0.0
  0
CIRCLE
  5
10A
102
{ACAD_REACTORS
330
10B
102
}
330
31
100
AcDbEntity
  8
0
  6
Continuous
 62
     0
370
    -2
390
1D
100
AcDbCircle
 10
2158.0
 20
799.930548134373
 30
0.0
 40
1.9998779296875
  0
HATCH
  5
10B
330
31
100
AcDbEntity
  8
0
  6
Continuous
 62
     0
370
    -2
390
1D
100
AcDbHatch
 10
0.0
 20
0.0
 30
0.0
210
0.0
220
0.0
230
1.0
  2
SOLID
 70
     1
 71
     1
 91
        1
 92
        1
 93
        1
 72
     2
 10
2158.0
 20
799.930548134373
 40
1.9998779296875
 50
0.0
 51
360.0
 73
     0
 97
        1
330
10A
 75
     0
 76
     1
 98
        1
 10
0.0
 20
0.0
  0
CIRCLE
  5
10C
102
{ACAD_REACTORS
330
10D
102
}
330
31
100
AcDbEntity
  8
0
  6
Continuous
 62
     0
370
    -2
390
1D
100
AcDbCircle
 10
2158.0
 20
664.930548134373
 30
0.0
 40
1.9998779296875
  0
HATCH
  5
10D
330
31
100
AcDbEntity
  8
0
  6
Continuous
 62
     0
370
    -2
390
1D
100
AcDbHatch
 10
0.0
 20
0.0
 30
0.0
210
0.0
220
0.0
230
1.0
  2
SOLID
 70
     1
 71
     1
 91
        1
 92
        1
 93
        1
 72
     2
 10
2158.0
 20
664.930548134373
 40
1.9998779296875
 50
0.0
 51
360.0
 73
     0
 97
        1
330
10C
 75
     0
 76
     1
 98
        1
 10
0.0
 20
0.0
  0
MTEXT
  5
10E
330
31
100
AcDbEntity
  8
0
 62
     0
390
1D
100
AcDbMText
 10
2124.1223828125
 20
808.930548134373
 30
0.0
 40
24.4326171875
 41
0.0
 46
0.0
 71
     1
 72
     1
  1
135(深さ)
  7
ＭＳ ゴシック
 11
0.0
 21
1.0
 31
0.0
 73
     1
 44
0.7828267384257843
  0
POINT
  5
10F
330
31
100
AcDbEntity
  8
Defpoints
 62
     0
370
     0
390
1D
100
AcDbPoint
 10
2151.0
 20
664.930548134373
 30
0.0
  0
POINT
  5
110
330
31
100
AcDbEntity
  8
Defpoints
 62
     0
370
     0
390
1D
100
AcDbPoint
 10
2151.0
 20
799.930548134373
 30
0.0
  0
POINT
  5
111
330
31
100
AcDbEntity
  8
Defpoints
 62
     0
370
     0
390
1D
100
AcDbPoint
 10
2158.0
 20
799.930548134373
 30
0.0
  0
ENDBLK
  5
112
330
31
100
AcDbEntity
  8
notes
390
1D
100
AcDbBlockEnd
  0
BLOCK
  5
113
330
32
100
AcDbEntity
  8
notes
390
1D
100
AcDbBlockBegin
  2
*D17
 70
     1
 10
0.0
 20
0.0
 30
0.0
  3
*D17
  1
*D17
  0
LINE
  5
114
330
32
100
AcDbEntity
  8
notes
  6
Continuous
 62
     0
370
    -2
100
AcDbLine
 10
755.5761758800845
 20
1146.946979296786
 30
0.0
 11
755.5761758800845
 21
1262.993022040316
 31
0.0
  0
LINE
  5
115
330
32
100
AcDbEntity
  8
notes
  6
Continuous
 62
     0
370
    -2
100
AcDbLine
 10
475.5761758800845
 20
1146.946979296786
 30
0.0
 11
475.5761758800845
 21
1262.993022040316
 31
0.0
  0
LINE
  5
116
330
32
100
AcDbEntity
  8
notes
  6
Continuous
 62
     0
370
    -2
100
AcDbLine
 10
751.5764200207095
 20
1262.993022040316
 30
0.0
 11
479.5759317394595
 21
1262.993022040316
 31
0.0
  0
INSERT
  5
117
102
{ACAD_REACTORS
330
118
102
}
330
32
100
AcDbEntity
  8
notes
 62
     0
370
    -2
100
AcDbBlockReference
  2
_DOT
 10
755.5761758800845
 20
1262.993022040316
 30
0.0
 41
3.999755859375
 42
3.999755859375
 43
3.999755859375
  0
INSERT
  5
118
330
32
100
AcDbEntity
  8
notes
 62
     0
370
    -2
100
AcDbBlockReference
  2
_DOT
 10
475.5761758800845
 20
1262.993022040316
 30
0.0
 41
3.999755859375
 42
3.999755859375
 43
3.999755859375
 50
180.0
  0
MTEXT
  5
119
102
{ACAD_REACTORS
330
11A
102
}
330
32
100
AcDbEntity
  8
notes
  6
Continuous
 62
     0
370
     5
100
AcDbMText
 10
615.5761758800845
 20
1280.209330634066
 30
0.0
 40
24.4326171875
 41
0.0
 46
0.0
 71
     5
 72
     1
  1
\A1;280
  7
ＭＳ ゴシック
 73
     1
 44
1.0
  0
POINT
  5
11A
330
32
100
AcDbEntity
  8
Defpoints
 62
     0
100
AcDbPoint
 10
755.5761758800845
 20
1121.946979296786
 30
0.0
  0
POINT
  5
11B
330
32
100
AcDbEntity
  8
Defpoints
 62
     0
100
AcDbPoint
 10
475.5761758800845
 20
1121.946979296786
 30
0.0
  0
POINT
  5
11C
330
32
100
AcDbEntity
  8
Defpoints
 62
     0
100
AcDbPoint
 10
475.5761758800845
 20
1262.993022040316
 30
0.0
  0
ENDBLK
  5
11F
330
32
100
AcDbEntity
  8
notes
390
1D
100
AcDbBlockEnd
  0
BLOCK
  5
120
330
33
100
AcDbEntity
  8
notes
390
1D
100
AcDbBlockBegin
  2
*D18
 70
     1
 10
0.0
 20
0.0
 30
0.0
  3
*D18
  1
*D18
  0
LINE
  5
121
330
33
100
AcDbEntity
  8
notes
  6
Continuous
 62
     0
370
    -2
100
AcDbLine
 10
1433.716873509448
 20
1006.945810353155
 30
0.0
 11
1281.039021123136
 21
1006.945810353155
 31
0.0
  0
LINE
  5
122
330
33
100
AcDbEntity
  8
notes
  6
Continuous
 62
     0
370
    -2
100
AcDbLine
 10
1361.87677123784
 20
1161.945345746828
 30
0.0
 11
1281.039021123136
 21
1161.945345746828
 31
0.0
  0
LINE
  5
123
330
33
100
AcDbEntity
  8
notes
  6
Continuous
 62
     0
370
    -2
100
AcDbLine
 10
1281.039021123136
 20
1010.94556621253
 30
0.0
 11
1281.039021123136
 21
1157.945589887453
 31
0.0
  0
INSERT
  5
124
102
{ACAD_REACTORS
330
125
102
}
330
33
100
AcDbEntity
  8
notes
 62
     0
370
    -2
100
AcDbBlockReference
  2
_DOT
 10
1281.039021123136
 20
1006.945810353155
 30
0.0
 41
3.999755859375
 42
3.999755859375
 43
3.999755859375
 50
270.0
  0
INSERT
  5
125
330
33
100
AcDbEntity
  8
notes
 62
     0
370
    -2
100
AcDbBlockReference
  2
_DOT
 10
1281.039021123136
 20
1161.945345746828
 30
0.0
 41
3.999755859375
 42
3.999755859375
 43
3.999755859375
 50
90.0
  0
MTEXT
  5
126
102
{ACAD_REACTORS
330
127
102
}
330
33
100
AcDbEntity
  8
notes
  6
Continuous
 62
     0
370
     5
100
AcDbMText
 10
1263.822712529386
 20
1084.445578049991
 30
0.0
 40
24.4326171875
 41
0.0
 46
0.0
 71
     5
 72
     1
  1
\A1;155
  7
ＭＳ ゴシック
 11
0.0
 21
1.0
 31
0.0
 73
     1
 44
1.0
  0
POINT
  5
127
330
33
100
AcDbEntity
  8
Defpoints
 62
     0
100
AcDbPoint
 10
1458.716873509448
 20
1006.945810353155
 30
0.0
  0
POINT
  5
128
330
33
100
AcDbEntity
  8
Defpoints
 62
     0
100
AcDbPoint
 10
1386.87677123784
 20
1161.945345746828
 30
0.0
  0
POINT
  5
129
330
33
100
AcDbEntity
  8
Defpoints
 62
     0
100
AcDbPoint
 10
1281.039021123136
 20
1161.945345746828
 30
0.0
  0
ENDBLK
  5
12C
330
33
100
AcDbEntity
  8
notes
390
1D
100
AcDbBlockEnd
  0
BLOCK
  5
12D
330
34
100
AcDbEntity
  8
notes
390
1D
100
AcDbBlockBegin
  2
*D19
 70
     1
 10
0.0
 20
0.0
 30
0.0
  3
*D19
  1
*D19
  0
LINE
  5
12E
330
34
100
AcDbEntity
  8
notes
  6
Continuous
 62
     0
370
    -2
100
AcDbLine
 10
246.4497706725247
 20
1161.947001340382
 30
0.0
 11
165.5761758800845
 21
1161.947001340382
 31
0.0
  0
LINE
  5
12F
330
34
100
AcDbEntity
  8
notes
  6
Continuous
 62
     0
370
    -2
100
AcDbLine
 10
435.5761758800847
 20
1106.946979296786
 30
0.0
 11
165.5761758800845
 21
1106.946979296786
 31
0.0
  0
LINE
  5
130
330
34
100
AcDbEntity
  8
notes
  6
Continuous
 62
     0
370
    -2
100
AcDbLine
 10
165.5761758800845
 20
1157.947245481007
 30
0.0
 11
165.5761758800845
 21
1110.946735156161
 31
0.0
  0
INSERT
  5
131
102
{ACAD_REACTORS
330
132
102
}
330
34
100
AcDbEntity
  8
notes
 62
     0
370
    -2
100
AcDbBlockReference
  2
_DOT
 10
165.5761758800845
 20
1161.947001340382
 30
0.0
 41
3.999755859375
 42
3.999755859375
 43
3.999755859375
 50
90.0
  0
INSERT
  5
132
330
34
100
AcDbEntity
  8
notes
 62
     0
370
    -2
100
AcDbBlockReference
  2
_DOT
 10
165.5761758800845
 20
1106.946979296786
 30
0.0
 41
3.999755859375
 42
3.999755859375
 43
3.999755859375
 50
270.0
  0
MTEXT
  5
133
102
{ACAD_REACTORS
330
134
102
}
330
34
100
AcDbEntity
  8
notes
  6
Continuous
 62
     0
370
     5
100
AcDbMText
 10
148.3598672863345
 20
1134.446990318584
 30
0.0
 40
24.4326171875
 41
0.0
 46
0.0
 71
     5
 72
     1
  1
\A1;55
  7
ＭＳ ゴシック
 11
0.0
 21
1.0
 31
0.0
 73
     1
 44
1.0
  0
POINT
  5
134
330
34
100
AcDbEntity
  8
Defpoints
 62
     0
100
AcDbPoint
 10
271.4497706725247
 20
1161.947001340382
 30
0.0
  0
POINT
  5
135
330
34
100
AcDbEntity
  8
Defpoints
 62
     0
100
AcDbPoint
 10
460.5761758800847
 20
1106.946979296786
 30
0.0
  0
POINT
  5
136
330
34
100
AcDbEntity
  8
Defpoints
 62
     0
100
AcDbPoint
 10
165.5761758800845
 20
1106.946979296786
 30
0.0
  0
ENDBLK
  5
139
330
34
100
AcDbEntity
  8
notes
390
1D
100
AcDbBlockEnd
  0
BLOCK
  5
13A
330
35
100
AcDbEntity
  8
notes
390
1D
100
AcDbBlockBegin
  2
*D20
 70
     1
 10
0.0
 20
0.0
 30
0.0
  3
*D20
  1
*D20
  0
LINE
  5
13B
330
35
100
AcDbEntity
  8
notes
  6
Continuous
 62
     0
370
    -2
100
AcDbLine
 10
668.3761890742992
 20
976.9470013403819
 30
0.0
 11
1065.576175880085
 21
976.9470013403819
 31
0.0
  0
LINE
  5
13C
330
35
100
AcDbEntity
  8
notes
  6
Continuous
 62
     0
370
    -2
100
AcDbLine
 10
984.4503805271465
 20
1161.947001340382
 30
0.0
 11
1065.576175880085
 21
1161.947001340382
 31
0.0
  0
LINE
  5
13D
330
35
100
AcDbEntity
  8
notes
  6
Continuous
 62
     0
370
    -2
100
AcDbLine
 10
1065.576175880085
 20
980.9467571997569
 30
0.0
 11
1065.576175880085
 21
1157.947245481007
 31
0.0
  0
INSERT
  5
13E
102
{ACAD_REACTORS
330
13F
102
}
330
35
100
AcDbEntity
  8
notes
 62
     0
370
    -2
100
AcDbBlockReference
  2
_DOT
 10
1065.576175880085
 20
976.9470013403819
 30
0.0
 41
3.999755859375
 42
3.999755859375
 43
3.999755859375
 50
270.0
  0
INSERT
  5
13F
330
35
100
AcDbEntity
  8
notes
 62
     0
370
    -2
100
AcDbBlockReference
  2
_DOT
 10
1065.576175880085
 20
1161.947001340382
 30
0.0
 41
3.999755859375
 42
3.999755859375
 43
3.999755859375
 50
90.0
  0
MTEXT
  5
140
102
{ACAD_REACTORS
330
141
102
}
330
35
100
AcDbEntity
  8
notes
  6
Continuous
 62
     0
370
     5
100
AcDbMText
 10
1048.359867286335
 20
1069.447001340382
 30
0.0
 40
24.4326171875
 41
0.0
 46
0.0
 71
     5
 72
     1
  1
\A1;185
  7
ＭＳ ゴシック
 11
0.0
 21
1.0
 31
0.0
 73
     1
 44
1.0
  0
POINT
  5
141
330
35
100
AcDbEntity
  8
Defpoints
 62
     0
100
AcDbPoint
 10
643.3761890742992
 20
976.9470013403819
 30
0.0
  0
POINT
  5
142
330
35
100
AcDbEntity
  8
Defpoints
 62
     0
100
AcDbPoint
 10
959.4503805271465
 20
1161.947001340382
 30
0.0
  0
POINT
  5
143
330
35
100
AcDbEntity
  8
Defpoints
 62
     0
100
AcDbPoint
 10
1065.576175880085
 20
1161.947001340382
 30
0.0
  0
ENDBLK
  5
146
330
35
100
AcDbEntity
  8
notes
390
1D
100
AcDbBlockEnd
  0
BLOCK
  5
147
330
36
100
AcDbEntity
  8
notes
390
1D
100
AcDbBlockBegin
  2
*D21
 70
     1
 10
0.0
 20
0.0
 30
0.0
  3
*D21
  1
*D21
  0
LINE
  5
148
330
36
100
AcDbEntity
  8
notes
  6
Continuous
 62
     0
370
    -2
100
AcDbLine
 10
472.9500147409256
 20
2341.354927806122
 30
0.0
 11
440.2222389780229
 21
2341.354927806122
 31
0.0
  0
LINE
  5
149
330
36
100
AcDbEntity
  8
notes
  6
Continuous
 62
     0
370
    -2
100
AcDbLine
 10
472.9500147409256
 20
2271.3549506019
 30
0.0
 11
440.2222389780229
 21
2271.3549506019
 31
0.0
  0
LINE
  5
14A
330
36
100
AcDbEntity
  8
notes
  6
Continuous
 62
     0
370
    -2
100
AcDbLine
 10
440.2222389780229
 20
2337.355171946747
 30
0.0
 11
440.2222389780229
 21
2275.354706461275
 31
0.0
  0
INSERT
  5
14B
102
{ACAD_REACTORS
330
14C
102
}
330
36
100
AcDbEntity
  8
notes
 62
     0
370
    -2
100
AcDbBlockReference
  2
_DOT
 10
440.2222389780229
 20
2341.354927806122
 30
0.0
 41
3.999755859375
 42
3.999755859375
 43
3.999755859375
 50
90.0
  0
INSERT
  5
14C
330
36
100
AcDbEntity
  8
notes
 62
     0
370
    -2
100
AcDbBlockReference
  2
_DOT
 10
440.2222389780229
 20
2271.3549506019
 30
0.0
 41
3.999755859375
 42
3.999755859375
 43
3.999755859375
 50
270.0
  0
MTEXT
  5
14D
102
{ACAD_REACTORS
330
14E
102
}
330
36
100
AcDbEntity
  8
notes
  6
Continuous
 62
     0
370
     5
100
AcDbMText
 10
423.0059303842729
 20
2306.354939204011
 30
0.0
 40
24.4326171875
 41
0.0
 46
0.0
 71
     5
 72
     1
  1
\A1;70
  7
ＭＳ ゴシック
 11
0.0
 21
1.0
 31
0.0
 73
     1
 44
1.0
  0
POINT
  5
14E
330
36
100
AcDbEntity
  8
Defpoints
 62
     0
100
AcDbPoint
 10
497.9500147409256
 20
2341.354927806122
 30
0.0
  0
POINT
  5
14F
330
36
100
AcDbEntity
  8
Defpoints
 62
     0
100
AcDbPoint
 10
497.9500147409256
 20
2271.3549506019
 30
0.0
  0
POINT
  5
150
330
36
100
AcDbEntity
  8
Defpoints
 62
     0
100
AcDbPoint
 10
440.2222389780229
 20
2271.3549506019
 30
0.0
  0
ENDBLK
  5
153
330
36
100
AcDbEntity
  8
notes
390
1D
100
AcDbBlockEnd
  0
BLOCK
  5
154
330
37
100
AcDbEntity
  8
notes
390
1D
100
AcDbBlockBegin
  2
*D22
 70
     1
 10
0.0
 20
0.0
 30
0.0
  3
*D22
  1
*D22
  0
LINE
  5
155
330
37
100
AcDbEntity
  8
notes
  6
Continuous
 62
     0
370
    -2
100
AcDbLine
 10
1688.064194731656
 20
2036.354892063746
 30
0.0
 11
1688.064194731656
 21
1961.993022040316
 31
0.0
  0
LINE
  5
156
330
37
100
AcDbEntity
  8
notes
  6
Continuous
 62
     0
370
    -2
100
AcDbLine
 10
1438.064194731657
 20
2036.354892063746
 30
0.0
 11
1438.064194731657
 21
1961.993022040316
 31
0.0
  0
LINE
  5
157
330
37
100
AcDbEntity
  8
notes
  6
Continuous
 62
     0
370
    -2
100
AcDbLine
 10
1684.064438872281
 20
1961.993022040316
 30
0.0
 11
1442.063950591032
 21
1961.993022040316
 31
0.0
  0
INSERT
  5
158
102
{ACAD_REACTORS
330
159
102
}
330
37
100
AcDbEntity
  8
notes
 62
     0
370
    -2
100
AcDbBlockReference
  2
_DOT
 10
1688.064194731656
 20
1961.993022040316
 30
0.0
 41
3.999755859375
 42
3.999755859375
 43
3.999755859375
  0
INSERT
  5
159
330
37
100
AcDbEntity
  8
notes
 62
     0
370
    -2
100
AcDbBlockReference
  2
_DOT
 10
1438.064194731657
 20
1961.993022040316
 30
0.0
 41
3.999755859375
 42
3.999755859375
 43
3.999755859375
 50
180.0
  0
MTEXT
  5
15A
102
{ACAD_REACTORS
330
15B
102
}
330
37
100
AcDbEntity
  8
notes
  6
Continuous
 62
     0
370
     5
100
AcDbMText
 10
1563.064194731657
 20
1979.209330634066
 30
0.0
 40
24.4326171875
 41
0.0
 46
0.0
 71
     5
 72
     1
  1
\A1;250
  7
ＭＳ ゴシック
 73
     1
 44
1.0
  0
POINT
  5
15B
330
37
100
AcDbEntity
  8
Defpoints
 62
     0
100
AcDbPoint
 10
1688.064194731656
 20
2061.354892063746
 30
0.0
  0
POINT
  5
15C
330
37
100
AcDbEntity
  8
Defpoints
 62
     0
100
AcDbPoint
 10
1438.064194731657
 20
2061.354892063746
 30
0.0
  0
POINT
  5
15D
330
37
100
AcDbEntity
  8
Defpoints
 62
     0
100
AcDbPoint
 10
1438.064194731657
 20
1961.993022040316
 30
0.0
  0
ENDBLK
  5
160
330
37
100
AcDbEntity
  8
notes
390
1D
100
AcDbBlockEnd
  0
BLOCK
  5
161
330
38
100
AcDbEntity
  8
notes
390
1D
100
AcDbBlockBegin
  2
*D23
 70
     1
 10
0.0
 20
0.0
 30
0.0
  3
*D23
  1
*D23
  0
LINE
  5
162
330
38
100
AcDbEntity
  8
notes
  6
Continuous
 62
     0
370
    -2
100
AcDbLine
 10
1713.064194731656
 20
2311.354892063746
 30
0.0
 11
1782.922223632762
 21
2311.354892063746
 31
0.0
  0
LINE
  5
163
330
38
100
AcDbEntity
  8
notes
  6
Continuous
 62
     0
370
    -2
100
AcDbLine
 10
1713.064194731656
 20
2061.354892063746
 30
0.0
 11
1782.922223632762
 21
2061.354892063746
 31
0.0
  0
LINE
  5
164
330
38
100
AcDbEntity
  8
notes
  6
Continuous
 62
     0
370
    -2
100
AcDbLine
 10
1782.922223632762
 20
2307.355136204371
 30
0.0
 11
1782.922223632762
 21
2065.354647923121
 31
0.0
  0
INSERT
  5
165
102
{ACAD_REACTORS
330
166
102
}
330
38
100
AcDbEntity
  8
notes
 62
     0
370
    -2
100
AcDbBlockReference
  2
_DOT
 10
1782.922223632762
 20
2311.354892063746
 30
0.0
 41
3.999755859375
 42
3.999755859375
 43
3.999755859375
 50
90.0
  0
INSERT
  5
166
330
38
100
AcDbEntity
  8
notes
 62
     0
370
    -2
100
AcDbBlockReference
  2
_DOT
 10
1782.922223632762
 20
2061.354892063746
 30
0.0
 41
3.999755859375
 42
3.999755859375
 43
3.999755859375
 50
270.0
  0
MTEXT
  5
167
102
{ACAD_REACTORS
330
168
102
}
330
38
100
AcDbEntity
  8
notes
  6
Continuous
 62
     0
370
     5
100
AcDbMText
 10
1765.705915039012
 20
2186.354892063746
 30
0.0
 40
24.4326171875
 41
0.0
 46
0.0
 71
     5
 72
     1
  1
\A1;250
  7
ＭＳ ゴシック
 11
0.0
 21
1.0
 31
0.0
 73
     1
 44
1.0
  0
POINT
  5
168
330
38
100
AcDbEntity
  8
Defpoints
 62
     0
100
AcDbPoint
 10
1688.064194731656
 20
2311.354892063746
 30
0.0
  0
POINT
  5
169
330
38
100
AcDbEntity
  8
Defpoints
 62
     0
100
AcDbPoint
 10
1688.064194731656
 20
2061.354892063746
 30
0.0
  0
POINT
  5
16A
330
38
100
AcDbEntity
  8
Defpoints
 62
     0
100
AcDbPoint
 10
1782.922223632762
 20
2061.354892063746
 30
0.0
  0
ENDBLK
  5
16D
330
38
100
AcDbEntity
  8
notes
390
1D
100
AcDbBlockEnd
  0
BLOCK
  5
16E
330
39
100
AcDbEntity
  8
notes
390
1D
100
AcDbBlockBegin
  2
*D24
 70
     1
 10
0.0
 20
0.0
 30
0.0
  3
*D24
  1
*D24
  0
LINE
  5
16F
330
39
100
AcDbEntity
  8
0
  6
Continuous
 62
     0
370
    -2
390
1D
100
AcDbLine
 10
2222.793119306567
 20
1949.361870023429
 30
0.0
 11
2292.651148207672
 21
1949.361870023429
 31
0.0
  0
LINE
  5
170
330
39
100
AcDbEntity
  8
0
  6
Continuous
 62
     0
370
    -2
390
1D
100
AcDbLine
 10
2222.651148207672
 20
1979.361948044497
 30
0.0
 11
2292.651148207672
 21
1979.361948044497
 31
0.0
  0
LINE
  5
171
330
39
100
AcDbEntity
  8
0
  6
Continuous
 62
     0
370
    -2
390
1D
100
AcDbLine
 10
2292.651148207672
 20
1979.361948044497
 30
0.0
 11
2292.651148207672
 21
2018.75
 31
0.0
  0
LINE
  5
172
330
39
100
AcDbEntity
  8
0
  6
Continuous
 62
     0
370
    -2
390
1D
100
AcDbLine
 10
2292.651148207672
 20
1949.361870023429
 30
0.0
 11
2292.651148207672
 21
1979.361948044497
 31
0.0
  0
CIRCLE
  5
173
102
{ACAD_REACTORS
330
174
102
}
330
39
100
AcDbEntity
  8
0
  6
Continuous
 62
     0
370
    -2
390
1D
100
AcDbCircle
 10
2292.651148207672
 20
1949.361870023429
 30
0.0
 40
1.9998779296875
  0
HATCH
  5
174
330
39
100
AcDbEntity
  8
0
  6
Continuous
 62
     0
370
    -2
390
1D
100
AcDbHatch
 10
0.0
 20
0.0
 30
0.0
210
0.0
220
0.0
230
1.0
  2
SOLID
 70
     1
 71
     1
 91
        1
 92
        1
 93
        1
 72
     2
 10
2292.651148207672
 20
1949.361870023429
 40
1.9998779296875
 50
0.0
 51
360.0
 73
     0
 97
        1
330
173
 75
     0
 76
     1
 98
        1
 10
0.0
 20
0.0
  0
CIRCLE
  5
175
102
{ACAD_REACTORS
330
176
102
}
330
39
100
AcDbEntity
  8
0
  6
Continuous
 62
     0
370
    -2
390
1D
100
AcDbCircle
 10
2292.651148207672
 20
1979.361948044497
 30
0.0
 40
1.9998779296875
  0
HATCH
  5
176
330
39
100
AcDbEntity
  8
0
  6
Continuous
 62
     0
370
    -2
390
1D
100
AcDbHatch
 10
0.0
 20
0.0
 30
0.0
210
0.0
220
0.0
230
1.0
  2
SOLID
 70
     1
 71
     1
 91
        1
 92
        1
 93
        1
 72
     2
 10
2292.651148207672
 20
1979.361948044497
 40
1.9998779296875
 50
0.0
 51
360.0
 73
     0
 97
        1
330
175
 75
     0
 76
     1
 98
        1
 10
0.0
 20
0.0
  0
MTEXT
  5
177
330
39
100
AcDbEntity
  8
0
 62
     0
390
1D
100
AcDbMText
 10
2258.773531020172
 20
1987.0
 30
0.0
 40
24.4326171875
 41
0.0
 46
0.0
 71
     1
 72
     1
  1
30
  7
ＭＳ ゴシック
 11
0.0
 21
1.0
 31
0.0
 73
     1
 44
0.7828267384257843
  0
POINT
  5
178
330
39
100
AcDbEntity
  8
Defpoints
 62
     0
370
     0
390
1D
100
AcDbPoint
 10
2197.651148207672
 20
1979.361948044497
 30
0.0
  0
POINT
  5
179
330
39
100
AcDbEntity
  8
Defpoints
 62
     0
370
     0
390
1D
100
AcDbPoint
 10
2197.793119306567
 20
1949.361870023429
 30
0.0
  0
POINT
  5
17A
330
39
100
AcDbEntity
  8
Defpoints
 62
     0
370
     0
390
1D
100
AcDbPoint
 10
2292.651148207672
 20
1949.361870023429
 30
0.0
  0
ENDBLK
  5
17B
330
39
100
AcDbEntity
  8
notes
390
1D
100
AcDbBlockEnd
  0
BLOCK
  5
268
330
267
100
AcDbEntity
  8
0
100
AcDbBlockBegin
  2
*D25
 70
     1
 10
0.0
 20
0.0
 30
0.0
  3
*D25
  1
*D25
  0
LINE
  5
26A
330
267
100
AcDbEntity
  8
notes
  6
Continuous
 62
     0
370
    -2
100
AcDbLine
 10
795.8998898968695
 20
2370.993022040314
 30
0.0
 11
746.1393352093695
 21
2370.993022040314
 31
0.0
  0
LINE
  5
26B
330
267
100
AcDbEntity
  8
notes
  6
Continuous
 62
     0
370
    -2
100
AcDbLine
 10
746.1393352093695
 20
2370.993022040314
 30
0.0
 11
633.180057519477
 21
2293.51575177137
 31
0.0
  0
MTEXT
  5
26C
330
267
100
AcDbEntity
  8
notes
  6
Continuous
 62
     0
370
     5
100
AcDbMText
 10
773.5196125531195
 20
2389.125553778595
 30
0.0
 40
24.4326171875
 41
0.0
 46
0.0
 71
     5
 72
     1
  1
\A1;%%c35
  7
ＭＳ ゴシック
 73
     1
 44
1.0
  0
INSERT
  5
26D
330
267
100
AcDbEntity
  8
notes
 62
     0
370
    -2
100
AcDbBlockReference
  2
_DOT
 10
629.8816087857178
 20
2291.253389535704
 30
0.0
 41
3.999755859375
 42
3.999755859375
 43
3.999755859375
 50
214.4457093795549
  0
POINT
  5
26E
330
267
100
AcDbEntity
  8
Defpoints
 62
     0
100
AcDbPoint
 10
629.8816087857178
 20
2291.253389535704
 30
0.0
  0
POINT
  5
26F
330
267
100
AcDbEntity
  8
Defpoints
 62
     0
100
AcDbPoint
 10
615.4500147409257
 20
2281.3549506019
 30
0.0
  0
ENDBLK
  5
269
330
267
100
AcDbEntity
  8
0
100
AcDbBlockEnd
  0
BLOCK
  5
271
330
270
100
AcDbEntity
  8
0
100
AcDbBlockBegin
  2
*D26
 70
     1
 10
0.0
 20
0.0
 30
0.0
  3
*D26
  1
*D26
  0
LINE
  5
273
330
270
100
AcDbEntity
  8
notes
  6
Continuous
 62
     0
370
    -2
100
AcDbLine
 10
1666.27107542509
 20
1026.923570174689
 30
0.0
 11
1648.27107542509
 21
1026.923570174689
 31
0.0
  0
LINE
  5
274
330
270
100
AcDbEntity
  8
notes
  6
Continuous
 62
     0
370
    -2
100
AcDbLine
 10
1666.27107542509
 20
1161.923570174689
 30
0.0
 11
1648.27107542509
 21
1161.923570174689
 31
0.0
  0
LINE
  5
275
330
270
100
AcDbEntity
  8
notes
  6
Continuous
 62
     0
370
    -2
100
AcDbLine
 10
1648.27107542509
 20
1030.923326034064
 30
0.0
 11
1648.27107542509
 21
1157.923814315314
 31
0.0
  0
INSERT
  5
276
330
270
100
AcDbEntity
  8
notes
 62
     0
370
    -2
100
AcDbBlockReference
  2
_DOT
 10
1648.27107542509
 20
1026.923570174689
 30
0.0
 41
3.999755859375
 42
3.999755859375
 43
3.999755859375
 50
270.0
  0
INSERT
  5
277
330
270
100
AcDbEntity
  8
notes
 62
     0
370
    -2
100
AcDbBlockReference
  2
_DOT
 10
1648.27107542509
 20
1161.923570174689
 30
0.0
 41
3.999755859375
 42
3.999755859375
 43
3.999755859375
 50
90.0
  0
MTEXT
  5
278
330
270
100
AcDbEntity
  8
notes
  6
Continuous
 62
     0
370
     5
100
AcDbMText
 10
1631.981192004152
 20
1237.351760411858
 30
0.0
 40
24.4326171875
 41
0.0
 46
0.0
 71
     5
 72
     1
  1
\A1;135(深さ)
  7
ＭＳ ゴシック
 11
0.0
 21
1.0
 31
0.0
 73
     1
 44
1.0
  0
POINT
  5
279
330
270
100
AcDbEntity
  8
Defpoints
 62
     0
100
AcDbPoint
 10
1641.27107542509
 20
1026.923570174689
 30
0.0
  0
POINT
  5
27A
330
270
100
AcDbEntity
  8
Defpoints
 62
     0
100
AcDbPoint
 10
1641.27107542509
 20
1161.923570174689
 30
0.0
  0
POINT
  5
27B
330
270
100
AcDbEntity
  8
Defpoints
 62
     0
100
AcDbPoint
 10
1648.27107542509
 20
1161.923570174689
 30
0.0
  0
ENDBLK
  5
272
330
270
100
AcDbEntity
  8
0
100
AcDbBlockEnd
  0
BLOCK
  5
27D
330
27C
100
AcDbEntity
  8
0
100
AcDbBlockBegin
  2
*D27
 70
     1
 10
0.0
 20
0.0
 30
0.0
  3
*D27
  1
*D27
  0
LINE
  5
27F
330
27C
100
AcDbEntity
  8
notes
  6
Continuous
 62
     0
370
    -2
100
AcDbLine
 10
1712.922223632762
 20
2341.354970084813
 30
0.0
 11
1782.922223632762
 21
2341.354970084813
 31
0.0
  0
LINE
  5
280
330
27C
100
AcDbEntity
  8
notes
  6
Continuous
 62
     0
370
    -2
100
AcDbLine
 10
1713.064194731656
 20
2311.354892063746
 30
0.0
 11
1782.922223632762
 21
2311.354892063746
 31
0.0
  0
LINE
  5
281
330
27C
100
AcDbEntity
  8
notes
  6
Continuous
 62
     0
370
    -2
100
AcDbLine
 10
1782.922223632762
 20
2337.355214225438
 30
0.0
 11
1782.922223632762
 21
2315.354647923121
 31
0.0
  0
INSERT
  5
282
330
27C
100
AcDbEntity
  8
notes
 62
     0
370
    -2
100
AcDbBlockReference
  2
_DOT
 10
1782.922223632762
 20
2341.354970084813
 30
0.0
 41
3.999755859375
 42
3.999755859375
 43
3.999755859375
 50
90.0
  0
INSERT
  5
283
330
27C
100
AcDbEntity
  8
notes
 62
     0
370
    -2
100
AcDbBlockReference
  2
_DOT
 10
1782.922223632762
 20
2311.354892063746
 30
0.0
 41
3.999755859375
 42
3.999755859375
 43
3.999755859375
 50
270.0
  0
MTEXT
  5
284
330
27C
100
AcDbEntity
  8
notes
  6
Continuous
 62
     0
370
     5
100
AcDbMText
 10
1770.859655342681
 20
2362.471326397078
 30
0.0
 40
24.4326171875
 41
0.0
 46
0.0
 71
     5
 72
     1
  1
\A1;30
  7
ＭＳ ゴシック
 11
0.0
 21
1.0
 31
0.0
 73
     1
 44
1.0
  0
POINT
  5
285
330
27C
100
AcDbEntity
  8
Defpoints
 62
     0
100
AcDbPoint
 10
1687.922223632762
 20
2341.354970084813
 30
0.0
  0
POINT
  5
286
330
27C
100
AcDbEntity
  8
Defpoints
 62
     0
100
AcDbPoint
 10
1688.064194731656
 20
2311.354892063746
 30
0.0
  0
POINT
  5
287
330
27C
100
AcDbEntity
  8
Defpoints
 62
     0
100
AcDbPoint
 10
1782.922223632762
 20
2311.354892063746
 30
0.0
  0
ENDBLK
  5
27E
330
27C
100
AcDbEntity
  8
0
100
AcDbBlockEnd
  0
ENDSEC
  0
SECTION
  2
ENTITIES
  0
MTEXT
  5
17C
330
A
100
AcDbEntity
  8
template
 62
     7
390
1D
100
AcDbMText
 10
82.0
 20
349.3386669752235
 30
0.0
 40
16.28841145833333
 41
0.0
 46
0.0
 71
     1
 72
     1
  1
品名
  7
ＭＳ ゴシック
 73
     1
 44
0.7828267384257843
  0
MTEXT
  5
17D
330
A
100
AcDbEntity
  8
template
 62
     7
390
1D
100
AcDbMText
 10
82.0
 20
264.3386669752235
 30
0.0
 40
16.28841145833333
 41
0.0
 46
0.0
 71
     1
 72
     1
  1
仕様
  7
ＭＳ ゴシック
 73
     1
 44
0.7828267384257843
  0
MTEXT
  5
17E
330
A
100
AcDbEntity
  8
template
 62
     7
390
1D
100
AcDbMText
 10
135.0
 20
320.7562060377234
 30
0.0
 40
24.4326171875
 41
0.0
 46
0.0
 71
     1
 72
     1
  1
洗面器 -POZZI GINORI,Fantasia2-
  7
ＭＳ ゴシック
 73
     1
 44
0.7828267384257843
  0
LINE
  5
17F
330
A
100
AcDbEntity
  8
template
  6
Continuous
 62
     7
370
     5
390
1D
100
AcDbLine
 10
2024.999999999518
 20
272.7535888502234
 30
0.0
 11
74.99999999951797
 21
272.7535888502234
 31
0.0
  0
LWPOLYLINE
  5
180
330
A
100
AcDbEntity
  8
template
  6
Continuous
 62
     7
370
     5
390
1D
100
AcDbPolyline
 90
        5
 70
   128
 43
0.0
 10
2025.0
 20
2902.753588850223
 10
75.0
 20
2902.753588850223
 10
75.0
 20
102.7535888502234
 10
2025.0
 20
102.7535888502234
 10
2025.0
 20
2902.753588850223
  0
LINE
  5
181
330
A
100
AcDbEntity
  8
template
  6
Continuous
 62
     7
370
     5
390
1D
100
AcDbLine
 10
2024.999999999518
 20
357.7535888502234
 30
0.0
 11
74.99999999951797
 21
357.7535888502234
 31
0.0
  0
LINE
  5
182
330
A
100
AcDbEntity
  8
template
  6
Continuous
 62
     7
370
     5
390
1D
100
AcDbLine
 10
2025.0
 20
187.7535888502234
 30
0.0
 11
1272.0
 21
187.7535888502234
 31
0.0
  0
MTEXT
  5
183
330
A
100
AcDbEntity
  8
template
 62
     7
390
1D
100
AcDbMText
 10
135.0
 20
235.7562060377234
 30
0.0
 40
24.4326171875
 41
0.0
 46
71.60180985835703
 71
     1
 72
     1
  1
{壁掛け、カウンター置き/オーバーフロー付/壁取付ボルト付属/\P陶器/ホワイト}
  7
ＭＳ ゴシック
 73
     1
 44
1.130749733281688
1001
ACAD
1000
ACAD_MTEXT_DEFINED_HEIGHT_BEGIN
1070
    46
1040
71.60180985835703
1000
ACAD_MTEXT_DEFINED_HEIGHT_END
  0
MTEXT
  5
184
330
A
100
AcDbEntity
  8
template
 62
     7
390
1D
100
AcDbMText
 10
75.00000000020327
 20
90.89976679336655
 30
0.0
 40
21.71788194444445
 41
0.0
 46
0.0
 71
     1
 72
     1
  1
111208S
  7
ＭＳ ゴシック
 73
     1
 44
0.7828267384257843
  0
MTEXT
  5
185
330
A
100
AcDbEntity
  8
template
 62
     7
390
1D
100
AcDbMText
 10
1301.87140625226
 20
157.8431943769158
 30
0.0
 40
24.4326171875
 41
0.0
 46
0.0
 71
     1
 72
     1
  1
大洋金物株式会社 ティーフォルム事業部
  7
ＭＳ ゴシック
 73
     1
 44
0.7828267384257843
  0
INSERT
  5
186
330
A
100
AcDbEntity
  8
template
 62
     7
390
1D
100
AcDbBlockReference
  2
グループ
 10
1049.999999999759
 20
1496.756296208924
 30
0.0
  0
MTEXT
  5
187
330
A
100
AcDbEntity
  8
template
 62
     7
390
1D
100
AcDbMText
 10
1834.000000000259
 20
235.7562060377234
 30
0.0
 40
24.4326171875
 41
0.0
 46
0.0
 71
     1
 72
     1
  1
1:10
  7
ＭＳ ゴシック
 73
     1
 44
0.7828267384257843
  0
MTEXT
  5
188
330
A
100
AcDbEntity
  8
template
 62
     7
390
1D
100
AcDbMText
 10
1781.000000000259
 20
264.3386669752235
 30
0.0
 40
16.28841145833333
 41
0.0
 46
0.0
 71
     1
 72
     1
  1
縮尺
  7
ＭＳ ゴシック
 73
     1
 44
0.7828267384257843
  0
LINE
  5
189
330
A
100
AcDbEntity
  8
template
  6
Continuous
 62
     7
370
     5
390
1D
100
AcDbLine
 10
1774.000000000259
 20
187.7535888502234
 30
0.0
 11
1774.000000000259
 21
272.7535888502234
 31
0.0
  0
MTEXT
  5
18A
330
A
100
AcDbEntity
  8
template
 62
     7
390
1D
100
AcDbMText
 10
1530.000000000259
 20
264.3386669752235
 30
0.0
 40
16.28841145833333
 41
0.0
 46
0.0
 71
     1
 72
     1
  1
容量
  7
ＭＳ ゴシック
 73
     1
 44
0.7828267384257843
  0
MTEXT
  5
18B
330
A
100
AcDbEntity
  8
template
 62
     7
390
1D
100
AcDbMText
 10
1583.000000000259
 20
235.7562060377234
 30
0.0
 40
24.4326171875
 41
0.0
 46
0.0
 71
     1
 72
     1
  1
8.8L
  7
ＭＳ ゴシック
 73
     1
 44
0.7828267384257843
  0
LINE
  5
18C
330
A
100
AcDbEntity
  8
template
  6
Continuous
 62
     7
370
     5
390
1D
100
AcDbLine
 10
1523.000000000259
 20
187.7535888502234
 30
0.0
 11
1523.000000000259
 21
272.7535888502234
 31
0.0
  0
MTEXT
  5
18D
330
A
100
AcDbEntity
  8
template
 62
     7
390
1D
100
AcDbMText
 10
1279.000000000259
 20
349.3386669752235
 30
0.0
 40
16.28841145833333
 41
0.0
 46
0.0
 71
     1
 72
     1
  1
品番
  7
ＭＳ ゴシック
 73
     1
 44
0.7828267384257843
  0
MTEXT
  5
18E
330
A
100
AcDbEntity
  8
template
 62
     7
390
1D
100
AcDbMText
 10
1279.000000000259
 20
264.3386669752235
 30
0.0
 40
16.28841145833333
 41
0.0
 46
0.0
 71
     1
 72
     1
  1
重量
  7
ＭＳ ゴシック
 73
     1
 44
0.7828267384257843
  0
MTEXT
  5
18F
330
A
100
AcDbEntity
  8
template
 62
     7
390
1D
100
AcDbMText
 10
1332.000000000259
 20
320.7562060377234
 30
0.0
 40
24.4326171875
 41
0.0
 46
0.0
 71
     1
 72
     1
  1
ARJ70-1401
  7
ＭＳ ゴシック
 73
     1
 44
0.7828267384257843
  0
MTEXT
  5
190
330
A
100
AcDbEntity
  8
template
 62
     7
390
1D
100
AcDbMText
 10
1332.000000000259
 20
235.7562060377234
 30
0.0
 40
24.4326171875
 41
0.0
 46
0.0
 71
     1
 72
     1
  1
18kg
  7
ＭＳ ゴシック
 73
     1
 44
0.7828267384257843
  0
LINE
  5
191
330
A
100
AcDbEntity
  8
template
  6
Continuous
 62
     7
370
     5
390
1D
100
AcDbLine
 10
1272.000000000259
 20
102.7535888502234
 30
0.0
 11
1272.000000000259
 21
357.7535888502234
 31
0.0
  0
DIMENSION
  5
192
330
A
100
AcDbEntity
  8
notes
  6
Continuous
 62
     7
370
     5
390
1D
100
AcDbDimension
  2
*D3
 10
265.5761758800845
 20
2509.993022040317
 30
0.0
 11
615.5761758800845
 21
2527.209330634067
 31
0.0
 70
    32
 71
     5
 42
700.0
 73
     0
 74
     0
 75
     0
  3
tform線あり
100
AcDbAlignedDimension
 13
965.5761758800845
 23
2341.354924560823
 33
0.0
 14
265.5761758800845
 24
2341.354924560823
 34
0.0
100
AcDbRotatedDimension
1001
ACAD
1000
DSTYLE
1002
{
1070
   279
1070
     2
1070
   340
1005
3A
1070
   147
1040
5.0
1002
}
  0
DIMENSION
  5
193
330
A
100
AcDbEntity
  8
notes
  6
Continuous
 62
     7
370
     5
390
1D
100
AcDbDimension
  2
*D4
 10
315.5761758800845
 20
2447.993022040317
 30
0.0
 11
615.5761758800845
 21
2465.209330634067
 31
0.0
 70
    32
 71
     5
 42
600.0
 73
     0
 74
     0
 75
     0
  3
tform線あり
100
AcDbAlignedDimension
 13
915.5761758800845
 23
2341.993022040317
 33
0.0
 14
315.5761758800845
 24
2341.993022040317
 34
0.0
100
AcDbRotatedDimension
1001
ACAD
1000
DSTYLE
1002
{
1070
   279
1070
     2
1070
   340
1005
3A
1070
   147
1040
5.0
1002
}
  0
DIMENSION
  5
194
330
A
100
AcDbEntity
  8
notes
  6
Continuous
 62
     7
370
     5
390
1D
100
AcDbDimension
  2
*D25
 10
601.0184206961335
 20
2271.456511668095
 30
0.0
 11
773.5196125531195
 21
2370.993022040314
 31
0.0
 70
   163
 71
     5
 42
34.99999999999648
 73
     0
 74
     0
 75
     0
  3
tform線あり
100
AcDbDiametricDimension
 15
629.8816087857178
 25
2291.253389535704
 35
0.0
 40
0.0
1001
ACAD
1000
DSTYLE
1002
{
1070
   289
1070
     0
1070
   342
1005
4A
1070
   340
1005
3A
1070
    73
1070
     1
1070
    74
1070
     1
1070
    75
1070
     1
1070
    76
1070
     1
1070
     3
1000

1070
   174
1070
     0
1070
   147
1040
5.0
1002
}
  0
DIMENSION
  5
195
330
A
100
AcDbEntity
  8
notes
  6
Continuous
 62
     7
370
     5
390
1D
100
AcDbDimension
  2
*D6
 10
615.4500147409256
 20
2395.993022040317
 30
0.0
 11
565.4500147409256
 21
2413.209330634067
 31
0.0
 70
    32
 71
     5
 42
100.0
 73
     0
 74
     0
 75
     0
  3
tform線あり
100
AcDbAlignedDimension
 13
515.4500147409256
 23
2298.8549506019
 33
0.0
 14
615.4500147409256
 24
2298.8549506019
 34
0.0
100
AcDbRotatedDimension
1001
ACAD
1000
DSTYLE
1002
{
1070
   279
1070
     2
1070
   340
1005
3A
1070
   147
1040
5.0
1002
}
  0
DIMENSION
  5
196
330
A
100
AcDbEntity
  8
notes
  6
Continuous
 62
     7
370
     5
390
1D
100
AcDbDimension
  2
*D7
 10
615.4500147409256
 20
2395.993022040317
 30
0.0
 11
665.4500147409256
 21
2413.209330634067
 31
0.0
 70
    32
 71
     5
 42
100.0
 73
     0
 74
     0
 75
     0
  3
tform線あり
100
AcDbAlignedDimension
 13
715.4500147409256
 23
2298.8549506019
 33
0.0
 14
615.4500147409256
 24
2298.8549506019
 34
0.0
100
AcDbRotatedDimension
1001
ACAD
1000
DSTYLE
1002
{
1070
   279
1070
     2
1070
   340
1005
3A
1070
   147
1040
5.0
1002
}
  0
DIMENSION
  5
197
330
A
100
AcDbEntity
  8
notes
  6
Continuous
 62
     7
370
     5
390
1D
100
AcDbDimension
  2
*D8
 10
1065.576175880085
 20
2341.354924560823
 30
0.0
 11
1048.359867286335
 21
2101.354924560823
 31
0.0
 70
    32
 71
     5
 42
480.0
 73
     0
 74
     0
 75
     0
  3
tform線あり
100
AcDbAlignedDimension
 13
815.2222389780229
 23
1861.354924560823
 33
0.0
 14
965.5761758800845
 24
2341.354924560823
 34
0.0
 50
90.0
100
AcDbRotatedDimension
1001
ACAD
1000
DSTYLE
1002
{
1070
   279
1070
     2
1070
   340
1005
3A
1070
   147
1040
5.0
1002
}
  0
DIMENSION
  5
198
330
A
100
AcDbEntity
  8
notes
  6
Continuous
 62
     7
370
     5
390
1D
100
AcDbDimension
  2
*D9
 10
165.5761758800845
 20
2341.354924560823
 30
0.0
 11
148.3598672863345
 21
2281.354924560823
 31
0.0
 70
    32
 71
     5
 42
120.0
 73
     0
 74
     0
 75
     0
  3
tform線あり
100
AcDbAlignedDimension
 13
265.5761758800845
 23
2221.354924560823
 33
0.0
 14
265.5761758800845
 24
2341.354924560823
 34
0.0
 50
90.0
100
AcDbRotatedDimension
1001
ACAD
1000
DSTYLE
1002
{
1070
   279
1070
     2
1070
   340
1005
3A
1070
   147
1040
5.0
1002
}
  0
DIMENSION
  5
199
330
A
100
AcDbEntity
  8
notes
  6
Continuous
 62
     7
370
     5
390
1D
100
AcDbDimension
  2
*D10
 10
165.5761758800845
 20
2221.354924560823
 30
0.0
 11
148.3598672863345
 21
2056.354924560823
 31
0.0
 70
    32
 71
     5
 42
330.0
 73
     0
 74
     0
 75
     0
  3
tform線あり
100
AcDbAlignedDimension
 13
265.5761758800845
 23
1891.354924560823
 33
0.0
 14
265.5761758800845
 24
2221.354924560823
 34
0.0
 50
90.0
100
AcDbRotatedDimension
1001
ACAD
1000
DSTYLE
1002
{
1070
   279
1070
     2
1070
   340
1005
3A
1070
   147
1040
5.0
1002
}
  0
DIMENSION
  5
19A
330
A
100
AcDbEntity
  8
notes
  6
Continuous
 62
     7
370
     5
390
1D
100
AcDbDimension
  2
*D11
 10
295.5761758800845
 20
1761.354924560823
 30
0.0
 11
615.5761758800846
 21
1778.571233154573
 31
0.0
 70
    32
 71
     5
 42
640.0000000000002
 73
     0
 74
     0
 75
     0
  3
tform線あり
100
AcDbAlignedDimension
 13
935.5761758800847
 23
1861.354924560823
 33
0.0
 14
295.5761758800845
 24
1861.354924560823
 34
0.0
100
AcDbRotatedDimension
1001
ACAD
1000
DSTYLE
1002
{
1070
   279
1070
     2
1070
   340
1005
3A
1070
   147
1040
5.0
1002
}
  0
DIMENSION
  5
19B
330
A
100
AcDbEntity
  8
notes
  6
Continuous
 62
     7
370
     5
390
1D
100
AcDbDimension
  2
*D12
 10
1801.125048394856
 20
1244.923570174689
 30
0.0
 11
1831.125048436448
 21
1262.139878768439
 31
0.0
 70
    32
 71
     5
 42
60.00000008318239
 73
     0
 74
     0
 75
     0
  3
tform線あり
100
AcDbAlignedDimension
 13
1861.125048478039
 23
1163.447047824374
 33
0.0
 14
1801.125048394856
 24
1161.923570174689
 34
0.0
100
AcDbRotatedDimension
1001
ACAD
1000
DSTYLE
1002
{
1070
   279
1070
     2
1070
   340
1005
3A
1070
   147
1040
5.0
1002
}
  0
DIMENSION
  5
19C
330
A
100
AcDbEntity
  8
notes
  6
Continuous
 62
     7
370
     5
390
1D
100
AcDbDimension
  2
*D13
 10
1861.125039933054
 20
875.877549474755
 30
0.0
 11
1753.625039933054
 21
893.093858068505
 31
0.0
 70
    32
 71
     5
 42
215.0
 73
     0
 74
     0
 75
     0
  3
tform線あり
100
AcDbAlignedDimension
 13
1646.125039933054
 23
981.9469156977196
 33
0.0
 14
1861.125039933054
 24
1006.94548026796
 34
0.0
100
AcDbRotatedDimension
1001
ACAD
1000
DSTYLE
1002
{
1070
   279
1070
     2
1070
   340
1005
3A
1070
   147
1040
5.0
1002
}
  0
DIMENSION
  5
19D
330
A
100
AcDbEntity
  8
notes
  6
Continuous
 62
     7
370
     5
390
1D
100
AcDbDimension
  2
*D14
 10
1861.125105502352
 20
825.877549474755
 30
0.0
 11
1656.125105502352
 21
843.093858068505
 31
0.0
 70
    32
 71
     5
 42
410.0
 73
     0
 74
     0
 75
     0
  3
tform線あり
100
AcDbAlignedDimension
 13
1451.125105502352
 23
1006.945591839293
 33
0.0
 14
1861.125105502352
 24
1006.94548026796
 34
0.0
100
AcDbRotatedDimension
1001
ACAD
1000
DSTYLE
1002
{
1070
   279
1070
     2
1070
   340
1005
3A
1070
   147
1040
5.0
1002
}
  0
DIMENSION
  5
19E
330
A
100
AcDbEntity
  8
notes
  6
Continuous
 62
     7
370
     5
390
1D
100
AcDbDimension
  2
*D15
 10
920.5761758800847
 20
876.947001340382
 30
0.0
 11
615.5761758800846
 21
894.163309934132
 31
0.0
 70
    32
 71
     5
 42
610.0000000000002
 73
     0
 74
     0
 75
     0
  3
tform線あり
100
AcDbAlignedDimension
 13
310.5761758800845
 23
1003.993022040316
 33
0.0
 14
920.5761758800847
 24
1003.993022040316
 34
0.0
100
AcDbRotatedDimension
1001
ACAD
1000
DSTYLE
1002
{
1070
   279
1070
     2
1070
   340
1005
3A
1070
   147
1040
5.0
1002
}
  0
DIMENSION
  5
19F
330
A
100
AcDbEntity
  8
notes
  6
Continuous
 62
     7
370
     5
390
1D
100
AcDbDimension
  2
*D26
 10
1648.27107542509
 20
1161.923570174689
 30
0.0
 11
1631.981192004152
 21
1237.351760411858
 31
0.0
 70
   160
 71
     5
 42
135.0
 73
     0
 74
     0
 75
     0
  3
tform線あり
100
AcDbAlignedDimension
 13
1641.27107542509
 23
1026.923570174689
 33
0.0
 14
1641.27107542509
 24
1161.923570174689
 34
0.0
 50
90.0
100
AcDbRotatedDimension
1001
ACAD
1000
DSTYLE
1002
{
1070
   279
1070
     2
1070
   340
1005
3A
1070
     3
1000
<>(深さ)
1070
   174
1070
     0
1070
   147
1040
5.0
1002
}
  0
DIMENSION
  5
1A0
330
A
100
AcDbEntity
  8
notes
  6
Continuous
 62
     7
370
     5
390
1D
100
AcDbDimension
  2
*D17
 10
475.5761758800845
 20
1262.993022040316
 30
0.0
 11
615.5761758800845
 21
1280.209330634066
 31
0.0
 70
    32
 71
     5
 42
280.0
 73
     0
 74
     0
 75
     0
  3
tform線あり
100
AcDbAlignedDimension
 13
755.5761758800845
 23
1121.946979296786
 33
0.0
 14
475.5761758800845
 24
1121.946979296786
 34
0.0
100
AcDbRotatedDimension
1001
ACAD
1000
DSTYLE
1002
{
1070
   279
1070
     2
1070
   340
1005
3A
1070
   147
1040
5.0
1002
}
  0
DIMENSION
  5
1A1
330
A
100
AcDbEntity
  8
notes
  6
Continuous
 62
     7
370
     5
390
1D
100
AcDbDimension
  2
*D18
 10
1281.039021123136
 20
1161.945345746828
 30
0.0
 11
1263.822712529386
 21
1084.445578049991
 31
0.0
 70
    32
 71
     5
 42
154.9995353936728
 73
     0
 74
     0
 75
     0
  3
tform線あり
100
AcDbAlignedDimension
 13
1458.716873509448
 23
1006.945810353155
 33
0.0
 14
1386.87677123784
 24
1161.945345746828
 34
0.0
 50
90.0
100
AcDbRotatedDimension
1001
ACAD
1000
DSTYLE
1002
{
1070
   279
1070
     2
1070
   340
1005
3A
1070
   147
1040
5.0
1002
}
  0
DIMENSION
  5
1A2
330
A
100
AcDbEntity
  8
notes
  6
Continuous
 62
     7
370
     5
390
1D
100
AcDbDimension
  2
*D19
 10
165.5761758800845
 20
1106.946979296786
 30
0.0
 11
148.3598672863345
 21
1134.446990318584
 31
0.0
 70
    32
 71
     5
 42
55.00002204359633
 73
     0
 74
     0
 75
     0
  3
tform線あり
100
AcDbAlignedDimension
 13
271.4497706725247
 23
1161.947001340382
 33
0.0
 14
460.5761758800847
 24
1106.946979296786
 34
0.0
 50
90.0
100
AcDbRotatedDimension
1001
ACAD
1000
DSTYLE
1002
{
1070
   279
1070
     2
1070
   340
1005
3A
1070
   147
1040
5.0
1002
}
  0
DIMENSION
  5
1A3
330
A
100
AcDbEntity
  8
notes
  6
Continuous
 62
     7
370
     5
390
1D
100
AcDbDimension
  2
*D20
 10
1065.576175880085
 20
1161.947001340382
 30
0.0
 11
1048.359867286335
 21
1069.447001340382
 31
0.0
 70
    32
 71
     5
 42
185.0000000000001
 73
     0
 74
     0
 75
     0
  3
tform線あり
100
AcDbAlignedDimension
 13
643.3761890742992
 23
976.9470013403819
 33
0.0
 14
959.4503805271465
 24
1161.947001340382
 34
0.0
 50
90.0
100
AcDbRotatedDimension
1001
ACAD
1000
DSTYLE
1002
{
1070
   279
1070
     2
1070
   340
1005
3A
1070
   147
1040
5.0
1002
}
  0
MTEXT
  5
1A4
330
A
100
AcDbEntity
  8
notes
 62
     7
390
1D
100
AcDbMText
 10
205.8827293162612
 20
1659.781129566055
 30
0.0
 40
24.4326171875
 41
842.8831565639147
 46
0.0
 71
     1
 72
     1
  1
＝φ30もしくはφ35の水栓取付用穴あけ加工を承ります。\P   必要な場合、ご注文の際にご指示ください。
  7
ＭＳ ゴシック
 73
     1
 44
1.043768984567712
  0
CIRCLE
  5
1A5
330
A
100
AcDbEntity
  8
notes
  6
STYLE_11
 62
     7
370
    15
390
1D
100
AcDbCircle
 10
180.2222389780229
 20
1647.993022040316
 30
0.0
 40
17.50000000000011
  0
MTEXT
  5
1A6
330
A
100
AcDbEntity
  8
notes
 62
     7
390
1D
100
AcDbMText
 10
1422.39607542509
 20
2505.870639227816
 30
0.0
 40
24.4326171875
 41
0.0
 46
0.0
 71
     1
 72
     1
  1
カウンター切込寸法
  7
ＭＳ ゴシック
 73
     1
 44
0.7828267384257843
  0
MTEXT
  5
1A7
330
A
100
AcDbEntity
  8
notes
 62
     7
390
1D
100
AcDbMText
 10
1186.273272041051
 20
1589.763393817511
 30
0.0
 40
24.4326171875
 41
764.7717154610109
 46
0.0
 71
     1
 72
     1
  1
※陶器製品には寸法公差があります。\P  洗面器の収め方をご確認の上、必ず現物を合わせて\P  カウンターに切込を行ってください。
  7
ＭＳ ゴシック
 73
     1
 44
1.043768984567712
  0
MTEXT
  5
1A8
330
A
100
AcDbEntity
  8
notes
 62
     7
390
1D
100
AcDbMText
 10
1189.044933672445
 20
1650.122835843777
 30
0.0
 40
24.4326171875
 41
0.0
 46
0.0
 71
     1
 72
     1
  1
※カウンタートップ置きの場合も壁固定が必要です。\P
  7
ＭＳ ゴシック
 73
     1
 44
0.7828267384257843
  0
DIMENSION
  5
1A9
330
A
100
AcDbEntity
  8
notes
  6
Continuous
 62
     7
370
     5
390
1D
100
AcDbDimension
  2
*D21
 10
440.2222389780229
 20
2271.3549506019
 30
0.0
 11
423.0059303842729
 21
2306.354939204011
 31
0.0
 70
    32
 71
     5
 42
69.99997720422198
 73
     0
 74
     0
 75
     0
  3
tform線あり
100
AcDbAlignedDimension
 13
497.9500147409256
 23
2341.354927806122
 33
0.0
 14
497.9500147409256
 24
2271.3549506019
 34
0.0
 50
90.0
100
AcDbRotatedDimension
1001
ACAD
1000
DSTYLE
1002
{
1070
   279
1070
     2
1070
   340
1005
3A
1070
   147
1040
5.0
1002
}
  0
DIMENSION
  5
1AA
330
A
100
AcDbEntity
  8
notes
  6
Continuous
 62
     7
370
     5
390
1D
100
AcDbDimension
  2
*D22
 10
1438.064194731657
 20
1961.993022040316
 30
0.0
 11
1563.064194731657
 21
1979.209330634066
 31
0.0
 70
    32
 71
     5
 42
249.9999999999995
 73
     0
 74
     0
 75
     0
  3
tform線あり
100
AcDbAlignedDimension
 13
1688.064194731656
 23
2061.354892063746
 33
0.0
 14
1438.064194731657
 24
2061.354892063746
 34
0.0
100
AcDbRotatedDimension
1001
ACAD
1000
DSTYLE
1002
{
1070
   279
1070
     2
1070
   340
1005
3A
1070
   147
1040
5.0
1002
}
  0
DIMENSION
  5
1AB
330
A
100
AcDbEntity
  8
notes
  6
Continuous
 62
     7
370
     5
390
1D
100
AcDbDimension
  2
*D23
 10
1782.922223632762
 20
2061.354892063746
 30
0.0
 11
1765.705915039012
 21
2186.354892063746
 31
0.0
 70
    32
 71
     5
 42
250.0
 73
     0
 74
     0
 75
     0
  3
tform線あり
100
AcDbAlignedDimension
 13
1688.064194731656
 23
2311.354892063746
 33
0.0
 14
1688.064194731656
 24
2061.354892063746
 34
0.0
 50
90.0
100
AcDbRotatedDimension
1001
ACAD
1000
DSTYLE
1002
{
1070
   279
1070
     2
1070
   340
1005
3A
1070
   147
1040
5.0
1002
}
  0
DIMENSION
  5
1AC
330
A
100
AcDbEntity
  8
notes
  6
Continuous
 62
     7
370
     5
390
1D
100
AcDbDimension
  2
*D27
 10
1782.922223632762
 20
2311.354892063746
 30
0.0
 11
1770.859655342681
 21
2362.471326397078
 31
0.0
 70
   160
 71
     5
 42
30.00007802106757
 73
     0
 74
     0
 75
     0
  3
tform線あり
100
AcDbAlignedDimension
 13
1687.922223632762
 23
2341.354970084813
 33
0.0
 14
1688.064194731656
 24
2311.354892063746
 34
0.0
 50
90.0
100
AcDbRotatedDimension
1001
ACAD
1000
DSTYLE
1002
{
1070
   279
1070
     2
1070
   340
1005
3A
1070
   174
1070
     0
1070
   147
1040
5.0
1002
}
  0
LINE
  5
1AD
330
A
100
AcDbEntity
  8
ARJ70-1401
  6
Continuous
 62
     7
370
    35
390
1D
100
AcDbLine
 10
615.4500147409256
 20
2341.3549506019
 30
0.0
 11
917.1826704707016
 21
2341.354892063769
 31
0.0
  0
LINE
  5
1AE
330
A
100
AcDbEntity
  8
ARJ70-1401
  6
Continuous
 62
     7
370
    35
390
1D
100
AcDbLine
 10
615.4500185541594
 20
2341.3549506019
 30
0.0
 11
313.7172438713164
 21
2341.354892063746
 31
0.0
  0
LWPOLYLINE
  5
1AF
330
A
100
AcDbEntity
  8
ARJ70-1401
  6
Continuous
 62
     7
370
    35
390
1D
100
AcDbPolyline
 90
      147
 70
   128
 43
0.0
 10
615.4259587338236
 20
2221.356599780825
 42
-0.0003206487108652
 10
619.6804395633624
 20
2221.290291958141
 10
624.7770185271986
 20
2221.207590441963
 42
-0.0021918976770782
 10
639.2233093962325
 20
2220.909821311994
 10
648.3660986379614
 20
2220.681267797198
 42
-0.0033088026326724
 10
670.4626506513653
 20
2219.982549739798
 10
674.6811417232254
 20
2219.821205886582
 42
-0.0018202511214132
 10
688.3340054674052
 20
2219.249244229971
 42
-0.00187351455485
 10
701.9822659455356
 20
2218.57643851878
 10
704.6342114297161
 20
2218.435745067786
 42
-0.0042007168680178
 10
723.5740585562353
 20
2217.271287167271
 10
726.9794589558571
 20
2217.033182917747
 42
-0.0047952010787342
 10
747.8642653553684
 20
2215.371512943403
 10
748.9829529210224
 20
2215.271701082054
 42
-0.0054707116997716
 10
767.5940306257405
 20
2213.405718756704
 10
768.6207066147163
 20
2213.291423234302
 42
-0.006245214123701
 10
785.132442879406
 20
2211.244147476824
 10
786.0664337997471
 20
2211.116478631245
 42
-0.0071221262733585
 10
800.6531918481467
 20
2208.910505858233
 10
801.4938972507728
 20
2208.771088808499
 42
-0.0080919704633897
 10
814.3299042302579
 20
2206.428411347283
 10
815.0769393016244
 20
2206.279540755326
 42
-0.0091237682498405
 10
826.3361008741538
 20
2203.821384630173
 10
826.9895204947186
 20
2203.666184165894
 42
-0.0101499352472069
 10
836.8451465386258
 20
2201.112871357964
 10
837.4057691503215
 20
2200.955420081536
 42
-0.0110521662140286
 10
846.0301898035525
 20
2198.326260930417
 42
-0.011584416522025
 10
854.5265848080583
 20
2195.309563450842
 10
856.183446568901
 20
2194.677693139331
 42
-0.0224536010928928
 10
865.666382562006
 20
2190.564684100062
 10
866.6633542363434
 20
2190.077992072372
 42
-0.0087558956962088
 10
873.9028831088615
 20
2186.385513317233
 10
874.4060235281152
 20
2186.117685602449
 42
-0.0094530195147533
 10
880.5103367714032
 20
2182.718656739091
 10
881.0523966189817
 20
2182.40325498197
 42
-0.0041524105803615
 10
885.9840335437716
 20
2179.478653865769
 42
-0.0093533063086414
 10
890.8342038059391
 20
2176.42235748628
 10
891.6794858425485
 20
2175.8673530917
 42
-0.0106454960054333
 10
897.1064769241477
 20
2172.136317842846
 10
897.3188199901074
 20
2171.983575285798
 42
-0.0119820520215484
 10
902.1540292459711
 20
2168.326577935677
 10
902.3343420207007
 20
2168.18328339228
 42
-0.0133288080838014
 10
906.6252732726637
 20
2164.582580709854
 10
906.7739818505029
 20
2164.450881531541
 42
-0.0145918807209517
 10
910.5675050983534
 20
2160.888438027269
 10
910.6857505254306
 20
2160.770716895446
 42
-0.0156464397502061
 10
914.0279179337513
 20
2157.228371147695
 42
-0.0162995723811476
 10
917.1369829403516
 20
2153.480033953465
 10
917.7152368794125
 20
2152.734726520838
 42
-0.0326947376166514
 10
921.4928228041829
 20
2147.147115978141
 10
921.7529981331056
 20
2146.702165062034
 42
-0.0176030146964437
 10
924.5426268756235
 20
2141.521062941597
 42
-0.0235776205545727
 10
926.8954681839728
 20
2136.130708117333
 10
927.0775369045723
 20
2135.653405902422
 42
-0.0210986565572857
 10
929.210716017096
 20
2129.263989012306
 10
929.2133613377948
 20
2129.254790833697
 42
-0.0179252899762438
 10
930.8377167028957
 20
2122.735462986349
 42
-0.0144393225391218
 10
932.0372832049663
 20
2116.123233260168
 10
932.0392658893879
 20
2116.110166636169
 42
-0.0108410405723787
 10
932.9066960230546
 20
2109.418344681365
 10
932.9096825984825
 20
2109.39059825921
 42
-0.0070255866589656
 10
933.5427745110278
 20
2102.615577435567
 10
933.6149249628616
 20
2101.70560983771
 42
-0.0064453497630344
 10
934.1861068865403
 20
2093.09439445462
 10
934.237993800084
 20
2092.122604032212
 42
-0.0053881703659809
 10
934.688063345895
 20
2081.55559432027
 10
934.7470152023234
 20
2079.701803139733
 42
-0.00515649479973
 10
934.9937081148378
 20
2068.217239655136
 10
935.0126323149418
 20
2066.522229615909
 42
-0.0017590938869262
 10
935.0745455649876
 20
2058.424924177556
 42
-0.0012859295786268
 10
935.0871450787574
 20
2050.327368511856
 10
935.0869762900297
 20
2050.161220585105
 42
-0.0025370108264365
 10
935.0356400520518
 20
2041.731597144534
 10
935.0339308676298
 20
2041.578504493412
 42
-0.0043175459541378
 10
934.8609831216727
 20
2032.844449680979
 10
934.8575053383158
 20
2032.722171878498
 42
-0.00599157069731
 10
934.4946554371948
 20
2023.749403146391
 10
934.4319011449318
 20
2022.552898182845
 42
-0.0077502077193802
 10
933.9606165697758
 20
2015.62271506451
 42
-0.0044518703942486
 10
933.3203148583978
 20
2008.705538685151
 10
933.3171932246164
 20
2008.674800189297
 42
-0.0103785632888176
 10
932.4646716316049
 20
2001.719545816616
 10
932.2382759226073
 20
2000.14404169964
 42
-0.0115993754822173
 10
930.9170574754155
 20
1992.254168337188
 10
930.8378285750916
 20
1991.840230799721
 42
-0.0111445607869353
 10
929.336012447782
 20
1984.842365574681
 10
929.3327913533344
 20
1984.828833913016
 42
-0.012949870527365
 10
927.5029446172944
 20
1977.938910837257
 10
927.4983311409881
 20
1977.923192348866
 42
-0.014864940480129
 10
925.2986417754012
 20
1971.177517712164
 10
925.2938857529659
 20
1971.164281148016
 42
-0.0168759513880788
 10
922.6814516918482
 20
1964.598690335751
 10
922.678979265751
 20
1964.593039554225
 42
-0.0189223978041087
 10
919.6094297043944
 20
1958.243158129432
 42
-0.0209180384428196
 10
916.0448219466621
 20
1952.158679275939
 10
916.0404924649363
 20
1952.151951103858
 42
-0.0227381997433303
 10
911.950363897017
 20
1946.389310932081
 10
911.9325599905128
 20
1946.366499189874
 42
-0.0243735316235386
 10
907.2814625038375
 20
1940.971198188269
 10
907.2430215993702
 20
1940.930769006688
 42
-0.0243485426625267
 10
902.0085316075811
 20
1935.936527372908
 10
901.9461306884232
 20
1935.882540837551
 42
-0.021407604164144
 10
896.1465035902504
 20
1931.283807841446
 10
896.0646799013864
 20
1931.224447973888
 42
-0.0186858632124491
 10
889.7461767392904
 20
1926.991637184245
 10
889.6522387847087
 20
1926.933671044758
 42
-0.0162266087177103
 10
882.8612732131585
 20
1923.041590551744
 10
882.7618188720353
 20
1922.988801252117
 42
-0.0140521483886718
 10
875.5451263209418
 20
1919.414449012935
 10
875.4461183834833
 20
1919.368829652591
 42
-0.0121544041201226
 10
867.8512374439654
 20
1916.090748601864
 10
867.7577614840809
 20
1916.053070775009
 42
-0.010503366984821
 10
859.8331551638528
 20
1913.050772317077
 10
859.7493982767344
 20
1913.021036703593
 42
-0.0090813818458881
 10
851.5443192799501
 20
1910.274794684979
 10
851.3092912594864
 20
1910.200849413886
 42
-0.0084017099006883
 10
842.5406187779847
 20
1907.603110141808
 10
841.8107618157919
 20
1907.400163656035
 42
-0.0090540214257297
 10
831.4903801979622
 20
1904.730782732293
 10
830.9155120900152
 20
1904.593147584419
 42
-0.0080685425009806
 10
819.3555586890993
 20
1902.021949694175
 10
819.2847227141717
 20
1902.007389578047
 42
-0.0071751164081956
 10
807.5093883274385
 20
1899.762615041059
 10
807.4506516994109
 20
1899.752289042767
 42
-0.0063614119881467
 10
795.5008901240144
 20
1897.807890864805
 10
795.4560755193004
 20
1897.801182962262
 42
-0.0056178431525364
 10
783.3731812056251
 20
1896.131173739916
 10
783.3438004765951
 20
1896.127448858253
 42
-0.0049288661732284
 10
771.1693655329514
 20
1894.705769004238
 10
771.1562504795972
 20
1894.704368383064
 42
-0.0043058303011205
 10
758.9324620488871
 20
1893.50528047519
 10
758.9200848471662
 20
1893.504173863336
 42
-0.0037407655858589
 10
746.7044599064795
 20
1892.504069988564
 10
746.6817415301332
 20
1892.502381020425
 42
-0.0031916027918905
 10
734.49878835144
 20
1891.674815026516
 10
734.4652397893565
 20
1891.672751177761
 42
-0.0026519783622867
 10
722.3404872193191
 20
1890.991389583495
 10
722.2956717931518
 20
1890.989109519861
 42
-0.0021246426438596
 10
710.2545508948156
 20
1890.427784056929
 42
-0.0015794647594924
 10
698.209553388745
 20
1889.955674375948
 10
693.8805302302369
 20
1889.799690581952
 42
-0.0025311276733819
 10
673.1727491077179
 20
1889.158491453384
 10
670.0339108580918
 20
1889.077202395915
 42
-0.0024436841625874
 10
644.7169296886507
 20
1888.545349328514
 42
-0.0038410321367414
 10
619.3957082533182
 20
1888.331752532297
 10
618.1791619384683
 20
1888.330836157749
 42
-0.0004904134229317
 10
615.4518829278416
 20
1888.331457094658
 42
-0.0004904134229317
  0
LWPOLYLINE
  5
1B0
330
A
100
AcDbEntity
  8
ARJ70-1401
  6
Continuous
 62
     7
370
    35
390
1D
100
AcDbPolyline
 90
      147
 70
   128
 43
0.0
 10
615.4255198091635
 20
2221.356599780825
 42
0.0003301217990126
 10
611.1717525446118
 20
2221.289245255721
 10
606.0793640246582
 20
2221.205248832465
 42
0.0022613824602338
 10
591.6422366395445
 20
2220.901796870737
 10
582.5077118911879
 20
2220.668463871453
 42
0.0034203749934779
 10
560.4652385983784
 20
2219.954495672955
 10
556.2486515356006
 20
2219.789036411469
 42
0.0018844841792132
 10
542.6464417533755
 20
2219.203931442645
 42
0.0019655270451781
 10
529.0491489644787
 20
2218.514108093549
 10
527.887108770143
 20
2218.450574269893
 42
0.0032015749150297
 10
511.9746727575101
 20
2217.478340617209
 10
509.6510397665855
 20
2217.321428894026
 42
0.0048102790198611
 10
489.1128173414977
 20
2215.735887305686
 10
487.5750942313409
 20
2215.602282441367
 42
0.0055106978215645
 10
468.6020765369306
 20
2213.742918314616
 10
467.5457487035945
 20
2213.627630632947
 42
0.0063042303476428
 10
450.7317273430035
 20
2211.577719031273
 10
449.7710261699733
 20
2211.44828100067
 42
0.0072046339047353
 10
434.9361987227675
 20
2209.231468009166
 10
434.0717828650577
 20
2209.089533863882
 42
0.008205185800173
 10
421.0364730884588
 20
2206.728890385117
 10
420.2687870056654
 20
2206.576814606688
 42
0.0092758001706854
 10
408.8536439327668
 20
2204.094606610243
 10
408.1826812987956
 20
2203.935616733765
 42
0.0103484626661892
 10
398.208971152887
 20
2201.353153853111
 10
397.6339278959731
 20
2201.191490277006
 42
0.0113017674365084
 10
388.9239482778855
 20
2198.529005827554
 42
0.0118727628796588
 10
380.3469026332987
 20
2195.465924728174
 10
378.6817679886352
 20
2194.826292805808
 42
0.0231081224844505
 10
369.1570082649328
 20
2190.652962232467
 10
368.1277793108887
 20
2190.144096894706
 42
0.009024330959462
 10
360.9217128827588
 20
2186.417992733559
 10
360.4040398462464
 20
2186.138361017898
 42
0.0095940746966503
 10
354.3660671112531
 20
2182.725581650491
 10
353.8211255189498
 20
2182.403620548502
 42
0.0041807565094154
 10
348.9629876754029
 20
2179.478273104126
 42
0.0094147352039317
 10
344.1868568488347
 20
2176.422363580816
 10
343.355079363558
 20
2175.867822964589
 42
0.010703219693876
 10
338.0085632542861
 20
2172.135601993901
 10
337.8011420747275
 20
2171.984103551925
 42
0.0120312058109381
 10
333.037412038397
 20
2168.325773051787
 10
332.8615549664759
 20
2168.183867946043
 42
0.0133632746353586
 10
328.6338709832914
 20
2164.581692644214
 10
328.4891086157897
 20
2164.451513975629
 42
0.0146047527643841
 10
324.7513660558179
 20
2160.887483521014
 10
324.6365155082335
 20
2160.771380844753
 42
0.0156311957720726
 10
321.3434208505466
 20
2157.227379663318
 42
0.0162616364704192
 10
318.2830290870991
 20
2153.480843022509
 10
317.7112710642383
 20
2152.732492038788
 42
0.0325013406931867
 10
313.9926543233267
 20
2147.147717479012
 10
313.736966084409
 20
2146.703681905141
 42
0.0174521976729002
 10
310.9880876370664
 20
2141.519588453198
 42
0.023331973871364
 10
308.6717844108867
 20
2136.131371102793
 10
308.4925517821129
 20
2135.654249440916
 42
0.0208399344630355
 10
306.3910258170567
 20
2129.262854828943
 10
306.388899823118
 20
2129.255348435125
 42
0.0176836459762484
 10
304.7888228663917
 20
2122.734729135458
 42
0.0142335073584701
 10
303.6076642285803
 20
2116.123870871225
 10
303.6055516653703
 20
2116.109734007637
 42
0.0106818261128265
 10
302.7513582350215
 20
2109.41872036871
 10
302.7483528630366
 20
2109.390369820019
 42
0.0069208714473451
 10
302.1248861940511
 20
2102.615774031186
 10
302.0538018405193
 20
2101.705465600689
 42
0.0063485664788717
 10
301.4912824052623
 20
2093.094480000213
 10
301.4401711406362
 20
2092.122497033292
 42
0.0053068537370191
 10
300.9969244823611
 20
2081.555698204171
 10
300.9388622095032
 20
2079.701808240849
 42
0.0050784863941272
 10
300.6959033835521
 20
2068.217213428969
 10
300.6772660402391
 20
2066.522230892783
 42
0.0017324581475826
 10
300.6162902079084
 20
2058.42492208664
 42
0.001266462149533
 10
300.6038814749051
 20
2050.327370573229
 10
300.6040477092604
 20
2050.161222434309
 42
0.0024985937777846
 10
300.6546066508209
 20
2041.73159586668
 10
300.6562897664433
 20
2041.578520172596
 42
0.0042522061884063
 10
300.826619160473
 20
2032.844443448491
 10
300.8300426313497
 20
2032.722224286386
 42
0.0059010882387587
 10
301.1874013322515
 20
2023.749375572995
 10
301.2492041834172
 20
2022.552887358588
 42
0.0076339476900766
 10
301.7133449798243
 20
2015.622842157502
 42
0.0043853904960285
 10
302.343971553157
 20
2008.705415016474
 10
302.3470092928449
 20
2008.675042426198
 42
0.0102257044338772
 10
303.1866477372873
 20
2001.71957488344
 10
303.4096649373804
 20
2000.14369642213
 42
0.0114329479315806
 10
304.7107300847156
 20
1992.254720230456
 10
304.7889612729904
 20
1991.839704540369
 42
0.0109900338341319
 10
306.2677822631471
 20
1984.843022150077
 10
306.2712750582269
 20
1984.828123198584
 42
0.0127784858785349
 10
308.0729899912171
 20
1977.939801120898
 10
308.0780606797239
 20
1977.922258793453
 42
0.0146813774737709
 10
310.2437603831999
 20
1971.178679887642
 10
310.2492746474436
 20
1971.163096553862
 42
0.0166877831959625
 10
312.8211016733028
 20
1964.600149028967
 10
312.8247880465624
 20
1964.591593830246
 42
0.0187411013122553
 10
315.8463166995651
 20
1958.244910138049
 42
0.0207590968911977
 10
319.3586676295242
 20
1952.157409123062
 10
319.360858387756
 20
1952.153952034995
 42
0.0226201044954879
 10
323.391434430956
 20
1946.38786363014
 10
323.4061974203819
 20
1946.368655879521
 42
0.0243156473412055
 10
327.99000859094
 20
1940.969637973001
 10
328.0244045861366
 20
1940.932903917825
 42
0.0243645676492692
 10
333.1834120314061
 20
1935.935009746364
 10
333.2410225390954
 20
1935.884398028484
 42
0.0214817302562209
 10
338.9567432841092
 20
1931.282504232681
 10
339.0335777359151
 20
1931.225903940645
 42
0.0187945301036949
 10
345.260028574244
 20
1926.99061921409
 10
345.349156920448
 20
1926.934773188818
 42
0.0163521253632647
 10
352.0405039752538
 20
1923.040819571903
 10
352.1355041203442
 20
1922.989617779605
 42
0.0141825659232914
 10
359.2456811463933
 20
1919.413876284525
 10
359.3406891428315
 20
1919.369425981708
 42
0.0122821601312801
 10
366.8228899004132
 20
1916.090328470765
 10
366.9128684107366
 20
1916.053502214876
 42
0.0106239766618925
 10
374.7194027044144
 20
1913.050466698078
 10
374.8001819458335
 20
1913.02134698452
 42
0.0091925933559184
 10
382.8825945065086
 20
1910.274572862949
 10
383.1126205943324
 20
1910.201088069822
 42
0.008509549262201
 10
391.7498105291872
 20
1907.602961415715
 10
392.4673052353758
 20
1907.400383194564
 42
0.0091755283869674
 10
402.6327017525865
 20
1904.730669405111
 10
403.197629442973
 20
1904.593333633779
 42
0.008180791869489
 10
414.5839543778681
 20
1902.021820554767
 10
414.6524930562761
 20
1902.007515963746
 42
0.0072776232077258
 10
426.2506502822264
 20
1899.762527458401
 10
426.30753382848
 20
1899.752373444989
 42
0.0064541248993925
 10
438.0772379044804
 20
1897.80783249985
 10
438.1206258763518
 20
1897.801238271699
 42
0.0057009480481253
 10
450.02125051831
 20
1896.131135575208
 10
450.0496141059397
 20
1896.127484354866
 42
0.0050025877454615
 10
462.0402339915082
 20
1894.705744572094
 10
462.0527195765962
 20
1894.70439067359
 42
0.0043697701235011
 10
474.0914993140011
 20
1893.505294171701
 10
474.1039210793657
 20
1893.504166500596
 42
0.0037975038348258
 10
486.1344166436493
 20
1892.504078183994
 10
486.1569558811037
 20
1892.50237677227
 42
0.0032402156934295
 10
498.1553317411255
 20
1891.674819770759
 10
498.1884859450917
 20
1891.672748826589
 42
0.0026924902901442
 10
510.1295854984544
 20
1890.991392236655
 10
510.1737978155252
 20
1890.98910827727
 42
0.0021571631782033
 10
522.0325635943334
 20
1890.427785485308
 42
0.0016036666452208
 10
533.8952653392992
 20
1889.95567325325
 10
538.158672637401
 20
1889.799692129449
 42
0.0025699620090707
 10
558.5529989487184
 20
1889.158491365844
 10
561.644349218215
 20
1889.077201383741
 42
0.0024812163290512
 10
586.5779712978583
 20
1888.545349769984
 42
0.0039000683314891
 10
611.5158987844964
 20
1888.331752539742
 10
612.7139990503604
 20
1888.330836173676
 42
0.00049800974622
 10
615.3999880975196
 20
1888.331457094658
 42
0.00049800974622
  0
LWPOLYLINE
  5
1B1
330
A
100
AcDbEntity
  8
ARJ70-1401
  6
Continuous
 62
     7
370
    35
390
1D
100
AcDbPolyline
 90
      109
 70
   128
 43
0.0
 10
313.604831388252
 20
2341.354934160987
 42
0.0056760957451362
 10
311.803376491305
 20
2339.951199927281
 10
310.4964702216857
 20
2338.908770892812
 42
0.0237648417892356
 10
306.2735673509526
 20
2335.198900812687
 10
305.0429965476369
 20
2334.009621233761
 42
0.0239837632285107
 10
299.1471763716975
 20
2327.737742773157
 10
299.1115404093354
 20
2327.695991801668
 42
0.0233909624019269
 10
293.9023327063173
 20
2320.980814431533
 10
293.8982806661239
 20
2320.975053689886
 42
0.022155480942625
 10
289.3284803612769
 20
2313.824975939092
 42
0.0203766658195586
 10
285.3819926257083
 20
2306.311407165663
 10
285.3672610100831
 20
2306.280348808545
 42
0.0182424456369487
 10
281.9845085568741
 20
2298.420303549137
 10
281.9597762968754
 20
2298.356525276785
 42
0.0159313762690309
 10
279.0758634028085
 20
2290.153550300064
 10
278.7850472782642
 20
2289.233699741477
 42
0.0134795290624051
 10
276.8145217643694
 20
2282.361709186835
 42
0.0069641734071702
 10
275.1260801018529
 20
2275.413067124473
 10
274.941256123956
 20
2274.603454907118
 42
0.0132318370665655
 10
273.2085675904497
 20
2265.966208734172
 10
272.8936424017656
 20
2264.14812862861
 42
0.0105362043940018
 10
271.0201743432509
 20
2251.789378042506
 10
270.9986011228459
 20
2251.623557781017
 42
0.0082923077288787
 10
269.5539761626177
 20
2238.869723607089
 10
269.5416540376185
 20
2238.742036902127
 42
0.0063373502364909
 10
268.4492904409016
 20
2225.695023183784
 10
268.4433315991569
 20
2225.61106586088
 42
0.0046219438518262
 10
267.6267816448286
 20
2212.374743301922
 10
267.6248779434627
 20
2212.338424292946
 42
0.002960447425613
 10
267.0057463244947
 20
2199.018249613383
 10
266.5782660482141
 20
2188.475841607257
 42
0.0071865044312951
 10
265.6778094286099
 20
2154.054242130686
 10
265.5761715978957
 20
2145.427310610227
 42
0.0035400528498212
 10
265.4401308116513
 20
2116.487827800527
 10
265.445989742013
 20
2114.025310006782
 42
0.0055085714673789
 10
265.7676784498728
 20
2090.013443787343
 10
265.8413736753183
 20
2086.995393107373
 42
0.0021016561903282
 10
266.3557562253424
 20
2069.025334565956
 10
266.3918391659192
 20
2067.926307211259
 42
0.0011425849871015
 10
266.9456238619217
 20
2052.1577309931
 10
267.0345733083971
 20
2049.779892257788
 42
0.0019208532074418
 10
267.4887899498979
 20
2038.770003977454
 42
0.0041627439929131
 10
268.076912492499
 20
2027.766757162526
 10
268.0856716325443
 20
2027.625030485733
 42
0.0062217350598006
 10
268.92318197319
 20
2016.353648747531
 10
268.9323059351666
 20
2016.248568332502
 42
0.0082816661610275
 10
270.1180124103913
 20
2004.797088300016
 10
270.1433608283984
 20
2004.586400299313
 42
0.0104246666628514
 10
271.7377113132786
 20
1993.320435573355
 10
271.8529654924217
 20
1992.612709398666
 42
0.0118184320585822
 10
273.6827802329416
 20
1982.838698903955
 10
273.797267056551
 20
1982.298130649913
 42
0.0111633987269946
 10
275.8213004908697
 20
1973.693709604524
 10
275.8244864164707
 20
1973.681404999145
 42
0.0129156460787328
 10
278.2531569661976
 20
1965.209535146877
 10
278.2590566730976
 20
1965.190796527258
 42
0.0148116462372709
 10
281.1403242797196
 20
1956.904521441887
 10
281.1476828299814
 20
1956.885221521975
 42
0.016841323953501
 10
284.5309194273229
 20
1948.836906336355
 10
284.5370463092225
 20
1948.823603836972
 42
0.0189564723848647
 10
288.4734451867107
 20
1941.0651764696
 42
0.0210795508744609
 10
293.0166419139624
 20
1933.648179251137
 42
0.0231048335095381
 10
298.1953525847588
 20
1926.662752373535
 10
298.2094608206783
 20
1926.645453275665
 42
0.024917952609315
 10
304.0629256092849
 20
1920.15675647066
 10
304.0991322106357
 20
1920.120434004893
 42
0.0232852295390528
 10
310.626538589059
 20
1914.155135444912
 10
310.6871790041516
 20
1914.104690757918
 42
0.0205398170972041
 10
317.8385475763265
 20
1908.636551642368
 10
317.918176789567
 20
1908.580692714336
 42
0.0180223834104846
 10
325.634089533354
 20
1903.572943978801
 10
325.7249665196721
 20
1903.518513821504
 42
0.0157218731573204
 10
333.9472366142112
 20
1898.938716306702
 10
334.0419948251244
 20
1898.889773751572
 42
0.013666062880595
 10
342.7121489251042
 20
1894.707712030271
 10
342.8040576471608
 20
1894.666436516809
 42
0.0118472777378662
 10
351.862713396549
 20
1890.853512728575
 10
351.94601916221
 20
1890.820749065881
 42
0.0102631666216795
 10
361.3329007429646
 20
1887.349667461112
 10
361.6058482019641
 20
1887.255058315598
 42
0.0095590889691678
 10
371.6725009800298
 20
1883.979930623243
 10
372.5594635842531
 20
1883.710000207962
 42
0.0104381694200334
 10
384.5330753603516
 20
1880.337477746203
 10
385.2285098364521
 20
1880.157179633171
 42
0.0092827582319115
 10
398.7234235622319
 20
1876.924614993695
 10
398.7937357276554
 20
1876.909146744119
 42
0.0082272420687022
 10
412.5351519165737
 20
1874.122330459665
 10
412.592068784188
 20
1874.111759362113
 42
0.007260513793947
 10
426.5277315271593
 20
1871.732294914115
 10
426.5683731427067
 20
1871.725961397344
 42
0.0063717676731343
 10
440.6454933551871
 20
1869.715600289462
 10
440.6675323318368
 20
1869.712738964804
 42
0.0055505758452114
 10
454.8364871915945
 20
1868.032898510689
 10
454.8476536113167
 20
1868.031700123612
 42
0.004797337733066
 10
469.0296965485913
 20
1866.647175415341
 10
469.0527527175831
 20
1866.645147673289
 42
0.0040736450901783
 10
483.2111664519093
 20
1865.516108299696
 10
483.2465831370623
 20
1865.513574255672
 42
0.0033619476536426
 10
497.3495065562486
 20
1864.599785241981
 10
497.3981285817082
 20
1864.5969629747
 42
0.0026669885748292
 10
511.4138917127893
 20
1863.858406440008
 42
0.0019512711132583
 10
525.4359712627072
 20
1863.249332163248
 10
530.4839730010715
 20
1863.049797056166
 42
0.0030025278496982
 10
554.6092883905278
 20
1862.241249699897
 10
559.8742135194871
 20
1862.096444078517
 42
0.0029684886614952
 10
586.158373582829
 20
1861.529671316493
 10
586.3462722432012
 20
1861.526735540405
 42
0.003689969345675
 10
612.2595763839363
 20
1861.31312536767
 42
0.0005564804140798
 10
615.4500241191986
 20
1861.313922309448
 42
0.0005564804140798
  0
LWPOLYLINE
  5
1B2
330
A
100
AcDbEntity
  8
ARJ70-1401
  6
Continuous
 62
     7
370
    35
390
1D
100
AcDbPolyline
 90
      109
 70
   128
 43
0.0
 10
917.2952170183814
 20
2341.354934160987
 42
-0.0056760957451998
 10
919.0966719153364
 20
2339.951199927275
 10
920.4035781849477
 20
2338.908770892812
 42
-0.0237648417891478
 10
924.6264810556795
 20
2335.198900812689
 10
925.8570518589968
 20
2334.009621233761
 42
-0.0239837632285763
 10
931.7528720349367
 20
2327.737742773157
 10
931.7885079973016
 20
2327.695991801665
 42
-0.0233909624019388
 10
936.9977157003166
 20
2320.980814431533
 10
937.0017677405126
 20
2320.975053689883
 42
-0.0221554809425999
 10
941.5715680453566
 20
2313.824975939092
 42
-0.0203766658195831
 10
945.5180557809258
 20
2306.311407165661
 10
945.5327873965505
 20
2306.280348808544
 42
-0.0182424456369746
 10
948.9155398497574
 20
2298.420303549141
 10
948.9402721097574
 20
2298.356525276785
 42
-0.0159313762689664
 10
951.824185003825
 20
2290.15355030006
 10
952.115001128368
 20
2289.233699741478
 42
-0.0134795290624236
 10
954.0855266422639
 20
2282.361709186835
 42
-0.0069641734071841
 10
955.7739683047819
 20
2275.413067124467
 10
955.9587922826775
 20
2274.603454907118
 42
-0.013231837066566
 10
957.6914808161837
 20
2265.966208734172
 10
958.0064060048678
 20
2264.14812862861
 42
-0.0105362043939899
 10
959.8798740633827
 20
2251.789378042506
 10
959.9014472837878
 20
2251.623557781016
 42
-0.0082923077288904
 10
961.3460722440159
 20
2238.869723607089
 10
961.3583943690151
 20
2238.742036902126
 42
-0.0063373502364811
 10
962.4507579657313
 20
2225.695023183789
 10
962.4567168074764
 20
2225.61106586088
 42
-0.0046219438518082
 10
963.2732667618054
 20
2212.374743301916
 10
963.2751704631712
 20
2212.338424292945
 42
-0.0029604474256411
 10
963.8943020821403
 20
2199.018249613366
 10
964.3217823584198
 20
2188.475841607256
 42
-0.0071865044312951
 10
965.2222389780229
 20
2154.054242130693
 10
965.3238768087367
 20
2145.427310610241
 42
-0.0035400528497937
 10
965.459917594982
 20
2116.487827800526
 10
965.4540586646206
 20
2114.025310006796
 42
-0.0055085714673751
 10
965.1323699567629
 20
2090.013443787342
 10
965.0586747313182
 20
2086.995393107386
 42
-0.0021016561903447
 10
964.5442921812946
 20
2069.025334565956
 10
964.5082092407185
 20
2067.926307211285
 42
-0.0011425849871743
 10
963.954424544713
 20
2052.157730993099
 10
963.8654750982373
 20
2049.779892257794
 42
-0.0019208532074273
 10
963.4112584567335
 20
2038.770003977454
 42
-0.0041627439929148
 10
962.8231359141312
 20
2027.766757162546
 10
962.8143767740846
 20
2027.625030485733
 42
-0.0062217350597683
 10
961.9768664334374
 20
2016.353648747541
 10
961.96774247146
 20
2016.248568332501
 42
-0.0082816661609982
 10
960.7820359962343
 20
2004.797088300016
 10
960.7566875782268
 20
2004.58640029931
 42
-0.0104246666627576
 10
959.1623370933487
 20
1993.320435573355
 10
959.0470829142052
 20
1992.612709398661
 42
-0.011818432058524
 10
957.2172681736906
 20
1982.838698903954
 10
957.1027813500807
 20
1982.29813064991
 42
-0.0111633987269629
 10
955.0787479157689
 20
1973.693709604524
 10
955.0755619901663
 20
1973.681404999138
 42
-0.012915646078736
 10
952.6468914404477
 20
1965.209535146877
 10
952.6409917335468
 20
1965.190796527254
 42
-0.0148116462372662
 10
949.7597241269327
 20
1956.904521441887
 10
949.7523655766718
 20
1956.885221521977
 42
-0.016841323953572
 10
946.3691289793353
 20
1948.836906336354
 10
946.3630020974367
 20
1948.823603836973
 42
-0.0189564723849189
 10
942.4266032199507
 20
1941.065176469599
 42
-0.0210823954146999
 10
937.8834064926996
 20
1933.648179251137
 42
-0.023104833509619
 10
932.7046958219009
 20
1926.662752373535
 10
932.6905875859804
 20
1926.645453275664
 42
-0.0249179526094387
 10
926.8371227973664
 20
1920.15675647066
 10
926.8009161960149
 20
1920.120434004892
 42
-0.0232852295390841
 10
920.2735098175815
 20
1914.155135444913
 10
920.2128694024864
 20
1914.104690757917
 42
-0.020539817097202
 10
913.0615008302959
 20
1908.636551642367
 10
912.9818716170557
 20
1908.580692714336
 42
-0.0180223834104075
 10
905.2659588732549
 20
1903.572943978802
 10
905.1750818869359
 20
1903.518513821504
 42
-0.0157218731572722
 10
896.9528117923844
 20
1898.938716306702
 10
896.858053581472
 20
1898.889773751572
 42
-0.0136660628804904
 10
888.1878994814826
 20
1894.70771203027
 10
888.095990759429
 20
1894.66643651681
 42
-0.0118472777377918
 10
879.037335010036
 20
1890.853512728573
 10
878.9540292443812
 20
1890.820749065881
 42
-0.0102631666215814
 10
869.5671476636337
 20
1887.349667461111
 10
869.2942002046395
 20
1887.255058315599
 42
-0.0095590889690704
 10
859.2275474265946
 20
1883.979930623242
 10
858.3405848223799
 20
1883.710000207963
 42
-0.0104381694200001
 10
846.3669730463228
 20
1880.337477746202
 10
845.6715385702278
 20
1880.157179633171
 42
-0.0092827582319803
 10
832.1766248445008
 20
1876.924614993694
 10
832.1063126790757
 20
1876.909146744118
 42
-0.0082272420688009
 10
818.3648964902047
 20
1874.122330459665
 10
818.3079796225816
 20
1874.111759362111
 42
-0.0072605137940741
 10
804.3723168796373
 20
1871.732294914116
 10
804.3316752640701
 20
1871.725961397342
 42
-0.0063717676732563
 10
790.2545550515738
 20
1869.715600289463
 10
790.2325160748992
 20
1869.712738964801
 42
-0.0055478404445614
 10
776.0635612150393
 20
1868.032898510686
 10
776.0523947953388
 20
1868.031700123613
 42
-0.0047973377330804
 10
761.870351857883
 20
1866.647175415339
 10
761.8472956888993
 20
1866.645147673288
 42
-0.0040736450901579
 10
747.6888819543735
 20
1865.516108299696
 10
747.6534652692142
 20
1865.513574255672
 42
-0.003361947653558
 10
733.5505418498462
 20
1864.599785241981
 10
733.5019198243599
 20
1864.596962974699
 42
-0.0026669885747537
 10
719.4861566931575
 20
1863.858406440009
 42
-0.0019512711131587
 10
705.4640771431291
 20
1863.249332163247
 10
700.4160754048683
 20
1863.04979705617
 42
-0.0030025278495711
 10
676.2907600155061
 20
1862.241249699897
 10
671.0258348867403
 20
1862.09644407852
 42
-0.0029684886615817
 10
644.7416748236535
 20
1861.529671316492
 10
644.5537761633634
 20
1861.526735540406
 42
-0.0036899693457257
 10
618.6404720227267
 20
1861.31312536767
 42
-0.0005564197893318
 10
615.4500242874356
 20
1861.313922309448
 42
-0.0005564197893318
  0
SPLINE
  5
1B3
330
A
100
AcDbEntity
  8
ARJ70-1401
  6
Continuous
 62
     7
370
    35
390
1D
100
AcDbSpline
210
0.0
220
0.0
230
1.0
 70
     8
 71
     3
 72
     9
 73
     5
 74
     0
 42
0.000000001
 43
0.000001
 40
0.0
 40
0.0
 40
0.0
 40
0.0
 40
1.0
 40
2.0
 40
2.0
 40
2.0
 40
2.0
 10
615.4500465669585
 20
2220.088031901998
 30
-0.0002558629138015
 10
604.4515758021364
 20
2220.108942551958
 30
-0.000255862911812
 10
604.4515758021364
 20
2219.699903082305
 30
-0.0002558629160753
 10
604.4515758021364
 20
2219.290863612654
 30
-0.000255862911812
 10
615.4500465669585
 20
2219.311774262614
 30
-0.0002558629138015
  0
SPLINE
  5
1B4
330
A
100
AcDbEntity
  8
ARJ70-1401
  6
Continuous
 62
     7
370
    35
390
1D
100
AcDbSpline
210
0.0
220
0.0
230
1.0
 70
     8
 71
     3
 72
     9
 73
     5
 74
     0
 42
0.000000001
 43
0.000001
 40
0.0
 40
0.0
 40
0.0
 40
0.0
 40
1.0
 40
2.0
 40
2.0
 40
2.0
 40
2.0
 10
615.4499922876976
 20
2220.088031901998
 30
-0.0002558629138015
 10
626.4484630525196
 20
2220.108942551958
 30
-0.000255862911812
 10
626.4484630525196
 20
2219.699903082305
 30
-0.0002558629160753
 10
626.4484630525196
 20
2219.290863612654
 30
-0.000255862911812
 10
615.4499922876976
 20
2219.311774262614
 30
-0.0002558629138015
  0
LWPOLYLINE
  5
1B5
330
A
100
AcDbEntity
  8
ARJ70-1401
  6
Continuous
 62
     7
370
    35
390
1D
100
AcDbPolyline
 90
       49
 70
   128
 43
0.0
 10
1381.032429903906
 20
1155.811836863198
 42
-0.0041848644210564
 10
1381.030975297785
 20
1155.914483227981
 10
1381.030827510522
 20
1155.939961680758
 42
-0.0083829687625619
 10
1381.032511681641
 20
1156.093548887276
 10
1381.034607372778
 20
1156.169102546458
 42
-0.0167559341790844
 10
1381.053249996215
 20
1156.473143908049
 10
1381.058088757726
 20
1156.524060721113
 42
-0.0166903732167377
 10
1381.10889764502
 20
1156.918443099833
 10
1381.109207898038
 20
1156.920347398879
 42
-0.0165931055185617
 10
1381.185389696042
 20
1157.306695786822
 10
1381.185750582783
 20
1157.308252020952
 42
-0.0164771505626192
 10
1381.286475473798
 20
1157.685638839315
 10
1381.286853315193
 20
1157.686887795364
 42
-0.0163513497665279
 10
1381.411283823034
 20
1158.054386180038
 10
1381.411652182511
 20
1158.055367274237
 42
-0.0162240560959694
 10
1381.558944186284
 20
1158.412052562922
 10
1381.559282721776
 20
1158.412802440892
 42
-0.0161028934534371
 10
1381.72858676409
 20
1158.757753383679
 10
1381.728879962645
 20
1158.758305107639
 42
-0.0159944295412212
 10
1381.919342500507
 20
1159.090604380037
 10
1381.919577829904
 20
1159.090986117938
 42
-0.0159044355821446
 10
1382.130343489889
 20
1159.409721762218
 10
1382.130511719034
 20
1159.409959384979
 42
-0.015836503758435
 10
1382.360721392481
 20
1159.714220607915
 42
-0.0158015695906231
 10
1382.609613845685
 20
1160.003220485692
 42
-0.0157806462203772
 10
1382.87615467507
 20
1160.27583649154
 42
-0.0157896276091627
 10
1383.159472072139
 20
1160.531177328611
 42
-0.0158368692883977
 10
1383.458469989826
 20
1160.768186027797
 10
1383.458702926764
 20
1160.76835894903
 42
-0.0159044663703193
 10
1383.772608290774
 20
1160.986253211998
 10
1383.77298493947
 20
1160.986497284641
 42
-0.0159946276036329
 10
1384.10090870137
 20
1161.184399450679
 10
1384.101453652091
 20
1161.184704991563
 42
-0.0161030833124831
 10
1384.442502737047
 20
1161.361738785511
 10
1384.443244842839
 20
1161.362094153136
 42
-0.0162242863220921
 10
1384.796521510901
 20
1161.517385607832
 10
1384.797494063878
 20
1161.517775981577
 42
-0.0163515978903518
 10
1385.162096338845
 20
1161.650454993361
 10
1385.163336456169
 20
1161.650860874669
 42
-0.0164774118017791
 10
1385.538358856424
 20
1161.760062647115
 10
1385.539906529462
 20
1161.760458493175
 42
-0.0165933659032733
 10
1385.924441190693
 20
1161.845324840929
 10
1385.974032918823
 20
1161.854555807643
 42
-0.0166818634400811
 10
1386.271294538537
 20
1161.899686988035
 42
-0.0083821197783624
 10
1386.570568523555
 20
1161.929880198904
 10
1386.572538268755
 20
1161.930045619535
 42
-0.0167693879128421
 10
1386.876771237841
 20
1161.945345746828
 10
1386.928240756032
 20
1161.946206029762
 42
-0.0041787272463652
 10
1387.030905844034
 20
1161.947064063546
 42
-0.0041787272463652
  0
SPLINE
  5
1B6
330
A
100
AcDbEntity
  8
ARJ70-1401
  6
Continuous
 62
     7
370
    35
390
1D
100
AcDbSpline
210
0.0
220
0.0
230
1.0
 70
     8
 71
     3
 72
     8
 73
     4
 74
     0
 42
0.000000001
 43
0.000001
 40
0.0
 40
0.0
 40
0.0
 40
0.0
 40
1.0
 40
1.0
 40
1.0
 40
1.0
 10
1449.495349019667
 20
1008.747042152982
 30
-0.0000000000009937
 10
1389.711206512258
 20
1062.958272036462
 30
-0.000000000000926
 10
1381.675874274668
 20
1130.884882160719
 30
-0.0000000000009301
 10
1381.125030394702
 20
1155.811835506685
 30
-0.0000000000009316
  0
LWPOLYLINE
  5
1B7
330
A
100
AcDbEntity
  8
ARJ70-1401
  6
Continuous
 62
     7
370
    35
390
1D
100
AcDbPolyline
 90
       33
 70
   128
 43
0.0
 10
1449.495349424886
 20
1008.747042599854
 42
0.0014215636069635
 10
1449.533681242786
 20
1008.717277425926
 10
1449.5817160112
 20
1008.680196214549
 42
0.0085312535557238
 10
1449.717933864294
 20
1008.578701987584
 10
1449.786965104274
 20
1008.529076538908
 42
0.0113873665028077
 10
1450.067351403857
 20
1008.337042353121
 10
1450.087813663923
 20
1008.323702119517
 42
0.0114099208567325
 10
1450.418172425159
 20
1008.118913733999
 10
1450.418379813725
 20
1008.118791635081
 42
0.0114406676376369
 10
1450.75816874622
 20
1007.929074610195
 10
1450.758460970572
 20
1007.928920111692
 42
0.0114791342049156
 10
1451.107176748557
 20
1007.754676897569
 10
1451.107561603706
 20
1007.754495514353
 42
0.0115242220205525
 10
1451.464698527239
 20
1007.596129043052
 10
1451.465185632335
 20
1007.59592634479
 42
0.0115747007908043
 10
1451.830237032276
 20
1007.453838874488
 10
1451.830836999895
 20
1007.453621203838
 42
0.0116291143624508
 10
1452.203295156515
 20
1007.328214134686
 10
1452.204019587627
 20
1007.327988833786
 42
0.0116858112793153
 10
1452.583375856785
 20
1007.219662433957
 10
1452.584237195392
 20
1007.219438106912
 42
0.0117429617662601
 10
1452.969982167591
 20
1007.128591261826
 10
1452.970993515658
 20
1007.12837801451
 42
0.0117985836458341
 10
1453.362617225726
 20
1007.055407997993
 10
1453.363792109222
 20
1007.055217650456
 42
0.0118505749180362
 10
1453.760784292693
 20
1007.00051992848
 10
1453.811434126604
 20
1006.994760813885
 42
0.0118933366719332
 10
1454.114478068069
 20
1006.967586285795
 10
1454.138872298367
 20
1006.96598256953
 42
0.0059635066224589
 10
1454.39393785176
 20
1006.952267179425
 42
0.008956911907491
 10
1454.649276253654
 20
1006.946168521883
 10
1454.675145180094
 20
1006.946014167345
 42
0.0014916867537588
 10
1454.726514944094
 20
1006.945860912841
 42
0.0014916867537588
  0
LINE
  5
1B8
330
A
100
AcDbEntity
  8
ARJ70-1401
  6
Continuous
 62
     7
370
    35
390
1D
100
AcDbLine
 10
1510.61839249439
 20
1006.945591839293
 30
0.0
 11
1473.095205860693
 21
1006.945591839293
 31
0.0
  0
LINE
  5
1B9
330
A
100
AcDbEntity
  8
ARJ70-1401
  6
Continuous
 62
     7
370
    35
390
1D
100
AcDbLine
 10
1521.124708304102
 20
1006.945810353156
 30
0.0
 11
1501.032814642668
 21
1006.945810353155
 31
0.0
  0
LINE
  5
1BA
330
A
100
AcDbEntity
  8
ARJ70-1401
  6
Continuous
 62
     7
370
    35
390
1D
100
AcDbLine
 10
1565.107667422602
 20
1006.946022071661
 30
0.0
 11
1605.776395172571
 21
1006.946022071661
 31
0.0
  0
LINE
  5
1BB
330
A
100
AcDbEntity
  8
ARJ70-1401
  6
Continuous
 62
     7
370
    35
390
1D
100
AcDbLine
 10
1679.763034989405
 20
982.6045176288018
 30
0.0
 11
1681.038781548523
 21
1004.923570174689
 31
0.0
  0
LINE
  5
1BC
330
A
100
AcDbEntity
  8
ARJ70-1401
  6
Continuous
 62
     7
370
    35
390
1D
100
AcDbLine
 10
1612.487104258578
 20
982.6045176288018
 30
0.0
 11
1611.503028969112
 21
1004.820811835257
 31
0.0
  0
LWPOLYLINE
  5
1BD
330
A
100
AcDbEntity
  8
ARJ70-1401
  6
Continuous
 62
     7
370
    35
390
1D
100
AcDbPolyline
 90
       49
 70
   128
 43
0.0
 10
1618.477326813721
 20
976.9469156977196
 42
-0.0039709695752743
 10
1618.38030073584
 20
976.9476862850772
 10
1618.35620209654
 20
976.9480690951134
 42
-0.0079504997984611
 10
1618.211058245847
 20
976.9526839681071
 10
1618.139554273095
 20
976.9560962306518
 42
-0.0158817693032153
 10
1617.85220270303
 20
976.9789733123963
 10
1617.804130419093
 20
976.9843414275506
 42
-0.0158164001223167
 10
1617.4308276694
 20
977.0380284941249
 10
1617.429205410141
 20
977.0383144322426
 42
-0.0157275327831336
 10
1617.063250919142
 20
977.1147551592073
 10
1617.061916168224
 20
977.1150780798278
 42
-0.0156255284175812
 10
1616.704114991957
 20
977.2135713317471
 10
1616.70303563321
 20
977.213905061802
 42
-0.015517331889983
 10
1616.354192004402
 20
977.3337441014415
 10
1616.353337189464
 20
977.3340677445535
 42
-0.0154094438989296
 10
1616.014253508733
 20
977.4745410140598
 10
1616.013594615255
 20
977.4748380808155
 42
-0.0153077688787731
 10
1615.685070620843
 20
977.6352301768782
 10
1615.684581765917
 20
977.6354876654776
 42
-0.0152173714874504
 10
1615.367414242069
 20
977.8150802283988
 10
1615.367073298241
 20
977.8152872311429
 42
-0.0151427295389348
 10
1615.062054902643
 20
978.0133606773028
 10
1615.061841180998
 20
978.013508853247
 42
-0.0150865371115103
 10
1614.769764138355
 20
978.2293405569325
 42
-0.0150581875313682
 10
1614.491309499811
 20
978.4622938856024
 42
-0.0150404495278542
 10
1614.227462424524
 20
978.7114913523691
 42
-0.0150474629212262
 10
1613.978999897891
 20
978.9761987884725
 42
-0.0150868483845014
 10
1613.746851993243
 20
979.2554851674349
 10
1613.746692421925
 20
979.2556893706222
 42
-0.0151427424175892
 10
1613.531536703852
 20
979.5489081009141
 10
1613.531310405257
 20
979.5492369358724
 42
-0.0152175269391683
 10
1613.333911956476
 20
979.8556401498181
 10
1613.333627008393
 20
979.8561134890208
 42
-0.0153079139064476
 10
1613.154749964416
 20
980.1749503577634
 10
1613.15441576471
 20
980.1755912644829
 42
-0.0154096217797367
 10
1612.994822740711
 20
980.5061074035476
 10
1612.994450845273
 20
980.506942366267
 42
-0.0155175243412549
 10
1612.854901795723
 20
980.8483800899162
 10
1612.854507022348
 20
980.849438645202
 42
-0.0156257330520289
 10
1612.735758175201
 20
981.2010374159779
 10
1612.735359627583
 20
981.2023515458727
 42
-0.0157277397163232
 10
1612.638162493827
 20
981.5633486972476
 10
1612.637784468611
 20
981.5649519557021
 42
-0.0158165690581672
 10
1612.562884969085
 20
981.93458366197
 10
1612.554780261647
 20
981.9822858002362
 42
-0.0158761244785462
 10
1612.515545692431
 20
982.2678343296899
 10
1612.510579959177
 20
982.3150454414638
 42
-0.0079539004332424
 10
1612.49341071125
 20
982.507690989518
 42
-0.0039710783581207
 10
1612.487104258578
 20
982.6045176288018
 42
-0.0039710783581207
  0
LWPOLYLINE
  5
1BE
330
A
100
AcDbEntity
  8
ARJ70-1401
  6
Continuous
 62
     7
370
    35
390
1D
100
AcDbPolyline
 90
       11
 70
   128
 43
0.0
 10
1611.190028978089
 20
1006.945762462057
 10
1611.191484107726
 20
1006.93967783982
 42
-0.0085556199253863
 10
1611.283004634616
 20
1006.525803634824
 42
-0.0091453405120681
 10
1611.359817717754
 20
1006.108958204375
 10
1611.361116977833
 20
1006.10110401387
 42
-0.0091718985309744
 10
1611.424920959685
 20
1005.665974615523
 10
1611.42668248254
 20
1005.652206554173
 42
-0.0091940367388766
 10
1611.472004288396
 20
1005.237535914181
 10
1611.473203541591
 20
1005.224317206605
 42
-0.0080588724879863
 10
1611.502222377965
 20
1004.834782782039
 10
1611.503028969112
 20
1004.820811835257
  0
LINE
  5
1BF
330
A
100
AcDbEntity
  8
ARJ70-1401
  6
Continuous
 62
     7
370
    35
390
1D
100
AcDbLine
 10
1673.797094392117
 20
976.9469156977196
 30
0.0
 11
1618.477326813721
 21
976.9469156977196
 31
0.0
  0
LWPOLYLINE
  5
1C0
330
A
100
AcDbEntity
  8
ARJ70-1401
  6
Continuous
 62
     7
370
    35
390
1D
100
AcDbPolyline
 90
       34
 70
   128
 43
0.0
 10
1673.797094392117
 20
976.9469156977196
 42
0.0021335330156102
 10
1673.849322664749
 20
976.9471385602221
 10
1673.888307893799
 20
976.9474712728878
 42
0.0085536578508051
 10
1674.018448570786
 20
976.9508089437745
 10
1674.057038603289
 20
976.952459592826
 42
0.0085386928444167
 10
1674.264090439289
 20
976.9648612442459
 10
1674.315266837306
 20
976.968804580872
 42
0.0170365453989689
 10
1674.619566990657
 20
977.0027125751113
 10
1674.621138167751
 20
977.0029420724861
 42
0.0084888911552466
 10
1674.920310006288
 20
977.0518421693763
 10
1674.921015892895
 20
977.0519698873286
 42
0.0168882546982252
 10
1675.21579405577
 20
977.1156536066526
 10
1675.216950613157
 20
977.1159446688227
 42
0.0084043473244391
 10
1675.505954222468
 20
977.1938637983162
 42
0.0167099714424071
 10
1675.790562782129
 20
977.2861553027835
 10
1675.83760695992
 20
977.3031676354937
 42
0.0165857620006016
 10
1676.204201988698
 20
977.449659025229
 10
1676.2049919487
 20
977.4500054985548
 42
0.0164666344804735
 10
1676.559557980646
 20
977.6196479891378
 10
1676.56013332977
 20
977.6199469304806
 42
0.0163609884854855
 10
1676.901679112047
 20
977.8118507696055
 10
1676.902072022471
 20
977.8120887708011
 42
0.0162738207944177
 10
1677.229607548178
 20
978.0253589861335
 10
1677.22983578833
 20
978.0255184117841
 42
0.0162120307111216
 10
1677.542390381929
 20
978.2592700623971
 10
1677.580599742709
 20
978.2898262583211
 42
0.0161729298639442
 10
1677.803008026325
 20
978.4797983400438
 42
0.0080847486950834
 10
1678.016036084187
 20
978.680420521949
 42
0.0161736432997894
 10
1678.219032370971
 20
978.8910827064575
 42
0.0080997002566486
 10
1678.411660620645
 20
979.1114513296117
 10
1678.411784086305
 20
979.1115972807331
 42
0.0162343017312635
 10
1678.593629610767
 20
979.341284299753
 10
1678.622731263391
 20
979.3806002049774
 42
0.002037227160606
 10
1678.651669649104
 20
979.4200304936488
 42
0.002037227160606
  0
LWPOLYLINE
  5
1C1
330
A
100
AcDbEntity
  8
ARJ70-1401
  6
Continuous
 62
     7
370
    35
390
1D
100
AcDbPolyline
 90
       25
 70
   128
 43
0.0
 10
1678.651669649104
 20
979.4200304936488
 42
-0.001817481712474
 10
1678.703301301641
 20
979.490446716016
 10
1678.76802955598
 20
979.578054733328
 42
-0.0108899554038139
 10
1678.954631535115
 20
979.8194346540395
 10
1678.995547720689
 20
979.8700447014687
 42
-0.0072441293682554
 10
1679.274086498814
 20
980.2045443068681
 10
1679.301830687233
 20
980.2368976073863
 42
-0.0144482288443705
 10
1679.651833447658
 20
980.6219521084715
 10
1679.712067134987
 20
980.6844886441153
 42
-0.0144040674902625
 10
1680.205054316619
 20
981.1676641259199
 10
1680.205509746852
 20
981.1680854700847
 42
-0.0143692586813511
 10
1680.724535576735
 20
981.6212941618211
 42
-0.0143533522915358
 10
1681.268444273636
 20
982.0437657460179
 42
-0.0143376046385064
 10
1681.835348142539
 20
982.4341234417385
 42
-0.0143353464499931
 10
1682.423813435426
 20
982.7914102042505
 42
-0.014356272771105
 10
1683.031978001639
 20
983.1144563752464
 10
1683.032407822318
 20
983.1146690994832
 42
-0.014385148059087
 10
1683.658996266496
 20
983.4026443001978
 10
1683.659698909032
 20
983.4029430586695
 42
-0.0144258933897152
 10
1684.303250793345
 20
983.6549134234798
 10
1684.344111409163
 20
983.6695668992644
 42
-0.0144733702306773
 10
1684.922716243984
 20
983.8583543271227
 10
1684.963917424483
 20
983.8704899339466
 42
-0.0108899651821463
 10
1685.468565050753
 20
984.0072614211684
 42
-0.0018175568869581
 10
1685.553398369299
 20
984.0279542975208
 42
-0.0018175568869581
  0
SPLINE
  5
1C2
330
A
100
AcDbEntity
  8
ARJ70-1401
  6
Continuous
 62
     7
370
    35
390
1D
100
AcDbSpline
210
0.0
220
-1.0
230
0.0
 70
     8
 71
     3
 72
     8
 73
     4
 74
     0
 42
0.000000001
 43
0.000001
 40
0.0
 40
0.0
 40
0.0
 40
0.0
 40
1.0
 40
1.0
 40
1.0
 40
1.0
 10
1387.073064479683
 20
1161.947009677402
 30
0.0000000099449415
 10
1545.090392451835
 20
1161.947009677402
 30
-0.0000003069066208
 10
1703.107720423983
 20
1161.947009677402
 30
0.0000094713150582
 10
1861.125048396136
 20
1161.947009677402
 30
-0.0002922902370228
  0
LINE
  5
1C3
330
A
100
AcDbEntity
  8
ARJ70-1401
  6
Continuous
 62
     7
370
    35
390
1D
100
AcDbLine
 10
1861.125048478039
 20
1163.447047824374
 30
0.0
 11
1861.125039933054
 21
1006.94548026796
 31
0.0
  0
SPLINE
  5
1C4
330
A
100
AcDbEntity
  8
ARJ70-1401
  6
Continuous
 62
     7
370
    35
390
1D
100
AcDbSpline
210
0.0
220
0.0
230
1.0
 70
     8
 71
     3
 72
    12
 73
     8
 74
     0
 42
0.000000001
 43
0.000001
 40
0.0
 40
0.0
 40
0.0
 40
0.0
 40
1.0
 40
2.0
 40
3.0
 40
4.0
 40
5.0
 40
5.0
 40
5.0
 40
5.0
 10
1731.27107542509
 20
1006.945527336338
 30
-0.0000000933106383
 10
1727.927782918623
 20
1003.863909726685
 30
-0.0000000933106498
 10
1718.73468945283
 20
996.4896926586932
 30
-0.0000000933106789
 10
1705.261577543088
 20
989.4023060892542
 30
-0.0000000933107104
 10
1694.020526795833
 20
985.8689619407506
 30
-0.0000000933107236
 10
1688.143572611633
 20
984.5331044851403
 30
-0.000000093310726
 10
1686.19947346076
 20
984.149235268232
 30
-0.0000000933107262
 10
1685.550749521436
 20
984.0272958245117
 30
-0.0000000933107263
  0
LINE
  5
1C5
330
A
100
AcDbEntity
  8
ARJ70-1401
  6
Continuous
 62
     7
370
    35
390
1D
100
AcDbLine
 10
1738.210425264738
 20
1006.945480267959
 30
0.0
 11
1861.125105502352
 21
1006.94548026796
 31
0.0
  0
LINE
  5
1C6
330
A
100
AcDbEntity
  8
ARJ70-1401
  6
Continuous
 62
     7
370
    35
390
1D
100
AcDbLine
 10
1605.776395172571
 20
1006.946022071661
 30
0.0
 11
1743.210450315128
 21
1006.945480267965
 31
0.0
  0
LINE
  5
1C7
330
A
100
AcDbEntity
  8
ARJ70-1401
  6
Continuous
 62
     7
370
    35
390
1D
100
AcDbLine
 10
1558.398448318191
 20
1006.945772882887
 30
0.0
 11
1601.314795054358
 21
1006.945772882886
 31
0.0
  0
LINE
  5
1C8
330
A
100
AcDbEntity
  8
ARJ70-1401
  6
Continuous
 62
     7
370
    35
390
1D
100
AcDbLine
 10
1521.125129133165
 20
1006.94576937005
 30
0.0
 11
1558.39844831819
 21
1006.94576937005
 31
0.0
  0
SPLINE
  5
1C9
330
A
100
AcDbEntity
  8
ARJ70-1401
  6
Continuous
 62
     7
370
    35
390
1D
100
AcDbSpline
210
3.652387827495140E-6
220
-0.0001703840572095042
230
-0.9999999854779664
 70
     8
 71
     3
 72
     8
 73
     4
 74
     0
 42
0.000000001
 43
0.000001
 40
0.0
 40
0.0
 40
0.0
 40
0.0
 40
1.0
 40
1.0
 40
1.0
 40
1.0
 10
1861.125046611872
 20
1163.447047824374
 30
-0.000255736181316
 10
1851.396423482005
 20
1162.859299738341
 30
-0.0001911259815601
 10
1841.667800277788
 20
1162.36735507444
 30
-0.0001428391580704
 10
1831.939177018003
 20
1161.947009677402
 30
-0.0001067517085418
  0
LINE
  5
1CA
330
A
100
AcDbEntity
  8
ARJ70-1401
  6
Continuous
 62
     7
370
    35
390
1D
100
AcDbLine
 10
1531.124710602218
 20
1006.945810353155
 30
0.0
 11
1454.703032963963
 21
1006.945810353155
 31
0.0
  0
LINE
  5
1CB
330
A
100
AcDbEntity
  8
ARJ70-1401
  6
STYLE_01
 62
     7
370
    15
390
1D
100
AcDbLine
 10
615.4500755998356
 20
1015.47533512076
 30
0.0
 11
594.2563706393746
 21
1015.47533512076
 31
0.0
  0
LINE
  5
1CC
330
A
100
AcDbEntity
  8
ARJ70-1401
  6
STYLE_01
 62
     7
370
    15
390
1D
100
AcDbLine
 10
615.4500755998356
 20
1010.247063636386
 30
0.0
 11
591.6138495868665
 21
1010.247063636386
 31
0.0
  0
LINE
  5
1CD
330
A
100
AcDbEntity
  8
ARJ70-1401
  6
Continuous
 62
     7
370
    35
390
1D
100
AcDbLine
 10
615.4032142833385
 20
1006.946723073332
 30
0.0
 11
916.5968466882964
 21
1006.947024956243
 31
0.0
  0
LINE
  5
1CE
330
A
100
AcDbEntity
  8
ARJ70-1401
  6
Continuous
 62
     7
370
    35
390
1D
100
AcDbLine
 10
888.5372721168776
 20
1161.946979296786
 30
0.0
 11
959.2525283992304
 21
1161.947053888141
 31
0.0
  0
LINE
  5
1CF
330
A
100
AcDbEntity
  8
ARJ70-1401
  6
STYLE_01
 62
     7
370
    15
390
1D
100
AcDbLine
 10
615.4500755998356
 20
984.9470614874668
 30
0.0
 11
592.5125945756115
 21
984.9470614874668
 31
0.0
  0
LWPOLYLINE
  5
1D0
330
A
100
AcDbEntity
  8
ARJ70-1401
  6
STYLE_01
 62
     7
370
    15
390
1D
100
AcDbPolyline
 90
       10
 70
   128
 43
0.0
 10
588.6436911647547
 20
1006.824973878808
 10
588.6485486216873
 20
1006.790674269099
 42
-0.0051948382169117
 10
588.696092942613
 20
1006.427839311568
 10
588.6990533591143
 20
1006.403267804191
 42
-0.0039566855025428
 10
588.734418484089
 20
1006.088802016228
 42
-0.0039572723974493
 10
588.7648020748131
 20
1005.773815890485
 10
588.7713419428369
 20
1005.699900597865
 42
-0.0076645012435025
 10
588.8052056788088
 20
1005.23632428305
 10
588.8094765136277
 20
1005.162247838816
 10
588.8100435318488
 20
1005.15237067407
  0
LINE
  5
1D1
330
A
100
AcDbEntity
  8
ARJ70-1401
  6
STYLE_01
 62
     7
370
    15
390
1D
100
AcDbLine
 10
589.5200575476154
 20
987.7348501708361
 30
0.0
 11
588.8100498455456
 21
1005.152336672041
 31
0.0
  0
SPLINE
  5
1D2
330
A
100
AcDbEntity
  8
ARJ70-1401
  6
Continuous
 62
     7
370
    15
390
1D
100
AcDbSpline
 70
     0
 71
     3
 72
    17
 73
    13
 74
     0
 42
0.000000001
 43
0.000001
 40
0.0
 40
0.0
 40
0.0
 40
0.0
 40
1.0
 40
2.0
 40
3.0
 40
4.0
 40
5.0
 40
6.0
 40
7.0
 40
8.0
 40
9.0
 40
10.0
 40
10.0
 40
10.0
 40
10.0
 10
300.8025236964213
 20
1156.871208420877
 30
-0.000255742302015
 10
308.4569187201686
 20
1136.743363132998
 30
-0.000255736181681
 10
325.9787487625863
 20
1105.779224056902
 30
-0.0002557361817634
 10
356.2587482029248
 20
1078.788620670034
 30
-0.0002557361795272
 10
387.4016560338232
 20
1062.149731011205
 30
-0.0002557361796902
 10
417.7249292650519
 20
1050.037982650453
 30
-0.0002557361837551
 10
447.8432113950174
 20
1041.943486878632
 30
-0.0002557361801504
 10
478.1222947225256
 20
1036.355549675475
 30
-0.0002557361854839
 10
507.6694137805279
 20
1032.577947750987
 30
-0.0002557359871411
 10
535.3914337932829
 20
1029.979956319138
 30
-0.0002557353213139
 10
559.7612655007422
 20
1028.060945549719
 30
-0.0002557339369794
 10
571.0482521272429
 20
1027.416542604602
 30
-0.0002557323719464
 10
574.8201109802092
 20
1027.283692074876
 30
-0.0002557313880129
  0
LINE
  5
1D3
330
A
100
AcDbEntity
  8
ARJ70-1401
  6
Continuous
 62
     7
370
    35
390
1D
100
AcDbLine
 10
615.4500755998356
 20
976.9470665072819
 30
0.0
 11
643.1099205064286
 21
976.9470665072819
 31
0.0
  0
LINE
  5
1D4
330
A
100
AcDbEntity
  8
ARJ70-1401
  6
STYLE_01
 62
     7
370
    15
390
1D
100
AcDbLine
 10
615.4500755998356
 20
1026.947067008503
 30
0.0
 11
576.8620727603175
 21
1026.947067008503
 31
0.0
  0
LWPOLYLINE
  5
1D5
330
A
100
AcDbEntity
  8
ARJ70-1401
  6
STYLE_01
 62
     7
370
    15
390
1D
100
AcDbPolyline
 90
       34
 70
   128
 43
0.0
 10
592.6085337597065
 20
1014.158655716454
 42
0.0014608563877214
 10
592.6080827717469
 20
1014.176217463781
 10
592.6067062735137
 20
1014.224340049821
 42
0.0174906633956157
 10
592.5994775405425
 20
1014.337892703516
 10
592.5947291616117
 20
1014.385918209812
 42
0.0116146769095322
 10
592.577840636952
 20
1014.52391254729
 10
592.5778082270035
 20
1014.524134482554
 42
0.0115747433951824
 10
592.5546154376095
 20
1014.660755613944
 10
592.5545806181237
 20
1014.660935398221
 42
0.0115402487454924
 10
592.5251769943068
 20
1014.795981247281
 10
592.5251430348615
 20
1014.796121557773
 42
0.0115101773809023
 10
592.4896216909453
 20
1014.929390222901
 10
592.4895916069825
 20
1014.929493479786
 42
0.0114855238434047
 10
592.448045869146
 20
1015.060783333823
 10
592.4480224961237
 20
1015.060851695469
 42
0.0114670672794342
 10
592.4005458328406
 20
1015.1899613718
 42
0.0114522480433229
 10
592.3472178185918
 20
1015.316725178871
 42
0.0114505194756721
 10
592.2881580009341
 20
1015.440875622535
 42
0.0114560394202099
 10
592.2234626402878
 20
1015.562213314888
 42
0.0114688023970005
 10
592.1532279159537
 20
1015.680538953057
 42
0.0114803177078286
 10
592.0776059244747
 20
1015.795572256979
 10
592.0775498795492
 20
1015.795653389325
 42
0.0115034798715802
 10
591.9966063763195
 20
1015.907249889703
 10
591.9965246279908
 20
1015.907357307095
 42
0.0115323276245526
 10
591.9103593733032
 20
1016.015318495633
 10
591.9102481935327
 20
1016.015451393108
 42
0.0115656884975477
 10
591.8189612264673
 20
1016.119578864614
 10
591.8188167551559
 20
1016.119736164205
 42
0.0116031455868605
 10
591.7225087662803
 20
1016.219831106975
 10
591.7162982890272
 20
1016.225993008978
 42
0.0116413735616444
 10
591.6273958231002
 20
1016.310184802057
 10
591.6209922077305
 20
1016.315972367543
 42
0.0087564765013641
 10
591.5417252337511
 20
1016.385130550222
 42
0.0014608266818142
 10
591.5282542763325
 20
1016.396407201246
 42
0.0014608266818142
  0
LWPOLYLINE
  5
1D6
330
A
100
AcDbEntity
  8
ARJ70-1401
  6
Continuous
 62
     7
370
    35
390
1D
100
AcDbPolyline
 90
       11
 70
   128
 43
0.0
 10
615.4500133435315
 20
1163.447300079361
 42
-0.000130130677498
 10
624.7661868517687
 20
1163.444875439378
 10
636.411430960299
 20
1163.43881382484
 42
-0.0006606954401518
 10
669.0180126937089
 20
1163.378755257251
 10
685.3214416812195
 20
1163.327182381741
 42
-0.0006918115647516
 10
750.5343917558782
 20
1163.030661815332
 10
759.8505357339234
 20
1162.975411310839
 42
-0.000474722861528
 10
825.0640020909248
 20
1162.526735873052
 10
829.7219205876379
 20
1162.490266228845
 42
-0.0002137084414486
 10
885.6189266863416
 20
1162.028722093588
 42
-0.0000197122686356
 10
894.9350922858616
 20
1161.947448602542
 42
-0.0000197122686356
  0
LWPOLYLINE
  5
1D7
330
A
100
AcDbEntity
  8
ARJ70-1401
  6
STYLE_01
 62
     7
370
    15
390
1D
100
AcDbPolyline
 90
       60
 70
   128
 43
0.0
 10
588.6436911647547
 20
1006.824973878808
 42
-0.0030481697957918
 10
588.6371278070249
 20
1006.873270790778
 10
588.6294410240012
 20
1006.932540236932
 42
-0.0193311281381007
 10
588.6142754308594
 20
1007.100002609273
 10
588.6111427782448
 20
1007.16059152769
 42
-0.0132537520278478
 10
588.606493586577
 20
1007.345400465058
 10
588.6064959752075
 20
1007.34716392851
 42
-0.0134871540815232
 10
588.6116321240706
 20
1007.528430629826
 10
588.6117212976981
 20
1007.53004153293
 42
-0.0137410386472447
 10
588.6264485643082
 20
1007.707543046456
 10
588.6266095792705
 20
1007.708997437206
 42
-0.013980829965551
 10
588.650746504153
 20
1007.882510316491
 10
588.6509637268293
 20
1007.883805412727
 42
-0.0142045335791366
 10
588.6843294763523
 20
1008.053104977997
 10
588.684586697231
 20
1008.054239279785
 42
-0.0144101861831814
 10
588.7270009384711
 20
1008.219099512251
 10
588.7272815059216
 20
1008.220072900569
 42
-0.0145958968337793
 10
588.7785642630722
 20
1008.380266353622
 10
588.7788512369082
 20
1008.381080177007
 42
-0.0147598762910948
 10
588.8388227263513
 20
1008.536377899337
 10
588.8390990400787
 20
1008.537035019738
 42
-0.0149005141155607
 10
588.9075795106125
 20
1008.687206530333
 10
588.9078281816544
 20
1008.687711428352
 42
-0.0150162786222757
 10
588.9846376600153
 20
1008.83252459594
 10
588.9848418384697
 20
1008.832883107291
 42
-0.0151062557340054
 10
589.0698002402028
 20
1008.972104554287
 10
589.0699440605256
 20
1008.972324971489
 42
-0.0151683969697756
 10
589.1628696738469
 20
1009.105718477573
 10
589.1629354066138
 20
1009.105806986253
 42
-0.0152056624191814
 10
589.2636504834709
 20
1009.233140173776
 42
-0.0152070346963068
 10
589.3719451701379
 20
1009.354141962199
 42
-0.0151902246781787
 10
589.4874172101406
 20
1009.46836703666
 10
589.487553600706
 20
1009.468493993564
 42
-0.0151408378954843
 10
589.6100182134426
 20
1009.575754795681
 10
589.6102789226059
 20
1009.575969544713
 42
-0.0150644932494816
 10
589.7395299074217
 20
1009.676055475736
 10
589.7399243352506
 20
1009.67634232205
 42
-0.0149615324213374
 10
589.8757548120386
 20
1009.769041486392
 10
589.8762921364057
 20
1009.769385089548
 42
-0.0148331357881638
 10
590.018496922406
 20
1009.854486471806
 10
590.0191846825414
 20
1009.854870823789
 42
-0.0146806304949693
 10
590.1675600955696
 20
1009.932163867461
 10
590.1684043080647
 20
1009.932572596762
 42
-0.0145055626791266
 10
590.3227482089844
 20
1010.001847038081
 10
590.3237533510398
 20
1010.002263586235
 42
-0.0143096454914419
 10
590.4838651304533
 20
1010.063309267156
 10
590.4850341668737
 20
1010.063717070109
 42
-0.0140947217008715
 10
590.6507147090929
 20
1010.116323762555
 10
590.6520491416602
 20
1010.116706419917
 42
-0.013862723828476
 10
590.8231007655372
 20
1010.160663662393
 10
590.8246007036071
 20
1010.161005092365
 42
-0.0136156360602245
 10
591.0008270839048
 20
1010.196102042056
 10
591.0024913326749
 20
1010.196386619385
 42
-0.0133554729026481
 10
591.1836974066243
 20
1010.2224119163
 10
591.1855235760388
 20
1010.222624592147
 42
-0.0130833115959668
 10
591.3715154294089
 20
1010.239366579695
 10
591.3734997204931
 20
1010.239492966094
 42
-0.012783232254768
 10
591.5640837964127
 20
1010.24674675712
 10
591.5651069581384
 20
1010.246759524191
 42
-0.0031195407504365
 10
591.6138495868665
 20
1010.247063636384
 42
-0.0031195407504365
  0
LWPOLYLINE
  5
1D8
330
A
100
AcDbEntity
  8
ARJ70-1401
  6
STYLE_01
 62
     7
370
    15
390
1D
100
AcDbPolyline
 90
       49
 70
   128
 43
0.0
 10
587.7902306932428
 20
976.9470663379519
 42
-0.0039709695742398
 10
587.693204615354
 20
976.9478369253095
 10
587.6691059760624
 20
976.9482197353454
 42
-0.0079504997995532
 10
587.5239621253738
 20
976.9528346083387
 10
587.4524581526173
 20
976.9562468708838
 42
-0.0158817693028921
 10
587.1651065825511
 20
976.9791239526284
 10
587.1170342986145
 20
976.9844920677826
 42
-0.0158164001226307
 10
586.7437315489226
 20
977.0381791343568
 10
586.7421092896652
 20
977.0384650724741
 42
-0.0157275327830625
 10
586.3761547986642
 20
977.1149057994394
 10
586.3748200477442
 20
977.1152287200601
 42
-0.0156255284173229
 10
586.0170188714794
 20
977.2137219719791
 10
586.0159395127323
 20
977.2140557020343
 42
-0.0155173318896227
 10
585.6670958839243
 20
977.3338947416734
 10
585.6662410689858
 20
977.3342183847856
 42
-0.0154094438995822
 10
585.327157388256
 20
977.4746916542917
 10
585.3264984947798
 20
977.4749887210465
 42
-0.0153077688774592
 10
584.9979745003652
 20
977.6353808171102
 10
584.997485645438
 20
977.6356383057102
 42
-0.0152173714883012
 10
584.6803181215907
 20
977.8152308686305
 10
584.6799771777642
 20
977.8154378713734
 42
-0.0151427295391999
 10
584.3749587821653
 20
978.0135113175348
 10
584.3747450605208
 20
978.0136594934793
 42
-0.0150865371101927
 10
584.082668017877
 20
978.2294911971645
 42
-0.0150581875323635
 10
583.8042133793326
 20
978.4624445258341
 42
-0.0150404495281751
 10
583.5403663040465
 20
978.7116419926011
 42
-0.0150474629198231
 10
583.2919037774136
 20
978.9763494287041
 42
-0.0150868483853057
 10
583.0597558727648
 20
979.2556358076677
 10
583.0595963014473
 20
979.2558400108534
 42
-0.0151427424172627
 10
582.8444405833775
 20
979.5490587411407
 10
582.8442142847789
 20
979.549387576104
 42
-0.0152175269393669
 10
582.646815835996
 20
979.8557907900533
 10
582.6465308879151
 20
979.8562641292524
 42
-0.0153079139064235
 10
582.4676538439392
 20
980.1751009979937
 10
582.467319644232
 20
980.1757419047145
 42
-0.0154096217796889
 10
582.3077266202333
 20
980.5062580437799
 10
582.307354724795
 20
980.507093006499
 42
-0.0155175243410499
 10
582.1678056752446
 20
980.8485307301486
 10
582.16741090187
 20
980.8495892854338
 42
-0.0156257330519311
 10
582.0486620547224
 20
981.2011880562123
 10
582.0482635071046
 20
981.2025021861043
 42
-0.0157277397161461
 10
581.9510663733486
 20
981.5634993374797
 10
581.9506883481331
 20
981.5651025959339
 42
-0.0158165690593964
 10
581.8757888486061
 20
981.9347343022034
 10
581.8676841411686
 20
981.9824364404685
 42
-0.0158761244765367
 10
581.8284495719529
 20
982.2679849699219
 10
581.8234838386984
 20
982.3151960816964
 42
-0.0079539004356263
 10
581.8063145907718
 20
982.50784162975
 42
-0.003971078357537
 10
581.800008138099
 20
982.6046682690338
 42
-0.003971078357537
  0
LWPOLYLINE
  5
1D9
330
A
100
AcDbEntity
  8
ARJ70-1401
  6
STYLE_01
 62
     7
370
    15
390
1D
100
AcDbPolyline
 90
       61
 70
   128
 43
0.0
 10
592.5125945756115
 20
984.9470614874668
 42
-0.0027025544939324
 10
592.4721560982773
 20
984.9472800634406
 10
592.422348442208
 20
984.9478185147236
 42
-0.0169152386674621
 10
592.2825072100966
 20
984.9540648188869
 10
592.2322729935095
 20
984.9580145404232
 42
-0.0115208013178746
 10
592.0777548407423
 20
984.9737530385063
 10
592.0766330647127
 20
984.9738934779698
 42
-0.0116748112913414
 10
591.9252478447063
 20
984.9964471852384
 10
591.9242247905609
 20
984.9966241088525
 42
-0.0118416047817657
 10
591.7761050499689
 20
985.0258676813302
 10
591.7751816156199
 20
985.0260728291203
 42
-0.0119984354665612
 10
591.6304609956726
 20
985.06188789091
 10
591.6296374968069
 20
985.0621127881755
 42
-0.0121443161063962
 10
591.4884502398504
 20
985.1043811486962
 10
591.4877263763462
 20
985.1046171581538
 42
-0.0122782902430248
 10
591.3502073566412
 20
985.1532207570092
 10
591.3495821849904
 20
985.1534591361861
 42
-0.0123994485048162
 10
591.2158669323314
 20
985.2082799834226
 10
591.2153388416139
 20
985.208511947964
 42
-0.0125069371517872
 10
591.085563562342
 20
985.2694320571785
 10
591.0851302702563
 20
985.2696488424248
 42
-0.0125999936041392
 10
590.9594318418947
 20
985.336550173282
 10
590.959090347149
 20
985.336743124732
 42
-0.0126778811272176
 10
590.8376063806438
 20
985.4095074681904
 10
590.8373531348182
 20
985.4096680138462
 42
-0.0127401831920013
 10
590.7202217173756
 20
985.4881771156811
 10
590.7200519526016
 20
985.4882972820627
 42
-0.0127858312229876
 10
590.6074126447857
 20
985.5724319323848
 10
590.6073231459477
 20
985.5725024180617
 42
-0.0128164101913191
 10
590.4993128459462
 20
985.6621460058064
 42
-0.0128300649661497
 10
590.3960569716025
 20
985.757192246625
 42
-0.0128179771112229
 10
590.2977810709392
 20
985.8574420099814
 42
-0.0128028601230971
 10
590.2047231514837
 20
985.962644911958
 10
590.2046192393659
 20
985.9627686286999
 42
-0.0127651393059821
 10
590.116858423117
 20
986.0728430930958
 10
590.1167053416477
 20
986.0730454871976
 42
-0.0127109760176319
 10
590.0343683117828
 20
986.1878591693148
 10
590.0341738507998
 20
986.1881454262408
 42
-0.0126408475110062
 10
589.9573868144266
 20
986.3075667451697
 10
589.9571591356028
 20
986.3079413249668
 42
-0.0125552801847797
 10
589.8860480365834
 20
986.4318393412432
 10
589.8857955323926
 20
986.4323060467275
 42
-0.0124549148778242
 10
589.8204861070965
 20
986.560550494107
 10
589.8202173372172
 20
986.5611124502691
 42
-0.0123404852431938
 10
589.7608351863059
 20
986.6935737413844
 10
589.7605588070162
 20
986.6942333940922
 42
-0.0122128060579971
 10
589.707229464635
 20
986.8307826191143
 10
589.706954160665
 20
986.8315417412692
 42
-0.0120727593478956
 10
589.6598031615256
 20
986.9720506580404
 10
589.6595375807394
 20
986.9729103638471
 42
-0.0119212801795237
 10
589.6186905238201
 20
987.1172513803692
 10
589.6184432158316
 20
987.1182121468296
 42
-0.0117593427088983
 10
589.5840258238675
 20
987.2662582968833
 10
589.5838051833916
 20
987.2673199917999
 42
-0.0115879562775198
 10
589.5559433605201
 20
987.4189449053404
 10
589.5557575755624
 20
987.4201068248905
 42
-0.0114075301884531
 10
589.5345772715582
 20
987.5751846802274
 10
589.5344343006982
 20
987.5764453676707
 42
-0.0112069693441777
 10
589.5200575476154
 20
987.7348501708361
 10
589.5200131733793
 20
987.7355007807222
 42
-0.0027504307043572
 10
589.5174832980401
 20
987.7758624530078
 42
-0.0027504307043572
  0
LWPOLYLINE
  5
1DA
330
A
100
AcDbEntity
  8
ARJ70-1401
  6
Continuous
 62
     7
370
    35
390
1D
100
AcDbPolyline
 90
       18
 70
   128
 43
0.0
 10
650.0577428779916
 20
1004.357777014545
 10
650.0593735808118
 20
1004.385611142749
 42
-0.0068018109311954
 10
650.0817511047223
 20
1004.69534200025
 10
650.0825936748713
 20
1004.70514650943
 42
-0.0060224709454627
 10
650.1109865558126
 20
1004.994621916109
 10
650.1110549068189
 20
1004.995241826131
 42
-0.0060142921018368
 10
650.146255910656
 20
1005.282711976207
 10
650.1463342267191
 20
1005.283293480534
 42
-0.0060050430990639
 10
650.1882641457105
 20
1005.568673588296
 10
650.1883508226358
 20
1005.569217979619
 42
-0.0059946274920204
 10
650.236930493285
 20
1005.852423249639
 10
650.2370240419523
 20
1005.852931934188
 42
-0.0059831836646115
 10
650.2921741745984
 20
1006.133877409753
 42
-0.0059706695545757
 10
650.3540246077175
 20
1006.413424311619
 10
650.3680662521294
 20
1006.473479597239
 42
-0.011158852448825
 10
650.470191440598
 20
1006.870118983352
 10
650.486961777046
 20
1006.929712110807
 10
650.4917778305596
 20
1006.94677708413
  0
LWPOLYLINE
  5
1DB
330
A
100
AcDbEntity
  8
ARJ70-1401
  6
STYLE_01
 62
     7
370
    15
390
1D
100
AcDbPolyline
 90
       25
 70
   128
 43
0.0
 10
581.8076167253778
 20
1024.485788445371
 42
0.001567391677166
 10
581.7496104091958
 20
1024.533751520875
 10
581.6770231525336
 20
1024.593388858252
 42
0.0093936728698516
 10
581.4706260183364
 20
1024.756566774313
 10
581.3662603230989
 20
1024.835938501702
 42
0.0124938113397694
 10
580.9403834519994
 20
1025.14333856409
 10
580.9094699000948
 20
1025.164497851656
 42
0.0124619929540972
 10
580.4082504238388
 20
1025.489525697991
 10
580.4078274160336
 20
1025.489785266966
 42
0.0124364625056299
 10
579.8919090748743
 20
1025.788965264553
 10
579.8916351732153
 20
1025.789115123909
 42
0.0124180502048181
 10
579.3620434121788
 20
1026.062005996771
 42
0.0124050266168437
 10
578.8196809539302
 20
1026.308226794442
 42
0.0124065604399677
 10
578.2658509491814
 20
1026.527205596135
 42
0.0124166749834915
 10
577.7015832987952
 20
1026.718519885535
 42
0.0124266320799094
 10
577.128298589746
 20
1026.88164640935
 10
577.1279052275056
 20
1026.881747844154
 42
0.0124486846214707
 10
576.5464272438683
 20
1027.016347524781
 10
576.5458460802822
 20
1027.016466891954
 42
0.0124780941006869
 10
575.9572166243013
 20
1027.122133555868
 10
575.9201014462394
 20
1027.127844229175
 42
0.012511682170986
 10
575.3982454272907
 20
1027.194820303951
 10
575.3612356905182
 20
1027.19863171411
 42
0.0094083743745087
 10
574.9110112015701
 20
1027.236451819676
 42
0.0015697582830771
 10
574.8357290997496
 20
1027.24111398753
 42
0.0015697582830771
  0
LWPOLYLINE
  5
1DC
330
A
100
AcDbEntity
  8
ARJ70-1401
  6
Continuous
 62
     7
370
    35
390
1D
100
AcDbPolyline
 90
       49
 70
   128
 43
0.0
 10
643.1099205064286
 20
976.9470665072819
 42
0.0039709695753966
 10
643.2069465843144
 20
976.9478370946396
 10
643.231045223609
 20
976.9482199046756
 42
0.0079504997982944
 10
643.3761890743001
 20
976.9528347776691
 10
643.4476930470541
 20
976.9562470402138
 42
0.0158817693035097
 10
643.7350446171192
 20
976.9791241219581
 10
643.7831169010572
 20
976.9844922371127
 42
0.0158164001228581
 10
644.1564196507486
 20
977.0381793036872
 10
644.1580419100071
 20
977.0384652418048
 42
0.015727532782439
 10
644.5239964010068
 20
977.1149059687698
 10
644.5253311519252
 20
977.1152288893901
 42
0.0156255284173736
 10
644.8831323281918
 20
977.2137221413091
 10
644.8842116869394
 20
977.2140558713644
 42
0.0155173318907636
 10
645.2330553157469
 20
977.3338949110035
 10
645.233910130683
 20
977.3342185541148
 42
0.0154094438982219
 10
645.5729938114152
 20
977.474691823622
 10
645.5736527048946
 20
977.4749888903783
 42
0.0153077688788045
 10
645.9021766993062
 20
977.6353809864404
 10
645.9026655542318
 20
977.6356384750396
 42
0.0152173714871875
 10
646.2198330780802
 20
977.8152310379606
 10
646.2201740219089
 20
977.8154380407049
 42
0.015142729539831
 10
646.5251924175059
 20
978.0135114868648
 10
646.5254061391499
 20
978.0136596628091
 42
0.0150865371103566
 10
646.8174831817937
 20
978.2294913664945
 42
0.0150480640427046
 10
647.0959378203381
 20
978.4624446951641
 42
0.0150403125597412
 10
647.3597848956247
 20
978.7116421619307
 42
0.0150577923989274
 10
647.6082474222576
 20
978.976349598034
 42
0.0150868483848904
 10
647.8403953269062
 20
979.2556359769973
 10
647.8405548982239
 20
979.2558401801834
 42
0.0151427424168655
 10
648.0557106162964
 20
979.5490589104744
 10
648.0559369148923
 20
979.5493877454337
 42
0.0152175269406635
 10
648.2533353636729
 20
979.85579095938
 10
648.2536203117559
 20
979.8562642985826
 42
0.0153079139054471
 10
648.4324973557318
 20
980.1751011673242
 10
648.4328315554387
 20
980.1757420740447
 42
0.0154096217798079
 10
648.5924245794386
 20
980.5062582131114
 10
648.5927964748755
 20
980.5070931758282
 42
0.0155175243411461
 10
648.7323455244255
 20
980.8485308994756
 10
648.7327402978008
 20
980.8495894547627
 42
0.0156257330521094
 10
648.8514891449479
 20
981.2011882255397
 10
648.8518876925662
 20
981.2025023554337
 42
0.0157277397163069
 10
648.9490848263224
 20
981.5634995068104
 10
648.9494628515374
 20
981.5651027652632
 42
0.0158165690592431
 10
649.0243623510646
 20
981.9347344715335
 10
649.0324670585014
 20
981.9824366097951
 42
0.0158761244765079
 10
649.0717016277179
 20
982.2679851392508
 10
649.0766673609726
 20
982.3151962510277
 42
0.0079539004356508
 10
649.093836608899
 20
982.5078417990791
 42
0.0039708607908322
 10
649.1001430615715
 20
982.6046684383629
 42
0.0039708607908322
  0
LINE
  5
1DD
330
A
100
AcDbEntity
  8
ARJ70-1401
  6
Continuous
 62
     7
370
    35
390
1D
100
AcDbLine
 10
888.5372721168776
 20
1161.946979296786
 30
0.0
 11
615.4500755998356
 21
1161.946979296786
 31
0.0
  0
LINE
  5
1DE
330
A
100
AcDbEntity
  8
ARJ70-1401
  6
STYLE_01
 62
     7
370
    15
390
1D
100
AcDbLine
 10
593.1595098391256
 20
984.9470614874668
 30
0.0
 11
593.3415633594825
 21
976.9470663379519
 31
0.0
  0
LINE
  5
1DF
330
A
100
AcDbEntity
  8
ARJ70-1401
  6
STYLE_01
 62
     7
370
    15
390
1D
100
AcDbLine
 10
592.6085337597065
 20
1014.158655716454
 30
0.0
 11
592.6975487022244
 21
1010.247063636384
 31
0.0
  0
LINE
  5
1E0
330
A
100
AcDbEntity
  8
ARJ70-1401
  6
Continuous
 62
     7
370
    35
390
1D
100
AcDbLine
 10
649.0766673609724
 20
982.315196251025
 30
0.0
 11
650.0577428779916
 21
1004.357777014545
 31
0.0
  0
LINE
  5
1E1
330
A
100
AcDbEntity
  8
ARJ70-1401
  6
STYLE_01
 62
     7
370
    15
390
1D
100
AcDbLine
 10
581.8076167253778
 20
1024.485788445371
 30
0.0
 11
591.5282932441576
 21
1016.396714973388
 31
0.0
  0
SPLINE
  5
1E2
330
A
100
AcDbEntity
  8
ARJ70-1401
  6
Continuous
 62
     7
370
    15
390
1D
100
AcDbSpline
210
1.093488567091414E-9
220
-7.120470288992886E-11
230
1.0
 70
     8
 71
     3
 72
    23
 73
    19
 74
     0
 42
0.000000001
 43
0.000001
 40
0.0
 40
0.0
 40
0.0
 40
0.0
 40
1.0
 40
2.0
 40
3.0
 40
4.0
 40
5.0
 40
6.0
 40
7.0
 40
8.0
 40
9.0
 40
10.0
 40
11.0
 40
12.0
 40
13.0
 40
14.0
 40
15.0
 40
16.0
 40
16.0
 40
16.0
 40
16.0
 10
295.4761924665008
 20
1161.034837311244
 30
-0.0002557361813169
 10
295.6301157790103
 20
1161.024815002183
 30
-0.0002557363503439
 10
295.9352326679281
 20
1160.99311654485
 30
-0.0002557366862428
 10
296.383233707109
 20
1160.911768253633
 30
-0.0002557371819192
 10
296.8200753661949
 20
1160.79778026961
 30
-0.0002557376677171
 10
297.2442725592882
 20
1160.652313505196
 30
-0.0002557381419298
 10
297.6543402004908
 20
1160.476528872803
 30
-0.0002557386028507
 10
298.0487932039041
 20
1160.271587284844
 30
-0.0002557390487734
 10
298.4261464836308
 20
1160.038649653734
 30
-0.0002557394779911
 10
298.7849149537732
 20
1159.778876891885
 30
-0.0002557398887974
 10
299.1236135284325
 20
1159.493429911712
 30
-0.0002557402794856
 10
299.4407571217106
 20
1159.183469625626
 30
-0.0002557406483491
 10
299.7348606477099
 20
1158.850156946042
 30
-0.0002557409936814
 10
300.004439020532
 20
1158.494652785372
 30
-0.0002557413137758
 10
300.2480071542795
 20
1158.118118056031
 30
-0.0002557416069258
 10
300.4640799630542
 20
1157.721713670431
 30
-0.0002557418714248
 10
300.6511723609574
 20
1157.306600540986
 30
-0.0002557421055662
 10
300.7555902950471
 20
1157.018159900401
 30
-0.0002557422402844
 10
300.8024741649805
 20
1156.871208426939
 30
-0.000255742302015
  0
LWPOLYLINE
  5
1E3
330
A
100
AcDbEntity
  8
ARJ70-1401
  6
STYLE_01
 62
     7
370
    15
390
1D
100
AcDbPolyline
 90
       11
 70
   128
 43
0.0
 10
271.449770672525
 20
1161.947001340382
 42
-0.0003130575473794
 10
271.8039985216028
 20
1161.946779552957
 10
272.9553385640295
 20
1161.945337809491
 42
-0.0040992658990953
 10
275.6120405029599
 20
1161.92022932637
 10
277.4715592352167
 20
1161.887406896756
 42
-0.0044767372020978
 10
281.7228484767372
 20
1161.774284792732
 42
-0.0021696207357742
 10
285.9738575386597
 20
1161.60458684569
 42
-0.0041663672868603
 10
290.223735854194
 20
1161.380963905191
 10
290.932309640681
 20
1161.337756290828
 42
-0.0029799090377532
 10
295.1830216323831
 20
1161.053118024009
 42
-0.0002372278287935
 10
295.5372375343541
 20
1161.027108491965
 42
-0.0002372278287935
  0
SPLINE
  5
1E4
330
A
100
AcDbEntity
  8
ARJ70-1401
  6
Continuous
 62
     7
370
    35
390
1D
100
AcDbSpline
210
0.0
220
0.0
230
1.0
 70
     8
 71
     3
 72
     8
 73
     4
 74
     0
 42
0.000000001
 43
0.000001
 40
0.0
 40
0.0
 40
0.0
 40
0.0
 40
1.0
 40
1.0
 40
1.0
 40
1.0
 10
916.0404973900465
 20
1006.947001390234
 30
-0.0002557361813117
 10
918.4153670996866
 20
1006.947001196426
 30
-0.0002557361813117
 10
920.5972033685155
 20
1007.930522900776
 30
-0.0002557361813117
 10
922.1562030309165
 20
1009.544325688159
 30
-0.0002557361813116
  0
SPLINE
  5
1E5
330
A
100
AcDbEntity
  8
ARJ70-1401
  6
Continuous
 62
     7
370
    35
390
1D
100
AcDbSpline
210
0.0
220
0.0
230
1.0
 70
     8
 71
     3
 72
     8
 73
     4
 74
     0
 42
0.000000001
 43
0.000001
 40
0.0
 40
0.0
 40
0.0
 40
0.0
 40
1.0
 40
1.0
 40
1.0
 40
1.0
 10
965.4501783221735
 20
1155.896977719075
 30
-0.0002557361813164
 10
965.2460340237146
 20
1131.412080630669
 30
-0.0002557361813184
 10
962.3346238976346
 20
1051.864375677673
 30
-0.0002557361813229
 10
922.1561934766714
 20
1009.544326449331
 30
-0.0002557361813116
  0
SPLINE
  5
1E6
330
A
100
AcDbEntity
  8
ARJ70-1401
  6
Continuous
 62
     7
370
    35
390
1D
100
AcDbSpline
210
0.0
220
0.0
230
1.0
 70
     8
 71
     3
 72
    17
 73
    13
 74
     0
 42
0.000000001
 43
0.000001
 40
0.0
 40
0.0
 40
0.0
 40
0.0
 40
1.0
 40
2.0
 40
3.0
 40
4.0
 40
5.0
 40
6.0
 40
7.0
 40
8.0
 40
9.0
 40
10.0
 40
10.0
 40
10.0
 40
10.0
 10
959.4503805271465
 20
1161.947001340382
 30
-0.000255736181316
 10
959.7837068821195
 20
1161.947001691979
 30
-0.000255736181316
 10
960.4375808123555
 20
1161.892664736108
 30
-0.000255736181316
 10
961.3675563131926
 20
1161.660750013252
 30
-0.000255736181316
 10
962.2341973641296
 20
1161.291029689487
 30
-0.000255736181316
 10
963.0250049097756
 20
1160.796107452957
 30
-0.000255736181316
 10
963.7274798947494
 20
1160.188586991805
 30
-0.0002557361813161
 10
964.3291232636634
 20
1159.481071994173
 30
-0.0002557361813161
 10
964.8174359611314
 20
1158.686166148204
 30
-0.0002557361813162
 10
965.1799189317685
 20
1157.816473142041
 30
-0.0002557361813162
 10
965.4040731201885
 20
1156.884596663826
 30
-0.0002557361813163
 10
965.4529573540676
 20
1156.230292489077
 30
-0.0002557361813164
 10
965.4501783221745
 20
1155.896977719075
 30
-0.0002557361813164
  0
LWPOLYLINE
  5
1E7
330
A
100
AcDbEntity
  8
ARJ70-1401
  6
STYLE_01
 62
     7
370
    15
390
1D
100
AcDbPolyline
 90
       19
 70
   128
 43
0.0
 10
615.4500755998356
 20
1159.146404712601
 42
-0.0001676467747477
 10
611.5976326382665
 20
1159.147696411912
 10
599.0044728098615
 20
1159.156141223616
 42
-0.0013902965550388
 10
569.9659892888478
 20
1159.256358608926
 10
557.5643562263676
 20
1159.333643730903
 42
-0.0005431512833508
 10
525.6017102210872
 20
1159.567552857362
 42
-0.000373385549706
 10
493.6395367415446
 20
1159.860051529213
 10
493.1903742007237
 20
1159.86449744785
 42
-0.0001940168070612
 10
460.3302252282442
 20
1160.20250723058
 10
459.7481185077952
 20
1160.208720864382
 42
-0.000028130003529
 10
425.7239077948544
 20
1160.57382295989
 10
425.0088813041427
 20
1160.581535895132
 42
0.0001190972470456
 10
389.554549067059
 20
1160.955533036597
 10
388.7066013333521
 20
1160.964275785049
 42
0.000235674540338
 10
351.5561122541874
 20
1161.329802546709
 10
342.6615781466794
 20
1161.413123792777
 42
0.0006632683951056
 10
287.7212625267825
 20
1161.854901814723
 10
279.28388066735
 20
1161.911554147712
 42
0.0000659171846054
 10
273.891277426269
 20
1161.947051521505
 42
0.0000659171846054
  0
LWPOLYLINE
  5
1E8
330
A
100
AcDbEntity
  8
ARJ70-1401
  6
STYLE_01
 62
     7
370
    15
390
1D
100
AcDbPolyline
 90
      144
 70
   128
 43
0.0
 10
623.228187936583
 20
1121.168547896211
 42
0.0034253736809962
 10
623.325820214952
 20
1121.267527126156
 10
623.4957566163823
 20
1121.442185264867
 42
0.0260919223443576
 10
623.9080147877266
 20
1121.912677506469
 10
623.9726020920677
 20
1121.994645847224
 42
0.0127709440738921
 10
624.4723827863954
 20
1122.663370067567
 10
624.4726767095719
 20
1122.663785040131
 42
0.025069915164151
 10
624.9206014796935
 20
1123.368579626788
 10
625.058414854014
 20
1123.611516808052
 42
0.0246846411875761
 10
625.4345397820875
 20
1124.358146938215
 10
625.4910980888335
 20
1124.485722610682
 42
0.0123014028669271
 10
625.704543313788
 20
1125.001033881461
 42
0.0123223500056309
 10
625.8923437890373
 20
1125.526172127542
 42
0.0123575455010843
 10
626.0539868625262
 20
1126.059880836183
 10
626.0910876200608
 20
1126.194264027348
 42
0.0250708917317023
 10
626.2728187380287
 20
1127.009852805275
 10
626.3080070032204
 20
1127.215945671326
 42
0.0192385000901059
 10
626.3985811681546
 20
1127.905324723477
 42
0.0131044844994791
 10
626.4444263658281
 20
1128.599391849882
 10
626.4471920094231
 20
1128.668931679072
 42
0.0264828513950662
 10
626.4361839527003
 20
1129.50259745711
 10
626.4269886618665
 20
1129.641360188911
 42
0.0129455681522234
 10
626.3758310208998
 20
1130.195492983394
 42
0.0127950810561466
 10
626.2962272297491
 20
1130.746263618941
 10
626.2727074700749
 20
1130.884001263979
 42
0.0250699151237233
 10
626.0910730810215
 20
1131.699096937268
 10
626.0167393241586
 20
1131.968328237476
 42
0.024684641191664
 10
625.7547525833038
 20
1132.76223595277
 10
625.7045357224201
 20
1132.892438338119
 42
0.0123014028678161
 10
625.4910841944077
 20
1133.407746998086
 42
0.0123223500051002
 10
625.2525503691024
 20
1133.911870802508
 42
0.012357545501263
 10
624.9894602354418
 20
1134.403558762958
 10
624.920671166929
 20
1134.524816225952
 42
0.0250708917309196
 10
624.472466117265
 20
1135.230027887352
 10
624.3516183150614
 20
1135.400639411427
 42
0.0192385000911631
 10
623.9281993187035
 20
1135.952149620236
 42
0.0131044844989302
 10
623.4698371971842
 20
1136.475346642073
 10
623.422620717741
 20
1136.526474332197
 42
0.0264828513945877
 10
622.825346121291
 20
1137.108181185536
 10
622.7207240001567
 20
1137.199799201664
 42
0.0129455681538603
 10
622.2927190286607
 20
1137.555456343485
 42
0.0127950810545718
 10
621.8469769968558
 20
1137.888621614226
 10
621.7329507924674
 20
1137.9693858555
 42
0.02506991512414
 10
621.0281562063731
 20
1138.417310625203
 10
620.7852190247379
 20
1138.555123999739
 42
0.0246846411912676
 10
620.0385888945796
 20
1138.93124892782
 10
619.9110132221103
 20
1138.987807234567
 42
0.0123014028689263
 10
619.3957019513332
 20
1139.201252459521
 42
0.0123223500039823
 10
618.8705637052524
 20
1139.38905293477
 42
0.0123575455018479
 10
618.3368549966126
 20
1139.550696008258
 10
618.2024718054461
 20
1139.587796765793
 42
0.0250708917309337
 10
617.3868830275185
 20
1139.769527883761
 10
617.1807901614682
 20
1139.804716148953
 42
0.0192385000913271
 10
616.4914111093178
 20
1139.895290313887
 42
0.0131044844984628
 10
615.7973439829141
 20
1139.94113551156
 10
615.7278041537231
 20
1139.943901155155
 42
0.0264828513950607
 10
614.8941383756844
 20
1139.932893098433
 10
614.7553756438836
 20
1139.9236978076
 42
0.0129455681533508
 10
614.2012428494002
 20
1139.872540166632
 42
0.0127950810551215
 10
613.6504722138561
 20
1139.792936375481
 10
613.5127345688152
 20
1139.769416615807
 42
0.0250699151237288
 10
612.697638895525
 20
1139.587782226753
 10
612.4284075953171
 20
1139.51344846989
 42
0.0246846411916917
 10
611.6344998800248
 20
1139.251461729036
 10
611.5042974946762
 20
1139.201244868153
 42
0.0123014028678838
 10
610.9889888347093
 20
1138.987793340141
 42
0.0123223500049554
 10
610.4848650302863
 20
1138.749259514835
 42
0.0123575455016333
 10
609.9931770698333
 20
1138.486169381173
 10
609.8719196068419
 20
1138.417380312662
 42
0.0250708917307403
 10
609.1667079454417
 20
1137.969175262997
 10
608.9960964213676
 20
1137.848327460794
 42
0.019238500091507
 10
608.4445862125592
 20
1137.424908464436
 42
0.0131044844984099
 10
607.9213891907202
 20
1136.966546342915
 10
607.870261500597
 20
1136.919329863473
 42
0.0264828513949498
 10
607.2885546472583
 20
1136.322055267023
 10
607.19693663113
 20
1136.217433145888
 42
0.0129455681531802
 10
606.8412794893097
 20
1135.789428174393
 42
0.0127950810554536
 10
606.5081142185691
 20
1135.34368614259
 10
606.4273499772942
 20
1135.2296599382
 42
0.0250699151235509
 10
605.979425207591
 20
1134.524865352104
 10
605.8416118330547
 20
1134.281928170471
 42
0.0246846411922724
 10
605.4654869049743
 20
1133.535298040311
 10
605.4089285982284
 20
1133.407722367844
 42
0.0123014028671066
 10
605.1954833732741
 20
1132.892411097065
 42
0.0123223500053577
 10
605.0076828980245
 20
1132.367272850984
 42
0.0123575455011461
 10
604.8460398245356
 20
1131.833564142343
 10
604.8089390670009
 20
1131.699180951178
 42
0.0250708917317581
 10
604.6272079490332
 20
1130.883592173251
 10
604.5920196838413
 20
1130.677499307199
 42
0.0192385000901832
 10
604.5014455189073
 20
1129.988120255049
 42
0.0131044844994802
 10
604.455600321234
 20
1129.294053128645
 10
604.452834677639
 20
1129.224513299454
 42
0.0264828513948008
 10
604.4638427343618
 20
1128.390847521417
 10
604.4730380251951
 20
1128.252084789616
 42
0.0129455681523918
 10
604.5241956661619
 20
1127.697951995132
 42
0.0127950810562503
 10
604.6037994573123
 20
1127.147181359588
 10
604.627319216987
 20
1127.009443714547
 42
0.0250699151234291
 10
604.8089536060411
 20
1126.194348041256
 10
604.8832873629028
 20
1125.925116741052
 42
0.0246846411919002
 10
605.1452741037583
 20
1125.131209025757
 10
605.1954909646445
 20
1125.001006640402
 42
0.0123014028674391
 10
605.4089424926542
 20
1124.485697980441
 42
0.0123223500053971
 10
605.6474763179592
 20
1123.981574176018
 42
0.0123575455012344
 10
605.9105664516198
 20
1123.489886215567
 10
605.9793555201322
 20
1123.368628752574
 42
0.0250708917315921
 10
606.4275605697974
 20
1122.663417091173
 10
606.548408372
 20
1122.4928055671
 42
0.0192385000903551
 10
606.9718273683588
 20
1121.941295358291
 42
0.0131044844991368
 10
607.4301894898779
 20
1121.418098336453
 10
607.4774059693211
 20
1121.366970646329
 42
0.0264828513951214
 10
608.0746805657716
 20
1120.785263792991
 10
608.1793026869061
 20
1120.693645776863
 42
0.0129455681522191
 10
608.6073076584016
 20
1120.337988635042
 42
0.0127950810564109
 10
609.0530496902063
 20
1120.004823364299
 10
609.1670758945945
 20
1119.924059123026
 42
0.0250699151232196
 10
609.871870480689
 20
1119.476134353324
 10
610.1148076623251
 20
1119.338320978787
 42
0.0246846411920662
 10
610.861437792483
 20
1118.962196050707
 10
610.9890134649474
 20
1118.905637743962
 42
0.012301402867119
 10
611.5043247357291
 20
1118.692192519006
 42
0.0123223500055104
 10
612.0294629818097
 20
1118.504392043757
 42
0.0123575455013821
 10
612.5631716904502
 20
1118.342748970268
 10
612.6975548816163
 20
1118.305648212733
 42
0.0250708917312639
 10
613.5131436595441
 20
1118.123917094765
 10
613.7192365255949
 20
1118.088728829573
 42
0.0192385000908077
 10
614.408615577745
 20
1117.99815466464
 42
0.0131044844987829
 10
615.1026827041505
 20
1117.952309466966
 10
615.1722225333399
 20
1117.949543823371
 42
0.0264828513954611
 10
616.0058883113782
 20
1117.960551880094
 10
616.1446510431788
 20
1117.969747170928
 42
0.0129455681519943
 10
616.6987838376624
 20
1118.020904811895
 42
0.0127950810563523
 10
617.2495544732071
 20
1118.100508603045
 10
617.3872921182472
 20
1118.124028362719
 42
0.0250699151233281
 10
618.2023877915369
 20
1118.305662751773
 10
618.471619091745
 20
1118.379996508636
 42
0.0246846411919436
 10
619.265526807038
 20
1118.64198324949
 42
0.0122964757336618
 10
620.0387190905954
 20
1118.962246594516
 42
0.0246966666143018
 10
620.7853322055362
 20
1119.338372329853
 42
0.0124476150280009
 10
621.5021703567547
 20
1119.769011032215
 42
0.0253644782176344
 10
622.1832297197891
 20
1120.251735896028
 10
622.2928334768665
 20
1120.338099905242
 42
0.0129794142416191
 10
622.7206463359421
 20
1120.693581674318
 42
0.013184720496485
 10
623.1292182969221
 20
1121.070893788519
 42
0.00334486351208
 10
623.228187936583
 20
1121.168547896211
 42
0.00334486351208
  0
LINE
  5
1E9
330
A
100
AcDbEntity
  8
ARJ70-1401
  6
STYLE_01
 62
     7
370
    15
390
1D
100
AcDbLine
 10
615.4499510872286
 20
1015.47533512076
 30
0.0
 11
636.6436560476895
 21
1015.47533512076
 31
0.0
  0
LINE
  5
1EA
330
A
100
AcDbEntity
  8
ARJ70-1401
  6
STYLE_01
 62
     7
370
    15
390
1D
100
AcDbLine
 10
615.4499510872286
 20
1010.247063636386
 30
0.0
 11
639.2861771001976
 21
1010.247063636386
 31
0.0
  0
LINE
  5
1EB
330
A
100
AcDbEntity
  8
ARJ70-1401
  6
STYLE_01
 62
     7
370
    15
390
1D
100
AcDbLine
 10
615.4499510872286
 20
984.9470614874668
 30
0.0
 11
638.3874321114524
 21
984.9470614874668
 31
0.0
  0
LWPOLYLINE
  5
1EC
330
A
100
AcDbEntity
  8
ARJ70-1401
  6
STYLE_01
 62
     7
370
    15
390
1D
100
AcDbPolyline
 90
       10
 70
   128
 43
0.0
 10
642.2563355223094
 20
1006.824973878808
 10
642.2514780653767
 20
1006.790674269097
 42
0.0051948382159712
 10
642.2039337444514
 20
1006.427839311567
 10
642.2009733279501
 20
1006.40326780419
 42
0.0039566855032058
 10
642.1656082029751
 20
1006.088802016228
 42
0.0039572723970513
 10
642.1352246122492
 20
1005.773815890463
 10
642.1286847442275
 20
1005.699900597865
 42
0.0076645012435224
 10
642.0948210082554
 20
1005.23632428305
 10
642.0905501734367
 20
1005.162247838816
 10
642.0899831552156
 20
1005.15237067407
  0
LINE
  5
1ED
330
A
100
AcDbEntity
  8
ARJ70-1401
  6
STYLE_01
 62
     7
370
    15
390
1D
100
AcDbLine
 10
641.3825433890245
 20
987.7758624530078
 30
0.0
 11
642.0899768415186
 21
1005.152336672041
 31
0.0
  0
SPLINE
  5
1EE
330
A
100
AcDbEntity
  8
ARJ70-1401
  6
Continuous
 62
     7
370
    15
390
1D
100
AcDbSpline
 70
     0
 71
     3
 72
    17
 73
    13
 74
     0
 42
0.000000001
 43
0.000001
 40
0.0
 40
0.0
 40
0.0
 40
0.0
 40
1.0
 40
2.0
 40
3.0
 40
4.0
 40
5.0
 40
6.0
 40
7.0
 40
8.0
 40
9.0
 40
10.0
 40
10.0
 40
10.0
 40
10.0
 10
930.0975029906426
 20
1156.871208420877
 30
-0.000255742302015
 10
922.4431079668955
 20
1136.743363132998
 30
-0.000255736181681
 10
904.9212779244774
 20
1105.779224056902
 30
-0.0002557361817634
 10
874.6412784841395
 20
1078.788620670034
 30
-0.0002557361795272
 10
843.4983706532405
 20
1062.149731011205
 30
-0.0002557361796902
 10
813.1750974220124
 20
1050.037982650453
 30
-0.0002557361837551
 10
783.0568152920466
 20
1041.943486878632
 30
-0.0002557361801504
 10
752.7777319645386
 20
1036.355549675475
 30
-0.0002557361854839
 10
723.2306129065364
 20
1032.577947750987
 30
-0.0002557359871411
 10
695.5085928937815
 20
1029.979956319138
 30
-0.0002557353213139
 10
671.1387611863224
 20
1028.060945549719
 30
-0.0002557339369794
 10
659.8517745598215
 20
1027.416542604602
 30
-0.0002557323719464
 10
656.0799157068545
 20
1027.283692074876
 30
-0.0002557313880129
  0
LINE
  5
1EF
330
A
100
AcDbEntity
  8
ARJ70-1401
  6
STYLE_01
 62
     7
370
    15
390
1D
100
AcDbLine
 10
615.4499510872286
 20
1026.947067008503
 30
0.0
 11
654.0379539267465
 21
1026.947067008503
 31
0.0
  0
LWPOLYLINE
  5
1F0
330
A
100
AcDbEntity
  8
ARJ70-1401
  6
STYLE_01
 62
     7
370
    15
390
1D
100
AcDbPolyline
 90
       36
 70
   128
 43
0.0
 10
638.2914929273575
 20
1014.158655716454
 42
-0.0014606531573477
 10
638.2919439081791
 20
1014.176217463975
 10
638.2925704174384
 20
1014.198120945268
 42
-0.0087568358131534
 10
638.2953997029604
 20
1014.259438782934
 10
638.2973415627905
 20
1014.289919499684
 42
-0.0116419207204943
 10
638.3079691507398
 20
1014.41190173126
 10
638.3089308358822
 20
1014.420594103125
 42
-0.0116027401799255
 10
638.3274045856558
 20
1014.558264052101
 10
638.3274379208608
 20
1014.558475182721
 42
-0.0115657703388766
 10
638.3521921351569
 20
1014.69472144078
 10
638.3522270378237
 20
1014.694891129452
 42
-0.0115322613680705
 10
638.3831688236703
 20
1014.829511578
 10
638.3832020735638
 20
1014.829642349084
 42
-0.0115035138587621
 10
638.4202383043844
 20
1014.962435296655
 10
638.4202670457321
 20
1014.962529883431
 42
-0.0114801712236978
 10
638.4633041349196
 20
1015.09329317453
 42
-0.0114690706265651
 10
638.5122704780076
 20
1015.221886897335
 42
-0.0114559196331452
 10
638.5670411616727
 20
1015.348017393473
 42
-0.0114506664741904
 10
638.6275191817347
 20
1015.471483770771
 42
-0.0114522181929573
 10
638.6936084352722
 20
1015.592086959236
 42
-0.0114670914845299
 10
638.7651741157079
 20
1015.709567626519
 10
638.7652131014427
 20
1015.709628440587
 42
-0.0114855474383004
 10
638.8421749070599
 20
1015.823821089562
 10
638.8422370520493
 20
1015.823908877408
 42
-0.0115102098740901
 10
638.924495465247
 20
1015.934615097781
 10
638.9245842112857
 20
1015.934728963803
 42
-0.0115402871471108
 10
639.0120393998291
 20
1016.041750257273
 10
639.0121585198883
 20
1016.041889348931
 42
-0.0115747878570721
 10
639.1047103083338
 20
1016.145027219164
 10
639.1048639316459
 20
1016.145190640713
 42
-0.0116125234625426
 10
639.2024117758608
 20
1016.244246673511
 10
639.215013873415
 20
1016.256462744238
 42
-0.0116506660963225
 10
639.2920907269706
 20
1016.327771437701
 10
639.3051537375748
 20
1016.339303788854
 42
-0.0058401906622462
 10
639.358301677493
 20
1016.385130733446
 42
-0.0014609765468064
 10
639.3717724107314
 20
1016.396407201246
 42
-0.0014609765468064
  0
LWPOLYLINE
  5
1F1
330
A
100
AcDbEntity
  8
ARJ70-1401
  6
STYLE_01
 62
     7
370
    15
390
1D
100
AcDbPolyline
 90
       61
 70
   128
 43
0.0
 10
642.2563355223094
 20
1006.824973878808
 42
0.0031046202302381
 10
642.2628934227316
 20
1006.873271497934
 10
642.2675190721939
 20
1006.909001123671
 42
0.0127974328870359
 10
642.27995352318
 20
1007.029117024489
 10
642.2828190724201
 20
1007.065989355671
 42
0.0130851296458017
 10
642.292411790761
 20
1007.252487266347
 10
642.2924581569516
 20
1007.254325199214
 42
0.013355558874322
 10
642.2921858423863
 20
1007.43739105595
 10
642.292138240311
 20
1007.439078801907
 42
0.0136157336196459
 10
642.2821838068971
 20
1007.618490767515
 10
642.2820567990905
 20
1007.62002383807
 42
0.0138628209090739
 10
642.2626020627124
 20
1007.795559039744
 10
642.2624109507849
 20
1007.796934053367
 42
0.0140948166542671
 10
642.2336370438372
 20
1007.968368442004
 10
642.23339776487
 20
1007.969583244392
 42
0.0143097364796333
 10
642.1954852538072
 20
1008.136691482885
 10
642.1952142564003
 20
1008.137745252668
 42
0.0145056493626397
 10
642.1483432761192
 20
1008.300300619092
 10
642.1480573758442
 20
1008.301193963557
 42
0.0146807066347932
 10
642.0924077862503
 20
1008.458968264032
 10
642.0921240106218
 20
1008.459703275203
 42
0.01483321694397
 10
642.0278755506076
 20
1008.612466808354
 10
642.0276109361846
 20
1008.613047182674
 42
0.0149615557302752
 10
641.9549434701883
 20
1008.760568601495
 10
641.9547150111462
 20
1008.760999381654
 42
0.0150646692422843
 10
641.8738084298268
 20
1008.90304610151
 10
641.8736322540581
 20
1008.903334825627
 42
0.0151404770589283
 10
641.7846679327622
 20
1009.039671339923
 10
641.7845620369305
 20
1009.039823360228
 42
0.0151913821873264
 10
641.6877174905626
 20
1009.170218207465
 42
0.0152069627051711
 10
641.5831545441213
 20
1009.294458982164
 42
0.0152044097048914
 10
641.4712581621286
 20
1009.412085344901
 10
641.4711790326699
 20
1009.412163617001
 42
0.0151688046218497
 10
641.3521854557887
 20
1009.522932288823
 10
641.3519878098448
 20
1009.523105386366
 42
0.0151060745241809
 10
641.2261039970497
 20
1009.626805353232
 10
641.2257777065886
 20
1009.627057993886
 42
0.0150162636241708
 10
641.0932112409164
 20
1009.723476949541
 10
641.0927463983323
 20
1009.723794147555
 42
0.0149004370396847
 10
640.9537032099975
 20
1009.812720766576
 10
640.9530915166517
 20
1009.813086771409
 42
0.0147598043432405
 10
640.8077760534609
 20
1009.894310281049
 10
640.8070107225792
 20
1009.894708884226
 42
0.0145958133484916
 10
640.6556258943629
 20
1009.968018898855
 10
640.6547016813336
 20
1009.96843361185
 42
0.0144100976484332
 10
640.4974488594853
 20
1010.033619943108
 10
640.4963620479828
 20
1010.034034182754
 42
0.0142044402847475
 10
640.3334410889954
 20
1010.090886658878
 10
640.3321894533212
 20
1010.091283922614
 42
0.0139807337927689
 10
640.1637987469201
 20
1010.139592218324
 10
640.1623814915085
 20
1010.139956246703
 42
0.0137409409049227
 10
639.9887180300038
 20
1010.179509727369
 10
639.9871357096733
 20
1010.17982465074
 42
0.0134870542343255
 10
639.808395175238
 20
1010.210412234392
 10
639.8066496009526
 20
1010.210662701494
 42
0.0132209760127531
 10
639.6230264719859
 20
1010.232072772814
 10
639.5987509067438
 20
1010.234254519537
 42
0.0129217633112137
 10
639.455252453163
 20
1010.243420907145
 10
639.4318208401612
 20
1010.244310545112
 42
0.006350061037156
 10
639.3349175995675
 20
1010.24675779875
 42
0.0031372900492772
 10
639.2861771001976
 20
1010.247063636384
 42
0.0031372900492772
  0
LWPOLYLINE
  5
1F2
330
A
100
AcDbEntity
  8
ARJ70-1401
  6
STYLE_01
 62
     7
370
    15
390
1D
100
AcDbPolyline
 90
       49
 70
   128
 43
0.0
 10
643.1097959938215
 20
976.9470663379519
 42
0.0039709695740318
 10
643.2068220716976
 20
976.9478369253093
 10
643.2309207110018
 20
976.9482197353453
 42
0.0079504998007064
 10
643.376064561696
 20
976.9528346083389
 10
643.4475685344471
 20
976.9562468708839
 42
0.0158817693017664
 10
643.7349201045151
 20
976.9791239526287
 10
643.7829923884485
 20
976.9844920677826
 42
0.0158164001235252
 10
644.1562951381418
 20
977.0381791343569
 10
644.1579173974003
 20
977.0384650724745
 42
0.0157275327823515
 10
644.5238718884004
 20
977.1149057994396
 10
644.5252066393191
 20
977.11522872006
 42
0.0156255284174109
 10
644.883007815585
 20
977.2137219719788
 10
644.884087174331
 20
977.2140557020336
 42
0.0155173318907847
 10
645.2329308031397
 20
977.3338947416734
 10
645.2337856180775
 20
977.3342183847853
 42
0.0154094438983193
 10
645.5728692988084
 20
977.4746916542921
 10
645.5735281922855
 20
977.4749887210473
 42
0.0153077688779065
 10
645.9020521866989
 20
977.6353808171101
 10
645.9025410416257
 20
977.6356383057099
 42
0.0152173714884367
 10
646.2197085654732
 20
977.8152308686305
 10
646.220049509302
 20
977.8154378713748
 42
0.0151427295386706
 10
646.5250679048993
 20
978.0135113175348
 10
646.5252816265433
 20
978.013659493479
 42
0.0150865371109827
 10
646.8173586691871
 20
978.2294911971645
 42
0.0150480640424221
 10
647.0958133077313
 20
978.4624445258341
 42
0.0150403125599264
 10
647.3596603830176
 20
978.711641992601
 42
0.0150577923984842
 10
647.6081229096505
 20
978.9763494287042
 42
0.0150868483851399
 10
647.8402708142992
 20
979.2556358076674
 10
647.8404303856169
 20
979.2558400108536
 42
0.0151427424169063
 10
648.0555861036889
 20
979.5490587411441
 10
648.0558124022853
 20
979.5493875761041
 42
0.0152175269402039
 10
648.2532108510668
 20
979.8557907900516
 10
648.2534957991488
 20
979.8562641292526
 42
0.0153079139055968
 10
648.4323728431241
 20
980.175100997993
 10
648.4327070428317
 20
980.1757419047145
 42
0.0154096217798918
 10
648.5923000668311
 20
980.5062580437807
 10
648.5926719622687
 20
980.5070930064986
 42
0.0155175243410235
 10
648.7322210118191
 20
980.8485307301478
 10
648.732615785194
 20
980.8495892854338
 42
0.0156257330526863
 10
648.8513646323406
 20
981.2011880562113
 10
648.8517631799589
 20
981.2025021861045
 42
0.015727739715005
 10
648.9489603137147
 20
981.5634993374797
 10
648.9493383389301
 20
981.5651025959337
 42
0.0158165690603155
 10
649.0242378384571
 20
981.934734302202
 10
649.0323425458942
 20
981.9824364404658
 42
0.0158761244753721
 10
649.0715771151106
 20
982.2679849699219
 10
649.0765428483653
 20
982.3151960816962
 42
0.0079539004371377
 10
649.0937120962919
 20
982.5078416297503
 42
0.0039708607909301
 10
649.1000185489645
 20
982.6046682690338
 42
0.0039708607909301
  0
LWPOLYLINE
  5
1F3
330
A
100
AcDbEntity
  8
ARJ70-1401
  6
STYLE_01
 62
     7
370
    15
390
1D
100
AcDbPolyline
 90
       61
 70
   128
 43
0.0
 10
638.3874321114524
 20
984.9470614874668
 42
0.0027403820601792
 10
638.4278705554748
 20
984.9472831227043
 10
638.4578624117037
 20
984.9476118916282
 42
0.0112165583205619
 10
638.5582081446057
 20
984.9509640507266
 10
638.5887647059078
 20
984.9526716711323
 42
0.0114087279773332
 10
638.744798807732
 20
984.9649679143328
 10
638.74596943869
 20
984.9650870943499
 42
0.0115879979613893
 10
638.8989374614607
 20
984.9842514046173
 10
638.9000100238634
 20
984.9844111033728
 42
0.0117593911860885
 10
639.0497791731152
 20
985.0103245537008
 10
639.0507524940476
 20
985.0105166364729
 42
0.0119213277410797
 10
639.1971894162609
 20
985.0430607377928
 10
639.1980628845847
 20
985.0432768311122
 42
0.0120728051934712
 10
639.3410336421546
 20
985.0823333065849
 10
639.3418072461402
 20
985.0825648475702
 42
0.0122128496861698
 10
639.4811772843148
 20
985.1280155789899
 10
639.4818516428952
 20
985.1282538703376
 42
0.0123405258554974
 10
639.6174857619274
 20
985.1799808401254
 10
639.6180621490746
 20
985.1802171099522
 42
0.0124549527189166
 10
639.7498244840426
 20
985.2381023392049
 10
639.7503048491467
 20
985.2383278064618
 42
0.0125553117083743
 10
639.8780588528816
 20
985.3022532861875
 10
639.8784458209766
 20
985.3024592235956
 42
0.0126408832712005
 10
640.002054273031
 20
985.3723068564187
 10
640.0023511870586
 20
985.3724846826645
 42
0.0127109757257417
 10
640.121676138182
 20
985.4481361657679
 10
640.1218868869048
 20
985.4482774149593
 42
0.0127652410832065
 10
640.236789911339
 20
985.5296143707061
 10
640.2369195798765
 20
985.5297112214454
 42
0.0128026096418481
 10
640.3472608210075
 20
985.6166142582692
 42
0.0128187862870243
 10
640.4529551389298
 20
985.7090099411814
 42
0.0128299304417806
 10
640.5537382321731
 20
985.806674308301
 42
0.012815719615643
 10
640.6493982327167
 20
985.9093927946421
 10
640.6494741509389
 20
985.9094786235031
 42
0.0127860544651384
 10
640.7398993123963
 20
986.0171338140024
 10
640.7400287944381
 20
986.0172962251969
 42
0.0127400855608457
 10
640.8250935198721
 20
986.1297567938768
 10
640.8252682905857
 20
986.1300005163855
 42
0.0126778771761966
 10
640.9048460816794
 20
986.2471344249869
 10
640.905058187775
 20
986.2474643265051
 42
0.0125999559826053
 10
640.9790229838186
 20
986.3691403197367
 10
640.9792641364934
 20
986.3695605292341
 42
0.0125069034819149
 10
641.0474901055748
 20
986.4956480019799
 10
641.0477518202308
 20
986.4961619846721
 42
0.0123994089190971
 10
641.1101133026557
 20
986.6265310098589
 10
641.1103869626234
 20
986.6271415508639
 42
0.0122782481278583
 10
641.1667583995347
 20
986.7616628806046
 10
641.1670353259422
 20
986.762372088018
 42
0.0121442712780646
 10
641.2172911911114
 20
986.9009171480538
 10
641.2175627097188
 20
986.9017264631678
 42
0.0119983886920471
 10
641.2615774440155
 20
987.0441673390585
 10
641.2618349486904
 20
987.045077554368
 42
0.0118415565330321
 10
641.2994828984529
 20
987.1912869704298
 10
641.299717910262
 20
987.1922982544064
 42
0.0116747608425424
 10
641.3308732709393
 20
987.3421495460532
 10
641.3310774920162
 20
987.3432614731579
 42
0.0115350145250849
 10
641.3556031731885
 20
987.49663006442
 10
641.3584909468689
 20
987.5178111805452
 42
0.0168735847333631
 10
641.3786042223403
 20
987.7147868469549
 10
641.3800150556026
 20
987.7354981875975
 42
0.0027288171742553
 10
641.3825433890245
 20
987.7758624530078
 42
0.0027288171742553
  0
LWPOLYLINE
  5
1F4
330
A
100
AcDbEntity
  8
ARJ70-1401
  6
STYLE_01
 62
     7
370
    15
390
1D
100
AcDbPolyline
 90
       25
 70
   128
 43
0.0
 10
649.0924099616866
 20
1024.485788445371
 42
-0.0015673916770066
 10
649.1504162778758
 20
1024.533751520881
 10
649.2230035345308
 20
1024.593388858253
 42
-0.0093936728709105
 10
649.4294006687267
 20
1024.756566774312
 10
649.5337663639652
 20
1024.835938501702
 42
-0.0124938113389997
 10
649.9596432350634
 20
1025.143338564089
 10
649.9905567869703
 20
1025.164497851656
 42
-0.0124619929545468
 10
650.4917762632256
 20
1025.489525697991
 10
650.4921992710315
 20
1025.489785266966
 42
-0.0124364625053429
 10
651.0081176121896
 20
1025.788965264552
 10
651.0083915138496
 20
1025.78911512391
 42
-0.012418050204732
 10
651.5379832748849
 20
1026.062005996771
 42
-0.0124104662521221
 10
652.0803457331338
 20
1026.308226794442
 42
-0.0124047035100391
 10
652.6341757378825
 20
1026.527205596134
 42
-0.0124073386790632
 10
653.198443388269
 20
1026.718519885535
 42
-0.0124266320802111
 10
653.7717280973172
 20
1026.88164640935
 10
653.7721214595583
 20
1026.881747844155
 42
-0.0124486846214623
 10
654.3535994431918
 20
1027.016347524781
 10
654.3541806067817
 20
1027.016466891955
 42
-0.0124780941011498
 10
654.942810062764
 20
1027.122133555868
 10
654.9799252408272
 20
1027.127844229175
 42
-0.0125116821702102
 10
655.5017812597735
 20
1027.194820303951
 10
655.5387909965441
 20
1027.19863171411
 42
-0.0094083743746031
 10
655.9890154854941
 20
1027.236451819676
 42
-0.0015698543607345
 10
656.0642975873145
 20
1027.24111398753
 42
-0.0015698543607345
  0
LINE
  5
1F5
330
A
100
AcDbEntity
  8
ARJ70-1401
  6
STYLE_01
 62
     7
370
    15
390
1D
100
AcDbLine
 10
637.7405168479386
 20
984.9470614874668
 30
0.0
 11
637.5584633275814
 21
976.9470663379519
 31
0.0
  0
LINE
  5
1F6
330
A
100
AcDbEntity
  8
ARJ70-1401
  6
STYLE_01
 62
     7
370
    15
390
1D
100
AcDbLine
 10
638.2914929273575
 20
1014.158655716454
 30
0.0
 11
638.2024779848396
 21
1010.247063636384
 31
0.0
  0
LINE
  5
1F7
330
A
100
AcDbEntity
  8
ARJ70-1401
  6
STYLE_01
 62
     7
370
    15
390
1D
100
AcDbLine
 10
649.0924099616866
 20
1024.485788445371
 30
0.0
 11
639.3717334429055
 21
1016.396714973388
 31
0.0
  0
SPLINE
  5
1F8
330
A
100
AcDbEntity
  8
ARJ70-1401
  6
Continuous
 62
     7
370
    15
390
1D
100
AcDbSpline
210
-1.093488567090968E-9
220
-7.120470289040903E-11
230
1.0
 70
     8
 71
     3
 72
    23
 73
    19
 74
     0
 42
0.000000001
 43
0.000001
 40
0.0
 40
0.0
 40
0.0
 40
0.0
 40
1.0
 40
2.0
 40
3.0
 40
4.0
 40
5.0
 40
6.0
 40
7.0
 40
8.0
 40
9.0
 40
10.0
 40
11.0
 40
12.0
 40
13.0
 40
14.0
 40
15.0
 40
16.0
 40
16.0
 40
16.0
 40
16.0
 10
935.4238342205635
 20
1161.034837311244
 30
-0.0002557361813169
 10
935.2699109080536
 20
1161.024815002183
 30
-0.0002557363503439
 10
934.9647940191355
 20
1160.99311654485
 30
-0.0002557366862428
 10
934.5167929799554
 20
1160.911768253633
 30
-0.0002557371819192
 10
934.0799513208694
 20
1160.79778026961
 30
-0.0002557376677171
 10
933.6557541277766
 20
1160.652313505196
 30
-0.0002557381419298
 10
933.2456864865735
 20
1160.476528872803
 30
-0.0002557386028507
 10
932.8512334831605
 20
1160.271587284844
 30
-0.0002557390487734
 10
932.4738802034335
 20
1160.038649653734
 30
-0.0002557394779911
 10
932.1151117332904
 20
1159.778876891885
 30
-0.0002557398887974
 10
931.7764131586316
 20
1159.493429911712
 30
-0.0002557402794856
 10
931.4592695653535
 20
1159.183469625626
 30
-0.0002557406483491
 10
931.1651660393545
 20
1158.850156946042
 30
-0.0002557409936814
 10
930.8955876665316
 20
1158.494652785372
 30
-0.0002557413137758
 10
930.6520195327846
 20
1158.118118056031
 30
-0.0002557416069258
 10
930.4359467240106
 20
1157.721713670431
 30
-0.0002557418714248
 10
930.2488543261065
 20
1157.306600540986
 30
-0.0002557421055662
 10
930.1444363920175
 20
1157.018159900401
 30
-0.0002557422402844
 10
930.0975525220836
 20
1156.871208426939
 30
-0.000255742302015
  0
LWPOLYLINE
  5
1F9
330
A
100
AcDbEntity
  8
ARJ70-1401
  6
STYLE_01
 62
     7
370
    15
390
1D
100
AcDbPolyline
 90
       11
 70
   128
 43
0.0
 10
959.4502560145395
 20
1161.947001340382
 42
0.0003130575474237
 10
959.0960281654577
 20
1161.946779552957
 10
957.9446881230349
 20
1161.945337809491
 42
0.0040992658989243
 10
955.2879861841066
 20
1161.92022932637
 10
953.4284674518476
 20
1161.887406896756
 42
0.0044767372021893
 10
949.1771782103269
 20
1161.774284792732
 42
0.0021711210311983
 10
944.9261691484048
 20
1161.60458684569
 42
0.0041663672869153
 10
940.6762908328731
 20
1161.380963905191
 10
939.967717046382
 20
1161.337756290828
 42
0.0029799090377253
 10
935.7170050546815
 20
1161.053118024009
 42
0.0002372262612265
 10
935.3627891527105
 20
1161.027108491965
 42
0.0002372262612265
  0
LWPOLYLINE
  5
1FA
330
A
100
AcDbEntity
  8
ARJ70-1401
  6
STYLE_01
 62
     7
370
    15
390
1D
100
AcDbPolyline
 90
       19
 70
   128
 43
0.0
 10
615.4499510872286
 20
1159.146404712601
 42
0.0001676467747477
 10
619.302394048819
 20
1159.147696411912
 10
631.8955538772027
 20
1159.156141223616
 42
0.0013902965550438
 10
660.9340373982143
 20
1159.256358608926
 10
673.3356704607058
 20
1159.333643730903
 42
0.000543151283338
 10
705.298316465977
 20
1159.567552857362
 42
0.0003733855496688
 10
737.2604899454691
 20
1159.860051529212
 10
737.7096524863405
 20
1159.86449744785
 42
0.0001940168071327
 10
770.5698014587572
 20
1160.202507230579
 10
771.1519081792692
 20
1160.208720864381
 42
0.000028130003529
 10
805.1761188933294
 20
1160.573822959902
 10
805.8911453829221
 20
1160.581535895133
 42
-0.0001190972471039
 10
841.3454776201588
 20
1160.955533036598
 10
842.193425353712
 20
1160.964275785049
 42
-0.0002356745404264
 10
879.3439144329561
 20
1161.329802546711
 10
888.2384485403852
 20
1161.413123792777
 42
-0.000663268395116
 10
943.1787641602612
 20
1161.854901814723
 10
951.6161460197145
 20
1161.911554147712
 42
-0.000065916422469
 10
957.0087492607954
 20
1161.947051521505
 42
-0.000065916422469
  0
LINE
  5
1FB
330
A
100
AcDbEntity
  8
ARJ70-1401
  6
Continuous
 62
     7
370
    35
390
1D
100
AcDbLine
 10
615.4969369163325
 20
1006.946723073332
 30
0.0
 11
314.3033045113747
 21
1006.947024956243
 31
0.0
  0
LINE
  5
1FC
330
A
100
AcDbEntity
  8
ARJ70-1401
  6
Continuous
 62
     7
370
    35
390
1D
100
AcDbLine
 10
342.3628790827938
 20
1161.946979296786
 30
0.0
 11
271.6476228004407
 21
1161.947053888141
 31
0.0
  0
LINE
  5
1FD
330
A
100
AcDbEntity
  8
ARJ70-1401
  6
Continuous
 62
     7
370
    35
390
1D
100
AcDbLine
 10
615.4500755998356
 20
976.9470665072819
 30
0.0
 11
587.7902306932428
 21
976.9470665072819
 31
0.0
  0
LWPOLYLINE
  5
1FE
330
A
100
AcDbEntity
  8
ARJ70-1401
  6
Continuous
 62
     7
370
    35
390
1D
100
AcDbPolyline
 90
       11
 70
   128
 43
0.0
 10
615.4501378561386
 20
1163.447300079361
 42
0.000130130677498
 10
606.1339643478223
 20
1163.444875439378
 10
594.4887202393713
 20
1163.438813824841
 42
0.0006606954401728
 10
561.882138505976
 20
1163.378755257251
 10
545.578709518451
 20
1163.327182381741
 42
0.0006918115647516
 10
480.3657594438273
 20
1163.030661815332
 10
471.0496154657183
 20
1162.975411310839
 42
0.0004747228615718
 10
405.8361491087462
 20
1162.526735873052
 10
401.1782306119475
 20
1162.490266228845
 42
0.0002137084415135
 10
345.28122451333
 20
1162.028722093588
 42
0.0000197122784918
 10
335.9650589138099
 20
1161.947448602542
 42
0.0000197122784918
  0
LWPOLYLINE
  5
1FF
330
A
100
AcDbEntity
  8
ARJ70-1401
  6
Continuous
 62
     7
370
    35
390
1D
100
AcDbPolyline
 90
       18
 70
   128
 43
0.0
 10
580.8424083216792
 20
1004.357777014545
 10
580.840777618859
 20
1004.385611142751
 42
0.0068018109313801
 10
580.8184000949486
 20
1004.69534200025
 10
580.8175575247997
 20
1004.705146509431
 42
0.0060224709456967
 10
580.7891646438582
 20
1004.994621916109
 10
580.7890962928525
 20
1004.995241826127
 42
0.0060142921019095
 10
580.7538952890147
 20
1005.282711976207
 10
580.7538169729512
 20
1005.283293480539
 42
0.0060050430982503
 10
580.7118870539605
 20
1005.568673588296
 10
580.7118003770352
 20
1005.569217979619
 42
0.0059946274924718
 10
580.6632207063865
 20
1005.852423249639
 10
580.6631271577203
 20
1005.852931934182
 42
0.0059831836651868
 10
580.6079770250728
 20
1006.133877409753
 42
0.0059706695536633
 10
580.5461265919535
 20
1006.413424311619
 10
580.5320849475415
 20
1006.473479597239
 42
0.0111588524493625
 10
580.4299597590718
 20
1006.870118983356
 10
580.413189422625
 20
1006.929712110807
 10
580.4083733691114
 20
1006.94677708413
  0
LWPOLYLINE
  5
200
330
A
100
AcDbEntity
  8
ARJ70-1401
  6
Continuous
 62
     7
370
    35
390
1D
100
AcDbPolyline
 90
       49
 70
   128
 43
0.0
 10
587.7902306932428
 20
976.9470665072819
 42
-0.0039709695757898
 10
587.6932046153668
 20
976.9478370946395
 10
587.6691059760624
 20
976.9482199046756
 42
-0.0079504997992782
 10
587.5239621253706
 20
976.9528347776694
 10
587.4524581526173
 20
976.9562470402143
 42
-0.0158817693014427
 10
587.1651065825488
 20
976.9791241219586
 10
587.1170342986177
 20
976.9844922371122
 42
-0.0158164001247852
 10
586.7437315489226
 20
977.0381793036869
 10
586.7421092896602
 20
977.038465241805
 42
-0.0157275327812554
 10
586.3761547986642
 20
977.1149059687698
 10
586.3748200477485
 20
977.1152288893895
 42
-0.015625528418031
 10
586.0170188714794
 20
977.213722141309
 10
586.0159395127293
 20
977.2140558713651
 42
-0.0155173318896048
 10
585.6670958839243
 20
977.333894911003
 10
585.6662410689896
 20
977.3342185541138
 42
-0.0154094439008091
 10
585.327157388256
 20
977.4746918236219
 10
585.3264984947771
 20
977.474988890378
 42
-0.0153077688756475
 10
584.9979745003652
 20
977.6353809864404
 10
584.9974856454385
 20
977.6356384750403
 42
-0.0152173714899077
 10
584.680318121591
 20
977.8152310379604
 10
584.6799771777635
 20
977.8154380407041
 42
-0.01514272953799
 10
584.3749587821653
 20
978.013511486865
 10
584.3747450605226
 20
978.0136596628082
 42
-0.0150865371114725
 10
584.082668017877
 20
978.2294913664947
 42
-0.0150581875308313
 10
583.8042133793326
 20
978.462444695164
 42
-0.015040449529613
 10
583.5403663040463
 20
978.7116421619307
 42
-0.0150474629194132
 10
583.2919037774136
 20
978.976349598034
 42
-0.015086848385406
 10
583.0597558727654
 20
979.2556359769966
 10
583.0595963014473
 20
979.2558401801831
 42
-0.0151427424171159
 10
582.8444405833759
 20
979.5490589104727
 10
582.8442142847789
 20
979.5493877454337
 42
-0.0152175269400528
 10
582.6468158359967
 20
979.8557909593823
 10
582.6465308879153
 20
979.8562642985821
 42
-0.0153079139059262
 10
582.4676538439405
 20
980.1751011673209
 10
582.4673196442322
 20
980.175742074044
 42
-0.0154096217796709
 10
582.3077266202306
 20
980.5062582131142
 10
582.3073547247948
 20
980.5070931758282
 42
-0.0155175243417226
 10
582.1678056752446
 20
980.8485308994767
 10
582.1674109018697
 20
980.8495894547631
 42
-0.0156257330513453
 10
582.0486620547224
 20
981.2011882255424
 10
582.0482635071048
 20
981.2025023554334
 42
-0.0157277397160079
 10
581.9510663733492
 20
981.563499506806
 10
581.9506883481331
 20
981.5651027652631
 42
-0.015816569059565
 10
581.8757888486059
 20
981.9347344715319
 10
581.8676841411691
 20
981.9824366097946
 42
-0.0158761244774376
 10
581.8284495719529
 20
982.2679851392509
 10
581.8234838386984
 20
982.3151962510248
 42
-0.0079539004347485
 10
581.8063145907718
 20
982.5078417990793
 42
-0.0039710783576139
 10
581.800008138099
 20
982.6046684383629
 42
-0.0039710783576139
  0
LINE
  5
201
330
A
100
AcDbEntity
  8
ARJ70-1401
  6
Continuous
 62
     7
370
    35
390
1D
100
AcDbLine
 10
342.3628790827938
 20
1161.946979296786
 30
0.0
 11
615.4500755998356
 21
1161.946979296786
 31
0.0
  0
LINE
  5
202
330
A
100
AcDbEntity
  8
ARJ70-1401
  6
Continuous
 62
     7
370
    35
390
1D
100
AcDbLine
 10
581.8234838386982
 20
982.3151962510266
 30
0.0
 11
580.8424083216792
 21
1004.357777014545
 31
0.0
  0
SPLINE
  5
203
330
A
100
AcDbEntity
  8
ARJ70-1401
  6
Continuous
 62
     7
370
    35
390
1D
100
AcDbSpline
210
0.0
220
0.0
230
1.0
 70
     8
 71
     3
 72
     8
 73
     4
 74
     0
 42
0.000000001
 43
0.000001
 40
0.0
 40
0.0
 40
0.0
 40
0.0
 40
1.0
 40
1.0
 40
1.0
 40
1.0
 10
314.8596538096243
 20
1006.947001390234
 30
-0.0002557361813117
 10
312.4847840999842
 20
1006.947001196426
 30
-0.0002557361813117
 10
310.3029478311551
 20
1007.930522900776
 30
-0.0002557361813117
 10
308.7439481687547
 20
1009.544325688159
 30
-0.0002557361813116
  0
SPLINE
  5
204
330
A
100
AcDbEntity
  8
ARJ70-1401
  6
Continuous
 62
     7
370
    35
390
1D
100
AcDbSpline
210
0.0
220
0.0
230
1.0
 70
     8
 71
     3
 72
     8
 73
     4
 74
     0
 42
0.000000001
 43
0.000001
 40
0.0
 40
0.0
 40
0.0
 40
0.0
 40
1.0
 40
1.0
 40
1.0
 40
1.0
 10
265.4499728774971
 20
1155.896977719075
 30
-0.0002557361813164
 10
265.6541171759567
 20
1131.412080630669
 30
-0.0002557361813184
 10
268.5655273020369
 20
1051.864375677673
 30
-0.0002557361813229
 10
308.7439577229992
 20
1009.544326449331
 30
-0.0002557361813116
  0
SPLINE
  5
205
330
A
100
AcDbEntity
  8
ARJ70-1401
  6
Continuous
 62
     7
370
    35
390
1D
100
AcDbSpline
210
0.0
220
0.0
230
1.0
 70
     8
 71
     3
 72
    17
 73
    13
 74
     0
 42
0.000000001
 43
0.000001
 40
0.0
 40
0.0
 40
0.0
 40
0.0
 40
1.0
 40
2.0
 40
3.0
 40
4.0
 40
5.0
 40
6.0
 40
7.0
 40
8.0
 40
9.0
 40
10.0
 40
10.0
 40
10.0
 40
10.0
 10
271.4497706725247
 20
1161.947001340382
 30
-0.000255736181316
 10
271.1164443175517
 20
1161.947001691979
 30
-0.000255736181316
 10
270.4625703873153
 20
1161.892664736108
 30
-0.000255736181316
 10
269.5325948864778
 20
1161.660750013252
 30
-0.000255736181316
 10
268.665953835542
 20
1161.291029689487
 30
-0.000255736181316
 10
267.8751462898949
 20
1160.796107452957
 30
-0.000255736181316
 10
267.1726713049216
 20
1160.188586991805
 30
-0.0002557361813161
 10
266.5710279360077
 20
1159.481071994173
 30
-0.0002557361813161
 10
266.0827152385395
 20
1158.686166148204
 30
-0.0002557361813162
 10
265.7202322679026
 20
1157.816473142041
 30
-0.0002557361813162
 10
265.4960780794822
 20
1156.884596663826
 30
-0.0002557361813163
 10
265.447193845604
 20
1156.230292489077
 30
-0.0002557361813164
 10
265.4499728774967
 20
1155.896977719075
 30
-0.0002557361813164
  0
CIRCLE
  5
206
330
A
100
AcDbEntity
  8
ARJ70-1401
  6
Continuous
 62
     7
370
     5
390
1D
100
AcDbCircle
 10
615.4500147409256
 20
2281.3549506019
 30
0.0
 40
17.50000000000001
  0
LINE
  5
207
330
A
100
AcDbEntity
  8
ARJ70-1401
  6
Continuous
 62
     7
370
     5
390
1D
100
AcDbLine
 10
1818.625048394856
 20
1161.923570174689
 30
0.0
 11
1818.625048394856
 21
1146.923570174689
 31
0.0
  0
LINE
  5
208
330
A
100
AcDbEntity
  8
ARJ70-1401
  6
Continuous
 62
     7
370
     5
390
1D
100
AcDbLine
 10
1783.625048394856
 20
1161.923570174689
 30
0.0
 11
1783.625048394856
 21
1146.923570174689
 31
0.0
  0
CIRCLE
  5
209
330
A
100
AcDbEntity
  8
ARJ70-1401
  6
Continuous
 62
     7
370
     5
390
1D
100
AcDbCircle
 10
615.5761758800845
 20
2126.354950577424
 30
0.0
 40
22.50000000000002
  0
CIRCLE
  5
20A
330
A
100
AcDbEntity
  8
ARJ70-1401
  6
Continuous
 62
     7
370
     5
390
1D
100
AcDbCircle
 10
615.5761758800845
 20
2126.354950577424
 30
0.0
 40
36.0
  0
CIRCLE
  5
20B
330
A
100
AcDbEntity
  8
ARJ70-1401
  6
STYLE_02
 62
     7
370
     5
390
1D
100
AcDbCircle
 10
715.4500147409256
 20
2271.3549506019
 30
0.0
 40
17.50000000000001
  0
CIRCLE
  5
20C
330
A
100
AcDbEntity
  8
ARJ70-1401
  6
STYLE_02
 62
     7
370
     5
390
1D
100
AcDbCircle
 10
515.4500147409256
 20
2271.3549506019
 30
0.0
 40
17.50000000000001
  0
LINE
  5
20D
330
A
100
AcDbEntity
  8
ARJ70-1401
  6
STYLE_11
 62
     7
370
    15
390
1D
100
AcDbLine
 10
740.5761758800847
 20
1106.946979296786
 30
0.0
 11
770.5761758800843
 21
1106.946979296786
 31
0.0
  0
LINE
  5
20E
330
A
100
AcDbEntity
  8
ARJ70-1401
  6
STYLE_11
 62
     7
370
    15
390
1D
100
AcDbLine
 10
755.5761758800845
 20
1091.946979296786
 30
0.0
 11
755.5761758800845
 21
1121.946979296786
 31
0.0
  0
CIRCLE
  5
20F
330
A
100
AcDbEntity
  8
ARJ70-1401
  6
STYLE_11
 62
     7
370
    15
390
1D
100
AcDbCircle
 10
755.5450959491284
 20
1107.170824116963
 30
0.0
 40
10.0
  0
LINE
  5
210
330
A
100
AcDbEntity
  8
ARJ70-1401
  6
STYLE_11
 62
     7
370
    15
390
1D
100
AcDbLine
 10
460.5761758800847
 20
1106.946979296786
 30
0.0
 11
490.5761758800843
 21
1106.946979296786
 31
0.0
  0
LINE
  5
211
330
A
100
AcDbEntity
  8
ARJ70-1401
  6
STYLE_11
 62
     7
370
    15
390
1D
100
AcDbLine
 10
475.5761758800845
 20
1091.946979296786
 30
0.0
 11
475.5761758800845
 21
1121.946979296786
 31
0.0
  0
CIRCLE
  5
212
330
A
100
AcDbEntity
  8
ARJ70-1401
  6
STYLE_11
 62
     7
370
    15
390
1D
100
AcDbCircle
 10
475.5450959491283
 20
1107.170824116963
 30
0.0
 40
10.0
  0
LWPOLYLINE
  5
213
330
A
100
AcDbEntity
  8
ARJ70-1401
  6
STYLE_02
 62
     7
370
     5
390
1D
100
AcDbPolyline
 90
      109
 70
   128
 43
0.0
 10
1261.304816042991
 20
2341.354934160987
 42
0.0056760957451595
 10
1259.503361146033
 20
2339.951199927273
 10
1258.196454876425
 20
2338.908770892812
 42
0.0237648417892239
 10
1253.973552005694
 20
2335.198900812689
 10
1252.742981202376
 20
2334.009621233761
 42
0.0239837632285148
 10
1246.847161026436
 20
2327.737742773157
 10
1246.811525064071
 20
2327.695991801665
 42
0.0233909624019421
 10
1241.602317361056
 20
2320.980814431533
 10
1241.598265320861
 20
2320.975053689884
 42
0.0221554809426281
 10
1237.028465016016
 20
2313.824975939092
 42
0.0203766658195606
 10
1233.081977280447
 20
2306.311407165661
 10
1233.067245664822
 20
2306.280348808545
 42
0.0182424456369373
 10
1229.684493211614
 20
2298.42030354914
 10
1229.659760951614
 20
2298.356525276785
 42
0.0159313762690383
 10
1226.775848057546
 20
2290.153550300061
 10
1226.485031933003
 20
2289.233699741478
 42
0.0134795290624174
 10
1224.514506419108
 20
2282.361709186835
 42
0.0069641734071762
 10
1222.826064756591
 20
2275.413067124467
 10
1222.641240778695
 20
2274.603454907118
 42
0.013231837066567
 10
1220.908552245189
 20
2265.966208734171
 10
1220.593627056505
 20
2264.14812862861
 42
0.0105362043940024
 10
1218.72015899799
 20
2251.789378042507
 10
1218.698585777585
 20
2251.623557781017
 42
0.0082923077288854
 10
1217.253960817357
 20
2238.869723607089
 10
1217.241638692358
 20
2238.742036902127
 42
0.0063373502364909
 10
1216.149275095641
 20
2225.695023183789
 10
1216.143316253896
 20
2225.61106586088
 42
0.0046219438518382
 10
1215.326766299567
 20
2212.374743301913
 10
1215.324862598202
 20
2212.338424292946
 42
0.002960447425613
 10
1214.705730979233
 20
2199.018249613365
 10
1214.278250702953
 20
2188.475841607257
 42
0.0071865044312932
 10
1213.377794083349
 20
2154.054242130692
 10
1213.276156252635
 20
2145.427310610249
 42
0.0035400528498212
 10
1213.14011546639
 20
2116.487827800527
 10
1213.145974396752
 20
2114.025310006798
 42
0.0055085714673738
 10
1213.467663104612
 20
2090.013443787343
 10
1213.541358330057
 20
2086.995393107384
 42
0.0021016561903117
 10
1214.055740880081
 20
2069.025334565956
 10
1214.091823820658
 20
2067.926307211275
 42
0.0011425849871015
 10
1214.645608516661
 20
2052.1577309931
 10
1214.734557963136
 20
2049.779892257799
 42
0.0019208532074418
 10
1215.188774604637
 20
2038.770003977454
 42
0.0041627439929031
 10
1215.776897147237
 20
2027.766757162544
 10
1215.785656287283
 20
2027.625030485733
 42
0.0062217350598062
 10
1216.623166627928
 20
2016.353648747542
 10
1216.632290589906
 20
2016.248568332502
 42
0.0082816661610191
 10
1217.81799706513
 20
2004.797088300018
 10
1217.843345483138
 20
2004.586400299309
 42
0.0104246666628561
 10
1219.437695968018
 20
1993.320435573355
 10
1219.552950147161
 20
1992.612709398663
 42
0.0118184320585833
 10
1221.382764887681
 20
1982.838698903955
 10
1221.497251711291
 20
1982.29813064991
 42
0.0111633987270009
 10
1223.521285145609
 20
1973.693709604524
 10
1223.524471071211
 20
1973.681404999139
 42
0.0129156460787387
 10
1225.953141620937
 20
1965.209535146877
 10
1225.959041327837
 20
1965.190796527256
 42
0.0148116462372714
 10
1228.840308934459
 20
1956.904521441887
 10
1228.84766748472
 20
1956.885221521977
 42
0.0168413239534952
 10
1232.230904082062
 20
1948.836906336355
 10
1232.23703096396
 20
1948.823603836974
 42
0.0189564723848584
 10
1236.17342984145
 20
1941.0651764696
 42
0.0210795508744629
 10
1240.716626568701
 20
1933.648179251137
 42
0.0231048335095344
 10
1245.895337239497
 20
1926.662752373535
 10
1245.909445475417
 20
1926.645453275665
 42
0.0249179526093201
 10
1251.762910264024
 20
1920.15675647066
 10
1251.799116865375
 20
1920.120434004893
 42
0.0232852295390507
 10
1258.326523243797
 20
1914.155135444913
 10
1258.387163658891
 20
1914.104690757918
 42
0.0205398170972034
 10
1265.538532231065
 20
1908.636551642368
 10
1265.618161444306
 20
1908.580692714336
 42
0.0180223834104866
 10
1273.334074188093
 20
1903.572943978802
 10
1273.424951174411
 20
1903.518513821504
 42
0.0157218731573204
 10
1281.647221268951
 20
1898.938716306702
 10
1281.741979479863
 20
1898.889773751572
 42
0.0136660628805971
 10
1290.412133579845
 20
1894.70771203027
 10
1290.5040423019
 20
1894.666436516809
 42
0.0118472777378657
 10
1299.562698051289
 20
1890.853512728574
 10
1299.646003816949
 20
1890.820749065881
 42
0.0102631666216774
 10
1309.032885397701
 20
1887.349667461112
 10
1309.305832856703
 20
1887.255058315598
 42
0.009559088969167
 10
1319.372485634768
 20
1883.979930623243
 10
1320.259448238992
 20
1883.710000207962
 42
0.0104381694200294
 10
1332.233060015091
 20
1880.337477746202
 10
1332.928494491191
 20
1880.157179633171
 42
0.0092827582319085
 10
1346.423408216971
 20
1876.924614993694
 10
1346.493720382394
 20
1876.909146744119
 42
0.0082272420687081
 10
1360.235136571315
 20
1874.122330459664
 10
1360.292053438927
 20
1874.111759362113
 42
0.0072605137939393
 10
1374.227716181895
 20
1871.732294914115
 10
1374.268357797446
 20
1871.725961397344
 42
0.0063717676731408
 10
1388.34547800993
 20
1869.715600289461
 10
1388.367516986576
 20
1869.712738964804
 42
0.0055505758452151
 10
1402.536471846334
 20
1868.032898510689
 10
1402.547638266056
 20
1868.031700123612
 42
0.0047973377330703
 10
1416.72968120333
 20
1866.647175415341
 10
1416.752737372321
 20
1866.645147673289
 42
0.0040736450901715
 10
1430.911151106648
 20
1865.516108299696
 10
1430.946567791795
 20
1865.513574255673
 42
0.0033619476536426
 10
1445.049491210988
 20
1864.599785241981
 10
1445.098113236444
 20
1864.5969629747
 42
0.0026669885748318
 10
1459.113876367528
 20
1863.858406440008
 42
0.0019512711132619
 10
1473.135955917453
 20
1863.249332163247
 10
1478.18395765581
 20
1863.049797056166
 42
0.0030025278496982
 10
1502.309273045268
 20
1862.241249699897
 10
1507.574198174229
 20
1862.096444078517
 42
0.0029684886615022
 10
1533.858358237568
 20
1861.529671316493
 10
1534.046256897934
 20
1861.526735540405
 42
0.0036899693456731
 10
1559.959561038675
 20
1861.31312536767
 42
0.0005564804140798
 10
1563.150008773938
 20
1861.313922309448
 42
0.0005564804140798
  0
LWPOLYLINE
  5
214
330
A
100
AcDbEntity
  8
ARJ70-1401
  6
STYLE_02
 62
     7
370
     5
390
1D
100
AcDbPolyline
 90
      109
 70
   128
 43
0.0
 10
1864.99520167312
 20
2341.354934160987
 42
-0.0056760957452243
 10
1866.796656570072
 20
2339.951199927277
 10
1868.103562839686
 20
2338.908770892812
 42
-0.0237648417891496
 10
1872.326465710418
 20
2335.198900812689
 10
1873.557036513738
 20
2334.009621233759
 42
-0.0239837632285664
 10
1879.452856689675
 20
2327.737742773157
 10
1879.488492652038
 20
2327.695991801667
 42
-0.0233909624019442
 10
1884.697700355055
 20
2320.980814431533
 10
1884.701752395251
 20
2320.975053689883
 42
-0.0221554809426012
 10
1889.271552700095
 20
2313.824975939092
 42
-0.0203766658195838
 10
1893.218040435664
 20
2306.311407165661
 10
1893.232772051289
 20
2306.280348808544
 42
-0.0182424456369773
 10
1896.615524504495
 20
2298.420303549143
 10
1896.640256764496
 20
2298.356525276785
 42
-0.0159313762689659
 10
1899.524169658564
 20
2290.153550300058
 10
1899.814985783106
 20
2289.233699741479
 42
-0.0134795290624257
 10
1901.785511297003
 20
2282.361709186835
 42
-0.0069641734071861
 10
1903.473952959519
 20
2275.413067124475
 10
1903.658776937416
 20
2274.603454907118
 42
-0.013231837066576
 10
1905.391465470921
 20
2265.96620873418
 10
1905.706390659607
 20
2264.14812862861
 42
-0.0105362043939879
 10
1907.579858718122
 20
2251.789378042502
 10
1907.601431938527
 20
2251.623557781016
 42
-0.0082923077288954
 10
1909.046056898754
 20
2238.869723607091
 10
1909.058379023754
 20
2238.742036902126
 42
-0.0063373502364887
 10
1910.150742620469
 20
2225.6950231838
 10
1910.156701462215
 20
2225.61106586088
 42
-0.0046219438518097
 10
1910.973251416544
 20
2212.374743301926
 10
1910.97515511791
 20
2212.338424292945
 42
-0.0029604474256434
 10
1911.594286736879
 20
2199.018249613366
 10
1912.021767013159
 20
2188.475841607256
 42
-0.0071865044312932
 10
1912.922223632762
 20
2154.054242130695
 10
1913.023861463476
 20
2145.427310610228
 42
-0.0035400528497898
 10
1913.159902249721
 20
2116.487827800526
 10
1913.154043319359
 20
2114.025310006798
 42
-0.0055085714673751
 10
1912.832354611502
 20
2090.013443787342
 10
1912.758659386056
 20
2086.995393107366
 42
-0.0021016561903381
 10
1912.244276836033
 20
2069.025334565956
 10
1912.208193895457
 20
2067.926307211289
 42
-0.0011425849871743
 10
1911.654409199452
 20
2052.157730993099
 10
1911.565459752975
 20
2049.779892257774
 42
-0.001920853207431
 10
1911.111243111472
 20
2038.770003977454
 42
-0.0041627439929065
 10
1910.523120568869
 20
2027.766757162534
 10
1910.514361428823
 20
2027.625030485733
 42
-0.0062217350597705
 10
1909.676851088176
 20
2016.353648747539
 10
1909.667727126199
 20
2016.248568332501
 42
-0.0082816661610049
 10
1908.482020650973
 20
2004.797088300018
 10
1908.456672232965
 20
2004.58640029931
 42
-0.0104246666627602
 10
1906.862321748087
 20
1993.320435573355
 10
1906.747067568944
 20
1992.61270939866
 42
-0.0118184320585205
 10
1904.917252828429
 20
1982.838698903954
 10
1904.802766004819
 20
1982.29813064991
 42
-0.0111633987269679
 10
1902.778732570508
 20
1973.693709604524
 10
1902.775546644906
 20
1973.681404999141
 42
-0.0129156460787371
 10
1900.346876095187
 20
1965.209535146877
 10
1900.340976388286
 20
1965.190796527255
 42
-0.0148116462372644
 10
1897.459708781671
 20
1956.904521441887
 10
1897.45235023141
 20
1956.885221521977
 42
-0.0168413239535699
 10
1894.069113634074
 20
1948.836906336354
 10
1894.062986752175
 20
1948.823603836973
 42
-0.018956472384916
 10
1890.126587874689
 20
1941.065176469599
 42
-0.0210823954147019
 10
1885.583391147439
 20
1933.648179251137
 42
-0.0231048335096211
 10
1880.40468047664
 20
1926.662752373535
 10
1880.390572240719
 20
1926.645453275664
 42
-0.0249179526094401
 10
1874.537107452105
 20
1920.15675647066
 10
1874.500900850753
 20
1920.120434004892
 42
-0.023285229539077
 10
1867.97349447232
 20
1914.155135444913
 10
1867.912854057225
 20
1914.104690757917
 42
-0.0205398170972149
 10
1860.761485485037
 20
1908.636551642369
 10
1860.681856271795
 20
1908.580692714336
 42
-0.0180223834104068
 10
1852.965943527993
 20
1903.572943978801
 10
1852.875066541675
 20
1903.518513821504
 42
-0.0157218731572696
 10
1844.652796447122
 20
1898.938716306702
 10
1844.558038236211
 20
1898.889773751572
 42
-0.0136660628804848
 10
1835.88788413622
 20
1894.707712030269
 10
1835.795975414168
 20
1894.66643651681
 42
-0.0118472777377971
 10
1826.737319664775
 20
1890.853512728573
 10
1826.65401389912
 20
1890.820749065881
 42
-0.0102631666215868
 10
1817.267132318373
 20
1887.349667461111
 10
1816.994184859378
 20
1887.255058315599
 42
-0.0095590889690741
 10
1806.927532081333
 20
1883.979930623242
 10
1806.040569477119
 20
1883.710000207963
 42
-0.0104381694199974
 10
1794.066957701061
 20
1880.337477746202
 10
1793.371523224966
 20
1880.157179633171
 42
-0.0092827582319758
 10
1779.87660949924
 20
1876.924614993694
 10
1779.806297333814
 20
1876.909146744118
 42
-0.0082272420688009
 10
1766.064881144944
 20
1874.122330459665
 10
1766.007964277321
 20
1874.111759362111
 42
-0.0072605137940741
 10
1752.072301534375
 20
1871.732294914116
 10
1752.031659918809
 20
1871.725961397342
 42
-0.0063717676732563
 10
1737.954539706313
 20
1869.715600289463
 10
1737.932500729638
 20
1869.712738964801
 42
-0.0055478404445652
 10
1723.763545869778
 20
1868.032898510686
 10
1723.752379450075
 20
1868.031700123612
 42
-0.0047973377330732
 10
1709.570336512622
 20
1866.647175415339
 10
1709.547280343643
 20
1866.645147673289
 42
-0.0040736450901545
 10
1695.388866609112
 20
1865.516108299696
 10
1695.353449923953
 20
1865.513574255672
 42
-0.003361947653558
 10
1681.250526504585
 20
1864.599785241981
 10
1681.20190447909
 20
1864.596962974699
 42
-0.0026669885747485
 10
1667.186141347896
 20
1863.858406440009
 42
-0.0019512711131587
 10
1653.164061797867
 20
1863.249332163247
 10
1648.116060059607
 20
1863.04979705617
 42
-0.0030025278495665
 10
1623.990744670249
 20
1862.241249699897
 10
1618.725819541478
 20
1862.09644407852
 42
-0.0029684886615817
 10
1592.441659478392
 20
1861.529671316492
 10
1592.2537608181
 20
1861.526735540406
 42
-0.0036899693457276
 10
1566.340456677465
 20
1861.31312536767
 42
-0.0005564197893318
 10
1563.150008942175
 20
1861.313922309448
 42
-0.0005564197893318
  0
CIRCLE
  5
215
330
A
100
AcDbEntity
  8
ARJ70-1401
  6
STYLE_02
 62
     7
370
     5
390
1D
100
AcDbCircle
 10
1563.149999395664
 20
2281.3549506019
 30
0.0
 40
17.49999999999979
  0
CIRCLE
  5
216
330
A
100
AcDbEntity
  8
ARJ70-1401
  6
STYLE_02
 62
     7
370
     5
390
1D
100
AcDbCircle
 10
1563.276160534823
 20
2126.354950577424
 30
0.0
 40
22.49999999999974
  0
CIRCLE
  5
217
330
A
100
AcDbEntity
  8
ARJ70-1401
  6
STYLE_02
 62
     7
370
     5
390
1D
100
AcDbCircle
 10
1663.149999395664
 20
2271.3549506019
 30
0.0
 40
17.50000000000001
  0
CIRCLE
  5
218
330
A
100
AcDbEntity
  8
ARJ70-1401
  6
STYLE_02
 62
     7
370
     5
390
1D
100
AcDbCircle
 10
1463.149999395665
 20
2271.3549506019
 30
0.0
 40
17.50000000000001
  0
LINE
  5
219
330
A
100
AcDbEntity
  8
ARJ70-1401
  6
Continuous
 62
     7
370
     5
390
1D
100
AcDbLine
 10
1188.206165830552
 20
2341.354892063746
 30
0.0
 11
1938.206165830552
 21
2341.355009161845
 31
0.0
  0
POLYLINE
  5
21A
330
A
100
AcDbEntity
  8
ARJ70-1401
  6
Continuous
 62
     7
370
    15
390
1D
100
AcDb2dPolyline
 66
     1
 10
0.0
 20
0.0
 30
0.0
 70
     1
 75
     5
  0
VERTEX
  5
21B
330
21A
100
AcDbEntity
  8
ARJ70-1401
  6
Continuous
 62
     7
370
    15
390
1D
100
AcDbVertex
100
AcDb2dVertex
 10
1438.064194731657
 20
2311.354892063746
 30
0.0
  0
VERTEX
  5
21C
330
21A
100
AcDbEntity
  8
ARJ70-1401
  6
Continuous
 62
     7
370
    15
390
1D
100
AcDbVertex
100
AcDb2dVertex
 10
1688.064194731656
 20
2311.354892063746
 30
0.0
  0
VERTEX
  5
21D
330
21A
100
AcDbEntity
  8
ARJ70-1401
  6
Continuous
 62
     7
370
    15
390
1D
100
AcDbVertex
100
AcDb2dVertex
 10
1688.064194731656
 20
2061.354892063746
 30
0.0
  0
VERTEX
  5
21E
330
21A
100
AcDbEntity
  8
ARJ70-1401
  6
Continuous
 62
     7
370
    15
390
1D
100
AcDbVertex
100
AcDb2dVertex
 10
1438.064194731657
 20
2061.354892063746
 30
0.0
  0
SEQEND
  5
21F
330
21A
100
AcDbEntity
  8
ARJ70-1401
  6
Continuous
 62
     7
370
    15
390
1D
  0
LWPOLYLINE
  5
266
330
A
100
AcDbEntity
  8
notes
  6
Continuous
370
     0
100
AcDbPolyline
 90
        4
 70
     1
 43
0.0
 10
0.0
 20
0.0
 10
0.0
 20
2970.000000000001
 10
2100.0
 20
2970.000000000001
 10
2100.0
 20
0.0
  0
ENDSEC
  0
SECTION
  2
OBJECTS
  0
DICTIONARY
  5
19
330
0
100
AcDbDictionary
281
     1
  3
ACAD_DETAILVIEWSTYLE
350
291
  3
ACAD_GROUP
350
1A
  3
ACAD_IMAGE_VARS
350
265
  3
ACAD_LAYOUT
350
1E
  3
ACAD_MATERIAL
350
25B
  3
ACAD_MLEADERSTYLE
350
261
  3
ACAD_MLINESTYLE
350
1B
  3
ACAD_PLOTSETTINGS
350
22
  3
ACAD_PLOTSTYLENAME
350
1F
  3
ACAD_SCALELIST
350
220
  3
ACAD_SECTIONVIEWSTYLE
350
292
  3
ACAD_TABLESTYLE
350
25F
  3
ACAD_VISUALSTYLE
350
242
  3
ACDB_RECOMPOSE_DATA
350
28D
  3
AcDbVariableDictionary
350
288
  3
APPDATA
350
263
  0
SUN
  5
264
330
15
100
AcDbSun
 90
        1
290
     0
 63
     7
421
 16777215
 40
1.0
291
     1
 91
  2455826
 92
 54000000
292
     0
 70
     2
 71
   256
280
     1
  0
DICTIONARY
  5
291
102
{ACAD_REACTORS
330
19
102
}
330
19
100
AcDbDictionary
281
     1
  0
DICTIONARY
  5
1A
102
{ACAD_REACTORS
330
19
102
}
330
19
100
AcDbDictionary
281
     1
  0
RASTERVARIABLES
  5
265
102
{ACAD_REACTORS
330
19
102
}
330
19
100
AcDbRasterVariables
 90
        0
 70
     1
 71
     1
 72
     1
  0
DICTIONARY
  5
1E
102
{ACAD_REACTORS
330
19
102
}
330
19
100
AcDbDictionary
281
     1
  3
Layout1
350
21
  3
Model
350
20
  0
DICTIONARY
  5
25B
102
{ACAD_REACTORS
330
19
102
}
330
19
100
AcDbDictionary
281
     1
  3
ByBlock
350
25D
  3
ByLayer
350
25C
  3
Global
350
25E
  0
DICTIONARY
  5
261
102
{ACAD_REACTORS
330
19
102
}
330
19
100
AcDbDictionary
281
     1
  3
Standard
350
262
  0
DICTIONARY
  5
1B
102
{ACAD_REACTORS
330
19
102
}
330
19
100
AcDbDictionary
281
     1
  3
Standard
350
1C
  0
DICTIONARY
  5
22
102
{ACAD_REACTORS
330
19
102
}
330
19
100
AcDbDictionary
281
     1
  0
ACDBDICTIONARYWDFLT
  5
1F
102
{ACAD_REACTORS
330
19
102
}
330
19
100
AcDbDictionary
281
     1
  3
Normal
350
1D
100
AcDbDictionaryWithDefault
340
1D
  0
DICTIONARY
  5
220
102
{ACAD_REACTORS
330
19
102
}
330
19
100
AcDbDictionary
281
     1
  3
A0
350
221
  3
A1
350
222
  3
A2
350
223
  3
A3
350
224
  3
A4
350
225
  3
A5
350
226
  3
A6
350
227
  3
A7
350
228
  3
A8
350
229
  3
A9
350
22A
  3
B0
350
22B
  3
B1
350
22C
  3
B2
350
22D
  3
B3
350
22E
  3
B4
350
22F
  3
B5
350
230
  3
B6
350
231
  3
B7
350
232
  3
B8
350
233
  3
B9
350
234
  3
C0
350
235
  3
C1
350
236
  3
C2
350
237
  3
C3
350
238
  3
C4
350
239
  3
C5
350
23A
  3
C6
350
23B
  3
C7
350
23C
  3
C8
350
23D
  3
C9
350
23E
  3
D0
350
23F
  3
D1
350
240
  3
D2
350
241
  0
DICTIONARY
  5
292
102
{ACAD_REACTORS
330
19
102
}
330
19
100
AcDbDictionary
281
     1
  0
DICTIONARY
  5
25F
102
{ACAD_REACTORS
330
19
102
}
330
19
100
AcDbDictionary
281
     1
  3
Standard
350
260
  0
DICTIONARY
  5
242
102
{ACAD_REACTORS
330
19
102
}
330
19
100
AcDbDictionary
281
     1
  3
2dWireframe
350
247
  3
Basic
350
24A
  3
Brighten
350
24E
  3
ColorChange
350
252
  3
Conceptual
350
24C
  3
Dim
350
24D
  3
EdgeColorOff
350
255
  3
Facepattern
350
251
  3
Flat
350
243
  3
FlatWithEdges
350
244
  3
Gouraud
350
245
  3
GouraudWithEdges
350
246
  3
Hidden
350
249
  3
JitterOff
350
253
  3
Linepattern
350
250
  3
OverhangOff
350
254
  3
Realistic
350
24B
  3
Shaded
350
25A
  3
Shaded with edges
350
259
  3
Shades of Gray
350
256
  3
Sketchy
350
257
  3
Thicken
350
24F
  3
Wireframe
350
248
  3
X-Ray
350
258
  0
XRECORD
  5
28D
102
{ACAD_REACTORS
330
19
102
}
330
19
100
AcDbXrecord
280
     1
 90
        1
330
260
  0
DICTIONARY
  5
288
102
{ACAD_REACTORS
330
19
102
}
330
19
100
AcDbDictionary
281
     1
  3
CANNOSCALE
350
289
  3
CMLEADERSTYLE
350
28F
  3
CTABLESTYLE
350
28E
  3
MSLTSCALE
350
290
  0
DICTIONARY
  5
263
102
{ACAD_REACTORS
330
19
102
}
330
19
100
AcDbDictionary
281
     1
  0
LAYOUT
  5
21
102
{ACAD_REACTORS
330
1E
102
}
330
1E
100
AcDbPlotSettings
  1

  2

  4

  6

 40
0.0
 41
0.0
 42
0.0
 43
0.0
 44
0.0
 45
0.0
 46
0.0
 47
0.0
 48
0.0
 49
0.0
140
0.0
141
0.0
142
1.0
143
1.0
 70
     0
 72
     0
 73
     0
 74
     0
  7

 75
     0
 76
     0
 77
     2
 78
   300
147
1.0
148
0.0
149
0.0
100
AcDbLayout
  1
Layout1
 70
     0
 71
     0
 10
0.0
 20
0.0
 11
0.0
 21
0.0
 12
0.0
 22
0.0
 32
0.0
 14
0.0
 24
0.0
 34
0.0
 15
0.0
 25
0.0
 35
0.0
146
0.0
 13
0.0
 23
0.0
 33
0.0
 16
0.0
 26
0.0
 36
0.0
 17
0.0
 27
0.0
 37
0.0
 76
     0
330
B
  0
LAYOUT
  5
20
102
{ACAD_REACTORS
330
1E
102
}
330
1E
100
AcDbPlotSettings
  1

  2

  4

  6

 40
0.0
 41
0.0
 42
0.0
 43
0.0
 44
0.0
 45
0.0
 46
0.0
 47
0.0
 48
0.0
 49
0.0
140
0.0
141
0.0
142
1.0
143
1.0
 70
  1024
 72
     0
 73
     0
 74
     0
  7

 75
     0
 76
     0
 77
     2
 78
   300
147
1.0
148
0.0
149
0.0
100
AcDbLayout
  1
Model
 70
     0
 71
     1
 10
0.0
 20
0.0
 11
2100.0
 21
2970.000000000001
 12
0.0
 22
0.0
 32
0.0
 14
0.0
 24
0.0
 34
-0.0002922902370228
 15
2100.0
 25
2970.000000000001
 35
0.0000000099449415
146
0.0
 13
0.0
 23
0.0
 33
0.0
 16
0.0
 26
0.0
 36
0.0
 17
0.0
 27
0.0
 37
0.0
 76
     0
330
A
331
15
  0
MATERIAL
  5
25D
102
{ACAD_REACTORS
330
25B
102
}
330
25B
100
AcDbMaterial
  1
ByBlock
 72
     1
 94
      127
  0
MATERIAL
  5
25C
102
{ACAD_REACTORS
330
25B
102
}
330
25B
100
AcDbMaterial
  1
ByLayer
 72
     1
 94
      127
  0
MATERIAL
  5
25E
102
{ACAD_REACTORS
330
25B
102
}
330
25B
100
AcDbMaterial
  1
Global
 72
     1
 94
      127
  0
MLEADERSTYLE
  5
262
102
{ACAD_REACTORS
330
261
102
}
330
261
100
AcDbMLeaderStyle
170
     2
171
     1
172
     0
 90
        2
 40
0.0
 41
0.0
173
     1
 91
-1056964608
340
11
 92
       -2
290
     1
 42
2.0
291
     1
 43
8.0
  3
Standard
341
0
 44
4.0
300

342
17
174
     1
178
     6
175
     1
176
     0
 93
-1056964608
 45
4.0
292
     0
297
     0
 46
4.0
343
0
 94
-1056964608
 47
1.0
 49
1.0
140
1.0
293
     1
141
0.0
294
     1
177
     0
142
1.0
295
     0
296
     0
143
3.75
1001
ACAD_MLEADERVER
1070
     2
  0
MLINESTYLE
  5
1C
102
{ACAD_REACTORS
330
1B
102
}
330
1B
100
AcDbMlineStyle
  2
Standard
 70
     0
  3

 62
     0
 51
90.0
 52
90.0
 71
     2
 49
0.5
 62
   256
  6
BYLAYER
 49
-0.5
 62
   256
  6
BYLAYER
  0
ACDBPLACEHOLDER
  5
1D
102
{ACAD_REACTORS
330
1F
102
}
330
1F
  0
SCALE
  5
221
102
{ACAD_REACTORS
330
220
102
}
330
220
100
AcDbScale
 70
     0
300
1:1
140
1.0
141
1.0
290
     1
  0
SCALE
  5
222
102
{ACAD_REACTORS
330
220
102
}
330
220
100
AcDbScale
 70
     0
300
1:2
140
1.0
141
2.0
290
     0
  0
SCALE
  5
223
102
{ACAD_REACTORS
330
220
102
}
330
220
100
AcDbScale
 70
     0
300
1:4
140
1.0
141
4.0
290
     0
  0
SCALE
  5
224
102
{ACAD_REACTORS
330
220
102
}
330
220
100
AcDbScale
 70
     0
300
1:5
140
1.0
141
5.0
290
     0
  0
SCALE
  5
225
102
{ACAD_REACTORS
330
220
102
}
330
220
100
AcDbScale
 70
     0
300
1:8
140
1.0
141
8.0
290
     0
  0
SCALE
  5
226
102
{ACAD_REACTORS
330
220
102
}
330
220
100
AcDbScale
 70
     0
300
1:10
140
1.0
141
10.0
290
     0
  0
SCALE
  5
227
102
{ACAD_REACTORS
330
220
102
}
330
220
100
AcDbScale
 70
     0
300
1:16
140
1.0
141
16.0
290
     0
  0
SCALE
  5
228
102
{ACAD_REACTORS
330
220
102
}
330
220
100
AcDbScale
 70
     0
300
1:20
140
1.0
141
20.0
290
     0
  0
SCALE
  5
229
102
{ACAD_REACTORS
330
220
102
}
330
220
100
AcDbScale
 70
     0
300
1:30
140
1.0
141
30.0
290
     0
  0
SCALE
  5
22A
102
{ACAD_REACTORS
330
220
102
}
330
220
100
AcDbScale
 70
     0
300
1:40
140
1.0
141
40.0
290
     0
  0
SCALE
  5
22B
102
{ACAD_REACTORS
330
220
102
}
330
220
100
AcDbScale
 70
     0
300
1:50
140
1.0
141
50.0
290
     0
  0
SCALE
  5
22C
102
{ACAD_REACTORS
330
220
102
}
330
220
100
AcDbScale
 70
     0
300
1:100
140
1.0
141
100.0
290
     0
  0
SCALE
  5
22D
102
{ACAD_REACTORS
330
220
102
}
330
220
100
AcDbScale
 70
     0
300
2:1
140
2.0
141
1.0
290
     0
  0
SCALE
  5
22E
102
{ACAD_REACTORS
330
220
102
}
330
220
100
AcDbScale
 70
     0
300
4:1
140
4.0
141
1.0
290
     0
  0
SCALE
  5
22F
102
{ACAD_REACTORS
330
220
102
}
330
220
100
AcDbScale
 70
     0
300
8:1
140
8.0
141
1.0
290
     0
  0
SCALE
  5
230
102
{ACAD_REACTORS
330
220
102
}
330
220
100
AcDbScale
 70
     0
300
10:1
140
10.0
141
1.0
290
     0
  0
SCALE
  5
231
102
{ACAD_REACTORS
330
220
102
}
330
220
100
AcDbScale
 70
     0
300
100:1
140
100.0
141
1.0
290
     0
  0
SCALE
  5
232
102
{ACAD_REACTORS
330
220
102
}
330
220
100
AcDbScale
 70
     0
300
1/128" = 1'-0"
140
0.0078125
141
12.0
290
     0
  0
SCALE
  5
233
102
{ACAD_REACTORS
330
220
102
}
330
220
100
AcDbScale
 70
     0
300
1/64" = 1'-0"
140
0.015625
141
12.0
290
     0
  0
SCALE
  5
234
102
{ACAD_REACTORS
330
220
102
}
330
220
100
AcDbScale
 70
     0
300
1/32" = 1'-0"
140
0.03125
141
12.0
290
     0
  0
SCALE
  5
235
102
{ACAD_REACTORS
330
220
102
}
330
220
100
AcDbScale
 70
     0
300
1/16" = 1'-0"
140
0.0625
141
12.0
290
     0
  0
SCALE
  5
236
102
{ACAD_REACTORS
330
220
102
}
330
220
100
AcDbScale
 70
     0
300
3/32" = 1'-0"
140
0.09375
141
12.0
290
     0
  0
SCALE
  5
237
102
{ACAD_REACTORS
330
220
102
}
330
220
100
AcDbScale
 70
     0
300
1/8" = 1'-0"
140
0.125
141
12.0
290
     0
  0
SCALE
  5
238
102
{ACAD_REACTORS
330
220
102
}
330
220
100
AcDbScale
 70
     0
300
3/16" = 1'-0"
140
0.1875
141
12.0
290
     0
  0
SCALE
  5
239
102
{ACAD_REACTORS
330
220
102
}
330
220
100
AcDbScale
 70
     0
300
1/4" = 1'-0"
140
0.25
141
12.0
290
     0
  0
SCALE
  5
23A
102
{ACAD_REACTORS
330
220
102
}
330
220
100
AcDbScale
 70
     0
300
3/8" = 1'-0"
140
0.375
141
12.0
290
     0
  0
SCALE
  5
23B
102
{ACAD_REACTORS
330
220
102
}
330
220
100
AcDbScale
 70
     0
300
1/2" = 1'-0"
140
0.5
141
12.0
290
     0
  0
SCALE
  5
23C
102
{ACAD_REACTORS
330
220
102
}
330
220
100
AcDbScale
 70
     0
300
3/4" = 1'-0"
140
0.75
141
12.0
290
     0
  0
SCALE
  5
23D
102
{ACAD_REACTORS
330
220
102
}
330
220
100
AcDbScale
 70
     0
300
1" = 1'-0"
140
1.0
141
12.0
290
     0
  0
SCALE
  5
23E
102
{ACAD_REACTORS
330
220
102
}
330
220
100
AcDbScale
 70
     0
300
1-1/2" = 1'-0"
140
1.5
141
12.0
290
     0
  0
SCALE
  5
23F
102
{ACAD_REACTORS
330
220
102
}
330
220
100
AcDbScale
 70
     0
300
3" = 1'-0"
140
3.0
141
12.0
290
     0
  0
SCALE
  5
240
102
{ACAD_REACTORS
330
220
102
}
330
220
100
AcDbScale
 70
     0
300
6" = 1'-0"
140
6.0
141
12.0
290
     0
  0
SCALE
  5
241
102
{ACAD_REACTORS
330
220
102
}
330
220
100
AcDbScale
 70
     0
300
1'-0" = 1'-0"
140
12.0
141
12.0
290
     0
  0
TABLESTYLE
  5
260
102
{ACAD_REACTORS
330
25F
102
}
102
{ACAD_XDICTIONARY
360
28A
102
}
330
25F
100
AcDbTableStyle
  3
Standard
 70
     0
 71
     0
 40
0.06
 41
0.06
280
     0
281
     0
  7
Standard
140
4.5
170
     2
 62
     0
 63
   257
283
     0
 90
        4
 91
        0
  1

274
    -2
284
     1
 64
     0
275
    -2
285
     1
 65
     0
276
    -2
286
     1
 66
     0
277
    -2
287
     1
 67
     0
278
    -2
288
     1
 68
     0
279
    -2
289
     1
 69
     0
  7
Standard
140
6.0
170
     5
 62
     0
 63
   257
283
     0
 90
        4
 91
        0
  1

274
    -2
284
     1
 64
     0
275
    -2
285
     1
 65
     0
276
    -2
286
     1
 66
     0
277
    -2
287
     1
 67
     0
278
    -2
288
     1
 68
     0
279
    -2
289
     1
 69
     0
  7
Standard
140
4.5
170
     5
 62
     0
 63
   257
283
     0
 90
        4
 91
        0
  1

274
    -2
284
     1
 64
     0
275
    -2
285
     1
 65
     0
276
    -2
286
     1
 66
     0
277
    -2
287
     1
 67
     0
278
    -2
288
     1
 68
     0
279
    -2
289
     1
 69
     0
  0
VISUALSTYLE
  5
247
102
{ACAD_REACTORS
330
242
102
}
330
242
100
AcDbVisualStyle
  2
2dWireframe
 70
     4
 71
     0
 72
     2
 73
     0
 90
        0
 40
0.6
 41
30.0
 62
     5
 63
     7
421
 16777215
 74
     1
 91
        4
 64
     7
 65
   257
 75
     1
175
     1
 42
1.0
 92
        0
 66
   257
 43
1.0
 76
     1
 77
     6
 78
     2
 67
     7
 79
     5
170
     0
171
     0
290
     0
174
     0
 93
        1
 44
0.0
173
     0
291
     0
 45
0.0
  0
VISUALSTYLE
  5
24A
102
{ACAD_REACTORS
330
242
102
}
330
242
100
AcDbVisualStyle
  2
Basic
 70
     7
 71
     1
 72
     0
 73
     1
 90
        0
 40
0.6
 41
30.0
 62
     5
 63
     7
421
 16777215
 74
     0
 91
        4
 64
     7
 65
   257
 75
     1
175
     1
 42
1.0
 92
        8
 66
     7
 43
1.0
 76
     1
 77
     6
 78
     2
 67
     7
 79
     5
170
     0
171
     0
290
     0
174
     0
 93
        1
 44
0.0
173
     0
291
     1
 45
0.0
  0
VISUALSTYLE
  5
24E
102
{ACAD_REACTORS
330
242
102
}
330
242
100
AcDbVisualStyle
  2
Brighten
 70
    12
 71
     2
 72
     2
 73
     0
 90
        0
 40
0.6
 41
30.0
 62
     5
 63
     7
421
 16777215
 74
     1
 91
        4
 64
     7
 65
   257
 75
     1
175
     1
 42
1.0
 92
        8
 66
     7
 43
1.0
 76
     1
 77
     6
 78
     2
 67
     7
 79
     5
170
     0
171
     0
290
     0
174
     0
 93
        1
 44
50.0
173
     0
291
     1
 45
0.0
  0
VISUALSTYLE
  5
252
102
{ACAD_REACTORS
330
242
102
}
330
242
100
AcDbVisualStyle
  2
ColorChange
 70
    16
 71
     2
 72
     2
 73
     3
 90
        0
 40
0.6
 41
30.0
 62
     5
 63
     8
421
  8421504
 74
     1
 91
        4
 64
     7
 65
   257
 75
     1
175
     1
 42
1.0
 92
        8
 66
     8
424
  8421504
 43
1.0
 76
     1
 77
     6
 78
     2
 67
     7
 79
     5
170
     0
171
     0
290
     0
174
     0
 93
        1
 44
0.0
173
     0
291
     1
 45
0.0
  0
VISUALSTYLE
  5
24C
102
{ACAD_REACTORS
330
242
102
}
330
242
100
AcDbVisualStyle
  2
Conceptual
 70
     9
 71
     3
 72
     2
 73
     0
 90
        0
 40
0.6
 41
30.0
 62
     5
 63
     7
421
 16777215
 74
     2
 91
        2
 64
     7
 65
   257
 75
     1
175
     1
 42
179.0
 92
        8
 66
     7
 43
1.0
 76
     1
 77
     6
 78
     2
 67
     7
 79
     3
170
     0
171
     0
290
     0
174
     0
 93
        1
 44
0.0
173
     0
291
     0
 45
0.0
  0
VISUALSTYLE
  5
24D
102
{ACAD_REACTORS
330
242
102
}
330
242
100
AcDbVisualStyle
  2
Dim
 70
    11
 71
     2
 72
     2
 73
     0
 90
        0
 40
0.6
 41
30.0
 62
     5
 63
     7
421
 16777215
 74
     1
 91
        4
 64
     7
 65
   257
 75
     1
175
     1
 42
1.0
 92
        8
 66
     7
 43
1.0
 76
     1
 77
     6
 78
     2
 67
     7
 79
     5
170
     0
171
     0
290
     0
174
     0
 93
        1
 44
-50.0
173
     0
291
     1
 45
0.0
  0
VISUALSTYLE
  5
255
102
{ACAD_REACTORS
330
242
102
}
330
242
100
AcDbVisualStyle
  2
EdgeColorOff
 70
    22
 71
     2
 72
     2
 73
     0
 90
        0
 40
0.6
 41
30.0
 62
     5
 63
     7
421
 16777215
 74
     1
 91
        4
 64
     7
 65
   257
 75
     1
175
     1
 42
1.0
 92
        8
 66
     7
 43
1.0
 76
     1
 77
     6
 78
     2
 67
     7
 79
     5
170
     0
171
     0
290
     0
174
     0
 93
        1
 44
0.0
173
     0
291
     1
 45
0.0
  0
VISUALSTYLE
  5
251
102
{ACAD_REACTORS
330
242
102
}
330
242
100
AcDbVisualStyle
  2
Facepattern
 70
    15
 71
     2
 72
     2
 73
     0
 90
        0
 40
0.6
 41
30.0
 62
     5
 63
     7
421
 16777215
 74
     1
 91
        4
 64
     7
 65
   257
 75
     1
175
     1
 42
1.0
 92
        8
 66
     7
 43
1.0
 76
     1
 77
     6
 78
     2
 67
     7
 79
     5
170
     0
171
     0
290
     0
174
     0
 93
        1
 44
0.0
173
     0
291
     1
 45
0.0
  0
VISUALSTYLE
  5
243
102
{ACAD_REACTORS
330
242
102
}
330
242
100
AcDbVisualStyle
  2
Flat
 70
     0
 71
     2
 72
     1
 73
     1
 90
        2
 40
0.6
 41
30.0
 62
     5
 63
     7
421
 16777215
 74
     0
 91
        0
 64
     7
 65
   257
 75
     1
175
     1
 42
1.0
 92
        8
 66
     7
 43
1.0
 76
     1
 77
     6
 78
     2
 67
     7
 79
     5
170
     0
171
     0
290
     0
174
     0
 93
       13
 44
0.0
173
     0
291
     1
 45
0.0
  0
VISUALSTYLE
  5
244
102
{ACAD_REACTORS
330
242
102
}
330
242
100
AcDbVisualStyle
  2
FlatWithEdges
 70
     1
 71
     2
 72
     1
 73
     1
 90
        2
 40
0.6
 41
30.0
 62
     5
 63
     7
421
 16777215
 74
     1
 91
        0
 64
     7
 65
   257
 75
     1
175
     1
 42
1.0
 92
        0
 66
   257
 43
1.0
 76
     1
 77
     6
 78
     2
 67
     7
 79
     5
170
     0
171
     0
290
     0
174
     0
 93
       13
 44
0.0
173
     0
291
     1
 45
0.0
  0
VISUALSTYLE
  5
245
102
{ACAD_REACTORS
330
242
102
}
330
242
100
AcDbVisualStyle
  2
Gouraud
 70
     2
 71
     2
 72
     2
 73
     1
 90
        2
 40
0.6
 41
30.0
 62
     5
 63
     7
421
 16777215
 74
     0
 91
        0
 64
     7
 65
   257
 75
     1
175
     1
 42
1.0
 92
        0
 66
     7
 43
1.0
 76
     1
 77
     6
 78
     2
 67
     7
 79
     5
170
     0
171
     0
290
     0
174
     0
 93
       13
 44
0.0
173
     0
291
     1
 45
0.0
  0
VISUALSTYLE
  5
246
102
{ACAD_REACTORS
330
242
102
}
330
242
100
AcDbVisualStyle
  2
GouraudWithEdges
 70
     3
 71
     2
 72
     2
 73
     1
 90
        2
 40
0.6
 41
30.0
 62
     5
 63
     7
421
 16777215
 74
     1
 91
        0
 64
     7
 65
   257
 75
     1
175
     1
 42
1.0
 92
        0
 66
   257
 43
1.0
 76
     1
 77
     6
 78
     2
 67
     7
 79
     5
170
     0
171
     0
290
     0
174
     0
 93
       13
 44
0.0
173
     0
291
     1
 45
0.0
  0
VISUALSTYLE
  5
249
102
{ACAD_REACTORS
330
242
102
}
330
242
100
AcDbVisualStyle
  2
Hidden
 70
     6
 71
     1
 72
     2
 73
     2
 90
        0
 40
0.6
 41
30.0
 62
     5
 63
     7
421
 16777215
 74
     2
 91
        2
 64
     7
 65
   257
 75
     2
175
     1
 42
40.0
 92
        0
 66
   257
 43
1.0
 76
     1
 77
     6
 78
     2
 67
     7
 79
     3
170
     0
171
     0
290
     0
174
     0
 93
        1
 44
0.0
173
     0
291
     0
 45
0.0
  0
VISUALSTYLE
  5
253
102
{ACAD_REACTORS
330
242
102
}
330
242
100
AcDbVisualStyle
  2
JitterOff
 70
    20
 71
     2
 72
     2
 73
     0
 90
        0
 40
0.6
 41
30.0
 62
     5
 63
     7
421
 16777215
 74
     1
 91
        4
 64
     7
 65
   257
 75
     1
175
     1
 42
1.0
 92
       10
 66
     7
 43
1.0
 76
     1
 77
     6
 78
     2
 67
     7
 79
     5
170
     0
171
     0
290
     0
174
     0
 93
        1
 44
0.0
173
     0
291
     1
 45
0.0
  0
VISUALSTYLE
  5
250
102
{ACAD_REACTORS
330
242
102
}
330
242
100
AcDbVisualStyle
  2
Linepattern
 70
    14
 71
     2
 72
     2
 73
     0
 90
        0
 40
0.6
 41
30.0
 62
     5
 63
     7
421
 16777215
 74
     1
 91
        4
 64
     7
 65
   257
 75
     7
175
     7
 42
1.0
 92
        8
 66
     7
 43
1.0
 76
     1
 77
     6
 78
     2
 67
     7
 79
     5
170
     0
171
     0
290
     0
174
     0
 93
        1
 44
0.0
173
     0
291
     1
 45
0.0
  0
VISUALSTYLE
  5
254
102
{ACAD_REACTORS
330
242
102
}
330
242
100
AcDbVisualStyle
  2
OverhangOff
 70
    21
 71
     2
 72
     2
 73
     0
 90
        0
 40
0.6
 41
30.0
 62
     5
 63
     7
421
 16777215
 74
     1
 91
        4
 64
     7
 65
   257
 75
     1
175
     1
 42
1.0
 92
        9
 66
     7
 43
1.0
 76
     1
 77
     6
 78
     2
 67
     7
 79
     5
170
     0
171
     0
290
     0
174
     0
 93
        1
 44
0.0
173
     0
291
     1
 45
0.0
  0
VISUALSTYLE
  5
24B
102
{ACAD_REACTORS
330
242
102
}
330
242
100
AcDbVisualStyle
  2
Realistic
 70
     8
 71
     2
 72
     3
 73
     0
 90
        2
 40
0.6
 41
30.0
 62
     5
 63
     7
421
 16777215
 74
     0
 91
        0
 64
     7
 65
   257
 75
     1
175
     1
 42
1.0
 92
        8
 66
   257
 43
1.0
 76
     1
 77
     6
 78
     2
 67
     7
 79
     3
170
     0
171
     0
290
     0
174
     0
 93
       13
 44
0.0
173
     0
291
     0
 45
0.0
  0
VISUALSTYLE
  5
25A
102
{ACAD_REACTORS
330
242
102
}
330
242
100
AcDbVisualStyle
  2
Shaded
 70
    27
 71
     2
 72
     2
 73
     1
 90
        2
 40
0.6
 41
30.0
 62
     5
 63
     7
421
 16777215
 74
     0
 91
        4
 64
     7
 65
   257
 75
     1
175
     1
 42
1.0
 92
        8
 66
   257
 43
1.0
 76
     1
 77
     6
 78
     2
 67
     8
425
  7895160
 79
     3
170
     0
171
     0
290
     0
174
     0
 93
        5
 44
0.0
173
     0
291
     0
 45
0.0
  0
VISUALSTYLE
  5
259
102
{ACAD_REACTORS
330
242
102
}
330
242
100
AcDbVisualStyle
  2
Shaded with edges
 70
    26
 71
     2
 72
     2
 73
     1
 90
        2
 40
0.6
 41
30.0
 62
     5
 63
     7
421
 16777215
 74
     1
 91
       10
 64
     7
 65
   257
 75
     2
175
     1
 42
1.0
 92
        8
 66
   257
 43
1.0
 76
     1
 77
     6
 78
     2
 67
     7
 79
     3
170
     0
171
     0
290
     0
174
     0
 93
        5
 44
0.0
173
     0
291
     0
 45
0.0
  0
VISUALSTYLE
  5
256
102
{ACAD_REACTORS
330
242
102
}
330
242
100
AcDbVisualStyle
  2
Shades of Gray
 70
    23
 71
     2
 72
     2
 73
     3
 90
        0
 40
0.6
 41
30.0
 62
     5
 63
     7
421
 16777215
 74
     2
 91
        2
 64
     7
 65
     7
 75
     1
175
     1
 42
40.0
 92
        8
 66
     7
 43
1.0
 76
     1
 77
     6
 78
     2
 67
     7
 79
     3
170
     0
171
     0
290
     0
174
     0
 93
        1
 44
0.0
173
     0
291
     0
 45
0.0
  0
VISUALSTYLE
  5
257
102
{ACAD_REACTORS
330
242
102
}
330
242
100
AcDbVisualStyle
  2
Sketchy
 70
    24
 71
     1
 72
     2
 73
     2
 90
        0
 40
0.6
 41
30.0
 62
     5
 63
     7
421
 16777215
 74
     2
 91
        2
 64
     7
 65
     7
 75
     1
175
     1
 42
40.0
 92
       11
 66
     7
 43
1.0
 76
     1
 77
     6
 78
     2
 67
     7
 79
     6
170
     0
171
     0
290
     0
174
     0
 93
        1
 44
0.0
173
     0
291
     0
 45
0.0
  0
VISUALSTYLE
  5
24F
102
{ACAD_REACTORS
330
242
102
}
330
242
100
AcDbVisualStyle
  2
Thicken
 70
    13
 71
     2
 72
     2
 73
     0
 90
        0
 40
0.6
 41
30.0
 62
     5
 63
     7
421
 16777215
 74
     1
 91
        4
 64
     7
 65
   257
 75
     1
175
     1
 42
1.0
 92
       12
 66
     7
 43
1.0
 76
     1
 77
     6
 78
     2
 67
     7
 79
     5
170
     0
171
     0
290
     0
174
     0
 93
        1
 44
0.0
173
     0
291
     1
 45
0.0
  0
VISUALSTYLE
  5
248
102
{ACAD_REACTORS
330
242
102
}
330
242
100
AcDbVisualStyle
  2
Wireframe
 70
     5
 71
     0
 72
     2
 73
     0
 90
        0
 40
0.6
 41
30.0
 62
     5
 63
     7
421
 16777215
 74
     1
 91
        4
 64
     7
 65
   257
 75
     1
175
     1
 42
1.0
 92
        0
 66
   257
 43
1.0
 76
     1
 77
     6
 78
     2
 67
     7
 79
     3
170
     0
171
     0
290
     0
174
     0
 93
        1
 44
0.0
173
     0
291
     0
 45
0.0
  0
VISUALSTYLE
  5
258
102
{ACAD_REACTORS
330
242
102
}
330
242
100
AcDbVisualStyle
  2
X-Ray
 70
    25
 71
     2
 72
     2
 73
     1
 90
        1
 40
0.5
 41
30.0
 62
     5
 63
     7
421
 16777215
 74
     1
 91
        0
 64
     7
 65
   257
 75
     1
175
     1
 42
1.0
 92
        8
 66
     7
 43
1.0
 76
     1
 77
     6
 78
     2
 67
     7
 79
     3
170
     0
171
     0
290
     0
174
     0
 93
       13
 44
0.0
173
     0
291
     0
 45
0.0
  0
DICTIONARYVAR
  5
289
102
{ACAD_REACTORS
330
288
102
}
330
288
100
DictionaryVariables
280
     0
  1
1:1
  0
DICTIONARYVAR
  5
28F
102
{ACAD_REACTORS
330
288
102
}
330
288
100
DictionaryVariables
280
     0
  1
Standard
  0
DICTIONARYVAR
  5
28E
102
{ACAD_REACTORS
330
288
102
}
330
288
100
DictionaryVariables
280
     0
  1
Standard
  0
DICTIONARYVAR
  5
290
102
{ACAD_REACTORS
330
288
102
}
330
288
100
DictionaryVariables
280
     0
  1
0
  0
DICTIONARY
  5
28A
330
260
100
AcDbDictionary
280
     1
281
     1
  3
ACAD_ROUNDTRIP_2008_TABLESTYLE_CELLSTYLEMAP
360
28B
  0
CELLSTYLEMAP
  5
28B
102
{ACAD_REACTORS
330
28A
102
}
330
28A
100
AcDbCellStyleMap
 90
        3
300
CELLSTYLE
  1
TABLEFORMAT_BEGIN
 90
        5
170
     1
 91
        0
 92
    32768
 62
   257
 93
        1
300
CONTENTFORMAT
  1
CONTENTFORMAT_BEGIN
 90
        0
 91
        0
 92
        4
 93
        0
300

 40
0.0
140
1.0
 94
        5
 62
     0
340
17
144
6.0
309
CONTENTFORMAT_END
171
     1
301
MARGIN
  1
CELLMARGIN_BEGIN
 40
1.5
 40
1.5
 40
1.5
 40
1.5
 40
1.5
 40
1.5
309
CELLMARGIN_END
 94
        6
 95
        1
302
GRIDFORMAT
  1
GRIDFORMAT_BEGIN
 90
        0
 91
        1
 62
     0
 92
       -2
340
11
 93
        0
 40
0.045
309
GRIDFORMAT_END
 95
        2
302
GRIDFORMAT
  1
GRIDFORMAT_BEGIN
 90
        0
 91
        1
 62
     0
 92
       -2
340
11
 93
        0
 40
0.045
309
GRIDFORMAT_END
 95
        4
302
GRIDFORMAT
  1
GRIDFORMAT_BEGIN
 90
        0
 91
        1
 62
     0
 92
       -2
340
11
 93
        0
 40
0.045
309
GRIDFORMAT_END
 95
        8
302
GRIDFORMAT
  1
GRIDFORMAT_BEGIN
 90
        0
 91
        1
 62
     0
 92
       -2
340
11
 93
        0
 40
0.045
309
GRIDFORMAT_END
 95
       16
302
GRIDFORMAT
  1
GRIDFORMAT_BEGIN
 90
        0
 91
        1
 62
     0
 92
       -2
340
11
 93
        0
 40
0.045
309
GRIDFORMAT_END
 95
       32
302
GRIDFORMAT
  1
GRIDFORMAT_BEGIN
 90
        0
 91
        1
 62
     0
 92
       -2
340
11
 93
        0
 40
0.045
309
GRIDFORMAT_END
309
TABLEFORMAT_END
  1
CELLSTYLE_BEGIN
 90
        1
 91
        1
300
_TITLE
309
CELLSTYLE_END
300
CELLSTYLE
  1
TABLEFORMAT_BEGIN
 90
        5
170
     1
 91
        0
 92
        0
 62
   257
 93
        1
300
CONTENTFORMAT
  1
CONTENTFORMAT_BEGIN
 90
        0
 91
        0
 92
        4
 93
        0
300

 40
0.0
140
1.0
 94
        5
 62
     0
340
17
144
4.5
309
CONTENTFORMAT_END
171
     1
301
MARGIN
  1
CELLMARGIN_BEGIN
 40
1.5
 40
1.5
 40
1.5
 40
1.5
 40
1.5
 40
1.5
309
CELLMARGIN_END
 94
        6
 95
        1
302
GRIDFORMAT
  1
GRIDFORMAT_BEGIN
 90
        0
 91
        1
 62
     0
 92
       -2
340
11
 93
        0
 40
0.045
309
GRIDFORMAT_END
 95
        2
302
GRIDFORMAT
  1
GRIDFORMAT_BEGIN
 90
        0
 91
        1
 62
     0
 92
       -2
340
11
 93
        0
 40
0.045
309
GRIDFORMAT_END
 95
        4
302
GRIDFORMAT
  1
GRIDFORMAT_BEGIN
 90
        0
 91
        1
 62
     0
 92
       -2
340
11
 93
        0
 40
0.045
309
GRIDFORMAT_END
 95
        8
302
GRIDFORMAT
  1
GRIDFORMAT_BEGIN
 90
        0
 91
        1
 62
     0
 92
       -2
340
11
 93
        0
 40
0.045
309
GRIDFORMAT_END
 95
       16
302
GRIDFORMAT
  1
GRIDFORMAT_BEGIN
 90
        0
 91
        1
 62
     0
 92
       -2
340
11
 93
        0
 40
0.045
309
GRIDFORMAT_END
 95
       32
302
GRIDFORMAT
  1
GRIDFORMAT_BEGIN
 90
        0
 91
        1
 62
     0
 92
       -2
340
11
 93
        0
 40
0.045
309
GRIDFORMAT_END
309
TABLEFORMAT_END
  1
CELLSTYLE_BEGIN
 90
        2
 91
        1
300
_HEADER
309
CELLSTYLE_END
300
CELLSTYLE
  1
TABLEFORMAT_BEGIN
 90
        5
170
     1
 91
        0
 92
        0
 62
   257
 93
        1
300
CONTENTFORMAT
  1
CONTENTFORMAT_BEGIN
 90
        0
 91
        0
 92
        4
 93
        0
300

 40
0.0
140
1.0
 94
        2
 62
     0
340
17
144
4.5
309
CONTENTFORMAT_END
171
     1
301
MARGIN
  1
CELLMARGIN_BEGIN
 40
1.5
 40
1.5
 40
1.5
 40
1.5
 40
1.5
 40
1.5
309
CELLMARGIN_END
 94
        6
 95
        1
302
GRIDFORMAT
  1
GRIDFORMAT_BEGIN
 90
        0
 91
        1
 62
     0
 92
       -2
340
11
 93
        0
 40
0.045
309
GRIDFORMAT_END
 95
        2
302
GRIDFORMAT
  1
GRIDFORMAT_BEGIN
 90
        0
 91
        1
 62
     0
 92
       -2
340
11
 93
        0
 40
0.045
309
GRIDFORMAT_END
 95
        4
302
GRIDFORMAT
  1
GRIDFORMAT_BEGIN
 90
        0
 91
        1
 62
     0
 92
       -2
340
11
 93
        0
 40
0.045
309
GRIDFORMAT_END
 95
        8
302
GRIDFORMAT
  1
GRIDFORMAT_BEGIN
 90
        0
 91
        1
 62
     0
 92
       -2
340
11
 93
        0
 40
0.045
309
GRIDFORMAT_END
 95
       16
302
GRIDFORMAT
  1
GRIDFORMAT_BEGIN
 90
        0
 91
        1
 62
     0
 92
       -2
340
11
 93
        0
 40
0.045
309
GRIDFORMAT_END
 95
       32
302
GRIDFORMAT
  1
GRIDFORMAT_BEGIN
 90
        0
 91
        1
 62
     0
 92
       -2
340
11
 93
        0
 40
0.045
309
GRIDFORMAT_END
309
TABLEFORMAT_END
  1
CELLSTYLE_BEGIN
 90
        3
 91
        2
300
_DATA
309
CELLSTYLE_END
  0
ENDSEC
  0
EOF
