  0
SECTION
  2
HEADER
  9
$ACADVER
  1
AC1021
  9
$ACADMAINTVER
 70
    25
  9
$DWGCODEPAGE
  3
ANSI_932
  9
$LASTSAVEDBY
  1
howeNelson
  9
$INSBASE
 10
0.0
 20
0.0
 30
0.0
  9
$EXTMIN
 10
0.0
 20
0.0
 30
-0.0000000000000071
  9
$EXTMAX
 10
420.0
 20
594.0
 30
0.0000000000000071
  9
$LIMMIN
 10
0.0
 20
0.0
  9
$LIMMAX
 10
420.0
 20
594.0
  9
$ORTHOMODE
 70
     0
  9
$REGENMODE
 70
     1
  9
$FILLMODE
 70
     1
  9
$QTEXTMODE
 70
     0
  9
$MIRRTEXT
 70
     1
  9
$LTSCALE
 40
1.0
  9
$ATTMODE
 70
     1
  9
$TEXTSIZE
 40
2.5
  9
$TRACEWID
 40
1.0
  9
$TEXTSTYLE
  7
ＭＳ ゴシック
  9
$CLAYER
  8
DIM
  9
$CELTYPE
  6
ByLayer
  9
$CECOLOR
 62
   256
  9
$CELTSCALE
 40
1.0
  9
$DISPSILH
 70
     0
  9
$DIMSCALE
 40
1.0
  9
$DIMASZ
 40
2.0
  9
$DIMEXO
 40
5.0
  9
$DIMDLI
 40
0.9999999999999999
  9
$DIMRND
 40
0.0
  9
$DIMDLE
 40
0.0
  9
$DIMEXE
 40
0.0
  9
$DIMTP
 40
0.0
  9
$DIMTM
 40
0.0
  9
$DIMTXT
 40
5.0
  9
$DIMCEN
 40
0.0
  9
$DIMTSZ
 40
0.0
  9
$DIMTOL
 70
     0
  9
$DIMLIM
 70
     0
  9
$DIMTIH
 70
     0
  9
$DIMTOH
 70
     0
  9
$DIMSE1
 70
     0
  9
$DIMSE2
 70
     0
  9
$DIMTAD
 70
     1
  9
$DIMZIN
 70
    11
  9
$DIMBLK
  1
DOT
  9
$DIMASO
 70
     1
  9
$DIMSHO
 70
     1
  9
$DIMPOST
  1
<>
  9
$DIMAPOST
  1
[]
  9
$DIMALT
 70
     0
  9
$DIMALTD
 70
     1
  9
$DIMALTF
 40
1.0
  9
$DIMLFAC
 40
1.0
  9
$DIMTOFL
 70
     0
  9
$DIMTVP
 40
0.0
  9
$DIMTIX
 70
     1
  9
$DIMSOXD
 70
     0
  9
$DIMSAH
 70
     0
  9
$DIMBLK1
  1

  9
$DIMBLK2
  1

  9
$DIMSTYLE
  2
tfrom線あり
  9
$DIMCLRD
 70
     0
  9
$DIMCLRE
 70
     0
  9
$DIMCLRT
 70
     0
  9
$DIMTFAC
 40
1.0
  9
$DIMGAP
 40
3.0
  9
$DIMJUST
 70
     0
  9
$DIMSD1
 70
     0
  9
$DIMSD2
 70
     0
  9
$DIMTOLJ
 70
     1
  9
$DIMTZIN
 70
    11
  9
$DIMALTZ
 70
    11
  9
$DIMALTTZ
 70
    11
  9
$DIMUPT
 70
     0
  9
$DIMDEC
 70
     0
  9
$DIMTDEC
 70
     1
  9
$DIMALTU
 70
     2
  9
$DIMALTTD
 70
     2
  9
$DIMTXSTY
  7
ＭＳ ゴシック
  9
$DIMAUNIT
 70
     0
  9
$DIMADEC
 70
     2
  9
$DIMALTRND
 40
0.0
  9
$DIMAZIN
 70
     0
  9
$DIMDSEP
 70
    46
  9
$DIMATFIT
 70
     0
  9
$DIMFRAC
 70
     2
  9
$DIMLDRBLK
  1
DOT
  9
$DIMLUNIT
 70
     2
  9
$DIMLWD
 70
    -2
  9
$DIMLWE
 70
    -2
  9
$DIMTMOVE
 70
     0
  9
$DIMFXL
 40
1.0
  9
$DIMFXLON
 70
     0
  9
$DIMJOGANG
 40
0.7853981633974483
  9
$DIMTFILL
 70
     0
  9
$DIMTFILLCLR
 70
     0
  9
$DIMARCSYM
 70
     0
  9
$DIMLTYPE
  6

  9
$DIMLTEX1
  6

  9
$DIMLTEX2
  6

  9
$LUNITS
 70
     2
  9
$LUPREC
 70
     0
  9
$SKETCHINC
 40
0.1
  9
$FILLETRAD
 40
0.0
  9
$AUNITS
 70
     0
  9
$AUPREC
 70
     0
  9
$MENU
  1
acad
  9
$ELEVATION
 40
0.0
  9
$PELEVATION
 40
0.0
  9
$THICKNESS
 40
0.0
  9
$LIMCHECK
 70
     0
  9
$CHAMFERA
 40
0.0
  9
$CHAMFERB
 40
0.0
  9
$CHAMFERC
 40
0.0
  9
$CHAMFERD
 40
0.0
  9
$SKPOLY
 70
     0
  9
$TDCREATE
 40
2447893.375
  9
$TDUCREATE
 40
0.0
  9
$TDUPDATE
 40
2458943.428163912
  9
$TDUUPDATE
 40
2458943.053163912
  9
$TDINDWG
 40
0.1524617014
  9
$TDUSRTIMER
 40
0.0011292593
  9
$USRTIMER
 70
     1
  9
$ANGBASE
 50
0.0
  9
$ANGDIR
 70
     0
  9
$PDMODE
 70
     1
  9
$PDSIZE
 40
-2.0
  9
$PLINEWID
 40
0.0
  9
$SPLFRAME
 70
     0
  9
$SPLINETYPE
 70
     6
  9
$SPLINESEGS
 70
     8
  9
$HANDSEED
  5
94DD
  9
$SURFTAB1
 70
     6
  9
$SURFTAB2
 70
     6
  9
$SURFTYPE
 70
     6
  9
$SURFU
 70
     6
  9
$SURFV
 70
     6
  9
$UCSBASE
  2

  9
$UCSNAME
  2

  9
$UCSORG
 10
0.0
 20
0.0
 30
0.0
  9
$UCSXDIR
 10
1.0
 20
0.0
 30
0.0
  9
$UCSYDIR
 10
0.0
 20
1.0
 30
0.0
  9
$UCSORTHOREF
  2

  9
$UCSORTHOVIEW
 70
     0
  9
$UCSORGTOP
 10
0.0
 20
0.0
 30
0.0
  9
$UCSORGBOTTOM
 10
0.0
 20
0.0
 30
0.0
  9
$UCSORGLEFT
 10
0.0
 20
0.0
 30
0.0
  9
$UCSORGRIGHT
 10
0.0
 20
0.0
 30
0.0
  9
$UCSORGFRONT
 10
0.0
 20
0.0
 30
0.0
  9
$UCSORGBACK
 10
0.0
 20
0.0
 30
0.0
  9
$PUCSBASE
  2

  9
$PUCSNAME
  2

  9
$PUCSORG
 10
0.0
 20
0.0
 30
0.0
  9
$PUCSXDIR
 10
1.0
 20
0.0
 30
0.0
  9
$PUCSYDIR
 10
0.0
 20
1.0
 30
0.0
  9
$PUCSORTHOREF
  2

  9
$PUCSORTHOVIEW
 70
     0
  9
$PUCSORGTOP
 10
0.0
 20
0.0
 30
0.0
  9
$PUCSORGBOTTOM
 10
0.0
 20
0.0
 30
0.0
  9
$PUCSORGLEFT
 10
0.0
 20
0.0
 30
0.0
  9
$PUCSORGRIGHT
 10
0.0
 20
0.0
 30
0.0
  9
$PUCSORGFRONT
 10
0.0
 20
0.0
 30
0.0
  9
$PUCSORGBACK
 10
0.0
 20
0.0
 30
0.0
  9
$USERI1
 70
     0
  9
$USERI2
 70
     0
  9
$USERI3
 70
     0
  9
$USERI4
 70
     0
  9
$USERI5
 70
     0
  9
$USERR1
 40
0.0
  9
$USERR2
 40
0.0
  9
$USERR3
 40
0.0
  9
$USERR4
 40
0.0
  9
$USERR5
 40
0.0
  9
$WORLDVIEW
 70
     1
  9
$SHADEDGE
 70
     3
  9
$SHADEDIF
 70
    70
  9
$TILEMODE
 70
     1
  9
$MAXACTVP
 70
    64
  9
$PINSBASE
 10
0.0
 20
0.0
 30
0.0
  9
$PLIMCHECK
 70
     0
  9
$PEXTMIN
 10
0.0
 20
0.0
 30
0.0
  9
$PEXTMAX
 10
0.0
 20
0.0
 30
0.0
  9
$PLIMMIN
 10
-7.5
 20
-20.0
  9
$PLIMMAX
 10
412.5
 20
277.0
  9
$UNITMODE
 70
     0
  9
$VISRETAIN
 70
     0
  9
$PLINEGEN
 70
     1
  9
$PSLTSCALE
 70
     0
  9
$TREEDEPTH
 70
  3020
  9
$CMLSTYLE
  2
Standard
  9
$CMLJUST
 70
     0
  9
$CMLSCALE
 40
1.0
  9
$PROXYGRAPHICS
 70
     0
  9
$MEASUREMENT
 70
     1
  9
$CELWEIGHT
370
    -1
  9
$ENDCAPS
280
     0
  9
$JOINSTYLE
280
     0
  9
$LWDISPLAY
290
     1
  9
$INSUNITS
 70
     4
  9
$HYPERLINKBASE
  1

  9
$STYLESHEET
  1

  9
$XEDIT
290
     1
  9
$CEPSNTYPE
380
     0
  9
$PSTYLEMODE
290
     1
  9
$FINGERPRINTGUID
  2

  9
$VERSIONGUID
  2

  9
$EXTNAMES
290
     1
  9
$PSVPSCALE
 40
0.0
  9
$OLESTARTUP
290
     0
  9
$SORTENTS
280
   127
  9
$INDEXCTL
280
     0
  9
$HIDETEXT
280
     1
  9
$XCLIPFRAME
290
     0
  9
$HALOGAP
280
     0
  9
$OBSCOLOR
 70
   257
  9
$OBSLTYPE
280
     0
  9
$INTERSECTIONDISPLAY
280
     0
  9
$INTERSECTIONCOLOR
 70
   257
  9
$DIMASSOC
280
     2
  9
$PROJECTNAME
  1

  9
$CAMERADISPLAY
290
     0
  9
$LENSLENGTH
 40
50.0
  9
$CAMERAHEIGHT
 40
0.0
  9
$STEPSPERSEC
 40
2.0
  9
$STEPSIZE
 40
6.0
  9
$3DDWFPREC
 40
2.0
  9
$PSOLWIDTH
 40
0.25
  9
$PSOLHEIGHT
 40
4.0
  9
$LOFTANG1
 40
1.570796326794897
  9
$LOFTANG2
 40
1.570796326794897
  9
$LOFTMAG1
 40
0.0
  9
$LOFTMAG2
 40
0.0
  9
$LOFTPARAM
 70
     7
  9
$LOFTNORMALS
280
     1
  9
$LATITUDE
 40
37.795
  9
$LONGITUDE
 40
-122.394
  9
$NORTHDIRECTION
 40
0.0
  9
$TIMEZONE
 70
 -8000
  9
$LIGHTGLYPHDISPLAY
280
     1
  9
$TILEMODELIGHTSYNCH
280
     1
  9
$SOLIDHIST
280
     1
  9
$SHOWHIST
280
     1
  9
$DWFFRAME
280
     2
  9
$DGNFRAME
280
     2
  9
$REALWORLDSCALE
290
     1
  9
$INTERFERECOLOR
 62
   256
  9
$CSHADOW
280
     0
  9
$SHADOWPLANELOCATION
 40
0.0
  0
ENDSEC
  0
SECTION
  2
CLASSES
  0
CLASS
  1
LWPOLYLINE
  2
AcDbPolyline
  3
ObjectDBX Classes
 90
        0
 91
        1
280
     0
281
     1
  0
CLASS
  1
IMAGE
  2
AcDbRasterImage
  3
ISM
 90
      127
 91
        5
280
     0
281
     1
  0
CLASS
  1
OLE2FRAME
  2
AcDbOle2Frame
  3
ObjectDBX Classes
 90
        0
 91
        1
280
     0
281
     1
  0
CLASS
  1
HATCH
  2
AcDbHatch
  3
ObjectDBX Classes
 90
        0
 91
        1
280
     0
281
     1
  0
CLASS
  1
DICTIONARYVAR
  2
AcDbDictionaryVar
  3
ObjectDBX Classes
 90
        0
 91
        4
280
     0
281
     0
  0
CLASS
  1
RASTERVARIABLES
  2
AcDbRasterVariables
  3
ISM
 90
        0
 91
        4
280
     0
281
     0
  0
CLASS
  1
IMAGEDEF
  2
AcDbRasterImageDef
  3
ISM
 90
        0
 91
        4
280
     0
281
     0
  0
CLASS
  1
IMAGEDEF_REACTOR
  2
AcDbRasterImageDefReactor
  3
ISM
 90
        1
 91
        4
280
     0
281
     0
  0
CLASS
  1
IDBUFFER
  2
AcDbIdBuffer
  3
ObjectDBX Classes
 90
        0
 91
        4
280
     0
281
     0
  0
CLASS
  1
SPATIAL_FILTER
  2
AcDbSpatialFilter
  3
ObjectDBX Classes
 90
        0
 91
        4
280
     0
281
     0
  0
CLASS
  1
XRECORD
  2
AcDbXrecord
  3
ObjectDBX Classes
 90
        0
 91
        1
280
     0
281
     0
  0
CLASS
  1
SORTENTSTABLE
  2
AcDbSortentsTable
  3
ObjectDBX Classes
 90
        0
 91
        4
280
     0
281
     0
  0
CLASS
  1
LAYER_INDEX
  2
AcDbLayerIndex
  3
ObjectDBX Classes
 90
        0
 91
        4
280
     0
281
     0
  0
CLASS
  1
SPATIAL_INDEX
  2
AcDbSpatialIndex
  3
AutoCAD 2000
 90
        0
 91
        4
280
     0
281
     0
  0
CLASS
  1
OBJECT_PTR
  2
CAseDLPNTableRecord
  3
ASE-LPNTableRecord
 90
        1
 91
        4
280
     0
281
     0
  0
CLASS
  1
LAYOUT
  2
AcDbLayout
  3
ObjectDBX Classes
 90
        0
 91
        1
280
     0
281
     0
  0
CLASS
  1
PLOTSETTINGS
  2
AcDbPlotSettings
  3
ObjectDBX Classes
 90
        0
 91
        4
280
     0
281
     0
  0
CLASS
  1
ACDBDICTIONARYWDFLT
  2
AcDbDictionaryWithDefault
  3
ObjectDBX Classes
 90
        0
 91
        4
280
     0
281
     0
  0
CLASS
  1
ACDBPLACEHOLDER
  2
AcDbPlaceHolder
  3
ObjectDBX Classes
 90
        0
 91
        1
280
     0
281
     0
  0
CLASS
  1
SCALE
  2
AcDbScale
  3
ObjectDBX Classes
 90
     1153
 91
        4
280
     0
281
     0
  0
CLASS
  1
MATERIAL
  2
AcDbMaterial
  3
ObjectDBX Classes
 90
     1153
 91
        4
280
     0
281
     0
  0
CLASS
  1
VISUALSTYLE
  2
AcDbVisualStyle
  3
ObjectDBX Classes
 90
     4095
 91
        4
280
     0
281
     0
  0
CLASS
  1
TABLESTYLE
  2
AcDbTableStyle
  3
ObjectDBX Classes
 90
     4095
 91
        4
280
     0
281
     0
  0
CLASS
  1
DIMASSOC
  2
AcDbDimAssoc
  3
"AcDbDimAssoc|Product Desc:     AcDim ARX App For Dimension|Company:          Autodesk, Inc.|WEB Address:      www.autodesk.com"
 90
        0
 91
        4
280
     0
281
     0
  0
CLASS
  1
CELLSTYLEMAP
  2
AcDbCellStyleMap
  3
ObjectDBX Classes
 90
     1152
 91
        4
280
     0
281
     0
  0
CLASS
  1
SUN
  2
AcDbSun
  3
SCENEOE
 90
     1153
 91
        4
280
     0
281
     0
  0
CLASS
  1
MLEADERSTYLE
  2
AcDbMLeaderStyle
  3
ACDB_MLEADERSTYLE_CLASS
 90
     4095
 91
        4
280
     0
281
     0
  0
CLASS
  1
FIELD
  2
AcDbField
  3
ObjectDBX Classes
 90
     1152
 91
        4
280
     0
281
     0
  0
CLASS
  1
FIELDLIST
  2
AcDbFieldList
  3
ObjectDBX Classes
 90
     1152
 91
        4
280
     0
281
     0
  0
ENDSEC
  0
SECTION
  2
TABLES
  0
TABLE
  2
VPORT
  5
7
330
0
100
AcDbSymbolTable
 70
     1
  0
VPORT
  5
15
330
7
100
AcDbSymbolTableRecord
100
AcDbViewportTableRecord
  2
*ACTIVE
 70
     0
 10
0.0
 20
0.0
 11
1.0
 21
1.0
 12
301.0201356709001
 22
223.401285469834
 13
0.0
 23
0.0
 14
1.0
 24
1.0
 15
0.0
 25
0.0
 16
0.0
 26
0.0
 36
1.0
 17
-91.02013567090012
 27
73.59871453016603
 37
-46.86809886248109
 40
605.88
 41
2.25035360678925
 42
50.0
 43
0.0
 44
0.0
 50
0.0
 51
0.0
 71
    16
 72
  2000
 73
     1
 74
     1
 75
     0
 76
     0
 77
     0
 78
     0
281
     0
 65
     1
110
0.0
120
0.0
130
0.0
111
1.0
121
0.0
131
0.0
112
0.0
122
1.0
132
0.0
 79
     0
146
0.0
348
26C
 60
     3
 61
     5
292
     1
282
     1
141
0.0
142
0.0
 63
   256
361
904
  0
ENDTAB
  0
TABLE
  2
LTYPE
  5
4
330
0
100
AcDbSymbolTable
 70
     3
  0
LTYPE
  5
11
330
4
100
AcDbSymbolTableRecord
100
AcDbLinetypeTableRecord
  2
ByBlock
 70
     0
  3

 72
    65
 73
     0
 40
0.0
  0
LTYPE
  5
12
330
4
100
AcDbSymbolTableRecord
100
AcDbLinetypeTableRecord
  2
ByLayer
 70
     0
  3

 72
    65
 73
     0
 40
0.0
  0
LTYPE
  5
13
330
4
100
AcDbSymbolTableRecord
100
AcDbLinetypeTableRecord
  2
Continuous
 70
     0
  3
Solid line
 72
    65
 73
     0
 40
0.0
  0
LTYPE
  5
D6C
330
4
100
AcDbSymbolTableRecord
100
AcDbLinetypeTableRecord
  2
BORDER
 70
     0
  3
Border __  __  . __  __  . __  __  . __  __  . 
 72
    65
 73
     6
 40
44.45
 49
12.7
 74
     0
 49
-6.35
 74
     0
 49
12.7
 74
     0
 49
-6.35
 74
     0
 49
0.0
 74
     0
 49
-6.35
 74
     0
  0
LTYPE
  5
D6D
330
4
100
AcDbSymbolTableRecord
100
AcDbLinetypeTableRecord
  2
HIDDEN
 70
     0
  3
Hidden _ _ _ _ _ _ _ _ _ _ _ _ _ _ _ _ _ _ _ _ 
 72
    65
 73
     2
 40
9.524999999999999
 49
6.35
 74
     0
 49
-3.175
 74
     0
  0
ENDTAB
  0
TABLE
  2
LAYER
  5
2
102
{ACAD_XDICTIONARY
360
2E1
102
}
330
0
100
AcDbSymbolTable
 70
     9
  0
LAYER
  5
14
330
2
100
AcDbSymbolTableRecord
100
AcDbLayerTableRecord
  2
0
 70
     0
 62
     7
  6
Continuous
370
    -3
390
1D
347
266
  0
LAYER
  5
4B
330
2
100
AcDbSymbolTableRecord
100
AcDbLayerTableRecord
  2
TEMPLATE
 70
     0
 62
     7
  6
Continuous
370
    20
390
1D
347
266
  0
LAYER
  5
4C
330
2
100
AcDbSymbolTableRecord
100
AcDbLayerTableRecord
  2
DIM
 70
     0
 62
     3
  6
Continuous
370
    13
390
1D
347
266
  0
LAYER
  5
4D
330
2
100
AcDbSymbolTableRecord
100
AcDbLayerTableRecord
  2
MODEL
 70
     0
 62
     7
  6
Continuous
370
    20
390
1D
347
266
  0
LAYER
  5
88C
330
2
100
AcDbSymbolTableRecord
100
AcDbLayerTableRecord
  2
HIDDEN
 70
     0
 62
     8
  6
HIDDEN
370
    20
390
1D
347
266
1001
AcAecLayerStandard
1000

1000

  0
LAYER
  5
D6B
330
2
100
AcDbSymbolTableRecord
100
AcDbLayerTableRecord
  2
BORDER
 70
     0
 62
     4
  6
BORDER
290
     0
370
    20
390
1D
347
266
1001
AcAecLayerStandard
1000

1000

  0
LAYER
  5
D8C
330
2
100
AcDbSymbolTableRecord
100
AcDbLayerTableRecord
  2
Defpoints
 70
     0
 62
     7
  6
Continuous
290
     0
370
    -3
390
1D
347
266
  0
LAYER
  5
3653
330
2
100
AcDbSymbolTableRecord
100
AcDbLayerTableRecord
  2
Standard
 70
     0
 62
     7
  6
Continuous
370
    -3
390
1D
347
266
  0
LAYER
  5
3D50
330
2
100
AcDbSymbolTableRecord
100
AcDbLayerTableRecord
  2
レイヤー 1
 70
     0
 62
     7
  6
Continuous
370
    -3
390
1D
347
266
  0
ENDTAB
  0
TABLE
  2
STYLE
  5
3
330
0
100
AcDbSymbolTable
 70
     2
  0
STYLE
  5
17
330
3
100
AcDbSymbolTableRecord
100
AcDbTextStyleTableRecord
  2
Standard
 70
     0
 40
0.0
 41
1.0
 50
0.0
 71
     0
 42
2.5
  3
txt
  4
BIGFONT.SHX
  0
STYLE
  5
39
330
3
100
AcDbSymbolTableRecord
100
AcDbTextStyleTableRecord
  2
ＭＳ ゴシック
 70
     0
 40
0.0
 41
1.0
 50
0.0
 71
     0
 42
2.5
  3
msgothic.ttc
  4
ＭＳ ゴシック
1001
ACAD
1000
ＭＳ ゴシック
1071
        0
  0
ENDTAB
  0
TABLE
  2
VIEW
  5
5
330
0
100
AcDbSymbolTable
 70
     0
  0
ENDTAB
  0
TABLE
  2
UCS
  5
6
330
0
100
AcDbSymbolTable
 70
     0
  0
ENDTAB
  0
TABLE
  2
APPID
  5
8
330
0
100
AcDbSymbolTable
 70
     3
  0
APPID
  5
16
330
8
100
AcDbSymbolTableRecord
100
AcDbRegAppTableRecord
  2
ACAD
 70
     0
  0
APPID
  5
7AC
330
8
100
AcDbSymbolTableRecord
100
AcDbRegAppTableRecord
  2
AcAecLayerStandard
 70
     0
  0
APPID
  5
E29
330
8
100
AcDbSymbolTableRecord
100
AcDbRegAppTableRecord
  2
ACAD_MLEADERVER
 70
     0
  0
ENDTAB
  0
TABLE
  2
DIMSTYLE
  5
9
330
0
100
AcDbSymbolTable
 70
     2
100
AcDbDimStyleTable
  0
DIMSTYLE
105
18
330
9
100
AcDbSymbolTableRecord
100
AcDbDimStyleTableRecord
  2
Standard
 70
     0
178
     0
340
17
  0
DIMSTYLE
105
57
102
{ACAD_REACTORS
330
5BC9
330
5BD8
330
5BF7
330
5C08
330
5C17
102
}
330
9
100
AcDbSymbolTableRecord
100
AcDbDimStyleTableRecord
  2
tfrom線あり
 70
     0
  3
<>
  4
[]
 41
2.0
 42
5.0
 43
0.9999999999999999
 44
0.0
 73
     0
 74
     0
 77
     1
 78
    11
140
5.0
141
0.0
143
1.0
147
3.0
171
     1
174
     1
178
     0
179
     2
271
     0
272
     1
276
     2
284
    11
285
    11
286
    11
289
     0
340
39
341
4E
342
4E
  0
ENDTAB
  0
TABLE
  2
BLOCK_RECORD
  5
1
330
0
100
AcDbSymbolTable
 70
    19
  0
BLOCK_RECORD
  5
A
102
{ACAD_XDICTIONARY
360
3D3D
102
}
330
1
100
AcDbSymbolTableRecord
100
AcDbBlockTableRecord
  2
*MODEL_SPACE
340
20
 70
     0
280
     1
281
     0
  0
BLOCK_RECORD
  5
B
330
1
100
AcDbSymbolTableRecord
100
AcDbBlockTableRecord
  2
*PAPER_SPACE
340
21
 70
     0
280
     1
281
     0
  0
BLOCK_RECORD
  5
4E
330
1
100
AcDbSymbolTableRecord
100
AcDbBlockTableRecord
  2
_DOT
340
0
102
{BLKREFS
331
3B8C
331
3B8D
331
3B98
331
3B99
331
3BA4
331
3BA5
331
3BB0
331
3BB1
331
3BBC
331
3BBD
331
3BC8
331
3BC9
331
3BD4
331
3BD5
331
3CFD
331
3CFE
331
3D0C
331
3D0D
331
3D2A
331
3D2B
331
3D36
331
3D37
331
5BD2
331
5BD3
331
5BE1
331
5BE2
331
5BF1
331
5BF2
331
5BFE
331
5BFF
331
5C11
331
5C12
331
5C20
331
5C21
102
}
 70
     0
280
     1
281
     0
  0
BLOCK_RECORD
  5
68D
330
1
100
AcDbSymbolTableRecord
100
AcDbBlockTableRecord
  2
block 2
340
0
102
{BLKREFS
331
68C
331
1343
102
}
 70
     0
280
     1
281
     0
  0
BLOCK_RECORD
  5
3B86
330
1
100
AcDbSymbolTableRecord
100
AcDbBlockTableRecord
  2
*D2
340
0
 70
     0
280
     1
281
     0
  0
BLOCK_RECORD
  5
3B92
330
1
100
AcDbSymbolTableRecord
100
AcDbBlockTableRecord
  2
*D3
340
0
 70
     0
280
     1
281
     0
  0
BLOCK_RECORD
  5
3B9E
330
1
100
AcDbSymbolTableRecord
100
AcDbBlockTableRecord
  2
*D4
340
0
 70
     0
280
     1
281
     0
  0
BLOCK_RECORD
  5
3BAA
330
1
100
AcDbSymbolTableRecord
100
AcDbBlockTableRecord
  2
*D5
340
0
 70
     0
280
     1
281
     0
  0
BLOCK_RECORD
  5
3BB6
330
1
100
AcDbSymbolTableRecord
100
AcDbBlockTableRecord
  2
*D6
340
0
 70
     0
280
     1
281
     0
  0
BLOCK_RECORD
  5
3BC2
330
1
100
AcDbSymbolTableRecord
100
AcDbBlockTableRecord
  2
*D7
340
0
 70
     0
280
     1
281
     0
  0
BLOCK_RECORD
  5
3BCE
330
1
100
AcDbSymbolTableRecord
100
AcDbBlockTableRecord
  2
*D8
340
0
 70
     0
280
     1
281
     0
  0
BLOCK_RECORD
  5
3CF8
330
1
100
AcDbSymbolTableRecord
100
AcDbBlockTableRecord
  2
*D9
340
0
 70
     0
280
     1
281
     0
  0
BLOCK_RECORD
  5
3D07
330
1
100
AcDbSymbolTableRecord
100
AcDbBlockTableRecord
  2
*D10
340
0
 70
     0
280
     1
281
     0
  0
BLOCK_RECORD
  5
3D24
330
1
100
AcDbSymbolTableRecord
100
AcDbBlockTableRecord
  2
*D11
340
0
 70
     0
280
     1
281
     0
  0
BLOCK_RECORD
  5
3D30
330
1
100
AcDbSymbolTableRecord
100
AcDbBlockTableRecord
  2
*D12
340
0
 70
     0
280
     1
281
     0
  0
BLOCK_RECORD
  5
5BCC
330
1
100
AcDbSymbolTableRecord
100
AcDbBlockTableRecord
  2
*D13
340
0
 70
     0
280
     1
281
     0
  0
BLOCK_RECORD
  5
5BDB
330
1
100
AcDbSymbolTableRecord
100
AcDbBlockTableRecord
  2
*D14
340
0
 70
     0
280
     1
281
     0
  0
BLOCK_RECORD
  5
5BEA
330
1
100
AcDbSymbolTableRecord
100
AcDbBlockTableRecord
  2
*D15
340
0
 70
     0
280
     1
281
     0
  0
BLOCK_RECORD
  5
5BF8
330
1
100
AcDbSymbolTableRecord
100
AcDbBlockTableRecord
  2
*D16
340
0
 70
     0
280
     1
281
     0
  0
BLOCK_RECORD
  5
5C0B
330
1
100
AcDbSymbolTableRecord
100
AcDbBlockTableRecord
  2
*D17
340
0
 70
     0
280
     1
281
     0
  0
BLOCK_RECORD
  5
5C1A
330
1
100
AcDbSymbolTableRecord
100
AcDbBlockTableRecord
  2
*D18
340
0
 70
     0
280
     1
281
     0
  0
ENDTAB
  0
ENDSEC
  0
SECTION
  2
BLOCKS
  0
BLOCK
  5
D
330
A
100
AcDbEntity
  8
0
390
1D
100
AcDbBlockBegin
  2
*MODEL_SPACE
 70
     0
 10
0.0
 20
0.0
 30
0.0
  3
*MODEL_SPACE
  1
*MODEL_SPACE
  0
ENDBLK
  5
E
330
A
100
AcDbEntity
  8
0
390
1D
100
AcDbBlockEnd
  0
BLOCK
  5
F
330
B
100
AcDbEntity
 67
     1
  8
0
390
1D
100
AcDbBlockBegin
  2
*PAPER_SPACE
 70
     0
 10
0.0
 20
0.0
 30
0.0
  3
*PAPER_SPACE
  1
*PAPER_SPACE
  0
ENDBLK
  5
10
330
B
100
AcDbEntity
 67
     1
  8
0
390
1D
100
AcDbBlockEnd
  0
BLOCK
  5
2462
330
4E
100
AcDbEntity
  8
0
390
1D
100
AcDbBlockBegin
  2
_DOT
 70
     0
 10
0.0
 20
0.0
 30
0.0
  3
_DOT
  1
_DOT
  0
POLYLINE
  5
2464
330
4E
100
AcDbEntity
  8
0
  6
ByBlock
 62
     0
370
    -2
390
1D
100
AcDb2dPolyline
 66
     1
 10
0.0
 20
0.0
 30
0.0
 70
     1
 40
0.5
 41
0.5
  0
VERTEX
  5
2465
330
2464
100
AcDbEntity
  8
0
  6
ByBlock
 62
     0
370
    -2
390
1D
100
AcDbVertex
100
AcDb2dVertex
 10
-0.25
 20
0.0
 30
0.0
 42
1.0
  0
VERTEX
  5
2466
330
2464
100
AcDbEntity
  8
0
  6
ByBlock
 62
     0
370
    -2
390
1D
100
AcDbVertex
100
AcDb2dVertex
 10
0.25
 20
0.0
 30
0.0
 42
1.0
  0
SEQEND
  5
2467
330
2464
100
AcDbEntity
  8
0
390
1D
  0
LINE
  5
2468
330
4E
100
AcDbEntity
  8
0
  6
ByBlock
 62
     0
370
    -2
390
1D
100
AcDbLine
 10
-0.5
 20
0.0
 30
0.0
 11
-1.0
 21
0.0
 31
0.0
  0
ENDBLK
  5
2469
330
4E
100
AcDbEntity
  8
0
390
1D
100
AcDbBlockEnd
  0
BLOCK
  5
68E
330
68D
100
AcDbEntity
  8
0
100
AcDbBlockBegin
  2
block 2
 70
     0
 10
0.0
 20
0.0
 30
0.0
  3
block 2
  1
block 2
  0
ENDBLK
  5
6B0
330
68D
100
AcDbEntity
  8
0
100
AcDbBlockEnd
  0
BLOCK
  5
3B87
330
3B86
100
AcDbEntity
  8
0
100
AcDbBlockBegin
  2
*D2
 70
     1
 10
0.0
 20
0.0
 30
0.0
  3
*D2
  1

  0
LINE
  5
3B89
330
3B86
100
AcDbEntity
  8
DIM
 62
     0
370
    -2
100
AcDbLine
 10
120.4165303244005
 20
319.2077009873063
 30
0.0
 11
80.41653032440028
 21
319.2077009873061
 31
0.0
  0
LINE
  5
3B8A
330
3B86
100
AcDbEntity
  8
DIM
 62
     0
370
    -2
100
AcDbLine
 10
95.2823248987792
 20
182.2077009873063
 30
0.0
 11
80.41653032440077
 21
182.2077009873062
 31
0.0
  0
LINE
  5
3B8B
330
3B86
100
AcDbEntity
  8
DIM
 62
     0
370
    -2
100
AcDbLine
 10
80.41653032440028
 20
317.2077009873061
 30
0.0
 11
80.41653032440077
 21
184.2077009873062
 31
0.0
  0
INSERT
  5
3B8C
330
3B86
100
AcDbEntity
  8
DIM
 62
     0
370
    -2
100
AcDbBlockReference
  2
_DOT
 10
80.41653032440028
 20
319.2077009873061
 30
0.0
 41
2.0
 42
2.0
 43
2.0
 50
90.0000000000002
  0
INSERT
  5
3B8D
330
3B86
100
AcDbEntity
  8
DIM
 62
     0
370
    -2
100
AcDbBlockReference
  2
_DOT
 10
80.41653032440077
 20
182.2077009873062
 30
0.0
 41
2.0
 42
2.0
 43
2.0
 50
270.0000000000002
  0
MTEXT
  5
3B8E
330
3B86
100
AcDbEntity
  8
DIM
 62
     0
 48
0.05
100
AcDbMText
 10
72.41653032440053
 20
250.7077009873063
 30
0.0
 40
5.0
 41
0.0
 46
0.0
 71
     2
 72
     1
  1
\A1;137
  7
ＭＳ ゴシック
 11
-3.526781462166923E-15
 21
1.0
 31
0.0
 73
     1
 44
1.0
  0
POINT
  5
3B8F
330
3B86
100
AcDbEntity
  8
Defpoints
 62
     0
100
AcDbPoint
 10
125.4165303244005
 20
319.2077009873063
 30
0.0
  0
POINT
  5
3B90
330
3B86
100
AcDbEntity
  8
Defpoints
 62
     0
100
AcDbPoint
 10
100.2823248987792
 20
182.2077009873063
 30
0.0
  0
POINT
  5
3B91
330
3B86
100
AcDbEntity
  8
Defpoints
 62
     0
100
AcDbPoint
 10
80.41653032440077
 20
182.2077009873062
 30
0.0
  0
ENDBLK
  5
3B88
330
3B86
100
AcDbEntity
  8
0
100
AcDbBlockEnd
  0
BLOCK
  5
3B93
330
3B92
100
AcDbEntity
  8
0
100
AcDbBlockBegin
  2
*D3
 70
     1
 10
0.0
 20
0.0
 30
0.0
  3
*D3
  1

  0
LINE
  5
3B95
330
3B92
100
AcDbEntity
  8
DIM
 62
     0
370
    -2
100
AcDbLine
 10
100.4165303244005
 20
456.7854077805792
 30
0.0
 11
100.4165303244005
 21
469.9574301222169
 31
0.0
  0
LINE
  5
3B96
330
3B92
100
AcDbEntity
  8
DIM
 62
     0
370
    -2
100
AcDbLine
 10
172.4165303244005
 20
456.7854077805792
 30
0.0
 11
172.4165303244005
 21
469.9574301222169
 31
0.0
  0
LINE
  5
3B97
330
3B92
100
AcDbEntity
  8
DIM
 62
     0
370
    -2
100
AcDbLine
 10
102.4165303244005
 20
469.9574301222169
 30
0.0
 11
170.4165303244005
 21
469.9574301222169
 31
0.0
  0
INSERT
  5
3B98
330
3B92
100
AcDbEntity
  8
DIM
 62
     0
370
    -2
100
AcDbBlockReference
  2
_DOT
 10
100.4165303244005
 20
469.9574301222169
 30
0.0
 41
2.0
 42
2.0
 43
2.0
 50
180.0
  0
INSERT
  5
3B99
330
3B92
100
AcDbEntity
  8
DIM
 62
     0
370
    -2
100
AcDbBlockReference
  2
_DOT
 10
172.4165303244005
 20
469.9574301222169
 30
0.0
 41
2.0
 42
2.0
 43
2.0
  0
MTEXT
  5
3B9A
330
3B92
100
AcDbEntity
  8
DIM
 62
     0
 48
0.05
100
AcDbMText
 10
136.4165303244005
 20
477.9574301222169
 30
0.0
 40
5.0
 41
0.0
 46
0.0
 71
     2
 72
     1
  1
\A1;72
  7
ＭＳ ゴシック
 73
     1
 44
1.0
  0
POINT
  5
3B9B
330
3B92
100
AcDbEntity
  8
Defpoints
 62
     0
100
AcDbPoint
 10
100.4165303244005
 20
451.7854077805792
 30
0.0
  0
POINT
  5
3B9C
330
3B92
100
AcDbEntity
  8
Defpoints
 62
     0
100
AcDbPoint
 10
172.4165303244005
 20
451.7854077805792
 30
0.0
  0
POINT
  5
3B9D
330
3B92
100
AcDbEntity
  8
Defpoints
 62
     0
100
AcDbPoint
 10
172.4165303244005
 20
469.9574301222169
 30
0.0
  0
ENDBLK
  5
3B94
330
3B92
100
AcDbEntity
  8
0
100
AcDbBlockEnd
  0
BLOCK
  5
3B9F
330
3B9E
100
AcDbEntity
  8
0
100
AcDbBlockBegin
  2
*D4
 70
     1
 10
0.0
 20
0.0
 30
0.0
  3
*D4
  1

  0
LINE
  5
3BA1
330
3B9E
100
AcDbEntity
  8
DIM
 62
     0
370
    -2
100
AcDbLine
 10
95.4165303244005
 20
448.3104475998533
 30
0.0
 11
80.41653032440041
 21
448.3104475998533
 31
0.0
  0
LINE
  5
3BA2
330
3B9E
100
AcDbEntity
  8
DIM
 62
     0
370
    -2
100
AcDbLine
 10
120.4165303244005
 20
380.0604475998529
 30
0.0
 11
80.41653032440065
 21
380.0604475998528
 31
0.0
  0
LINE
  5
3BA3
330
3B9E
100
AcDbEntity
  8
DIM
 62
     0
370
    -2
100
AcDbLine
 10
80.41653032440041
 20
446.3104475998533
 30
0.0
 11
80.41653032440065
 21
382.0604475998528
 31
0.0
  0
INSERT
  5
3BA4
330
3B9E
100
AcDbEntity
  8
DIM
 62
     0
370
    -2
100
AcDbBlockReference
  2
_DOT
 10
80.41653032440041
 20
448.3104475998533
 30
0.0
 41
2.0
 42
2.0
 43
2.0
 50
90.0000000000002
  0
INSERT
  5
3BA5
330
3B9E
100
AcDbEntity
  8
DIM
 62
     0
370
    -2
100
AcDbBlockReference
  2
_DOT
 10
80.41653032440065
 20
380.0604475998528
 30
0.0
 41
2.0
 42
2.0
 43
2.0
 50
270.0000000000002
  0
MTEXT
  5
3BA6
330
3B9E
100
AcDbEntity
  8
DIM
 62
     0
 48
0.05
100
AcDbMText
 10
72.41653032440053
 20
414.1854475998531
 30
0.0
 40
5.0
 41
0.0
 46
0.0
 71
     2
 72
     1
  1
\A1;68
  7
ＭＳ ゴシック
 11
-3.539700075581425E-15
 21
1.0
 31
0.0
 73
     1
 44
1.0
  0
POINT
  5
3BA7
330
3B9E
100
AcDbEntity
  8
Defpoints
 62
     0
100
AcDbPoint
 10
100.4165303244005
 20
448.3104475998533
 30
0.0
  0
POINT
  5
3BA8
330
3B9E
100
AcDbEntity
  8
Defpoints
 62
     0
100
AcDbPoint
 10
125.4165303244005
 20
380.0604475998529
 30
0.0
  0
POINT
  5
3BA9
330
3B9E
100
AcDbEntity
  8
Defpoints
 62
     0
100
AcDbPoint
 10
80.41653032440065
 20
380.0604475998528
 30
0.0
  0
ENDBLK
  5
3BA0
330
3B9E
100
AcDbEntity
  8
0
100
AcDbBlockEnd
  0
BLOCK
  5
3BAB
330
3BAA
100
AcDbEntity
  8
0
100
AcDbBlockBegin
  2
*D5
 70
     1
 10
0.0
 20
0.0
 30
0.0
  3
*D5
  1

  0
LINE
  5
3BAD
330
3BAA
100
AcDbEntity
  8
DIM
 62
     0
370
    -2
100
AcDbLine
 10
125.4165303244005
 20
375.0604475998529
 30
0.0
 11
125.4165303244005
 21
361.7949884833052
 31
0.0
  0
LINE
  5
3BAE
330
3BAA
100
AcDbEntity
  8
DIM
 62
     0
370
    -2
100
AcDbLine
 10
147.4165303244005
 20
375.0604475998529
 30
0.0
 11
147.4165303244005
 21
361.7949884833052
 31
0.0
  0
LINE
  5
3BAF
330
3BAA
100
AcDbEntity
  8
DIM
 62
     0
370
    -2
100
AcDbLine
 10
127.4165303244005
 20
361.7949884833052
 30
0.0
 11
145.4165303244005
 21
361.7949884833052
 31
0.0
  0
INSERT
  5
3BB0
330
3BAA
100
AcDbEntity
  8
DIM
 62
     0
370
    -2
100
AcDbBlockReference
  2
_DOT
 10
125.4165303244005
 20
361.7949884833052
 30
0.0
 41
2.0
 42
2.0
 43
2.0
 50
180.0
  0
INSERT
  5
3BB1
330
3BAA
100
AcDbEntity
  8
DIM
 62
     0
370
    -2
100
AcDbBlockReference
  2
_DOT
 10
147.4165303244005
 20
361.7949884833052
 30
0.0
 41
2.0
 42
2.0
 43
2.0
  0
MTEXT
  5
3BB2
330
3BAA
100
AcDbEntity
  8
DIM
 62
     0
 48
0.05
100
AcDbMText
 10
136.4165303244005
 20
369.7949884833052
 30
0.0
 40
5.0
 41
0.0
 46
0.0
 71
     2
 72
     1
  1
\A1;22
  7
ＭＳ ゴシック
 73
     1
 44
1.0
  0
POINT
  5
3BB3
330
3BAA
100
AcDbEntity
  8
Defpoints
 62
     0
100
AcDbPoint
 10
125.4165303244005
 20
380.0604475998529
 30
0.0
  0
POINT
  5
3BB4
330
3BAA
100
AcDbEntity
  8
Defpoints
 62
     0
100
AcDbPoint
 10
147.4165303244005
 20
380.0604475998529
 30
0.0
  0
POINT
  5
3BB5
330
3BAA
100
AcDbEntity
  8
Defpoints
 62
     0
100
AcDbPoint
 10
147.4165303244005
 20
361.7949884833052
 30
0.0
  0
ENDBLK
  5
3BAC
330
3BAA
100
AcDbEntity
  8
0
100
AcDbBlockEnd
  0
BLOCK
  5
3BB7
330
3BB6
100
AcDbEntity
  8
0
100
AcDbBlockBegin
  2
*D6
 70
     1
 10
0.0
 20
0.0
 30
0.0
  3
*D6
  1

  0
LINE
  5
3BB9
330
3BB6
100
AcDbEntity
  8
DIM
 62
     0
370
    -2
100
AcDbLine
 10
176.6454837165862
 20
212.2077009873064
 30
0.0
 11
193.3903881603889
 21
212.2077009873063
 31
0.0
  0
LINE
  5
3BBA
330
3BB6
100
AcDbEntity
  8
DIM
 62
     0
370
    -2
100
AcDbLine
 10
176.6454837165862
 20
182.2077009873063
 30
0.0
 11
193.3903881603889
 21
182.2077009873062
 31
0.0
  0
LINE
  5
3BBB
330
3BB6
100
AcDbEntity
  8
DIM
 62
     0
370
    -2
100
AcDbLine
 10
193.3903881603889
 20
210.2077009873063
 30
0.0
 11
193.3903881603889
 21
184.2077009873062
 31
0.0
  0
INSERT
  5
3BBC
330
3BB6
100
AcDbEntity
  8
DIM
 62
     0
370
    -2
100
AcDbBlockReference
  2
_DOT
 10
193.3903881603889
 20
212.2077009873063
 30
0.0
 41
2.0
 42
2.0
 43
2.0
 50
89.99999999999982
  0
INSERT
  5
3BBD
330
3BB6
100
AcDbEntity
  8
DIM
 62
     0
370
    -2
100
AcDbBlockReference
  2
_DOT
 10
193.3903881603889
 20
182.2077009873062
 30
0.0
 41
2.0
 42
2.0
 43
2.0
 50
269.9999999999998
  0
MTEXT
  5
3BBE
330
3BB6
100
AcDbEntity
  8
DIM
 62
     0
 48
0.05
100
AcDbMText
 10
185.3903881603889
 20
197.2077009873064
 30
0.0
 40
5.0
 41
0.0
 46
0.0
 71
     2
 72
     1
  1
\A1;30
  7
ＭＳ ゴシック
 11
2.842170943040393E-15
 21
1.0
 31
0.0
 73
     1
 44
1.0
  0
POINT
  5
3BBF
330
3BB6
100
AcDbEntity
  8
Defpoints
 62
     0
100
AcDbPoint
 10
171.6454837165862
 20
212.2077009873064
 30
0.0
  0
POINT
  5
3BC0
330
3BB6
100
AcDbEntity
  8
Defpoints
 62
     0
100
AcDbPoint
 10
171.6454837165862
 20
182.2077009873063
 30
0.0
  0
POINT
  5
3BC1
330
3BB6
100
AcDbEntity
  8
Defpoints
 62
     0
100
AcDbPoint
 10
193.3903881603888
 20
182.2077009873062
 30
0.0
  0
ENDBLK
  5
3BB8
330
3BB6
100
AcDbEntity
  8
0
100
AcDbBlockEnd
  0
BLOCK
  5
3BC3
330
3BC2
100
AcDbEntity
  8
0
100
AcDbBlockBegin
  2
*D7
 70
     1
 10
0.0
 20
0.0
 30
0.0
  3
*D7
  1

  0
LINE
  5
3BC5
330
3BC2
100
AcDbEntity
  8
DIM
 62
     0
370
    -2
100
AcDbLine
 10
177.9901558885232
 20
438.06044758632
 30
0.0
 11
190.3107608583836
 21
438.06044758632
 31
0.0
  0
LINE
  5
3BC6
330
3BC2
100
AcDbEntity
  8
DIM
 62
     0
370
    -2
100
AcDbLine
 10
177.4165317216699
 20
448.31044758632
 30
0.0
 11
190.3107608583836
 21
448.31044758632
 31
0.0
  0
LINE
  5
3BC7
330
3BC2
100
AcDbEntity
  8
DIM
 62
     0
370
    -2
100
AcDbLine
 10
190.3107608583836
 20
440.06044758632
 30
0.0
 11
190.3107608583836
 21
446.31044758632
 31
0.0
  0
INSERT
  5
3BC8
330
3BC2
100
AcDbEntity
  8
DIM
 62
     0
370
    -2
100
AcDbBlockReference
  2
_DOT
 10
190.3107608583836
 20
438.06044758632
 30
0.0
 41
2.0
 42
2.0
 43
2.0
 50
270.0
  0
INSERT
  5
3BC9
330
3BC2
100
AcDbEntity
  8
DIM
 62
     0
370
    -2
100
AcDbBlockReference
  2
_DOT
 10
190.3107608583836
 20
448.31044758632
 30
0.0
 41
2.0
 42
2.0
 43
2.0
 50
90.0
  0
MTEXT
  5
3BCA
330
3BC2
100
AcDbEntity
  8
DIM
 62
     0
 48
0.05
100
AcDbMText
 10
182.3107608583836
 20
443.18544758632
 30
0.0
 40
5.0
 41
0.0
 46
0.0
 71
     2
 72
     1
  1
\A1;10
  7
ＭＳ ゴシック
 11
0.0
 21
1.0
 31
0.0
 73
     1
 44
1.0
  0
POINT
  5
3BCB
330
3BC2
100
AcDbEntity
  8
Defpoints
 62
     0
100
AcDbPoint
 10
172.9901558885232
 20
438.06044758632
 30
0.0
  0
POINT
  5
3BCC
330
3BC2
100
AcDbEntity
  8
Defpoints
 62
     0
100
AcDbPoint
 10
172.4165317216699
 20
448.31044758632
 30
0.0
  0
POINT
  5
3BCD
330
3BC2
100
AcDbEntity
  8
Defpoints
 62
     0
100
AcDbPoint
 10
190.3107608583836
 20
448.31044758632
 30
0.0
  0
ENDBLK
  5
3BC4
330
3BC2
100
AcDbEntity
  8
0
100
AcDbBlockEnd
  0
BLOCK
  5
3BCF
330
3BCE
100
AcDbEntity
  8
0
100
AcDbBlockBegin
  2
*D8
 70
     1
 10
0.0
 20
0.0
 30
0.0
  3
*D8
  1

  0
LINE
  5
3BD1
330
3BCE
100
AcDbEntity
  8
DIM
 62
     0
370
    -2
100
AcDbLine
 10
182.9901558885232
 20
438.06044758632
 30
0.0
 11
190.3107608583836
 21
438.06044758632
 31
0.0
  0
LINE
  5
3BD2
330
3BCE
100
AcDbEntity
  8
DIM
 62
     0
370
    -2
100
AcDbLine
 10
150.8011504144714
 20
380.0604500198659
 30
0.0
 11
190.3107608583836
 21
380.0604500198659
 31
0.0
  0
LINE
  5
3BD3
330
3BCE
100
AcDbEntity
  8
DIM
 62
     0
370
    -2
100
AcDbLine
 10
190.3107608583836
 20
436.06044758632
 30
0.0
 11
190.3107608583836
 21
382.0604500198659
 31
0.0
  0
INSERT
  5
3BD4
330
3BCE
100
AcDbEntity
  8
DIM
 62
     0
370
    -2
100
AcDbBlockReference
  2
_DOT
 10
190.3107608583836
 20
438.06044758632
 30
0.0
 41
2.0
 42
2.0
 43
2.0
 50
90.0
  0
INSERT
  5
3BD5
330
3BCE
100
AcDbEntity
  8
DIM
 62
     0
370
    -2
100
AcDbBlockReference
  2
_DOT
 10
190.3107608583836
 20
380.0604500198659
 30
0.0
 41
2.0
 42
2.0
 43
2.0
 50
270.0
  0
MTEXT
  5
3BD6
330
3BCE
100
AcDbEntity
  8
DIM
 62
     0
 48
0.05
100
AcDbMText
 10
184.8107608583836
 20
409.060448803093
 30
0.0
 40
5.0
 41
0.0
 46
0.0
 71
     5
 72
     1
  1
\A1;58
  7
ＭＳ ゴシック
 11
0.0
 21
1.0
 31
0.0
 73
     1
 44
1.0
  0
POINT
  5
3BD7
330
3BCE
100
AcDbEntity
  8
Defpoints
 62
     0
100
AcDbPoint
 10
177.9901558885232
 20
438.06044758632
 30
0.0
  0
POINT
  5
3BD8
330
3BCE
100
AcDbEntity
  8
Defpoints
 62
     0
100
AcDbPoint
 10
145.8011504144714
 20
380.0604500198659
 30
0.0
  0
POINT
  5
3BD9
330
3BCE
100
AcDbEntity
  8
Defpoints
 62
     0
100
AcDbPoint
 10
190.3107608583836
 20
380.0604500198659
 30
0.0
  0
ENDBLK
  5
3BD0
330
3BCE
100
AcDbEntity
  8
0
100
AcDbBlockEnd
  0
BLOCK
  5
3CF9
330
3CF8
100
AcDbEntity
  8
0
100
AcDbBlockBegin
  2
*D9
 70
     1
 10
0.0
 20
0.0
 30
0.0
  3
*D9
  1

  0
LINE
  5
3CFA
330
3CF8
100
AcDbEntity
  8
DIM
 62
     0
370
    -2
100
AcDbLine
 10
0.5
 20
67.50177050455927
 30
0.0
 11
0.5
 21
97.57489301398171
 31
0.0
  0
LINE
  5
3CFB
330
3CF8
100
AcDbEntity
  8
DIM
 62
     0
370
    -2
100
AcDbLine
 10
57.58899696048613
 20
67.50177050455927
 30
0.0
 11
57.58899696048613
 21
97.57489301398171
 31
0.0
  0
LINE
  5
3CFC
330
3CF8
100
AcDbEntity
  8
DIM
 62
     0
370
    -2
100
AcDbLine
 10
2.5
 20
97.57489301398171
 30
0.0
 11
55.58899696048613
 21
97.57489301398171
 31
0.0
  0
INSERT
  5
3CFD
330
3CF8
100
AcDbEntity
  8
DIM
 62
     0
370
    -2
100
AcDbBlockReference
  2
_DOT
 10
0.5
 20
97.57489301398171
 30
0.0
 41
2.0
 42
2.0
 43
2.0
 50
180.0
  0
INSERT
  5
3CFE
330
3CF8
100
AcDbEntity
  8
DIM
 62
     0
370
    -2
100
AcDbBlockReference
  2
_DOT
 10
57.58899696048613
 20
97.57489301398171
 30
0.0
 41
2.0
 42
2.0
 43
2.0
  0
MTEXT
  5
3CFF
330
3CF8
100
AcDbEntity
  8
DIM
 62
     0
100
AcDbMText
 10
29.04449848024305
 20
103.0748930139817
 30
0.0
 40
5.0
 41
0.0
 46
0.0
 71
     5
 72
     1
  1
\A1;57
  7
ＭＳ ゴシック
 73
     1
 44
1.0
  0
POINT
  5
3D00
330
3CF8
100
AcDbEntity
  8
Defpoints
 62
     0
100
AcDbPoint
 10
0.5
 20
62.50177050455927
 30
0.0
  0
POINT
  5
3D01
330
3CF8
100
AcDbEntity
  8
Defpoints
 62
     0
100
AcDbPoint
 10
57.58899696048613
 20
62.50177050455927
 30
0.0
  0
POINT
  5
3D02
330
3CF8
100
AcDbEntity
  8
Defpoints
 62
     0
100
AcDbPoint
 10
57.58899696048613
 20
97.57489301398171
 30
0.0
  0
ENDBLK
  5
3D03
330
3CF8
100
AcDbEntity
  8
0
100
AcDbBlockEnd
  0
BLOCK
  5
3D08
330
3D07
100
AcDbEntity
  8
0
100
AcDbBlockBegin
  2
*D10
 70
     1
 10
0.0
 20
0.0
 30
0.0
  3
*D10
  1

  0
LINE
  5
3D09
330
3D07
100
AcDbEntity
  8
DIM
 62
     0
370
    -2
100
AcDbLine
 10
10.10104278775087
 20
57.50177050455927
 30
0.0
 11
10.10104278775087
 21
19.15243768996962
 31
0.0
  0
LINE
  5
3D0A
330
3D07
100
AcDbEntity
  8
DIM
 62
     0
370
    -2
100
AcDbLine
 10
47.98795417273527
 20
57.50177050455927
 30
0.0
 11
47.98795417273527
 21
19.15243768996962
 31
0.0
  0
LINE
  5
3D0B
330
3D07
100
AcDbEntity
  8
DIM
 62
     0
370
    -2
100
AcDbLine
 10
12.10104278775087
 20
19.15243768996962
 30
0.0
 11
45.98795417273527
 21
19.15243768996962
 31
0.0
  0
INSERT
  5
3D0C
330
3D07
100
AcDbEntity
  8
DIM
 62
     0
370
    -2
100
AcDbBlockReference
  2
_DOT
 10
10.10104278775087
 20
19.15243768996962
 30
0.0
 41
2.0
 42
2.0
 43
2.0
 50
180.0
  0
INSERT
  5
3D0D
330
3D07
100
AcDbEntity
  8
DIM
 62
     0
370
    -2
100
AcDbBlockReference
  2
_DOT
 10
47.98795417273527
 20
19.15243768996962
 30
0.0
 41
2.0
 42
2.0
 43
2.0
  0
MTEXT
  5
3D0E
330
3D07
100
AcDbEntity
  8
DIM
 62
     0
100
AcDbMText
 10
29.04449848024307
 20
24.65243768996962
 30
0.0
 40
5.0
 41
0.0
 46
0.0
 71
     5
 72
     1
  1
\A1;38
  7
ＭＳ ゴシック
 73
     1
 44
1.0
  0
POINT
  5
3D0F
330
3D07
100
AcDbEntity
  8
Defpoints
 62
     0
100
AcDbPoint
 10
10.10104278775087
 20
62.50177050455927
 30
0.0
  0
POINT
  5
3D10
330
3D07
100
AcDbEntity
  8
Defpoints
 62
     0
100
AcDbPoint
 10
47.98795417273527
 20
62.50177050455927
 30
0.0
  0
POINT
  5
3D11
330
3D07
100
AcDbEntity
  8
Defpoints
 62
     0
100
AcDbPoint
 10
47.98795417273527
 20
19.15243768996962
 30
0.0
  0
ENDBLK
  5
3D12
330
3D07
100
AcDbEntity
  8
0
100
AcDbBlockEnd
  0
BLOCK
  5
3D25
330
3D24
100
AcDbEntity
  8
0
100
AcDbBlockBegin
  2
*D11
 70
     1
 10
0.0
 20
0.0
 30
0.0
  3
*D11
  1

  0
LINE
  5
3D27
330
3D24
100
AcDbEntity
  8
DIM
 62
     0
370
    -2
100
AcDbLine
 10
164.9604863221886
 20
338.6076747477204
 30
0.0
 11
164.9604863221886
 21
403.7539197665653
 31
0.0
  0
LINE
  5
3D28
330
3D24
100
AcDbEntity
  8
DIM
 62
     0
370
    -2
100
AcDbLine
 10
279.1384802431609
 20
338.6076747477204
 30
0.0
 11
279.1384802431609
 21
403.7539197665653
 31
0.0
  0
LINE
  5
3D29
330
3D24
100
AcDbEntity
  8
DIM
 62
     0
370
    -2
100
AcDbLine
 10
166.9604863221886
 20
403.7539197665653
 30
0.0
 11
277.1384802431609
 21
403.7539197665653
 31
0.0
  0
INSERT
  5
3D2A
330
3D24
100
AcDbEntity
  8
DIM
 62
     0
370
    -2
100
AcDbBlockReference
  2
_DOT
 10
164.9604863221886
 20
403.7539197665653
 30
0.0
 41
2.0
 42
2.0
 43
2.0
 50
180.0
  0
INSERT
  5
3D2B
330
3D24
100
AcDbEntity
  8
DIM
 62
     0
370
    -2
100
AcDbBlockReference
  2
_DOT
 10
279.1384802431609
 20
403.7539197665653
 30
0.0
 41
2.0
 42
2.0
 43
2.0
  0
MTEXT
  5
3D2C
330
3D24
100
AcDbEntity
  8
DIM
 62
     0
100
AcDbMText
 10
222.0494832826747
 20
409.2539197665653
 30
0.0
 40
5.0
 41
0.0
 46
0.0
 71
     5
 72
     1
  1
\A1;114
  7
ＭＳ ゴシック
 73
     1
 44
1.0
  0
POINT
  5
3D2D
330
3D24
100
AcDbEntity
  8
Defpoints
 62
     0
100
AcDbPoint
 10
164.9604863221886
 20
333.6076747477204
 30
0.0
  0
POINT
  5
3D2E
330
3D24
100
AcDbEntity
  8
Defpoints
 62
     0
100
AcDbPoint
 10
279.1384802431609
 20
333.6076747477204
 30
0.0
  0
POINT
  5
3D2F
330
3D24
100
AcDbEntity
  8
Defpoints
 62
     0
100
AcDbPoint
 10
279.1384802431609
 20
403.7539197665653
 30
0.0
  0
ENDBLK
  5
3D26
330
3D24
100
AcDbEntity
  8
0
100
AcDbBlockEnd
  0
BLOCK
  5
3D31
330
3D30
100
AcDbEntity
  8
0
100
AcDbBlockBegin
  2
*D12
 70
     1
 10
0.0
 20
0.0
 30
0.0
  3
*D12
  1

  0
LINE
  5
3D33
330
3D30
100
AcDbEntity
  8
DIM
 62
     0
370
    -2
100
AcDbLine
 10
184.1625718976903
 20
328.6076747477204
 30
0.0
 11
184.1625718976903
 21
246.9090091185411
 31
0.0
  0
LINE
  5
3D34
330
3D30
100
AcDbEntity
  8
DIM
 62
     0
370
    -2
100
AcDbLine
 10
259.9363946676591
 20
328.6076747477204
 30
0.0
 11
259.9363946676591
 21
246.9090091185411
 31
0.0
  0
LINE
  5
3D35
330
3D30
100
AcDbEntity
  8
DIM
 62
     0
370
    -2
100
AcDbLine
 10
186.1625718976903
 20
246.9090091185411
 30
0.0
 11
257.9363946676591
 21
246.9090091185411
 31
0.0
  0
INSERT
  5
3D36
330
3D30
100
AcDbEntity
  8
DIM
 62
     0
370
    -2
100
AcDbBlockReference
  2
_DOT
 10
184.1625718976903
 20
246.9090091185411
 30
0.0
 41
2.0
 42
2.0
 43
2.0
 50
180.0
  0
INSERT
  5
3D37
330
3D30
100
AcDbEntity
  8
DIM
 62
     0
370
    -2
100
AcDbBlockReference
  2
_DOT
 10
259.9363946676591
 20
246.9090091185411
 30
0.0
 41
2.0
 42
2.0
 43
2.0
  0
MTEXT
  5
3D38
330
3D30
100
AcDbEntity
  8
DIM
 62
     0
100
AcDbMText
 10
222.0494832826747
 20
252.4090091185411
 30
0.0
 40
5.0
 41
0.0
 46
0.0
 71
     5
 72
     1
  1
\A1;76
  7
ＭＳ ゴシック
 73
     1
 44
1.0
  0
POINT
  5
3D39
330
3D30
100
AcDbEntity
  8
Defpoints
 62
     0
100
AcDbPoint
 10
184.1625718976903
 20
333.6076747477204
 30
0.0
  0
POINT
  5
3D3A
330
3D30
100
AcDbEntity
  8
Defpoints
 62
     0
100
AcDbPoint
 10
259.9363946676591
 20
333.6076747477204
 30
0.0
  0
POINT
  5
3D3B
330
3D30
100
AcDbEntity
  8
Defpoints
 62
     0
100
AcDbPoint
 10
259.9363946676591
 20
246.9090091185411
 30
0.0
  0
ENDBLK
  5
3D32
330
3D30
100
AcDbEntity
  8
0
100
AcDbBlockEnd
  0
BLOCK
  5
5BCD
330
5BCC
100
AcDbEntity
  8
0
100
AcDbBlockBegin
  2
*D13
 70
     1
 10
0.0
 20
0.0
 30
0.0
  3
*D13
  1

  0
LINE
  5
5BCF
330
5BCC
100
AcDbEntity
  8
DIM
 62
     0
370
    -2
100
AcDbLine
 10
230.154553266295
 20
139.4498197662307
 30
0.0
 11
312.1251919795583
 21
139.4498197662307
 31
0.0
  0
LINE
  5
5BD0
330
5BCC
100
AcDbEntity
  8
DIM
 62
     0
370
    -2
100
AcDbLine
 10
284.6798593011687
 20
403.4395304404144
 30
0.0
 11
312.1251919795583
 21
403.4395304404144
 31
0.0
  0
LINE
  5
5BD1
330
5BCC
100
AcDbEntity
  8
DIM
 62
     0
370
    -2
100
AcDbLine
 10
312.1251919795583
 20
141.4498197662307
 30
0.0
 11
312.1251919795583
 21
401.4395304404144
 31
0.0
  0
INSERT
  5
5BD2
330
5BCC
100
AcDbEntity
  8
DIM
 62
     0
370
    -2
100
AcDbBlockReference
  2
_DOT
 10
312.1251919795583
 20
139.4498197662307
 30
0.0
 41
2.0
 42
2.0
 43
2.0
 50
270.0
  0
INSERT
  5
5BD3
330
5BCC
100
AcDbEntity
  8
DIM
 62
     0
370
    -2
100
AcDbBlockReference
  2
_DOT
 10
312.1251919795583
 20
403.4395304404144
 30
0.0
 41
2.0
 42
2.0
 43
2.0
 50
90.0
  0
MTEXT
  5
5BD4
330
5BCC
100
AcDbEntity
  8
DIM
 62
     0
100
AcDbMText
 10
306.6251919795583
 20
271.4446751033226
 30
0.0
 40
5.0
 41
0.0
 46
0.0
 71
     5
 72
     1
  1
\A1;300
  7
ＭＳ ゴシック
 11
0.0
 21
1.0
 31
0.0
 73
     1
 44
1.0
  0
POINT
  5
5BD5
330
5BCC
100
AcDbEntity
  8
Defpoints
 62
     0
100
AcDbPoint
 10
225.154553266295
 20
139.4498197662307
 30
0.0
  0
POINT
  5
5BD6
330
5BCC
100
AcDbEntity
  8
Defpoints
 62
     0
100
AcDbPoint
 10
279.6798593011687
 20
403.4395304404144
 30
0.0
  0
POINT
  5
5BD7
330
5BCC
100
AcDbEntity
  8
Defpoints
 62
     0
100
AcDbPoint
 10
312.1251919795583
 20
403.4395304404144
 30
0.0
  0
ENDBLK
  5
5BCE
330
5BCC
100
AcDbEntity
  8
0
100
AcDbBlockEnd
  0
BLOCK
  5
5BDC
330
5BDB
100
AcDbEntity
  8
0
100
AcDbBlockBegin
  2
*D14
 70
     1
 10
0.0
 20
0.0
 30
0.0
  3
*D14
  1

  0
LINE
  5
5BDE
330
5BDB
100
AcDbEntity
  8
DIM
 62
     0
370
    -2
100
AcDbLine
 10
194.9711600923934
 20
421.5628796713896
 30
0.0
 11
194.9711600923934
 21
466.6901499928833
 31
0.0
  0
LINE
  5
5BDF
330
5BDB
100
AcDbEntity
  8
DIM
 62
     0
370
    -2
100
AcDbLine
 10
239.9711600897476
 20
421.5628796713896
 30
0.0
 11
239.9711600897476
 21
466.6901499928833
 31
0.0
  0
LINE
  5
5BE0
330
5BDB
100
AcDbEntity
  8
DIM
 62
     0
370
    -2
100
AcDbLine
 10
196.9711600923934
 20
466.6901499928833
 30
0.0
 11
237.9711600897476
 21
466.6901499928833
 31
0.0
  0
INSERT
  5
5BE1
330
5BDB
100
AcDbEntity
  8
DIM
 62
     0
370
    -2
100
AcDbBlockReference
  2
_DOT
 10
194.9711600923934
 20
466.6901499928833
 30
0.0
 41
2.0
 42
2.0
 43
2.0
 50
180.0
  0
INSERT
  5
5BE2
330
5BDB
100
AcDbEntity
  8
DIM
 62
     0
370
    -2
100
AcDbBlockReference
  2
_DOT
 10
239.9711600897476
 20
466.6901499928833
 30
0.0
 41
2.0
 42
2.0
 43
2.0
  0
MTEXT
  5
5BE3
330
5BDB
100
AcDbEntity
  8
DIM
 62
     0
100
AcDbMText
 10
217.4711600910705
 20
472.1901499928833
 30
0.0
 40
5.0
 41
0.0
 46
0.0
 71
     5
 72
     1
  1
\A1;%%c45
  7
ＭＳ ゴシック
 73
     1
 44
1.0
  0
POINT
  5
5BE4
330
5BDB
100
AcDbEntity
  8
Defpoints
 62
     0
100
AcDbPoint
 10
194.9711600923934
 20
416.5628796713896
 30
0.0
  0
POINT
  5
5BE5
330
5BDB
100
AcDbEntity
  8
Defpoints
 62
     0
100
AcDbPoint
 10
239.9711600897476
 20
416.5628796713896
 30
0.0
  0
POINT
  5
5BE6
330
5BDB
100
AcDbEntity
  8
Defpoints
 62
     0
100
AcDbPoint
 10
239.9711600897476
 20
466.6901499928833
 30
0.0
  0
ENDBLK
  5
5BDD
330
5BDB
100
AcDbEntity
  8
0
100
AcDbBlockEnd
  0
BLOCK
  5
5BEB
330
5BEA
100
AcDbEntity
  8
0
100
AcDbBlockBegin
  2
*D15
 70
     1
 10
0.0
 20
0.0
 30
0.0
  3
*D15
  1

  0
LINE
  5
5BED
330
5BEA
100
AcDbEntity
  8
DIM
 62
     0
370
    -2
100
AcDbLine
 10
194.2093795889686
 20
452.9940669217325
 30
0.0
 11
194.2093795889686
 21
454.7437008326614
 31
0.0
  0
LINE
  5
5BEE
330
5BEA
100
AcDbEntity
  8
DIM
 62
     0
370
    -2
100
AcDbLine
 10
203.3112851013296
 20
452.9940669217325
 30
0.0
 11
203.3112851013296
 21
454.7437008326614
 31
0.0
  0
LINE
  5
5BEF
330
5BEA
100
AcDbEntity
  8
DIM
 62
     0
370
    -2
100
AcDbLine
 10
192.2093795889686
 20
454.7437008326614
 30
0.0
 11
190.2093795889686
 21
454.7437008326614
 31
0.0
  0
LINE
  5
5BF0
330
5BEA
100
AcDbEntity
  8
DIM
 62
     0
370
    -2
100
AcDbLine
 10
205.3112851013296
 20
454.7437008326614
 30
0.0
 11
207.3112851013296
 21
454.7437008326614
 31
0.0
  0
INSERT
  5
5BF1
330
5BEA
100
AcDbEntity
  8
DIM
 62
     0
370
    -2
100
AcDbBlockReference
  2
_DOT
 10
194.2093795889686
 20
454.7437008326614
 30
0.0
 41
2.0
 42
2.0
 43
2.0
  0
INSERT
  5
5BF2
330
5BEA
100
AcDbEntity
  8
DIM
 62
     0
370
    -2
100
AcDbBlockReference
  2
_DOT
 10
203.3112851013296
 20
454.7437008326614
 30
0.0
 41
2.0
 42
2.0
 43
2.0
 50
180.0
  0
MTEXT
  5
5BF3
330
5BEA
100
AcDbEntity
  8
DIM
 62
     0
100
AcDbMText
 10
198.7603323451491
 20
460.2437008326614
 30
0.0
 40
5.0
 41
0.0
 46
0.0
 71
     5
 72
     1
  1
\A1;9
  7
ＭＳ ゴシック
 73
     1
 44
1.0
  0
POINT
  5
5BF4
330
5BEA
100
AcDbEntity
  8
Defpoints
 62
     0
100
AcDbPoint
 10
194.2093795889686
 20
447.9940669217325
 30
0.0
  0
POINT
  5
5BF5
330
5BEA
100
AcDbEntity
  8
Defpoints
 62
     0
100
AcDbPoint
 10
203.3112851013296
 20
447.9940669217325
 30
0.0
  0
POINT
  5
5BF6
330
5BEA
100
AcDbEntity
  8
Defpoints
 62
     0
100
AcDbPoint
 10
203.3112851013296
 20
454.7437008326614
 30
0.0
  0
ENDBLK
  5
5BEC
330
5BEA
100
AcDbEntity
  8
0
100
AcDbBlockEnd
  0
BLOCK
  5
5BF9
330
5BF8
100
AcDbEntity
  8
0
100
AcDbBlockBegin
  2
*D16
 70
     1
 10
0.0
 20
0.0
 30
0.0
  3
*D16
  1

  0
LINE
  5
5BFB
330
5BF8
100
AcDbEntity
  8
DIM
 62
     0
370
    -2
100
AcDbLine
 10
212.428235459769
 20
443.6070360936916
 30
0.0
 11
212.428235459769
 21
452.5306137489649
 31
0.0
  0
LINE
  5
5BFC
330
5BF8
100
AcDbEntity
  8
DIM
 62
     0
370
    -2
100
AcDbLine
 10
222.428235459769
 20
443.6070360936916
 30
0.0
 11
222.428235459769
 21
452.5306137489649
 31
0.0
  0
LINE
  5
5BFD
330
5BF8
100
AcDbEntity
  8
DIM
 62
     0
370
    -2
100
AcDbLine
 10
214.428235459769
 20
452.5306137489649
 30
0.0
 11
220.428235459769
 21
452.5306137489649
 31
0.0
  0
INSERT
  5
5BFE
330
5BF8
100
AcDbEntity
  8
DIM
 62
     0
370
    -2
100
AcDbBlockReference
  2
_DOT
 10
212.428235459769
 20
452.5306137489649
 30
0.0
 41
2.0
 42
2.0
 43
2.0
 50
180.0
  0
INSERT
  5
5BFF
330
5BF8
100
AcDbEntity
  8
DIM
 62
     0
370
    -2
100
AcDbBlockReference
  2
_DOT
 10
222.428235459769
 20
452.5306137489649
 30
0.0
 41
2.0
 42
2.0
 43
2.0
  0
MTEXT
  5
5C00
330
5BF8
100
AcDbEntity
  8
DIM
 62
     0
100
AcDbMText
 10
217.428235459769
 20
458.0306137489649
 30
0.0
 40
5.0
 41
0.0
 46
0.0
 71
     5
 72
     1
  1
\A1;%%c10
  7
ＭＳ ゴシック
 73
     1
 44
1.0
  0
POINT
  5
5C01
330
5BF8
100
AcDbEntity
  8
Defpoints
 62
     0
100
AcDbPoint
 10
212.428235459769
 20
438.6070360936916
 30
0.0
  0
POINT
  5
5C02
330
5BF8
100
AcDbEntity
  8
Defpoints
 62
     0
100
AcDbPoint
 10
222.428235459769
 20
438.6070360936916
 30
0.0
  0
POINT
  5
5C03
330
5BF8
100
AcDbEntity
  8
Defpoints
 62
     0
100
AcDbPoint
 10
222.428235459769
 20
452.5306137489649
 30
0.0
  0
ENDBLK
  5
5BFA
330
5BF8
100
AcDbEntity
  8
0
100
AcDbBlockEnd
  0
BLOCK
  5
5C0C
330
5C0B
100
AcDbEntity
  8
0
100
AcDbBlockBegin
  2
*D17
 70
     1
 10
0.0
 20
0.0
 30
0.0
  3
*D17
  1

  0
LINE
  5
5C0E
330
5C0B
100
AcDbEntity
  8
DIM
 62
     0
370
    -2
100
AcDbLine
 10
201.8246522560499
 20
439.0840669217325
 30
0.0
 11
130.9212370363144
 21
439.0840669217325
 31
0.0
  0
LINE
  5
5C0F
330
5C0B
100
AcDbEntity
  8
DIM
 62
     0
370
    -2
100
AcDbLine
 10
149.2322042783982
 20
403.4395304404144
 30
0.0
 11
130.9212370363144
 21
403.4395304404144
 31
0.0
  0
LINE
  5
5C10
330
5C0B
100
AcDbEntity
  8
DIM
 62
     0
370
    -2
100
AcDbLine
 10
130.9212370363144
 20
437.0840669217325
 30
0.0
 11
130.9212370363144
 21
405.4395304404144
 31
0.0
  0
INSERT
  5
5C11
330
5C0B
100
AcDbEntity
  8
DIM
 62
     0
370
    -2
100
AcDbBlockReference
  2
_DOT
 10
130.9212370363144
 20
439.0840669217325
 30
0.0
 41
2.0
 42
2.0
 43
2.0
 50
90.0
  0
INSERT
  5
5C12
330
5C0B
100
AcDbEntity
  8
DIM
 62
     0
370
    -2
100
AcDbBlockReference
  2
_DOT
 10
130.9212370363144
 20
403.4395304404144
 30
0.0
 41
2.0
 42
2.0
 43
2.0
 50
270.0
  0
MTEXT
  5
5C13
330
5C0B
100
AcDbEntity
  8
DIM
 62
     0
100
AcDbMText
 10
125.4212370363144
 20
421.2617986810735
 30
0.0
 40
5.0
 41
0.0
 46
0.0
 71
     5
 72
     1
  1
\A1;36
  7
ＭＳ ゴシック
 11
0.0
 21
1.0
 31
0.0
 73
     1
 44
1.0
  0
POINT
  5
5C14
330
5C0B
100
AcDbEntity
  8
Defpoints
 62
     0
100
AcDbPoint
 10
206.8246522560499
 20
439.0840669217325
 30
0.0
  0
POINT
  5
5C15
330
5C0B
100
AcDbEntity
  8
Defpoints
 62
     0
100
AcDbPoint
 10
154.2322042783982
 20
403.4395304404144
 30
0.0
  0
POINT
  5
5C16
330
5C0B
100
AcDbEntity
  8
Defpoints
 62
     0
100
AcDbPoint
 10
130.9212370363144
 20
403.4395304404144
 30
0.0
  0
ENDBLK
  5
5C0D
330
5C0B
100
AcDbEntity
  8
0
100
AcDbBlockEnd
  0
BLOCK
  5
5C1B
330
5C1A
100
AcDbEntity
  8
0
100
AcDbBlockBegin
  2
*D18
 70
     1
 10
0.0
 20
0.0
 30
0.0
  3
*D18
  1

  0
LINE
  5
5C1D
330
5C1A
100
AcDbEntity
  8
DIM
 62
     0
370
    -2
100
AcDbLine
 10
150.2204308857979
 20
362.0375736365159
 30
0.0
 11
130.9212370363144
 21
362.0375736365159
 31
0.0
  0
LINE
  5
5C1E
330
5C1A
100
AcDbEntity
  8
DIM
 62
     0
370
    -2
100
AcDbLine
 10
149.2322042783982
 20
403.4395304404144
 30
0.0
 11
130.9212370363144
 21
403.4395304404144
 31
0.0
  0
LINE
  5
5C1F
330
5C1A
100
AcDbEntity
  8
DIM
 62
     0
370
    -2
100
AcDbLine
 10
130.9212370363144
 20
364.0375736365159
 30
0.0
 11
130.9212370363144
 21
401.4395304404144
 31
0.0
  0
INSERT
  5
5C20
330
5C1A
100
AcDbEntity
  8
DIM
 62
     0
370
    -2
100
AcDbBlockReference
  2
_DOT
 10
130.9212370363144
 20
362.0375736365159
 30
0.0
 41
2.0
 42
2.0
 43
2.0
 50
270.0
  0
INSERT
  5
5C21
330
5C1A
100
AcDbEntity
  8
DIM
 62
     0
370
    -2
100
AcDbBlockReference
  2
_DOT
 10
130.9212370363144
 20
403.4395304404144
 30
0.0
 41
2.0
 42
2.0
 43
2.0
 50
90.0
  0
MTEXT
  5
5C22
330
5C1A
100
AcDbEntity
  8
DIM
 62
     0
100
AcDbMText
 10
125.4212370363144
 20
382.7385520384652
 30
0.0
 40
5.0
 41
0.0
 46
0.0
 71
     5
 72
     1
  1
\A1;　
  7
ＭＳ ゴシック
 11
0.0
 21
1.0
 31
0.0
 73
     1
 44
1.0
  0
POINT
  5
5C23
330
5C1A
100
AcDbEntity
  8
Defpoints
 62
     0
100
AcDbPoint
 10
155.2204308857979
 20
362.0375736365159
 30
0.0
  0
POINT
  5
5C24
330
5C1A
100
AcDbEntity
  8
Defpoints
 62
     0
100
AcDbPoint
 10
154.2322042783982
 20
403.4395304404144
 30
0.0
  0
POINT
  5
5C25
330
5C1A
100
AcDbEntity
  8
Defpoints
 62
     0
100
AcDbPoint
 10
130.9212370363144
 20
403.4395304404144
 30
0.0
  0
ENDBLK
  5
5C1C
330
5C1A
100
AcDbEntity
  8
0
100
AcDbBlockEnd
  0
ENDSEC
  0
SECTION
  2
ENTITIES
  0
MTEXT
  5
177
330
A
100
AcDbEntity
  8
TEMPLATE
390
1D
100
AcDbMText
 10
15.84042890954615
 20
68.74635032628565
 30
0.0
 40
3.257682291666665
 41
0.0
 46
0.0
 71
     1
 72
     1
  1
品名
  7
ＭＳ ゴシック
 73
     1
 44
0.7828267384257843
  0
MTEXT
  5
178
330
A
100
AcDbEntity
  8
TEMPLATE
390
1D
100
AcDbMText
 10
15.84042890954615
 20
51.7463503262856
 30
0.0
 40
3.257682291666665
 41
0.0
 46
0.0
 71
     1
 72
     1
  1
仕様
  7
ＭＳ ゴシック
 73
     1
 44
0.7828267384257843
  0
LINE
  5
179
330
A
100
AcDbEntity
  8
TEMPLATE
390
1D
100
AcDbLine
 10
404.4404289094496
 20
53.42933470128568
 30
0.0
 11
14.44042890944975
 21
53.42933470128568
 31
0.0
  0
LWPOLYLINE
  5
17A
330
A
100
AcDbEntity
  8
TEMPLATE
390
1D
100
AcDbPolyline
 90
        5
 70
   128
 43
0.0
 10
404.4404289094496
 20
579.4293347012853
 10
14.44042890944975
 20
579.4293347012853
 10
14.44042890944975
 20
19.42933470128565
 10
404.4404289094496
 20
19.42933470128565
 10
404.4404289094496
 20
579.4293347012853
  0
LINE
  5
17B
330
A
100
AcDbEntity
  8
TEMPLATE
390
1D
100
AcDbLine
 10
404.4404289094496
 20
70.42933470128564
 30
0.0
 11
14.44042890944975
 21
70.42933470128564
 31
0.0
  0
LINE
  5
17C
330
A
100
AcDbEntity
  8
TEMPLATE
390
1D
100
AcDbLine
 10
404.4404289095464
 20
36.42933470128565
 30
0.0
 11
253.840428909546
 21
36.42933470128565
 31
0.0
  0
MTEXT
  5
17E
330
A
100
AcDbEntity
  8
TEMPLATE
390
1D
100
AcDbMText
 10
259.8147101599982
 20
30.44725580662403
 30
0.0
 40
4.8865234375
 41
0.0
 46
0.0
 71
     1
 72
     1
  1
大洋金物株式会社 ティーフォルム事業部
  7
ＭＳ ゴシック
 73
     1
 44
0.7828267384257843
  0
MTEXT
  5
180
330
A
100
AcDbEntity
  8
TEMPLATE
390
1D
100
AcDbMText
 10
366.240428909598
 20
46.02985813878564
 30
0.0
 40
4.8865234375
 41
0.0
 46
4.8865234375
 71
     1
 72
     1
  1
{1:2}
  7
ＭＳ ゴシック
 73
     1
 44
0.7828267384257843
1001
ACAD
1000
ACAD_MTEXT_DEFINED_HEIGHT_BEGIN
1070
    46
1040
4.8865234375
1000
ACAD_MTEXT_DEFINED_HEIGHT_END
  0
MTEXT
  5
181
330
A
100
AcDbEntity
  8
TEMPLATE
390
1D
100
AcDbMText
 10
355.640428909598
 20
51.7463503262856
 30
0.0
 40
3.257682291666665
 41
0.0
 46
0.0
 71
     1
 72
     1
  1
縮尺
  7
ＭＳ ゴシック
 73
     1
 44
0.7828267384257843
  0
LINE
  5
182
330
A
100
AcDbEntity
  8
TEMPLATE
390
1D
100
AcDbLine
 10
354.240428909598
 20
36.42933470128565
 30
0.0
 11
354.240428909598
 21
53.42933470128568
 31
0.0
  0
MTEXT
  5
183
330
A
100
AcDbEntity
  8
TEMPLATE
390
1D
100
AcDbMText
 10
305.440428909598
 20
51.7463503262856
 30
0.0
 40
3.257682291666665
 41
0.0
 46
0.0
 71
     1
 72
     1
  1
容量
  7
ＭＳ ゴシック
 73
     1
 44
0.7828267384257843
  0
LINE
  5
184
330
A
100
AcDbEntity
  8
TEMPLATE
390
1D
100
AcDbLine
 10
304.040428909598
 20
36.42933470128565
 30
0.0
 11
304.040428909598
 21
53.42933470128568
 31
0.0
  0
MTEXT
  5
185
330
A
100
AcDbEntity
  8
TEMPLATE
390
1D
100
AcDbMText
 10
255.240428909598
 20
68.74635032628565
 30
0.0
 40
3.257682291666665
 41
0.0
 46
0.0
 71
     1
 72
     1
  1
品番
  7
ＭＳ ゴシック
 73
     1
 44
0.7828267384257843
  0
MTEXT
  5
186
330
A
100
AcDbEntity
  8
TEMPLATE
390
1D
100
AcDbMText
 10
255.240428909598
 20
51.7463503262856
 30
0.0
 40
3.257682291666665
 41
0.0
 46
0.0
 71
     1
 72
     1
  1
重量
  7
ＭＳ ゴシック
 73
     1
 44
0.7828267384257843
  0
MTEXT
  5
187
330
A
100
AcDbEntity
  8
TEMPLATE
390
1D
100
AcDbMText
 10
265.840428909598
 20
63.02985813878564
 30
0.0
 40
4.8865234375
 41
0.0
 46
4.8865234375
 71
     1
 72
     1
  1
{ARN73-9925}
  7
ＭＳ ゴシック
 73
     1
 44
0.7828267384257843
1001
ACAD
1000
ACAD_MTEXT_DEFINED_HEIGHT_BEGIN
1070
    46
1040
4.8865234375
1000
ACAD_MTEXT_DEFINED_HEIGHT_END
  0
LINE
  5
188
330
A
100
AcDbEntity
  8
TEMPLATE
390
1D
100
AcDbLine
 10
253.840428909598
 20
19.42933470128565
 30
0.0
 11
253.840428909598
 21
70.42933470128564
 31
0.0
  0
INSERT
  5
68C
330
A
100
AcDbEntity
  8
TEMPLATE
100
AcDbBlockReference
  2
block 2
 10
367.7097207081031
 20
3.349230605734547
 30
0.0
 41
0.1524
 42
0.1524
 43
0.1524
  0
LWPOLYLINE
  5
D69
330
A
100
AcDbEntity
  8
BORDER
100
AcDbPolyline
 90
        4
 70
     1
 43
0.0
 10
0.0
 20
0.0
 10
0.0
 20
594.0
 10
420.0
 20
594.0
 10
420.0
 20
0.0
  0
INSERT
  5
1343
330
A
100
AcDbEntity
  8
TEMPLATE
100
AcDbBlockReference
  2
block 2
 10
838.6973883465873
 20
9.774128564918277
 30
0.0
 41
0.1524
 42
0.1524
 43
0.1524
  0
HATCH
  5
3C64
102
{ACAD_REACTORS
330
3C75
102
}
330
A
100
AcDbEntity
  8
TEMPLATE
100
AcDbHatch
 10
0.0
 20
0.0
 30
0.0
210
0.0
220
0.0
230
1.0
  2
SOLID
 70
     1
 71
     1
 91
        6
 92
        1
 93
        8
 72
     1
 10
386.9584116981973
 20
30.78695932253559
 11
386.9584116981973
 21
29.60507779640349
 72
     1
 10
386.9584116981973
 20
29.60507779640349
 11
385.086293388135
 21
29.60507779640349
 72
     1
 10
385.086293388135
 20
29.60507779640349
 11
385.086293388135
 21
24.78695932282479
 72
     1
 10
385.086293388135
 20
24.78695932282479
 11
383.4397707574798
 21
24.78695932282479
 72
     1
 10
383.4397707574798
 20
24.78695932282479
 11
383.4397707574798
 21
29.60507779640349
 72
     1
 10
383.4397707574798
 20
29.60507779640349
 11
381.6008304705712
 21
29.60507779640349
 72
     1
 10
381.6008304705712
 20
29.60507779640349
 11
381.6008304705712
 21
30.78695932253559
 72
     1
 10
381.6008304705712
 20
30.78695932253559
 11
386.9584116981973
 21
30.78695932253559
 97
        1
330
3C65
 92
        1
 93
        1
 72
     4
 94
        3
 73
     0
 74
     1
 95
       56
 96
       52
 40
0.0
 40
0.0
 40
0.0
 40
0.0
 40
1.0
 40
1.0
 40
1.0
 40
2.0
 40
2.0
 40
2.0
 40
3.0
 40
3.0
 40
3.0
 40
4.0
 40
4.0
 40
4.0
 40
5.0
 40
5.0
 40
5.0
 40
6.0
 40
6.0
 40
6.0
 40
7.0
 40
7.0
 40
7.0
 40
8.0
 40
8.0
 40
8.0
 40
9.0
 40
9.0
 40
9.0
 40
10.0
 40
10.0
 40
10.0
 40
11.0
 40
11.0
 40
11.0
 40
12.0
 40
12.0
 40
12.0
 40
13.0
 40
13.0
 40
13.0
 40
14.0
 40
14.0
 40
14.0
 40
15.0
 40
15.0
 40
15.0
 40
16.0
 40
16.0
 40
16.0
 40
17.0
 40
17.0
 40
17.0
 40
17.0
 10
389.4668487850558
 20
30.64408553045313
 10
389.6976220214394
 20
30.70904304125516
 10
389.9955398401064
 20
30.65470844907718
 10
389.9955398401064
 20
30.65470844907718
 10
389.9955398401064
 20
30.65470844907718
 10
389.85241312139
 20
30.22519439059248
 10
389.85241312139
 20
30.22519439059248
 10
389.85241312139
 20
30.22519439059248
 10
389.5599406643706
 20
30.29287458221835
 10
389.3343598630008
 20
30.1149927683958
 10
389.1590668276665
 20
29.97588311974736
 10
389.0455027690426
 20
29.60625316134929
 10
389.0019398758616
 20
29.46571522112114
 10
389.0019398758616
 20
29.46571522112114
 10
388.8077219770962
 20
28.86958202304137
 10
388.8077219770962
 20
28.86958202304137
 10
388.8077219770962
 20
28.86958202304137
 10
389.4445466071603
 20
28.86958202304137
 10
389.4445466071603
 20
28.86958202304137
 10
389.4445466071603
 20
28.86958202304137
 10
389.34550351293
 20
28.49438767869736
 10
389.34550351293
 20
28.49438767869736
 10
389.34550351293
 20
28.49438767869736
 10
388.7034864478522
 20
28.49438767869736
 10
388.7034864478522
 20
28.49438767869736
 10
388.7034864478522
 20
28.49438767869736
 10
387.5547978229109
 20
24.78695932282479
 10
387.5547978229109
 20
24.78695932282479
 10
387.5547978229109
 20
24.78695932282479
 10
387.1951510275336
 20
24.78695932282479
 10
387.1951510275336
 20
24.78695932282479
 10
387.1951510275336
 20
24.78695932282479
 10
388.3448811150849
 20
28.49438767869736
 10
388.3448811150849
 20
28.49438767869736
 10
388.3448811150849
 20
28.49438767869736
 10
387.8711346517413
 20
28.49438767869736
 10
387.8711346517413
 20
28.49438767869736
 10
387.8711346517413
 20
28.49438767869736
 10
387.9704455506427
 20
28.86958202304137
 10
387.9704455506427
 20
28.86958202304137
 10
387.9704455506427
 20
28.86958202304137
 10
388.4491166443289
 20
28.86958202304137
 10
388.4491166443289
 20
28.86958202304137
 10
388.4491166443289
 20
28.86958202304137
 10
388.6184287086733
 20
29.38948015805433
 10
388.6184287086733
 20
29.38948015805433
 10
388.7553364078029
 20
29.82536201649855
 10
388.8715041229524
 20
30.059378665011
 10
388.971082826525
 20
30.23581730921654
 10
389.0696051894502
 20
30.41240473379499
 10
389.2645967461546
 20
30.58586777054282
 10
389.4668487850558
 20
30.64408553045313
 97
        1
330
3C70
 92
        1
 93
        1
 72
     4
 94
        3
 73
     0
 74
     1
 95
       32
 96
       28
 40
0.0
 40
0.0
 40
0.0
 40
0.0
 40
1.0
 40
1.0
 40
1.0
 40
2.0
 40
2.0
 40
2.0
 40
3.0
 40
3.0
 40
3.0
 40
4.0
 40
4.0
 40
4.0
 40
5.0
 40
5.0
 40
5.0
 40
6.0
 40
6.0
 40
6.0
 40
7.0
 40
7.0
 40
7.0
 40
8.0
 40
8.0
 40
8.0
 40
9.0
 40
9.0
 40
9.0
 40
9.0
 10
390.3419600603343
 20
28.64284073476305
 10
390.1254548617105
 20
28.36279143887966
 10
389.9587315758544
 20
28.11075748721071
 10
389.6888142233646
 20
27.31860614785359
 10
389.4406634394279
 20
26.59401597582401
 10
389.2827479516467
 20
26.06685735861421
 10
389.2588984578731
 20
25.42484029353638
 10
389.240747252381
 20
24.94707676012474
 10
389.5316723935223
 20
24.78695932282479
 10
389.9582257225866
 20
24.78695932282479
 10
390.1420587513246
 20
24.78695932282479
 10
390.6059559539832
 20
24.79865346013363
 10
390.9363078939394
 20
25.20702582763122
 10
391.1675721055534
 20
25.49393389870466
 10
391.38071486775
 20
25.79134586410385
 10
391.6664624519149
 20
26.76695828126675
 10
391.9042432438614
 20
27.58257228542799
 10
392.068883604497
 20
28.10971602460051
 10
392.056713369995
 20
28.40985067082352
 10
392.056713369995
 20
28.40985067082352
 10
392.056713369995
 20
28.40985067082352
 10
392.056713369995
 20
28.40985067082352
 10
391.9791690396468
 20
28.91055613773418
 10
391.615639076537
 20
29.01635386089345
 10
391.4079416759881
 20
29.01635386089345
 10
391.2033686632698
 20
29.01635386089345
 10
390.6552022574085
 20
29.05174871160303
 10
390.3419600603343
 20
28.64284073476305
 97
        1
330
3C73
 92
        1
 93
        1
 72
     4
 94
        3
 73
     0
 74
     1
 95
       38
 96
       34
 40
0.0
 40
0.0
 40
0.0
 40
0.0
 40
1.0
 40
1.0
 40
1.0
 40
2.0
 40
2.0
 40
2.0
 40
3.0
 40
3.0
 40
3.0
 40
4.0
 40
4.0
 40
4.0
 40
5.0
 40
5.0
 40
5.0
 40
6.0
 40
6.0
 40
6.0
 40
7.0
 40
7.0
 40
7.0
 40
8.0
 40
8.0
 40
8.0
 40
9.0
 40
9.0
 40
9.0
 40
10.0
 40
10.0
 40
10.0
 40
11.0
 40
11.0
 40
11.0
 40
11.0
 10
393.3716045494872
 20
28.85519496098328
 10
393.3716045494872
 20
28.85519496098328
 10
393.7413535321836
 20
28.85519496098328
 10
393.7413535321836
 20
28.85519496098328
 10
393.7413535321836
 20
28.85519496098328
 10
393.5761775622055
 20
28.32635512555987
 10
393.5761775622055
 20
28.32635512555987
 10
393.7016886847722
 20
28.47480818162555
 10
393.8997748732327
 20
28.67252241915381
 10
394.0698903515905
 20
28.77222014702475
 10
394.3240072284799
 20
28.92067320309043
 10
394.4692168724166
 20
28.94025270016223
 10
394.6289177246725
 20
28.93635465439262
 10
394.6289177246725
 20
28.93635465439262
 10
394.4728471135151
 20
28.43630382112264
 10
394.4728471135151
 20
28.43630382112264
 10
394.3712003627593
 20
28.47934598299858
 10
394.057958165685
 20
28.39741263165024
 10
393.8782612313133
 20
28.26815224368685
 10
393.7162096491659
 20
28.15159769956793
 10
393.6041780283826
 20
28.0524207030021
 10
393.4714361796937
 20
27.80309455411968
 10
393.3397060375404
 20
27.55339645430504
 10
393.2357383129677
 20
27.15524529842472
 10
393.0568150365349
 20
26.57765013480655
 10
393.0568150365349
 20
26.57765013480655
 10
392.4980257120495
 20
24.78695932282479
 10
392.4980257120495
 20
24.78695932282479
 10
392.4980257120495
 20
24.78695932282479
 10
392.1391674526484
 20
24.78695932282479
 10
392.1391674526484
 20
24.78695932282479
 10
392.1391674526484
 20
24.78695932282479
 10
393.3716045494872
 20
28.85519496098328
 10
393.3716045494872
 20
28.85519496098328
 97
        1
330
3C71
 92
        1
 93
        1
 72
     4
 94
        3
 73
     0
 74
     1
 95
      104
 96
      100
 40
0.0
 40
0.0
 40
0.0
 40
0.0
 40
1.0
 40
1.0
 40
1.0
 40
2.0
 40
2.0
 40
2.0
 40
3.0
 40
3.0
 40
3.0
 40
4.0
 40
4.0
 40
4.0
 40
5.0
 40
5.0
 40
5.0
 40
6.0
 40
6.0
 40
6.0
 40
7.0
 40
7.0
 40
7.0
 40
8.0
 40
8.0
 40
8.0
 40
9.0
 40
9.0
 40
9.0
 40
10.0
 40
10.0
 40
10.0
 40
11.0
 40
11.0
 40
11.0
 40
12.0
 40
12.0
 40
12.0
 40
13.0
 40
13.0
 40
13.0
 40
14.0
 40
14.0
 40
14.0
 40
15.0
 40
15.0
 40
15.0
 40
16.0
 40
16.0
 40
16.0
 40
17.0
 40
17.0
 40
17.0
 40
18.0
 40
18.0
 40
18.0
 40
19.0
 40
19.0
 40
19.0
 40
20.0
 40
20.0
 40
20.0
 40
21.0
 40
21.0
 40
21.0
 40
22.0
 40
22.0
 40
22.0
 40
23.0
 40
23.0
 40
23.0
 40
24.0
 40
24.0
 40
24.0
 40
25.0
 40
25.0
 40
25.0
 40
26.0
 40
26.0
 40
26.0
 40
27.0
 40
27.0
 40
27.0
 40
28.0
 40
28.0
 40
28.0
 40
29.0
 40
29.0
 40
29.0
 40
30.0
 40
30.0
 40
30.0
 40
31.0
 40
31.0
 40
31.0
 40
32.0
 40
32.0
 40
32.0
 40
33.0
 40
33.0
 40
33.0
 40
33.0
 10
395.4068307823444
 20
28.857396910502
 10
395.4068307823444
 20
28.857396910502
 10
395.7296544354325
 20
28.857396910502
 10
395.7296544354325
 20
28.857396910502
 10
395.7296544354325
 20
28.857396910502
 10
395.5665613906749
 20
28.32805122181077
 10
395.5665613906749
 20
28.32805122181077
 10
395.7081110374387
 20
28.55000178208216
 10
395.8351694758834
 20
28.64892585201409
 10
396.0039756869598
 20
28.77675794839777
 10
396.1732877513042
 20
28.90277492423224
 10
396.3742602789986
 20
28.92845441659237
 10
396.5137567566165
 20
28.92845441659237
 10
396.6864610134627
 20
28.92845441659237
 10
396.8531842993187
 20
28.8943539551269
 10
396.9408159389486
 20
28.70506068670399
 10
397.0079753992694
 20
28.55662250867558
 10
397.0110997871
 20
28.5391110587869
 10
396.9919071189977
 20
28.24610299242514
 10
397.1674382029287
 20
28.54650544331934
 10
397.2970854198616
 20
28.67589973361832
 10
397.5174886642549
 20
28.80022061320189
 10
397.7487826319435
 20
28.92845441659237
 10
397.8836074058529
 20
28.93805075064353
 10
398.0402433824273
 20
28.9149600367716
 10
398.2710017407735
 20
28.88087445334342
 10
398.4182943099307
 20
28.79853939498828
 10
398.4953030309365
 20
28.54832056386854
 10
398.5725795566135
 20
28.29887539068781
 10
398.5308317839817
 20
28.16507720135141
 10
398.4354040528126
 20
27.76796750808128
 10
398.3918411596316
 20
27.58711008680102
 10
398.3288177936771
 20
27.36812025595006
 10
398.2463637110236
 20
27.10754631087745
 10
398.2463637110236
 20
27.10754631087745
 10
397.5174886642549
 20
24.78695932282479
 10
397.5174886642549
 20
24.78695932282479
 10
397.5174886642549
 20
24.78695932282479
 10
397.1383962741413
 20
24.78695932282479
 10
397.1383962741413
 20
24.78695932282479
 10
397.1383962741413
 20
24.78695932282479
 10
397.7765450495241
 20
26.81569873142421
 10
397.7765450495241
 20
26.81569873142421
 10
397.9098225075554
 20
27.24016913526807
 10
398.0000429256735
 20
27.55015304217612
 10
398.0467302066851
 20
27.74450484327716
 10
398.1053199175276
 20
27.98694246089495
 10
398.1286486799962
 20
28.06694166739577
 10
398.1009160184902
 20
28.24339518963862
 10
398.0755043308013
 20
28.4076487213048
 10
397.9925146388055
 20
28.51460693137258
 10
397.8504293826993
 20
28.51460693137258
 10
397.6990007191758
 20
28.51460693137258
 10
397.5763461797686
 20
28.49775011512458
 10
397.4047131416073
 20
28.32532854098695
 10
397.2330503473714
 20
28.15159769956793
 10
397.0912031398618
 20
27.94766444245305
 10
396.9799749330922
 20
27.71312706263549
 10
396.8689847749192
 20
27.47716139123824
 10
396.7564473008682
 20
27.17806820762544
 10
396.6423625109393
 20
26.81569873142421
 10
396.6423625109393
 20
26.81569873142421
 10
396.0039756869598
 20
24.78695932282479
 10
396.0039756869598
 20
24.78695932282479
 10
396.0039756869598
 20
24.78695932282479
 10
395.6474384013758
 20
24.78695932282479
 10
395.6474384013758
 20
24.78695932282479
 10
395.6474384013758
 20
24.78695932282479
 10
396.3773549107547
 20
27.10650484826726
 10
396.3773549107547
 20
27.10650484826726
 10
396.4543636317604
 20
27.35336124295977
 10
396.5122094407385
 20
27.55457181925085
 10
396.5503269722719
 20
27.71183267339138
 10
396.6151357027011
 20
27.98253856185753
 10
396.6332869081932
 20
28.1655979326565
 10
396.5842786533645
 20
28.32805122181077
 10
396.5360440564749
 20
28.48998377965993
 10
396.4512690000045
 20
28.53134472332225
 10
396.3096895971661
 20
28.53134472332225
 10
396.1909331035284
 20
28.53134472332225
 10
396.0750331930502
 20
28.48038744560878
 10
395.9427971976291
 20
28.37899362148695
 10
395.7763119603696
 20
28.25142932977446
 10
395.7096881093912
 20
28.1466730692254
 10
395.6280076846768
 20
28.02220340926895
 10
395.5177911844429
 20
27.85754817059597
 10
395.4661941511259
 20
27.74670679279587
 10
395.3731171498484
 20
27.50348063920177
 10
395.2800103924964
 20
27.25882619402798
 10
395.1918728995987
 20
26.97412007247326
 10
395.1303968495222
 20
26.77719437092129
 10
395.1303968495222
 20
26.77719437092129
 10
394.5042100161195
 20
24.78695932282479
 10
394.5042100161195
 20
24.78695932282479
 10
394.5042100161195
 20
24.78695932282479
 10
394.1308307923247
 20
24.78695932282479
 10
394.1308307923247
 20
24.78695932282479
 10
394.1308307923247
 20
24.78695932282479
 10
395.4068307823444
 20
28.857396910502
 10
395.4068307823444
 20
28.857396910502
 97
        1
330
3C72
 92
       16
 93
        1
 72
     4
 94
        3
 73
     0
 74
     1
 95
       29
 96
       25
 40
0.0
 40
0.0
 40
0.0
 40
0.0
 40
1.0
 40
1.0
 40
1.0
 40
2.0
 40
2.0
 40
2.0
 40
3.0
 40
3.0
 40
3.0
 40
4.0
 40
4.0
 40
4.0
 40
5.0
 40
5.0
 40
5.0
 40
6.0
 40
6.0
 40
6.0
 40
7.0
 40
7.0
 40
7.0
 40
8.0
 40
8.0
 40
8.0
 40
8.0
 10
389.6462927927937
 20
25.54487629838084
 10
389.6447157208412
 20
25.82830290872873
 10
389.7341922370948
 20
26.33186495879882
 10
389.9634032795631
 20
27.00563175545052
 10
390.2756040140271
 20
27.91796788002499
 10
390.4628292352669
 20
28.25142932977446
 10
390.6266661818889
 20
28.41374871659313
 10
390.866024045788
 20
28.65010121695988
 10
391.1878062362659
 20
28.66188462249246
 10
391.2827281141673
 20
28.65010121695988
 10
391.4178206927478
 20
28.6338841563153
 10
391.6086463990114
 20
28.54546398070914
 10
391.6200429755745
 20
28.24779908867604
 10
391.629148334395
 20
27.99304245618328
 10
391.5557400984131
 20
27.51593355641234
 10
391.2987963944389
 20
26.76695828126675
 10
391.0026639402465
 20
25.896622855958
 10
390.824782126424
 20
25.55448751046927
 10
390.6821910170501
 20
25.40537982076289
 10
390.413553175767
 20
25.1258512561846
 10
390.1254548617105
 20
25.15269123545324
 10
390.0829334311396
 20
25.15269123545324
 10
390.0277061567243
 20
25.15269123545324
 10
389.6470664507327
 20
25.21261996965174
 10
389.6462927927937
 20
25.54487629838084
 97
        1
330
3C74
 75
     0
 76
     1
 98
        1
 10
371.9300318427923
 20
14.61939790801677
1001
ACAD
1010
0.0
1020
0.0
1030
0.0
  0
POLYLINE
  5
3C65
102
{ACAD_REACTORS
330
3C64
330
3C75
102
}
330
A
100
AcDbEntity
  8
TEMPLATE
100
AcDb2dPolyline
 66
     1
 10
0.0
 20
0.0
 30
0.0
  0
VERTEX
  5
3C66
330
3C65
100
AcDbEntity
  8
TEMPLATE
100
AcDbVertex
100
AcDb2dVertex
 10
386.9584116981973
 20
30.78695932253559
 30
0.0
  0
VERTEX
  5
3C67
330
3C65
100
AcDbEntity
  8
TEMPLATE
100
AcDbVertex
100
AcDb2dVertex
 10
386.9584116981973
 20
29.60507779640349
 30
0.0
  0
VERTEX
  5
3C68
330
3C65
100
AcDbEntity
  8
TEMPLATE
100
AcDbVertex
100
AcDb2dVertex
 10
385.086293388135
 20
29.60507779640349
 30
0.0
  0
VERTEX
  5
3C69
330
3C65
100
AcDbEntity
  8
TEMPLATE
100
AcDbVertex
100
AcDb2dVertex
 10
385.086293388135
 20
24.78695932282479
 30
0.0
  0
VERTEX
  5
3C6A
330
3C65
100
AcDbEntity
  8
TEMPLATE
100
AcDbVertex
100
AcDb2dVertex
 10
383.4397707574798
 20
24.78695932282479
 30
0.0
  0
VERTEX
  5
3C6B
330
3C65
100
AcDbEntity
  8
TEMPLATE
100
AcDbVertex
100
AcDb2dVertex
 10
383.4397707574798
 20
29.60507779640349
 30
0.0
  0
VERTEX
  5
3C6C
330
3C65
100
AcDbEntity
  8
TEMPLATE
100
AcDbVertex
100
AcDb2dVertex
 10
381.6008304705712
 20
29.60507779640349
 30
0.0
  0
VERTEX
  5
3C6D
330
3C65
100
AcDbEntity
  8
TEMPLATE
100
AcDbVertex
100
AcDb2dVertex
 10
381.6008304705712
 20
30.78695932253559
 30
0.0
  0
VERTEX
  5
3C6E
330
3C65
100
AcDbEntity
  8
TEMPLATE
100
AcDbVertex
100
AcDb2dVertex
 10
386.9584116981973
 20
30.78695932253559
 30
0.0
  0
SEQEND
  5
3C6F
330
3C65
100
AcDbEntity
  8
TEMPLATE
  0
SPLINE
  5
3C70
102
{ACAD_REACTORS
330
3C64
330
3C75
102
}
330
A
100
AcDbEntity
  8
TEMPLATE
100
AcDbSpline
210
0.0
220
0.0
230
1.0
 70
    11
 71
     3
 72
    56
 73
    52
 74
     0
 42
0.000000001
 43
0.0000000001
 40
0.0
 40
0.0
 40
0.0
 40
0.0
 40
1.0
 40
1.0
 40
1.0
 40
2.0
 40
2.0
 40
2.0
 40
3.0
 40
3.0
 40
3.0
 40
4.0
 40
4.0
 40
4.0
 40
5.0
 40
5.0
 40
5.0
 40
6.0
 40
6.0
 40
6.0
 40
7.0
 40
7.0
 40
7.0
 40
8.0
 40
8.0
 40
8.0
 40
9.0
 40
9.0
 40
9.0
 40
10.0
 40
10.0
 40
10.0
 40
11.0
 40
11.0
 40
11.0
 40
12.0
 40
12.0
 40
12.0
 40
13.0
 40
13.0
 40
13.0
 40
14.0
 40
14.0
 40
14.0
 40
15.0
 40
15.0
 40
15.0
 40
16.0
 40
16.0
 40
16.0
 40
17.0
 40
17.0
 40
17.0
 40
17.0
 10
389.4668487850558
 20
30.64408553045313
 30
0.0
 10
389.6976220214394
 20
30.70904304125516
 30
0.0
 10
389.9955398401064
 20
30.65470844907718
 30
0.0
 10
389.9955398401064
 20
30.65470844907718
 30
0.0
 10
389.9955398401064
 20
30.65470844907718
 30
0.0
 10
389.85241312139
 20
30.22519439059248
 30
0.0
 10
389.85241312139
 20
30.22519439059248
 30
0.0
 10
389.85241312139
 20
30.22519439059248
 30
0.0
 10
389.5599406643706
 20
30.29287458221835
 30
0.0
 10
389.3343598630008
 20
30.1149927683958
 30
0.0
 10
389.1590668276665
 20
29.97588311974736
 30
0.0
 10
389.0455027690426
 20
29.60625316134929
 30
0.0
 10
389.0019398758616
 20
29.46571522112114
 30
0.0
 10
389.0019398758616
 20
29.46571522112114
 30
0.0
 10
388.8077219770962
 20
28.86958202304137
 30
0.0
 10
388.8077219770962
 20
28.86958202304137
 30
0.0
 10
388.8077219770962
 20
28.86958202304137
 30
0.0
 10
389.4445466071603
 20
28.86958202304137
 30
0.0
 10
389.4445466071603
 20
28.86958202304137
 30
0.0
 10
389.4445466071603
 20
28.86958202304137
 30
0.0
 10
389.34550351293
 20
28.49438767869736
 30
0.0
 10
389.34550351293
 20
28.49438767869736
 30
0.0
 10
389.34550351293
 20
28.49438767869736
 30
0.0
 10
388.7034864478522
 20
28.49438767869736
 30
0.0
 10
388.7034864478522
 20
28.49438767869736
 30
0.0
 10
388.7034864478522
 20
28.49438767869736
 30
0.0
 10
387.5547978229109
 20
24.78695932282479
 30
0.0
 10
387.5547978229109
 20
24.78695932282479
 30
0.0
 10
387.5547978229109
 20
24.78695932282479
 30
0.0
 10
387.1951510275336
 20
24.78695932282479
 30
0.0
 10
387.1951510275336
 20
24.78695932282479
 30
0.0
 10
387.1951510275336
 20
24.78695932282479
 30
0.0
 10
388.3448811150849
 20
28.49438767869736
 30
0.0
 10
388.3448811150849
 20
28.49438767869736
 30
0.0
 10
388.3448811150849
 20
28.49438767869736
 30
0.0
 10
387.8711346517413
 20
28.49438767869736
 30
0.0
 10
387.8711346517413
 20
28.49438767869736
 30
0.0
 10
387.8711346517413
 20
28.49438767869736
 30
0.0
 10
387.9704455506427
 20
28.86958202304137
 30
0.0
 10
387.9704455506427
 20
28.86958202304137
 30
0.0
 10
387.9704455506427
 20
28.86958202304137
 30
0.0
 10
388.4491166443289
 20
28.86958202304137
 30
0.0
 10
388.4491166443289
 20
28.86958202304137
 30
0.0
 10
388.4491166443289
 20
28.86958202304137
 30
0.0
 10
388.6184287086733
 20
29.38948015805433
 30
0.0
 10
388.6184287086733
 20
29.38948015805433
 30
0.0
 10
388.7553364078029
 20
29.82536201649855
 30
0.0
 10
388.8715041229524
 20
30.059378665011
 30
0.0
 10
388.971082826525
 20
30.23581730921654
 30
0.0
 10
389.0696051894502
 20
30.41240473379499
 30
0.0
 10
389.2645967461546
 20
30.58586777054282
 30
0.0
 10
389.4668487850558
 20
30.64408553045313
 30
0.0
  0
SPLINE
  5
3C71
102
{ACAD_REACTORS
330
3C64
330
3C75
102
}
330
A
100
AcDbEntity
  8
TEMPLATE
100
AcDbSpline
210
0.0
220
0.0
230
1.0
 70
    11
 71
     3
 72
    38
 73
    34
 74
     0
 42
0.000000001
 43
0.0000000001
 40
0.0
 40
0.0
 40
0.0
 40
0.0
 40
1.0
 40
1.0
 40
1.0
 40
2.0
 40
2.0
 40
2.0
 40
3.0
 40
3.0
 40
3.0
 40
4.0
 40
4.0
 40
4.0
 40
5.0
 40
5.0
 40
5.0
 40
6.0
 40
6.0
 40
6.0
 40
7.0
 40
7.0
 40
7.0
 40
8.0
 40
8.0
 40
8.0
 40
9.0
 40
9.0
 40
9.0
 40
10.0
 40
10.0
 40
10.0
 40
11.0
 40
11.0
 40
11.0
 40
11.0
 10
393.3716045494872
 20
28.85519496098328
 30
0.0
 10
393.3716045494872
 20
28.85519496098328
 30
0.0
 10
393.7413535321836
 20
28.85519496098328
 30
0.0
 10
393.7413535321836
 20
28.85519496098328
 30
0.0
 10
393.7413535321836
 20
28.85519496098328
 30
0.0
 10
393.5761775622055
 20
28.32635512555987
 30
0.0
 10
393.5761775622055
 20
28.32635512555987
 30
0.0
 10
393.7016886847722
 20
28.47480818162555
 30
0.0
 10
393.8997748732327
 20
28.67252241915381
 30
0.0
 10
394.0698903515905
 20
28.77222014702475
 30
0.0
 10
394.3240072284799
 20
28.92067320309043
 30
0.0
 10
394.4692168724166
 20
28.94025270016223
 30
0.0
 10
394.6289177246725
 20
28.93635465439262
 30
0.0
 10
394.6289177246725
 20
28.93635465439262
 30
0.0
 10
394.4728471135151
 20
28.43630382112264
 30
0.0
 10
394.4728471135151
 20
28.43630382112264
 30
0.0
 10
394.3712003627593
 20
28.47934598299858
 30
0.0
 10
394.057958165685
 20
28.39741263165024
 30
0.0
 10
393.8782612313133
 20
28.26815224368685
 30
0.0
 10
393.7162096491659
 20
28.15159769956793
 30
0.0
 10
393.6041780283826
 20
28.0524207030021
 30
0.0
 10
393.4714361796937
 20
27.80309455411968
 30
0.0
 10
393.3397060375404
 20
27.55339645430504
 30
0.0
 10
393.2357383129677
 20
27.15524529842472
 30
0.0
 10
393.0568150365349
 20
26.57765013480655
 30
0.0
 10
393.0568150365349
 20
26.57765013480655
 30
0.0
 10
392.4980257120495
 20
24.78695932282479
 30
0.0
 10
392.4980257120495
 20
24.78695932282479
 30
0.0
 10
392.4980257120495
 20
24.78695932282479
 30
0.0
 10
392.1391674526484
 20
24.78695932282479
 30
0.0
 10
392.1391674526484
 20
24.78695932282479
 30
0.0
 10
392.1391674526484
 20
24.78695932282479
 30
0.0
 10
393.3716045494872
 20
28.85519496098328
 30
0.0
 10
393.3716045494872
 20
28.85519496098328
 30
0.0
  0
SPLINE
  5
3C72
102
{ACAD_REACTORS
330
3C64
330
3C75
102
}
330
A
100
AcDbEntity
  8
TEMPLATE
100
AcDbSpline
210
0.0
220
0.0
230
1.0
 70
    11
 71
     3
 72
   104
 73
   100
 74
     0
 42
0.000000001
 43
0.0000000001
 40
0.0
 40
0.0
 40
0.0
 40
0.0
 40
1.0
 40
1.0
 40
1.0
 40
2.0
 40
2.0
 40
2.0
 40
3.0
 40
3.0
 40
3.0
 40
4.0
 40
4.0
 40
4.0
 40
5.0
 40
5.0
 40
5.0
 40
6.0
 40
6.0
 40
6.0
 40
7.0
 40
7.0
 40
7.0
 40
8.0
 40
8.0
 40
8.0
 40
9.0
 40
9.0
 40
9.0
 40
10.0
 40
10.0
 40
10.0
 40
11.0
 40
11.0
 40
11.0
 40
12.0
 40
12.0
 40
12.0
 40
13.0
 40
13.0
 40
13.0
 40
14.0
 40
14.0
 40
14.0
 40
15.0
 40
15.0
 40
15.0
 40
16.0
 40
16.0
 40
16.0
 40
17.0
 40
17.0
 40
17.0
 40
18.0
 40
18.0
 40
18.0
 40
19.0
 40
19.0
 40
19.0
 40
20.0
 40
20.0
 40
20.0
 40
21.0
 40
21.0
 40
21.0
 40
22.0
 40
22.0
 40
22.0
 40
23.0
 40
23.0
 40
23.0
 40
24.0
 40
24.0
 40
24.0
 40
25.0
 40
25.0
 40
25.0
 40
26.0
 40
26.0
 40
26.0
 40
27.0
 40
27.0
 40
27.0
 40
28.0
 40
28.0
 40
28.0
 40
29.0
 40
29.0
 40
29.0
 40
30.0
 40
30.0
 40
30.0
 40
31.0
 40
31.0
 40
31.0
 40
32.0
 40
32.0
 40
32.0
 40
33.0
 40
33.0
 40
33.0
 40
33.0
 10
395.4068307823444
 20
28.857396910502
 30
0.0
 10
395.4068307823444
 20
28.857396910502
 30
0.0
 10
395.7296544354325
 20
28.857396910502
 30
0.0
 10
395.7296544354325
 20
28.857396910502
 30
0.0
 10
395.7296544354325
 20
28.857396910502
 30
0.0
 10
395.5665613906749
 20
28.32805122181077
 30
0.0
 10
395.5665613906749
 20
28.32805122181077
 30
0.0
 10
395.7081110374387
 20
28.55000178208216
 30
0.0
 10
395.8351694758834
 20
28.64892585201409
 30
0.0
 10
396.0039756869598
 20
28.77675794839777
 30
0.0
 10
396.1732877513042
 20
28.90277492423224
 30
0.0
 10
396.3742602789986
 20
28.92845441659237
 30
0.0
 10
396.5137567566165
 20
28.92845441659237
 30
0.0
 10
396.6864610134627
 20
28.92845441659237
 30
0.0
 10
396.8531842993187
 20
28.8943539551269
 30
0.0
 10
396.9408159389486
 20
28.70506068670399
 30
0.0
 10
397.0079753992694
 20
28.55662250867558
 30
0.0
 10
397.0110997871
 20
28.5391110587869
 30
0.0
 10
396.9919071189977
 20
28.24610299242514
 30
0.0
 10
397.1674382029287
 20
28.54650544331934
 30
0.0
 10
397.2970854198616
 20
28.67589973361832
 30
0.0
 10
397.5174886642549
 20
28.80022061320189
 30
0.0
 10
397.7487826319435
 20
28.92845441659237
 30
0.0
 10
397.8836074058529
 20
28.93805075064353
 30
0.0
 10
398.0402433824273
 20
28.9149600367716
 30
0.0
 10
398.2710017407735
 20
28.88087445334342
 30
0.0
 10
398.4182943099307
 20
28.79853939498828
 30
0.0
 10
398.4953030309365
 20
28.54832056386854
 30
0.0
 10
398.5725795566135
 20
28.29887539068781
 30
0.0
 10
398.5308317839817
 20
28.16507720135141
 30
0.0
 10
398.4354040528126
 20
27.76796750808128
 30
0.0
 10
398.3918411596316
 20
27.58711008680102
 30
0.0
 10
398.3288177936771
 20
27.36812025595006
 30
0.0
 10
398.2463637110236
 20
27.10754631087745
 30
0.0
 10
398.2463637110236
 20
27.10754631087745
 30
0.0
 10
397.5174886642549
 20
24.78695932282479
 30
0.0
 10
397.5174886642549
 20
24.78695932282479
 30
0.0
 10
397.5174886642549
 20
24.78695932282479
 30
0.0
 10
397.1383962741413
 20
24.78695932282479
 30
0.0
 10
397.1383962741413
 20
24.78695932282479
 30
0.0
 10
397.1383962741413
 20
24.78695932282479
 30
0.0
 10
397.7765450495241
 20
26.81569873142421
 30
0.0
 10
397.7765450495241
 20
26.81569873142421
 30
0.0
 10
397.9098225075554
 20
27.24016913526807
 30
0.0
 10
398.0000429256735
 20
27.55015304217612
 30
0.0
 10
398.0467302066851
 20
27.74450484327716
 30
0.0
 10
398.1053199175276
 20
27.98694246089495
 30
0.0
 10
398.1286486799962
 20
28.06694166739577
 30
0.0
 10
398.1009160184902
 20
28.24339518963862
 30
0.0
 10
398.0755043308013
 20
28.4076487213048
 30
0.0
 10
397.9925146388055
 20
28.51460693137258
 30
0.0
 10
397.8504293826993
 20
28.51460693137258
 30
0.0
 10
397.6990007191758
 20
28.51460693137258
 30
0.0
 10
397.5763461797686
 20
28.49775011512458
 30
0.0
 10
397.4047131416073
 20
28.32532854098695
 30
0.0
 10
397.2330503473714
 20
28.15159769956793
 30
0.0
 10
397.0912031398618
 20
27.94766444245305
 30
0.0
 10
396.9799749330922
 20
27.71312706263549
 30
0.0
 10
396.8689847749192
 20
27.47716139123824
 30
0.0
 10
396.7564473008682
 20
27.17806820762544
 30
0.0
 10
396.6423625109393
 20
26.81569873142421
 30
0.0
 10
396.6423625109393
 20
26.81569873142421
 30
0.0
 10
396.0039756869598
 20
24.78695932282479
 30
0.0
 10
396.0039756869598
 20
24.78695932282479
 30
0.0
 10
396.0039756869598
 20
24.78695932282479
 30
0.0
 10
395.6474384013758
 20
24.78695932282479
 30
0.0
 10
395.6474384013758
 20
24.78695932282479
 30
0.0
 10
395.6474384013758
 20
24.78695932282479
 30
0.0
 10
396.3773549107547
 20
27.10650484826726
 30
0.0
 10
396.3773549107547
 20
27.10650484826726
 30
0.0
 10
396.4543636317604
 20
27.35336124295977
 30
0.0
 10
396.5122094407385
 20
27.55457181925085
 30
0.0
 10
396.5503269722719
 20
27.71183267339138
 30
0.0
 10
396.6151357027011
 20
27.98253856185753
 30
0.0
 10
396.6332869081932
 20
28.1655979326565
 30
0.0
 10
396.5842786533645
 20
28.32805122181077
 30
0.0
 10
396.5360440564749
 20
28.48998377965993
 30
0.0
 10
396.4512690000045
 20
28.53134472332225
 30
0.0
 10
396.3096895971661
 20
28.53134472332225
 30
0.0
 10
396.1909331035284
 20
28.53134472332225
 30
0.0
 10
396.0750331930502
 20
28.48038744560878
 30
0.0
 10
395.9427971976291
 20
28.37899362148695
 30
0.0
 10
395.7763119603696
 20
28.25142932977446
 30
0.0
 10
395.7096881093912
 20
28.1466730692254
 30
0.0
 10
395.6280076846768
 20
28.02220340926895
 30
0.0
 10
395.5177911844429
 20
27.85754817059597
 30
0.0
 10
395.4661941511259
 20
27.74670679279587
 30
0.0
 10
395.3731171498484
 20
27.50348063920177
 30
0.0
 10
395.2800103924964
 20
27.25882619402798
 30
0.0
 10
395.1918728995987
 20
26.97412007247326
 30
0.0
 10
395.1303968495222
 20
26.77719437092129
 30
0.0
 10
395.1303968495222
 20
26.77719437092129
 30
0.0
 10
394.5042100161195
 20
24.78695932282479
 30
0.0
 10
394.5042100161195
 20
24.78695932282479
 30
0.0
 10
394.5042100161195
 20
24.78695932282479
 30
0.0
 10
394.1308307923247
 20
24.78695932282479
 30
0.0
 10
394.1308307923247
 20
24.78695932282479
 30
0.0
 10
394.1308307923247
 20
24.78695932282479
 30
0.0
 10
395.4068307823444
 20
28.857396910502
 30
0.0
 10
395.4068307823444
 20
28.857396910502
 30
0.0
  0
SPLINE
  5
3C73
102
{ACAD_REACTORS
330
3C64
330
3C75
102
}
330
A
100
AcDbEntity
  8
TEMPLATE
100
AcDbSpline
210
0.0
220
0.0
230
1.0
 70
    11
 71
     3
 72
    32
 73
    28
 74
     0
 42
0.000000001
 43
0.0000000001
 40
0.0
 40
0.0
 40
0.0
 40
0.0
 40
1.0
 40
1.0
 40
1.0
 40
2.0
 40
2.0
 40
2.0
 40
3.0
 40
3.0
 40
3.0
 40
4.0
 40
4.0
 40
4.0
 40
5.0
 40
5.0
 40
5.0
 40
6.0
 40
6.0
 40
6.0
 40
7.0
 40
7.0
 40
7.0
 40
8.0
 40
8.0
 40
8.0
 40
9.0
 40
9.0
 40
9.0
 40
9.0
 10
390.3419600603343
 20
28.64284073476305
 30
0.0
 10
390.1254548617105
 20
28.36279143887966
 30
0.0
 10
389.9587315758544
 20
28.11075748721071
 30
0.0
 10
389.6888142233646
 20
27.31860614785359
 30
0.0
 10
389.4406634394279
 20
26.59401597582401
 30
0.0
 10
389.2827479516467
 20
26.06685735861421
 30
0.0
 10
389.2588984578731
 20
25.42484029353638
 30
0.0
 10
389.240747252381
 20
24.94707676012474
 30
0.0
 10
389.5316723935223
 20
24.78695932282479
 30
0.0
 10
389.9582257225866
 20
24.78695932282479
 30
0.0
 10
390.1420587513246
 20
24.78695932282479
 30
0.0
 10
390.6059559539832
 20
24.79865346013363
 30
0.0
 10
390.9363078939394
 20
25.20702582763122
 30
0.0
 10
391.1675721055534
 20
25.49393389870466
 30
0.0
 10
391.38071486775
 20
25.79134586410385
 30
0.0
 10
391.6664624519149
 20
26.76695828126675
 30
0.0
 10
391.9042432438614
 20
27.58257228542799
 30
0.0
 10
392.068883604497
 20
28.10971602460051
 30
0.0
 10
392.056713369995
 20
28.40985067082352
 30
0.0
 10
392.056713369995
 20
28.40985067082352
 30
0.0
 10
392.056713369995
 20
28.40985067082352
 30
0.0
 10
392.056713369995
 20
28.40985067082352
 30
0.0
 10
391.9791690396468
 20
28.91055613773418
 30
0.0
 10
391.615639076537
 20
29.01635386089345
 30
0.0
 10
391.4079416759881
 20
29.01635386089345
 30
0.0
 10
391.2033686632698
 20
29.01635386089345
 30
0.0
 10
390.6552022574085
 20
29.05174871160303
 30
0.0
 10
390.3419600603343
 20
28.64284073476305
 30
0.0
  0
SPLINE
  5
3C74
102
{ACAD_REACTORS
330
3C64
330
3C75
102
}
330
A
100
AcDbEntity
  8
TEMPLATE
100
AcDbSpline
210
0.0
220
0.0
230
1.0
 70
    11
 71
     3
 72
    29
 73
    25
 74
     0
 42
0.000000001
 43
0.0000000001
 40
0.0
 40
0.0
 40
0.0
 40
0.0
 40
1.0
 40
1.0
 40
1.0
 40
2.0
 40
2.0
 40
2.0
 40
3.0
 40
3.0
 40
3.0
 40
4.0
 40
4.0
 40
4.0
 40
5.0
 40
5.0
 40
5.0
 40
6.0
 40
6.0
 40
6.0
 40
7.0
 40
7.0
 40
7.0
 40
8.0
 40
8.0
 40
8.0
 40
8.0
 10
389.6462927927937
 20
25.54487629838084
 30
0.0
 10
389.6447157208412
 20
25.82830290872873
 30
0.0
 10
389.7341922370948
 20
26.33186495879882
 30
0.0
 10
389.9634032795631
 20
27.00563175545052
 30
0.0
 10
390.2756040140271
 20
27.91796788002499
 30
0.0
 10
390.4628292352669
 20
28.25142932977446
 30
0.0
 10
390.6266661818889
 20
28.41374871659313
 30
0.0
 10
390.866024045788
 20
28.65010121695988
 30
0.0
 10
391.1878062362659
 20
28.66188462249246
 30
0.0
 10
391.2827281141673
 20
28.65010121695988
 30
0.0
 10
391.4178206927478
 20
28.6338841563153
 30
0.0
 10
391.6086463990114
 20
28.54546398070914
 30
0.0
 10
391.6200429755745
 20
28.24779908867604
 30
0.0
 10
391.629148334395
 20
27.99304245618328
 30
0.0
 10
391.5557400984131
 20
27.51593355641234
 30
0.0
 10
391.2987963944389
 20
26.76695828126675
 30
0.0
 10
391.0026639402465
 20
25.896622855958
 30
0.0
 10
390.824782126424
 20
25.55448751046927
 30
0.0
 10
390.6821910170501
 20
25.40537982076289
 30
0.0
 10
390.413553175767
 20
25.1258512561846
 30
0.0
 10
390.1254548617105
 20
25.15269123545324
 30
0.0
 10
390.0829334311396
 20
25.15269123545324
 30
0.0
 10
390.0277061567243
 20
25.15269123545324
 30
0.0
 10
389.6470664507327
 20
25.21261996965174
 30
0.0
 10
389.6462927927937
 20
25.54487629838084
 30
0.0
  0
MTEXT
  5
3C9A
330
A
100
AcDbEntity
  8
TEMPLATE
390
1D
100
AcDbMText
 10
26.44042890954615
 20
46.02985813878568
 30
0.0
 40
4.8865234375
 41
0.0
 46
5.4338140625
 71
     1
 72
     1
  1
{ポップアップ排水金具が別途必要です。}
  7
ＭＳ ゴシック
 73
     1
 44
0.7828267384257843
1001
ACAD
1000
ACAD_MTEXT_DEFINED_HEIGHT_BEGIN
1070
    46
1040
5.4338140625
1000
ACAD_MTEXT_DEFINED_HEIGHT_END
  0
MTEXT
  5
3CB5
102
{ACAD_XDICTIONARY
360
3CB7
102
}
330
A
100
AcDbEntity
  8
TEMPLATE
100
AcDbMText
 10
15.00779663219942
 20
17.57619761830519
 30
0.0
 40
4.0
 41
0.0
 46
4.0
 71
     1
 72
     1
  1
{20200403N}
  7
ＭＳ ゴシック
 73
     1
 44
1.0
1001
ACAD
1000
ACAD_MTEXT_DEFINED_HEIGHT_BEGIN
1070
    46
1040
4.0
1000
ACAD_MTEXT_DEFINED_HEIGHT_END
  0
POLYLINE
  5
4C9F
330
A
100
AcDbEntity
  8
MODEL
100
AcDb2dPolyline
 66
     1
 10
0.0
 20
0.0
 30
0.0
  0
VERTEX
  5
4CA0
330
4C9F
100
AcDbEntity
  8
MODEL
100
AcDbVertex
100
AcDb2dVertex
 10
219.0588259333762
 20
139.4498197662307
 30
0.0
  0
VERTEX
  5
4CA1
330
4C9F
100
AcDbEntity
  8
MODEL
100
AcDbVertex
100
AcDb2dVertex
 10
219.4818819503777
 20
139.8308457880578
 30
0.0
  0
VERTEX
  5
4CA2
330
4C9F
100
AcDbEntity
  8
MODEL
100
AcDbVertex
100
AcDb2dVertex
 10
215.4607827399205
 20
139.8308457880578
 30
0.0
  0
SEQEND
  5
4CA3
330
4C9F
100
AcDbEntity
  8
MODEL
  0
POLYLINE
  5
4CA4
330
A
100
AcDbEntity
  8
MODEL
100
AcDb2dPolyline
 66
     1
 10
0.0
 20
0.0
 30
0.0
  0
VERTEX
  5
4CA5
330
4CA4
100
AcDbEntity
  8
MODEL
100
AcDbVertex
100
AcDb2dVertex
 10
219.0588259333762
 20
139.4498197662307
 30
0.0
  0
VERTEX
  5
4CA6
330
4CA4
100
AcDbEntity
  8
MODEL
100
AcDbVertex
100
AcDb2dVertex
 10
215.883838756922
 20
139.4498197662307
 30
0.0
  0
VERTEX
  5
4CA7
330
4CA4
100
AcDbEntity
  8
MODEL
100
AcDbVertex
100
AcDb2dVertex
 10
215.4607827399205
 20
139.8308457880578
 30
0.0
  0
SEQEND
  5
4CA8
330
4CA4
100
AcDbEntity
  8
MODEL
  0
POLYLINE
  5
4CA9
330
A
100
AcDbEntity
  8
MODEL
100
AcDb2dPolyline
 66
     1
 10
0.0
 20
0.0
 30
0.0
  0
VERTEX
  5
4CAA
330
4CA9
100
AcDbEntity
  8
MODEL
100
AcDbVertex
100
AcDb2dVertex
 10
222.0222851013296
 20
410.4668078303137
 30
0.0
  0
VERTEX
  5
4CAB
330
4CA9
100
AcDbEntity
  8
MODEL
100
AcDbVertex
100
AcDb2dVertex
 10
222.0222851013296
 20
439.0840669217325
 30
0.0
  0
VERTEX
  5
4CAC
330
4CA9
100
AcDbEntity
  8
MODEL
100
AcDbVertex
100
AcDb2dVertex
 10
212.9203795889686
 20
439.0840669217325
 30
0.0
  0
SEQEND
  5
4CAD
330
4CA9
100
AcDbEntity
  8
MODEL
  0
POLYLINE
  5
4CAE
330
A
100
AcDbEntity
  8
MODEL
100
AcDb2dPolyline
 66
     1
 10
0.0
 20
0.0
 30
0.0
  0
VERTEX
  5
4CAF
330
4CAE
100
AcDbEntity
  8
MODEL
100
AcDbVertex
100
AcDb2dVertex
 10
212.9203795889686
 20
410.4668078303137
 30
0.0
  0
VERTEX
  5
4CB0
330
4CAE
100
AcDbEntity
  8
MODEL
100
AcDbVertex
100
AcDb2dVertex
 10
212.9203795889686
 20
439.0840669217325
 30
0.0
  0
SEQEND
  5
4CB1
330
4CAE
100
AcDbEntity
  8
MODEL
  0
POLYLINE
  5
4CB2
330
A
100
AcDbEntity
  8
MODEL
100
AcDb2dPolyline
 66
     1
 10
0.0
 20
0.0
 30
0.0
  0
VERTEX
  5
4CB3
330
4CB2
100
AcDbEntity
  8
MODEL
100
AcDbVertex
100
AcDb2dVertex
 10
194.9711600923934
 20
403.4395304404144
 30
0.0
  0
VERTEX
  5
4CB4
330
4CB2
100
AcDbEntity
  8
MODEL
100
AcDbVertex
100
AcDb2dVertex
 10
239.9711600897476
 20
403.4395304404144
 30
0.0
  0
VERTEX
  5
4CB5
330
4CB2
100
AcDbEntity
  8
MODEL
100
AcDbVertex
100
AcDb2dVertex
 10
239.9711600897476
 20
410.4668078303137
 30
0.0
  0
VERTEX
  5
4CB6
330
4CB2
100
AcDbEntity
  8
MODEL
100
AcDbVertex
100
AcDb2dVertex
 10
194.9711600923934
 20
410.4668078303137
 30
0.0
  0
VERTEX
  5
4CB7
330
4CB2
100
AcDbEntity
  8
MODEL
100
AcDbVertex
100
AcDb2dVertex
 10
194.9711600923934
 20
403.4395304404144
 30
0.0
  0
SEQEND
  5
4CB8
330
4CB2
100
AcDbEntity
  8
MODEL
  0
POLYLINE
  5
4CB9
102
{ACAD_REACTORS
330
5C19
102
}
330
A
100
AcDbEntity
  8
MODEL
100
AcDb2dPolyline
 66
     1
 10
0.0
 20
0.0
 30
0.0
  0
VERTEX
  5
4CBA
330
4CB9
100
AcDbEntity
  8
MODEL
100
AcDbVertex
100
AcDb2dVertex
 10
194.9711600923934
 20
362.0375736365159
 30
0.0
  0
VERTEX
  5
4CBB
330
4CB9
100
AcDbEntity
  8
MODEL
100
AcDbVertex
100
AcDb2dVertex
 10
155.2204308857979
 20
362.0375736365159
 30
0.0
  0
SEQEND
  5
4CBC
330
4CB9
100
AcDbEntity
  8
MODEL
  0
POLYLINE
  5
4CBD
330
A
100
AcDbEntity
  8
MODEL
100
AcDb2dPolyline
 66
     1
 10
0.0
 20
0.0
 30
0.0
  0
VERTEX
  5
4CBE
330
4CBD
100
AcDbEntity
  8
MODEL
100
AcDbVertex
100
AcDb2dVertex
 10
239.9711600897476
 20
362.0375736365159
 30
0.0
  0
VERTEX
  5
4CBF
330
4CBD
100
AcDbEntity
  8
MODEL
100
AcDbVertex
100
AcDb2dVertex
 10
279.6798593011687
 20
362.0375736365159
 30
0.0
  0
SEQEND
  5
4CC0
330
4CBD
100
AcDbEntity
  8
MODEL
  0
POLYLINE
  5
4CC1
102
{ACAD_REACTORS
330
5BCB
102
}
330
A
100
AcDbEntity
  8
MODEL
100
AcDb2dPolyline
 66
     1
 10
0.0
 20
0.0
 30
0.0
  0
VERTEX
  5
4CC2
330
4CC1
100
AcDbEntity
  8
MODEL
100
AcDbVertex
100
AcDb2dVertex
 10
239.9711600897476
 20
403.4395304404144
 30
0.0
  0
VERTEX
  5
4CC3
330
4CC1
100
AcDbEntity
  8
MODEL
100
AcDbVertex
100
AcDb2dVertex
 10
279.6798593011687
 20
403.4395304404144
 30
0.0
  0
SEQEND
  5
4CC4
330
4CC1
100
AcDbEntity
  8
MODEL
  0
POLYLINE
  5
4CC5
330
A
100
AcDbEntity
  8
MODEL
100
AcDb2dPolyline
 66
     1
 10
0.0
 20
0.0
 30
0.0
  0
VERTEX
  5
4CC6
330
4CC5
100
AcDbEntity
  8
MODEL
100
AcDbVertex
100
AcDb2dVertex
 10
194.9711600923934
 20
403.4395304404144
 30
0.0
  0
VERTEX
  5
4CC7
330
4CC5
100
AcDbEntity
  8
MODEL
100
AcDbVertex
100
AcDb2dVertex
 10
155.2204308857979
 20
403.4395304404144
 30
0.0
  0
SEQEND
  5
4CC8
330
4CC5
100
AcDbEntity
  8
MODEL
  0
POLYLINE
  5
4CC9
330
A
100
AcDbEntity
  8
MODEL
100
AcDb2dPolyline
 66
     1
 10
0.0
 20
0.0
 30
0.0
  0
VERTEX
  5
4CCA
330
4CC9
100
AcDbEntity
  8
MODEL
100
AcDbVertex
100
AcDb2dVertex
 10
194.9711600923934
 20
359.4554849985468
 30
0.0
  0
VERTEX
  5
4CCB
330
4CC9
100
AcDbEntity
  8
MODEL
100
AcDbVertex
100
AcDb2dVertex
 10
239.9711600897476
 20
359.4554849985468
 30
0.0
  0
SEQEND
  5
4CCC
330
4CC9
100
AcDbEntity
  8
MODEL
  0
POLYLINE
  5
4CCD
330
A
100
AcDbEntity
  8
MODEL
100
AcDb2dPolyline
 66
     1
 10
0.0
 20
0.0
 30
0.0
  0
VERTEX
  5
4CCE
330
4CCD
100
AcDbEntity
  8
MODEL
100
AcDbVertex
100
AcDb2dVertex
 10
194.9711600923934
 20
360.7677165691971
 30
0.0
  0
VERTEX
  5
4CCF
330
4CCD
100
AcDbEntity
  8
MODEL
100
AcDbVertex
100
AcDb2dVertex
 10
239.9711600897476
 20
360.7677165691971
 30
0.0
  0
SEQEND
  5
4CD0
330
4CCD
100
AcDbEntity
  8
MODEL
  0
POLYLINE
  5
4CD1
330
A
100
AcDbEntity
  8
MODEL
100
AcDb2dPolyline
 66
     1
 10
0.0
 20
0.0
 30
0.0
  0
VERTEX
  5
4CD2
330
4CD1
100
AcDbEntity
  8
MODEL
100
AcDbVertex
100
AcDb2dVertex
 10
239.9711600897476
 20
362.0375736365159
 30
0.0
  0
VERTEX
  5
4CD3
330
4CD1
100
AcDbEntity
  8
MODEL
100
AcDbVertex
100
AcDb2dVertex
 10
239.9711600897476
 20
359.4554849985468
 30
0.0
  0
SEQEND
  5
4CD4
330
4CD1
100
AcDbEntity
  8
MODEL
  0
POLYLINE
  5
4CD5
330
A
100
AcDbEntity
  8
MODEL
100
AcDb2dPolyline
 66
     1
 10
0.0
 20
0.0
 30
0.0
  0
VERTEX
  5
4CD6
330
4CD5
100
AcDbEntity
  8
MODEL
100
AcDbVertex
100
AcDb2dVertex
 10
239.9711600897476
 20
362.0375736365159
 30
0.0
  0
VERTEX
  5
4CD7
330
4CD5
100
AcDbEntity
  8
MODEL
100
AcDbVertex
100
AcDb2dVertex
 10
194.9711600923934
 20
362.0375736365159
 30
0.0
  0
VERTEX
  5
4CD8
330
4CD5
100
AcDbEntity
  8
MODEL
100
AcDbVertex
100
AcDb2dVertex
 10
194.9711600923934
 20
359.4554849985468
 30
0.0
  0
SEQEND
  5
4CD9
330
4CD5
100
AcDbEntity
  8
MODEL
  0
POLYLINE
  5
4CDA
330
A
100
AcDbEntity
  8
MODEL
100
AcDb2dPolyline
 66
     1
 10
0.0
 20
0.0
 30
0.0
  0
VERTEX
  5
4CDB
330
4CDA
100
AcDbEntity
  8
MODEL
100
AcDbVertex
100
AcDb2dVertex
 10
231.6740256325295
 20
403.4395304404144
 30
0.0
  0
VERTEX
  5
4CDC
330
4CDA
100
AcDbEntity
  8
MODEL
100
AcDbVertex
100
AcDb2dVertex
 10
231.6740256325295
 20
362.0375736365159
 30
0.0
  0
SEQEND
  5
4CDD
330
4CDA
100
AcDbEntity
  8
MODEL
  0
POLYLINE
  5
4CDE
330
A
100
AcDbEntity
  8
MODEL
100
AcDb2dPolyline
 66
     1
 10
0.0
 20
0.0
 30
0.0
  0
VERTEX
  5
4CDF
330
4CDE
100
AcDbEntity
  8
MODEL
100
AcDbVertex
100
AcDb2dVertex
 10
279.6798593011687
 20
403.4395304404144
 30
0.0
  0
VERTEX
  5
4CE0
330
4CDE
100
AcDbEntity
  8
MODEL
100
AcDbVertex
100
AcDb2dVertex
 10
277.2669241683687
 20
392.8138653489024
 30
0.0
  0
VERTEX
  5
4CE1
330
4CDE
100
AcDbEntity
  8
MODEL
100
AcDbVertex
100
AcDb2dVertex
 10
279.8066383030063
 20
384.0933303665257
 30
0.0
  0
VERTEX
  5
4CE2
330
4CDE
100
AcDbEntity
  8
MODEL
100
AcDbVertex
100
AcDb2dVertex
 10
275.1502660507326
 20
371.9435611877054
 30
0.0
  0
VERTEX
  5
4CE3
330
4CDE
100
AcDbEntity
  8
MODEL
100
AcDbVertex
100
AcDb2dVertex
 10
279.6798593011687
 20
362.0375736365159
 30
0.0
  0
SEQEND
  5
4CE4
330
4CDE
100
AcDbEntity
  8
MODEL
  0
POLYLINE
  5
4CE5
330
A
100
AcDbEntity
  8
MODEL
100
AcDb2dPolyline
 66
     1
 10
0.0
 20
0.0
 30
0.0
  0
VERTEX
  5
4CE6
330
4CE5
100
AcDbEntity
  8
MODEL
100
AcDbVertex
100
AcDb2dVertex
 10
279.6798593011687
 20
403.4395304404144
 30
0.0
  0
VERTEX
  5
4CE7
330
4CE5
100
AcDbEntity
  8
MODEL
100
AcDbVertex
100
AcDb2dVertex
 10
277.2669241683687
 20
392.8138653489024
 30
0.0
  0
VERTEX
  5
4CE8
330
4CE5
100
AcDbEntity
  8
MODEL
100
AcDbVertex
100
AcDb2dVertex
 10
279.8066383030063
 20
384.0933303665257
 30
0.0
  0
VERTEX
  5
4CE9
330
4CE5
100
AcDbEntity
  8
MODEL
100
AcDbVertex
100
AcDb2dVertex
 10
275.1502660507326
 20
371.9435611877054
 30
0.0
  0
VERTEX
  5
4CEA
330
4CE5
100
AcDbEntity
  8
MODEL
100
AcDbVertex
100
AcDb2dVertex
 10
279.6798593011687
 20
362.0375736365159
 30
0.0
  0
SEQEND
  5
4CEB
330
4CE5
100
AcDbEntity
  8
MODEL
  0
POLYLINE
  5
4CEC
330
A
100
AcDbEntity
  8
MODEL
100
AcDb2dPolyline
 66
     1
 10
0.0
 20
0.0
 30
0.0
  0
VERTEX
  5
4CED
330
4CEC
100
AcDbEntity
  8
MODEL
100
AcDbVertex
100
AcDb2dVertex
 10
203.2262645544371
 20
403.4395304404144
 30
0.0
  0
VERTEX
  5
4CEE
330
4CEC
100
AcDbEntity
  8
MODEL
100
AcDbVertex
100
AcDb2dVertex
 10
203.2262645544371
 20
362.0375736365159
 30
0.0
  0
SEQEND
  5
4CEF
330
4CEC
100
AcDbEntity
  8
MODEL
  0
POLYLINE
  5
4CF0
330
A
100
AcDbEntity
  8
MODEL
100
AcDb2dPolyline
 66
     1
 10
0.0
 20
0.0
 30
0.0
  0
VERTEX
  5
4CF1
330
4CF0
100
AcDbEntity
  8
MODEL
100
AcDbVertex
100
AcDb2dVertex
 10
155.2204308857979
 20
403.4395304404144
 30
0.0
  0
VERTEX
  5
4CF2
330
4CF0
100
AcDbEntity
  8
MODEL
100
AcDbVertex
100
AcDb2dVertex
 10
157.6757405219295
 20
392.8138653489024
 30
0.0
  0
VERTEX
  5
4CF3
330
4CF0
100
AcDbEntity
  8
MODEL
100
AcDbVertex
100
AcDb2dVertex
 10
155.0933073758032
 20
384.0933303665257
 30
0.0
  0
VERTEX
  5
4CF4
330
4CF0
100
AcDbEntity
  8
MODEL
100
AcDbVertex
100
AcDb2dVertex
 10
159.7923986395656
 20
371.9435611877054
 30
0.0
  0
VERTEX
  5
4CF5
330
4CF0
100
AcDbEntity
  8
MODEL
100
AcDbVertex
100
AcDb2dVertex
 10
155.2204308857979
 20
362.0375736365159
 30
0.0
  0
SEQEND
  5
4CF6
330
4CF0
100
AcDbEntity
  8
MODEL
  0
POLYLINE
  5
4CF7
330
A
100
AcDbEntity
  8
MODEL
100
AcDb2dPolyline
 66
     1
 10
0.0
 20
0.0
 30
0.0
  0
VERTEX
  5
4CF8
330
4CF7
100
AcDbEntity
  8
MODEL
100
AcDbVertex
100
AcDb2dVertex
 10
224.7735272444679
 20
334.309490098746
 30
0.0
  0
VERTEX
  5
4CF9
330
4CF7
100
AcDbEntity
  8
MODEL
100
AcDbVertex
100
AcDb2dVertex
 10
225.7477963129371
 20
334.690516120573
 30
0.0
  0
SEQEND
  5
4CFA
330
4CF7
100
AcDbEntity
  8
MODEL
  0
POLYLINE
  5
4CFB
330
A
100
AcDbEntity
  8
MODEL
100
AcDb2dPolyline
 66
     1
 10
0.0
 20
0.0
 30
0.0
  0
VERTEX
  5
4CFC
330
4CFB
100
AcDbEntity
  8
MODEL
100
AcDbVertex
100
AcDb2dVertex
 10
224.7735272444679
 20
334.309490098746
 30
0.0
  0
VERTEX
  5
4CFD
330
4CFB
100
AcDbEntity
  8
MODEL
100
AcDbVertex
100
AcDb2dVertex
 10
210.1687929376731
 20
334.309490098746
 30
0.0
  0
VERTEX
  5
4CFE
330
4CFB
100
AcDbEntity
  8
MODEL
100
AcDbVertex
100
AcDb2dVertex
 10
209.1528383821867
 20
334.690516120573
 30
0.0
  0
SEQEND
  5
4CFF
330
4CFB
100
AcDbEntity
  8
MODEL
  0
POLYLINE
  5
4D00
330
A
100
AcDbEntity
  8
MODEL
100
AcDb2dPolyline
 66
     1
 10
0.0
 20
0.0
 30
0.0
  0
VERTEX
  5
4D01
330
4D00
100
AcDbEntity
  8
MODEL
100
AcDbVertex
100
AcDb2dVertex
 10
210.1687929376731
 20
343.3686765996181
 30
0.0
  0
VERTEX
  5
4D02
330
4D00
100
AcDbEntity
  8
MODEL
100
AcDbVertex
100
AcDb2dVertex
 10
209.1528383821867
 20
342.9876505777911
 30
0.0
  0
SEQEND
  5
4D03
330
4D00
100
AcDbEntity
  8
MODEL
  0
POLYLINE
  5
4D04
330
A
100
AcDbEntity
  8
MODEL
100
AcDb2dPolyline
 66
     1
 10
0.0
 20
0.0
 30
0.0
  0
VERTEX
  5
4D05
330
4D04
100
AcDbEntity
  8
MODEL
100
AcDbVertex
100
AcDb2dVertex
 10
225.7477963129371
 20
334.690516120573
 30
0.0
  0
VERTEX
  5
4D06
330
4D04
100
AcDbEntity
  8
MODEL
100
AcDbVertex
100
AcDb2dVertex
 10
225.7477963129371
 20
342.9876505777911
 30
0.0
  0
VERTEX
  5
4D07
330
4D04
100
AcDbEntity
  8
MODEL
100
AcDbVertex
100
AcDb2dVertex
 10
224.7735272444679
 20
343.3686765996181
 30
0.0
  0
SEQEND
  5
4D08
330
4D04
100
AcDbEntity
  8
MODEL
  0
POLYLINE
  5
4D09
330
A
100
AcDbEntity
  8
MODEL
100
AcDb2dPolyline
 66
     1
 10
0.0
 20
0.0
 30
0.0
  0
VERTEX
  5
4D0A
330
4D09
100
AcDbEntity
  8
MODEL
100
AcDbVertex
100
AcDb2dVertex
 10
209.1528383821867
 20
342.9876505777911
 30
0.0
  0
VERTEX
  5
4D0B
330
4D09
100
AcDbEntity
  8
MODEL
100
AcDbVertex
100
AcDb2dVertex
 10
209.1528383821867
 20
334.690516120573
 30
0.0
  0
SEQEND
  5
4D0C
330
4D09
100
AcDbEntity
  8
MODEL
  0
POLYLINE
  5
4D0D
330
A
100
AcDbEntity
  8
MODEL
100
AcDb2dPolyline
 66
     1
 10
0.0
 20
0.0
 30
0.0
  0
VERTEX
  5
4D0E
330
4D0D
100
AcDbEntity
  8
MODEL
100
AcDbVertex
100
AcDb2dVertex
 10
210.1687929376731
 20
343.3686765996181
 30
0.0
  0
VERTEX
  5
4D0F
330
4D0D
100
AcDbEntity
  8
MODEL
100
AcDbVertex
100
AcDb2dVertex
 10
224.7735272444679
 20
343.3686765996181
 30
0.0
  0
SEQEND
  5
4D10
330
4D0D
100
AcDbEntity
  8
MODEL
  0
POLYLINE
  5
4D11
330
A
100
AcDbEntity
  8
MODEL
100
AcDb2dPolyline
 66
     1
 10
0.0
 20
0.0
 30
0.0
  0
VERTEX
  5
4D12
330
4D11
100
AcDbEntity
  8
MODEL
100
AcDbVertex
100
AcDb2dVertex
 10
210.9308449813273
 20
343.3686765996181
 30
0.0
  0
VERTEX
  5
4D13
330
4D11
100
AcDbEntity
  8
MODEL
100
AcDbVertex
100
AcDb2dVertex
 10
210.9308449813273
 20
354.6716447281212
 30
0.0
  0
SEQEND
  5
4D14
330
4D11
100
AcDbEntity
  8
MODEL
  0
POLYLINE
  5
4D15
330
A
100
AcDbEntity
  8
MODEL
100
AcDb2dPolyline
 66
     1
 10
0.0
 20
0.0
 30
0.0
  0
VERTEX
  5
4D16
330
4D15
100
AcDbEntity
  8
MODEL
100
AcDbVertex
100
AcDb2dVertex
 10
224.0114752008137
 20
343.3686765996181
 30
0.0
  0
VERTEX
  5
4D17
330
4D15
100
AcDbEntity
  8
MODEL
100
AcDbVertex
100
AcDb2dVertex
 10
224.0114752008137
 20
354.6716447281212
 30
0.0
  0
SEQEND
  5
4D18
330
4D15
100
AcDbEntity
  8
MODEL
  0
POLYLINE
  5
4D19
330
A
100
AcDbEntity
  8
MODEL
100
AcDb2dPolyline
 66
     1
 10
0.0
 20
0.0
 30
0.0
  0
VERTEX
  5
4D1A
330
4D19
100
AcDbEntity
  8
MODEL
100
AcDbVertex
100
AcDb2dVertex
 10
227.1444323820935
 20
403.4395304404144
 30
0.0
  0
VERTEX
  5
4D1B
330
4D19
100
AcDbEntity
  8
MODEL
100
AcDbVertex
100
AcDb2dVertex
 10
227.1444323820935
 20
399.1638397018107
 30
0.0
  0
VERTEX
  5
4D1C
330
4D19
100
AcDbEntity
  8
MODEL
100
AcDbVertex
100
AcDb2dVertex
 10
207.7558578048732
 20
399.1638397018107
 30
0.0
  0
SEQEND
  5
4D1D
330
4D19
100
AcDbEntity
  8
MODEL
  0
POLYLINE
  5
4D1E
330
A
100
AcDbEntity
  8
MODEL
100
AcDb2dPolyline
 66
     1
 10
0.0
 20
0.0
 30
0.0
  0
VERTEX
  5
4D1F
330
4D1E
100
AcDbEntity
  8
MODEL
100
AcDbVertex
100
AcDb2dVertex
 10
207.7558578048732
 20
403.4395304404144
 30
0.0
  0
VERTEX
  5
4D20
330
4D1E
100
AcDbEntity
  8
MODEL
100
AcDbVertex
100
AcDb2dVertex
 10
207.7558578048732
 20
399.1638397018107
 30
0.0
  0
SEQEND
  5
4D21
330
4D1E
100
AcDbEntity
  8
MODEL
  0
POLYLINE
  5
4D22
330
A
100
AcDbEntity
  8
MODEL
100
AcDb2dPolyline
 66
     1
 10
0.0
 20
0.0
 30
0.0
  0
VERTEX
  5
4D23
330
4D22
100
AcDbEntity
  8
MODEL
100
AcDbVertex
100
AcDb2dVertex
 10
224.0114752008137
 20
362.0375736365159
 30
0.0
  0
VERTEX
  5
4D24
330
4D22
100
AcDbEntity
  8
MODEL
100
AcDbVertex
100
AcDb2dVertex
 10
224.0114752008137
 20
399.1638397018107
 30
0.0
  0
SEQEND
  5
4D25
330
4D22
100
AcDbEntity
  8
MODEL
  0
POLYLINE
  5
4D26
330
A
100
AcDbEntity
  8
MODEL
100
AcDb2dPolyline
 66
     1
 10
0.0
 20
0.0
 30
0.0
  0
VERTEX
  5
4D27
330
4D26
100
AcDbEntity
  8
MODEL
100
AcDbVertex
100
AcDb2dVertex
 10
210.9308449813273
 20
362.0375736365159
 30
0.0
  0
VERTEX
  5
4D28
330
4D26
100
AcDbEntity
  8
MODEL
100
AcDbVertex
100
AcDb2dVertex
 10
210.9308449813273
 20
399.1638397018107
 30
0.0
  0
SEQEND
  5
4D29
330
4D26
100
AcDbEntity
  8
MODEL
  0
POLYLINE
  5
4D2A
330
A
100
AcDbEntity
  8
MODEL
100
AcDb2dPolyline
 66
     1
 10
0.0
 20
0.0
 30
0.0
  0
VERTEX
  5
4D2B
330
4D2A
100
AcDbEntity
  8
MODEL
100
AcDbVertex
100
AcDb2dVertex
 10
221.5985400680138
 20
359.0320844733881
 30
0.0
  0
VERTEX
  5
4D2C
330
4D2A
100
AcDbEntity
  8
MODEL
100
AcDbVertex
100
AcDb2dVertex
 10
219.5246009618664
 20
359.328361488552
 30
0.0
  0
VERTEX
  5
4D2D
330
4D2A
100
AcDbEntity
  8
MODEL
100
AcDbVertex
100
AcDb2dVertex
 10
217.4499728394047
 20
359.4554849985468
 30
0.0
  0
VERTEX
  5
4D2E
330
4D2A
100
AcDbEntity
  8
MODEL
100
AcDbVertex
100
AcDb2dVertex
 10
215.3760337332574
 20
359.328361488552
 30
0.0
  0
VERTEX
  5
4D2F
330
4D2A
100
AcDbEntity
  8
MODEL
100
AcDbVertex
100
AcDb2dVertex
 10
213.3014056107957
 20
359.0320844733881
 30
0.0
  0
SEQEND
  5
4D30
330
4D2A
100
AcDbEntity
  8
MODEL
  0
POLYLINE
  5
4D31
330
A
100
AcDbEntity
  8
MODEL
100
AcDb2dPolyline
 66
     1
 10
0.0
 20
0.0
 30
0.0
  0
VERTEX
  5
4D32
330
4D31
100
AcDbEntity
  8
MODEL
100
AcDbVertex
100
AcDb2dVertex
 10
221.5985400680138
 20
342.9876505777911
 30
0.0
  0
VERTEX
  5
4D33
330
4D31
100
AcDbEntity
  8
MODEL
100
AcDbVertex
100
AcDb2dVertex
 10
221.5985400680138
 20
334.690516120573
 30
0.0
  0
SEQEND
  5
4D34
330
4D31
100
AcDbEntity
  8
MODEL
  0
POLYLINE
  5
4D35
330
A
100
AcDbEntity
  8
MODEL
100
AcDb2dPolyline
 66
     1
 10
0.0
 20
0.0
 30
0.0
  0
VERTEX
  5
4D36
330
4D35
100
AcDbEntity
  8
MODEL
100
AcDbVertex
100
AcDb2dVertex
 10
213.3014056107957
 20
342.9876505777911
 30
0.0
  0
VERTEX
  5
4D37
330
4D35
100
AcDbEntity
  8
MODEL
100
AcDbVertex
100
AcDb2dVertex
 10
213.3014056107957
 20
334.690516120573
 30
0.0
  0
SEQEND
  5
4D38
330
4D35
100
AcDbEntity
  8
MODEL
  0
POLYLINE
  5
4D39
330
A
100
AcDbEntity
  8
MODEL
100
AcDb2dPolyline
 66
     1
 10
0.0
 20
0.0
 30
0.0
  0
VERTEX
  5
4D3A
330
4D39
100
AcDbEntity
  8
MODEL
100
AcDbVertex
100
AcDb2dVertex
 10
221.5985400680138
 20
334.690516120573
 30
0.0
  0
VERTEX
  5
4D3B
330
4D39
100
AcDbEntity
  8
MODEL
100
AcDbVertex
100
AcDb2dVertex
 10
222.6148391316574
 20
334.3942391054091
 30
0.0
  0
VERTEX
  5
4D3C
330
4D39
100
AcDbEntity
  8
MODEL
100
AcDbVertex
100
AcDb2dVertex
 10
223.6731681904754
 20
334.309490098746
 30
0.0
  0
VERTEX
  5
4D3D
330
4D39
100
AcDbEntity
  8
MODEL
100
AcDbVertex
100
AcDb2dVertex
 10
224.7314972492935
 20
334.3942391054091
 30
0.0
  0
VERTEX
  5
4D3E
330
4D39
100
AcDbEntity
  8
MODEL
100
AcDbVertex
100
AcDb2dVertex
 10
225.7477963129371
 20
334.690516120573
 30
0.0
  0
SEQEND
  5
4D3F
330
4D39
100
AcDbEntity
  8
MODEL
  0
POLYLINE
  5
4D40
330
A
100
AcDbEntity
  8
MODEL
100
AcDb2dPolyline
 66
     1
 10
0.0
 20
0.0
 30
0.0
  0
VERTEX
  5
4D41
330
4D40
100
AcDbEntity
  8
MODEL
100
AcDbVertex
100
AcDb2dVertex
 10
209.1528383821867
 20
334.690516120573
 30
0.0
  0
VERTEX
  5
4D42
330
4D40
100
AcDbEntity
  8
MODEL
100
AcDbVertex
100
AcDb2dVertex
 10
210.2111674410047
 20
334.3942391054091
 30
0.0
  0
VERTEX
  5
4D43
330
4D40
100
AcDbEntity
  8
MODEL
100
AcDbVertex
100
AcDb2dVertex
 10
211.2271219964912
 20
334.309490098746
 30
0.0
  0
VERTEX
  5
4D44
330
4D40
100
AcDbEntity
  8
MODEL
100
AcDbVertex
100
AcDb2dVertex
 10
212.2857955634664
 20
334.3942391054091
 30
0.0
  0
VERTEX
  5
4D45
330
4D40
100
AcDbEntity
  8
MODEL
100
AcDbVertex
100
AcDb2dVertex
 10
213.3014056107957
 20
334.690516120573
 30
0.0
  0
SEQEND
  5
4D46
330
4D40
100
AcDbEntity
  8
MODEL
  0
POLYLINE
  5
4D47
330
A
100
AcDbEntity
  8
MODEL
100
AcDb2dPolyline
 66
     1
 10
0.0
 20
0.0
 30
0.0
  0
VERTEX
  5
4D48
330
4D47
100
AcDbEntity
  8
MODEL
100
AcDbVertex
100
AcDb2dVertex
 10
213.3014056107957
 20
334.690516120573
 30
0.0
  0
VERTEX
  5
4D49
330
4D47
100
AcDbEntity
  8
MODEL
100
AcDbVertex
100
AcDb2dVertex
 10
215.3760337332574
 20
334.3942391054091
 30
0.0
  0
VERTEX
  5
4D4A
330
4D47
100
AcDbEntity
  8
MODEL
100
AcDbVertex
100
AcDb2dVertex
 10
217.4499728394047
 20
334.309490098746
 30
0.0
  0
VERTEX
  5
4D4B
330
4D47
100
AcDbEntity
  8
MODEL
100
AcDbVertex
100
AcDb2dVertex
 10
219.5246009618664
 20
334.3942391054091
 30
0.0
  0
VERTEX
  5
4D4C
330
4D47
100
AcDbEntity
  8
MODEL
100
AcDbVertex
100
AcDb2dVertex
 10
221.5985400680138
 20
334.690516120573
 30
0.0
  0
SEQEND
  5
4D4D
330
4D47
100
AcDbEntity
  8
MODEL
  0
POLYLINE
  5
4D4E
330
A
100
AcDbEntity
  8
MODEL
100
AcDb2dPolyline
 66
     1
 10
0.0
 20
0.0
 30
0.0
  0
VERTEX
  5
4D4F
330
4D4E
100
AcDbEntity
  8
MODEL
100
AcDbVertex
100
AcDb2dVertex
 10
225.7477963129371
 20
342.9876505777911
 30
0.0
  0
VERTEX
  5
4D50
330
4D4E
100
AcDbEntity
  8
MODEL
100
AcDbVertex
100
AcDb2dVertex
 10
224.7314972492935
 20
343.2842721011122
 30
0.0
  0
VERTEX
  5
4D51
330
4D4E
100
AcDbEntity
  8
MODEL
100
AcDbVertex
100
AcDb2dVertex
 10
223.6731681904754
 20
343.3686765996181
 30
0.0
  0
VERTEX
  5
4D52
330
4D4E
100
AcDbEntity
  8
MODEL
100
AcDbVertex
100
AcDb2dVertex
 10
222.6148391316574
 20
343.2842721011122
 30
0.0
  0
VERTEX
  5
4D53
330
4D4E
100
AcDbEntity
  8
MODEL
100
AcDbVertex
100
AcDb2dVertex
 10
221.5985400680138
 20
342.9876505777911
 30
0.0
  0
SEQEND
  5
4D54
330
4D4E
100
AcDbEntity
  8
MODEL
  0
POLYLINE
  5
4D55
330
A
100
AcDbEntity
  8
MODEL
100
AcDb2dPolyline
 66
     1
 10
0.0
 20
0.0
 30
0.0
  0
VERTEX
  5
4D56
330
4D55
100
AcDbEntity
  8
MODEL
100
AcDbVertex
100
AcDb2dVertex
 10
221.5985400680138
 20
342.9876505777911
 30
0.0
  0
VERTEX
  5
4D57
330
4D55
100
AcDbEntity
  8
MODEL
100
AcDbVertex
100
AcDb2dVertex
 10
219.5246009618664
 20
343.2842721011122
 30
0.0
  0
VERTEX
  5
4D58
330
4D55
100
AcDbEntity
  8
MODEL
100
AcDbVertex
100
AcDb2dVertex
 10
217.4499728394047
 20
343.3686765996181
 30
0.0
  0
VERTEX
  5
4D59
330
4D55
100
AcDbEntity
  8
MODEL
100
AcDbVertex
100
AcDb2dVertex
 10
215.3760337332574
 20
343.2842721011122
 30
0.0
  0
VERTEX
  5
4D5A
330
4D55
100
AcDbEntity
  8
MODEL
100
AcDbVertex
100
AcDb2dVertex
 10
213.3014056107957
 20
342.9876505777911
 30
0.0
  0
SEQEND
  5
4D5B
330
4D55
100
AcDbEntity
  8
MODEL
  0
POLYLINE
  5
4D5C
330
A
100
AcDbEntity
  8
MODEL
100
AcDb2dPolyline
 66
     1
 10
0.0
 20
0.0
 30
0.0
  0
VERTEX
  5
4D5D
330
4D5C
100
AcDbEntity
  8
MODEL
100
AcDbVertex
100
AcDb2dVertex
 10
213.3014056107957
 20
342.9876505777911
 30
0.0
  0
VERTEX
  5
4D5E
330
4D5C
100
AcDbEntity
  8
MODEL
100
AcDbVertex
100
AcDb2dVertex
 10
212.2857955634664
 20
343.2842721011122
 30
0.0
  0
VERTEX
  5
4D5F
330
4D5C
100
AcDbEntity
  8
MODEL
100
AcDbVertex
100
AcDb2dVertex
 10
211.2271219964912
 20
343.3686765996181
 30
0.0
  0
VERTEX
  5
4D60
330
4D5C
100
AcDbEntity
  8
MODEL
100
AcDbVertex
100
AcDb2dVertex
 10
210.2111674410047
 20
343.2842721011122
 30
0.0
  0
VERTEX
  5
4D61
330
4D5C
100
AcDbEntity
  8
MODEL
100
AcDbVertex
100
AcDb2dVertex
 10
209.1528383821867
 20
342.9876505777911
 30
0.0
  0
SEQEND
  5
4D62
330
4D5C
100
AcDbEntity
  8
MODEL
  0
POLYLINE
  5
4D63
330
A
100
AcDbEntity
  8
MODEL
100
AcDb2dPolyline
 66
     1
 10
0.0
 20
0.0
 30
0.0
  0
VERTEX
  5
4D64
330
4D63
100
AcDbEntity
  8
MODEL
100
AcDbVertex
100
AcDb2dVertex
 10
210.1687929376731
 20
359.4554849985468
 30
0.0
  0
VERTEX
  5
4D65
330
4D63
100
AcDbEntity
  8
MODEL
100
AcDbVertex
100
AcDb2dVertex
 10
224.7735272444679
 20
359.4554849985468
 30
0.0
  0
SEQEND
  5
4D66
330
4D63
100
AcDbEntity
  8
MODEL
  0
POLYLINE
  5
4D67
330
A
100
AcDbEntity
  8
MODEL
100
AcDb2dPolyline
 66
     1
 10
0.0
 20
0.0
 30
0.0
  0
VERTEX
  5
4D68
330
4D67
100
AcDbEntity
  8
MODEL
100
AcDbVertex
100
AcDb2dVertex
 10
213.3014056107957
 20
359.0320844733881
 30
0.0
  0
VERTEX
  5
4D69
330
4D67
100
AcDbEntity
  8
MODEL
100
AcDbVertex
100
AcDb2dVertex
 10
212.2857955634664
 20
359.328361488552
 30
0.0
  0
VERTEX
  5
4D6A
330
4D67
100
AcDbEntity
  8
MODEL
100
AcDbVertex
100
AcDb2dVertex
 10
211.2271219964912
 20
359.4554849985468
 30
0.0
  0
VERTEX
  5
4D6B
330
4D67
100
AcDbEntity
  8
MODEL
100
AcDbVertex
100
AcDb2dVertex
 10
210.2111674410047
 20
359.328361488552
 30
0.0
  0
VERTEX
  5
4D6C
330
4D67
100
AcDbEntity
  8
MODEL
100
AcDbVertex
100
AcDb2dVertex
 10
209.1528383821867
 20
359.0320844733881
 30
0.0
  0
SEQEND
  5
4D6D
330
4D67
100
AcDbEntity
  8
MODEL
  0
POLYLINE
  5
4D6E
330
A
100
AcDbEntity
  8
MODEL
100
AcDb2dPolyline
 66
     1
 10
0.0
 20
0.0
 30
0.0
  0
VERTEX
  5
4D6F
330
4D6E
100
AcDbEntity
  8
MODEL
100
AcDbVertex
100
AcDb2dVertex
 10
210.1687929376731
 20
359.4554849985468
 30
0.0
  0
VERTEX
  5
4D70
330
4D6E
100
AcDbEntity
  8
MODEL
100
AcDbVertex
100
AcDb2dVertex
 10
209.1528383821867
 20
359.0320844733881
 30
0.0
  0
SEQEND
  5
4D71
330
4D6E
100
AcDbEntity
  8
MODEL
  0
POLYLINE
  5
4D72
330
A
100
AcDbEntity
  8
MODEL
100
AcDb2dPolyline
 66
     1
 10
0.0
 20
0.0
 30
0.0
  0
VERTEX
  5
4D73
330
4D72
100
AcDbEntity
  8
MODEL
100
AcDbVertex
100
AcDb2dVertex
 10
225.7477963129371
 20
359.0320844733881
 30
0.0
  0
VERTEX
  5
4D74
330
4D72
100
AcDbEntity
  8
MODEL
100
AcDbVertex
100
AcDb2dVertex
 10
224.7314972492935
 20
359.328361488552
 30
0.0
  0
VERTEX
  5
4D75
330
4D72
100
AcDbEntity
  8
MODEL
100
AcDbVertex
100
AcDb2dVertex
 10
223.6731681904754
 20
359.4554849985468
 30
0.0
  0
VERTEX
  5
4D76
330
4D72
100
AcDbEntity
  8
MODEL
100
AcDbVertex
100
AcDb2dVertex
 10
222.6148391316574
 20
359.328361488552
 30
0.0
  0
VERTEX
  5
4D77
330
4D72
100
AcDbEntity
  8
MODEL
100
AcDbVertex
100
AcDb2dVertex
 10
221.5985400680138
 20
359.0320844733881
 30
0.0
  0
SEQEND
  5
4D78
330
4D72
100
AcDbEntity
  8
MODEL
  0
POLYLINE
  5
4D79
330
A
100
AcDbEntity
  8
MODEL
100
AcDb2dPolyline
 66
     1
 10
0.0
 20
0.0
 30
0.0
  0
VERTEX
  5
4D7A
330
4D79
100
AcDbEntity
  8
MODEL
100
AcDbVertex
100
AcDb2dVertex
 10
224.7735272444679
 20
359.4554849985468
 30
0.0
  0
VERTEX
  5
4D7B
330
4D79
100
AcDbEntity
  8
MODEL
100
AcDbVertex
100
AcDb2dVertex
 10
225.7477963129371
 20
359.0320844733881
 30
0.0
  0
SEQEND
  5
4D7C
330
4D79
100
AcDbEntity
  8
MODEL
  0
POLYLINE
  5
4D7D
330
A
100
AcDbEntity
  8
MODEL
100
AcDb2dPolyline
 66
     1
 10
0.0
 20
0.0
 30
0.0
  0
VERTEX
  5
4D7E
330
4D7D
100
AcDbEntity
  8
MODEL
100
AcDbVertex
100
AcDb2dVertex
 10
213.3014056107957
 20
355.0526707499482
 30
0.0
  0
VERTEX
  5
4D7F
330
4D7D
100
AcDbEntity
  8
MODEL
100
AcDbVertex
100
AcDb2dVertex
 10
215.3760337332574
 20
354.7563937347843
 30
0.0
  0
VERTEX
  5
4D80
330
4D7D
100
AcDbEntity
  8
MODEL
100
AcDbVertex
100
AcDb2dVertex
 10
217.4499728394047
 20
354.6716447281212
 30
0.0
  0
VERTEX
  5
4D81
330
4D7D
100
AcDbEntity
  8
MODEL
100
AcDbVertex
100
AcDb2dVertex
 10
219.5246009618664
 20
354.7563937347843
 30
0.0
  0
VERTEX
  5
4D82
330
4D7D
100
AcDbEntity
  8
MODEL
100
AcDbVertex
100
AcDb2dVertex
 10
221.5985400680138
 20
355.0526707499482
 30
0.0
  0
SEQEND
  5
4D83
330
4D7D
100
AcDbEntity
  8
MODEL
  0
POLYLINE
  5
4D84
330
A
100
AcDbEntity
  8
MODEL
100
AcDb2dPolyline
 66
     1
 10
0.0
 20
0.0
 30
0.0
  0
VERTEX
  5
4D85
330
4D84
100
AcDbEntity
  8
MODEL
100
AcDbVertex
100
AcDb2dVertex
 10
210.1687929376731
 20
354.6716447281212
 30
0.0
  0
VERTEX
  5
4D86
330
4D84
100
AcDbEntity
  8
MODEL
100
AcDbVertex
100
AcDb2dVertex
 10
224.7735272444679
 20
354.6716447281212
 30
0.0
  0
SEQEND
  5
4D87
330
4D84
100
AcDbEntity
  8
MODEL
  0
POLYLINE
  5
4D88
330
A
100
AcDbEntity
  8
MODEL
100
AcDb2dPolyline
 66
     1
 10
0.0
 20
0.0
 30
0.0
  0
VERTEX
  5
4D89
330
4D88
100
AcDbEntity
  8
MODEL
100
AcDbVertex
100
AcDb2dVertex
 10
209.1528383821867
 20
355.0526707499482
 30
0.0
  0
VERTEX
  5
4D8A
330
4D88
100
AcDbEntity
  8
MODEL
100
AcDbVertex
100
AcDb2dVertex
 10
210.2111674410047
 20
354.7563937347843
 30
0.0
  0
VERTEX
  5
4D8B
330
4D88
100
AcDbEntity
  8
MODEL
100
AcDbVertex
100
AcDb2dVertex
 10
211.2271219964912
 20
354.6716447281212
 30
0.0
  0
VERTEX
  5
4D8C
330
4D88
100
AcDbEntity
  8
MODEL
100
AcDbVertex
100
AcDb2dVertex
 10
212.2857955634664
 20
354.7563937347843
 30
0.0
  0
VERTEX
  5
4D8D
330
4D88
100
AcDbEntity
  8
MODEL
100
AcDbVertex
100
AcDb2dVertex
 10
213.3014056107957
 20
355.0526707499482
 30
0.0
  0
SEQEND
  5
4D8E
330
4D88
100
AcDbEntity
  8
MODEL
  0
POLYLINE
  5
4D8F
330
A
100
AcDbEntity
  8
MODEL
100
AcDb2dPolyline
 66
     1
 10
0.0
 20
0.0
 30
0.0
  0
VERTEX
  5
4D90
330
4D8F
100
AcDbEntity
  8
MODEL
100
AcDbVertex
100
AcDb2dVertex
 10
210.1687929376731
 20
354.6716447281212
 30
0.0
  0
VERTEX
  5
4D91
330
4D8F
100
AcDbEntity
  8
MODEL
100
AcDbVertex
100
AcDb2dVertex
 10
209.1528383821867
 20
355.0526707499482
 30
0.0
  0
SEQEND
  5
4D92
330
4D8F
100
AcDbEntity
  8
MODEL
  0
POLYLINE
  5
4D93
330
A
100
AcDbEntity
  8
MODEL
100
AcDb2dPolyline
 66
     1
 10
0.0
 20
0.0
 30
0.0
  0
VERTEX
  5
4D94
330
4D93
100
AcDbEntity
  8
MODEL
100
AcDbVertex
100
AcDb2dVertex
 10
221.5985400680138
 20
355.0526707499482
 30
0.0
  0
VERTEX
  5
4D95
330
4D93
100
AcDbEntity
  8
MODEL
100
AcDbVertex
100
AcDb2dVertex
 10
222.6148391316574
 20
354.7563937347843
 30
0.0
  0
VERTEX
  5
4D96
330
4D93
100
AcDbEntity
  8
MODEL
100
AcDbVertex
100
AcDb2dVertex
 10
223.6731681904754
 20
354.6716447281212
 30
0.0
  0
VERTEX
  5
4D97
330
4D93
100
AcDbEntity
  8
MODEL
100
AcDbVertex
100
AcDb2dVertex
 10
224.7314972492935
 20
354.7563937347843
 30
0.0
  0
VERTEX
  5
4D98
330
4D93
100
AcDbEntity
  8
MODEL
100
AcDbVertex
100
AcDb2dVertex
 10
225.7477963129371
 20
355.0526707499482
 30
0.0
  0
SEQEND
  5
4D99
330
4D93
100
AcDbEntity
  8
MODEL
  0
POLYLINE
  5
4D9A
330
A
100
AcDbEntity
  8
MODEL
100
AcDb2dPolyline
 66
     1
 10
0.0
 20
0.0
 30
0.0
  0
VERTEX
  5
4D9B
330
4D9A
100
AcDbEntity
  8
MODEL
100
AcDbVertex
100
AcDb2dVertex
 10
209.1952128855183
 20
359.0320844733881
 30
0.0
  0
VERTEX
  5
4D9C
330
4D9A
100
AcDbEntity
  8
MODEL
100
AcDbVertex
100
AcDb2dVertex
 10
209.1528383821867
 20
355.0526707499482
 30
0.0
  0
SEQEND
  5
4D9D
330
4D9A
100
AcDbEntity
  8
MODEL
  0
POLYLINE
  5
4D9E
330
A
100
AcDbEntity
  8
MODEL
100
AcDb2dPolyline
 66
     1
 10
0.0
 20
0.0
 30
0.0
  0
VERTEX
  5
4D9F
330
4D9E
100
AcDbEntity
  8
MODEL
100
AcDbVertex
100
AcDb2dVertex
 10
224.7735272444679
 20
354.6716447281212
 30
0.0
  0
VERTEX
  5
4DA0
330
4D9E
100
AcDbEntity
  8
MODEL
100
AcDbVertex
100
AcDb2dVertex
 10
225.7477963129371
 20
355.0526707499482
 30
0.0
  0
SEQEND
  5
4DA1
330
4D9E
100
AcDbEntity
  8
MODEL
  0
POLYLINE
  5
4DA2
330
A
100
AcDbEntity
  8
MODEL
100
AcDb2dPolyline
 66
     1
 10
0.0
 20
0.0
 30
0.0
  0
VERTEX
  5
4DA3
330
4DA2
100
AcDbEntity
  8
MODEL
100
AcDbVertex
100
AcDb2dVertex
 10
221.5985400680138
 20
359.0320844733881
 30
0.0
  0
VERTEX
  5
4DA4
330
4DA2
100
AcDbEntity
  8
MODEL
100
AcDbVertex
100
AcDb2dVertex
 10
221.5985400680138
 20
355.0526707499482
 30
0.0
  0
SEQEND
  5
4DA5
330
4DA2
100
AcDbEntity
  8
MODEL
  0
POLYLINE
  5
4DA6
330
A
100
AcDbEntity
  8
MODEL
100
AcDb2dPolyline
 66
     1
 10
0.0
 20
0.0
 30
0.0
  0
VERTEX
  5
4DA7
330
4DA6
100
AcDbEntity
  8
MODEL
100
AcDbVertex
100
AcDb2dVertex
 10
213.3014056107957
 20
359.0320844733881
 30
0.0
  0
VERTEX
  5
4DA8
330
4DA6
100
AcDbEntity
  8
MODEL
100
AcDbVertex
100
AcDb2dVertex
 10
213.3014056107957
 20
355.0526707499482
 30
0.0
  0
SEQEND
  5
4DA9
330
4DA6
100
AcDbEntity
  8
MODEL
  0
POLYLINE
  5
4DAA
330
A
100
AcDbEntity
  8
MODEL
100
AcDb2dPolyline
 66
     1
 10
0.0
 20
0.0
 30
0.0
  0
VERTEX
  5
4DAB
330
4DAA
100
AcDbEntity
  8
MODEL
100
AcDbVertex
100
AcDb2dVertex
 10
225.7477963129371
 20
359.0320844733881
 30
0.0
  0
VERTEX
  5
4DAC
330
4DAA
100
AcDbEntity
  8
MODEL
100
AcDbVertex
100
AcDb2dVertex
 10
225.7477963129371
 20
355.0526707499482
 30
0.0
  0
SEQEND
  5
4DAD
330
4DAA
100
AcDbEntity
  8
MODEL
  0
POLYLINE
  5
4DAE
330
A
100
AcDbEntity
  8
MODEL
100
AcDb2dPolyline
 66
     1
 10
0.0
 20
0.0
 30
0.0
  0
VERTEX
  5
4DAF
330
4DAE
100
AcDbEntity
  8
MODEL
100
AcDbVertex
100
AcDb2dVertex
 10
274.3034650004153
 20
362.0375736365159
 30
0.0
  0
VERTEX
  5
4DB0
330
4DAE
100
AcDbEntity
  8
MODEL
100
AcDbVertex
100
AcDb2dVertex
 10
277.9862572005341
 20
365.7630848481234
 30
0.0
  0
SEQEND
  5
4DB1
330
4DAE
100
AcDbEntity
  8
MODEL
  0
POLYLINE
  5
4DB2
330
A
100
AcDbEntity
  8
MODEL
100
AcDb2dPolyline
 66
     1
 10
0.0
 20
0.0
 30
0.0
  0
VERTEX
  5
4DB3
330
4DB2
100
AcDbEntity
  8
MODEL
100
AcDbVertex
100
AcDb2dVertex
 10
267.57246462568
 20
362.0375736365159
 30
0.0
  0
VERTEX
  5
4DB4
330
4DB2
100
AcDbEntity
  8
MODEL
100
AcDbVertex
100
AcDb2dVertex
 10
275.869599082898
 20
370.3774271052227
 30
0.0
  0
SEQEND
  5
4DB5
330
4DB2
100
AcDbEntity
  8
MODEL
  0
POLYLINE
  5
4DB6
330
A
100
AcDbEntity
  8
MODEL
100
AcDb2dPolyline
 66
     1
 10
0.0
 20
0.0
 30
0.0
  0
VERTEX
  5
4DB7
330
4DB6
100
AcDbEntity
  8
MODEL
100
AcDbVertex
100
AcDb2dVertex
 10
260.8414642509446
 20
362.0375736365159
 30
0.0
  0
VERTEX
  5
4DB8
330
4DB6
100
AcDbEntity
  8
MODEL
100
AcDbVertex
100
AcDb2dVertex
 10
277.9021972101852
 20
379.140336590931
 30
0.0
  0
SEQEND
  5
4DB9
330
4DB6
100
AcDbEntity
  8
MODEL
  0
POLYLINE
  5
4DBA
330
A
100
AcDbEntity
  8
MODEL
100
AcDb2dPolyline
 66
     1
 10
0.0
 20
0.0
 30
0.0
  0
VERTEX
  5
4DBB
330
4DBA
100
AcDbEntity
  8
MODEL
100
AcDbVertex
100
AcDb2dVertex
 10
254.1104638762093
 20
362.0375736365159
 30
0.0
  0
VERTEX
  5
4DBC
330
4DBA
100
AcDbEntity
  8
MODEL
100
AcDbVertex
100
AcDb2dVertex
 10
279.0025562641777
 20
386.9296660244843
 30
0.0
  0
SEQEND
  5
4DBD
330
4DBA
100
AcDbEntity
  8
MODEL
  0
POLYLINE
  5
4DBE
330
A
100
AcDbEntity
  8
MODEL
100
AcDb2dPolyline
 66
     1
 10
0.0
 20
0.0
 30
0.0
  0
VERTEX
  5
4DBF
330
4DBE
100
AcDbEntity
  8
MODEL
100
AcDbVertex
100
AcDb2dVertex
 10
247.3794635014739
 20
362.0375736365159
 30
0.0
  0
VERTEX
  5
4DC0
330
4DBE
100
AcDbEntity
  8
MODEL
100
AcDbVertex
100
AcDb2dVertex
 10
277.4784521768694
 20
392.1365623119114
 30
0.0
  0
SEQEND
  5
4DC1
330
4DBE
100
AcDbEntity
  8
MODEL
  0
POLYLINE
  5
4DC2
330
A
100
AcDbEntity
  8
MODEL
100
AcDb2dPolyline
 66
     1
 10
0.0
 20
0.0
 30
0.0
  0
VERTEX
  5
4DC3
330
4DC2
100
AcDbEntity
  8
MODEL
100
AcDbVertex
100
AcDb2dVertex
 10
240.6484631267386
 20
362.0375736365159
 30
0.0
  0
VERTEX
  5
4DC4
330
4DC2
100
AcDbEntity
  8
MODEL
100
AcDbVertex
100
AcDb2dVertex
 10
279.0025562641777
 20
400.4340412772866
 30
0.0
  0
SEQEND
  5
4DC5
330
4DC2
100
AcDbEntity
  8
MODEL
  0
POLYLINE
  5
4DC6
330
A
100
AcDbEntity
  8
MODEL
100
AcDb2dPolyline
 66
     1
 10
0.0
 20
0.0
 30
0.0
  0
VERTEX
  5
4DC7
330
4DC6
100
AcDbEntity
  8
MODEL
100
AcDbVertex
100
AcDb2dVertex
 10
233.9174627520032
 20
362.0375736365159
 30
0.0
  0
VERTEX
  5
4DC8
330
4DC6
100
AcDbEntity
  8
MODEL
100
AcDbVertex
100
AcDb2dVertex
 10
275.2770450525702
 20
403.4395304404144
 30
0.0
  0
SEQEND
  5
4DC9
330
4DC6
100
AcDbEntity
  8
MODEL
  0
POLYLINE
  5
4DCA
330
A
100
AcDbEntity
  8
MODEL
100
AcDb2dPolyline
 66
     1
 10
0.0
 20
0.0
 30
0.0
  0
VERTEX
  5
4DCB
330
4DCA
100
AcDbEntity
  8
MODEL
100
AcDbVertex
100
AcDb2dVertex
 10
231.6740256325295
 20
366.5675113951091
 30
0.0
  0
VERTEX
  5
4DCC
330
4DCA
100
AcDbEntity
  8
MODEL
100
AcDbVertex
100
AcDb2dVertex
 10
268.5460446778349
 20
403.4395304404144
 30
0.0
  0
SEQEND
  5
4DCD
330
4DCA
100
AcDbEntity
  8
MODEL
  0
POLYLINE
  5
4DCE
330
A
100
AcDbEntity
  8
MODEL
100
AcDb2dPolyline
 66
     1
 10
0.0
 20
0.0
 30
0.0
  0
VERTEX
  5
4DCF
330
4DCE
100
AcDbEntity
  8
MODEL
100
AcDbVertex
100
AcDb2dVertex
 10
231.6740256325295
 20
373.2985117698445
 30
0.0
  0
VERTEX
  5
4DD0
330
4DCE
100
AcDbEntity
  8
MODEL
100
AcDbVertex
100
AcDb2dVertex
 10
261.8150443030995
 20
403.4395304404144
 30
0.0
  0
SEQEND
  5
4DD1
330
4DCE
100
AcDbEntity
  8
MODEL
  0
POLYLINE
  5
4DD2
330
A
100
AcDbEntity
  8
MODEL
100
AcDb2dPolyline
 66
     1
 10
0.0
 20
0.0
 30
0.0
  0
VERTEX
  5
4DD3
330
4DD2
100
AcDbEntity
  8
MODEL
100
AcDbVertex
100
AcDb2dVertex
 10
231.6740256325295
 20
380.0291676364227
 30
0.0
  0
VERTEX
  5
4DD4
330
4DD2
100
AcDbEntity
  8
MODEL
100
AcDbVertex
100
AcDb2dVertex
 10
255.0840439283641
 20
403.4395304404144
 30
0.0
  0
SEQEND
  5
4DD5
330
4DD2
100
AcDbEntity
  8
MODEL
  0
POLYLINE
  5
4DD6
330
A
100
AcDbEntity
  8
MODEL
100
AcDb2dPolyline
 66
     1
 10
0.0
 20
0.0
 30
0.0
  0
VERTEX
  5
4DD7
330
4DD6
100
AcDbEntity
  8
MODEL
100
AcDbVertex
100
AcDb2dVertex
 10
231.6740256325295
 20
386.760168011158
 30
0.0
  0
VERTEX
  5
4DD8
330
4DD6
100
AcDbEntity
  8
MODEL
100
AcDbVertex
100
AcDb2dVertex
 10
248.3530435536288
 20
403.4395304404144
 30
0.0
  0
SEQEND
  5
4DD9
330
4DD6
100
AcDbEntity
  8
MODEL
  0
POLYLINE
  5
4DDA
330
A
100
AcDbEntity
  8
MODEL
100
AcDb2dPolyline
 66
     1
 10
0.0
 20
0.0
 30
0.0
  0
VERTEX
  5
4DDB
330
4DDA
100
AcDbEntity
  8
MODEL
100
AcDbVertex
100
AcDb2dVertex
 10
231.6740256325295
 20
393.533542889225
 30
0.0
  0
VERTEX
  5
4DDC
330
4DDA
100
AcDbEntity
  8
MODEL
100
AcDbVertex
100
AcDb2dVertex
 10
241.6227321952078
 20
403.4395304404144
 30
0.0
  0
SEQEND
  5
4DDD
330
4DDA
100
AcDbEntity
  8
MODEL
  0
POLYLINE
  5
4DDE
330
A
100
AcDbEntity
  8
MODEL
100
AcDb2dPolyline
 66
     1
 10
0.0
 20
0.0
 30
0.0
  0
VERTEX
  5
4DDF
330
4DDE
100
AcDbEntity
  8
MODEL
100
AcDbVertex
100
AcDb2dVertex
 10
200.2204308831521
 20
362.0375736365159
 30
0.0
  0
VERTEX
  5
4DE0
330
4DDE
100
AcDbEntity
  8
MODEL
100
AcDbVertex
100
AcDb2dVertex
 10
203.2262645544371
 20
365.0857818111324
 30
0.0
  0
SEQEND
  5
4DE1
330
4DDE
100
AcDbEntity
  8
MODEL
  0
POLYLINE
  5
4DE2
330
A
100
AcDbEntity
  8
MODEL
100
AcDb2dPolyline
 66
     1
 10
0.0
 20
0.0
 30
0.0
  0
VERTEX
  5
4DE3
330
4DE2
100
AcDbEntity
  8
MODEL
100
AcDbVertex
100
AcDb2dVertex
 10
231.6740256325295
 20
400.2645432639603
 30
0.0
  0
VERTEX
  5
4DE4
330
4DE2
100
AcDbEntity
  8
MODEL
100
AcDbVertex
100
AcDb2dVertex
 10
234.8917318204724
 20
403.4395304404144
 30
0.0
  0
SEQEND
  5
4DE5
330
4DE2
100
AcDbEntity
  8
MODEL
  0
POLYLINE
  5
4DE6
330
A
100
AcDbEntity
  8
MODEL
100
AcDb2dPolyline
 66
     1
 10
0.0
 20
0.0
 30
0.0
  0
VERTEX
  5
4DE7
330
4DE6
100
AcDbEntity
  8
MODEL
100
AcDbVertex
100
AcDb2dVertex
 10
193.4894305084167
 20
362.0375736365159
 30
0.0
  0
VERTEX
  5
4DE8
330
4DE6
100
AcDbEntity
  8
MODEL
100
AcDbVertex
100
AcDb2dVertex
 10
203.2262645544371
 20
371.8167821858678
 30
0.0
  0
SEQEND
  5
4DE9
330
4DE6
100
AcDbEntity
  8
MODEL
  0
POLYLINE
  5
4DEA
330
A
100
AcDbEntity
  8
MODEL
100
AcDb2dPolyline
 66
     1
 10
0.0
 20
0.0
 30
0.0
  0
VERTEX
  5
4DEB
330
4DEA
100
AcDbEntity
  8
MODEL
100
AcDbVertex
100
AcDb2dVertex
 10
186.7587746418386
 20
362.0375736365159
 30
0.0
  0
VERTEX
  5
4DEC
330
4DEA
100
AcDbEntity
  8
MODEL
100
AcDbVertex
100
AcDb2dVertex
 10
203.2262645544371
 20
378.547438052446
 30
0.0
  0
SEQEND
  5
4DED
330
4DEA
100
AcDbEntity
  8
MODEL
  0
POLYLINE
  5
4DEE
330
A
100
AcDbEntity
  8
MODEL
100
AcDb2dPolyline
 66
     1
 10
0.0
 20
0.0
 30
0.0
  0
VERTEX
  5
4DEF
330
4DEE
100
AcDbEntity
  8
MODEL
100
AcDbVertex
100
AcDb2dVertex
 10
180.0277742671032
 20
362.0375736365159
 30
0.0
  0
VERTEX
  5
4DF0
330
4DEE
100
AcDbEntity
  8
MODEL
100
AcDbVertex
100
AcDb2dVertex
 10
203.2262645544371
 20
385.2784384271814
 30
0.0
  0
SEQEND
  5
4DF1
330
4DEE
100
AcDbEntity
  8
MODEL
  0
POLYLINE
  5
4DF2
330
A
100
AcDbEntity
  8
MODEL
100
AcDb2dPolyline
 66
     1
 10
0.0
 20
0.0
 30
0.0
  0
VERTEX
  5
4DF3
330
4DF2
100
AcDbEntity
  8
MODEL
100
AcDbVertex
100
AcDb2dVertex
 10
173.2967738923679
 20
362.0375736365159
 30
0.0
  0
VERTEX
  5
4DF4
330
4DF2
100
AcDbEntity
  8
MODEL
100
AcDbVertex
100
AcDb2dVertex
 10
203.2262645544371
 20
392.0094388019167
 30
0.0
  0
SEQEND
  5
4DF5
330
4DF2
100
AcDbEntity
  8
MODEL
  0
POLYLINE
  5
4DF6
330
A
100
AcDbEntity
  8
MODEL
100
AcDb2dPolyline
 66
     1
 10
0.0
 20
0.0
 30
0.0
  0
VERTEX
  5
4DF7
330
4DF6
100
AcDbEntity
  8
MODEL
100
AcDbVertex
100
AcDb2dVertex
 10
166.5657735176325
 20
362.0375736365159
 30
0.0
  0
VERTEX
  5
4DF8
330
4DF6
100
AcDbEntity
  8
MODEL
100
AcDbVertex
100
AcDb2dVertex
 10
203.2262645544371
 20
398.740439176652
 30
0.0
  0
SEQEND
  5
4DF9
330
4DF6
100
AcDbEntity
  8
MODEL
  0
POLYLINE
  5
4DFA
330
A
100
AcDbEntity
  8
MODEL
100
AcDb2dPolyline
 66
     1
 10
0.0
 20
0.0
 30
0.0
  0
VERTEX
  5
4DFB
330
4DFA
100
AcDbEntity
  8
MODEL
100
AcDbVertex
100
AcDb2dVertex
 10
159.8347731428972
 20
362.0375736365159
 30
0.0
  0
VERTEX
  5
4DFC
330
4DFA
100
AcDbEntity
  8
MODEL
100
AcDbVertex
100
AcDb2dVertex
 10
201.1943554434641
 20
403.4395304404144
 30
0.0
  0
SEQEND
  5
4DFD
330
4DFA
100
AcDbEntity
  8
MODEL
  0
POLYLINE
  5
4DFE
330
A
100
AcDbEntity
  8
MODEL
100
AcDb2dPolyline
 66
     1
 10
0.0
 20
0.0
 30
0.0
  0
VERTEX
  5
4DFF
330
4DFE
100
AcDbEntity
  8
MODEL
100
AcDbVertex
100
AcDb2dVertex
 10
157.0408119882701
 20
366.0169873599557
 30
0.0
  0
VERTEX
  5
4E00
330
4DFE
100
AcDbEntity
  8
MODEL
100
AcDbVertex
100
AcDb2dVertex
 10
194.4633550687288
 20
403.4395304404144
 30
0.0
  0
SEQEND
  5
4E01
330
4DFE
100
AcDbEntity
  8
MODEL
  0
POLYLINE
  5
4E02
330
A
100
AcDbEntity
  8
MODEL
100
AcDb2dPolyline
 66
     1
 10
0.0
 20
0.0
 30
0.0
  0
VERTEX
  5
4E03
330
4E02
100
AcDbEntity
  8
MODEL
100
AcDbVertex
100
AcDb2dVertex
 10
158.7764440840791
 20
374.4836198305001
 30
0.0
  0
VERTEX
  5
4E04
330
4E02
100
AcDbEntity
  8
MODEL
100
AcDbVertex
100
AcDb2dVertex
 10
187.7323546939934
 20
403.4395304404144
 30
0.0
  0
SEQEND
  5
4E05
330
4E02
100
AcDbEntity
  8
MODEL
  0
POLYLINE
  5
4E06
330
A
100
AcDbEntity
  8
MODEL
100
AcDb2dPolyline
 66
     1
 10
0.0
 20
0.0
 30
0.0
  0
VERTEX
  5
4E07
330
4E06
100
AcDbEntity
  8
MODEL
100
AcDbVertex
100
AcDb2dVertex
 10
156.9136884782754
 20
379.3518645994317
 30
0.0
  0
VERTEX
  5
4E08
330
4E06
100
AcDbEntity
  8
MODEL
100
AcDbVertex
100
AcDb2dVertex
 10
181.0013543192581
 20
403.4395304404144
 30
0.0
  0
SEQEND
  5
4E09
330
4E06
100
AcDbEntity
  8
MODEL
  0
POLYLINE
  5
4E0A
330
A
100
AcDbEntity
  8
MODEL
100
AcDb2dPolyline
 66
     1
 10
0.0
 20
0.0
 30
0.0
  0
VERTEX
  5
4E0B
330
4E0A
100
AcDbEntity
  8
MODEL
100
AcDbVertex
100
AcDb2dVertex
 10
155.1780563824663
 20
384.3896073816896
 30
0.0
  0
VERTEX
  5
4E0C
330
4E0A
100
AcDbEntity
  8
MODEL
100
AcDbVertex
100
AcDb2dVertex
 10
174.2703539445228
 20
403.4395304404144
 30
0.0
  0
SEQEND
  5
4E0D
330
4E0A
100
AcDbEntity
  8
MODEL
  0
POLYLINE
  5
4E0E
330
A
100
AcDbEntity
  8
MODEL
100
AcDb2dPolyline
 66
     1
 10
0.0
 20
0.0
 30
0.0
  0
VERTEX
  5
4E0F
330
4E0E
100
AcDbEntity
  8
MODEL
100
AcDbVertex
100
AcDb2dVertex
 10
157.5062425086032
 20
393.4067638873874
 30
0.0
  0
VERTEX
  5
4E10
330
4E0E
100
AcDbEntity
  8
MODEL
100
AcDbVertex
100
AcDb2dVertex
 10
167.5393535697874
 20
403.4395304404144
 30
0.0
  0
SEQEND
  5
4E11
330
4E0E
100
AcDbEntity
  8
MODEL
  0
POLYLINE
  5
4E12
330
A
100
AcDbEntity
  8
MODEL
100
AcDb2dPolyline
 66
     1
 10
0.0
 20
0.0
 30
0.0
  0
VERTEX
  5
4E13
330
4E12
100
AcDbEntity
  8
MODEL
100
AcDbVertex
100
AcDb2dVertex
 10
156.278759944616
 20
398.9099371899783
 30
0.0
  0
VERTEX
  5
4E14
330
4E12
100
AcDbEntity
  8
MODEL
100
AcDbVertex
100
AcDb2dVertex
 10
160.8083531950521
 20
403.4395304404144
 30
0.0
  0
SEQEND
  5
4E15
330
4E12
100
AcDbEntity
  8
MODEL
  0
POLYLINE
  5
4E16
330
A
100
AcDbEntity
  8
MODEL
100
AcDb2dPolyline
 66
     1
 10
0.0
 20
0.0
 30
0.0
  0
VERTEX
  5
4E17
330
4E16
100
AcDbEntity
  8
MODEL
100
AcDbVertex
100
AcDb2dVertex
 10
219.4818819503777
 20
139.8308457880578
 30
0.0
  0
VERTEX
  5
4E18
330
4E16
100
AcDbEntity
  8
MODEL
100
AcDbVertex
100
AcDb2dVertex
 10
219.4818819503777
 20
235.7157341234985
 30
0.0
  0
SEQEND
  5
4E19
330
4E16
100
AcDbEntity
  8
MODEL
  0
POLYLINE
  5
4E1A
330
A
100
AcDbEntity
  8
MODEL
100
AcDb2dPolyline
 66
     1
 10
0.0
 20
0.0
 30
0.0
  0
VERTEX
  5
4E1B
330
4E1A
100
AcDbEntity
  8
MODEL
100
AcDbVertex
100
AcDb2dVertex
 10
215.4607827399205
 20
139.8308457880578
 30
0.0
  0
VERTEX
  5
4E1C
330
4E1A
100
AcDbEntity
  8
MODEL
100
AcDbVertex
100
AcDb2dVertex
 10
215.4607827399205
 20
240.0337993654339
 30
0.0
  0
SEQEND
  5
4E1D
330
4E1A
100
AcDbEntity
  8
MODEL
  0
POLYLINE
  5
4E1E
330
A
100
AcDbEntity
  8
MODEL
100
AcDb2dPolyline
 66
     1
 10
0.0
 20
0.0
 30
0.0
  0
VERTEX
  5
4E1F
330
4E1E
100
AcDbEntity
  8
MODEL
100
AcDbVertex
100
AcDb2dVertex
 10
220.709709022522
 20
242.0229894649181
 30
0.0
  0
VERTEX
  5
4E20
330
4E1E
100
AcDbEntity
  8
MODEL
100
AcDbVertex
100
AcDb2dVertex
 10
218.8045789133867
 20
237.7896732296459
 30
0.0
  0
VERTEX
  5
4E21
330
4E1E
100
AcDbEntity
  8
MODEL
100
AcDbVertex
100
AcDb2dVertex
 10
216.0953667654228
 20
244.9016996262083
 30
0.0
  0
VERTEX
  5
4E22
330
4E1E
100
AcDbEntity
  8
MODEL
100
AcDbVertex
100
AcDb2dVertex
 10
214.3177046744393
 20
241.2189074260895
 30
0.0
  0
SEQEND
  5
4E23
330
4E1E
100
AcDbEntity
  8
MODEL
  0
POLYLINE
  5
4E24
330
A
100
AcDbEntity
  8
MODEL
100
AcDb2dPolyline
 66
     1
 10
0.0
 20
0.0
 30
0.0
  0
VERTEX
  5
4E25
330
4E24
100
AcDbEntity
  8
MODEL
100
AcDbVertex
100
AcDb2dVertex
 10
214.3177046744393
 20
237.6628942278083
 30
0.0
  0
VERTEX
  5
4E26
330
4E24
100
AcDbEntity
  8
MODEL
100
AcDbVertex
100
AcDb2dVertex
 10
216.0953667654228
 20
241.3456864279271
 30
0.0
  0
VERTEX
  5
4E27
330
4E24
100
AcDbEntity
  8
MODEL
100
AcDbVertex
100
AcDb2dVertex
 10
218.8045789133867
 20
234.2763790428534
 30
0.0
  0
VERTEX
  5
4E28
330
4E24
100
AcDbEntity
  8
MODEL
100
AcDbVertex
100
AcDb2dVertex
 10
220.709709022522
 20
238.5096952781256
 30
0.0
  0
SEQEND
  5
4E29
330
4E24
100
AcDbEntity
  8
MODEL
  0
POLYLINE
  5
4E2A
330
A
100
AcDbEntity
  8
MODEL
100
AcDb2dPolyline
 66
     1
 10
0.0
 20
0.0
 30
0.0
  0
VERTEX
  5
4E2B
330
4E2A
100
AcDbEntity
  8
MODEL
100
AcDbVertex
100
AcDb2dVertex
 10
217.4499728394047
 20
427.8658477998927
 30
0.0
  0
VERTEX
  5
4E2C
330
4E2A
100
AcDbEntity
  8
MODEL
100
AcDbVertex
100
AcDb2dVertex
 10
217.4499728394047
 20
442.7672036300085
 30
0.0
  0
SEQEND
  5
4E2D
330
4E2A
100
AcDbEntity
  8
MODEL
  0
POLYLINE
  5
4E32
330
A
100
AcDbEntity
  8
MODEL
100
AcDb2dPolyline
 66
     1
 10
0.0
 20
0.0
 30
0.0
  0
VERTEX
  5
4E33
330
4E32
100
AcDbEntity
  8
MODEL
100
AcDbVertex
100
AcDb2dVertex
 10
217.4499728394047
 20
409.8742537999859
 30
0.0
  0
VERTEX
  5
4E34
330
4E32
100
AcDbEntity
  8
MODEL
100
AcDbVertex
100
AcDb2dVertex
 10
217.4499728394047
 20
421.8968994688115
 30
0.0
  0
SEQEND
  5
4E35
330
4E32
100
AcDbEntity
  8
MODEL
  0
POLYLINE
  5
4E36
330
A
100
AcDbEntity
  8
MODEL
100
AcDb2dPolyline
 66
     1
 10
0.0
 20
0.0
 30
0.0
  0
VERTEX
  5
4E37
330
4E36
100
AcDbEntity
  8
MODEL
100
AcDbVertex
100
AcDb2dVertex
 10
217.4499728394047
 20
405.3866905447242
 30
0.0
  0
VERTEX
  5
4E38
330
4E36
100
AcDbEntity
  8
MODEL
100
AcDbVertex
100
AcDb2dVertex
 10
217.4499728394047
 20
408.3925242160092
 30
0.0
  0
SEQEND
  5
4E39
330
4E36
100
AcDbEntity
  8
MODEL
  0
POLYLINE
  5
4E3A
330
A
100
AcDbEntity
  8
MODEL
100
AcDb2dPolyline
 66
     1
 10
0.0
 20
0.0
 30
0.0
  0
VERTEX
  5
4E3B
330
4E3A
100
AcDbEntity
  8
MODEL
100
AcDbVertex
100
AcDb2dVertex
 10
217.4499728394047
 20
391.8826598000791
 30
0.0
  0
VERTEX
  5
4E3C
330
4E3A
100
AcDbEntity
  8
MODEL
100
AcDbVertex
100
AcDb2dVertex
 10
217.4499728394047
 20
403.8629309655731
 30
0.0
  0
SEQEND
  5
4E3D
330
4E3A
100
AcDbEntity
  8
MODEL
  0
POLYLINE
  5
4E3E
330
A
100
AcDbEntity
  8
MODEL
100
AcDb2dPolyline
 66
     1
 10
0.0
 20
0.0
 30
0.0
  0
VERTEX
  5
4E3F
330
4E3E
100
AcDbEntity
  8
MODEL
100
AcDbVertex
100
AcDb2dVertex
 10
217.4499728394047
 20
387.3950965448174
 30
0.0
  0
VERTEX
  5
4E40
330
4E3E
100
AcDbEntity
  8
MODEL
100
AcDbVertex
100
AcDb2dVertex
 10
217.4499728394047
 20
390.4009302161024
 30
0.0
  0
SEQEND
  5
4E41
330
4E3E
100
AcDbEntity
  8
MODEL
  0
POLYLINE
  5
4E42
330
A
100
AcDbEntity
  8
MODEL
100
AcDb2dPolyline
 66
     1
 10
0.0
 20
0.0
 30
0.0
  0
VERTEX
  5
4E43
330
4E42
100
AcDbEntity
  8
MODEL
100
AcDbVertex
100
AcDb2dVertex
 10
217.4499728394047
 20
373.8910658001723
 30
0.0
  0
VERTEX
  5
4E44
330
4E42
100
AcDbEntity
  8
MODEL
100
AcDbVertex
100
AcDb2dVertex
 10
217.4499728394047
 20
385.8713369656663
 30
0.0
  0
SEQEND
  5
4E45
330
4E42
100
AcDbEntity
  8
MODEL
  0
POLYLINE
  5
4E46
330
A
100
AcDbEntity
  8
MODEL
100
AcDb2dPolyline
 66
     1
 10
0.0
 20
0.0
 30
0.0
  0
VERTEX
  5
4E47
330
4E46
100
AcDbEntity
  8
MODEL
100
AcDbVertex
100
AcDb2dVertex
 10
217.4499728394047
 20
369.3614725497362
 30
0.0
  0
VERTEX
  5
4E48
330
4E46
100
AcDbEntity
  8
MODEL
100
AcDbVertex
100
AcDb2dVertex
 10
217.4499728394047
 20
372.3669617128641
 30
0.0
  0
SEQEND
  5
4E49
330
4E46
100
AcDbEntity
  8
MODEL
  0
POLYLINE
  5
4E4A
330
A
100
AcDbEntity
  8
MODEL
100
AcDb2dPolyline
 66
     1
 10
0.0
 20
0.0
 30
0.0
  0
VERTEX
  5
4E4B
330
4E4A
100
AcDbEntity
  8
MODEL
100
AcDbVertex
100
AcDb2dVertex
 10
217.4499728394047
 20
355.8994718002655
 30
0.0
  0
VERTEX
  5
4E4C
330
4E4A
100
AcDbEntity
  8
MODEL
100
AcDbVertex
100
AcDb2dVertex
 10
217.4499728394047
 20
367.8797429657595
 30
0.0
  0
SEQEND
  5
4E4D
330
4E4A
100
AcDbEntity
  8
MODEL
  0
POLYLINE
  5
4E4E
330
A
100
AcDbEntity
  8
MODEL
100
AcDb2dPolyline
 66
     1
 10
0.0
 20
0.0
 30
0.0
  0
VERTEX
  5
4E4F
330
4E4E
100
AcDbEntity
  8
MODEL
100
AcDbVertex
100
AcDb2dVertex
 10
217.4499728394047
 20
351.3698785498294
 30
0.0
  0
VERTEX
  5
4E50
330
4E4E
100
AcDbEntity
  8
MODEL
100
AcDbVertex
100
AcDb2dVertex
 10
217.4499728394047
 20
354.3753677129573
 30
0.0
  0
SEQEND
  5
4E51
330
4E4E
100
AcDbEntity
  8
MODEL
  0
POLYLINE
  5
4E52
330
A
100
AcDbEntity
  8
MODEL
100
AcDb2dPolyline
 66
     1
 10
0.0
 20
0.0
 30
0.0
  0
VERTEX
  5
4E53
330
4E52
100
AcDbEntity
  8
MODEL
100
AcDbVertex
100
AcDb2dVertex
 10
217.4499728394047
 20
337.8655032970271
 30
0.0
  0
VERTEX
  5
4E54
330
4E52
100
AcDbEntity
  8
MODEL
100
AcDbVertex
100
AcDb2dVertex
 10
217.4499728394047
 20
349.8881489658527
 30
0.0
  0
SEQEND
  5
4E55
330
4E52
100
AcDbEntity
  8
MODEL
  0
POLYLINE
  5
4E56
330
A
100
AcDbEntity
  8
MODEL
100
AcDb2dPolyline
 66
     1
 10
0.0
 20
0.0
 30
0.0
  0
VERTEX
  5
4E57
330
4E56
100
AcDbEntity
  8
MODEL
100
AcDbVertex
100
AcDb2dVertex
 10
217.4499728394047
 20
333.3782845499227
 30
0.0
  0
VERTEX
  5
4E58
330
4E56
100
AcDbEntity
  8
MODEL
100
AcDbVertex
100
AcDb2dVertex
 10
217.4499728394047
 20
336.3837737130505
 30
0.0
  0
SEQEND
  5
4E59
330
4E56
100
AcDbEntity
  8
MODEL
  0
POLYLINE
  5
4E5A
330
A
100
AcDbEntity
  8
MODEL
100
AcDb2dPolyline
 66
     1
 10
0.0
 20
0.0
 30
0.0
  0
VERTEX
  5
4E5B
330
4E5A
100
AcDbEntity
  8
MODEL
100
AcDbVertex
100
AcDb2dVertex
 10
217.4499728394047
 20
319.8739092971203
 30
0.0
  0
VERTEX
  5
4E5C
330
4E5A
100
AcDbEntity
  8
MODEL
100
AcDbVertex
100
AcDb2dVertex
 10
217.4499728394047
 20
331.8965549659459
 30
0.0
  0
SEQEND
  5
4E5D
330
4E5A
100
AcDbEntity
  8
MODEL
  0
POLYLINE
  5
4E5E
330
A
100
AcDbEntity
  8
MODEL
100
AcDb2dPolyline
 66
     1
 10
0.0
 20
0.0
 30
0.0
  0
VERTEX
  5
4E5F
330
4E5E
100
AcDbEntity
  8
MODEL
100
AcDbVertex
100
AcDb2dVertex
 10
217.4499728394047
 20
315.3866905500159
 30
0.0
  0
VERTEX
  5
4E60
330
4E5E
100
AcDbEntity
  8
MODEL
100
AcDbVertex
100
AcDb2dVertex
 10
217.4499728394047
 20
318.3921797131437
 30
0.0
  0
SEQEND
  5
4E61
330
4E5E
100
AcDbEntity
  8
MODEL
  0
POLYLINE
  5
4E62
330
A
100
AcDbEntity
  8
MODEL
100
AcDb2dPolyline
 66
     1
 10
0.0
 20
0.0
 30
0.0
  0
VERTEX
  5
4E63
330
4E62
100
AcDbEntity
  8
MODEL
100
AcDbVertex
100
AcDb2dVertex
 10
217.4499728394047
 20
301.8823152972136
 30
0.0
  0
VERTEX
  5
4E64
330
4E62
100
AcDbEntity
  8
MODEL
100
AcDbVertex
100
AcDb2dVertex
 10
217.4499728394047
 20
313.8625864627076
 30
0.0
  0
SEQEND
  5
4E65
330
4E62
100
AcDbEntity
  8
MODEL
  0
POLYLINE
  5
4E66
330
A
100
AcDbEntity
  8
MODEL
100
AcDb2dPolyline
 66
     1
 10
0.0
 20
0.0
 30
0.0
  0
VERTEX
  5
4E67
330
4E66
100
AcDbEntity
  8
MODEL
100
AcDbVertex
100
AcDb2dVertex
 10
217.4499728394047
 20
297.3950965501091
 30
0.0
  0
VERTEX
  5
4E68
330
4E66
100
AcDbEntity
  8
MODEL
100
AcDbVertex
100
AcDb2dVertex
 10
217.4499728394047
 20
300.4005857132369
 30
0.0
  0
SEQEND
  5
4E69
330
4E66
100
AcDbEntity
  8
MODEL
  0
POLYLINE
  5
4E6A
330
A
100
AcDbEntity
  8
MODEL
100
AcDb2dPolyline
 66
     1
 10
0.0
 20
0.0
 30
0.0
  0
VERTEX
  5
4E6B
330
4E6A
100
AcDbEntity
  8
MODEL
100
AcDbVertex
100
AcDb2dVertex
 10
217.4499728394047
 20
283.8907212973068
 30
0.0
  0
VERTEX
  5
4E6C
330
4E6A
100
AcDbEntity
  8
MODEL
100
AcDbVertex
100
AcDb2dVertex
 10
217.4499728394047
 20
295.8709924628008
 30
0.0
  0
SEQEND
  5
4E6D
330
4E6A
100
AcDbEntity
  8
MODEL
  0
POLYLINE
  5
4E6E
330
A
100
AcDbEntity
  8
MODEL
100
AcDb2dPolyline
 66
     1
 10
0.0
 20
0.0
 30
0.0
  0
VERTEX
  5
4E6F
330
4E6E
100
AcDbEntity
  8
MODEL
100
AcDbVertex
100
AcDb2dVertex
 10
217.4499728394047
 20
279.4035025502023
 30
0.0
  0
VERTEX
  5
4E70
330
4E6E
100
AcDbEntity
  8
MODEL
100
AcDbVertex
100
AcDb2dVertex
 10
217.4499728394047
 20
282.3666172099985
 30
0.0
  0
SEQEND
  5
4E71
330
4E6E
100
AcDbEntity
  8
MODEL
  0
POLYLINE
  5
4E72
330
A
100
AcDbEntity
  8
MODEL
100
AcDb2dPolyline
 66
     1
 10
0.0
 20
0.0
 30
0.0
  0
VERTEX
  5
4E73
330
4E72
100
AcDbEntity
  8
MODEL
100
AcDbVertex
100
AcDb2dVertex
 10
217.4499728394047
 20
265.8991272974
 30
0.0
  0
VERTEX
  5
4E74
330
4E72
100
AcDbEntity
  8
MODEL
100
AcDbVertex
100
AcDb2dVertex
 10
217.4499728394047
 20
277.8793984628941
 30
0.0
  0
SEQEND
  5
4E75
330
4E72
100
AcDbEntity
  8
MODEL
  0
POLYLINE
  5
4E76
330
A
100
AcDbEntity
  8
MODEL
100
AcDb2dPolyline
 66
     1
 10
0.0
 20
0.0
 30
0.0
  0
VERTEX
  5
4E77
330
4E76
100
AcDbEntity
  8
MODEL
100
AcDbVertex
100
AcDb2dVertex
 10
217.4499728394047
 20
261.3691895388068
 30
0.0
  0
VERTEX
  5
4E78
330
4E76
100
AcDbEntity
  8
MODEL
100
AcDbVertex
100
AcDb2dVertex
 10
217.4499728394047
 20
264.3750232100917
 30
0.0
  0
SEQEND
  5
4E79
330
4E76
100
AcDbEntity
  8
MODEL
  0
POLYLINE
  5
4E7A
330
A
100
AcDbEntity
  8
MODEL
100
AcDb2dPolyline
 66
     1
 10
0.0
 20
0.0
 30
0.0
  0
VERTEX
  5
4E7B
330
4E7A
100
AcDbEntity
  8
MODEL
100
AcDbVertex
100
AcDb2dVertex
 10
217.4499728394047
 20
247.8651587941617
 30
0.0
  0
VERTEX
  5
4E7C
330
4E7A
100
AcDbEntity
  8
MODEL
100
AcDbVertex
100
AcDb2dVertex
 10
217.4499728394047
 20
259.8878044629872
 30
0.0
  0
SEQEND
  5
4E7D
330
4E7A
100
AcDbEntity
  8
MODEL
  0
POLYLINE
  5
4E7E
330
A
100
AcDbEntity
  8
MODEL
100
AcDb2dPolyline
 66
     1
 10
0.0
 20
0.0
 30
0.0
  0
VERTEX
  5
4E7F
330
4E7E
100
AcDbEntity
  8
MODEL
100
AcDbVertex
100
AcDb2dVertex
 10
217.4499728394047
 20
243.3775955389
 30
0.0
  0
VERTEX
  5
4E80
330
4E7E
100
AcDbEntity
  8
MODEL
100
AcDbVertex
100
AcDb2dVertex
 10
217.4499728394047
 20
246.3837737183422
 30
0.0
  0
SEQEND
  5
4E81
330
4E7E
100
AcDbEntity
  8
MODEL
  0
POLYLINE
  5
4E82
330
A
100
AcDbEntity
  8
MODEL
100
AcDb2dPolyline
 66
     1
 10
0.0
 20
0.0
 30
0.0
  0
VERTEX
  5
4E83
330
4E82
100
AcDbEntity
  8
MODEL
100
AcDbVertex
100
AcDb2dVertex
 10
217.4499728394047
 20
229.8735647942549
 30
0.0
  0
VERTEX
  5
4E84
330
4E82
100
AcDbEntity
  8
MODEL
100
AcDbVertex
100
AcDb2dVertex
 10
217.4499728394047
 20
241.8962104630805
 30
0.0
  0
SEQEND
  5
4E85
330
4E82
100
AcDbEntity
  8
MODEL
  0
POLYLINE
  5
4E86
330
A
100
AcDbEntity
  8
MODEL
100
AcDb2dPolyline
 66
     1
 10
0.0
 20
0.0
 30
0.0
  0
VERTEX
  5
4E87
330
4E86
100
AcDbEntity
  8
MODEL
100
AcDbVertex
100
AcDb2dVertex
 10
217.4499728394047
 20
225.3860015389932
 30
0.0
  0
VERTEX
  5
4E88
330
4E86
100
AcDbEntity
  8
MODEL
100
AcDbVertex
100
AcDb2dVertex
 10
217.4499728394047
 20
228.3921797184354
 30
0.0
  0
SEQEND
  5
4E89
330
4E86
100
AcDbEntity
  8
MODEL
  0
POLYLINE
  5
4E8A
330
A
100
AcDbEntity
  8
MODEL
100
AcDb2dPolyline
 66
     1
 10
0.0
 20
0.0
 30
0.0
  0
VERTEX
  5
4E8B
330
4E8A
100
AcDbEntity
  8
MODEL
100
AcDbVertex
100
AcDb2dVertex
 10
217.4499728394047
 20
211.8819707943481
 30
0.0
  0
VERTEX
  5
4E8C
330
4E8A
100
AcDbEntity
  8
MODEL
100
AcDbVertex
100
AcDb2dVertex
 10
217.4499728394047
 20
223.9046164631737
 30
0.0
  0
SEQEND
  5
4E8D
330
4E8A
100
AcDbEntity
  8
MODEL
  0
POLYLINE
  5
4E8E
330
A
100
AcDbEntity
  8
MODEL
100
AcDb2dPolyline
 66
     1
 10
0.0
 20
0.0
 30
0.0
  0
VERTEX
  5
4E8F
330
4E8E
100
AcDbEntity
  8
MODEL
100
AcDbVertex
100
AcDb2dVertex
 10
217.4499728394047
 20
207.3944075390864
 30
0.0
  0
VERTEX
  5
4E90
330
4E8E
100
AcDbEntity
  8
MODEL
100
AcDbVertex
100
AcDb2dVertex
 10
217.4499728394047
 20
210.4005857185286
 30
0.0
  0
SEQEND
  5
4E91
330
4E8E
100
AcDbEntity
  8
MODEL
  0
POLYLINE
  5
4E92
330
A
100
AcDbEntity
  8
MODEL
100
AcDb2dPolyline
 66
     1
 10
0.0
 20
0.0
 30
0.0
  0
VERTEX
  5
4E93
330
4E92
100
AcDbEntity
  8
MODEL
100
AcDbVertex
100
AcDb2dVertex
 10
217.4499728394047
 20
193.8903767944414
 30
0.0
  0
VERTEX
  5
4E94
330
4E92
100
AcDbEntity
  8
MODEL
100
AcDbVertex
100
AcDb2dVertex
 10
217.4499728394047
 20
205.8709924680925
 30
0.0
  0
SEQEND
  5
4E95
330
4E92
100
AcDbEntity
  8
MODEL
  0
POLYLINE
  5
4E96
330
A
100
AcDbEntity
  8
MODEL
100
AcDb2dPolyline
 66
     1
 10
0.0
 20
0.0
 30
0.0
  0
VERTEX
  5
4E97
330
4E96
100
AcDbEntity
  8
MODEL
100
AcDbVertex
100
AcDb2dVertex
 10
217.4499728394047
 20
189.4028135391796
 30
0.0
  0
VERTEX
  5
4E98
330
4E96
100
AcDbEntity
  8
MODEL
100
AcDbVertex
100
AcDb2dVertex
 10
217.4499728394047
 20
192.366272707133
 30
0.0
  0
SEQEND
  5
4E99
330
4E96
100
AcDbEntity
  8
MODEL
  0
POLYLINE
  5
4E9A
330
A
100
AcDbEntity
  8
MODEL
100
AcDb2dPolyline
 66
     1
 10
0.0
 20
0.0
 30
0.0
  0
VERTEX
  5
4E9B
330
4E9A
100
AcDbEntity
  8
MODEL
100
AcDbVertex
100
AcDb2dVertex
 10
217.4499728394047
 20
175.8987827945346
 30
0.0
  0
VERTEX
  5
4E9C
330
4E9A
100
AcDbEntity
  8
MODEL
100
AcDbVertex
100
AcDb2dVertex
 10
217.4499728394047
 20
187.8793984681857
 30
0.0
  0
SEQEND
  5
4E9D
330
4E9A
100
AcDbEntity
  8
MODEL
  0
POLYLINE
  5
4E9E
330
A
100
AcDbEntity
  8
MODEL
100
AcDb2dPolyline
 66
     1
 10
0.0
 20
0.0
 30
0.0
  0
VERTEX
  5
4E9F
330
4E9E
100
AcDbEntity
  8
MODEL
100
AcDbVertex
100
AcDb2dVertex
 10
217.4499728394047
 20
171.3691895440984
 30
0.0
  0
VERTEX
  5
4EA0
330
4E9E
100
AcDbEntity
  8
MODEL
100
AcDbVertex
100
AcDb2dVertex
 10
217.4499728394047
 20
174.3746787072263
 30
0.0
  0
SEQEND
  5
4EA1
330
4E9E
100
AcDbEntity
  8
MODEL
  0
POLYLINE
  5
4EA2
330
A
100
AcDbEntity
  8
MODEL
100
AcDb2dPolyline
 66
     1
 10
0.0
 20
0.0
 30
0.0
  0
VERTEX
  5
4EA3
330
4EA2
100
AcDbEntity
  8
MODEL
100
AcDbVertex
100
AcDb2dVertex
 10
217.4499728394047
 20
157.9071887946278
 30
0.0
  0
VERTEX
  5
4EA4
330
4EA2
100
AcDbEntity
  8
MODEL
100
AcDbVertex
100
AcDb2dVertex
 10
217.4499728394047
 20
169.8878044682789
 30
0.0
  0
SEQEND
  5
4EA5
330
4EA2
100
AcDbEntity
  8
MODEL
  0
POLYLINE
  5
4EA6
330
A
100
AcDbEntity
  8
MODEL
100
AcDb2dPolyline
 66
     1
 10
0.0
 20
0.0
 30
0.0
  0
VERTEX
  5
4EA7
330
4EA6
100
AcDbEntity
  8
MODEL
100
AcDbVertex
100
AcDb2dVertex
 10
217.4499728394047
 20
153.3775955441917
 30
0.0
  0
VERTEX
  5
4EA8
330
4EA6
100
AcDbEntity
  8
MODEL
100
AcDbVertex
100
AcDb2dVertex
 10
217.4499728394047
 20
156.3830847073195
 30
0.0
  0
SEQEND
  5
4EA9
330
4EA6
100
AcDbEntity
  8
MODEL
  0
POLYLINE
  5
4EAA
330
A
100
AcDbEntity
  8
MODEL
100
AcDb2dPolyline
 66
     1
 10
0.0
 20
0.0
 30
0.0
  0
VERTEX
  5
4EAB
330
4EAA
100
AcDbEntity
  8
MODEL
100
AcDbVertex
100
AcDb2dVertex
 10
217.4499728394047
 20
136.9948546382564
 30
0.0
  0
VERTEX
  5
4EAC
330
4EAA
100
AcDbEntity
  8
MODEL
100
AcDbVertex
100
AcDb2dVertex
 10
217.4499728394047
 20
151.8962104683721
 30
0.0
  0
SEQEND
  5
4EAD
330
4EAA
100
AcDbEntity
  8
MODEL
  0
POLYLINE
  5
4EAE
330
A
100
AcDbEntity
  8
MODEL
100
AcDb2dPolyline
 66
     1
 10
0.0
 20
0.0
 30
0.0
  0
VERTEX
  5
4EAF
330
4EAE
100
AcDbEntity
  8
MODEL
100
AcDbVertex
100
AcDb2dVertex
 10
219.4818819503777
 20
239.229028310291
 30
0.0
  0
VERTEX
  5
4EB0
330
4EAE
100
AcDbEntity
  8
MODEL
100
AcDbVertex
100
AcDb2dVertex
 10
219.4818819503777
 20
334.309490098746
 30
0.0
  0
SEQEND
  5
4EB1
330
4EAE
100
AcDbEntity
  8
MODEL
  0
POLYLINE
  5
4EB2
330
A
100
AcDbEntity
  8
MODEL
100
AcDb2dPolyline
 66
     1
 10
0.0
 20
0.0
 30
0.0
  0
VERTEX
  5
4EB3
330
4EB2
100
AcDbEntity
  8
MODEL
100
AcDbVertex
100
AcDb2dVertex
 10
215.4607827399205
 20
243.5470935522263
 30
0.0
  0
VERTEX
  5
4EB4
330
4EB2
100
AcDbEntity
  8
MODEL
100
AcDbVertex
100
AcDb2dVertex
 10
215.4607827399205
 20
334.309490098746
 30
0.0
  0
SEQEND
  5
4EB5
330
4EB2
100
AcDbEntity
  8
MODEL
  0
POLYLINE
  5
4EB6
330
A
100
AcDbEntity
  8
MODEL
100
AcDb2dPolyline
 66
     1
 10
0.0
 20
0.0
 30
0.0
  0
VERTEX
  5
4EB7
330
4EB6
100
AcDbEntity
  8
MODEL
100
AcDbVertex
100
AcDb2dVertex
 10
130.9212370363144
 20
366.0593618632873
 30
0.0
  0
VERTEX
  5
4EB8
330
4EB6
100
AcDbEntity
  8
MODEL
100
AcDbVertex
100
AcDb2dVertex
 10
130.9212370363144
 20
375.6690723993129
 30
0.0
  0
SEQEND
  5
4EB9
330
4EB6
100
AcDbEntity
  8
MODEL
  0
POLYLINE
  5
4EC2
330
A
100
AcDbEntity
  8
MODEL
100
AcDb2dPolyline
 66
     1
 10
0.0
 20
0.0
 30
0.0
  0
VERTEX
  5
4EC3
330
4EC2
100
AcDbEntity
  8
MODEL
100
AcDbVertex
100
AcDb2dVertex
 10
149.124359044722
 20
403.4395304404144
 30
0.0
  0
VERTEX
  5
4EC4
330
4EC2
100
AcDbEntity
  8
MODEL
100
AcDbVertex
100
AcDb2dVertex
 10
130.9212370363144
 20
403.4395304404144
 30
0.0
  0
SEQEND
  5
4EC5
330
4EC2
100
AcDbEntity
  8
MODEL
  0
POLYLINE
  5
515D
330
A
100
AcDbEntity
  8
MODEL
100
AcDb2dPolyline
 66
     1
 10
0.0
 20
0.0
 30
0.0
  0
VERTEX
  5
515E
330
515D
100
AcDbEntity
  8
MODEL
100
AcDbVertex
100
AcDb2dVertex
 10
273.5841319682499
 20
403.4395304404144
 30
0.0
  0
VERTEX
  5
515F
330
515D
100
AcDbEntity
  8
MODEL
100
AcDbVertex
100
AcDb2dVertex
 10
257.2854510526634
 20
403.4395304404144
 30
0.0
  0
SEQEND
  5
5160
330
515D
100
AcDbEntity
  8
MODEL
  0
POLYLINE
  5
5440
330
A
100
AcDbEntity
  8
MODEL
100
AcDb2dPolyline
 66
     1
 10
0.0
 20
0.0
 30
0.0
  0
VERTEX
  5
5441
330
5440
100
AcDbEntity
  8
MODEL
100
AcDbVertex
100
AcDb2dVertex
 10
222.0222851013296
 20
430.8713369630205
 30
0.0
  0
VERTEX
  5
5442
330
5440
100
AcDbEntity
  8
MODEL
100
AcDbVertex
100
AcDb2dVertex
 10
222.0222851013296
 20
424.7756096301017
 30
0.0
  0
SEQEND
  5
5443
330
5440
100
AcDbEntity
  8
MODEL
  0
POLYLINE
  5
5444
330
A
100
AcDbEntity
  8
MODEL
100
AcDb2dPolyline
 66
     1
 10
0.0
 20
0.0
 30
0.0
  0
VERTEX
  5
5445
330
5444
100
AcDbEntity
  8
MODEL
100
AcDbVertex
100
AcDb2dVertex
 10
212.9203795889686
 20
430.8713369630205
 30
0.0
  0
VERTEX
  5
5446
330
5444
100
AcDbEntity
  8
MODEL
100
AcDbVertex
100
AcDb2dVertex
 10
212.9203795889686
 20
424.7756096301017
 30
0.0
  0
SEQEND
  5
5447
330
5444
100
AcDbEntity
  8
MODEL
  0
POLYLINE
  5
56D0
330
A
100
AcDbEntity
  8
MODEL
100
AcDb2dPolyline
 66
     1
 10
0.0
 20
0.0
 30
0.0
  0
VERTEX
  5
56D1
330
56D0
100
AcDbEntity
  8
MODEL
100
AcDbVertex
100
AcDb2dVertex
 10
188.8754327594746
 20
403.4395304404144
 30
0.0
  0
VERTEX
  5
56D2
330
56D0
100
AcDbEntity
  8
MODEL
100
AcDbVertex
100
AcDb2dVertex
 10
174.058825936022
 20
403.4395304404144
 30
0.0
  0
SEQEND
  5
56D3
330
56D0
100
AcDbEntity
  8
MODEL
  0
DIMENSION
  5
5BC9
102
{ACAD_REACTORS
330
5BCB
102
}
102
{ACAD_XDICTIONARY
360
5BCA
102
}
330
A
100
AcDbEntity
  8
DIM
100
AcDbDimension
  2
*D13
 10
312.1251919795583
 20
403.4395304404144
 30
0.0
 11
306.6251919795583
 21
271.4446751033226
 31
0.0
 70
    32
  1
300
 71
     5
 42
263.9897106741837
 73
     0
 74
     0
 75
     0
  3
tfrom線あり
100
AcDbAlignedDimension
 13
225.154553266295
 23
139.4498197662307
 33
0.0
 14
279.6798593011687
 24
403.4395304404144
 34
0.0
 50
90.0
100
AcDbRotatedDimension
1001
ACAD
1000
DSTYLE
1002
{
1070
   144
1040
1.0
1002
}
  0
DIMENSION
  5
5BD8
330
A
100
AcDbEntity
  8
DIM
100
AcDbDimension
  2
*D14
 10
239.9711600897476
 20
466.6901499928833
 30
0.0
 11
217.4711600910705
 21
472.1901499928833
 31
0.0
 70
    32
 71
     5
 42
44.99999999735417
 73
     0
 74
     0
 75
     0
  3
tfrom線あり
100
AcDbAlignedDimension
 13
194.9711600923934
 23
416.5628796713896
 33
0.0
 14
239.9711600897476
 24
416.5628796713896
 34
0.0
100
AcDbRotatedDimension
1001
ACAD
1000
DSTYLE
1002
{
1070
     3
1000
%%c<>
1070
   271
1070
     8
1070
   144
1040
1.0
1002
}
  0
DIMENSION
  5
5BF7
330
A
100
AcDbEntity
  8
DIM
100
AcDbDimension
  2
*D16
 10
222.428235459769
 20
452.5306137489649
 30
0.0
 11
217.428235459769
 21
452.5306137489649
 31
0.0
 70
   160
 71
     5
 42
10.0
 73
     0
 74
     0
 75
     0
  3
tfrom線あり
100
AcDbAlignedDimension
 13
212.428235459769
 23
438.6070360936916
 33
0.0
 14
222.428235459769
 24
438.6070360936916
 34
0.0
100
AcDbRotatedDimension
1001
ACAD
1000
DSTYLE
1002
{
1070
     3
1000
%%c<>
1070
   144
1040
1.0
1002
}
  0
DIMENSION
  5
5C08
330
A
100
AcDbEntity
  8
DIM
100
AcDbDimension
  2
*D17
 10
130.9212370363144
 20
403.4395304404144
 30
0.0
 11
125.4212370363144
 21
421.2617986810735
 31
0.0
 70
    32
 71
     5
 42
35.64453648131808
 73
     0
 74
     0
 75
     0
  3
tfrom線あり
100
AcDbAlignedDimension
 13
206.8246522560499
 23
439.0840669217325
 33
0.0
 14
154.2322042783982
 24
403.4395304404144
 34
0.0
 50
90.0
100
AcDbRotatedDimension
1001
ACAD
1000
DSTYLE
1002
{
1070
   144
1040
1.0
1002
}
  0
DIMENSION
  5
5C17
102
{ACAD_REACTORS
330
5C19
102
}
102
{ACAD_XDICTIONARY
360
5C18
102
}
330
A
100
AcDbEntity
  8
DIM
100
AcDbDimension
  2
*D18
 10
130.9212370363144
 20
403.4395304404144
 30
0.0
 11
125.4212370363144
 21
382.7385520384652
 31
0.0
 70
    32
  1
　
 71
     5
 42
41.40195680389849
 73
     0
 74
     0
 75
     0
  3
tfrom線あり
100
AcDbAlignedDimension
 13
155.2204308857979
 23
362.0375736365159
 33
0.0
 14
154.2322042783982
 24
403.4395304404144
 34
0.0
 50
90.0
100
AcDbRotatedDimension
1001
ACAD
1000
DSTYLE
1002
{
1070
    48
1040
10.0
1070
    72
1070
     0
1070
    71
1070
     1
1070
   144
1040
1.0
1002
}
  0
SPLINE
  5
7824
330
A
100
AcDbEntity
  8
MODEL
100
AcDbSpline
210
0.0
220
0.0
230
1.0
 70
     8
 71
     3
 72
     8
 73
     4
 74
     0
 42
0.000000001
 43
0.0000000001
 40
0.0
 40
0.0
 40
0.0
 40
0.0
 40
1.0
 40
1.0
 40
1.0
 40
1.0
 10
83.97067163442375
 20
138.335607893338
 30
0.0
 10
86.03744409536125
 20
138.335607893338
 30
0.0
 10
83.83737085317375
 20
140.602209455838
 30
0.0
 10
83.83737085317375
 20
140.602209455838
 30
0.0
  0
SPLINE
  5
7825
330
A
100
AcDbEntity
  8
MODEL
100
AcDbSpline
210
0.0
220
0.0
230
1.0
 70
     8
 71
     3
 72
     8
 73
     4
 74
     0
 42
0.000000001
 43
0.0000000001
 40
0.0
 40
0.0
 40
0.0
 40
0.0
 40
1.0
 40
1.0
 40
1.0
 40
1.0
 10
83.97067163442375
 20
138.335607893338
 30
0.0
 10
86.03744409536125
 20
138.335607893338
 30
0.0
 10
83.83737085317375
 20
140.602209455838
 30
0.0
 10
83.83737085317375
 20
140.602209455838
 30
0.0
  0
SPLINE
  5
7826
330
A
100
AcDbEntity
  8
MODEL
100
AcDbSpline
210
0.0
220
0.0
230
1.0
 70
     8
 71
     3
 72
     8
 73
     4
 74
     0
 42
0.000000001
 43
0.0000000001
 40
0.0
 40
0.0
 40
0.0
 40
0.0
 40
1.0
 40
1.0
 40
1.0
 40
1.0
 10
83.69967554067375
 20
142.861975080838
 30
0.0
 10
81.63290307973625
 20
142.861975080838
 30
0.0
 10
83.83297632192375
 20
140.595129377713
 30
0.0
 10
83.83297632192375
 20
140.595129377713
 30
0.0
  0
SPLINE
  5
7827
330
A
100
AcDbEntity
  8
MODEL
100
AcDbSpline
210
0.0
220
0.0
230
1.0
 70
     8
 71
     3
 72
     8
 73
     4
 74
     0
 42
0.000000001
 43
0.0000000001
 40
0.0
 40
0.0
 40
0.0
 40
0.0
 40
1.0
 40
1.0
 40
1.0
 40
1.0
 10
83.69967554067375
 20
142.861975080838
 30
0.0
 10
81.63290307973625
 20
142.861975080838
 30
0.0
 10
83.83297632192375
 20
140.595129377713
 30
0.0
 10
83.83297632192375
 20
140.595129377713
 30
0.0
  0
LINE
  5
7830
330
A
100
AcDbEntity
  8
MODEL
100
AcDbLine
 10
72.01742456411125
 20
137.329992658963
 30
0.0
 11
72.16708276723625
 21
137.465002424588
 31
0.0
  0
LINE
  5
7831
330
A
100
AcDbEntity
  8
MODEL
100
AcDbLine
 10
72.16708276723625
 20
137.465002424588
 30
0.0
 11
70.74240015004875
 21
137.465002424588
 31
0.0
  0
LINE
  5
7832
330
A
100
AcDbEntity
  8
MODEL
100
AcDbLine
 10
72.01742456411125
 20
137.329992658963
 30
0.0
 11
70.89242456411125
 21
137.329992658963
 31
0.0
  0
LINE
  5
7833
330
A
100
AcDbEntity
  8
MODEL
100
AcDbLine
 10
70.89242456411125
 20
137.329992658963
 30
0.0
 11
70.74240015004875
 21
137.465002424588
 31
0.0
  0
LINE
  5
7834
330
A
100
AcDbEntity
  8
MODEL
100
AcDbLine
 10
73.06735132192375
 20
233.365148908963
 30
0.0
 11
73.06735132192375
 21
243.5054076980255
 31
0.0
  0
LINE
  5
7835
330
A
100
AcDbEntity
  8
MODEL
100
AcDbLine
 10
73.06735132192375
 20
243.5054076980255
 30
0.0
 11
69.84213159536125
 21
243.5054076980255
 31
0.0
  0
LINE
  5
7836
330
A
100
AcDbEntity
  8
MODEL
100
AcDbLine
 10
69.84213159536125
 20
233.365148908963
 30
0.0
 11
69.84213159536125
 21
243.5054076980255
 31
0.0
  0
LINE
  5
7837
330
A
100
AcDbEntity
  8
MODEL
100
AcDbLine
 10
63.48214624379875
 20
230.875402815213
 30
0.0
 11
79.42709253286125
 21
230.875402815213
 31
0.0
  0
LINE
  5
7838
330
A
100
AcDbEntity
  8
MODEL
100
AcDbLine
 10
79.42709253286125
 20
230.875402815213
 30
0.0
 11
79.42709253286125
 21
233.365393049588
 31
0.0
  0
LINE
  5
7839
330
A
100
AcDbEntity
  8
MODEL
100
AcDbLine
 10
79.42709253286125
 20
233.365393049588
 30
0.0
 11
63.48214624379875
 21
233.365393049588
 31
0.0
  0
LINE
  5
783A
330
A
100
AcDbEntity
  8
MODEL
100
AcDbLine
 10
63.48214624379875
 20
233.365393049588
 30
0.0
 11
63.48214624379875
 21
230.875402815213
 31
0.0
  0
LINE
  5
783F
330
A
100
AcDbEntity
  8
MODEL
100
AcDbLine
 10
63.48214624379875
 20
215.290197737088
 30
0.0
 11
79.42721460317375
 21
215.290197737088
 31
0.0
  0
LINE
  5
7840
330
A
100
AcDbEntity
  8
MODEL
100
AcDbLine
 10
63.48214624379875
 20
215.755285627713
 30
0.0
 11
79.42721460317375
 21
215.755285627713
 31
0.0
  0
LINE
  5
7841
330
A
100
AcDbEntity
  8
MODEL
100
AcDbLine
 10
79.42721460317375
 20
216.205236799588
 30
0.0
 11
79.42721460317375
 21
215.290197737088
 31
0.0
  0
LINE
  5
7842
330
A
100
AcDbEntity
  8
MODEL
100
AcDbLine
 10
79.42721460317375
 20
216.205236799588
 30
0.0
 11
63.48214624379875
 21
216.205236799588
 31
0.0
  0
LINE
  5
7843
330
A
100
AcDbEntity
  8
MODEL
100
AcDbLine
 10
63.48214624379875
 20
216.205236799588
 30
0.0
 11
63.48214624379875
 21
215.290197737088
 31
0.0
  0
LINE
  5
7852
330
A
100
AcDbEntity
  8
MODEL
100
AcDbLine
 10
74.04220483754875
 20
206.380285627713
 30
0.0
 11
74.38741968129875
 21
206.515295393338
 31
0.0
  0
LINE
  5
7853
330
A
100
AcDbEntity
  8
MODEL
100
AcDbLine
 10
74.04220483754875
 20
206.380285627713
 30
0.0
 11
68.86740015004875
 21
206.380285627713
 31
0.0
  0
LINE
  5
7854
330
A
100
AcDbEntity
  8
MODEL
100
AcDbLine
 10
68.86740015004875
 20
206.380285627713
 30
0.0
 11
68.50717065786125
 21
206.515295393338
 31
0.0
  0
LINE
  5
7855
330
A
100
AcDbEntity
  8
MODEL
100
AcDbLine
 10
68.86740015004875
 20
209.590246565213
 30
0.0
 11
68.50717065786125
 21
209.455236799588
 31
0.0
  0
LINE
  5
7856
330
A
100
AcDbEntity
  8
MODEL
100
AcDbLine
 10
74.38741968129875
 20
206.515295393338
 30
0.0
 11
74.38741968129875
 21
209.455236799588
 31
0.0
  0
LINE
  5
7857
330
A
100
AcDbEntity
  8
MODEL
100
AcDbLine
 10
74.38741968129875
 20
209.455236799588
 30
0.0
 11
74.04220483754875
 21
209.590246565213
 31
0.0
  0
LINE
  5
7858
330
A
100
AcDbEntity
  8
MODEL
100
AcDbLine
 10
68.50717065786125
 20
209.455236799588
 30
0.0
 11
68.50717065786125
 21
206.515295393338
 31
0.0
  0
LINE
  5
7859
330
A
100
AcDbEntity
  8
MODEL
100
AcDbLine
 10
68.86740015004875
 20
209.590246565213
 30
0.0
 11
74.04220483754875
 21
209.590246565213
 31
0.0
  0
LINE
  5
785A
330
A
100
AcDbEntity
  8
MODEL
100
AcDbLine
 10
69.13741968129875
 20
209.590246565213
 30
0.0
 11
69.13741968129875
 21
213.5952514480255
 31
0.0
  0
LINE
  5
785B
330
A
100
AcDbEntity
  8
MODEL
100
AcDbLine
 10
73.77218530629875
 20
209.590246565213
 30
0.0
 11
73.77218530629875
 21
213.5952514480255
 31
0.0
  0
LINE
  5
785C
330
A
100
AcDbEntity
  8
MODEL
100
AcDbLine
 10
74.88217065786125
 20
230.8752807449005
 30
0.0
 11
74.88217065786125
 21
229.360266096463
 31
0.0
  0
LINE
  5
785D
330
A
100
AcDbEntity
  8
MODEL
100
AcDbLine
 10
74.88217065786125
 20
229.360266096463
 30
0.0
 11
68.01241968129875
 21
229.360266096463
 31
0.0
  0
LINE
  5
785E
330
A
100
AcDbEntity
  8
MODEL
100
AcDbLine
 10
68.01241968129875
 20
230.8752807449005
 30
0.0
 11
68.01241968129875
 21
229.360266096463
 31
0.0
  0
LINE
  5
785F
330
A
100
AcDbEntity
  8
MODEL
100
AcDbLine
 10
73.77218530629875
 20
216.205236799588
 30
0.0
 11
73.77218530629875
 21
229.360266096463
 31
0.0
  0
LINE
  5
7860
330
A
100
AcDbEntity
  8
MODEL
100
AcDbLine
 10
69.13741968129875
 20
216.205236799588
 30
0.0
 11
69.13741968129875
 21
229.360266096463
 31
0.0
  0
LINE
  5
7861
330
A
100
AcDbEntity
  8
MODEL
100
AcDbLine
 10
72.91720483754875
 20
215.140295393338
 30
0.0
 11
72.18221948598625
 21
215.245275862088
 31
0.0
  0
LINE
  5
7862
330
A
100
AcDbEntity
  8
MODEL
100
AcDbLine
 10
72.18221948598625
 20
215.245275862088
 30
0.0
 11
71.44723413442375
 21
215.290197737088
 31
0.0
  0
LINE
  5
7863
330
A
100
AcDbEntity
  8
MODEL
100
AcDbLine
 10
71.44723413442375
 20
215.290197737088
 30
0.0
 11
70.71224878286125
 21
215.245275862088
 31
0.0
  0
LINE
  5
7864
330
A
100
AcDbEntity
  8
MODEL
100
AcDbLine
 10
70.71224878286125
 20
215.245275862088
 30
0.0
 11
69.97726343129875
 21
215.140295393338
 31
0.0
  0
LINE
  5
7865
330
A
100
AcDbEntity
  8
MODEL
100
AcDbLine
 10
72.91720483754875
 20
209.455236799588
 30
0.0
 11
72.91720483754875
 21
206.515295393338
 31
0.0
  0
LINE
  5
7866
330
A
100
AcDbEntity
  8
MODEL
100
AcDbLine
 10
69.97726343129875
 20
209.455236799588
 30
0.0
 11
69.97726343129875
 21
206.515295393338
 31
0.0
  0
LINE
  5
7867
330
A
100
AcDbEntity
  8
MODEL
100
AcDbLine
 10
72.91720483754875
 20
206.515295393338
 30
0.0
 11
73.27731225942375
 21
206.4101928542755
 31
0.0
  0
LINE
  5
7868
330
A
100
AcDbEntity
  8
MODEL
100
AcDbLine
 10
73.27731225942375
 20
206.4101928542755
 30
0.0
 11
73.65231225942375
 21
206.380285627713
 31
0.0
  0
LINE
  5
7869
330
A
100
AcDbEntity
  8
MODEL
100
AcDbLine
 10
73.65231225942375
 20
206.380285627713
 30
0.0
 11
74.02731225942375
 21
206.4101928542755
 31
0.0
  0
LINE
  5
786A
330
A
100
AcDbEntity
  8
MODEL
100
AcDbLine
 10
74.02731225942375
 20
206.4101928542755
 30
0.0
 11
74.38754175161125
 21
206.515295393338
 31
0.0
  0
LINE
  5
786B
330
A
100
AcDbEntity
  8
MODEL
100
AcDbLine
 10
68.50729272817375
 20
206.515295393338
 30
0.0
 11
68.88229272817375
 21
206.4101928542755
 31
0.0
  0
LINE
  5
786C
330
A
100
AcDbEntity
  8
MODEL
100
AcDbLine
 10
68.88229272817375
 20
206.4101928542755
 30
0.0
 11
69.24252222036125
 21
206.380285627713
 31
0.0
  0
LINE
  5
786D
330
A
100
AcDbEntity
  8
MODEL
100
AcDbLine
 10
69.24252222036125
 20
206.380285627713
 30
0.0
 11
69.61752222036125
 21
206.4101928542755
 31
0.0
  0
LINE
  5
786E
330
A
100
AcDbEntity
  8
MODEL
100
AcDbLine
 10
69.61752222036125
 20
206.4101928542755
 30
0.0
 11
69.97726343129875
 21
206.515295393338
 31
0.0
  0
LINE
  5
786F
330
A
100
AcDbEntity
  8
MODEL
100
AcDbLine
 10
69.97726343129875
 20
206.515295393338
 30
0.0
 11
70.71224878286125
 21
206.4101928542755
 31
0.0
  0
LINE
  5
7870
330
A
100
AcDbEntity
  8
MODEL
100
AcDbLine
 10
70.71224878286125
 20
206.4101928542755
 30
0.0
 11
71.44723413442375
 21
206.380285627713
 31
0.0
  0
LINE
  5
7871
330
A
100
AcDbEntity
  8
MODEL
100
AcDbLine
 10
71.44723413442375
 20
206.380285627713
 30
0.0
 11
72.18221948598625
 21
206.4101928542755
 31
0.0
  0
LINE
  5
7872
330
A
100
AcDbEntity
  8
MODEL
100
AcDbLine
 10
72.18221948598625
 20
206.4101928542755
 30
0.0
 11
72.91720483754875
 21
206.515295393338
 31
0.0
  0
LINE
  5
7873
330
A
100
AcDbEntity
  8
MODEL
100
AcDbLine
 10
74.38754175161125
 20
209.455236799588
 30
0.0
 11
74.02731225942375
 21
209.560217268338
 31
0.0
  0
LINE
  5
7874
330
A
100
AcDbEntity
  8
MODEL
100
AcDbLine
 10
74.02731225942375
 20
209.560217268338
 30
0.0
 11
73.65231225942375
 21
209.590246565213
 31
0.0
  0
LINE
  5
7875
330
A
100
AcDbEntity
  8
MODEL
100
AcDbLine
 10
73.65231225942375
 20
209.590246565213
 30
0.0
 11
73.27731225942375
 21
209.560217268338
 31
0.0
  0
LINE
  5
7876
330
A
100
AcDbEntity
  8
MODEL
100
AcDbLine
 10
73.27731225942375
 20
209.560217268338
 30
0.0
 11
72.91720483754875
 21
209.455236799588
 31
0.0
  0
LINE
  5
7877
330
A
100
AcDbEntity
  8
MODEL
100
AcDbLine
 10
72.91720483754875
 20
209.455236799588
 30
0.0
 11
72.18221948598625
 21
209.560217268338
 31
0.0
  0
LINE
  5
7878
330
A
100
AcDbEntity
  8
MODEL
100
AcDbLine
 10
72.18221948598625
 20
209.560217268338
 30
0.0
 11
71.44723413442375
 21
209.590246565213
 31
0.0
  0
LINE
  5
7879
330
A
100
AcDbEntity
  8
MODEL
100
AcDbLine
 10
71.44723413442375
 20
209.590246565213
 30
0.0
 11
70.71224878286125
 21
209.560217268338
 31
0.0
  0
LINE
  5
787A
330
A
100
AcDbEntity
  8
MODEL
100
AcDbLine
 10
70.71224878286125
 20
209.560217268338
 30
0.0
 11
69.97726343129875
 21
209.455236799588
 31
0.0
  0
LINE
  5
787B
330
A
100
AcDbEntity
  8
MODEL
100
AcDbLine
 10
69.97726343129875
 20
209.455236799588
 30
0.0
 11
69.61752222036125
 21
209.560217268338
 31
0.0
  0
LINE
  5
787C
330
A
100
AcDbEntity
  8
MODEL
100
AcDbLine
 10
69.61752222036125
 20
209.560217268338
 30
0.0
 11
69.24252222036125
 21
209.590246565213
 31
0.0
  0
LINE
  5
787D
330
A
100
AcDbEntity
  8
MODEL
100
AcDbLine
 10
69.24252222036125
 20
209.590246565213
 30
0.0
 11
68.88229272817375
 21
209.560217268338
 31
0.0
  0
LINE
  5
787E
330
A
100
AcDbEntity
  8
MODEL
100
AcDbLine
 10
68.88229272817375
 20
209.560217268338
 30
0.0
 11
68.50729272817375
 21
209.455236799588
 31
0.0
  0
LINE
  5
787F
330
A
100
AcDbEntity
  8
MODEL
100
AcDbLine
 10
68.86740015004875
 20
215.2903198074005
 30
0.0
 11
74.04220483754875
 21
215.2903198074005
 31
0.0
  0
LINE
  5
7880
330
A
100
AcDbEntity
  8
MODEL
100
AcDbLine
 10
69.97726343129875
 20
215.140295393338
 30
0.0
 11
69.61752222036125
 21
215.245275862088
 31
0.0
  0
LINE
  5
7881
330
A
100
AcDbEntity
  8
MODEL
100
AcDbLine
 10
69.61752222036125
 20
215.245275862088
 30
0.0
 11
69.24252222036125
 21
215.2903198074005
 31
0.0
  0
LINE
  5
7882
330
A
100
AcDbEntity
  8
MODEL
100
AcDbLine
 10
69.24252222036125
 20
215.2903198074005
 30
0.0
 11
68.88229272817375
 21
215.245275862088
 31
0.0
  0
LINE
  5
7883
330
A
100
AcDbEntity
  8
MODEL
100
AcDbLine
 10
68.88229272817375
 20
215.245275862088
 30
0.0
 11
68.50729272817375
 21
215.140295393338
 31
0.0
  0
LINE
  5
7884
330
A
100
AcDbEntity
  8
MODEL
100
AcDbLine
 10
68.86740015004875
 20
215.2903198074005
 30
0.0
 11
68.50741479848625
 21
215.140295393338
 31
0.0
  0
LINE
  5
7885
330
A
100
AcDbEntity
  8
MODEL
100
AcDbLine
 10
74.38741968129875
 20
215.140295393338
 30
0.0
 11
74.02743432973625
 21
215.245275862088
 31
0.0
  0
LINE
  5
7886
330
A
100
AcDbEntity
  8
MODEL
100
AcDbLine
 10
74.02743432973625
 20
215.245275862088
 30
0.0
 11
73.65243432973625
 21
215.2903198074005
 31
0.0
  0
LINE
  5
7887
330
A
100
AcDbEntity
  8
MODEL
100
AcDbLine
 10
73.65243432973625
 20
215.2903198074005
 30
0.0
 11
73.27743432973625
 21
215.245275862088
 31
0.0
  0
LINE
  5
7888
330
A
100
AcDbEntity
  8
MODEL
100
AcDbLine
 10
73.27743432973625
 20
215.245275862088
 30
0.0
 11
72.91720483754875
 21
215.140295393338
 31
0.0
  0
LINE
  5
7889
330
A
100
AcDbEntity
  8
MODEL
100
AcDbLine
 10
74.04220483754875
 20
215.2903198074005
 30
0.0
 11
74.38741968129875
 21
215.140295393338
 31
0.0
  0
LINE
  5
788A
330
A
100
AcDbEntity
  8
MODEL
100
AcDbLine
 10
69.97726343129875
 20
213.7302612136505
 30
0.0
 11
70.71224878286125
 21
213.6252807449005
 31
0.0
  0
LINE
  5
788B
330
A
100
AcDbEntity
  8
MODEL
100
AcDbLine
 10
70.71224878286125
 20
213.6252807449005
 30
0.0
 11
71.44723413442375
 21
213.5952514480255
 31
0.0
  0
LINE
  5
788C
330
A
100
AcDbEntity
  8
MODEL
100
AcDbLine
 10
71.44723413442375
 20
213.5952514480255
 30
0.0
 11
72.18221948598625
 21
213.6252807449005
 31
0.0
  0
LINE
  5
788D
330
A
100
AcDbEntity
  8
MODEL
100
AcDbLine
 10
72.18221948598625
 20
213.6252807449005
 30
0.0
 11
72.91720483754875
 21
213.7302612136505
 31
0.0
  0
LINE
  5
788E
330
A
100
AcDbEntity
  8
MODEL
100
AcDbLine
 10
68.86740015004875
 20
213.5952514480255
 30
0.0
 11
74.04220483754875
 21
213.5952514480255
 31
0.0
  0
LINE
  5
788F
330
A
100
AcDbEntity
  8
MODEL
100
AcDbLine
 10
68.50729272817375
 20
213.7302612136505
 30
0.0
 11
68.88229272817375
 21
213.6252807449005
 31
0.0
  0
LINE
  5
7890
330
A
100
AcDbEntity
  8
MODEL
100
AcDbLine
 10
68.88229272817375
 20
213.6252807449005
 30
0.0
 11
69.24227807973625
 21
213.5952514480255
 31
0.0
  0
LINE
  5
7891
330
A
100
AcDbEntity
  8
MODEL
100
AcDbLine
 10
69.24227807973625
 20
213.5952514480255
 30
0.0
 11
69.61727807973625
 21
213.6252807449005
 31
0.0
  0
LINE
  5
7892
330
A
100
AcDbEntity
  8
MODEL
100
AcDbLine
 10
69.61727807973625
 20
213.6252807449005
 30
0.0
 11
69.97726343129875
 21
213.7302612136505
 31
0.0
  0
LINE
  5
7893
330
A
100
AcDbEntity
  8
MODEL
100
AcDbLine
 10
68.86740015004875
 20
213.5952514480255
 30
0.0
 11
68.50741479848625
 21
213.7302612136505
 31
0.0
  0
LINE
  5
7894
330
A
100
AcDbEntity
  8
MODEL
100
AcDbLine
 10
72.91720483754875
 20
213.7302612136505
 30
0.0
 11
73.27719018911125
 21
213.6252807449005
 31
0.0
  0
LINE
  5
7895
330
A
100
AcDbEntity
  8
MODEL
100
AcDbLine
 10
73.27719018911125
 20
213.6252807449005
 30
0.0
 11
73.65219018911125
 21
213.5952514480255
 31
0.0
  0
LINE
  5
7896
330
A
100
AcDbEntity
  8
MODEL
100
AcDbLine
 10
73.65219018911125
 20
213.5952514480255
 30
0.0
 11
74.02719018911125
 21
213.6252807449005
 31
0.0
  0
LINE
  5
7897
330
A
100
AcDbEntity
  8
MODEL
100
AcDbLine
 10
74.02719018911125
 20
213.6252807449005
 30
0.0
 11
74.38741968129875
 21
213.7302612136505
 31
0.0
  0
LINE
  5
7898
330
A
100
AcDbEntity
  8
MODEL
100
AcDbLine
 10
68.52218530629875
 20
215.140295393338
 30
0.0
 11
68.50717065786125
 21
213.7302612136505
 31
0.0
  0
LINE
  5
7899
330
A
100
AcDbEntity
  8
MODEL
100
AcDbLine
 10
74.04220483754875
 20
213.5952514480255
 30
0.0
 11
74.38741968129875
 21
213.7302612136505
 31
0.0
  0
LINE
  5
789A
330
A
100
AcDbEntity
  8
MODEL
100
AcDbLine
 10
72.91720483754875
 20
215.140295393338
 30
0.0
 11
72.91720483754875
 21
213.7302612136505
 31
0.0
  0
LINE
  5
789B
330
A
100
AcDbEntity
  8
MODEL
100
AcDbLine
 10
69.97726343129875
 20
215.140295393338
 30
0.0
 11
69.97726343129875
 21
213.7302612136505
 31
0.0
  0
LINE
  5
789C
330
A
100
AcDbEntity
  8
MODEL
100
AcDbLine
 10
74.38741968129875
 20
215.140295393338
 30
0.0
 11
74.38741968129875
 21
213.7302612136505
 31
0.0
  0
LINE
  5
78B7
330
A
100
AcDbEntity
  8
MODEL
100
AcDbLine
 10
72.16720483754875
 20
137.465002424588
 30
0.0
 11
72.16720483754875
 21
171.440100080838
 31
0.0
  0
LINE
  5
78B8
330
A
100
AcDbEntity
  8
MODEL
100
AcDbLine
 10
70.74240015004875
 20
137.465002424588
 30
0.0
 11
70.74240015004875
 21
172.970373518338
 31
0.0
  0
LINE
  5
78B9
330
A
100
AcDbEntity
  8
MODEL
100
AcDbLine
 10
72.60226343129875
 20
173.674963362088
 30
0.0
 11
71.92721460317375
 21
172.174963362088
 31
0.0
  0
LINE
  5
78BA
330
A
100
AcDbEntity
  8
MODEL
100
AcDbLine
 10
71.92721460317375
 20
172.174963362088
 30
0.0
 11
70.96725366567375
 21
174.6948608230255
 31
0.0
  0
LINE
  5
78BB
330
A
100
AcDbEntity
  8
MODEL
100
AcDbLine
 10
70.96725366567375
 20
174.6948608230255
 30
0.0
 11
70.33749292348625
 21
173.390051252713
 31
0.0
  0
LINE
  5
78BC
330
A
100
AcDbEntity
  8
MODEL
100
AcDbLine
 10
70.33749292348625
 20
172.130041487088
 30
0.0
 11
70.96725366567375
 21
173.434973127713
 31
0.0
  0
LINE
  5
78BD
330
A
100
AcDbEntity
  8
MODEL
100
AcDbLine
 10
70.96725366567375
 20
173.434973127713
 30
0.0
 11
71.92721460317375
 21
170.930090315213
 31
0.0
  0
LINE
  5
78BE
330
A
100
AcDbEntity
  8
MODEL
100
AcDbLine
 10
71.92721460317375
 20
170.930090315213
 30
0.0
 11
72.60226343129875
 21
172.430090315213
 31
0.0
  0
LINE
  5
78E0
330
A
100
AcDbEntity
  8
MODEL
100
AcDbLine
 10
72.16720483754875
 20
172.684973127713
 30
0.0
 11
72.16720483754875
 21
206.380285627713
 31
0.0
  0
LINE
  5
78E1
330
A
100
AcDbEntity
  8
MODEL
100
AcDbLine
 10
70.74240015004875
 20
174.215002424588
 30
0.0
 11
70.74240015004875
 21
206.380285627713
 31
0.0
  0
LINE
  5
7A61
330
A
100
AcDbEntity
  8
MODEL
100
AcDbLine
 10
73.06722925161125
 20
240.5952514480255
 30
0.0
 11
73.06722925161125
 21
238.435217268338
 31
0.0
  0
LINE
  5
7A62
330
A
100
AcDbEntity
  8
MODEL
100
AcDbLine
 10
69.84225366567375
 20
240.5952514480255
 30
0.0
 11
69.84225366567375
 21
238.435217268338
 31
0.0
  0
LINE
  5
8347
330
A
100
AcDbEntity
  8
MODEL
100
AcDbLine
 10
100.8870534703613
 20
144.895910627713
 30
0.0
 11
100.8870534703613
 21
136.294592268338
 31
0.0
  0
LINE
  5
8348
330
A
100
AcDbEntity
  8
MODEL
100
AcDbLine
 10
104.1639089391113
 20
135.359289533963
 30
0.0
 11
104.1639089391113
 21
145.821203596463
 31
0.0
  0
LINE
  5
8349
330
A
100
AcDbEntity
  8
MODEL
100
AcDbLine
 10
102.2942800328613
 20
145.821203596463
 30
0.0
 11
102.2942800328613
 21
135.359289533963
 31
0.0
  0
LINE
  5
834A
330
A
100
AcDbEntity
  8
MODEL
100
AcDbLine
 10
131.5726003453613
 20
136.225500471463
 30
0.0
 11
131.5726003453613
 21
150.633459455838
 31
0.0
  0
LINE
  5
834B
330
A
100
AcDbEntity
  8
MODEL
100
AcDbLine
 10
105.9949636266113
 20
145.821203596463
 30
0.0
 11
105.9949636266113
 21
135.359289533963
 31
0.0
  0
LINE
  5
834C
330
A
100
AcDbEntity
  8
MODEL
100
AcDbLine
 10
111.1121511266113
 20
145.850500471463
 30
0.0
 11
111.1121511266113
 21
145.840246565213
 31
0.0
  0
LINE
  5
834D
330
A
100
AcDbEntity
  8
MODEL
100
AcDbLine
 10
111.1121511266113
 20
145.840246565213
 30
0.0
 11
111.1224050328613
 21
145.830725080838
 31
0.0
  0
LINE
  5
834E
330
A
100
AcDbEntity
  8
MODEL
100
AcDbLine
 10
111.1224050328613
 20
145.830725080838
 30
0.0
 11
111.1224050328613
 21
145.820715315213
 31
0.0
  0
LINE
  5
834F
330
A
100
AcDbEntity
  8
MODEL
100
AcDbLine
 10
111.1224050328613
 20
145.820715315213
 30
0.0
 11
111.1321706578613
 21
145.810461408963
 31
0.0
  0
LINE
  5
8350
330
A
100
AcDbEntity
  8
MODEL
100
AcDbLine
 10
111.1321706578613
 20
145.810461408963
 30
0.0
 11
111.1321706578613
 21
145.791174299588
 31
0.0
  0
LINE
  5
8351
330
A
100
AcDbEntity
  8
MODEL
100
AcDbLine
 10
111.1321706578613
 20
145.791174299588
 30
0.0
 11
111.1419362828613
 21
145.781652815213
 31
0.0
  0
LINE
  5
8352
330
A
100
AcDbEntity
  8
MODEL
100
AcDbLine
 10
111.1419362828613
 20
145.781652815213
 30
0.0
 11
111.1717214391113
 21
145.722570783963
 31
0.0
  0
LINE
  5
8353
330
A
100
AcDbEntity
  8
MODEL
100
AcDbLine
 10
111.1717214391113
 20
145.722570783963
 30
0.0
 11
111.1907644078613
 21
145.663732893338
 31
0.0
  0
LINE
  5
8354
330
A
100
AcDbEntity
  8
MODEL
100
AcDbLine
 10
111.1907644078613
 20
145.663732893338
 30
0.0
 11
111.2107839391113
 21
145.643469221463
 31
0.0
  0
LINE
  5
8355
330
A
100
AcDbEntity
  8
MODEL
100
AcDbLine
 10
111.2107839391113
 20
145.643469221463
 30
0.0
 11
111.2210378453613
 21
145.604406721463
 31
0.0
  0
LINE
  5
8356
330
A
100
AcDbEntity
  8
MODEL
100
AcDbLine
 10
111.2210378453613
 20
145.604406721463
 30
0.0
 11
111.2400808141113
 21
145.575109846463
 31
0.0
  0
LINE
  5
8357
330
A
100
AcDbEntity
  8
MODEL
100
AcDbLine
 10
111.2400808141113
 20
145.575109846463
 30
0.0
 11
111.2498464391113
 21
145.545324690213
 31
0.0
  0
LINE
  5
8358
330
A
100
AcDbEntity
  8
MODEL
100
AcDbLine
 10
111.2498464391113
 20
145.545324690213
 30
0.0
 11
111.2893972203613
 21
145.466467268338
 31
0.0
  0
LINE
  5
8359
330
A
100
AcDbEntity
  8
MODEL
100
AcDbLine
 10
111.2893972203613
 20
145.466467268338
 30
0.0
 11
111.2991628453613
 21
145.427160627713
 31
0.0
  0
LINE
  5
835A
330
A
100
AcDbEntity
  8
MODEL
100
AcDbLine
 10
111.2991628453613
 20
145.427160627713
 30
0.0
 11
111.3186940953613
 21
145.387609846463
 31
0.0
  0
LINE
  5
835B
330
A
100
AcDbEntity
  8
MODEL
100
AcDbLine
 10
111.3186940953613
 20
145.387609846463
 30
0.0
 11
111.3977956578613
 21
145.190832502713
 31
0.0
  0
LINE
  5
835C
330
A
100
AcDbEntity
  8
MODEL
100
AcDbLine
 10
111.3977956578613
 20
145.190832502713
 30
0.0
 11
111.4270925328613
 21
145.142004377713
 31
0.0
  0
LINE
  5
835D
330
A
100
AcDbEntity
  8
MODEL
100
AcDbLine
 10
111.4270925328613
 20
145.142004377713
 30
0.0
 11
111.4468679234863
 21
145.092443830838
 31
0.0
  0
LINE
  5
835E
330
A
100
AcDbEntity
  8
MODEL
100
AcDbLine
 10
111.4468679234863
 20
145.092443830838
 30
0.0
 11
111.4666433141113
 21
145.033605940213
 31
0.0
  0
LINE
  5
835F
330
A
100
AcDbEntity
  8
MODEL
100
AcDbLine
 10
111.4666433141113
 20
145.033605940213
 30
0.0
 11
111.4959401891113
 21
144.984289533963
 31
0.0
  0
LINE
  5
8360
330
A
100
AcDbEntity
  8
MODEL
100
AcDbLine
 10
111.4959401891113
 20
144.984289533963
 30
0.0
 11
111.5354909703613
 21
144.866125471463
 31
0.0
  0
LINE
  5
8361
330
A
100
AcDbEntity
  8
MODEL
100
AcDbLine
 10
111.5354909703613
 20
144.866125471463
 30
0.0
 11
111.5647878453613
 21
144.797521955838
 31
0.0
  0
LINE
  5
8362
330
A
100
AcDbEntity
  8
MODEL
100
AcDbLine
 10
111.5647878453613
 20
144.797521955838
 30
0.0
 11
111.5848073766113
 21
144.738684065213
 31
0.0
  0
LINE
  5
8363
330
A
100
AcDbEntity
  8
MODEL
100
AcDbLine
 10
111.5848073766113
 20
144.738684065213
 30
0.0
 11
111.6141042516113
 21
144.679357893338
 31
0.0
  0
LINE
  5
8364
330
A
100
AcDbEntity
  8
MODEL
100
AcDbLine
 10
111.6141042516113
 20
144.679357893338
 30
0.0
 11
111.6343679234863
 21
144.610266096463
 31
0.0
  0
LINE
  5
8365
330
A
100
AcDbEntity
  8
MODEL
100
AcDbLine
 10
111.6343679234863
 20
144.610266096463
 30
0.0
 11
111.6927175328613
 21
144.472326643338
 31
0.0
  0
LINE
  5
8366
330
A
100
AcDbEntity
  8
MODEL
100
AcDbLine
 10
111.6927175328613
 20
144.472326643338
 30
0.0
 11
111.7127370641113
 21
144.403723127713
 31
0.0
  0
LINE
  5
8367
330
A
100
AcDbEntity
  8
MODEL
100
AcDbLine
 10
111.7127370641113
 20
144.403723127713
 30
0.0
 11
111.7420339391113
 21
144.334875471463
 31
0.0
  0
LINE
  5
8368
330
A
100
AcDbEntity
  8
MODEL
100
AcDbLine
 10
111.7420339391113
 20
144.334875471463
 30
0.0
 11
111.7615651891113
 21
144.256262190213
 31
0.0
  0
LINE
  5
8369
330
A
100
AcDbEntity
  8
MODEL
100
AcDbLine
 10
111.7615651891113
 20
144.256262190213
 30
0.0
 11
111.7908620641113
 21
144.187170393338
 31
0.0
  0
LINE
  5
836A
330
A
100
AcDbEntity
  8
MODEL
100
AcDbLine
 10
111.7908620641113
 20
144.187170393338
 30
0.0
 11
111.8206472203613
 21
144.108312971463
 31
0.0
  0
LINE
  5
836B
330
A
100
AcDbEntity
  8
MODEL
100
AcDbLine
 10
111.8206472203613
 20
144.108312971463
 30
0.0
 11
111.8406667516113
 21
144.029211408963
 31
0.0
  0
LINE
  5
836C
330
A
100
AcDbEntity
  8
MODEL
100
AcDbLine
 10
111.8406667516113
 20
144.029211408963
 30
0.0
 11
111.8997487828613
 21
143.872473127713
 31
0.0
  0
LINE
  5
836D
330
A
100
AcDbEntity
  8
MODEL
100
AcDbLine
 10
111.8997487828613
 20
143.872473127713
 30
0.0
 11
111.9192800328613
 21
143.793371565213
 31
0.0
  0
LINE
  5
836E
330
A
100
AcDbEntity
  8
MODEL
100
AcDbLine
 10
111.9192800328613
 20
143.793371565213
 30
0.0
 11
111.9490651891113
 21
143.704992658963
 31
0.0
  0
LINE
  5
836F
330
A
100
AcDbEntity
  8
MODEL
100
AcDbLine
 10
111.9490651891113
 20
143.704992658963
 30
0.0
 11
111.9681081578613
 21
143.626379377713
 31
0.0
  0
LINE
  5
8370
330
A
100
AcDbEntity
  8
MODEL
100
AcDbLine
 10
111.9681081578613
 20
143.626379377713
 30
0.0
 11
111.9978933141113
 21
143.537512190213
 31
0.0
  0
LINE
  5
8371
330
A
100
AcDbEntity
  8
MODEL
100
AcDbLine
 10
111.9978933141113
 20
143.537512190213
 30
0.0
 11
112.0174245641113
 21
143.449133283963
 31
0.0
  0
LINE
  5
8372
330
A
100
AcDbEntity
  8
MODEL
100
AcDbLine
 10
112.0174245641113
 20
143.449133283963
 30
0.0
 11
112.0472097203613
 21
143.360510237088
 31
0.0
  0
LINE
  5
8373
330
A
100
AcDbEntity
  8
MODEL
100
AcDbLine
 10
112.0472097203613
 20
143.360510237088
 30
0.0
 11
112.0672292516113
 21
143.271887190213
 31
0.0
  0
LINE
  5
8374
330
A
100
AcDbEntity
  8
MODEL
100
AcDbLine
 10
112.0672292516113
 20
143.271887190213
 30
0.0
 11
112.0960378453613
 21
143.183508283963
 31
0.0
  0
LINE
  5
8375
330
A
100
AcDbEntity
  8
MODEL
100
AcDbLine
 10
112.0960378453613
 20
143.183508283963
 30
0.0
 11
112.1160573766113
 21
143.094641096463
 31
0.0
  0
LINE
  5
8376
330
A
100
AcDbEntity
  8
MODEL
100
AcDbLine
 10
112.1160573766113
 20
143.094641096463
 30
0.0
 11
112.1355886266113
 21
142.996252424588
 31
0.0
  0
LINE
  5
8377
330
A
100
AcDbEntity
  8
MODEL
100
AcDbLine
 10
112.1355886266113
 20
142.996252424588
 30
0.0
 11
112.1556081578613
 21
142.907873518338
 31
0.0
  0
LINE
  5
8378
330
A
100
AcDbEntity
  8
MODEL
100
AcDbLine
 10
112.1556081578613
 20
142.907873518338
 30
0.0
 11
112.1849050328613
 21
142.808996565213
 31
0.0
  0
LINE
  5
8379
330
A
100
AcDbEntity
  8
MODEL
100
AcDbLine
 10
112.1849050328613
 20
142.808996565213
 30
0.0
 11
112.2049245641113
 21
142.710852033963
 31
0.0
  0
LINE
  5
837A
330
A
100
AcDbEntity
  8
MODEL
100
AcDbLine
 10
112.2049245641113
 20
142.710852033963
 30
0.0
 11
112.2244558141113
 21
142.622717268338
 31
0.0
  0
LINE
  5
837B
330
A
100
AcDbEntity
  8
MODEL
100
AcDbLine
 10
112.2244558141113
 20
142.622717268338
 30
0.0
 11
112.2640065953613
 21
142.424719221463
 31
0.0
  0
LINE
  5
837C
330
A
100
AcDbEntity
  8
MODEL
100
AcDbLine
 10
112.2640065953613
 20
142.424719221463
 30
0.0
 11
112.2732839391113
 21
142.327062971463
 31
0.0
  0
LINE
  5
837D
330
A
100
AcDbEntity
  8
MODEL
100
AcDbLine
 10
112.2732839391113
 20
142.327062971463
 30
0.0
 11
112.2933034703613
 21
142.219152815213
 31
0.0
  0
LINE
  5
837E
330
A
100
AcDbEntity
  8
MODEL
100
AcDbLine
 10
112.2933034703613
 20
142.219152815213
 30
0.0
 11
112.3128347203613
 21
142.121008283963
 31
0.0
  0
LINE
  5
837F
330
A
100
AcDbEntity
  8
MODEL
100
AcDbLine
 10
112.3128347203613
 20
142.121008283963
 30
0.0
 11
112.3226003453613
 21
142.021887190213
 31
0.0
  0
LINE
  5
8380
330
A
100
AcDbEntity
  8
MODEL
100
AcDbLine
 10
112.3226003453613
 20
142.021887190213
 30
0.0
 11
112.3426198766113
 21
141.923498518338
 31
0.0
  0
LINE
  5
8381
330
A
100
AcDbEntity
  8
MODEL
100
AcDbLine
 10
112.3426198766113
 20
141.923498518338
 30
0.0
 11
112.3523855016113
 21
141.815344221463
 31
0.0
  0
LINE
  5
8382
330
A
100
AcDbEntity
  8
MODEL
100
AcDbLine
 10
112.3523855016113
 20
141.815344221463
 30
0.0
 11
112.3621511266113
 21
141.716467268338
 31
0.0
  0
LINE
  5
8383
330
A
100
AcDbEntity
  8
MODEL
100
AcDbLine
 10
112.3621511266113
 20
141.716467268338
 30
0.0
 11
112.3816823766113
 21
141.500402815213
 31
0.0
  0
LINE
  5
8384
330
A
100
AcDbEntity
  8
MODEL
100
AcDbLine
 10
112.3816823766113
 20
141.500402815213
 30
0.0
 11
112.3919362828613
 21
141.401770002713
 31
0.0
  0
LINE
  5
8385
330
A
100
AcDbEntity
  8
MODEL
100
AcDbLine
 10
112.3919362828613
 20
141.401770002713
 30
0.0
 11
112.4017019078613
 21
141.293859846463
 31
0.0
  0
LINE
  5
8386
330
A
100
AcDbEntity
  8
MODEL
100
AcDbLine
 10
112.4017019078613
 20
141.293859846463
 30
0.0
 11
112.4114675328613
 21
141.195227033963
 31
0.0
  0
LINE
  5
8387
330
A
100
AcDbEntity
  8
MODEL
100
AcDbLine
 10
112.4114675328613
 20
141.195227033963
 30
0.0
 11
112.4114675328613
 21
141.087316877713
 31
0.0
  0
LINE
  5
8388
330
A
100
AcDbEntity
  8
MODEL
100
AcDbLine
 10
112.4114675328613
 20
141.087316877713
 30
0.0
 11
112.4207448766113
 21
140.978674299588
 31
0.0
  0
LINE
  5
8389
330
A
100
AcDbEntity
  8
MODEL
100
AcDbLine
 10
112.4207448766113
 20
140.978674299588
 30
0.0
 11
112.4207448766113
 21
140.870520002713
 31
0.0
  0
LINE
  5
838A
330
A
100
AcDbEntity
  8
MODEL
100
AcDbLine
 10
112.4207448766113
 20
140.870520002713
 30
0.0
 11
112.4309987828613
 21
140.762609846463
 31
0.0
  0
LINE
  5
838B
330
A
100
AcDbEntity
  8
MODEL
100
AcDbLine
 10
112.4309987828613
 20
140.762609846463
 30
0.0
 11
112.4309987828613
 21
140.339270002713
 31
0.0
  0
LINE
  5
838C
330
A
100
AcDbEntity
  8
MODEL
100
AcDbLine
 10
112.4309987828613
 20
140.339270002713
 30
0.0
 11
112.4207448766113
 21
140.240393049588
 31
0.0
  0
LINE
  5
838D
330
A
100
AcDbEntity
  8
MODEL
100
AcDbLine
 10
112.4207448766113
 20
140.240393049588
 30
0.0
 11
112.4207448766113
 21
140.132238752713
 31
0.0
  0
LINE
  5
838E
330
A
100
AcDbEntity
  8
MODEL
100
AcDbLine
 10
112.4207448766113
 20
140.132238752713
 30
0.0
 11
112.4114675328613
 21
140.024816877713
 31
0.0
  0
LINE
  5
838F
330
A
100
AcDbEntity
  8
MODEL
100
AcDbLine
 10
112.4114675328613
 20
140.024816877713
 30
0.0
 11
112.4114675328613
 21
139.915930158963
 31
0.0
  0
LINE
  5
8390
330
A
100
AcDbEntity
  8
MODEL
100
AcDbLine
 10
112.4114675328613
 20
139.915930158963
 30
0.0
 11
112.4017019078613
 21
139.817785627713
 31
0.0
  0
LINE
  5
8391
330
A
100
AcDbEntity
  8
MODEL
100
AcDbLine
 10
112.4017019078613
 20
139.817785627713
 30
0.0
 11
112.3919362828613
 21
139.709387190213
 31
0.0
  0
LINE
  5
8392
330
A
100
AcDbEntity
  8
MODEL
100
AcDbLine
 10
112.3919362828613
 20
139.709387190213
 30
0.0
 11
112.3816823766113
 21
139.610754377713
 31
0.0
  0
LINE
  5
8393
330
A
100
AcDbEntity
  8
MODEL
100
AcDbLine
 10
112.3816823766113
 20
139.610754377713
 30
0.0
 11
112.3724050328613
 21
139.502600080838
 31
0.0
  0
LINE
  5
8394
330
A
100
AcDbEntity
  8
MODEL
100
AcDbLine
 10
112.3724050328613
 20
139.502600080838
 30
0.0
 11
112.3523855016113
 21
139.403967268338
 31
0.0
  0
LINE
  5
8395
330
A
100
AcDbEntity
  8
MODEL
100
AcDbLine
 10
112.3523855016113
 20
139.403967268338
 30
0.0
 11
112.3426198766113
 21
139.296057112088
 31
0.0
  0
LINE
  5
8396
330
A
100
AcDbEntity
  8
MODEL
100
AcDbLine
 10
112.3426198766113
 20
139.296057112088
 30
0.0
 11
112.3328542516113
 21
139.197668440213
 31
0.0
  0
LINE
  5
8397
330
A
100
AcDbEntity
  8
MODEL
100
AcDbLine
 10
112.3328542516113
 20
139.197668440213
 30
0.0
 11
112.3128347203613
 21
139.099035627713
 31
0.0
  0
LINE
  5
8398
330
A
100
AcDbEntity
  8
MODEL
100
AcDbLine
 10
112.3128347203613
 20
139.099035627713
 30
0.0
 11
112.3030690953613
 21
138.991125471463
 31
0.0
  0
LINE
  5
8399
330
A
100
AcDbEntity
  8
MODEL
100
AcDbLine
 10
112.3030690953613
 20
138.991125471463
 30
0.0
 11
112.2049245641113
 21
138.498937971463
 31
0.0
  0
LINE
  5
839A
330
A
100
AcDbEntity
  8
MODEL
100
AcDbLine
 10
112.2049245641113
 20
138.498937971463
 30
0.0
 11
112.1849050328613
 21
138.410559065213
 31
0.0
  0
LINE
  5
839B
330
A
100
AcDbEntity
  8
MODEL
100
AcDbLine
 10
112.1849050328613
 20
138.410559065213
 30
0.0
 11
112.1656179234863
 21
138.311926252713
 31
0.0
  0
LINE
  5
839C
330
A
100
AcDbEntity
  8
MODEL
100
AcDbLine
 10
112.1656179234863
 20
138.311926252713
 30
0.0
 11
112.1458425328613
 21
138.223303205838
 31
0.0
  0
LINE
  5
839D
330
A
100
AcDbEntity
  8
MODEL
100
AcDbLine
 10
112.1458425328613
 20
138.223303205838
 30
0.0
 11
112.1258230016113
 21
138.124914533963
 31
0.0
  0
LINE
  5
839E
330
A
100
AcDbEntity
  8
MODEL
100
AcDbLine
 10
112.1258230016113
 20
138.124914533963
 30
0.0
 11
112.0960378453613
 21
138.036047346463
 31
0.0
  0
LINE
  5
839F
330
A
100
AcDbEntity
  8
MODEL
100
AcDbLine
 10
112.0960378453613
 20
138.036047346463
 30
0.0
 11
112.0569753453613
 21
137.859289533963
 31
0.0
  0
LINE
  5
83A0
330
A
100
AcDbEntity
  8
MODEL
100
AcDbLine
 10
112.0569753453613
 20
137.859289533963
 30
0.0
 11
112.0276784703613
 21
137.770422346463
 31
0.0
  0
LINE
  5
83A1
330
A
100
AcDbEntity
  8
MODEL
100
AcDbLine
 10
112.0276784703613
 20
137.770422346463
 30
0.0
 11
112.0076589391113
 21
137.682043440213
 31
0.0
  0
LINE
  5
83A2
330
A
100
AcDbEntity
  8
MODEL
100
AcDbLine
 10
112.0076589391113
 20
137.682043440213
 30
0.0
 11
111.9783620641113
 21
137.593176252713
 31
0.0
  0
LINE
  5
83A3
330
A
100
AcDbEntity
  8
MODEL
100
AcDbLine
 10
111.9783620641113
 20
137.593176252713
 30
0.0
 11
111.9588308141113
 21
137.504797346463
 31
0.0
  0
LINE
  5
83A4
330
A
100
AcDbEntity
  8
MODEL
100
AcDbLine
 10
111.9588308141113
 20
137.504797346463
 30
0.0
 11
111.8997487828613
 21
137.347082502713
 31
0.0
  0
LINE
  5
83A5
330
A
100
AcDbEntity
  8
MODEL
100
AcDbLine
 10
111.8997487828613
 20
137.347082502713
 30
0.0
 11
111.8797292516113
 21
137.258215315213
 31
0.0
  0
LINE
  5
83A6
330
A
100
AcDbEntity
  8
MODEL
100
AcDbLine
 10
111.8797292516113
 20
137.258215315213
 30
0.0
 11
111.8504323766113
 21
137.180090315213
 31
0.0
  0
LINE
  5
83A7
330
A
100
AcDbEntity
  8
MODEL
100
AcDbLine
 10
111.8504323766113
 20
137.180090315213
 30
0.0
 11
111.8304128453613
 21
137.101477033963
 31
0.0
  0
LINE
  5
83A8
330
A
100
AcDbEntity
  8
MODEL
100
AcDbLine
 10
111.8304128453613
 20
137.101477033963
 30
0.0
 11
111.8011159703613
 21
137.032385237088
 31
0.0
  0
LINE
  5
83A9
330
A
100
AcDbEntity
  8
MODEL
100
AcDbLine
 10
111.8011159703613
 20
137.032385237088
 30
0.0
 11
111.7718190953613
 21
136.953771955838
 31
0.0
  0
LINE
  5
83AA
330
A
100
AcDbEntity
  8
MODEL
100
AcDbLine
 10
111.7718190953613
 20
136.953771955838
 30
0.0
 11
111.7517995641113
 21
136.874914533963
 31
0.0
  0
LINE
  5
83AB
330
A
100
AcDbEntity
  8
MODEL
100
AcDbLine
 10
111.7517995641113
 20
136.874914533963
 30
0.0
 11
111.6927175328613
 21
136.737219221463
 31
0.0
  0
LINE
  5
83AC
330
A
100
AcDbEntity
  8
MODEL
100
AcDbLine
 10
111.6927175328613
 20
136.737219221463
 30
0.0
 11
111.6736745641113
 21
136.668371565213
 31
0.0
  0
LINE
  5
83AD
330
A
100
AcDbEntity
  8
MODEL
100
AcDbLine
 10
111.6736745641113
 20
136.668371565213
 30
0.0
 11
111.6438894078613
 21
136.599523908963
 31
0.0
  0
LINE
  5
83AE
330
A
100
AcDbEntity
  8
MODEL
100
AcDbLine
 10
111.6438894078613
 20
136.599523908963
 30
0.0
 11
111.6238698766113
 21
136.530676252713
 31
0.0
  0
LINE
  5
83AF
330
A
100
AcDbEntity
  8
MODEL
100
AcDbLine
 10
111.6238698766113
 20
136.530676252713
 30
0.0
 11
111.5945730016113
 21
136.461584455838
 31
0.0
  0
LINE
  5
83B0
330
A
100
AcDbEntity
  8
MODEL
100
AcDbLine
 10
111.5945730016113
 20
136.461584455838
 30
0.0
 11
111.5745534703613
 21
136.402746565213
 31
0.0
  0
LINE
  5
83B1
330
A
100
AcDbEntity
  8
MODEL
100
AcDbLine
 10
111.5745534703613
 20
136.402746565213
 30
0.0
 11
111.5452565953613
 21
136.343176252713
 31
0.0
  0
LINE
  5
83B2
330
A
100
AcDbEntity
  8
MODEL
100
AcDbLine
 10
111.5452565953613
 20
136.343176252713
 30
0.0
 11
111.5257253453613
 21
136.284582502713
 31
0.0
  0
LINE
  5
83B3
330
A
100
AcDbEntity
  8
MODEL
100
AcDbLine
 10
111.5257253453613
 20
136.284582502713
 30
0.0
 11
111.4959401891113
 21
136.225500471463
 31
0.0
  0
LINE
  5
83B4
330
A
100
AcDbEntity
  8
MODEL
100
AcDbLine
 10
110.6497487828613
 20
145.378088362088
 30
0.0
 11
110.6595144078613
 21
145.368078596463
 31
0.0
  0
LINE
  5
83B5
330
A
100
AcDbEntity
  8
MODEL
100
AcDbLine
 10
110.6595144078613
 20
145.368078596463
 30
0.0
 11
110.6595144078613
 21
145.358312971463
 31
0.0
  0
LINE
  5
83B6
330
A
100
AcDbEntity
  8
MODEL
100
AcDbLine
 10
110.6595144078613
 20
145.358312971463
 30
0.0
 11
110.6692800328613
 21
145.348547346463
 31
0.0
  0
LINE
  5
83B7
330
A
100
AcDbEntity
  8
MODEL
100
AcDbLine
 10
110.6692800328613
 20
145.348547346463
 30
0.0
 11
110.6692800328613
 21
145.338537580838
 31
0.0
  0
LINE
  5
83B8
330
A
100
AcDbEntity
  8
MODEL
100
AcDbLine
 10
110.6692800328613
 20
145.338537580838
 30
0.0
 11
110.6892995641113
 21
145.299230940213
 31
0.0
  0
LINE
  5
83B9
330
A
100
AcDbEntity
  8
MODEL
100
AcDbLine
 10
110.6892995641113
 20
145.299230940213
 30
0.0
 11
110.6990651891113
 21
145.289465315213
 31
0.0
  0
LINE
  5
83BA
330
A
100
AcDbEntity
  8
MODEL
100
AcDbLine
 10
110.6990651891113
 20
145.289465315213
 30
0.0
 11
110.7088308141113
 21
145.259680158963
 31
0.0
  0
LINE
  5
83BB
330
A
100
AcDbEntity
  8
MODEL
100
AcDbLine
 10
110.7088308141113
 20
145.259680158963
 30
0.0
 11
110.7190847203613
 21
145.240637190213
 31
0.0
  0
LINE
  5
83BC
330
A
100
AcDbEntity
  8
MODEL
100
AcDbLine
 10
110.7190847203613
 20
145.240637190213
 30
0.0
 11
110.7381276891113
 21
145.220617658963
 31
0.0
  0
LINE
  5
83BD
330
A
100
AcDbEntity
  8
MODEL
100
AcDbLine
 10
110.7381276891113
 20
145.220617658963
 30
0.0
 11
110.7581472203613
 21
145.161535627713
 31
0.0
  0
LINE
  5
83BE
330
A
100
AcDbEntity
  8
MODEL
100
AcDbLine
 10
110.7581472203613
 20
145.161535627713
 30
0.0
 11
110.7972097203613
 21
145.101965315213
 31
0.0
  0
LINE
  5
83BF
330
A
100
AcDbEntity
  8
MODEL
100
AcDbLine
 10
110.7972097203613
 20
145.101965315213
 30
0.0
 11
110.8069753453613
 21
145.073156721463
 31
0.0
  0
LINE
  5
83C0
330
A
100
AcDbEntity
  8
MODEL
100
AcDbLine
 10
110.8069753453613
 20
145.073156721463
 30
0.0
 11
110.9251394078613
 21
144.836828596463
 31
0.0
  0
LINE
  5
83C1
330
A
100
AcDbEntity
  8
MODEL
100
AcDbLine
 10
110.9251394078613
 20
144.836828596463
 30
0.0
 11
110.9549245641113
 21
144.787512190213
 31
0.0
  0
LINE
  5
83C2
330
A
100
AcDbEntity
  8
MODEL
100
AcDbLine
 10
110.9549245641113
 20
144.787512190213
 30
0.0
 11
110.9939870641113
 21
144.688879377713
 31
0.0
  0
LINE
  5
83C3
330
A
100
AcDbEntity
  8
MODEL
100
AcDbLine
 10
110.9939870641113
 20
144.688879377713
 30
0.0
 11
111.0237722203613
 21
144.639807112088
 31
0.0
  0
LINE
  5
83C4
330
A
100
AcDbEntity
  8
MODEL
100
AcDbLine
 10
111.0237722203613
 20
144.639807112088
 30
0.0
 11
111.0433034703613
 21
144.590734846463
 31
0.0
  0
LINE
  5
83C5
330
A
100
AcDbEntity
  8
MODEL
100
AcDbLine
 10
111.0433034703613
 20
144.590734846463
 30
0.0
 11
111.0726003453613
 21
144.541418440213
 31
0.0
  0
LINE
  5
83C6
330
A
100
AcDbEntity
  8
MODEL
100
AcDbLine
 10
111.0726003453613
 20
144.541418440213
 30
0.0
 11
111.0921315953613
 21
144.482336408963
 31
0.0
  0
LINE
  5
83C7
330
A
100
AcDbEntity
  8
MODEL
100
AcDbLine
 10
111.0921315953613
 20
144.482336408963
 30
0.0
 11
111.1224050328613
 21
144.433264143338
 31
0.0
  0
LINE
  5
83C8
330
A
100
AcDbEntity
  8
MODEL
100
AcDbLine
 10
111.1224050328613
 20
144.433264143338
 30
0.0
 11
111.1419362828613
 21
144.374426252713
 31
0.0
  0
LINE
  5
83C9
330
A
100
AcDbEntity
  8
MODEL
100
AcDbLine
 10
111.1419362828613
 20
144.374426252713
 30
0.0
 11
111.2010183141113
 21
144.256262190213
 31
0.0
  0
LINE
  5
83CA
330
A
100
AcDbEntity
  8
MODEL
100
AcDbLine
 10
111.2010183141113
 20
144.256262190213
 30
0.0
 11
111.2210378453613
 21
144.197180158963
 31
0.0
  0
LINE
  5
83CB
330
A
100
AcDbEntity
  8
MODEL
100
AcDbLine
 10
111.2210378453613
 20
144.197180158963
 30
0.0
 11
111.2498464391113
 21
144.128332502713
 31
0.0
  0
LINE
  5
83CC
330
A
100
AcDbEntity
  8
MODEL
100
AcDbLine
 10
111.2498464391113
 20
144.128332502713
 30
0.0
 11
111.2796315953613
 21
144.069250471463
 31
0.0
  0
LINE
  5
83CD
330
A
100
AcDbEntity
  8
MODEL
100
AcDbLine
 10
111.2796315953613
 20
144.069250471463
 30
0.0
 11
111.2991628453613
 21
143.999914533963
 31
0.0
  0
LINE
  5
83CE
330
A
100
AcDbEntity
  8
MODEL
100
AcDbLine
 10
111.2991628453613
 20
143.999914533963
 30
0.0
 11
111.3880300328613
 21
143.793371565213
 31
0.0
  0
LINE
  5
83CF
330
A
100
AcDbEntity
  8
MODEL
100
AcDbLine
 10
111.3880300328613
 20
143.793371565213
 30
0.0
 11
111.4075612828613
 21
143.725012190213
 31
0.0
  0
LINE
  5
83D0
330
A
100
AcDbEntity
  8
MODEL
100
AcDbLine
 10
111.4075612828613
 20
143.725012190213
 30
0.0
 11
111.4368581578613
 21
143.655432112088
 31
0.0
  0
LINE
  5
83D1
330
A
100
AcDbEntity
  8
MODEL
100
AcDbLine
 10
111.4368581578613
 20
143.655432112088
 30
0.0
 11
111.4666433141113
 21
143.577062971463
 31
0.0
  0
LINE
  5
83D2
330
A
100
AcDbEntity
  8
MODEL
100
AcDbLine
 10
111.4666433141113
 20
143.577062971463
 30
0.0
 11
111.4959401891113
 21
143.508215315213
 31
0.0
  0
LINE
  5
83D3
330
A
100
AcDbEntity
  8
MODEL
100
AcDbLine
 10
111.4959401891113
 20
143.508215315213
 30
0.0
 11
111.5154714391113
 21
143.429602033963
 31
0.0
  0
LINE
  5
83D4
330
A
100
AcDbEntity
  8
MODEL
100
AcDbLine
 10
111.5154714391113
 20
143.429602033963
 30
0.0
 11
111.5745534703613
 21
143.271887190213
 31
0.0
  0
LINE
  5
83D5
330
A
100
AcDbEntity
  8
MODEL
100
AcDbLine
 10
111.5745534703613
 20
143.271887190213
 30
0.0
 11
111.5945730016113
 21
143.193273908963
 31
0.0
  0
LINE
  5
83D6
330
A
100
AcDbEntity
  8
MODEL
100
AcDbLine
 10
111.5945730016113
 20
143.193273908963
 30
0.0
 11
111.6238698766113
 21
143.114416487088
 31
0.0
  0
LINE
  5
83D7
330
A
100
AcDbEntity
  8
MODEL
100
AcDbLine
 10
111.6238698766113
 20
143.114416487088
 30
0.0
 11
111.6438894078613
 21
143.035803205838
 31
0.0
  0
LINE
  5
83D8
330
A
100
AcDbEntity
  8
MODEL
100
AcDbLine
 10
111.6438894078613
 20
143.035803205838
 30
0.0
 11
111.6736745641113
 21
142.956701643338
 31
0.0
  0
LINE
  5
83D9
330
A
100
AcDbEntity
  8
MODEL
100
AcDbLine
 10
111.6736745641113
 20
142.956701643338
 30
0.0
 11
111.6927175328613
 21
142.868322737088
 31
0.0
  0
LINE
  5
83DA
330
A
100
AcDbEntity
  8
MODEL
100
AcDbLine
 10
111.6927175328613
 20
142.868322737088
 30
0.0
 11
111.7225026891113
 21
142.789221174588
 31
0.0
  0
LINE
  5
83DB
330
A
100
AcDbEntity
  8
MODEL
100
AcDbLine
 10
111.7225026891113
 20
142.789221174588
 30
0.0
 11
111.7615651891113
 21
142.612219221463
 31
0.0
  0
LINE
  5
83DC
330
A
100
AcDbEntity
  8
MODEL
100
AcDbLine
 10
111.7615651891113
 20
142.612219221463
 30
0.0
 11
111.7908620641113
 21
142.524328596463
 31
0.0
  0
LINE
  5
83DD
330
A
100
AcDbEntity
  8
MODEL
100
AcDbLine
 10
111.7908620641113
 20
142.524328596463
 30
0.0
 11
111.8504323766113
 21
142.258215315213
 31
0.0
  0
LINE
  5
83DE
330
A
100
AcDbEntity
  8
MODEL
100
AcDbLine
 10
111.8504323766113
 20
142.258215315213
 30
0.0
 11
111.8601980016113
 21
142.170080549588
 31
0.0
  0
LINE
  5
83DF
330
A
100
AcDbEntity
  8
MODEL
100
AcDbLine
 10
111.8601980016113
 20
142.170080549588
 30
0.0
 11
111.8797292516113
 21
142.080969221463
 31
0.0
  0
LINE
  5
83E0
330
A
100
AcDbEntity
  8
MODEL
100
AcDbLine
 10
111.8797292516113
 20
142.080969221463
 30
0.0
 11
111.8997487828613
 21
141.982336408963
 31
0.0
  0
LINE
  5
83E1
330
A
100
AcDbEntity
  8
MODEL
100
AcDbLine
 10
111.8997487828613
 20
141.982336408963
 30
0.0
 11
111.9095144078613
 21
141.893469221463
 31
0.0
  0
LINE
  5
83E2
330
A
100
AcDbEntity
  8
MODEL
100
AcDbLine
 10
111.9095144078613
 20
141.893469221463
 30
0.0
 11
111.9290456578613
 21
141.805334455838
 31
0.0
  0
LINE
  5
83E3
330
A
100
AcDbEntity
  8
MODEL
100
AcDbLine
 10
111.9290456578613
 20
141.805334455838
 30
0.0
 11
111.9388112828613
 21
141.707434065213
 31
0.0
  0
LINE
  5
83E4
330
A
100
AcDbEntity
  8
MODEL
100
AcDbLine
 10
111.9388112828613
 20
141.707434065213
 30
0.0
 11
111.9588308141113
 21
141.618566877713
 31
0.0
  0
LINE
  5
83E5
330
A
100
AcDbEntity
  8
MODEL
100
AcDbLine
 10
111.9588308141113
 20
141.618566877713
 30
0.0
 11
111.9783620641113
 21
141.421789533963
 31
0.0
  0
LINE
  5
83E6
330
A
100
AcDbEntity
  8
MODEL
100
AcDbLine
 10
111.9783620641113
 20
141.421789533963
 30
0.0
 11
111.9881276891113
 21
141.332922346463
 31
0.0
  0
LINE
  5
83E7
330
A
100
AcDbEntity
  8
MODEL
100
AcDbLine
 10
111.9881276891113
 20
141.332922346463
 30
0.0
 11
112.0076589391113
 21
141.136633283963
 31
0.0
  0
LINE
  5
83E8
330
A
100
AcDbEntity
  8
MODEL
100
AcDbLine
 10
112.0076589391113
 20
141.136633283963
 30
0.0
 11
112.0076589391113
 21
141.038000471463
 31
0.0
  0
LINE
  5
83E9
330
A
100
AcDbEntity
  8
MODEL
100
AcDbLine
 10
112.0076589391113
 20
141.038000471463
 30
0.0
 11
112.0174245641113
 21
140.949133283963
 31
0.0
  0
LINE
  5
83EA
330
A
100
AcDbEntity
  8
MODEL
100
AcDbLine
 10
112.0174245641113
 20
140.949133283963
 30
0.0
 11
112.0174245641113
 21
140.752355940213
 31
0.0
  0
LINE
  5
83EB
330
A
100
AcDbEntity
  8
MODEL
100
AcDbLine
 10
112.0174245641113
 20
140.752355940213
 30
0.0
 11
112.0276784703613
 21
140.653967268338
 31
0.0
  0
LINE
  5
83EC
330
A
100
AcDbEntity
  8
MODEL
100
AcDbLine
 10
112.0276784703613
 20
140.653967268338
 30
0.0
 11
112.0276784703613
 21
140.457434065213
 31
0.0
  0
LINE
  5
83ED
330
A
100
AcDbEntity
  8
MODEL
100
AcDbLine
 10
112.0276784703613
 20
140.457434065213
 30
0.0
 11
112.0174245641113
 21
140.368566877713
 31
0.0
  0
LINE
  5
83EE
330
A
100
AcDbEntity
  8
MODEL
100
AcDbLine
 10
112.0174245641113
 20
140.368566877713
 30
0.0
 11
112.0174245641113
 21
140.171789533963
 31
0.0
  0
LINE
  5
83EF
330
A
100
AcDbEntity
  8
MODEL
100
AcDbLine
 10
112.0174245641113
 20
140.171789533963
 30
0.0
 11
111.9978933141113
 21
139.975012190213
 31
0.0
  0
LINE
  5
83F0
330
A
100
AcDbEntity
  8
MODEL
100
AcDbLine
 10
111.9978933141113
 20
139.975012190213
 30
0.0
 11
111.9881276891113
 21
139.886633283963
 31
0.0
  0
LINE
  5
83F1
330
A
100
AcDbEntity
  8
MODEL
100
AcDbLine
 10
111.9881276891113
 20
139.886633283963
 30
0.0
 11
111.9881276891113
 21
139.788244612088
 31
0.0
  0
LINE
  5
83F2
330
A
100
AcDbEntity
  8
MODEL
100
AcDbLine
 10
111.9881276891113
 20
139.788244612088
 30
0.0
 11
111.9681081578613
 21
139.689367658963
 31
0.0
  0
LINE
  5
83F3
330
A
100
AcDbEntity
  8
MODEL
100
AcDbLine
 10
111.9681081578613
 20
139.689367658963
 30
0.0
 11
111.9588308141113
 21
139.600988752713
 31
0.0
  0
LINE
  5
83F4
330
A
100
AcDbEntity
  8
MODEL
100
AcDbLine
 10
111.9588308141113
 20
139.600988752713
 30
0.0
 11
111.9490651891113
 21
139.502600080838
 31
0.0
  0
LINE
  5
83F5
330
A
100
AcDbEntity
  8
MODEL
100
AcDbLine
 10
111.9490651891113
 20
139.502600080838
 30
0.0
 11
111.9388112828613
 21
139.414221174588
 31
0.0
  0
LINE
  5
83F6
330
A
100
AcDbEntity
  8
MODEL
100
AcDbLine
 10
111.9388112828613
 20
139.414221174588
 30
0.0
 11
111.9192800328613
 21
139.315832502713
 31
0.0
  0
LINE
  5
83F7
330
A
100
AcDbEntity
  8
MODEL
100
AcDbLine
 10
111.9192800328613
 20
139.315832502713
 30
0.0
 11
111.8997487828613
 21
139.226965315213
 31
0.0
  0
LINE
  5
83F8
330
A
100
AcDbEntity
  8
MODEL
100
AcDbLine
 10
111.8997487828613
 20
139.226965315213
 30
0.0
 11
111.8899831578613
 21
139.138586408963
 31
0.0
  0
LINE
  5
83F9
330
A
100
AcDbEntity
  8
MODEL
100
AcDbLine
 10
111.8899831578613
 20
139.138586408963
 30
0.0
 11
111.8699636266113
 21
139.039465315213
 31
0.0
  0
LINE
  5
83FA
330
A
100
AcDbEntity
  8
MODEL
100
AcDbLine
 10
111.8699636266113
 20
139.039465315213
 30
0.0
 11
111.7718190953613
 21
138.596838362088
 31
0.0
  0
LINE
  5
83FB
330
A
100
AcDbEntity
  8
MODEL
100
AcDbLine
 10
111.7718190953613
 20
138.596838362088
 30
0.0
 11
111.7517995641113
 21
138.518225080838
 31
0.0
  0
LINE
  5
83FC
330
A
100
AcDbEntity
  8
MODEL
100
AcDbLine
 10
111.7517995641113
 20
138.518225080838
 30
0.0
 11
111.7225026891113
 21
138.429846174588
 31
0.0
  0
LINE
  5
83FD
330
A
100
AcDbEntity
  8
MODEL
100
AcDbLine
 10
111.7225026891113
 20
138.429846174588
 30
0.0
 11
111.7029714391113
 21
138.341467268338
 31
0.0
  0
LINE
  5
83FE
330
A
100
AcDbEntity
  8
MODEL
100
AcDbLine
 10
111.7029714391113
 20
138.341467268338
 30
0.0
 11
111.6829519078613
 21
138.262609846463
 31
0.0
  0
LINE
  5
83FF
330
A
100
AcDbEntity
  8
MODEL
100
AcDbLine
 10
111.6829519078613
 20
138.262609846463
 30
0.0
 11
111.6531667516113
 21
138.183752424588
 31
0.0
  0
LINE
  5
8400
330
A
100
AcDbEntity
  8
MODEL
100
AcDbLine
 10
111.6531667516113
 20
138.183752424588
 30
0.0
 11
111.6343679234863
 21
138.095617658963
 31
0.0
  0
LINE
  5
8401
330
A
100
AcDbEntity
  8
MODEL
100
AcDbLine
 10
111.6343679234863
 20
138.095617658963
 30
0.0
 11
111.6043386266113
 21
138.016516096463
 31
0.0
  0
LINE
  5
8402
330
A
100
AcDbEntity
  8
MODEL
100
AcDbLine
 10
111.6043386266113
 20
138.016516096463
 30
0.0
 11
111.5848073766113
 21
137.937658674588
 31
0.0
  0
LINE
  5
8403
330
A
100
AcDbEntity
  8
MODEL
100
AcDbLine
 10
111.5848073766113
 20
137.937658674588
 30
0.0
 11
111.5257253453613
 21
137.780187971463
 31
0.0
  0
LINE
  5
8404
330
A
100
AcDbEntity
  8
MODEL
100
AcDbLine
 10
111.5257253453613
 20
137.780187971463
 30
0.0
 11
111.5061940953613
 21
137.701574690213
 31
0.0
  0
LINE
  5
8405
330
A
100
AcDbEntity
  8
MODEL
100
AcDbLine
 10
111.5061940953613
 20
137.701574690213
 30
0.0
 11
111.4759206578613
 21
137.632727033963
 31
0.0
  0
LINE
  5
8406
330
A
100
AcDbEntity
  8
MODEL
100
AcDbLine
 10
111.4759206578613
 20
137.632727033963
 30
0.0
 11
111.4468679234863
 21
137.554113752713
 31
0.0
  0
LINE
  5
8407
330
A
100
AcDbEntity
  8
MODEL
100
AcDbLine
 10
111.4468679234863
 20
137.554113752713
 30
0.0
 11
111.4173269078613
 21
137.485021955838
 31
0.0
  0
LINE
  5
8408
330
A
100
AcDbEntity
  8
MODEL
100
AcDbLine
 10
111.4173269078613
 20
137.485021955838
 30
0.0
 11
111.3977956578613
 21
137.416418440213
 31
0.0
  0
LINE
  5
8409
330
A
100
AcDbEntity
  8
MODEL
100
AcDbLine
 10
111.3977956578613
 20
137.416418440213
 30
0.0
 11
111.3089284703613
 21
137.209387190213
 31
0.0
  0
LINE
  5
840A
330
A
100
AcDbEntity
  8
MODEL
100
AcDbLine
 10
111.3089284703613
 20
137.209387190213
 30
0.0
 11
111.2893972203613
 21
137.141027815213
 31
0.0
  0
LINE
  5
840B
330
A
100
AcDbEntity
  8
MODEL
100
AcDbLine
 10
111.2893972203613
 20
137.141027815213
 30
0.0
 11
111.2601003453613
 21
137.080969221463
 31
0.0
  0
LINE
  5
840C
330
A
100
AcDbEntity
  8
MODEL
100
AcDbLine
 10
111.2601003453613
 20
137.080969221463
 30
0.0
 11
111.2303151891113
 21
137.012609846463
 31
0.0
  0
LINE
  5
840D
330
A
100
AcDbEntity
  8
MODEL
100
AcDbLine
 10
111.2303151891113
 20
137.012609846463
 30
0.0
 11
111.2010183141113
 21
136.953771955838
 31
0.0
  0
LINE
  5
840E
330
A
100
AcDbEntity
  8
MODEL
100
AcDbLine
 10
111.2010183141113
 20
136.953771955838
 30
0.0
 11
111.1814870641113
 21
136.894201643338
 31
0.0
  0
LINE
  5
840F
330
A
100
AcDbEntity
  8
MODEL
100
AcDbLine
 10
111.1814870641113
 20
136.894201643338
 30
0.0
 11
111.1224050328613
 21
136.776770002713
 31
0.0
  0
LINE
  5
8410
330
A
100
AcDbEntity
  8
MODEL
100
AcDbLine
 10
111.1224050328613
 20
136.776770002713
 30
0.0
 11
111.1023855016113
 21
136.717687971463
 31
0.0
  0
LINE
  5
8411
330
A
100
AcDbEntity
  8
MODEL
100
AcDbLine
 10
111.1023855016113
 20
136.717687971463
 30
0.0
 11
111.0726003453613
 21
136.658605940213
 31
0.0
  0
LINE
  5
8412
330
A
100
AcDbEntity
  8
MODEL
100
AcDbLine
 10
111.0726003453613
 20
136.658605940213
 30
0.0
 11
111.0535573766113
 21
136.609289533963
 31
0.0
  0
LINE
  5
8413
330
A
100
AcDbEntity
  8
MODEL
100
AcDbLine
 10
121.3372487828613
 20
129.946691877713
 30
0.0
 11
112.1556081578613
 21
129.946691877713
 31
0.0
  0
LINE
  5
8414
330
A
100
AcDbEntity
  8
MODEL
100
AcDbLine
 10
111.8113698766113
 20
130.291174299588
 30
0.0
 11
121.3372487828613
 21
130.291174299588
 31
0.0
  0
LINE
  5
8415
330
A
100
AcDbEntity
  8
MODEL
100
AcDbLine
 10
111.4959401891113
 20
136.225500471463
 30
0.0
 11
131.5726003453613
 21
136.225500471463
 31
0.0
  0
LINE
  5
8416
330
A
100
AcDbEntity
  8
MODEL
100
AcDbLine
 10
100.8870534703613
 20
136.294592268338
 30
0.0
 11
100.8968190953613
 21
136.107336408963
 31
0.0
  0
LINE
  5
8417
330
A
100
AcDbEntity
  8
MODEL
100
AcDbLine
 10
100.8968190953613
 20
136.107336408963
 30
0.0
 11
100.9554128453613
 21
135.939855940213
 31
0.0
  0
LINE
  5
8418
330
A
100
AcDbEntity
  8
MODEL
100
AcDbLine
 10
100.9554128453613
 20
135.939855940213
 30
0.0
 11
101.0345144078613
 21
135.772863752713
 31
0.0
  0
LINE
  5
8419
330
A
100
AcDbEntity
  8
MODEL
100
AcDbLine
 10
101.0345144078613
 20
135.772863752713
 30
0.0
 11
101.1526784703613
 21
135.634924299588
 31
0.0
  0
LINE
  5
841A
330
A
100
AcDbEntity
  8
MODEL
100
AcDbLine
 10
101.1526784703613
 20
135.634924299588
 30
0.0
 11
101.3001394078613
 21
135.516760237088
 31
0.0
  0
LINE
  5
841B
330
A
100
AcDbEntity
  8
MODEL
100
AcDbLine
 10
101.3001394078613
 20
135.516760237088
 30
0.0
 11
101.4573659703613
 21
135.438391096463
 31
0.0
  0
LINE
  5
841C
330
A
100
AcDbEntity
  8
MODEL
100
AcDbLine
 10
101.4573659703613
 20
135.438391096463
 30
0.0
 11
101.6351003453613
 21
135.379309065213
 31
0.0
  0
LINE
  5
841D
330
A
100
AcDbEntity
  8
MODEL
100
AcDbLine
 10
101.6351003453613
 20
135.379309065213
 30
0.0
 11
101.8123464391113
 21
135.359289533963
 31
0.0
  0
LINE
  5
841E
330
A
100
AcDbEntity
  8
MODEL
100
AcDbLine
 10
101.8123464391113
 20
135.359289533963
 30
0.0
 11
105.9949636266113
 21
135.359289533963
 31
0.0
  0
LINE
  5
841F
330
A
100
AcDbEntity
  8
MODEL
100
AcDbLine
 10
111.8113698766113
 20
135.526770002713
 30
0.0
 11
121.3372487828613
 21
135.526770002713
 31
0.0
  0
LINE
  5
8420
330
A
100
AcDbEntity
  8
MODEL
100
AcDbLine
 10
102.2942800328613
 20
136.874914533963
 30
0.0
 11
104.1639089391113
 21
136.874914533963
 31
0.0
  0
LINE
  5
8421
330
A
100
AcDbEntity
  8
MODEL
100
AcDbLine
 10
102.2942800328613
 20
136.343176252713
 30
0.0
 11
104.1639089391113
 21
136.343176252713
 31
0.0
  0
LINE
  5
8422
330
A
100
AcDbEntity
  8
MODEL
100
AcDbLine
 10
102.2942800328613
 20
137.406408674588
 30
0.0
 11
104.1639089391113
 21
137.406408674588
 31
0.0
  0
LINE
  5
8423
330
A
100
AcDbEntity
  8
MODEL
100
AcDbLine
 10
102.2942800328613
 20
135.811926252713
 30
0.0
 11
104.1639089391113
 21
135.811926252713
 31
0.0
  0
LINE
  5
8424
330
A
100
AcDbEntity
  8
MODEL
100
AcDbLine
 10
111.3582448766113
 20
135.693762190213
 30
0.0
 11
111.4959401891113
 21
135.605383283963
 31
0.0
  0
LINE
  5
8425
330
A
100
AcDbEntity
  8
MODEL
100
AcDbLine
 10
111.4959401891113
 20
135.605383283963
 30
0.0
 11
111.6438894078613
 21
135.546789533963
 31
0.0
  0
LINE
  5
8426
330
A
100
AcDbEntity
  8
MODEL
100
AcDbLine
 10
111.6438894078613
 20
135.546789533963
 30
0.0
 11
111.8113698766113
 21
135.526770002713
 31
0.0
  0
LINE
  5
8427
330
A
100
AcDbEntity
  8
MODEL
100
AcDbLine
 10
105.9949636266113
 20
135.801916487088
 30
0.0
 11
111.0535573766113
 21
135.801916487088
 31
0.0
  0
LINE
  5
8428
330
A
100
AcDbEntity
  8
MODEL
100
AcDbLine
 10
111.8113698766113
 20
135.526770002713
 30
0.0
 11
111.8113698766113
 21
130.291174299588
 31
0.0
  0
LINE
  5
8429
330
A
100
AcDbEntity
  8
MODEL
100
AcDbLine
 10
111.8113698766113
 20
130.291174299588
 30
0.0
 11
112.1556081578613
 21
129.946691877713
 31
0.0
  0
LINE
  5
842A
330
A
100
AcDbEntity
  8
MODEL
100
AcDbLine
 10
111.4959401891113
 20
136.225500471463
 30
0.0
 11
111.4861745641113
 21
136.255041487088
 31
0.0
  0
LINE
  5
842B
330
A
100
AcDbEntity
  8
MODEL
100
AcDbLine
 10
111.4861745641113
 20
136.255041487088
 30
0.0
 11
111.4759206578613
 21
136.294592268338
 31
0.0
  0
LINE
  5
842C
330
A
100
AcDbEntity
  8
MODEL
100
AcDbLine
 10
111.4759206578613
 20
136.294592268338
 30
0.0
 11
111.4666433141113
 21
136.323645002713
 31
0.0
  0
LINE
  5
842D
330
A
100
AcDbEntity
  8
MODEL
100
AcDbLine
 10
111.4666433141113
 20
136.323645002713
 30
0.0
 11
111.4471120641113
 21
136.363195783963
 31
0.0
  0
LINE
  5
842E
330
A
100
AcDbEntity
  8
MODEL
100
AcDbLine
 10
111.4471120641113
 20
136.363195783963
 30
0.0
 11
111.4270925328613
 21
136.392492658963
 31
0.0
  0
LINE
  5
842F
330
A
100
AcDbEntity
  8
MODEL
100
AcDbLine
 10
111.4270925328613
 20
136.392492658963
 30
0.0
 11
111.3977956578613
 21
136.422033674588
 31
0.0
  0
LINE
  5
8430
330
A
100
AcDbEntity
  8
MODEL
100
AcDbLine
 10
111.3977956578613
 20
136.422033674588
 30
0.0
 11
111.3777761266113
 21
136.452062971463
 31
0.0
  0
LINE
  5
8431
330
A
100
AcDbEntity
  8
MODEL
100
AcDbLine
 10
111.3777761266113
 20
136.452062971463
 30
0.0
 11
111.3484792516113
 21
136.481359846463
 31
0.0
  0
LINE
  5
8432
330
A
100
AcDbEntity
  8
MODEL
100
AcDbLine
 10
111.3484792516113
 20
136.481359846463
 30
0.0
 11
111.3186940953613
 21
136.500646955838
 31
0.0
  0
LINE
  5
8433
330
A
100
AcDbEntity
  8
MODEL
100
AcDbLine
 10
111.3186940953613
 20
136.500646955838
 30
0.0
 11
111.2796315953613
 21
136.530676252713
 31
0.0
  0
LINE
  5
8434
330
A
100
AcDbEntity
  8
MODEL
100
AcDbLine
 10
111.2796315953613
 20
136.530676252713
 30
0.0
 11
111.2498464391113
 21
136.549719221463
 31
0.0
  0
LINE
  5
8435
330
A
100
AcDbEntity
  8
MODEL
100
AcDbLine
 10
111.2498464391113
 20
136.549719221463
 30
0.0
 11
111.2107839391113
 21
136.570227033963
 31
0.0
  0
LINE
  5
8436
330
A
100
AcDbEntity
  8
MODEL
100
AcDbLine
 10
111.2107839391113
 20
136.570227033963
 30
0.0
 11
111.1717214391113
 21
136.579748518338
 31
0.0
  0
LINE
  5
8437
330
A
100
AcDbEntity
  8
MODEL
100
AcDbLine
 10
111.1717214391113
 20
136.579748518338
 30
0.0
 11
111.0530690953613
 21
136.609289533963
 31
0.0
  0
LINE
  5
8438
330
A
100
AcDbEntity
  8
MODEL
100
AcDbLine
 10
111.4959401891113
 20
136.225500471463
 30
0.0
 11
111.4563894078613
 21
136.166418440213
 31
0.0
  0
LINE
  5
8439
330
A
100
AcDbEntity
  8
MODEL
100
AcDbLine
 10
111.4563894078613
 20
136.166418440213
 30
0.0
 11
111.4471120641113
 21
136.127111799588
 31
0.0
  0
LINE
  5
843A
330
A
100
AcDbEntity
  8
MODEL
100
AcDbLine
 10
111.4471120641113
 20
136.127111799588
 30
0.0
 11
111.4270925328613
 21
136.107336408963
 31
0.0
  0
LINE
  5
843B
330
A
100
AcDbEntity
  8
MODEL
100
AcDbLine
 10
111.4270925328613
 20
136.107336408963
 30
0.0
 11
111.4173269078613
 21
136.077551252713
 31
0.0
  0
LINE
  5
843C
330
A
100
AcDbEntity
  8
MODEL
100
AcDbLine
 10
111.4173269078613
 20
136.077551252713
 30
0.0
 11
111.3977956578613
 21
136.048498518338
 31
0.0
  0
LINE
  5
843D
330
A
100
AcDbEntity
  8
MODEL
100
AcDbLine
 10
111.3977956578613
 20
136.048498518338
 30
0.0
 11
111.3880300328613
 21
136.018957502713
 31
0.0
  0
LINE
  5
843E
330
A
100
AcDbEntity
  8
MODEL
100
AcDbLine
 10
111.3880300328613
 20
136.018957502713
 30
0.0
 11
111.3777761266113
 21
135.998937971463
 31
0.0
  0
LINE
  5
843F
330
A
100
AcDbEntity
  8
MODEL
100
AcDbLine
 10
111.3777761266113
 20
135.998937971463
 30
0.0
 11
111.3680105016113
 21
135.969641096463
 31
0.0
  0
LINE
  5
8440
330
A
100
AcDbEntity
  8
MODEL
100
AcDbLine
 10
111.3680105016113
 20
135.969641096463
 30
0.0
 11
111.3680105016113
 21
135.950109846463
 31
0.0
  0
LINE
  5
8441
330
A
100
AcDbEntity
  8
MODEL
100
AcDbLine
 10
111.3680105016113
 20
135.950109846463
 30
0.0
 11
111.3582448766113
 21
135.930090315213
 31
0.0
  0
LINE
  5
8442
330
A
100
AcDbEntity
  8
MODEL
100
AcDbLine
 10
111.3582448766113
 20
135.930090315213
 30
0.0
 11
111.3484792516113
 21
135.900305158963
 31
0.0
  0
LINE
  5
8443
330
A
100
AcDbEntity
  8
MODEL
100
AcDbLine
 10
111.3484792516113
 20
135.900305158963
 30
0.0
 11
111.3484792516113
 21
135.861242658963
 31
0.0
  0
LINE
  5
8444
330
A
100
AcDbEntity
  8
MODEL
100
AcDbLine
 10
111.3484792516113
 20
135.861242658963
 30
0.0
 11
111.3387136266113
 21
135.841467268338
 31
0.0
  0
LINE
  5
8445
330
A
100
AcDbEntity
  8
MODEL
100
AcDbLine
 10
111.3387136266113
 20
135.841467268338
 30
0.0
 11
111.3387136266113
 21
135.743078596463
 31
0.0
  0
LINE
  5
8446
330
A
100
AcDbEntity
  8
MODEL
100
AcDbLine
 10
111.3387136266113
 20
135.743078596463
 30
0.0
 11
111.3484792516113
 21
135.733312971463
 31
0.0
  0
LINE
  5
8447
330
A
100
AcDbEntity
  8
MODEL
100
AcDbLine
 10
111.3484792516113
 20
135.733312971463
 30
0.0
 11
111.3484792516113
 21
135.693762190213
 31
0.0
  0
LINE
  5
8448
330
A
100
AcDbEntity
  8
MODEL
100
AcDbLine
 10
111.3484792516113
 20
135.693762190213
 30
0.0
 11
111.3582448766113
 21
135.693762190213
 31
0.0
  0
LINE
  5
8449
330
A
100
AcDbEntity
  8
MODEL
100
AcDbLine
 10
111.3582448766113
 20
135.693762190213
 30
0.0
 11
111.3186940953613
 21
135.713781721463
 31
0.0
  0
LINE
  5
844A
330
A
100
AcDbEntity
  8
MODEL
100
AcDbLine
 10
111.3186940953613
 20
135.713781721463
 30
0.0
 11
111.3089284703613
 21
135.733312971463
 31
0.0
  0
LINE
  5
844B
330
A
100
AcDbEntity
  8
MODEL
100
AcDbLine
 10
111.3089284703613
 20
135.733312971463
 30
0.0
 11
111.2893972203613
 21
135.743078596463
 31
0.0
  0
LINE
  5
844C
330
A
100
AcDbEntity
  8
MODEL
100
AcDbLine
 10
111.2893972203613
 20
135.743078596463
 30
0.0
 11
111.2303151891113
 21
135.772863752713
 31
0.0
  0
LINE
  5
844D
330
A
100
AcDbEntity
  8
MODEL
100
AcDbLine
 10
111.2303151891113
 20
135.772863752713
 30
0.0
 11
111.2107839391113
 21
135.772863752713
 31
0.0
  0
LINE
  5
844E
330
A
100
AcDbEntity
  8
MODEL
100
AcDbLine
 10
111.2107839391113
 20
135.772863752713
 30
0.0
 11
111.1907644078613
 21
135.782141096463
 31
0.0
  0
LINE
  5
844F
330
A
100
AcDbEntity
  8
MODEL
100
AcDbLine
 10
111.1907644078613
 20
135.782141096463
 30
0.0
 11
111.1717214391113
 21
135.792639143338
 31
0.0
  0
LINE
  5
8450
330
A
100
AcDbEntity
  8
MODEL
100
AcDbLine
 10
111.1717214391113
 20
135.792639143338
 30
0.0
 11
111.1321706578613
 21
135.792639143338
 31
0.0
  0
LINE
  5
8451
330
A
100
AcDbEntity
  8
MODEL
100
AcDbLine
 10
111.1321706578613
 20
135.792639143338
 30
0.0
 11
111.1121511266113
 21
135.801916487088
 31
0.0
  0
LINE
  5
8452
330
A
100
AcDbEntity
  8
MODEL
100
AcDbLine
 10
111.1121511266113
 20
135.801916487088
 30
0.0
 11
111.0535573766113
 21
135.801916487088
 31
0.0
  0
LINE
  5
8453
330
A
100
AcDbEntity
  8
MODEL
100
AcDbLine
 10
111.0535573766113
 20
136.609289533963
 30
0.0
 11
111.0335378453613
 21
136.559973127713
 31
0.0
  0
LINE
  5
8454
330
A
100
AcDbEntity
  8
MODEL
100
AcDbLine
 10
111.0335378453613
 20
136.559973127713
 30
0.0
 11
111.0140065953613
 21
136.520422346463
 31
0.0
  0
LINE
  5
8455
330
A
100
AcDbEntity
  8
MODEL
100
AcDbLine
 10
111.0140065953613
 20
136.520422346463
 30
0.0
 11
110.9939870641113
 21
136.471594221463
 31
0.0
  0
LINE
  5
8456
330
A
100
AcDbEntity
  8
MODEL
100
AcDbLine
 10
110.9939870641113
 20
136.471594221463
 30
0.0
 11
110.9842214391113
 21
136.432043440213
 31
0.0
  0
LINE
  5
8457
330
A
100
AcDbEntity
  8
MODEL
100
AcDbLine
 10
110.9842214391113
 20
136.432043440213
 30
0.0
 11
110.9749440953613
 21
136.382727033963
 31
0.0
  0
LINE
  5
8458
330
A
100
AcDbEntity
  8
MODEL
100
AcDbLine
 10
110.9749440953613
 20
136.382727033963
 30
0.0
 11
110.9451589391113
 21
136.264562971463
 31
0.0
  0
LINE
  5
8459
330
A
100
AcDbEntity
  8
MODEL
100
AcDbLine
 10
110.9451589391113
 20
136.264562971463
 30
0.0
 11
110.9451589391113
 21
136.097082502713
 31
0.0
  0
LINE
  5
845A
330
A
100
AcDbEntity
  8
MODEL
100
AcDbLine
 10
110.9451589391113
 20
136.097082502713
 30
0.0
 11
110.9549245641113
 21
136.068273908963
 31
0.0
  0
LINE
  5
845B
330
A
100
AcDbEntity
  8
MODEL
100
AcDbLine
 10
110.9549245641113
 20
136.068273908963
 30
0.0
 11
110.9549245641113
 21
136.038488752713
 31
0.0
  0
LINE
  5
845C
330
A
100
AcDbEntity
  8
MODEL
100
AcDbLine
 10
110.9549245641113
 20
136.038488752713
 30
0.0
 11
110.9651784703613
 21
136.008947737088
 31
0.0
  0
LINE
  5
845D
330
A
100
AcDbEntity
  8
MODEL
100
AcDbLine
 10
110.9651784703613
 20
136.008947737088
 30
0.0
 11
110.9651784703613
 21
135.989172346463
 31
0.0
  0
LINE
  5
845E
330
A
100
AcDbEntity
  8
MODEL
100
AcDbLine
 10
110.9651784703613
 20
135.989172346463
 30
0.0
 11
110.9749440953613
 21
135.959875471463
 31
0.0
  0
LINE
  5
845F
330
A
100
AcDbEntity
  8
MODEL
100
AcDbLine
 10
110.9749440953613
 20
135.959875471463
 30
0.0
 11
110.9842214391113
 21
135.939855940213
 31
0.0
  0
LINE
  5
8460
330
A
100
AcDbEntity
  8
MODEL
100
AcDbLine
 10
110.9842214391113
 20
135.939855940213
 30
0.0
 11
110.9842214391113
 21
135.920324690213
 31
0.0
  0
LINE
  5
8461
330
A
100
AcDbEntity
  8
MODEL
100
AcDbLine
 10
110.9842214391113
 20
135.920324690213
 30
0.0
 11
111.0037526891113
 21
135.881018049588
 31
0.0
  0
LINE
  5
8462
330
A
100
AcDbEntity
  8
MODEL
100
AcDbLine
 10
111.0037526891113
 20
135.881018049588
 30
0.0
 11
111.0140065953613
 21
135.871496565213
 31
0.0
  0
LINE
  5
8463
330
A
100
AcDbEntity
  8
MODEL
100
AcDbLine
 10
111.0140065953613
 20
135.871496565213
 30
0.0
 11
111.0140065953613
 21
135.851477033963
 31
0.0
  0
LINE
  5
8464
330
A
100
AcDbEntity
  8
MODEL
100
AcDbLine
 10
111.0140065953613
 20
135.851477033963
 30
0.0
 11
111.0335378453613
 21
135.831945783963
 31
0.0
  0
LINE
  5
8465
330
A
100
AcDbEntity
  8
MODEL
100
AcDbLine
 10
111.0335378453613
 20
135.831945783963
 30
0.0
 11
111.0335378453613
 21
135.822180158963
 31
0.0
  0
LINE
  5
8466
330
A
100
AcDbEntity
  8
MODEL
100
AcDbLine
 10
111.0335378453613
 20
135.822180158963
 30
0.0
 11
111.0433034703613
 21
135.822180158963
 31
0.0
  0
LINE
  5
8467
330
A
100
AcDbEntity
  8
MODEL
100
AcDbLine
 10
111.0433034703613
 20
135.822180158963
 30
0.0
 11
111.0433034703613
 21
135.811926252713
 31
0.0
  0
LINE
  5
8468
330
A
100
AcDbEntity
  8
MODEL
100
AcDbLine
 10
111.0433034703613
 20
135.811926252713
 30
0.0
 11
111.0535573766113
 21
135.811926252713
 31
0.0
  0
LINE
  5
8469
330
A
100
AcDbEntity
  8
MODEL
100
AcDbLine
 10
111.0535573766113
 20
135.811926252713
 30
0.0
 11
111.0535573766113
 21
135.801916487088
 31
0.0
  0
LINE
  5
846A
330
A
100
AcDbEntity
  8
MODEL
100
AcDbLine
 10
130.8738698766113
 20
135.526770002713
 30
0.0
 11
131.0218190953613
 21
135.546789533963
 31
0.0
  0
LINE
  5
846B
330
A
100
AcDbEntity
  8
MODEL
100
AcDbLine
 10
131.0218190953613
 20
135.546789533963
 30
0.0
 11
131.1692800328613
 21
135.595373518338
 31
0.0
  0
LINE
  5
846C
330
A
100
AcDbEntity
  8
MODEL
100
AcDbLine
 10
131.1692800328613
 20
135.595373518338
 30
0.0
 11
131.3069753453613
 21
135.674230940213
 31
0.0
  0
LINE
  5
846D
330
A
100
AcDbEntity
  8
MODEL
100
AcDbLine
 10
131.3069753453613
 20
135.674230940213
 30
0.0
 11
131.4156179234863
 21
135.792883283963
 31
0.0
  0
LINE
  5
846E
330
A
100
AcDbEntity
  8
MODEL
100
AcDbLine
 10
131.4156179234863
 20
135.792883283963
 30
0.0
 11
131.5037526891113
 21
135.920324690213
 31
0.0
  0
LINE
  5
846F
330
A
100
AcDbEntity
  8
MODEL
100
AcDbLine
 10
131.5037526891113
 20
135.920324690213
 30
0.0
 11
131.5530690953613
 21
136.068273908963
 31
0.0
  0
LINE
  5
8470
330
A
100
AcDbEntity
  8
MODEL
100
AcDbLine
 10
131.5530690953613
 20
136.068273908963
 30
0.0
 11
131.5726003453613
 21
136.225500471463
 31
0.0
  0
LINE
  5
8471
330
A
100
AcDbEntity
  8
MODEL
100
AcDbLine
 10
121.3372487828613
 20
135.526770002713
 30
0.0
 11
130.8738698766113
 21
135.526770002713
 31
0.0
  0
LINE
  5
8472
330
A
100
AcDbEntity
  8
MODEL
100
AcDbLine
 10
130.8738698766113
 20
135.526770002713
 30
0.0
 11
130.8738698766113
 21
130.291174299588
 31
0.0
  0
LINE
  5
8473
330
A
100
AcDbEntity
  8
MODEL
100
AcDbLine
 10
130.8738698766113
 20
130.291174299588
 30
0.0
 11
130.5198659703613
 21
129.946691877713
 31
0.0
  0
LINE
  5
8474
330
A
100
AcDbEntity
  8
MODEL
100
AcDbLine
 10
130.5198659703613
 20
129.946691877713
 30
0.0
 11
121.3372487828613
 21
129.946691877713
 31
0.0
  0
LINE
  5
8475
330
A
100
AcDbEntity
  8
MODEL
100
AcDbLine
 10
121.3372487828613
 20
130.291174299588
 30
0.0
 11
130.8738698766113
 21
130.291174299588
 31
0.0
  0
LINE
  5
8476
330
A
100
AcDbEntity
  8
MODEL
100
AcDbLine
 10
121.3372487828613
 20
150.633459455838
 30
0.0
 11
111.1121511266113
 21
150.633459455838
 31
0.0
  0
LINE
  5
8477
330
A
100
AcDbEntity
  8
MODEL
100
AcDbLine
 10
131.1004323766113
 20
164.657141096463
 30
0.0
 11
111.5745534703613
 21
164.657141096463
 31
0.0
  0
LINE
  5
8478
330
A
100
AcDbEntity
  8
MODEL
100
AcDbLine
 10
111.9490651891113
 20
164.293371565213
 30
0.0
 11
130.7264089391113
 21
164.293371565213
 31
0.0
  0
LINE
  5
8479
330
A
100
AcDbEntity
  8
MODEL
100
AcDbLine
 10
135.9817800328613
 20
169.538488752713
 30
0.0
 11
106.6936940953613
 21
169.538488752713
 31
0.0
  0
LINE
  5
847A
330
A
100
AcDbEntity
  8
MODEL
100
AcDbLine
 10
135.9817800328613
 20
170.237463362088
 30
0.0
 11
106.6936940953613
 21
170.237463362088
 31
0.0
  0
LINE
  5
847B
330
A
100
AcDbEntity
  8
MODEL
100
AcDbLine
 10
130.6375417516113
 20
172.658605940213
 30
0.0
 11
129.5750417516113
 21
172.973547346463
 31
0.0
  0
LINE
  5
847C
330
A
100
AcDbEntity
  8
MODEL
100
AcDbLine
 10
129.5750417516113
 20
172.973547346463
 30
0.0
 11
128.4920339391113
 21
173.239904768338
 31
0.0
  0
LINE
  5
847D
330
A
100
AcDbEntity
  8
MODEL
100
AcDbLine
 10
128.4920339391113
 20
173.239904768338
 30
0.0
 11
127.4100026891113
 21
173.475988752713
 31
0.0
  0
LINE
  5
847E
330
A
100
AcDbEntity
  8
MODEL
100
AcDbLine
 10
127.4100026891113
 20
173.475988752713
 30
0.0
 11
126.3172292516113
 21
173.663000471463
 31
0.0
  0
LINE
  5
847F
330
A
100
AcDbEntity
  8
MODEL
100
AcDbLine
 10
126.3172292516113
 20
173.663000471463
 30
0.0
 11
125.2151784703613
 21
173.820471174588
 31
0.0
  0
LINE
  5
8480
330
A
100
AcDbEntity
  8
MODEL
100
AcDbLine
 10
125.2151784703613
 20
173.820471174588
 30
0.0
 11
124.1131276891113
 21
173.938635237088
 31
0.0
  0
LINE
  5
8481
330
A
100
AcDbEntity
  8
MODEL
100
AcDbLine
 10
124.1131276891113
 20
173.938635237088
 30
0.0
 11
123.0008230016113
 21
174.017248518338
 31
0.0
  0
LINE
  5
8482
330
A
100
AcDbEntity
  8
MODEL
100
AcDbLine
 10
123.0008230016113
 20
174.017248518338
 30
0.0
 11
121.8987722203613
 21
174.056555158963
 31
0.0
  0
LINE
  5
8483
330
A
100
AcDbEntity
  8
MODEL
100
AcDbLine
 10
121.8987722203613
 20
174.056555158963
 30
0.0
 11
120.7864675328613
 21
174.056555158963
 31
0.0
  0
LINE
  5
8484
330
A
100
AcDbEntity
  8
MODEL
100
AcDbLine
 10
120.7864675328613
 20
174.056555158963
 30
0.0
 11
119.6741628453613
 21
174.017248518338
 31
0.0
  0
LINE
  5
8485
330
A
100
AcDbEntity
  8
MODEL
100
AcDbLine
 10
119.6741628453613
 20
174.017248518338
 30
0.0
 11
118.5721120641113
 21
173.938635237088
 31
0.0
  0
LINE
  5
8486
330
A
100
AcDbEntity
  8
MODEL
100
AcDbLine
 10
118.5721120641113
 20
173.938635237088
 30
0.0
 11
117.4602956578613
 21
173.820471174588
 31
0.0
  0
LINE
  5
8487
330
A
100
AcDbEntity
  8
MODEL
100
AcDbLine
 10
117.4602956578613
 20
173.820471174588
 30
0.0
 11
116.3675222203613
 21
173.663000471463
 31
0.0
  0
LINE
  5
8488
330
A
100
AcDbEntity
  8
MODEL
100
AcDbLine
 10
116.3675222203613
 20
173.663000471463
 30
0.0
 11
115.2752370641113
 21
173.475988752713
 31
0.0
  0
LINE
  5
8489
330
A
100
AcDbEntity
  8
MODEL
100
AcDbLine
 10
115.2752370641113
 20
173.475988752713
 30
0.0
 11
114.1829519078613
 21
173.239904768338
 31
0.0
  0
LINE
  5
848A
330
A
100
AcDbEntity
  8
MODEL
100
AcDbLine
 10
114.1829519078613
 20
173.239904768338
 30
0.0
 11
113.1101980016113
 21
172.973547346463
 31
0.0
  0
LINE
  5
848B
330
A
100
AcDbEntity
  8
MODEL
100
AcDbLine
 10
113.1101980016113
 20
172.973547346463
 30
0.0
 11
112.0374440953613
 21
172.658605940213
 31
0.0
  0
LINE
  5
848C
330
A
100
AcDbEntity
  8
MODEL
100
AcDbLine
 10
134.0823659703613
 20
154.353430158963
 30
0.0
 11
108.6023855016113
 21
154.353430158963
 31
0.0
  0
LINE
  5
848D
330
A
100
AcDbEntity
  8
MODEL
100
AcDbLine
 10
67.14633081411125
 20
141.293859846463
 30
0.0
 11
67.61862085317375
 21
141.756506330838
 31
0.0
  0
LINE
  5
848E
330
A
100
AcDbEntity
  8
MODEL
100
AcDbLine
 10
67.14633081411125
 20
141.293859846463
 30
0.0
 11
67.14633081411125
 21
139.896398908963
 31
0.0
  0
LINE
  5
848F
330
A
100
AcDbEntity
  8
MODEL
100
AcDbLine
 10
67.14633081411125
 20
139.896398908963
 30
0.0
 11
67.61862085317375
 21
139.433508283963
 31
0.0
  0
LINE
  5
8490
330
A
100
AcDbEntity
  8
MODEL
100
AcDbLine
 10
121.3372487828613
 20
153.939855940213
 30
0.0
 11
107.7073659703613
 21
153.939855940213
 31
0.0
  0
LINE
  5
8491
330
A
100
AcDbEntity
  8
MODEL
100
AcDbLine
 10
112.5789480016113
 20
170.690588362088
 30
0.0
 11
130.0965261266113
 21
170.690588362088
 31
0.0
  0
LINE
  5
8492
330
A
100
AcDbEntity
  8
MODEL
100
AcDbLine
 10
130.4803151891113
 20
172.078039533963
 30
0.0
 11
112.1946706578613
 21
172.078039533963
 31
0.0
  0
LINE
  5
8493
330
A
100
AcDbEntity
  8
MODEL
100
AcDbLine
 10
130.6375417516113
 20
172.658605940213
 30
0.0
 11
112.0374440953613
 21
172.658605940213
 31
0.0
  0
LINE
  5
8494
330
A
100
AcDbEntity
  8
MODEL
100
AcDbLine
 10
106.9295339391113
 20
164.253820783963
 30
0.0
 11
135.7557058141113
 21
164.253820783963
 31
0.0
  0
LINE
  5
8495
330
A
100
AcDbEntity
  8
MODEL
100
AcDbLine
 10
135.7557058141113
 20
161.694982893338
 30
0.0
 11
106.9295339391113
 21
161.694982893338
 31
0.0
  0
LINE
  5
8496
330
A
100
AcDbEntity
  8
MODEL
100
AcDbLine
 10
121.3372487828613
 20
151.617590315213
 30
0.0
 11
106.8113698766113
 21
151.617590315213
 31
0.0
  0
LINE
  5
8497
330
A
100
AcDbEntity
  8
MODEL
100
AcDbLine
 10
100.8870534703613
 20
142.710852033963
 30
0.0
 11
100.6409597203613
 21
142.415686018338
 31
0.0
  0
LINE
  5
8498
330
A
100
AcDbEntity
  8
MODEL
100
AcDbLine
 10
100.6409597203613
 20
142.415686018338
 30
0.0
 11
100.4436940953613
 21
142.100988752713
 31
0.0
  0
LINE
  5
8499
330
A
100
AcDbEntity
  8
MODEL
100
AcDbLine
 10
100.4436940953613
 20
142.100988752713
 30
0.0
 11
100.2767019078613
 21
141.756506330838
 31
0.0
  0
LINE
  5
849A
330
A
100
AcDbEntity
  8
MODEL
100
AcDbLine
 10
100.2767019078613
 20
141.756506330838
 30
0.0
 11
100.2767019078613
 21
139.433508283963
 31
0.0
  0
LINE
  5
849B
330
A
100
AcDbEntity
  8
MODEL
100
AcDbLine
 10
100.2767019078613
 20
139.433508283963
 30
0.0
 11
100.4436940953613
 21
139.089514143338
 31
0.0
  0
LINE
  5
849C
330
A
100
AcDbEntity
  8
MODEL
100
AcDbLine
 10
100.4436940953613
 20
139.089514143338
 30
0.0
 11
100.6409597203613
 21
138.764318830838
 31
0.0
  0
LINE
  5
849D
330
A
100
AcDbEntity
  8
MODEL
100
AcDbLine
 10
100.6409597203613
 20
138.764318830838
 30
0.0
 11
100.8870534703613
 21
138.478918440213
 31
0.0
  0
LINE
  5
849E
330
A
100
AcDbEntity
  8
MODEL
100
AcDbLine
 10
105.9949636266113
 20
145.820959455838
 30
0.0
 11
101.8123464391113
 21
145.820959455838
 31
0.0
  0
LINE
  5
849F
330
A
100
AcDbEntity
  8
MODEL
100
AcDbLine
 10
111.1119069859863
 20
145.850500471463
 30
0.0
 11
111.1119069859863
 21
150.633459455838
 31
0.0
  0
LINE
  5
84A0
330
A
100
AcDbEntity
  8
MODEL
100
AcDbLine
 10
112.1062917516113
 20
160.701330549588
 30
0.0
 11
112.1458425328613
 21
160.701330549588
 31
0.0
  0
LINE
  5
84A1
330
A
100
AcDbEntity
  8
MODEL
100
AcDbLine
 10
112.1458425328613
 20
160.701330549588
 30
0.0
 11
112.1751394078613
 21
160.671789533963
 31
0.0
  0
LINE
  5
84A2
330
A
100
AcDbEntity
  8
MODEL
100
AcDbLine
 10
112.1751394078613
 20
160.671789533963
 30
0.0
 11
112.1946706578613
 21
160.661779768338
 31
0.0
  0
LINE
  5
84A3
330
A
100
AcDbEntity
  8
MODEL
100
AcDbLine
 10
112.1946706578613
 20
160.661779768338
 30
0.0
 11
112.2142019078613
 21
160.632238752713
 31
0.0
  0
LINE
  5
84A4
330
A
100
AcDbEntity
  8
MODEL
100
AcDbLine
 10
112.2142019078613
 20
160.632238752713
 30
0.0
 11
112.2342214391113
 21
160.612951643338
 31
0.0
  0
LINE
  5
84A5
330
A
100
AcDbEntity
  8
MODEL
100
AcDbLine
 10
112.2342214391113
 20
160.612951643338
 30
0.0
 11
112.2732839391113
 21
160.553625471463
 31
0.0
  0
LINE
  5
84A6
330
A
100
AcDbEntity
  8
MODEL
100
AcDbLine
 10
112.2732839391113
 20
160.553625471463
 30
0.0
 11
112.3328542516113
 21
160.435461408963
 31
0.0
  0
LINE
  5
84A7
330
A
100
AcDbEntity
  8
MODEL
100
AcDbLine
 10
112.3328542516113
 20
160.435461408963
 30
0.0
 11
112.3523855016113
 21
160.386145002713
 31
0.0
  0
LINE
  5
84A8
330
A
100
AcDbEntity
  8
MODEL
100
AcDbLine
 10
112.3523855016113
 20
160.386145002713
 30
0.0
 11
112.3619069859863
 21
160.337316877713
 31
0.0
  0
LINE
  5
84A9
330
A
100
AcDbEntity
  8
MODEL
100
AcDbLine
 10
112.3619069859863
 20
160.337316877713
 30
0.0
 11
112.4017019078613
 21
160.238684065213
 31
0.0
  0
LINE
  5
84AA
330
A
100
AcDbEntity
  8
MODEL
100
AcDbLine
 10
112.4017019078613
 20
160.238684065213
 30
0.0
 11
112.4407644078613
 21
160.121008283963
 31
0.0
  0
LINE
  5
84AB
330
A
100
AcDbEntity
  8
MODEL
100
AcDbLine
 10
112.4407644078613
 20
160.121008283963
 30
0.0
 11
112.4510183141113
 21
160.060461408963
 31
0.0
  0
LINE
  5
84AC
330
A
100
AcDbEntity
  8
MODEL
100
AcDbLine
 10
112.4510183141113
 20
160.060461408963
 30
0.0
 11
112.4905690953613
 21
159.923498518338
 31
0.0
  0
LINE
  5
84AD
330
A
100
AcDbEntity
  8
MODEL
100
AcDbLine
 10
112.4905690953613
 20
159.923498518338
 30
0.0
 11
112.5096120641113
 21
159.786047346463
 31
0.0
  0
LINE
  5
84AE
330
A
100
AcDbEntity
  8
MODEL
100
AcDbLine
 10
112.5096120641113
 20
159.786047346463
 30
0.0
 11
112.5296315953613
 21
159.707434065213
 31
0.0
  0
LINE
  5
84AF
330
A
100
AcDbEntity
  8
MODEL
100
AcDbLine
 10
112.5296315953613
 20
159.707434065213
 30
0.0
 11
112.5589284703613
 21
159.471350080838
 31
0.0
  0
LINE
  5
84B0
330
A
100
AcDbEntity
  8
MODEL
100
AcDbLine
 10
112.5589284703613
 20
159.471350080838
 30
0.0
 11
112.5589284703613
 21
159.392248518338
 31
0.0
  0
LINE
  5
84B1
330
A
100
AcDbEntity
  8
MODEL
100
AcDbLine
 10
112.5589284703613
 20
159.392248518338
 30
0.0
 11
112.5686940953613
 21
159.313391096463
 31
0.0
  0
LINE
  5
84B2
330
A
100
AcDbEntity
  8
MODEL
100
AcDbLine
 10
112.5686940953613
 20
159.313391096463
 30
0.0
 11
112.5686940953613
 21
159.077062971463
 31
0.0
  0
LINE
  5
84B3
330
A
100
AcDbEntity
  8
MODEL
100
AcDbLine
 10
102.2942800328613
 20
142.189367658963
 30
0.0
 11
104.1639089391113
 21
142.189367658963
 31
0.0
  0
LINE
  5
84B4
330
A
100
AcDbEntity
  8
MODEL
100
AcDbLine
 10
102.2942800328613
 20
142.721105940213
 30
0.0
 11
104.1639089391113
 21
142.721105940213
 31
0.0
  0
LINE
  5
84B5
330
A
100
AcDbEntity
  8
MODEL
100
AcDbLine
 10
102.2942800328613
 20
141.658117658963
 30
0.0
 11
104.1639089391113
 21
141.658117658963
 31
0.0
  0
LINE
  5
84B6
330
A
100
AcDbEntity
  8
MODEL
100
AcDbLine
 10
102.2942800328613
 20
140.595129377713
 30
0.0
 11
104.1639089391113
 21
140.595129377713
 31
0.0
  0
LINE
  5
84B7
330
A
100
AcDbEntity
  8
MODEL
100
AcDbLine
 10
102.2942800328613
 20
141.126379377713
 30
0.0
 11
104.1639089391113
 21
141.126379377713
 31
0.0
  0
LINE
  5
84B8
330
A
100
AcDbEntity
  8
MODEL
100
AcDbLine
 10
102.2942800328613
 20
140.063879377713
 30
0.0
 11
104.1639089391113
 21
140.063879377713
 31
0.0
  0
LINE
  5
84B9
330
A
100
AcDbEntity
  8
MODEL
100
AcDbLine
 10
102.2942800328613
 20
139.532629377713
 30
0.0
 11
104.1639089391113
 21
139.532629377713
 31
0.0
  0
LINE
  5
84BA
330
A
100
AcDbEntity
  8
MODEL
100
AcDbLine
 10
102.2942800328613
 20
138.469396955838
 30
0.0
 11
104.1639089391113
 21
138.469396955838
 31
0.0
  0
LINE
  5
84BB
330
A
100
AcDbEntity
  8
MODEL
100
AcDbLine
 10
102.2942800328613
 20
139.000891096463
 30
0.0
 11
104.1639089391113
 21
139.000891096463
 31
0.0
  0
LINE
  5
84BC
330
A
100
AcDbEntity
  8
MODEL
100
AcDbLine
 10
102.2942800328613
 20
137.937658674588
 30
0.0
 11
104.1639089391113
 21
137.937658674588
 31
0.0
  0
LINE
  5
84BD
330
A
100
AcDbEntity
  8
MODEL
100
AcDbLine
 10
101.8123464391113
 20
145.821203596463
 30
0.0
 11
101.6351003453613
 21
145.810949690213
 31
0.0
  0
LINE
  5
84BE
330
A
100
AcDbEntity
  8
MODEL
100
AcDbLine
 10
101.6351003453613
 20
145.810949690213
 30
0.0
 11
101.4573659703613
 21
145.751867658963
 31
0.0
  0
LINE
  5
84BF
330
A
100
AcDbEntity
  8
MODEL
100
AcDbLine
 10
101.4573659703613
 20
145.751867658963
 30
0.0
 11
101.3001394078613
 21
145.663732893338
 31
0.0
  0
LINE
  5
84C0
330
A
100
AcDbEntity
  8
MODEL
100
AcDbLine
 10
101.3001394078613
 20
145.663732893338
 30
0.0
 11
101.1526784703613
 21
145.555090315213
 31
0.0
  0
LINE
  5
84C1
330
A
100
AcDbEntity
  8
MODEL
100
AcDbLine
 10
101.1526784703613
 20
145.555090315213
 30
0.0
 11
101.0345144078613
 21
145.407629377713
 31
0.0
  0
LINE
  5
84C2
330
A
100
AcDbEntity
  8
MODEL
100
AcDbLine
 10
101.0345144078613
 20
145.407629377713
 30
0.0
 11
100.9554128453613
 21
145.249914533963
 31
0.0
  0
LINE
  5
84C3
330
A
100
AcDbEntity
  8
MODEL
100
AcDbLine
 10
100.9554128453613
 20
145.249914533963
 30
0.0
 11
100.8968190953613
 21
145.073156721463
 31
0.0
  0
LINE
  5
84C4
330
A
100
AcDbEntity
  8
MODEL
100
AcDbLine
 10
100.8968190953613
 20
145.073156721463
 30
0.0
 11
100.8870534703613
 21
144.895910627713
 31
0.0
  0
LINE
  5
84C5
330
A
100
AcDbEntity
  8
MODEL
100
AcDbLine
 10
102.2942800328613
 20
145.378088362088
 30
0.0
 11
104.1639089391113
 21
145.378088362088
 31
0.0
  0
LINE
  5
84C6
330
A
100
AcDbEntity
  8
MODEL
100
AcDbLine
 10
102.2942800328613
 20
143.251867658963
 30
0.0
 11
104.1639089391113
 21
143.251867658963
 31
0.0
  0
LINE
  5
84C7
330
A
100
AcDbEntity
  8
MODEL
100
AcDbLine
 10
102.2942800328613
 20
143.783605940213
 30
0.0
 11
104.1639089391113
 21
143.783605940213
 31
0.0
  0
LINE
  5
84C8
330
A
100
AcDbEntity
  8
MODEL
100
AcDbLine
 10
102.2942800328613
 20
144.846594221463
 30
0.0
 11
104.1639089391113
 21
144.846594221463
 31
0.0
  0
LINE
  5
84C9
330
A
100
AcDbEntity
  8
MODEL
100
AcDbLine
 10
102.2942800328613
 20
144.315344221463
 30
0.0
 11
104.1639089391113
 21
144.315344221463
 31
0.0
  0
LINE
  5
84CA
330
A
100
AcDbEntity
  8
MODEL
100
AcDbLine
 10
130.1062917516113
 20
159.077062971463
 30
0.0
 11
130.1062917516113
 21
159.234289533963
 31
0.0
  0
LINE
  5
84CB
330
A
100
AcDbEntity
  8
MODEL
100
AcDbLine
 10
130.1062917516113
 20
159.234289533963
 30
0.0
 11
130.1160573766113
 21
159.313391096463
 31
0.0
  0
LINE
  5
84CC
330
A
100
AcDbEntity
  8
MODEL
100
AcDbLine
 10
130.1160573766113
 20
159.313391096463
 30
0.0
 11
130.1160573766113
 21
159.392248518338
 31
0.0
  0
LINE
  5
84CD
330
A
100
AcDbEntity
  8
MODEL
100
AcDbLine
 10
130.1160573766113
 20
159.392248518338
 30
0.0
 11
130.1653737828613
 21
159.786047346463
 31
0.0
  0
LINE
  5
84CE
330
A
100
AcDbEntity
  8
MODEL
100
AcDbLine
 10
130.1653737828613
 20
159.786047346463
 30
0.0
 11
130.1751394078613
 21
159.854895002713
 31
0.0
  0
LINE
  5
84CF
330
A
100
AcDbEntity
  8
MODEL
100
AcDbLine
 10
130.1751394078613
 20
159.854895002713
 30
0.0
 11
130.1946706578613
 21
159.923498518338
 31
0.0
  0
LINE
  5
84D0
330
A
100
AcDbEntity
  8
MODEL
100
AcDbLine
 10
130.1946706578613
 20
159.923498518338
 30
0.0
 11
130.2049245641113
 21
159.992590315213
 31
0.0
  0
LINE
  5
84D1
330
A
100
AcDbEntity
  8
MODEL
100
AcDbLine
 10
130.2049245641113
 20
159.992590315213
 30
0.0
 11
130.2244558141113
 21
160.060461408963
 31
0.0
  0
LINE
  5
84D2
330
A
100
AcDbEntity
  8
MODEL
100
AcDbLine
 10
130.2244558141113
 20
160.060461408963
 30
0.0
 11
130.2439870641113
 21
160.121008283963
 31
0.0
  0
LINE
  5
84D3
330
A
100
AcDbEntity
  8
MODEL
100
AcDbLine
 10
130.2439870641113
 20
160.121008283963
 30
0.0
 11
130.2537526891113
 21
160.179602033963
 31
0.0
  0
LINE
  5
84D4
330
A
100
AcDbEntity
  8
MODEL
100
AcDbLine
 10
130.2537526891113
 20
160.179602033963
 30
0.0
 11
130.2737722203613
 21
160.238684065213
 31
0.0
  0
LINE
  5
84D5
330
A
100
AcDbEntity
  8
MODEL
100
AcDbLine
 10
130.2737722203613
 20
160.238684065213
 30
0.0
 11
130.3523855016113
 21
160.435217268338
 31
0.0
  0
LINE
  5
84D6
330
A
100
AcDbEntity
  8
MODEL
100
AcDbLine
 10
130.3523855016113
 20
160.435217268338
 30
0.0
 11
130.4114675328613
 21
160.553625471463
 31
0.0
  0
LINE
  5
84D7
330
A
100
AcDbEntity
  8
MODEL
100
AcDbLine
 10
130.4114675328613
 20
160.553625471463
 30
0.0
 11
130.4510183141113
 21
160.612463362088
 31
0.0
  0
LINE
  5
84D8
330
A
100
AcDbEntity
  8
MODEL
100
AcDbLine
 10
130.4510183141113
 20
160.612463362088
 30
0.0
 11
130.4705495641113
 21
160.632238752713
 31
0.0
  0
LINE
  5
84D9
330
A
100
AcDbEntity
  8
MODEL
100
AcDbLine
 10
130.4705495641113
 20
160.632238752713
 30
0.0
 11
130.4905690953613
 21
160.661779768338
 31
0.0
  0
LINE
  5
84DA
330
A
100
AcDbEntity
  8
MODEL
100
AcDbLine
 10
130.4905690953613
 20
160.661779768338
 30
0.0
 11
130.5198659703613
 21
160.691320783963
 31
0.0
  0
LINE
  5
84DB
330
A
100
AcDbEntity
  8
MODEL
100
AcDbLine
 10
130.5198659703613
 20
160.691320783963
 30
0.0
 11
130.5393972203613
 21
160.701330549588
 31
0.0
  0
LINE
  5
84DC
330
A
100
AcDbEntity
  8
MODEL
100
AcDbLine
 10
130.5393972203613
 20
160.701330549588
 30
0.0
 11
130.5691823766113
 21
160.701330549588
 31
0.0
  0
LINE
  5
84DD
330
A
100
AcDbEntity
  8
MODEL
100
AcDbLine
 10
112.1946706578613
 20
172.078039533963
 30
0.0
 11
112.0374440953613
 21
172.658605940213
 31
0.0
  0
LINE
  5
84DE
330
A
100
AcDbEntity
  8
MODEL
100
AcDbLine
 10
112.7063894078613
 20
170.237463362088
 30
0.0
 11
112.5789480016113
 21
170.690588362088
 31
0.0
  0
LINE
  5
84DF
330
A
100
AcDbEntity
  8
MODEL
100
AcDbLine
 10
112.7361745641113
 20
172.078039533963
 30
0.0
 11
112.5789480016113
 21
172.068273908963
 31
0.0
  0
LINE
  5
84E0
330
A
100
AcDbEntity
  8
MODEL
100
AcDbLine
 10
112.5789480016113
 20
172.068273908963
 30
0.0
 11
112.4309987828613
 21
172.009191877713
 31
0.0
  0
LINE
  5
84E1
330
A
100
AcDbEntity
  8
MODEL
100
AcDbLine
 10
112.4309987828613
 20
172.009191877713
 30
0.0
 11
112.3030690953613
 21
171.930578596463
 31
0.0
  0
LINE
  5
84E2
330
A
100
AcDbEntity
  8
MODEL
100
AcDbLine
 10
112.3030690953613
 20
171.930578596463
 30
0.0
 11
112.1946706578613
 21
171.822180158963
 31
0.0
  0
LINE
  5
84E3
330
A
100
AcDbEntity
  8
MODEL
100
AcDbLine
 10
112.1946706578613
 20
171.822180158963
 30
0.0
 11
112.1062917516113
 21
171.684484846463
 31
0.0
  0
LINE
  5
84E4
330
A
100
AcDbEntity
  8
MODEL
100
AcDbLine
 10
112.1062917516113
 20
171.684484846463
 30
0.0
 11
112.0569753453613
 21
171.536779768338
 31
0.0
  0
LINE
  5
84E5
330
A
100
AcDbEntity
  8
MODEL
100
AcDbLine
 10
112.0569753453613
 20
171.536779768338
 30
0.0
 11
112.0374440953613
 21
171.389318830838
 31
0.0
  0
LINE
  5
84E6
330
A
100
AcDbEntity
  8
MODEL
100
AcDbLine
 10
112.0374440953613
 20
171.389318830838
 30
0.0
 11
112.0569753453613
 21
171.231359846463
 31
0.0
  0
LINE
  5
84E7
330
A
100
AcDbEntity
  8
MODEL
100
AcDbLine
 10
112.0569753453613
 20
171.231359846463
 30
0.0
 11
112.1062917516113
 21
171.084143049588
 31
0.0
  0
LINE
  5
84E8
330
A
100
AcDbEntity
  8
MODEL
100
AcDbLine
 10
112.1062917516113
 20
171.084143049588
 30
0.0
 11
112.1946706578613
 21
170.945715315213
 31
0.0
  0
LINE
  5
84E9
330
A
100
AcDbEntity
  8
MODEL
100
AcDbLine
 10
112.1946706578613
 20
170.945715315213
 30
0.0
 11
112.3030690953613
 21
170.838049299588
 31
0.0
  0
LINE
  5
84EA
330
A
100
AcDbEntity
  8
MODEL
100
AcDbLine
 10
112.3030690953613
 20
170.838049299588
 30
0.0
 11
112.4309987828613
 21
170.759191877713
 31
0.0
  0
LINE
  5
84EB
330
A
100
AcDbEntity
  8
MODEL
100
AcDbLine
 10
112.4309987828613
 20
170.759191877713
 30
0.0
 11
112.5789480016113
 21
170.700109846463
 31
0.0
  0
LINE
  5
84EC
330
A
100
AcDbEntity
  8
MODEL
100
AcDbLine
 10
112.5789480016113
 20
170.700109846463
 30
0.0
 11
112.7361745641113
 21
170.690588362088
 31
0.0
  0
LINE
  5
84ED
330
A
100
AcDbEntity
  8
MODEL
100
AcDbLine
 10
108.2085866734863
 20
169.105871565213
 30
0.0
 11
106.6936940953613
 21
169.538977033963
 31
0.0
  0
LINE
  5
84EE
330
A
100
AcDbEntity
  8
MODEL
100
AcDbLine
 10
111.9490651891113
 20
164.253820783963
 30
0.0
 11
111.9490651891113
 21
164.293371565213
 31
0.0
  0
LINE
  5
84EF
330
A
100
AcDbEntity
  8
MODEL
100
AcDbLine
 10
111.9490651891113
 20
164.293371565213
 30
0.0
 11
111.9095144078613
 21
164.431555158963
 31
0.0
  0
LINE
  5
84F0
330
A
100
AcDbEntity
  8
MODEL
100
AcDbLine
 10
111.9095144078613
 20
164.431555158963
 30
0.0
 11
111.8304128453613
 21
164.539465315213
 31
0.0
  0
LINE
  5
84F1
330
A
100
AcDbEntity
  8
MODEL
100
AcDbLine
 10
111.8304128453613
 20
164.539465315213
 30
0.0
 11
111.7127370641113
 21
164.618078596463
 31
0.0
  0
LINE
  5
84F2
330
A
100
AcDbEntity
  8
MODEL
100
AcDbLine
 10
111.7127370641113
 20
164.618078596463
 30
0.0
 11
111.5745534703613
 21
164.657141096463
 31
0.0
  0
LINE
  5
84F3
330
A
100
AcDbEntity
  8
MODEL
100
AcDbLine
 10
111.9490651891113
 20
161.694982893338
 30
0.0
 11
111.9490651891113
 21
160.701330549588
 31
0.0
  0
LINE
  5
84F4
330
A
100
AcDbEntity
  8
MODEL
100
AcDbLine
 10
111.9490651891113
 20
160.701330549588
 30
0.0
 11
112.1062917516113
 21
160.701330549588
 31
0.0
  0
LINE
  5
84F5
330
A
100
AcDbEntity
  8
MODEL
100
AcDbLine
 10
106.9295339391113
 20
161.694982893338
 30
0.0
 11
106.9295339391113
 21
164.253820783963
 31
0.0
  0
LINE
  5
84F6
330
A
100
AcDbEntity
  8
MODEL
100
AcDbLine
 10
111.5745534703613
 20
164.657141096463
 30
0.0
 11
111.5550222203613
 21
165.080480940213
 31
0.0
  0
LINE
  5
84F7
330
A
100
AcDbEntity
  8
MODEL
100
AcDbLine
 10
111.5550222203613
 20
165.080480940213
 30
0.0
 11
111.4959401891113
 21
165.503820783963
 31
0.0
  0
LINE
  5
84F8
330
A
100
AcDbEntity
  8
MODEL
100
AcDbLine
 10
111.4959401891113
 20
165.503820783963
 30
0.0
 11
111.3977956578613
 21
165.917395002713
 31
0.0
  0
LINE
  5
84F9
330
A
100
AcDbEntity
  8
MODEL
100
AcDbLine
 10
111.3977956578613
 20
165.917395002713
 30
0.0
 11
111.2601003453613
 21
166.330725080838
 31
0.0
  0
LINE
  5
84FA
330
A
100
AcDbEntity
  8
MODEL
100
AcDbLine
 10
111.2601003453613
 20
166.330725080838
 30
0.0
 11
111.0828542516113
 21
166.714270002713
 31
0.0
  0
LINE
  5
84FB
330
A
100
AcDbEntity
  8
MODEL
100
AcDbLine
 10
111.0828542516113
 20
166.714270002713
 30
0.0
 11
110.8763112828613
 21
167.088293440213
 31
0.0
  0
LINE
  5
84FC
330
A
100
AcDbEntity
  8
MODEL
100
AcDbLine
 10
110.8763112828613
 20
167.088293440213
 30
0.0
 11
110.6297292516113
 21
167.442541487088
 31
0.0
  0
LINE
  5
84FD
330
A
100
AcDbEntity
  8
MODEL
100
AcDbLine
 10
110.6297292516113
 20
167.442541487088
 30
0.0
 11
110.3641042516113
 21
167.767492658963
 31
0.0
  0
LINE
  5
84FE
330
A
100
AcDbEntity
  8
MODEL
100
AcDbLine
 10
110.3641042516113
 20
167.767492658963
 30
0.0
 11
110.0594167516113
 21
168.072668440213
 31
0.0
  0
LINE
  5
84FF
330
A
100
AcDbEntity
  8
MODEL
100
AcDbLine
 10
110.0594167516113
 20
168.072668440213
 30
0.0
 11
109.7342214391113
 21
168.347814924588
 31
0.0
  0
LINE
  5
8500
330
A
100
AcDbEntity
  8
MODEL
100
AcDbLine
 10
109.7342214391113
 20
168.347814924588
 30
0.0
 11
109.3802175328613
 21
168.584387190213
 31
0.0
  0
LINE
  5
8501
330
A
100
AcDbEntity
  8
MODEL
100
AcDbLine
 10
109.3802175328613
 20
168.584387190213
 30
0.0
 11
109.0061940953613
 21
168.790930158963
 31
0.0
  0
LINE
  5
8502
330
A
100
AcDbEntity
  8
MODEL
100
AcDbLine
 10
109.0061940953613
 20
168.790930158963
 30
0.0
 11
108.6121511266113
 21
168.968176252713
 31
0.0
  0
LINE
  5
8503
330
A
100
AcDbEntity
  8
MODEL
100
AcDbLine
 10
108.6121511266113
 20
168.968176252713
 30
0.0
 11
108.2085866734863
 21
169.105871565213
 31
0.0
  0
LINE
  5
8504
330
A
100
AcDbEntity
  8
MODEL
100
AcDbLine
 10
106.6936940953613
 20
169.538977033963
 30
0.0
 11
106.6936940953613
 21
170.237463362088
 31
0.0
  0
LINE
  5
8505
330
A
100
AcDbEntity
  8
MODEL
100
AcDbLine
 10
112.5686940953613
 20
159.077062971463
 30
0.0
 11
112.5686940953613
 21
156.754797346463
 31
0.0
  0
LINE
  5
8506
330
A
100
AcDbEntity
  8
MODEL
100
AcDbLine
 10
111.9490651891113
 20
154.353430158963
 30
0.0
 11
111.9490651891113
 21
155.121008283963
 31
0.0
  0
LINE
  5
8507
330
A
100
AcDbEntity
  8
MODEL
100
AcDbLine
 10
111.9490651891113
 20
155.121008283963
 30
0.0
 11
112.1062917516113
 21
155.121008283963
 31
0.0
  0
LINE
  5
8508
330
A
100
AcDbEntity
  8
MODEL
100
AcDbLine
 10
112.5686940953613
 20
156.754797346463
 30
0.0
 11
112.5686940953613
 21
156.518469221463
 31
0.0
  0
LINE
  5
8509
330
A
100
AcDbEntity
  8
MODEL
100
AcDbLine
 10
112.5686940953613
 20
156.518469221463
 30
0.0
 11
112.5589284703613
 21
156.439855940213
 31
0.0
  0
LINE
  5
850A
330
A
100
AcDbEntity
  8
MODEL
100
AcDbLine
 10
112.5589284703613
 20
156.439855940213
 30
0.0
 11
112.5589284703613
 21
156.351232893338
 31
0.0
  0
LINE
  5
850B
330
A
100
AcDbEntity
  8
MODEL
100
AcDbLine
 10
112.5589284703613
 20
156.351232893338
 30
0.0
 11
112.5491628453613
 21
156.272375471463
 31
0.0
  0
LINE
  5
850C
330
A
100
AcDbEntity
  8
MODEL
100
AcDbLine
 10
112.5491628453613
 20
156.272375471463
 30
0.0
 11
112.5393972203613
 21
156.203527815213
 31
0.0
  0
LINE
  5
850D
330
A
100
AcDbEntity
  8
MODEL
100
AcDbLine
 10
112.5393972203613
 20
156.203527815213
 30
0.0
 11
112.5296315953613
 21
156.124914533963
 31
0.0
  0
LINE
  5
850E
330
A
100
AcDbEntity
  8
MODEL
100
AcDbLine
 10
112.5296315953613
 20
156.124914533963
 30
0.0
 11
112.5096120641113
 21
156.046301252713
 31
0.0
  0
LINE
  5
850F
330
A
100
AcDbEntity
  8
MODEL
100
AcDbLine
 10
112.5096120641113
 20
156.046301252713
 30
0.0
 11
112.4905690953613
 21
155.908117658963
 31
0.0
  0
LINE
  5
8510
330
A
100
AcDbEntity
  8
MODEL
100
AcDbLine
 10
112.4905690953613
 20
155.908117658963
 30
0.0
 11
112.4510183141113
 21
155.770666487088
 31
0.0
  0
LINE
  5
8511
330
A
100
AcDbEntity
  8
MODEL
100
AcDbLine
 10
112.4510183141113
 20
155.770666487088
 30
0.0
 11
112.4407644078613
 21
155.711340315213
 31
0.0
  0
LINE
  5
8512
330
A
100
AcDbEntity
  8
MODEL
100
AcDbLine
 10
112.4407644078613
 20
155.711340315213
 30
0.0
 11
112.4017019078613
 21
155.593664533963
 31
0.0
  0
LINE
  5
8513
330
A
100
AcDbEntity
  8
MODEL
100
AcDbLine
 10
112.4017019078613
 20
155.593664533963
 30
0.0
 11
112.3621511266113
 21
155.495031721463
 31
0.0
  0
LINE
  5
8514
330
A
100
AcDbEntity
  8
MODEL
100
AcDbLine
 10
112.3621511266113
 20
155.495031721463
 30
0.0
 11
112.3523855016113
 21
155.445471174588
 31
0.0
  0
LINE
  5
8515
330
A
100
AcDbEntity
  8
MODEL
100
AcDbLine
 10
112.3523855016113
 20
155.445471174588
 30
0.0
 11
112.3328542516113
 21
155.396887190213
 31
0.0
  0
LINE
  5
8516
330
A
100
AcDbEntity
  8
MODEL
100
AcDbLine
 10
112.3328542516113
 20
155.396887190213
 30
0.0
 11
112.2732839391113
 21
155.278967268338
 31
0.0
  0
LINE
  5
8517
330
A
100
AcDbEntity
  8
MODEL
100
AcDbLine
 10
112.2732839391113
 20
155.278967268338
 30
0.0
 11
112.2142019078613
 21
155.190344221463
 31
0.0
  0
LINE
  5
8518
330
A
100
AcDbEntity
  8
MODEL
100
AcDbLine
 10
112.2142019078613
 20
155.190344221463
 30
0.0
 11
112.1946706578613
 21
155.170324690213
 31
0.0
  0
LINE
  5
8519
330
A
100
AcDbEntity
  8
MODEL
100
AcDbLine
 10
112.1946706578613
 20
155.170324690213
 30
0.0
 11
112.1751394078613
 21
155.160559065213
 31
0.0
  0
LINE
  5
851A
330
A
100
AcDbEntity
  8
MODEL
100
AcDbLine
 10
112.1751394078613
 20
155.160559065213
 30
0.0
 11
112.1458425328613
 21
155.130773908963
 31
0.0
  0
LINE
  5
851B
330
A
100
AcDbEntity
  8
MODEL
100
AcDbLine
 10
112.1458425328613
 20
155.130773908963
 30
0.0
 11
112.1258230016113
 21
155.130773908963
 31
0.0
  0
LINE
  5
851C
330
A
100
AcDbEntity
  8
MODEL
100
AcDbLine
 10
112.1258230016113
 20
155.130773908963
 30
0.0
 11
112.1062917516113
 21
155.121008283963
 31
0.0
  0
LINE
  5
851D
330
A
100
AcDbEntity
  8
MODEL
100
AcDbLine
 10
111.1121511266113
 20
150.633215315213
 30
0.0
 11
111.0926198766113
 21
150.849523908963
 31
0.0
  0
LINE
  5
851E
330
A
100
AcDbEntity
  8
MODEL
100
AcDbLine
 10
111.0926198766113
 20
150.849523908963
 30
0.0
 11
111.0433034703613
 21
151.066320783963
 31
0.0
  0
LINE
  5
851F
330
A
100
AcDbEntity
  8
MODEL
100
AcDbLine
 10
111.0433034703613
 20
151.066320783963
 30
0.0
 11
110.9646901891113
 21
151.263098127713
 31
0.0
  0
LINE
  5
8520
330
A
100
AcDbEntity
  8
MODEL
100
AcDbLine
 10
110.9646901891113
 20
151.263098127713
 30
0.0
 11
110.8465261266113
 21
151.450598127713
 31
0.0
  0
LINE
  5
8521
330
A
100
AcDbEntity
  8
MODEL
100
AcDbLine
 10
110.8465261266113
 20
151.450598127713
 30
0.0
 11
110.7085866734863
 21
151.617590315213
 31
0.0
  0
LINE
  5
8522
330
A
100
AcDbEntity
  8
MODEL
100
AcDbLine
 10
108.6023855016113
 20
154.353430158963
 30
0.0
 11
108.3958425328613
 21
154.343664533963
 31
0.0
  0
LINE
  5
8523
330
A
100
AcDbEntity
  8
MODEL
100
AcDbLine
 10
108.3958425328613
 20
154.343664533963
 30
0.0
 11
108.1990651891113
 21
154.284582502713
 31
0.0
  0
LINE
  5
8524
330
A
100
AcDbEntity
  8
MODEL
100
AcDbLine
 10
108.1990651891113
 20
154.284582502713
 30
0.0
 11
108.0218190953613
 21
154.205969221463
 31
0.0
  0
LINE
  5
8525
330
A
100
AcDbEntity
  8
MODEL
100
AcDbLine
 10
108.0218190953613
 20
154.205969221463
 30
0.0
 11
107.8548269078613
 21
154.088049299588
 31
0.0
  0
LINE
  5
8526
330
A
100
AcDbEntity
  8
MODEL
100
AcDbLine
 10
107.8548269078613
 20
154.088049299588
 30
0.0
 11
107.7073659703613
 21
153.939855940213
 31
0.0
  0
LINE
  5
8527
330
A
100
AcDbEntity
  8
MODEL
100
AcDbLine
 10
107.7073659703613
 20
153.939855940213
 30
0.0
 11
106.9197683141113
 21
152.995520002713
 31
0.0
  0
LINE
  5
8528
330
A
100
AcDbEntity
  8
MODEL
100
AcDbLine
 10
106.9197683141113
 20
152.995520002713
 30
0.0
 11
106.8606862828613
 21
152.906652815213
 31
0.0
  0
LINE
  5
8529
330
A
100
AcDbEntity
  8
MODEL
100
AcDbLine
 10
106.8606862828613
 20
152.906652815213
 30
0.0
 11
106.8211355016113
 21
152.808508283963
 31
0.0
  0
LINE
  5
852A
330
A
100
AcDbEntity
  8
MODEL
100
AcDbLine
 10
106.8211355016113
 20
152.808508283963
 30
0.0
 11
106.8113698766113
 21
152.700109846463
 31
0.0
  0
LINE
  5
852B
330
A
100
AcDbEntity
  8
MODEL
100
AcDbLine
 10
106.8113698766113
 20
152.700109846463
 30
0.0
 11
106.8113698766113
 21
151.617590315213
 31
0.0
  0
LINE
  5
852C
330
A
100
AcDbEntity
  8
MODEL
100
AcDbLine
 10
105.9949636266113
 20
145.378088362088
 30
0.0
 11
110.6497487828613
 21
145.378088362088
 31
0.0
  0
LINE
  5
852D
330
A
100
AcDbEntity
  8
MODEL
100
AcDbLine
 10
110.6497487828613
 20
145.378088362088
 30
0.0
 11
110.6692800328613
 21
145.387609846463
 31
0.0
  0
LINE
  5
852E
330
A
100
AcDbEntity
  8
MODEL
100
AcDbLine
 10
110.6692800328613
 20
145.387609846463
 30
0.0
 11
110.7381276891113
 21
145.387609846463
 31
0.0
  0
LINE
  5
852F
330
A
100
AcDbEntity
  8
MODEL
100
AcDbLine
 10
110.7381276891113
 20
145.387609846463
 30
0.0
 11
110.7581472203613
 21
145.397863752713
 31
0.0
  0
LINE
  5
8530
330
A
100
AcDbEntity
  8
MODEL
100
AcDbLine
 10
110.7581472203613
 20
145.397863752713
 30
0.0
 11
110.7776784703613
 21
145.397863752713
 31
0.0
  0
LINE
  5
8531
330
A
100
AcDbEntity
  8
MODEL
100
AcDbLine
 10
110.7776784703613
 20
145.397863752713
 30
0.0
 11
110.8069753453613
 21
145.407629377713
 31
0.0
  0
LINE
  5
8532
330
A
100
AcDbEntity
  8
MODEL
100
AcDbLine
 10
110.8069753453613
 20
145.407629377713
 30
0.0
 11
110.9056081578613
 21
145.456701643338
 31
0.0
  0
LINE
  5
8533
330
A
100
AcDbEntity
  8
MODEL
100
AcDbLine
 10
110.9056081578613
 20
145.456701643338
 30
0.0
 11
110.9251394078613
 21
145.476477033963
 31
0.0
  0
LINE
  5
8534
330
A
100
AcDbEntity
  8
MODEL
100
AcDbLine
 10
110.9251394078613
 20
145.476477033963
 30
0.0
 11
110.9451589391113
 21
145.486730940213
 31
0.0
  0
LINE
  5
8535
330
A
100
AcDbEntity
  8
MODEL
100
AcDbLine
 10
110.9451589391113
 20
145.486730940213
 30
0.0
 11
110.9549245641113
 21
145.505773908963
 31
0.0
  0
LINE
  5
8536
330
A
100
AcDbEntity
  8
MODEL
100
AcDbLine
 10
110.9549245641113
 20
145.505773908963
 30
0.0
 11
110.9749440953613
 21
145.516027815213
 31
0.0
  0
LINE
  5
8537
330
A
100
AcDbEntity
  8
MODEL
100
AcDbLine
 10
110.9749440953613
 20
145.516027815213
 30
0.0
 11
110.9939870641113
 21
145.535559065213
 31
0.0
  0
LINE
  5
8538
330
A
100
AcDbEntity
  8
MODEL
100
AcDbLine
 10
110.9939870641113
 20
145.535559065213
 30
0.0
 11
111.0037526891113
 21
145.555090315213
 31
0.0
  0
LINE
  5
8539
330
A
100
AcDbEntity
  8
MODEL
100
AcDbLine
 10
111.0037526891113
 20
145.555090315213
 30
0.0
 11
111.0335378453613
 21
145.584631330838
 31
0.0
  0
LINE
  5
853A
330
A
100
AcDbEntity
  8
MODEL
100
AcDbLine
 10
111.0335378453613
 20
145.584631330838
 30
0.0
 11
111.0625905797363
 21
145.643469221463
 31
0.0
  0
LINE
  5
853B
330
A
100
AcDbEntity
  8
MODEL
100
AcDbLine
 10
111.0625905797363
 20
145.643469221463
 30
0.0
 11
111.0726003453613
 21
145.672766096463
 31
0.0
  0
LINE
  5
853C
330
A
100
AcDbEntity
  8
MODEL
100
AcDbLine
 10
111.0726003453613
 20
145.672766096463
 30
0.0
 11
111.0926198766113
 21
145.712316877713
 31
0.0
  0
LINE
  5
853D
330
A
100
AcDbEntity
  8
MODEL
100
AcDbLine
 10
111.0926198766113
 20
145.712316877713
 30
0.0
 11
111.0926198766113
 21
145.732336408963
 31
0.0
  0
LINE
  5
853E
330
A
100
AcDbEntity
  8
MODEL
100
AcDbLine
 10
111.0926198766113
 20
145.732336408963
 30
0.0
 11
111.1023855016113
 21
145.751867658963
 31
0.0
  0
LINE
  5
853F
330
A
100
AcDbEntity
  8
MODEL
100
AcDbLine
 10
111.1023855016113
 20
145.751867658963
 30
0.0
 11
111.1023855016113
 21
145.781652815213
 31
0.0
  0
LINE
  5
8540
330
A
100
AcDbEntity
  8
MODEL
100
AcDbLine
 10
111.1023855016113
 20
145.781652815213
 30
0.0
 11
111.1121511266113
 21
145.801184065213
 31
0.0
  0
LINE
  5
8541
330
A
100
AcDbEntity
  8
MODEL
100
AcDbLine
 10
111.1121511266113
 20
145.801184065213
 30
0.0
 11
111.1121511266113
 21
145.850500471463
 31
0.0
  0
LINE
  5
8542
330
A
100
AcDbEntity
  8
MODEL
100
AcDbLine
 10
131.5726003453613
 20
150.633459455838
 30
0.0
 11
121.3372487828613
 21
150.633459455838
 31
0.0
  0
LINE
  5
8543
330
A
100
AcDbEntity
  8
MODEL
100
AcDbLine
 10
118.5916433141113
 20
160.356848127713
 30
0.0
 11
118.5916433141113
 21
155.475500471463
 31
0.0
  0
LINE
  5
8544
330
A
100
AcDbEntity
  8
MODEL
100
AcDbLine
 10
121.8001394078613
 20
160.701330549588
 30
0.0
 11
121.8001394078613
 21
155.121008283963
 31
0.0
  0
LINE
  5
8545
330
A
100
AcDbEntity
  8
MODEL
100
AcDbLine
 10
124.0926198766113
 20
155.475500471463
 30
0.0
 11
124.0926198766113
 21
160.356848127713
 31
0.0
  0
LINE
  5
8546
330
A
100
AcDbEntity
  8
MODEL
100
AcDbLine
 10
120.8753347203613
 20
160.701330549588
 30
0.0
 11
120.8753347203613
 21
155.121008283963
 31
0.0
  0
LINE
  5
8547
330
A
100
AcDbEntity
  8
MODEL
100
AcDbLine
 10
117.9715261266113
 20
159.077062971463
 30
0.0
 11
117.9715261266113
 21
159.234289533963
 31
0.0
  0
LINE
  5
8548
330
A
100
AcDbEntity
  8
MODEL
100
AcDbLine
 10
117.9715261266113
 20
159.234289533963
 30
0.0
 11
117.9812917516113
 21
159.313391096463
 31
0.0
  0
LINE
  5
8549
330
A
100
AcDbEntity
  8
MODEL
100
AcDbLine
 10
117.9812917516113
 20
159.313391096463
 30
0.0
 11
118.0506276891113
 21
159.589514143338
 31
0.0
  0
LINE
  5
854A
330
A
100
AcDbEntity
  8
MODEL
100
AcDbLine
 10
118.0506276891113
 20
159.589514143338
 30
0.0
 11
118.0701589391113
 21
159.628820783963
 31
0.0
  0
LINE
  5
854B
330
A
100
AcDbEntity
  8
MODEL
100
AcDbLine
 10
118.0701589391113
 20
159.628820783963
 30
0.0
 11
118.0804128453613
 21
159.668371565213
 31
0.0
  0
LINE
  5
854C
330
A
100
AcDbEntity
  8
MODEL
100
AcDbLine
 10
118.0804128453613
 20
159.668371565213
 30
0.0
 11
118.0999440953613
 21
159.707434065213
 31
0.0
  0
LINE
  5
854D
330
A
100
AcDbEntity
  8
MODEL
100
AcDbLine
 10
118.0999440953613
 20
159.707434065213
 30
0.0
 11
118.1097097203613
 21
159.746984846463
 31
0.0
  0
LINE
  5
854E
330
A
100
AcDbEntity
  8
MODEL
100
AcDbLine
 10
118.1097097203613
 20
159.746984846463
 30
0.0
 11
118.1292409703613
 21
159.786047346463
 31
0.0
  0
LINE
  5
854F
330
A
100
AcDbEntity
  8
MODEL
100
AcDbLine
 10
118.1292409703613
 20
159.786047346463
 30
0.0
 11
118.1487722203613
 21
159.815344221463
 31
0.0
  0
LINE
  5
8550
330
A
100
AcDbEntity
  8
MODEL
100
AcDbLine
 10
118.1487722203613
 20
159.815344221463
 30
0.0
 11
118.1687917516113
 21
159.854895002713
 31
0.0
  0
LINE
  5
8551
330
A
100
AcDbEntity
  8
MODEL
100
AcDbLine
 10
118.1687917516113
 20
159.854895002713
 30
0.0
 11
118.2083425328613
 21
159.923498518338
 31
0.0
  0
LINE
  5
8552
330
A
100
AcDbEntity
  8
MODEL
100
AcDbLine
 10
118.2083425328613
 20
159.923498518338
 30
0.0
 11
118.2273855016113
 21
159.963049299588
 31
0.0
  0
LINE
  5
8553
330
A
100
AcDbEntity
  8
MODEL
100
AcDbLine
 10
118.2273855016113
 20
159.963049299588
 30
0.0
 11
118.2474050328613
 21
159.992590315213
 31
0.0
  0
LINE
  5
8554
330
A
100
AcDbEntity
  8
MODEL
100
AcDbLine
 10
118.2474050328613
 20
159.992590315213
 30
0.0
 11
118.2967214391113
 21
160.060461408963
 31
0.0
  0
LINE
  5
8555
330
A
100
AcDbEntity
  8
MODEL
100
AcDbLine
 10
118.2967214391113
 20
160.060461408963
 30
0.0
 11
118.3948659703613
 21
160.179602033963
 31
0.0
  0
LINE
  5
8556
330
A
100
AcDbEntity
  8
MODEL
100
AcDbLine
 10
118.3948659703613
 20
160.179602033963
 30
0.0
 11
118.5032644078613
 21
160.288244612088
 31
0.0
  0
LINE
  5
8557
330
A
100
AcDbEntity
  8
MODEL
100
AcDbLine
 10
118.5032644078613
 20
160.288244612088
 30
0.0
 11
118.5618581578613
 21
160.337316877713
 31
0.0
  0
LINE
  5
8558
330
A
100
AcDbEntity
  8
MODEL
100
AcDbLine
 10
118.5618581578613
 20
160.337316877713
 30
0.0
 11
118.6311940953613
 21
160.386145002713
 31
0.0
  0
LINE
  5
8559
330
A
100
AcDbEntity
  8
MODEL
100
AcDbLine
 10
118.6311940953613
 20
160.386145002713
 30
0.0
 11
118.6902761266113
 21
160.435461408963
 31
0.0
  0
LINE
  5
855A
330
A
100
AcDbEntity
  8
MODEL
100
AcDbLine
 10
118.6902761266113
 20
160.435461408963
 30
0.0
 11
118.8279714391113
 21
160.514074690213
 31
0.0
  0
LINE
  5
855B
330
A
100
AcDbEntity
  8
MODEL
100
AcDbLine
 10
118.8279714391113
 20
160.514074690213
 30
0.0
 11
118.9065847203613
 21
160.553625471463
 31
0.0
  0
LINE
  5
855C
330
A
100
AcDbEntity
  8
MODEL
100
AcDbLine
 10
118.9065847203613
 20
160.553625471463
 30
0.0
 11
118.9759206578613
 21
160.583166487088
 31
0.0
  0
LINE
  5
855D
330
A
100
AcDbEntity
  8
MODEL
100
AcDbLine
 10
118.9759206578613
 20
160.583166487088
 30
0.0
 11
119.0545339391113
 21
160.612951643338
 31
0.0
  0
LINE
  5
855E
330
A
100
AcDbEntity
  8
MODEL
100
AcDbLine
 10
119.0545339391113
 20
160.612951643338
 30
0.0
 11
119.1228933141113
 21
160.632238752713
 31
0.0
  0
LINE
  5
855F
330
A
100
AcDbEntity
  8
MODEL
100
AcDbLine
 10
119.1228933141113
 20
160.632238752713
 30
0.0
 11
119.2019948766113
 21
160.661779768338
 31
0.0
  0
LINE
  5
8560
330
A
100
AcDbEntity
  8
MODEL
100
AcDbLine
 10
119.2019948766113
 20
160.661779768338
 30
0.0
 11
119.2806081578613
 21
160.671789533963
 31
0.0
  0
LINE
  5
8561
330
A
100
AcDbEntity
  8
MODEL
100
AcDbLine
 10
119.2806081578613
 20
160.671789533963
 30
0.0
 11
119.3597097203613
 21
160.691320783963
 31
0.0
  0
LINE
  5
8562
330
A
100
AcDbEntity
  8
MODEL
100
AcDbLine
 10
119.3597097203613
 20
160.691320783963
 30
0.0
 11
119.4383230016113
 21
160.701330549588
 31
0.0
  0
LINE
  5
8563
330
A
100
AcDbEntity
  8
MODEL
100
AcDbLine
 10
119.4383230016113
 20
160.701330549588
 30
0.0
 11
119.5955495641113
 21
160.701330549588
 31
0.0
  0
LINE
  5
8564
330
A
100
AcDbEntity
  8
MODEL
100
AcDbLine
 10
123.0794362828613
 20
160.701330549588
 30
0.0
 11
123.2371511266113
 21
160.701330549588
 31
0.0
  0
LINE
  5
8565
330
A
100
AcDbEntity
  8
MODEL
100
AcDbLine
 10
123.2371511266113
 20
160.701330549588
 30
0.0
 11
123.3157644078613
 21
160.691320783963
 31
0.0
  0
LINE
  5
8566
330
A
100
AcDbEntity
  8
MODEL
100
AcDbLine
 10
123.3157644078613
 20
160.691320783963
 30
0.0
 11
123.3943776891113
 21
160.671789533963
 31
0.0
  0
LINE
  5
8567
330
A
100
AcDbEntity
  8
MODEL
100
AcDbLine
 10
123.3943776891113
 20
160.671789533963
 30
0.0
 11
123.4729909703613
 21
160.661779768338
 31
0.0
  0
LINE
  5
8568
330
A
100
AcDbEntity
  8
MODEL
100
AcDbLine
 10
123.4729909703613
 20
160.661779768338
 30
0.0
 11
123.5520925328613
 21
160.632238752713
 31
0.0
  0
LINE
  5
8569
330
A
100
AcDbEntity
  8
MODEL
100
AcDbLine
 10
123.5520925328613
 20
160.632238752713
 30
0.0
 11
123.6307058141113
 21
160.612951643338
 31
0.0
  0
LINE
  5
856A
330
A
100
AcDbEntity
  8
MODEL
100
AcDbLine
 10
123.6307058141113
 20
160.612951643338
 30
0.0
 11
123.6993093297363
 21
160.583166487088
 31
0.0
  0
LINE
  5
856B
330
A
100
AcDbEntity
  8
MODEL
100
AcDbLine
 10
123.6993093297363
 20
160.583166487088
 30
0.0
 11
123.7781667516113
 21
160.553625471463
 31
0.0
  0
LINE
  5
856C
330
A
100
AcDbEntity
  8
MODEL
100
AcDbLine
 10
123.7781667516113
 20
160.553625471463
 30
0.0
 11
123.9847097203613
 21
160.435461408963
 31
0.0
  0
LINE
  5
856D
330
A
100
AcDbEntity
  8
MODEL
100
AcDbLine
 10
123.9847097203613
 20
160.435461408963
 30
0.0
 11
124.0533132359863
 21
160.386145002713
 31
0.0
  0
LINE
  5
856E
330
A
100
AcDbEntity
  8
MODEL
100
AcDbLine
 10
124.0533132359863
 20
160.386145002713
 30
0.0
 11
124.2312917516113
 21
160.238684065213
 31
0.0
  0
LINE
  5
856F
330
A
100
AcDbEntity
  8
MODEL
100
AcDbLine
 10
124.2312917516113
 20
160.238684065213
 30
0.0
 11
124.3782644078613
 21
160.060461408963
 31
0.0
  0
LINE
  5
8570
330
A
100
AcDbEntity
  8
MODEL
100
AcDbLine
 10
124.3782644078613
 20
160.060461408963
 30
0.0
 11
124.4275808141113
 21
159.992590315213
 31
0.0
  0
LINE
  5
8571
330
A
100
AcDbEntity
  8
MODEL
100
AcDbLine
 10
124.4275808141113
 20
159.992590315213
 30
0.0
 11
124.4476003453613
 21
159.963049299588
 31
0.0
  0
LINE
  5
8572
330
A
100
AcDbEntity
  8
MODEL
100
AcDbLine
 10
124.4476003453613
 20
159.963049299588
 30
0.0
 11
124.4671315953613
 21
159.923498518338
 31
0.0
  0
LINE
  5
8573
330
A
100
AcDbEntity
  8
MODEL
100
AcDbLine
 10
124.4671315953613
 20
159.923498518338
 30
0.0
 11
124.5164480016113
 21
159.854895002713
 31
0.0
  0
LINE
  5
8574
330
A
100
AcDbEntity
  8
MODEL
100
AcDbLine
 10
124.5164480016113
 20
159.854895002713
 30
0.0
 11
124.5359792516113
 21
159.815344221463
 31
0.0
  0
LINE
  5
8575
330
A
100
AcDbEntity
  8
MODEL
100
AcDbLine
 10
124.5359792516113
 20
159.815344221463
 30
0.0
 11
124.5457448766113
 21
159.786047346463
 31
0.0
  0
LINE
  5
8576
330
A
100
AcDbEntity
  8
MODEL
100
AcDbLine
 10
124.5457448766113
 20
159.786047346463
 30
0.0
 11
124.5852956578613
 21
159.707434065213
 31
0.0
  0
LINE
  5
8577
330
A
100
AcDbEntity
  8
MODEL
100
AcDbLine
 10
124.5852956578613
 20
159.707434065213
 30
0.0
 11
124.5955495641113
 21
159.668371565213
 31
0.0
  0
LINE
  5
8578
330
A
100
AcDbEntity
  8
MODEL
100
AcDbLine
 10
124.5955495641113
 20
159.668371565213
 30
0.0
 11
124.6150808141113
 21
159.628820783963
 31
0.0
  0
LINE
  5
8579
330
A
100
AcDbEntity
  8
MODEL
100
AcDbLine
 10
124.6150808141113
 20
159.628820783963
 30
0.0
 11
124.6341237828613
 21
159.549963362088
 31
0.0
  0
LINE
  5
857A
330
A
100
AcDbEntity
  8
MODEL
100
AcDbLine
 10
124.6341237828613
 20
159.549963362088
 30
0.0
 11
124.6546315953613
 21
159.510412580838
 31
0.0
  0
LINE
  5
857B
330
A
100
AcDbEntity
  8
MODEL
100
AcDbLine
 10
124.6546315953613
 20
159.510412580838
 30
0.0
 11
124.6839284703613
 21
159.392248518338
 31
0.0
  0
LINE
  5
857C
330
A
100
AcDbEntity
  8
MODEL
100
AcDbLine
 10
124.6839284703613
 20
159.392248518338
 30
0.0
 11
124.6839284703613
 21
159.352941877713
 31
0.0
  0
LINE
  5
857D
330
A
100
AcDbEntity
  8
MODEL
100
AcDbLine
 10
124.6839284703613
 20
159.352941877713
 30
0.0
 11
124.6936940953613
 21
159.313391096463
 31
0.0
  0
LINE
  5
857E
330
A
100
AcDbEntity
  8
MODEL
100
AcDbLine
 10
124.6936940953613
 20
159.313391096463
 30
0.0
 11
124.7127370641113
 21
159.156164533963
 31
0.0
  0
LINE
  5
857F
330
A
100
AcDbEntity
  8
MODEL
100
AcDbLine
 10
124.7127370641113
 20
159.156164533963
 30
0.0
 11
124.7127370641113
 21
159.077062971463
 31
0.0
  0
LINE
  5
8580
330
A
100
AcDbEntity
  8
MODEL
100
AcDbLine
 10
135.7649831578613
 20
152.739172346463
 30
0.0
 11
121.3372487828613
 21
152.739172346463
 31
0.0
  0
LINE
  5
8581
330
A
100
AcDbEntity
  8
MODEL
100
AcDbLine
 10
134.9681081578613
 20
153.939855940213
 30
0.0
 11
121.3372487828613
 21
153.939855940213
 31
0.0
  0
LINE
  5
8582
330
A
100
AcDbEntity
  8
MODEL
100
AcDbLine
 10
134.4661550328613
 20
169.105871565213
 30
0.0
 11
134.0628347203613
 21
168.968176252713
 31
0.0
  0
LINE
  5
8583
330
A
100
AcDbEntity
  8
MODEL
100
AcDbLine
 10
134.0628347203613
 20
168.968176252713
 30
0.0
 11
133.6790456578613
 21
168.790930158963
 31
0.0
  0
LINE
  5
8584
330
A
100
AcDbEntity
  8
MODEL
100
AcDbLine
 10
133.6790456578613
 20
168.790930158963
 30
0.0
 11
133.3050222203613
 21
168.584387190213
 31
0.0
  0
LINE
  5
8585
330
A
100
AcDbEntity
  8
MODEL
100
AcDbLine
 10
133.3050222203613
 20
168.584387190213
 30
0.0
 11
132.9505300328613
 21
168.347814924588
 31
0.0
  0
LINE
  5
8586
330
A
100
AcDbEntity
  8
MODEL
100
AcDbLine
 10
132.9505300328613
 20
168.347814924588
 30
0.0
 11
132.6160573766113
 21
168.072668440213
 31
0.0
  0
LINE
  5
8587
330
A
100
AcDbEntity
  8
MODEL
100
AcDbLine
 10
132.6160573766113
 20
168.072668440213
 30
0.0
 11
132.3206472203613
 21
167.767492658963
 31
0.0
  0
LINE
  5
8588
330
A
100
AcDbEntity
  8
MODEL
100
AcDbLine
 10
132.3206472203613
 20
167.767492658963
 30
0.0
 11
132.0447683141113
 21
167.442541487088
 31
0.0
  0
LINE
  5
8589
330
A
100
AcDbEntity
  8
MODEL
100
AcDbLine
 10
132.0447683141113
 20
167.442541487088
 30
0.0
 11
131.7991628453613
 21
167.088293440213
 31
0.0
  0
LINE
  5
858A
330
A
100
AcDbEntity
  8
MODEL
100
AcDbLine
 10
131.7991628453613
 20
167.088293440213
 30
0.0
 11
131.5926198766113
 21
166.714270002713
 31
0.0
  0
LINE
  5
858B
330
A
100
AcDbEntity
  8
MODEL
100
AcDbLine
 10
131.5926198766113
 20
166.714270002713
 30
0.0
 11
131.4251394078613
 21
166.330725080838
 31
0.0
  0
LINE
  5
858C
330
A
100
AcDbEntity
  8
MODEL
100
AcDbLine
 10
131.4251394078613
 20
166.330725080838
 30
0.0
 11
131.2869558141113
 21
165.917395002713
 31
0.0
  0
LINE
  5
858D
330
A
100
AcDbEntity
  8
MODEL
100
AcDbLine
 10
131.2869558141113
 20
165.917395002713
 30
0.0
 11
131.1892995641113
 21
165.503820783963
 31
0.0
  0
LINE
  5
858E
330
A
100
AcDbEntity
  8
MODEL
100
AcDbLine
 10
131.1892995641113
 20
165.503820783963
 30
0.0
 11
131.1199636266113
 21
165.080480940213
 31
0.0
  0
LINE
  5
858F
330
A
100
AcDbEntity
  8
MODEL
100
AcDbLine
 10
131.1199636266113
 20
165.080480940213
 30
0.0
 11
131.1004323766113
 21
164.657141096463
 31
0.0
  0
LINE
  5
8590
330
A
100
AcDbEntity
  8
MODEL
100
AcDbLine
 10
135.9817800328613
 20
169.538977033963
 30
0.0
 11
135.9817800328613
 21
170.237219221463
 31
0.0
  0
LINE
  5
8591
330
A
100
AcDbEntity
  8
MODEL
100
AcDbLine
 10
123.0794362828613
 20
160.701330549588
 30
0.0
 11
119.5955495641113
 21
160.701330549588
 31
0.0
  0
LINE
  5
8592
330
A
100
AcDbEntity
  8
MODEL
100
AcDbLine
 10
130.1062917516113
 20
156.754797346463
 30
0.0
 11
130.1062917516113
 21
159.077062971463
 31
0.0
  0
LINE
  5
8593
330
A
100
AcDbEntity
  8
MODEL
100
AcDbLine
 10
130.7264089391113
 20
154.353430158963
 30
0.0
 11
130.7264089391113
 21
155.121008283963
 31
0.0
  0
LINE
  5
8594
330
A
100
AcDbEntity
  8
MODEL
100
AcDbLine
 10
130.7264089391113
 20
155.121008283963
 30
0.0
 11
130.5691823766113
 21
155.121008283963
 31
0.0
  0
LINE
  5
8595
330
A
100
AcDbEntity
  8
MODEL
100
AcDbLine
 10
130.5691823766113
 20
155.121008283963
 30
0.0
 11
130.5491628453613
 21
155.130773908963
 31
0.0
  0
LINE
  5
8596
330
A
100
AcDbEntity
  8
MODEL
100
AcDbLine
 10
130.5491628453613
 20
155.130773908963
 30
0.0
 11
130.5393972203613
 21
155.130773908963
 31
0.0
  0
LINE
  5
8597
330
A
100
AcDbEntity
  8
MODEL
100
AcDbLine
 10
130.5393972203613
 20
155.130773908963
 30
0.0
 11
130.5198659703613
 21
155.141027815213
 31
0.0
  0
LINE
  5
8598
330
A
100
AcDbEntity
  8
MODEL
100
AcDbLine
 10
130.5198659703613
 20
155.141027815213
 30
0.0
 11
130.4705495641113
 21
155.190344221463
 31
0.0
  0
LINE
  5
8599
330
A
100
AcDbEntity
  8
MODEL
100
AcDbLine
 10
130.4705495641113
 20
155.190344221463
 30
0.0
 11
130.4114675328613
 21
155.278967268338
 31
0.0
  0
LINE
  5
859A
330
A
100
AcDbEntity
  8
MODEL
100
AcDbLine
 10
130.4114675328613
 20
155.278967268338
 30
0.0
 11
130.3523855016113
 21
155.396887190213
 31
0.0
  0
LINE
  5
859B
330
A
100
AcDbEntity
  8
MODEL
100
AcDbLine
 10
130.3523855016113
 20
155.396887190213
 30
0.0
 11
130.2737722203613
 21
155.593664533963
 31
0.0
  0
LINE
  5
859C
330
A
100
AcDbEntity
  8
MODEL
100
AcDbLine
 10
130.2737722203613
 20
155.593664533963
 30
0.0
 11
130.2537526891113
 21
155.652502424588
 31
0.0
  0
LINE
  5
859D
330
A
100
AcDbEntity
  8
MODEL
100
AcDbLine
 10
130.2537526891113
 20
155.652502424588
 30
0.0
 11
130.2434987828613
 21
155.711340315213
 31
0.0
  0
LINE
  5
859E
330
A
100
AcDbEntity
  8
MODEL
100
AcDbLine
 10
130.2434987828613
 20
155.711340315213
 30
0.0
 11
130.2244558141113
 21
155.770666487088
 31
0.0
  0
LINE
  5
859F
330
A
100
AcDbEntity
  8
MODEL
100
AcDbLine
 10
130.2244558141113
 20
155.770666487088
 30
0.0
 11
130.2049245641113
 21
155.839758283963
 31
0.0
  0
LINE
  5
85A0
330
A
100
AcDbEntity
  8
MODEL
100
AcDbLine
 10
130.2049245641113
 20
155.839758283963
 30
0.0
 11
130.1946706578613
 21
155.908117658963
 31
0.0
  0
LINE
  5
85A1
330
A
100
AcDbEntity
  8
MODEL
100
AcDbLine
 10
130.1946706578613
 20
155.908117658963
 30
0.0
 11
130.1751394078613
 21
155.977209455838
 31
0.0
  0
LINE
  5
85A2
330
A
100
AcDbEntity
  8
MODEL
100
AcDbLine
 10
130.1751394078613
 20
155.977209455838
 30
0.0
 11
130.1653737828613
 21
156.046301252713
 31
0.0
  0
LINE
  5
85A3
330
A
100
AcDbEntity
  8
MODEL
100
AcDbLine
 10
130.1653737828613
 20
156.046301252713
 30
0.0
 11
130.1458425328613
 21
156.203527815213
 31
0.0
  0
LINE
  5
85A4
330
A
100
AcDbEntity
  8
MODEL
100
AcDbLine
 10
130.1458425328613
 20
156.203527815213
 30
0.0
 11
130.1355886266113
 21
156.272375471463
 31
0.0
  0
LINE
  5
85A5
330
A
100
AcDbEntity
  8
MODEL
100
AcDbLine
 10
130.1355886266113
 20
156.272375471463
 30
0.0
 11
130.1263112828613
 21
156.351232893338
 31
0.0
  0
LINE
  5
85A6
330
A
100
AcDbEntity
  8
MODEL
100
AcDbLine
 10
130.1263112828613
 20
156.351232893338
 30
0.0
 11
130.1160573766113
 21
156.439855940213
 31
0.0
  0
LINE
  5
85A7
330
A
100
AcDbEntity
  8
MODEL
100
AcDbLine
 10
130.1160573766113
 20
156.439855940213
 30
0.0
 11
130.1160573766113
 21
156.518469221463
 31
0.0
  0
LINE
  5
85A8
330
A
100
AcDbEntity
  8
MODEL
100
AcDbLine
 10
130.1160573766113
 20
156.518469221463
 30
0.0
 11
130.1062917516113
 21
156.597326643338
 31
0.0
  0
LINE
  5
85A9
330
A
100
AcDbEntity
  8
MODEL
100
AcDbLine
 10
130.1062917516113
 20
156.597326643338
 30
0.0
 11
130.1062917516113
 21
156.754797346463
 31
0.0
  0
LINE
  5
85AA
330
A
100
AcDbEntity
  8
MODEL
100
AcDbLine
 10
135.8733815953613
 20
151.617590315213
 30
0.0
 11
135.8733815953613
 21
152.700109846463
 31
0.0
  0
LINE
  5
85AB
330
A
100
AcDbEntity
  8
MODEL
100
AcDbLine
 10
135.8733815953613
 20
152.700109846463
 30
0.0
 11
135.8538503453613
 21
152.808508283963
 31
0.0
  0
LINE
  5
85AC
330
A
100
AcDbEntity
  8
MODEL
100
AcDbLine
 10
135.8538503453613
 20
152.808508283963
 30
0.0
 11
135.8245534703613
 21
152.906652815213
 31
0.0
  0
LINE
  5
85AD
330
A
100
AcDbEntity
  8
MODEL
100
AcDbLine
 10
135.8245534703613
 20
152.906652815213
 30
0.0
 11
135.7649831578613
 21
152.995520002713
 31
0.0
  0
LINE
  5
85AE
330
A
100
AcDbEntity
  8
MODEL
100
AcDbLine
 10
134.9681081578613
 20
153.939855940213
 30
0.0
 11
135.7649831578613
 21
152.995520002713
 31
0.0
  0
LINE
  5
85AF
330
A
100
AcDbEntity
  8
MODEL
100
AcDbLine
 10
131.9666433141113
 20
151.617590315213
 30
0.0
 11
131.8284597203613
 21
151.450598127713
 31
0.0
  0
LINE
  5
85B0
330
A
100
AcDbEntity
  8
MODEL
100
AcDbLine
 10
131.8284597203613
 20
151.450598127713
 30
0.0
 11
131.7205495641113
 21
151.263098127713
 31
0.0
  0
LINE
  5
85B1
330
A
100
AcDbEntity
  8
MODEL
100
AcDbLine
 10
131.7205495641113
 20
151.263098127713
 30
0.0
 11
131.6316823766113
 21
151.066320783963
 31
0.0
  0
LINE
  5
85B2
330
A
100
AcDbEntity
  8
MODEL
100
AcDbLine
 10
131.6316823766113
 20
151.066320783963
 30
0.0
 11
131.5828542516113
 21
150.849523908963
 31
0.0
  0
LINE
  5
85B3
330
A
100
AcDbEntity
  8
MODEL
100
AcDbLine
 10
131.5828542516113
 20
150.849523908963
 30
0.0
 11
131.5726003453613
 21
150.632971174588
 31
0.0
  0
LINE
  5
85B4
330
A
100
AcDbEntity
  8
MODEL
100
AcDbLine
 10
134.9681081578613
 20
153.939855940213
 30
0.0
 11
134.8299245641113
 21
154.088049299588
 31
0.0
  0
LINE
  5
85B5
330
A
100
AcDbEntity
  8
MODEL
100
AcDbLine
 10
134.8299245641113
 20
154.088049299588
 30
0.0
 11
134.6629323766113
 21
154.205969221463
 31
0.0
  0
LINE
  5
85B6
330
A
100
AcDbEntity
  8
MODEL
100
AcDbLine
 10
134.6629323766113
 20
154.205969221463
 30
0.0
 11
134.4759206578613
 21
154.284582502713
 31
0.0
  0
LINE
  5
85B7
330
A
100
AcDbEntity
  8
MODEL
100
AcDbLine
 10
134.4759206578613
 20
154.284582502713
 30
0.0
 11
134.2791433141113
 21
154.343664533963
 31
0.0
  0
LINE
  5
85B8
330
A
100
AcDbEntity
  8
MODEL
100
AcDbLine
 10
134.2791433141113
 20
154.343664533963
 30
0.0
 11
134.0823659703613
 21
154.353430158963
 31
0.0
  0
LINE
  5
85B9
330
A
100
AcDbEntity
  8
MODEL
100
AcDbLine
 10
124.7127370641113
 20
159.077062971463
 30
0.0
 11
124.7127370641113
 21
156.754797346463
 31
0.0
  0
LINE
  5
85BA
330
A
100
AcDbEntity
  8
MODEL
100
AcDbLine
 10
124.7127370641113
 20
156.754797346463
 30
0.0
 11
124.7127370641113
 21
156.675939924588
 31
0.0
  0
LINE
  5
85BB
330
A
100
AcDbEntity
  8
MODEL
100
AcDbLine
 10
124.7127370641113
 20
156.675939924588
 30
0.0
 11
124.6936940953613
 21
156.518469221463
 31
0.0
  0
LINE
  5
85BC
330
A
100
AcDbEntity
  8
MODEL
100
AcDbLine
 10
124.6936940953613
 20
156.518469221463
 30
0.0
 11
124.6839284703613
 21
156.478918440213
 31
0.0
  0
LINE
  5
85BD
330
A
100
AcDbEntity
  8
MODEL
100
AcDbLine
 10
124.6839284703613
 20
156.478918440213
 30
0.0
 11
124.6839284703613
 21
156.439855940213
 31
0.0
  0
LINE
  5
85BE
330
A
100
AcDbEntity
  8
MODEL
100
AcDbLine
 10
124.6839284703613
 20
156.439855940213
 30
0.0
 11
124.6736745641113
 21
156.390783674588
 31
0.0
  0
LINE
  5
85BF
330
A
100
AcDbEntity
  8
MODEL
100
AcDbLine
 10
124.6736745641113
 20
156.390783674588
 30
0.0
 11
124.6546315953613
 21
156.311926252713
 31
0.0
  0
LINE
  5
85C0
330
A
100
AcDbEntity
  8
MODEL
100
AcDbLine
 10
124.6546315953613
 20
156.311926252713
 30
0.0
 11
124.6341237828613
 21
156.272375471463
 31
0.0
  0
LINE
  5
85C1
330
A
100
AcDbEntity
  8
MODEL
100
AcDbLine
 10
124.6341237828613
 20
156.272375471463
 30
0.0
 11
124.6243581578613
 21
156.232824690213
 31
0.0
  0
LINE
  5
85C2
330
A
100
AcDbEntity
  8
MODEL
100
AcDbLine
 10
124.6243581578613
 20
156.232824690213
 30
0.0
 11
124.6150808141113
 21
156.203527815213
 31
0.0
  0
LINE
  5
85C3
330
A
100
AcDbEntity
  8
MODEL
100
AcDbLine
 10
124.6150808141113
 20
156.203527815213
 30
0.0
 11
124.5950612828613
 21
156.164465315213
 31
0.0
  0
LINE
  5
85C4
330
A
100
AcDbEntity
  8
MODEL
100
AcDbLine
 10
124.5950612828613
 20
156.164465315213
 30
0.0
 11
124.5852956578613
 21
156.124914533963
 31
0.0
  0
LINE
  5
85C5
330
A
100
AcDbEntity
  8
MODEL
100
AcDbLine
 10
124.5852956578613
 20
156.124914533963
 30
0.0
 11
124.5457448766113
 21
156.046301252713
 31
0.0
  0
LINE
  5
85C6
330
A
100
AcDbEntity
  8
MODEL
100
AcDbLine
 10
124.5457448766113
 20
156.046301252713
 30
0.0
 11
124.5359792516113
 21
156.007238752713
 31
0.0
  0
LINE
  5
85C7
330
A
100
AcDbEntity
  8
MODEL
100
AcDbLine
 10
124.5359792516113
 20
156.007238752713
 30
0.0
 11
124.5164480016113
 21
155.977209455838
 31
0.0
  0
LINE
  5
85C8
330
A
100
AcDbEntity
  8
MODEL
100
AcDbLine
 10
124.5164480016113
 20
155.977209455838
 30
0.0
 11
124.4671315953613
 21
155.908117658963
 31
0.0
  0
LINE
  5
85C9
330
A
100
AcDbEntity
  8
MODEL
100
AcDbLine
 10
124.4671315953613
 20
155.908117658963
 30
0.0
 11
124.4476003453613
 21
155.869055158963
 31
0.0
  0
LINE
  5
85CA
330
A
100
AcDbEntity
  8
MODEL
100
AcDbLine
 10
124.4476003453613
 20
155.869055158963
 30
0.0
 11
124.4275808141113
 21
155.839758283963
 31
0.0
  0
LINE
  5
85CB
330
A
100
AcDbEntity
  8
MODEL
100
AcDbLine
 10
124.4275808141113
 20
155.839758283963
 30
0.0
 11
124.3782644078613
 21
155.770666487088
 31
0.0
  0
LINE
  5
85CC
330
A
100
AcDbEntity
  8
MODEL
100
AcDbLine
 10
124.3782644078613
 20
155.770666487088
 30
0.0
 11
124.2312917516113
 21
155.593664533963
 31
0.0
  0
LINE
  5
85CD
330
A
100
AcDbEntity
  8
MODEL
100
AcDbLine
 10
124.2312917516113
 20
155.593664533963
 30
0.0
 11
124.0535573766113
 21
155.445471174588
 31
0.0
  0
LINE
  5
85CE
330
A
100
AcDbEntity
  8
MODEL
100
AcDbLine
 10
124.0535573766113
 20
155.445471174588
 30
0.0
 11
123.9847097203613
 21
155.396887190213
 31
0.0
  0
LINE
  5
85CF
330
A
100
AcDbEntity
  8
MODEL
100
AcDbLine
 10
123.9847097203613
 20
155.396887190213
 30
0.0
 11
123.7781667516113
 21
155.278967268338
 31
0.0
  0
LINE
  5
85D0
330
A
100
AcDbEntity
  8
MODEL
100
AcDbLine
 10
123.7781667516113
 20
155.278967268338
 30
0.0
 11
123.6995534703613
 21
155.248937971463
 31
0.0
  0
LINE
  5
85D1
330
A
100
AcDbEntity
  8
MODEL
100
AcDbLine
 10
123.6995534703613
 20
155.248937971463
 30
0.0
 11
123.6307058141113
 21
155.219641096463
 31
0.0
  0
LINE
  5
85D2
330
A
100
AcDbEntity
  8
MODEL
100
AcDbLine
 10
123.6307058141113
 20
155.219641096463
 30
0.0
 11
123.5520925328613
 21
155.190344221463
 31
0.0
  0
LINE
  5
85D3
330
A
100
AcDbEntity
  8
MODEL
100
AcDbLine
 10
123.5520925328613
 20
155.190344221463
 30
0.0
 11
123.4729909703613
 21
155.170324690213
 31
0.0
  0
LINE
  5
85D4
330
A
100
AcDbEntity
  8
MODEL
100
AcDbLine
 10
123.4729909703613
 20
155.170324690213
 30
0.0
 11
123.3943776891113
 21
155.160559065213
 31
0.0
  0
LINE
  5
85D5
330
A
100
AcDbEntity
  8
MODEL
100
AcDbLine
 10
123.3943776891113
 20
155.160559065213
 30
0.0
 11
123.3157644078613
 21
155.141027815213
 31
0.0
  0
LINE
  5
85D6
330
A
100
AcDbEntity
  8
MODEL
100
AcDbLine
 10
123.3157644078613
 20
155.141027815213
 30
0.0
 11
123.2371511266113
 21
155.130773908963
 31
0.0
  0
LINE
  5
85D7
330
A
100
AcDbEntity
  8
MODEL
100
AcDbLine
 10
123.2371511266113
 20
155.130773908963
 30
0.0
 11
123.1585378453613
 21
155.130773908963
 31
0.0
  0
LINE
  5
85D8
330
A
100
AcDbEntity
  8
MODEL
100
AcDbLine
 10
123.1585378453613
 20
155.130773908963
 30
0.0
 11
123.0794362828613
 21
155.121008283963
 31
0.0
  0
LINE
  5
85D9
330
A
100
AcDbEntity
  8
MODEL
100
AcDbLine
 10
123.0794362828613
 20
155.121008283963
 30
0.0
 11
119.5955495641113
 21
155.121008283963
 31
0.0
  0
LINE
  5
85DA
330
A
100
AcDbEntity
  8
MODEL
100
AcDbLine
 10
119.5955495641113
 20
155.121008283963
 30
0.0
 11
119.5169362828613
 21
155.130773908963
 31
0.0
  0
LINE
  5
85DB
330
A
100
AcDbEntity
  8
MODEL
100
AcDbLine
 10
119.5169362828613
 20
155.130773908963
 30
0.0
 11
119.4383230016113
 21
155.130773908963
 31
0.0
  0
LINE
  5
85DC
330
A
100
AcDbEntity
  8
MODEL
100
AcDbLine
 10
119.4383230016113
 20
155.130773908963
 30
0.0
 11
119.3597097203613
 21
155.141027815213
 31
0.0
  0
LINE
  5
85DD
330
A
100
AcDbEntity
  8
MODEL
100
AcDbLine
 10
119.3597097203613
 20
155.141027815213
 30
0.0
 11
119.2806081578613
 21
155.160559065213
 31
0.0
  0
LINE
  5
85DE
330
A
100
AcDbEntity
  8
MODEL
100
AcDbLine
 10
119.2806081578613
 20
155.160559065213
 30
0.0
 11
119.2019948766113
 21
155.170324690213
 31
0.0
  0
LINE
  5
85DF
330
A
100
AcDbEntity
  8
MODEL
100
AcDbLine
 10
119.2019948766113
 20
155.170324690213
 30
0.0
 11
119.1228933141113
 21
155.190344221463
 31
0.0
  0
LINE
  5
85E0
330
A
100
AcDbEntity
  8
MODEL
100
AcDbLine
 10
119.1228933141113
 20
155.190344221463
 30
0.0
 11
119.0545339391113
 21
155.219641096463
 31
0.0
  0
LINE
  5
85E1
330
A
100
AcDbEntity
  8
MODEL
100
AcDbLine
 10
119.0545339391113
 20
155.219641096463
 30
0.0
 11
118.9759206578613
 21
155.248937971463
 31
0.0
  0
LINE
  5
85E2
330
A
100
AcDbEntity
  8
MODEL
100
AcDbLine
 10
118.9759206578613
 20
155.248937971463
 30
0.0
 11
118.9065847203613
 21
155.278967268338
 31
0.0
  0
LINE
  5
85E3
330
A
100
AcDbEntity
  8
MODEL
100
AcDbLine
 10
118.9065847203613
 20
155.278967268338
 30
0.0
 11
118.8279714391113
 21
155.318029768338
 31
0.0
  0
LINE
  5
85E4
330
A
100
AcDbEntity
  8
MODEL
100
AcDbLine
 10
118.8279714391113
 20
155.318029768338
 30
0.0
 11
118.6902761266113
 21
155.396887190213
 31
0.0
  0
LINE
  5
85E5
330
A
100
AcDbEntity
  8
MODEL
100
AcDbLine
 10
118.6902761266113
 20
155.396887190213
 30
0.0
 11
118.6311940953613
 21
155.445471174588
 31
0.0
  0
LINE
  5
85E6
330
A
100
AcDbEntity
  8
MODEL
100
AcDbLine
 10
118.6311940953613
 20
155.445471174588
 30
0.0
 11
118.5618581578613
 21
155.495031721463
 31
0.0
  0
LINE
  5
85E7
330
A
100
AcDbEntity
  8
MODEL
100
AcDbLine
 10
118.5618581578613
 20
155.495031721463
 30
0.0
 11
118.5032644078613
 21
155.544348127713
 31
0.0
  0
LINE
  5
85E8
330
A
100
AcDbEntity
  8
MODEL
100
AcDbLine
 10
118.5032644078613
 20
155.544348127713
 30
0.0
 11
118.3948659703613
 21
155.652502424588
 31
0.0
  0
LINE
  5
85E9
330
A
100
AcDbEntity
  8
MODEL
100
AcDbLine
 10
118.3948659703613
 20
155.652502424588
 30
0.0
 11
118.2967214391113
 21
155.770666487088
 31
0.0
  0
LINE
  5
85EA
330
A
100
AcDbEntity
  8
MODEL
100
AcDbLine
 10
118.2967214391113
 20
155.770666487088
 30
0.0
 11
118.2474050328613
 21
155.839758283963
 31
0.0
  0
LINE
  5
85EB
330
A
100
AcDbEntity
  8
MODEL
100
AcDbLine
 10
118.2474050328613
 20
155.839758283963
 30
0.0
 11
118.2273855016113
 21
155.869055158963
 31
0.0
  0
LINE
  5
85EC
330
A
100
AcDbEntity
  8
MODEL
100
AcDbLine
 10
118.2273855016113
 20
155.869055158963
 30
0.0
 11
118.2083425328613
 21
155.908117658963
 31
0.0
  0
LINE
  5
85ED
330
A
100
AcDbEntity
  8
MODEL
100
AcDbLine
 10
118.2083425328613
 20
155.908117658963
 30
0.0
 11
118.1687917516113
 21
155.977209455838
 31
0.0
  0
LINE
  5
85EE
330
A
100
AcDbEntity
  8
MODEL
100
AcDbLine
 10
118.1687917516113
 20
155.977209455838
 30
0.0
 11
118.1487722203613
 21
156.007238752713
 31
0.0
  0
LINE
  5
85EF
330
A
100
AcDbEntity
  8
MODEL
100
AcDbLine
 10
118.1487722203613
 20
156.007238752713
 30
0.0
 11
118.1097097203613
 21
156.085852033963
 31
0.0
  0
LINE
  5
85F0
330
A
100
AcDbEntity
  8
MODEL
100
AcDbLine
 10
118.1097097203613
 20
156.085852033963
 30
0.0
 11
118.0999440953613
 21
156.124914533963
 31
0.0
  0
LINE
  5
85F1
330
A
100
AcDbEntity
  8
MODEL
100
AcDbLine
 10
118.0999440953613
 20
156.124914533963
 30
0.0
 11
118.0804128453613
 21
156.164465315213
 31
0.0
  0
LINE
  5
85F2
330
A
100
AcDbEntity
  8
MODEL
100
AcDbLine
 10
118.0804128453613
 20
156.164465315213
 30
0.0
 11
118.0701589391113
 21
156.203527815213
 31
0.0
  0
LINE
  5
85F3
330
A
100
AcDbEntity
  8
MODEL
100
AcDbLine
 10
118.0701589391113
 20
156.203527815213
 30
0.0
 11
118.0506276891113
 21
156.232824690213
 31
0.0
  0
LINE
  5
85F4
330
A
100
AcDbEntity
  8
MODEL
100
AcDbLine
 10
118.0506276891113
 20
156.232824690213
 30
0.0
 11
118.0110769078613
 21
156.390783674588
 31
0.0
  0
LINE
  5
85F5
330
A
100
AcDbEntity
  8
MODEL
100
AcDbLine
 10
118.0110769078613
 20
156.390783674588
 30
0.0
 11
118.0013112828613
 21
156.439855940213
 31
0.0
  0
LINE
  5
85F6
330
A
100
AcDbEntity
  8
MODEL
100
AcDbLine
 10
118.0013112828613
 20
156.439855940213
 30
0.0
 11
117.9812917516113
 21
156.518469221463
 31
0.0
  0
LINE
  5
85F7
330
A
100
AcDbEntity
  8
MODEL
100
AcDbLine
 10
117.9812917516113
 20
156.518469221463
 30
0.0
 11
117.9715261266113
 21
156.597326643338
 31
0.0
  0
LINE
  5
85F8
330
A
100
AcDbEntity
  8
MODEL
100
AcDbLine
 10
117.9715261266113
 20
156.597326643338
 30
0.0
 11
117.9715261266113
 21
159.077062971463
 31
0.0
  0
LINE
  5
85F9
330
A
100
AcDbEntity
  8
MODEL
100
AcDbLine
 10
135.8733815953613
 20
151.617590315213
 30
0.0
 11
121.3372487828613
 21
151.617590315213
 31
0.0
  0
LINE
  5
85FA
330
A
100
AcDbEntity
  8
MODEL
100
AcDbLine
 10
84.52645776723625
 20
139.433508283963
 30
0.0
 11
100.2767019078613
 21
139.433508283963
 31
0.0
  0
LINE
  5
85FB
330
A
100
AcDbEntity
  8
MODEL
100
AcDbLine
 10
84.52645776723625
 20
141.756506330838
 30
0.0
 11
100.2767019078613
 21
141.756506330838
 31
0.0
  0
LINE
  5
85FC
330
A
100
AcDbEntity
  8
MODEL
100
AcDbLine
 10
67.61837671254875
 20
139.433508283963
 30
0.0
 11
83.19735620473625
 21
139.433508283963
 31
0.0
  0
LINE
  5
85FD
330
A
100
AcDbEntity
  8
MODEL
100
AcDbLine
 10
67.61837671254875
 20
141.756506330838
 30
0.0
 11
83.19735620473625
 21
141.756506330838
 31
0.0
  0
LINE
  5
85FE
330
A
100
AcDbEntity
  8
MODEL
100
AcDbLine
 10
129.9783620641113
 20
170.237463362088
 30
0.0
 11
130.0962819859863
 21
170.690588362088
 31
0.0
  0
LINE
  5
85FF
330
A
100
AcDbEntity
  8
MODEL
100
AcDbLine
 10
130.4803151891113
 20
172.078039533963
 30
0.0
 11
130.6375417516113
 21
172.658361799588
 31
0.0
  0
LINE
  5
8600
330
A
100
AcDbEntity
  8
MODEL
100
AcDbLine
 10
129.9392995641113
 20
170.690588362088
 30
0.0
 11
130.0962819859863
 21
170.700353987088
 31
0.0
  0
LINE
  5
8601
330
A
100
AcDbEntity
  8
MODEL
100
AcDbLine
 10
130.0962819859863
 20
170.700353987088
 30
0.0
 11
130.2439870641113
 21
170.759191877713
 31
0.0
  0
LINE
  5
8602
330
A
100
AcDbEntity
  8
MODEL
100
AcDbLine
 10
130.2439870641113
 20
170.759191877713
 30
0.0
 11
130.3719167516113
 21
170.838049299588
 31
0.0
  0
LINE
  5
8603
330
A
100
AcDbEntity
  8
MODEL
100
AcDbLine
 10
130.3719167516113
 20
170.838049299588
 30
0.0
 11
130.4905690953613
 21
170.946203596463
 31
0.0
  0
LINE
  5
8604
330
A
100
AcDbEntity
  8
MODEL
100
AcDbLine
 10
130.4905690953613
 20
170.946203596463
 30
0.0
 11
130.5691823766113
 21
171.084143049588
 31
0.0
  0
LINE
  5
8605
330
A
100
AcDbEntity
  8
MODEL
100
AcDbLine
 10
130.5691823766113
 20
171.084143049588
 30
0.0
 11
130.6175222203613
 21
171.231603987088
 31
0.0
  0
LINE
  5
8606
330
A
100
AcDbEntity
  8
MODEL
100
AcDbLine
 10
130.6175222203613
 20
171.231603987088
 30
0.0
 11
130.6375417516113
 21
171.389318830838
 31
0.0
  0
LINE
  5
8607
330
A
100
AcDbEntity
  8
MODEL
100
AcDbLine
 10
130.6375417516113
 20
171.389318830838
 30
0.0
 11
130.6175222203613
 21
171.536779768338
 31
0.0
  0
LINE
  5
8608
330
A
100
AcDbEntity
  8
MODEL
100
AcDbLine
 10
130.6175222203613
 20
171.536779768338
 30
0.0
 11
130.5691823766113
 21
171.684484846463
 31
0.0
  0
LINE
  5
8609
330
A
100
AcDbEntity
  8
MODEL
100
AcDbLine
 10
130.5691823766113
 20
171.684484846463
 30
0.0
 11
130.4905690953613
 21
171.822180158963
 31
0.0
  0
LINE
  5
860A
330
A
100
AcDbEntity
  8
MODEL
100
AcDbLine
 10
130.4905690953613
 20
171.822180158963
 30
0.0
 11
130.3719167516113
 21
171.930578596463
 31
0.0
  0
LINE
  5
860B
330
A
100
AcDbEntity
  8
MODEL
100
AcDbLine
 10
130.3719167516113
 20
171.930578596463
 30
0.0
 11
130.2439870641113
 21
172.009191877713
 31
0.0
  0
LINE
  5
860C
330
A
100
AcDbEntity
  8
MODEL
100
AcDbLine
 10
130.2439870641113
 20
172.009191877713
 30
0.0
 11
130.0962819859863
 21
172.068273908963
 31
0.0
  0
LINE
  5
860D
330
A
100
AcDbEntity
  8
MODEL
100
AcDbLine
 10
130.0962819859863
 20
172.068273908963
 30
0.0
 11
129.9392995641113
 21
172.078039533963
 31
0.0
  0
LINE
  5
860E
330
A
100
AcDbEntity
  8
MODEL
100
AcDbLine
 10
134.4661550328613
 20
169.105871565213
 30
0.0
 11
135.9815358922363
 21
169.538977033963
 31
0.0
  0
LINE
  5
860F
330
A
100
AcDbEntity
  8
MODEL
100
AcDbLine
 10
135.7557058141113
 20
161.694982893338
 30
0.0
 11
135.7557058141113
 21
164.253820783963
 31
0.0
  0
LINE
  5
8610
330
A
100
AcDbEntity
  8
MODEL
100
AcDbLine
 10
131.1004323766113
 20
164.657141096463
 30
0.0
 11
130.9725026891113
 21
164.618078596463
 31
0.0
  0
LINE
  5
8611
330
A
100
AcDbEntity
  8
MODEL
100
AcDbLine
 10
130.9725026891113
 20
164.618078596463
 30
0.0
 11
130.8543386266113
 21
164.539465315213
 31
0.0
  0
LINE
  5
8612
330
A
100
AcDbEntity
  8
MODEL
100
AcDbLine
 10
130.8543386266113
 20
164.539465315213
 30
0.0
 11
130.7659597203613
 21
164.431555158963
 31
0.0
  0
LINE
  5
8613
330
A
100
AcDbEntity
  8
MODEL
100
AcDbLine
 10
130.7659597203613
 20
164.431555158963
 30
0.0
 11
130.7264089391113
 21
164.293371565213
 31
0.0
  0
LINE
  5
8614
330
A
100
AcDbEntity
  8
MODEL
100
AcDbLine
 10
130.7264089391113
 20
164.253820783963
 30
0.0
 11
130.7264089391113
 21
164.293371565213
 31
0.0
  0
LINE
  5
8615
330
A
100
AcDbEntity
  8
MODEL
100
AcDbLine
 10
130.7264089391113
 20
161.694982893338
 30
0.0
 11
130.7264089391113
 21
160.701330549588
 31
0.0
  0
LINE
  5
8616
330
A
100
AcDbEntity
  8
MODEL
100
AcDbLine
 10
130.7264089391113
 20
160.701330549588
 30
0.0
 11
130.5691823766113
 21
160.701330549588
 31
0.0
  0
LINE
  5
861A
330
A
100
AcDbEntity
  8
MODEL
100
AcDbLine
 10
106.9197683141113
 20
152.739172346463
 30
0.0
 11
121.3372487828613
 21
152.739172346463
 31
0.0
  0
SPLINE
  5
9379
330
A
100
AcDbEntity
  8
MODEL
100
AcDbSpline
210
0.0
220
0.0
230
1.0
 70
     8
 71
     3
 72
    11
 73
     7
 74
     0
 42
0.000000001
 43
0.0000000001
 40
0.0
 40
0.0
 40
0.0
 40
0.0
 40
1.0
 40
1.0
 40
1.0
 40
2.0
 40
2.0
 40
2.0
 40
2.0
 10
69.68185327504875
 20
139.018225080838
 30
0.0
 10
69.68185327504875
 20
139.018225080838
 30
0.0
 10
73.55685327504875
 20
139.018225080838
 30
0.0
 10
73.55685327504875
 20
139.018225080838
 30
0.0
 10
73.55685327504875
 20
139.018225080838
 30
0.0
 10
73.55685327504875
 20
141.893225080838
 30
0.0
 10
73.55685327504875
 20
141.893225080838
 30
0.0
  0
SPLINE
  5
937A
330
A
100
AcDbEntity
  8
MODEL
100
AcDbSpline
210
0.0
220
0.0
230
1.0
 70
    24
 71
     3
 72
    11
 73
     7
 74
     0
 42
0.000000001
 43
0.0000000001
 40
2.0
 40
2.0
 40
2.0
 40
2.0
 40
3.0
 40
3.0
 40
3.0
 40
4.0
 40
4.0
 40
4.0
 40
4.0
 10
73.55685327504875
 20
141.893225080838
 30
0.0
 10
73.55306909536125
 20
141.893225080838
 30
0.0
 10
73.55306909536125
 20
141.893225080838
 30
0.0
 10
73.55685327504875
 20
141.893225080838
 30
0.0
 10
73.55685327504875
 20
141.893225080838
 30
0.0
 10
69.55660913442375
 20
141.893225080838
 30
0.0
 10
69.55660913442375
 20
141.893225080838
 30
0.0
  0
SPLINE
  5
937B
330
A
100
AcDbEntity
  8
MODEL
100
AcDbSpline
210
0.0
220
0.0
230
1.0
 70
     8
 71
     3
 72
     8
 73
     4
 74
     0
 42
0.000000001
 43
0.0000000001
 40
4.0
 40
4.0
 40
4.0
 40
4.0
 40
5.0
 40
5.0
 40
5.0
 40
5.0
 10
69.55660913442375
 20
141.893225080838
 30
0.0
 10
69.55660913442375
 20
139.018225080838
 30
0.0
 10
69.68185327504875
 20
139.018225080838
 30
0.0
 10
69.68185327504875
 20
139.018225080838
 30
0.0
  0
SPLINE
  5
937C
330
A
100
AcDbEntity
  8
MODEL
100
AcDbSpline
210
0.0
220
0.0
230
1.0
 70
     8
 71
     3
 72
    11
 73
     7
 74
     0
 42
0.000000001
 43
0.0000000001
 40
0.0
 40
0.0
 40
0.0
 40
0.0
 40
1.0
 40
1.0
 40
1.0
 40
2.0
 40
2.0
 40
2.0
 40
2.0
 10
69.68185327504875
 20
139.018225080838
 30
0.0
 10
69.68185327504875
 20
139.018225080838
 30
0.0
 10
73.55685327504875
 20
139.018225080838
 30
0.0
 10
73.55685327504875
 20
139.018225080838
 30
0.0
 10
73.55685327504875
 20
139.018225080838
 30
0.0
 10
73.55685327504875
 20
141.893225080838
 30
0.0
 10
73.55685327504875
 20
141.893225080838
 30
0.0
  0
SPLINE
  5
937D
330
A
100
AcDbEntity
  8
MODEL
100
AcDbSpline
210
0.0
220
0.0
230
1.0
 70
    24
 71
     3
 72
    11
 73
     7
 74
     0
 42
0.000000001
 43
0.0000000001
 40
2.0
 40
2.0
 40
2.0
 40
2.0
 40
3.0
 40
3.0
 40
3.0
 40
4.0
 40
4.0
 40
4.0
 40
4.0
 10
73.55685327504875
 20
141.893225080838
 30
0.0
 10
73.55306909536125
 20
141.893225080838
 30
0.0
 10
73.55306909536125
 20
141.893225080838
 30
0.0
 10
73.55685327504875
 20
141.893225080838
 30
0.0
 10
73.55685327504875
 20
141.893225080838
 30
0.0
 10
69.55660913442375
 20
141.893225080838
 30
0.0
 10
69.55660913442375
 20
141.893225080838
 30
0.0
  0
SPLINE
  5
937E
330
A
100
AcDbEntity
  8
MODEL
100
AcDbSpline
210
0.0
220
0.0
230
1.0
 70
     8
 71
     3
 72
     8
 73
     4
 74
     0
 42
0.000000001
 43
0.0000000001
 40
4.0
 40
4.0
 40
4.0
 40
4.0
 40
5.0
 40
5.0
 40
5.0
 40
5.0
 10
69.55660913442375
 20
141.893225080838
 30
0.0
 10
69.55660913442375
 20
139.018225080838
 30
0.0
 10
69.68185327504875
 20
139.018225080838
 30
0.0
 10
69.68185327504875
 20
139.018225080838
 30
0.0
  0
LINE
  5
93E0
330
A
100
AcDbEntity
  8
DIM
100
AcDbLine
 10
72.16720483754875
 20
183.8692780840917
 30
0.0
 11
92.52306022265383
 21
202.3317554134694
 31
0.0
  0
LINE
  5
93E1
330
A
100
AcDbEntity
  8
DIM
100
AcDbLine
 10
92.52306022265383
 20
202.3317554134694
 30
0.0
 11
125.57089464224
 21
202.3317554134694
 31
0.0
  0
LINE
  5
93E2
330
A
100
AcDbEntity
  8
DIM
100
AcDbLine
 10
119.4782771235453
 20
129.946691877713
 30
0.0
 11
119.4782771235453
 21
118.2351711781538
 31
0.0
  0
MTEXT
  5
93E3
330
A
100
AcDbEntity
  8
DIM
390
1D
100
AcDbMText
 10
104.3207969220682
 20
114.3858351163243
 30
0.0
 40
4.8865234375
 41
0.0
 46
4.8865234375
 71
     1
 72
     1
  1
{SFG73-9901}
  7
ＭＳ ゴシック
 73
     1
 44
0.7828267384257843
1001
ACAD
1000
ACAD_MTEXT_DEFINED_HEIGHT_BEGIN
1070
    46
1040
4.8865234375
1000
ACAD_MTEXT_DEFINED_HEIGHT_END
  0
MTEXT
  5
93E4
330
A
100
AcDbEntity
  8
DIM
390
1D
100
AcDbMText
 10
104.3207969220682
 20
107.0008441845732
 30
0.0
 40
4.8865234375
 41
0.0
 46
4.8865234375
 71
     1
 72
     1
  1
{TFM73-7012}
  7
ＭＳ ゴシック
 73
     1
 44
0.7828267384257843
1001
ACAD
1000
ACAD_MTEXT_DEFINED_HEIGHT_BEGIN
1070
    46
1040
4.8865234375
1000
ACAD_MTEXT_DEFINED_HEIGHT_END
  0
MTEXT
  5
93E5
330
A
100
AcDbEntity
  8
DIM
390
1D
100
AcDbMText
 10
104.3207969220682
 20
99.38507228620489
 30
0.0
 40
4.8865234375
 41
0.0
 46
4.8865234375
 71
     1
 72
     1
  1
{GAR73-0006}
  7
ＭＳ ゴシック
 73
     1
 44
0.7828267384257843
1001
ACAD
1000
ACAD_MTEXT_DEFINED_HEIGHT_BEGIN
1070
    46
1040
4.8865234375
1000
ACAD_MTEXT_DEFINED_HEIGHT_END
  0
MTEXT
  5
9419
330
A
100
AcDbEntity
  8
DIM
390
1D
100
AcDbMText
 10
93.86158982903363
 20
209.3849108961197
 30
0.0
 40
4.8865234375
 41
0.0
 46
4.8865234375
 71
     1
 72
     1
  1
{ARN73-9925}
  7
ＭＳ ゴシック
 73
     1
 44
0.7828267384257843
1001
ACAD
1000
ACAD_MTEXT_DEFINED_HEIGHT_BEGIN
1070
    46
1040
4.8865234375
1000
ACAD_MTEXT_DEFINED_HEIGHT_END
  0
LINE
  5
941A
330
A
100
AcDbEntity
  8
DIM
100
AcDbLine
 10
181.356423797788
 20
84.91076019388726
 30
0.0
 11
36.55488956774396
 21
84.91076019388731
 31
0.0
  0
LINE
  5
941B
330
A
100
AcDbEntity
  8
DIM
100
AcDbLine
 10
36.55488956774396
 20
84.91076019388731
 30
0.0
 11
36.55488956774396
 21
254.5032185722657
 31
0.0
  0
LINE
  5
941C
330
A
100
AcDbEntity
  8
DIM
100
AcDbLine
 10
81.34587500506743
 20
254.5032185722657
 30
0.0
 11
181.356423797788
 21
254.5032185722657
 31
0.0
  0
LINE
  5
941D
330
A
100
AcDbEntity
  8
DIM
100
AcDbLine
 10
181.356423797788
 20
254.5032185722657
 30
0.0
 11
181.356423797788
 21
84.91076019388726
 31
0.0
  0
MTEXT
  5
9451
330
A
100
AcDbEntity
  8
DIM
390
1D
100
AcDbMText
 10
46.69663126478981
 20
257.1667354450831
 30
0.0
 40
4.8865234375
 41
0.0
 46
5.3800623046875
 71
     1
 72
     1
  1
{組み合わせ例}
  7
ＭＳ ゴシック
 73
     1
 44
0.7828267384257843
1001
ACAD
1000
ACAD_MTEXT_DEFINED_HEIGHT_BEGIN
1070
    46
1040
5.3800623046875
1000
ACAD_MTEXT_DEFINED_HEIGHT_END
  0
LINE
  5
9452
330
A
100
AcDbEntity
  8
DIM
100
AcDbLine
 10
36.55488956774396
 20
254.5032185722657
 30
0.0
 11
44.49496590122058
 21
254.5032185722657
 31
0.0
  0
CIRCLE
  5
9457
330
A
100
AcDbEntity
  8
MODEL
100
AcDbCircle
 10
217.4499728394047
 20
517.0069264131357
 30
0.0
 40
15.0
  0
LINE
  5
9458
330
A
100
AcDbEntity
  8
DIM
100
AcDbLine
 10
228.0764401035851
 20
527.5936253076591
 30
0.0
 11
241.4311266585781
 21
538.191897958076
 31
0.0
  0
LINE
  5
9459
330
A
100
AcDbEntity
  8
DIM
100
AcDbLine
 10
241.4311266585781
 20
538.191897958076
 30
0.0
 11
267.242541455389
 21
538.191897958076
 31
0.0
  0
MTEXT
  5
948D
330
A
100
AcDbEntity
  8
DIM
390
1D
100
AcDbMText
 10
243.4504601164788
 20
546.1931731571876
 30
0.0
 40
4.8865234375
 41
0.0
 46
4.8865234375
 71
     1
 72
     1
  1
{Ø20-Ø30}
  7
ＭＳ ゴシック
 73
     1
 44
0.7828267384257843
1001
ACAD
1000
ACAD_MTEXT_DEFINED_HEIGHT_BEGIN
1070
    46
1040
4.8865234375
1000
ACAD_MTEXT_DEFINED_HEIGHT_END
  0
MTEXT
  5
948E
330
A
100
AcDbEntity
  8
DIM
390
1D
100
AcDbMText
 10
207.9678864990809
 20
560.1744092317067
 30
0.0
 40
4.8865234375
 41
0.0
 46
5.4338140625
 71
     1
 72
     1
  1
{取付穴}
  7
ＭＳ ゴシック
 73
     1
 44
0.7828267384257843
1001
ACAD
1000
ACAD_MTEXT_DEFINED_HEIGHT_BEGIN
1070
    46
1040
5.4338140625
1000
ACAD_MTEXT_DEFINED_HEIGHT_END
  0
MTEXT
  5
94A2
330
A
100
AcDbEntity
  8
DIM
390
1D
100
AcDbMText
 10
122.878903454838
 20
373.8738408504194
 30
0.0
 40
4.8865234375
 41
0.0
 46
4.8865234375
 71
     1
 72
     1
  1
{MAX 45}
  7
ＭＳ ゴシック
 11
6.123233995736766E-17
 21
1.0
 31
0.0
 73
     1
 44
0.7828267384257843
1001
ACAD
1000
ACAD_MTEXT_DEFINED_HEIGHT_BEGIN
1070
    46
1040
4.8865234375
1000
ACAD_MTEXT_DEFINED_HEIGHT_END
  0
MTEXT
  5
94A3
330
A
100
AcDbEntity
  8
DIM
390
1D
100
AcDbMText
 10
114.945807727371
 20
373.8738408504194
 30
0.0
 40
4.8865234375
 41
0.0
 46
4.8865234375
 71
     1
 72
     1
  1
{MIN 15}
  7
ＭＳ ゴシック
 11
6.123233995736766E-17
 21
1.0
 31
0.0
 73
     1
 44
0.7828267384257843
1001
ACAD
1000
ACAD_MTEXT_DEFINED_HEIGHT_BEGIN
1070
    46
1040
4.8865234375
1000
ACAD_MTEXT_DEFINED_HEIGHT_END
  0
MTEXT
  5
94B1
330
A
100
AcDbEntity
  8
TEMPLATE
390
1D
100
AcDbMText
 10
26.44042890954616
 20
62.87686870184289
 30
0.0
 40
4.8865234375
 41
0.0
 46
5.4338140625
 71
     1
 72
     1
  1
{ポップアップ排水金具用引き棒}
  7
ＭＳ ゴシック
 73
     1
 44
0.7828267384257843
1001
ACAD
1000
ACAD_MTEXT_DEFINED_HEIGHT_BEGIN
1070
    46
1040
5.4338140625
1000
ACAD_MTEXT_DEFINED_HEIGHT_END
  0
MTEXT
  5
94B2
330
A
100
AcDbEntity
  8
TEMPLATE
390
1D
100
AcDbMText
 10
26.44042890954618
 20
37.95252430718291
 30
0.0
 40
4.8865234375
 41
0.0
 46
4.9598212890625
 71
     1
 72
     1
  1
{クローム}
  7
ＭＳ ゴシック
 73
     1
 44
0.7828267384257843
1001
ACAD
1000
ACAD_MTEXT_DEFINED_HEIGHT_BEGIN
1070
    46
1040
4.9598212890625
1000
ACAD_MTEXT_DEFINED_HEIGHT_END
  0
VIEWPORT
  5
349
330
B
100
AcDbEntity
 67
     1
  8
0
100
AcDbViewport
 10
202.5
 20
128.5
 30
0.0
 40
486.0
 41
308.4
 68
     1
 69
     1
 12
202.5
 22
128.5
 13
0.0
 23
0.0
 14
0.5
 24
0.5
 15
0.0
 25
0.0
 16
0.0
 26
0.0
 36
1.0
 17
0.0
 27
0.0
 37
0.0
 42
50.0
 43
0.0
 44
0.0
 45
308.4
 50
0.0
 51
0.0
 72
   100
 90
   557152
  1

281
     0
 71
     1
 74
     0
110
0.0
120
0.0
130
0.0
111
1.0
121
0.0
131
0.0
112
0.0
122
1.0
132
0.0
 79
     0
146
0.0
170
     0
 61
     5
348
26C
292
     1
282
     1
141
0.0
142
0.0
 63
   256
  0
VIEWPORT
  5
34A
330
B
100
AcDbEntity
 67
     1
  8
0
100
AcDbViewport
 10
202.5
 20
128.5
 30
0.0
 40
324.0
 41
205.6
 68
     2
 69
     2
 12
986.6781359294573
 22
1427.077061889956
 13
0.0
 23
0.0
 14
0.5
 24
0.5
 15
0.0
 25
0.0
 16
0.0
 26
0.0
 36
1.0
 17
0.0
 27
0.0
 37
0.0
 42
50.0
 43
0.0
 44
0.0
 45
2890.021615685494
 50
0.0
 51
0.0
 72
   100
 90
   557152
  1

281
     0
 71
     1
 74
     0
110
0.0
120
0.0
130
0.0
111
1.0
121
0.0
131
0.0
112
0.0
122
1.0
132
0.0
 79
     0
146
0.0
170
     0
 61
     5
348
26C
292
     1
282
     1
141
0.0
142
0.0
 63
   256
  0
ENDSEC
  0
SECTION
  2
OBJECTS
  0
DICTIONARY
  5
19
330
0
100
AcDbDictionary
281
     1
  3
ACAD_COLOR
350
674
  3
ACAD_DETAILVIEWSTYLE
350
BBF
  3
ACAD_FIELDLIST
350
3BE4
  3
ACAD_GROUP
350
1A
  3
ACAD_IMAGE_VARS
350
27B
  3
ACAD_LAYOUT
350
1E
  3
ACAD_MATERIAL
350
263
  3
ACAD_MLEADERSTYLE
350
336
  3
ACAD_MLINESTYLE
350
1B
  3
ACAD_PLOTSETTINGS
350
22
  3
ACAD_PLOTSTYLENAME
350
1F
  3
ACAD_SCALELIST
350
241
  3
ACAD_SECTIONVIEWSTYLE
350
BC0
  3
ACAD_TABLESTYLE
350
278
  3
ACAD_VISUALSTYLE
350
267
  3
ACDB_RECOMPOSE_DATA
350
94DC
  3
AcDbVariableDictionary
350
330
  3
APPDATA
350
27A
  3
DimOffsetDictionary
350
E38
  0
SUN
  5
904
330
15
100
AcDbSun
 90
        1
290
     0
 63
     7
421
 16777215
 40
1.0
291
     1
 91
  2455826
 92
 54000000
292
     0
 70
     2
 71
   256
280
     1
  0
DICTIONARY
  5
2E1
330
2
100
AcDbDictionary
280
     1
281
     1
  3
ACAD_LAYERSTATES
360
2E2
  3
ACLYDICTIONARY
360
DDE
  0
DICTIONARY
  5
3D3D
330
A
100
AcDbDictionary
280
     1
281
     1
  3
ACAD_SORTENTS
360
3D3E
  0
DICTIONARY
  5
3CB7
330
3CB5
100
AcDbDictionary
280
     1
281
     1
  3
ACAD_FIELD
360
94B0
  0
DICTIONARY
  5
5BCA
330
5BC9
100
AcDbDictionary
280
     1
281
     1
  3
ACAD_DIMASSOC
360
5BCB
  0
DICTIONARY
  5
5C18
330
5C17
100
AcDbDictionary
280
     1
281
     1
  3
ACAD_DIMASSOC
360
5C19
  0
DICTIONARY
  5
674
102
{ACAD_REACTORS
330
19
102
}
330
19
100
AcDbDictionary
281
     1
  0
DICTIONARY
  5
BBF
102
{ACAD_REACTORS
330
19
102
}
330
19
100
AcDbDictionary
281
     1
  0
FIELDLIST
  5
3BE4
102
{ACAD_REACTORS
330
19
102
}
330
19
100
AcDbIdSet
 90
        2
330
3CB9
330
3CB6
100
AcDbFieldList
  0
DICTIONARY
  5
1A
102
{ACAD_REACTORS
330
19
102
}
330
19
100
AcDbDictionary
281
     1
  3
*A1
350
3C75
  0
RASTERVARIABLES
  5
27B
102
{ACAD_REACTORS
330
19
102
}
330
19
100
AcDbRasterVariables
 90
        0
 70
     1
 71
     1
 72
     1
  0
DICTIONARY
  5
1E
102
{ACAD_REACTORS
330
19
102
}
330
19
100
AcDbDictionary
281
     1
  3
Layout1
350
21
  3
Model
350
20
  0
DICTIONARY
  5
263
102
{ACAD_REACTORS
330
19
102
}
330
19
100
AcDbDictionary
281
     1
  3
ByBlock
350
265
  3
ByLayer
350
264
  3
Global
350
266
  0
DICTIONARY
  5
336
102
{ACAD_REACTORS
330
19
102
}
330
19
100
AcDbDictionary
281
     1
  3
Standard
350
D59
  0
DICTIONARY
  5
1B
102
{ACAD_REACTORS
330
19
102
}
330
19
100
AcDbDictionary
281
     1
  3
Standard
350
1C
  0
DICTIONARY
  5
22
102
{ACAD_REACTORS
330
19
102
}
330
19
100
AcDbDictionary
281
     1
  0
ACDBDICTIONARYWDFLT
  5
1F
102
{ACAD_REACTORS
330
19
102
}
330
19
100
AcDbDictionary
281
     1
  3
Normal
350
1D
100
AcDbDictionaryWithDefault
340
1D
  0
DICTIONARY
  5
241
102
{ACAD_REACTORS
330
19
102
}
330
19
100
AcDbDictionary
281
     1
  3
A0
350
242
  3
A1
350
243
  3
A2
350
244
  3
A3
350
245
  3
A4
350
246
  3
A5
350
247
  3
A6
350
248
  3
A7
350
249
  3
A8
350
24A
  3
A9
350
24B
  3
B0
350
24C
  3
B1
350
24D
  3
B2
350
24E
  3
B3
350
24F
  3
B4
350
250
  3
B5
350
251
  3
B6
350
252
  3
B7
350
253
  3
B8
350
254
  3
B9
350
255
  3
C0
350
256
  3
C1
350
257
  3
C2
350
258
  3
C3
350
259
  3
C4
350
25A
  3
C5
350
25B
  3
C6
350
25C
  3
C7
350
25D
  3
C8
350
25E
  3
C9
350
25F
  3
D0
350
260
  3
D1
350
261
  3
D2
350
262
  0
DICTIONARY
  5
BC0
102
{ACAD_REACTORS
330
19
102
}
330
19
100
AcDbDictionary
281
     1
  0
DICTIONARY
  5
278
102
{ACAD_REACTORS
330
19
102
}
330
19
100
AcDbDictionary
281
     1
  3
Standard
350
279
  0
DICTIONARY
  5
267
102
{ACAD_REACTORS
330
19
102
}
330
19
100
AcDbDictionary
281
     1
  3
2dWireframe
350
26C
  3
3D Hidden
350
26E
  3
3dWireframe
350
26D
  3
Basic
350
26F
  3
Brighten
350
273
  3
ColorChange
350
277
  3
Conceptual
350
271
  3
Dim
350
272
  3
EdgeColorOff
350
8FE
  3
Facepattern
350
276
  3
Flat
350
268
  3
FlatWithEdges
350
269
  3
Gouraud
350
26A
  3
GouraudWithEdges
350
26B
  3
Hidden
350
8FB
  3
JitterOff
350
8FC
  3
Linepattern
350
275
  3
OverhangOff
350
8FD
  3
Realistic
350
270
  3
Shaded
350
903
  3
Shaded with edges
350
902
  3
Shades of Gray
350
8FF
  3
Sketchy
350
900
  3
Thicken
350
274
  3
Wireframe
350
8FA
  3
X-Ray
350
901
  0
XRECORD
  5
94DC
102
{ACAD_REACTORS
330
19
102
}
330
19
100
AcDbXrecord
280
     1
 90
        1
330
279
  0
DICTIONARY
  5
330
102
{ACAD_REACTORS
330
19
102
}
330
19
100
AcDbDictionary
281
     1
  3
CANNOSCALE
350
331
  3
CMLEADERSTYLE
350
D5E
  3
CTABLESTYLE
350
335
  3
HPTRANSPARENCY
350
D52
  3
XCLIPFRAME
350
896
  0
DICTIONARY
  5
27A
102
{ACAD_REACTORS
330
19
102
}
330
19
100
AcDbDictionary
281
     1
  0
DICTIONARY
  5
E38
102
{ACAD_REACTORS
330
19
102
}
330
19
100
AcDbDictionary
281
     1
  3
DIMRAILANGLE
350
246C
  3
DIMRAILFIRSTOFFSET
350
246A
  3
DIMRAILOFFSET
350
246B
  3
DIMRAILSENABLED
350
246D
  0
DICTIONARY
  5
2E2
102
{ACAD_REACTORS
330
2E1
102
}
330
2E1
100
AcDbDictionary
281
     1
  0
DICTIONARY
  5
DDE
102
{ACAD_REACTORS
330
2E1
102
}
330
2E1
100
AcDbDictionary
281
     1
1001
ACAD
1000
<All
  0
SORTENTSTABLE
  5
3D3E
102
{ACAD_REACTORS
330
3D3D
102
}
330
3D3D
100
AcDbSortentsTable
330
A
331
0
  5
3C1E
331
3C64
  5
3C1F
331
3C65
  5
3C63
331
3C70
  5
3C64
331
3C71
  5
3C65
331
3C72
  5
3C70
331
3C73
  5
3C71
331
3C74
  5
3C72
331
3C9A
  5
3C74
331
3CB5
  5
3C92
  0
DICTIONARY
  5
94B0
102
{ACAD_REACTORS
330
3CB7
102
}
330
3CB7
100
AcDbDictionary
280
     1
281
     1
  3
TEXT
360
3CB6
  0
DIMASSOC
  5
5BCB
102
{ACAD_REACTORS
330
5BCA
102
}
330
5BCA
100
AcDbDimAssoc
330
5BC9
 90
        2
 70
     0
 71
     1
  1
AcDbOsnapPointRef
 72
     1
331
4CC1
 73
     2
 91
        1
 40
1.0
 10
0.0
 20
0.0
 30
0.0
 75
     0
  0
DIMASSOC
  5
5C19
102
{ACAD_REACTORS
330
5C18
102
}
330
5C18
100
AcDbDimAssoc
330
5C17
 90
        1
 70
     0
 71
     1
  1
AcDbOsnapPointRef
 72
     1
331
4CB9
 73
     2
 91
        1
 40
1.0
 10
0.0
 20
0.0
 30
0.0
 75
     0
  0
GROUP
  5
3C75
102
{ACAD_REACTORS
330
1A
102
}
330
1A
100
AcDbGroup
300

 70
     1
 71
     1
340
3C64
340
3C65
340
3C70
340
3C71
340
3C72
340
3C73
340
3C74
  0
LAYOUT
  5
21
102
{ACAD_REACTORS
330
1E
102
}
330
1E
100
AcDbPlotSettings
  1

  2
none_device
  4
ISO_A3_(420.00_x_297.00_MM)
  6

 40
7.5
 41
20.0
 42
7.5
 43
20.0
 44
420.0
 45
297.0
 46
0.0
 47
0.0
 48
0.0
 49
0.0
140
0.0
141
0.0
142
1.0
143
1.0
 70
     0
 72
     1
 73
     0
 74
     0
  7

 75
     0
 76
     0
 77
     2
 78
   300
147
1.0
148
0.0
149
0.0
100
AcDbLayout
  1
Layout1
 70
     0
 71
     0
 10
-7.5
 20
-20.0
 11
412.5
 21
277.0
 12
0.0
 22
0.0
 32
0.0
 14
0.0
 24
0.0
 34
0.0
 15
0.0
 25
0.0
 35
0.0
146
0.0
 13
0.0
 23
0.0
 33
0.0
 16
0.0
 26
0.0
 36
0.0
 17
0.0
 27
0.0
 37
0.0
 76
     0
330
B
331
349
  0
LAYOUT
  5
20
102
{ACAD_REACTORS
330
1E
102
}
330
1E
100
AcDbPlotSettings
  1

  2
none_device
  4
ISO_A3_(420.00_x_297.00_MM)
  6

 40
7.5
 41
20.0
 42
7.5
 43
20.0
 44
420.0
 45
297.0
 46
0.0
 47
0.0
 48
0.0
 49
0.0
140
0.0
141
0.0
142
1.0
143
1.0
 70
  1024
 72
     1
 73
     0
 74
     0
  7

 75
     0
 76
     0
 77
     2
 78
   300
147
1.0
148
0.0
149
0.0
100
AcDbLayout
  1
Model
 70
     0
 71
     1
 10
0.0
 20
0.0
 11
420.0
 21
594.0
 12
0.0
 22
0.0
 32
0.0
 14
0.0
 24
0.0
 34
-0.0000000000000071
 15
420.0
 25
594.0
 35
0.0000000000000071
146
0.0
 13
0.0
 23
0.0
 33
0.0
 16
0.0
 26
0.0
 36
0.0
 17
0.0
 27
0.0
 37
0.0
 76
     0
330
A
331
15
  0
MATERIAL
  5
265
102
{ACAD_REACTORS
330
263
102
}
330
263
100
AcDbMaterial
  1
ByBlock
 72
     1
 94
      127
  0
MATERIAL
  5
264
102
{ACAD_REACTORS
330
263
102
}
330
263
100
AcDbMaterial
  1
ByLayer
 72
     1
 94
      127
  0
MATERIAL
  5
266
102
{ACAD_REACTORS
330
263
102
}
330
263
100
AcDbMaterial
  1
Global
 72
     1
 94
      127
  0
MLEADERSTYLE
  5
D59
102
{ACAD_REACTORS
330
336
102
}
330
336
100
AcDbMLeaderStyle
170
     2
171
     1
172
     0
 90
        2
 40
0.0
 41
0.0
173
     1
 91
-1056964608
340
11
 92
       -2
290
     1
 42
2.0
291
     1
 43
8.0
  3
Standard
341
0
 44
4.0
300

342
17
174
     1
178
     6
175
     1
176
     0
 93
-1056964608
 45
4.0
292
     0
297
     0
 46
4.0
343
0
 94
-1056964608
 47
1.0
 49
1.0
140
1.0
293
     1
141
0.0
294
     1
177
     0
142
1.0
295
     0
296
     0
143
3.75
1001
ACAD_MLEADERVER
1070
     2
  0
MLINESTYLE
  5
1C
102
{ACAD_REACTORS
330
1B
102
}
330
1B
100
AcDbMlineStyle
  2
Standard
 70
     0
  3

 62
     0
 51
90.0
 52
90.0
 71
     2
 49
0.5
 62
   256
  6
BYLAYER
 49
-0.5
 62
   256
  6
BYLAYER
  0
ACDBPLACEHOLDER
  5
1D
102
{ACAD_REACTORS
330
1F
102
}
330
1F
  0
SCALE
  5
242
102
{ACAD_REACTORS
330
241
102
}
330
241
100
AcDbScale
 70
     0
300
1:1
140
1.0
141
1.0
290
     1
  0
SCALE
  5
243
102
{ACAD_REACTORS
330
241
102
}
330
241
100
AcDbScale
 70
     0
300
1:2
140
1.0
141
2.0
290
     0
  0
SCALE
  5
244
102
{ACAD_REACTORS
330
241
102
}
330
241
100
AcDbScale
 70
     0
300
1:4
140
1.0
141
4.0
290
     0
  0
SCALE
  5
245
102
{ACAD_REACTORS
330
241
102
}
330
241
100
AcDbScale
 70
     0
300
1:5
140
1.0
141
5.0
290
     0
  0
SCALE
  5
246
102
{ACAD_REACTORS
330
241
102
}
330
241
100
AcDbScale
 70
     0
300
1:8
140
1.0
141
8.0
290
     0
  0
SCALE
  5
247
102
{ACAD_REACTORS
330
241
102
}
330
241
100
AcDbScale
 70
     0
300
1:10
140
1.0
141
10.0
290
     0
  0
SCALE
  5
248
102
{ACAD_REACTORS
330
241
102
}
330
241
100
AcDbScale
 70
     0
300
1:16
140
1.0
141
16.0
290
     0
  0
SCALE
  5
249
102
{ACAD_REACTORS
330
241
102
}
330
241
100
AcDbScale
 70
     0
300
1:20
140
1.0
141
20.0
290
     0
  0
SCALE
  5
24A
102
{ACAD_REACTORS
330
241
102
}
330
241
100
AcDbScale
 70
     0
300
1:30
140
1.0
141
30.0
290
     0
  0
SCALE
  5
24B
102
{ACAD_REACTORS
330
241
102
}
330
241
100
AcDbScale
 70
     0
300
1:40
140
1.0
141
40.0
290
     0
  0
SCALE
  5
24C
102
{ACAD_REACTORS
330
241
102
}
330
241
100
AcDbScale
 70
     0
300
1:50
140
1.0
141
50.0
290
     0
  0
SCALE
  5
24D
102
{ACAD_REACTORS
330
241
102
}
330
241
100
AcDbScale
 70
     0
300
1:100
140
1.0
141
100.0
290
     0
  0
SCALE
  5
24E
102
{ACAD_REACTORS
330
241
102
}
330
241
100
AcDbScale
 70
     0
300
2:1
140
2.0
141
1.0
290
     0
  0
SCALE
  5
24F
102
{ACAD_REACTORS
330
241
102
}
330
241
100
AcDbScale
 70
     0
300
4:1
140
4.0
141
1.0
290
     0
  0
SCALE
  5
250
102
{ACAD_REACTORS
330
241
102
}
330
241
100
AcDbScale
 70
     0
300
8:1
140
8.0
141
1.0
290
     0
  0
SCALE
  5
251
102
{ACAD_REACTORS
330
241
102
}
330
241
100
AcDbScale
 70
     0
300
10:1
140
10.0
141
1.0
290
     0
  0
SCALE
  5
252
102
{ACAD_REACTORS
330
241
102
}
330
241
100
AcDbScale
 70
     0
300
100:1
140
100.0
141
1.0
290
     0
  0
SCALE
  5
253
102
{ACAD_REACTORS
330
241
102
}
330
241
100
AcDbScale
 70
     0
300
1/128" = 1'-0"
140
0.0078125
141
12.0
290
     0
  0
SCALE
  5
254
102
{ACAD_REACTORS
330
241
102
}
330
241
100
AcDbScale
 70
     0
300
1/64" = 1'-0"
140
0.015625
141
12.0
290
     0
  0
SCALE
  5
255
102
{ACAD_REACTORS
330
241
102
}
330
241
100
AcDbScale
 70
     0
300
1/32" = 1'-0"
140
0.03125
141
12.0
290
     0
  0
SCALE
  5
256
102
{ACAD_REACTORS
330
241
102
}
330
241
100
AcDbScale
 70
     0
300
1/16" = 1'-0"
140
0.0625
141
12.0
290
     0
  0
SCALE
  5
257
102
{ACAD_REACTORS
330
241
102
}
330
241
100
AcDbScale
 70
     0
300
3/32" = 1'-0"
140
0.09375
141
12.0
290
     0
  0
SCALE
  5
258
102
{ACAD_REACTORS
330
241
102
}
330
241
100
AcDbScale
 70
     0
300
1/8" = 1'-0"
140
0.125
141
12.0
290
     0
  0
SCALE
  5
259
102
{ACAD_REACTORS
330
241
102
}
330
241
100
AcDbScale
 70
     0
300
3/16" = 1'-0"
140
0.1875
141
12.0
290
     0
  0
SCALE
  5
25A
102
{ACAD_REACTORS
330
241
102
}
330
241
100
AcDbScale
 70
     0
300
1/4" = 1'-0"
140
0.25
141
12.0
290
     0
  0
SCALE
  5
25B
102
{ACAD_REACTORS
330
241
102
}
330
241
100
AcDbScale
 70
     0
300
3/8" = 1'-0"
140
0.375
141
12.0
290
     0
  0
SCALE
  5
25C
102
{ACAD_REACTORS
330
241
102
}
330
241
100
AcDbScale
 70
     0
300
1/2" = 1'-0"
140
0.5
141
12.0
290
     0
  0
SCALE
  5
25D
102
{ACAD_REACTORS
330
241
102
}
330
241
100
AcDbScale
 70
     0
300
3/4" = 1'-0"
140
0.75
141
12.0
290
     0
  0
SCALE
  5
25E
102
{ACAD_REACTORS
330
241
102
}
330
241
100
AcDbScale
 70
     0
300
1" = 1'-0"
140
1.0
141
12.0
290
     0
  0
SCALE
  5
25F
102
{ACAD_REACTORS
330
241
102
}
330
241
100
AcDbScale
 70
     0
300
1-1/2" = 1'-0"
140
1.5
141
12.0
290
     0
  0
SCALE
  5
260
102
{ACAD_REACTORS
330
241
102
}
330
241
100
AcDbScale
 70
     0
300
3" = 1'-0"
140
3.0
141
12.0
290
     0
  0
SCALE
  5
261
102
{ACAD_REACTORS
330
241
102
}
330
241
100
AcDbScale
 70
     0
300
6" = 1'-0"
140
6.0
141
12.0
290
     0
  0
SCALE
  5
262
102
{ACAD_REACTORS
330
241
102
}
330
241
100
AcDbScale
 70
     0
300
1'-0" = 1'-0"
140
12.0
141
12.0
290
     0
  0
TABLESTYLE
  5
279
102
{ACAD_REACTORS
330
278
102
}
102
{ACAD_XDICTIONARY
360
94DA
102
}
330
278
100
AcDbTableStyle
  3
Standard
 70
     0
 71
     0
 40
0.06
 41
0.06
280
     0
281
     0
  7
Standard
140
4.5
170
     2
 62
     0
 63
   257
283
     0
 90
        4
 91
        0
  1

274
    -2
284
     1
 64
     0
275
    -2
285
     1
 65
     0
276
    -2
286
     1
 66
     0
277
    -2
287
     1
 67
     0
278
    -2
288
     1
 68
     0
279
    -2
289
     1
 69
     0
  7
Standard
140
6.0
170
     5
 62
     0
 63
   257
283
     0
 90
        4
 91
        0
  1

274
    -2
284
     1
 64
     0
275
    -2
285
     1
 65
     0
276
    -2
286
     1
 66
     0
277
    -2
287
     1
 67
     0
278
    -2
288
     1
 68
     0
279
    -2
289
     1
 69
     0
  7
Standard
140
4.5
170
     5
 62
     0
 63
   257
283
     0
 90
        4
 91
        0
  1

274
    -2
284
     1
 64
     0
275
    -2
285
     1
 65
     0
276
    -2
286
     1
 66
     0
277
    -2
287
     1
 67
     0
278
    -2
288
     1
 68
     0
279
    -2
289
     1
 69
     0
  0
VISUALSTYLE
  5
26C
102
{ACAD_REACTORS
330
267
102
}
330
267
100
AcDbVisualStyle
  2
2dWireframe
 70
     4
 71
     0
 72
     2
 73
     0
 90
        0
 40
-0.6
 41
-30.0
 62
     5
 63
     7
421
 16777215
 74
     1
 91
        4
 64
     7
 65
   257
 75
     1
175
     1
 42
1.0
 92
        0
 66
   257
 43
1.0
 76
     1
 77
     6
 78
     2
 67
     7
 79
     5
170
     0
171
     0
290
     0
174
     0
 93
        1
 44
0.0
173
     0
291
     0
 45
0.0
  0
VISUALSTYLE
  5
26E
102
{ACAD_REACTORS
330
267
102
}
330
267
100
AcDbVisualStyle
  2
3D Hidden
 70
     6
 71
     1
 72
     2
 73
     2
 90
        0
 40
-0.6
 41
-30.0
 62
     5
 63
     7
421
 16777215
 74
     2
 91
        2
 64
     7
 65
   257
 75
     2
175
     1
 42
40.0
 92
        0
 66
   257
 43
1.0
 76
     1
 77
     6
 78
     2
 67
     7
 79
     3
170
     0
171
     0
290
     0
174
     0
 93
        1
 44
0.0
173
     0
291
     0
 45
0.0
  0
VISUALSTYLE
  5
26D
102
{ACAD_REACTORS
330
267
102
}
330
267
100
AcDbVisualStyle
  2
3dWireframe
 70
     5
 71
     0
 72
     2
 73
     0
 90
        0
 40
-0.6
 41
-30.0
 62
     5
 63
     7
421
 16777215
 74
     1
 91
        4
 64
     7
 65
   257
 75
     1
175
     1
 42
1.0
 92
        0
 66
   257
 43
1.0
 76
     1
 77
     6
 78
     2
 67
     7
 79
     5
170
     0
171
     0
290
     0
174
     0
 93
        1
 44
0.0
173
     0
291
     0
 45
0.0
  0
VISUALSTYLE
  5
26F
102
{ACAD_REACTORS
330
267
102
}
330
267
100
AcDbVisualStyle
  2
Basic
 70
     7
 71
     1
 72
     0
 73
     1
 90
        0
 40
-0.6
 41
-30.0
 62
     5
 63
     7
421
 16777215
 74
     0
 91
        4
 64
     7
 65
   257
 75
     1
175
     1
 42
1.0
 92
        8
 66
     7
 43
1.0
 76
     1
 77
     6
 78
     2
 67
     7
 79
     5
170
     0
171
     0
290
     0
174
     0
 93
        1
 44
0.0
173
     0
291
     1
 45
0.0
  0
VISUALSTYLE
  5
273
102
{ACAD_REACTORS
330
267
102
}
330
267
100
AcDbVisualStyle
  2
Brighten
 70
    12
 71
     2
 72
     2
 73
     0
 90
        0
 40
-0.6
 41
-30.0
 62
     5
 63
     7
421
 16777215
 74
     1
 91
        4
 64
     7
 65
   257
 75
     1
175
     1
 42
1.0
 92
        8
 66
     7
 43
1.0
 76
     1
 77
     6
 78
     2
 67
     7
 79
     5
170
     0
171
     0
290
     0
174
     0
 93
        1
 44
50.0
173
     0
291
     1
 45
0.0
  0
VISUALSTYLE
  5
277
102
{ACAD_REACTORS
330
267
102
}
330
267
100
AcDbVisualStyle
  2
ColorChange
 70
    16
 71
     2
 72
     2
 73
     3
 90
        0
 40
-0.6
 41
-30.0
 62
     5
 63
     8
421
  8421504
 74
     1
 91
        4
 64
     7
 65
   257
 75
     1
175
     1
 42
1.0
 92
        8
 66
     8
424
  8421504
 43
1.0
 76
     1
 77
     6
 78
     2
 67
     7
 79
     5
170
     0
171
     0
290
     0
174
     0
 93
        1
 44
0.0
173
     0
291
     1
 45
0.0
  0
VISUALSTYLE
  5
271
102
{ACAD_REACTORS
330
267
102
}
330
267
100
AcDbVisualStyle
  2
Conceptual
 70
     9
 71
     3
 72
     2
 73
     0
 90
        0
 40
-0.6
 41
-30.0
 62
     5
 63
     7
421
 16777215
 74
     2
 91
        2
 64
     7
 65
   257
 75
     1
175
     1
 42
40.0
 92
        8
 66
     7
 43
1.0
 76
     1
 77
     6
 78
     2
 67
     7
 79
     3
170
     0
171
     0
290
     0
174
     0
 93
        1
 44
0.0
173
     0
291
     0
 45
0.0
  0
VISUALSTYLE
  5
272
102
{ACAD_REACTORS
330
267
102
}
330
267
100
AcDbVisualStyle
  2
Dim
 70
    11
 71
     2
 72
     2
 73
     0
 90
        0
 40
-0.6
 41
-30.0
 62
     5
 63
     7
421
 16777215
 74
     1
 91
        4
 64
     7
 65
   257
 75
     1
175
     1
 42
1.0
 92
        8
 66
     7
 43
1.0
 76
     1
 77
     6
 78
     2
 67
     7
 79
     5
170
     0
171
     0
290
     0
174
     0
 93
        1
 44
-50.0
173
     0
291
     1
 45
0.0
  0
VISUALSTYLE
  5
8FE
102
{ACAD_REACTORS
330
267
102
}
330
267
100
AcDbVisualStyle
  2
EdgeColorOff
 70
    22
 71
     2
 72
     2
 73
     0
 90
        0
 40
0.6
 41
30.0
 62
     5
 63
     7
421
 16777215
 74
     1
 91
        4
 64
     7
 65
   257
 75
     1
175
     1
 42
1.0
 92
        8
 66
     7
 43
1.0
 76
     1
 77
     6
 78
     2
 67
     7
 79
     5
170
     0
171
     0
290
     0
174
     0
 93
        1
 44
0.0
173
     0
291
     1
 45
0.0
  0
VISUALSTYLE
  5
276
102
{ACAD_REACTORS
330
267
102
}
330
267
100
AcDbVisualStyle
  2
Facepattern
 70
    15
 71
     2
 72
     2
 73
     0
 90
        0
 40
-0.6
 41
-30.0
 62
     5
 63
     7
421
 16777215
 74
     1
 91
        4
 64
     7
 65
   257
 75
     1
175
     1
 42
1.0
 92
        8
 66
     7
 43
1.0
 76
     1
 77
     6
 78
     2
 67
     7
 79
     5
170
     0
171
     0
290
     0
174
     0
 93
        1
 44
0.0
173
     0
291
     1
 45
0.0
  0
VISUALSTYLE
  5
268
102
{ACAD_REACTORS
330
267
102
}
330
267
100
AcDbVisualStyle
  2
Flat
 70
     0
 71
     2
 72
     1
 73
     1
 90
        2
 40
-0.6
 41
30.0
 62
     5
 63
     7
421
 16777215
 74
     0
 91
        4
 64
     7
 65
   257
 75
     1
175
     1
 42
1.0
 92
        8
 66
     7
 43
1.0
 76
     1
 77
     6
 78
     2
 67
     7
 79
     5
170
     0
171
     0
290
     0
174
     0
 93
       13
 44
0.0
173
     0
291
     1
 45
0.0
  0
VISUALSTYLE
  5
269
102
{ACAD_REACTORS
330
267
102
}
330
267
100
AcDbVisualStyle
  2
FlatWithEdges
 70
     1
 71
     2
 72
     1
 73
     1
 90
        2
 40
-0.6
 41
30.0
 62
     5
 63
     7
421
 16777215
 74
     1
 91
        4
 64
     7
 65
   257
 75
     1
175
     1
 42
1.0
 92
        0
 66
   257
 43
1.0
 76
     1
 77
     6
 78
     2
 67
     7
 79
     5
170
     0
171
     0
290
     0
174
     0
 93
       13
 44
0.0
173
     0
291
     1
 45
0.0
  0
VISUALSTYLE
  5
26A
102
{ACAD_REACTORS
330
267
102
}
330
267
100
AcDbVisualStyle
  2
Gouraud
 70
     2
 71
     2
 72
     2
 73
     1
 90
        2
 40
-0.6
 41
30.0
 62
     5
 63
     7
421
 16777215
 74
     0
 91
        4
 64
     7
 65
   257
 75
     1
175
     1
 42
1.0
 92
        0
 66
     7
 43
1.0
 76
     1
 77
     6
 78
     2
 67
     7
 79
     5
170
     0
171
     0
290
     0
174
     0
 93
       13
 44
0.0
173
     0
291
     1
 45
0.0
  0
VISUALSTYLE
  5
26B
102
{ACAD_REACTORS
330
267
102
}
330
267
100
AcDbVisualStyle
  2
GouraudWithEdges
 70
     3
 71
     2
 72
     2
 73
     1
 90
        2
 40
-0.6
 41
30.0
 62
     5
 63
     7
421
 16777215
 74
     1
 91
        4
 64
     7
 65
   257
 75
     1
175
     1
 42
1.0
 92
        0
 66
   257
 43
1.0
 76
     1
 77
     6
 78
     2
 67
     7
 79
     5
170
     0
171
     0
290
     0
174
     0
 93
       13
 44
0.0
173
     0
291
     1
 45
0.0
  0
VISUALSTYLE
  5
8FB
102
{ACAD_REACTORS
330
267
102
}
330
267
100
AcDbVisualStyle
  2
Hidden
 70
     6
 71
     1
 72
     2
 73
     2
 90
        0
 40
0.6
 41
30.0
 62
     5
 63
     7
421
 16777215
 74
     2
 91
        2
 64
     7
 65
   257
 75
     2
175
     1
 42
40.0
 92
        0
 66
   257
 43
1.0
 76
     1
 77
     6
 78
     2
 67
     7
 79
     3
170
     0
171
     0
290
     0
174
     0
 93
        1
 44
0.0
173
     0
291
     0
 45
0.0
  0
VISUALSTYLE
  5
8FC
102
{ACAD_REACTORS
330
267
102
}
330
267
100
AcDbVisualStyle
  2
JitterOff
 70
    20
 71
     2
 72
     2
 73
     0
 90
        0
 40
0.6
 41
30.0
 62
     5
 63
     7
421
 16777215
 74
     1
 91
        4
 64
     7
 65
   257
 75
     1
175
     1
 42
1.0
 92
       10
 66
     7
 43
1.0
 76
     1
 77
     6
 78
     2
 67
     7
 79
     5
170
     0
171
     0
290
     0
174
     0
 93
        1
 44
0.0
173
     0
291
     1
 45
0.0
  0
VISUALSTYLE
  5
275
102
{ACAD_REACTORS
330
267
102
}
330
267
100
AcDbVisualStyle
  2
Linepattern
 70
    14
 71
     2
 72
     2
 73
     0
 90
        0
 40
-0.6
 41
-30.0
 62
     5
 63
     7
421
 16777215
 74
     1
 91
        4
 64
     7
 65
   257
 75
     7
175
     7
 42
1.0
 92
        8
 66
     7
 43
1.0
 76
     1
 77
     6
 78
     2
 67
     7
 79
     5
170
     0
171
     0
290
     0
174
     0
 93
        1
 44
0.0
173
     0
291
     1
 45
0.0
  0
VISUALSTYLE
  5
8FD
102
{ACAD_REACTORS
330
267
102
}
330
267
100
AcDbVisualStyle
  2
OverhangOff
 70
    21
 71
     2
 72
     2
 73
     0
 90
        0
 40
0.6
 41
30.0
 62
     5
 63
     7
421
 16777215
 74
     1
 91
        4
 64
     7
 65
   257
 75
     1
175
     1
 42
1.0
 92
        9
 66
     7
 43
1.0
 76
     1
 77
     6
 78
     2
 67
     7
 79
     5
170
     0
171
     0
290
     0
174
     0
 93
        1
 44
0.0
173
     0
291
     1
 45
0.0
  0
VISUALSTYLE
  5
270
102
{ACAD_REACTORS
330
267
102
}
330
267
100
AcDbVisualStyle
  2
Realistic
 70
     8
 71
     2
 72
     2
 73
     0
 90
        0
 40
-0.6
 41
-30.0
 62
     5
 63
     7
421
 16777215
 74
     1
 91
        0
 64
     7
 65
   257
 75
     1
175
     1
 42
1.0
 92
        8
 66
     8
424
  7895160
 43
1.0
 76
     1
 77
     6
 78
     2
 67
     7
 79
     5
170
     0
171
     0
290
     0
174
     0
 93
       13
 44
0.0
173
     0
291
     0
 45
0.0
  0
VISUALSTYLE
  5
903
102
{ACAD_REACTORS
330
267
102
}
330
267
100
AcDbVisualStyle
  2
Shaded
 70
    27
 71
     2
 72
     2
 73
     1
 90
        2
 40
0.6
 41
30.0
 62
     5
 63
     7
421
 16777215
 74
     0
 91
        4
 64
     7
 65
   257
 75
     1
175
     1
 42
1.0
 92
        8
 66
   257
 43
1.0
 76
     1
 77
     6
 78
     2
 67
     8
425
  7895160
 79
     3
170
     0
171
     0
290
     0
174
     0
 93
        5
 44
0.0
173
     0
291
     0
 45
0.0
  0
VISUALSTYLE
  5
902
102
{ACAD_REACTORS
330
267
102
}
330
267
100
AcDbVisualStyle
  2
Shaded with edges
 70
    26
 71
     2
 72
     2
 73
     1
 90
        2
 40
0.6
 41
30.0
 62
     5
 63
     7
421
 16777215
 74
     1
 91
       10
 64
     7
 65
   257
 75
     2
175
     1
 42
1.0
 92
        8
 66
   257
 43
1.0
 76
     1
 77
     6
 78
     2
 67
     7
 79
     3
170
     0
171
     0
290
     0
174
     0
 93
        5
 44
0.0
173
     0
291
     0
 45
0.0
  0
VISUALSTYLE
  5
8FF
102
{ACAD_REACTORS
330
267
102
}
330
267
100
AcDbVisualStyle
  2
Shades of Gray
 70
    23
 71
     2
 72
     2
 73
     3
 90
        0
 40
0.6
 41
30.0
 62
     5
 63
     7
421
 16777215
 74
     2
 91
        2
 64
     7
 65
     7
 75
     1
175
     1
 42
40.0
 92
        8
 66
     7
 43
1.0
 76
     1
 77
     6
 78
     2
 67
     7
 79
     3
170
     0
171
     0
290
     0
174
     0
 93
        1
 44
0.0
173
     0
291
     0
 45
0.0
  0
VISUALSTYLE
  5
900
102
{ACAD_REACTORS
330
267
102
}
330
267
100
AcDbVisualStyle
  2
Sketchy
 70
    24
 71
     1
 72
     2
 73
     2
 90
        0
 40
0.6
 41
30.0
 62
     5
 63
     7
421
 16777215
 74
     2
 91
        2
 64
     7
 65
     7
 75
     1
175
     1
 42
40.0
 92
       11
 66
     7
 43
1.0
 76
     1
 77
     6
 78
     2
 67
     7
 79
     6
170
     0
171
     0
290
     0
174
     0
 93
        1
 44
0.0
173
     0
291
     0
 45
0.0
  0
VISUALSTYLE
  5
274
102
{ACAD_REACTORS
330
267
102
}
330
267
100
AcDbVisualStyle
  2
Thicken
 70
    13
 71
     2
 72
     2
 73
     0
 90
        0
 40
-0.6
 41
-30.0
 62
     5
 63
     7
421
 16777215
 74
     1
 91
        4
 64
     7
 65
   257
 75
     1
175
     1
 42
1.0
 92
       12
 66
     7
 43
1.0
 76
     1
 77
     6
 78
     2
 67
     7
 79
     5
170
     0
171
     0
290
     0
174
     0
 93
        1
 44
0.0
173
     0
291
     1
 45
0.0
  0
VISUALSTYLE
  5
8FA
102
{ACAD_REACTORS
330
267
102
}
330
267
100
AcDbVisualStyle
  2
Wireframe
 70
     5
 71
     0
 72
     2
 73
     0
 90
        0
 40
0.6
 41
30.0
 62
     5
 63
     7
421
 16777215
 74
     1
 91
        4
 64
     7
 65
   257
 75
     1
175
     1
 42
1.0
 92
        0
 66
   257
 43
1.0
 76
     1
 77
     6
 78
     2
 67
     7
 79
     3
170
     0
171
     0
290
     0
174
     0
 93
        1
 44
0.0
173
     0
291
     0
 45
0.0
  0
VISUALSTYLE
  5
901
102
{ACAD_REACTORS
330
267
102
}
330
267
100
AcDbVisualStyle
  2
X-Ray
 70
    25
 71
     2
 72
     2
 73
     1
 90
        1
 40
0.5
 41
30.0
 62
     5
 63
     7
421
 16777215
 74
     1
 91
        0
 64
     7
 65
   257
 75
     1
175
     1
 42
1.0
 92
        8
 66
     7
 43
1.0
 76
     1
 77
     6
 78
     2
 67
     7
 79
     3
170
     0
171
     0
290
     0
174
     0
 93
       13
 44
0.0
173
     0
291
     0
 45
0.0
  0
DICTIONARYVAR
  5
331
102
{ACAD_REACTORS
330
330
102
}
330
330
100
DictionaryVariables
280
     0
  1
1:1
  0
DICTIONARYVAR
  5
D5E
102
{ACAD_REACTORS
330
330
102
}
330
330
100
DictionaryVariables
280
     0
  1
Standard
  0
DICTIONARYVAR
  5
335
102
{ACAD_REACTORS
330
330
102
}
330
330
100
DictionaryVariables
280
     0
  1
Standard
  0
DICTIONARYVAR
  5
D52
102
{ACAD_REACTORS
330
330
102
}
330
330
100
DictionaryVariables
280
     0
  1
ByLayer
  0
DICTIONARYVAR
  5
896
102
{ACAD_REACTORS
330
330
102
}
330
330
100
DictionaryVariables
280
     0
  1
0
  0
DICTIONARYVAR
  5
246C
102
{ACAD_REACTORS
330
E38
102
}
330
E38
100
DictionaryVariables
280
     0
  1
0.261799
  0
DICTIONARYVAR
  5
246A
102
{ACAD_REACTORS
330
E38
102
}
330
E38
100
DictionaryVariables
280
     0
  1
0.400000
  0
DICTIONARYVAR
  5
246B
102
{ACAD_REACTORS
330
E38
102
}
330
E38
100
DictionaryVariables
280
     0
  1
0.250000
  0
DICTIONARYVAR
  5
246D
102
{ACAD_REACTORS
330
E38
102
}
330
E38
100
DictionaryVariables
280
     0
  1
1
  0
FIELD
  5
3CB6
102
{ACAD_REACTORS
330
94B0
102
}
330
94B0
100
AcDbField
  1
_text
  2
{%<\_FldIdx 0>%N}
 90
        1
360
3CB9
 97
        0
 91
       63
 92
        0
 94
       11
 95
        2
 96
        0
300

 93
        1
  6
ACFD_FIELDTEXT_CHECKSUM
 93
        2
 90
        2
140
4457.0
 94
        0
300

302

304
ACVALUE_END
  7
ACFD_FIELD_VALUE
 93
        6
 90
        4
  1
{20200403N}
 94
        0
300

302

304
ACVALUE_END
301
{20200403N}
 98
       11
  0
DICTIONARY
  5
94DA
330
279
100
AcDbDictionary
280
     1
281
     1
  3
ACAD_ROUNDTRIP_2008_TABLESTYLE_CELLSTYLEMAP
360
94DB
  0
FIELD
  5
3CB9
330
3CB6
100
AcDbField
  1
AcVar
  2
\AcVar CreateDate \f "yyyyMMdd"
 90
        0
 97
        0
 91
       63
 92
        0
 94
       11
 95
        2
 96
        0
300

 93
        1
  6
Variable
 93
        2
 90
        4
  1
CreateDate
 94
        0
300

302

304
ACVALUE_END
  7
ACFD_FIELD_VALUE
 93
        6
 90
        8
 92
       16
310
E407040000000300010010001E000000
 94
        0
300
yyyyMMdd
302

304
ACVALUE_END
301
20200403
 98
        8
  0
CELLSTYLEMAP
  5
94DB
102
{ACAD_REACTORS
330
94DA
102
}
330
94DA
100
AcDbCellStyleMap
 90
        3
300
CELLSTYLE
  1
TABLEFORMAT_BEGIN
 90
        5
170
     1
 91
        0
 92
    32768
 62
   257
 93
        1
300
CONTENTFORMAT
  1
CONTENTFORMAT_BEGIN
 90
        0
 91
        0
 92
        4
 93
        0
300

 40
0.0
140
1.0
 94
        5
 62
     0
340
17
144
6.0
309
CONTENTFORMAT_END
171
     1
301
MARGIN
  1
CELLMARGIN_BEGIN
 40
0.06
 40
0.06
 40
0.06
 40
0.06
 40
0.18
 40
0.18
309
CELLMARGIN_END
 94
        6
 95
        1
302
GRIDFORMAT
  1
GRIDFORMAT_BEGIN
 90
        0
 91
        1
 62
     0
 92
       -2
340
0
 93
        0
 40
0.045
309
GRIDFORMAT_END
 95
        2
302
GRIDFORMAT
  1
GRIDFORMAT_BEGIN
 90
        0
 91
        1
 62
     0
 92
       -2
340
0
 93
        0
 40
0.045
309
GRIDFORMAT_END
 95
        4
302
GRIDFORMAT
  1
GRIDFORMAT_BEGIN
 90
        0
 91
        1
 62
     0
 92
       -2
340
0
 93
        0
 40
0.045
309
GRIDFORMAT_END
 95
        8
302
GRIDFORMAT
  1
GRIDFORMAT_BEGIN
 90
        0
 91
        1
 62
     0
 92
       -2
340
0
 93
        0
 40
0.045
309
GRIDFORMAT_END
 95
       16
302
GRIDFORMAT
  1
GRIDFORMAT_BEGIN
 90
        0
 91
        1
 62
     0
 92
       -2
340
0
 93
        0
 40
0.045
309
GRIDFORMAT_END
 95
       32
302
GRIDFORMAT
  1
GRIDFORMAT_BEGIN
 90
        0
 91
        1
 62
     0
 92
       -2
340
0
 93
        0
 40
0.045
309
GRIDFORMAT_END
309
TABLEFORMAT_END
  1
CELLSTYLE_BEGIN
 90
        1
 91
        1
300
_TITLE
309
CELLSTYLE_END
300
CELLSTYLE
  1
TABLEFORMAT_BEGIN
 90
        5
170
     1
 91
        0
 92
        0
 62
   257
 93
        1
300
CONTENTFORMAT
  1
CONTENTFORMAT_BEGIN
 90
        0
 91
        0
 92
        4
 93
        0
300

 40
0.0
140
1.0
 94
        5
 62
     0
340
17
144
4.5
309
CONTENTFORMAT_END
171
     1
301
MARGIN
  1
CELLMARGIN_BEGIN
 40
0.06
 40
0.06
 40
0.06
 40
0.06
 40
0.18
 40
0.18
309
CELLMARGIN_END
 94
        6
 95
        1
302
GRIDFORMAT
  1
GRIDFORMAT_BEGIN
 90
        0
 91
        1
 62
     0
 92
       -2
340
0
 93
        0
 40
0.045
309
GRIDFORMAT_END
 95
        2
302
GRIDFORMAT
  1
GRIDFORMAT_BEGIN
 90
        0
 91
        1
 62
     0
 92
       -2
340
0
 93
        0
 40
0.045
309
GRIDFORMAT_END
 95
        4
302
GRIDFORMAT
  1
GRIDFORMAT_BEGIN
 90
        0
 91
        1
 62
     0
 92
       -2
340
0
 93
        0
 40
0.045
309
GRIDFORMAT_END
 95
        8
302
GRIDFORMAT
  1
GRIDFORMAT_BEGIN
 90
        0
 91
        1
 62
     0
 92
       -2
340
0
 93
        0
 40
0.045
309
GRIDFORMAT_END
 95
       16
302
GRIDFORMAT
  1
GRIDFORMAT_BEGIN
 90
        0
 91
        1
 62
     0
 92
       -2
340
0
 93
        0
 40
0.045
309
GRIDFORMAT_END
 95
       32
302
GRIDFORMAT
  1
GRIDFORMAT_BEGIN
 90
        0
 91
        1
 62
     0
 92
       -2
340
0
 93
        0
 40
0.045
309
GRIDFORMAT_END
309
TABLEFORMAT_END
  1
CELLSTYLE_BEGIN
 90
        2
 91
        1
300
_HEADER
309
CELLSTYLE_END
300
CELLSTYLE
  1
TABLEFORMAT_BEGIN
 90
        5
170
     1
 91
        0
 92
        0
 62
   257
 93
        1
300
CONTENTFORMAT
  1
CONTENTFORMAT_BEGIN
 90
        0
 91
        0
 92
        4
 93
        0
300

 40
0.0
140
1.0
 94
        2
 62
     0
340
17
144
4.5
309
CONTENTFORMAT_END
171
     1
301
MARGIN
  1
CELLMARGIN_BEGIN
 40
0.06
 40
0.06
 40
0.06
 40
0.06
 40
0.18
 40
0.18
309
CELLMARGIN_END
 94
        6
 95
        1
302
GRIDFORMAT
  1
GRIDFORMAT_BEGIN
 90
        0
 91
        1
 62
     0
 92
       -2
340
0
 93
        0
 40
0.045
309
GRIDFORMAT_END
 95
        2
302
GRIDFORMAT
  1
GRIDFORMAT_BEGIN
 90
        0
 91
        1
 62
     0
 92
       -2
340
0
 93
        0
 40
0.045
309
GRIDFORMAT_END
 95
        4
302
GRIDFORMAT
  1
GRIDFORMAT_BEGIN
 90
        0
 91
        1
 62
     0
 92
       -2
340
0
 93
        0
 40
0.045
309
GRIDFORMAT_END
 95
        8
302
GRIDFORMAT
  1
GRIDFORMAT_BEGIN
 90
        0
 91
        1
 62
     0
 92
       -2
340
0
 93
        0
 40
0.045
309
GRIDFORMAT_END
 95
       16
302
GRIDFORMAT
  1
GRIDFORMAT_BEGIN
 90
        0
 91
        1
 62
     0
 92
       -2
340
0
 93
        0
 40
0.045
309
GRIDFORMAT_END
 95
       32
302
GRIDFORMAT
  1
GRIDFORMAT_BEGIN
 90
        0
 91
        1
 62
     0
 92
       -2
340
0
 93
        0
 40
0.045
309
GRIDFORMAT_END
309
TABLEFORMAT_END
  1
CELLSTYLE_BEGIN
 90
        3
 91
        2
300
_DATA
309
CELLSTYLE_END
  0
ENDSEC
  0
EOF
