  0
SECTION
  2
HEADER
  9
$ACADVER
  1
AC1021
  9
$ACADMAINTVER
 70
    25
  9
$DWGCODEPAGE
  3
ANSI_932
  9
$LASTSAVEDBY
  1
T-HOWE-PC
  9
$INSBASE
 10
0.0
 20
0.0
 30
0.0
  9
$EXTMIN
 10
0.0
 20
0.0
 30
-0.0000000000000071
  9
$EXTMAX
 10
210.0
 20
297.0
 30
0.0000000000000071
  9
$LIMMIN
 10
0.0
 20
0.0
  9
$LIMMAX
 10
210.0
 20
297.0
  9
$ORTHOMODE
 70
     0
  9
$REGENMODE
 70
     1
  9
$FILLMODE
 70
     1
  9
$QTEXTMODE
 70
     0
  9
$MIRRTEXT
 70
     1
  9
$LTSCALE
 40
0.5
  9
$ATTMODE
 70
     1
  9
$TEXTSIZE
 40
2.5
  9
$TRACEWID
 40
1.0
  9
$TEXTSTYLE
  7
ＭＳ ゴシック
  9
$CLAYER
  8
DIM
  9
$CELTYPE
  6
ByLayer
  9
$CECOLOR
 62
   256
  9
$CELTSCALE
 40
1.0
  9
$DISPSILH
 70
     0
  9
$DIMSCALE
 40
1.0
  9
$DIMASZ
 40
1.0
  9
$DIMEXO
 40
2.0
  9
$DIMDLI
 40
0.9999999999999999
  9
$DIMRND
 40
0.0
  9
$DIMDLE
 40
0.0
  9
$DIMEXE
 40
0.0
  9
$DIMTP
 40
0.0
  9
$DIMTM
 40
0.0
  9
$DIMTXT
 40
3.0
  9
$DIMCEN
 40
0.0
  9
$DIMTSZ
 40
0.0
  9
$DIMTOL
 70
     0
  9
$DIMLIM
 70
     0
  9
$DIMTIH
 70
     0
  9
$DIMTOH
 70
     0
  9
$DIMSE1
 70
     0
  9
$DIMSE2
 70
     0
  9
$DIMTAD
 70
     1
  9
$DIMZIN
 70
    11
  9
$DIMBLK
  1
DOT
  9
$DIMASO
 70
     1
  9
$DIMSHO
 70
     1
  9
$DIMPOST
  1
<>
  9
$DIMAPOST
  1
[]
  9
$DIMALT
 70
     0
  9
$DIMALTD
 70
     1
  9
$DIMALTF
 40
1.0
  9
$DIMLFAC
 40
1.0
  9
$DIMTOFL
 70
     0
  9
$DIMTVP
 40
0.0
  9
$DIMTIX
 70
     1
  9
$DIMSOXD
 70
     0
  9
$DIMSAH
 70
     0
  9
$DIMBLK1
  1

  9
$DIMBLK2
  1

  9
$DIMSTYLE
  2
tfrom線あり
  9
$DIMCLRD
 70
     0
  9
$DIMCLRE
 70
     0
  9
$DIMCLRT
 70
     0
  9
$DIMTFAC
 40
1.0
  9
$DIMGAP
 40
1.0
  9
$DIMJUST
 70
     0
  9
$DIMSD1
 70
     0
  9
$DIMSD2
 70
     0
  9
$DIMTOLJ
 70
     1
  9
$DIMTZIN
 70
    11
  9
$DIMALTZ
 70
    11
  9
$DIMALTTZ
 70
    11
  9
$DIMUPT
 70
     0
  9
$DIMDEC
 70
     0
  9
$DIMTDEC
 70
     1
  9
$DIMALTU
 70
     2
  9
$DIMALTTD
 70
     2
  9
$DIMTXSTY
  7
ＭＳ ゴシック
  9
$DIMAUNIT
 70
     0
  9
$DIMADEC
 70
     2
  9
$DIMALTRND
 40
0.0
  9
$DIMAZIN
 70
     0
  9
$DIMDSEP
 70
    46
  9
$DIMATFIT
 70
     0
  9
$DIMFRAC
 70
     2
  9
$DIMLDRBLK
  1
DOT
  9
$DIMLUNIT
 70
     2
  9
$DIMLWD
 70
    -2
  9
$DIMLWE
 70
    -2
  9
$DIMTMOVE
 70
     0
  9
$DIMFXL
 40
1.0
  9
$DIMFXLON
 70
     0
  9
$DIMJOGANG
 40
0.7853981633974483
  9
$DIMTFILL
 70
     0
  9
$DIMTFILLCLR
 70
     0
  9
$DIMARCSYM
 70
     0
  9
$DIMLTYPE
  6

  9
$DIMLTEX1
  6

  9
$DIMLTEX2
  6

  9
$LUNITS
 70
     2
  9
$LUPREC
 70
     0
  9
$SKETCHINC
 40
0.1
  9
$FILLETRAD
 40
0.0
  9
$AUNITS
 70
     0
  9
$AUPREC
 70
     0
  9
$MENU
  1
acad
  9
$ELEVATION
 40
0.0
  9
$PELEVATION
 40
0.0
  9
$THICKNESS
 40
0.0
  9
$LIMCHECK
 70
     0
  9
$CHAMFERA
 40
0.0
  9
$CHAMFERB
 40
0.0
  9
$CHAMFERC
 40
0.0
  9
$CHAMFERD
 40
0.0
  9
$SKPOLY
 70
     0
  9
$TDCREATE
 40
2447893.375
  9
$TDUCREATE
 40
0.0
  9
$TDUPDATE
 40
2459492.62103412
  9
$TDUUPDATE
 40
2459492.24603412
  9
$TDINDWG
 40
0.0169525347
  9
$TDUSRTIMER
 40
0.0010336343
  9
$USRTIMER
 70
     1
  9
$ANGBASE
 50
0.0
  9
$ANGDIR
 70
     0
  9
$PDMODE
 70
     1
  9
$PDSIZE
 40
-2.0
  9
$PLINEWID
 40
0.0
  9
$SPLFRAME
 70
     0
  9
$SPLINETYPE
 70
     6
  9
$SPLINESEGS
 70
     8
  9
$HANDSEED
  5
556D
  9
$SURFTAB1
 70
     6
  9
$SURFTAB2
 70
     6
  9
$SURFTYPE
 70
     6
  9
$SURFU
 70
     6
  9
$SURFV
 70
     6
  9
$UCSBASE
  2

  9
$UCSNAME
  2

  9
$UCSORG
 10
0.0
 20
0.0
 30
0.0
  9
$UCSXDIR
 10
1.0
 20
0.0
 30
0.0
  9
$UCSYDIR
 10
0.0
 20
1.0
 30
0.0
  9
$UCSORTHOREF
  2

  9
$UCSORTHOVIEW
 70
     0
  9
$UCSORGTOP
 10
0.0
 20
0.0
 30
0.0
  9
$UCSORGBOTTOM
 10
0.0
 20
0.0
 30
0.0
  9
$UCSORGLEFT
 10
0.0
 20
0.0
 30
0.0
  9
$UCSORGRIGHT
 10
0.0
 20
0.0
 30
0.0
  9
$UCSORGFRONT
 10
0.0
 20
0.0
 30
0.0
  9
$UCSORGBACK
 10
0.0
 20
0.0
 30
0.0
  9
$PUCSBASE
  2

  9
$PUCSNAME
  2

  9
$PUCSORG
 10
0.0
 20
0.0
 30
0.0
  9
$PUCSXDIR
 10
1.0
 20
0.0
 30
0.0
  9
$PUCSYDIR
 10
0.0
 20
1.0
 30
0.0
  9
$PUCSORTHOREF
  2

  9
$PUCSORTHOVIEW
 70
     0
  9
$PUCSORGTOP
 10
0.0
 20
0.0
 30
0.0
  9
$PUCSORGBOTTOM
 10
0.0
 20
0.0
 30
0.0
  9
$PUCSORGLEFT
 10
0.0
 20
0.0
 30
0.0
  9
$PUCSORGRIGHT
 10
0.0
 20
0.0
 30
0.0
  9
$PUCSORGFRONT
 10
0.0
 20
0.0
 30
0.0
  9
$PUCSORGBACK
 10
0.0
 20
0.0
 30
0.0
  9
$USERI1
 70
     0
  9
$USERI2
 70
     0
  9
$USERI3
 70
     0
  9
$USERI4
 70
     0
  9
$USERI5
 70
     0
  9
$USERR1
 40
0.0
  9
$USERR2
 40
0.0
  9
$USERR3
 40
0.0
  9
$USERR4
 40
0.0
  9
$USERR5
 40
0.0
  9
$WORLDVIEW
 70
     1
  9
$SHADEDGE
 70
     3
  9
$SHADEDIF
 70
    70
  9
$TILEMODE
 70
     1
  9
$MAXACTVP
 70
    64
  9
$PINSBASE
 10
0.0
 20
0.0
 30
0.0
  9
$PLIMCHECK
 70
     0
  9
$PEXTMIN
 10
0.0
 20
0.0
 30
0.0
  9
$PEXTMAX
 10
0.0
 20
0.0
 30
0.0
  9
$PLIMMIN
 10
-7.5
 20
-20.0
  9
$PLIMMAX
 10
412.5
 20
277.0
  9
$UNITMODE
 70
     0
  9
$VISRETAIN
 70
     0
  9
$PLINEGEN
 70
     1
  9
$PSLTSCALE
 70
     0
  9
$TREEDEPTH
 70
  3020
  9
$CMLSTYLE
  2
Standard
  9
$CMLJUST
 70
     0
  9
$CMLSCALE
 40
1.0
  9
$PROXYGRAPHICS
 70
     0
  9
$MEASUREMENT
 70
     1
  9
$CELWEIGHT
370
    -1
  9
$ENDCAPS
280
     0
  9
$JOINSTYLE
280
     0
  9
$LWDISPLAY
290
     1
  9
$INSUNITS
 70
     4
  9
$HYPERLINKBASE
  1

  9
$STYLESHEET
  1

  9
$XEDIT
290
     1
  9
$CEPSNTYPE
380
     0
  9
$PSTYLEMODE
290
     1
  9
$FINGERPRINTGUID
  2

  9
$VERSIONGUID
  2

  9
$EXTNAMES
290
     1
  9
$PSVPSCALE
 40
0.0
  9
$OLESTARTUP
290
     0
  9
$SORTENTS
280
   127
  9
$INDEXCTL
280
     0
  9
$HIDETEXT
280
     1
  9
$XCLIPFRAME
290
     0
  9
$HALOGAP
280
     0
  9
$OBSCOLOR
 70
   257
  9
$OBSLTYPE
280
     0
  9
$INTERSECTIONDISPLAY
280
     0
  9
$INTERSECTIONCOLOR
 70
   257
  9
$DIMASSOC
280
     2
  9
$PROJECTNAME
  1

  9
$CAMERADISPLAY
290
     0
  9
$LENSLENGTH
 40
50.0
  9
$CAMERAHEIGHT
 40
0.0
  9
$STEPSPERSEC
 40
2.0
  9
$STEPSIZE
 40
6.0
  9
$3DDWFPREC
 40
2.0
  9
$PSOLWIDTH
 40
0.25
  9
$PSOLHEIGHT
 40
4.0
  9
$LOFTANG1
 40
1.570796326794897
  9
$LOFTANG2
 40
1.570796326794897
  9
$LOFTMAG1
 40
0.0
  9
$LOFTMAG2
 40
0.0
  9
$LOFTPARAM
 70
     7
  9
$LOFTNORMALS
280
     1
  9
$LATITUDE
 40
37.795
  9
$LONGITUDE
 40
-122.394
  9
$NORTHDIRECTION
 40
0.0
  9
$TIMEZONE
 70
 -8000
  9
$LIGHTGLYPHDISPLAY
280
     1
  9
$TILEMODELIGHTSYNCH
280
     1
  9
$SOLIDHIST
280
     1
  9
$SHOWHIST
280
     1
  9
$DWFFRAME
280
     2
  9
$DGNFRAME
280
     2
  9
$REALWORLDSCALE
290
     1
  9
$INTERFERECOLOR
 62
   256
  9
$CSHADOW
280
     0
  9
$SHADOWPLANELOCATION
 40
0.0
  0
ENDSEC
  0
SECTION
  2
CLASSES
  0
CLASS
  1
LWPOLYLINE
  2
AcDbPolyline
  3
ObjectDBX Classes
 90
        0
 91
        1
280
     0
281
     1
  0
CLASS
  1
IMAGE
  2
AcDbRasterImage
  3
ISM
 90
      127
 91
        4
280
     0
281
     1
  0
CLASS
  1
OLE2FRAME
  2
AcDbOle2Frame
  3
ObjectDBX Classes
 90
        0
 91
        1
280
     0
281
     1
  0
CLASS
  1
HATCH
  2
AcDbHatch
  3
ObjectDBX Classes
 90
        0
 91
        1
280
     0
281
     1
  0
CLASS
  1
DICTIONARYVAR
  2
AcDbDictionaryVar
  3
ObjectDBX Classes
 90
        0
 91
        3
280
     0
281
     0
  0
CLASS
  1
RASTERVARIABLES
  2
AcDbRasterVariables
  3
ISM
 90
        0
 91
        3
280
     0
281
     0
  0
CLASS
  1
IMAGEDEF
  2
AcDbRasterImageDef
  3
ISM
 90
        0
 91
        3
280
     0
281
     0
  0
CLASS
  1
IMAGEDEF_REACTOR
  2
AcDbRasterImageDefReactor
  3
ISM
 90
        1
 91
        3
280
     0
281
     0
  0
CLASS
  1
IDBUFFER
  2
AcDbIdBuffer
  3
ObjectDBX Classes
 90
        0
 91
        3
280
     0
281
     0
  0
CLASS
  1
SPATIAL_FILTER
  2
AcDbSpatialFilter
  3
ObjectDBX Classes
 90
        0
 91
        3
280
     0
281
     0
  0
CLASS
  1
XRECORD
  2
AcDbXrecord
  3
ObjectDBX Classes
 90
        0
 91
        1
280
     0
281
     0
  0
CLASS
  1
SORTENTSTABLE
  2
AcDbSortentsTable
  3
ObjectDBX Classes
 90
        0
 91
        3
280
     0
281
     0
  0
CLASS
  1
LAYER_INDEX
  2
AcDbLayerIndex
  3
ObjectDBX Classes
 90
        0
 91
        3
280
     0
281
     0
  0
CLASS
  1
SPATIAL_INDEX
  2
AcDbSpatialIndex
  3
AutoCAD 2000
 90
        0
 91
        3
280
     0
281
     0
  0
CLASS
  1
OBJECT_PTR
  2
CAseDLPNTableRecord
  3
ASE-LPNTableRecord
 90
        1
 91
        3
280
     0
281
     0
  0
CLASS
  1
LAYOUT
  2
AcDbLayout
  3
ObjectDBX Classes
 90
        0
 91
        1
280
     0
281
     0
  0
CLASS
  1
PLOTSETTINGS
  2
AcDbPlotSettings
  3
ObjectDBX Classes
 90
        0
 91
        3
280
     0
281
     0
  0
CLASS
  1
ACDBDICTIONARYWDFLT
  2
AcDbDictionaryWithDefault
  3
ObjectDBX Classes
 90
        0
 91
        3
280
     0
281
     0
  0
CLASS
  1
ACDBPLACEHOLDER
  2
AcDbPlaceHolder
  3
ObjectDBX Classes
 90
        0
 91
        1
280
     0
281
     0
  0
CLASS
  1
SCALE
  2
AcDbScale
  3
ObjectDBX Classes
 90
     1153
 91
        3
280
     0
281
     0
  0
CLASS
  1
MATERIAL
  2
AcDbMaterial
  3
ObjectDBX Classes
 90
     1153
 91
        3
280
     0
281
     0
  0
CLASS
  1
VISUALSTYLE
  2
AcDbVisualStyle
  3
ObjectDBX Classes
 90
     4095
 91
        3
280
     0
281
     0
  0
CLASS
  1
TABLESTYLE
  2
AcDbTableStyle
  3
ObjectDBX Classes
 90
     4095
 91
        3
280
     0
281
     0
  0
CLASS
  1
DIMASSOC
  2
AcDbDimAssoc
  3
"AcDbDimAssoc|Product Desc:     AcDim ARX App For Dimension|Company:          Autodesk, Inc.|WEB Address:      www.autodesk.com"
 90
        0
 91
        3
280
     0
281
     0
  0
CLASS
  1
CELLSTYLEMAP
  2
AcDbCellStyleMap
  3
ObjectDBX Classes
 90
     1152
 91
        3
280
     0
281
     0
  0
CLASS
  1
SUN
  2
AcDbSun
  3
SCENEOE
 90
     1153
 91
        3
280
     0
281
     0
  0
CLASS
  1
MLEADERSTYLE
  2
AcDbMLeaderStyle
  3
ACDB_MLEADERSTYLE_CLASS
 90
     4095
 91
        3
280
     0
281
     0
  0
CLASS
  1
FIELD
  2
AcDbField
  3
ObjectDBX Classes
 90
     1152
 91
        3
280
     0
281
     0
  0
CLASS
  1
FIELDLIST
  2
AcDbFieldList
  3
ObjectDBX Classes
 90
     1152
 91
        3
280
     0
281
     0
  0
ENDSEC
  0
SECTION
  2
TABLES
  0
TABLE
  2
VPORT
  5
7
330
0
100
AcDbSymbolTable
 70
     1
  0
VPORT
  5
15
330
7
100
AcDbSymbolTableRecord
100
AcDbViewportTableRecord
  2
*ACTIVE
 70
     0
 10
0.0
 20
0.0
 11
1.0
 21
1.0
 12
196.0201356708999
 22
74.90128546983397
 13
0.0
 23
0.0
 14
1.0
 24
1.0
 15
0.0
 25
0.0
 16
0.0
 26
0.0
 36
1.0
 17
-91.02013567089992
 27
73.59871453016603
 37
-46.86809886248109
 40
302.94
 41
2.975336322869955
 42
50.0
 43
0.0
 44
0.0
 50
0.0
 51
0.0
 71
    16
 72
  2000
 73
     1
 74
     1
 75
     0
 76
     0
 77
     0
 78
     0
281
     0
 65
     1
110
0.0
120
0.0
130
0.0
111
1.0
121
0.0
131
0.0
112
0.0
122
1.0
132
0.0
 79
     0
146
0.0
348
26C
 60
     3
 61
     5
292
     1
282
     1
141
0.0
142
0.0
 63
   256
361
904
  0
ENDTAB
  0
TABLE
  2
LTYPE
  5
4
330
0
100
AcDbSymbolTable
 70
     2
  0
LTYPE
  5
11
330
4
100
AcDbSymbolTableRecord
100
AcDbLinetypeTableRecord
  2
ByBlock
 70
     0
  3

 72
    65
 73
     0
 40
0.0
  0
LTYPE
  5
12
330
4
100
AcDbSymbolTableRecord
100
AcDbLinetypeTableRecord
  2
ByLayer
 70
     0
  3

 72
    65
 73
     0
 40
0.0
  0
LTYPE
  5
13
330
4
100
AcDbSymbolTableRecord
100
AcDbLinetypeTableRecord
  2
Continuous
 70
     0
  3
Solid line
 72
    65
 73
     0
 40
0.0
  0
LTYPE
  5
D6C
330
4
100
AcDbSymbolTableRecord
100
AcDbLinetypeTableRecord
  2
BORDER
 70
     0
  3
Border __  __  . __  __  . __  __  . __  __  . 
 72
    65
 73
     6
 40
44.45
 49
12.7
 74
     0
 49
-6.35
 74
     0
 49
12.7
 74
     0
 49
-6.35
 74
     0
 49
0.0
 74
     0
 49
-6.35
 74
     0
  0
ENDTAB
  0
TABLE
  2
LAYER
  5
2
102
{ACAD_XDICTIONARY
360
2E1
102
}
330
0
100
AcDbSymbolTable
 70
     6
  0
LAYER
  5
14
330
2
100
AcDbSymbolTableRecord
100
AcDbLayerTableRecord
  2
0
 70
     0
 62
     7
  6
Continuous
370
    -3
390
1D
347
266
  0
LAYER
  5
4B
330
2
100
AcDbSymbolTableRecord
100
AcDbLayerTableRecord
  2
TEMPLATE
 70
     0
 62
     7
  6
Continuous
370
    20
390
1D
347
266
  0
LAYER
  5
4C
330
2
100
AcDbSymbolTableRecord
100
AcDbLayerTableRecord
  2
DIM
 70
     0
 62
     3
  6
Continuous
370
    13
390
1D
347
266
  0
LAYER
  5
4D
330
2
100
AcDbSymbolTableRecord
100
AcDbLayerTableRecord
  2
MODEL
 70
     0
 62
     7
  6
Continuous
370
    20
390
1D
347
266
  0
LAYER
  5
D6B
330
2
100
AcDbSymbolTableRecord
100
AcDbLayerTableRecord
  2
BORDER
 70
     0
 62
     4
  6
BORDER
290
     0
370
    20
390
1D
347
266
1001
AcAecLayerStandard
1000

1000

  0
LAYER
  5
D8C
330
2
100
AcDbSymbolTableRecord
100
AcDbLayerTableRecord
  2
Defpoints
 70
     0
 62
     7
  6
Continuous
290
     0
370
    -3
390
1D
347
266
  0
ENDTAB
  0
TABLE
  2
STYLE
  5
3
330
0
100
AcDbSymbolTable
 70
     2
  0
STYLE
  5
17
330
3
100
AcDbSymbolTableRecord
100
AcDbTextStyleTableRecord
  2
Standard
 70
     0
 40
0.0
 41
1.0
 50
0.0
 71
     0
 42
2.5
  3
txt
  4
BIGFONT.SHX
  0
STYLE
  5
39
330
3
100
AcDbSymbolTableRecord
100
AcDbTextStyleTableRecord
  2
ＭＳ ゴシック
 70
     0
 40
0.0
 41
1.0
 50
0.0
 71
     0
 42
2.5
  3
msgothic.ttc
  4
ＭＳ ゴシック
1001
ACAD
1000
ＭＳ ゴシック
1071
        0
  0
ENDTAB
  0
TABLE
  2
VIEW
  5
5
330
0
100
AcDbSymbolTable
 70
     0
  0
ENDTAB
  0
TABLE
  2
UCS
  5
6
330
0
100
AcDbSymbolTable
 70
     0
  0
ENDTAB
  0
TABLE
  2
APPID
  5
8
330
0
100
AcDbSymbolTable
 70
     4
  0
APPID
  5
16
330
8
100
AcDbSymbolTableRecord
100
AcDbRegAppTableRecord
  2
ACAD
 70
     0
  0
APPID
  5
7AC
330
8
100
AcDbSymbolTableRecord
100
AcDbRegAppTableRecord
  2
AcAecLayerStandard
 70
     0
  0
APPID
  5
E29
330
8
100
AcDbSymbolTableRecord
100
AcDbRegAppTableRecord
  2
ACAD_MLEADERVER
 70
     0
  0
APPID
  5
555F
330
8
100
AcDbSymbolTableRecord
100
AcDbRegAppTableRecord
  2
PLOTTRANSPARENCY
 70
     0
  0
ENDTAB
  0
TABLE
  2
DIMSTYLE
  5
9
330
0
100
AcDbSymbolTable
 70
     1
100
AcDbDimStyleTable
  0
DIMSTYLE
105
57
102
{ACAD_REACTORS
330
54D1
330
54E0
330
54EF
330
551C
330
54FE
102
}
330
9
100
AcDbSymbolTableRecord
100
AcDbDimStyleTableRecord
  2
tfrom線あり
 70
     0
  3
<>
  4
[]
 41
1.0
 42
2.0
 43
0.9999999999999999
 44
0.0
 73
     0
 74
     0
 77
     1
 78
    11
140
3.0
141
0.0
143
1.0
147
1.0
171
     1
174
     1
178
     0
179
     2
271
     0
272
     1
276
     2
284
    11
285
    11
286
    11
289
     0
340
39
341
4E
342
4E
  0
ENDTAB
  0
TABLE
  2
BLOCK_RECORD
  5
1
330
0
100
AcDbSymbolTable
 70
     7
  0
BLOCK_RECORD
  5
A
102
{ACAD_XDICTIONARY
360
2109
102
}
330
1
100
AcDbSymbolTableRecord
100
AcDbBlockTableRecord
  2
*MODEL_SPACE
340
20
 70
     0
280
     1
281
     0
  0
BLOCK_RECORD
  5
B
330
1
100
AcDbSymbolTableRecord
100
AcDbBlockTableRecord
  2
*PAPER_SPACE
340
21
 70
     0
280
     1
281
     0
  0
BLOCK_RECORD
  5
4E
330
1
100
AcDbSymbolTableRecord
100
AcDbBlockTableRecord
  2
_DOT
340
0
102
{BLKREFS
331
54DA
331
54DB
331
54E9
331
54EA
331
54F8
331
54F9
331
5507
331
5508
331
5523
331
5524
102
}
 70
     0
280
     1
281
     0
  0
BLOCK_RECORD
  5
68D
330
1
100
AcDbSymbolTableRecord
100
AcDbBlockTableRecord
  2
block 2
340
0
102
{BLKREFS
331
68C
331
1343
102
}
 70
     0
280
     1
281
     0
  0
BLOCK_RECORD
  5
54D4
330
1
100
AcDbSymbolTableRecord
100
AcDbBlockTableRecord
  2
*D2
340
0
 70
     0
280
     1
281
     0
  0
BLOCK_RECORD
  5
54E3
330
1
100
AcDbSymbolTableRecord
100
AcDbBlockTableRecord
  2
*D3
340
0
 70
     0
280
     1
281
     0
  0
BLOCK_RECORD
  5
54F2
330
1
100
AcDbSymbolTableRecord
100
AcDbBlockTableRecord
  2
*D4
340
0
 70
     0
280
     1
281
     0
  0
BLOCK_RECORD
  5
5501
330
1
100
AcDbSymbolTableRecord
100
AcDbBlockTableRecord
  2
*D5
340
0
 70
     0
280
     1
281
     0
  0
BLOCK_RECORD
  5
551D
330
1
100
AcDbSymbolTableRecord
100
AcDbBlockTableRecord
  2
*D6
340
0
 70
     0
280
     1
281
     0
  0
ENDTAB
  0
ENDSEC
  0
SECTION
  2
BLOCKS
  0
BLOCK
  5
D
330
A
100
AcDbEntity
  8
0
390
1D
100
AcDbBlockBegin
  2
*MODEL_SPACE
 70
     0
 10
0.0
 20
0.0
 30
0.0
  3
*MODEL_SPACE
  1
*MODEL_SPACE
  0
ENDBLK
  5
E
330
A
100
AcDbEntity
  8
0
390
1D
100
AcDbBlockEnd
  0
BLOCK
  5
F
330
B
100
AcDbEntity
 67
     1
  8
0
390
1D
100
AcDbBlockBegin
  2
*PAPER_SPACE
 70
     0
 10
0.0
 20
0.0
 30
0.0
  3
*PAPER_SPACE
  1
*PAPER_SPACE
  0
ENDBLK
  5
10
330
B
100
AcDbEntity
 67
     1
  8
0
390
1D
100
AcDbBlockEnd
  0
BLOCK
  5
1DF2
330
4E
100
AcDbEntity
  8
0
390
1D
100
AcDbBlockBegin
  2
_DOT
 70
     0
 10
0.0
 20
0.0
 30
0.0
  3
_DOT
  1
_DOT
  0
POLYLINE
  5
1DF4
330
4E
100
AcDbEntity
  8
0
  6
ByBlock
 62
     0
370
    -2
390
1D
100
AcDb2dPolyline
 66
     1
 10
0.0
 20
0.0
 30
0.0
 70
     1
 40
0.5
 41
0.5
  0
VERTEX
  5
1DF5
330
1DF4
100
AcDbEntity
  8
0
  6
ByBlock
 62
     0
370
    -2
390
1D
100
AcDbVertex
100
AcDb2dVertex
 10
-0.25
 20
0.0
 30
0.0
 42
1.0
  0
VERTEX
  5
1DF6
330
1DF4
100
AcDbEntity
  8
0
  6
ByBlock
 62
     0
370
    -2
390
1D
100
AcDbVertex
100
AcDb2dVertex
 10
0.25
 20
0.0
 30
0.0
 42
1.0
  0
SEQEND
  5
1DF7
330
1DF4
100
AcDbEntity
  8
0
390
1D
  0
LINE
  5
1DF8
330
4E
100
AcDbEntity
  8
0
  6
ByBlock
 62
     0
370
    -2
390
1D
100
AcDbLine
 10
-0.5
 20
0.0
 30
0.0
 11
-1.0
 21
0.0
 31
0.0
  0
ENDBLK
  5
1DF9
330
4E
100
AcDbEntity
  8
0
390
1D
100
AcDbBlockEnd
  0
BLOCK
  5
68E
330
68D
100
AcDbEntity
  8
0
100
AcDbBlockBegin
  2
block 2
 70
     0
 10
0.0
 20
0.0
 30
0.0
  3
block 2
  1
block 2
  0
ENDBLK
  5
6B0
330
68D
100
AcDbEntity
  8
0
100
AcDbBlockEnd
  0
BLOCK
  5
54D5
330
54D4
100
AcDbEntity
  8
0
100
AcDbBlockBegin
  2
*D2
 70
     1
 10
0.0
 20
0.0
 30
0.0
  3
*D2
  1

  0
LINE
  5
54D7
330
54D4
100
AcDbEntity
  8
DIM
 62
     0
370
    -2
100
AcDbLine
 10
115.1999633919915
 20
205.0742357158464
 30
0.0
 11
115.1999633919915
 21
219.5760276358909
 31
0.0
  0
LINE
  5
54D8
330
54D4
100
AcDbEntity
  8
DIM
 62
     0
370
    -2
100
AcDbLine
 10
178.1898358183266
 20
206.2038248951633
 30
0.0
 11
178.1898358183266
 21
219.5760276358909
 31
0.0
  0
LINE
  5
54D9
330
54D4
100
AcDbEntity
  8
DIM
 62
     0
370
    -2
100
AcDbLine
 10
116.1999633919915
 20
219.5760276358909
 30
0.0
 11
177.1898358183266
 21
219.5760276358909
 31
0.0
  0
INSERT
  5
54DA
330
54D4
100
AcDbEntity
  8
DIM
 62
     0
370
    -2
100
AcDbBlockReference
  2
_DOT
 10
115.1999633919915
 20
219.5760276358909
 30
0.0
 50
180.0
  0
INSERT
  5
54DB
330
54D4
100
AcDbEntity
  8
DIM
 62
     0
370
    -2
100
AcDbBlockReference
  2
_DOT
 10
178.1898358183266
 20
219.5760276358909
 30
0.0
  0
MTEXT
  5
54DC
330
54D4
100
AcDbEntity
  8
DIM
 62
     0
100
AcDbMText
 10
146.6388095962443
 20
222.0765903469075
 30
0.0
 40
3.0
 41
0.0
 46
0.0
 71
     5
 72
     1
  1
\A1;%%c63
  7
ＭＳ ゴシック
 73
     1
 44
1.0
  0
POINT
  5
54DD
330
54D4
100
AcDbEntity
  8
Defpoints
 62
     0
100
AcDbPoint
 10
115.1999633919915
 20
203.0742357158464
 30
0.0
  0
POINT
  5
54DE
330
54D4
100
AcDbEntity
  8
Defpoints
 62
     0
100
AcDbPoint
 10
178.1898358183266
 20
204.2038248951633
 30
0.0
  0
POINT
  5
54DF
330
54D4
100
AcDbEntity
  8
Defpoints
 62
     0
100
AcDbPoint
 10
178.1898358183266
 20
219.5760276358909
 30
0.0
  0
ENDBLK
  5
54D6
330
54D4
100
AcDbEntity
  8
0
100
AcDbBlockEnd
  0
BLOCK
  5
54E4
330
54E3
100
AcDbEntity
  8
0
100
AcDbBlockBegin
  2
*D3
 70
     1
 10
0.0
 20
0.0
 30
0.0
  3
*D3
  1

  0
LINE
  5
54E6
330
54E3
100
AcDbEntity
  8
DIM
 62
     0
370
    -2
100
AcDbLine
 10
111.5637946539263
 20
203.9093333094827
 30
0.0
 11
101.9303193780935
 21
203.9093333094827
 31
0.0
  0
LINE
  5
54E7
330
54E3
100
AcDbEntity
  8
DIM
 62
     0
370
    -2
100
AcDbLine
 10
115.6703511814165
 20
169.7461936475436
 30
0.0
 11
101.9303193780935
 21
169.7461936475436
 31
0.0
  0
LINE
  5
54E8
330
54E3
100
AcDbEntity
  8
DIM
 62
     0
370
    -2
100
AcDbLine
 10
101.9303193780935
 20
202.9093333094827
 30
0.0
 11
101.9303193780935
 21
170.7461936475436
 31
0.0
  0
INSERT
  5
54E9
330
54E3
100
AcDbEntity
  8
DIM
 62
     0
370
    -2
100
AcDbBlockReference
  2
_DOT
 10
101.9303193780935
 20
203.9093333094827
 30
0.0
 50
90.0
  0
INSERT
  5
54EA
330
54E3
100
AcDbEntity
  8
DIM
 62
     0
370
    -2
100
AcDbBlockReference
  2
_DOT
 10
101.9303193780935
 20
169.7461936475436
 30
0.0
 50
270.0
  0
MTEXT
  5
54EB
330
54E3
100
AcDbEntity
  8
DIM
 62
     0
100
AcDbMText
 10
99.4297566670769
 20
187.1080578005566
 30
0.0
 40
3.0
 41
0.0
 46
0.0
 71
     5
 72
     1
  1
\A1;30-50
  7
ＭＳ ゴシック
 11
0.0
 21
1.0
 31
0.0
 73
     1
 44
1.0
  0
POINT
  5
54EC
330
54E3
100
AcDbEntity
  8
Defpoints
 62
     0
100
AcDbPoint
 10
113.5637946539263
 20
203.9093333094827
 30
0.0
  0
POINT
  5
54ED
330
54E3
100
AcDbEntity
  8
Defpoints
 62
     0
100
AcDbPoint
 10
117.6703511814165
 20
169.7461936475436
 30
0.0
  0
POINT
  5
54EE
330
54E3
100
AcDbEntity
  8
Defpoints
 62
     0
100
AcDbPoint
 10
101.9303193780935
 20
169.7461936475436
 30
0.0
  0
ENDBLK
  5
54E5
330
54E3
100
AcDbEntity
  8
0
100
AcDbBlockEnd
  0
BLOCK
  5
54F3
330
54F2
100
AcDbEntity
  8
0
100
AcDbBlockBegin
  2
*D4
 70
     1
 10
0.0
 20
0.0
 30
0.0
  3
*D4
  1

  0
LINE
  5
54F5
330
54F2
100
AcDbEntity
  8
DIM
 62
     0
370
    -2
100
AcDbLine
 10
30.15204082540656
 20
135.8991732036329
 30
0.0
 11
30.15204082540656
 21
92.3098287451939
 31
0.0
  0
LINE
  5
54F6
330
54F2
100
AcDbEntity
  8
DIM
 62
     0
370
    -2
100
AcDbLine
 10
146.6957361148288
 20
101.3128032821281
 30
0.0
 11
146.6957361148288
 21
92.3098287451939
 31
0.0
  0
LINE
  5
54F7
330
54F2
100
AcDbEntity
  8
DIM
 62
     0
370
    -2
100
AcDbLine
 10
31.15204082540656
 20
92.3098287451939
 30
0.0
 11
145.6957361148288
 21
92.3098287451939
 31
0.0
  0
INSERT
  5
54F8
330
54F2
100
AcDbEntity
  8
DIM
 62
     0
370
    -2
100
AcDbBlockReference
  2
_DOT
 10
30.15204082540656
 20
92.3098287451939
 30
0.0
 50
180.0
  0
INSERT
  5
54F9
330
54F2
100
AcDbEntity
  8
DIM
 62
     0
370
    -2
100
AcDbBlockReference
  2
_DOT
 10
146.6957361148288
 20
92.3098287451939
 30
0.0
  0
MTEXT
  5
54FA
330
54F2
100
AcDbEntity
  8
DIM
 62
     0
100
AcDbMText
 10
88.4238884701177
 20
94.81039145621052
 30
0.0
 40
3.0
 41
0.0
 46
0.0
 71
     5
 72
     1
  1
\A1;205
  7
ＭＳ ゴシック
 73
     1
 44
1.0
  0
POINT
  5
54FB
330
54F2
100
AcDbEntity
  8
Defpoints
 62
     0
100
AcDbPoint
 10
30.15204082540656
 20
137.8991732036329
 30
0.0
  0
POINT
  5
54FC
330
54F2
100
AcDbEntity
  8
Defpoints
 62
     0
100
AcDbPoint
 10
146.6957361148288
 20
103.3128032821281
 30
0.0
  0
POINT
  5
54FD
330
54F2
100
AcDbEntity
  8
Defpoints
 62
     0
100
AcDbPoint
 10
146.6957361148288
 20
92.3098287451939
 30
0.0
  0
ENDBLK
  5
54F4
330
54F2
100
AcDbEntity
  8
0
100
AcDbBlockEnd
  0
BLOCK
  5
5502
330
5501
100
AcDbEntity
  8
0
100
AcDbBlockBegin
  2
*D5
 70
     1
 10
0.0
 20
0.0
 30
0.0
  3
*D5
  1

  0
LINE
  5
5504
330
5501
100
AcDbEntity
  8
DIM
 62
     0
370
    -2
100
AcDbLine
 10
126.2063617091275
 20
115.5933134277847
 30
0.0
 11
126.2063617091275
 21
105.5596244784068
 31
0.0
  0
LINE
  5
5505
330
5501
100
AcDbEntity
  8
DIM
 62
     0
370
    -2
100
AcDbLine
 10
167.2064701266295
 20
115.5933134277847
 30
0.0
 11
167.2064701266295
 21
105.5596244784068
 31
0.0
  0
LINE
  5
5506
330
5501
100
AcDbEntity
  8
DIM
 62
     0
370
    -2
100
AcDbLine
 10
127.2063617091275
 20
105.5596244784068
 30
0.0
 11
166.2064701266295
 21
105.5596244784068
 31
0.0
  0
INSERT
  5
5507
330
5501
100
AcDbEntity
  8
DIM
 62
     0
370
    -2
100
AcDbBlockReference
  2
_DOT
 10
126.2063617091275
 20
105.5596244784068
 30
0.0
 50
180.0
  0
INSERT
  5
5508
330
5501
100
AcDbEntity
  8
DIM
 62
     0
370
    -2
100
AcDbBlockReference
  2
_DOT
 10
167.2064701266295
 20
105.5596244784068
 30
0.0
  0
MTEXT
  5
5509
330
5501
100
AcDbEntity
  8
DIM
 62
     0
100
AcDbMText
 10
146.7064159178785
 20
108.37980704687
 30
0.0
 40
3.0
 41
0.0
 46
0.0
 71
     5
 72
     1
  1
\A1;G1 1/4"
  7
ＭＳ ゴシック
 73
     1
 44
1.0
  0
POINT
  5
550A
330
5501
100
AcDbEntity
  8
Defpoints
 62
     0
100
AcDbPoint
 10
126.2063617091275
 20
117.5933134277847
 30
0.0
  0
POINT
  5
550B
330
5501
100
AcDbEntity
  8
Defpoints
 62
     0
100
AcDbPoint
 10
167.2064701266295
 20
117.5933134277847
 30
0.0
  0
POINT
  5
550C
330
5501
100
AcDbEntity
  8
Defpoints
 62
     0
100
AcDbPoint
 10
167.2064701266295
 20
105.5596244784068
 30
0.0
  0
ENDBLK
  5
5503
330
5501
100
AcDbEntity
  8
0
100
AcDbBlockEnd
  0
BLOCK
  5
551E
330
551D
100
AcDbEntity
  8
0
100
AcDbBlockBegin
  2
*D6
 70
     1
 10
0.0
 20
0.0
 30
0.0
  3
*D6
  1

  0
LINE
  5
5520
330
551D
100
AcDbEntity
  8
DIM
 62
     0
370
    -2
100
AcDbLine
 10
169.2064701266295
 20
129.2545816591167
 30
0.0
 11
182.8829075757503
 21
129.2545816591167
 31
0.0
  0
LINE
  5
5521
330
551D
100
AcDbEntity
  8
DIM
 62
     0
370
    -2
100
AcDbLine
 10
169.2064701266295
 20
118.2545816591167
 30
0.0
 11
182.8829075757503
 21
118.2545816591167
 31
0.0
  0
LINE
  5
5522
330
551D
100
AcDbEntity
  8
DIM
 62
     0
370
    -2
100
AcDbLine
 10
182.8829075757503
 20
128.2545816591167
 30
0.0
 11
182.8829075757503
 21
119.2545816591167
 31
0.0
  0
INSERT
  5
5523
330
551D
100
AcDbEntity
  8
DIM
 62
     0
370
    -2
100
AcDbBlockReference
  2
_DOT
 10
182.8829075757503
 20
129.2545816591167
 30
0.0
 50
90.0
  0
INSERT
  5
5524
330
551D
100
AcDbEntity
  8
DIM
 62
     0
370
    -2
100
AcDbBlockReference
  2
_DOT
 10
182.8829075757503
 20
118.2545816591167
 30
0.0
 50
270.0
  0
MTEXT
  5
5525
330
551D
100
AcDbEntity
  8
DIM
 62
     0
100
AcDbMText
 10
180.3823448647337
 20
123.7545816591167
 30
0.0
 40
3.0
 41
0.0
 46
0.0
 71
     5
 72
     1
  1
\A1;11
  7
ＭＳ ゴシック
 11
0.0
 21
1.0
 31
0.0
 73
     1
 44
1.0
  0
POINT
  5
5526
330
551D
100
AcDbEntity
  8
Defpoints
 62
     0
100
AcDbPoint
 10
167.2064701266295
 20
129.2545816591167
 30
0.0
  0
POINT
  5
5527
330
551D
100
AcDbEntity
  8
Defpoints
 62
     0
100
AcDbPoint
 10
167.2064701266295
 20
118.2545816591167
 30
0.0
  0
POINT
  5
5528
330
551D
100
AcDbEntity
  8
Defpoints
 62
     0
100
AcDbPoint
 10
182.8829075757503
 20
118.2545816591167
 30
0.0
  0
ENDBLK
  5
551F
330
551D
100
AcDbEntity
  8
0
100
AcDbBlockEnd
  0
ENDSEC
  0
SECTION
  2
ENTITIES
  0
MTEXT
  5
177
330
A
100
AcDbEntity
  8
TEMPLATE
390
1D
100
AcDbMText
 10
7.920214454773076
 20
34.37317516314283
 30
0.0
 40
1.628841145833333
 41
0.0
 46
0.0
 71
     1
 72
     1
  1
品名
  7
ＭＳ ゴシック
 73
     1
 44
0.7828267384257843
  0
MTEXT
  5
178
330
A
100
AcDbEntity
  8
TEMPLATE
390
1D
100
AcDbMText
 10
7.920214454773076
 20
25.8731751631428
 30
0.0
 40
1.628841145833333
 41
0.0
 46
0.0
 71
     1
 72
     1
  1
仕様
  7
ＭＳ ゴシック
 73
     1
 44
0.7828267384257843
  0
LINE
  5
179
330
A
100
AcDbEntity
  8
TEMPLATE
390
1D
100
AcDbLine
 10
202.2202144547248
 20
26.71466735064284
 30
0.0
 11
7.220214454724874
 21
26.71466735064284
 31
0.0
  0
LWPOLYLINE
  5
17A
330
A
100
AcDbEntity
  8
TEMPLATE
390
1D
100
AcDbPolyline
 90
        5
 70
   128
 43
0.0
 10
202.2202144547248
 20
289.7146673506426
 10
7.220214454724874
 20
289.7146673506426
 10
7.220214454724874
 20
9.714667350642827
 10
202.2202144547248
 20
9.714667350642827
 10
202.2202144547248
 20
289.7146673506426
  0
LINE
  5
17B
330
A
100
AcDbEntity
  8
TEMPLATE
390
1D
100
AcDbLine
 10
202.2202144547248
 20
35.21466735064282
 30
0.0
 11
7.220214454724874
 21
35.21466735064282
 31
0.0
  0
LINE
  5
17C
330
A
100
AcDbEntity
  8
TEMPLATE
390
1D
100
AcDbLine
 10
202.2202144547732
 20
18.21466735064282
 30
0.0
 11
126.920214454773
 21
18.21466735064282
 31
0.0
  0
MTEXT
  5
17E
330
A
100
AcDbEntity
  8
TEMPLATE
390
1D
100
AcDbMText
 10
129.9073550799991
 20
15.22362790331201
 30
0.0
 40
2.44326171875
 41
0.0
 46
0.0
 71
     1
 72
     1
  1
大洋金物株式会社 ティーフォルム事業部
  7
ＭＳ ゴシック
 73
     1
 44
0.7828267384257843
  0
MTEXT
  5
180
330
A
100
AcDbEntity
  8
TEMPLATE
390
1D
100
AcDbMText
 10
183.120214454799
 20
23.01492906939282
 30
0.0
 40
2.44326171875
 41
0.0
 46
2.44326171875
 71
     1
 72
     1
  1
{1:1}
  7
ＭＳ ゴシック
 73
     1
 44
0.7828267384257843
1001
ACAD
1000
ACAD_MTEXT_DEFINED_HEIGHT_BEGIN
1070
    46
1040
2.44326171875
1000
ACAD_MTEXT_DEFINED_HEIGHT_END
  0
MTEXT
  5
181
330
A
100
AcDbEntity
  8
TEMPLATE
390
1D
100
AcDbMText
 10
177.820214454799
 20
25.8731751631428
 30
0.0
 40
1.628841145833333
 41
0.0
 46
0.0
 71
     1
 72
     1
  1
縮尺
  7
ＭＳ ゴシック
 73
     1
 44
0.7828267384257843
  0
LINE
  5
182
330
A
100
AcDbEntity
  8
TEMPLATE
390
1D
100
AcDbLine
 10
177.120214454799
 20
18.21466735064282
 30
0.0
 11
177.120214454799
 21
26.71466735064284
 31
0.0
  0
MTEXT
  5
183
330
A
100
AcDbEntity
  8
TEMPLATE
390
1D
100
AcDbMText
 10
152.720214454799
 20
25.8731751631428
 30
0.0
 40
1.628841145833333
 41
0.0
 46
0.0
 71
     1
 72
     1
  1
容量
  7
ＭＳ ゴシック
 73
     1
 44
0.7828267384257843
  0
LINE
  5
184
330
A
100
AcDbEntity
  8
TEMPLATE
390
1D
100
AcDbLine
 10
152.020214454799
 20
18.21466735064282
 30
0.0
 11
152.020214454799
 21
26.71466735064284
 31
0.0
  0
MTEXT
  5
185
330
A
100
AcDbEntity
  8
TEMPLATE
390
1D
100
AcDbMText
 10
127.620214454799
 20
34.37317516314283
 30
0.0
 40
1.628841145833333
 41
0.0
 46
0.0
 71
     1
 72
     1
  1
品番
  7
ＭＳ ゴシック
 73
     1
 44
0.7828267384257843
  0
MTEXT
  5
186
330
A
100
AcDbEntity
  8
TEMPLATE
390
1D
100
AcDbMText
 10
127.620214454799
 20
25.8731751631428
 30
0.0
 40
1.628841145833333
 41
0.0
 46
0.0
 71
     1
 72
     1
  1
重量
  7
ＭＳ ゴシック
 73
     1
 44
0.7828267384257843
  0
LINE
  5
188
330
A
100
AcDbEntity
  8
TEMPLATE
390
1D
100
AcDbLine
 10
126.920214454799
 20
9.714667350642827
 30
0.0
 11
126.920214454799
 21
35.21466735064282
 31
0.0
  0
INSERT
  5
68C
330
A
100
AcDbEntity
  8
TEMPLATE
100
AcDbBlockReference
  2
block 2
 10
183.8548603540515
 20
1.674615302867274
 30
0.0
 41
0.0762
 42
0.0762
 43
0.0762
  0
LWPOLYLINE
  5
D69
330
A
100
AcDbEntity
  8
BORDER
100
AcDbPolyline
 90
        4
 70
     1
 43
0.0
 10
0.0
 20
0.0
 10
0.0
 20
297.0
 10
210.0
 20
297.0
 10
210.0
 20
0.0
  0
INSERT
  5
1343
330
A
100
AcDbEntity
  8
TEMPLATE
100
AcDbBlockReference
  2
block 2
 10
419.3486941732937
 20
4.887064282459138
 30
0.0
 41
0.0762
 42
0.0762
 43
0.0762
  0
MTEXT
  5
1EAB
102
{ACAD_XDICTIONARY
360
1EAC
102
}
330
A
100
AcDbEntity
  8
TEMPLATE
100
AcDbMText
 10
7.472865654857031
 20
8.386172105142833
 30
0.0
 40
2.2
 41
0.0
 46
2.2
 71
     1
 72
     1
  1
{20211004N}
  7
ＭＳ ゴシック
 73
     1
 44
1.0
1001
ACAD
1000
ACAD_MTEXT_DEFINED_HEIGHT_BEGIN
1070
    46
1040
2.2
1000
ACAD_MTEXT_DEFINED_HEIGHT_END
  0
MTEXT
  5
1EB1
330
A
100
AcDbEntity
  8
TEMPLATE
390
1D
100
AcDbMText
 10
13.22021445477307
 20
31.51492906939281
 30
0.0
 40
2.44326171875
 41
0.0
 46
2.74091680559409
 71
     1
 72
     1
  1
{ポップアップ排水金具　-RITMONIO-}
  7
ＭＳ ゴシック
 73
     1
 44
0.7828267384257843
1001
ACAD
1000
ACAD_MTEXT_DEFINED_HEIGHT_BEGIN
1070
    46
1040
2.74091680559409
1000
ACAD_MTEXT_DEFINED_HEIGHT_END
  0
MTEXT
  5
1EB2
330
A
100
AcDbEntity
  8
TEMPLATE
390
1D
100
AcDbMText
 10
132.920214454799
 20
31.51492906939281
 30
0.0
 40
2.44326171875
 41
0.0
 46
2.44326171875
 71
     1
 72
     1
  1
{ARN73-9941-081}
  7
ＭＳ ゴシック
 73
     1
 44
0.7828267384257843
1001
ACAD
1000
ACAD_MTEXT_DEFINED_HEIGHT_BEGIN
1070
    46
1040
2.44326171875
1000
ACAD_MTEXT_DEFINED_HEIGHT_END
  0
HATCH
  5
2071
102
{ACAD_REACTORS
330
20A3
102
}
330
A
100
AcDbEntity
  8
TEMPLATE
100
AcDbHatch
 10
0.0
 20
0.0
 30
0.0
210
0.0
220
0.0
230
1.0
  2
SOLID
 70
     1
 71
     1
 91
        6
 92
        1
 93
        8
 72
     1
 10
193.3992346462619
 20
15.33324928988617
 11
193.3992346462619
 21
14.74230852682012
 72
     1
 10
193.3992346462619
 20
14.74230852682012
 11
192.4631754912307
 21
14.74230852682012
 72
     1
 10
192.4631754912307
 20
14.74230852682012
 11
192.4631754912307
 21
12.33324929003077
 72
     1
 10
192.4631754912307
 20
12.33324929003077
 11
191.6399141759031
 21
12.33324929003077
 72
     1
 10
191.6399141759031
 20
12.33324929003077
 11
191.6399141759031
 21
14.74230852682012
 72
     1
 10
191.6399141759031
 20
14.74230852682012
 11
190.7204440324488
 21
14.74230852682012
 72
     1
 10
190.7204440324488
 20
14.74230852682012
 11
190.7204440324488
 21
15.33324928988617
 72
     1
 10
190.7204440324488
 20
15.33324928988617
 11
193.3992346462619
 21
15.33324928988617
 97
        1
330
2072
 92
        1
 93
        1
 72
     4
 94
        3
 73
     0
 74
     1
 95
       56
 96
       52
 40
0.0
 40
0.0
 40
0.0
 40
0.0
 40
1.0
 40
1.0
 40
1.0
 40
2.0
 40
2.0
 40
2.0
 40
3.0
 40
3.0
 40
3.0
 40
4.0
 40
4.0
 40
4.0
 40
5.0
 40
5.0
 40
5.0
 40
6.0
 40
6.0
 40
6.0
 40
7.0
 40
7.0
 40
7.0
 40
8.0
 40
8.0
 40
8.0
 40
9.0
 40
9.0
 40
9.0
 40
10.0
 40
10.0
 40
10.0
 40
11.0
 40
11.0
 40
11.0
 40
12.0
 40
12.0
 40
12.0
 40
13.0
 40
13.0
 40
13.0
 40
14.0
 40
14.0
 40
14.0
 40
15.0
 40
15.0
 40
15.0
 40
16.0
 40
16.0
 40
16.0
 40
17.0
 40
17.0
 40
17.0
 40
17.0
 10
194.6534531896912
 20
15.26181239384494
 10
194.768839807883
 20
15.29429114924596
 10
194.9177987172164
 20
15.26712385315697
 10
194.9177987172164
 20
15.26712385315697
 10
194.9177987172164
 20
15.26712385315697
 10
194.8462353578582
 20
15.05236682391462
 10
194.8462353578582
 20
15.05236682391462
 10
194.8462353578582
 20
15.05236682391462
 10
194.6999991293486
 20
15.08620691972755
 10
194.5872087286637
 20
14.99726601281628
 10
194.4995622109965
 20
14.92771118849205
 10
194.4427801816846
 20
14.74289620929302
 10
194.420998735094
 20
14.67262723917894
 10
194.420998735094
 20
14.67262723917894
 10
194.3238897857113
 20
14.37456064013906
 10
194.3238897857113
 20
14.37456064013906
 10
194.3238897857113
 20
14.37456064013906
 10
194.6423021007434
 20
14.37456064013906
 10
194.6423021007434
 20
14.37456064013906
 10
194.6423021007434
 20
14.37456064013906
 10
194.5927805536282
 20
14.18696346796705
 10
194.5927805536282
 20
14.18696346796705
 10
194.5927805536282
 20
14.18696346796705
 10
194.2717720210894
 20
14.18696346796705
 10
194.2717720210894
 20
14.18696346796705
 10
194.2717720210894
 20
14.18696346796705
 10
193.6974277086187
 20
12.33324929003077
 10
193.6974277086187
 20
12.33324929003077
 10
193.6974277086187
 20
12.33324929003077
 10
193.51760431093
 20
12.33324929003077
 10
193.51760431093
 20
12.33324929003077
 10
193.51760431093
 20
12.33324929003077
 10
194.0924693547057
 20
14.18696346796705
 10
194.0924693547057
 20
14.18696346796705
 10
194.0924693547057
 20
14.18696346796705
 10
193.8555961230339
 20
14.18696346796705
 10
193.8555961230339
 20
14.18696346796705
 10
193.8555961230339
 20
14.18696346796705
 10
193.9052515724846
 20
14.37456064013906
 10
193.9052515724846
 20
14.37456064013906
 10
193.9052515724846
 20
14.37456064013906
 10
194.1445871193277
 20
14.37456064013906
 10
194.1445871193277
 20
14.37456064013906
 10
194.1445871193277
 20
14.37456064013906
 10
194.2292431514999
 20
14.63450970764554
 10
194.2292431514999
 20
14.63450970764554
 10
194.2976970010647
 20
14.85245063686765
 10
194.3557808586394
 20
14.96945896112388
 10
194.4055702104258
 20
15.05767828322665
 10
194.4548313918883
 20
15.14597199551587
 10
194.5523271702405
 20
15.23270351388978
 10
194.6534531896912
 20
15.26181239384494
 97
        1
330
207D
 92
        1
 93
        1
 72
     4
 94
        3
 73
     0
 74
     1
 95
       32
 96
       28
 40
0.0
 40
0.0
 40
0.0
 40
0.0
 40
1.0
 40
1.0
 40
1.0
 40
2.0
 40
2.0
 40
2.0
 40
3.0
 40
3.0
 40
3.0
 40
4.0
 40
4.0
 40
4.0
 40
5.0
 40
5.0
 40
5.0
 40
6.0
 40
6.0
 40
6.0
 40
7.0
 40
7.0
 40
7.0
 40
8.0
 40
8.0
 40
8.0
 40
9.0
 40
9.0
 40
9.0
 40
9.0
 10
195.0910088273304
 20
14.2611899959999
 10
194.9827562280185
 20
14.12116534805821
 10
194.8993945850904
 20
13.99514837222373
 10
194.7644359088455
 20
13.59907270254517
 10
194.6403605168772
 20
13.23677761653038
 10
194.5614027729866
 20
12.97319830792548
 10
194.5494780260998
 20
12.65218977538657
 10
194.5404024233537
 20
12.41330800868075
 10
194.6858649939244
 20
12.33324929003077
 10
194.8991416584565
 20
12.33324929003077
 10
194.9910581728255
 20
12.33324929003077
 10
195.2230067741548
 20
12.33909635868519
 10
195.388182744133
 20
12.54328254243399
 10
195.5038148499399
 20
12.68673657797071
 10
195.6103862310383
 20
12.8354425606703
 10
195.7532600231207
 20
13.32324876925175
 10
195.8721504190939
 20
13.73105577133237
 10
195.9544705994118
 20
13.99462764091863
 10
195.9483854821607
 20
14.14469496403013
 10
195.9483854821607
 20
14.14469496403013
 10
195.9483854821607
 20
14.14469496403013
 10
195.9483854821607
 20
14.14469496403013
 10
195.9096133169866
 20
14.39504769748547
 10
195.7278483354318
 20
14.4479465590651
 10
195.6239996351573
 20
14.4479465590651
 10
195.5217131287981
 20
14.4479465590651
 10
195.2476299258675
 20
14.46564398441989
 10
195.0910088273304
 20
14.2611899959999
 97
        1
330
2080
 92
        1
 93
        1
 72
     4
 94
        3
 73
     0
 74
     1
 95
       38
 96
       34
 40
0.0
 40
0.0
 40
0.0
 40
0.0
 40
1.0
 40
1.0
 40
1.0
 40
2.0
 40
2.0
 40
2.0
 40
3.0
 40
3.0
 40
3.0
 40
4.0
 40
4.0
 40
4.0
 40
5.0
 40
5.0
 40
5.0
 40
6.0
 40
6.0
 40
6.0
 40
7.0
 40
7.0
 40
7.0
 40
8.0
 40
8.0
 40
8.0
 40
9.0
 40
9.0
 40
9.0
 40
10.0
 40
10.0
 40
10.0
 40
11.0
 40
11.0
 40
11.0
 40
11.0
 10
196.6058310719068
 20
14.36736710911002
 10
196.6058310719068
 20
14.36736710911002
 10
196.790705563255
 20
14.36736710911002
 10
196.790705563255
 20
14.36736710911002
 10
196.790705563255
 20
14.36736710911002
 10
196.708117578266
 20
14.10294719139831
 10
196.708117578266
 20
14.10294719139831
 10
196.7708731395493
 20
14.17717371943115
 10
196.8699162337796
 20
14.27603083819528
 10
196.9549739729585
 20
14.32587970213075
 10
197.0820324114032
 20
14.40010623016359
 10
197.1546372333715
 20
14.40989597869949
 10
197.2344876594995
 20
14.40794695581469
 10
197.2344876594995
 20
14.40794695581469
 10
197.1564523539208
 20
14.1579215391797
 10
197.1564523539208
 20
14.1579215391797
 10
197.1056289785429
 20
14.17944262011767
 10
196.9490078800058
 20
14.1384759444435
 10
196.8591594128199
 20
14.0738457504618
 10
196.7781336217462
 20
14.01556847840234
 10
196.7221178113546
 20
13.96597998011942
 10
196.6557468870101
 20
13.84131690567822
 10
196.5898818159334
 20
13.71646785577089
 10
196.5378979536471
 20
13.51739227783074
 10
196.4484363154307
 20
13.22859469602165
 10
196.4484363154307
 20
13.22859469602165
 10
196.169041653188
 20
12.33324929003077
 10
196.169041653188
 20
12.33324929003077
 10
196.169041653188
 20
12.33324929003077
 10
195.9896125234874
 20
12.33324929003077
 10
195.9896125234874
 20
12.33324929003077
 10
195.9896125234874
 20
12.33324929003077
 10
196.6058310719068
 20
14.36736710911002
 10
196.6058310719068
 20
14.36736710911002
 97
        1
330
207E
 92
        1
 93
        1
 72
     4
 94
        3
 73
     0
 74
     1
 95
      104
 96
      100
 40
0.0
 40
0.0
 40
0.0
 40
0.0
 40
1.0
 40
1.0
 40
1.0
 40
2.0
 40
2.0
 40
2.0
 40
3.0
 40
3.0
 40
3.0
 40
4.0
 40
4.0
 40
4.0
 40
5.0
 40
5.0
 40
5.0
 40
6.0
 40
6.0
 40
6.0
 40
7.0
 40
7.0
 40
7.0
 40
8.0
 40
8.0
 40
8.0
 40
9.0
 40
9.0
 40
9.0
 40
10.0
 40
10.0
 40
10.0
 40
11.0
 40
11.0
 40
11.0
 40
12.0
 40
12.0
 40
12.0
 40
13.0
 40
13.0
 40
13.0
 40
14.0
 40
14.0
 40
14.0
 40
15.0
 40
15.0
 40
15.0
 40
16.0
 40
16.0
 40
16.0
 40
17.0
 40
17.0
 40
17.0
 40
18.0
 40
18.0
 40
18.0
 40
19.0
 40
19.0
 40
19.0
 40
20.0
 40
20.0
 40
20.0
 40
21.0
 40
21.0
 40
21.0
 40
22.0
 40
22.0
 40
22.0
 40
23.0
 40
23.0
 40
23.0
 40
24.0
 40
24.0
 40
24.0
 40
25.0
 40
25.0
 40
25.0
 40
26.0
 40
26.0
 40
26.0
 40
27.0
 40
27.0
 40
27.0
 40
28.0
 40
28.0
 40
28.0
 40
29.0
 40
29.0
 40
29.0
 40
30.0
 40
30.0
 40
30.0
 40
31.0
 40
31.0
 40
31.0
 40
32.0
 40
32.0
 40
32.0
 40
33.0
 40
33.0
 40
33.0
 40
33.0
 10
197.6234441883354
 20
14.36846808386937
 10
197.6234441883354
 20
14.36846808386937
 10
197.7848560148795
 20
14.36846808386937
 10
197.7848560148795
 20
14.36846808386937
 10
197.7848560148795
 20
14.36846808386937
 10
197.7033094925007
 20
14.10379523952376
 10
197.7033094925007
 20
14.10379523952376
 10
197.7740843158826
 20
14.21477051965945
 10
197.8376135351049
 20
14.26423255462542
 10
197.9220166406432
 20
14.32814860281726
 10
198.0066726728153
 20
14.3911570907345
 10
198.1071589366625
 20
14.40399683691456
 10
198.1769071754715
 20
14.40399683691456
 10
198.2632593038946
 20
14.40399683691456
 10
198.3466209468226
 20
14.38694660618182
 10
198.3904367666375
 20
14.29229997197037
 10
198.4240164967979
 20
14.21808088295617
 10
198.4255786907132
 20
14.20932515801183
 10
198.4159823566621
 20
14.06282112483094
 10
198.5037478986276
 20
14.21302235027805
 10
198.568571507094
 20
14.27771949542754
 10
198.6787731292907
 20
14.33987993521932
 10
198.794420113135
 20
14.40399683691456
 10
198.8618325000897
 20
14.40879500394014
 10
198.9401504883769
 20
14.39724964700418
 10
199.05552966755
 20
14.38020685529008
 10
199.1291759521286
 20
14.33903932611252
 10
199.1676803126315
 20
14.21392991055265
 10
199.20631857547
 20
14.08920732396228
 10
199.1854446891541
 20
14.02230822929408
 10
199.1377308235695
 20
13.82375338265902
 10
199.115949376979
 20
13.73332467201888
 10
199.0844376940018
 20
13.62382975659341
 10
199.043210652675
 20
13.4935427840571
 10
199.043210652675
 20
13.4935427840571
 10
198.6787731292907
 20
12.33324929003077
 10
198.6787731292907
 20
12.33324929003077
 10
198.6787731292907
 20
12.33324929003077
 10
198.4892269342339
 20
12.33324929003077
 10
198.4892269342339
 20
12.33324929003077
 10
198.4892269342339
 20
12.33324929003077
 10
198.8083013219253
 20
13.34761899433048
 10
198.8083013219253
 20
13.34761899433048
 10
198.8749400509409
 20
13.55985419625241
 10
198.92005026
 20
13.71484614970644
 10
198.9433939005058
 20
13.81202205025695
 10
198.972688755927
 20
13.93324085906585
 10
198.9843531371613
 20
13.97324046231626
 10
198.9704868064084
 20
14.06146722343768
 10
198.9577809625639
 20
14.14359398927077
 10
198.916286116566
 20
14.19707309430466
 10
198.8452434885129
 20
14.19707309430466
 10
198.7695291567512
 20
14.19707309430466
 10
198.7082018870476
 20
14.18864468618067
 10
198.6223853679669
 20
14.10243389911185
 10
198.536553970849
 20
14.01556847840234
 10
198.4656303670941
 20
13.9136018498449
 10
198.4100162637093
 20
13.79633315993612
 10
198.3545211846229
 20
13.6783503242375
 10
198.2982524475973
 20
13.52880373243109
 10
198.2412100526329
 20
13.34761899433048
 10
198.2412100526329
 20
13.34761899433048
 10
197.9220166406432
 20
12.33324929003077
 10
197.9220166406432
 20
12.33324929003077
 10
197.9220166406432
 20
12.33324929003077
 10
197.7437479978511
 20
12.33324929003077
 10
197.7437479978511
 20
12.33324929003077
 10
197.7437479978511
 20
12.33324929003077
 10
198.1087062525406
 20
13.493022052752
 10
198.1087062525406
 20
13.493022052752
 10
198.1472106130435
 20
13.61645025009826
 10
198.1761335175325
 20
13.7170555382438
 10
198.1951922832992
 20
13.79568596531406
 10
198.2275966485138
 20
13.93103890954714
 10
198.2366722512598
 20
14.02256859494663
 10
198.2121681238455
 20
14.10379523952376
 10
198.1880508254007
 20
14.18476151844834
 10
198.1456632971655
 20
14.2054419902795
 10
198.0748735957463
 20
14.2054419902795
 10
198.0154953489275
 20
14.2054419902795
 10
197.9575453936883
 20
14.17996335142277
 10
197.8914273959778
 20
14.12926643936185
 10
197.8081847773481
 20
14.06548429350561
 10
197.7748728518588
 20
14.01310616323108
 10
197.7340326395017
 20
13.95087133325285
 10
197.6789243893847
 20
13.86854371391636
 10
197.6531258727262
 20
13.81312302501631
 10
197.6065873720875
 20
13.69150994821926
 10
197.5600339934114
 20
13.56918272563237
 10
197.5159652469626
 20
13.426829664855
 10
197.4852272219243
 20
13.32836681407902
 10
197.4852272219243
 20
13.32836681407902
 10
197.172133805223
 20
12.33324929003077
 10
197.172133805223
 20
12.33324929003077
 10
197.172133805223
 20
12.33324929003077
 10
196.9854441933256
 20
12.33324929003077
 10
196.9854441933256
 20
12.33324929003077
 10
196.9854441933256
 20
12.33324929003077
 10
197.6234441883354
 20
14.36846808386937
 10
197.6234441883354
 20
14.36846808386937
 97
        1
330
207F
 92
       16
 93
        1
 72
     4
 94
        3
 73
     0
 74
     1
 95
       29
 96
       25
 40
0.0
 40
0.0
 40
0.0
 40
0.0
 40
1.0
 40
1.0
 40
1.0
 40
2.0
 40
2.0
 40
2.0
 40
3.0
 40
3.0
 40
3.0
 40
4.0
 40
4.0
 40
4.0
 40
5.0
 40
5.0
 40
5.0
 40
6.0
 40
6.0
 40
6.0
 40
7.0
 40
7.0
 40
7.0
 40
8.0
 40
8.0
 40
8.0
 40
8.0
 10
194.7431751935601
 20
12.71220777780879
 10
194.7423866575838
 20
12.85392108298274
 10
194.7871249157106
 20
13.10570210801778
 10
194.9017304369448
 20
13.44258550634363
 10
195.0578308041768
 20
13.89875356863087
 10
195.1514434147967
 20
14.06548429350561
 10
195.2333618881077
 20
14.14664398691494
 10
195.3530408200572
 20
14.26482023709832
 10
195.5139319152962
 20
14.2707119398646
 10
195.5613928542469
 20
14.26482023709832
 10
195.6289391435371
 20
14.25671170677603
 10
195.7243519966689
 20
14.21250161897294
 10
195.7300502849505
 20
14.06366917295639
 10
195.7346029643608
 20
13.93629085671002
 10
195.6978988463698
 20
13.69773640682454
 10
195.5694269943827
 20
13.32324876925175
 10
195.4213607672865
 20
12.88808105659738
 10
195.3324198603752
 20
12.71701338385301
 10
195.2611243056883
 20
12.64245953899982
 10
195.1268053850467
 20
12.50269525671068
 10
194.9827562280185
 20
12.516115246345
 10
194.9614955127331
 20
12.516115246345
 10
194.9338818755254
 20
12.516115246345
 10
194.7435620225296
 20
12.54607961344425
 10
194.7431751935601
 20
12.71220777780879
 97
        1
330
2081
 75
     0
 76
     1
 98
        1
 10
185.8850447185594
 20
7.249468582626761
1001
ACAD
1010
0.0
1020
0.0
1030
0.0
  0
POLYLINE
  5
2072
102
{ACAD_REACTORS
330
2071
330
20A3
102
}
330
A
100
AcDbEntity
  8
TEMPLATE
100
AcDb2dPolyline
 66
     1
 10
0.0
 20
0.0
 30
0.0
  0
VERTEX
  5
2073
330
2072
100
AcDbEntity
  8
TEMPLATE
100
AcDbVertex
100
AcDb2dVertex
 10
193.3992346462619
 20
15.33324928988617
 30
0.0
  0
VERTEX
  5
2074
330
2072
100
AcDbEntity
  8
TEMPLATE
100
AcDbVertex
100
AcDb2dVertex
 10
193.3992346462619
 20
14.74230852682012
 30
0.0
  0
VERTEX
  5
2075
330
2072
100
AcDbEntity
  8
TEMPLATE
100
AcDbVertex
100
AcDb2dVertex
 10
192.4631754912307
 20
14.74230852682012
 30
0.0
  0
VERTEX
  5
2076
330
2072
100
AcDbEntity
  8
TEMPLATE
100
AcDbVertex
100
AcDb2dVertex
 10
192.4631754912307
 20
12.33324929003077
 30
0.0
  0
VERTEX
  5
2077
330
2072
100
AcDbEntity
  8
TEMPLATE
100
AcDbVertex
100
AcDb2dVertex
 10
191.6399141759031
 20
12.33324929003077
 30
0.0
  0
VERTEX
  5
2078
330
2072
100
AcDbEntity
  8
TEMPLATE
100
AcDbVertex
100
AcDb2dVertex
 10
191.6399141759031
 20
14.74230852682012
 30
0.0
  0
VERTEX
  5
2079
330
2072
100
AcDbEntity
  8
TEMPLATE
100
AcDbVertex
100
AcDb2dVertex
 10
190.7204440324488
 20
14.74230852682012
 30
0.0
  0
VERTEX
  5
207A
330
2072
100
AcDbEntity
  8
TEMPLATE
100
AcDbVertex
100
AcDb2dVertex
 10
190.7204440324488
 20
15.33324928988617
 30
0.0
  0
VERTEX
  5
207B
330
2072
100
AcDbEntity
  8
TEMPLATE
100
AcDbVertex
100
AcDb2dVertex
 10
193.3992346462619
 20
15.33324928988617
 30
0.0
  0
SEQEND
  5
207C
330
2072
100
AcDbEntity
  8
TEMPLATE
  0
SPLINE
  5
207D
102
{ACAD_REACTORS
330
2071
330
20A3
102
}
330
A
100
AcDbEntity
  8
TEMPLATE
100
AcDbSpline
210
0.0
220
0.0
230
1.0
 70
    11
 71
     3
 72
    56
 73
    52
 74
     0
 42
0.000000001
 43
0.0000000001
 40
0.0
 40
0.0
 40
0.0
 40
0.0
 40
1.0
 40
1.0
 40
1.0
 40
2.0
 40
2.0
 40
2.0
 40
3.0
 40
3.0
 40
3.0
 40
4.0
 40
4.0
 40
4.0
 40
5.0
 40
5.0
 40
5.0
 40
6.0
 40
6.0
 40
6.0
 40
7.0
 40
7.0
 40
7.0
 40
8.0
 40
8.0
 40
8.0
 40
9.0
 40
9.0
 40
9.0
 40
10.0
 40
10.0
 40
10.0
 40
11.0
 40
11.0
 40
11.0
 40
12.0
 40
12.0
 40
12.0
 40
13.0
 40
13.0
 40
13.0
 40
14.0
 40
14.0
 40
14.0
 40
15.0
 40
15.0
 40
15.0
 40
16.0
 40
16.0
 40
16.0
 40
17.0
 40
17.0
 40
17.0
 40
17.0
 10
194.6534531896912
 20
15.26181239384494
 30
0.0
 10
194.768839807883
 20
15.29429114924596
 30
0.0
 10
194.9177987172164
 20
15.26712385315697
 30
0.0
 10
194.9177987172164
 20
15.26712385315697
 30
0.0
 10
194.9177987172164
 20
15.26712385315697
 30
0.0
 10
194.8462353578582
 20
15.05236682391462
 30
0.0
 10
194.8462353578582
 20
15.05236682391462
 30
0.0
 10
194.8462353578582
 20
15.05236682391462
 30
0.0
 10
194.6999991293486
 20
15.08620691972755
 30
0.0
 10
194.5872087286637
 20
14.99726601281628
 30
0.0
 10
194.4995622109965
 20
14.92771118849205
 30
0.0
 10
194.4427801816846
 20
14.74289620929302
 30
0.0
 10
194.420998735094
 20
14.67262723917894
 30
0.0
 10
194.420998735094
 20
14.67262723917894
 30
0.0
 10
194.3238897857113
 20
14.37456064013906
 30
0.0
 10
194.3238897857113
 20
14.37456064013906
 30
0.0
 10
194.3238897857113
 20
14.37456064013906
 30
0.0
 10
194.6423021007434
 20
14.37456064013906
 30
0.0
 10
194.6423021007434
 20
14.37456064013906
 30
0.0
 10
194.6423021007434
 20
14.37456064013906
 30
0.0
 10
194.5927805536282
 20
14.18696346796705
 30
0.0
 10
194.5927805536282
 20
14.18696346796705
 30
0.0
 10
194.5927805536282
 20
14.18696346796705
 30
0.0
 10
194.2717720210894
 20
14.18696346796705
 30
0.0
 10
194.2717720210894
 20
14.18696346796705
 30
0.0
 10
194.2717720210894
 20
14.18696346796705
 30
0.0
 10
193.6974277086187
 20
12.33324929003077
 30
0.0
 10
193.6974277086187
 20
12.33324929003077
 30
0.0
 10
193.6974277086187
 20
12.33324929003077
 30
0.0
 10
193.51760431093
 20
12.33324929003077
 30
0.0
 10
193.51760431093
 20
12.33324929003077
 30
0.0
 10
193.51760431093
 20
12.33324929003077
 30
0.0
 10
194.0924693547057
 20
14.18696346796705
 30
0.0
 10
194.0924693547057
 20
14.18696346796705
 30
0.0
 10
194.0924693547057
 20
14.18696346796705
 30
0.0
 10
193.8555961230339
 20
14.18696346796705
 30
0.0
 10
193.8555961230339
 20
14.18696346796705
 30
0.0
 10
193.8555961230339
 20
14.18696346796705
 30
0.0
 10
193.9052515724846
 20
14.37456064013906
 30
0.0
 10
193.9052515724846
 20
14.37456064013906
 30
0.0
 10
193.9052515724846
 20
14.37456064013906
 30
0.0
 10
194.1445871193277
 20
14.37456064013906
 30
0.0
 10
194.1445871193277
 20
14.37456064013906
 30
0.0
 10
194.1445871193277
 20
14.37456064013906
 30
0.0
 10
194.2292431514999
 20
14.63450970764554
 30
0.0
 10
194.2292431514999
 20
14.63450970764554
 30
0.0
 10
194.2976970010647
 20
14.85245063686765
 30
0.0
 10
194.3557808586394
 20
14.96945896112388
 30
0.0
 10
194.4055702104258
 20
15.05767828322665
 30
0.0
 10
194.4548313918883
 20
15.14597199551587
 30
0.0
 10
194.5523271702405
 20
15.23270351388978
 30
0.0
 10
194.6534531896912
 20
15.26181239384494
 30
0.0
  0
SPLINE
  5
207E
102
{ACAD_REACTORS
330
2071
330
20A3
102
}
330
A
100
AcDbEntity
  8
TEMPLATE
100
AcDbSpline
210
0.0
220
0.0
230
1.0
 70
    11
 71
     3
 72
    38
 73
    34
 74
     0
 42
0.000000001
 43
0.0000000001
 40
0.0
 40
0.0
 40
0.0
 40
0.0
 40
1.0
 40
1.0
 40
1.0
 40
2.0
 40
2.0
 40
2.0
 40
3.0
 40
3.0
 40
3.0
 40
4.0
 40
4.0
 40
4.0
 40
5.0
 40
5.0
 40
5.0
 40
6.0
 40
6.0
 40
6.0
 40
7.0
 40
7.0
 40
7.0
 40
8.0
 40
8.0
 40
8.0
 40
9.0
 40
9.0
 40
9.0
 40
10.0
 40
10.0
 40
10.0
 40
11.0
 40
11.0
 40
11.0
 40
11.0
 10
196.6058310719068
 20
14.36736710911002
 30
0.0
 10
196.6058310719068
 20
14.36736710911002
 30
0.0
 10
196.790705563255
 20
14.36736710911002
 30
0.0
 10
196.790705563255
 20
14.36736710911002
 30
0.0
 10
196.790705563255
 20
14.36736710911002
 30
0.0
 10
196.708117578266
 20
14.10294719139831
 30
0.0
 10
196.708117578266
 20
14.10294719139831
 30
0.0
 10
196.7708731395493
 20
14.17717371943115
 30
0.0
 10
196.8699162337796
 20
14.27603083819528
 30
0.0
 10
196.9549739729585
 20
14.32587970213075
 30
0.0
 10
197.0820324114032
 20
14.40010623016359
 30
0.0
 10
197.1546372333715
 20
14.40989597869949
 30
0.0
 10
197.2344876594995
 20
14.40794695581469
 30
0.0
 10
197.2344876594995
 20
14.40794695581469
 30
0.0
 10
197.1564523539208
 20
14.1579215391797
 30
0.0
 10
197.1564523539208
 20
14.1579215391797
 30
0.0
 10
197.1056289785429
 20
14.17944262011767
 30
0.0
 10
196.9490078800058
 20
14.1384759444435
 30
0.0
 10
196.8591594128199
 20
14.0738457504618
 30
0.0
 10
196.7781336217462
 20
14.01556847840234
 30
0.0
 10
196.7221178113546
 20
13.96597998011942
 30
0.0
 10
196.6557468870101
 20
13.84131690567822
 30
0.0
 10
196.5898818159334
 20
13.71646785577089
 30
0.0
 10
196.5378979536471
 20
13.51739227783074
 30
0.0
 10
196.4484363154307
 20
13.22859469602165
 30
0.0
 10
196.4484363154307
 20
13.22859469602165
 30
0.0
 10
196.169041653188
 20
12.33324929003077
 30
0.0
 10
196.169041653188
 20
12.33324929003077
 30
0.0
 10
196.169041653188
 20
12.33324929003077
 30
0.0
 10
195.9896125234874
 20
12.33324929003077
 30
0.0
 10
195.9896125234874
 20
12.33324929003077
 30
0.0
 10
195.9896125234874
 20
12.33324929003077
 30
0.0
 10
196.6058310719068
 20
14.36736710911002
 30
0.0
 10
196.6058310719068
 20
14.36736710911002
 30
0.0
  0
SPLINE
  5
207F
102
{ACAD_REACTORS
330
2071
330
20A3
102
}
330
A
100
AcDbEntity
  8
TEMPLATE
100
AcDbSpline
210
0.0
220
0.0
230
1.0
 70
    11
 71
     3
 72
   104
 73
   100
 74
     0
 42
0.000000001
 43
0.0000000001
 40
0.0
 40
0.0
 40
0.0
 40
0.0
 40
1.0
 40
1.0
 40
1.0
 40
2.0
 40
2.0
 40
2.0
 40
3.0
 40
3.0
 40
3.0
 40
4.0
 40
4.0
 40
4.0
 40
5.0
 40
5.0
 40
5.0
 40
6.0
 40
6.0
 40
6.0
 40
7.0
 40
7.0
 40
7.0
 40
8.0
 40
8.0
 40
8.0
 40
9.0
 40
9.0
 40
9.0
 40
10.0
 40
10.0
 40
10.0
 40
11.0
 40
11.0
 40
11.0
 40
12.0
 40
12.0
 40
12.0
 40
13.0
 40
13.0
 40
13.0
 40
14.0
 40
14.0
 40
14.0
 40
15.0
 40
15.0
 40
15.0
 40
16.0
 40
16.0
 40
16.0
 40
17.0
 40
17.0
 40
17.0
 40
18.0
 40
18.0
 40
18.0
 40
19.0
 40
19.0
 40
19.0
 40
20.0
 40
20.0
 40
20.0
 40
21.0
 40
21.0
 40
21.0
 40
22.0
 40
22.0
 40
22.0
 40
23.0
 40
23.0
 40
23.0
 40
24.0
 40
24.0
 40
24.0
 40
25.0
 40
25.0
 40
25.0
 40
26.0
 40
26.0
 40
26.0
 40
27.0
 40
27.0
 40
27.0
 40
28.0
 40
28.0
 40
28.0
 40
29.0
 40
29.0
 40
29.0
 40
30.0
 40
30.0
 40
30.0
 40
31.0
 40
31.0
 40
31.0
 40
32.0
 40
32.0
 40
32.0
 40
33.0
 40
33.0
 40
33.0
 40
33.0
 10
197.6234441883354
 20
14.36846808386937
 30
0.0
 10
197.6234441883354
 20
14.36846808386937
 30
0.0
 10
197.7848560148795
 20
14.36846808386937
 30
0.0
 10
197.7848560148795
 20
14.36846808386937
 30
0.0
 10
197.7848560148795
 20
14.36846808386937
 30
0.0
 10
197.7033094925007
 20
14.10379523952376
 30
0.0
 10
197.7033094925007
 20
14.10379523952376
 30
0.0
 10
197.7740843158826
 20
14.21477051965945
 30
0.0
 10
197.8376135351049
 20
14.26423255462542
 30
0.0
 10
197.9220166406432
 20
14.32814860281726
 30
0.0
 10
198.0066726728153
 20
14.3911570907345
 30
0.0
 10
198.1071589366625
 20
14.40399683691456
 30
0.0
 10
198.1769071754715
 20
14.40399683691456
 30
0.0
 10
198.2632593038946
 20
14.40399683691456
 30
0.0
 10
198.3466209468226
 20
14.38694660618182
 30
0.0
 10
198.3904367666375
 20
14.29229997197037
 30
0.0
 10
198.4240164967979
 20
14.21808088295617
 30
0.0
 10
198.4255786907132
 20
14.20932515801183
 30
0.0
 10
198.4159823566621
 20
14.06282112483094
 30
0.0
 10
198.5037478986276
 20
14.21302235027805
 30
0.0
 10
198.568571507094
 20
14.27771949542754
 30
0.0
 10
198.6787731292907
 20
14.33987993521932
 30
0.0
 10
198.794420113135
 20
14.40399683691456
 30
0.0
 10
198.8618325000897
 20
14.40879500394014
 30
0.0
 10
198.9401504883769
 20
14.39724964700418
 30
0.0
 10
199.05552966755
 20
14.38020685529008
 30
0.0
 10
199.1291759521286
 20
14.33903932611252
 30
0.0
 10
199.1676803126315
 20
14.21392991055265
 30
0.0
 10
199.20631857547
 20
14.08920732396228
 30
0.0
 10
199.1854446891541
 20
14.02230822929408
 30
0.0
 10
199.1377308235695
 20
13.82375338265902
 30
0.0
 10
199.115949376979
 20
13.73332467201888
 30
0.0
 10
199.0844376940018
 20
13.62382975659341
 30
0.0
 10
199.043210652675
 20
13.4935427840571
 30
0.0
 10
199.043210652675
 20
13.4935427840571
 30
0.0
 10
198.6787731292907
 20
12.33324929003077
 30
0.0
 10
198.6787731292907
 20
12.33324929003077
 30
0.0
 10
198.6787731292907
 20
12.33324929003077
 30
0.0
 10
198.4892269342339
 20
12.33324929003077
 30
0.0
 10
198.4892269342339
 20
12.33324929003077
 30
0.0
 10
198.4892269342339
 20
12.33324929003077
 30
0.0
 10
198.8083013219253
 20
13.34761899433048
 30
0.0
 10
198.8083013219253
 20
13.34761899433048
 30
0.0
 10
198.8749400509409
 20
13.55985419625241
 30
0.0
 10
198.92005026
 20
13.71484614970644
 30
0.0
 10
198.9433939005058
 20
13.81202205025695
 30
0.0
 10
198.972688755927
 20
13.93324085906585
 30
0.0
 10
198.9843531371613
 20
13.97324046231626
 30
0.0
 10
198.9704868064084
 20
14.06146722343768
 30
0.0
 10
198.9577809625639
 20
14.14359398927077
 30
0.0
 10
198.916286116566
 20
14.19707309430466
 30
0.0
 10
198.8452434885129
 20
14.19707309430466
 30
0.0
 10
198.7695291567512
 20
14.19707309430466
 30
0.0
 10
198.7082018870476
 20
14.18864468618067
 30
0.0
 10
198.6223853679669
 20
14.10243389911185
 30
0.0
 10
198.536553970849
 20
14.01556847840234
 30
0.0
 10
198.4656303670941
 20
13.9136018498449
 30
0.0
 10
198.4100162637093
 20
13.79633315993612
 30
0.0
 10
198.3545211846229
 20
13.6783503242375
 30
0.0
 10
198.2982524475973
 20
13.52880373243109
 30
0.0
 10
198.2412100526329
 20
13.34761899433048
 30
0.0
 10
198.2412100526329
 20
13.34761899433048
 30
0.0
 10
197.9220166406432
 20
12.33324929003077
 30
0.0
 10
197.9220166406432
 20
12.33324929003077
 30
0.0
 10
197.9220166406432
 20
12.33324929003077
 30
0.0
 10
197.7437479978511
 20
12.33324929003077
 30
0.0
 10
197.7437479978511
 20
12.33324929003077
 30
0.0
 10
197.7437479978511
 20
12.33324929003077
 30
0.0
 10
198.1087062525406
 20
13.493022052752
 30
0.0
 10
198.1087062525406
 20
13.493022052752
 30
0.0
 10
198.1472106130435
 20
13.61645025009826
 30
0.0
 10
198.1761335175325
 20
13.7170555382438
 30
0.0
 10
198.1951922832992
 20
13.79568596531406
 30
0.0
 10
198.2275966485138
 20
13.93103890954714
 30
0.0
 10
198.2366722512598
 20
14.02256859494663
 30
0.0
 10
198.2121681238455
 20
14.10379523952376
 30
0.0
 10
198.1880508254007
 20
14.18476151844834
 30
0.0
 10
198.1456632971655
 20
14.2054419902795
 30
0.0
 10
198.0748735957463
 20
14.2054419902795
 30
0.0
 10
198.0154953489275
 20
14.2054419902795
 30
0.0
 10
197.9575453936883
 20
14.17996335142277
 30
0.0
 10
197.8914273959778
 20
14.12926643936185
 30
0.0
 10
197.8081847773481
 20
14.06548429350561
 30
0.0
 10
197.7748728518588
 20
14.01310616323108
 30
0.0
 10
197.7340326395017
 20
13.95087133325285
 30
0.0
 10
197.6789243893847
 20
13.86854371391636
 30
0.0
 10
197.6531258727262
 20
13.81312302501631
 30
0.0
 10
197.6065873720875
 20
13.69150994821926
 30
0.0
 10
197.5600339934114
 20
13.56918272563237
 30
0.0
 10
197.5159652469626
 20
13.426829664855
 30
0.0
 10
197.4852272219243
 20
13.32836681407902
 30
0.0
 10
197.4852272219243
 20
13.32836681407902
 30
0.0
 10
197.172133805223
 20
12.33324929003077
 30
0.0
 10
197.172133805223
 20
12.33324929003077
 30
0.0
 10
197.172133805223
 20
12.33324929003077
 30
0.0
 10
196.9854441933256
 20
12.33324929003077
 30
0.0
 10
196.9854441933256
 20
12.33324929003077
 30
0.0
 10
196.9854441933256
 20
12.33324929003077
 30
0.0
 10
197.6234441883354
 20
14.36846808386937
 30
0.0
 10
197.6234441883354
 20
14.36846808386937
 30
0.0
  0
SPLINE
  5
2080
102
{ACAD_REACTORS
330
2071
330
20A3
102
}
330
A
100
AcDbEntity
  8
TEMPLATE
100
AcDbSpline
210
0.0
220
0.0
230
1.0
 70
    11
 71
     3
 72
    32
 73
    28
 74
     0
 42
0.000000001
 43
0.0000000001
 40
0.0
 40
0.0
 40
0.0
 40
0.0
 40
1.0
 40
1.0
 40
1.0
 40
2.0
 40
2.0
 40
2.0
 40
3.0
 40
3.0
 40
3.0
 40
4.0
 40
4.0
 40
4.0
 40
5.0
 40
5.0
 40
5.0
 40
6.0
 40
6.0
 40
6.0
 40
7.0
 40
7.0
 40
7.0
 40
8.0
 40
8.0
 40
8.0
 40
9.0
 40
9.0
 40
9.0
 40
9.0
 10
195.0910088273304
 20
14.2611899959999
 30
0.0
 10
194.9827562280185
 20
14.12116534805821
 30
0.0
 10
194.8993945850904
 20
13.99514837222373
 30
0.0
 10
194.7644359088455
 20
13.59907270254517
 30
0.0
 10
194.6403605168772
 20
13.23677761653038
 30
0.0
 10
194.5614027729866
 20
12.97319830792548
 30
0.0
 10
194.5494780260998
 20
12.65218977538657
 30
0.0
 10
194.5404024233537
 20
12.41330800868075
 30
0.0
 10
194.6858649939244
 20
12.33324929003077
 30
0.0
 10
194.8991416584565
 20
12.33324929003077
 30
0.0
 10
194.9910581728255
 20
12.33324929003077
 30
0.0
 10
195.2230067741548
 20
12.33909635868519
 30
0.0
 10
195.388182744133
 20
12.54328254243399
 30
0.0
 10
195.5038148499399
 20
12.68673657797071
 30
0.0
 10
195.6103862310383
 20
12.8354425606703
 30
0.0
 10
195.7532600231207
 20
13.32324876925175
 30
0.0
 10
195.8721504190939
 20
13.73105577133237
 30
0.0
 10
195.9544705994118
 20
13.99462764091863
 30
0.0
 10
195.9483854821607
 20
14.14469496403013
 30
0.0
 10
195.9483854821607
 20
14.14469496403013
 30
0.0
 10
195.9483854821607
 20
14.14469496403013
 30
0.0
 10
195.9483854821607
 20
14.14469496403013
 30
0.0
 10
195.9096133169866
 20
14.39504769748547
 30
0.0
 10
195.7278483354318
 20
14.4479465590651
 30
0.0
 10
195.6239996351573
 20
14.4479465590651
 30
0.0
 10
195.5217131287981
 20
14.4479465590651
 30
0.0
 10
195.2476299258675
 20
14.46564398441989
 30
0.0
 10
195.0910088273304
 20
14.2611899959999
 30
0.0
  0
SPLINE
  5
2081
102
{ACAD_REACTORS
330
2071
330
20A3
102
}
330
A
100
AcDbEntity
  8
TEMPLATE
100
AcDbSpline
210
0.0
220
0.0
230
1.0
 70
    11
 71
     3
 72
    29
 73
    25
 74
     0
 42
0.000000001
 43
0.0000000001
 40
0.0
 40
0.0
 40
0.0
 40
0.0
 40
1.0
 40
1.0
 40
1.0
 40
2.0
 40
2.0
 40
2.0
 40
3.0
 40
3.0
 40
3.0
 40
4.0
 40
4.0
 40
4.0
 40
5.0
 40
5.0
 40
5.0
 40
6.0
 40
6.0
 40
6.0
 40
7.0
 40
7.0
 40
7.0
 40
8.0
 40
8.0
 40
8.0
 40
8.0
 10
194.7431751935601
 20
12.71220777780879
 30
0.0
 10
194.7423866575838
 20
12.85392108298274
 30
0.0
 10
194.7871249157106
 20
13.10570210801778
 30
0.0
 10
194.9017304369448
 20
13.44258550634363
 30
0.0
 10
195.0578308041768
 20
13.89875356863087
 30
0.0
 10
195.1514434147967
 20
14.06548429350561
 30
0.0
 10
195.2333618881077
 20
14.14664398691494
 30
0.0
 10
195.3530408200572
 20
14.26482023709832
 30
0.0
 10
195.5139319152962
 20
14.2707119398646
 30
0.0
 10
195.5613928542469
 20
14.26482023709832
 30
0.0
 10
195.6289391435371
 20
14.25671170677603
 30
0.0
 10
195.7243519966689
 20
14.21250161897294
 30
0.0
 10
195.7300502849505
 20
14.06366917295639
 30
0.0
 10
195.7346029643608
 20
13.93629085671002
 30
0.0
 10
195.6978988463698
 20
13.69773640682454
 30
0.0
 10
195.5694269943827
 20
13.32324876925175
 30
0.0
 10
195.4213607672865
 20
12.88808105659738
 30
0.0
 10
195.3324198603752
 20
12.71701338385301
 30
0.0
 10
195.2611243056883
 20
12.64245953899982
 30
0.0
 10
195.1268053850467
 20
12.50269525671068
 30
0.0
 10
194.9827562280185
 20
12.516115246345
 30
0.0
 10
194.9614955127331
 20
12.516115246345
 30
0.0
 10
194.9338818755254
 20
12.516115246345
 30
0.0
 10
194.7435620225296
 20
12.54607961344425
 30
0.0
 10
194.7431751935601
 20
12.71220777780879
 30
0.0
  0
POLYLINE
  5
41D7
330
A
100
AcDbEntity
  8
MODEL
100
AcDb2dPolyline
 66
     1
 10
0.0
 20
0.0
 30
0.0
  0
VERTEX
  5
41D8
330
41D7
100
AcDbEntity
  8
MODEL
100
AcDbVertex
100
AcDb2dVertex
 10
102.7114840193804
 20
149.4053029552104
 30
0.0
  0
VERTEX
  5
41D9
330
41D7
100
AcDbEntity
  8
MODEL
100
AcDbVertex
100
AcDb2dVertex
 10
102.7114840193804
 20
130.9054725047319
 30
0.0
  0
SEQEND
  5
41DA
330
41D7
100
AcDbEntity
  8
MODEL
  0
POLYLINE
  5
41DB
330
A
100
AcDbEntity
  8
MODEL
100
AcDb2dPolyline
 66
     1
 10
0.0
 20
0.0
 30
0.0
  0
VERTEX
  5
41DC
330
41DB
100
AcDbEntity
  8
MODEL
100
AcDbVertex
100
AcDb2dVertex
 10
109.7598095223942
 20
128.8945689434097
 30
0.0
  0
VERTEX
  5
41DD
330
41DB
100
AcDbEntity
  8
MODEL
100
AcDbVertex
100
AcDb2dVertex
 10
109.7598095223942
 20
151.3948469104332
 30
0.0
  0
SEQEND
  5
41DE
330
41DB
100
AcDbEntity
  8
MODEL
  0
POLYLINE
  5
41DF
330
A
100
AcDbEntity
  8
MODEL
100
AcDb2dPolyline
 66
     1
 10
0.0
 20
0.0
 30
0.0
  0
VERTEX
  5
41E0
330
41DF
100
AcDbEntity
  8
MODEL
100
AcDbVertex
100
AcDb2dVertex
 10
105.7383469095255
 20
151.3948469104332
 30
0.0
  0
VERTEX
  5
41E1
330
41DF
100
AcDbEntity
  8
MODEL
100
AcDbVertex
100
AcDb2dVertex
 10
105.7383469095255
 20
128.8945689434097
 30
0.0
  0
SEQEND
  5
41E2
330
41DF
100
AcDbEntity
  8
MODEL
  0
POLYLINE
  5
41E3
330
A
100
AcDbEntity
  8
MODEL
100
AcDb2dPolyline
 66
     1
 10
0.0
 20
0.0
 30
0.0
  0
VERTEX
  5
41E4
330
41E3
100
AcDbEntity
  8
MODEL
100
AcDbVertex
100
AcDb2dVertex
 10
168.7092217686524
 20
130.7573333011395
 30
0.0
  0
VERTEX
  5
41E5
330
41E3
100
AcDbEntity
  8
MODEL
100
AcDbVertex
100
AcDb2dVertex
 10
168.7092217686524
 20
161.7452986144533
 30
0.0
  0
SEQEND
  5
41E6
330
41E3
100
AcDbEntity
  8
MODEL
  0
POLYLINE
  5
41E7
330
A
100
AcDbEntity
  8
MODEL
100
AcDb2dPolyline
 66
     1
 10
0.0
 20
0.0
 30
0.0
  0
VERTEX
  5
41E8
330
41E7
100
AcDbEntity
  8
MODEL
100
AcDbVertex
100
AcDb2dVertex
 10
113.6968672401928
 20
151.3948469104332
 30
0.0
  0
VERTEX
  5
41E9
330
41E7
100
AcDbEntity
  8
MODEL
100
AcDbVertex
100
AcDb2dVertex
 10
113.6968672401928
 20
128.8945689434097
 30
0.0
  0
SEQEND
  5
41EA
330
41E7
100
AcDbEntity
  8
MODEL
  0
POLYLINE
  5
41EB
330
A
100
AcDbEntity
  8
MODEL
100
AcDb2dPolyline
 66
     1
 10
0.0
 20
0.0
 30
0.0
  0
VERTEX
  5
41EC
330
41EB
100
AcDbEntity
  8
MODEL
100
AcDbVertex
100
AcDb2dVertex
 10
124.7036100671046
 20
151.4582367091797
 30
0.0
  0
VERTEX
  5
41ED
330
41EB
100
AcDbEntity
  8
MODEL
100
AcDbVertex
100
AcDb2dVertex
 10
124.7036100671046
 20
151.4372216128562
 30
0.0
  0
VERTEX
  5
41EE
330
41EB
100
AcDbEntity
  8
MODEL
100
AcDbVertex
100
AcDb2dVertex
 10
124.724969673204
 20
151.4158620067568
 30
0.0
  0
VERTEX
  5
41EF
330
41EB
100
AcDbEntity
  8
MODEL
100
AcDbVertex
100
AcDb2dVertex
 10
124.724969673204
 20
151.3948469104332
 30
0.0
  0
VERTEX
  5
41F0
330
41EB
100
AcDbEntity
  8
MODEL
100
AcDbVertex
100
AcDb2dVertex
 10
124.7459847695275
 20
151.3738318141097
 30
0.0
  0
VERTEX
  5
41F1
330
41EB
100
AcDbEntity
  8
MODEL
100
AcDbVertex
100
AcDb2dVertex
 10
124.7459847695275
 20
151.3314571116867
 30
0.0
  0
VERTEX
  5
41F2
330
41EB
100
AcDbEntity
  8
MODEL
100
AcDbVertex
100
AcDb2dVertex
 10
124.7669998658511
 20
151.3100975055874
 30
0.0
  0
VERTEX
  5
41F3
330
41EB
100
AcDbEntity
  8
MODEL
100
AcDbVertex
100
AcDb2dVertex
 10
124.8307341743734
 20
151.1833179080944
 30
0.0
  0
VERTEX
  5
41F4
330
41EB
100
AcDbEntity
  8
MODEL
100
AcDbVertex
100
AcDb2dVertex
 10
124.8731088767963
 20
151.0561938008256
 30
0.0
  0
VERTEX
  5
41F5
330
41EB
100
AcDbEntity
  8
MODEL
100
AcDbVertex
100
AcDb2dVertex
 10
124.9151390694434
 20
151.0138190984027
 30
0.0
  0
VERTEX
  5
41F6
330
41EB
100
AcDbEntity
  8
MODEL
100
AcDbVertex
100
AcDb2dVertex
 10
124.9364986755428
 20
150.9290696935568
 30
0.0
  0
VERTEX
  5
41F7
330
41EB
100
AcDbEntity
  8
MODEL
100
AcDbVertex
100
AcDb2dVertex
 10
124.9788733779657
 20
150.8656798948103
 30
0.0
  0
VERTEX
  5
41F8
330
41EB
100
AcDbEntity
  8
MODEL
100
AcDbVertex
100
AcDb2dVertex
 10
124.9998884742893
 20
150.8022900960638
 30
0.0
  0
VERTEX
  5
41F9
330
41EB
100
AcDbEntity
  8
MODEL
100
AcDbVertex
100
AcDb2dVertex
 10
125.0846378791352
 20
150.6327912863721
 30
0.0
  0
VERTEX
  5
41FA
330
41EB
100
AcDbEntity
  8
MODEL
100
AcDbVertex
100
AcDb2dVertex
 10
125.1056529754587
 20
150.5480418815263
 30
0.0
  0
VERTEX
  5
41FB
330
41EB
100
AcDbEntity
  8
MODEL
100
AcDbVertex
100
AcDb2dVertex
 10
125.1480276778816
 20
150.4636369864562
 30
0.0
  0
VERTEX
  5
41FC
330
41EB
100
AcDbEntity
  8
MODEL
100
AcDbVertex
100
AcDb2dVertex
 10
125.3175264875734
 20
150.0402344720027
 30
0.0
  0
VERTEX
  5
41FD
330
41EB
100
AcDbEntity
  8
MODEL
100
AcDbVertex
100
AcDb2dVertex
 10
125.3809162863199
 20
149.9344699708333
 30
0.0
  0
VERTEX
  5
41FE
330
41EB
100
AcDbEntity
  8
MODEL
100
AcDbVertex
100
AcDb2dVertex
 10
125.4232909887428
 20
149.8283609598881
 30
0.0
  0
VERTEX
  5
41FF
330
41EB
100
AcDbEntity
  8
MODEL
100
AcDbVertex
100
AcDb2dVertex
 10
125.4656656911657
 20
149.7015813623951
 30
0.0
  0
VERTEX
  5
4200
330
41EB
100
AcDbEntity
  8
MODEL
100
AcDbVertex
100
AcDb2dVertex
 10
125.5290554899122
 20
149.5958168612256
 30
0.0
  0
VERTEX
  5
4201
330
41EB
100
AcDbEntity
  8
MODEL
100
AcDbVertex
100
AcDb2dVertex
 10
125.6138048947581
 20
149.3415686466881
 30
0.0
  0
VERTEX
  5
4202
330
41EB
100
AcDbEntity
  8
MODEL
100
AcDbVertex
100
AcDb2dVertex
 10
125.6771946935046
 20
149.1934294430957
 30
0.0
  0
VERTEX
  5
4203
330
41EB
100
AcDbEntity
  8
MODEL
100
AcDbVertex
100
AcDb2dVertex
 10
125.7195693959275
 20
149.0666498456027
 30
0.0
  0
VERTEX
  5
4204
330
41EB
100
AcDbEntity
  8
MODEL
100
AcDbVertex
100
AcDb2dVertex
 10
125.7833037044498
 20
148.9395257383339
 30
0.0
  0
VERTEX
  5
4205
330
41EB
100
AcDbEntity
  8
MODEL
100
AcDbVertex
100
AcDb2dVertex
 10
125.8253338970969
 20
148.7913865347416
 30
0.0
  0
VERTEX
  5
4206
330
41EB
100
AcDbEntity
  8
MODEL
100
AcDbVertex
100
AcDb2dVertex
 10
125.9524580043657
 20
148.4951081275569
 30
0.0
  0
VERTEX
  5
4207
330
41EB
100
AcDbEntity
  8
MODEL
100
AcDbVertex
100
AcDb2dVertex
 10
125.9948327067886
 20
148.3469689239645
 30
0.0
  0
VERTEX
  5
4208
330
41EB
100
AcDbEntity
  8
MODEL
100
AcDbVertex
100
AcDb2dVertex
 10
126.0582225055351
 20
148.1988297203722
 30
0.0
  0
VERTEX
  5
4209
330
41EB
100
AcDbEntity
  8
MODEL
100
AcDbVertex
100
AcDb2dVertex
 10
126.1005972079581
 20
148.0293309106805
 30
0.0
  0
VERTEX
  5
420A
330
41EB
100
AcDbEntity
  8
MODEL
100
AcDbVertex
100
AcDb2dVertex
 10
126.1639870067045
 20
147.8811917070881
 30
0.0
  0
VERTEX
  5
420B
330
41EB
100
AcDbEntity
  8
MODEL
100
AcDbVertex
100
AcDb2dVertex
 10
126.2277213152268
 20
147.7116928973964
 30
0.0
  0
VERTEX
  5
420C
330
41EB
100
AcDbEntity
  8
MODEL
100
AcDbVertex
100
AcDb2dVertex
 10
126.2700960176498
 20
147.5425385974805
 30
0.0
  0
VERTEX
  5
420D
330
41EB
100
AcDbEntity
  8
MODEL
100
AcDbVertex
100
AcDb2dVertex
 10
126.3968756151428
 20
147.2038854878728
 30
0.0
  0
VERTEX
  5
420E
330
41EB
100
AcDbEntity
  8
MODEL
100
AcDbVertex
100
AcDb2dVertex
 10
126.4392503175657
 20
147.0343866781811
 30
0.0
  0
VERTEX
  5
420F
330
41EB
100
AcDbEntity
  8
MODEL
100
AcDbVertex
100
AcDb2dVertex
 10
126.5026401163122
 20
146.8438727721658
 30
0.0
  0
VERTEX
  5
4210
330
41EB
100
AcDbEntity
  8
MODEL
100
AcDbVertex
100
AcDb2dVertex
 10
126.5450148187351
 20
146.6747184722499
 30
0.0
  0
VERTEX
  5
4211
330
41EB
100
AcDbEntity
  8
MODEL
100
AcDbVertex
100
AcDb2dVertex
 10
126.6087491272574
 20
146.4842045662346
 30
0.0
  0
VERTEX
  5
4212
330
41EB
100
AcDbEntity
  8
MODEL
100
AcDbVertex
100
AcDb2dVertex
 10
126.6511238296803
 20
146.2936906602194
 30
0.0
  0
VERTEX
  5
4213
330
41EB
100
AcDbEntity
  8
MODEL
100
AcDbVertex
100
AcDb2dVertex
 10
126.7145136284268
 20
146.1031767542041
 30
0.0
  0
VERTEX
  5
4214
330
41EB
100
AcDbEntity
  8
MODEL
100
AcDbVertex
100
AcDb2dVertex
 10
126.7568883308498
 20
145.9126628481888
 30
0.0
  0
VERTEX
  5
4215
330
41EB
100
AcDbEntity
  8
MODEL
100
AcDbVertex
100
AcDb2dVertex
 10
126.8202781295962
 20
145.7221489421735
 30
0.0
  0
VERTEX
  5
4216
330
41EB
100
AcDbEntity
  8
MODEL
100
AcDbVertex
100
AcDb2dVertex
 10
126.8626528320192
 20
145.5316350361582
 30
0.0
  0
VERTEX
  5
4217
330
41EB
100
AcDbEntity
  8
MODEL
100
AcDbVertex
100
AcDb2dVertex
 10
126.9050275344421
 20
145.3201060338194
 30
0.0
  0
VERTEX
  5
4218
330
41EB
100
AcDbEntity
  8
MODEL
100
AcDbVertex
100
AcDb2dVertex
 10
126.947402236865
 20
145.1295921278041
 30
0.0
  0
VERTEX
  5
4219
330
41EB
100
AcDbEntity
  8
MODEL
100
AcDbVertex
100
AcDb2dVertex
 10
127.0107920356115
 20
144.9177186156895
 30
0.0
  0
VERTEX
  5
421A
330
41EB
100
AcDbEntity
  8
MODEL
100
AcDbVertex
100
AcDb2dVertex
 10
127.0531667380345
 20
144.7061896133506
 30
0.0
  0
VERTEX
  5
421B
330
41EB
100
AcDbEntity
  8
MODEL
100
AcDbVertex
100
AcDb2dVertex
 10
127.0955414404574
 20
144.5156757073353
 30
0.0
  0
VERTEX
  5
421C
330
41EB
100
AcDbEntity
  8
MODEL
100
AcDbVertex
100
AcDb2dVertex
 10
127.1802908453032
 20
144.0922731928818
 30
0.0
  0
VERTEX
  5
421D
330
41EB
100
AcDbEntity
  8
MODEL
100
AcDbVertex
100
AcDb2dVertex
 10
127.2013059416268
 20
143.880744190543
 30
0.0
  0
VERTEX
  5
421E
330
41EB
100
AcDbEntity
  8
MODEL
100
AcDbVertex
100
AcDb2dVertex
 10
127.2436806440497
 20
143.6478555821048
 30
0.0
  0
VERTEX
  5
421F
330
41EB
100
AcDbEntity
  8
MODEL
100
AcDbVertex
100
AcDb2dVertex
 10
127.2860553464727
 20
143.4363265797659
 30
0.0
  0
VERTEX
  5
4220
330
41EB
100
AcDbEntity
  8
MODEL
100
AcDbVertex
100
AcDb2dVertex
 10
127.3070704427962
 20
143.2244530676513
 30
0.0
  0
VERTEX
  5
4221
330
41EB
100
AcDbEntity
  8
MODEL
100
AcDbVertex
100
AcDb2dVertex
 10
127.3494451452192
 20
143.0129240653124
 30
0.0
  0
VERTEX
  5
4222
330
41EB
100
AcDbEntity
  8
MODEL
100
AcDbVertex
100
AcDb2dVertex
 10
127.3708047513185
 20
142.7800354568742
 30
0.0
  0
VERTEX
  5
4223
330
41EB
100
AcDbEntity
  8
MODEL
100
AcDbVertex
100
AcDb2dVertex
 10
127.3918198476421
 20
142.5681619447596
 30
0.0
  0
VERTEX
  5
4224
330
41EB
100
AcDbEntity
  8
MODEL
100
AcDbVertex
100
AcDb2dVertex
 10
127.434194550065
 20
142.102729237659
 30
0.0
  0
VERTEX
  5
4225
330
41EB
100
AcDbEntity
  8
MODEL
100
AcDbVertex
100
AcDb2dVertex
 10
127.4552096463886
 20
141.8908557255443
 30
0.0
  0
VERTEX
  5
4226
330
41EB
100
AcDbEntity
  8
MODEL
100
AcDbVertex
100
AcDb2dVertex
 10
127.4765692524879
 20
141.6583116268819
 30
0.0
  0
VERTEX
  5
4227
330
41EB
100
AcDbEntity
  8
MODEL
100
AcDbVertex
100
AcDb2dVertex
 10
127.4975843488115
 20
141.4464381147673
 30
0.0
  0
VERTEX
  5
4228
330
41EB
100
AcDbEntity
  8
MODEL
100
AcDbVertex
100
AcDb2dVertex
 10
127.4975843488115
 20
141.2135495063291
 30
0.0
  0
VERTEX
  5
4229
330
41EB
100
AcDbEntity
  8
MODEL
100
AcDbVertex
100
AcDb2dVertex
 10
127.5189439549109
 20
140.9806608978909
 30
0.0
  0
VERTEX
  5
422A
330
41EB
100
AcDbEntity
  8
MODEL
100
AcDbVertex
100
AcDb2dVertex
 10
127.5189439549109
 20
140.7481167992284
 30
0.0
  0
VERTEX
  5
422B
330
41EB
100
AcDbEntity
  8
MODEL
100
AcDbVertex
100
AcDb2dVertex
 10
127.5399590512344
 20
140.5152281907902
 30
0.0
  0
VERTEX
  5
422C
330
41EB
100
AcDbEntity
  8
MODEL
100
AcDbVertex
100
AcDb2dVertex
 10
127.5399590512344
 20
139.6050333631368
 30
0.0
  0
VERTEX
  5
422D
330
41EB
100
AcDbEntity
  8
MODEL
100
AcDbVertex
100
AcDb2dVertex
 10
127.5189439549109
 20
139.3931598510221
 30
0.0
  0
VERTEX
  5
422E
330
41EB
100
AcDbEntity
  8
MODEL
100
AcDbVertex
100
AcDb2dVertex
 10
127.5189439549109
 20
139.1606157523597
 30
0.0
  0
VERTEX
  5
422F
330
41EB
100
AcDbEntity
  8
MODEL
100
AcDbVertex
100
AcDb2dVertex
 10
127.4975843488115
 20
138.9277271439215
 30
0.0
  0
VERTEX
  5
4230
330
41EB
100
AcDbEntity
  8
MODEL
100
AcDbVertex
100
AcDb2dVertex
 10
127.4975843488115
 20
138.6948385354833
 30
0.0
  0
VERTEX
  5
4231
330
41EB
100
AcDbEntity
  8
MODEL
100
AcDbVertex
100
AcDb2dVertex
 10
127.4765692524879
 20
138.4833095331444
 30
0.0
  0
VERTEX
  5
4232
330
41EB
100
AcDbEntity
  8
MODEL
100
AcDbVertex
100
AcDb2dVertex
 10
127.4552096463886
 20
138.2504209247062
 30
0.0
  0
VERTEX
  5
4233
330
41EB
100
AcDbEntity
  8
MODEL
100
AcDbVertex
100
AcDb2dVertex
 10
127.434194550065
 20
138.0385474125916
 30
0.0
  0
VERTEX
  5
4234
330
41EB
100
AcDbEntity
  8
MODEL
100
AcDbVertex
100
AcDb2dVertex
 10
127.4128349439657
 20
137.8056588041533
 30
0.0
  0
VERTEX
  5
4235
330
41EB
100
AcDbEntity
  8
MODEL
100
AcDbVertex
100
AcDb2dVertex
 10
127.3708047513185
 20
137.5941298018145
 30
0.0
  0
VERTEX
  5
4236
330
41EB
100
AcDbEntity
  8
MODEL
100
AcDbVertex
100
AcDb2dVertex
 10
127.3494451452192
 20
137.3612411933763
 30
0.0
  0
VERTEX
  5
4237
330
41EB
100
AcDbEntity
  8
MODEL
100
AcDbVertex
100
AcDb2dVertex
 10
127.3284300488956
 20
137.1497121910374
 30
0.0
  0
VERTEX
  5
4238
330
41EB
100
AcDbEntity
  8
MODEL
100
AcDbVertex
100
AcDb2dVertex
 10
127.2860553464727
 20
136.9378386789228
 30
0.0
  0
VERTEX
  5
4239
330
41EB
100
AcDbEntity
  8
MODEL
100
AcDbVertex
100
AcDb2dVertex
 10
127.2646957403733
 20
136.7052945802604
 30
0.0
  0
VERTEX
  5
423A
330
41EB
100
AcDbEntity
  8
MODEL
100
AcDbVertex
100
AcDb2dVertex
 10
127.0531667380345
 20
135.6469605490146
 30
0.0
  0
VERTEX
  5
423B
330
41EB
100
AcDbEntity
  8
MODEL
100
AcDbVertex
100
AcDb2dVertex
 10
127.0107920356115
 20
135.4564466429993
 30
0.0
  0
VERTEX
  5
423C
330
41EB
100
AcDbEntity
  8
MODEL
100
AcDbVertex
100
AcDb2dVertex
 10
126.9684173331886
 20
135.2445731308846
 30
0.0
  0
VERTEX
  5
423D
330
41EB
100
AcDbEntity
  8
MODEL
100
AcDbVertex
100
AcDb2dVertex
 10
126.9260426307657
 20
135.0540592248694
 30
0.0
  0
VERTEX
  5
423E
330
41EB
100
AcDbEntity
  8
MODEL
100
AcDbVertex
100
AcDb2dVertex
 10
126.8836679283427
 20
134.8425302225305
 30
0.0
  0
VERTEX
  5
423F
330
41EB
100
AcDbEntity
  8
MODEL
100
AcDbVertex
100
AcDb2dVertex
 10
126.8202781295962
 20
134.6520163165152
 30
0.0
  0
VERTEX
  5
4240
330
41EB
100
AcDbEntity
  8
MODEL
100
AcDbVertex
100
AcDb2dVertex
 10
126.7355287247504
 20
134.2709885044847
 30
0.0
  0
VERTEX
  5
4241
330
41EB
100
AcDbEntity
  8
MODEL
100
AcDbVertex
100
AcDb2dVertex
 10
126.6721389260039
 20
134.0804745984694
 30
0.0
  0
VERTEX
  5
4242
330
41EB
100
AcDbEntity
  8
MODEL
100
AcDbVertex
100
AcDb2dVertex
 10
126.629764223581
 20
133.8899606924541
 30
0.0
  0
VERTEX
  5
4243
330
41EB
100
AcDbEntity
  8
MODEL
100
AcDbVertex
100
AcDb2dVertex
 10
126.5663744248345
 20
133.6994467864388
 30
0.0
  0
VERTEX
  5
4244
330
41EB
100
AcDbEntity
  8
MODEL
100
AcDbVertex
100
AcDb2dVertex
 10
126.5239997224115
 20
133.5089328804235
 30
0.0
  0
VERTEX
  5
4245
330
41EB
100
AcDbEntity
  8
MODEL
100
AcDbVertex
100
AcDb2dVertex
 10
126.3968756151428
 20
133.1702797708159
 30
0.0
  0
VERTEX
  5
4246
330
41EB
100
AcDbEntity
  8
MODEL
100
AcDbVertex
100
AcDb2dVertex
 10
126.3545009127198
 20
132.9797658648006
 30
0.0
  0
VERTEX
  5
4247
330
41EB
100
AcDbEntity
  8
MODEL
100
AcDbVertex
100
AcDb2dVertex
 10
126.2911111139733
 20
132.8106115648847
 30
0.0
  0
VERTEX
  5
4248
330
41EB
100
AcDbEntity
  8
MODEL
100
AcDbVertex
100
AcDb2dVertex
 10
126.2487364115504
 20
132.641112755193
 30
0.0
  0
VERTEX
  5
4249
330
41EB
100
AcDbEntity
  8
MODEL
100
AcDbVertex
100
AcDb2dVertex
 10
126.1853466128039
 20
132.4929735516006
 30
0.0
  0
VERTEX
  5
424A
330
41EB
100
AcDbEntity
  8
MODEL
100
AcDbVertex
100
AcDb2dVertex
 10
126.1219568140574
 20
132.3238192516847
 30
0.0
  0
VERTEX
  5
424B
330
41EB
100
AcDbEntity
  8
MODEL
100
AcDbVertex
100
AcDb2dVertex
 10
126.0795821116345
 20
132.154320441993
 30
0.0
  0
VERTEX
  5
424C
330
41EB
100
AcDbEntity
  8
MODEL
100
AcDbVertex
100
AcDb2dVertex
 10
125.9524580043657
 20
131.8580420348083
 30
0.0
  0
VERTEX
  5
424D
330
41EB
100
AcDbEntity
  8
MODEL
100
AcDbVertex
100
AcDb2dVertex
 10
125.9100833019428
 20
131.7099028312159
 30
0.0
  0
VERTEX
  5
424E
330
41EB
100
AcDbEntity
  8
MODEL
100
AcDbVertex
100
AcDb2dVertex
 10
125.8466935031963
 20
131.5617636276236
 30
0.0
  0
VERTEX
  5
424F
330
41EB
100
AcDbEntity
  8
MODEL
100
AcDbVertex
100
AcDb2dVertex
 10
125.8043188007733
 20
131.4136244240312
 30
0.0
  0
VERTEX
  5
4250
330
41EB
100
AcDbEntity
  8
MODEL
100
AcDbVertex
100
AcDb2dVertex
 10
125.7409290020269
 20
131.2654852204389
 30
0.0
  0
VERTEX
  5
4251
330
41EB
100
AcDbEntity
  8
MODEL
100
AcDbVertex
100
AcDb2dVertex
 10
125.6985542996039
 20
131.1383611131701
 30
0.0
  0
VERTEX
  5
4252
330
41EB
100
AcDbEntity
  8
MODEL
100
AcDbVertex
100
AcDb2dVertex
 10
125.6348199910816
 20
131.0112370059013
 30
0.0
  0
VERTEX
  5
4253
330
41EB
100
AcDbEntity
  8
MODEL
100
AcDbVertex
100
AcDb2dVertex
 10
125.5927897984345
 20
130.8844574084083
 30
0.0
  0
VERTEX
  5
4254
330
41EB
100
AcDbEntity
  8
MODEL
100
AcDbVertex
100
AcDb2dVertex
 10
125.5290554899122
 20
130.7573333011395
 30
0.0
  0
SEQEND
  5
4255
330
41EB
100
AcDbEntity
  8
MODEL
  0
POLYLINE
  5
4256
330
A
100
AcDbEntity
  8
MODEL
100
AcDb2dPolyline
 66
     1
 10
0.0
 20
0.0
 30
0.0
  0
VERTEX
  5
4257
330
4256
100
AcDbEntity
  8
MODEL
100
AcDbVertex
100
AcDb2dVertex
 10
123.7086658346053
 20
150.4422773803568
 30
0.0
  0
VERTEX
  5
4258
330
4256
100
AcDbEntity
  8
MODEL
100
AcDbVertex
100
AcDb2dVertex
 10
123.7300254407046
 20
150.4212622840333
 30
0.0
  0
VERTEX
  5
4259
330
4256
100
AcDbEntity
  8
MODEL
100
AcDbVertex
100
AcDb2dVertex
 10
123.7300254407046
 20
150.3999026779339
 30
0.0
  0
VERTEX
  5
425A
330
4256
100
AcDbEntity
  8
MODEL
100
AcDbVertex
100
AcDb2dVertex
 10
123.7510405370282
 20
150.3788875816103
 30
0.0
  0
VERTEX
  5
425B
330
4256
100
AcDbEntity
  8
MODEL
100
AcDbVertex
100
AcDb2dVertex
 10
123.7510405370282
 20
150.357527975511
 30
0.0
  0
VERTEX
  5
425C
330
4256
100
AcDbEntity
  8
MODEL
100
AcDbVertex
100
AcDb2dVertex
 10
123.7934152394511
 20
150.2731230804409
 30
0.0
  0
VERTEX
  5
425D
330
4256
100
AcDbEntity
  8
MODEL
100
AcDbVertex
100
AcDb2dVertex
 10
123.8147748455505
 20
150.2517634743415
 30
0.0
  0
VERTEX
  5
425E
330
4256
100
AcDbEntity
  8
MODEL
100
AcDbVertex
100
AcDb2dVertex
 10
123.835789941874
 20
150.1883736755951
 30
0.0
  0
VERTEX
  5
425F
330
4256
100
AcDbEntity
  8
MODEL
100
AcDbVertex
100
AcDb2dVertex
 10
123.8568050381976
 20
150.1459989731721
 30
0.0
  0
VERTEX
  5
4260
330
4256
100
AcDbEntity
  8
MODEL
100
AcDbVertex
100
AcDb2dVertex
 10
123.8991797406205
 20
150.1036242707492
 30
0.0
  0
VERTEX
  5
4261
330
4256
100
AcDbEntity
  8
MODEL
100
AcDbVertex
100
AcDb2dVertex
 10
123.9415544430435
 20
149.9765001634804
 30
0.0
  0
VERTEX
  5
4262
330
4256
100
AcDbEntity
  8
MODEL
100
AcDbVertex
100
AcDb2dVertex
 10
124.0263038478893
 20
149.8497205659874
 30
0.0
  0
VERTEX
  5
4263
330
4256
100
AcDbEntity
  8
MODEL
100
AcDbVertex
100
AcDb2dVertex
 10
124.0473189442129
 20
149.7863307672409
 30
0.0
  0
VERTEX
  5
4264
330
4256
100
AcDbEntity
  8
MODEL
100
AcDbVertex
100
AcDb2dVertex
 10
124.3015671587505
 20
149.2781788479416
 30
0.0
  0
VERTEX
  5
4265
330
4256
100
AcDbEntity
  8
MODEL
100
AcDbVertex
100
AcDb2dVertex
 10
124.364956957497
 20
149.1724143467722
 30
0.0
  0
VERTEX
  5
4266
330
4256
100
AcDbEntity
  8
MODEL
100
AcDbVertex
100
AcDb2dVertex
 10
124.4497063623428
 20
148.9605408346575
 30
0.0
  0
VERTEX
  5
4267
330
4256
100
AcDbEntity
  8
MODEL
100
AcDbVertex
100
AcDb2dVertex
 10
124.5130961610893
 20
148.8547763334881
 30
0.0
  0
VERTEX
  5
4268
330
4256
100
AcDbEntity
  8
MODEL
100
AcDbVertex
100
AcDb2dVertex
 10
124.5554708635122
 20
148.7490118323187
 30
0.0
  0
VERTEX
  5
4269
330
4256
100
AcDbEntity
  8
MODEL
100
AcDbVertex
100
AcDb2dVertex
 10
124.6188606622587
 20
148.6432473311492
 30
0.0
  0
VERTEX
  5
426A
330
4256
100
AcDbEntity
  8
MODEL
100
AcDbVertex
100
AcDb2dVertex
 10
124.6612353646817
 20
148.5161232238805
 30
0.0
  0
VERTEX
  5
426B
330
4256
100
AcDbEntity
  8
MODEL
100
AcDbVertex
100
AcDb2dVertex
 10
124.724969673204
 20
148.410358722711
 30
0.0
  0
VERTEX
  5
426C
330
4256
100
AcDbEntity
  8
MODEL
100
AcDbVertex
100
AcDb2dVertex
 10
124.7669998658511
 20
148.2832346154422
 30
0.0
  0
VERTEX
  5
426D
330
4256
100
AcDbEntity
  8
MODEL
100
AcDbVertex
100
AcDb2dVertex
 10
124.8941239731199
 20
148.0293309106805
 30
0.0
  0
VERTEX
  5
426E
330
4256
100
AcDbEntity
  8
MODEL
100
AcDbVertex
100
AcDb2dVertex
 10
124.9364986755428
 20
147.9022068034117
 30
0.0
  0
VERTEX
  5
426F
330
4256
100
AcDbEntity
  8
MODEL
100
AcDbVertex
100
AcDb2dVertex
 10
124.9998884742893
 20
147.7540675998193
 30
0.0
  0
VERTEX
  5
4270
330
4256
100
AcDbEntity
  8
MODEL
100
AcDbVertex
100
AcDb2dVertex
 10
125.0636227828116
 20
147.6272880023263
 30
0.0
  0
VERTEX
  5
4271
330
4256
100
AcDbEntity
  8
MODEL
100
AcDbVertex
100
AcDb2dVertex
 10
125.1056529754587
 20
147.479148798734
 30
0.0
  0
VERTEX
  5
4272
330
4256
100
AcDbEntity
  8
MODEL
100
AcDbVertex
100
AcDb2dVertex
 10
125.296166881474
 20
147.0343866781811
 30
0.0
  0
VERTEX
  5
4273
330
4256
100
AcDbEntity
  8
MODEL
100
AcDbVertex
100
AcDb2dVertex
 10
125.3385415838969
 20
146.8862474745888
 30
0.0
  0
VERTEX
  5
4274
330
4256
100
AcDbEntity
  8
MODEL
100
AcDbVertex
100
AcDb2dVertex
 10
125.4022758924192
 20
146.7381082709964
 30
0.0
  0
VERTEX
  5
4275
330
4256
100
AcDbEntity
  8
MODEL
100
AcDbVertex
100
AcDb2dVertex
 10
125.4656656911657
 20
146.5689539710805
 30
0.0
  0
VERTEX
  5
4276
330
4256
100
AcDbEntity
  8
MODEL
100
AcDbVertex
100
AcDb2dVertex
 10
125.5290554899122
 20
146.4208147674881
 30
0.0
  0
VERTEX
  5
4277
330
4256
100
AcDbEntity
  8
MODEL
100
AcDbVertex
100
AcDb2dVertex
 10
125.5714301923351
 20
146.2513159577964
 30
0.0
  0
VERTEX
  5
4278
330
4256
100
AcDbEntity
  8
MODEL
100
AcDbVertex
100
AcDb2dVertex
 10
125.6985542996039
 20
145.9126628481888
 30
0.0
  0
VERTEX
  5
4279
330
4256
100
AcDbEntity
  8
MODEL
100
AcDbVertex
100
AcDb2dVertex
 10
125.7409290020269
 20
145.7431640384971
 30
0.0
  0
VERTEX
  5
427A
330
4256
100
AcDbEntity
  8
MODEL
100
AcDbVertex
100
AcDb2dVertex
 10
125.8043188007733
 20
145.5740097385812
 30
0.0
  0
VERTEX
  5
427B
330
4256
100
AcDbEntity
  8
MODEL
100
AcDbVertex
100
AcDb2dVertex
 10
125.8466935031963
 20
145.4045109288894
 30
0.0
  0
VERTEX
  5
427C
330
4256
100
AcDbEntity
  8
MODEL
100
AcDbVertex
100
AcDb2dVertex
 10
125.9100833019428
 20
145.2353566289735
 30
0.0
  0
VERTEX
  5
427D
330
4256
100
AcDbEntity
  8
MODEL
100
AcDbVertex
100
AcDb2dVertex
 10
125.9524580043657
 20
145.0448427229582
 30
0.0
  0
VERTEX
  5
427E
330
4256
100
AcDbEntity
  8
MODEL
100
AcDbVertex
100
AcDb2dVertex
 10
126.0158478031122
 20
144.8753439132665
 30
0.0
  0
VERTEX
  5
427F
330
4256
100
AcDbEntity
  8
MODEL
100
AcDbVertex
100
AcDb2dVertex
 10
126.1005972079581
 20
144.4946606110118
 30
0.0
  0
VERTEX
  5
4280
330
4256
100
AcDbEntity
  8
MODEL
100
AcDbVertex
100
AcDb2dVertex
 10
126.1639870067045
 20
144.3041467049965
 30
0.0
  0
VERTEX
  5
4281
330
4256
100
AcDbEntity
  8
MODEL
100
AcDbVertex
100
AcDb2dVertex
 10
126.2911111139733
 20
143.7326049869506
 30
0.0
  0
VERTEX
  5
4282
330
4256
100
AcDbEntity
  8
MODEL
100
AcDbVertex
100
AcDb2dVertex
 10
126.3124707200727
 20
143.5420910809354
 30
0.0
  0
VERTEX
  5
4283
330
4256
100
AcDbEntity
  8
MODEL
100
AcDbVertex
100
AcDb2dVertex
 10
126.3545009127198
 20
143.3515771749201
 30
0.0
  0
VERTEX
  5
4284
330
4256
100
AcDbEntity
  8
MODEL
100
AcDbVertex
100
AcDb2dVertex
 10
126.3968756151428
 20
143.1397036628054
 30
0.0
  0
VERTEX
  5
4285
330
4256
100
AcDbEntity
  8
MODEL
100
AcDbVertex
100
AcDb2dVertex
 10
126.4182352212421
 20
142.9491897567902
 30
0.0
  0
VERTEX
  5
4286
330
4256
100
AcDbEntity
  8
MODEL
100
AcDbVertex
100
AcDb2dVertex
 10
126.460609923665
 20
142.7586758507749
 30
0.0
  0
VERTEX
  5
4287
330
4256
100
AcDbEntity
  8
MODEL
100
AcDbVertex
100
AcDb2dVertex
 10
126.4816250199886
 20
142.547146848436
 30
0.0
  0
VERTEX
  5
4288
330
4256
100
AcDbEntity
  8
MODEL
100
AcDbVertex
100
AcDb2dVertex
 10
126.5239997224115
 20
142.3566329424207
 30
0.0
  0
VERTEX
  5
4289
330
4256
100
AcDbEntity
  8
MODEL
100
AcDbVertex
100
AcDb2dVertex
 10
126.5663744248345
 20
141.9332304279673
 30
0.0
  0
VERTEX
  5
428A
330
4256
100
AcDbEntity
  8
MODEL
100
AcDbVertex
100
AcDb2dVertex
 10
126.587389521158
 20
141.742716521952
 30
0.0
  0
VERTEX
  5
428B
330
4256
100
AcDbEntity
  8
MODEL
100
AcDbVertex
100
AcDb2dVertex
 10
126.629764223581
 20
141.3196585172743
 30
0.0
  0
VERTEX
  5
428C
330
4256
100
AcDbEntity
  8
MODEL
100
AcDbVertex
100
AcDb2dVertex
 10
126.629764223581
 20
141.1077850051596
 30
0.0
  0
VERTEX
  5
428D
330
4256
100
AcDbEntity
  8
MODEL
100
AcDbVertex
100
AcDb2dVertex
 10
126.6511238296803
 20
140.9172710991444
 30
0.0
  0
VERTEX
  5
428E
330
4256
100
AcDbEntity
  8
MODEL
100
AcDbVertex
100
AcDb2dVertex
 10
126.6511238296803
 20
140.4938685846909
 30
0.0
  0
VERTEX
  5
428F
330
4256
100
AcDbEntity
  8
MODEL
100
AcDbVertex
100
AcDb2dVertex
 10
126.6721389260039
 20
140.282339582352
 30
0.0
  0
VERTEX
  5
4290
330
4256
100
AcDbEntity
  8
MODEL
100
AcDbVertex
100
AcDb2dVertex
 10
126.6721389260039
 20
139.8589370678985
 30
0.0
  0
VERTEX
  5
4291
330
4256
100
AcDbEntity
  8
MODEL
100
AcDbVertex
100
AcDb2dVertex
 10
126.6511238296803
 20
139.6684231618832
 30
0.0
  0
VERTEX
  5
4292
330
4256
100
AcDbEntity
  8
MODEL
100
AcDbVertex
100
AcDb2dVertex
 10
126.6511238296803
 20
139.2450206474298
 30
0.0
  0
VERTEX
  5
4293
330
4256
100
AcDbEntity
  8
MODEL
100
AcDbVertex
100
AcDb2dVertex
 10
126.6087491272574
 20
138.8219626427521
 30
0.0
  0
VERTEX
  5
4294
330
4256
100
AcDbEntity
  8
MODEL
100
AcDbVertex
100
AcDb2dVertex
 10
126.587389521158
 20
138.6314487367368
 30
0.0
  0
VERTEX
  5
4295
330
4256
100
AcDbEntity
  8
MODEL
100
AcDbVertex
100
AcDb2dVertex
 10
126.587389521158
 20
138.4195752246221
 30
0.0
  0
VERTEX
  5
4296
330
4256
100
AcDbEntity
  8
MODEL
100
AcDbVertex
100
AcDb2dVertex
 10
126.5450148187351
 20
138.2080462222833
 30
0.0
  0
VERTEX
  5
4297
330
4256
100
AcDbEntity
  8
MODEL
100
AcDbVertex
100
AcDb2dVertex
 10
126.5239997224115
 20
138.017532316268
 30
0.0
  0
VERTEX
  5
4298
330
4256
100
AcDbEntity
  8
MODEL
100
AcDbVertex
100
AcDb2dVertex
 10
126.5026401163122
 20
137.8056588041533
 30
0.0
  0
VERTEX
  5
4299
330
4256
100
AcDbEntity
  8
MODEL
100
AcDbVertex
100
AcDb2dVertex
 10
126.4816250199886
 20
137.6154894079139
 30
0.0
  0
VERTEX
  5
429A
330
4256
100
AcDbEntity
  8
MODEL
100
AcDbVertex
100
AcDb2dVertex
 10
126.4392503175657
 20
137.4036158957992
 30
0.0
  0
VERTEX
  5
429B
330
4256
100
AcDbEntity
  8
MODEL
100
AcDbVertex
100
AcDb2dVertex
 10
126.3968756151428
 20
137.2131019897839
 30
0.0
  0
VERTEX
  5
429C
330
4256
100
AcDbEntity
  8
MODEL
100
AcDbVertex
100
AcDb2dVertex
 10
126.3758605188192
 20
137.0225880837687
 30
0.0
  0
VERTEX
  5
429D
330
4256
100
AcDbEntity
  8
MODEL
100
AcDbVertex
100
AcDb2dVertex
 10
126.3334858163963
 20
136.8110590814298
 30
0.0
  0
VERTEX
  5
429E
330
4256
100
AcDbEntity
  8
MODEL
100
AcDbVertex
100
AcDb2dVertex
 10
126.1219568140574
 20
135.8584895513534
 30
0.0
  0
VERTEX
  5
429F
330
4256
100
AcDbEntity
  8
MODEL
100
AcDbVertex
100
AcDb2dVertex
 10
126.0795821116345
 20
135.6889907416617
 30
0.0
  0
VERTEX
  5
42A0
330
4256
100
AcDbEntity
  8
MODEL
100
AcDbVertex
100
AcDb2dVertex
 10
126.0158478031122
 20
135.4988213454222
 30
0.0
  0
VERTEX
  5
42A1
330
4256
100
AcDbEntity
  8
MODEL
100
AcDbVertex
100
AcDb2dVertex
 10
125.9734731006893
 20
135.3083074394069
 30
0.0
  0
VERTEX
  5
42A2
330
4256
100
AcDbEntity
  8
MODEL
100
AcDbVertex
100
AcDb2dVertex
 10
125.9314429080421
 20
135.1388086297152
 30
0.0
  0
VERTEX
  5
42A3
330
4256
100
AcDbEntity
  8
MODEL
100
AcDbVertex
100
AcDb2dVertex
 10
125.8677085995198
 20
134.9696543297993
 30
0.0
  0
VERTEX
  5
42A4
330
4256
100
AcDbEntity
  8
MODEL
100
AcDbVertex
100
AcDb2dVertex
 10
125.8253338970969
 20
134.779140423784
 30
0.0
  0
VERTEX
  5
42A5
330
4256
100
AcDbEntity
  8
MODEL
100
AcDbVertex
100
AcDb2dVertex
 10
125.7619440983504
 20
134.6096416140923
 30
0.0
  0
VERTEX
  5
42A6
330
4256
100
AcDbEntity
  8
MODEL
100
AcDbVertex
100
AcDb2dVertex
 10
125.7195693959275
 20
134.4404873141764
 30
0.0
  0
VERTEX
  5
42A7
330
4256
100
AcDbEntity
  8
MODEL
100
AcDbVertex
100
AcDb2dVertex
 10
125.5927897984345
 20
134.1014896947929
 30
0.0
  0
VERTEX
  5
42A8
330
4256
100
AcDbEntity
  8
MODEL
100
AcDbVertex
100
AcDb2dVertex
 10
125.5504150960116
 20
133.932335394877
 30
0.0
  0
VERTEX
  5
42A9
330
4256
100
AcDbEntity
  8
MODEL
100
AcDbVertex
100
AcDb2dVertex
 10
125.4866807874893
 20
133.7841961912847
 30
0.0
  0
VERTEX
  5
42AA
330
4256
100
AcDbEntity
  8
MODEL
100
AcDbVertex
100
AcDb2dVertex
 10
125.4232909887428
 20
133.614697381593
 30
0.0
  0
VERTEX
  5
42AB
330
4256
100
AcDbEntity
  8
MODEL
100
AcDbVertex
100
AcDb2dVertex
 10
125.3599011899963
 20
133.4665581780006
 30
0.0
  0
VERTEX
  5
42AC
330
4256
100
AcDbEntity
  8
MODEL
100
AcDbVertex
100
AcDb2dVertex
 10
125.3175264875734
 20
133.3184189744083
 30
0.0
  0
VERTEX
  5
42AD
330
4256
100
AcDbEntity
  8
MODEL
100
AcDbVertex
100
AcDb2dVertex
 10
125.1270125815581
 20
132.8740013636312
 30
0.0
  0
VERTEX
  5
42AE
330
4256
100
AcDbEntity
  8
MODEL
100
AcDbVertex
100
AcDb2dVertex
 10
125.0846378791352
 20
132.7258621600388
 30
0.0
  0
VERTEX
  5
42AF
330
4256
100
AcDbEntity
  8
MODEL
100
AcDbVertex
100
AcDb2dVertex
 10
125.0212480803887
 20
132.5987380527701
 30
0.0
  0
VERTEX
  5
42B0
330
4256
100
AcDbEntity
  8
MODEL
100
AcDbVertex
100
AcDb2dVertex
 10
124.9575137718664
 20
132.4505988491777
 30
0.0
  0
VERTEX
  5
42B1
330
4256
100
AcDbEntity
  8
MODEL
100
AcDbVertex
100
AcDb2dVertex
 10
124.8941239731199
 20
132.3238192516847
 30
0.0
  0
VERTEX
  5
42B2
330
4256
100
AcDbEntity
  8
MODEL
100
AcDbVertex
100
AcDb2dVertex
 10
124.8517492706969
 20
132.1966951444159
 30
0.0
  0
VERTEX
  5
42B3
330
4256
100
AcDbEntity
  8
MODEL
100
AcDbVertex
100
AcDb2dVertex
 10
124.724969673204
 20
131.9427914396542
 30
0.0
  0
VERTEX
  5
42B4
330
4256
100
AcDbEntity
  8
MODEL
100
AcDbVertex
100
AcDb2dVertex
 10
124.682594970781
 20
131.8156673323854
 30
0.0
  0
VERTEX
  5
42B5
330
4256
100
AcDbEntity
  8
MODEL
100
AcDbVertex
100
AcDb2dVertex
 10
124.6188606622587
 20
131.6885432251166
 30
0.0
  0
VERTEX
  5
42B6
330
4256
100
AcDbEntity
  8
MODEL
100
AcDbVertex
100
AcDb2dVertex
 10
124.5764859598358
 20
131.5827787239472
 30
0.0
  0
SEQEND
  5
42B7
330
4256
100
AcDbEntity
  8
MODEL
  0
POLYLINE
  5
42B8
330
A
100
AcDbEntity
  8
MODEL
100
AcDb2dPolyline
 66
     1
 10
0.0
 20
0.0
 30
0.0
  0
VERTEX
  5
42B9
330
42B8
100
AcDbEntity
  8
MODEL
100
AcDbVertex
100
AcDb2dVertex
 10
146.6957361148288
 20
118.2545816591167
 30
0.0
  0
VERTEX
  5
42BA
330
42B8
100
AcDbEntity
  8
MODEL
100
AcDbVertex
100
AcDb2dVertex
 10
126.947402236865
 20
118.2545816591167
 30
0.0
  0
SEQEND
  5
42BB
330
42B8
100
AcDbEntity
  8
MODEL
  0
POLYLINE
  5
42BC
330
A
100
AcDbEntity
  8
MODEL
100
AcDb2dPolyline
 66
     1
 10
0.0
 20
0.0
 30
0.0
  0
VERTEX
  5
42BD
330
42BC
100
AcDbEntity
  8
MODEL
100
AcDbVertex
100
AcDb2dVertex
 10
126.2063617091275
 20
118.9956221868542
 30
0.0
  0
VERTEX
  5
42BE
330
42BC
100
AcDbEntity
  8
MODEL
100
AcDbVertex
100
AcDb2dVertex
 10
146.6957361148288
 20
118.9956221868542
 30
0.0
  0
SEQEND
  5
42BF
330
42BC
100
AcDbEntity
  8
MODEL
  0
POLYLINE
  5
42C0
330
A
100
AcDbEntity
  8
MODEL
100
AcDb2dPolyline
 66
     1
 10
0.0
 20
0.0
 30
0.0
  0
VERTEX
  5
42C1
330
42C0
100
AcDbEntity
  8
MODEL
100
AcDbVertex
100
AcDb2dVertex
 10
125.5290554899122
 20
130.7573333011395
 30
0.0
  0
VERTEX
  5
42C2
330
42C0
100
AcDbEntity
  8
MODEL
100
AcDbVertex
100
AcDb2dVertex
 10
168.7092217686524
 20
130.7573333011395
 30
0.0
  0
SEQEND
  5
42C3
330
42C0
100
AcDbEntity
  8
MODEL
  0
POLYLINE
  5
42C4
330
A
100
AcDbEntity
  8
MODEL
100
AcDb2dPolyline
 66
     1
 10
0.0
 20
0.0
 30
0.0
  0
VERTEX
  5
42C5
330
42C4
100
AcDbEntity
  8
MODEL
100
AcDbVertex
100
AcDb2dVertex
 10
102.7114840193804
 20
130.9054725047319
 30
0.0
  0
VERTEX
  5
42C6
330
42C4
100
AcDbEntity
  8
MODEL
100
AcDbVertex
100
AcDb2dVertex
 10
102.7326713705918
 20
130.5034295963778
 30
0.0
  0
VERTEX
  5
42C7
330
42C4
100
AcDbEntity
  8
MODEL
100
AcDbVertex
100
AcDb2dVertex
 10
102.8596232229727
 20
130.1434168806708
 30
0.0
  0
VERTEX
  5
42C8
330
42C4
100
AcDbEntity
  8
MODEL
100
AcDbVertex
100
AcDb2dVertex
 10
103.0289497777765
 20
129.7837486747396
 30
0.0
  0
VERTEX
  5
42C9
330
42C4
100
AcDbEntity
  8
MODEL
100
AcDbVertex
100
AcDb2dVertex
 10
103.2830257374262
 20
129.4874702675549
 30
0.0
  0
VERTEX
  5
42CA
330
42C4
100
AcDbEntity
  8
MODEL
100
AcDbVertex
100
AcDb2dVertex
 10
103.6004914958224
 20
129.2332220530173
 30
0.0
  0
VERTEX
  5
42CB
330
42C4
100
AcDbEntity
  8
MODEL
100
AcDbVertex
100
AcDb2dVertex
 10
103.93914460543
 20
129.0640677531014
 30
0.0
  0
VERTEX
  5
42CC
330
42C4
100
AcDbEntity
  8
MODEL
100
AcDbVertex
100
AcDb2dVertex
 10
104.3201724174606
 20
128.9369436458326
 30
0.0
  0
VERTEX
  5
42CD
330
42C4
100
AcDbEntity
  8
MODEL
100
AcDbVertex
100
AcDb2dVertex
 10
104.7012002294911
 20
128.8945689434097
 30
0.0
  0
SEQEND
  5
42CE
330
42C4
100
AcDbEntity
  8
MODEL
  0
POLYLINE
  5
42CF
330
A
100
AcDbEntity
  8
MODEL
100
AcDb2dPolyline
 66
     1
 10
0.0
 20
0.0
 30
0.0
  0
VERTEX
  5
42D0
330
42CF
100
AcDbEntity
  8
MODEL
100
AcDbVertex
100
AcDb2dVertex
 10
104.7012002294911
 20
128.8945689434097
 30
0.0
  0
VERTEX
  5
42D1
330
42CF
100
AcDbEntity
  8
MODEL
100
AcDbVertex
100
AcDb2dVertex
 10
113.6968672401928
 20
128.8945689434097
 30
0.0
  0
SEQEND
  5
42D2
330
42CF
100
AcDbEntity
  8
MODEL
  0
POLYLINE
  5
42D3
330
A
100
AcDbEntity
  8
MODEL
100
AcDb2dPolyline
 66
     1
 10
0.0
 20
0.0
 30
0.0
  0
VERTEX
  5
42D4
330
42D3
100
AcDbEntity
  8
MODEL
100
AcDbVertex
100
AcDb2dVertex
 10
126.2063617091275
 20
129.2545816591167
 30
0.0
  0
VERTEX
  5
42D5
330
42D3
100
AcDbEntity
  8
MODEL
100
AcDbVertex
100
AcDb2dVertex
 10
146.6957361148288
 20
129.2545816591167
 30
0.0
  0
SEQEND
  5
42D6
330
42D3
100
AcDbEntity
  8
MODEL
  0
POLYLINE
  5
42D7
330
A
100
AcDbEntity
  8
MODEL
100
AcDb2dPolyline
 66
     1
 10
0.0
 20
0.0
 30
0.0
  0
VERTEX
  5
42D8
330
42D7
100
AcDbEntity
  8
MODEL
100
AcDbVertex
100
AcDb2dVertex
 10
105.7383469095255
 20
132.154320441993
 30
0.0
  0
VERTEX
  5
42D9
330
42D7
100
AcDbEntity
  8
MODEL
100
AcDbVertex
100
AcDb2dVertex
 10
109.7598095223942
 20
132.154320441993
 30
0.0
  0
SEQEND
  5
42DA
330
42D7
100
AcDbEntity
  8
MODEL
  0
POLYLINE
  5
42DB
330
A
100
AcDbEntity
  8
MODEL
100
AcDb2dPolyline
 66
     1
 10
0.0
 20
0.0
 30
0.0
  0
VERTEX
  5
42DC
330
42DB
100
AcDbEntity
  8
MODEL
100
AcDbVertex
100
AcDb2dVertex
 10
105.7383469095255
 20
131.0112370059013
 30
0.0
  0
VERTEX
  5
42DD
330
42DB
100
AcDbEntity
  8
MODEL
100
AcDbVertex
100
AcDb2dVertex
 10
109.7598095223942
 20
131.0112370059013
 30
0.0
  0
SEQEND
  5
42DE
330
42DB
100
AcDbEntity
  8
MODEL
  0
POLYLINE
  5
42DF
330
A
100
AcDbEntity
  8
MODEL
100
AcDb2dPolyline
 66
     1
 10
0.0
 20
0.0
 30
0.0
  0
VERTEX
  5
42E0
330
42DF
100
AcDbEntity
  8
MODEL
100
AcDbVertex
100
AcDb2dVertex
 10
105.7383469095255
 20
133.2974038780847
 30
0.0
  0
VERTEX
  5
42E1
330
42DF
100
AcDbEntity
  8
MODEL
100
AcDbVertex
100
AcDb2dVertex
 10
109.7598095223942
 20
133.2974038780847
 30
0.0
  0
SEQEND
  5
42E2
330
42DF
100
AcDbEntity
  8
MODEL
  0
POLYLINE
  5
42E3
330
A
100
AcDbEntity
  8
MODEL
100
AcDb2dPolyline
 66
     1
 10
0.0
 20
0.0
 30
0.0
  0
VERTEX
  5
42E4
330
42E3
100
AcDbEntity
  8
MODEL
100
AcDbVertex
100
AcDb2dVertex
 10
105.7383469095255
 20
129.8681535698096
 30
0.0
  0
VERTEX
  5
42E5
330
42E3
100
AcDbEntity
  8
MODEL
100
AcDbVertex
100
AcDb2dVertex
 10
109.7598095223942
 20
129.8681535698096
 30
0.0
  0
SEQEND
  5
42E6
330
42E3
100
AcDbEntity
  8
MODEL
  0
POLYLINE
  5
42E7
330
A
100
AcDbEntity
  8
MODEL
100
AcDb2dPolyline
 66
     1
 10
0.0
 20
0.0
 30
0.0
  0
VERTEX
  5
42E8
330
42E7
100
AcDbEntity
  8
MODEL
100
AcDbVertex
100
AcDb2dVertex
 10
125.2327770827275
 20
129.6142498650479
 30
0.0
  0
VERTEX
  5
42E9
330
42E7
100
AcDbEntity
  8
MODEL
100
AcDbVertex
100
AcDb2dVertex
 10
125.5290554899122
 20
129.4237359590326
 30
0.0
  0
VERTEX
  5
42EA
330
42E7
100
AcDbEntity
  8
MODEL
100
AcDbVertex
100
AcDb2dVertex
 10
125.8466935031963
 20
129.2969563615396
 30
0.0
  0
VERTEX
  5
42EB
330
42E7
100
AcDbEntity
  8
MODEL
100
AcDbVertex
100
AcDb2dVertex
 10
126.2063617091275
 20
129.2545816591167
 30
0.0
  0
SEQEND
  5
42EC
330
42E7
100
AcDbEntity
  8
MODEL
  0
POLYLINE
  5
42ED
330
A
100
AcDbEntity
  8
MODEL
100
AcDb2dPolyline
 66
     1
 10
0.0
 20
0.0
 30
0.0
  0
VERTEX
  5
42EE
330
42ED
100
AcDbEntity
  8
MODEL
100
AcDbVertex
100
AcDb2dVertex
 10
113.6968672401928
 20
129.8471384734861
 30
0.0
  0
VERTEX
  5
42EF
330
42ED
100
AcDbEntity
  8
MODEL
100
AcDbVertex
100
AcDb2dVertex
 10
124.5764859598358
 20
129.8471384734861
 30
0.0
  0
SEQEND
  5
42F0
330
42ED
100
AcDbEntity
  8
MODEL
  0
POLYLINE
  5
42F6
330
A
100
AcDbEntity
  8
MODEL
100
AcDb2dPolyline
 66
     1
 10
0.0
 20
0.0
 30
0.0
  0
VERTEX
  5
42F7
330
42F6
100
AcDbEntity
  8
MODEL
100
AcDbVertex
100
AcDb2dVertex
 10
125.5290554899122
 20
130.7573333011395
 30
0.0
  0
VERTEX
  5
42F8
330
42F6
100
AcDbEntity
  8
MODEL
100
AcDbVertex
100
AcDb2dVertex
 10
125.5080403935886
 20
130.820723099886
 30
0.0
  0
VERTEX
  5
42F9
330
42F6
100
AcDbEntity
  8
MODEL
100
AcDbVertex
100
AcDb2dVertex
 10
125.4866807874893
 20
130.9054725047319
 30
0.0
  0
VERTEX
  5
42FA
330
42F6
100
AcDbEntity
  8
MODEL
100
AcDbVertex
100
AcDb2dVertex
 10
125.4656656911657
 20
130.9688623034784
 30
0.0
  0
VERTEX
  5
42FB
330
42F6
100
AcDbEntity
  8
MODEL
100
AcDbVertex
100
AcDb2dVertex
 10
125.4232909887428
 20
131.0536117083242
 30
0.0
  0
VERTEX
  5
42FC
330
42F6
100
AcDbEntity
  8
MODEL
100
AcDbVertex
100
AcDb2dVertex
 10
125.3809162863199
 20
131.1170015070707
 30
0.0
  0
VERTEX
  5
42FD
330
42F6
100
AcDbEntity
  8
MODEL
100
AcDbVertex
100
AcDb2dVertex
 10
125.3175264875734
 20
131.180735815593
 30
0.0
  0
VERTEX
  5
42FE
330
42F6
100
AcDbEntity
  8
MODEL
100
AcDbVertex
100
AcDb2dVertex
 10
125.2751517851504
 20
131.2441256143395
 30
0.0
  0
VERTEX
  5
42FF
330
42F6
100
AcDbEntity
  8
MODEL
100
AcDbVertex
100
AcDb2dVertex
 10
125.2117619864039
 20
131.307515413086
 30
0.0
  0
VERTEX
  5
4300
330
42F6
100
AcDbEntity
  8
MODEL
100
AcDbVertex
100
AcDb2dVertex
 10
125.1480276778816
 20
131.349890115509
 30
0.0
  0
VERTEX
  5
4301
330
42F6
100
AcDbEntity
  8
MODEL
100
AcDbVertex
100
AcDb2dVertex
 10
125.0636227828116
 20
131.4136244240312
 30
0.0
  0
VERTEX
  5
4302
330
42F6
100
AcDbEntity
  8
MODEL
100
AcDbVertex
100
AcDb2dVertex
 10
124.9998884742893
 20
131.4556546166784
 30
0.0
  0
VERTEX
  5
4303
330
42F6
100
AcDbEntity
  8
MODEL
100
AcDbVertex
100
AcDb2dVertex
 10
124.9151390694434
 20
131.4980293191013
 30
0.0
  0
VERTEX
  5
4304
330
42F6
100
AcDbEntity
  8
MODEL
100
AcDbVertex
100
AcDb2dVertex
 10
124.8307341743734
 20
131.5193889252007
 30
0.0
  0
VERTEX
  5
4305
330
42F6
100
AcDbEntity
  8
MODEL
100
AcDbVertex
100
AcDb2dVertex
 10
124.5764859598358
 20
131.5827787239472
 30
0.0
  0
SEQEND
  5
4306
330
42F6
100
AcDbEntity
  8
MODEL
  0
POLYLINE
  5
4307
330
A
100
AcDbEntity
  8
MODEL
100
AcDb2dPolyline
 66
     1
 10
0.0
 20
0.0
 30
0.0
  0
VERTEX
  5
4308
330
4307
100
AcDbEntity
  8
MODEL
100
AcDbVertex
100
AcDb2dVertex
 10
125.5290554899122
 20
130.7573333011395
 30
0.0
  0
VERTEX
  5
4309
330
4307
100
AcDbEntity
  8
MODEL
100
AcDbVertex
100
AcDb2dVertex
 10
125.4443060850664
 20
130.6302091938708
 30
0.0
  0
VERTEX
  5
430A
330
4307
100
AcDbEntity
  8
MODEL
100
AcDbVertex
100
AcDb2dVertex
 10
125.4232909887428
 20
130.5458042988007
 30
0.0
  0
VERTEX
  5
430B
330
4307
100
AcDbEntity
  8
MODEL
100
AcDbVertex
100
AcDb2dVertex
 10
125.3809162863199
 20
130.5034295963778
 30
0.0
  0
VERTEX
  5
430C
330
4307
100
AcDbEntity
  8
MODEL
100
AcDbVertex
100
AcDb2dVertex
 10
125.3599011899963
 20
130.4396952878555
 30
0.0
  0
VERTEX
  5
430D
330
4307
100
AcDbEntity
  8
MODEL
100
AcDbVertex
100
AcDb2dVertex
 10
125.3175264875734
 20
130.376305489109
 30
0.0
  0
VERTEX
  5
430E
330
4307
100
AcDbEntity
  8
MODEL
100
AcDbVertex
100
AcDb2dVertex
 10
125.296166881474
 20
130.3129156903625
 30
0.0
  0
VERTEX
  5
430F
330
4307
100
AcDbEntity
  8
MODEL
100
AcDbVertex
100
AcDb2dVertex
 10
125.2751517851504
 20
130.2705409879396
 30
0.0
  0
VERTEX
  5
4310
330
4307
100
AcDbEntity
  8
MODEL
100
AcDbVertex
100
AcDb2dVertex
 10
125.2541366888269
 20
130.2071511891931
 30
0.0
  0
VERTEX
  5
4311
330
4307
100
AcDbEntity
  8
MODEL
100
AcDbVertex
100
AcDb2dVertex
 10
125.2541366888269
 20
130.1647764867701
 30
0.0
  0
VERTEX
  5
4312
330
4307
100
AcDbEntity
  8
MODEL
100
AcDbVertex
100
AcDb2dVertex
 10
125.2327770827275
 20
130.1224017843472
 30
0.0
  0
VERTEX
  5
4313
330
4307
100
AcDbEntity
  8
MODEL
100
AcDbVertex
100
AcDb2dVertex
 10
125.2117619864039
 20
130.0586674758249
 30
0.0
  0
VERTEX
  5
4314
330
4307
100
AcDbEntity
  8
MODEL
100
AcDbVertex
100
AcDb2dVertex
 10
125.2117619864039
 20
129.9742625807548
 30
0.0
  0
VERTEX
  5
4315
330
4307
100
AcDbEntity
  8
MODEL
100
AcDbVertex
100
AcDb2dVertex
 10
125.1904023803046
 20
129.9318878783319
 30
0.0
  0
VERTEX
  5
4316
330
4307
100
AcDbEntity
  8
MODEL
100
AcDbVertex
100
AcDb2dVertex
 10
125.1904023803046
 20
129.7200143662173
 30
0.0
  0
VERTEX
  5
4317
330
4307
100
AcDbEntity
  8
MODEL
100
AcDbVertex
100
AcDb2dVertex
 10
125.2117619864039
 20
129.6989992698937
 30
0.0
  0
VERTEX
  5
4318
330
4307
100
AcDbEntity
  8
MODEL
100
AcDbVertex
100
AcDb2dVertex
 10
125.2117619864039
 20
129.6142498650479
 30
0.0
  0
VERTEX
  5
4319
330
4307
100
AcDbEntity
  8
MODEL
100
AcDbVertex
100
AcDb2dVertex
 10
125.2327770827275
 20
129.6142498650479
 30
0.0
  0
SEQEND
  5
431A
330
4307
100
AcDbEntity
  8
MODEL
  0
POLYLINE
  5
431B
330
A
100
AcDbEntity
  8
MODEL
100
AcDb2dPolyline
 66
     1
 10
0.0
 20
0.0
 30
0.0
  0
VERTEX
  5
431C
330
431B
100
AcDbEntity
  8
MODEL
100
AcDbVertex
100
AcDb2dVertex
 10
125.2327770827275
 20
129.6142498650479
 30
0.0
  0
VERTEX
  5
431D
330
431B
100
AcDbEntity
  8
MODEL
100
AcDbVertex
100
AcDb2dVertex
 10
125.1480276778816
 20
129.6566245674708
 30
0.0
  0
VERTEX
  5
431E
330
431B
100
AcDbEntity
  8
MODEL
100
AcDbVertex
100
AcDb2dVertex
 10
125.1270125815581
 20
129.6989992698937
 30
0.0
  0
VERTEX
  5
431F
330
431B
100
AcDbEntity
  8
MODEL
100
AcDbVertex
100
AcDb2dVertex
 10
125.0846378791352
 20
129.7200143662173
 30
0.0
  0
VERTEX
  5
4320
330
431B
100
AcDbEntity
  8
MODEL
100
AcDbVertex
100
AcDb2dVertex
 10
124.9575137718664
 20
129.7837486747396
 30
0.0
  0
VERTEX
  5
4321
330
431B
100
AcDbEntity
  8
MODEL
100
AcDbVertex
100
AcDb2dVertex
 10
124.9151390694434
 20
129.7837486747396
 30
0.0
  0
VERTEX
  5
4322
330
431B
100
AcDbEntity
  8
MODEL
100
AcDbVertex
100
AcDb2dVertex
 10
124.8731088767963
 20
129.8047637710632
 30
0.0
  0
VERTEX
  5
4323
330
431B
100
AcDbEntity
  8
MODEL
100
AcDbVertex
100
AcDb2dVertex
 10
124.8307341743734
 20
129.8261233771625
 30
0.0
  0
VERTEX
  5
4324
330
431B
100
AcDbEntity
  8
MODEL
100
AcDbVertex
100
AcDb2dVertex
 10
124.7459847695275
 20
129.8261233771625
 30
0.0
  0
VERTEX
  5
4325
330
431B
100
AcDbEntity
  8
MODEL
100
AcDbVertex
100
AcDb2dVertex
 10
124.7036100671046
 20
129.8471384734861
 30
0.0
  0
VERTEX
  5
4326
330
431B
100
AcDbEntity
  8
MODEL
100
AcDbVertex
100
AcDb2dVertex
 10
124.5764859598358
 20
129.8471384734861
 30
0.0
  0
SEQEND
  5
4327
330
431B
100
AcDbEntity
  8
MODEL
  0
POLYLINE
  5
4328
330
A
100
AcDbEntity
  8
MODEL
100
AcDb2dPolyline
 66
     1
 10
0.0
 20
0.0
 30
0.0
  0
VERTEX
  5
4329
330
4328
100
AcDbEntity
  8
MODEL
100
AcDbVertex
100
AcDb2dVertex
 10
124.5764859598358
 20
131.5827787239472
 30
0.0
  0
VERTEX
  5
432A
330
4328
100
AcDbEntity
  8
MODEL
100
AcDbVertex
100
AcDb2dVertex
 10
124.5344557671887
 20
131.4770142227777
 30
0.0
  0
VERTEX
  5
432B
330
4328
100
AcDbEntity
  8
MODEL
100
AcDbVertex
100
AcDb2dVertex
 10
124.4920810647657
 20
131.3922648179319
 30
0.0
  0
VERTEX
  5
432C
330
4328
100
AcDbEntity
  8
MODEL
100
AcDbVertex
100
AcDb2dVertex
 10
124.4497063623428
 20
131.2865003167625
 30
0.0
  0
VERTEX
  5
432D
330
4328
100
AcDbEntity
  8
MODEL
100
AcDbVertex
100
AcDb2dVertex
 10
124.4283467562435
 20
131.2017509119166
 30
0.0
  0
VERTEX
  5
432E
330
4328
100
AcDbEntity
  8
MODEL
100
AcDbVertex
100
AcDb2dVertex
 10
124.4073316599199
 20
131.0959864107472
 30
0.0
  0
VERTEX
  5
432F
330
4328
100
AcDbEntity
  8
MODEL
100
AcDbVertex
100
AcDb2dVertex
 10
124.3439418611734
 20
130.8420827059854
 30
0.0
  0
VERTEX
  5
4330
330
4328
100
AcDbEntity
  8
MODEL
100
AcDbVertex
100
AcDb2dVertex
 10
124.3439418611734
 20
130.4820699902784
 30
0.0
  0
VERTEX
  5
4331
330
4328
100
AcDbEntity
  8
MODEL
100
AcDbVertex
100
AcDb2dVertex
 10
124.364956957497
 20
130.4186801915319
 30
0.0
  0
VERTEX
  5
4332
330
4328
100
AcDbEntity
  8
MODEL
100
AcDbVertex
100
AcDb2dVertex
 10
124.364956957497
 20
130.3552903927854
 30
0.0
  0
VERTEX
  5
4333
330
4328
100
AcDbEntity
  8
MODEL
100
AcDbVertex
100
AcDb2dVertex
 10
124.3859720538205
 20
130.2915560842631
 30
0.0
  0
VERTEX
  5
4334
330
4328
100
AcDbEntity
  8
MODEL
100
AcDbVertex
100
AcDb2dVertex
 10
124.3859720538205
 20
130.2491813818402
 30
0.0
  0
VERTEX
  5
4335
330
4328
100
AcDbEntity
  8
MODEL
100
AcDbVertex
100
AcDb2dVertex
 10
124.4073316599199
 20
130.1857915830937
 30
0.0
  0
VERTEX
  5
4336
330
4328
100
AcDbEntity
  8
MODEL
100
AcDbVertex
100
AcDb2dVertex
 10
124.4283467562435
 20
130.1434168806708
 30
0.0
  0
VERTEX
  5
4337
330
4328
100
AcDbEntity
  8
MODEL
100
AcDbVertex
100
AcDb2dVertex
 10
124.4283467562435
 20
130.1010421782478
 30
0.0
  0
VERTEX
  5
4338
330
4328
100
AcDbEntity
  8
MODEL
100
AcDbVertex
100
AcDb2dVertex
 10
124.4707214586664
 20
130.0166372831778
 30
0.0
  0
VERTEX
  5
4339
330
4328
100
AcDbEntity
  8
MODEL
100
AcDbVertex
100
AcDb2dVertex
 10
124.4920810647657
 20
129.9952776770784
 30
0.0
  0
VERTEX
  5
433A
330
4328
100
AcDbEntity
  8
MODEL
100
AcDbVertex
100
AcDb2dVertex
 10
124.4920810647657
 20
129.9529029746555
 30
0.0
  0
VERTEX
  5
433B
330
4328
100
AcDbEntity
  8
MODEL
100
AcDbVertex
100
AcDb2dVertex
 10
124.5344557671887
 20
129.9105282722325
 30
0.0
  0
VERTEX
  5
433C
330
4328
100
AcDbEntity
  8
MODEL
100
AcDbVertex
100
AcDb2dVertex
 10
124.5344557671887
 20
129.889513175909
 30
0.0
  0
VERTEX
  5
433D
330
4328
100
AcDbEntity
  8
MODEL
100
AcDbVertex
100
AcDb2dVertex
 10
124.5554708635122
 20
129.889513175909
 30
0.0
  0
VERTEX
  5
433E
330
4328
100
AcDbEntity
  8
MODEL
100
AcDbVertex
100
AcDb2dVertex
 10
124.5554708635122
 20
129.8681535698096
 30
0.0
  0
VERTEX
  5
433F
330
4328
100
AcDbEntity
  8
MODEL
100
AcDbVertex
100
AcDb2dVertex
 10
124.5764859598358
 20
129.8681535698096
 30
0.0
  0
VERTEX
  5
4340
330
4328
100
AcDbEntity
  8
MODEL
100
AcDbVertex
100
AcDb2dVertex
 10
124.5764859598358
 20
129.8471384734861
 30
0.0
  0
SEQEND
  5
4341
330
4328
100
AcDbEntity
  8
MODEL
  0
POLYLINE
  5
4342
330
A
100
AcDbEntity
  8
MODEL
100
AcDb2dPolyline
 66
     1
 10
0.0
 20
0.0
 30
0.0
  0
VERTEX
  5
4343
330
4342
100
AcDbEntity
  8
MODEL
100
AcDbVertex
100
AcDb2dVertex
 10
167.2064701266295
 20
129.2545816591167
 30
0.0
  0
VERTEX
  5
4344
330
4342
100
AcDbEntity
  8
MODEL
100
AcDbVertex
100
AcDb2dVertex
 10
167.5237636301378
 20
129.2969563615396
 30
0.0
  0
VERTEX
  5
4345
330
4342
100
AcDbEntity
  8
MODEL
100
AcDbVertex
100
AcDb2dVertex
 10
167.8414016434219
 20
129.402720862709
 30
0.0
  0
VERTEX
  5
4346
330
4342
100
AcDbEntity
  8
MODEL
100
AcDbVertex
100
AcDb2dVertex
 10
168.1376800506066
 20
129.5718751626249
 30
0.0
  0
VERTEX
  5
4347
330
4342
100
AcDbEntity
  8
MODEL
100
AcDbVertex
100
AcDb2dVertex
 10
168.3705686590448
 20
129.8261233771625
 30
0.0
  0
VERTEX
  5
4348
330
4342
100
AcDbEntity
  8
MODEL
100
AcDbVertex
100
AcDb2dVertex
 10
168.5610825650601
 20
130.1010421782478
 30
0.0
  0
VERTEX
  5
4349
330
4342
100
AcDbEntity
  8
MODEL
100
AcDbVertex
100
AcDb2dVertex
 10
168.6668470662295
 20
130.4186801915319
 30
0.0
  0
VERTEX
  5
434A
330
4342
100
AcDbEntity
  8
MODEL
100
AcDbVertex
100
AcDb2dVertex
 10
168.7092217686524
 20
130.7573333011395
 30
0.0
  0
SEQEND
  5
434B
330
4342
100
AcDbEntity
  8
MODEL
  0
POLYLINE
  5
4352
330
A
100
AcDbEntity
  8
MODEL
100
AcDb2dPolyline
 66
     1
 10
0.0
 20
0.0
 30
0.0
  0
VERTEX
  5
4353
330
4352
100
AcDbEntity
  8
MODEL
100
AcDbVertex
100
AcDb2dVertex
 10
166.4444145025684
 20
118.2545816591167
 30
0.0
  0
VERTEX
  5
4354
330
4352
100
AcDbEntity
  8
MODEL
100
AcDbVertex
100
AcDb2dVertex
 10
146.6957361148288
 20
118.2545816591167
 30
0.0
  0
SEQEND
  5
4355
330
4352
100
AcDbEntity
  8
MODEL
  0
POLYLINE
  5
4356
330
A
100
AcDbEntity
  8
MODEL
100
AcDb2dPolyline
 66
     1
 10
0.0
 20
0.0
 30
0.0
  0
VERTEX
  5
4357
330
4356
100
AcDbEntity
  8
MODEL
100
AcDbVertex
100
AcDb2dVertex
 10
146.6957361148288
 20
118.9956221868542
 30
0.0
  0
VERTEX
  5
4358
330
4356
100
AcDbEntity
  8
MODEL
100
AcDbVertex
100
AcDb2dVertex
 10
167.2064701266295
 20
118.9956221868542
 30
0.0
  0
SEQEND
  5
4359
330
4356
100
AcDbEntity
  8
MODEL
  0
POLYLINE
  5
435A
330
A
100
AcDbEntity
  8
MODEL
100
AcDb2dPolyline
 66
     1
 10
0.0
 20
0.0
 30
0.0
  0
VERTEX
  5
435B
330
435A
100
AcDbEntity
  8
MODEL
100
AcDbVertex
100
AcDb2dVertex
 10
31.16800015422946
 20
142.6529113496055
 30
0.0
  0
VERTEX
  5
435C
330
435A
100
AcDbEntity
  8
MODEL
100
AcDbVertex
100
AcDb2dVertex
 10
31.16800015422946
 20
137.657519600561
 30
0.0
  0
SEQEND
  5
435D
330
435A
100
AcDbEntity
  8
MODEL
  0
POLYLINE
  5
435E
330
A
100
AcDbEntity
  8
MODEL
100
AcDb2dPolyline
 66
     1
 10
0.0
 20
0.0
 30
0.0
  0
VERTEX
  5
435F
330
435E
100
AcDbEntity
  8
MODEL
100
AcDbVertex
100
AcDb2dVertex
 10
146.6957361148288
 20
161.7452986144533
 30
0.0
  0
VERTEX
  5
4360
330
435E
100
AcDbEntity
  8
MODEL
100
AcDbVertex
100
AcDb2dVertex
 10
124.7036100671046
 20
161.7452986144533
 30
0.0
  0
SEQEND
  5
4361
330
435E
100
AcDbEntity
  8
MODEL
  0
POLYLINE
  5
4362
330
A
100
AcDbEntity
  8
MODEL
100
AcDb2dPolyline
 66
     1
 10
0.0
 20
0.0
 30
0.0
  0
VERTEX
  5
4363
330
4362
100
AcDbEntity
  8
MODEL
100
AcDbVertex
100
AcDb2dVertex
 10
167.6932624398295
 20
191.9078185049595
 30
0.0
  0
VERTEX
  5
4364
330
4362
100
AcDbEntity
  8
MODEL
100
AcDbVertex
100
AcDb2dVertex
 10
125.6985542996039
 20
191.9078185049595
 30
0.0
  0
SEQEND
  5
4365
330
4362
100
AcDbEntity
  8
MODEL
  0
POLYLINE
  5
4366
330
A
100
AcDbEntity
  8
MODEL
100
AcDb2dPolyline
 66
     1
 10
0.0
 20
0.0
 30
0.0
  0
VERTEX
  5
4367
330
4366
100
AcDbEntity
  8
MODEL
100
AcDbVertex
100
AcDb2dVertex
 10
126.5026401163122
 20
191.1247477845748
 30
0.0
  0
VERTEX
  5
4368
330
4366
100
AcDbEntity
  8
MODEL
100
AcDbVertex
100
AcDb2dVertex
 10
166.8888321133455
 20
191.1247477845748
 30
0.0
  0
SEQEND
  5
4369
330
4366
100
AcDbEntity
  8
MODEL
  0
POLYLINE
  5
436A
330
A
100
AcDbEntity
  8
MODEL
100
AcDb2dPolyline
 66
     1
 10
0.0
 20
0.0
 30
0.0
  0
VERTEX
  5
436B
330
436A
100
AcDbEntity
  8
MODEL
100
AcDbVertex
100
AcDb2dVertex
 10
178.191853347442
 20
202.4065816674599
 30
0.0
  0
VERTEX
  5
436C
330
436A
100
AcDbEntity
  8
MODEL
100
AcDbVertex
100
AcDb2dVertex
 10
115.1999633919915
 20
202.4065816674599
 30
0.0
  0
SEQEND
  5
436D
330
436A
100
AcDbEntity
  8
MODEL
  0
POLYLINE
  5
436E
330
A
100
AcDbEntity
  8
MODEL
100
AcDb2dPolyline
 66
     1
 10
0.0
 20
0.0
 30
0.0
  0
VERTEX
  5
436F
330
436E
100
AcDbEntity
  8
MODEL
100
AcDbVertex
100
AcDb2dVertex
 10
178.191853347442
 20
203.9093333094827
 30
0.0
  0
VERTEX
  5
4370
330
436E
100
AcDbEntity
  8
MODEL
100
AcDbVertex
100
AcDb2dVertex
 10
115.1999633919915
 20
203.9093333094827
 30
0.0
  0
SEQEND
  5
4371
330
436E
100
AcDbEntity
  8
MODEL
  0
POLYLINE
  5
4372
330
A
100
AcDbEntity
  8
MODEL
100
AcDb2dPolyline
 66
     1
 10
0.0
 20
0.0
 30
0.0
  0
VERTEX
  5
4373
330
4372
100
AcDbEntity
  8
MODEL
100
AcDbVertex
100
AcDb2dVertex
 10
166.6983182073302
 20
209.1164263157539
 30
0.0
  0
VERTEX
  5
4374
330
4372
100
AcDbEntity
  8
MODEL
100
AcDbVertex
100
AcDb2dVertex
 10
164.4124958449226
 20
209.7937325349692
 30
0.0
  0
VERTEX
  5
4375
330
4372
100
AcDbEntity
  8
MODEL
100
AcDbVertex
100
AcDb2dVertex
 10
162.0839542703163
 20
210.365274253015
 30
0.0
  0
VERTEX
  5
4376
330
4372
100
AcDbEntity
  8
MODEL
100
AcDbVertex
100
AcDb2dVertex
 10
159.7557572054858
 20
210.8732539174265
 30
0.0
  0
VERTEX
  5
4377
330
4372
100
AcDbEntity
  8
MODEL
100
AcDbVertex
100
AcDb2dVertex
 10
157.4062005345559
 20
211.2754690806685
 30
0.0
  0
VERTEX
  5
4378
330
4372
100
AcDbEntity
  8
MODEL
100
AcDbVertex
100
AcDb2dVertex
 10
155.0356287673025
 20
211.6141221902762
 30
0.0
  0
VERTEX
  5
4379
330
4372
100
AcDbEntity
  8
MODEL
100
AcDbVertex
100
AcDb2dVertex
 10
152.6647124902732
 20
211.8680258950379
 30
0.0
  0
VERTEX
  5
437A
330
4372
100
AcDbEntity
  8
MODEL
100
AcDbVertex
100
AcDb2dVertex
 10
150.2731256266962
 20
212.0373524498417
 30
0.0
  0
VERTEX
  5
437B
330
4372
100
AcDbEntity
  8
MODEL
100
AcDbVertex
100
AcDb2dVertex
 10
147.902209349667
 20
212.1221018546876
 30
0.0
  0
VERTEX
  5
437C
330
4372
100
AcDbEntity
  8
MODEL
100
AcDbVertex
100
AcDb2dVertex
 10
145.51062248609
 20
212.1221018546876
 30
0.0
  0
VERTEX
  5
437D
330
4372
100
AcDbEntity
  8
MODEL
100
AcDbVertex
100
AcDb2dVertex
 10
143.1186911127372
 20
212.0373524498417
 30
0.0
  0
VERTEX
  5
437E
330
4372
100
AcDbEntity
  8
MODEL
100
AcDbVertex
100
AcDb2dVertex
 10
140.7481193454838
 20
211.8680258950379
 30
0.0
  0
VERTEX
  5
437F
330
4372
100
AcDbEntity
  8
MODEL
100
AcDbVertex
100
AcDb2dVertex
 10
138.356187972131
 20
211.6141221902762
 30
0.0
  0
VERTEX
  5
4380
330
4372
100
AcDbEntity
  8
MODEL
100
AcDbVertex
100
AcDb2dVertex
 10
136.0066313012011
 20
211.2754690806685
 30
0.0
  0
VERTEX
  5
4381
330
4372
100
AcDbEntity
  8
MODEL
100
AcDbVertex
100
AcDb2dVertex
 10
133.6570746302712
 20
210.8732539174265
 30
0.0
  0
VERTEX
  5
4382
330
4372
100
AcDbEntity
  8
MODEL
100
AcDbVertex
100
AcDb2dVertex
 10
131.3075179593413
 20
210.365274253015
 30
0.0
  0
VERTEX
  5
4383
330
4372
100
AcDbEntity
  8
MODEL
100
AcDbVertex
100
AcDb2dVertex
 10
129.0003359908344
 20
209.7937325349692
 30
0.0
  0
VERTEX
  5
4384
330
4372
100
AcDbEntity
  8
MODEL
100
AcDbVertex
100
AcDb2dVertex
 10
126.6931540223275
 20
209.1164263157539
 30
0.0
  0
SEQEND
  5
4385
330
4372
100
AcDbEntity
  8
MODEL
  0
POLYLINE
  5
4386
330
A
100
AcDbEntity
  8
MODEL
100
AcDb2dPolyline
 66
     1
 10
0.0
 20
0.0
 30
0.0
  0
VERTEX
  5
4387
330
4386
100
AcDbEntity
  8
MODEL
100
AcDbVertex
100
AcDb2dVertex
 10
174.106656426051
 20
169.7461936475436
 30
0.0
  0
VERTEX
  5
4388
330
4386
100
AcDbEntity
  8
MODEL
100
AcDbVertex
100
AcDb2dVertex
 10
119.306175409706
 20
169.7461936475436
 30
0.0
  0
SEQEND
  5
4389
330
4386
100
AcDbEntity
  8
MODEL
  0
POLYLINE
  5
438A
330
A
100
AcDbEntity
  8
MODEL
100
AcDb2dPolyline
 66
     1
 10
0.0
 20
0.0
 30
0.0
  0
VERTEX
  5
438B
330
438A
100
AcDbEntity
  8
MODEL
100
AcDbVertex
100
AcDb2dVertex
 10
30.15204082540656
 20
141.6583116268819
 30
0.0
  0
VERTEX
  5
438C
330
438A
100
AcDbEntity
  8
MODEL
100
AcDbVertex
100
AcDb2dVertex
 10
31.16800015422946
 20
142.6529113496055
 30
0.0
  0
SEQEND
  5
438D
330
438A
100
AcDbEntity
  8
MODEL
  0
POLYLINE
  5
438E
330
A
100
AcDbEntity
  8
MODEL
100
AcDb2dPolyline
 66
     1
 10
0.0
 20
0.0
 30
0.0
  0
VERTEX
  5
438F
330
438E
100
AcDbEntity
  8
MODEL
100
AcDbVertex
100
AcDb2dVertex
 10
30.15204082540656
 20
141.6583116268819
 30
0.0
  0
VERTEX
  5
4390
330
438E
100
AcDbEntity
  8
MODEL
100
AcDbVertex
100
AcDb2dVertex
 10
30.15204082540656
 20
138.6524638330603
 30
0.0
  0
VERTEX
  5
4391
330
438E
100
AcDbEntity
  8
MODEL
100
AcDbVertex
100
AcDb2dVertex
 10
31.16800015422946
 20
137.657519600561
 30
0.0
  0
SEQEND
  5
4392
330
438E
100
AcDbEntity
  8
MODEL
  0
POLYLINE
  5
4393
330
A
100
AcDbEntity
  8
MODEL
100
AcDb2dPolyline
 66
     1
 10
0.0
 20
0.0
 30
0.0
  0
VERTEX
  5
4394
330
4393
100
AcDbEntity
  8
MODEL
100
AcDbVertex
100
AcDb2dVertex
 10
146.6957361148288
 20
168.8573584259894
 30
0.0
  0
VERTEX
  5
4395
330
4393
100
AcDbEntity
  8
MODEL
100
AcDbVertex
100
AcDb2dVertex
 10
117.3800212532296
 20
168.8573584259894
 30
0.0
  0
SEQEND
  5
4396
330
4393
100
AcDbEntity
  8
MODEL
  0
POLYLINE
  5
4397
330
A
100
AcDbEntity
  8
MODEL
100
AcDb2dPolyline
 66
     1
 10
0.0
 20
0.0
 30
0.0
  0
VERTEX
  5
4398
330
4397
100
AcDbEntity
  8
MODEL
100
AcDbVertex
100
AcDb2dVertex
 10
127.8575970645185
 20
204.8830901907706
 30
0.0
  0
VERTEX
  5
4399
330
4397
100
AcDbEntity
  8
MODEL
100
AcDbVertex
100
AcDb2dVertex
 10
165.5342196749149
 20
204.8830901907706
 30
0.0
  0
SEQEND
  5
439A
330
4397
100
AcDbEntity
  8
MODEL
  0
POLYLINE
  5
439B
330
A
100
AcDbEntity
  8
MODEL
100
AcDb2dPolyline
 66
     1
 10
0.0
 20
0.0
 30
0.0
  0
VERTEX
  5
439C
330
439B
100
AcDbEntity
  8
MODEL
100
AcDbVertex
100
AcDb2dVertex
 10
166.3596650977225
 20
207.8675783784928
 30
0.0
  0
VERTEX
  5
439D
330
439B
100
AcDbEntity
  8
MODEL
100
AcDbVertex
100
AcDb2dVertex
 10
127.0318071319351
 20
207.8675783784928
 30
0.0
  0
SEQEND
  5
439E
330
439B
100
AcDbEntity
  8
MODEL
  0
POLYLINE
  5
439F
330
A
100
AcDbEntity
  8
MODEL
100
AcDb2dPolyline
 66
     1
 10
0.0
 20
0.0
 30
0.0
  0
VERTEX
  5
43A0
330
439F
100
AcDbEntity
  8
MODEL
100
AcDbVertex
100
AcDb2dVertex
 10
166.6983182073302
 20
209.1164263157539
 30
0.0
  0
VERTEX
  5
43A1
330
439F
100
AcDbEntity
  8
MODEL
100
AcDbVertex
100
AcDb2dVertex
 10
126.6931540223275
 20
209.1164263157539
 30
0.0
  0
SEQEND
  5
43A2
330
439F
100
AcDbEntity
  8
MODEL
  0
POLYLINE
  5
43A3
330
A
100
AcDbEntity
  8
MODEL
100
AcDb2dPolyline
 66
     1
 10
0.0
 20
0.0
 30
0.0
  0
VERTEX
  5
43A4
330
43A3
100
AcDbEntity
  8
MODEL
100
AcDbVertex
100
AcDb2dVertex
 10
115.707770801515
 20
191.039998379729
 30
0.0
  0
VERTEX
  5
43A5
330
43A3
100
AcDbEntity
  8
MODEL
100
AcDbVertex
100
AcDb2dVertex
 10
177.705061034242
 20
191.039998379729
 30
0.0
  0
SEQEND
  5
43A6
330
43A3
100
AcDbEntity
  8
MODEL
  0
POLYLINE
  5
43A7
330
A
100
AcDbEntity
  8
MODEL
100
AcDb2dPolyline
 66
     1
 10
0.0
 20
0.0
 30
0.0
  0
VERTEX
  5
43A8
330
43A7
100
AcDbEntity
  8
MODEL
100
AcDbVertex
100
AcDb2dVertex
 10
177.705061034242
 20
185.5366269662731
 30
0.0
  0
VERTEX
  5
43A9
330
43A7
100
AcDbEntity
  8
MODEL
100
AcDbVertex
100
AcDb2dVertex
 10
115.707770801515
 20
185.5366269662731
 30
0.0
  0
SEQEND
  5
43AA
330
43A7
100
AcDbEntity
  8
MODEL
  0
POLYLINE
  5
43AB
330
A
100
AcDbEntity
  8
MODEL
100
AcDb2dPolyline
 66
     1
 10
0.0
 20
0.0
 30
0.0
  0
VERTEX
  5
43AC
330
43AB
100
AcDbEntity
  8
MODEL
100
AcDbVertex
100
AcDb2dVertex
 10
146.6957361148288
 20
163.861966676945
 30
0.0
  0
VERTEX
  5
43AD
330
43AB
100
AcDbEntity
  8
MODEL
100
AcDbVertex
100
AcDb2dVertex
 10
115.4538670967533
 20
163.861966676945
 30
0.0
  0
SEQEND
  5
43AE
330
43AB
100
AcDbEntity
  8
MODEL
  0
POLYLINE
  5
43AF
330
A
100
AcDbEntity
  8
MODEL
100
AcDb2dPolyline
 66
     1
 10
0.0
 20
0.0
 30
0.0
  0
VERTEX
  5
43B0
330
43AF
100
AcDbEntity
  8
MODEL
100
AcDbVertex
100
AcDb2dVertex
 10
67.53238502861826
 20
142.6529113496055
 30
0.0
  0
VERTEX
  5
43B1
330
43AF
100
AcDbEntity
  8
MODEL
100
AcDbVertex
100
AcDb2dVertex
 10
67.2784813238565
 20
142.3990076448437
 30
0.0
  0
VERTEX
  5
43B2
330
43AF
100
AcDbEntity
  8
MODEL
100
AcDbVertex
100
AcDb2dVertex
 10
67.08796741784121
 20
142.102729237659
 30
0.0
  0
VERTEX
  5
43B3
330
43AF
100
AcDbEntity
  8
MODEL
100
AcDbVertex
100
AcDb2dVertex
 10
66.98203066178388
 20
141.7640761280513
 30
0.0
  0
VERTEX
  5
43B4
330
43AF
100
AcDbEntity
  8
MODEL
100
AcDbVertex
100
AcDb2dVertex
 10
66.93982821424886
 20
141.4040634123443
 30
0.0
  0
VERTEX
  5
43B5
330
43AF
100
AcDbEntity
  8
MODEL
100
AcDbVertex
100
AcDb2dVertex
 10
66.98203066178388
 20
141.0443952064131
 30
0.0
  0
VERTEX
  5
43B6
330
43AF
100
AcDbEntity
  8
MODEL
100
AcDbVertex
100
AcDb2dVertex
 10
67.08796741784121
 20
140.7057420968055
 30
0.0
  0
VERTEX
  5
43B7
330
43AF
100
AcDbEntity
  8
MODEL
100
AcDbVertex
100
AcDb2dVertex
 10
67.2784813238565
 20
140.4094636896208
 30
0.0
  0
VERTEX
  5
43B8
330
43AF
100
AcDbEntity
  8
MODEL
100
AcDbVertex
100
AcDb2dVertex
 10
67.53238502861826
 20
140.1552154750832
 30
0.0
  0
VERTEX
  5
43B9
330
43AF
100
AcDbEntity
  8
MODEL
100
AcDbVertex
100
AcDb2dVertex
 10
67.78646098826795
 20
140.4094636896208
 30
0.0
  0
VERTEX
  5
43BA
330
43AF
100
AcDbEntity
  8
MODEL
100
AcDbVertex
100
AcDb2dVertex
 10
67.97697489428322
 20
140.7057420968055
 30
0.0
  0
VERTEX
  5
43BB
330
43AF
100
AcDbEntity
  8
MODEL
100
AcDbVertex
100
AcDb2dVertex
 10
68.08273939545265
 20
141.0443952064131
 30
0.0
  0
VERTEX
  5
43BC
330
43AF
100
AcDbEntity
  8
MODEL
100
AcDbVertex
100
AcDb2dVertex
 10
68.12511409787558
 20
141.4040634123443
 30
0.0
  0
VERTEX
  5
43BD
330
43AF
100
AcDbEntity
  8
MODEL
100
AcDbVertex
100
AcDb2dVertex
 10
68.08273939545265
 20
141.7640761280513
 30
0.0
  0
VERTEX
  5
43BE
330
43AF
100
AcDbEntity
  8
MODEL
100
AcDbVertex
100
AcDb2dVertex
 10
67.97697489428322
 20
142.102729237659
 30
0.0
  0
VERTEX
  5
43BF
330
43AF
100
AcDbEntity
  8
MODEL
100
AcDbVertex
100
AcDb2dVertex
 10
67.78646098826795
 20
142.3990076448437
 30
0.0
  0
VERTEX
  5
43C0
330
43AF
100
AcDbEntity
  8
MODEL
100
AcDbVertex
100
AcDb2dVertex
 10
67.53238502861826
 20
142.6529113496055
 30
0.0
  0
SEQEND
  5
43C1
330
43AF
100
AcDbEntity
  8
MODEL
  0
POLYLINE
  5
43C2
330
A
100
AcDbEntity
  8
MODEL
100
AcDb2dPolyline
 66
     1
 10
0.0
 20
0.0
 30
0.0
  0
VERTEX
  5
43C3
330
43C2
100
AcDbEntity
  8
MODEL
100
AcDbVertex
100
AcDb2dVertex
 10
67.53238502861826
 20
140.1552154750832
 30
0.0
  0
VERTEX
  5
43C4
330
43C2
100
AcDbEntity
  8
MODEL
100
AcDbVertex
100
AcDb2dVertex
 10
67.2784813238565
 20
139.9013117703215
 30
0.0
  0
VERTEX
  5
43C5
330
43C2
100
AcDbEntity
  8
MODEL
100
AcDbVertex
100
AcDb2dVertex
 10
67.08796741784121
 20
139.6050333631368
 30
0.0
  0
VERTEX
  5
43C6
330
43C2
100
AcDbEntity
  8
MODEL
100
AcDbVertex
100
AcDb2dVertex
 10
66.98203066178388
 20
139.2663802535291
 30
0.0
  0
VERTEX
  5
43C7
330
43C2
100
AcDbEntity
  8
MODEL
100
AcDbVertex
100
AcDb2dVertex
 10
66.93982821424886
 20
138.9063675378221
 30
0.0
  0
VERTEX
  5
43C8
330
43C2
100
AcDbEntity
  8
MODEL
100
AcDbVertex
100
AcDb2dVertex
 10
66.98203066178388
 20
138.5466993318909
 30
0.0
  0
VERTEX
  5
43C9
330
43C2
100
AcDbEntity
  8
MODEL
100
AcDbVertex
100
AcDb2dVertex
 10
67.08796741784121
 20
138.2080462222833
 30
0.0
  0
VERTEX
  5
43CA
330
43C2
100
AcDbEntity
  8
MODEL
100
AcDbVertex
100
AcDb2dVertex
 10
67.2784813238565
 20
137.9117678150986
 30
0.0
  0
VERTEX
  5
43CB
330
43C2
100
AcDbEntity
  8
MODEL
100
AcDbVertex
100
AcDb2dVertex
 10
67.53238502861826
 20
137.657519600561
 30
0.0
  0
SEQEND
  5
43CC
330
43C2
100
AcDbEntity
  8
MODEL
  0
POLYLINE
  5
43CD
330
A
100
AcDbEntity
  8
MODEL
100
AcDb2dPolyline
 66
     1
 10
0.0
 20
0.0
 30
0.0
  0
VERTEX
  5
43CE
330
43CD
100
AcDbEntity
  8
MODEL
100
AcDbVertex
100
AcDb2dVertex
 10
64.67484869327694
 20
140.1552154750832
 30
0.0
  0
VERTEX
  5
43CF
330
43CD
100
AcDbEntity
  8
MODEL
100
AcDbVertex
100
AcDb2dVertex
 10
64.42094498851517
 20
139.9013117703215
 30
0.0
  0
VERTEX
  5
43D0
330
43CD
100
AcDbEntity
  8
MODEL
100
AcDbVertex
100
AcDb2dVertex
 10
64.23043108249988
 20
139.6050333631368
 30
0.0
  0
VERTEX
  5
43D1
330
43CD
100
AcDbEntity
  8
MODEL
100
AcDbVertex
100
AcDb2dVertex
 10
64.10347923011899
 20
139.2663802535291
 30
0.0
  0
VERTEX
  5
43D2
330
43CD
100
AcDbEntity
  8
MODEL
100
AcDbVertex
100
AcDb2dVertex
 10
64.08229187890754
 20
138.9063675378221
 30
0.0
  0
VERTEX
  5
43D3
330
43CD
100
AcDbEntity
  8
MODEL
100
AcDbVertex
100
AcDb2dVertex
 10
64.10347923011899
 20
138.5466993318909
 30
0.0
  0
VERTEX
  5
43D4
330
43CD
100
AcDbEntity
  8
MODEL
100
AcDbVertex
100
AcDb2dVertex
 10
64.23043108249988
 20
138.2080462222833
 30
0.0
  0
VERTEX
  5
43D5
330
43CD
100
AcDbEntity
  8
MODEL
100
AcDbVertex
100
AcDb2dVertex
 10
64.42094498851517
 20
137.9117678150986
 30
0.0
  0
VERTEX
  5
43D6
330
43CD
100
AcDbEntity
  8
MODEL
100
AcDbVertex
100
AcDb2dVertex
 10
64.67484869327694
 20
137.657519600561
 30
0.0
  0
VERTEX
  5
43D7
330
43CD
100
AcDbEntity
  8
MODEL
100
AcDbVertex
100
AcDb2dVertex
 10
64.92892465292661
 20
137.9117678150986
 30
0.0
  0
VERTEX
  5
43D8
330
43CD
100
AcDbEntity
  8
MODEL
100
AcDbVertex
100
AcDb2dVertex
 10
65.11943855894191
 20
138.2080462222833
 30
0.0
  0
VERTEX
  5
43D9
330
43CD
100
AcDbEntity
  8
MODEL
100
AcDbVertex
100
AcDb2dVertex
 10
65.22520306011133
 20
138.5466993318909
 30
0.0
  0
VERTEX
  5
43DA
330
43CD
100
AcDbEntity
  8
MODEL
100
AcDbVertex
100
AcDb2dVertex
 10
65.26757776253426
 20
138.9063675378221
 30
0.0
  0
VERTEX
  5
43DB
330
43CD
100
AcDbEntity
  8
MODEL
100
AcDbVertex
100
AcDb2dVertex
 10
65.22520306011133
 20
139.2663802535291
 30
0.0
  0
VERTEX
  5
43DC
330
43CD
100
AcDbEntity
  8
MODEL
100
AcDbVertex
100
AcDb2dVertex
 10
65.11943855894191
 20
139.6050333631368
 30
0.0
  0
VERTEX
  5
43DD
330
43CD
100
AcDbEntity
  8
MODEL
100
AcDbVertex
100
AcDb2dVertex
 10
64.92892465292661
 20
139.9013117703215
 30
0.0
  0
VERTEX
  5
43DE
330
43CD
100
AcDbEntity
  8
MODEL
100
AcDbVertex
100
AcDb2dVertex
 10
64.67484869327694
 20
140.1552154750832
 30
0.0
  0
VERTEX
  5
43DF
330
43CD
100
AcDbEntity
  8
MODEL
100
AcDbVertex
100
AcDb2dVertex
 10
64.92892465292661
 20
140.4094636896208
 30
0.0
  0
VERTEX
  5
43E0
330
43CD
100
AcDbEntity
  8
MODEL
100
AcDbVertex
100
AcDb2dVertex
 10
65.11943855894191
 20
140.7057420968055
 30
0.0
  0
VERTEX
  5
43E1
330
43CD
100
AcDbEntity
  8
MODEL
100
AcDbVertex
100
AcDb2dVertex
 10
65.22520306011133
 20
141.0443952064131
 30
0.0
  0
VERTEX
  5
43E2
330
43CD
100
AcDbEntity
  8
MODEL
100
AcDbVertex
100
AcDb2dVertex
 10
65.26757776253426
 20
141.4040634123443
 30
0.0
  0
VERTEX
  5
43E3
330
43CD
100
AcDbEntity
  8
MODEL
100
AcDbVertex
100
AcDb2dVertex
 10
65.22520306011133
 20
141.7640761280513
 30
0.0
  0
VERTEX
  5
43E4
330
43CD
100
AcDbEntity
  8
MODEL
100
AcDbVertex
100
AcDb2dVertex
 10
65.11943855894191
 20
142.102729237659
 30
0.0
  0
VERTEX
  5
43E5
330
43CD
100
AcDbEntity
  8
MODEL
100
AcDbVertex
100
AcDb2dVertex
 10
64.92892465292661
 20
142.3990076448437
 30
0.0
  0
VERTEX
  5
43E6
330
43CD
100
AcDbEntity
  8
MODEL
100
AcDbVertex
100
AcDb2dVertex
 10
64.67484869327694
 20
142.6529113496055
 30
0.0
  0
SEQEND
  5
43E7
330
43CD
100
AcDbEntity
  8
MODEL
  0
POLYLINE
  5
43E8
330
A
100
AcDbEntity
  8
MODEL
100
AcDb2dPolyline
 66
     1
 10
0.0
 20
0.0
 30
0.0
  0
VERTEX
  5
43E9
330
43E8
100
AcDbEntity
  8
MODEL
100
AcDbVertex
100
AcDb2dVertex
 10
102.7114840193804
 20
144.7061896133506
 30
0.0
  0
VERTEX
  5
43EA
330
43E8
100
AcDbEntity
  8
MODEL
100
AcDbVertex
100
AcDb2dVertex
 10
102.1823170037574
 20
144.0712580965583
 30
0.0
  0
VERTEX
  5
43EB
330
43E8
100
AcDbEntity
  8
MODEL
100
AcDbVertex
100
AcDb2dVertex
 10
101.7589144893039
 20
143.393951877343
 30
0.0
  0
VERTEX
  5
43EC
330
43E8
100
AcDbEntity
  8
MODEL
100
AcDbVertex
100
AcDb2dVertex
 10
101.3990740284848
 20
142.6529113496055
 30
0.0
  0
SEQEND
  5
43ED
330
43E8
100
AcDbEntity
  8
MODEL
  0
POLYLINE
  5
43EE
330
A
100
AcDbEntity
  8
MODEL
100
AcDb2dPolyline
 66
     1
 10
0.0
 20
0.0
 30
0.0
  0
VERTEX
  5
43EF
330
43EE
100
AcDbEntity
  8
MODEL
100
AcDbVertex
100
AcDb2dVertex
 10
101.3990740284848
 20
142.6529113496055
 30
0.0
  0
VERTEX
  5
43F0
330
43EE
100
AcDbEntity
  8
MODEL
100
AcDbVertex
100
AcDb2dVertex
 10
101.3990740284848
 20
137.657519600561
 30
0.0
  0
VERTEX
  5
43F1
330
43EE
100
AcDbEntity
  8
MODEL
100
AcDbVertex
100
AcDb2dVertex
 10
101.7589144893039
 20
136.9168235825992
 30
0.0
  0
VERTEX
  5
43F2
330
43EE
100
AcDbEntity
  8
MODEL
100
AcDbVertex
100
AcDb2dVertex
 10
102.1823170037574
 20
136.2181577572846
 30
0.0
  0
VERTEX
  5
43F3
330
43EE
100
AcDbEntity
  8
MODEL
100
AcDbVertex
100
AcDb2dVertex
 10
102.7114840193804
 20
135.6045858465916
 30
0.0
  0
SEQEND
  5
43F4
330
43EE
100
AcDbEntity
  8
MODEL
  0
POLYLINE
  5
43F5
330
A
100
AcDbEntity
  8
MODEL
100
AcDb2dPolyline
 66
     1
 10
0.0
 20
0.0
 30
0.0
  0
VERTEX
  5
43F6
330
43F5
100
AcDbEntity
  8
MODEL
100
AcDbVertex
100
AcDb2dVertex
 10
113.6968672401928
 20
151.3948469104332
 30
0.0
  0
VERTEX
  5
43F7
330
43F5
100
AcDbEntity
  8
MODEL
100
AcDbVertex
100
AcDb2dVertex
 10
104.7012002294911
 20
151.3948469104332
 30
0.0
  0
SEQEND
  5
43F8
330
43F5
100
AcDbEntity
  8
MODEL
  0
POLYLINE
  5
43F9
330
A
100
AcDbEntity
  8
MODEL
100
AcDb2dPolyline
 66
     1
 10
0.0
 20
0.0
 30
0.0
  0
VERTEX
  5
43FA
330
43F9
100
AcDbEntity
  8
MODEL
100
AcDbVertex
100
AcDb2dVertex
 10
124.7036100671046
 20
151.4582367091797
 30
0.0
  0
VERTEX
  5
43FB
330
43F9
100
AcDbEntity
  8
MODEL
100
AcDbVertex
100
AcDb2dVertex
 10
124.7036100671046
 20
161.7452986144533
 30
0.0
  0
SEQEND
  5
43FC
330
43F9
100
AcDbEntity
  8
MODEL
  0
POLYLINE
  5
43FD
330
A
100
AcDbEntity
  8
MODEL
100
AcDb2dPolyline
 66
     1
 10
0.0
 20
0.0
 30
0.0
  0
VERTEX
  5
43FE
330
43FD
100
AcDbEntity
  8
MODEL
100
AcDbVertex
100
AcDb2dVertex
 10
126.8416377356956
 20
183.3987715525699
 30
0.0
  0
VERTEX
  5
43FF
330
43FD
100
AcDbEntity
  8
MODEL
100
AcDbVertex
100
AcDb2dVertex
 10
126.9260426307657
 20
183.3987715525699
 30
0.0
  0
VERTEX
  5
4400
330
43FD
100
AcDbEntity
  8
MODEL
100
AcDbVertex
100
AcDb2dVertex
 10
126.989776939288
 20
183.3353817538235
 30
0.0
  0
VERTEX
  5
4401
330
43FD
100
AcDbEntity
  8
MODEL
100
AcDbVertex
100
AcDb2dVertex
 10
127.0318071319351
 20
183.314194402612
 30
0.0
  0
VERTEX
  5
4402
330
43FD
100
AcDbEntity
  8
MODEL
100
AcDbVertex
100
AcDb2dVertex
 10
127.074181834358
 20
183.2506323489776
 30
0.0
  0
VERTEX
  5
4403
330
43FD
100
AcDbEntity
  8
MODEL
100
AcDbVertex
100
AcDb2dVertex
 10
127.116556536781
 20
183.2084299014426
 30
0.0
  0
VERTEX
  5
4404
330
43FD
100
AcDbEntity
  8
MODEL
100
AcDbVertex
100
AcDb2dVertex
 10
127.2013059416268
 20
183.0813057941738
 30
0.0
  0
VERTEX
  5
4405
330
43FD
100
AcDbEntity
  8
MODEL
100
AcDbVertex
100
AcDb2dVertex
 10
127.3284300488956
 20
182.827402089412
 30
0.0
  0
VERTEX
  5
4406
330
43FD
100
AcDbEntity
  8
MODEL
100
AcDbVertex
100
AcDb2dVertex
 10
127.3708047513185
 20
182.7214653333547
 30
0.0
  0
VERTEX
  5
4407
330
43FD
100
AcDbEntity
  8
MODEL
100
AcDbVertex
100
AcDb2dVertex
 10
127.3918198476421
 20
182.6157008321853
 30
0.0
  0
VERTEX
  5
4408
330
43FD
100
AcDbEntity
  8
MODEL
100
AcDbVertex
100
AcDb2dVertex
 10
127.4765692524879
 20
182.4039995749585
 30
0.0
  0
VERTEX
  5
4409
330
43FD
100
AcDbEntity
  8
MODEL
100
AcDbVertex
100
AcDb2dVertex
 10
127.560974147558
 20
182.1500958701967
 30
0.0
  0
VERTEX
  5
440A
330
43FD
100
AcDbEntity
  8
MODEL
100
AcDbVertex
100
AcDb2dVertex
 10
127.5823337536574
 20
182.0229717629279
 30
0.0
  0
VERTEX
  5
440B
330
43FD
100
AcDbEntity
  8
MODEL
100
AcDbVertex
100
AcDb2dVertex
 10
127.6670831585032
 20
181.7266933557432
 30
0.0
  0
VERTEX
  5
440C
330
43FD
100
AcDbEntity
  8
MODEL
100
AcDbVertex
100
AcDb2dVertex
 10
127.7094578609262
 20
181.4304149485585
 30
0.0
  0
VERTEX
  5
440D
330
43FD
100
AcDbEntity
  8
MODEL
100
AcDbVertex
100
AcDb2dVertex
 10
127.7514880535733
 20
181.2610883937547
 30
0.0
  0
VERTEX
  5
440E
330
43FD
100
AcDbEntity
  8
MODEL
100
AcDbVertex
100
AcDb2dVertex
 10
127.8152223620956
 20
180.7529364744553
 30
0.0
  0
VERTEX
  5
440F
330
43FD
100
AcDbEntity
  8
MODEL
100
AcDbVertex
100
AcDb2dVertex
 10
127.8152223620956
 20
180.5836099196515
 30
0.0
  0
VERTEX
  5
4410
330
43FD
100
AcDbEntity
  8
MODEL
100
AcDbVertex
100
AcDb2dVertex
 10
127.8362374584191
 20
180.4142833648477
 30
0.0
  0
VERTEX
  5
4411
330
43FD
100
AcDbEntity
  8
MODEL
100
AcDbVertex
100
AcDb2dVertex
 10
127.8362374584191
 20
179.9063037004363
 30
0.0
  0
SEQEND
  5
4412
330
43FD
100
AcDbEntity
  8
MODEL
  0
POLYLINE
  5
4413
330
A
100
AcDbEntity
  8
MODEL
100
AcDb2dPolyline
 66
     1
 10
0.0
 20
0.0
 30
0.0
  0
VERTEX
  5
4414
330
4413
100
AcDbEntity
  8
MODEL
100
AcDbVertex
100
AcDb2dVertex
 10
105.7383469095255
 20
143.5844657833583
 30
0.0
  0
VERTEX
  5
4415
330
4413
100
AcDbEntity
  8
MODEL
100
AcDbVertex
100
AcDb2dVertex
 10
109.7598095223942
 20
143.5844657833583
 30
0.0
  0
SEQEND
  5
4416
330
4413
100
AcDbEntity
  8
MODEL
  0
POLYLINE
  5
4417
330
A
100
AcDbEntity
  8
MODEL
100
AcDb2dPolyline
 66
     1
 10
0.0
 20
0.0
 30
0.0
  0
VERTEX
  5
4418
330
4417
100
AcDbEntity
  8
MODEL
100
AcDbVertex
100
AcDb2dVertex
 10
105.7383469095255
 20
144.7272047096742
 30
0.0
  0
VERTEX
  5
4419
330
4417
100
AcDbEntity
  8
MODEL
100
AcDbVertex
100
AcDb2dVertex
 10
109.7598095223942
 20
144.7272047096742
 30
0.0
  0
SEQEND
  5
441A
330
4417
100
AcDbEntity
  8
MODEL
  0
POLYLINE
  5
441B
330
A
100
AcDbEntity
  8
MODEL
100
AcDb2dPolyline
 66
     1
 10
0.0
 20
0.0
 30
0.0
  0
VERTEX
  5
441C
330
441B
100
AcDbEntity
  8
MODEL
100
AcDbVertex
100
AcDb2dVertex
 10
105.7383469095255
 20
142.4413823472666
 30
0.0
  0
VERTEX
  5
441D
330
441B
100
AcDbEntity
  8
MODEL
100
AcDbVertex
100
AcDb2dVertex
 10
109.7598095223942
 20
142.4413823472666
 30
0.0
  0
SEQEND
  5
441E
330
441B
100
AcDbEntity
  8
MODEL
  0
POLYLINE
  5
441F
330
A
100
AcDbEntity
  8
MODEL
100
AcDb2dPolyline
 66
     1
 10
0.0
 20
0.0
 30
0.0
  0
VERTEX
  5
4420
330
441F
100
AcDbEntity
  8
MODEL
100
AcDbVertex
100
AcDb2dVertex
 10
105.7383469095255
 20
140.1552154750832
 30
0.0
  0
VERTEX
  5
4421
330
441F
100
AcDbEntity
  8
MODEL
100
AcDbVertex
100
AcDb2dVertex
 10
109.7598095223942
 20
140.1552154750832
 30
0.0
  0
SEQEND
  5
4422
330
441F
100
AcDbEntity
  8
MODEL
  0
POLYLINE
  5
4423
330
A
100
AcDbEntity
  8
MODEL
100
AcDb2dPolyline
 66
     1
 10
0.0
 20
0.0
 30
0.0
  0
VERTEX
  5
4424
330
4423
100
AcDbEntity
  8
MODEL
100
AcDbVertex
100
AcDb2dVertex
 10
105.7383469095255
 20
141.2982989111749
 30
0.0
  0
VERTEX
  5
4425
330
4423
100
AcDbEntity
  8
MODEL
100
AcDbVertex
100
AcDb2dVertex
 10
109.7598095223942
 20
141.2982989111749
 30
0.0
  0
SEQEND
  5
4426
330
4423
100
AcDbEntity
  8
MODEL
  0
POLYLINE
  5
4427
330
A
100
AcDbEntity
  8
MODEL
100
AcDb2dPolyline
 66
     1
 10
0.0
 20
0.0
 30
0.0
  0
VERTEX
  5
4428
330
4427
100
AcDbEntity
  8
MODEL
100
AcDbVertex
100
AcDb2dVertex
 10
105.7383469095255
 20
139.0124765487673
 30
0.0
  0
VERTEX
  5
4429
330
4427
100
AcDbEntity
  8
MODEL
100
AcDbVertex
100
AcDb2dVertex
 10
109.7598095223942
 20
139.0124765487673
 30
0.0
  0
SEQEND
  5
442A
330
4427
100
AcDbEntity
  8
MODEL
  0
POLYLINE
  5
442B
330
A
100
AcDbEntity
  8
MODEL
100
AcDb2dPolyline
 66
     1
 10
0.0
 20
0.0
 30
0.0
  0
VERTEX
  5
442C
330
442B
100
AcDbEntity
  8
MODEL
100
AcDbVertex
100
AcDb2dVertex
 10
105.7383469095255
 20
137.8693931126756
 30
0.0
  0
VERTEX
  5
442D
330
442B
100
AcDbEntity
  8
MODEL
100
AcDbVertex
100
AcDb2dVertex
 10
109.7598095223942
 20
137.8693931126756
 30
0.0
  0
SEQEND
  5
442E
330
442B
100
AcDbEntity
  8
MODEL
  0
POLYLINE
  5
442F
330
A
100
AcDbEntity
  8
MODEL
100
AcDb2dPolyline
 66
     1
 10
0.0
 20
0.0
 30
0.0
  0
VERTEX
  5
4430
330
442F
100
AcDbEntity
  8
MODEL
100
AcDbVertex
100
AcDb2dVertex
 10
105.7383469095255
 20
135.5832262404923
 30
0.0
  0
VERTEX
  5
4431
330
442F
100
AcDbEntity
  8
MODEL
100
AcDbVertex
100
AcDb2dVertex
 10
109.7598095223942
 20
135.5832262404923
 30
0.0
  0
SEQEND
  5
4432
330
442F
100
AcDbEntity
  8
MODEL
  0
POLYLINE
  5
4433
330
A
100
AcDbEntity
  8
MODEL
100
AcDb2dPolyline
 66
     1
 10
0.0
 20
0.0
 30
0.0
  0
VERTEX
  5
4434
330
4433
100
AcDbEntity
  8
MODEL
100
AcDbVertex
100
AcDb2dVertex
 10
105.7383469095255
 20
136.726309676584
 30
0.0
  0
VERTEX
  5
4435
330
4433
100
AcDbEntity
  8
MODEL
100
AcDbVertex
100
AcDb2dVertex
 10
109.7598095223942
 20
136.726309676584
 30
0.0
  0
SEQEND
  5
4436
330
4433
100
AcDbEntity
  8
MODEL
  0
POLYLINE
  5
4437
330
A
100
AcDbEntity
  8
MODEL
100
AcDb2dPolyline
 66
     1
 10
0.0
 20
0.0
 30
0.0
  0
VERTEX
  5
4438
330
4437
100
AcDbEntity
  8
MODEL
100
AcDbVertex
100
AcDb2dVertex
 10
105.7383469095255
 20
134.4404873141764
 30
0.0
  0
VERTEX
  5
4439
330
4437
100
AcDbEntity
  8
MODEL
100
AcDbVertex
100
AcDb2dVertex
 10
109.7598095223942
 20
134.4404873141764
 30
0.0
  0
SEQEND
  5
443A
330
4437
100
AcDbEntity
  8
MODEL
  0
POLYLINE
  5
443B
330
A
100
AcDbEntity
  8
MODEL
100
AcDb2dPolyline
 66
     1
 10
0.0
 20
0.0
 30
0.0
  0
VERTEX
  5
443C
330
443B
100
AcDbEntity
  8
MODEL
100
AcDbVertex
100
AcDb2dVertex
 10
104.7012002294911
 20
151.3948469104332
 30
0.0
  0
VERTEX
  5
443D
330
443B
100
AcDbEntity
  8
MODEL
100
AcDbVertex
100
AcDb2dVertex
 10
104.3201724174606
 20
151.3738318141097
 30
0.0
  0
VERTEX
  5
443E
330
443B
100
AcDbEntity
  8
MODEL
100
AcDbVertex
100
AcDb2dVertex
 10
103.93914460543
 20
151.2467077068409
 30
0.0
  0
VERTEX
  5
443F
330
443B
100
AcDbEntity
  8
MODEL
100
AcDbVertex
100
AcDb2dVertex
 10
103.6004914958224
 20
151.0561938008256
 30
0.0
  0
VERTEX
  5
4440
330
443B
100
AcDbEntity
  8
MODEL
100
AcDbVertex
100
AcDb2dVertex
 10
103.2830257374262
 20
150.8233051923874
 30
0.0
  0
VERTEX
  5
4441
330
443B
100
AcDbEntity
  8
MODEL
100
AcDbVertex
100
AcDb2dVertex
 10
103.0289497777765
 20
150.5056671791033
 30
0.0
  0
VERTEX
  5
4442
330
443B
100
AcDbEntity
  8
MODEL
100
AcDbVertex
100
AcDb2dVertex
 10
102.8596232229727
 20
150.1670140694957
 30
0.0
  0
VERTEX
  5
4443
330
443B
100
AcDbEntity
  8
MODEL
100
AcDbVertex
100
AcDb2dVertex
 10
102.7326713705918
 20
149.7863307672409
 30
0.0
  0
VERTEX
  5
4444
330
443B
100
AcDbEntity
  8
MODEL
100
AcDbVertex
100
AcDb2dVertex
 10
102.7114840193804
 20
149.4053029552104
 30
0.0
  0
SEQEND
  5
4445
330
443B
100
AcDbEntity
  8
MODEL
  0
POLYLINE
  5
4446
330
A
100
AcDbEntity
  8
MODEL
100
AcDb2dPolyline
 66
     1
 10
0.0
 20
0.0
 30
0.0
  0
VERTEX
  5
4447
330
4446
100
AcDbEntity
  8
MODEL
100
AcDbVertex
100
AcDb2dVertex
 10
105.7383469095255
 20
150.4422773803568
 30
0.0
  0
VERTEX
  5
4448
330
4446
100
AcDbEntity
  8
MODEL
100
AcDbVertex
100
AcDb2dVertex
 10
109.7598095223942
 20
150.4422773803568
 30
0.0
  0
SEQEND
  5
4449
330
4446
100
AcDbEntity
  8
MODEL
  0
POLYLINE
  5
444A
330
A
100
AcDbEntity
  8
MODEL
100
AcDb2dPolyline
 66
     1
 10
0.0
 20
0.0
 30
0.0
  0
VERTEX
  5
444B
330
444A
100
AcDbEntity
  8
MODEL
100
AcDbVertex
100
AcDb2dVertex
 10
105.7383469095255
 20
145.8702881457659
 30
0.0
  0
VERTEX
  5
444C
330
444A
100
AcDbEntity
  8
MODEL
100
AcDbVertex
100
AcDb2dVertex
 10
109.7598095223942
 20
145.8702881457659
 30
0.0
  0
SEQEND
  5
444D
330
444A
100
AcDbEntity
  8
MODEL
  0
POLYLINE
  5
444E
330
A
100
AcDbEntity
  8
MODEL
100
AcDb2dPolyline
 66
     1
 10
0.0
 20
0.0
 30
0.0
  0
VERTEX
  5
444F
330
444E
100
AcDbEntity
  8
MODEL
100
AcDbVertex
100
AcDb2dVertex
 10
105.7383469095255
 20
147.0133715818576
 30
0.0
  0
VERTEX
  5
4450
330
444E
100
AcDbEntity
  8
MODEL
100
AcDbVertex
100
AcDb2dVertex
 10
109.7598095223942
 20
147.0133715818576
 30
0.0
  0
SEQEND
  5
4451
330
444E
100
AcDbEntity
  8
MODEL
  0
POLYLINE
  5
4452
330
A
100
AcDbEntity
  8
MODEL
100
AcDb2dPolyline
 66
     1
 10
0.0
 20
0.0
 30
0.0
  0
VERTEX
  5
4453
330
4452
100
AcDbEntity
  8
MODEL
100
AcDbVertex
100
AcDb2dVertex
 10
105.7383469095255
 20
149.2991939442651
 30
0.0
  0
VERTEX
  5
4454
330
4452
100
AcDbEntity
  8
MODEL
100
AcDbVertex
100
AcDb2dVertex
 10
109.7598095223942
 20
149.2991939442651
 30
0.0
  0
SEQEND
  5
4455
330
4452
100
AcDbEntity
  8
MODEL
  0
POLYLINE
  5
4456
330
A
100
AcDbEntity
  8
MODEL
100
AcDb2dPolyline
 66
     1
 10
0.0
 20
0.0
 30
0.0
  0
VERTEX
  5
4457
330
4456
100
AcDbEntity
  8
MODEL
100
AcDbVertex
100
AcDb2dVertex
 10
105.7383469095255
 20
148.1564550179493
 30
0.0
  0
VERTEX
  5
4458
330
4456
100
AcDbEntity
  8
MODEL
100
AcDbVertex
100
AcDb2dVertex
 10
109.7598095223942
 20
148.1564550179493
 30
0.0
  0
SEQEND
  5
4459
330
4456
100
AcDbEntity
  8
MODEL
  0
POLYLINE
  5
445A
330
A
100
AcDbEntity
  8
MODEL
100
AcDb2dPolyline
 66
     1
 10
0.0
 20
0.0
 30
0.0
  0
VERTEX
  5
445B
330
445A
100
AcDbEntity
  8
MODEL
100
AcDbVertex
100
AcDb2dVertex
 10
165.5552347712385
 20
179.9063037004363
 30
0.0
  0
VERTEX
  5
445C
330
445A
100
AcDbEntity
  8
MODEL
100
AcDbVertex
100
AcDb2dVertex
 10
165.5552347712385
 20
180.2449568100439
 30
0.0
  0
VERTEX
  5
445D
330
445A
100
AcDbEntity
  8
MODEL
100
AcDbVertex
100
AcDb2dVertex
 10
165.5765943773378
 20
180.4142833648477
 30
0.0
  0
VERTEX
  5
445E
330
445A
100
AcDbEntity
  8
MODEL
100
AcDbVertex
100
AcDb2dVertex
 10
165.5765943773378
 20
180.5836099196515
 30
0.0
  0
VERTEX
  5
445F
330
445A
100
AcDbEntity
  8
MODEL
100
AcDbVertex
100
AcDb2dVertex
 10
165.6823588785073
 20
181.4304149485585
 30
0.0
  0
VERTEX
  5
4460
330
445A
100
AcDbEntity
  8
MODEL
100
AcDbVertex
100
AcDb2dVertex
 10
165.7033739748308
 20
181.5785541521509
 30
0.0
  0
VERTEX
  5
4461
330
445A
100
AcDbEntity
  8
MODEL
100
AcDbVertex
100
AcDb2dVertex
 10
165.7457486772538
 20
181.7266933557432
 30
0.0
  0
VERTEX
  5
4462
330
445A
100
AcDbEntity
  8
MODEL
100
AcDbVertex
100
AcDb2dVertex
 10
165.7671082833531
 20
181.8748325593356
 30
0.0
  0
VERTEX
  5
4463
330
445A
100
AcDbEntity
  8
MODEL
100
AcDbVertex
100
AcDb2dVertex
 10
165.8094829857761
 20
182.0229717629279
 30
0.0
  0
VERTEX
  5
4464
330
445A
100
AcDbEntity
  8
MODEL
100
AcDbVertex
100
AcDb2dVertex
 10
165.8515131784232
 20
182.1500958701967
 30
0.0
  0
VERTEX
  5
4465
330
445A
100
AcDbEntity
  8
MODEL
100
AcDbVertex
100
AcDb2dVertex
 10
165.8728727845226
 20
182.2770477225776
 30
0.0
  0
VERTEX
  5
4466
330
445A
100
AcDbEntity
  8
MODEL
100
AcDbVertex
100
AcDb2dVertex
 10
165.9152474869455
 20
182.4039995749585
 30
0.0
  0
VERTEX
  5
4467
330
445A
100
AcDbEntity
  8
MODEL
100
AcDbVertex
100
AcDb2dVertex
 10
166.0844017868614
 20
182.827402089412
 30
0.0
  0
VERTEX
  5
4468
330
445A
100
AcDbEntity
  8
MODEL
100
AcDbVertex
100
AcDb2dVertex
 10
166.2115258941302
 20
183.0813057941738
 30
0.0
  0
VERTEX
  5
4469
330
445A
100
AcDbEntity
  8
MODEL
100
AcDbVertex
100
AcDb2dVertex
 10
166.2962752989761
 20
183.2084299014426
 30
0.0
  0
VERTEX
  5
446A
330
445A
100
AcDbEntity
  8
MODEL
100
AcDbVertex
100
AcDb2dVertex
 10
166.338650001399
 20
183.2506323489776
 30
0.0
  0
VERTEX
  5
446B
330
445A
100
AcDbEntity
  8
MODEL
100
AcDbVertex
100
AcDb2dVertex
 10
166.3806801940461
 20
183.314194402612
 30
0.0
  0
VERTEX
  5
446C
330
445A
100
AcDbEntity
  8
MODEL
100
AcDbVertex
100
AcDb2dVertex
 10
166.4444145025684
 20
183.3777564562464
 30
0.0
  0
VERTEX
  5
446D
330
445A
100
AcDbEntity
  8
MODEL
100
AcDbVertex
100
AcDb2dVertex
 10
166.4867892049913
 20
183.3987715525699
 30
0.0
  0
VERTEX
  5
446E
330
445A
100
AcDbEntity
  8
MODEL
100
AcDbVertex
100
AcDb2dVertex
 10
166.5501790037378
 20
183.3987715525699
 30
0.0
  0
SEQEND
  5
446F
330
445A
100
AcDbEntity
  8
MODEL
  0
POLYLINE
  5
4470
330
A
100
AcDbEntity
  8
MODEL
100
AcDb2dPolyline
 66
     1
 10
0.0
 20
0.0
 30
0.0
  0
VERTEX
  5
4471
330
4470
100
AcDbEntity
  8
MODEL
100
AcDbVertex
100
AcDb2dVertex
 10
127.0318071319351
 20
207.8675783784928
 30
0.0
  0
VERTEX
  5
4472
330
4470
100
AcDbEntity
  8
MODEL
100
AcDbVertex
100
AcDb2dVertex
 10
126.6931540223275
 20
209.1164263157539
 30
0.0
  0
SEQEND
  5
4473
330
4470
100
AcDbEntity
  8
MODEL
  0
POLYLINE
  5
4474
330
A
100
AcDbEntity
  8
MODEL
100
AcDb2dPolyline
 66
     1
 10
0.0
 20
0.0
 30
0.0
  0
VERTEX
  5
4475
330
4474
100
AcDbEntity
  8
MODEL
100
AcDbVertex
100
AcDb2dVertex
 10
128.1325158656039
 20
203.9093333094827
 30
0.0
  0
VERTEX
  5
4476
330
4474
100
AcDbEntity
  8
MODEL
100
AcDbVertex
100
AcDb2dVertex
 10
127.8575970645185
 20
204.8830901907706
 30
0.0
  0
SEQEND
  5
4477
330
4474
100
AcDbEntity
  8
MODEL
  0
POLYLINE
  5
4478
330
A
100
AcDbEntity
  8
MODEL
100
AcDb2dPolyline
 66
     1
 10
0.0
 20
0.0
 30
0.0
  0
VERTEX
  5
4479
330
4478
100
AcDbEntity
  8
MODEL
100
AcDbVertex
100
AcDb2dVertex
 10
128.1962501741261
 20
207.8675783784928
 30
0.0
  0
VERTEX
  5
447A
330
4478
100
AcDbEntity
  8
MODEL
100
AcDbVertex
100
AcDb2dVertex
 10
127.8575970645185
 20
207.8463910272814
 30
0.0
  0
VERTEX
  5
447B
330
4478
100
AcDbEntity
  8
MODEL
100
AcDbVertex
100
AcDb2dVertex
 10
127.5399590512344
 20
207.7194391749005
 30
0.0
  0
VERTEX
  5
447C
330
4478
100
AcDbEntity
  8
MODEL
100
AcDbVertex
100
AcDb2dVertex
 10
127.2646957403733
 20
207.5501126200967
 30
0.0
  0
VERTEX
  5
447D
330
4478
100
AcDbEntity
  8
MODEL
100
AcDbVertex
100
AcDb2dVertex
 10
127.0318071319351
 20
207.3172240116584
 30
0.0
  0
VERTEX
  5
447E
330
4478
100
AcDbEntity
  8
MODEL
100
AcDbVertex
100
AcDb2dVertex
 10
126.8416377356956
 20
207.0209456044737
 30
0.0
  0
VERTEX
  5
447F
330
4478
100
AcDbEntity
  8
MODEL
100
AcDbVertex
100
AcDb2dVertex
 10
126.7355287247504
 20
206.7033075911897
 30
0.0
  0
VERTEX
  5
4480
330
4478
100
AcDbEntity
  8
MODEL
100
AcDbVertex
100
AcDb2dVertex
 10
126.6931540223275
 20
206.3858418327935
 30
0.0
  0
VERTEX
  5
4481
330
4478
100
AcDbEntity
  8
MODEL
100
AcDbVertex
100
AcDb2dVertex
 10
126.7355287247504
 20
206.0471887231859
 30
0.0
  0
VERTEX
  5
4482
330
4478
100
AcDbEntity
  8
MODEL
100
AcDbVertex
100
AcDb2dVertex
 10
126.8416377356956
 20
205.7297229647897
 30
0.0
  0
VERTEX
  5
4483
330
4478
100
AcDbEntity
  8
MODEL
100
AcDbVertex
100
AcDb2dVertex
 10
127.0318071319351
 20
205.433444557605
 30
0.0
  0
VERTEX
  5
4484
330
4478
100
AcDbEntity
  8
MODEL
100
AcDbVertex
100
AcDb2dVertex
 10
127.2646957403733
 20
205.2005559491668
 30
0.0
  0
VERTEX
  5
4485
330
4478
100
AcDbEntity
  8
MODEL
100
AcDbVertex
100
AcDb2dVertex
 10
127.5399590512344
 20
205.031229394363
 30
0.0
  0
VERTEX
  5
4486
330
4478
100
AcDbEntity
  8
MODEL
100
AcDbVertex
100
AcDb2dVertex
 10
127.8575970645185
 20
204.9042775419821
 30
0.0
  0
VERTEX
  5
4487
330
4478
100
AcDbEntity
  8
MODEL
100
AcDbVertex
100
AcDb2dVertex
 10
128.1962501741261
 20
204.8830901907706
 30
0.0
  0
SEQEND
  5
4488
330
4478
100
AcDbEntity
  8
MODEL
  0
POLYLINE
  5
4489
330
A
100
AcDbEntity
  8
MODEL
100
AcDb2dPolyline
 66
     1
 10
0.0
 20
0.0
 30
0.0
  0
VERTEX
  5
448A
330
4489
100
AcDbEntity
  8
MODEL
100
AcDbVertex
100
AcDb2dVertex
 10
118.459370380799
 20
201.4751994885949
 30
0.0
  0
VERTEX
  5
448B
330
4489
100
AcDbEntity
  8
MODEL
100
AcDbVertex
100
AcDb2dVertex
 10
115.1999633919915
 20
202.4065816674599
 30
0.0
  0
SEQEND
  5
448C
330
4489
100
AcDbEntity
  8
MODEL
  0
POLYLINE
  5
448D
330
A
100
AcDbEntity
  8
MODEL
100
AcDb2dPolyline
 66
     1
 10
0.0
 20
0.0
 30
0.0
  0
VERTEX
  5
448E
330
448D
100
AcDbEntity
  8
MODEL
100
AcDbVertex
100
AcDb2dVertex
 10
126.5026401163122
 20
191.039998379729
 30
0.0
  0
VERTEX
  5
448F
330
448D
100
AcDbEntity
  8
MODEL
100
AcDbVertex
100
AcDb2dVertex
 10
126.5026401163122
 20
191.1247477845748
 30
0.0
  0
VERTEX
  5
4490
330
448D
100
AcDbEntity
  8
MODEL
100
AcDbVertex
100
AcDb2dVertex
 10
126.4182352212421
 20
191.4210261917595
 30
0.0
  0
VERTEX
  5
4491
330
448D
100
AcDbEntity
  8
MODEL
100
AcDbVertex
100
AcDb2dVertex
 10
126.2487364115504
 20
191.6539148001977
 30
0.0
  0
VERTEX
  5
4492
330
448D
100
AcDbEntity
  8
MODEL
100
AcDbVertex
100
AcDb2dVertex
 10
125.9948327067886
 20
191.8232413550015
 30
0.0
  0
VERTEX
  5
4493
330
448D
100
AcDbEntity
  8
MODEL
100
AcDbVertex
100
AcDb2dVertex
 10
125.6985542996039
 20
191.9078185049595
 30
0.0
  0
SEQEND
  5
4494
330
448D
100
AcDbEntity
  8
MODEL
  0
POLYLINE
  5
4495
330
A
100
AcDbEntity
  8
MODEL
100
AcDb2dPolyline
 66
     1
 10
0.0
 20
0.0
 30
0.0
  0
VERTEX
  5
4496
330
4495
100
AcDbEntity
  8
MODEL
100
AcDbVertex
100
AcDb2dVertex
 10
126.5026401163122
 20
185.5366269662731
 30
0.0
  0
VERTEX
  5
4497
330
4495
100
AcDbEntity
  8
MODEL
100
AcDbVertex
100
AcDb2dVertex
 10
126.5026401163122
 20
183.3987715525699
 30
0.0
  0
VERTEX
  5
4498
330
4495
100
AcDbEntity
  8
MODEL
100
AcDbVertex
100
AcDb2dVertex
 10
126.8416377356956
 20
183.3987715525699
 30
0.0
  0
SEQEND
  5
4499
330
4495
100
AcDbEntity
  8
MODEL
  0
POLYLINE
  5
449A
330
A
100
AcDbEntity
  8
MODEL
100
AcDb2dPolyline
 66
     1
 10
0.0
 20
0.0
 30
0.0
  0
VERTEX
  5
449B
330
449A
100
AcDbEntity
  8
MODEL
100
AcDbVertex
100
AcDb2dVertex
 10
115.707770801515
 20
185.5366269662731
 30
0.0
  0
VERTEX
  5
449C
330
449A
100
AcDbEntity
  8
MODEL
100
AcDbVertex
100
AcDb2dVertex
 10
115.707770801515
 20
191.039998379729
 30
0.0
  0
SEQEND
  5
449D
330
449A
100
AcDbEntity
  8
MODEL
  0
POLYLINE
  5
449E
330
A
100
AcDbEntity
  8
MODEL
100
AcDb2dPolyline
 66
     1
 10
0.0
 20
0.0
 30
0.0
  0
VERTEX
  5
449F
330
449E
100
AcDbEntity
  8
MODEL
100
AcDbVertex
100
AcDb2dVertex
 10
125.6985542996039
 20
191.9078185049595
 30
0.0
  0
VERTEX
  5
44A0
330
449E
100
AcDbEntity
  8
MODEL
100
AcDbVertex
100
AcDb2dVertex
 10
125.656179597181
 20
192.818013332613
 30
0.0
  0
VERTEX
  5
44A1
330
449E
100
AcDbEntity
  8
MODEL
100
AcDbVertex
100
AcDb2dVertex
 10
125.5290554899122
 20
193.7282081602665
 30
0.0
  0
VERTEX
  5
44A2
330
449E
100
AcDbEntity
  8
MODEL
100
AcDbVertex
100
AcDb2dVertex
 10
125.3175264875734
 20
194.6172156367085
 30
0.0
  0
VERTEX
  5
44A3
330
449E
100
AcDbEntity
  8
MODEL
100
AcDbVertex
100
AcDb2dVertex
 10
125.0212480803887
 20
195.5062231131505
 30
0.0
  0
VERTEX
  5
44A4
330
449E
100
AcDbEntity
  8
MODEL
100
AcDbVertex
100
AcDb2dVertex
 10
124.6402202683581
 20
196.3316685359581
 30
0.0
  0
VERTEX
  5
44A5
330
449E
100
AcDbEntity
  8
MODEL
100
AcDbVertex
100
AcDb2dVertex
 10
124.195802657581
 20
197.1360988624422
 30
0.0
  0
VERTEX
  5
44A6
330
449E
100
AcDbEntity
  8
MODEL
100
AcDbVertex
100
AcDb2dVertex
 10
123.6666356419581
 20
197.8979822316154
 30
0.0
  0
VERTEX
  5
44A7
330
449E
100
AcDbEntity
  8
MODEL
100
AcDbVertex
100
AcDb2dVertex
 10
123.0950939239123
 20
198.5964758020421
 30
0.0
  0
VERTEX
  5
44A8
330
449E
100
AcDbEntity
  8
MODEL
100
AcDbVertex
100
AcDb2dVertex
 10
122.4388028010206
 20
199.2527669249338
 30
0.0
  0
VERTEX
  5
44A9
330
449E
100
AcDbEntity
  8
MODEL
100
AcDbVertex
100
AcDb2dVertex
 10
121.7401369757059
 20
199.8453237393032
 30
0.0
  0
VERTEX
  5
44AA
330
449E
100
AcDbEntity
  8
MODEL
100
AcDbVertex
100
AcDb2dVertex
 10
120.9784258614206
 20
200.3533034037147
 30
0.0
  0
VERTEX
  5
44AB
330
449E
100
AcDbEntity
  8
MODEL
100
AcDbVertex
100
AcDb2dVertex
 10
120.1739955349366
 20
200.7978932693797
 30
0.0
  0
VERTEX
  5
44AC
330
449E
100
AcDbEntity
  8
MODEL
100
AcDbVertex
100
AcDb2dVertex
 10
119.3271905060296
 20
201.1789210814102
 30
0.0
  0
VERTEX
  5
44AD
330
449E
100
AcDbEntity
  8
MODEL
100
AcDbVertex
100
AcDb2dVertex
 10
118.459370380799
 20
201.4751994885949
 30
0.0
  0
SEQEND
  5
44AE
330
449E
100
AcDbEntity
  8
MODEL
  0
POLYLINE
  5
44AF
330
A
100
AcDbEntity
  8
MODEL
100
AcDb2dPolyline
 66
     1
 10
0.0
 20
0.0
 30
0.0
  0
VERTEX
  5
44B0
330
44AF
100
AcDbEntity
  8
MODEL
100
AcDbVertex
100
AcDb2dVertex
 10
115.1999633919915
 20
202.4065816674599
 30
0.0
  0
VERTEX
  5
44B1
330
44AF
100
AcDbEntity
  8
MODEL
100
AcDbVertex
100
AcDb2dVertex
 10
115.1999633919915
 20
203.9093333094827
 30
0.0
  0
SEQEND
  5
44B2
330
44AF
100
AcDbEntity
  8
MODEL
  0
POLYLINE
  5
44B3
330
A
100
AcDbEntity
  8
MODEL
100
AcDb2dPolyline
 66
     1
 10
0.0
 20
0.0
 30
0.0
  0
VERTEX
  5
44B4
330
44B3
100
AcDbEntity
  8
MODEL
100
AcDbVertex
100
AcDb2dVertex
 10
127.8362374584191
 20
179.9063037004363
 30
0.0
  0
VERTEX
  5
44B5
330
44B3
100
AcDbEntity
  8
MODEL
100
AcDbVertex
100
AcDb2dVertex
 10
127.8362374584191
 20
174.9110842062797
 30
0.0
  0
SEQEND
  5
44B6
330
44B3
100
AcDbEntity
  8
MODEL
  0
POLYLINE
  5
44B7
330
A
100
AcDbEntity
  8
MODEL
100
AcDb2dPolyline
 66
     1
 10
0.0
 20
0.0
 30
0.0
  0
VERTEX
  5
44B8
330
44B7
100
AcDbEntity
  8
MODEL
100
AcDbVertex
100
AcDb2dVertex
 10
126.5026401163122
 20
169.7461936475436
 30
0.0
  0
VERTEX
  5
44B9
330
44B7
100
AcDbEntity
  8
MODEL
100
AcDbVertex
100
AcDb2dVertex
 10
126.5026401163122
 20
171.3974290029346
 30
0.0
  0
VERTEX
  5
44BA
330
44B7
100
AcDbEntity
  8
MODEL
100
AcDbVertex
100
AcDb2dVertex
 10
126.8416377356956
 20
171.3974290029346
 30
0.0
  0
SEQEND
  5
44BB
330
44B7
100
AcDbEntity
  8
MODEL
  0
POLYLINE
  5
44BC
330
A
100
AcDbEntity
  8
MODEL
100
AcDb2dPolyline
 66
     1
 10
0.0
 20
0.0
 30
0.0
  0
VERTEX
  5
44BD
330
44BC
100
AcDbEntity
  8
MODEL
100
AcDbVertex
100
AcDb2dVertex
 10
127.8362374584191
 20
174.9110842062797
 30
0.0
  0
VERTEX
  5
44BE
330
44BC
100
AcDbEntity
  8
MODEL
100
AcDbVertex
100
AcDb2dVertex
 10
127.8362374584191
 20
174.4029322869804
 30
0.0
  0
VERTEX
  5
44BF
330
44BC
100
AcDbEntity
  8
MODEL
100
AcDbVertex
100
AcDb2dVertex
 10
127.8152223620956
 20
174.2337779870644
 30
0.0
  0
VERTEX
  5
44C0
330
44BC
100
AcDbEntity
  8
MODEL
100
AcDbVertex
100
AcDb2dVertex
 10
127.8152223620956
 20
174.0432640810492
 30
0.0
  0
VERTEX
  5
44C1
330
44BC
100
AcDbEntity
  8
MODEL
100
AcDbVertex
100
AcDb2dVertex
 10
127.7938627559962
 20
173.8737652713575
 30
0.0
  0
VERTEX
  5
44C2
330
44BC
100
AcDbEntity
  8
MODEL
100
AcDbVertex
100
AcDb2dVertex
 10
127.7728476596727
 20
173.7256260677651
 30
0.0
  0
VERTEX
  5
44C3
330
44BC
100
AcDbEntity
  8
MODEL
100
AcDbVertex
100
AcDb2dVertex
 10
127.7514880535733
 20
173.5564717678492
 30
0.0
  0
VERTEX
  5
44C4
330
44BC
100
AcDbEntity
  8
MODEL
100
AcDbVertex
100
AcDb2dVertex
 10
127.7094578609262
 20
173.3869729581575
 30
0.0
  0
VERTEX
  5
44C5
330
44BC
100
AcDbEntity
  8
MODEL
100
AcDbVertex
100
AcDb2dVertex
 10
127.6670831585032
 20
173.0906945509728
 30
0.0
  0
VERTEX
  5
44C6
330
44BC
100
AcDbEntity
  8
MODEL
100
AcDbVertex
100
AcDb2dVertex
 10
127.5823337536574
 20
172.7944161437881
 30
0.0
  0
VERTEX
  5
44C7
330
44BC
100
AcDbEntity
  8
MODEL
100
AcDbVertex
100
AcDb2dVertex
 10
127.560974147558
 20
172.6672920365193
 30
0.0
  0
VERTEX
  5
44C8
330
44BC
100
AcDbEntity
  8
MODEL
100
AcDbVertex
100
AcDb2dVertex
 10
127.4765692524879
 20
172.4133883317575
 30
0.0
  0
VERTEX
  5
44C9
330
44BC
100
AcDbEntity
  8
MODEL
100
AcDbVertex
100
AcDb2dVertex
 10
127.3918198476421
 20
172.2015148196429
 30
0.0
  0
VERTEX
  5
44CA
330
44BC
100
AcDbEntity
  8
MODEL
100
AcDbVertex
100
AcDb2dVertex
 10
127.3708047513185
 20
172.0957503184734
 30
0.0
  0
VERTEX
  5
44CB
330
44BC
100
AcDbEntity
  8
MODEL
100
AcDbVertex
100
AcDb2dVertex
 10
127.3284300488956
 20
171.989985817304
 30
0.0
  0
VERTEX
  5
44CC
330
44BC
100
AcDbEntity
  8
MODEL
100
AcDbVertex
100
AcDb2dVertex
 10
127.2013059416268
 20
171.7360821125422
 30
0.0
  0
VERTEX
  5
44CD
330
44BC
100
AcDbEntity
  8
MODEL
100
AcDbVertex
100
AcDb2dVertex
 10
127.074181834358
 20
171.5455682065269
 30
0.0
  0
VERTEX
  5
44CE
330
44BC
100
AcDbEntity
  8
MODEL
100
AcDbVertex
100
AcDb2dVertex
 10
127.0318071319351
 20
171.503193504104
 30
0.0
  0
VERTEX
  5
44CF
330
44BC
100
AcDbEntity
  8
MODEL
100
AcDbVertex
100
AcDb2dVertex
 10
126.989776939288
 20
171.4821784077805
 30
0.0
  0
VERTEX
  5
44D0
330
44BC
100
AcDbEntity
  8
MODEL
100
AcDbVertex
100
AcDb2dVertex
 10
126.9260426307657
 20
171.4184440992582
 30
0.0
  0
VERTEX
  5
44D1
330
44BC
100
AcDbEntity
  8
MODEL
100
AcDbVertex
100
AcDb2dVertex
 10
126.8836679283427
 20
171.4184440992582
 30
0.0
  0
VERTEX
  5
44D2
330
44BC
100
AcDbEntity
  8
MODEL
100
AcDbVertex
100
AcDb2dVertex
 10
126.8416377356956
 20
171.3974290029346
 30
0.0
  0
SEQEND
  5
44D3
330
44BC
100
AcDbEntity
  8
MODEL
  0
POLYLINE
  5
44D4
330
A
100
AcDbEntity
  8
MODEL
100
AcDb2dPolyline
 66
     1
 10
0.0
 20
0.0
 30
0.0
  0
VERTEX
  5
44D5
330
44D4
100
AcDbEntity
  8
MODEL
100
AcDbVertex
100
AcDb2dVertex
 10
124.7036100671046
 20
161.7452986144533
 30
0.0
  0
VERTEX
  5
44D6
330
44D4
100
AcDbEntity
  8
MODEL
100
AcDbVertex
100
AcDb2dVertex
 10
124.6612353646817
 20
162.2110758313297
 30
0.0
  0
VERTEX
  5
44D7
330
44D4
100
AcDbEntity
  8
MODEL
100
AcDbVertex
100
AcDb2dVertex
 10
124.5554708635122
 20
162.6765085384304
 30
0.0
  0
VERTEX
  5
44D8
330
44D4
100
AcDbEntity
  8
MODEL
100
AcDbVertex
100
AcDb2dVertex
 10
124.3859720538205
 20
163.0999110528839
 30
0.0
  0
VERTEX
  5
44D9
330
44D4
100
AcDbEntity
  8
MODEL
100
AcDbVertex
100
AcDb2dVertex
 10
124.1320683490587
 20
163.5022984710138
 30
0.0
  0
VERTEX
  5
44DA
330
44D4
100
AcDbEntity
  8
MODEL
100
AcDbVertex
100
AcDb2dVertex
 10
123.835789941874
 20
163.861966676945
 30
0.0
  0
SEQEND
  5
44DB
330
44D4
100
AcDbEntity
  8
MODEL
  0
POLYLINE
  5
44DC
330
A
100
AcDbEntity
  8
MODEL
100
AcDb2dPolyline
 66
     1
 10
0.0
 20
0.0
 30
0.0
  0
VERTEX
  5
44DD
330
44DC
100
AcDbEntity
  8
MODEL
100
AcDbVertex
100
AcDb2dVertex
 10
119.306175409706
 20
169.7461936475436
 30
0.0
  0
VERTEX
  5
44DE
330
44DC
100
AcDbEntity
  8
MODEL
100
AcDbVertex
100
AcDb2dVertex
 10
118.8617577989289
 20
169.72517855122
 30
0.0
  0
VERTEX
  5
44DF
330
44DC
100
AcDbEntity
  8
MODEL
100
AcDbVertex
100
AcDb2dVertex
 10
118.4383552844755
 20
169.5980544439512
 30
0.0
  0
VERTEX
  5
44E0
330
44DC
100
AcDbEntity
  8
MODEL
100
AcDbVertex
100
AcDb2dVertex
 10
118.0573274724449
 20
169.4289001440353
 30
0.0
  0
VERTEX
  5
44E1
330
44DC
100
AcDbEntity
  8
MODEL
100
AcDbVertex
100
AcDb2dVertex
 10
117.6973147567379
 20
169.1749964392735
 30
0.0
  0
VERTEX
  5
44E2
330
44DC
100
AcDbEntity
  8
MODEL
100
AcDbVertex
100
AcDb2dVertex
 10
117.3800212532296
 20
168.8573584259894
 30
0.0
  0
VERTEX
  5
44E3
330
44DC
100
AcDbEntity
  8
MODEL
100
AcDbVertex
100
AcDb2dVertex
 10
115.6867557051915
 20
166.8254397683436
 30
0.0
  0
VERTEX
  5
44E4
330
44DC
100
AcDbEntity
  8
MODEL
100
AcDbVertex
100
AcDb2dVertex
 10
115.5596315979227
 20
166.6349258623284
 30
0.0
  0
VERTEX
  5
44E5
330
44DC
100
AcDbEntity
  8
MODEL
100
AcDbVertex
100
AcDb2dVertex
 10
115.4748821930768
 20
166.4230523502137
 30
0.0
  0
VERTEX
  5
44E6
330
44DC
100
AcDbEntity
  8
MODEL
100
AcDbVertex
100
AcDb2dVertex
 10
115.4538670967533
 20
166.1905082515513
 30
0.0
  0
VERTEX
  5
44E7
330
44DC
100
AcDbEntity
  8
MODEL
100
AcDbVertex
100
AcDb2dVertex
 10
115.4538670967533
 20
163.861966676945
 30
0.0
  0
SEQEND
  5
44E8
330
44DC
100
AcDbEntity
  8
MODEL
  0
POLYLINE
  5
44E9
330
A
100
AcDbEntity
  8
MODEL
100
AcDb2dPolyline
 66
     1
 10
0.0
 20
0.0
 30
0.0
  0
VERTEX
  5
44EA
330
44E9
100
AcDbEntity
  8
MODEL
100
AcDbVertex
100
AcDb2dVertex
 10
113.6968672401928
 20
150.4422773803568
 30
0.0
  0
VERTEX
  5
44EB
330
44E9
100
AcDbEntity
  8
MODEL
100
AcDbVertex
100
AcDb2dVertex
 10
123.7086658346053
 20
150.4422773803568
 30
0.0
  0
VERTEX
  5
44EC
330
44E9
100
AcDbEntity
  8
MODEL
100
AcDbVertex
100
AcDb2dVertex
 10
123.7510405370282
 20
150.4636369864562
 30
0.0
  0
VERTEX
  5
44ED
330
44E9
100
AcDbEntity
  8
MODEL
100
AcDbVertex
100
AcDb2dVertex
 10
123.8991797406205
 20
150.4636369864562
 30
0.0
  0
VERTEX
  5
44EE
330
44E9
100
AcDbEntity
  8
MODEL
100
AcDbVertex
100
AcDb2dVertex
 10
123.9415544430435
 20
150.4846520827798
 30
0.0
  0
VERTEX
  5
44EF
330
44E9
100
AcDbEntity
  8
MODEL
100
AcDbVertex
100
AcDb2dVertex
 10
123.9839291454664
 20
150.4846520827798
 30
0.0
  0
VERTEX
  5
44F0
330
44E9
100
AcDbEntity
  8
MODEL
100
AcDbVertex
100
AcDb2dVertex
 10
124.0473189442129
 20
150.5056671791033
 30
0.0
  0
VERTEX
  5
44F1
330
44E9
100
AcDbEntity
  8
MODEL
100
AcDbVertex
100
AcDb2dVertex
 10
124.2591924563275
 20
150.6117761900485
 30
0.0
  0
VERTEX
  5
44F2
330
44E9
100
AcDbEntity
  8
MODEL
100
AcDbVertex
100
AcDb2dVertex
 10
124.3015671587505
 20
150.6541508924715
 30
0.0
  0
VERTEX
  5
44F3
330
44E9
100
AcDbEntity
  8
MODEL
100
AcDbVertex
100
AcDb2dVertex
 10
124.3439418611734
 20
150.675165988795
 30
0.0
  0
VERTEX
  5
44F4
330
44E9
100
AcDbEntity
  8
MODEL
100
AcDbVertex
100
AcDb2dVertex
 10
124.364956957497
 20
150.717540691218
 30
0.0
  0
VERTEX
  5
44F5
330
44E9
100
AcDbEntity
  8
MODEL
100
AcDbVertex
100
AcDb2dVertex
 10
124.4073316599199
 20
150.7385557875415
 30
0.0
  0
VERTEX
  5
44F6
330
44E9
100
AcDbEntity
  8
MODEL
100
AcDbVertex
100
AcDb2dVertex
 10
124.4497063623428
 20
150.7809304899645
 30
0.0
  0
VERTEX
  5
44F7
330
44E9
100
AcDbEntity
  8
MODEL
100
AcDbVertex
100
AcDb2dVertex
 10
124.4707214586664
 20
150.8233051923874
 30
0.0
  0
VERTEX
  5
44F8
330
44E9
100
AcDbEntity
  8
MODEL
100
AcDbVertex
100
AcDb2dVertex
 10
124.5344557671887
 20
150.8866949911339
 30
0.0
  0
VERTEX
  5
44F9
330
44E9
100
AcDbEntity
  8
MODEL
100
AcDbVertex
100
AcDb2dVertex
 10
124.5978455659352
 20
151.0138190984027
 30
0.0
  0
VERTEX
  5
44FA
330
44E9
100
AcDbEntity
  8
MODEL
100
AcDbVertex
100
AcDb2dVertex
 10
124.6188606622587
 20
151.0772088971492
 30
0.0
  0
VERTEX
  5
44FB
330
44E9
100
AcDbEntity
  8
MODEL
100
AcDbVertex
100
AcDb2dVertex
 10
124.6612353646817
 20
151.161958301995
 30
0.0
  0
VERTEX
  5
44FC
330
44E9
100
AcDbEntity
  8
MODEL
100
AcDbVertex
100
AcDb2dVertex
 10
124.6612353646817
 20
151.204333004418
 30
0.0
  0
VERTEX
  5
44FD
330
44E9
100
AcDbEntity
  8
MODEL
100
AcDbVertex
100
AcDb2dVertex
 10
124.682594970781
 20
151.2467077068409
 30
0.0
  0
VERTEX
  5
44FE
330
44E9
100
AcDbEntity
  8
MODEL
100
AcDbVertex
100
AcDb2dVertex
 10
124.682594970781
 20
151.3100975055874
 30
0.0
  0
VERTEX
  5
44FF
330
44E9
100
AcDbEntity
  8
MODEL
100
AcDbVertex
100
AcDb2dVertex
 10
124.7036100671046
 20
151.3524722080103
 30
0.0
  0
VERTEX
  5
4500
330
44E9
100
AcDbEntity
  8
MODEL
100
AcDbVertex
100
AcDb2dVertex
 10
124.7036100671046
 20
151.4582367091797
 30
0.0
  0
SEQEND
  5
4501
330
44E9
100
AcDbEntity
  8
MODEL
  0
POLYLINE
  5
4502
330
A
100
AcDbEntity
  8
MODEL
100
AcDb2dPolyline
 66
     1
 10
0.0
 20
0.0
 30
0.0
  0
VERTEX
  5
4503
330
4502
100
AcDbEntity
  8
MODEL
100
AcDbVertex
100
AcDb2dVertex
 10
168.7092217686524
 20
161.7452986144533
 30
0.0
  0
VERTEX
  5
4504
330
4502
100
AcDbEntity
  8
MODEL
100
AcDbVertex
100
AcDb2dVertex
 10
146.6957361148288
 20
161.7452986144533
 30
0.0
  0
SEQEND
  5
4505
330
4502
100
AcDbEntity
  8
MODEL
  0
POLYLINE
  5
4506
330
A
100
AcDbEntity
  8
MODEL
100
AcDb2dPolyline
 66
     1
 10
0.0
 20
0.0
 30
0.0
  0
VERTEX
  5
4507
330
4506
100
AcDbEntity
  8
MODEL
100
AcDbVertex
100
AcDb2dVertex
 10
140.7901495381309
 20
182.6580755346082
 30
0.0
  0
VERTEX
  5
4508
330
4506
100
AcDbEntity
  8
MODEL
100
AcDbVertex
100
AcDb2dVertex
 10
140.7901495381309
 20
172.1594846269957
 30
0.0
  0
SEQEND
  5
4509
330
4506
100
AcDbEntity
  8
MODEL
  0
POLYLINE
  5
450A
330
A
100
AcDbEntity
  8
MODEL
100
AcDb2dPolyline
 66
     1
 10
0.0
 20
0.0
 30
0.0
  0
VERTEX
  5
450B
330
450A
100
AcDbEntity
  8
MODEL
100
AcDbVertex
100
AcDb2dVertex
 10
147.6906803473281
 20
183.3987715525699
 30
0.0
  0
VERTEX
  5
450C
330
450A
100
AcDbEntity
  8
MODEL
100
AcDbVertex
100
AcDb2dVertex
 10
147.6906803473281
 20
171.3974290029346
 30
0.0
  0
SEQEND
  5
450D
330
450A
100
AcDbEntity
  8
MODEL
  0
POLYLINE
  5
450E
330
A
100
AcDbEntity
  8
MODEL
100
AcDb2dPolyline
 66
     1
 10
0.0
 20
0.0
 30
0.0
  0
VERTEX
  5
450F
330
450E
100
AcDbEntity
  8
MODEL
100
AcDbVertex
100
AcDb2dVertex
 10
152.6223377878503
 20
172.1594846269957
 30
0.0
  0
VERTEX
  5
4510
330
450E
100
AcDbEntity
  8
MODEL
100
AcDbVertex
100
AcDb2dVertex
 10
152.6223377878503
 20
182.6580755346082
 30
0.0
  0
SEQEND
  5
4511
330
450E
100
AcDbEntity
  8
MODEL
  0
POLYLINE
  5
4512
330
A
100
AcDbEntity
  8
MODEL
100
AcDb2dPolyline
 66
     1
 10
0.0
 20
0.0
 30
0.0
  0
VERTEX
  5
4513
330
4512
100
AcDbEntity
  8
MODEL
100
AcDbVertex
100
AcDb2dVertex
 10
145.7011363921053
 20
183.3987715525699
 30
0.0
  0
VERTEX
  5
4514
330
4512
100
AcDbEntity
  8
MODEL
100
AcDbVertex
100
AcDb2dVertex
 10
145.7011363921053
 20
171.3974290029346
 30
0.0
  0
SEQEND
  5
4515
330
4512
100
AcDbEntity
  8
MODEL
  0
POLYLINE
  5
4516
330
A
100
AcDbEntity
  8
MODEL
100
AcDb2dPolyline
 66
     1
 10
0.0
 20
0.0
 30
0.0
  0
VERTEX
  5
4517
330
4516
100
AcDbEntity
  8
MODEL
100
AcDbVertex
100
AcDb2dVertex
 10
139.4568967057997
 20
179.9063037004363
 30
0.0
  0
VERTEX
  5
4518
330
4516
100
AcDbEntity
  8
MODEL
100
AcDbVertex
100
AcDb2dVertex
 10
139.4568967057997
 20
180.2449568100439
 30
0.0
  0
VERTEX
  5
4519
330
4516
100
AcDbEntity
  8
MODEL
100
AcDbVertex
100
AcDb2dVertex
 10
139.4779118021233
 20
180.4142833648477
 30
0.0
  0
VERTEX
  5
451A
330
4516
100
AcDbEntity
  8
MODEL
100
AcDbVertex
100
AcDb2dVertex
 10
139.6260510057156
 20
181.007012434105
 30
0.0
  0
VERTEX
  5
451B
330
4516
100
AcDbEntity
  8
MODEL
100
AcDbVertex
100
AcDb2dVertex
 10
139.6684257081386
 20
181.0917618389509
 30
0.0
  0
VERTEX
  5
451C
330
4516
100
AcDbEntity
  8
MODEL
100
AcDbVertex
100
AcDb2dVertex
 10
139.6897853142379
 20
181.1763389889088
 30
0.0
  0
VERTEX
  5
451D
330
4516
100
AcDbEntity
  8
MODEL
100
AcDbVertex
100
AcDb2dVertex
 10
139.7318155068851
 20
181.2610883937547
 30
0.0
  0
VERTEX
  5
451E
330
4516
100
AcDbEntity
  8
MODEL
100
AcDbVertex
100
AcDb2dVertex
 10
139.7531751129844
 20
181.3456655437127
 30
0.0
  0
VERTEX
  5
451F
330
4516
100
AcDbEntity
  8
MODEL
100
AcDbVertex
100
AcDb2dVertex
 10
139.7955498154074
 20
181.4304149485585
 30
0.0
  0
VERTEX
  5
4520
330
4516
100
AcDbEntity
  8
MODEL
100
AcDbVertex
100
AcDb2dVertex
 10
139.8379245178303
 20
181.493804747305
 30
0.0
  0
VERTEX
  5
4521
330
4516
100
AcDbEntity
  8
MODEL
100
AcDbVertex
100
AcDb2dVertex
 10
139.8802992202532
 20
181.5785541521509
 30
0.0
  0
VERTEX
  5
4522
330
4516
100
AcDbEntity
  8
MODEL
100
AcDbVertex
100
AcDb2dVertex
 10
139.9647041153233
 20
181.7266933557432
 30
0.0
  0
VERTEX
  5
4523
330
4516
100
AcDbEntity
  8
MODEL
100
AcDbVertex
100
AcDb2dVertex
 10
140.0070788177462
 20
181.8112705057012
 30
0.0
  0
VERTEX
  5
4524
330
4516
100
AcDbEntity
  8
MODEL
100
AcDbVertex
100
AcDb2dVertex
 10
140.0494535201691
 20
181.8748325593356
 30
0.0
  0
VERTEX
  5
4525
330
4516
100
AcDbEntity
  8
MODEL
100
AcDbVertex
100
AcDb2dVertex
 10
140.1552180213386
 20
182.0229717629279
 30
0.0
  0
VERTEX
  5
4526
330
4516
100
AcDbEntity
  8
MODEL
100
AcDbVertex
100
AcDb2dVertex
 10
140.3670915334532
 20
182.2770477225776
 30
0.0
  0
VERTEX
  5
4527
330
4516
100
AcDbEntity
  8
MODEL
100
AcDbVertex
100
AcDb2dVertex
 10
140.5999801418914
 20
182.5099363310158
 30
0.0
  0
VERTEX
  5
4528
330
4516
100
AcDbEntity
  8
MODEL
100
AcDbVertex
100
AcDb2dVertex
 10
140.7267597393844
 20
182.6157008321853
 30
0.0
  0
VERTEX
  5
4529
330
4516
100
AcDbEntity
  8
MODEL
100
AcDbVertex
100
AcDb2dVertex
 10
140.8748989429767
 20
182.7214653333547
 30
0.0
  0
VERTEX
  5
452A
330
4516
100
AcDbEntity
  8
MODEL
100
AcDbVertex
100
AcDb2dVertex
 10
141.0020230502455
 20
182.827402089412
 30
0.0
  0
VERTEX
  5
452B
330
4516
100
AcDbEntity
  8
MODEL
100
AcDbVertex
100
AcDb2dVertex
 10
141.2983014574302
 20
182.9967286442158
 30
0.0
  0
VERTEX
  5
452C
330
4516
100
AcDbEntity
  8
MODEL
100
AcDbVertex
100
AcDb2dVertex
 10
141.467800267122
 20
183.0813057941738
 30
0.0
  0
VERTEX
  5
452D
330
4516
100
AcDbEntity
  8
MODEL
100
AcDbVertex
100
AcDb2dVertex
 10
141.6159394707143
 20
183.1448678478082
 30
0.0
  0
VERTEX
  5
452E
330
4516
100
AcDbEntity
  8
MODEL
100
AcDbVertex
100
AcDb2dVertex
 10
141.7850937706302
 20
183.2084299014426
 30
0.0
  0
VERTEX
  5
452F
330
4516
100
AcDbEntity
  8
MODEL
100
AcDbVertex
100
AcDb2dVertex
 10
141.9332329742226
 20
183.2506323489776
 30
0.0
  0
VERTEX
  5
4530
330
4516
100
AcDbEntity
  8
MODEL
100
AcDbVertex
100
AcDb2dVertex
 10
142.1027317839143
 20
183.314194402612
 30
0.0
  0
VERTEX
  5
4531
330
4516
100
AcDbEntity
  8
MODEL
100
AcDbVertex
100
AcDb2dVertex
 10
142.2718860838302
 20
183.3353817538235
 30
0.0
  0
VERTEX
  5
4532
330
4516
100
AcDbEntity
  8
MODEL
100
AcDbVertex
100
AcDb2dVertex
 10
142.4413848935219
 20
183.3777564562464
 30
0.0
  0
VERTEX
  5
4533
330
4516
100
AcDbEntity
  8
MODEL
100
AcDbVertex
100
AcDb2dVertex
 10
142.6105391934378
 20
183.3987715525699
 30
0.0
  0
VERTEX
  5
4534
330
4516
100
AcDbEntity
  8
MODEL
100
AcDbVertex
100
AcDb2dVertex
 10
142.9491923030455
 20
183.3987715525699
 30
0.0
  0
SEQEND
  5
4535
330
4516
100
AcDbEntity
  8
MODEL
  0
POLYLINE
  5
4536
330
A
100
AcDbEntity
  8
MODEL
100
AcDb2dPolyline
 66
     1
 10
0.0
 20
0.0
 30
0.0
  0
VERTEX
  5
4537
330
4536
100
AcDbEntity
  8
MODEL
100
AcDbVertex
100
AcDb2dVertex
 10
150.4422799266122
 20
183.3987715525699
 30
0.0
  0
VERTEX
  5
4538
330
4536
100
AcDbEntity
  8
MODEL
100
AcDbVertex
100
AcDb2dVertex
 10
150.7809330362198
 20
183.3987715525699
 30
0.0
  0
VERTEX
  5
4539
330
4536
100
AcDbEntity
  8
MODEL
100
AcDbVertex
100
AcDb2dVertex
 10
150.9504318459115
 20
183.3777564562464
 30
0.0
  0
VERTEX
  5
453A
330
4536
100
AcDbEntity
  8
MODEL
100
AcDbVertex
100
AcDb2dVertex
 10
151.1195861458274
 20
183.3353817538235
 30
0.0
  0
VERTEX
  5
453B
330
4536
100
AcDbEntity
  8
MODEL
100
AcDbVertex
100
AcDb2dVertex
 10
151.2890849555191
 20
183.314194402612
 30
0.0
  0
VERTEX
  5
453C
330
4536
100
AcDbEntity
  8
MODEL
100
AcDbVertex
100
AcDb2dVertex
 10
151.4582392554351
 20
183.2506323489776
 30
0.0
  0
VERTEX
  5
453D
330
4536
100
AcDbEntity
  8
MODEL
100
AcDbVertex
100
AcDb2dVertex
 10
151.6277380651268
 20
183.2084299014426
 30
0.0
  0
VERTEX
  5
453E
330
4536
100
AcDbEntity
  8
MODEL
100
AcDbVertex
100
AcDb2dVertex
 10
151.7758772687191
 20
183.1448678478082
 30
0.0
  0
VERTEX
  5
453F
330
4536
100
AcDbEntity
  8
MODEL
100
AcDbVertex
100
AcDb2dVertex
 10
151.9450315686351
 20
183.0813057941738
 30
0.0
  0
VERTEX
  5
4540
330
4536
100
AcDbEntity
  8
MODEL
100
AcDbVertex
100
AcDb2dVertex
 10
152.3897936891879
 20
182.827402089412
 30
0.0
  0
VERTEX
  5
4541
330
4536
100
AcDbEntity
  8
MODEL
100
AcDbVertex
100
AcDb2dVertex
 10
152.5379328927803
 20
182.7214653333547
 30
0.0
  0
VERTEX
  5
4542
330
4536
100
AcDbEntity
  8
MODEL
100
AcDbVertex
100
AcDb2dVertex
 10
152.9189607048108
 20
182.4039995749585
 30
0.0
  0
VERTEX
  5
4543
330
4536
100
AcDbEntity
  8
MODEL
100
AcDbVertex
100
AcDb2dVertex
 10
153.2362542083191
 20
182.0229717629279
 30
0.0
  0
VERTEX
  5
4544
330
4536
100
AcDbEntity
  8
MODEL
100
AcDbVertex
100
AcDb2dVertex
 10
153.3420187094885
 20
181.8748325593356
 30
0.0
  0
VERTEX
  5
4545
330
4536
100
AcDbEntity
  8
MODEL
100
AcDbVertex
100
AcDb2dVertex
 10
153.3843934119114
 20
181.8112705057012
 30
0.0
  0
VERTEX
  5
4546
330
4536
100
AcDbEntity
  8
MODEL
100
AcDbVertex
100
AcDb2dVertex
 10
153.4267681143344
 20
181.7266933557432
 30
0.0
  0
VERTEX
  5
4547
330
4536
100
AcDbEntity
  8
MODEL
100
AcDbVertex
100
AcDb2dVertex
 10
153.5325326155038
 20
181.5785541521509
 30
0.0
  0
VERTEX
  5
4548
330
4536
100
AcDbEntity
  8
MODEL
100
AcDbVertex
100
AcDb2dVertex
 10
153.5749073179267
 20
181.493804747305
 30
0.0
  0
VERTEX
  5
4549
330
4536
100
AcDbEntity
  8
MODEL
100
AcDbVertex
100
AcDb2dVertex
 10
153.5962669240261
 20
181.4304149485585
 30
0.0
  0
VERTEX
  5
454A
330
4536
100
AcDbEntity
  8
MODEL
100
AcDbVertex
100
AcDb2dVertex
 10
153.6806718190961
 20
181.2610883937547
 30
0.0
  0
VERTEX
  5
454B
330
4536
100
AcDbEntity
  8
MODEL
100
AcDbVertex
100
AcDb2dVertex
 10
153.7020314251955
 20
181.1763389889088
 30
0.0
  0
VERTEX
  5
454C
330
4536
100
AcDbEntity
  8
MODEL
100
AcDbVertex
100
AcDb2dVertex
 10
153.7444061276184
 20
181.0917618389509
 30
0.0
  0
VERTEX
  5
454D
330
4536
100
AcDbEntity
  8
MODEL
100
AcDbVertex
100
AcDb2dVertex
 10
153.7867808300414
 20
180.9224352841471
 30
0.0
  0
VERTEX
  5
454E
330
4536
100
AcDbEntity
  8
MODEL
100
AcDbVertex
100
AcDb2dVertex
 10
153.8291555324643
 20
180.8376858793012
 30
0.0
  0
VERTEX
  5
454F
330
4536
100
AcDbEntity
  8
MODEL
100
AcDbVertex
100
AcDb2dVertex
 10
153.8925453312108
 20
180.5836099196515
 30
0.0
  0
VERTEX
  5
4550
330
4536
100
AcDbEntity
  8
MODEL
100
AcDbVertex
100
AcDb2dVertex
 10
153.8925453312108
 20
180.4990327696936
 30
0.0
  0
VERTEX
  5
4551
330
4536
100
AcDbEntity
  8
MODEL
100
AcDbVertex
100
AcDb2dVertex
 10
153.9135604275344
 20
180.4142833648477
 30
0.0
  0
VERTEX
  5
4552
330
4536
100
AcDbEntity
  8
MODEL
100
AcDbVertex
100
AcDb2dVertex
 10
153.9559351299573
 20
180.0756302552401
 30
0.0
  0
VERTEX
  5
4553
330
4536
100
AcDbEntity
  8
MODEL
100
AcDbVertex
100
AcDb2dVertex
 10
153.9559351299573
 20
179.9063037004363
 30
0.0
  0
SEQEND
  5
4554
330
4536
100
AcDbEntity
  8
MODEL
  0
POLYLINE
  5
4555
330
A
100
AcDbEntity
  8
MODEL
100
AcDb2dPolyline
 66
     1
 10
0.0
 20
0.0
 30
0.0
  0
VERTEX
  5
4556
330
4555
100
AcDbEntity
  8
MODEL
100
AcDbVertex
100
AcDb2dVertex
 10
177.7260761305655
 20
166.2749131466214
 30
0.0
  0
VERTEX
  5
4557
330
4555
100
AcDbEntity
  8
MODEL
100
AcDbVertex
100
AcDb2dVertex
 10
146.6957361148288
 20
166.2749131466214
 30
0.0
  0
SEQEND
  5
4558
330
4555
100
AcDbEntity
  8
MODEL
  0
POLYLINE
  5
4559
330
A
100
AcDbEntity
  8
MODEL
100
AcDb2dPolyline
 66
     1
 10
0.0
 20
0.0
 30
0.0
  0
VERTEX
  5
455A
330
4559
100
AcDbEntity
  8
MODEL
100
AcDbVertex
100
AcDb2dVertex
 10
176.0117954862038
 20
168.8573584259894
 30
0.0
  0
VERTEX
  5
455B
330
4559
100
AcDbEntity
  8
MODEL
100
AcDbVertex
100
AcDb2dVertex
 10
146.6957361148288
 20
168.8573584259894
 30
0.0
  0
SEQEND
  5
455C
330
4559
100
AcDbEntity
  8
MODEL
  0
POLYLINE
  5
455D
330
A
100
AcDbEntity
  8
MODEL
100
AcDb2dPolyline
 66
     1
 10
0.0
 20
0.0
 30
0.0
  0
VERTEX
  5
455E
330
455D
100
AcDbEntity
  8
MODEL
100
AcDbVertex
100
AcDb2dVertex
 10
174.9321018488586
 20
201.4751994885949
 30
0.0
  0
VERTEX
  5
455F
330
455D
100
AcDbEntity
  8
MODEL
100
AcDbVertex
100
AcDb2dVertex
 10
174.0642817236281
 20
201.1789210814102
 30
0.0
  0
VERTEX
  5
4560
330
455D
100
AcDbEntity
  8
MODEL
100
AcDbVertex
100
AcDb2dVertex
 10
173.2388363008204
 20
200.7978932693797
 30
0.0
  0
VERTEX
  5
4561
330
455D
100
AcDbEntity
  8
MODEL
100
AcDbVertex
100
AcDb2dVertex
 10
172.4344059743364
 20
200.3533034037147
 30
0.0
  0
VERTEX
  5
4562
330
455D
100
AcDbEntity
  8
MODEL
100
AcDbVertex
100
AcDb2dVertex
 10
171.6723503502753
 20
199.8453237393032
 30
0.0
  0
VERTEX
  5
4563
330
455D
100
AcDbEntity
  8
MODEL
100
AcDbVertex
100
AcDb2dVertex
 10
170.9526694286371
 20
199.2527669249338
 30
0.0
  0
VERTEX
  5
4564
330
455D
100
AcDbEntity
  8
MODEL
100
AcDbVertex
100
AcDb2dVertex
 10
170.3177379118447
 20
198.5964758020421
 30
0.0
  0
VERTEX
  5
4565
330
455D
100
AcDbEntity
  8
MODEL
100
AcDbVertex
100
AcDb2dVertex
 10
169.7251810974753
 20
197.8979822316154
 30
0.0
  0
VERTEX
  5
4566
330
455D
100
AcDbEntity
  8
MODEL
100
AcDbVertex
100
AcDb2dVertex
 10
169.1960140818524
 20
197.1360988624422
 30
0.0
  0
VERTEX
  5
4567
330
455D
100
AcDbEntity
  8
MODEL
100
AcDbVertex
100
AcDb2dVertex
 10
168.7515964710754
 20
196.3316685359581
 30
0.0
  0
VERTEX
  5
4568
330
455D
100
AcDbEntity
  8
MODEL
100
AcDbVertex
100
AcDb2dVertex
 10
168.3915837553684
 20
195.5062231131505
 30
0.0
  0
VERTEX
  5
4569
330
455D
100
AcDbEntity
  8
MODEL
100
AcDbVertex
100
AcDb2dVertex
 10
168.0953053481837
 20
194.6172156367085
 30
0.0
  0
VERTEX
  5
456A
330
455D
100
AcDbEntity
  8
MODEL
100
AcDbVertex
100
AcDb2dVertex
 10
167.8837763458448
 20
193.7282081602665
 30
0.0
  0
VERTEX
  5
456B
330
455D
100
AcDbEntity
  8
MODEL
100
AcDbVertex
100
AcDb2dVertex
 10
167.7356371422525
 20
192.818013332613
 30
0.0
  0
VERTEX
  5
456C
330
455D
100
AcDbEntity
  8
MODEL
100
AcDbVertex
100
AcDb2dVertex
 10
167.6932624398295
 20
191.9078185049595
 30
0.0
  0
SEQEND
  5
456D
330
455D
100
AcDbEntity
  8
MODEL
  0
POLYLINE
  5
456E
330
A
100
AcDbEntity
  8
MODEL
100
AcDb2dPolyline
 66
     1
 10
0.0
 20
0.0
 30
0.0
  0
VERTEX
  5
456F
330
456E
100
AcDbEntity
  8
MODEL
100
AcDbVertex
100
AcDb2dVertex
 10
178.191853347442
 20
202.4065816674599
 30
0.0
  0
VERTEX
  5
4570
330
456E
100
AcDbEntity
  8
MODEL
100
AcDbVertex
100
AcDb2dVertex
 10
178.191853347442
 20
203.9093333094827
 30
0.0
  0
SEQEND
  5
4571
330
456E
100
AcDbEntity
  8
MODEL
  0
POLYLINE
  5
4572
330
A
100
AcDbEntity
  8
MODEL
100
AcDb2dPolyline
 66
     1
 10
0.0
 20
0.0
 30
0.0
  0
VERTEX
  5
4573
330
4572
100
AcDbEntity
  8
MODEL
100
AcDbVertex
100
AcDb2dVertex
 10
150.4422799266122
 20
183.3987715525699
 30
0.0
  0
VERTEX
  5
4574
330
4572
100
AcDbEntity
  8
MODEL
100
AcDbVertex
100
AcDb2dVertex
 10
142.9491923030455
 20
183.3987715525699
 30
0.0
  0
SEQEND
  5
4575
330
4572
100
AcDbEntity
  8
MODEL
  0
POLYLINE
  5
4576
330
A
100
AcDbEntity
  8
MODEL
100
AcDb2dPolyline
 66
     1
 10
0.0
 20
0.0
 30
0.0
  0
VERTEX
  5
4577
330
4576
100
AcDbEntity
  8
MODEL
100
AcDbVertex
100
AcDb2dVertex
 10
165.5552347712385
 20
174.9110842062797
 30
0.0
  0
VERTEX
  5
4578
330
4576
100
AcDbEntity
  8
MODEL
100
AcDbVertex
100
AcDb2dVertex
 10
165.5552347712385
 20
179.9063037004363
 30
0.0
  0
SEQEND
  5
4579
330
4576
100
AcDbEntity
  8
MODEL
  0
POLYLINE
  5
457A
330
A
100
AcDbEntity
  8
MODEL
100
AcDb2dPolyline
 66
     1
 10
0.0
 20
0.0
 30
0.0
  0
VERTEX
  5
457B
330
457A
100
AcDbEntity
  8
MODEL
100
AcDbVertex
100
AcDb2dVertex
 10
166.8888321133455
 20
169.7461936475436
 30
0.0
  0
VERTEX
  5
457C
330
457A
100
AcDbEntity
  8
MODEL
100
AcDbVertex
100
AcDb2dVertex
 10
166.8888321133455
 20
171.3974290029346
 30
0.0
  0
VERTEX
  5
457D
330
457A
100
AcDbEntity
  8
MODEL
100
AcDbVertex
100
AcDb2dVertex
 10
166.5501790037378
 20
171.3974290029346
 30
0.0
  0
SEQEND
  5
457E
330
457A
100
AcDbEntity
  8
MODEL
  0
POLYLINE
  5
457F
330
A
100
AcDbEntity
  8
MODEL
100
AcDb2dPolyline
 66
     1
 10
0.0
 20
0.0
 30
0.0
  0
VERTEX
  5
4580
330
457F
100
AcDbEntity
  8
MODEL
100
AcDbVertex
100
AcDb2dVertex
 10
166.5501790037378
 20
171.3974290029346
 30
0.0
  0
VERTEX
  5
4581
330
457F
100
AcDbEntity
  8
MODEL
100
AcDbVertex
100
AcDb2dVertex
 10
166.5078043013149
 20
171.4184440992582
 30
0.0
  0
VERTEX
  5
4582
330
457F
100
AcDbEntity
  8
MODEL
100
AcDbVertex
100
AcDb2dVertex
 10
166.4867892049913
 20
171.4184440992582
 30
0.0
  0
VERTEX
  5
4583
330
457F
100
AcDbEntity
  8
MODEL
100
AcDbVertex
100
AcDb2dVertex
 10
166.4444145025684
 20
171.4398037053575
 30
0.0
  0
VERTEX
  5
4584
330
457F
100
AcDbEntity
  8
MODEL
100
AcDbVertex
100
AcDb2dVertex
 10
166.338650001399
 20
171.5455682065269
 30
0.0
  0
VERTEX
  5
4585
330
457F
100
AcDbEntity
  8
MODEL
100
AcDbVertex
100
AcDb2dVertex
 10
166.2115258941302
 20
171.7360821125422
 30
0.0
  0
VERTEX
  5
4586
330
457F
100
AcDbEntity
  8
MODEL
100
AcDbVertex
100
AcDb2dVertex
 10
166.0844017868614
 20
171.989985817304
 30
0.0
  0
VERTEX
  5
4587
330
457F
100
AcDbEntity
  8
MODEL
100
AcDbVertex
100
AcDb2dVertex
 10
165.9152474869455
 20
172.4133883317575
 30
0.0
  0
VERTEX
  5
4588
330
457F
100
AcDbEntity
  8
MODEL
100
AcDbVertex
100
AcDb2dVertex
 10
165.8728727845226
 20
172.5405124390263
 30
0.0
  0
VERTEX
  5
4589
330
457F
100
AcDbEntity
  8
MODEL
100
AcDbVertex
100
AcDb2dVertex
 10
165.8515131784232
 20
172.6672920365193
 30
0.0
  0
VERTEX
  5
458A
330
457F
100
AcDbEntity
  8
MODEL
100
AcDbVertex
100
AcDb2dVertex
 10
165.8094829857761
 20
172.7944161437881
 30
0.0
  0
VERTEX
  5
458B
330
457F
100
AcDbEntity
  8
MODEL
100
AcDbVertex
100
AcDb2dVertex
 10
165.7671082833531
 20
172.9425553473804
 30
0.0
  0
VERTEX
  5
458C
330
457F
100
AcDbEntity
  8
MODEL
100
AcDbVertex
100
AcDb2dVertex
 10
165.7457486772538
 20
173.0906945509728
 30
0.0
  0
VERTEX
  5
458D
330
457F
100
AcDbEntity
  8
MODEL
100
AcDbVertex
100
AcDb2dVertex
 10
165.7033739748308
 20
173.2388337545651
 30
0.0
  0
VERTEX
  5
458E
330
457F
100
AcDbEntity
  8
MODEL
100
AcDbVertex
100
AcDb2dVertex
 10
165.6823588785073
 20
173.3869729581575
 30
0.0
  0
VERTEX
  5
458F
330
457F
100
AcDbEntity
  8
MODEL
100
AcDbVertex
100
AcDb2dVertex
 10
165.6399841760843
 20
173.7256260677651
 30
0.0
  0
VERTEX
  5
4590
330
457F
100
AcDbEntity
  8
MODEL
100
AcDbVertex
100
AcDb2dVertex
 10
165.6189690797608
 20
173.8737652713575
 30
0.0
  0
VERTEX
  5
4591
330
457F
100
AcDbEntity
  8
MODEL
100
AcDbVertex
100
AcDb2dVertex
 10
165.5976094736614
 20
174.0432640810492
 30
0.0
  0
VERTEX
  5
4592
330
457F
100
AcDbEntity
  8
MODEL
100
AcDbVertex
100
AcDb2dVertex
 10
165.5765943773378
 20
174.2337779870644
 30
0.0
  0
VERTEX
  5
4593
330
457F
100
AcDbEntity
  8
MODEL
100
AcDbVertex
100
AcDb2dVertex
 10
165.5765943773378
 20
174.4029322869804
 30
0.0
  0
VERTEX
  5
4594
330
457F
100
AcDbEntity
  8
MODEL
100
AcDbVertex
100
AcDb2dVertex
 10
165.5552347712385
 20
174.5724310966721
 30
0.0
  0
VERTEX
  5
4595
330
457F
100
AcDbEntity
  8
MODEL
100
AcDbVertex
100
AcDb2dVertex
 10
165.5552347712385
 20
174.9110842062797
 30
0.0
  0
SEQEND
  5
4596
330
457F
100
AcDbEntity
  8
MODEL
  0
POLYLINE
  5
4597
330
A
100
AcDbEntity
  8
MODEL
100
AcDb2dPolyline
 66
     1
 10
0.0
 20
0.0
 30
0.0
  0
VERTEX
  5
4598
330
4597
100
AcDbEntity
  8
MODEL
100
AcDbVertex
100
AcDb2dVertex
 10
177.9589647390037
 20
163.861966676945
 30
0.0
  0
VERTEX
  5
4599
330
4597
100
AcDbEntity
  8
MODEL
100
AcDbVertex
100
AcDb2dVertex
 10
177.9589647390037
 20
166.1905082515513
 30
0.0
  0
SEQEND
  5
459A
330
4597
100
AcDbEntity
  8
MODEL
  0
POLYLINE
  5
459B
330
A
100
AcDbEntity
  8
MODEL
100
AcDb2dPolyline
 66
     1
 10
0.0
 20
0.0
 30
0.0
  0
VERTEX
  5
459C
330
459B
100
AcDbEntity
  8
MODEL
100
AcDbVertex
100
AcDb2dVertex
 10
177.9589647390037
 20
166.1905082515513
 30
0.0
  0
VERTEX
  5
459D
330
459B
100
AcDbEntity
  8
MODEL
100
AcDbVertex
100
AcDb2dVertex
 10
177.9165900365808
 20
166.4230523502137
 30
0.0
  0
VERTEX
  5
459E
330
459B
100
AcDbEntity
  8
MODEL
100
AcDbVertex
100
AcDb2dVertex
 10
177.8532002378343
 20
166.6349258623284
 30
0.0
  0
VERTEX
  5
459F
330
459B
100
AcDbEntity
  8
MODEL
100
AcDbVertex
100
AcDb2dVertex
 10
177.7260761305655
 20
166.8254397683436
 30
0.0
  0
SEQEND
  5
45A0
330
459B
100
AcDbEntity
  8
MODEL
  0
POLYLINE
  5
45A1
330
A
100
AcDbEntity
  8
MODEL
100
AcDb2dPolyline
 66
     1
 10
0.0
 20
0.0
 30
0.0
  0
VERTEX
  5
45A2
330
45A1
100
AcDbEntity
  8
MODEL
100
AcDbVertex
100
AcDb2dVertex
 10
176.0117954862038
 20
168.8573584259894
 30
0.0
  0
VERTEX
  5
45A3
330
45A1
100
AcDbEntity
  8
MODEL
100
AcDbVertex
100
AcDb2dVertex
 10
177.7260761305655
 20
166.8254397683436
 30
0.0
  0
SEQEND
  5
45A4
330
45A1
100
AcDbEntity
  8
MODEL
  0
POLYLINE
  5
45A5
330
A
100
AcDbEntity
  8
MODEL
100
AcDb2dPolyline
 66
     1
 10
0.0
 20
0.0
 30
0.0
  0
VERTEX
  5
45A6
330
45A5
100
AcDbEntity
  8
MODEL
100
AcDbVertex
100
AcDb2dVertex
 10
169.5556822877836
 20
163.861966676945
 30
0.0
  0
VERTEX
  5
45A7
330
45A5
100
AcDbEntity
  8
MODEL
100
AcDbVertex
100
AcDb2dVertex
 10
169.2594038805989
 20
163.5022984710138
 30
0.0
  0
VERTEX
  5
45A8
330
45A5
100
AcDbEntity
  8
MODEL
100
AcDbVertex
100
AcDb2dVertex
 10
169.0265152721607
 20
163.0999110528839
 30
0.0
  0
VERTEX
  5
45A9
330
45A5
100
AcDbEntity
  8
MODEL
100
AcDbVertex
100
AcDb2dVertex
 10
168.8360013661454
 20
162.6765085384304
 30
0.0
  0
VERTEX
  5
45AA
330
45A5
100
AcDbEntity
  8
MODEL
100
AcDbVertex
100
AcDb2dVertex
 10
168.730236864976
 20
162.2110758313297
 30
0.0
  0
VERTEX
  5
45AB
330
45A5
100
AcDbEntity
  8
MODEL
100
AcDbVertex
100
AcDb2dVertex
 10
168.7092217686524
 20
161.7452986144533
 30
0.0
  0
SEQEND
  5
45AC
330
45A5
100
AcDbEntity
  8
MODEL
  0
POLYLINE
  5
45AD
330
A
100
AcDbEntity
  8
MODEL
100
AcDb2dPolyline
 66
     1
 10
0.0
 20
0.0
 30
0.0
  0
VERTEX
  5
45AE
330
45AD
100
AcDbEntity
  8
MODEL
100
AcDbVertex
100
AcDb2dVertex
 10
176.0117954862038
 20
168.8573584259894
 30
0.0
  0
VERTEX
  5
45AF
330
45AD
100
AcDbEntity
  8
MODEL
100
AcDbVertex
100
AcDb2dVertex
 10
175.7151725692433
 20
169.1749964392735
 30
0.0
  0
VERTEX
  5
45B0
330
45AD
100
AcDbEntity
  8
MODEL
100
AcDbVertex
100
AcDb2dVertex
 10
175.3555043633121
 20
169.4289001440353
 30
0.0
  0
VERTEX
  5
45B1
330
45AD
100
AcDbEntity
  8
MODEL
100
AcDbVertex
100
AcDb2dVertex
 10
174.953461454958
 20
169.5980544439512
 30
0.0
  0
VERTEX
  5
45B2
330
45AD
100
AcDbEntity
  8
MODEL
100
AcDbVertex
100
AcDb2dVertex
 10
174.5300589405045
 20
169.72517855122
 30
0.0
  0
VERTEX
  5
45B3
330
45AD
100
AcDbEntity
  8
MODEL
100
AcDbVertex
100
AcDb2dVertex
 10
174.106656426051
 20
169.7461936475436
 30
0.0
  0
SEQEND
  5
45B4
330
45AD
100
AcDbEntity
  8
MODEL
  0
POLYLINE
  5
45B5
330
A
100
AcDbEntity
  8
MODEL
100
AcDb2dPolyline
 66
     1
 10
0.0
 20
0.0
 30
0.0
  0
VERTEX
  5
45B6
330
45B5
100
AcDbEntity
  8
MODEL
100
AcDbVertex
100
AcDb2dVertex
 10
153.9559351299573
 20
179.9063037004363
 30
0.0
  0
VERTEX
  5
45B7
330
45B5
100
AcDbEntity
  8
MODEL
100
AcDbVertex
100
AcDb2dVertex
 10
153.9559351299573
 20
174.9110842062797
 30
0.0
  0
SEQEND
  5
45B8
330
45B5
100
AcDbEntity
  8
MODEL
  0
POLYLINE
  5
45B9
330
A
100
AcDbEntity
  8
MODEL
100
AcDb2dPolyline
 66
     1
 10
0.0
 20
0.0
 30
0.0
  0
VERTEX
  5
45BA
330
45B9
100
AcDbEntity
  8
MODEL
100
AcDbVertex
100
AcDb2dVertex
 10
153.9559351299573
 20
174.9110842062797
 30
0.0
  0
VERTEX
  5
45BB
330
45B9
100
AcDbEntity
  8
MODEL
100
AcDbVertex
100
AcDb2dVertex
 10
153.9559351299573
 20
174.741585396588
 30
0.0
  0
VERTEX
  5
45BC
330
45B9
100
AcDbEntity
  8
MODEL
100
AcDbVertex
100
AcDb2dVertex
 10
153.9135604275344
 20
174.4029322869804
 30
0.0
  0
VERTEX
  5
45BD
330
45B9
100
AcDbEntity
  8
MODEL
100
AcDbVertex
100
AcDb2dVertex
 10
153.8925453312108
 20
174.3181828821345
 30
0.0
  0
VERTEX
  5
45BE
330
45B9
100
AcDbEntity
  8
MODEL
100
AcDbVertex
100
AcDb2dVertex
 10
153.8925453312108
 20
174.2337779870644
 30
0.0
  0
VERTEX
  5
45BF
330
45B9
100
AcDbEntity
  8
MODEL
100
AcDbVertex
100
AcDb2dVertex
 10
153.8711857251114
 20
174.128013485895
 30
0.0
  0
VERTEX
  5
45C0
330
45B9
100
AcDbEntity
  8
MODEL
100
AcDbVertex
100
AcDb2dVertex
 10
153.8291555324643
 20
173.9585146762033
 30
0.0
  0
VERTEX
  5
45C1
330
45B9
100
AcDbEntity
  8
MODEL
100
AcDbVertex
100
AcDb2dVertex
 10
153.7867808300414
 20
173.8737652713575
 30
0.0
  0
VERTEX
  5
45C2
330
45B9
100
AcDbEntity
  8
MODEL
100
AcDbVertex
100
AcDb2dVertex
 10
153.765421223942
 20
173.7890158665116
 30
0.0
  0
VERTEX
  5
45C3
330
45B9
100
AcDbEntity
  8
MODEL
100
AcDbVertex
100
AcDb2dVertex
 10
153.7444061276184
 20
173.7256260677651
 30
0.0
  0
VERTEX
  5
45C4
330
45B9
100
AcDbEntity
  8
MODEL
100
AcDbVertex
100
AcDb2dVertex
 10
153.7020314251955
 20
173.6408766629192
 30
0.0
  0
VERTEX
  5
45C5
330
45B9
100
AcDbEntity
  8
MODEL
100
AcDbVertex
100
AcDb2dVertex
 10
153.6806718190961
 20
173.5564717678492
 30
0.0
  0
VERTEX
  5
45C6
330
45B9
100
AcDbEntity
  8
MODEL
100
AcDbVertex
100
AcDb2dVertex
 10
153.5962669240261
 20
173.3869729581575
 30
0.0
  0
VERTEX
  5
45C7
330
45B9
100
AcDbEntity
  8
MODEL
100
AcDbVertex
100
AcDb2dVertex
 10
153.5749073179267
 20
173.3022235533116
 30
0.0
  0
VERTEX
  5
45C8
330
45B9
100
AcDbEntity
  8
MODEL
100
AcDbVertex
100
AcDb2dVertex
 10
153.5325326155038
 20
173.2388337545651
 30
0.0
  0
VERTEX
  5
45C9
330
45B9
100
AcDbEntity
  8
MODEL
100
AcDbVertex
100
AcDb2dVertex
 10
153.4267681143344
 20
173.0906945509728
 30
0.0
  0
VERTEX
  5
45CA
330
45B9
100
AcDbEntity
  8
MODEL
100
AcDbVertex
100
AcDb2dVertex
 10
153.3843934119114
 20
173.0059451461269
 30
0.0
  0
VERTEX
  5
45CB
330
45B9
100
AcDbEntity
  8
MODEL
100
AcDbVertex
100
AcDb2dVertex
 10
153.3420187094885
 20
172.9425553473804
 30
0.0
  0
VERTEX
  5
45CC
330
45B9
100
AcDbEntity
  8
MODEL
100
AcDbVertex
100
AcDb2dVertex
 10
153.2362542083191
 20
172.7944161437881
 30
0.0
  0
VERTEX
  5
45CD
330
45B9
100
AcDbEntity
  8
MODEL
100
AcDbVertex
100
AcDb2dVertex
 10
152.9189607048108
 20
172.4133883317575
 30
0.0
  0
VERTEX
  5
45CE
330
45B9
100
AcDbEntity
  8
MODEL
100
AcDbVertex
100
AcDb2dVertex
 10
152.5379328927803
 20
172.0957503184734
 30
0.0
  0
VERTEX
  5
45CF
330
45B9
100
AcDbEntity
  8
MODEL
100
AcDbVertex
100
AcDb2dVertex
 10
152.3897936891879
 20
171.989985817304
 30
0.0
  0
VERTEX
  5
45D0
330
45B9
100
AcDbEntity
  8
MODEL
100
AcDbVertex
100
AcDb2dVertex
 10
151.9450315686351
 20
171.7360821125422
 30
0.0
  0
VERTEX
  5
45D1
330
45B9
100
AcDbEntity
  8
MODEL
100
AcDbVertex
100
AcDb2dVertex
 10
151.7758772687191
 20
171.6723478040199
 30
0.0
  0
VERTEX
  5
45D2
330
45B9
100
AcDbEntity
  8
MODEL
100
AcDbVertex
100
AcDb2dVertex
 10
151.6277380651268
 20
171.6089580052734
 30
0.0
  0
VERTEX
  5
45D3
330
45B9
100
AcDbEntity
  8
MODEL
100
AcDbVertex
100
AcDb2dVertex
 10
151.4582392554351
 20
171.5455682065269
 30
0.0
  0
VERTEX
  5
45D4
330
45B9
100
AcDbEntity
  8
MODEL
100
AcDbVertex
100
AcDb2dVertex
 10
151.2890849555191
 20
171.503193504104
 30
0.0
  0
VERTEX
  5
45D5
330
45B9
100
AcDbEntity
  8
MODEL
100
AcDbVertex
100
AcDb2dVertex
 10
151.1195861458274
 20
171.4821784077805
 30
0.0
  0
VERTEX
  5
45D6
330
45B9
100
AcDbEntity
  8
MODEL
100
AcDbVertex
100
AcDb2dVertex
 10
150.9504318459115
 20
171.4398037053575
 30
0.0
  0
VERTEX
  5
45D7
330
45B9
100
AcDbEntity
  8
MODEL
100
AcDbVertex
100
AcDb2dVertex
 10
150.7809330362198
 20
171.4184440992582
 30
0.0
  0
VERTEX
  5
45D8
330
45B9
100
AcDbEntity
  8
MODEL
100
AcDbVertex
100
AcDb2dVertex
 10
150.6117787363039
 20
171.4184440992582
 30
0.0
  0
VERTEX
  5
45D9
330
45B9
100
AcDbEntity
  8
MODEL
100
AcDbVertex
100
AcDb2dVertex
 10
150.4422799266122
 20
171.3974290029346
 30
0.0
  0
SEQEND
  5
45DA
330
45B9
100
AcDbEntity
  8
MODEL
  0
POLYLINE
  5
45DB
330
A
100
AcDbEntity
  8
MODEL
100
AcDb2dPolyline
 66
     1
 10
0.0
 20
0.0
 30
0.0
  0
VERTEX
  5
45DC
330
45DB
100
AcDbEntity
  8
MODEL
100
AcDbVertex
100
AcDb2dVertex
 10
150.4422799266122
 20
171.3974290029346
 30
0.0
  0
VERTEX
  5
45DD
330
45DB
100
AcDbEntity
  8
MODEL
100
AcDbVertex
100
AcDb2dVertex
 10
142.9491923030455
 20
171.3974290029346
 30
0.0
  0
VERTEX
  5
45DE
330
45DB
100
AcDbEntity
  8
MODEL
100
AcDbVertex
100
AcDb2dVertex
 10
142.7800380031296
 20
171.4184440992582
 30
0.0
  0
VERTEX
  5
45DF
330
45DB
100
AcDbEntity
  8
MODEL
100
AcDbVertex
100
AcDb2dVertex
 10
142.6105391934378
 20
171.4184440992582
 30
0.0
  0
VERTEX
  5
45E0
330
45DB
100
AcDbEntity
  8
MODEL
100
AcDbVertex
100
AcDb2dVertex
 10
142.4413848935219
 20
171.4398037053575
 30
0.0
  0
VERTEX
  5
45E1
330
45DB
100
AcDbEntity
  8
MODEL
100
AcDbVertex
100
AcDb2dVertex
 10
142.2718860838302
 20
171.4821784077805
 30
0.0
  0
VERTEX
  5
45E2
330
45DB
100
AcDbEntity
  8
MODEL
100
AcDbVertex
100
AcDb2dVertex
 10
142.1027317839143
 20
171.503193504104
 30
0.0
  0
VERTEX
  5
45E3
330
45DB
100
AcDbEntity
  8
MODEL
100
AcDbVertex
100
AcDb2dVertex
 10
141.9332329742226
 20
171.5455682065269
 30
0.0
  0
VERTEX
  5
45E4
330
45DB
100
AcDbEntity
  8
MODEL
100
AcDbVertex
100
AcDb2dVertex
 10
141.7850937706302
 20
171.6089580052734
 30
0.0
  0
VERTEX
  5
45E5
330
45DB
100
AcDbEntity
  8
MODEL
100
AcDbVertex
100
AcDb2dVertex
 10
141.6159394707143
 20
171.6723478040199
 30
0.0
  0
VERTEX
  5
45E6
330
45DB
100
AcDbEntity
  8
MODEL
100
AcDbVertex
100
AcDb2dVertex
 10
141.467800267122
 20
171.7360821125422
 30
0.0
  0
VERTEX
  5
45E7
330
45DB
100
AcDbEntity
  8
MODEL
100
AcDbVertex
100
AcDb2dVertex
 10
141.2983014574302
 20
171.8208315173881
 30
0.0
  0
VERTEX
  5
45E8
330
45DB
100
AcDbEntity
  8
MODEL
100
AcDbVertex
100
AcDb2dVertex
 10
141.0020230502455
 20
171.989985817304
 30
0.0
  0
VERTEX
  5
45E9
330
45DB
100
AcDbEntity
  8
MODEL
100
AcDbVertex
100
AcDb2dVertex
 10
140.8748989429767
 20
172.0957503184734
 30
0.0
  0
VERTEX
  5
45EA
330
45DB
100
AcDbEntity
  8
MODEL
100
AcDbVertex
100
AcDb2dVertex
 10
140.7267597393844
 20
172.2015148196429
 30
0.0
  0
VERTEX
  5
45EB
330
45DB
100
AcDbEntity
  8
MODEL
100
AcDbVertex
100
AcDb2dVertex
 10
140.5999801418914
 20
172.3076238305881
 30
0.0
  0
VERTEX
  5
45EC
330
45DB
100
AcDbEntity
  8
MODEL
100
AcDbVertex
100
AcDb2dVertex
 10
140.3670915334532
 20
172.5405124390263
 30
0.0
  0
VERTEX
  5
45ED
330
45DB
100
AcDbEntity
  8
MODEL
100
AcDbVertex
100
AcDb2dVertex
 10
140.1552180213386
 20
172.7944161437881
 30
0.0
  0
VERTEX
  5
45EE
330
45DB
100
AcDbEntity
  8
MODEL
100
AcDbVertex
100
AcDb2dVertex
 10
140.0494535201691
 20
172.9425553473804
 30
0.0
  0
VERTEX
  5
45EF
330
45DB
100
AcDbEntity
  8
MODEL
100
AcDbVertex
100
AcDb2dVertex
 10
140.0070788177462
 20
173.0059451461269
 30
0.0
  0
VERTEX
  5
45F0
330
45DB
100
AcDbEntity
  8
MODEL
100
AcDbVertex
100
AcDb2dVertex
 10
139.9647041153233
 20
173.0906945509728
 30
0.0
  0
VERTEX
  5
45F1
330
45DB
100
AcDbEntity
  8
MODEL
100
AcDbVertex
100
AcDb2dVertex
 10
139.8802992202532
 20
173.2388337545651
 30
0.0
  0
VERTEX
  5
45F2
330
45DB
100
AcDbEntity
  8
MODEL
100
AcDbVertex
100
AcDb2dVertex
 10
139.8379245178303
 20
173.3022235533116
 30
0.0
  0
VERTEX
  5
45F3
330
45DB
100
AcDbEntity
  8
MODEL
100
AcDbVertex
100
AcDb2dVertex
 10
139.7531751129844
 20
173.4717223630033
 30
0.0
  0
VERTEX
  5
45F4
330
45DB
100
AcDbEntity
  8
MODEL
100
AcDbVertex
100
AcDb2dVertex
 10
139.7318155068851
 20
173.5564717678492
 30
0.0
  0
VERTEX
  5
45F5
330
45DB
100
AcDbEntity
  8
MODEL
100
AcDbVertex
100
AcDb2dVertex
 10
139.6897853142379
 20
173.6408766629192
 30
0.0
  0
VERTEX
  5
45F6
330
45DB
100
AcDbEntity
  8
MODEL
100
AcDbVertex
100
AcDb2dVertex
 10
139.6684257081386
 20
173.7256260677651
 30
0.0
  0
VERTEX
  5
45F7
330
45DB
100
AcDbEntity
  8
MODEL
100
AcDbVertex
100
AcDb2dVertex
 10
139.6260510057156
 20
173.7890158665116
 30
0.0
  0
VERTEX
  5
45F8
330
45DB
100
AcDbEntity
  8
MODEL
100
AcDbVertex
100
AcDb2dVertex
 10
139.5416461106456
 20
174.128013485895
 30
0.0
  0
VERTEX
  5
45F9
330
45DB
100
AcDbEntity
  8
MODEL
100
AcDbVertex
100
AcDb2dVertex
 10
139.5202865045462
 20
174.2337779870644
 30
0.0
  0
VERTEX
  5
45FA
330
45DB
100
AcDbEntity
  8
MODEL
100
AcDbVertex
100
AcDb2dVertex
 10
139.4779118021233
 20
174.4029322869804
 30
0.0
  0
VERTEX
  5
45FB
330
45DB
100
AcDbEntity
  8
MODEL
100
AcDbVertex
100
AcDb2dVertex
 10
139.4568967057997
 20
174.5724310966721
 30
0.0
  0
VERTEX
  5
45FC
330
45DB
100
AcDbEntity
  8
MODEL
100
AcDbVertex
100
AcDb2dVertex
 10
139.4568967057997
 20
179.9063037004363
 30
0.0
  0
SEQEND
  5
45FD
330
45DB
100
AcDbEntity
  8
MODEL
  0
POLYLINE
  5
45FE
330
A
100
AcDbEntity
  8
MODEL
100
AcDb2dPolyline
 66
     1
 10
0.0
 20
0.0
 30
0.0
  0
VERTEX
  5
45FF
330
45FE
100
AcDbEntity
  8
MODEL
100
AcDbVertex
100
AcDb2dVertex
 10
177.9589647390037
 20
163.861966676945
 30
0.0
  0
VERTEX
  5
4600
330
45FE
100
AcDbEntity
  8
MODEL
100
AcDbVertex
100
AcDb2dVertex
 10
146.6957361148288
 20
163.861966676945
 30
0.0
  0
SEQEND
  5
4601
330
45FE
100
AcDbEntity
  8
MODEL
  0
POLYLINE
  5
4602
330
A
100
AcDbEntity
  8
MODEL
100
AcDb2dPolyline
 66
     1
 10
0.0
 20
0.0
 30
0.0
  0
VERTEX
  5
4603
330
4602
100
AcDbEntity
  8
MODEL
100
AcDbVertex
100
AcDb2dVertex
 10
67.53238502861826
 20
137.657519600561
 30
0.0
  0
VERTEX
  5
4604
330
4602
100
AcDbEntity
  8
MODEL
100
AcDbVertex
100
AcDb2dVertex
 10
101.3990740284848
 20
137.657519600561
 30
0.0
  0
SEQEND
  5
4605
330
4602
100
AcDbEntity
  8
MODEL
  0
POLYLINE
  5
4606
330
A
100
AcDbEntity
  8
MODEL
100
AcDb2dPolyline
 66
     1
 10
0.0
 20
0.0
 30
0.0
  0
VERTEX
  5
4607
330
4606
100
AcDbEntity
  8
MODEL
100
AcDbVertex
100
AcDb2dVertex
 10
67.53238502861826
 20
142.6529113496055
 30
0.0
  0
VERTEX
  5
4608
330
4606
100
AcDbEntity
  8
MODEL
100
AcDbVertex
100
AcDb2dVertex
 10
101.3990740284848
 20
142.6529113496055
 30
0.0
  0
SEQEND
  5
4609
330
4606
100
AcDbEntity
  8
MODEL
  0
POLYLINE
  5
460A
330
A
100
AcDbEntity
  8
MODEL
100
AcDb2dPolyline
 66
     1
 10
0.0
 20
0.0
 30
0.0
  0
VERTEX
  5
460B
330
460A
100
AcDbEntity
  8
MODEL
100
AcDbVertex
100
AcDb2dVertex
 10
31.16800015422946
 20
137.657519600561
 30
0.0
  0
VERTEX
  5
460C
330
460A
100
AcDbEntity
  8
MODEL
100
AcDbVertex
100
AcDb2dVertex
 10
64.67484869327694
 20
137.657519600561
 30
0.0
  0
SEQEND
  5
460D
330
460A
100
AcDbEntity
  8
MODEL
  0
POLYLINE
  5
460E
330
A
100
AcDbEntity
  8
MODEL
100
AcDb2dPolyline
 66
     1
 10
0.0
 20
0.0
 30
0.0
  0
VERTEX
  5
460F
330
460E
100
AcDbEntity
  8
MODEL
100
AcDbVertex
100
AcDb2dVertex
 10
31.16800015422946
 20
142.6529113496055
 30
0.0
  0
VERTEX
  5
4610
330
460E
100
AcDbEntity
  8
MODEL
100
AcDbVertex
100
AcDb2dVertex
 10
64.67484869327694
 20
142.6529113496055
 30
0.0
  0
SEQEND
  5
4611
330
460E
100
AcDbEntity
  8
MODEL
  0
POLYLINE
  5
4612
330
A
100
AcDbEntity
  8
MODEL
100
AcDb2dPolyline
 66
     1
 10
0.0
 20
0.0
 30
0.0
  0
VERTEX
  5
4613
330
4612
100
AcDbEntity
  8
MODEL
100
AcDbVertex
100
AcDb2dVertex
 10
165.2803159701531
 20
203.9093333094827
 30
0.0
  0
VERTEX
  5
4614
330
4612
100
AcDbEntity
  8
MODEL
100
AcDbVertex
100
AcDb2dVertex
 10
165.5342196749149
 20
204.8830901907706
 30
0.0
  0
SEQEND
  5
4615
330
4612
100
AcDbEntity
  8
MODEL
  0
POLYLINE
  5
4616
330
A
100
AcDbEntity
  8
MODEL
100
AcDb2dPolyline
 66
     1
 10
0.0
 20
0.0
 30
0.0
  0
VERTEX
  5
4617
330
4616
100
AcDbEntity
  8
MODEL
100
AcDbVertex
100
AcDb2dVertex
 10
166.3596650977225
 20
207.8675783784928
 30
0.0
  0
VERTEX
  5
4618
330
4616
100
AcDbEntity
  8
MODEL
100
AcDbVertex
100
AcDb2dVertex
 10
166.6983182073302
 20
209.1164263157539
 30
0.0
  0
SEQEND
  5
4619
330
4616
100
AcDbEntity
  8
MODEL
  0
POLYLINE
  5
461A
330
A
100
AcDbEntity
  8
MODEL
100
AcDb2dPolyline
 66
     1
 10
0.0
 20
0.0
 30
0.0
  0
VERTEX
  5
461B
330
461A
100
AcDbEntity
  8
MODEL
100
AcDbVertex
100
AcDb2dVertex
 10
165.1955665653073
 20
204.8830901907706
 30
0.0
  0
VERTEX
  5
461C
330
461A
100
AcDbEntity
  8
MODEL
100
AcDbVertex
100
AcDb2dVertex
 10
165.5342196749149
 20
204.9042775419821
 30
0.0
  0
VERTEX
  5
461D
330
461A
100
AcDbEntity
  8
MODEL
100
AcDbVertex
100
AcDb2dVertex
 10
165.8515131784232
 20
205.031229394363
 30
0.0
  0
VERTEX
  5
461E
330
461A
100
AcDbEntity
  8
MODEL
100
AcDbVertex
100
AcDb2dVertex
 10
166.1267764892843
 20
205.2005559491668
 30
0.0
  0
VERTEX
  5
461F
330
461A
100
AcDbEntity
  8
MODEL
100
AcDbVertex
100
AcDb2dVertex
 10
166.3806801940461
 20
205.433444557605
 30
0.0
  0
VERTEX
  5
4620
330
461A
100
AcDbEntity
  8
MODEL
100
AcDbVertex
100
AcDb2dVertex
 10
166.5501790037378
 20
205.7297229647897
 30
0.0
  0
VERTEX
  5
4621
330
461A
100
AcDbEntity
  8
MODEL
100
AcDbVertex
100
AcDb2dVertex
 10
166.6559435049073
 20
206.0471887231859
 30
0.0
  0
VERTEX
  5
4622
330
461A
100
AcDbEntity
  8
MODEL
100
AcDbVertex
100
AcDb2dVertex
 10
166.6983182073302
 20
206.3858418327935
 30
0.0
  0
VERTEX
  5
4623
330
461A
100
AcDbEntity
  8
MODEL
100
AcDbVertex
100
AcDb2dVertex
 10
166.6559435049073
 20
206.7033075911897
 30
0.0
  0
VERTEX
  5
4624
330
461A
100
AcDbEntity
  8
MODEL
100
AcDbVertex
100
AcDb2dVertex
 10
166.5501790037378
 20
207.0209456044737
 30
0.0
  0
VERTEX
  5
4625
330
461A
100
AcDbEntity
  8
MODEL
100
AcDbVertex
100
AcDb2dVertex
 10
166.3806801940461
 20
207.3172240116584
 30
0.0
  0
VERTEX
  5
4626
330
461A
100
AcDbEntity
  8
MODEL
100
AcDbVertex
100
AcDb2dVertex
 10
166.1267764892843
 20
207.5501126200967
 30
0.0
  0
VERTEX
  5
4627
330
461A
100
AcDbEntity
  8
MODEL
100
AcDbVertex
100
AcDb2dVertex
 10
165.8515131784232
 20
207.7194391749005
 30
0.0
  0
VERTEX
  5
4628
330
461A
100
AcDbEntity
  8
MODEL
100
AcDbVertex
100
AcDb2dVertex
 10
165.5342196749149
 20
207.8463910272814
 30
0.0
  0
VERTEX
  5
4629
330
461A
100
AcDbEntity
  8
MODEL
100
AcDbVertex
100
AcDb2dVertex
 10
165.1955665653073
 20
207.8675783784928
 30
0.0
  0
SEQEND
  5
462A
330
461A
100
AcDbEntity
  8
MODEL
  0
POLYLINE
  5
462B
330
A
100
AcDbEntity
  8
MODEL
100
AcDb2dPolyline
 66
     1
 10
0.0
 20
0.0
 30
0.0
  0
VERTEX
  5
462C
330
462B
100
AcDbEntity
  8
MODEL
100
AcDbVertex
100
AcDb2dVertex
 10
174.9321018488586
 20
201.4751994885949
 30
0.0
  0
VERTEX
  5
462D
330
462B
100
AcDbEntity
  8
MODEL
100
AcDbVertex
100
AcDb2dVertex
 10
178.191853347442
 20
202.4065816674599
 30
0.0
  0
SEQEND
  5
462E
330
462B
100
AcDbEntity
  8
MODEL
  0
POLYLINE
  5
462F
330
A
100
AcDbEntity
  8
MODEL
100
AcDb2dPolyline
 66
     1
 10
0.0
 20
0.0
 30
0.0
  0
VERTEX
  5
4630
330
462F
100
AcDbEntity
  8
MODEL
100
AcDbVertex
100
AcDb2dVertex
 10
177.705061034242
 20
185.5366269662731
 30
0.0
  0
VERTEX
  5
4631
330
462F
100
AcDbEntity
  8
MODEL
100
AcDbVertex
100
AcDb2dVertex
 10
177.705061034242
 20
191.039998379729
 30
0.0
  0
SEQEND
  5
4632
330
462F
100
AcDbEntity
  8
MODEL
  0
POLYLINE
  5
4633
330
A
100
AcDbEntity
  8
MODEL
100
AcDb2dPolyline
 66
     1
 10
0.0
 20
0.0
 30
0.0
  0
VERTEX
  5
4634
330
4633
100
AcDbEntity
  8
MODEL
100
AcDbVertex
100
AcDb2dVertex
 10
167.6932624398295
 20
191.9078185049595
 30
0.0
  0
VERTEX
  5
4635
330
4633
100
AcDbEntity
  8
MODEL
100
AcDbVertex
100
AcDb2dVertex
 10
167.4179991289684
 20
191.8232413550015
 30
0.0
  0
VERTEX
  5
4636
330
4633
100
AcDbEntity
  8
MODEL
100
AcDbVertex
100
AcDb2dVertex
 10
167.1640954242066
 20
191.6539148001977
 30
0.0
  0
VERTEX
  5
4637
330
4633
100
AcDbEntity
  8
MODEL
100
AcDbVertex
100
AcDb2dVertex
 10
166.9735815181913
 20
191.4210261917595
 30
0.0
  0
VERTEX
  5
4638
330
4633
100
AcDbEntity
  8
MODEL
100
AcDbVertex
100
AcDb2dVertex
 10
166.8888321133455
 20
191.1247477845748
 30
0.0
  0
SEQEND
  5
4639
330
4633
100
AcDbEntity
  8
MODEL
  0
POLYLINE
  5
463A
330
A
100
AcDbEntity
  8
MODEL
100
AcDb2dPolyline
 66
     1
 10
0.0
 20
0.0
 30
0.0
  0
VERTEX
  5
463B
330
463A
100
AcDbEntity
  8
MODEL
100
AcDbVertex
100
AcDb2dVertex
 10
166.8888321133455
 20
191.039998379729
 30
0.0
  0
VERTEX
  5
463C
330
463A
100
AcDbEntity
  8
MODEL
100
AcDbVertex
100
AcDb2dVertex
 10
166.8888321133455
 20
191.1247477845748
 30
0.0
  0
SEQEND
  5
463D
330
463A
100
AcDbEntity
  8
MODEL
  0
POLYLINE
  5
463E
330
A
100
AcDbEntity
  8
MODEL
100
AcDb2dPolyline
 66
     1
 10
0.0
 20
0.0
 30
0.0
  0
VERTEX
  5
463F
330
463E
100
AcDbEntity
  8
MODEL
100
AcDbVertex
100
AcDb2dVertex
 10
166.8888321133455
 20
185.5366269662731
 30
0.0
  0
VERTEX
  5
4640
330
463E
100
AcDbEntity
  8
MODEL
100
AcDbVertex
100
AcDb2dVertex
 10
166.8888321133455
 20
183.3987715525699
 30
0.0
  0
VERTEX
  5
4641
330
463E
100
AcDbEntity
  8
MODEL
100
AcDbVertex
100
AcDb2dVertex
 10
166.5501790037378
 20
183.3987715525699
 30
0.0
  0
SEQEND
  5
4642
330
463E
100
AcDbEntity
  8
MODEL
  0
POLYLINE
  5
464F
330
A
100
AcDbEntity
  8
MODEL
100
AcDb2dPolyline
 66
     1
 10
0.0
 20
0.0
 30
0.0
  0
VERTEX
  5
4650
330
464F
100
AcDbEntity
  8
MODEL
100
AcDbVertex
100
AcDb2dVertex
 10
115.6867557051915
 20
166.2749131466214
 30
0.0
  0
VERTEX
  5
4651
330
464F
100
AcDbEntity
  8
MODEL
100
AcDbVertex
100
AcDb2dVertex
 10
146.6957361148288
 20
166.2749131466214
 30
0.0
  0
SEQEND
  5
4652
330
464F
100
AcDbEntity
  8
MODEL
  0
POLYLINE
  5
546A
330
A
100
AcDbEntity
  8
MODEL
100
AcDb2dPolyline
 66
     1
 10
0.0
 20
0.0
 30
0.0
  0
VERTEX
  5
546B
330
546A
100
AcDbEntity
  8
MODEL
100
AcDbVertex
100
AcDb2dVertex
 10
146.6957361148288
 20
203.697632052256
 30
0.0
  0
VERTEX
  5
546C
330
546A
100
AcDbEntity
  8
MODEL
100
AcDbVertex
100
AcDb2dVertex
 10
146.6957361148288
 20
212.1221018546876
 30
0.0
  0
SEQEND
  5
546D
330
546A
100
AcDbEntity
  8
MODEL
  0
POLYLINE
  5
546E
330
A
100
AcDbEntity
  8
MODEL
100
AcDb2dPolyline
 66
     1
 10
0.0
 20
0.0
 30
0.0
  0
VERTEX
  5
546F
330
546E
100
AcDbEntity
  8
MODEL
100
AcDbVertex
100
AcDb2dVertex
 10
146.6957361148288
 20
199.1892048712994
 30
0.0
  0
VERTEX
  5
5470
330
546E
100
AcDbEntity
  8
MODEL
100
AcDbVertex
100
AcDb2dVertex
 10
146.6957361148288
 20
202.1948804102331
 30
0.0
  0
SEQEND
  5
5471
330
546E
100
AcDbEntity
  8
MODEL
  0
POLYLINE
  5
5472
330
A
100
AcDbEntity
  8
MODEL
100
AcDb2dPolyline
 66
     1
 10
0.0
 20
0.0
 30
0.0
  0
VERTEX
  5
5473
330
5472
100
AcDbEntity
  8
MODEL
100
AcDbVertex
100
AcDb2dVertex
 10
146.6957361148288
 20
185.6849384247533
 30
0.0
  0
VERTEX
  5
5474
330
5472
100
AcDbEntity
  8
MODEL
100
AcDbVertex
100
AcDb2dVertex
 10
146.6957361148288
 20
197.6862809743886
 30
0.0
  0
SEQEND
  5
5475
330
5472
100
AcDbEntity
  8
MODEL
  0
POLYLINE
  5
5476
330
A
100
AcDbEntity
  8
MODEL
100
AcDb2dPolyline
 66
     1
 10
0.0
 20
0.0
 30
0.0
  0
VERTEX
  5
5477
330
5476
100
AcDbEntity
  8
MODEL
100
AcDbVertex
100
AcDb2dVertex
 10
146.6957361148288
 20
181.1975263401203
 30
0.0
  0
VERTEX
  5
5478
330
5476
100
AcDbEntity
  8
MODEL
100
AcDbVertex
100
AcDb2dVertex
 10
146.6957361148288
 20
184.1820145278425
 30
0.0
  0
SEQEND
  5
5479
330
5476
100
AcDbEntity
  8
MODEL
  0
POLYLINE
  5
547A
330
A
100
AcDbEntity
  8
MODEL
100
AcDb2dPolyline
 66
     1
 10
0.0
 20
0.0
 30
0.0
  0
VERTEX
  5
547B
330
547A
100
AcDbEntity
  8
MODEL
100
AcDbVertex
100
AcDb2dVertex
 10
146.6957361148288
 20
167.6932598935742
 30
0.0
  0
VERTEX
  5
547C
330
547A
100
AcDbEntity
  8
MODEL
100
AcDbVertex
100
AcDb2dVertex
 10
146.6957361148288
 20
179.6946024432095
 30
0.0
  0
SEQEND
  5
547D
330
547A
100
AcDbEntity
  8
MODEL
  0
POLYLINE
  5
547E
330
A
100
AcDbEntity
  8
MODEL
100
AcDb2dPolyline
 66
     1
 10
0.0
 20
0.0
 30
0.0
  0
VERTEX
  5
547F
330
547E
100
AcDbEntity
  8
MODEL
100
AcDbVertex
100
AcDb2dVertex
 10
146.6957361148288
 20
163.1846604577297
 30
0.0
  0
VERTEX
  5
5480
330
547E
100
AcDbEntity
  8
MODEL
100
AcDbVertex
100
AcDb2dVertex
 10
146.6957361148288
 20
166.1905082515513
 30
0.0
  0
SEQEND
  5
5481
330
547E
100
AcDbEntity
  8
MODEL
  0
POLYLINE
  5
5482
330
A
100
AcDbEntity
  8
MODEL
100
AcDb2dPolyline
 66
     1
 10
0.0
 20
0.0
 30
0.0
  0
VERTEX
  5
5483
330
5482
100
AcDbEntity
  8
MODEL
100
AcDbVertex
100
AcDb2dVertex
 10
146.6957361148288
 20
149.6802217562957
 30
0.0
  0
VERTEX
  5
5484
330
5482
100
AcDbEntity
  8
MODEL
100
AcDbVertex
100
AcDb2dVertex
 10
146.6957361148288
 20
161.6819088157068
 30
0.0
  0
SEQEND
  5
5485
330
5482
100
AcDbEntity
  8
MODEL
  0
POLYLINE
  5
5486
330
A
100
AcDbEntity
  8
MODEL
100
AcDb2dPolyline
 66
     1
 10
0.0
 20
0.0
 30
0.0
  0
VERTEX
  5
5487
330
5486
100
AcDbEntity
  8
MODEL
100
AcDbVertex
100
AcDb2dVertex
 10
146.6957361148288
 20
145.1929819265506
 30
0.0
  0
VERTEX
  5
5488
330
5486
100
AcDbEntity
  8
MODEL
100
AcDbVertex
100
AcDb2dVertex
 10
146.6957361148288
 20
148.1988297203722
 30
0.0
  0
SEQEND
  5
5489
330
5486
100
AcDbEntity
  8
MODEL
  0
POLYLINE
  5
548A
330
A
100
AcDbEntity
  8
MODEL
100
AcDb2dPolyline
 66
     1
 10
0.0
 20
0.0
 30
0.0
  0
VERTEX
  5
548B
330
548A
100
AcDbEntity
  8
MODEL
100
AcDbVertex
100
AcDb2dVertex
 10
146.6957361148288
 20
131.6885432251166
 30
0.0
  0
VERTEX
  5
548C
330
548A
100
AcDbEntity
  8
MODEL
100
AcDbVertex
100
AcDb2dVertex
 10
146.6957361148288
 20
143.6902302845277
 30
0.0
  0
SEQEND
  5
548D
330
548A
100
AcDbEntity
  8
MODEL
  0
POLYLINE
  5
548E
330
A
100
AcDbEntity
  8
MODEL
100
AcDb2dPolyline
 66
     1
 10
0.0
 20
0.0
 30
0.0
  0
VERTEX
  5
548F
330
548E
100
AcDbEntity
  8
MODEL
100
AcDbVertex
100
AcDb2dVertex
 10
146.6957361148288
 20
127.1802882990479
 30
0.0
  0
VERTEX
  5
5490
330
548E
100
AcDbEntity
  8
MODEL
100
AcDbVertex
100
AcDb2dVertex
 10
146.6957361148288
 20
130.1857915830937
 30
0.0
  0
SEQEND
  5
5491
330
548E
100
AcDbEntity
  8
MODEL
  0
POLYLINE
  5
5492
330
A
100
AcDbEntity
  8
MODEL
100
AcDb2dPolyline
 66
     1
 10
0.0
 20
0.0
 30
0.0
  0
VERTEX
  5
5493
330
5492
100
AcDbEntity
  8
MODEL
100
AcDbVertex
100
AcDb2dVertex
 10
146.6957361148288
 20
117.2528945997055
 30
0.0
  0
VERTEX
  5
5494
330
5492
100
AcDbEntity
  8
MODEL
100
AcDbVertex
100
AcDb2dVertex
 10
146.6957361148288
 20
125.6985517533486
 30
0.0
  0
SEQEND
  5
5495
330
5492
100
AcDbEntity
  8
MODEL
  0
POLYLINE
  5
5496
330
A
100
AcDbEntity
  8
MODEL
100
AcDb2dPolyline
 66
     1
 10
0.0
 20
0.0
 30
0.0
  0
VERTEX
  5
5497
330
5496
100
AcDbEntity
  8
MODEL
100
AcDbVertex
100
AcDb2dVertex
 10
114.2473938619151
 20
140.1552154750832
 30
0.0
  0
VERTEX
  5
5498
330
5496
100
AcDbEntity
  8
MODEL
100
AcDbVertex
100
AcDb2dVertex
 10
120.3431498348525
 20
140.1552154750832
 30
0.0
  0
SEQEND
  5
5499
330
5496
100
AcDbEntity
  8
MODEL
  0
POLYLINE
  5
549A
330
A
100
AcDbEntity
  8
MODEL
100
AcDb2dPolyline
 66
     1
 10
0.0
 20
0.0
 30
0.0
  0
VERTEX
  5
549B
330
549A
100
AcDbEntity
  8
MODEL
100
AcDbVertex
100
AcDb2dVertex
 10
109.7387944260706
 20
140.1552154750832
 30
0.0
  0
VERTEX
  5
549C
330
549A
100
AcDbEntity
  8
MODEL
100
AcDbVertex
100
AcDb2dVertex
 10
112.7442977101164
 20
140.1552154750832
 30
0.0
  0
SEQEND
  5
549D
330
549A
100
AcDbEntity
  8
MODEL
  0
POLYLINE
  5
549E
330
A
100
AcDbEntity
  8
MODEL
100
AcDb2dPolyline
 66
     1
 10
0.0
 20
0.0
 30
0.0
  0
VERTEX
  5
549F
330
549E
100
AcDbEntity
  8
MODEL
100
AcDbVertex
100
AcDb2dVertex
 10
96.25554307584805
 20
140.1552154750832
 30
0.0
  0
VERTEX
  5
54A0
330
549E
100
AcDbEntity
  8
MODEL
100
AcDbVertex
100
AcDb2dVertex
 10
108.2360427840477
 20
140.1552154750832
 30
0.0
  0
SEQEND
  5
54A1
330
549E
100
AcDbEntity
  8
MODEL
  0
POLYLINE
  5
54A2
330
A
100
AcDbEntity
  8
MODEL
100
AcDb2dPolyline
 66
     1
 10
0.0
 20
0.0
 30
0.0
  0
VERTEX
  5
54A3
330
54A2
100
AcDbEntity
  8
MODEL
100
AcDbVertex
100
AcDb2dVertex
 10
91.74711589489148
 20
140.1552154750832
 30
0.0
  0
VERTEX
  5
54A4
330
54A2
100
AcDbEntity
  8
MODEL
100
AcDbVertex
100
AcDb2dVertex
 10
94.75279143382517
 20
140.1552154750832
 30
0.0
  0
SEQEND
  5
54A5
330
54A2
100
AcDbEntity
  8
MODEL
  0
POLYLINE
  5
54A6
330
A
100
AcDbEntity
  8
MODEL
100
AcDb2dPolyline
 66
     1
 10
0.0
 20
0.0
 30
0.0
  0
VERTEX
  5
54A7
330
54A6
100
AcDbEntity
  8
MODEL
100
AcDbVertex
100
AcDb2dVertex
 10
78.24284944834535
 20
140.1552154750832
 30
0.0
  0
VERTEX
  5
54A8
330
54A6
100
AcDbEntity
  8
MODEL
100
AcDbVertex
100
AcDb2dVertex
 10
90.24436425286859
 20
140.1552154750832
 30
0.0
  0
SEQEND
  5
54A9
330
54A6
100
AcDbEntity
  8
MODEL
  0
POLYLINE
  5
54AA
330
A
100
AcDbEntity
  8
MODEL
100
AcDb2dPolyline
 66
     1
 10
0.0
 20
0.0
 30
0.0
  0
VERTEX
  5
54AB
330
54AA
100
AcDbEntity
  8
MODEL
100
AcDbVertex
100
AcDb2dVertex
 10
73.75543736371236
 20
140.1552154750832
 30
0.0
  0
VERTEX
  5
54AC
330
54AA
100
AcDbEntity
  8
MODEL
100
AcDbVertex
100
AcDb2dVertex
 10
76.73992555143457
 20
140.1552154750832
 30
0.0
  0
SEQEND
  5
54AD
330
54AA
100
AcDbEntity
  8
MODEL
  0
POLYLINE
  5
54AE
330
A
100
AcDbEntity
  8
MODEL
100
AcDb2dPolyline
 66
     1
 10
0.0
 20
0.0
 30
0.0
  0
VERTEX
  5
54AF
330
54AE
100
AcDbEntity
  8
MODEL
100
AcDbVertex
100
AcDb2dVertex
 10
60.25117091716623
 20
140.1552154750832
 30
0.0
  0
VERTEX
  5
54B0
330
54AE
100
AcDbEntity
  8
MODEL
100
AcDbVertex
100
AcDb2dVertex
 10
72.25268572168947
 20
140.1552154750832
 30
0.0
  0
SEQEND
  5
54B1
330
54AE
100
AcDbEntity
  8
MODEL
  0
POLYLINE
  5
54B2
330
A
100
AcDbEntity
  8
MODEL
100
AcDb2dPolyline
 66
     1
 10
0.0
 20
0.0
 30
0.0
  0
VERTEX
  5
54B3
330
54B2
100
AcDbEntity
  8
MODEL
100
AcDbVertex
100
AcDb2dVertex
 10
55.74257148132178
 20
140.1552154750832
 30
0.0
  0
VERTEX
  5
54B4
330
54B2
100
AcDbEntity
  8
MODEL
100
AcDbVertex
100
AcDb2dVertex
 10
58.74824702025545
 20
140.1552154750832
 30
0.0
  0
SEQEND
  5
54B5
330
54B2
100
AcDbEntity
  8
MODEL
  0
POLYLINE
  5
54B6
330
A
100
AcDbEntity
  8
MODEL
100
AcDb2dPolyline
 66
     1
 10
0.0
 20
0.0
 30
0.0
  0
VERTEX
  5
54B7
330
54B6
100
AcDbEntity
  8
MODEL
100
AcDbVertex
100
AcDb2dVertex
 10
42.25949238598712
 20
140.1552154750832
 30
0.0
  0
VERTEX
  5
54B8
330
54B6
100
AcDbEntity
  8
MODEL
100
AcDbVertex
100
AcDb2dVertex
 10
54.23981983929889
 20
140.1552154750832
 30
0.0
  0
SEQEND
  5
54B9
330
54B6
100
AcDbEntity
  8
MODEL
  0
POLYLINE
  5
54BA
330
A
100
AcDbEntity
  8
MODEL
100
AcDb2dPolyline
 66
     1
 10
0.0
 20
0.0
 30
0.0
  0
VERTEX
  5
54BB
330
54BA
100
AcDbEntity
  8
MODEL
100
AcDbVertex
100
AcDb2dVertex
 10
37.75089295014266
 20
140.1552154750832
 30
0.0
  0
VERTEX
  5
54BC
330
54BA
100
AcDbEntity
  8
MODEL
100
AcDbVertex
100
AcDb2dVertex
 10
40.75656848907633
 20
140.1552154750832
 30
0.0
  0
SEQEND
  5
54BD
330
54BA
100
AcDbEntity
  8
MODEL
  0
POLYLINE
  5
54BE
330
A
100
AcDbEntity
  8
MODEL
100
AcDb2dPolyline
 66
     1
 10
0.0
 20
0.0
 30
0.0
  0
VERTEX
  5
54BF
330
54BE
100
AcDbEntity
  8
MODEL
100
AcDbVertex
100
AcDb2dVertex
 10
30.15204082540656
 20
140.1552154750832
 30
0.0
  0
VERTEX
  5
54C0
330
54BE
100
AcDbEntity
  8
MODEL
100
AcDbVertex
100
AcDb2dVertex
 10
36.24814130811976
 20
140.1552154750832
 30
0.0
  0
SEQEND
  5
54C1
330
54BE
100
AcDbEntity
  8
MODEL
  0
DIMENSION
  5
54D1
330
A
100
AcDbEntity
  8
DIM
100
AcDbDimension
  2
*D2
 10
178.1898358183266
 20
219.5760276358909
 30
0.0
 11
146.6388095962443
 21
219.5760276358909
 31
0.0
 70
   160
 71
     5
 42
62.9898724263351
 73
     0
 74
     0
 75
     0
  3
tfrom線あり
100
AcDbAlignedDimension
 13
115.1999633919915
 23
203.0742357158464
 33
0.0
 14
178.1898358183266
 24
204.2038248951633
 34
0.0
100
AcDbRotatedDimension
1001
ACAD
1000
DSTYLE
1002
{
1070
     3
1000
%%c<>
1002
}
  0
DIMENSION
  5
54E0
330
A
100
AcDbEntity
  8
DIM
100
AcDbDimension
  2
*D3
 10
101.9303193780935
 20
169.7461936475436
 30
0.0
 11
101.9303193780935
 21
187.1080578005566
 31
0.0
 70
   160
  1
30-50
 71
     5
 42
34.16313966193911
 73
     0
 74
     0
 75
     0
  3
tfrom線あり
100
AcDbAlignedDimension
 13
113.5637946539263
 23
203.9093333094827
 33
0.0
 14
117.6703511814165
 24
169.7461936475436
 34
0.0
 50
90.0
100
AcDbRotatedDimension
  0
DIMENSION
  5
54EF
330
A
100
AcDbEntity
  8
DIM
100
AcDbDimension
  2
*D4
 10
146.6957361148288
 20
92.3098287451939
 30
0.0
 11
88.4238884701177
 21
94.81039145621052
 31
0.0
 70
    32
  1
205
 71
     5
 42
116.5436952894223
 73
     0
 74
     0
 75
     0
  3
tfrom線あり
100
AcDbAlignedDimension
 13
30.15204082540656
 23
137.8991732036329
 33
0.0
 14
146.6957361148288
 24
103.3128032821281
 34
0.0
100
AcDbRotatedDimension
  0
DIMENSION
  5
54FE
330
A
100
AcDbEntity
  8
DIM
100
AcDbDimension
  2
*D5
 10
167.2064701266295
 20
105.5596244784068
 30
0.0
 11
146.7064159178785
 21
108.37980704687
 31
0.0
 70
    32
  1
G1 1/4"
 71
     5
 42
41.00010841750199
 73
     0
 74
     0
 75
     0
  3
tfrom線あり
100
AcDbAlignedDimension
 13
126.2063617091275
 23
117.5933134277847
 33
0.0
 14
167.2064701266295
 24
117.5933134277847
 34
0.0
100
AcDbRotatedDimension
  0
DIMENSION
  5
551C
330
A
100
AcDbEntity
  8
DIM
100
AcDbDimension
  2
*D6
 10
182.8829075757503
 20
118.2545816591167
 30
0.0
 11
180.3823448647337
 21
123.7545816591167
 31
0.0
 70
    32
 71
     5
 42
11.0
 73
     0
 74
     0
 75
     0
  3
tfrom線あり
100
AcDbAlignedDimension
 13
167.2064701266295
 23
129.2545816591167
 33
0.0
 14
167.2064701266295
 24
118.2545816591167
 34
0.0
 50
90.0
100
AcDbRotatedDimension
  0
LINE
  5
552A
330
A
100
AcDbEntity
  8
MODEL
100
AcDbLine
 10
146.6957361148288
 20
129.2545816591167
 30
0.0
 11
167.2064701266295
 21
129.2545816591167
 31
0.0
  0
LINE
  5
552B
330
A
100
AcDbEntity
  8
MODEL
100
AcDbLine
 10
167.2064701266295
 20
129.2545816591167
 30
0.0
 11
167.2064701266295
 21
118.9956221868542
 31
0.0
  0
LINE
  5
552C
330
A
100
AcDbEntity
  8
MODEL
100
AcDbLine
 10
167.2064701266295
 20
118.9956221868542
 30
0.0
 11
166.4444145025684
 21
118.2545816591167
 31
0.0
  0
LINE
  5
552D
330
A
100
AcDbEntity
  8
MODEL
100
AcDbLine
 10
126.2063617091275
 20
129.2545816591167
 30
0.0
 11
126.2063617091275
 21
118.9956221868542
 31
0.0
  0
LINE
  5
552E
330
A
100
AcDbEntity
  8
MODEL
100
AcDbLine
 10
126.2063617091275
 20
118.9956221868542
 30
0.0
 11
126.947402236865
 21
118.2545816591167
 31
0.0
  0
VIEWPORT
  5
349
330
B
100
AcDbEntity
 67
     1
  8
0
100
AcDbViewport
 10
202.5
 20
128.5
 30
0.0
 40
486.0
 41
308.4
 68
     1
 69
     1
 12
202.5
 22
128.5
 13
0.0
 23
0.0
 14
0.5
 24
0.5
 15
0.0
 25
0.0
 16
0.0
 26
0.0
 36
1.0
 17
0.0
 27
0.0
 37
0.0
 42
50.0
 43
0.0
 44
0.0
 45
308.4
 50
0.0
 51
0.0
 72
   100
 90
   557152
  1

281
     0
 71
     1
 74
     0
110
0.0
120
0.0
130
0.0
111
1.0
121
0.0
131
0.0
112
0.0
122
1.0
132
0.0
 79
     0
146
0.0
170
     0
 61
     5
348
26C
292
     1
282
     1
141
0.0
142
0.0
 63
   256
  0
VIEWPORT
  5
34A
330
B
100
AcDbEntity
 67
     1
  8
0
100
AcDbViewport
 10
202.5
 20
128.5
 30
0.0
 40
324.0
 41
205.6
 68
     2
 69
     2
 12
986.6781359294573
 22
1427.077061889956
 13
0.0
 23
0.0
 14
0.5
 24
0.5
 15
0.0
 25
0.0
 16
0.0
 26
0.0
 36
1.0
 17
0.0
 27
0.0
 37
0.0
 42
50.0
 43
0.0
 44
0.0
 45
2890.021615685494
 50
0.0
 51
0.0
 72
   100
 90
   557152
  1

281
     0
 71
     1
 74
     0
110
0.0
120
0.0
130
0.0
111
1.0
121
0.0
131
0.0
112
0.0
122
1.0
132
0.0
 79
     0
146
0.0
170
     0
 61
     5
348
26C
292
     1
282
     1
141
0.0
142
0.0
 63
   256
  0
ENDSEC
  0
SECTION
  2
OBJECTS
  0
DICTIONARY
  5
19
330
0
100
AcDbDictionary
281
     1
  3
ACAD_COLOR
350
674
  3
ACAD_DETAILVIEWSTYLE
350
BBF
  3
ACAD_FIELDLIST
350
1E8E
  3
ACAD_GROUP
350
1A
  3
ACAD_IMAGE_VARS
350
27B
  3
ACAD_LAYOUT
350
1E
  3
ACAD_MATERIAL
350
263
  3
ACAD_MLEADERSTYLE
350
336
  3
ACAD_MLINESTYLE
350
1B
  3
ACAD_PLOTSETTINGS
350
22
  3
ACAD_PLOTSTYLENAME
350
1F
  3
ACAD_SCALELIST
350
241
  3
ACAD_SECTIONVIEWSTYLE
350
BC0
  3
ACAD_TABLESTYLE
350
278
  3
ACAD_VISUALSTYLE
350
267
  3
ACDB_RECOMPOSE_DATA
350
556C
  3
AcDbVariableDictionary
350
330
  3
APPDATA
350
27A
  3
DimOffsetDictionary
350
E38
  0
SUN
  5
904
330
15
100
AcDbSun
 90
        1
290
     0
 63
     7
421
 16777215
 40
1.0
291
     1
 91
  2455826
 92
 54000000
292
     0
 70
     2
 71
   256
280
     1
  0
DICTIONARY
  5
2E1
330
2
100
AcDbDictionary
280
     1
281
     1
  3
ACAD_LAYERSTATES
360
2E2
  3
ACLYDICTIONARY
360
DDE
  0
DICTIONARY
  5
2109
330
A
100
AcDbDictionary
280
     1
281
     1
  3
ACAD_SORTENTS
360
210A
  0
DICTIONARY
  5
1EAC
330
1EAB
100
AcDbDictionary
280
     1
281
     1
  3
ACAD_FIELD
360
5566
  0
DICTIONARY
  5
674
102
{ACAD_REACTORS
330
19
102
}
330
19
100
AcDbDictionary
281
     1
  0
DICTIONARY
  5
BBF
102
{ACAD_REACTORS
330
19
102
}
330
19
100
AcDbDictionary
281
     1
  0
FIELDLIST
  5
1E8E
102
{ACAD_REACTORS
330
19
102
}
330
19
100
AcDbIdSet
 90
        2
330
1EAF
330
1EAE
100
AcDbFieldList
  0
DICTIONARY
  5
1A
102
{ACAD_REACTORS
330
19
102
}
330
19
100
AcDbDictionary
281
     1
  3
*A1
350
20A3
  0
RASTERVARIABLES
  5
27B
102
{ACAD_REACTORS
330
19
102
}
330
19
100
AcDbRasterVariables
 90
        0
 70
     1
 71
     1
 72
     1
  0
DICTIONARY
  5
1E
102
{ACAD_REACTORS
330
19
102
}
330
19
100
AcDbDictionary
281
     1
  3
Layout1
350
21
  3
Model
350
20
  0
DICTIONARY
  5
263
102
{ACAD_REACTORS
330
19
102
}
330
19
100
AcDbDictionary
281
     1
  3
ByBlock
350
265
  3
ByLayer
350
264
  3
Global
350
266
  0
DICTIONARY
  5
336
102
{ACAD_REACTORS
330
19
102
}
330
19
100
AcDbDictionary
281
     1
  3
Standard
350
D59
  0
DICTIONARY
  5
1B
102
{ACAD_REACTORS
330
19
102
}
330
19
100
AcDbDictionary
281
     1
  3
Standard
350
1C
  0
DICTIONARY
  5
22
102
{ACAD_REACTORS
330
19
102
}
330
19
100
AcDbDictionary
281
     1
  0
ACDBDICTIONARYWDFLT
  5
1F
102
{ACAD_REACTORS
330
19
102
}
330
19
100
AcDbDictionary
281
     1
  3
Normal
350
1D
100
AcDbDictionaryWithDefault
340
1D
  0
DICTIONARY
  5
241
102
{ACAD_REACTORS
330
19
102
}
330
19
100
AcDbDictionary
281
     1
  3
A0
350
242
  3
A1
350
243
  3
A2
350
244
  3
A3
350
245
  3
A4
350
246
  3
A5
350
247
  3
A6
350
248
  3
A7
350
249
  3
A8
350
24A
  3
A9
350
24B
  3
B0
350
24C
  3
B1
350
24D
  3
B2
350
24E
  3
B3
350
24F
  3
B4
350
250
  3
B5
350
251
  3
B6
350
252
  3
B7
350
253
  3
B8
350
254
  3
B9
350
255
  3
C0
350
256
  3
C1
350
257
  3
C2
350
258
  3
C3
350
259
  3
C4
350
25A
  3
C5
350
25B
  3
C6
350
25C
  3
C7
350
25D
  3
C8
350
25E
  3
C9
350
25F
  3
D0
350
260
  3
D1
350
261
  3
D2
350
262
  0
DICTIONARY
  5
BC0
102
{ACAD_REACTORS
330
19
102
}
330
19
100
AcDbDictionary
281
     1
  0
DICTIONARY
  5
278
102
{ACAD_REACTORS
330
19
102
}
330
19
100
AcDbDictionary
281
     1
  3
Standard
350
279
  0
DICTIONARY
  5
267
102
{ACAD_REACTORS
330
19
102
}
330
19
100
AcDbDictionary
281
     1
  3
2dWireframe
350
26C
  3
3D Hidden
350
26E
  3
3dWireframe
350
26D
  3
Basic
350
26F
  3
Brighten
350
273
  3
ColorChange
350
277
  3
Conceptual
350
271
  3
Dim
350
272
  3
EdgeColorOff
350
8FE
  3
Facepattern
350
276
  3
Flat
350
268
  3
FlatWithEdges
350
269
  3
Gouraud
350
26A
  3
GouraudWithEdges
350
26B
  3
Hidden
350
8FB
  3
JitterOff
350
8FC
  3
Linepattern
350
275
  3
OverhangOff
350
8FD
  3
Realistic
350
270
  3
Shaded
350
903
  3
Shaded with edges
350
902
  3
Shades of Gray
350
8FF
  3
Sketchy
350
900
  3
Thicken
350
274
  3
Wireframe
350
8FA
  3
X-Ray
350
901
  0
XRECORD
  5
556C
102
{ACAD_REACTORS
330
19
102
}
330
19
100
AcDbXrecord
280
     1
 90
        1
330
279
  0
DICTIONARY
  5
330
102
{ACAD_REACTORS
330
19
102
}
330
19
100
AcDbDictionary
281
     1
  3
CANNOSCALE
350
331
  3
CMLEADERSTYLE
350
D5E
  3
CTABLESTYLE
350
335
  3
HPTRANSPARENCY
350
D52
  3
XCLIPFRAME
350
896
  0
DICTIONARY
  5
27A
102
{ACAD_REACTORS
330
19
102
}
330
19
100
AcDbDictionary
281
     1
  0
DICTIONARY
  5
E38
102
{ACAD_REACTORS
330
19
102
}
330
19
100
AcDbDictionary
281
     1
  3
DIMRAILANGLE
350
1DFC
  3
DIMRAILFIRSTOFFSET
350
1DFA
  3
DIMRAILOFFSET
350
1DFB
  3
DIMRAILSENABLED
350
1DFD
  0
DICTIONARY
  5
2E2
102
{ACAD_REACTORS
330
2E1
102
}
330
2E1
100
AcDbDictionary
281
     1
  0
DICTIONARY
  5
DDE
102
{ACAD_REACTORS
330
2E1
102
}
330
2E1
100
AcDbDictionary
281
     1
1001
ACAD
1000
<All
  0
SORTENTSTABLE
  5
210A
102
{ACAD_REACTORS
330
2109
102
}
330
2109
100
AcDbSortentsTable
330
A
331
0
  5
1EB3
331
1EAB
  5
1D9C
331
0
  5
1D9D
331
1EB1
  5
1EAB
331
1EB2
  5
1EB0
331
2071
  5
1EB4
331
2072
  5
2070
331
207D
  5
2071
331
207E
  5
2072
331
207F
  5
207D
331
2080
  5
207E
331
2081
  5
207F
  0
DICTIONARY
  5
5566
102
{ACAD_REACTORS
330
1EAC
102
}
330
1EAC
100
AcDbDictionary
280
     1
281
     1
  3
TEXT
360
1EAE
  0
GROUP
  5
20A3
102
{ACAD_REACTORS
330
1A
102
}
330
1A
100
AcDbGroup
300

 70
     1
 71
     1
340
2071
340
2072
340
207D
340
207E
340
207F
340
2080
340
2081
  0
LAYOUT
  5
21
102
{ACAD_REACTORS
330
1E
102
}
330
1E
100
AcDbPlotSettings
  1

  2
none_device
  4
ISO_A3_(420.00_x_297.00_MM)
  6

 40
7.5
 41
20.0
 42
7.5
 43
20.0
 44
420.0
 45
297.0
 46
0.0
 47
0.0
 48
0.0
 49
0.0
140
0.0
141
0.0
142
1.0
143
1.0
 70
     0
 72
     1
 73
     0
 74
     0
  7

 75
     0
 76
     0
 77
     2
 78
   300
147
1.0
148
0.0
149
0.0
100
AcDbLayout
  1
Layout1
 70
     0
 71
     0
 10
-7.5
 20
-20.0
 11
412.5
 21
277.0
 12
0.0
 22
0.0
 32
0.0
 14
0.0
 24
0.0
 34
0.0
 15
0.0
 25
0.0
 35
0.0
146
0.0
 13
0.0
 23
0.0
 33
0.0
 16
0.0
 26
0.0
 36
0.0
 17
0.0
 27
0.0
 37
0.0
 76
     0
330
B
331
349
  0
LAYOUT
  5
20
102
{ACAD_REACTORS
330
1E
102
}
330
1E
100
AcDbPlotSettings
  1

  2
none_device
  4
ISO_A3_(420.00_x_297.00_MM)
  6

 40
7.5
 41
20.0
 42
7.5
 43
20.0
 44
420.0
 45
297.0
 46
0.0
 47
0.0
 48
0.0
 49
0.0
140
0.0
141
0.0
142
1.0
143
1.0
 70
  1024
 72
     1
 73
     0
 74
     0
  7

 75
     0
 76
     0
 77
     2
 78
   300
147
1.0
148
0.0
149
0.0
100
AcDbLayout
  1
Model
 70
     0
 71
     1
 10
0.0
 20
0.0
 11
210.0
 21
297.0
 12
0.0
 22
0.0
 32
0.0
 14
0.0
 24
0.0
 34
-0.0000000000000071
 15
210.0
 25
297.0
 35
0.0000000000000071
146
0.0
 13
0.0
 23
0.0
 33
0.0
 16
0.0
 26
0.0
 36
0.0
 17
0.0
 27
0.0
 37
0.0
 76
     0
330
A
331
15
  0
MATERIAL
  5
265
102
{ACAD_REACTORS
330
263
102
}
330
263
100
AcDbMaterial
  1
ByBlock
 72
     1
 94
      127
  0
MATERIAL
  5
264
102
{ACAD_REACTORS
330
263
102
}
330
263
100
AcDbMaterial
  1
ByLayer
 72
     1
 94
      127
  0
MATERIAL
  5
266
102
{ACAD_REACTORS
330
263
102
}
330
263
100
AcDbMaterial
  1
Global
 72
     1
 94
      127
  0
MLEADERSTYLE
  5
D59
102
{ACAD_REACTORS
330
336
102
}
330
336
100
AcDbMLeaderStyle
170
     2
171
     1
172
     0
 90
        2
 40
0.0
 41
0.0
173
     1
 91
-1056964608
340
11
 92
       -2
290
     1
 42
2.0
291
     1
 43
8.0
  3
Standard
341
0
 44
4.0
300

342
17
174
     1
178
     6
175
     1
176
     0
 93
-1056964608
 45
4.0
292
     0
297
     0
 46
4.0
343
0
 94
-1056964608
 47
1.0
 49
1.0
140
1.0
293
     1
141
0.0
294
     1
177
     0
142
1.0
295
     0
296
     0
143
3.75
1001
ACAD_MLEADERVER
1070
     2
  0
MLINESTYLE
  5
1C
102
{ACAD_REACTORS
330
1B
102
}
330
1B
100
AcDbMlineStyle
  2
Standard
 70
     0
  3

 62
     0
 51
90.0
 52
90.0
 71
     2
 49
0.5
 62
   256
  6
BYLAYER
 49
-0.5
 62
   256
  6
BYLAYER
  0
ACDBPLACEHOLDER
  5
1D
102
{ACAD_REACTORS
330
1F
102
}
330
1F
  0
SCALE
  5
242
102
{ACAD_REACTORS
330
241
102
}
330
241
100
AcDbScale
 70
     0
300
1:1
140
1.0
141
1.0
290
     1
  0
SCALE
  5
243
102
{ACAD_REACTORS
330
241
102
}
330
241
100
AcDbScale
 70
     0
300
1:2
140
1.0
141
2.0
290
     0
  0
SCALE
  5
244
102
{ACAD_REACTORS
330
241
102
}
330
241
100
AcDbScale
 70
     0
300
1:4
140
1.0
141
4.0
290
     0
  0
SCALE
  5
245
102
{ACAD_REACTORS
330
241
102
}
330
241
100
AcDbScale
 70
     0
300
1:5
140
1.0
141
5.0
290
     0
  0
SCALE
  5
246
102
{ACAD_REACTORS
330
241
102
}
330
241
100
AcDbScale
 70
     0
300
1:8
140
1.0
141
8.0
290
     0
  0
SCALE
  5
247
102
{ACAD_REACTORS
330
241
102
}
330
241
100
AcDbScale
 70
     0
300
1:10
140
1.0
141
10.0
290
     0
  0
SCALE
  5
248
102
{ACAD_REACTORS
330
241
102
}
330
241
100
AcDbScale
 70
     0
300
1:16
140
1.0
141
16.0
290
     0
  0
SCALE
  5
249
102
{ACAD_REACTORS
330
241
102
}
330
241
100
AcDbScale
 70
     0
300
1:20
140
1.0
141
20.0
290
     0
  0
SCALE
  5
24A
102
{ACAD_REACTORS
330
241
102
}
330
241
100
AcDbScale
 70
     0
300
1:30
140
1.0
141
30.0
290
     0
  0
SCALE
  5
24B
102
{ACAD_REACTORS
330
241
102
}
330
241
100
AcDbScale
 70
     0
300
1:40
140
1.0
141
40.0
290
     0
  0
SCALE
  5
24C
102
{ACAD_REACTORS
330
241
102
}
330
241
100
AcDbScale
 70
     0
300
1:50
140
1.0
141
50.0
290
     0
  0
SCALE
  5
24D
102
{ACAD_REACTORS
330
241
102
}
330
241
100
AcDbScale
 70
     0
300
1:100
140
1.0
141
100.0
290
     0
  0
SCALE
  5
24E
102
{ACAD_REACTORS
330
241
102
}
330
241
100
AcDbScale
 70
     0
300
2:1
140
2.0
141
1.0
290
     0
  0
SCALE
  5
24F
102
{ACAD_REACTORS
330
241
102
}
330
241
100
AcDbScale
 70
     0
300
4:1
140
4.0
141
1.0
290
     0
  0
SCALE
  5
250
102
{ACAD_REACTORS
330
241
102
}
330
241
100
AcDbScale
 70
     0
300
8:1
140
8.0
141
1.0
290
     0
  0
SCALE
  5
251
102
{ACAD_REACTORS
330
241
102
}
330
241
100
AcDbScale
 70
     0
300
10:1
140
10.0
141
1.0
290
     0
  0
SCALE
  5
252
102
{ACAD_REACTORS
330
241
102
}
330
241
100
AcDbScale
 70
     0
300
100:1
140
100.0
141
1.0
290
     0
  0
SCALE
  5
253
102
{ACAD_REACTORS
330
241
102
}
330
241
100
AcDbScale
 70
     0
300
1/128" = 1'-0"
140
0.0078125
141
12.0
290
     0
  0
SCALE
  5
254
102
{ACAD_REACTORS
330
241
102
}
330
241
100
AcDbScale
 70
     0
300
1/64" = 1'-0"
140
0.015625
141
12.0
290
     0
  0
SCALE
  5
255
102
{ACAD_REACTORS
330
241
102
}
330
241
100
AcDbScale
 70
     0
300
1/32" = 1'-0"
140
0.03125
141
12.0
290
     0
  0
SCALE
  5
256
102
{ACAD_REACTORS
330
241
102
}
330
241
100
AcDbScale
 70
     0
300
1/16" = 1'-0"
140
0.0625
141
12.0
290
     0
  0
SCALE
  5
257
102
{ACAD_REACTORS
330
241
102
}
330
241
100
AcDbScale
 70
     0
300
3/32" = 1'-0"
140
0.09375
141
12.0
290
     0
  0
SCALE
  5
258
102
{ACAD_REACTORS
330
241
102
}
330
241
100
AcDbScale
 70
     0
300
1/8" = 1'-0"
140
0.125
141
12.0
290
     0
  0
SCALE
  5
259
102
{ACAD_REACTORS
330
241
102
}
330
241
100
AcDbScale
 70
     0
300
3/16" = 1'-0"
140
0.1875
141
12.0
290
     0
  0
SCALE
  5
25A
102
{ACAD_REACTORS
330
241
102
}
330
241
100
AcDbScale
 70
     0
300
1/4" = 1'-0"
140
0.25
141
12.0
290
     0
  0
SCALE
  5
25B
102
{ACAD_REACTORS
330
241
102
}
330
241
100
AcDbScale
 70
     0
300
3/8" = 1'-0"
140
0.375
141
12.0
290
     0
  0
SCALE
  5
25C
102
{ACAD_REACTORS
330
241
102
}
330
241
100
AcDbScale
 70
     0
300
1/2" = 1'-0"
140
0.5
141
12.0
290
     0
  0
SCALE
  5
25D
102
{ACAD_REACTORS
330
241
102
}
330
241
100
AcDbScale
 70
     0
300
3/4" = 1'-0"
140
0.75
141
12.0
290
     0
  0
SCALE
  5
25E
102
{ACAD_REACTORS
330
241
102
}
330
241
100
AcDbScale
 70
     0
300
1" = 1'-0"
140
1.0
141
12.0
290
     0
  0
SCALE
  5
25F
102
{ACAD_REACTORS
330
241
102
}
330
241
100
AcDbScale
 70
     0
300
1-1/2" = 1'-0"
140
1.5
141
12.0
290
     0
  0
SCALE
  5
260
102
{ACAD_REACTORS
330
241
102
}
330
241
100
AcDbScale
 70
     0
300
3" = 1'-0"
140
3.0
141
12.0
290
     0
  0
SCALE
  5
261
102
{ACAD_REACTORS
330
241
102
}
330
241
100
AcDbScale
 70
     0
300
6" = 1'-0"
140
6.0
141
12.0
290
     0
  0
SCALE
  5
262
102
{ACAD_REACTORS
330
241
102
}
330
241
100
AcDbScale
 70
     0
300
1'-0" = 1'-0"
140
12.0
141
12.0
290
     0
  0
TABLESTYLE
  5
279
102
{ACAD_REACTORS
330
278
102
}
102
{ACAD_XDICTIONARY
360
556A
102
}
330
278
100
AcDbTableStyle
  3
Standard
 70
     0
 71
     0
 40
0.06
 41
0.06
280
     0
281
     0
  7
Standard
140
4.5
170
     2
 62
     0
 63
   257
283
     0
 90
        4
 91
        0
  1

274
    -2
284
     1
 64
     0
275
    -2
285
     1
 65
     0
276
    -2
286
     1
 66
     0
277
    -2
287
     1
 67
     0
278
    -2
288
     1
 68
     0
279
    -2
289
     1
 69
     0
  7
Standard
140
6.0
170
     5
 62
     0
 63
   257
283
     0
 90
        4
 91
        0
  1

274
    -2
284
     1
 64
     0
275
    -2
285
     1
 65
     0
276
    -2
286
     1
 66
     0
277
    -2
287
     1
 67
     0
278
    -2
288
     1
 68
     0
279
    -2
289
     1
 69
     0
  7
Standard
140
4.5
170
     5
 62
     0
 63
   257
283
     0
 90
        4
 91
        0
  1

274
    -2
284
     1
 64
     0
275
    -2
285
     1
 65
     0
276
    -2
286
     1
 66
     0
277
    -2
287
     1
 67
     0
278
    -2
288
     1
 68
     0
279
    -2
289
     1
 69
     0
  0
VISUALSTYLE
  5
26C
102
{ACAD_REACTORS
330
267
102
}
330
267
100
AcDbVisualStyle
  2
2dWireframe
 70
     4
 71
     0
 72
     2
 73
     0
 90
        0
 40
-0.6
 41
-30.0
 62
     5
 63
     7
421
 16777215
 74
     1
 91
        4
 64
     7
 65
   257
 75
     1
175
     1
 42
1.0
 92
        0
 66
   257
 43
1.0
 76
     1
 77
     6
 78
     2
 67
     7
 79
     5
170
     0
171
     0
290
     0
174
     0
 93
        1
 44
0.0
173
     0
291
     0
 45
0.0
  0
VISUALSTYLE
  5
26E
102
{ACAD_REACTORS
330
267
102
}
330
267
100
AcDbVisualStyle
  2
3D Hidden
 70
     6
 71
     1
 72
     2
 73
     2
 90
        0
 40
-0.6
 41
-30.0
 62
     5
 63
     7
421
 16777215
 74
     2
 91
        2
 64
     7
 65
   257
 75
     2
175
     1
 42
40.0
 92
        0
 66
   257
 43
1.0
 76
     1
 77
     6
 78
     2
 67
     7
 79
     3
170
     0
171
     0
290
     0
174
     0
 93
        1
 44
0.0
173
     0
291
     0
 45
0.0
  0
VISUALSTYLE
  5
26D
102
{ACAD_REACTORS
330
267
102
}
330
267
100
AcDbVisualStyle
  2
3dWireframe
 70
     5
 71
     0
 72
     2
 73
     0
 90
        0
 40
-0.6
 41
-30.0
 62
     5
 63
     7
421
 16777215
 74
     1
 91
        4
 64
     7
 65
   257
 75
     1
175
     1
 42
1.0
 92
        0
 66
   257
 43
1.0
 76
     1
 77
     6
 78
     2
 67
     7
 79
     5
170
     0
171
     0
290
     0
174
     0
 93
        1
 44
0.0
173
     0
291
     0
 45
0.0
  0
VISUALSTYLE
  5
26F
102
{ACAD_REACTORS
330
267
102
}
330
267
100
AcDbVisualStyle
  2
Basic
 70
     7
 71
     1
 72
     0
 73
     1
 90
        0
 40
-0.6
 41
-30.0
 62
     5
 63
     7
421
 16777215
 74
     0
 91
        4
 64
     7
 65
   257
 75
     1
175
     1
 42
1.0
 92
        8
 66
     7
 43
1.0
 76
     1
 77
     6
 78
     2
 67
     7
 79
     5
170
     0
171
     0
290
     0
174
     0
 93
        1
 44
0.0
173
     0
291
     1
 45
0.0
  0
VISUALSTYLE
  5
273
102
{ACAD_REACTORS
330
267
102
}
330
267
100
AcDbVisualStyle
  2
Brighten
 70
    12
 71
     2
 72
     2
 73
     0
 90
        0
 40
-0.6
 41
-30.0
 62
     5
 63
     7
421
 16777215
 74
     1
 91
        4
 64
     7
 65
   257
 75
     1
175
     1
 42
1.0
 92
        8
 66
     7
 43
1.0
 76
     1
 77
     6
 78
     2
 67
     7
 79
     5
170
     0
171
     0
290
     0
174
     0
 93
        1
 44
50.0
173
     0
291
     1
 45
0.0
  0
VISUALSTYLE
  5
277
102
{ACAD_REACTORS
330
267
102
}
330
267
100
AcDbVisualStyle
  2
ColorChange
 70
    16
 71
     2
 72
     2
 73
     3
 90
        0
 40
-0.6
 41
-30.0
 62
     5
 63
     8
421
  8421504
 74
     1
 91
        4
 64
     7
 65
   257
 75
     1
175
     1
 42
1.0
 92
        8
 66
     8
424
  8421504
 43
1.0
 76
     1
 77
     6
 78
     2
 67
     7
 79
     5
170
     0
171
     0
290
     0
174
     0
 93
        1
 44
0.0
173
     0
291
     1
 45
0.0
  0
VISUALSTYLE
  5
271
102
{ACAD_REACTORS
330
267
102
}
330
267
100
AcDbVisualStyle
  2
Conceptual
 70
     9
 71
     3
 72
     2
 73
     0
 90
        0
 40
-0.6
 41
-30.0
 62
     5
 63
     7
421
 16777215
 74
     2
 91
        2
 64
     7
 65
   257
 75
     1
175
     1
 42
40.0
 92
        8
 66
     7
 43
1.0
 76
     1
 77
     6
 78
     2
 67
     7
 79
     3
170
     0
171
     0
290
     0
174
     0
 93
        1
 44
0.0
173
     0
291
     0
 45
0.0
  0
VISUALSTYLE
  5
272
102
{ACAD_REACTORS
330
267
102
}
330
267
100
AcDbVisualStyle
  2
Dim
 70
    11
 71
     2
 72
     2
 73
     0
 90
        0
 40
-0.6
 41
-30.0
 62
     5
 63
     7
421
 16777215
 74
     1
 91
        4
 64
     7
 65
   257
 75
     1
175
     1
 42
1.0
 92
        8
 66
     7
 43
1.0
 76
     1
 77
     6
 78
     2
 67
     7
 79
     5
170
     0
171
     0
290
     0
174
     0
 93
        1
 44
-50.0
173
     0
291
     1
 45
0.0
  0
VISUALSTYLE
  5
8FE
102
{ACAD_REACTORS
330
267
102
}
330
267
100
AcDbVisualStyle
  2
EdgeColorOff
 70
    22
 71
     2
 72
     2
 73
     0
 90
        0
 40
0.6
 41
30.0
 62
     5
 63
     7
421
 16777215
 74
     1
 91
        4
 64
     7
 65
   257
 75
     1
175
     1
 42
1.0
 92
        8
 66
     7
 43
1.0
 76
     1
 77
     6
 78
     2
 67
     7
 79
     5
170
     0
171
     0
290
     0
174
     0
 93
        1
 44
0.0
173
     0
291
     1
 45
0.0
  0
VISUALSTYLE
  5
276
102
{ACAD_REACTORS
330
267
102
}
330
267
100
AcDbVisualStyle
  2
Facepattern
 70
    15
 71
     2
 72
     2
 73
     0
 90
        0
 40
-0.6
 41
-30.0
 62
     5
 63
     7
421
 16777215
 74
     1
 91
        4
 64
     7
 65
   257
 75
     1
175
     1
 42
1.0
 92
        8
 66
     7
 43
1.0
 76
     1
 77
     6
 78
     2
 67
     7
 79
     5
170
     0
171
     0
290
     0
174
     0
 93
        1
 44
0.0
173
     0
291
     1
 45
0.0
  0
VISUALSTYLE
  5
268
102
{ACAD_REACTORS
330
267
102
}
330
267
100
AcDbVisualStyle
  2
Flat
 70
     0
 71
     2
 72
     1
 73
     1
 90
        2
 40
-0.6
 41
30.0
 62
     5
 63
     7
421
 16777215
 74
     0
 91
        4
 64
     7
 65
   257
 75
     1
175
     1
 42
1.0
 92
        8
 66
     7
 43
1.0
 76
     1
 77
     6
 78
     2
 67
     7
 79
     5
170
     0
171
     0
290
     0
174
     0
 93
       13
 44
0.0
173
     0
291
     1
 45
0.0
  0
VISUALSTYLE
  5
269
102
{ACAD_REACTORS
330
267
102
}
330
267
100
AcDbVisualStyle
  2
FlatWithEdges
 70
     1
 71
     2
 72
     1
 73
     1
 90
        2
 40
-0.6
 41
30.0
 62
     5
 63
     7
421
 16777215
 74
     1
 91
        4
 64
     7
 65
   257
 75
     1
175
     1
 42
1.0
 92
        0
 66
   257
 43
1.0
 76
     1
 77
     6
 78
     2
 67
     7
 79
     5
170
     0
171
     0
290
     0
174
     0
 93
       13
 44
0.0
173
     0
291
     1
 45
0.0
  0
VISUALSTYLE
  5
26A
102
{ACAD_REACTORS
330
267
102
}
330
267
100
AcDbVisualStyle
  2
Gouraud
 70
     2
 71
     2
 72
     2
 73
     1
 90
        2
 40
-0.6
 41
30.0
 62
     5
 63
     7
421
 16777215
 74
     0
 91
        4
 64
     7
 65
   257
 75
     1
175
     1
 42
1.0
 92
        0
 66
     7
 43
1.0
 76
     1
 77
     6
 78
     2
 67
     7
 79
     5
170
     0
171
     0
290
     0
174
     0
 93
       13
 44
0.0
173
     0
291
     1
 45
0.0
  0
VISUALSTYLE
  5
26B
102
{ACAD_REACTORS
330
267
102
}
330
267
100
AcDbVisualStyle
  2
GouraudWithEdges
 70
     3
 71
     2
 72
     2
 73
     1
 90
        2
 40
-0.6
 41
30.0
 62
     5
 63
     7
421
 16777215
 74
     1
 91
        4
 64
     7
 65
   257
 75
     1
175
     1
 42
1.0
 92
        0
 66
   257
 43
1.0
 76
     1
 77
     6
 78
     2
 67
     7
 79
     5
170
     0
171
     0
290
     0
174
     0
 93
       13
 44
0.0
173
     0
291
     1
 45
0.0
  0
VISUALSTYLE
  5
8FB
102
{ACAD_REACTORS
330
267
102
}
330
267
100
AcDbVisualStyle
  2
Hidden
 70
     6
 71
     1
 72
     2
 73
     2
 90
        0
 40
0.6
 41
30.0
 62
     5
 63
     7
421
 16777215
 74
     2
 91
        2
 64
     7
 65
   257
 75
     2
175
     1
 42
40.0
 92
        0
 66
   257
 43
1.0
 76
     1
 77
     6
 78
     2
 67
     7
 79
     3
170
     0
171
     0
290
     0
174
     0
 93
        1
 44
0.0
173
     0
291
     0
 45
0.0
  0
VISUALSTYLE
  5
8FC
102
{ACAD_REACTORS
330
267
102
}
330
267
100
AcDbVisualStyle
  2
JitterOff
 70
    20
 71
     2
 72
     2
 73
     0
 90
        0
 40
0.6
 41
30.0
 62
     5
 63
     7
421
 16777215
 74
     1
 91
        4
 64
     7
 65
   257
 75
     1
175
     1
 42
1.0
 92
       10
 66
     7
 43
1.0
 76
     1
 77
     6
 78
     2
 67
     7
 79
     5
170
     0
171
     0
290
     0
174
     0
 93
        1
 44
0.0
173
     0
291
     1
 45
0.0
  0
VISUALSTYLE
  5
275
102
{ACAD_REACTORS
330
267
102
}
330
267
100
AcDbVisualStyle
  2
Linepattern
 70
    14
 71
     2
 72
     2
 73
     0
 90
        0
 40
-0.6
 41
-30.0
 62
     5
 63
     7
421
 16777215
 74
     1
 91
        4
 64
     7
 65
   257
 75
     7
175
     7
 42
1.0
 92
        8
 66
     7
 43
1.0
 76
     1
 77
     6
 78
     2
 67
     7
 79
     5
170
     0
171
     0
290
     0
174
     0
 93
        1
 44
0.0
173
     0
291
     1
 45
0.0
  0
VISUALSTYLE
  5
8FD
102
{ACAD_REACTORS
330
267
102
}
330
267
100
AcDbVisualStyle
  2
OverhangOff
 70
    21
 71
     2
 72
     2
 73
     0
 90
        0
 40
0.6
 41
30.0
 62
     5
 63
     7
421
 16777215
 74
     1
 91
        4
 64
     7
 65
   257
 75
     1
175
     1
 42
1.0
 92
        9
 66
     7
 43
1.0
 76
     1
 77
     6
 78
     2
 67
     7
 79
     5
170
     0
171
     0
290
     0
174
     0
 93
        1
 44
0.0
173
     0
291
     1
 45
0.0
  0
VISUALSTYLE
  5
270
102
{ACAD_REACTORS
330
267
102
}
330
267
100
AcDbVisualStyle
  2
Realistic
 70
     8
 71
     2
 72
     2
 73
     0
 90
        0
 40
-0.6
 41
-30.0
 62
     5
 63
     7
421
 16777215
 74
     1
 91
        0
 64
     7
 65
   257
 75
     1
175
     1
 42
1.0
 92
        8
 66
     8
424
  7895160
 43
1.0
 76
     1
 77
     6
 78
     2
 67
     7
 79
     5
170
     0
171
     0
290
     0
174
     0
 93
       13
 44
0.0
173
     0
291
     0
 45
0.0
  0
VISUALSTYLE
  5
903
102
{ACAD_REACTORS
330
267
102
}
330
267
100
AcDbVisualStyle
  2
Shaded
 70
    27
 71
     2
 72
     2
 73
     1
 90
        2
 40
0.6
 41
30.0
 62
     5
 63
     7
421
 16777215
 74
     0
 91
        4
 64
     7
 65
   257
 75
     1
175
     1
 42
1.0
 92
        8
 66
   257
 43
1.0
 76
     1
 77
     6
 78
     2
 67
     8
425
  7895160
 79
     3
170
     0
171
     0
290
     0
174
     0
 93
        5
 44
0.0
173
     0
291
     0
 45
0.0
  0
VISUALSTYLE
  5
902
102
{ACAD_REACTORS
330
267
102
}
330
267
100
AcDbVisualStyle
  2
Shaded with edges
 70
    26
 71
     2
 72
     2
 73
     1
 90
        2
 40
0.6
 41
30.0
 62
     5
 63
     7
421
 16777215
 74
     1
 91
       10
 64
     7
 65
   257
 75
     2
175
     1
 42
1.0
 92
        8
 66
   257
 43
1.0
 76
     1
 77
     6
 78
     2
 67
     7
 79
     3
170
     0
171
     0
290
     0
174
     0
 93
        5
 44
0.0
173
     0
291
     0
 45
0.0
  0
VISUALSTYLE
  5
8FF
102
{ACAD_REACTORS
330
267
102
}
330
267
100
AcDbVisualStyle
  2
Shades of Gray
 70
    23
 71
     2
 72
     2
 73
     3
 90
        0
 40
0.6
 41
30.0
 62
     5
 63
     7
421
 16777215
 74
     2
 91
        2
 64
     7
 65
     7
 75
     1
175
     1
 42
40.0
 92
        8
 66
     7
 43
1.0
 76
     1
 77
     6
 78
     2
 67
     7
 79
     3
170
     0
171
     0
290
     0
174
     0
 93
        1
 44
0.0
173
     0
291
     0
 45
0.0
  0
VISUALSTYLE
  5
900
102
{ACAD_REACTORS
330
267
102
}
330
267
100
AcDbVisualStyle
  2
Sketchy
 70
    24
 71
     1
 72
     2
 73
     2
 90
        0
 40
0.6
 41
30.0
 62
     5
 63
     7
421
 16777215
 74
     2
 91
        2
 64
     7
 65
     7
 75
     1
175
     1
 42
40.0
 92
       11
 66
     7
 43
1.0
 76
     1
 77
     6
 78
     2
 67
     7
 79
     6
170
     0
171
     0
290
     0
174
     0
 93
        1
 44
0.0
173
     0
291
     0
 45
0.0
  0
VISUALSTYLE
  5
274
102
{ACAD_REACTORS
330
267
102
}
330
267
100
AcDbVisualStyle
  2
Thicken
 70
    13
 71
     2
 72
     2
 73
     0
 90
        0
 40
-0.6
 41
-30.0
 62
     5
 63
     7
421
 16777215
 74
     1
 91
        4
 64
     7
 65
   257
 75
     1
175
     1
 42
1.0
 92
       12
 66
     7
 43
1.0
 76
     1
 77
     6
 78
     2
 67
     7
 79
     5
170
     0
171
     0
290
     0
174
     0
 93
        1
 44
0.0
173
     0
291
     1
 45
0.0
  0
VISUALSTYLE
  5
8FA
102
{ACAD_REACTORS
330
267
102
}
330
267
100
AcDbVisualStyle
  2
Wireframe
 70
     5
 71
     0
 72
     2
 73
     0
 90
        0
 40
0.6
 41
30.0
 62
     5
 63
     7
421
 16777215
 74
     1
 91
        4
 64
     7
 65
   257
 75
     1
175
     1
 42
1.0
 92
        0
 66
   257
 43
1.0
 76
     1
 77
     6
 78
     2
 67
     7
 79
     3
170
     0
171
     0
290
     0
174
     0
 93
        1
 44
0.0
173
     0
291
     0
 45
0.0
  0
VISUALSTYLE
  5
901
102
{ACAD_REACTORS
330
267
102
}
330
267
100
AcDbVisualStyle
  2
X-Ray
 70
    25
 71
     2
 72
     2
 73
     1
 90
        1
 40
0.5
 41
30.0
 62
     5
 63
     7
421
 16777215
 74
     1
 91
        0
 64
     7
 65
   257
 75
     1
175
     1
 42
1.0
 92
        8
 66
     7
 43
1.0
 76
     1
 77
     6
 78
     2
 67
     7
 79
     3
170
     0
171
     0
290
     0
174
     0
 93
       13
 44
0.0
173
     0
291
     0
 45
0.0
  0
DICTIONARYVAR
  5
331
102
{ACAD_REACTORS
330
330
102
}
330
330
100
DictionaryVariables
280
     0
  1
1:1
  0
DICTIONARYVAR
  5
D5E
102
{ACAD_REACTORS
330
330
102
}
330
330
100
DictionaryVariables
280
     0
  1
Standard
  0
DICTIONARYVAR
  5
335
102
{ACAD_REACTORS
330
330
102
}
330
330
100
DictionaryVariables
280
     0
  1
Standard
  0
DICTIONARYVAR
  5
D52
102
{ACAD_REACTORS
330
330
102
}
330
330
100
DictionaryVariables
280
     0
  1
ByLayer
  0
DICTIONARYVAR
  5
896
102
{ACAD_REACTORS
330
330
102
}
330
330
100
DictionaryVariables
280
     0
  1
0
  0
DICTIONARYVAR
  5
1DFC
102
{ACAD_REACTORS
330
E38
102
}
330
E38
100
DictionaryVariables
280
     0
  1
0.261799
  0
DICTIONARYVAR
  5
1DFA
102
{ACAD_REACTORS
330
E38
102
}
330
E38
100
DictionaryVariables
280
     0
  1
0.400000
  0
DICTIONARYVAR
  5
1DFB
102
{ACAD_REACTORS
330
E38
102
}
330
E38
100
DictionaryVariables
280
     0
  1
0.250000
  0
DICTIONARYVAR
  5
1DFD
102
{ACAD_REACTORS
330
E38
102
}
330
E38
100
DictionaryVariables
280
     0
  1
1
  0
FIELD
  5
1EAE
102
{ACAD_REACTORS
330
554E
330
5566
102
}
330
5566
100
AcDbField
  1
_text
  2
{%<\_FldIdx 0>%N}
 90
        1
360
1EAF
 97
        0
 91
       63
 92
        0
 94
       11
 95
        2
 96
        0
300

 93
        1
  6
ACFD_FIELDTEXT_CHECKSUM
 93
        2
 90
        2
140
4449.0
 94
        0
300

302

304
ACVALUE_END
  7
ACFD_FIELD_VALUE
 93
        6
 90
        4
  1
{20211004N}
 94
        0
300

302

304
ACVALUE_END
301
{20211004N}
 98
       11
  0
DICTIONARY
  5
556A
330
279
100
AcDbDictionary
280
     1
281
     1
  3
ACAD_ROUNDTRIP_2008_TABLESTYLE_CELLSTYLEMAP
360
556B
  0
FIELD
  5
1EAF
330
1EAE
100
AcDbField
  1
AcVar
  2
\AcVar Date \f "yyyyMMdd"
 90
        0
 97
        0
 91
       63
 92
        0
 94
        8
 95
       64
 96
        0
300
Variable not supported
 93
        1
  6
Variable
 93
        2
 90
        4
  1
Date
 94
        0
300

302

304
ACVALUE_END
  7
ACFD_FIELD_VALUE
 93
        6
 90
        8
 92
       16
310
E5070A00000004000500310016000000
 94
        0
300
yyyyMMdd
302

304
ACVALUE_END
301
20211004
 98
        8
  0
CELLSTYLEMAP
  5
556B
102
{ACAD_REACTORS
330
556A
102
}
330
556A
100
AcDbCellStyleMap
 90
        3
300
CELLSTYLE
  1
TABLEFORMAT_BEGIN
 90
        5
170
     1
 91
        0
 92
    32768
 62
   257
 93
        1
300
CONTENTFORMAT
  1
CONTENTFORMAT_BEGIN
 90
        0
 91
        0
 92
        4
 93
        0
300

 40
0.0
140
1.0
 94
        5
 62
     0
340
17
144
6.0
309
CONTENTFORMAT_END
171
     1
301
MARGIN
  1
CELLMARGIN_BEGIN
 40
0.06
 40
0.06
 40
0.06
 40
0.06
 40
0.18
 40
0.18
309
CELLMARGIN_END
 94
        6
 95
        1
302
GRIDFORMAT
  1
GRIDFORMAT_BEGIN
 90
        0
 91
        1
 62
     0
 92
       -2
340
0
 93
        0
 40
0.045
309
GRIDFORMAT_END
 95
        2
302
GRIDFORMAT
  1
GRIDFORMAT_BEGIN
 90
        0
 91
        1
 62
     0
 92
       -2
340
0
 93
        0
 40
0.045
309
GRIDFORMAT_END
 95
        4
302
GRIDFORMAT
  1
GRIDFORMAT_BEGIN
 90
        0
 91
        1
 62
     0
 92
       -2
340
0
 93
        0
 40
0.045
309
GRIDFORMAT_END
 95
        8
302
GRIDFORMAT
  1
GRIDFORMAT_BEGIN
 90
        0
 91
        1
 62
     0
 92
       -2
340
0
 93
        0
 40
0.045
309
GRIDFORMAT_END
 95
       16
302
GRIDFORMAT
  1
GRIDFORMAT_BEGIN
 90
        0
 91
        1
 62
     0
 92
       -2
340
0
 93
        0
 40
0.045
309
GRIDFORMAT_END
 95
       32
302
GRIDFORMAT
  1
GRIDFORMAT_BEGIN
 90
        0
 91
        1
 62
     0
 92
       -2
340
0
 93
        0
 40
0.045
309
GRIDFORMAT_END
309
TABLEFORMAT_END
  1
CELLSTYLE_BEGIN
 90
        1
 91
        1
300
_TITLE
309
CELLSTYLE_END
300
CELLSTYLE
  1
TABLEFORMAT_BEGIN
 90
        5
170
     1
 91
        0
 92
        0
 62
   257
 93
        1
300
CONTENTFORMAT
  1
CONTENTFORMAT_BEGIN
 90
        0
 91
        0
 92
        4
 93
        0
300

 40
0.0
140
1.0
 94
        5
 62
     0
340
17
144
4.5
309
CONTENTFORMAT_END
171
     1
301
MARGIN
  1
CELLMARGIN_BEGIN
 40
0.06
 40
0.06
 40
0.06
 40
0.06
 40
0.18
 40
0.18
309
CELLMARGIN_END
 94
        6
 95
        1
302
GRIDFORMAT
  1
GRIDFORMAT_BEGIN
 90
        0
 91
        1
 62
     0
 92
       -2
340
0
 93
        0
 40
0.045
309
GRIDFORMAT_END
 95
        2
302
GRIDFORMAT
  1
GRIDFORMAT_BEGIN
 90
        0
 91
        1
 62
     0
 92
       -2
340
0
 93
        0
 40
0.045
309
GRIDFORMAT_END
 95
        4
302
GRIDFORMAT
  1
GRIDFORMAT_BEGIN
 90
        0
 91
        1
 62
     0
 92
       -2
340
0
 93
        0
 40
0.045
309
GRIDFORMAT_END
 95
        8
302
GRIDFORMAT
  1
GRIDFORMAT_BEGIN
 90
        0
 91
        1
 62
     0
 92
       -2
340
0
 93
        0
 40
0.045
309
GRIDFORMAT_END
 95
       16
302
GRIDFORMAT
  1
GRIDFORMAT_BEGIN
 90
        0
 91
        1
 62
     0
 92
       -2
340
0
 93
        0
 40
0.045
309
GRIDFORMAT_END
 95
       32
302
GRIDFORMAT
  1
GRIDFORMAT_BEGIN
 90
        0
 91
        1
 62
     0
 92
       -2
340
0
 93
        0
 40
0.045
309
GRIDFORMAT_END
309
TABLEFORMAT_END
  1
CELLSTYLE_BEGIN
 90
        2
 91
        1
300
_HEADER
309
CELLSTYLE_END
300
CELLSTYLE
  1
TABLEFORMAT_BEGIN
 90
        5
170
     1
 91
        0
 92
        0
 62
   257
 93
        1
300
CONTENTFORMAT
  1
CONTENTFORMAT_BEGIN
 90
        0
 91
        0
 92
        4
 93
        0
300

 40
0.0
140
1.0
 94
        2
 62
     0
340
17
144
4.5
309
CONTENTFORMAT_END
171
     1
301
MARGIN
  1
CELLMARGIN_BEGIN
 40
0.06
 40
0.06
 40
0.06
 40
0.06
 40
0.18
 40
0.18
309
CELLMARGIN_END
 94
        6
 95
        1
302
GRIDFORMAT
  1
GRIDFORMAT_BEGIN
 90
        0
 91
        1
 62
     0
 92
       -2
340
0
 93
        0
 40
0.045
309
GRIDFORMAT_END
 95
        2
302
GRIDFORMAT
  1
GRIDFORMAT_BEGIN
 90
        0
 91
        1
 62
     0
 92
       -2
340
0
 93
        0
 40
0.045
309
GRIDFORMAT_END
 95
        4
302
GRIDFORMAT
  1
GRIDFORMAT_BEGIN
 90
        0
 91
        1
 62
     0
 92
       -2
340
0
 93
        0
 40
0.045
309
GRIDFORMAT_END
 95
        8
302
GRIDFORMAT
  1
GRIDFORMAT_BEGIN
 90
        0
 91
        1
 62
     0
 92
       -2
340
0
 93
        0
 40
0.045
309
GRIDFORMAT_END
 95
       16
302
GRIDFORMAT
  1
GRIDFORMAT_BEGIN
 90
        0
 91
        1
 62
     0
 92
       -2
340
0
 93
        0
 40
0.045
309
GRIDFORMAT_END
 95
       32
302
GRIDFORMAT
  1
GRIDFORMAT_BEGIN
 90
        0
 91
        1
 62
     0
 92
       -2
340
0
 93
        0
 40
0.045
309
GRIDFORMAT_END
309
TABLEFORMAT_END
  1
CELLSTYLE_BEGIN
 90
        3
 91
        2
300
_DATA
309
CELLSTYLE_END
  0
ENDSEC
  0
EOF
