  0
SECTION
  2
HEADER
  9
$ACADVER
  1
AC1021
  9
$ACADMAINTVER
 70
    25
  9
$DWGCODEPAGE
  3
ANSI_932
  9
$LASTSAVEDBY
  1
howeNelson
  9
$INSBASE
 10
0.0
 20
0.0
 30
0.0
  9
$EXTMIN
 10
-104.9999999999764
 20
-150.868027757084
 30
0.0
  9
$EXTMAX
 10
105.0000000000237
 20
149.7358153525448
 30
0.0
  9
$LIMMIN
 10
-104.9999999999764
 20
-148.2936494954552
  9
$LIMMAX
 10
105.0000000000237
 20
148.7063505045448
  9
$ORTHOMODE
 70
     0
  9
$REGENMODE
 70
     1
  9
$FILLMODE
 70
     1
  9
$QTEXTMODE
 70
     0
  9
$MIRRTEXT
 70
     1
  9
$LTSCALE
 40
5.08
  9
$ATTMODE
 70
     1
  9
$TEXTSIZE
 40
0.0
  9
$TRACEWID
 40
1.0
  9
$TEXTSTYLE
  7
Standard
  9
$CLAYER
  8
ATB73-1901
  9
$CELTYPE
  6
Continuous
  9
$CECOLOR
 62
   256
  9
$CELTSCALE
 40
1.0
  9
$DISPSILH
 70
     0
  9
$DIMSCALE
 40
1.0
  9
$DIMASZ
 40
3.175
  9
$DIMEXO
 40
0.0
  9
$DIMDLI
 40
6.99999999999994
  9
$DIMRND
 40
0.0
  9
$DIMDLE
 40
0.0
  9
$DIMEXE
 40
1.99999999999962
  9
$DIMTP
 40
0.0
  9
$DIMTM
 40
0.0
  9
$DIMTXT
 40
2.44326171875
  9
$DIMCEN
 40
0.0
  9
$DIMTSZ
 40
0.0
  9
$DIMTOL
 70
     0
  9
$DIMLIM
 70
     0
  9
$DIMTIH
 70
     0
  9
$DIMTOH
 70
     0
  9
$DIMSE1
 70
     0
  9
$DIMSE2
 70
     0
  9
$DIMTAD
 70
     1
  9
$DIMZIN
 70
    11
  9
$DIMBLK
  1
VW_FILLEDARROW
  9
$DIMASO
 70
     1
  9
$DIMSHO
 70
     1
  9
$DIMPOST
  1
<>
  9
$DIMAPOST
  1
[]
  9
$DIMALT
 70
     0
  9
$DIMALTD
 70
     3
  9
$DIMALTF
 40
0.0393700787401575
  9
$DIMLFAC
 40
1.0
  9
$DIMTOFL
 70
     0
  9
$DIMTVP
 40
0.0
  9
$DIMTIX
 70
     1
  9
$DIMSOXD
 70
     0
  9
$DIMSAH
 70
     0
  9
$DIMBLK1
  1

  9
$DIMBLK2
  1

  9
$DIMSTYLE
  2
JIS
  9
$DIMCLRD
 70
     0
  9
$DIMCLRE
 70
     0
  9
$DIMCLRT
 70
     0
  9
$DIMTFAC
 40
1.0
  9
$DIMGAP
 40
1.00000000000108
  9
$DIMJUST
 70
     0
  9
$DIMSD1
 70
     0
  9
$DIMSD2
 70
     0
  9
$DIMTOLJ
 70
     1
  9
$DIMTZIN
 70
    11
  9
$DIMALTZ
 70
    15
  9
$DIMALTTZ
 70
    15
  9
$DIMUPT
 70
     0
  9
$DIMDEC
 70
     1
  9
$DIMTDEC
 70
     1
  9
$DIMALTU
 70
     4
  9
$DIMALTTD
 70
     2
  9
$DIMTXSTY
  7
ＭＳ ゴシック
  9
$DIMAUNIT
 70
     0
  9
$DIMADEC
 70
     2
  9
$DIMALTRND
 40
0.0
  9
$DIMAZIN
 70
     0
  9
$DIMDSEP
 70
    46
  9
$DIMATFIT
 70
     0
  9
$DIMFRAC
 70
     2
  9
$DIMLDRBLK
  1

  9
$DIMLUNIT
 70
     2
  9
$DIMLWD
 70
    -2
  9
$DIMLWE
 70
    -2
  9
$DIMTMOVE
 70
     0
  9
$DIMFXL
 40
1.0
  9
$DIMFXLON
 70
     0
  9
$DIMJOGANG
 40
0.7853981633974483
  9
$DIMTFILL
 70
     0
  9
$DIMTFILLCLR
 70
     0
  9
$DIMARCSYM
 70
     0
  9
$DIMLTYPE
  6

  9
$DIMLTEX1
  6

  9
$DIMLTEX2
  6

  9
$LUNITS
 70
     2
  9
$LUPREC
 70
     4
  9
$SKETCHINC
 40
0.1
  9
$FILLETRAD
 40
0.0
  9
$AUNITS
 70
     0
  9
$AUPREC
 70
     0
  9
$MENU
  1
acad
  9
$ELEVATION
 40
0.0
  9
$PELEVATION
 40
0.0
  9
$THICKNESS
 40
0.0
  9
$LIMCHECK
 70
     0
  9
$CHAMFERA
 40
0.0
  9
$CHAMFERB
 40
0.0
  9
$CHAMFERC
 40
0.0
  9
$CHAMFERD
 40
0.0
  9
$SKPOLY
 70
     0
  9
$TDCREATE
 40
2447893.375
  9
$TDUCREATE
 40
0.0
  9
$TDUPDATE
 40
2458646.591233553
  9
$TDUUPDATE
 40
2458646.216233553
  9
$TDINDWG
 40
0.0008791898
  9
$TDUSRTIMER
 40
0.0008791898
  9
$USRTIMER
 70
     1
  9
$ANGBASE
 50
0.0
  9
$ANGDIR
 70
     0
  9
$PDMODE
 70
     1
  9
$PDSIZE
 40
-2.0
  9
$PLINEWID
 40
0.0
  9
$SPLFRAME
 70
     0
  9
$SPLINETYPE
 70
     6
  9
$SPLINESEGS
 70
     8
  9
$HANDSEED
  5
2E5
  9
$SURFTAB1
 70
     6
  9
$SURFTAB2
 70
     6
  9
$SURFTYPE
 70
     6
  9
$SURFU
 70
     6
  9
$SURFV
 70
     6
  9
$UCSBASE
  2

  9
$UCSNAME
  2

  9
$UCSORG
 10
0.0
 20
0.0
 30
0.0
  9
$UCSXDIR
 10
1.0
 20
0.0
 30
0.0
  9
$UCSYDIR
 10
0.0
 20
1.0
 30
0.0
  9
$UCSORTHOREF
  2

  9
$UCSORTHOVIEW
 70
     0
  9
$UCSORGTOP
 10
0.0
 20
0.0
 30
0.0
  9
$UCSORGBOTTOM
 10
0.0
 20
0.0
 30
0.0
  9
$UCSORGLEFT
 10
0.0
 20
0.0
 30
0.0
  9
$UCSORGRIGHT
 10
0.0
 20
0.0
 30
0.0
  9
$UCSORGFRONT
 10
0.0
 20
0.0
 30
0.0
  9
$UCSORGBACK
 10
0.0
 20
0.0
 30
0.0
  9
$PUCSBASE
  2

  9
$PUCSNAME
  2

  9
$PUCSORG
 10
0.0
 20
0.0
 30
0.0
  9
$PUCSXDIR
 10
1.0
 20
0.0
 30
0.0
  9
$PUCSYDIR
 10
0.0
 20
1.0
 30
0.0
  9
$PUCSORTHOREF
  2

  9
$PUCSORTHOVIEW
 70
     0
  9
$PUCSORGTOP
 10
0.0
 20
0.0
 30
0.0
  9
$PUCSORGBOTTOM
 10
0.0
 20
0.0
 30
0.0
  9
$PUCSORGLEFT
 10
0.0
 20
0.0
 30
0.0
  9
$PUCSORGRIGHT
 10
0.0
 20
0.0
 30
0.0
  9
$PUCSORGFRONT
 10
0.0
 20
0.0
 30
0.0
  9
$PUCSORGBACK
 10
0.0
 20
0.0
 30
0.0
  9
$USERI1
 70
     0
  9
$USERI2
 70
     0
  9
$USERI3
 70
     0
  9
$USERI4
 70
     0
  9
$USERI5
 70
     0
  9
$USERR1
 40
0.0
  9
$USERR2
 40
0.0
  9
$USERR3
 40
0.0
  9
$USERR4
 40
0.0
  9
$USERR5
 40
0.0
  9
$WORLDVIEW
 70
     1
  9
$SHADEDGE
 70
     3
  9
$SHADEDIF
 70
    70
  9
$TILEMODE
 70
     1
  9
$MAXACTVP
 70
    64
  9
$PINSBASE
 10
0.0
 20
0.0
 30
0.0
  9
$PLIMCHECK
 70
     0
  9
$PEXTMIN
 10
1.000000000000000E+20
 20
1.000000000000000E+20
 30
1.000000000000000E+20
  9
$PEXTMAX
 10
-1.000000000000000E+20
 20
-1.000000000000000E+20
 30
-1.000000000000000E+20
  9
$PLIMMIN
 10
0.0
 20
0.0
  9
$PLIMMAX
 10
0.0
 20
0.0
  9
$UNITMODE
 70
     0
  9
$VISRETAIN
 70
     0
  9
$PLINEGEN
 70
     1
  9
$PSLTSCALE
 70
     0
  9
$TREEDEPTH
 70
  3020
  9
$CMLSTYLE
  2
Standard
  9
$CMLJUST
 70
     0
  9
$CMLSCALE
 40
1.0
  9
$PROXYGRAPHICS
 70
     0
  9
$MEASUREMENT
 70
     1
  9
$CELWEIGHT
370
     0
  9
$ENDCAPS
280
     0
  9
$JOINSTYLE
280
     0
  9
$LWDISPLAY
290
     1
  9
$INSUNITS
 70
     4
  9
$HYPERLINKBASE
  1

  9
$STYLESHEET
  1

  9
$XEDIT
290
     1
  9
$CEPSNTYPE
380
     0
  9
$PSTYLEMODE
290
     1
  9
$FINGERPRINTGUID
  2

  9
$VERSIONGUID
  2

  9
$EXTNAMES
290
     1
  9
$PSVPSCALE
 40
0.0
  9
$OLESTARTUP
290
     0
  9
$SORTENTS
280
   127
  9
$INDEXCTL
280
     0
  9
$HIDETEXT
280
     1
  9
$XCLIPFRAME
290
     0
  9
$HALOGAP
280
     0
  9
$OBSCOLOR
 70
   257
  9
$OBSLTYPE
280
     0
  9
$INTERSECTIONDISPLAY
280
     0
  9
$INTERSECTIONCOLOR
 70
   257
  9
$DIMASSOC
280
     2
  9
$PROJECTNAME
  1

  9
$CAMERADISPLAY
290
     0
  9
$LENSLENGTH
 40
50.0
  9
$CAMERAHEIGHT
 40
0.0
  9
$STEPSPERSEC
 40
2.0
  9
$STEPSIZE
 40
6.0
  9
$3DDWFPREC
 40
2.0
  9
$PSOLWIDTH
 40
0.25
  9
$PSOLHEIGHT
 40
4.0
  9
$LOFTANG1
 40
1.570796326794897
  9
$LOFTANG2
 40
1.570796326794897
  9
$LOFTMAG1
 40
0.0
  9
$LOFTMAG2
 40
0.0
  9
$LOFTPARAM
 70
     7
  9
$LOFTNORMALS
280
     1
  9
$LATITUDE
 40
37.795
  9
$LONGITUDE
 40
-122.394
  9
$NORTHDIRECTION
 40
0.0
  9
$TIMEZONE
 70
 -8000
  9
$LIGHTGLYPHDISPLAY
280
     1
  9
$TILEMODELIGHTSYNCH
280
     1
  9
$SOLIDHIST
280
     1
  9
$SHOWHIST
280
     1
  9
$DWFFRAME
280
     2
  9
$DGNFRAME
280
     2
  9
$REALWORLDSCALE
290
     1
  9
$INTERFERECOLOR
 62
   256
  9
$CSHADOW
280
     0
  9
$SHADOWPLANELOCATION
 40
0.0
  0
ENDSEC
  0
SECTION
  2
CLASSES
  0
CLASS
  1
LWPOLYLINE
  2
AcDbPolyline
  3
ObjectDBX Classes
 90
        0
 91
        1
280
     0
281
     1
  0
CLASS
  1
IMAGE
  2
AcDbRasterImage
  3
ISM
 90
      127
 91
        5
280
     0
281
     1
  0
CLASS
  1
OLE2FRAME
  2
AcDbOle2Frame
  3
ObjectDBX Classes
 90
        0
 91
        1
280
     0
281
     1
  0
CLASS
  1
HATCH
  2
AcDbHatch
  3
ObjectDBX Classes
 90
        0
 91
        1
280
     0
281
     1
  0
CLASS
  1
DICTIONARYVAR
  2
AcDbDictionaryVar
  3
ObjectDBX Classes
 90
        0
 91
        4
280
     0
281
     0
  0
CLASS
  1
RASTERVARIABLES
  2
AcDbRasterVariables
  3
ISM
 90
        0
 91
        4
280
     0
281
     0
  0
CLASS
  1
IMAGEDEF
  2
AcDbRasterImageDef
  3
ISM
 90
        0
 91
        4
280
     0
281
     0
  0
CLASS
  1
IMAGEDEF_REACTOR
  2
AcDbRasterImageDefReactor
  3
ISM
 90
        1
 91
        4
280
     0
281
     0
  0
CLASS
  1
IDBUFFER
  2
AcDbIdBuffer
  3
ObjectDBX Classes
 90
        0
 91
        4
280
     0
281
     0
  0
CLASS
  1
SPATIAL_FILTER
  2
AcDbSpatialFilter
  3
ObjectDBX Classes
 90
        0
 91
        4
280
     0
281
     0
  0
CLASS
  1
XRECORD
  2
AcDbXrecord
  3
ObjectDBX Classes
 90
        0
 91
        1
280
     0
281
     0
  0
CLASS
  1
SORTENTSTABLE
  2
AcDbSortentsTable
  3
ObjectDBX Classes
 90
        0
 91
        4
280
     0
281
     0
  0
CLASS
  1
LAYER_INDEX
  2
AcDbLayerIndex
  3
ObjectDBX Classes
 90
        0
 91
        4
280
     0
281
     0
  0
CLASS
  1
SPATIAL_INDEX
  2
AcDbSpatialIndex
  3
AutoCAD 2000
 90
        0
 91
        4
280
     0
281
     0
  0
CLASS
  1
OBJECT_PTR
  2
CAseDLPNTableRecord
  3
ASE-LPNTableRecord
 90
        1
 91
        4
280
     0
281
     0
  0
CLASS
  1
LAYOUT
  2
AcDbLayout
  3
ObjectDBX Classes
 90
        0
 91
        1
280
     0
281
     0
  0
CLASS
  1
PLOTSETTINGS
  2
AcDbPlotSettings
  3
ObjectDBX Classes
 90
        0
 91
        4
280
     0
281
     0
  0
CLASS
  1
ACDBDICTIONARYWDFLT
  2
AcDbDictionaryWithDefault
  3
ObjectDBX Classes
 90
        0
 91
        4
280
     0
281
     0
  0
CLASS
  1
ACDBPLACEHOLDER
  2
AcDbPlaceHolder
  3
ObjectDBX Classes
 90
        0
 91
        1
280
     0
281
     0
  0
CLASS
  1
SCALE
  2
AcDbScale
  3
ObjectDBX Classes
 90
     1153
 91
        4
280
     0
281
     0
  0
CLASS
  1
VISUALSTYLE
  2
AcDbVisualStyle
  3
ObjectDBX Classes
 90
     4095
 91
        4
280
     0
281
     0
  0
CLASS
  1
MATERIAL
  2
AcDbMaterial
  3
ObjectDBX Classes
 90
     1153
 91
        4
280
     0
281
     0
  0
CLASS
  1
TABLESTYLE
  2
AcDbTableStyle
  3
ObjectDBX Classes
 90
     4095
 91
        4
280
     0
281
     0
  0
CLASS
  1
SUN
  2
AcDbSun
  3
SCENEOE
 90
     1153
 91
        4
280
     0
281
     0
  0
CLASS
  1
CELLSTYLEMAP
  2
AcDbCellStyleMap
  3
ObjectDBX Classes
 90
     1152
 91
        4
280
     0
281
     0
  0
CLASS
  1
DIMASSOC
  2
AcDbDimAssoc
  3
"AcDbDimAssoc|Product Desc:     AcDim ARX App For Dimension|Company:          Autodesk, Inc.|WEB Address:      www.autodesk.com"
 90
        0
 91
        4
280
     0
281
     0
  0
CLASS
  1
MLEADERSTYLE
  2
AcDbMLeaderStyle
  3
ACDB_MLEADERSTYLE_CLASS
 90
     4095
 91
        4
280
     0
281
     0
  0
CLASS
  1
FIELD
  2
AcDbField
  3
ObjectDBX Classes
 90
     1152
 91
        4
280
     0
281
     0
  0
CLASS
  1
FIELDLIST
  2
AcDbFieldList
  3
ObjectDBX Classes
 90
     1152
 91
        4
280
     0
281
     0
  0
ENDSEC
  0
SECTION
  2
TABLES
  0
TABLE
  2
VPORT
  5
7
330
0
100
AcDbSymbolTable
 70
     1
  0
VPORT
  5
15
330
7
100
AcDbSymbolTableRecord
100
AcDbViewportTableRecord
  2
*ACTIVE
 70
     0
 10
0.0
 20
0.0
 11
1.0
 21
1.0
 12
0.0000000000236469
 22
-0.5661062022696228
 13
0.0
 23
0.0
 14
1.0
 24
1.0
 15
0.0
 25
0.0
 16
0.0
 26
0.0
 36
1.0
 17
0.0
 27
0.0
 37
0.0
 40
306.6159199718214
 41
2.339705882352941
 42
50.0
 43
0.0
 44
0.0
 50
0.0
 51
0.0
 71
    16
 72
  2000
 73
     1
 74
     1
 75
     0
 76
     0
 77
     0
 78
     0
281
     0
 65
     0
110
0.0
120
0.0
130
0.0
111
1.0
121
0.0
131
0.0
112
0.0
122
1.0
132
0.0
 79
     0
146
0.0
348
FC
 60
     3
 61
     5
292
     1
282
     1
141
0.0
142
0.0
 63
   250
361
117
  0
ENDTAB
  0
TABLE
  2
LTYPE
  5
4
330
0
100
AcDbSymbolTable
 70
    12
  0
LTYPE
  5
11
330
4
100
AcDbSymbolTableRecord
100
AcDbLinetypeTableRecord
  2
ByBlock
 70
     0
  3

 72
    65
 73
     0
 40
0.0
  0
LTYPE
  5
12
330
4
100
AcDbSymbolTableRecord
100
AcDbLinetypeTableRecord
  2
ByLayer
 70
     0
  3

 72
    65
 73
     0
 40
0.0
  0
LTYPE
  5
13
330
4
100
AcDbSymbolTableRecord
100
AcDbLinetypeTableRecord
  2
Continuous
 70
     0
  3
Solid line
 72
    65
 73
     0
 40
0.0
  0
LTYPE
  5
2B
330
4
100
AcDbSymbolTableRecord
100
AcDbLinetypeTableRecord
  2
STYLE_01
 70
     0
  3

 72
    65
 73
     4
 40
1.142998149736059
 49
0.7620005327761776
 74
     0
 49
-0.1269992056532938
 74
     0
 49
0.1269992056532938
 74
     0
 49
-0.1269992056532938
 74
     0
  0
LTYPE
  5
2C
330
4
100
AcDbSymbolTableRecord
100
AcDbLinetypeTableRecord
  2
STYLE_02
 70
     0
  3

 72
    65
 73
     4
 40
0.7047336719585044
 49
0.4698226834770658
 74
     0
 49
-0.0586775635857579
 74
     0
 49
0.1175558613099228
 74
     0
 49
-0.058677563585758
 74
     0
  0
LTYPE
  5
2D
330
4
100
AcDbSymbolTableRecord
100
AcDbLinetypeTableRecord
  2
STYLE_03
 70
     0
  3

 72
    65
 73
     2
 40
1.25
 49
1.04164
 74
     0
 49
-0.2083599999999999
 74
     0
  0
LTYPE
  5
2E
330
4
100
AcDbSymbolTableRecord
100
AcDbLinetypeTableRecord
  2
STYLE_04
 70
     0
  3

 72
    65
 73
     2
 40
1.52771
 49
1.319425
 74
     0
 49
-0.208285
 74
     0
  0
LTYPE
  5
2F
330
4
100
AcDbSymbolTableRecord
100
AcDbLinetypeTableRecord
  2
STYLE_05
 70
     0
  3

 72
    65
 73
     2
 40
0.20828
 49
0.069425
 74
     0
 49
-0.138855
 74
     0
  0
LTYPE
  5
30
330
4
100
AcDbSymbolTableRecord
100
AcDbLinetypeTableRecord
  2
STYLE_06
 70
     0
  3

 72
    65
 73
     4
 40
1.04164
 49
0.625
 74
     0
 49
-0.20828
 74
     0
 49
0.06943
 74
     0
 49
-0.13893
 74
     0
  0
LTYPE
  5
31
330
4
100
AcDbSymbolTableRecord
100
AcDbLinetypeTableRecord
  2
STYLE_07
 70
     0
  3

 72
    65
 73
     6
 40
1.875
 49
0.625
 74
     0
 49
-0.20828
 74
     0
 49
0.6250000000000001
 74
     0
 49
-0.2083599999999999
 74
     0
 49
0.06943
 74
     0
 49
-0.1389299999999999
 74
     0
  0
LTYPE
  5
32
330
4
100
AcDbSymbolTableRecord
100
AcDbLinetypeTableRecord
  2
STYLE_08
 70
     0
  3

 72
    65
 73
     6
 40
1.25
 49
0.625
 74
     0
 49
-0.20828
 74
     0
 49
0.06943
 74
     0
 49
-0.13893
 74
     0
 49
0.0694299999999999
 74
     0
 49
-0.13893
 74
     0
  0
LTYPE
  5
33
330
4
100
AcDbSymbolTableRecord
100
AcDbLinetypeTableRecord
  2
STYLE_09
 70
     0
  3

 72
    65
 73
     4
 40
5.0
 49
3.75
 74
     0
 49
-0.2777849999999998
 74
     0
 49
0.6944300000000003
 74
     0
 49
-0.2777849999999998
 74
     0
  0
LTYPE
  5
34
330
4
100
AcDbSymbolTableRecord
100
AcDbLinetypeTableRecord
  2
STYLE_10
 70
     0
  3

 72
    65
 73
     6
 40
5.9375
 49
3.75
 74
     0
 49
-0.2777849999999998
 74
     0
 49
0.6944300000000003
 74
     0
 49
-0.2777849999999998
 74
     0
 49
0.625
 74
     0
 49
-0.3125
 74
     0
  0
LTYPE
  5
298
330
4
100
AcDbSymbolTableRecord
100
AcDbLinetypeTableRecord
  2
BORDER
 70
     0
  3
Border __  __  . __  __  . __  __  . __  __  . 
 72
    65
 73
     6
 40
44.45
 49
12.7
 74
     0
 49
-6.35
 74
     0
 49
12.7
 74
     0
 49
-6.35
 74
     0
 49
0.0
 74
     0
 49
-6.35
 74
     0
  0
ENDTAB
  0
TABLE
  2
LAYER
  5
2
102
{ACAD_XDICTIONARY
360
1D2
102
}
330
0
100
AcDbSymbolTable
 70
    11
  0
LAYER
  5
14
330
2
100
AcDbSymbolTableRecord
100
AcDbLayerTableRecord
  2
0
 70
     0
 62
     7
  6
Continuous
370
    -3
390
1D
347
113
  0
LAYER
  5
35
330
2
100
AcDbSymbolTableRecord
100
AcDbLayerTableRecord
  2
Defpoints
 70
     0
 62
     7
  6
Continuous
290
     0
370
    -3
390
1D
347
113
  0
LAYER
  5
36
330
2
100
AcDbSymbolTableRecord
100
AcDbLayerTableRecord
  2
template
 70
     0
 62
     7
  6
Continuous
370
    20
390
1D
347
113
  0
LAYER
  5
37
330
2
100
AcDbSymbolTableRecord
100
AcDbLayerTableRecord
  2
notes
 70
     0
 62
     7
  6
Continuous
370
    -3
390
1D
347
113
  0
LAYER
  5
38
330
2
100
AcDbSymbolTableRecord
100
AcDbLayerTableRecord
  2
ATB73-1901
 70
     0
 62
     7
  6
Continuous
370
    -3
390
1D
347
113
  0
LAYER
  5
11A
330
2
100
AcDbSymbolTableRecord
100
AcDbLayerTableRecord
  2
レイヤー 1
 70
     0
 62
     7
  6
Continuous
370
    -3
390
1D
347
113
  0
LAYER
  5
1D5
330
2
100
AcDbSymbolTableRecord
100
AcDbLayerTableRecord
  2
画層1
 70
     0
 62
    -7
  6
Continuous
370
    -3
390
1D
347
113
1001
AcAecLayerStandard
1000

1000

  0
LAYER
  5
1F0
330
2
100
AcDbSymbolTableRecord
100
AcDbLayerTableRecord
  2
MODEL
 70
     0
 62
     7
  6
Continuous
370
    20
390
1D
347
113
  0
LAYER
  5
1F1
330
2
100
AcDbSymbolTableRecord
100
AcDbLayerTableRecord
  2
LOGO
 70
     0
 62
     7
  6
Continuous
370
    -3
390
1D
347
113
  0
LAYER
  5
296
330
2
100
AcDbSymbolTableRecord
100
AcDbLayerTableRecord
  2
DIM
 70
     0
 62
     3
  6
Continuous
370
    13
390
1D
347
113
1001
AcAecLayerStandard
1000

1000

  0
LAYER
  5
297
330
2
100
AcDbSymbolTableRecord
100
AcDbLayerTableRecord
  2
BORDER
 70
     0
 62
     3
  6
BORDER
290
     0
370
    20
390
1D
347
113
1001
AcAecLayerStandard
1000

1000

  0
ENDTAB
  0
TABLE
  2
STYLE
  5
3
330
0
100
AcDbSymbolTable
 70
     2
  0
STYLE
  5
17
330
3
100
AcDbSymbolTableRecord
100
AcDbTextStyleTableRecord
  2
Standard
 70
     0
 40
0.0
 41
1.0
 50
0.0
 71
     0
 42
0.0
  3
txt
  4
BIGFONT.SHX
  0
STYLE
  5
2A
330
3
100
AcDbSymbolTableRecord
100
AcDbTextStyleTableRecord
  2
ＭＳ ゴシック
 70
     0
 40
0.0
 41
1.0
 50
0.0
 71
     0
 42
0.0
  3
msgothic.ttc
  4
ＭＳ ゴシック
1001
ACAD
1000
ＭＳ ゴシック
1071
        0
  0
ENDTAB
  0
TABLE
  2
VIEW
  5
5
330
0
100
AcDbSymbolTable
 70
     0
  0
ENDTAB
  0
TABLE
  2
UCS
  5
6
330
0
100
AcDbSymbolTable
 70
     0
  0
ENDTAB
  0
TABLE
  2
APPID
  5
8
330
0
100
AcDbSymbolTable
 70
     3
  0
APPID
  5
16
330
8
100
AcDbSymbolTableRecord
100
AcDbRegAppTableRecord
  2
ACAD
 70
     0
  0
APPID
  5
1D6
330
8
100
AcDbSymbolTableRecord
100
AcDbRegAppTableRecord
  2
AcAecLayerStandard
 70
     0
  0
APPID
  5
2D2
330
8
100
AcDbSymbolTableRecord
100
AcDbRegAppTableRecord
  2
ACAD_MLEADERVER
 70
     0
  0
ENDTAB
  0
TABLE
  2
DIMSTYLE
  5
9
330
0
100
AcDbSymbolTable
 70
     3
100
AcDbDimStyleTable
  0
DIMSTYLE
105
18
330
9
100
AcDbSymbolTableRecord
100
AcDbDimStyleTableRecord
  2
Standard
 70
     0
178
     0
340
17
  0
DIMSTYLE
105
41
330
9
100
AcDbSymbolTableRecord
100
AcDbDimStyleTableRecord
  2
tfrom線あり
 70
     0
  3
<>
  4
[]
 41
0.3999755859375
 42
2.5
 43
0.9999999999999999
 44
0.0
 73
     0
 74
     0
 77
     1
 78
    11
140
2.44326171875
141
0.0
143
0.0393700787401575
147
0.4999999999999999
171
     3
174
     1
178
     0
179
     2
271
     1
272
     1
273
     4
276
     2
284
    11
285
    15
286
    15
289
     0
340
2A
341
39
342
39
  0
DIMSTYLE
105
46
330
9
100
AcDbSymbolTableRecord
100
AcDbDimStyleTableRecord
  2
JIS
 70
     0
  3
<>
  4
[]
 41
3.175
 42
0.0
 43
6.99999999999994
 44
1.99999999999962
 73
     0
 74
     0
 77
     1
 78
    11
140
2.44326171875
141
0.0
143
0.0393700787401575
147
1.00000000000108
171
     3
174
     1
178
     0
179
     2
271
     1
272
     1
273
     4
276
     2
284
    11
285
    15
286
    15
289
     0
340
2A
341
42
342
42
  0
ENDTAB
  0
TABLE
  2
BLOCK_RECORD
  5
1
330
0
100
AcDbSymbolTable
 70
    13
  0
BLOCK_RECORD
  5
A
330
1
100
AcDbSymbolTableRecord
100
AcDbBlockTableRecord
  2
*MODEL_SPACE
340
20
 70
     0
280
     1
281
     0
  0
BLOCK_RECORD
  5
B
330
1
100
AcDbSymbolTableRecord
100
AcDbBlockTableRecord
  2
*PAPER_SPACE
340
21
 70
     0
280
     1
281
     0
  0
BLOCK_RECORD
  5
39
330
1
100
AcDbSymbolTableRecord
100
AcDbBlockTableRecord
  2
_DOT
340
0
102
{BLKREFS
331
53
331
54
331
60
331
61
331
6D
331
6E
331
7A
331
7B
331
87
331
88
331
94
331
95
102
}
 70
     0
280
     1
281
     0
  0
BLOCK_RECORD
  5
42
330
1
100
AcDbSymbolTableRecord
100
AcDbBlockTableRecord
  2
VW_FILLEDARROW
340
0
 70
     0
280
     1
281
     0
  0
BLOCK_RECORD
  5
23
330
1
100
AcDbSymbolTableRecord
100
AcDbBlockTableRecord
  2
グループ
340
0
 70
     0
280
     1
281
     0
  0
BLOCK_RECORD
  5
24
330
1
100
AcDbSymbolTableRecord
100
AcDbBlockTableRecord
  2
*D3
340
0
 70
     0
280
     1
281
     0
  0
BLOCK_RECORD
  5
25
330
1
100
AcDbSymbolTableRecord
100
AcDbBlockTableRecord
  2
*D4
340
0
 70
     0
280
     1
281
     0
  0
BLOCK_RECORD
  5
26
330
1
100
AcDbSymbolTableRecord
100
AcDbBlockTableRecord
  2
*D5
340
0
 70
     0
280
     1
281
     0
  0
BLOCK_RECORD
  5
27
330
1
100
AcDbSymbolTableRecord
100
AcDbBlockTableRecord
  2
*D6
340
0
 70
     0
280
     1
281
     0
  0
BLOCK_RECORD
  5
28
330
1
100
AcDbSymbolTableRecord
100
AcDbBlockTableRecord
  2
*D7
340
0
 70
     0
280
     1
281
     0
  0
BLOCK_RECORD
  5
29
330
1
100
AcDbSymbolTableRecord
100
AcDbBlockTableRecord
  2
*D8
340
0
 70
     0
280
     1
281
     0
  0
BLOCK_RECORD
  5
21B
330
1
100
AcDbSymbolTableRecord
100
AcDbBlockTableRecord
  2
名称未設定-1
340
0
102
{BLKREFS
331
242
102
}
 70
     1
280
     1
281
     0
  0
BLOCK_RECORD
  5
21E
330
1
100
AcDbSymbolTableRecord
100
AcDbBlockTableRecord
  2
block 3
340
0
102
{BLKREFS
331
21D
102
}
 70
     0
280
     1
281
     0
  0
BLOCK_RECORD
  5
221
330
1
100
AcDbSymbolTableRecord
100
AcDbBlockTableRecord
  2
block 4
340
0
102
{BLKREFS
331
220
102
}
 70
     0
280
     1
281
     0
  0
BLOCK_RECORD
  5
231
330
1
100
AcDbSymbolTableRecord
100
AcDbBlockTableRecord
  2
block 5
340
0
102
{BLKREFS
331
230
102
}
 70
     0
280
     1
281
     0
  0
ENDTAB
  0
ENDSEC
  0
SECTION
  2
BLOCKS
  0
BLOCK
  5
D
330
A
100
AcDbEntity
  8
0
390
1D
100
AcDbBlockBegin
  2
*MODEL_SPACE
 70
     0
 10
0.0
 20
0.0
 30
0.0
  3
*MODEL_SPACE
  1
*MODEL_SPACE
  0
ENDBLK
  5
E
330
A
100
AcDbEntity
  8
0
390
1D
100
AcDbBlockEnd
  0
BLOCK
  5
F
330
B
100
AcDbEntity
 67
     1
  8
0
390
1D
100
AcDbBlockBegin
  2
*PAPER_SPACE
 70
     0
 10
0.0
 20
0.0
 30
0.0
  3
*PAPER_SPACE
  1
*PAPER_SPACE
  0
ENDBLK
  5
10
330
B
100
AcDbEntity
 67
     1
  8
0
390
1D
100
AcDbBlockEnd
  0
BLOCK
  5
3A
330
39
100
AcDbEntity
  8
0
390
1D
100
AcDbBlockBegin
  2
_DOT
 70
     0
 10
0.0
 20
0.0
 30
0.0
  3
_DOT
  1
_DOT
  0
POLYLINE
  5
3B
330
39
100
AcDbEntity
  8
0
  6
ByBlock
 62
     0
370
    -2
390
1D
100
AcDb2dPolyline
 66
     1
 10
0.0
 20
0.0
 30
0.0
 70
     1
 40
0.5
 41
0.5
  0
VERTEX
  5
3C
330
3B
100
AcDbEntity
  8
0
  6
ByBlock
 62
     0
370
    -2
390
1D
100
AcDbVertex
100
AcDb2dVertex
 10
-0.25
 20
0.0
 30
0.0
 42
1.0
  0
VERTEX
  5
3D
330
3B
100
AcDbEntity
  8
0
  6
ByBlock
 62
     0
370
    -2
390
1D
100
AcDbVertex
100
AcDb2dVertex
 10
0.25
 20
0.0
 30
0.0
 42
1.0
  0
SEQEND
  5
3E
330
3B
100
AcDbEntity
  8
0
390
1D
  0
LINE
  5
3F
330
39
100
AcDbEntity
  8
0
  6
ByBlock
 62
     0
370
    -2
390
1D
100
AcDbLine
 10
-0.5
 20
0.0
 30
0.0
 11
-1.0
 21
0.0
 31
0.0
  0
ENDBLK
  5
40
330
39
100
AcDbEntity
  8
0
390
1D
100
AcDbBlockEnd
  0
BLOCK
  5
43
330
42
100
AcDbEntity
  8
0
  6
ByBlock
 62
     0
370
    -2
390
1D
100
AcDbBlockBegin
  2
VW_FILLEDARROW
 70
     0
 10
0.0
 20
0.0
 30
0.0
  3
VW_FILLEDARROW
  1
VW_FILLEDARROW
  0
SOLID
  5
44
330
42
100
AcDbEntity
  8
0
 62
     0
370
    -2
390
1D
100
AcDbTrace
 10
0.0
 20
0.0
 30
0.0
 11
-0.9999389648437499
 21
-0.2679328381102956
 31
0.0
 12
-0.9999389648437499
 22
0.2679328381102958
 32
0.0
 13
-0.9999389648437499
 23
0.2679328381102958
 33
0.0
  0
ENDBLK
  5
45
330
42
100
AcDbEntity
  8
0
390
1D
100
AcDbBlockEnd
  0
BLOCK
  5
47
330
23
100
AcDbEntity
  8
template
390
1D
100
AcDbBlockBegin
  2
グループ
 70
     0
 10
0.0
 20
0.0
 30
0.0
  3
グループ
  1
グループ
  0
LWPOLYLINE
  5
48
330
23
100
AcDbEntity
  8
0
  6
Continuous
 62
     7
370
    15
390
1D
100
AcDbPolyline
 90
        8
 70
   129
 43
0.0
 10
-5198.784424645482
 20
-3884.29354742291
 10
-5198.784424645482
 20
-3884.893302606067
 10
-5199.734544337282
 20
-3884.893302606067
 10
-5199.734544337282
 20
-3887.338465442715
 10
-5200.570082063461
 20
-3887.338465442715
 10
-5200.570082063461
 20
-3884.893302606067
 10
-5201.503377758091
 20
-3884.893302606067
 10
-5201.503377758091
 20
-3884.29354742291
  0
LWPOLYLINE
  5
49
330
23
100
AcDbEntity
  8
0
  6
Continuous
 62
     7
370
    15
390
1D
100
AcDbPolyline
 90
      101
 70
   128
 43
0.0
 10
-5197.511595462427
 20
-3884.366374253149
 10
-5197.510060444017
 20
-3884.365938161206
 42
-0.0222227006144357
 10
-5197.481060001882
 20
-3884.359075532426
 10
-5197.479480618974
 20
-3884.358775180709
 42
-0.0146887359948803
 10
-5197.45321035496
 20
-3884.354574748996
 42
-0.0127462235646228
 10
-5197.426746454449
 20
-3884.351820976987
 10
-5197.420500950413
 20
-3884.351331621715
 42
-0.0198104386925914
 10
-5197.381416036229
 20
-3884.349823064944
 10
-5197.376234892521
 20
-3884.349828442654
 42
-0.0147621388836953
 10
-5197.326772548832
 20
-3884.351340486162
 10
-5197.319503407319
 20
-3884.351777758506
 42
-0.0162628894649412
 10
-5197.28048803799
 20
-3884.355401144976
 10
-5197.268334800642
 20
-3884.356929842234
 42
-0.008002296508016
 10
-5197.253776895755
 20
-3884.358998183445
 10
-5197.249944949419
 20
-3884.359605327626
 42
-0.0053823311732528
 10
-5197.243096538164
 20
-3884.360766111697
 10
-5197.315737108083
 20
-3884.578864889722
 42
0.010867049472852
 10
-5197.322468816613
 20
-3884.577546142066
 10
-5197.326215617415
 20
-3884.576896350395
 42
0.0170667667918085
 10
-5197.340537299733
 20
-3884.574913336349
 10
-5197.347324829376
 20
-3884.574208600498
 42
0.0220168316260469
 10
-5197.375362774154
 20
-3884.572540318981
 10
-5197.383148322633
 20
-3884.572420379119
 42
0.0282614564947086
 10
-5197.416711959224
 20
-3884.573800744297
 10
-5197.421103280676
 20
-3884.574230754414
 42
0.0169681667977212
 10
-5197.445695736097
 20
-3884.577484548455
 42
0.019058102625809
 10
-5197.469986522468
 20
-3884.582499369635
 10
-5197.470612451167
 20
-3884.58265367368
 42
0.021369053526356
 10
-5197.495650884148
 20
-3884.589973896058
 10
-5197.496199889106
 20
-3884.59016020598
 42
0.0237600023932706
 10
-5197.521549355733
 20
-3884.600128919506
 10
-5197.522059584999
 20
-3884.600358113109
 42
0.0261861611623314
 10
-5197.547276634266
 20
-3884.613312082708
 10
-5197.548319248273
 20
-3884.613918643802
 42
0.0272555999251373
 10
-5197.571962259054
 20
-3884.629456306381
 10
-5197.575438532793
 20
-3884.632022470609
 42
0.0325998378237973
 10
-5197.59045409477
 20
-3884.644697623062
 10
-5197.592825030578
 20
-3884.646979481144
 42
0.0138050896952394
 10
-5197.602013353303
 20
-3884.656324708334
 42
0.0125279688348043
 10
-5197.610697600887
 20
-3884.666141301235
 10
-5197.613065651078
 20
-3884.668957234427
 42
0.0205216620599577
 10
-5197.625575645844
 20
-3884.685136987935
 10
-5197.627822292678
 20
-3884.688303065054
 42
0.016310839555909
 10
-5197.643393318525
 20
-3884.71183672908
 10
-5197.643665720208
 20
-3884.712279136927
 42
0.0131895560489315
 10
-5197.65834576357
 20
-3884.73759301871
 10
-5197.658515781835
 20
-3884.737904867117
 42
0.0107893881850845
 10
-5197.672293445742
 20
-3884.764527099352
 10
-5197.672366741009
 20
-3884.764676539555
 42
0.0091369915035696
 10
-5197.685214731165
 20
-3884.792129795519
 10
-5197.688189299015
 20
-3884.798800638248
 42
0.0135415720958596
 10
-5197.705360684576
 20
-3884.840295523647
 10
-5197.708721167955
 20
-3884.849082383514
 42
0.0092832600676232
 10
-5197.725844079758
 20
-3884.896473537611
 10
-5197.728405790576
 20
-3884.90399784352
 42
0.0054259854891144
 10
-5197.739169607358
 20
-3884.936775138131
 10
-5197.740922206042
 20
-3884.94231410523
 42
0.0008224907568876
 10
-5197.747789211159
 20
-3884.964141574557
 10
-5197.846258124352
 20
-3885.266638932042
 10
-5197.522995740345
 20
-3885.266638932042
 10
-5197.573414983331
 20
-3885.457091942345
 10
-5197.899020611529
 20
-3885.457091942345
 10
-5198.481935514764
 20
-3887.338465423741
 10
-5198.664445275795
 20
-3887.338465423741
 10
-5198.080977472245
 20
-3885.457091942345
 10
-5198.321489109148
 20
-3885.457091942345
 10
-5198.271069866163
 20
-3885.266638932042
 10
-5198.028214985068
 20
-3885.266638932042
 10
-5197.94219949325
 20
-3885.002990460533
 42
-0.0005863429618781
 10
-5197.938526025333
 20
-3884.991307500415
 10
-5197.930917242064
 20
-3884.967207615244
 42
-0.0087520479116519
 10
-5197.910970421694
 20
-3884.907678370304
 10
-5197.901743993381
 20
-3884.881663643658
 42
-0.0077399361035456
 10
-5197.875950634263
 20
-3884.812361309986
 10
-5197.87437412967
 20
-3884.808318092601
 42
-0.0082368348169136
 10
-5197.849665690044
 20
-3884.747908561863
 42
-0.0085723688675362
 10
-5197.822941070782
 20
-3884.688364317709
 10
-5197.812778100487
 20
-3884.666721597105
 42
-0.0168106734659352
 10
-5197.78408367747
 20
-3884.61059936021
 10
-5197.771499338424
 20
-3884.587902339535
 42
-0.000781761447977
 10
-5197.766070903419
 20
-3884.578147649696
 10
-5197.766058071882
 20
-3884.578124676524
 42
-0.0036625632163458
 10
-5197.760569286414
 20
-3884.56846462744
 42
-0.0080220122715138
 10
-5197.754856858612
 20
-3884.558936441152
 10
-5197.751786865738
 20
-3884.553997215528
 42
-0.0202137299607026
 10
-5197.739021277956
 20
-3884.535198525467
 10
-5197.733614545239
 20
-3884.527890458912
 42
-0.0249322465056425
 10
-5197.707698229368
 20
-3884.496285034766
 10
-5197.705284284453
 20
-3884.49362357532
 42
-0.0242132117522033
 10
-5197.671316163464
 20
-3884.459634259632
 10
-5197.666525016627
 20
-3884.455283237141
 42
-0.0251018860212459
 10
-5197.638126882961
 20
-3884.431983361844
 10
-5197.637982315705
 20
-3884.431876418697
 42
-0.0130869286824906
 10
-5197.608156270284
 20
-3884.410997818409
 10
-5197.608000047218
 20
-3884.410894444339
 42
-0.0290333428755698
 10
-5197.57688897423
 20
-3884.392811429535
 10
-5197.57390440056
 20
-3884.391301141329
 42
-0.016025299006755
 10
-5197.547313976655
 20
-3884.378899201806
 42
-0.0267605926251269
 10
-5197.519786342581
 20
-3884.368824087633
 10
-5197.517112776955
 20
-3884.368004817533
 42
-0.0049982735357087
 10
-5197.511595462427
 20
-3884.366374253149
 42
-0.0049982735357087
  0
LWPOLYLINE
  5
4A
330
23
100
AcDbEntity
  8
0
  6
Continuous
 62
     7
370
    15
390
1D
100
AcDbPolyline
 90
      118
 70
   128
 43
0.0
 10
-5195.530158705983
 20
-3885.274037466071
 10
-5195.342646513533
 20
-3885.274037466071
 10
-5195.426450404093
 20
-3885.542201412975
 42
-0.0010587182928179
 10
-5195.423304822359
 20
-3885.538510859047
 10
-5195.417485413473
 20
-3885.531712448714
 42
-0.0071874494785265
 10
-5195.402447885749
 20
-3885.514647908823
 10
-5195.388275614337
 20
-3885.499023876226
 42
-0.0148117900151231
 10
-5195.343262647731
 20
-3885.45226118309
 10
-5195.334540436129
 20
-3885.443721240143
 42
-0.0086273489277929
 10
-5195.300985571474
 20
-3885.411982828555
 10
-5195.296602185753
 20
-3885.407977742298
 42
-0.0103138690518928
 10
-5195.270799829628
 20
-3885.385360826249
 10
-5195.266222383491
 20
-3885.381512512218
 42
-0.0060207068729944
 10
-5195.248937582584
 20
-3885.367332666067
 10
-5195.248734463489
 20
-3885.367170086274
 42
-0.0067069474982155
 10
-5195.23150518803
 20
-3885.353754662793
 10
-5195.23125030475
 20
-3885.35356163549
 42
-0.0076184973867066
 10
-5195.214159784849
 20
-3885.341023811992
 42
-0.0089653746486601
 10
-5195.19666368053
 20
-3885.329060155245
 10
-5195.193028501942
 20
-3885.32666896453
 42
-0.0156918177660677
 10
-5195.173432566846
 20
-3885.314642398368
 42
-0.0023299337988272
 10
-5195.153406360324
 20
-3885.303324295366
 10
-5195.15186794921
 20
-3885.302464273653
 42
-0.0107670981405894
 10
-5195.128444255205
 20
-3885.29002391614
 10
-5195.126217786592
 20
-3885.288902216425
 42
-0.0078059361974744
 10
-5195.09785876528
 20
-3885.275165692789
 10
-5195.096868066026
 20
-3885.274704771893
 42
-0.0181832780309045
 10
-5195.065837103265
 20
-3885.261618033351
 10
-5195.060431557962
 20
-3885.259566465156
 42
-0.0208416072294143
 10
-5195.025523084563
 20
-3885.247957111983
 10
-5195.024087456743
 20
-3885.247545251176
 42
-0.0222805216071329
 10
-5194.991215495158
 20
-3885.239680885754
 10
-5194.990326588152
 20
-3885.239509677981
 42
-0.0215515128524366
 10
-5194.958679502007
 20
-3885.234817983567
 10
-5194.954431302787
 20
-3885.234374218492
 42
-0.0182550841906761
 10
-5194.931020427972
 20
-3885.232789793181
 10
-5194.927080326109
 20
-3885.232667335335
 42
-0.0072964839865217
 10
-5194.911488038368
 20
-3885.232410395501
 10
-5194.908578071363
 20
-3885.232404911811
 42
-0.0059229127161421
 10
-5194.898803121396
 20
-3885.232502285639
 10
-5194.895878899729
 20
-3885.232566064032
 42
-0.0011833433773949
 10
-5194.891953771275
 20
-3885.232660967046
 10
-5194.971492430836
 20
-3885.486541267294
 42
0.014393495003913
 10
-5194.974132570486
 20
-3885.485521342046
 10
-5194.974859766313
 20
-3885.485264213668
 42
0.0234393909571452
 10
-5194.979042855896
 20
-3885.484002255018
 10
-5194.979911019198
 20
-3885.483784153636
 42
0.0199167701611941
 10
-5194.985939905238
 20
-3885.482522445342
 10
-5194.988021296386
 20
-3885.482172716328
 42
0.0293651340046013
 10
-5194.998328785804
 20
-3885.481057681259
 10
-5195.000797300334
 20
-3885.480936516435
 42
0.0214612518877964
 10
-5195.016111392149
 20
-3885.480842657848
 10
-5195.017048583011
 20
-3885.480877149933
 42
0.0167568564884179
 10
-5195.034200599945
 20
-3885.482084886794
 10
-5195.035046581397
 20
-3885.482173023461
 42
0.0137681168566187
 10
-5195.053781909098
 20
-3885.484648021056
 10
-5195.054517086675
 20
-3885.484765816838
 42
0.0118500271411687
 10
-5195.074566858486
 20
-3885.488467651588
 10
-5195.07518186381
 20
-3885.488596342323
 42
0.0106423743378441
 10
-5195.096269947228
 20
-3885.493479711362
 10
-5195.096760833378
 20
-3885.493604450373
 42
0.0099748709998948
 10
-5195.11860667426
 20
-3885.499622065096
 10
-5195.124761484311
 20
-3885.501450304481
 42
0.0191617809136371
 10
-5195.158359909546
 20
-3885.512848344506
 10
-5195.167165876073
 20
-3885.51621712306
 42
0.0205277915570082
 10
-5195.205696585026
 20
-3885.532800427072
 10
-5195.211461491868
 20
-3885.53556728854
 42
0.018125970795491
 10
-5195.237289207292
 20
-3885.549136049769
 10
-5195.242584735592
 20
-3885.552167887815
 42
0.0140710991191548
 10
-5195.257080239086
 20
-3885.561017601621
 10
-5195.259705122012
 20
-3885.562723327332
 42
0.008666876688045
 10
-5195.268597742102
 20
-3885.568723759894
 42
0.0036408516741612
 10
-5195.277341064269
 20
-3885.574942013633
 10
-5195.280863753353
 20
-3885.577486178609
 42
0.0052261199881578
 10
-5195.296486618888
 20
-3885.589019727821
 10
-5195.298107308718
 20
-3885.590242575317
 42
0.0050024783004414
 10
-5195.316707638159
 20
-3885.604571218069
 10
-5195.318239458675
 20
-3885.605775856906
 42
0.0136139385879511
 10
-5195.33928357053
 20
-3885.623272970174
 10
-5195.342650373086
 20
-3885.626230961063
 42
0.0172815468716219
 10
-5195.369090703272
 20
-3885.651131281433
 10
-5195.369346961837
 20
-3885.651389894382
 42
0.0189403421380321
 10
-5195.394405117056
 20
-3885.678671133981
 10
-5195.397668271396
 20
-3885.68250563729
 42
0.0185043030284044
 10
-5195.416863934946
 20
-3885.70683118017
 42
0.0088564431480717
 10
-5195.434709937722
 20
-3885.732183500149
 10
-5195.435627743575
 20
-3885.733537686598
 42
0.0157193517650935
 10
-5195.453949790764
 20
-3885.762490672274
 10
-5195.458558090807
 20
-3885.770306114483
 42
0.0095450537512548
 10
-5195.475066653415
 20
-3885.799566387499
 10
-5195.47618143921
 20
-3885.801633499633
 42
0.0100350116594972
 10
-5195.489385820223
 20
-3885.827339766218
 42
0.008693439789331
 10
-5195.501618931121
 20
-3885.853523783386
 10
-5195.501951009544
 20
-3885.854268045526
 42
0.0072578814269862
 10
-5195.513985651426
 20
-3885.882327999891
 10
-5195.514311818069
 20
-3885.883120032082
 42
0.0060003936657614
 10
-5195.526231882304
 20
-3885.913081807358
 10
-5195.526552982737
 20
-3885.913917989661
 42
0.0049016779171472
 10
-5195.538442996613
 20
-3885.945811749695
 10
-5195.538759579263
 20
-3885.946687072788
 42
0.0039414332836289
 10
-5195.550703205488
 20
-3885.980542195322
 10
-5195.551016317333
 20
-3885.981452544765
 42
0.0031035166956531
 10
-5195.563096794715
 20
-3886.017297502354
 10
-5195.563407800356
 20
-3886.018239593715
 42
0.0025070195177936
 10
-5195.57569793452
 20
-3886.056105342352
 10
-5195.57942732513
 20
-3886.067794829875
 42
0.0029081260006144
 10
-5195.59862915319
 20
-3886.129212860701
 10
-5195.602709471763
 20
-3886.142535552937
 42
0.000926624438523
 10
-5195.629551208472
 20
-3886.23076039632
 10
-5195.631639956872
 20
-3886.237671776001
 42
-0.0005809862336083
 10
-5195.659373624518
 20
-3886.32905507099
 10
-5195.666001804906
 20
-3886.350804157637
 42
-0.001201843768606
 10
-5195.680700235287
 20
-3886.398621722924
 10
-5195.685932220271
 20
-3886.415498095504
 42
-0.0002690999170069
 10
-5195.69028916856
 20
-3886.429525239644
 10
-5195.97358475839
 20
-3887.338465423741
 10
-5196.155383647588
 20
-3887.338465423741
 10
-5195.530158705983
 20
-3885.274037466071
  0
SPLINE
  5
4B
330
23
100
AcDbEntity
  8
0
  6
Continuous
 62
     7
370
    15
390
1D
100
AcDbSpline
210
0.0
220
0.0
230
1.0
 70
    15
 71
     2
 72
   782
 73
   779
 74
     0
 42
0.000000001
 43
0.000001
 40
0.0
 40
0.0
 40
0.0
 40
1.0
 40
1.0
 40
2.0
 40
2.0
 40
3.0
 40
3.0
 40
4.0
 40
4.0
 40
5.0
 40
5.0
 40
6.0
 40
6.0
 40
7.0
 40
7.0
 40
8.0
 40
8.0
 40
9.0
 40
9.0
 40
10.0
 40
10.0
 40
11.0
 40
11.0
 40
12.0
 40
12.0
 40
13.0
 40
13.0
 40
14.0
 40
14.0
 40
15.0
 40
15.0
 40
16.0
 40
16.0
 40
17.0
 40
17.0
 40
18.0
 40
18.0
 40
19.0
 40
19.0
 40
20.0
 40
20.0
 40
21.0
 40
21.0
 40
22.0
 40
22.0
 40
23.0
 40
23.0
 40
24.0
 40
24.0
 40
25.0
 40
25.0
 40
26.0
 40
26.0
 40
27.0
 40
27.0
 40
28.0
 40
28.0
 40
29.0
 40
29.0
 40
30.0
 40
30.0
 40
31.0
 40
31.0
 40
32.0
 40
32.0
 40
33.0
 40
33.0
 40
34.0
 40
34.0
 40
35.0
 40
35.0
 40
36.0
 40
36.0
 40
37.0
 40
37.0
 40
38.0
 40
38.0
 40
39.0
 40
39.0
 40
40.0
 40
40.0
 40
41.0
 40
41.0
 40
42.0
 40
42.0
 40
43.0
 40
43.0
 40
44.0
 40
44.0
 40
45.0
 40
45.0
 40
46.0
 40
46.0
 40
47.0
 40
47.0
 40
48.0
 40
48.0
 40
49.0
 40
49.0
 40
50.0
 40
50.0
 40
51.0
 40
51.0
 40
52.0
 40
52.0
 40
53.0
 40
53.0
 40
54.0
 40
54.0
 40
55.0
 40
55.0
 40
56.0
 40
56.0
 40
57.0
 40
57.0
 40
58.0
 40
58.0
 40
59.0
 40
59.0
 40
60.0
 40
60.0
 40
61.0
 40
61.0
 40
62.0
 40
62.0
 40
63.0
 40
63.0
 40
64.0
 40
64.0
 40
65.0
 40
65.0
 40
66.0
 40
66.0
 40
67.0
 40
67.0
 40
68.0
 40
68.0
 40
69.0
 40
69.0
 40
70.0
 40
70.0
 40
71.0
 40
71.0
 40
72.0
 40
72.0
 40
73.0
 40
73.0
 40
74.0
 40
74.0
 40
75.0
 40
75.0
 40
76.0
 40
76.0
 40
77.0
 40
77.0
 40
78.0
 40
78.0
 40
79.0
 40
79.0
 40
80.0
 40
80.0
 40
81.0
 40
81.0
 40
82.0
 40
82.0
 40
83.0
 40
83.0
 40
84.0
 40
84.0
 40
85.0
 40
85.0
 40
86.0
 40
86.0
 40
87.0
 40
87.0
 40
88.0
 40
88.0
 40
89.0
 40
89.0
 40
90.0
 40
90.0
 40
91.0
 40
91.0
 40
92.0
 40
92.0
 40
93.0
 40
93.0
 40
94.0
 40
94.0
 40
95.0
 40
95.0
 40
96.0
 40
96.0
 40
97.0
 40
97.0
 40
98.0
 40
98.0
 40
99.0
 40
99.0
 40
100.0
 40
100.0
 40
101.0
 40
101.0
 40
102.0
 40
102.0
 40
103.0
 40
103.0
 40
104.0
 40
104.0
 40
105.0
 40
105.0
 40
106.0
 40
106.0
 40
107.0
 40
107.0
 40
108.0
 40
108.0
 40
109.0
 40
109.0
 40
110.0
 40
110.0
 40
111.0
 40
111.0
 40
112.0
 40
112.0
 40
113.0
 40
113.0
 40
114.0
 40
114.0
 40
115.0
 40
115.0
 40
116.0
 40
116.0
 40
117.0
 40
117.0
 40
118.0
 40
118.0
 40
119.0
 40
119.0
 40
120.0
 40
120.0
 40
121.0
 40
121.0
 40
122.0
 40
122.0
 40
123.0
 40
123.0
 40
124.0
 40
124.0
 40
125.0
 40
125.0
 40
126.0
 40
126.0
 40
127.0
 40
127.0
 40
128.0
 40
128.0
 40
129.0
 40
129.0
 40
130.0
 40
130.0
 40
131.0
 40
131.0
 40
132.0
 40
132.0
 40
133.0
 40
133.0
 40
134.0
 40
134.0
 40
135.0
 40
135.0
 40
136.0
 40
136.0
 40
137.0
 40
137.0
 40
138.0
 40
138.0
 40
139.0
 40
139.0
 40
140.0
 40
140.0
 40
141.0
 40
141.0
 40
142.0
 40
142.0
 40
143.0
 40
143.0
 40
144.0
 40
144.0
 40
145.0
 40
145.0
 40
146.0
 40
146.0
 40
147.0
 40
147.0
 40
148.0
 40
148.0
 40
149.0
 40
149.0
 40
150.0
 40
150.0
 40
151.0
 40
151.0
 40
152.0
 40
152.0
 40
153.0
 40
153.0
 40
154.0
 40
154.0
 40
155.0
 40
155.0
 40
156.0
 40
156.0
 40
157.0
 40
157.0
 40
158.0
 40
158.0
 40
159.0
 40
159.0
 40
160.0
 40
160.0
 40
161.0
 40
161.0
 40
162.0
 40
162.0
 40
163.0
 40
163.0
 40
164.0
 40
164.0
 40
165.0
 40
165.0
 40
166.0
 40
166.0
 40
167.0
 40
167.0
 40
168.0
 40
168.0
 40
169.0
 40
169.0
 40
170.0
 40
170.0
 40
171.0
 40
171.0
 40
172.0
 40
172.0
 40
173.0
 40
173.0
 40
174.0
 40
174.0
 40
175.0
 40
175.0
 40
176.0
 40
176.0
 40
177.0
 40
177.0
 40
178.0
 40
178.0
 40
179.0
 40
179.0
 40
180.0
 40
180.0
 40
181.0
 40
181.0
 40
182.0
 40
182.0
 40
183.0
 40
183.0
 40
184.0
 40
184.0
 40
185.0
 40
185.0
 40
186.0
 40
186.0
 40
187.0
 40
187.0
 40
188.0
 40
188.0
 40
189.0
 40
189.0
 40
190.0
 40
190.0
 40
191.0
 40
191.0
 40
192.0
 40
192.0
 40
193.0
 40
193.0
 40
194.0
 40
194.0
 40
195.0
 40
195.0
 40
196.0
 40
196.0
 40
197.0
 40
197.0
 40
198.0
 40
198.0
 40
199.0
 40
199.0
 40
200.0
 40
200.0
 40
201.0
 40
201.0
 40
202.0
 40
202.0
 40
203.0
 40
203.0
 40
204.0
 40
204.0
 40
205.0
 40
205.0
 40
206.0
 40
206.0
 40
207.0
 40
207.0
 40
208.0
 40
208.0
 40
209.0
 40
209.0
 40
210.0
 40
210.0
 40
211.0
 40
211.0
 40
212.0
 40
212.0
 40
213.0
 40
213.0
 40
214.0
 40
214.0
 40
215.0
 40
215.0
 40
216.0
 40
216.0
 40
217.0
 40
217.0
 40
218.0
 40
218.0
 40
219.0
 40
219.0
 40
220.0
 40
220.0
 40
221.0
 40
221.0
 40
222.0
 40
222.0
 40
223.0
 40
223.0
 40
224.0
 40
224.0
 40
225.0
 40
225.0
 40
226.0
 40
226.0
 40
227.0
 40
227.0
 40
228.0
 40
228.0
 40
229.0
 40
229.0
 40
230.0
 40
230.0
 40
231.0
 40
231.0
 40
232.0
 40
232.0
 40
233.0
 40
233.0
 40
234.0
 40
234.0
 40
235.0
 40
235.0
 40
236.0
 40
236.0
 40
237.0
 40
237.0
 40
238.0
 40
238.0
 40
239.0
 40
239.0
 40
240.0
 40
240.0
 40
241.0
 40
241.0
 40
242.0
 40
242.0
 40
243.0
 40
243.0
 40
244.0
 40
244.0
 40
245.0
 40
245.0
 40
246.0
 40
246.0
 40
247.0
 40
247.0
 40
248.0
 40
248.0
 40
249.0
 40
249.0
 40
250.0
 40
250.0
 40
251.0
 40
251.0
 40
252.0
 40
252.0
 40
253.0
 40
253.0
 40
254.0
 40
254.0
 40
255.0
 40
255.0
 40
256.0
 40
256.0
 40
257.0
 40
257.0
 40
258.0
 40
258.0
 40
259.0
 40
259.0
 40
260.0
 40
260.0
 40
261.0
 40
261.0
 40
262.0
 40
262.0
 40
263.0
 40
263.0
 40
264.0
 40
264.0
 40
265.0
 40
265.0
 40
266.0
 40
266.0
 40
267.0
 40
267.0
 40
268.0
 40
268.0
 40
269.0
 40
269.0
 40
270.0
 40
270.0
 40
271.0
 40
271.0
 40
272.0
 40
272.0
 40
273.0
 40
273.0
 40
274.0
 40
274.0
 40
275.0
 40
275.0
 40
276.0
 40
276.0
 40
277.0
 40
277.0
 40
278.0
 40
278.0
 40
279.0
 40
279.0
 40
280.0
 40
280.0
 40
281.0
 40
281.0
 40
282.0
 40
282.0
 40
283.0
 40
283.0
 40
284.0
 40
284.0
 40
285.0
 40
285.0
 40
286.0
 40
286.0
 40
287.0
 40
287.0
 40
288.0
 40
288.0
 40
289.0
 40
289.0
 40
290.0
 40
290.0
 40
291.0
 40
291.0
 40
292.0
 40
292.0
 40
293.0
 40
293.0
 40
294.0
 40
294.0
 40
295.0
 40
295.0
 40
296.0
 40
296.0
 40
297.0
 40
297.0
 40
298.0
 40
298.0
 40
299.0
 40
299.0
 40
300.0
 40
300.0
 40
301.0
 40
301.0
 40
302.0
 40
302.0
 40
303.0
 40
303.0
 40
304.0
 40
304.0
 40
305.0
 40
305.0
 40
306.0
 40
306.0
 40
307.0
 40
307.0
 40
308.0
 40
308.0
 40
309.0
 40
309.0
 40
310.0
 40
310.0
 40
311.0
 40
311.0
 40
312.0
 40
312.0
 40
313.0
 40
313.0
 40
314.0
 40
314.0
 40
315.0
 40
315.0
 40
316.0
 40
316.0
 40
317.0
 40
317.0
 40
318.0
 40
318.0
 40
319.0
 40
319.0
 40
320.0
 40
320.0
 40
321.0
 40
321.0
 40
322.0
 40
322.0
 40
323.0
 40
323.0
 40
324.0
 40
324.0
 40
325.0
 40
325.0
 40
326.0
 40
326.0
 40
327.0
 40
327.0
 40
328.0
 40
328.0
 40
329.0
 40
329.0
 40
330.0
 40
330.0
 40
331.0
 40
331.0
 40
332.0
 40
332.0
 40
333.0
 40
333.0
 40
334.0
 40
334.0
 40
335.0
 40
335.0
 40
336.0
 40
336.0
 40
337.0
 40
337.0
 40
338.0
 40
338.0
 40
339.0
 40
339.0
 40
340.0
 40
340.0
 40
341.0
 40
341.0
 40
342.0
 40
342.0
 40
343.0
 40
343.0
 40
344.0
 40
344.0
 40
345.0
 40
345.0
 40
346.0
 40
346.0
 40
347.0
 40
347.0
 40
348.0
 40
348.0
 40
349.0
 40
349.0
 40
350.0
 40
350.0
 40
351.0
 40
351.0
 40
352.0
 40
352.0
 40
353.0
 40
353.0
 40
354.0
 40
354.0
 40
355.0
 40
355.0
 40
356.0
 40
356.0
 40
357.0
 40
357.0
 40
358.0
 40
358.0
 40
359.0
 40
359.0
 40
360.0
 40
360.0
 40
361.0
 40
361.0
 40
362.0
 40
362.0
 40
363.0
 40
363.0
 40
364.0
 40
364.0
 40
365.0
 40
365.0
 40
366.0
 40
366.0
 40
367.0
 40
367.0
 40
368.0
 40
368.0
 40
369.0
 40
369.0
 40
370.0
 40
370.0
 40
371.0
 40
371.0
 40
372.0
 40
372.0
 40
373.0
 40
373.0
 40
374.0
 40
374.0
 40
375.0
 40
375.0
 40
376.0
 40
376.0
 40
377.0
 40
377.0
 40
378.0
 40
378.0
 40
379.0
 40
379.0
 40
380.0
 40
380.0
 40
381.0
 40
381.0
 40
382.0
 40
382.0
 40
383.0
 40
383.0
 40
384.0
 40
384.0
 40
385.0
 40
385.0
 40
386.0
 40
386.0
 40
387.0
 40
387.0
 40
388.0
 40
388.0
 40
389.0
 40
389.0
 40
389.0
 10
-5194.49728826091
 20
-3885.272944800013
 30
0.0
 41
1.0
 10
-5194.415445850038
 20
-3885.272944800013
 30
0.0
 41
1.0
 10
-5194.333603439166
 20
-3885.272944800013
 30
0.0
 41
1.0
 10
-5194.374978812717
 20
-3885.407211078584
 30
0.0
 41
1.0
 10
-5194.416354186269
 20
-3885.541477357154
 30
0.0
 41
1.0
 10
-5194.414520236724
 20
-3885.538607201748
 30
0.0
 41
0.9999957265357948
 10
-5194.412669536744
 20
-3885.535747818496
 30
0.0
 41
1.0
 10
-5194.409626604493
 20
-3885.531046403028
 30
0.0
 41
1.0
 10
-5194.406583672242
 20
-3885.52634498756
 30
0.0
 41
1.0
 10
-5194.398647107733
 20
-3885.514082773331
 30
0.0
 41
0.9995394157574671
 10
-5194.389981255203
 20
-3885.502324629178
 30
0.0
 41
1.0
 10
-5194.386405563892
 20
-3885.497473001053
 30
0.0
 41
1.0
 10
-5194.382829872582
 20
-3885.492621372928
 30
0.0
 41
1.0
 10
-5194.369457229341
 20
-3885.474476883811
 30
0.0
 41
0.9994460686945578
 10
-5194.354907181214
 20
-3885.457262175794
 30
0.0
 41
1.0
 10
-5194.354468350697
 20
-3885.456742978939
 30
0.0
 41
1.0
 10
-5194.354029520179
 20
-3885.456223782085
 30
0.0
 41
1.0
 10
-5194.340357133082
 20
-3885.440047467773
 30
0.0
 41
0.9994359425608249
 10
-5194.325629710049
 20
-3885.424825433608
 30
0.0
 41
1.0
 10
-5194.325391362772
 20
-3885.424579081589
 30
0.0
 41
1.0
 10
-5194.325153015495
 20
-3885.424332729571
 30
0.0
 41
1.0
 10
-5194.310902287014
 20
-3885.409603399441
 30
0.0
 41
0.9995293681317343
 10
-5194.295775118916
 20
-3885.395775702101
 30
0.0
 41
1.0
 10
-5194.293845735667
 20
-3885.39401205887
 30
0.0
 41
1.0
 10
-5194.291916352418
 20
-3885.392248415639
 30
0.0
 41
1.0
 10
-5194.280647950826
 20
-3885.381948004767
 30
0.0
 41
0.9997087593017181
 10
-5194.268895661922
 20
-3885.372203311618
 30
0.0
 41
1.0
 10
-5194.266979052696
 20
-3885.370614108956
 30
0.0
 41
1.0
 10
-5194.265062443469
 20
-3885.369024906295
 30
0.0
 41
1.0
 10
-5194.257143373015
 20
-3885.362458618465
 30
0.0
 41
0.9999595334226565
 10
-5194.249107445941
 20
-3885.356035870706
 30
0.0
 41
1.0
 10
-5194.241071518833
 20
-3885.349613122918
 30
0.0
 41
0.9999749414311601
 10
-5194.232945462332
 20
-3885.343304793552
 30
0.0
 41
1.0
 10
-5194.230846847825
 20
-3885.341675620592
 30
0.0
 41
1.0
 10
-5194.228748233318
 20
-3885.340046447632
 30
0.0
 41
1.0
 10
-5194.220291447634
 20
-3885.333481370282
 30
0.0
 41
0.9999792034176587
 10
-5194.211750687682
 20
-3885.327025916543
 30
0.0
 41
1.0
 10
-5194.209668205202
 20
-3885.325451891586
 30
0.0
 41
1.0
 10
-5194.207585722721
 20
-3885.32387786663
 30
0.0
 41
1.0
 10
-5194.203209927684
 20
-3885.32057046277
 30
0.0
 41
0.9999993374137447
 10
-5194.198841759091
 20
-3885.317252993006
 30
0.0
 41
1.0
 10
-5194.194473590473
 20
-3885.313935523223
 30
0.0
 41
0.999916094043152
 10
-5194.190020946377
 20
-3885.310732327413
 30
0.0
 41
1.0
 10
-5194.186738759138
 20
-3885.308371148711
 30
0.0
 41
1.0
 10
-5194.1834565719
 20
-3885.306009970008
 30
0.0
 41
1.0
 10
-5194.172439553327
 20
-3885.298084416791
 30
0.0
 41
0.9980964080856877
 10
-5194.160530618012
 20
-3885.291575472801
 30
0.0
 41
1.0
 10
-5194.156827354298
 20
-3885.289551418134
 30
0.0
 41
1.0
 10
-5194.153124090583
 20
-3885.287527363468
 30
0.0
 41
1.0
 10
-5194.135191431261
 20
-3885.277726094752
 30
0.0
 41
0.9984572283045612
 10
-5194.116282574625
 20
-3885.269973657747
 30
0.0
 41
1.0
 10
-5194.11591793238
 20
-3885.269824158171
 30
0.0
 41
1.0
 10
-5194.115553290136
 20
-3885.269674658596
 30
0.0
 41
1.0
 10
-5194.097373717987
 20
-3885.262221220739
 30
0.0
 41
0.9987838014315489
 10
-5194.078548452133
 20
-3885.256594503672
 30
0.0
 41
1.0
 10
-5194.078124647192
 20
-3885.256467831862
 30
0.0
 41
1.0
 10
-5194.07770084225
 20
-3885.256341160053
 30
0.0
 41
1.0
 10
-5194.059723186281
 20
-3885.250967786606
 30
0.0
 41
0.9990652369194073
 10
-5194.041348593106
 20
-3885.247167315275
 30
0.0
 41
1.0
 10
-5194.04082974721
 20
-3885.247060000847
 30
0.0
 41
1.0
 10
-5194.040310901314
 20
-3885.246952686419
 30
0.0
 41
1.0
 10
-5194.022973999928
 20
-3885.243366843943
 30
0.0
 41
0.9992909570069662
 10
-5194.005416423288
 20
-3885.241095738922
 30
0.0
 41
1.0
 10
-5193.987858846641
 20
-3885.2388246339
 30
0.0
 41
0.9994553248790765
 10
-5193.970189697317
 20
-3885.237716672964
 30
0.0
 41
1.0
 10
-5193.966646258776
 20
-3885.237494478256
 30
0.0
 41
1.0
 10
-5193.963102820234
 20
-3885.237272283548
 30
0.0
 41
1.0
 10
-5193.946480245123
 20
-3885.236229949051
 30
0.0
 41
0.9990927605803298
 10
-5193.929829265928
 20
-3885.236605923401
 30
0.0
 41
1.0
 10
-5193.925973082743
 20
-3885.236692994915
 30
0.0
 41
1.0
 10
-5193.92211689956
 20
-3885.236780066429
 30
0.0
 41
1.0
 10
-5193.913178286713
 20
-3885.236981897753
 30
0.0
 41
0.9998382001501224
 10
-5193.904252718458
 20
-3885.237505124636
 30
0.0
 41
1.0
 10
-5193.904209728689
 20
-3885.237507644745
 30
0.0
 41
1.0
 10
-5193.90416673892
 20
-3885.237510164854
 30
0.0
 41
1.0
 10
-5193.89532715018
 20
-3885.238028351521
 30
0.0
 41
0.9997557885673709
 10
-5193.88651909246
 20
-3885.238936627764
 30
0.0
 41
1.0
 10
-5193.8864714802
 20
-3885.238941537482
 30
0.0
 41
1.0
 10
-5193.886423867941
 20
-3885.238946447201
 30
0.0
 41
1.0
 10
-5193.877711034738
 20
-3885.239844904007
 30
0.0
 41
0.9996564963599399
 10
-5193.869057249405
 20
-3885.241198671499
 30
0.0
 41
1.0
 10
-5193.869010659449
 20
-3885.241205959866
 30
0.0
 41
1.0
 10
-5193.868964069495
 20
-3885.241213248234
 30
0.0
 41
1.0
 10
-5193.860403464069
 20
-3885.242552438992
 30
0.0
 41
0.9995321569895773
 10
-5193.851940756038
 20
-3885.24441253843
 30
0.0
 41
1.0
 10
-5193.851901840445
 20
-3885.24442109206
 30
0.0
 41
1.0
 10
-5193.851862924852
 20
-3885.24442964569
 30
0.0
 41
1.0
 10
-5193.843478048
 20
-3885.246272637871
 30
0.0
 41
0.9993818904913712
 10
-5193.835243394586
 20
-3885.248700242229
 30
0.0
 41
1.0
 10
-5193.835219556613
 20
-3885.248707269745
 30
0.0
 41
1.0
 10
-5193.835195718641
 20
-3885.248714297262
 30
0.0
 41
1.0
 10
-5193.827008741173
 20
-3885.251127846584
 30
0.0
 41
0.9992088227004936
 10
-5193.819039489268
 20
-3885.254184453308
 30
0.0
 41
1.0
 10
-5193.811071383428
 20
-3885.257240499809
 30
0.0
 41
0.9990225757087273
 10
-5193.803404323189
 20
-3885.260988341614
 30
0.0
 41
1.0
 10
-5193.795738409009
 20
-3885.264735623199
 30
0.0
 41
0.9988423937267461
 10
-5193.788468062326
 20
-3885.269202212366
 30
0.0
 41
1.0
 10
-5193.788441283468
 20
-3885.269218664147
 30
0.0
 41
1.0
 10
-5193.788414504612
 20
-3885.269235115928
 30
0.0
 41
1.0
 10
-5193.78109060021
 20
-3885.273734608661
 30
0.0
 41
0.9986928590028333
 10
-5193.774264331237
 20
-3885.278958310635
 30
0.0
 41
1.0
 10
-5193.774206193168
 20
-3885.279002799937
 30
0.0
 41
1.0
 10
-5193.774148055099
 20
-3885.279047289239
 30
0.0
 41
1.0
 10
-5193.767205509981
 20
-3885.284359969824
 30
0.0
 41
0.9986007142261379
 10
-5193.760862910995
 20
-3885.290376193376
 30
0.0
 41
1.0
 10
-5193.760773460455
 20
-3885.290461040998
 30
0.0
 41
1.0
 10
-5193.760684009916
 20
-3885.29054588862
 30
0.0
 41
1.0
 10
-5193.754162509847
 20
-3885.296731807419
 30
0.0
 41
0.9985581534077502
 10
-5193.748341765625
 20
-3885.303581222813
 30
0.0
 41
1.0
 10
-5193.747415911792
 20
-3885.304670698189
 30
0.0
 41
1.0
 10
-5193.746490057958
 20
-3885.305760173565
 30
0.0
 41
1.0
 10
-5193.73881760607
 20
-3885.314788539707
 30
0.0
 41
0.9970460730325489
 10
-5193.732618440507
 20
-3885.32488548278
 30
0.0
 41
1.0
 10
-5193.731171496096
 20
-3885.327242205665
 30
0.0
 41
1.0
 10
-5193.729724551686
 20
-3885.32959892855
 30
0.0
 41
1.0
 10
-5193.725750872935
 20
-3885.336071091251
 30
0.0
 41
0.9988469152254329
 10
-5193.722416235861
 20
-3885.342894522095
 30
0.0
 41
1.0
 10
-5193.721712634325
 20
-3885.34433425191
 30
0.0
 41
1.0
 10
-5193.721009032789
 20
-3885.345773981726
 30
0.0
 41
1.0
 10
-5193.719081598787
 20
-3885.349717952937
 30
0.0
 41
0.9998431244770245
 10
-5193.717295066036
 20
-3885.353727717453
 30
0.0
 41
1.0
 10
-5193.715508533291
 20
-3885.357737481958
 30
0.0
 41
0.9999989990286059
 10
-5193.713710660848
 20
-3885.36174217487
 30
0.0
 41
1.0
 10
-5193.713093429737
 20
-3885.36311703384
 30
0.0
 41
1.0
 10
-5193.712476198625
 20
-3885.364491892812
 30
0.0
 41
1.0
 10
-5193.709443863972
 20
-3885.371246303637
 30
0.0
 41
0.9998790401540805
 10
-5193.706623077701
 20
-3885.378091760806
 30
0.0
 41
1.0
 10
-5193.705939559518
 20
-3885.3797505162
 30
0.0
 41
1.0
 10
-5193.705256041335
 20
-3885.381409271594
 30
0.0
 41
1.0
 10
-5193.70290027346
 20
-3885.387126226562
 30
0.0
 41
0.9998227645488028
 10
-5193.700761398617
 20
-3885.392927815207
 30
0.0
 41
1.0
 10
-5193.698622523781
 20
-3885.398729403835
 30
0.0
 41
0.9996798109024266
 10
-5193.696779896834
 20
-3885.40463177133
 30
0.0
 41
1.0
 10
-5193.696389515786
 20
-3885.405882253648
 30
0.0
 41
1.0
 10
-5193.695999134737
 20
-3885.407132735965
 30
0.0
 41
1.0
 10
-5193.693375745695
 20
-3885.415536068089
 30
0.0
 41
0.9979275937538792
 10
-5193.691853295786
 20
-3885.424206725914
 30
0.0
 41
1.0
 10
-5193.691630926102
 20
-3885.425473165898
 30
0.0
 41
1.0
 10
-5193.691408556419
 20
-3885.426739605883
 30
0.0
 41
1.0
 10
-5193.690315561924
 20
-3885.432964428925
 30
0.0
 41
0.9994986243791968
 10
-5193.689618745408
 20
-3885.439245949888
 30
0.0
 41
1.0
 10
-5193.688921928891
 20
-3885.44552747086
 30
0.0
 41
0.999637280569238
 10
-5193.688564342401
 20
-3885.451837398821
 30
0.0
 41
1.0
 10
-5193.688547484609
 20
-3885.452134869394
 30
0.0
 41
1.0
 10
-5193.688530626816
 20
-3885.452432339966
 30
0.0
 41
1.0
 10
-5193.688139324741
 20
-3885.459337209089
 30
0.0
 41
0.9997730753858063
 10
-5193.6880424934
 20
-3885.466252479049
 30
0.0
 41
1.0
 10
-5193.688036782754
 20
-3885.466660308319
 30
0.0
 41
1.0
 10
-5193.688031072109
 20
-3885.467068137588
 30
0.0
 41
1.0
 10
-5193.687922819477
 20
-3885.474799066084
 30
0.0
 41
0.9998772680820308
 10
-5193.688056828149
 20
-3885.482529591015
 30
0.0
 41
1.0
 10
-5193.68806575447
 20
-3885.483044521417
 30
0.0
 41
1.0
 10
-5193.688074680789
 20
-3885.483559451819
 30
0.0
 41
1.0
 10
-5193.688226542102
 20
-3885.492319837503
 30
0.0
 41
0.9999415599069967
 10
-5193.688567773136
 20
-3885.501074892076
 30
0.0
 41
1.0
 10
-5193.688591905199
 20
-3885.501694054776
 30
0.0
 41
1.0
 10
-5193.688616037262
 20
-3885.502313217475
 30
0.0
 41
1.0
 10
-5193.68900553242
 20
-3885.512306597376
 30
0.0
 41
0.999971682577626
 10
-5193.68954539075
 20
-3885.522292983172
 30
0.0
 41
1.0
 10
-5193.689866670638
 20
-3885.528236069983
 30
0.0
 41
1.0
 10
-5193.690187950528
 20
-3885.534179156794
 30
0.0
 41
1.0
 10
-5193.690995341409
 20
-3885.549114402541
 30
0.0
 41
0.9999819139669768
 10
-5193.691982320568
 20
-3885.564038856228
 30
0.0
 41
1.0
 10
-5193.692969299729
 20
-3885.578963309956
 30
0.0
 41
1.0
 10
-5193.693213231786
 20
-3885.582682715711
 30
0.0
 41
1.0
 10
-5193.690943408464
 20
-3885.578808510701
 30
0.0
 41
0.9999982128753189
 10
-5193.688658952381
 20
-3885.574942915807
 30
0.0
 41
1.0
 10
-5193.685967996465
 20
-3885.570389470668
 30
0.0
 41
1.0
 10
-5193.683277040551
 20
-3885.565836025528
 30
0.0
 41
1.0
 10
-5193.675610672711
 20
-3885.55286354048
 30
0.0
 41
0.9998609224304151
 10
-5193.667515934882
 20
-3885.540153946305
 30
0.0
 41
1.0
 10
-5193.664551103198
 20
-3885.535498847115
 30
0.0
 41
1.0
 10
-5193.661586271514
 20
-3885.530843747926
 30
0.0
 41
1.0
 10
-5193.653359055099
 20
-3885.517926148363
 30
0.0
 41
0.9999067629912384
 10
-5193.644782154145
 20
-3885.505238034281
 30
0.0
 41
1.0
 10
-5193.6445416806
 20
-3885.504882293229
 30
0.0
 41
1.0
 10
-5193.644301207056
 20
-3885.504526552177
 30
0.0
 41
1.0
 10
-5193.636205253198
 20
-3885.492549920209
 30
0.0
 41
0.9998784974855363
 10
-5193.62773989223
 20
-3885.48083147979
 30
0.0
 41
1.0
 10
-5193.619274531273
 20
-3885.46911303938
 30
0.0
 41
0.9998532990734452
 10
-5193.610412761277
 20
-3885.457691427658
 30
0.0
 41
1.0
 10
-5193.608416573282
 20
-3885.45511861385
 30
0.0
 41
1.0
 10
-5193.606420385287
 20
-3885.452545800042
 30
0.0
 41
1.0
 10
-5193.594572006406
 20
-3885.437274857197
 30
0.0
 41
0.999155205293189
 10
-5193.581509561443
 20
-3885.423028513478
 30
0.0
 41
1.0
 10
-5193.581158592217
 20
-3885.422645734584
 30
0.0
 41
1.0
 10
-5193.580807622991
 20
-3885.42226295569
 30
0.0
 41
1.0
 10
-5193.56844711648
 20
-3885.408782169756
 30
0.0
 41
0.9997418149955325
 10
-5193.555486902511
 20
-3885.395876877663
 30
0.0
 41
1.0
 10
-5193.542526688539
 20
-3885.382971585565
 30
0.0
 41
0.9989238147993746
 10
-5193.528426398338
 20
-3885.37132274328
 30
0.0
 41
1.0
 10
-5193.523901632509
 20
-3885.367584644079
 30
0.0
 41
1.0
 10
-5193.519376866679
 20
-3885.363846544879
 30
0.0
 41
1.0
 10
-5193.505352892368
 20
-3885.352260750356
 30
0.0
 41
0.999082494847992
 10
-5193.490388899106
 20
-3885.341917569229
 30
0.0
 41
1.0
 10
-5193.489384356484
 20
-3885.341223224738
 30
0.0
 41
1.0
 10
-5193.488379813863
 20
-3885.340528880247
 30
0.0
 41
1.0
 10
-5193.475424905847
 20
-3885.331574388105
 30
0.0
 41
0.9998164861010231
 10
-5193.462136485507
 20
-3885.32312273406
 30
0.0
 41
1.0
 10
-5193.460951923543
 20
-3885.322369333155
 30
0.0
 41
1.0
 10
-5193.459767361578
 20
-3885.321615932249
 30
0.0
 41
1.0
 10
-5193.448848065169
 20
-3885.314671080017
 30
0.0
 41
0.9997473385343698
 10
-5193.437627669446
 20
-3885.308224008871
 30
0.0
 41
1.0
 10
-5193.426407273727
 20
-3885.301776937727
 30
0.0
 41
0.9999327842002926
 10
-5193.41504040655
 20
-3885.295591766999
 30
0.0
 41
1.0
 10
-5193.414985209341
 20
-3885.295561731972
 30
0.0
 41
1.0
 10
-5193.414930012132
 20
-3885.295531696945
 30
0.0
 41
1.0
 10
-5193.403452750552
 20
-3885.28928645617
 30
0.0
 41
0.9996956323855903
 10
-5193.39168140514
 20
-3885.283614949023
 30
0.0
 41
1.0
 10
-5193.388637366894
 20
-3885.282148312536
 30
0.0
 41
1.0
 10
-5193.385593328647
 20
-3885.28068167605
 30
0.0
 41
1.0
 10
-5193.375295626304
 20
-3885.275720179264
 30
0.0
 41
0.9998070501610744
 10
-5193.364810987413
 20
-3885.271166996724
 30
0.0
 41
1.0
 10
-5193.354326348513
 20
-3885.266613814181
 30
0.0
 41
0.999782735195103
 10
-5193.343661046381
 20
-3885.262501581929
 30
0.0
 41
1.0
 10
-5193.341738765656
 20
-3885.261760406039
 30
0.0
 41
1.0
 10
-5193.339816484931
 20
-3885.261019230149
 30
0.0
 41
1.0
 10
-5193.325306621346
 20
-3885.255424646115
 30
0.0
 41
0.998803131992397
 10
-5193.310319561359
 20
-3885.251274520243
 30
0.0
 41
1.0
 10
-5193.307827837933
 20
-3885.250584527284
 30
0.0
 41
1.0
 10
-5193.305336114508
 20
-3885.249894534325
 30
0.0
 41
1.0
 10
-5193.288609132845
 20
-3885.24526259988
 30
0.0
 41
0.9984747287980457
 10
-5193.271473441981
 20
-3885.242503101594
 30
0.0
 41
1.0
 10
-5193.2709995233
 20
-3885.242426782652
 30
0.0
 41
1.0
 10
-5193.270525604618
 20
-3885.242350463711
 30
0.0
 41
1.0
 10
-5193.254337751117
 20
-3885.239743603306
 30
0.0
 41
0.9984435668883144
 10
-5193.237960276743
 20
-3885.238955786495
 30
0.0
 41
1.0
 10
-5193.235790555961
 20
-3885.238851414938
 30
0.0
 41
1.0
 10
-5193.233620835179
 20
-3885.23874704338
 30
0.0
 41
1.0
 10
-5193.221582802373
 20
-3885.238167969684
 30
0.0
 41
0.9987954135201145
 10
-5193.20954597788
 20
-3885.238771638879
 30
0.0
 41
1.0
 10
-5193.20754949925
 20
-3885.238871766005
 30
0.0
 41
1.0
 10
-5193.205553020618
 20
-3885.238971893132
 30
0.0
 41
1.0
 10
-5193.197509153385
 20
-3885.239375308074
 30
0.0
 41
0.9997941485030771
 10
-5193.189488275581
 20
-3885.240104734507
 30
0.0
 41
1.0
 10
-5193.181467397799
 20
-3885.240834160936
 30
0.0
 41
0.9998589391268657
 10
-5193.173475544671
 20
-3885.241832573344
 30
0.0
 41
1.0
 10
-5193.170234923697
 20
-3885.242237420147
 30
0.0
 41
1.0
 10
-5193.166994302723
 20
-3885.24264226695
 30
0.0
 41
1.0
 10
-5193.152521207678
 20
-3885.244450372961
 30
0.0
 41
0.9993494727733789
 10
-5193.138216092132
 20
-3885.247297019609
 30
0.0
 41
1.0
 10
-5193.134922721241
 20
-3885.24795238399
 30
0.0
 41
1.0
 10
-5193.13162935035
 20
-3885.248607748372
 30
0.0
 41
1.0
 10
-5193.120699961564
 20
-3885.25078264223
 30
0.0
 41
0.9996788557834221
 10
-5193.109894804353
 20
-3885.253508496316
 30
0.0
 41
1.0
 10
-5193.109688508574
 20
-3885.25356053926
 30
0.0
 41
1.0
 10
-5193.109482212796
 20
-3885.253612582203
 30
0.0
 41
1.0
 10
-5193.099089647161
 20
-3885.256234350396
 30
0.0
 41
0.9995480445595352
 10
-5193.088873423634
 20
-3885.259475934234
 30
0.0
 41
1.0
 10
-5193.088704465365
 20
-3885.259529544298
 30
0.0
 41
1.0
 10
-5193.088535507094
 20
-3885.259583154362
 30
0.0
 41
1.0
 10
-5193.078657200108
 20
-3885.262717518071
 30
0.0
 41
0.9993867701242043
 10
-5193.069022484267
 20
-3885.266535558852
 30
0.0
 41
1.0
 10
-5193.068898196891
 20
-3885.266584811397
 30
0.0
 41
1.0
 10
-5193.068773909515
 20
-3885.266634063941
 30
0.0
 41
1.0
 10
-5193.059387768416
 20
-3885.270353599638
 30
0.0
 41
0.9992049966383294
 10
-5193.05032780092
 20
-3885.274809110751
 30
0.0
 41
1.0
 10
-5193.050254341677
 20
-3885.27484523654
 30
0.0
 41
1.0
 10
-5193.050180882435
 20
-3885.274881362329
 30
0.0
 41
1.0
 10
-5193.041267833423
 20
-3885.279264621865
 30
0.0
 41
0.9990222064871854
 10
-5193.032776827276
 20
-3885.284418088817
 30
0.0
 41
1.0
 10
-5193.032758448893
 20
-3885.284429243253
 30
0.0
 41
1.0
 10
-5193.032740070511
 20
-3885.284440397689
 30
0.0
 41
1.0
 10
-5193.024285821138
 20
-3885.289571555765
 30
0.0
 41
0.9988642512493484
 10
-5193.016358367676
 20
-3885.295484135344
 30
0.0
 41
1.0
 10
-5193.008430914215
 20
-3885.301396714923
 30
0.0
 41
0.99876811070992
 10
-5193.001128555122
 20
-3885.308065947812
 30
0.0
 41
1.0
 10
-5193.001095652657
 20
-3885.308095997581
 30
0.0
 41
1.0
 10
-5193.001062750192
 20
-3885.30812604735
 30
0.0
 41
1.0
 10
-5192.993694586174
 20
-3885.314855379773
 30
0.0
 41
0.9987496577297401
 10
-5192.98703522373
 20
-3885.322286843137
 30
0.0
 41
1.0
 10
-5192.986957997708
 20
-3885.322373022911
 30
0.0
 41
1.0
 10
-5192.986880771687
 20
-3885.322459202685
 30
0.0
 41
1.0
 10
-5192.980066957206
 20
-3885.330063025591
 30
0.0
 41
0.9988147802014767
 10
-5192.974024747426
 20
-3885.338293328838
 30
0.0
 41
1.0
 10
-5192.973912806996
 20
-3885.338445806777
 30
0.0
 41
1.0
 10
-5192.973800866564
 20
-3885.338598284716
 30
0.0
 41
1.0
 10
-5192.967534775923
 20
-3885.347133543843
 30
0.0
 41
0.9989452857289322
 10
-5192.962078097182
 20
-3885.356207638702
 30
0.0
 41
1.0
 10
-5192.961943218297
 20
-3885.356431933342
 30
0.0
 41
1.0
 10
-5192.961808339413
 20
-3885.356656227981
 30
0.0
 41
1.0
 10
-5192.9560819029
 20
-3885.366178912127
 30
0.0
 41
0.9991046699633154
 10
-5192.951180991042
 20
-3885.376151607417
 30
0.0
 41
1.0
 10
-5192.951034600146
 20
-3885.376449493166
 30
0.0
 41
1.0
 10
-5192.95088820925
 20
-3885.376747378914
 30
0.0
 41
1.0
 10
-5192.945694515595
 20
-3885.387315845712
 30
0.0
 41
0.9992764094321367
 10
-5192.941319209457
 20
-3885.398248532501
 30
0.0
 41
1.0
 10
-5192.941171279134
 20
-3885.398618169696
 30
0.0
 41
1.0
 10
-5192.941023348812
 20
-3885.39898780689
 30
0.0
 41
1.0
 10
-5192.936352182022
 20
-3885.41065976808
 30
0.0
 41
0.9994163716936887
 10
-5192.932488883487
 20
-3885.422623438154
 30
0.0
 41
1.0
 10
-5192.932365067356
 20
-3885.423006865769
 30
0.0
 41
1.0
 10
-5192.932241251226
 20
-3885.423390293383
 30
0.0
 41
1.0
 10
-5192.928252892352
 20
-3885.435741244067
 30
0.0
 41
0.9997268180318162
 10
-5192.924846086762
 20
-3885.448265087918
 30
0.0
 41
1.0
 10
-5192.924753069772
 20
-3885.448607030016
 30
0.0
 41
1.0
 10
-5192.924660052783
 20
-3885.448948972114
 30
0.0
 41
1.0
 10
-5192.92143928117
 20
-3885.460788931774
 30
0.0
 41
0.9996701478107386
 10
-5192.918830719495
 20
-3885.472778653227
 30
0.0
 41
1.0
 10
-5192.916222157818
 20
-3885.484768374678
 30
0.0
 41
0.9995785664697078
 10
-5192.914313801175
 20
-3885.496889273546
 30
0.0
 41
1.0
 10
-5192.913891823255
 20
-3885.499569460038
 30
0.0
 41
1.0
 10
-5192.913469845334
 20
-3885.502249646531
 30
0.0
 41
1.0
 10
-5192.910812346054
 20
-3885.519128713735
 30
0.0
 41
0.9979926171311947
 10
-5192.910309787461
 20
-3885.536208311124
 30
0.0
 41
1.0
 10
-5192.910227306218
 20
-3885.539011459725
 30
0.0
 41
1.0
 10
-5192.910144824976
 20
-3885.541814608325
 30
0.0
 41
1.0
 10
-5192.909807228868
 20
-3885.553287908493
 30
0.0
 41
0.9995315156950024
 10
-5192.910172248083
 20
-3885.564760368946
 30
0.0
 41
1.0
 10
-5192.910537267296
 20
-3885.576232829371
 30
0.0
 41
0.99962456896463
 10
-5192.911530176983
 20
-3885.587668069534
 30
0.0
 41
1.0
 10
-5192.911546481695
 20
-3885.587855849259
 30
0.0
 41
1.0
 10
-5192.911562786408
 20
-3885.588043628984
 30
0.0
 41
1.0
 10
-5192.912588305519
 20
-3885.599854428582
 30
0.0
 41
0.9997286239019909
 10
-5192.914162838312
 20
-3885.611604642331
 30
0.0
 41
1.0
 10
-5192.914202187359
 20
-3885.611898291168
 30
0.0
 41
1.0
 10
-5192.914241536408
 20
-3885.612191940005
 30
0.0
 41
1.0
 10
-5192.915894767299
 20
-3885.624529451447
 30
0.0
 41
0.9998265623988154
 10
-5192.918006313816
 20
-3885.636796836348
 30
0.0
 41
1.0
 10
-5192.918073967707
 20
-3885.637189883009
 30
0.0
 41
1.0
 10
-5192.918141621596
 20
-3885.637582929669
 30
0.0
 41
1.0
 10
-5192.920388475896
 20
-3885.650636407914
 30
0.0
 41
0.9999022580443411
 10
-5192.922999423073
 20
-3885.663621961556
 30
0.0
 41
1.0
 10
-5192.923097286832
 20
-3885.664108687254
 30
0.0
 41
1.0
 10
-5192.92319515059
 20
-3885.664595412952
 30
0.0
 41
1.0
 10
-5192.926001825279
 20
-3885.678554417962
 30
0.0
 41
0.9999524785576283
 10
-5192.929080122816
 20
-3885.692456048369
 30
0.0
 41
1.0
 10
-5192.92920773321
 20
-3885.69303233851
 30
0.0
 41
1.0
 10
-5192.929335343603
 20
-3885.693608628651
 30
0.0
 41
1.0
 10
-5192.932668861935
 20
-3885.708662839367
 30
0.0
 41
0.9999813597863588
 10
-5192.936185962529
 20
-3885.723675221178
 30
0.0
 41
1.0
 10
-5192.936341354811
 20
-3885.724338497137
 30
0.0
 41
1.0
 10
-5192.936496747093
 20
-3885.725001773096
 30
0.0
 41
1.0
 10
-5192.940324632283
 20
-3885.741340706957
 30
0.0
 41
0.9999955239907686
 10
-5192.944250220379
 20
-3885.757656442358
 30
0.0
 41
1.0
 10
-5192.945478383785
 20
-3885.762760999598
 30
0.0
 41
1.0
 10
-5192.946706547189
 20
-3885.767865556839
 30
0.0
 41
1.0
 10
-5192.953088462122
 20
-3885.794390406835
 30
0.0
 41
0.9999993604793435
 10
-5192.959530357008
 20
-3885.820900753698
 30
0.0
 41
1.0
 10
-5192.960002240474
 20
-3885.822842696961
 30
0.0
 41
1.0
 10
-5192.96047412394
 20
-3885.824784640223
 30
0.0
 41
1.0
 10
-5192.967859785761
 20
-3885.855178873627
 30
0.0
 41
0.9999659931021543
 10
-5192.97574574702
 20
-3885.885447158016
 30
0.0
 41
1.0
 10
-5192.97624101508
 20
-3885.887348120244
 30
0.0
 41
1.0
 10
-5192.97673628314
 20
-3885.889249082474
 30
0.0
 41
1.0
 10
-5192.985612780513
 20
-3885.923319291298
 30
0.0
 41
0.9999442002205526
 10
-5192.9952070866
 20
-3885.957194365108
 30
0.0
 41
1.0
 10
-5192.996877137048
 20
-3885.963090891826
 30
0.0
 41
1.0
 10
-5192.998547187496
 20
-3885.968987418544
 30
0.0
 41
1.0
 10
-5193.011481594464
 20
-3886.014655545745
 30
0.0
 41
0.9999625137910925
 10
-5193.025204874672
 20
-3886.06009284658
 30
0.0
 41
1.0
 10
-5193.028783867989
 20
-3886.071942768283
 30
0.0
 41
1.0
 10
-5193.032362861304
 20
-3886.083792689986
 30
0.0
 41
1.0
 10
-5193.039814880237
 20
-3886.108466064061
 30
0.0
 41
0.9999793395588148
 10
-5193.047583482545
 20
-3886.133041596438
 30
0.0
 41
1.0
 10
-5193.055352084858
 20
-3886.157617128834
 30
0.0
 41
1.0
 10
-5193.056430040745
 20
-3886.161019011806
 30
0.0
 41
1.0
 10
-5193.241467346072
 20
-3886.749742217773
 30
0.0
 41
1.0
 10
-5193.426504651399
 20
-3887.338465423741
 30
0.0
 41
1.0
 10
-5193.522630320402
 20
-3887.338465423741
 30
0.0
 41
1.0
 10
-5193.618755989403
 20
-3887.338465423741
 30
0.0
 41
1.0
 10
-5193.456861511535
 20
-3886.82364857015
 30
0.0
 41
1.0
 10
-5193.294967033667
 20
-3886.30883171656
 30
0.0
 41
1.0
 10
-5193.29045045246
 20
-3886.294428206087
 30
0.0
 41
1.0
 10
-5193.285933871253
 20
-3886.280024695614
 30
0.0
 41
1.0
 10
-5193.268903427303
 20
-3886.225714108349
 30
0.0
 41
0.999991166186356
 10
-5193.252330146129
 20
-3886.17126227406
 30
0.0
 41
1.0
 10
-5193.24936055231
 20
-3886.161505616415
 30
0.0
 41
1.0
 10
-5193.246390958493
 20
-3886.15174895877
 30
0.0
 41
1.0
 10
-5193.235756865
 20
-3886.116810439923
 30
0.0
 41
0.9999952430305956
 10
-5193.225338506028
 20
-3886.081806985236
 30
0.0
 41
1.0
 10
-5193.224832559514
 20
-3886.080107113314
 30
0.0
 41
1.0
 10
-5193.224326613
 20
-3886.078407241393
 30
0.0
 41
1.0
 10
-5193.214920147103
 20
-3886.046803530705
 30
0.0
 41
0.9999931690639734
 10
-5193.205747563308
 20
-3886.01513114784
 30
0.0
 41
1.0
 10
-5193.205254037409
 20
-3886.013427032447
 30
0.0
 41
1.0
 10
-5193.204760511509
 20
-3886.011722917055
 30
0.0
 41
1.0
 10
-5193.196574979528
 20
-3885.983458765022
 30
0.0
 41
0.99998938457229
 10
-5193.188650256876
 20
-3885.95512038125
 30
0.0
 41
1.0
 10
-5193.180725534226
 20
-3885.926781997484
 30
0.0
 41
0.9999833987843199
 10
-5193.173127911365
 20
-3885.898354170462
 30
0.0
 41
1.0
 10
-5193.172227518196
 20
-3885.89498519286
 30
0.0
 41
1.0
 10
-5193.171327125027
 20
-3885.891616215258
 30
0.0
 41
1.0
 10
-5193.164430667924
 20
-3885.865811921833
 30
0.0
 41
0.9999233694699217
 10
-5193.158175170803
 20
-3885.839844799641
 30
0.0
 41
1.0
 10
-5193.151919673681
 20
-3885.813877677443
 30
0.0
 41
1.0
 10
-5193.147971331795
 20
-3885.797496565422
 30
0.0
 41
1.0
 10
-5193.147473471591
 20
-3885.795431013856
 30
0.0
 41
1.0
 10
-5193.146975611387
 20
-3885.793365462289
 30
0.0
 41
1.0
 10
-5193.144022989922
 20
-3885.781115453453
 30
0.0
 41
0.99998686772446
 10
-5193.141196081509
 20
-3885.76883582482
 30
0.0
 41
1.0
 10
-5193.140806332944
 20
-3885.767142820676
 30
0.0
 41
1.0
 10
-5193.140416584377
 20
-3885.765449816532
 30
0.0
 41
1.0
 10
-5193.138369173103
 20
-3885.756556196211
 30
0.0
 41
0.9999778184278793
 10
-5193.136440413298
 20
-3885.747636091884
 30
0.0
 41
1.0
 10
-5193.134511653495
 20
-3885.738715987564
 30
0.0
 41
0.9999602712700205
 10
-5193.132742217981
 20
-3885.72976291696
 30
0.0
 41
1.0
 10
-5193.132421834594
 20
-3885.728141826474
 30
0.0
 41
1.0
 10
-5193.132101451209
 20
-3885.726520735987
 30
0.0
 41
1.0
 10
-5193.129691248929
 20
-3885.714325484442
 30
0.0
 41
0.9995618210602134
 10
-5193.128006915088
 20
-3885.70200898109
 30
0.0
 41
1.0
 10
-5193.127760466092
 20
-3885.700206850292
 30
0.0
 41
1.0
 10
-5193.127514017095
 20
-3885.698404719493
 30
0.0
 41
1.0
 10
-5193.125485690122
 20
-3885.683572804745
 30
0.0
 41
0.9991121884543892
 10
-5193.124713154763
 20
-3885.668622788205
 30
0.0
 41
1.0
 10
-5193.124621275769
 20
-3885.666844756351
 30
0.0
 41
1.0
 10
-5193.124529396775
 20
-3885.665066724497
 30
0.0
 41
1.0
 10
-5193.123940619403
 20
-3885.653672771659
 30
0.0
 41
0.9989793049275475
 10
-5193.124382528616
 20
-3885.642272177977
 30
0.0
 41
1.0
 10
-5193.124447325823
 20
-3885.640600507399
 30
0.0
 41
1.0
 10
-5193.124512123029
 20
-3885.63892883682
 30
0.0
 41
1.0
 10
-5193.124824437827
 20
-3885.630871584312
 30
0.0
 41
0.999782041310693
 10
-5193.125472837565
 20
-3885.62283439349
 30
0.0
 41
1.0
 10
-5193.126121237304
 20
-3885.614797202682
 30
0.0
 41
0.9998335194753848
 10
-5193.127062457042
 20
-3885.606789021631
 30
0.0
 41
1.0
 10
-5193.127221949415
 20
-3885.605432012468
 30
0.0
 41
1.0
 10
-5193.127381441789
 20
-3885.604075003305
 30
0.0
 41
1.0
 10
-5193.128641646276
 20
-3885.593352803902
 30
0.0
 41
0.9996876620910233
 10
-5193.130436038242
 20
-3885.582706967493
 30
0.0
 41
1.0
 10
-5193.130659204642
 20
-3885.581382957448
 30
0.0
 41
1.0
 10
-5193.130882371041
 20
-3885.580058947403
 30
0.0
 41
1.0
 10
-5193.132261952325
 20
-3885.571874115462
 30
0.0
 41
0.9995547720046124
 10
-5193.134127284515
 20
-3885.563786145741
 30
0.0
 41
1.0
 10
-5193.134164680971
 20
-3885.563623996928
 30
0.0
 41
1.0
 10
-5193.134202077425
 20
-3885.563461848115
 30
0.0
 41
1.0
 10
-5193.135992616704
 20
-3885.555698176022
 30
0.0
 41
0.9994899668174738
 10
-5193.138275107573
 20
-3885.548064640101
 30
0.0
 41
1.0
 10
-5193.138320961521
 20
-3885.547911286686
 30
0.0
 41
1.0
 10
-5193.138366815471
 20
-3885.547757933271
 30
0.0
 41
1.0
 10
-5193.140557598443
 20
-3885.540431104173
 30
0.0
 41
0.999378514617082
 10
-5193.143259161951
 20
-3885.533276839062
 30
0.0
 41
1.0
 10
-5193.143312333015
 20
-3885.533136031753
 30
0.0
 41
1.0
 10
-5193.143365504079
 20
-3885.532995224445
 30
0.0
 41
1.0
 10
-5193.14596072546
 20
-3885.526122573951
 30
0.0
 41
0.9992431118853924
 10
-5193.149082378977
 20
-3885.51947247785
 30
0.0
 41
1.0
 10
-5193.14914059346
 20
-3885.519348462836
 30
0.0
 41
1.0
 10
-5193.149198807943
 20
-3885.519224447822
 30
0.0
 41
1.0
 10
-5193.152204032492
 20
-3885.512822381759
 30
0.0
 41
0.9990789918262655
 10
-5193.155747095172
 20
-3885.506701554089
 30
0.0
 41
1.0
 10
-5193.155806669783
 20
-3885.506598635805
 30
0.0
 41
1.0
 10
-5193.155866244396
 20
-3885.506495717521
 30
0.0
 41
1.0
 10
-5193.15929015785
 20
-3885.500580726423
 30
0.0
 41
0.9988875051344468
 10
-5193.163256085452
 20
-3885.495014603779
 30
0.0
 41
1.0
 10
-5193.163311643302
 20
-3885.494936629131
 30
0.0
 41
1.0
 10
-5193.163367201153
 20
-3885.494858654482
 30
0.0
 41
1.0
 10
-5193.167222013055
 20
-3885.489448481135
 30
0.0
 41
0.9986762224365523
 10
-5193.171612260183
 20
-3885.484462974081
 30
0.0
 41
1.0
 10
-5193.171656662687
 20
-3885.48441255118
 30
0.0
 41
1.0
 10
-5193.171701065192
 20
-3885.484362128278
 30
0.0
 41
1.0
 10
-5193.176002507306
 20
-3885.479477467032
 30
0.0
 41
0.9984621655765381
 10
-5193.180818262988
 20
-3885.475099017883
 30
0.0
 41
1.0
 10
-5193.180842933871
 20
-3885.4750765873
 30
0.0
 41
1.0
 10
-5193.180867604752
 20
-3885.475054156719
 30
0.0
 41
1.0
 10
-5193.185634018665
 20
-3885.470720568739
 30
0.0
 41
0.9982724496031647
 10
-5193.19087588185
 20
-3885.466976031833
 30
0.0
 41
1.0
 10
-5193.196117745034
 20
-3885.463231494928
 30
0.0
 41
0.9981398739227929
 10
-5193.201776368228
 20
-3885.460152750069
 30
0.0
 41
1.0
 10
-5193.201780926009
 20
-3885.46015027027
 30
0.0
 41
1.0
 10
-5193.20178548379
 20
-3885.460147790472
 30
0.0
 41
1.0
 10
-5193.207453222552
 20
-3885.457064086013
 30
0.0
 41
0.9980926421988378
 10
-5193.213457773082
 20
-3885.454702334821
 30
0.0
 41
1.0
 10
-5193.213501782338
 20
-3885.454685024797
 30
0.0
 41
1.0
 10
-5193.213545791594
 20
-3885.454667714773
 30
0.0
 41
1.0
 10
-5193.219638360648
 20
-3885.452271343528
 30
0.0
 41
0.9981410540208242
 10
-5193.225977225103
 20
-3885.450634031661
 30
0.0
 41
1.0
 10
-5193.226065430613
 20
-3885.450611248412
 30
0.0
 41
1.0
 10
-5193.226153636123
 20
-3885.450588465163
 30
0.0
 41
1.0
 10
-5193.232668911604
 20
-3885.448905586795
 30
0.0
 41
0.9983030960921214
 10
-5193.239335662507
 20
-3885.447991624721
 30
0.0
 41
1.0
 10
-5193.240222762373
 20
-3885.447870009912
 30
0.0
 41
1.0
 10
-5193.24110986224
 20
-3885.447748395103
 30
0.0
 41
1.0
 10
-5193.246544823836
 20
-3885.4470033022
 30
0.0
 41
0.9983886844802522
 10
-5193.252029208763
 20
-3885.446878831452
 30
0.0
 41
1.0
 10
-5193.252835549315
 20
-3885.446860531166
 30
0.0
 41
1.0
 10
-5193.253641889867
 20
-3885.44684223088
 30
0.0
 41
1.0
 10
-5193.257513593699
 20
-3885.446754360702
 30
0.0
 41
0.999886950157306
 10
-5193.261386189013
 20
-3885.446782948417
 30
0.0
 41
1.0
 10
-5193.265258784328
 20
-3885.446811536131
 30
0.0
 41
0.9999972318599666
 10
-5193.269131202235
 20
-3885.446858347356
 30
0.0
 41
1.0
 10
-5193.271066503903
 20
-3885.446881742002
 30
0.0
 41
1.0
 10
-5193.27300180557
 20
-3885.446905136647
 30
0.0
 41
1.0
 10
-5193.280744826791
 20
-3885.446998737163
 30
0.0
 41
0.9997304798883965
 10
-5193.288475156731
 20
-3885.447451658821
 30
0.0
 41
1.0
 10
-5193.289380121251
 20
-3885.447504680883
 30
0.0
 41
1.0
 10
-5193.290285085772
 20
-3885.447557702944
 30
0.0
 41
1.0
 10
-5193.299825344734
 20
-3885.448116668726
 30
0.0
 41
0.9997888193006748
 10
-5193.309334576642
 20
-3885.449067190862
 30
0.0
 41
1.0
 10
-5193.310206683638
 20
-3885.44915436478
 30
0.0
 41
1.0
 10
-5193.311078790635
 20
-3885.449241538698
 30
0.0
 41
1.0
 10
-5193.322332236537
 20
-3885.450366408671
 30
0.0
 41
0.9984169420424382
 10
-5193.333388140911
 20
-3885.452748079416
 30
0.0
 41
1.0
 10
-5193.337026247811
 20
-3885.453531802979
 30
0.0
 41
1.0
 10
-5193.340664354711
 20
-3885.454315526543
 30
0.0
 41
1.0
 10
-5193.352183484308
 20
-3885.456796985593
 30
0.0
 41
0.9976591779907577
 10
-5193.363256300949
 20
-3885.460826962926
 30
0.0
 41
1.0
 10
-5193.37432911759
 20
-3885.46485694026
 30
0.0
 41
0.9993254811592432
 10
-5193.385076282509
 20
-3885.469688754813
 30
0.0
 41
1.0
 10
-5193.385538807881
 20
-3885.469896701451
 30
0.0
 41
1.0
 10
-5193.386001333252
 20
-3885.47010464809
 30
0.0
 41
1.0
 10
-5193.397673548917
 20
-3885.475352355921
 30
0.0
 41
0.9976474370243762
 10
-5193.408518249788
 20
-3885.482147318688
 30
0.0
 41
1.0
 10
-5193.410352499369
 20
-3885.483296604201
 30
0.0
 41
1.0
 10
-5193.412186748949
 20
-3885.484445889715
 30
0.0
 41
1.0
 10
-5193.420606981326
 20
-3885.489721753584
 30
0.0
 41
0.9995131236052514
 10
-5193.428681752825
 20
-3885.495512532294
 30
0.0
 41
1.0
 10
-5193.436756524326
 20
-3885.501303311008
 30
0.0
 41
0.9995810047160868
 10
-5193.444482677378
 20
-3885.507551639734
 30
0.0
 41
1.0
 10
-5193.444779686357
 20
-3885.507791838152
 30
0.0
 41
1.0
 10
-5193.445076695336
 20
-3885.508032036569
 30
0.0
 41
1.0
 10
-5193.453396866351
 20
-3885.514760762136
 30
0.0
 41
0.9996617808890742
 10
-5193.461355923951
 20
-3885.52191299225
 30
0.0
 41
1.0
 10
-5193.462569000264
 20
-3885.523003096303
 30
0.0
 41
1.0
 10
-5193.463782076577
 20
-3885.524093200355
 30
0.0
 41
1.0
 10
-5193.47060963798
 20
-3885.530228636575
 30
0.0
 41
0.9997267741142993
 10
-5193.477142988808
 20
-3885.536676465613
 30
0.0
 41
1.0
 10
-5193.483676339649
 20
-3885.543124294663
 30
0.0
 41
0.9999667289017208
 10
-5193.490103631123
 20
-3885.549677850718
 30
0.0
 41
1.0
 10
-5193.496986377315
 20
-3885.55669580893
 30
0.0
 41
1.0
 10
-5193.503869123506
 20
-3885.563713767142
 30
0.0
 41
1.0
 10
-5193.524061907376
 20
-3885.584303239632
 30
0.0
 41
0.9988205409678612
 10
-5193.542162421637
 20
-3885.606754214686
 30
0.0
 41
1.0
 10
-5193.545226441845
 20
-3885.610554672523
 30
0.0
 41
1.0
 10
-5193.548290462055
 20
-3885.614355130359
 30
0.0
 41
1.0
 10
-5193.572519016739
 20
-3885.644407021091
 30
0.0
 41
0.9997077867922233
 10
-5193.595266782962
 20
-3885.67559480924
 30
0.0
 41
1.0
 10
-5193.595439138916
 20
-3885.675831113805
 30
0.0
 41
1.0
 10
-5193.59561149487
 20
-3885.67606741837
 30
0.0
 41
1.0
 10
-5193.618703973005
 20
-3885.707727815652
 30
0.0
 41
0.9989147798577557
 10
-5193.638750276633
 20
-3885.741399599295
 30
0.0
 41
1.0
 10
-5193.641224406368
 20
-3885.745555395928
 30
0.0
 41
1.0
 10
-5193.643698536102
 20
-3885.749711192561
 30
0.0
 41
1.0
 10
-5193.659219682218
 20
-3885.775782067451
 30
0.0
 41
0.999747666893953
 10
-5193.673554180971
 20
-3885.802523769709
 30
0.0
 41
1.0
 10
-5193.687888679725
 20
-3885.829265471966
 30
0.0
 41
0.9996259088801696
 10
-5193.700739489604
 20
-3885.856750980503
 30
0.0
 41
1.0
 10
-5193.702059483683
 20
-3885.859574204011
 30
0.0
 41
1.0
 10
-5193.703379477763
 20
-3885.862397427518
 30
0.0
 41
1.0
 10
-5193.717400358911
 20
-3885.892385502365
 30
0.0
 41
0.9998735459705791
 10
-5193.730460493578
 20
-3885.922804289713
 30
0.0
 41
1.0
 10
-5193.730804773713
 20
-3885.923606163851
 30
0.0
 41
1.0
 10
-5193.731149053849
 20
-3885.924408037989
 30
0.0
 41
1.0
 10
-5193.743520628246
 20
-3885.953223077066
 30
0.0
 41
0.9999377442721022
 10
-5193.755246108467
 20
-3885.982307014947
 30
0.0
 41
1.0
 10
-5193.766971588688
 20
-3886.011390952828
 30
0.0
 41
0.9999508319134642
 10
-5193.778117978944
 20
-3886.040701707055
 30
0.0
 41
1.0
 10
-5193.77842605785
 20
-3886.041511837048
 30
0.0
 41
1.0
 10
-5193.778734136755
 20
-3886.042321967042
 30
0.0
 41
1.0
 10
-5193.79049668483
 20
-3886.073252981275
 30
0.0
 41
0.9999609244565367
 10
-5193.801710541609
 20
-3886.104387120013
 30
0.0
 41
1.0
 10
-5193.802006144396
 20
-3886.10520783124
 30
0.0
 41
1.0
 10
-5193.802301747182
 20
-3886.106028542468
 30
0.0
 41
1.0
 10
-5193.814106809541
 20
-3886.138804103677
 30
0.0
 41
0.9999674621224004
 10
-5193.825381559057
 20
-3886.171765853225
 30
0.0
 41
1.0
 10
-5193.830521397429
 20
-3886.186792179521
 30
0.0
 41
1.0
 10
-5193.835661235801
 20
-3886.201818505817
 30
0.0
 41
1.0
 10
-5193.847262300943
 20
-3886.235734239658
 30
0.0
 41
0.9999287563498412
 10
-5193.858050441332
 20
-3886.269917243335
 30
0.0
 41
1.0
 10
-5193.862698167073
 20
-3886.284643898753
 30
0.0
 41
1.0
 10
-5193.867345892815
 20
-3886.29937055417
 30
0.0
 41
1.0
 10
-5193.868838581906
 20
-3886.304100247595
 30
0.0
 41
0.9999998223422711
 10
-5193.870325632603
 20
-3886.30883171656
 30
0.0
 41
1.0
 10
-5194.032391246282
 20
-3886.82364857015
 30
0.0
 41
1.0
 10
-5194.194456859961
 20
-3887.338465423741
 30
0.0
 41
1.0
 10
-5194.28498770435
 20
-3887.338465423741
 30
0.0
 41
1.0
 10
-5194.375518548739
 20
-3887.338465423741
 30
0.0
 41
1.0
 10
-5194.1903101076
 20
-3886.749742217773
 30
0.0
 41
1.0
 10
-5194.005101666462
 20
-3886.161019011806
 30
0.0
 41
1.0
 10
-5194.004089490631
 20
-3886.157814603298
 30
0.0
 41
1.0
 10
-5193.996828723746
 20
-3886.134784022666
 30
0.0
 41
1.0
 10
-5193.989567956859
 20
-3886.111753442026
 30
0.0
 41
0.9999825689787155
 10
-5193.982579654195
 20
-3886.088638727938
 30
0.0
 41
1.0
 10
-5193.977750548501
 20
-3886.072665836841
 30
0.0
 41
1.0
 10
-5193.972921442807
 20
-3886.056692945743
 30
0.0
 41
1.0
 10
-5193.963206205172
 20
-3886.024558541869
 30
0.0
 41
0.9999672543944367
 10
-5193.954012324614
 20
-3885.992271109082
 30
0.0
 41
1.0
 10
-5193.95373343677
 20
-3885.991291699736
 30
0.0
 41
1.0
 10
-5193.953454548925
 20
-3885.990312290391
 30
0.0
 41
1.0
 10
-5193.944818444028
 20
-3885.959983676197
 30
0.0
 41
0.9999899753812251
 10
-5193.936454283099
 20
-3885.929578940404
 30
0.0
 41
1.0
 10
-5193.935443692262
 20
-3885.92590532058
 30
0.0
 41
1.0
 10
-5193.934433101424
 20
-3885.922231700756
 30
0.0
 41
1.0
 10
-5193.928090122151
 20
-3885.899174204546
 30
0.0
 41
0.9999214237772748
 10
-5193.922327179307
 20
-3885.875964938996
 30
0.0
 41
1.0
 10
-5193.921050594299
 20
-3885.870823711459
 30
0.0
 41
1.0
 10
-5193.919774009292
 20
-3885.865682483921
 30
0.0
 41
1.0
 10
-5193.916564236449
 20
-3885.852755673381
 30
0.0
 41
0.9999828689943896
 10
-5193.91350601127
 20
-3885.839792173401
 30
0.0
 41
1.0
 10
-5193.910447786079
 20
-3885.826828673371
 30
0.0
 41
0.9999389874494
 10
-5193.90767668792
 20
-3885.8138007768
 30
0.0
 41
1.0
 10
-5193.906962913185
 20
-3885.810445073428
 30
0.0
 41
1.0
 10
-5193.906249138448
 20
-3885.807089370056
 30
0.0
 41
1.0
 10
-5193.902050490823
 20
-3885.787350066767
 30
0.0
 41
0.9998933753083523
 10
-5193.898430065476
 20
-3885.767496571955
 30
0.0
 41
1.0
 10
-5193.898292782408
 20
-3885.766743746414
 30
0.0
 41
1.0
 10
-5193.898155499341
 20
-3885.765990920874
 30
0.0
 41
1.0
 10
-5193.894260507859
 20
-3885.744631774984
 30
0.0
 41
0.9996850468268839
 10
-5193.89144214141
 20
-3885.723104097863
 30
0.0
 41
1.0
 10
-5193.891242637954
 20
-3885.721580220089
 30
0.0
 41
1.0
 10
-5193.891043134498
 20
-3885.720056342314
 30
0.0
 41
1.0
 10
-5193.888302347311
 20
-3885.699121242965
 30
0.0
 41
0.9994698219431964
 10
-5193.886929891391
 20
-3885.678052150341
 30
0.0
 41
1.0
 10
-5193.886882184535
 20
-3885.677319784267
 30
0.0
 41
1.0
 10
-5193.88683447768
 20
-3885.676587418192
 30
0.0
 41
1.0
 10
-5193.885557435469
 20
-3885.656983057721
 30
0.0
 41
0.9991805337881144
 10
-5193.885870267095
 20
-3885.637339638398
 30
0.0
 41
1.0
 10
-5193.885878655026
 20
-3885.636812940836
 30
0.0
 41
1.0
 10
-5193.885887042958
 20
-3885.636286243272
 30
0.0
 41
1.0
 10
-5193.886183098723
 20
-3885.617696219088
 30
0.0
 41
0.9988448951525196
 10
-5193.888262253286
 20
-3885.599220457547
 30
0.0
 41
1.0
 10
-5193.888421661493
 20
-3885.597803925997
 30
0.0
 41
1.0
 10
-5193.888581069701
 20
-3885.596387394447
 30
0.0
 41
1.0
 10
-5193.890341407847
 20
-3885.580744696018
 30
0.0
 41
0.9985503953477518
 10
-5193.893773035077
 20
-3885.565381859719
 30
0.0
 41
1.0
 10
-5193.894531635384
 20
-3885.561985729679
 30
0.0
 41
1.0
 10
-5193.89529023569
 20
-3885.558589599639
 30
0.0
 41
1.0
 10
-5193.897204662305
 20
-3885.550019023442
 30
0.0
 41
0.9991037202979197
 10
-5193.899837148472
 20
-3885.54164108681
 30
0.0
 41
1.0
 10
-5193.900235371466
 20
-3885.540373734659
 30
0.0
 41
1.0
 10
-5193.90063359446
 20
-3885.539106382508
 30
0.0
 41
1.0
 10
-5193.902469634639
 20
-3885.533263150191
 30
0.0
 41
0.9998874553519391
 10
-5193.904480155406
 20
-3885.527477632599
 30
0.0
 41
1.0
 10
-5193.906490676172
 20
-3885.521692115008
 30
0.0
 41
0.9994041877140039
 10
-5193.908895540499
 20
-3885.516059084293
 30
0.0
 41
1.0
 10
-5193.909315219777
 20
-3885.515076049099
 30
0.0
 41
1.0
 10
-5193.909734899056
 20
-3885.514093013904
 30
0.0
 41
1.0
 10
-5193.912522777411
 20
-3885.507562830796
 30
0.0
 41
0.9991847120322346
 10
-5193.915828413081
 20
-3885.501278856739
 30
0.0
 41
1.0
 10
-5193.915942077099
 20
-3885.501062782794
 30
0.0
 41
1.0
 10
-5193.916055741117
 20
-3885.500846708849
 30
0.0
 41
1.0
 10
-5193.919134048745
 20
-3885.494994882691
 30
0.0
 41
0.9989253452654171
 10
-5193.922740991155
 20
-3885.489453239107
 30
0.0
 41
1.0
 10
-5193.922846408188
 20
-3885.489291278211
 30
0.0
 41
1.0
 10
-5193.922951825221
 20
-3885.489129317314
 30
0.0
 41
1.0
 10
-5193.92634793356
 20
-3885.483911595532
 30
0.0
 41
0.9986467398895812
 10
-5193.930267648824
 20
-3885.479074860605
 30
0.0
 41
1.0
 10
-5193.930355067418
 20
-3885.47896699038
 30
0.0
 41
1.0
 10
-5193.930442486012
 20
-3885.478859120156
 30
0.0
 41
1.0
 10
-5193.934187364087
 20
-3885.474238125681
 30
0.0
 41
0.9984001187086898
 10
-5193.938430037139
 20
-3885.470069501553
 30
0.0
 41
1.0
 10
-5193.938488757523
 20
-3885.470011806037
 30
0.0
 41
1.0
 10
-5193.938547477906
 20
-3885.469954110522
 30
0.0
 41
1.0
 10
-5193.942672710192
 20
-3885.465900877424
 30
0.0
 41
0.9982442029717176
 10
-5193.947248320324
 20
-3885.462363925092
 30
0.0
 41
1.0
 10
-5193.947269806655
 20
-3885.462347316132
 30
0.0
 41
1.0
 10
-5193.947291292985
 20
-3885.462330707172
 30
0.0
 41
1.0
 10
-5193.951823930453
 20
-3885.458826972763
 30
0.0
 41
0.9982449713750728
 10
-5193.956739028366
 20
-3885.455883714396
 30
0.0
 41
1.0
 10
-5193.961654126278
 20
-3885.452940456031
 30
0.0
 41
0.9983922143217779
 10
-5193.966870770099
 20
-3885.450572422159
 30
0.0
 41
1.0
 10
-5193.966893451226
 20
-3885.45056212633
 30
0.0
 41
1.0
 10
-5193.966916132355
 20
-3885.4505518305
 30
0.0
 41
1.0
 10
-5193.972178138434
 20
-3885.448163204966
 30
0.0
 41
0.9986516610743479
 10
-5193.977659446246
 20
-3885.446333039758
 30
0.0
 41
1.0
 10
-5193.977727233127
 20
-3885.446310406256
 30
0.0
 41
1.0
 10
-5193.977795020008
 20
-3885.446287772754
 30
0.0
 41
1.0
 10
-5193.983411901592
 20
-3885.444412340538
 30
0.0
 41
0.9989435110470053
 10
-5193.98917724787
 20
-3885.443060531773
 30
0.0
 41
1.0
 10
-5193.989285256041
 20
-3885.443035206946
 30
0.0
 41
1.0
 10
-5193.989393264212
 20
-3885.44300988212
 30
0.0
 41
1.0
 10
-5193.995374626842
 20
-3885.441607423699
 30
0.0
 41
0.9992248850435057
 10
-5194.001447782573
 20
-3885.440679863457
 30
0.0
 41
1.0
 10
-5194.001589148982
 20
-3885.440658272399
 30
0.0
 41
1.0
 10
-5194.001730515392
 20
-3885.44063668134
 30
0.0
 41
1.0
 10
-5194.008086403936
 20
-3885.439665938983
 30
0.0
 41
0.9994396301711482
 10
-5194.01449300033
 20
-3885.439122631737
 30
0.0
 41
1.0
 10
-5194.016407065709
 20
-3885.438960310666
 30
0.0
 41
1.0
 10
-5194.018321131089
 20
-3885.438797989595
 30
0.0
 41
1.0
 10
-5194.028555858242
 20
-3885.437930040207
 30
0.0
 41
0.998769273643573
 10
-5194.038826222531
 20
-3885.43808035067
 30
0.0
 41
1.0
 10
-5194.039851653379
 20
-3885.438095358218
 30
0.0
 41
1.0
 10
-5194.040877084227
 20
-3885.438110365766
 30
0.0
 41
1.0
 10
-5194.051832664063
 20
-3885.438270704602
 30
0.0
 41
0.9989753092341644
 10
-5194.062728864061
 20
-3885.439421036585
 30
0.0
 41
1.0
 10
-5194.073625064061
 20
-3885.440571368567
 30
0.0
 41
0.9983189203213623
 10
-5194.084314934369
 20
-3885.442974930699
 30
0.0
 41
1.0
 10
-5194.085205034925
 20
-3885.443175065212
 30
0.0
 41
1.0
 10
-5194.086095135481
 20
-3885.443375199725
 30
0.0
 41
1.0
 10
-5194.098565206898
 20
-3885.446179030883
 30
0.0
 41
0.9985538719030955
 10
-5194.110662163806
 20
-3885.450305504433
 30
0.0
 41
1.0
 10
-5194.110896716133
 20
-3885.450385514139
 30
0.0
 41
1.0
 10
-5194.111131268459
 20
-3885.450465523846
 30
0.0
 41
1.0
 10
-5194.123697330016
 20
-3885.454752016809
 30
0.0
 41
0.9988468289790523
 10
-5194.135794342658
 20
-3885.460223964391
 30
0.0
 41
1.0
 10
-5194.136112635652
 20
-3885.460367940646
 30
0.0
 41
1.0
 10
-5194.136430928646
 20
-3885.460511916902
 30
0.0
 41
1.0
 10
-5194.149164527276
 20
-3885.466271816995
 30
0.0
 41
0.9991322605167015
 10
-5194.161374563467
 20
-3885.473071522799
 30
0.0
 41
1.0
 10
-5194.163134767067
 20
-3885.474051771052
 30
0.0
 41
1.0
 10
-5194.164894970668
 20
-3885.475032019304
 30
0.0
 41
1.0
 10
-5194.175112655991
 20
-3885.480722195248
 30
0.0
 41
0.9993859882431988
 10
-5194.184906756402
 20
-3885.48711397067
 30
0.0
 41
1.0
 10
-5194.18546858433
 20
-3885.487480627922
 30
0.0
 41
1.0
 10
-5194.186030412257
 20
-3885.487847285174
 30
0.0
 41
1.0
 10
-5194.194700856809
 20
-3885.49350574609
 30
0.0
 41
0.9998821470964356
 10
-5194.20319349439
 20
-3885.49942773018
 30
0.0
 41
1.0
 10
-5194.211686131981
 20
-3885.505349714276
 30
0.0
 41
0.9997976448865925
 10
-5194.21993368643
 20
-3885.511608518806
 30
0.0
 41
1.0
 10
-5194.221397317202
 20
-3885.512719221252
 30
0.0
 41
1.0
 10
-5194.222860947973
 20
-3885.513829923698
 30
0.0
 41
1.0
 10
-5194.23403576398
 20
-3885.52231013313
 30
0.0
 41
0.9998091606782747
 10
-5194.244870780586
 20
-3885.531220401361
 30
0.0
 41
1.0
 10
-5194.246171361428
 20
-3885.532289945099
 30
0.0
 41
1.0
 10
-5194.247471942272
 20
-3885.533359488837
 30
0.0
 41
1.0
 10
-5194.260908120576
 20
-3885.544408844551
 30
0.0
 41
0.9995035076963356
 10
-5194.273621686755
 20
-3885.556282529057
 30
0.0
 41
1.0
 10
-5194.274586417598
 20
-3885.557183527997
 30
0.0
 41
1.0
 10
-5194.275551148439
 20
-3885.558084526937
 30
0.0
 41
1.0
 10
-5194.287893476703
 20
-3885.569611498188
 30
0.0
 41
0.9994630423474212
 10
-5194.299454317279
 20
-3885.581922107369
 30
0.0
 41
1.0
 10
-5194.299822592073
 20
-3885.582314266315
 30
0.0
 41
1.0
 10
-5194.300190866866
 20
-3885.58270642526
 30
0.0
 41
1.0
 10
-5194.311015157859
 20
-3885.594232716553
 30
0.0
 41
0.9995160726553748
 10
-5194.321101760811
 20
-3885.606409789563
 30
0.0
 41
1.0
 10
-5194.321295126098
 20
-3885.60664323022
 30
0.0
 41
1.0
 10
-5194.321488491386
 20
-3885.606876670878
 30
0.0
 41
1.0
 10
-5194.331188363763
 20
-3885.618586862573
 30
0.0
 41
0.9996561514895971
 10
-5194.340260985631
 20
-3885.630789470741
 30
0.0
 41
1.0
 10
-5194.34087674856
 20
-3885.631617667248
 30
0.0
 41
1.0
 10
-5194.341492511488
 20
-3885.632445863755
 30
0.0
 41
1.0
 10
-5194.349333607499
 20
-3885.642992078909
 30
0.0
 41
0.9998349084138655
 10
-5194.35678633569
 20
-3885.653816231698
 30
0.0
 41
1.0
 10
-5194.364239063881
 20
-3885.664640384486
 30
0.0
 41
0.9999728115043648
 10
-5194.371531350771
 20
-3885.675573270376
 30
0.0
 41
1.0
 10
-5194.371662873664
 20
-3885.675770454716
 30
0.0
 41
1.0
 10
-5194.371794396557
 20
-3885.675967639056
 30
0.0
 41
1.0
 10
-5194.379349729212
 20
-3885.687294893594
 30
0.0
 41
0.9999972147994566
 10
-5194.386851509344
 20
-3885.698657685582
 30
0.0
 41
1.0
 10
-5194.387348664068
 20
-3885.699410715612
 30
0.0
 41
1.0
 10
-5194.387845818792
 20
-3885.700163745642
 30
0.0
 41
1.0
 10
-5194.396341908336
 20
-3885.713032597635
 30
0.0
 41
0.999937199312638
 10
-5194.404547438715
 20
-3885.726088636889
 30
0.0
 41
1.0
 10
-5194.404898329441
 20
-3885.726646948525
 30
0.0
 41
1.0
 10
-5194.405249220166
 20
-3885.727205260161
 30
0.0
 41
1.0
 10
-5194.414156531977
 20
-3885.741377922654
 30
0.0
 41
0.9998272069487446
 10
-5194.422530863575
 20
-3885.755871891612
 30
0.0
 41
1.0
 10
-5194.424052384524
 20
-3885.758505281172
 30
0.0
 41
1.0
 10
-5194.425573905473
 20
-3885.761138670732
 30
0.0
 41
1.0
 10
-5194.436991278963
 20
-3885.780899418801
 30
0.0
 41
0.9995217358375673
 10
-5194.447165233655
 20
-3885.801328178623
 30
0.0
 41
1.0
 10
-5194.447929593641
 20
-3885.802862972814
 30
0.0
 41
1.0
 10
-5194.448693953626
 20
-3885.804397767006
 30
0.0
 41
1.0
 10
-5194.457384489705
 20
-3885.821847901163
 30
0.0
 41
0.9998269822062165
 10
-5194.465419936335
 20
-3885.839609212963
 30
0.0
 41
1.0
 10
-5194.473455382952
 20
-3885.857370524735
 30
0.0
 41
0.9998944786522097
 10
-5194.48097145806
 20
-3885.875357776156
 30
0.0
 41
1.0
 10
-5194.481466825697
 20
-3885.876543275516
 30
0.0
 41
1.0
 10
-5194.481962193334
 20
-3885.877728774877
 30
0.0
 41
1.0
 10
-5194.49002690241
 20
-3885.897029001088
 30
0.0
 41
0.9999506753639847
 10
-5194.497706655282
 20
-3885.916485610766
 30
0.0
 41
1.0
 10
-5194.499166651463
 20
-3885.920184502685
 30
0.0
 41
1.0
 10
-5194.500626647645
 20
-3885.923883394602
 30
0.0
 41
1.0
 10
-5194.505386408186
 20
-3885.935942220523
 30
0.0
 41
0.999991239744282
 10
-5194.510045052575
 20
-3885.948040469838
 30
0.0
 41
1.0
 10
-5194.514703696988
 20
-3885.960138719218
 30
0.0
 41
0.9999927116918549
 10
-5194.519269825822
 20
-3885.9722721884
 30
0.0
 41
1.0
 10
-5194.520666669259
 20
-3885.975983988354
 30
0.0
 41
1.0
 10
-5194.522063512696
 20
-3885.979695788306
 30
0.0
 41
1.0
 10
-5194.529423328415
 20
-3885.999252857423
 30
0.0
 41
0.9999487572276603
 10
-5194.536385688441
 20
-3886.018954922863
 30
0.0
 41
1.0
 10
-5194.538745049686
 20
-3886.025631436209
 30
0.0
 41
1.0
 10
-5194.541104410931
 20
-3886.032307949554
 30
0.0
 41
1.0
 10
-5194.550572976338
 20
-3886.059102067433
 30
0.0
 41
0.9999808445121323
 10
-5194.559709135201
 20
-3886.086011342506
 30
0.0
 41
1.0
 10
-5194.568845294084
 20
-3886.112920617642
 30
0.0
 41
0.9999873938396671
 10
-5194.577710763509
 20
-3886.139920283153
 30
0.0
 41
1.0
 10
-5194.579719999911
 20
-3886.146039385045
 30
0.0
 41
1.0
 10
-5194.581729236311
 20
-3886.152158486938
 30
0.0
 41
1.0
 10
-5194.59461317854
 20
-3886.191396356239
 30
0.0
 41
0.9999794892108007
 10
-5194.606993454515
 20
-3886.230796040543
 30
0.0
 41
1.0
 10
-5194.608108681316
 20
-3886.234345200836
 30
0.0
 41
1.0
 10
-5194.609223908118
 20
-3886.237894361129
 30
0.0
 41
1.0
 10
-5194.623479725327
 20
-3886.283262873006
 30
0.0
 41
0.9999982762426725
 10
-5194.637566969331
 20
-3886.328684010715
 30
0.0
 41
1.0
 10
-5194.796381002589
 20
-3886.833574717228
 30
0.0
 41
1.0
 10
-5194.955195035845
 20
-3887.338465423741
 30
0.0
 41
1.0
 10
-5195.050070096993
 20
-3887.338465423741
 30
0.0
 41
1.0
 10
-5195.14494515814
 20
-3887.338465423741
 30
0.0
 41
1.0
 10
-5194.821116709525
 20
-3886.305705111877
 30
0.0
 41
1.0
 10
-5194.49728826091
 20
-3885.272944800013
 30
0.0
 41
1.0
  0
LWPOLYLINE
  5
4C
330
23
100
AcDbEntity
  8
0
  6
Continuous
 62
     7
370
    15
390
1D
100
AcDbPolyline
 90
      232
 70
   128
 43
0.0
 10
-5197.067642838292
 20
-3885.38138203274
 42
0.0004370769952919
 10
-5197.072930555619
 20
-3885.388248883344
 10
-5197.076858978812
 20
-3885.393359733758
 42
0.0030481769360392
 10
-5197.089892848422
 20
-3885.410532367297
 10
-5197.093744017699
 20
-3885.41567118826
 42
0.0042057906268466
 10
-5197.114142518367
 20
-3885.443372510184
 10
-5197.119383035016
 20
-3885.450615997971
 42
0.0120947720050655
 10
-5197.148987409154
 20
-3885.493692103241
 10
-5197.158606654812
 20
-3885.50844057141
 42
0.0141599515007212
 10
-5197.188971081296
 20
-3885.558008886791
 10
-5197.192924801092
 20
-3885.564893458704
 42
0.0071130058960511
 10
-5197.213452040363
 20
-3885.601844755787
 42
0.006845772049774
 10
-5197.23293998729
 20
-3885.639354920975
 10
-5197.233621179294
 20
-3885.640711140702
 42
0.0064119803432691
 10
-5197.253435399019
 20
-3885.681454685231
 10
-5197.254188872849
 20
-3885.683055925677
 42
0.0058856187207749
 10
-5197.274464407245
 20
-3885.727494734712
 10
-5197.275281904665
 20
-3885.729343811209
 42
0.0053188745698629
 10
-5197.296152331664
 20
-3885.777941470255
 10
-5197.297027116501
 20
-3885.780039725389
 42
0.004750272368542
 10
-5197.318624485308
 20
-3885.833261106724
 10
-5197.319551313951
 20
-3885.835608817842
 42
0.0042070913405872
 10
-5197.342006048963
 20
-3885.893919754401
 10
-5197.342980992558
 20
-3885.89651645147
 42
0.0036679325739547
 10
-5197.366426453917
 20
-3885.960381718823
 10
-5197.367447234874
 20
-3885.963226657926
 42
0.0032572451488922
 10
-5197.392010460789
 20
-3886.033113817091
 10
-5197.398875512501
 20
-3886.053060666986
 42
0.0026132801807042
 10
-5197.433720035431
 20
-3886.156049805611
 10
-5197.440045712702
 20
-3886.175073402158
 42
0.0020592499278469
 10
-5197.461432021078
 20
-3886.240285545688
 10
-5197.461737198522
 20
-3886.241229215028
 42
0.0025609359742514
 10
-5197.481919250342
 20
-3886.304745470125
 10
-5197.482178385193
 20
-3886.305575720839
 42
0.0031361648611493
 10
-5197.501127465623
 20
-3886.367653700988
 10
-5197.501340567957
 20
-3886.368367844473
 42
0.0037229062844517
 10
-5197.519020608608
 20
-3886.429268037764
 10
-5197.519188465519
 20
-3886.429862735836
 42
0.0043076614494109
 10
-5197.535562547735
 20
-3886.489846247732
 42
0.0047653022221078
 10
-5197.55084541815
 20
-3886.550116488477
 10
-5197.554291880871
 20
-3886.564273058803
 42
0.0112966579170057
 10
-5197.573878312159
 20
-3886.653444677318
 10
-5197.576678955595
 20
-3886.667727893526
 42
0.0130053453241863
 10
-5197.596762679959
 20
-3886.786425229349
 10
-5197.598816652782
 20
-3886.800833417238
 42
0.0138717857711908
 10
-5197.609186955428
 20
-3886.891518847906
 10
-5197.611116503997
 20
-3886.913869225486
 42
0.0071252779096868
 10
-5197.614451168811
 20
-3886.960189188869
 10
-5197.6149472662
 20
-3886.968789821793
 42
0.0028881017872283
 10
-5197.616461095557
 20
-3886.997964786834
 42
0.0060295660914402
 10
-5197.617454315519
 20
-3887.027160473931
 10
-5197.617560543743
 20
-3887.031999845336
 42
0.0229516934674447
 10
-5197.616787440922
 20
-3887.064276205989
 10
-5197.616364863391
 20
-3887.07031672625
 42
0.0123669997828689
 10
-5197.614456998917
 20
-3887.090429343293
 42
0.012857432448068
 10
-5197.611537459189
 20
-3887.110419676027
 10
-5197.610824872539
 20
-3887.114552665918
 42
0.0285710886702
 10
-5197.604375466878
 20
-3887.142365056311
 10
-5197.60300860948
 20
-3887.147030677341
 42
0.0316276512737248
 10
-5197.591427562011
 20
-3887.178932959373
 10
-5197.591122673298
 20
-3887.179631660383
 42
0.0338979536804292
 10
-5197.576179521739
 20
-3887.208388994251
 10
-5197.57594861936
 20
-3887.208768155836
 42
0.0350225578179855
 10
-5197.557712619735
 20
-3887.234474005179
 10
-5197.557624057215
 20
-3887.234581961411
 42
0.0347476202837358
 10
-5197.536181625833
 20
-3887.25730103859
 42
0.033133960864614
 10
-5197.511857248262
 20
-3887.276914469903
 10
-5197.511747283406
 20
-3887.276991710716
 42
0.0305237058951692
 10
-5197.484892772669
 20
-3887.293504998879
 10
-5197.4845698094
 20
-3887.293677382775
 42
0.0273749269287486
 10
-5197.455314404151
 20
-3887.307291581129
 10
-5197.454803984729
 20
-3887.307495931485
 42
0.0240969557126141
 10
-5197.42325625127
 20
-3887.318394608136
 10
-5197.422597944243
 20
-3887.318587079769
 42
0.0209641219971955
 10
-5197.38885791088
 20
-3887.326934125288
 10
-5197.388094682932
 20
-3887.327089317129
 42
0.0181393371628646
 10
-5197.352262432256
 20
-3887.333031089549
 10
-5197.351434358895
 20
-3887.333137709354
 42
0.0156090712042423
 10
-5197.313615616272
 20
-3887.336811428347
 10
-5197.309296095376
 20
-3887.337095286031
 42
0.0137152047247259
 10
-5197.276528782713
 20
-3887.33834734549
 10
-5197.271935163704
 20
-3887.338396790147
 42
0.0051059212425003
 10
-5197.248320605062
 20
-3887.338409815942
 42
0.0052258113490915
 10
-5197.224710876956
 20
-3887.337934920586
 10
-5197.217688198309
 20
-3887.337720218136
 42
0.0161511535241965
 10
-5197.180114494627
 20
-3887.335355117165
 10
-5197.178113194461
 20
-3887.335164092046
 42
0.0101219417539438
 10
-5197.136710477516
 20
-3887.330364669172
 10
-5197.133305143369
 20
-3887.329899886138
 42
0.0245297991039123
 10
-5197.085626200536
 20
-3887.320992141444
 10
-5197.077143860314
 20
-3887.318972492409
 42
0.0143512589373589
 10
-5197.041480735868
 20
-3887.309391765082
 42
0.0156561258629602
 10
-5197.006459147123
 20
-3887.297690331759
 10
-5197.005709007945
 20
-3887.297413301501
 42
0.0170140636124257
 10
-5196.970049431148
 20
-3887.282847154022
 10
-5196.969339016136
 20
-3887.282528351576
 42
0.0183108392261014
 10
-5196.933404077185
 20
-3887.264794380059
 10
-5196.932709372856
 20
-3887.264419311326
 42
0.0194902510625286
 10
-5196.896861331265
 20
-3887.243220857497
 10
-5196.896159910824
 20
-3887.242768289983
 42
0.0204871724907409
 10
-5196.860758516652
 20
-3887.217815637421
 10
-5196.860031919756
 20
-3887.217257588029
 42
0.0212517949405686
 10
-5196.825432964582
 20
-3887.188266434393
 10
-5196.820781288944
 20
-3887.184019582177
 42
0.0215248946682393
 10
-5196.794778640349
 20
-3887.158142421454
 10
-5196.79027567672
 20
-3887.153257887095
 42
0.0114578160059607
 10
-5196.774796451544
 20
-3887.135675104844
 10
-5196.773677002176
 20
-3887.134343197295
 42
0.0061530976858137
 10
-5196.761029533345
 20
-3887.118913819239
 42
0.0006325548981908
 10
-5196.748591685368
 20
-3887.10331305787
 10
-5196.746287671425
 20
-3887.100415626441
 42
0.0041897486244881
 10
-5196.72944213472
 20
-3887.078863107396
 10
-5196.723595919038
 20
-3887.071252760884
 42
0.0092993137675215
 10
-5196.695934739346
 20
-3887.033823884737
 10
-5196.687695305994
 20
-3887.022229891482
 42
0.0159320045085509
 10
-5196.653034628733
 20
-3886.97001100821
 10
-5196.648599025051
 20
-3886.962842872736
 42
0.0085546208161074
 10
-5196.62514783866
 20
-3886.923454290485
 42
0.0084599925205454
 10
-5196.603050229241
 20
-3886.883290528853
 10
-5196.602238673533
 20
-3886.881754503088
 42
0.0081428347340335
 10
-5196.57991375421
 20
-3886.837781171566
 10
-5196.579027730071
 20
-3886.835963222074
 42
0.0076573248583297
 10
-5196.556386986011
 20
-3886.787643635767
 10
-5196.555439014942
 20
-3886.78553711509
 42
0.0070681409190092
 10
-5196.532394530406
 20
-3886.732331952386
 10
-5196.531395495764
 20
-3886.729932953235
 42
0.0064558245769545
 10
-5196.507862180481
 20
-3886.671300146049
 10
-5196.506821239129
 20
-3886.668606565914
 42
0.0058310215490272
 10
-5196.4827165703
 20
-3886.604001612642
 10
-5196.481641057713
 20
-3886.601013083765
 42
0.0052311310476311
 10
-5196.456882934169
 20
-3886.529890920467
 10
-5196.455778546271
 20
-3886.526608147304
 42
0.0046679519145014
 10
-5196.430285707196
 20
-3886.448423400755
 10
-5196.426086491126
 20
-3886.435124711913
 42
0.0041665917985462
 10
-5196.405757887254
 20
-3886.368826022705
 10
-5196.401991643787
 20
-3886.356167569635
 42
0.0015170628139443
 10
-5196.389872985346
 20
-3886.314979612126
 42
-0.0004887881092375
 10
-5196.377839007779
 20
-3886.273766649025
 10
-5196.370191282285
 20
-3886.24767020146
 42
0.0002583319738183
 10
-5196.34286982607
 20
-3886.154261993078
 10
-5196.334692540747
 20
-3886.126251303957
 42
0.000663601718274
 10
-5196.315305764319
 20
-3886.059514194838
 10
-5196.314796099357
 20
-3886.057750990224
 42
0.0010588887049854
 10
-5196.296651228793
 20
-3885.994476133161
 10
-5196.296153022523
 20
-3885.992724797556
 42
0.0015655160953958
 10
-5196.279326001028
 20
-3885.932861498573
 10
-5196.278842981968
 20
-3885.931122238904
 42
0.002163993346797
 10
-5196.263413983786
 20
-3885.874617996611
 10
-5196.262950562968
 20
-3885.87289148084
 42
0.0028763190087823
 10
-5196.248998990039
 20
-3885.819693234531
 10
-5196.24856040485
 20
-3885.817980794928
 42
0.0037309614931623
 10
-5196.236164734438
 20
-3885.768034672161
 10
-5196.235757213703
 20
-3885.766338604288
 42
0.0047651031992233
 10
-5196.224994822358
 20
-3885.719589550461
 10
-5196.224625763662
 20
-3885.717913554971
 42
0.0060275195384533
 10
-5196.215572752511
 20
-3885.674304783652
 10
-5196.215250884621
 20
-3885.67265462317
 42
0.0075822404074177
 10
-5196.207981952541
 20
-3885.632126798504
 10
-5196.207717415692
 20
-3885.630511265249
 42
0.0095128142945109
 10
-5196.202305891239
 20
-3885.593001304209
 10
-5196.201607269284
 20
-3885.587407799722
 42
0.012105142693961
 10
-5196.198948135792
 20
-3885.560917492846
 10
-5196.198861486901
 20
-3885.559777118651
 42
0.0069048963762129
 10
-5196.197352605013
 20
-3885.535482334013
 10
-5196.197239075073
 20
-3885.533129644845
 42
0.0169059382471222
 10
-5196.196956347148
 20
-3885.51350983791
 10
-5196.197073412302
 20
-3885.507476097604
 42
0.0052006320312534
 10
-5196.197298757161
 20
-3885.499916553012
 42
0.0054036732562334
 10
-5196.199295108546
 20
-3885.487914395807
 10
-5196.199803693931
 20
-3885.485048470329
 42
0.0112047649275829
 10
-5196.203342131063
 20
-3885.467415342736
 10
-5196.205124626342
 20
-3885.459460971824
 42
0.0240758847775508
 10
-5196.214214370095
 20
-3885.4264363482
 10
-5196.216070250874
 20
-3885.420774163964
 42
0.0256807162134825
 10
-5196.230406531256
 20
-3885.383600767693
 10
-5196.230947491759
 20
-3885.382387561003
 42
0.0268356238670183
 10
-5196.247890197924
 20
-3885.349287387442
 10
-5196.248443862794
 20
-3885.348335353063
 42
0.0274667275526054
 10
-5196.267663936329
 20
-3885.319105861958
 10
-5196.268202095287
 20
-3885.318377888226
 42
0.0275034573760694
 10
-5196.289359354281
 20
-3885.292825643332
 10
-5196.289866335893
 20
-3885.292277685603
 42
0.0269557894318462
 10
-5196.312606658722
 20
-3885.270212890888
 10
-5196.313080995903
 20
-3885.269799856864
 42
0.0259126486243132
 10
-5196.337036447643
 20
-3885.251030320946
 10
-5196.337489561053
 20
-3885.250711741735
 42
0.0245165009838101
 10
-5196.36228116747
 20
-3885.2350380348
 10
-5196.362733846861
 20
-3885.234781994112
 42
0.0229286274498329
 10
-5196.387975777785
 20
-3885.221994841045
 10
-5196.388453847024
 20
-3885.221779596275
 42
0.0212988327590866
 10
-5196.413757622415
 20
-3885.211659438214
 10
-5196.414288065795
 20
-3885.21147307164
 42
0.019755990429154
 10
-5196.439265884685
 20
-3885.203791326123
 42
0.0183516400780505
 10
-5196.464758768258
 20
-3885.198032876723
 10
-5196.473395289033
 20
-3885.196412553404
 42
0.0338066798165572
 10
-5196.501946011829
 20
-3885.193031623202
 10
-5196.511046552665
 20
-3885.192573645201
 42
0.0091993021616366
 10
-5196.521631263196
 20
-3885.192236050443
 42
0.002833475158804
 10
-5196.532222654758
 20
-3885.192153237439
 10
-5196.532314200101
 20
-3885.192153040451
 42
-0.0023620470890361
 10
-5196.543088801572
 20
-3885.192078954329
 10
-5196.546729318629
 20
-3885.192036722533
 42
0.0008824838631564
 10
-5196.564784917587
 20
-3885.191859139879
 10
-5196.569171060855
 20
-3885.191823742763
 42
0.0038133702904848
 10
-5196.595999350473
 20
-3885.191811848833
 10
-5196.597652715922
 20
-3885.191823725771
 42
0.0060667218075067
 10
-5196.627780764697
 20
-3885.192405771533
 10
-5196.629205798284
 20
-3885.192450603561
 42
0.0080359128908055
 10
-5196.662151668539
 20
-3885.194017418299
 10
-5196.663358671427
 20
-3885.194094278771
 42
0.0098999054162103
 10
-5196.698634976749
 20
-3885.197042881569
 10
-5196.699639550829
 20
-3885.197146914345
 42
0.0117744080967612
 10
-5196.736755230729
 20
-3885.201876266841
 10
-5196.737577506312
 20
-3885.202000782784
 42
0.013743871858338
 10
-5196.776036378317
 20
-3885.208910666024
 10
-5196.776702092173
 20
-3885.209049261487
 42
0.0158363700485859
 10
-5196.816001786236
 20
-3885.21853872424
 10
-5196.81654312024
 20
-3885.218687726596
 42
0.0180558148725225
 10
-5196.856174602697
 20
-3885.23115185945
 10
-5196.85663030351
 20
-3885.231313475277
 42
0.0203661431806769
 10
-5196.896078025609
 20
-3885.247139926585
 10
-5196.896492409191
 20
-3885.247326107128
 42
0.0226823343525306
 10
-5196.93523597728
 20
-3885.266890876032
 10
-5196.935655993913
 20
-3885.267127462799
 42
0.0248637894929667
 10
-5196.973174143754
 20
-3885.290790739948
 10
-5196.977993640662
 20
-3885.294176539057
 42
0.0267045909272234
 10
-5197.005422950602
 20
-3885.31572119095
 42
0.0139303292044517
 10
-5197.031039648356
 20
-3885.339445701916
 10
-5197.031525005768
 20
-3885.33992099958
 42
0.0283460253178864
 10
-5197.055932230133
 20
-3885.366694750763
 10
-5197.059899115706
 20
-3885.371575084388
 42
0.0070694945518084
 10
-5197.067642838292
 20
-3885.38138203274
 42
0.0070694945518084
  0
LWPOLYLINE
  5
4D
330
23
100
AcDbEntity
  8
0
  6
Continuous
 62
     7
370
    15
390
1D
100
AcDbPolyline
 90
      226
 70
   128
 43
0.0
 10
-5197.420524882016
 20
-3886.953583678444
 42
-0.0026276923641032
 10
-5197.420532670397
 20
-3886.946906304519
 10
-5197.420510934573
 20
-3886.941590637906
 42
-0.0088677887324404
 10
-5197.42013327293
 20
-3886.924288588664
 10
-5197.419898637033
 20
-3886.918360425241
 42
-0.0077379613617167
 10
-5197.41829402586
 20
-3886.889233582016
 10
-5197.418207234839
 20
-3886.888004726594
 42
-0.0068870683867981
 10
-5197.415544026668
 20
-3886.856481691947
 10
-5197.415423604445
 20
-3886.855257562737
 42
-0.0062128372796765
 10
-5197.411664232458
 20
-3886.821369669366
 10
-5197.411513842409
 20
-3886.820152251531
 42
-0.0056725442094185
 10
-5197.406621656027
 20
-3886.783931741146
 10
-5197.406444311895
 20
-3886.782722331172
 42
-0.0052340529769637
 10
-5197.400383252719
 20
-3886.744201954563
 10
-5197.400181454392
 20
-3886.743001432183
 42
-0.0049767179961078
 10
-5197.392907585539
 20
-3886.702215862283
 10
-5197.390482684777
 20
-3886.68936071807
 42
-0.0089027583613238
 10
-5197.376774596734
 20
-3886.623181360521
 10
-5197.373500062065
 20
-3886.60867783564
 42
-0.0080316315733946
 10
-5197.350545195725
 20
-3886.514104281099
 10
-5197.349346707986
 20
-3886.509491110981
 42
-0.0074263986849931
 10
-5197.320945547906
 20
-3886.406481829981
 10
-5197.318957593142
 20
-3886.399668237035
 42
-0.0069710353203357
 10
-5197.286227141939
 20
-3886.293038585377
 10
-5197.280231943445
 20
-3886.274435931794
 42
-0.0052069290615459
 10
-5197.257289424702
 20
-3886.205706866347
 10
-5197.255561304887
 20
-3886.200704000473
 42
-0.0009166808836
 10
-5197.235252116756
 20
-3886.14225682758
 42
-0.0025162195788076
 10
-5197.214542351926
 20
-3886.083951110204
 10
-5197.210819890131
 20
-3886.073635873327
 42
-0.002821209646312
 10
-5197.186002300653
 20
-3886.006060978725
 10
-5197.185019221691
 20
-3886.003430155506
 42
-0.0031964267799735
 10
-5197.161389998611
 20
-3885.941407999435
 10
-5197.160426550236
 20
-3885.938926925272
 42
-0.0036281118047827
 10
-5197.137915957102
 20
-3885.88218132132
 10
-5197.136972112741
 20
-3885.87985150654
 42
-0.0041268373759468
 10
-5197.115510346421
 20
-3885.828106017683
 10
-5197.112247047851
 20
-3885.820417957029
 42
-0.0047471333738073
 10
-5197.096542570223
 20
-3885.784374836737
 10
-5197.095853160534
 20
-3885.782832731549
 42
-0.0025651199981504
 10
-5197.081017358717
 20
-3885.750099039101
 42
-0.0057143649736308
 10
-5197.065642385575
 20
-3885.717617180509
 10
-5197.062839313707
 20
-3885.711866183114
 42
-0.0065387009843456
 10
-5197.044492616025
 20
-3885.675441953129
 10
-5197.043646764636
 20
-3885.673815939792
 42
-0.0074509729696686
 10
-5197.026028545861
 20
-3885.64114623421
 10
-5197.025210572228
 20
-3885.639682104881
 42
-0.0084647839989272
 10
-5197.008247193497
 20
-3885.610490421525
 10
-5197.007461573396
 20
-3885.609189674641
 42
-0.0095637421180501
 10
-5196.991078036089
 20
-3885.583200092844
 10
-5196.990330533335
 20
-3885.582063113015
 42
-0.0107190586948929
 10
-5196.974450383683
 20
-3885.559001375021
 10
-5196.973748701027
 20
-3885.55802772642
 42
-0.0118457700819917
 10
-5196.958293900459
 20
-3885.537619964663
 42
-0.0129183905202332
 10
-5196.941848626381
 20
-3885.518003366195
 10
-5196.938834140928
 20
-3885.514590656174
 42
-0.0217742362653427
 10
-5196.921172928629
 20
-3885.496269503366
 10
-5196.92009836558
 20
-3885.495247784075
 42
-0.0097266804615631
 10
-5196.903492612297
 20
-3885.480062621763
 42
-0.0187721935910816
 10
-5196.886057836748
 20
-3885.465855336429
 10
-5196.882987234886
 20
-3885.463539363086
 42
-0.0179429880584243
 10
-5196.859745183641
 20
-3885.447283718862
 10
-5196.859379932118
 20
-3885.447047306754
 42
-0.0170050053138397
 10
-5196.835803587196
 20
-3885.432900882734
 10
-5196.835425271824
 20
-3885.432691037372
 42
-0.0160193325848863
 10
-5196.811734433558
 20
-3885.420525585414
 42
-0.015110565150851
 10
-5196.787331240409
 20
-3885.409857011629
 10
-5196.782092605092
 20
-3885.407752947093
 42
-0.0271951299421361
 10
-5196.746226316339
 20
-3885.395566125329
 10
-5196.739319845994
 20
-3885.393631121288
 42
-0.0237602403440474
 10
-5196.697740184435
 20
-3885.384085796934
 10
-5196.690933890236
 20
-3885.382860293198
 42
-0.0213721036845001
 10
-5196.662346405918
 20
-3885.378965485694
 10
-5196.65633168797
 20
-3885.378406498895
 42
-0.0101468386247722
 10
-5196.639582436097
 20
-3885.37719211166
 10
-5196.638648396953
 20
-3885.377143418808
 42
-0.0100378635171173
 10
-5196.62373298742
 20
-3885.376665824052
 10
-5196.622707060567
 20
-3885.37665357982
 42
-0.0103628451023227
 10
-5196.609836260987
 20
-3885.376766726248
 10
-5196.607609696402
 20
-3885.376832463867
 42
-0.0115692378831976
 10
-5196.599204622107
 20
-3885.377275426556
 42
-0.0072439975896162
 10
-5196.59082079474
 20
-3885.378034367114
 10
-5196.589140743216
 20
-3885.378211026253
 42
-0.0217922976983597
 10
-5196.577483770902
 20
-3885.379953062129
 10
-5196.570923776383
 20
-3885.381227754818
 42
-0.0332951412115354
 10
-5196.550484541325
 20
-3885.386631934552
 10
-5196.547467293817
 20
-3885.387648766773
 42
-0.0184827848746783
 10
-5196.533616778824
 20
-3885.392894014136
 42
-0.019800549162619
 10
-5196.520209355677
 20
-3885.399182585559
 10
-5196.520020681036
 20
-3885.399280372558
 42
-0.0212245257067376
 10
-5196.506806799624
 20
-3885.406856844425
 10
-5196.506625257241
 20
-3885.40697143586
 42
-0.0226092736919581
 10
-5196.493774881454
 20
-3885.41591963264
 10
-5196.493590422946
 20
-3885.416060872755
 42
-0.0238458139060346
 10
-5196.481272229924
 20
-3885.426460731185
 10
-5196.481076941961
 20
-3885.42664223794
 42
-0.0248160388275783
 10
-5196.469456806102
 20
-3885.438570005642
 10
-5196.469246427891
 20
-3885.438808562364
 42
-0.0254108038296288
 10
-5196.458485919658
 20
-3885.452337750022
 10
-5196.458261103912
 20
-3885.452651932351
 42
-0.0255525589640551
 10
-5196.448516447338
 20
-3885.467855031514
 10
-5196.448283326041
 20
-3885.468263223574
 42
-0.0252142736674594
 10
-5196.439705231963
 20
-3885.485213890063
 10
-5196.439474999524
 20
-3885.485732131533
 42
-0.0244260728027196
 10
-5196.432209535813
 20
-3885.504507282364
 10
-5196.431284893501
 20
-3885.507293906521
 42
-0.0231314249017035
 10
-5196.426692612102
 20
-3885.523624465952
 42
-0.0112127629060771
 10
-5196.423229010607
 20
-3885.540245273973
 10
-5196.423108757337
 20
-3885.54089495443
 42
-0.0210522385582881
 10
-5196.420540110375
 20
-3885.559001005674
 10
-5196.420189050318
 20
-3885.562541662635
 42
-0.019002476537973
 10
-5196.418644903037
 20
-3885.587895933736
 10
-5196.418563905319
 20
-3885.591443594854
 42
-0.0137970802193414
 10
-5196.418718790609
 20
-3885.623947619877
 10
-5196.418803336141
 20
-3885.626559566485
 42
-0.0081334432529657
 10
-5196.42028926962
 20
-3885.657095142519
 42
-0.0073524948900025
 10
-5196.422720123142
 20
-3885.687570797867
 10
-5196.422846265335
 20
-3885.688904499653
 42
-0.0066884361427748
 10
-5196.426419824254
 20
-3885.72196400583
 10
-5196.426585532888
 20
-3885.723326202198
 42
-0.0061357577335742
 10
-5196.431370593554
 20
-3885.759003573805
 10
-5196.4315743432
 20
-3885.760393088739
 42
-0.0056697143225833
 10
-5196.4376393769
 20
-3885.798721991862
 10
-5196.437879919609
 20
-3885.800137938636
 42
-0.0052719734074606
 10
-5196.445293140475
 20
-3885.84115179231
 10
-5196.445569454573
 20
-3885.842593490966
 42
-0.0049288036530445
 10
-5196.454398867344
 20
-3885.886325536153
 10
-5196.454710115851
 20
-3885.887792456806
 42
-0.0047414788263893
 10
-5196.465033916172
 20
-3885.934273401894
 10
-5196.46851073604
 20
-3885.949254513901
 42
-0.0084402445304458
 10
-5196.487512384783
 20
-3886.025279000643
 10
-5196.488125049196
 20
-3886.027565458887
 42
-0.0039635015244257
 10
-5196.510270420152
 20
-3886.107666532988
 10
-5196.511608097143
 20
-3886.112359813442
 42
-0.0072473396738073
 10
-5196.538352792019
 20
-3886.201284223123
 10
-5196.545374023209
 20
-3886.223458856574
 42
-0.0051344333526497
 10
-5196.574049955818
 20
-3886.310893739133
 10
-5196.576202584107
 20
-3886.317236543127
 42
-0.0019149605684969
 10
-5196.60175592318
 20
-3886.391593472963
 10
-5196.602402685436
 20
-3886.393452275235
 42
-0.0021523906888684
 10
-5196.627250488727
 20
-3886.46388676806
 10
-5196.628171532745
 20
-3886.466462201391
 42
-0.0024330779213322
 10
-5196.6517970567
 20
-3886.531523896483
 10
-5196.652701854114
 20
-3886.533978299734
 42
-0.0027449159142069
 10
-5196.675163309039
 20
-3886.593892911495
 10
-5196.676052312153
 20
-3886.596225240153
 42
-0.0031082605888351
 10
-5196.69740655844
 20
-3886.651219133556
 10
-5196.698280174284
 20
-3886.653428171997
 42
-0.0035310651961473
 10
-5196.718584290166
 20
-3886.703727845992
 10
-5196.719442827022
 20
-3886.705812182178
 42
-0.0040244876371134
 10
-5196.73875400446
 20
-3886.751644353968
 10
-5196.739597619136
 20
-3886.753602351729
 42
-0.004601429317202
 10
-5196.757973245137
 20
-3886.795193978322
 10
-5196.758801866691
 20
-3886.797023750366
 42
-0.0052767714404432
 10
-5196.776299614816
 20
-3886.834602052624
 10
-5196.777112840131
 20
-3886.83630144159
 42
-0.0060671672006086
 10
-5196.793790797155
 20
-3886.870093914195
 10
-5196.79458775005
 20
-3886.871660492235
 42
-0.0069903572637709
 10
-5196.810504584602
 20
-3886.901894885772
 10
-5196.811283730128
 20
-3886.903325989842
 42
-0.0080635892518679
 10
-5196.826498910598
 20
-3886.930230241754
 10
-5196.82725782024
 20
-3886.931523074346
 42
-0.0093005305707799
 10
-5196.841831881515
 20
-3886.955325150765
 10
-5196.842566955482
 20
-3886.95647699044
 42
-0.0107059665746017
 10
-5196.856561802533
 20
-3886.977404579998
 10
-5196.857267987669
 20
-3886.978413173553
 42
-0.0122722125075525
 10
-5196.87074735118
 20
-3886.996692991863
 10
-5196.87077998402
 20
-3886.996735045299
 42
-0.0141835575472117
 10
-5196.885138133834
 20
-3887.014192482426
 10
-5196.885832922246
 20
-3887.014990018893
 42
-0.0175957156474072
 10
-5196.899823526202
 20
-3887.029952499977
 42
-0.0080466437480196
 10
-5196.914569909261
 20
-3887.044185146057
 10
-5196.919173357157
 20
-3887.048487300762
 42
-0.0269601538596732
 10
-5196.944501419907
 20
-3887.069720232794
 10
-5196.951158116652
 20
-3887.074715497461
 42
-0.0178364523321354
 10
-5196.97515254435
 20
-3887.091417728441
 10
-5196.975877060776
 20
-3887.091884604814
 42
-0.0174652991183943
 10
-5196.999510661194
 20
-3887.10597107202
 42
-0.0169242853112693
 10
-5197.024057304295
 20
-3887.118400644692
 10
-5197.028655901336
 20
-3887.120536889755
 42
-0.0318889416286336
 10
-5197.063691028872
 20
-3887.134171104891
 10
-5197.070527567892
 20
-3887.136341221365
 42
-0.0284442685060618
 10
-5197.108132553044
 20
-3887.145963217917
 10
-5197.111648380867
 20
-3887.14665259856
 42
-0.024391569159984
 10
-5197.142992715186
 20
-3887.151224823723
 10
-5197.148020790463
 20
-3887.151709391844
 42
-0.0196644603098685
 10
-5197.169580345615
 20
-3887.152934253462
 10
-5197.17476275269
 20
-3887.153024581992
 42
-0.0100504243494386
 10
-5197.186005080897
 20
-3887.15299454134
 10
-5197.189171067002
 20
-3887.152922432191
 42
-0.001975256837723
 10
-5197.1940803007
 20
-3887.1527912126
 10
-5197.194356331091
 20
-3887.152782743185
 42
0.0065380529026202
 10
-5197.198713988499
 20
-3887.152706051979
 42
-0.0167979247777683
 10
-5197.203067070492
 20
-3887.152540057633
 10
-5197.203475004717
 20
-3887.152510755725
 42
-0.0081285453749978
 10
-5197.208630984101
 20
-3887.152056044034
 10
-5197.209804941879
 20
-3887.151933248895
 42
-0.0126706770576469
 10
-5197.217276770162
 20
-3887.15095974351
 10
-5197.219555558226
 20
-3887.150603908037
 42
-0.0117855091130691
 10
-5197.231509454155
 20
-3887.14844755041
 10
-5197.237047501985
 20
-3887.147313164987
 42
-0.025178057927497
 10
-5197.259731891093
 20
-3887.141463209541
 10
-5197.264203815635
 20
-3887.14006648788
 42
-0.0146528337216508
 10
-5197.282843123626
 20
-3887.133639657461
 42
-0.0166932631930044
 10
-5197.301040877666
 20
-3887.126058743229
 10
-5197.301506552365
 20
-3887.125846242107
 42
-0.0191687461290998
 10
-5197.320024900274
 20
-3887.11652238852
 10
-5197.320358174066
 20
-3887.116338250348
 42
-0.0221184518697277
 10
-5197.338689185375
 20
-3887.105124608357
 10
-5197.338924184858
 20
-3887.104966161382
 42
-0.0254986615496187
 10
-5197.356553177344
 20
-3887.091724705018
 10
-5197.358801393826
 20
-3887.089849421687
 42
-0.0292493152093645
 10
-5197.37127830855
 20
-3887.07813980583
 42
-0.0159048451974277
 10
-5197.38266229888
 20
-3887.065337469729
 10
-5197.382794187353
 20
-3887.065179292832
 42
-0.0343810460535856
 10
-5197.393057897071
 20
-3887.050991800717
 10
-5197.396207050513
 20
-3887.045941323641
 42
-0.03691115949358
 10
-5197.404796316841
 20
-3887.02959312898
 42
-0.019174754250842
 10
-5197.41151565113
 20
-3887.012352211743
 10
-5197.411691987774
 20
-3887.011842851091
 42
-0.0378169117107033
 10
-5197.41667145607
 20
-3886.992948278992
 10
-5197.417270988477
 20
-3886.989692113212
 42
-0.0184841231915592
 10
-5197.419342709154
 20
-3886.975516441503
 42
-0.0179861512424628
 10
-5197.42037600959
 20
-3886.961226973516
 10
-5197.420381653907
 20
-3886.961071198612
 42
-0.0085494861430973
 10
-5197.420524882016
 20
-3886.953583678444
 42
-0.0085494861430973
  0
ENDBLK
  5
4E
330
23
100
AcDbEntity
  8
template
390
1D
100
AcDbBlockEnd
  0
BLOCK
  5
4F
330
24
100
AcDbEntity
  8
notes
390
1D
100
AcDbBlockBegin
  2
*D3
 70
     1
 10
0.0
 20
0.0
 30
0.0
  3
*D3
  1
*D3
  0
LINE
  5
50
330
24
100
AcDbEntity
  8
DIM
  6
Continuous
 62
     0
370
    -2
100
AcDbLine
 10
35.99973588233752
 20
58.43262293277303
 30
0.0
 11
35.99973588233752
 21
80.99136682351855
 31
0.0
  0
LINE
  5
51
330
24
100
AcDbEntity
  8
DIM
  6
Continuous
 62
     0
370
    -2
100
AcDbLine
 10
-36.00027433949225
 20
58.49066248218051
 30
0.0
 11
-36.00027433949225
 21
80.99136682351855
 31
0.0
  0
LINE
  5
52
330
24
100
AcDbEntity
  8
DIM
  6
Continuous
 62
     0
370
    -2
100
AcDbLine
 10
34.99973588233752
 20
80.99136682351855
 30
0.0
 11
-35.00027433949225
 21
80.99136682351855
 31
0.0
  0
INSERT
  5
53
102
{ACAD_REACTORS
330
54
102
}
330
24
100
AcDbEntity
  8
DIM
 62
     0
370
    -2
100
AcDbBlockReference
  2
_DOT
 10
35.99973588233752
 20
80.99136682351855
 30
0.0
  0
INSERT
  5
54
330
24
100
AcDbEntity
  8
DIM
 62
     0
370
    -2
100
AcDbBlockReference
  2
_DOT
 10
-36.00027433949225
 20
80.99136682351855
 30
0.0
 50
180.0
  0
MTEXT
  5
55
102
{ACAD_REACTORS
330
56
102
}
330
24
100
AcDbEntity
  8
DIM
  6
Continuous
 62
     0
100
AcDbMText
 10
-0.0002692285773662
 20
82.9109018821123
 30
0.0
 40
2.44326171875
 41
0.0
 46
0.0
 71
     5
 72
     1
  1
\A1;φ72
  7
ＭＳ ゴシック
 73
     1
 44
1.0
  0
POINT
  5
56
330
24
100
AcDbEntity
  8
Defpoints
 62
     0
100
AcDbPoint
 10
35.99973588233752
 20
55.93262293277303
 30
0.0
  0
POINT
  5
57
330
24
100
AcDbEntity
  8
Defpoints
 62
     0
100
AcDbPoint
 10
-36.00027433949225
 20
55.99066248218051
 30
0.0
  0
POINT
  5
58
330
24
100
AcDbEntity
  8
Defpoints
 62
     0
100
AcDbPoint
 10
-36.00027433949225
 20
80.99136682351855
 30
0.0
  0
ENDBLK
  5
5B
330
24
100
AcDbEntity
  8
notes
390
1D
100
AcDbBlockEnd
  0
BLOCK
  5
5C
330
25
100
AcDbEntity
  8
notes
390
1D
100
AcDbBlockBegin
  2
*D4
 70
     1
 10
0.0
 20
0.0
 30
0.0
  3
*D4
  1
*D4
  0
LINE
  5
5D
330
25
100
AcDbEntity
  8
DIM
  6
Continuous
 62
     0
370
    -2
100
AcDbLine
 10
-33.95148340565629
 20
18.95262861596984
 30
0.0
 11
-56.60079792418219
 21
18.95262861596984
 31
0.0
  0
LINE
  5
5E
330
25
100
AcDbEntity
  8
DIM
  6
Continuous
 62
     0
370
    -2
100
AcDbLine
 10
-34.10079792418219
 20
49.93327826863606
 30
0.0
 11
-56.60079792418219
 21
49.93327826863606
 31
0.0
  0
LINE
  5
5F
330
25
100
AcDbEntity
  8
DIM
  6
Continuous
 62
     0
370
    -2
100
AcDbLine
 10
-56.60079792418219
 20
19.95262861596984
 30
0.0
 11
-56.60079792418219
 21
48.93327826863606
 31
0.0
  0
INSERT
  5
60
102
{ACAD_REACTORS
330
61
102
}
330
25
100
AcDbEntity
  8
DIM
 62
     0
370
    -2
100
AcDbBlockReference
  2
_DOT
 10
-56.60079792418219
 20
18.95262861596984
 30
0.0
 50
270.0
  0
INSERT
  5
61
330
25
100
AcDbEntity
  8
DIM
 62
     0
370
    -2
100
AcDbBlockReference
  2
_DOT
 10
-56.60079792418219
 20
49.93327826863606
 30
0.0
 50
90.0
  0
MTEXT
  5
62
102
{ACAD_REACTORS
330
63
102
}
330
25
100
AcDbEntity
  8
DIM
  6
Continuous
 62
     0
100
AcDbMText
 10
-58.32242878355719
 20
34.44295344230295
 30
0.0
 40
2.44326171875
 41
0.0
 46
0.0
 71
     5
 72
     1
  1
\A1;MAX.50
  7
ＭＳ ゴシック
 11
0.0
 21
1.0
 31
0.0
 73
     1
 44
1.0
  0
POINT
  5
63
330
25
100
AcDbEntity
  8
Defpoints
 62
     0
100
AcDbPoint
 10
-31.45148340565629
 20
18.95262861596984
 30
0.0
  0
POINT
  5
64
330
25
100
AcDbEntity
  8
Defpoints
 62
     0
100
AcDbPoint
 10
-31.60079792418219
 20
49.93327826863606
 30
0.0
  0
POINT
  5
65
330
25
100
AcDbEntity
  8
Defpoints
 62
     0
100
AcDbPoint
 10
-56.60079792418219
 20
49.93327826863606
 30
0.0
  0
ENDBLK
  5
68
330
25
100
AcDbEntity
  8
notes
390
1D
100
AcDbBlockEnd
  0
BLOCK
  5
69
330
26
100
AcDbEntity
  8
notes
390
1D
100
AcDbBlockBegin
  2
*D5
 70
     1
 10
0.0
 20
0.0
 30
0.0
  3
*D5
  1
*D5
  0
LINE
  5
6A
330
26
100
AcDbEntity
  8
DIM
  6
Continuous
 62
     0
370
    -2
100
AcDbLine
 10
33.95289203318953
 20
18.95262861596984
 30
0.0
 11
50.00067361711081
 21
18.95262861596984
 31
0.0
  0
LINE
  5
6B
330
26
100
AcDbEntity
  8
DIM
  6
Continuous
 62
     0
370
    -2
100
AcDbLine
 10
27.50067361711081
 20
-6.047741822161242
 30
0.0
 11
50.00067361711081
 21
-6.047741822161243
 31
0.0
  0
LINE
  5
6C
330
26
100
AcDbEntity
  8
DIM
  6
Continuous
 62
     0
370
    -2
100
AcDbLine
 10
50.00067361711081
 20
17.95262861596984
 30
0.0
 11
50.00067361711081
 21
-5.047741822161243
 31
0.0
  0
INSERT
  5
6D
102
{ACAD_REACTORS
330
6E
102
}
330
26
100
AcDbEntity
  8
DIM
 62
     0
370
    -2
100
AcDbBlockReference
  2
_DOT
 10
50.00067361711081
 20
18.95262861596984
 30
0.0
 50
90.0
  0
INSERT
  5
6E
330
26
100
AcDbEntity
  8
DIM
 62
     0
370
    -2
100
AcDbBlockReference
  2
_DOT
 10
50.00067361711081
 20
-6.047741822161243
 30
0.0
 50
270.0
  0
MTEXT
  5
6F
102
{ACAD_REACTORS
330
70
102
}
330
26
100
AcDbEntity
  8
DIM
  6
Continuous
 62
     0
100
AcDbMText
 10
48.27904275773582
 20
6.452443396904298
 30
0.0
 40
2.44326171875
 41
0.0
 46
0.0
 71
     5
 72
     1
  1
\A1;25
  7
ＭＳ ゴシック
 11
0.0
 21
1.0
 31
0.0
 73
     1
 44
1.0
  0
POINT
  5
70
330
26
100
AcDbEntity
  8
Defpoints
 62
     0
100
AcDbPoint
 10
31.45289203318953
 20
18.95262861596984
 30
0.0
  0
POINT
  5
71
330
26
100
AcDbEntity
  8
Defpoints
 62
     0
100
AcDbPoint
 10
25.00067361711081
 20
-6.047741822161242
 30
0.0
  0
POINT
  5
72
330
26
100
AcDbEntity
  8
Defpoints
 62
     0
100
AcDbPoint
 10
50.00067361711081
 20
-6.047741822161243
 30
0.0
  0
ENDBLK
  5
75
330
26
100
AcDbEntity
  8
notes
390
1D
100
AcDbBlockEnd
  0
BLOCK
  5
76
330
27
100
AcDbEntity
  8
notes
390
1D
100
AcDbBlockBegin
  2
*D6
 70
     1
 10
0.0
 20
0.0
 30
0.0
  3
*D6
  1
*D6
  0
LINE
  5
77
330
27
100
AcDbEntity
  8
DIM
  6
Continuous
 62
     0
370
    -2
100
AcDbLine
 10
21.74959955571012
 20
-16.04794083762863
 30
0.0
 11
50.00067361711081
 21
-16.04794083762863
 31
0.0
  0
LINE
  5
78
330
27
100
AcDbEntity
  8
DIM
  6
Continuous
 62
     0
370
    -2
100
AcDbLine
 10
27.50067361711081
 20
-6.047741822161242
 30
0.0
 11
50.00067361711081
 21
-6.047741822161243
 31
0.0
  0
LINE
  5
79
330
27
100
AcDbEntity
  8
DIM
  6
Continuous
 62
     0
370
    -2
100
AcDbLine
 10
50.00067361711081
 20
-15.04794083762863
 30
0.0
 11
50.00067361711081
 21
-7.047741822161243
 31
0.0
  0
INSERT
  5
7A
102
{ACAD_REACTORS
330
7B
102
}
330
27
100
AcDbEntity
  8
DIM
 62
     0
370
    -2
100
AcDbBlockReference
  2
_DOT
 10
50.00067361711081
 20
-16.04794083762863
 30
0.0
 50
270.0
  0
INSERT
  5
7B
330
27
100
AcDbEntity
  8
DIM
 62
     0
370
    -2
100
AcDbBlockReference
  2
_DOT
 10
50.00067361711081
 20
-6.047741822161243
 30
0.0
 50
90.0
  0
MTEXT
  5
7C
102
{ACAD_REACTORS
330
7D
102
}
330
27
100
AcDbEntity
  8
DIM
  6
Continuous
 62
     0
100
AcDbMText
 10
48.27904275773581
 20
-11.04784132989494
 30
0.0
 40
2.44326171875
 41
0.0
 46
0.0
 71
     5
 72
     1
  1
\A1;10
  7
ＭＳ ゴシック
 11
0.0
 21
1.0
 31
0.0
 73
     1
 44
1.0
  0
POINT
  5
7D
330
27
100
AcDbEntity
  8
Defpoints
 62
     0
100
AcDbPoint
 10
19.24959955571012
 20
-16.04794083762863
 30
0.0
  0
POINT
  5
7E
330
27
100
AcDbEntity
  8
Defpoints
 62
     0
100
AcDbPoint
 10
25.00067361711081
 20
-6.047741822161242
 30
0.0
  0
POINT
  5
7F
330
27
100
AcDbEntity
  8
Defpoints
 62
     0
100
AcDbPoint
 10
50.00067361711081
 20
-6.047741822161243
 30
0.0
  0
ENDBLK
  5
82
330
27
100
AcDbEntity
  8
notes
390
1D
100
AcDbBlockEnd
  0
BLOCK
  5
83
330
28
100
AcDbEntity
  8
notes
390
1D
100
AcDbBlockBegin
  2
*D7
 70
     1
 10
0.0
 20
0.0
 30
0.0
  3
*D7
  1
*D7
  0
LINE
  5
84
330
28
100
AcDbEntity
  8
DIM
  6
Continuous
 62
     0
370
    -2
100
AcDbLine
 10
25.00067361711081
 20
-8.547741822161242
 30
0.0
 11
25.00067361711081
 21
-49.54774182216124
 31
0.0
  0
LINE
  5
85
330
28
100
AcDbEntity
  8
DIM
  6
Continuous
 62
     0
370
    -2
100
AcDbLine
 10
-25.00120185243577
 20
-8.547741822161242
 30
0.0
 11
-25.00120185243577
 21
-49.54774182216124
 31
0.0
  0
LINE
  5
86
330
28
100
AcDbEntity
  8
DIM
  6
Continuous
 62
     0
370
    -2
100
AcDbLine
 10
24.00067361711081
 20
-49.54774182216124
 30
0.0
 11
-24.00120185243577
 21
-49.54774182216124
 31
0.0
  0
INSERT
  5
87
102
{ACAD_REACTORS
330
88
102
}
330
28
100
AcDbEntity
  8
DIM
 62
     0
370
    -2
100
AcDbBlockReference
  2
_DOT
 10
25.00067361711081
 20
-49.54774182216124
 30
0.0
  0
INSERT
  5
88
330
28
100
AcDbEntity
  8
DIM
 62
     0
370
    -2
100
AcDbBlockReference
  2
_DOT
 10
-25.00120185243577
 20
-49.54774182216124
 30
0.0
 50
180.0
  0
MTEXT
  5
89
102
{ACAD_REACTORS
330
8A
102
}
330
28
100
AcDbEntity
  8
DIM
  6
Continuous
 62
     0
100
AcDbMText
 10
-0.000264117662482
 20
-47.62820676356749
 30
0.0
 40
2.44326171875
 41
0.0
 46
0.0
 71
     5
 72
     1
  1
\A1;φ50
  7
ＭＳ ゴシック
 73
     1
 44
1.0
  0
POINT
  5
8A
330
28
100
AcDbEntity
  8
Defpoints
 62
     0
100
AcDbPoint
 10
25.00067361711081
 20
-6.047741822161242
 30
0.0
  0
POINT
  5
8B
330
28
100
AcDbEntity
  8
Defpoints
 62
     0
100
AcDbPoint
 10
-25.00120185243577
 20
-6.047741822161242
 30
0.0
  0
POINT
  5
8C
330
28
100
AcDbEntity
  8
Defpoints
 62
     0
100
AcDbPoint
 10
-25.00120185243577
 20
-49.54774182216124
 30
0.0
  0
ENDBLK
  5
8F
330
28
100
AcDbEntity
  8
notes
390
1D
100
AcDbBlockEnd
  0
BLOCK
  5
90
330
29
100
AcDbEntity
  8
notes
390
1D
100
AcDbBlockBegin
  2
*D8
 70
     1
 10
0.0
 20
0.0
 30
0.0
  3
*D8
  1
*D8
  0
LINE
  5
91
330
29
100
AcDbEntity
  8
DIM
  6
Continuous
 62
     0
370
    -2
100
AcDbLine
 10
20.75049219239372
 20
-17.04775251471119
 30
0.0
 11
20.75049219239372
 21
-39.54775251471119
 31
0.0
  0
LINE
  5
92
330
29
100
AcDbEntity
  8
DIM
  6
Continuous
 62
     0
370
    -2
100
AcDbLine
 10
-20.75119650616034
 20
-17.04775251471119
 30
0.0
 11
-20.75119650616034
 21
-39.54775251471119
 31
0.0
  0
LINE
  5
93
330
29
100
AcDbEntity
  8
DIM
  6
Continuous
 62
     0
370
    -2
100
AcDbLine
 10
19.75049219239372
 20
-39.54775251471119
 30
0.0
 11
-19.75119650616034
 21
-39.54775251471119
 31
0.0
  0
INSERT
  5
94
102
{ACAD_REACTORS
330
95
102
}
330
29
100
AcDbEntity
  8
DIM
 62
     0
370
    -2
100
AcDbBlockReference
  2
_DOT
 10
20.75049219239372
 20
-39.54775251471119
 30
0.0
  0
INSERT
  5
95
330
29
100
AcDbEntity
  8
DIM
 62
     0
370
    -2
100
AcDbBlockReference
  2
_DOT
 10
-20.75119650616034
 20
-39.54775251471119
 30
0.0
 50
180.0
  0
MTEXT
  5
96
102
{ACAD_REACTORS
330
97
102
}
330
29
100
AcDbEntity
  8
DIM
  6
Continuous
 62
     0
100
AcDbMText
 10
-0.0003521568833094
 20
-37.56591428228932
 30
0.0
 40
2.44326171875
 41
0.0
 46
0.0
 71
     5
 72
     1
  1
\A1;G1 1/4"
  7
ＭＳ ゴシック
 73
     1
 44
1.0
  0
POINT
  5
97
330
29
100
AcDbEntity
  8
Defpoints
 62
     0
100
AcDbPoint
 10
20.75049219239372
 20
-14.54775251471119
 30
0.0
  0
POINT
  5
98
330
29
100
AcDbEntity
  8
Defpoints
 62
     0
100
AcDbPoint
 10
-20.75119650616034
 20
-14.54775251471119
 30
0.0
  0
POINT
  5
99
330
29
100
AcDbEntity
  8
Defpoints
 62
     0
100
AcDbPoint
 10
-20.75119650616034
 20
-39.54775251471119
 30
0.0
  0
ENDBLK
  5
9C
330
29
100
AcDbEntity
  8
notes
390
1D
100
AcDbBlockEnd
  0
BLOCK
  5
21C
330
21B
100
AcDbEntity
  8
0
100
AcDbBlockBegin
  2
名称未設定-1
 70
     0
 10
0.0
 20
0.0
 30
0.0
  3
名称未設定-1
  1
名称未設定-1
  0
INSERT
  5
21D
330
21B
100
AcDbEntity
  8
LOGO
100
AcDbBlockReference
  2
block 3
 10
0.0
 20
0.0
 30
0.0
  0
ENDBLK
  5
23E
330
21B
100
AcDbEntity
  8
0
100
AcDbBlockEnd
  0
BLOCK
  5
21F
330
21E
100
AcDbEntity
  8
0
100
AcDbBlockBegin
  2
block 3
 70
     0
 10
0.0
 20
0.0
 30
0.0
  3
block 3
  1
block 3
  0
INSERT
  5
220
330
21E
100
AcDbEntity
  8
LOGO
100
AcDbBlockReference
  2
block 4
 10
0.0
 20
0.0
 30
0.0
  0
INSERT
  5
230
330
21E
100
AcDbEntity
  8
LOGO
100
AcDbBlockReference
  2
block 5
 10
0.0
 20
0.0
 30
0.0
  0
ENDBLK
  5
23D
330
21E
100
AcDbEntity
  8
0
100
AcDbBlockEnd
  0
BLOCK
  5
222
330
221
100
AcDbEntity
  8
0
100
AcDbBlockBegin
  2
block 4
 70
     0
 10
0.0
 20
0.0
 30
0.0
  3
block 4
  1
block 4
  0
POLYLINE
  5
223
330
221
100
AcDbEntity
  8
LOGO
370
     0
100
AcDb2dPolyline
 66
     1
 10
0.0
 20
0.0
 30
0.0
  0
VERTEX
  5
224
330
223
100
AcDbEntity
  8
LOGO
370
     0
100
AcDbVertex
100
AcDb2dVertex
 10
83.79545727667795
 20
167.6444858234922
 30
0.0
  0
VERTEX
  5
225
330
223
100
AcDbEntity
  8
LOGO
370
     0
100
AcDbVertex
100
AcDb2dVertex
 10
83.79545727667795
 20
159.7968976406313
 30
0.0
  0
VERTEX
  5
226
330
223
100
AcDbEntity
  8
LOGO
370
     0
100
AcDbVertex
100
AcDb2dVertex
 10
71.3631329975216
 20
159.7968976406313
 30
0.0
  0
VERTEX
  5
227
330
223
100
AcDbEntity
  8
LOGO
370
     0
100
AcDbVertex
100
AcDb2dVertex
 10
71.3631329975216
 20
127.8027915271048
 30
0.0
  0
VERTEX
  5
228
330
223
100
AcDbEntity
  8
LOGO
370
     0
100
AcDbVertex
100
AcDb2dVertex
 10
60.43011526263018
 20
127.8027915271048
 30
0.0
  0
VERTEX
  5
229
330
223
100
AcDbEntity
  8
LOGO
370
     0
100
AcDbVertex
100
AcDb2dVertex
 10
60.43011526263018
 20
159.7968976406313
 30
0.0
  0
VERTEX
  5
22A
330
223
100
AcDbEntity
  8
LOGO
370
     0
100
AcDbVertex
100
AcDb2dVertex
 10
48.21793273020759
 20
159.7968976406313
 30
0.0
  0
VERTEX
  5
22B
330
223
100
AcDbEntity
  8
LOGO
370
     0
100
AcDbVertex
100
AcDb2dVertex
 10
48.21793273020759
 20
167.6444858234922
 30
0.0
  0
VERTEX
  5
22C
330
223
100
AcDbEntity
  8
LOGO
370
     0
100
AcDbVertex
100
AcDb2dVertex
 10
83.79545727667795
 20
167.6444858234922
 30
0.0
  0
SEQEND
  5
22D
330
223
100
AcDbEntity
  8
LOGO
370
     0
  0
HATCH
  5
22E
330
221
100
AcDbEntity
  8
LOGO
 62
   250
420
  2234388
100
AcDbHatch
 10
0.0
 20
0.0
 30
0.0
210
0.0
220
0.0
230
1.0
  2
SOLID
 70
     1
 71
     0
 91
        1
 92
        1
 93
        8
 72
     1
 10
83.79545727667795
 20
167.6444858234922
 11
83.79545727667795
 21
159.7968976406313
 72
     1
 10
83.79545727667795
 20
159.7968976406313
 11
71.3631329975216
 21
159.7968976406313
 72
     1
 10
71.3631329975216
 20
159.7968976406313
 11
71.3631329975216
 21
127.8027915271048
 72
     1
 10
71.3631329975216
 20
127.8027915271048
 11
60.43011526263018
 21
127.8027915271048
 72
     1
 10
60.43011526263018
 20
127.8027915271048
 11
60.43011526263018
 21
159.7968976406313
 72
     1
 10
60.43011526263018
 20
159.7968976406313
 11
48.21793273020759
 21
159.7968976406313
 72
     1
 10
48.21793273020759
 20
159.7968976406313
 11
48.21793273020759
 21
167.6444858234922
 72
     1
 10
48.21793273020759
 20
167.6444858234922
 11
83.79545727667795
 21
167.6444858234922
 97
        0
 75
     2
 76
     1
 98
        0
  0
ENDBLK
  5
22F
330
221
100
AcDbEntity
  8
0
100
AcDbBlockEnd
  0
BLOCK
  5
232
330
231
100
AcDbEntity
  8
0
100
AcDbBlockBegin
  2
block 5
 70
     0
 10
0.0
 20
0.0
 30
0.0
  3
block 5
  1
block 5
  0
SPLINE
  5
233
330
231
100
AcDbEntity
  8
LOGO
370
     0
100
AcDbSpline
210
0.0
220
0.0
230
1.0
 70
    11
 71
     3
 72
    56
 73
    52
 74
     0
 42
0.000000001
 43
0.0000000001
 40
0.0
 40
0.0
 40
0.0
 40
0.0
 40
1.0
 40
1.0
 40
1.0
 40
2.0
 40
2.0
 40
2.0
 40
3.0
 40
3.0
 40
3.0
 40
4.0
 40
4.0
 40
4.0
 40
5.0
 40
5.0
 40
5.0
 40
6.0
 40
6.0
 40
6.0
 40
7.0
 40
7.0
 40
7.0
 40
8.0
 40
8.0
 40
8.0
 40
9.0
 40
9.0
 40
9.0
 40
10.0
 40
10.0
 40
10.0
 40
11.0
 40
11.0
 40
11.0
 40
12.0
 40
12.0
 40
12.0
 40
13.0
 40
13.0
 40
13.0
 40
14.0
 40
14.0
 40
14.0
 40
15.0
 40
15.0
 40
15.0
 40
16.0
 40
16.0
 40
16.0
 40
17.0
 40
17.0
 40
17.0
 40
17.0
 10
100.4504378777679
 20
166.69157178364
 30
0.0
 10
101.9848844191641
 20
167.1313385124438
 30
0.0
 10
103.9637485713373
 20
166.7649523658846
 30
0.0
 10
103.9637485713373
 20
166.7649523658846
 30
0.0
 10
103.9637485713373
 20
166.7649523658846
 30
0.0
 10
103.0132460999156
 20
163.911205638077
 30
0.0
 10
103.0132460999156
 20
163.911205638077
 30
0.0
 10
103.0132460999156
 20
163.911205638077
 30
0.0
 10
101.0674548862189
 20
164.3601018759394
 30
0.0
 10
99.57090442016032
 20
163.1805004036133
 30
0.0
 10
98.40508333886608
 20
162.258247733807
 30
0.0
 10
97.65301849830304
 20
159.804132345923
 30
0.0
 10
97.3598406791005
 20
158.8699940888517
 30
0.0
 10
97.3598406791005
 20
158.8699940888517
 30
0.0
 10
96.07137411762282
 20
154.9119212747295
 30
0.0
 10
96.07137411762282
 20
154.9119212747295
 30
0.0
 10
96.07137411762282
 20
154.9119212747295
 30
0.0
 10
100.3012651448482
 20
154.9119212747295
 30
0.0
 10
100.3012651448482
 20
154.9119212747295
 30
0.0
 10
100.3012651448482
 20
154.9119212747295
 30
0.0
 10
99.64152892419852
 20
152.4199098115079
 30
0.0
 10
99.64152892419852
 20
152.4199098115079
 30
0.0
 10
99.64152892419852
 20
152.4199098115079
 30
0.0
 10
95.38097652692731
 20
152.4199098115079
 30
0.0
 10
95.38097652692731
 20
152.4199098115079
 30
0.0
 10
95.38097652692731
 20
152.4199098115079
 30
0.0
 10
87.75353009080013
 20
127.8027915271048
 30
0.0
 10
87.75353009080013
 20
127.8027915271048
 30
0.0
 10
87.75353009080013
 20
127.8027915271048
 30
0.0
 10
85.36538832498108
 20
127.8027915271048
 30
0.0
 10
85.36538832498108
 20
127.8027915271048
 30
0.0
 10
85.36538832498108
 20
127.8027915271048
 30
0.0
 10
93.00006946639998
 20
152.4199098115079
 30
0.0
 10
93.00006946639998
 20
152.4199098115079
 30
0.0
 10
93.00006946639998
 20
152.4199098115079
 30
0.0
 10
89.85297266450198
 20
152.4199098115079
 30
0.0
 10
89.85297266450198
 20
152.4199098115079
 30
0.0
 10
89.85297266450198
 20
152.4199098115079
 30
0.0
 10
90.51270888515164
 20
154.9119212747295
 30
0.0
 10
90.51270888515164
 20
154.9119212747295
 30
0.0
 10
90.51270888515164
 20
154.9119212747295
 30
0.0
 10
93.6904670570955
 20
154.9119212747295
 30
0.0
 10
93.6904670570955
 20
154.9119212747295
 30
0.0
 10
93.6904670570955
 20
154.9119212747295
 30
0.0
 10
94.81598049462158
 20
158.3616699146644
 30
0.0
 10
94.81598049462158
 20
158.3616699146644
 30
0.0
 10
95.7237637538445
 20
161.2605474231013
 30
0.0
 10
96.4968436907311
 20
162.8139420021662
 30
0.0
 10
97.15657991138076
 20
163.9844139654337
 30
0.0
 10
97.81183750494507
 20
165.1523021053827
 30
0.0
 10
99.1047826935081
 20
166.3084769129547
 30
0.0
 10
100.4504378777679
 20
166.69157178364
 30
0.0
  0
HATCH
  5
234
330
231
100
AcDbEntity
  8
LOGO
 62
   250
420
  2234388
100
AcDbHatch
 10
0.0
 20
0.0
 30
0.0
210
0.0
220
0.0
230
1.0
  2
SOLID
 70
     1
 71
     0
 91
        1
 92
        1
 93
        1
 72
     4
 94
        3
 73
     0
 74
     1
 95
       56
 96
       52
 40
0.0
 40
0.0
 40
0.0
 40
0.0
 40
1.0
 40
1.0
 40
1.0
 40
2.0
 40
2.0
 40
2.0
 40
3.0
 40
3.0
 40
3.0
 40
4.0
 40
4.0
 40
4.0
 40
5.0
 40
5.0
 40
5.0
 40
6.0
 40
6.0
 40
6.0
 40
7.0
 40
7.0
 40
7.0
 40
8.0
 40
8.0
 40
8.0
 40
9.0
 40
9.0
 40
9.0
 40
10.0
 40
10.0
 40
10.0
 40
11.0
 40
11.0
 40
11.0
 40
12.0
 40
12.0
 40
12.0
 40
13.0
 40
13.0
 40
13.0
 40
14.0
 40
14.0
 40
14.0
 40
15.0
 40
15.0
 40
15.0
 40
16.0
 40
16.0
 40
16.0
 40
17.0
 40
17.0
 40
17.0
 40
17.0
 10
100.4504378777679
 20
166.69157178364
 10
101.9848844191641
 20
167.1313385124438
 10
103.9637485713373
 20
166.7649523658846
 10
103.9637485713373
 20
166.7649523658846
 10
103.9637485713373
 20
166.7649523658846
 10
103.0132460999156
 20
163.911205638077
 10
103.0132460999156
 20
163.911205638077
 10
103.0132460999156
 20
163.911205638077
 10
101.0674548862189
 20
164.3601018759394
 10
99.57090442016032
 20
163.1805004036133
 10
98.40508333886608
 20
162.258247733807
 10
97.65301849830304
 20
159.804132345923
 10
97.3598406791005
 20
158.8699940888517
 10
97.3598406791005
 20
158.8699940888517
 10
96.07137411762282
 20
154.9119212747295
 10
96.07137411762282
 20
154.9119212747295
 10
96.07137411762282
 20
154.9119212747295
 10
100.3012651448482
 20
154.9119212747295
 10
100.3012651448482
 20
154.9119212747295
 10
100.3012651448482
 20
154.9119212747295
 10
99.64152892419852
 20
152.4199098115079
 10
99.64152892419852
 20
152.4199098115079
 10
99.64152892419852
 20
152.4199098115079
 10
95.38097652692731
 20
152.4199098115079
 10
95.38097652692731
 20
152.4199098115079
 10
95.38097652692731
 20
152.4199098115079
 10
87.75353009080013
 20
127.8027915271048
 10
87.75353009080013
 20
127.8027915271048
 10
87.75353009080013
 20
127.8027915271048
 10
85.36538832498108
 20
127.8027915271048
 10
85.36538832498108
 20
127.8027915271048
 10
85.36538832498108
 20
127.8027915271048
 10
93.00006946639998
 20
152.4199098115079
 10
93.00006946639998
 20
152.4199098115079
 10
93.00006946639998
 20
152.4199098115079
 10
89.85297266450198
 20
152.4199098115079
 10
89.85297266450198
 20
152.4199098115079
 10
89.85297266450198
 20
152.4199098115079
 10
90.51270888515164
 20
154.9119212747295
 10
90.51270888515164
 20
154.9119212747295
 10
90.51270888515164
 20
154.9119212747295
 10
93.6904670570955
 20
154.9119212747295
 10
93.6904670570955
 20
154.9119212747295
 10
93.6904670570955
 20
154.9119212747295
 10
94.81598049462158
 20
158.3616699146644
 10
94.81598049462158
 20
158.3616699146644
 10
95.7237637538445
 20
161.2605474231013
 10
96.4968436907311
 20
162.8139420021662
 10
97.15657991138076
 20
163.9844139654337
 10
97.81183750494507
 20
165.1523021053827
 10
99.1047826935081
 20
166.3084769129547
 10
100.4504378777679
 20
166.69157178364
 97
        0
 75
     2
 76
     1
 98
        0
  0
SPLINE
  5
235
330
231
100
AcDbEntity
  8
LOGO
370
     0
100
AcDbSpline
210
0.0
220
0.0
230
1.0
 70
    11
 71
     3
 72
    38
 73
    34
 74
     0
 42
0.000000001
 43
0.0000000001
 40
0.0
 40
0.0
 40
0.0
 40
0.0
 40
1.0
 40
1.0
 40
1.0
 40
2.0
 40
2.0
 40
2.0
 40
3.0
 40
3.0
 40
3.0
 40
4.0
 40
4.0
 40
4.0
 40
5.0
 40
5.0
 40
5.0
 40
6.0
 40
6.0
 40
6.0
 40
7.0
 40
7.0
 40
7.0
 40
8.0
 40
8.0
 40
8.0
 40
9.0
 40
9.0
 40
9.0
 40
10.0
 40
10.0
 40
10.0
 40
11.0
 40
11.0
 40
11.0
 40
11.0
 10
126.377554584636
 20
154.8151140277308
 30
0.0
 10
126.377554584636
 20
154.8151140277308
 30
0.0
 10
128.8311532078563
 20
154.8151140277308
 30
0.0
 10
128.8311532078563
 20
154.8151140277308
 30
0.0
 10
128.8311532078563
 20
154.8151140277308
 30
0.0
 10
127.7345785914971
 20
151.3062819612468
 30
0.0
 10
127.7345785914971
 20
151.3062819612468
 30
0.0
 10
128.571392836906
 20
152.2922689395754
 30
0.0
 10
129.8860421413442
 20
153.604506675583
 30
0.0
 10
131.0163787157314
 20
154.2664822097754
 30
0.0
 10
132.7044766171327
 20
155.2500576196734
 30
0.0
 10
133.6642808525008
 20
155.3847609420097
 30
0.0
 10
134.7284715499351
 20
155.3565111403944
 30
0.0
 10
134.7284715499351
 20
155.3565111403944
 30
0.0
 10
133.6877075172549
 20
152.0345756272799
 30
0.0
 10
133.6877075172549
 20
152.0345756272799
 30
0.0
 10
133.011434827367
 20
152.3184516825359
 30
0.0
 10
130.930940291334
 20
151.7768823149844
 30
0.0
 10
129.739280976855
 20
150.9162968950455
 30
0.0
 10
128.66613302525
 20
150.1454562717016
 30
0.0
 10
127.9192358313239
 20
149.4857200510519
 30
0.0
 10
127.0393578639405
 20
147.8282835196966
 30
0.0
 10
126.164647543194
 20
146.1699857139017
 30
0.0
 10
125.4742499524985
 20
143.5262176944419
 30
0.0
 10
124.2822461282437
 20
139.6959580071401
 30
0.0
 10
124.2822461282437
 20
139.6959580071401
 30
0.0
 10
120.5753209406769
 20
127.8027915271048
 30
0.0
 10
120.5753209406769
 20
127.8027915271048
 30
0.0
 10
120.5753209406769
 20
127.8027915271048
 30
0.0
 10
118.1964809388044
 20
127.8027915271048
 30
0.0
 10
118.1964809388044
 20
127.8027915271048
 30
0.0
 10
118.1964809388044
 20
127.8027915271048
 30
0.0
 10
126.377554584636
 20
154.8151140277308
 30
0.0
 10
126.377554584636
 20
154.8151140277308
 30
0.0
  0
HATCH
  5
236
330
231
100
AcDbEntity
  8
LOGO
 62
   250
420
  2234388
100
AcDbHatch
 10
0.0
 20
0.0
 30
0.0
210
0.0
220
0.0
230
1.0
  2
SOLID
 70
     1
 71
     0
 91
        1
 92
        1
 93
        1
 72
     4
 94
        3
 73
     0
 74
     1
 95
       38
 96
       34
 40
0.0
 40
0.0
 40
0.0
 40
0.0
 40
1.0
 40
1.0
 40
1.0
 40
2.0
 40
2.0
 40
2.0
 40
3.0
 40
3.0
 40
3.0
 40
4.0
 40
4.0
 40
4.0
 40
5.0
 40
5.0
 40
5.0
 40
6.0
 40
6.0
 40
6.0
 40
7.0
 40
7.0
 40
7.0
 40
8.0
 40
8.0
 40
8.0
 40
9.0
 40
9.0
 40
9.0
 40
10.0
 40
10.0
 40
10.0
 40
11.0
 40
11.0
 40
11.0
 40
11.0
 10
126.377554584636
 20
154.8151140277308
 10
126.377554584636
 20
154.8151140277308
 10
128.8311532078563
 20
154.8151140277308
 10
128.8311532078563
 20
154.8151140277308
 10
128.8311532078563
 20
154.8151140277308
 10
127.7345785914971
 20
151.3062819612468
 10
127.7345785914971
 20
151.3062819612468
 10
128.571392836906
 20
152.2922689395754
 10
129.8860421413442
 20
153.604506675583
 10
131.0163787157314
 20
154.2664822097754
 10
132.7044766171327
 20
155.2500576196734
 10
133.6642808525008
 20
155.3847609420097
 10
134.7284715499351
 20
155.3565111403944
 10
134.7284715499351
 20
155.3565111403944
 10
133.6877075172549
 20
152.0345756272799
 10
133.6877075172549
 20
152.0345756272799
 10
133.011434827367
 20
152.3184516825359
 10
130.930940291334
 20
151.7768823149844
 10
129.739280976855
 20
150.9162968950455
 10
128.66613302525
 20
150.1454562717016
 10
127.9192358313239
 20
149.4857200510519
 10
127.0393578639405
 20
147.8282835196966
 10
126.164647543194
 20
146.1699857139017
 10
125.4742499524985
 20
143.5262176944419
 10
124.2822461282437
 20
139.6959580071401
 10
124.2822461282437
 20
139.6959580071401
 10
120.5753209406769
 20
127.8027915271048
 10
120.5753209406769
 20
127.8027915271048
 10
120.5753209406769
 20
127.8027915271048
 10
118.1964809388044
 20
127.8027915271048
 10
118.1964809388044
 20
127.8027915271048
 10
118.1964809388044
 20
127.8027915271048
 10
126.377554584636
 20
154.8151140277308
 10
126.377554584636
 20
154.8151140277308
 97
        0
 75
     2
 76
     1
 98
        0
  0
SPLINE
  5
237
330
231
100
AcDbEntity
  8
LOGO
370
     0
100
AcDbSpline
210
0.0
220
0.0
230
1.0
 70
    11
 71
     3
 72
   104
 73
   100
 74
     0
 42
0.000000001
 43
0.0000000001
 40
0.0
 40
0.0
 40
0.0
 40
0.0
 40
1.0
 40
1.0
 40
1.0
 40
2.0
 40
2.0
 40
2.0
 40
3.0
 40
3.0
 40
3.0
 40
4.0
 40
4.0
 40
4.0
 40
5.0
 40
5.0
 40
5.0
 40
6.0
 40
6.0
 40
6.0
 40
7.0
 40
7.0
 40
7.0
 40
8.0
 40
8.0
 40
8.0
 40
9.0
 40
9.0
 40
9.0
 40
10.0
 40
10.0
 40
10.0
 40
11.0
 40
11.0
 40
11.0
 40
12.0
 40
12.0
 40
12.0
 40
13.0
 40
13.0
 40
13.0
 40
14.0
 40
14.0
 40
14.0
 40
15.0
 40
15.0
 40
15.0
 40
16.0
 40
16.0
 40
16.0
 40
17.0
 40
17.0
 40
17.0
 40
18.0
 40
18.0
 40
18.0
 40
19.0
 40
19.0
 40
19.0
 40
20.0
 40
20.0
 40
20.0
 40
21.0
 40
21.0
 40
21.0
 40
22.0
 40
22.0
 40
22.0
 40
23.0
 40
23.0
 40
23.0
 40
24.0
 40
24.0
 40
24.0
 40
25.0
 40
25.0
 40
25.0
 40
26.0
 40
26.0
 40
26.0
 40
27.0
 40
27.0
 40
27.0
 40
28.0
 40
28.0
 40
28.0
 40
29.0
 40
29.0
 40
29.0
 40
30.0
 40
30.0
 40
30.0
 40
31.0
 40
31.0
 40
31.0
 40
32.0
 40
32.0
 40
32.0
 40
33.0
 40
33.0
 40
33.0
 40
33.0
 10
139.8926730891197
 20
154.8294111834263
 30
0.0
 10
139.8926730891197
 20
154.8294111834263
 30
0.0
 10
142.0344903652445
 20
154.8294111834263
 30
0.0
 10
142.0344903652445
 20
154.8294111834263
 30
0.0
 10
142.0344903652445
 20
154.8294111834263
 30
0.0
 10
140.9516961399171
 20
151.3157559800812
 30
0.0
 10
140.9516961399171
 20
151.3157559800812
 30
0.0
 10
141.8928968473923
 20
152.7887075264977
 30
0.0
 10
142.7341897198865
 20
153.4484437471474
 30
0.0
 10
143.8552245303272
 20
154.2926649527359
 30
0.0
 10
144.9803934580775
 20
155.1296514530327
 30
0.0
 10
146.3139908001845
 20
155.3044901642492
 30
0.0
 10
147.241066606852
 20
155.3044901642492
 30
0.0
 10
148.3855280820469
 20
155.3044901642492
 30
0.0
 10
149.4969166187653
 20
155.0752189084569
 30
0.0
 10
150.0784491203092
 20
153.8172414621372
 30
0.0
 10
150.5228667310863
 20
152.833838307127
 30
0.0
 10
150.5414702589793
 20
152.7201500811143
 30
0.0
 10
150.4140016419347
 20
150.7765981809602
 30
0.0
 10
151.5818897818837
 20
152.7699317437168
 30
0.0
 10
152.4424752018226
 20
153.6256940267945
 30
0.0
 10
153.9038856707499
 20
154.4507949398263
 30
0.0
 10
155.4455669174378
 20
155.3044901642492
 30
0.0
 10
156.339225275853
 20
155.3659851592288
 30
0.0
 10
157.3748216618963
 20
155.2147453676543
 30
0.0
 10
158.911679771723
 20
154.9877134254046
 30
0.0
 10
159.8859534176746
 20
154.4390816074493
 30
0.0
 10
160.3965169054045
 20
152.7816450760939
 30
0.0
 10
160.9070803931344
 20
151.1219692311958
 30
0.0
 10
160.6328506116007
 20
150.2303779314354
 30
0.0
 10
159.9992971339115
 20
147.597634224801
 30
0.0
 10
159.7105979417943
 20
146.4014962832367
 30
0.0
 10
159.2947746424084
 20
144.9400858143094
 30
0.0
 10
158.7463150793409
 20
143.2092687007094
 30
0.0
 10
158.7463150793409
 20
143.2092687007094
 30
0.0
 10
153.9038856707499
 20
127.8027915271048
 30
0.0
 10
153.9038856707499
 20
127.8027915271048
 30
0.0
 10
153.9038856707499
 20
127.8027915271048
 30
0.0
 10
151.3882752878863
 20
127.8027915271048
 30
0.0
 10
151.3882752878863
 20
127.8027915271048
 30
0.0
 10
151.3882752878863
 20
127.8027915271048
 30
0.0
 10
155.6250565106276
 20
141.2751908193897
 30
0.0
 10
155.6250565106276
 20
141.2751908193897
 30
0.0
 10
156.5094131050963
 20
144.0936252951782
 30
0.0
 10
157.109893644309
 20
146.1506931664571
 30
0.0
 10
157.4220195011804
 20
147.4415712963654
 30
0.0
 10
157.8095929989511
 20
149.0530157726519
 30
0.0
 10
157.9656559273867
 20
149.5826995529385
 30
0.0
 10
157.7816877071116
 20
150.7529992613181
 30
0.0
 10
157.6111553680925
 20
151.8430281919372
 30
0.0
 10
157.0582171779396
 20
152.5547853887321
 30
0.0
 10
156.1170164704645
 20
152.5547853887321
 30
0.0
 10
155.1096698860365
 20
152.5547853887321
 30
0.0
 10
154.2962823053817
 20
152.4412694176073
 30
0.0
 10
153.156643967048
 20
151.2945686288697
 30
0.0
 10
152.0170056287143
 20
150.1476955852443
 30
0.0
 10
151.076149431015
 20
148.7930831468137
 30
0.0
 10
150.3337308641742
 20
147.2290087646991
 30
0.0
 10
149.5957909244188
 20
145.6683794803425
 30
0.0
 10
148.8530278478023
 20
143.6822806228776
 30
0.0
 10
148.0964843801539
 20
141.2751908193897
 30
0.0
 10
148.0964843801539
 20
141.2751908193897
 30
0.0
 10
143.8552245303272
 20
127.8027915271048
 30
0.0
 10
143.8552245303272
 20
127.8027915271048
 30
0.0
 10
143.8552245303272
 20
127.8027915271048
 30
0.0
 10
141.486030802177
 20
127.8027915271048
 30
0.0
 10
141.486030802177
 20
127.8027915271048
 30
0.0
 10
141.486030802177
 20
127.8027915271048
 30
0.0
 10
146.3329388378533
 20
143.2092687007094
 30
0.0
 10
146.3329388378533
 20
143.2092687007094
 30
0.0
 10
146.8483254624444
 20
144.8408669988801
 30
0.0
 10
147.2314203331297
 20
146.1837661049335
 30
0.0
 10
147.4867020769946
 20
147.224185627838
 30
0.0
 10
147.9169947869641
 20
149.0197705792876
 30
0.0
 10
148.0306830129768
 20
150.2400242051577
 30
0.0
 10
147.709255392159
 20
151.3157559800812
 30
0.0
 10
147.3874832615654
 20
152.3916600098926
 30
0.0
 10
146.8245542879144
 20
152.6683013598569
 30
0.0
 10
145.8840425999909
 20
152.6683013598569
 30
0.0
 10
145.0989048209514
 20
152.6683013598569
 30
0.0
 10
144.3282364524954
 20
152.3275811915945
 30
0.0
 10
143.4531816219731
 20
151.6538923250251
 30
0.0
 10
142.34627171234
 20
150.8074318058939
 30
0.0
 10
141.901854101563
 20
150.1097995099067
 30
0.0
 10
141.3578731655808
 20
149.289521733736
 30
0.0
 10
140.6299240093235
 20
148.192602607601
 30
0.0
 10
140.2850697237515
 20
147.455696197173
 30
0.0
 10
139.6652966370942
 20
145.8385673095858
 30
0.0
 10
139.0506911970739
 20
144.2214384219986
 30
0.0
 10
138.463991048893
 20
142.3252566160164
 30
0.0
 10
138.0571250036777
 20
141.0154304484394
 30
0.0
 10
138.0571250036777
 20
141.0154304484394
 30
0.0
 10
133.9009590684727
 20
127.8027915271048
 30
0.0
 10
133.9009590684727
 20
127.8027915271048
 30
0.0
 10
133.9009590684727
 20
127.8027915271048
 30
0.0
 10
131.4180771143097
 20
127.8027915271048
 30
0.0
 10
131.4180771143097
 20
127.8027915271048
 30
0.0
 10
131.4180771143097
 20
127.8027915271048
 30
0.0
 10
139.8926730891197
 20
154.8294111834263
 30
0.0
 10
139.8926730891197
 20
154.8294111834263
 30
0.0
  0
HATCH
  5
238
330
231
100
AcDbEntity
  8
LOGO
 62
   250
420
  2234388
100
AcDbHatch
 10
0.0
 20
0.0
 30
0.0
210
0.0
220
0.0
230
1.0
  2
SOLID
 70
     1
 71
     0
 91
        1
 92
        1
 93
        1
 72
     4
 94
        3
 73
     0
 74
     1
 95
      104
 96
      100
 40
0.0
 40
0.0
 40
0.0
 40
0.0
 40
1.0
 40
1.0
 40
1.0
 40
2.0
 40
2.0
 40
2.0
 40
3.0
 40
3.0
 40
3.0
 40
4.0
 40
4.0
 40
4.0
 40
5.0
 40
5.0
 40
5.0
 40
6.0
 40
6.0
 40
6.0
 40
7.0
 40
7.0
 40
7.0
 40
8.0
 40
8.0
 40
8.0
 40
9.0
 40
9.0
 40
9.0
 40
10.0
 40
10.0
 40
10.0
 40
11.0
 40
11.0
 40
11.0
 40
12.0
 40
12.0
 40
12.0
 40
13.0
 40
13.0
 40
13.0
 40
14.0
 40
14.0
 40
14.0
 40
15.0
 40
15.0
 40
15.0
 40
16.0
 40
16.0
 40
16.0
 40
17.0
 40
17.0
 40
17.0
 40
18.0
 40
18.0
 40
18.0
 40
19.0
 40
19.0
 40
19.0
 40
20.0
 40
20.0
 40
20.0
 40
21.0
 40
21.0
 40
21.0
 40
22.0
 40
22.0
 40
22.0
 40
23.0
 40
23.0
 40
23.0
 40
24.0
 40
24.0
 40
24.0
 40
25.0
 40
25.0
 40
25.0
 40
26.0
 40
26.0
 40
26.0
 40
27.0
 40
27.0
 40
27.0
 40
28.0
 40
28.0
 40
28.0
 40
29.0
 40
29.0
 40
29.0
 40
30.0
 40
30.0
 40
30.0
 40
31.0
 40
31.0
 40
31.0
 40
32.0
 40
32.0
 40
32.0
 40
33.0
 40
33.0
 40
33.0
 40
33.0
 10
139.8926730891197
 20
154.8294111834263
 10
139.8926730891197
 20
154.8294111834263
 10
142.0344903652445
 20
154.8294111834263
 10
142.0344903652445
 20
154.8294111834263
 10
142.0344903652445
 20
154.8294111834263
 10
140.9516961399171
 20
151.3157559800812
 10
140.9516961399171
 20
151.3157559800812
 10
141.8928968473923
 20
152.7887075264977
 10
142.7341897198865
 20
153.4484437471474
 10
143.8552245303272
 20
154.2926649527359
 10
144.9803934580775
 20
155.1296514530327
 10
146.3139908001845
 20
155.3044901642492
 10
147.241066606852
 20
155.3044901642492
 10
148.3855280820469
 20
155.3044901642492
 10
149.4969166187653
 20
155.0752189084569
 10
150.0784491203092
 20
153.8172414621372
 10
150.5228667310863
 20
152.833838307127
 10
150.5414702589793
 20
152.7201500811143
 10
150.4140016419347
 20
150.7765981809602
 10
151.5818897818837
 20
152.7699317437168
 10
152.4424752018226
 20
153.6256940267945
 10
153.9038856707499
 20
154.4507949398263
 10
155.4455669174378
 20
155.3044901642492
 10
156.339225275853
 20
155.3659851592288
 10
157.3748216618963
 20
155.2147453676543
 10
158.911679771723
 20
154.9877134254046
 10
159.8859534176746
 20
154.4390816074493
 10
160.3965169054045
 20
152.7816450760939
 10
160.9070803931344
 20
151.1219692311958
 10
160.6328506116007
 20
150.2303779314354
 10
159.9992971339115
 20
147.597634224801
 10
159.7105979417943
 20
146.4014962832367
 10
159.2947746424084
 20
144.9400858143094
 10
158.7463150793409
 20
143.2092687007094
 10
158.7463150793409
 20
143.2092687007094
 10
153.9038856707499
 20
127.8027915271048
 10
153.9038856707499
 20
127.8027915271048
 10
153.9038856707499
 20
127.8027915271048
 10
151.3882752878863
 20
127.8027915271048
 10
151.3882752878863
 20
127.8027915271048
 10
151.3882752878863
 20
127.8027915271048
 10
155.6250565106276
 20
141.2751908193897
 10
155.6250565106276
 20
141.2751908193897
 10
156.5094131050963
 20
144.0936252951782
 10
157.109893644309
 20
146.1506931664571
 10
157.4220195011804
 20
147.4415712963654
 10
157.8095929989511
 20
149.0530157726519
 10
157.9656559273867
 20
149.5826995529385
 10
157.7816877071116
 20
150.7529992613181
 10
157.6111553680925
 20
151.8430281919372
 10
157.0582171779396
 20
152.5547853887321
 10
156.1170164704645
 20
152.5547853887321
 10
155.1096698860365
 20
152.5547853887321
 10
154.2962823053817
 20
152.4412694176073
 10
153.156643967048
 20
151.2945686288697
 10
152.0170056287143
 20
150.1476955852443
 10
151.076149431015
 20
148.7930831468137
 10
150.3337308641742
 20
147.2290087646991
 10
149.5957909244188
 20
145.6683794803425
 10
148.8530278478023
 20
143.6822806228776
 10
148.0964843801539
 20
141.2751908193897
 10
148.0964843801539
 20
141.2751908193897
 10
143.8552245303272
 20
127.8027915271048
 10
143.8552245303272
 20
127.8027915271048
 10
143.8552245303272
 20
127.8027915271048
 10
141.486030802177
 20
127.8027915271048
 10
141.486030802177
 20
127.8027915271048
 10
141.486030802177
 20
127.8027915271048
 10
146.3329388378533
 20
143.2092687007094
 10
146.3329388378533
 20
143.2092687007094
 10
146.8483254624444
 20
144.8408669988801
 10
147.2314203331297
 20
146.1837661049335
 10
147.4867020769946
 20
147.224185627838
 10
147.9169947869641
 20
149.0197705792876
 10
148.0306830129768
 20
150.2400242051577
 10
147.709255392159
 20
151.3157559800812
 10
147.3874832615654
 20
152.3916600098926
 10
146.8245542879144
 20
152.6683013598569
 10
145.8840425999909
 20
152.6683013598569
 10
145.0989048209514
 20
152.6683013598569
 10
144.3282364524954
 20
152.3275811915945
 10
143.4531816219731
 20
151.6538923250251
 10
142.34627171234
 20
150.8074318058939
 10
141.901854101563
 20
150.1097995099067
 10
141.3578731655808
 20
149.289521733736
 10
140.6299240093235
 20
148.192602607601
 10
140.2850697237515
 20
147.455696197173
 10
139.6652966370942
 20
145.8385673095858
 10
139.0506911970739
 20
144.2214384219986
 10
138.463991048893
 20
142.3252566160164
 10
138.0571250036777
 20
141.0154304484394
 10
138.0571250036777
 20
141.0154304484394
 10
133.9009590684727
 20
127.8027915271048
 10
133.9009590684727
 20
127.8027915271048
 10
133.9009590684727
 20
127.8027915271048
 10
131.4180771143097
 20
127.8027915271048
 10
131.4180771143097
 20
127.8027915271048
 10
131.4180771143097
 20
127.8027915271048
 10
139.8926730891197
 20
154.8294111834263
 10
139.8926730891197
 20
154.8294111834263
 97
        0
 75
     2
 76
     1
 98
        0
  0
SPLINE
  5
239
330
231
100
AcDbEntity
  8
LOGO
370
     0
100
AcDbSpline
210
0.0
220
0.0
230
1.0
 70
    11
 71
     3
 72
    29
 73
    25
 74
     0
 42
0.000000001
 43
0.0000000001
 40
0.0
 40
0.0
 40
0.0
 40
0.0
 40
1.0
 40
1.0
 40
1.0
 40
2.0
 40
2.0
 40
2.0
 40
3.0
 40
3.0
 40
3.0
 40
4.0
 40
4.0
 40
4.0
 40
5.0
 40
5.0
 40
5.0
 40
6.0
 40
6.0
 40
6.0
 40
7.0
 40
7.0
 40
7.0
 40
8.0
 40
8.0
 40
8.0
 40
8.0
 10
101.6420971922469
 20
132.8388354296931
 30
0.0
 10
101.630039350094
 20
134.7164137077823
 30
0.0
 10
102.2236296937908
 20
138.0598810818841
 30
0.0
 10
103.7487744712405
 20
142.5378191476827
 30
0.0
 10
105.819967243327
 20
148.5896501242061
 30
0.0
 10
107.0602024361932
 20
150.8074318058939
 30
0.0
 10
108.1522984254671
 20
151.8833358357054
 30
0.0
 10
109.741177511439
 20
153.4532668840085
 30
0.0
 10
111.8740375333931
 20
153.5290590346837
 30
0.0
 10
112.5075910110823
 20
153.4532668840085
 30
0.0
 10
113.4012493694975
 20
153.3490526768302
 30
0.0
 10
114.6683563248758
 20
152.7580461564518
 30
0.0
 10
114.7493161221879
 20
150.7838328862519
 30
0.0
 10
114.8106388622796
 20
149.0909118479895
 30
0.0
 10
114.3186789024427
 20
145.9191825971221
 30
0.0
 10
112.6164561002338
 20
140.9489400617108
 30
0.0
 10
110.6444821435766
 20
135.1746117095912
 30
0.0
 10
109.4669477299053
 20
132.8960240524753
 30
0.0
 10
108.5212683953448
 20
131.9072809959403
 30
0.0
 10
106.7346406980658
 20
130.0538184021569
 30
0.0
 10
104.8222669326213
 20
130.2336525051225
 30
0.0
 10
104.5408024457958
 20
130.2336525051225
 30
0.0
 10
104.1721769856939
 20
130.2336525051225
 30
0.0
 10
101.6465758193322
 20
130.6305277668397
 30
0.0
 10
101.6420971922469
 20
132.8388354296931
 30
0.0
  0
SPLINE
  5
23A
330
231
100
AcDbEntity
  8
LOGO
370
     0
100
AcDbSpline
210
0.0
220
0.0
230
1.0
 70
    11
 71
     3
 72
    32
 73
    28
 74
     0
 42
0.000000001
 43
0.0000000001
 40
0.0
 40
0.0
 40
0.0
 40
0.0
 40
1.0
 40
1.0
 40
1.0
 40
2.0
 40
2.0
 40
2.0
 40
3.0
 40
3.0
 40
3.0
 40
4.0
 40
4.0
 40
4.0
 40
5.0
 40
5.0
 40
5.0
 40
6.0
 40
6.0
 40
6.0
 40
7.0
 40
7.0
 40
7.0
 40
8.0
 40
8.0
 40
8.0
 40
9.0
 40
9.0
 40
9.0
 40
9.0
 10
106.2595617172429
 20
153.4105476718098
 30
0.0
 10
104.8222669326213
 20
151.5474388043041
 30
0.0
 10
103.7177685914188
 20
149.8758773721411
 30
0.0
 10
101.9232171692965
 20
144.6141795664062
 30
0.0
 10
100.2754269116635
 20
139.7999999594306
 30
0.0
 10
99.22777268346732
 20
136.3052927937542
 30
0.0
 10
99.06964269637689
 20
132.039572749846
 30
0.0
 10
98.94665270641765
 20
128.8673267343149
 30
0.0
 10
100.8807305877373
 20
127.8027915271048
 30
0.0
 10
103.7129454545577
 20
127.8027915271048
 30
0.0
 10
104.9352661390825
 20
127.8027915271048
 30
0.0
 10
108.0151835347002
 20
127.8827177950895
 30
0.0
 10
110.2045431598849
 20
130.5926316915021
 30
0.0
 10
111.7417457794874
 20
132.4984597712065
 30
0.0
 10
113.155269389579
 20
134.475256864725
 30
0.0
 10
115.0562743324223
 20
140.9489400617108
 30
0.0
 10
116.6361961642235
 20
146.3680788349845
 30
0.0
 10
117.7282921534974
 20
149.8639917848761
 30
0.0
 10
117.6480213757369
 20
151.8595646611754
 30
0.0
 10
117.6480213757369
 20
151.8595646611754
 30
0.0
 10
117.6480213757369
 20
151.8595646611754
 30
0.0
 10
117.6480213757369
 20
151.8595646611754
 30
0.0
 10
117.13229024137
 20
155.18150017429
 30
0.0
 10
114.7162431837115
 20
155.886194920681
 30
0.0
 10
113.3351034925446
 20
155.886194920681
 30
0.0
 10
111.9829026225447
 20
155.886194920681
 30
0.0
 10
108.3414342923792
 20
156.1251124501957
 30
0.0
 10
106.2595617172429
 20
153.4105476718098
 30
0.0
  0
HATCH
  5
23B
330
231
100
AcDbEntity
  8
LOGO
 62
   250
420
  2234388
100
AcDbHatch
 10
0.0
 20
0.0
 30
0.0
210
0.0
220
0.0
230
1.0
  2
SOLID
 70
     1
 71
     0
 91
        2
 92
        1
 93
        1
 72
     4
 94
        3
 73
     0
 74
     1
 95
       29
 96
       25
 40
0.0
 40
0.0
 40
0.0
 40
0.0
 40
1.0
 40
1.0
 40
1.0
 40
2.0
 40
2.0
 40
2.0
 40
3.0
 40
3.0
 40
3.0
 40
4.0
 40
4.0
 40
4.0
 40
5.0
 40
5.0
 40
5.0
 40
6.0
 40
6.0
 40
6.0
 40
7.0
 40
7.0
 40
7.0
 40
8.0
 40
8.0
 40
8.0
 40
8.0
 10
101.6420971922469
 20
132.8388354296931
 10
101.630039350094
 20
134.7164137077823
 10
102.2236296937908
 20
138.0598810818841
 10
103.7487744712405
 20
142.5378191476827
 10
105.819967243327
 20
148.5896501242061
 10
107.0602024361932
 20
150.8074318058939
 10
108.1522984254671
 20
151.8833358357054
 10
109.741177511439
 20
153.4532668840085
 10
111.8740375333931
 20
153.5290590346837
 10
112.5075910110823
 20
153.4532668840085
 10
113.4012493694975
 20
153.3490526768302
 10
114.6683563248758
 20
152.7580461564518
 10
114.7493161221879
 20
150.7838328862519
 10
114.8106388622796
 20
149.0909118479895
 10
114.3186789024427
 20
145.9191825971221
 10
112.6164561002338
 20
140.9489400617108
 10
110.6444821435766
 20
135.1746117095912
 10
109.4669477299053
 20
132.8960240524753
 10
108.5212683953448
 20
131.9072809959403
 10
106.7346406980658
 20
130.0538184021569
 10
104.8222669326213
 20
130.2336525051225
 10
104.5408024457958
 20
130.2336525051225
 10
104.1721769856939
 20
130.2336525051225
 10
101.6465758193322
 20
130.6305277668397
 10
101.6420971922469
 20
132.8388354296931
 97
        0
 92
        1
 93
        1
 72
     4
 94
        3
 73
     0
 74
     1
 95
       32
 96
       28
 40
0.0
 40
0.0
 40
0.0
 40
0.0
 40
1.0
 40
1.0
 40
1.0
 40
2.0
 40
2.0
 40
2.0
 40
3.0
 40
3.0
 40
3.0
 40
4.0
 40
4.0
 40
4.0
 40
5.0
 40
5.0
 40
5.0
 40
6.0
 40
6.0
 40
6.0
 40
7.0
 40
7.0
 40
7.0
 40
8.0
 40
8.0
 40
8.0
 40
9.0
 40
9.0
 40
9.0
 40
9.0
 10
106.2595617172429
 20
153.4105476718098
 10
104.8222669326213
 20
151.5474388043041
 10
103.7177685914188
 20
149.8758773721411
 10
101.9232171692965
 20
144.6141795664062
 10
100.2754269116635
 20
139.7999999594306
 10
99.22777268346732
 20
136.3052927937542
 10
99.06964269637689
 20
132.039572749846
 10
98.94665270641765
 20
128.8673267343149
 10
100.8807305877373
 20
127.8027915271048
 10
103.7129454545577
 20
127.8027915271048
 10
104.9352661390825
 20
127.8027915271048
 10
108.0151835347002
 20
127.8827177950895
 10
110.2045431598849
 20
130.5926316915021
 10
111.7417457794874
 20
132.4984597712065
 10
113.155269389579
 20
134.475256864725
 10
115.0562743324223
 20
140.9489400617108
 10
116.6361961642235
 20
146.3680788349845
 10
117.7282921534974
 20
149.8639917848761
 10
117.6480213757369
 20
151.8595646611754
 10
117.6480213757369
 20
151.8595646611754
 10
117.6480213757369
 20
151.8595646611754
 10
117.6480213757369
 20
151.8595646611754
 10
117.13229024137
 20
155.18150017429
 10
114.7162431837115
 20
155.886194920681
 10
113.3351034925446
 20
155.886194920681
 10
111.9829026225447
 20
155.886194920681
 10
108.3414342923792
 20
156.1251124501957
 10
106.2595617172429
 20
153.4105476718098
 97
        0
 75
     2
 76
     1
 98
        0
  0
ENDBLK
  5
23C
330
231
100
AcDbEntity
  8
0
100
AcDbBlockEnd
  0
ENDSEC
  0
SECTION
  2
ENTITIES
  0
MTEXT
  5
9D
330
A
100
AcDbEntity
  8
template
 62
     7
390
1D
100
AcDbMText
 10
-96.79999999995198
 20
-113.2920821466455
 30
0.0
 40
1.628841145833333
 41
0.0
 46
0.0
 71
     1
 72
     1
  1
品名
  7
ＭＳ ゴシック
 73
     1
 44
0.7828267384257843
  0
MTEXT
  5
9E
330
A
100
AcDbEntity
  8
template
 62
     7
390
1D
100
AcDbMText
 10
-96.79999999995198
 20
-121.7923133594272
 30
0.0
 40
1.628841145833333
 41
0.0
 46
0.0
 71
     1
 72
     1
  1
仕様
  7
ＭＳ ゴシック
 73
     1
 44
0.7828267384257843
  0
MTEXT
  5
9F
330
A
100
AcDbEntity
  8
template
 62
     7
390
1D
100
AcDbMText
 10
-91.49999999995362
 20
-116.1504033845495
 30
0.0
 40
2.44326171875
 41
0.0
 46
2.44326171875
 71
     1
 72
     1
  1
{排水目皿 -SILFRA-}
  7
ＭＳ ゴシック
 73
     1
 44
0.7828267384257843
1001
ACAD
1000
ACAD_MTEXT_DEFINED_HEIGHT_BEGIN
1070
    46
1040
2.44326171875
1000
ACAD_MTEXT_DEFINED_HEIGHT_END
  0
LINE
  5
A0
330
A
100
AcDbEntity
  8
template
  6
Continuous
 62
     7
390
1D
100
AcDbLine
 10
97.49999999995089
 20
-120.95080349095
 30
0.0
 11
-97.5
 21
-120.95080349095
 31
0.0
  0
LINE
  5
A1
330
A
100
AcDbEntity
  8
template
  6
Continuous
 62
     7
390
1D
100
AcDbLine
 10
97.49999999995089
 20
-112.4505722781678
 30
0.0
 11
-97.5
 21
-112.4505722781678
 31
0.0
  0
LINE
  5
A2
330
A
100
AcDbEntity
  8
template
  6
Continuous
 62
     7
390
1D
100
AcDbLine
 10
97.5
 20
-129.4510347037321
 30
0.0
 11
22.20000000001801
 21
-129.4510347037321
 31
0.0
  0
MTEXT
  5
A4
330
A
100
AcDbEntity
  8
template
 62
     7
390
1D
100
AcDbMText
 10
73.10000000003129
 20
-121.7923133594272
 30
0.0
 40
1.628841145833333
 41
0.0
 46
0.0
 71
     1
 72
     1
  1
縮尺
  7
ＭＳ ゴシック
 73
     1
 44
0.7828267384257843
  0
LINE
  5
A5
330
A
100
AcDbEntity
  8
template
  6
Continuous
 62
     7
390
1D
100
AcDbLine
 10
72.40000000003147
 20
-129.4510347037321
 30
0.0
 11
72.40000000003147
 21
-120.95080349095
 31
0.0
  0
MTEXT
  5
A6
330
A
100
AcDbEntity
  8
template
 62
     7
390
1D
100
AcDbMText
 10
48.0000000000382
 20
-121.7923133594272
 30
0.0
 40
1.628841145833333
 41
0.0
 46
0.0
 71
     1
 72
     1
  1
容量
  7
ＭＳ ゴシック
 73
     1
 44
0.7828267384257843
  0
LINE
  5
A7
330
A
100
AcDbEntity
  8
template
  6
Continuous
 62
     7
390
1D
100
AcDbLine
 10
47.30000000003747
 20
-129.4510347037321
 30
0.0
 11
47.30000000003747
 21
-120.95080349095
 31
0.0
  0
MTEXT
  5
A8
330
A
100
AcDbEntity
  8
template
 62
     7
390
1D
100
AcDbMText
 10
22.9000000000442
 20
-113.2920821466455
 30
0.0
 40
1.628841145833333
 41
0.0
 46
0.0
 71
     1
 72
     1
  1
品番
  7
ＭＳ ゴシック
 73
     1
 44
0.7828267384257843
  0
MTEXT
  5
A9
330
A
100
AcDbEntity
  8
template
 62
     7
390
1D
100
AcDbMText
 10
22.9000000000442
 20
-121.7923133594272
 30
0.0
 40
1.628841145833333
 41
0.0
 46
0.0
 71
     1
 72
     1
  1
重量
  7
ＭＳ ゴシック
 73
     1
 44
0.7828267384257843
  0
MTEXT
  5
AA
330
A
100
AcDbEntity
  8
template
 62
     7
390
1D
100
AcDbMText
 10
28.20000000004256
 20
-116.1504033845495
 30
0.0
 40
2.44326171875
 41
0.0
 46
2.44326171875
 71
     1
 72
     1
  1
{ATB73-1902}
  7
ＭＳ ゴシック
 73
     1
 44
0.7828267384257843
1001
ACAD
1000
ACAD_MTEXT_DEFINED_HEIGHT_BEGIN
1070
    46
1040
2.44326171875
1000
ACAD_MTEXT_DEFINED_HEIGHT_END
  0
LINE
  5
AB
330
A
100
AcDbEntity
  8
template
  6
Continuous
 62
     7
390
1D
100
AcDbLine
 10
22.20000000004438
 20
-137.9512659165143
 30
0.0
 11
22.20000000004438
 21
-112.4505722781678
 31
0.0
  0
MTEXT
  5
AC
330
A
100
AcDbEntity
  8
template
 62
     7
390
1D
100
AcDbMText
 10
25.18714062524305
 20
-132.4421476985208
 30
0.0
 40
2.44326171875
 41
0.0
 46
0.0
 71
     1
 72
     1
  1
大洋金物株式会社 ティーフォルム事業部
  7
ＭＳ ゴシック
 73
     1
 44
0.7828267384257843
  0
LWPOLYLINE
  5
AE
330
A
100
AcDbEntity
  8
template
  6
Continuous
 62
     7
390
1D
100
AcDbPolyline
 90
        5
 70
   128
 43
0.0
 10
97.5
 20
142.0563505045448
 10
-97.4999999999527
 20
142.0563505045448
 10
-97.4999999999527
 20
-137.9512659165143
 10
97.5
 20
-137.9512659165143
 10
97.5
 20
142.0563505045448
  0
MTEXT
  5
AF
330
A
100
AcDbEntity
  8
template
 62
     7
390
1D
100
AcDbMText
 10
78.0
 20
-124.8747382812503
 30
0.0
 40
2.44326171875
 41
0.0
 46
0.0
 71
     1
 72
     1
  1
1/1
  7
ＭＳ ゴシック
 73
     1
 44
0.7828267384257843
  0
DIMENSION
  5
B0
330
A
100
AcDbEntity
  8
DIM
  6
Continuous
390
1D
100
AcDbDimension
  2
*D3
 10
-36.00027433949225
 20
80.99136682351855
 30
0.0
 11
-0.0002692285773662
 21
82.9109018821123
 31
0.0
 70
    32
 71
     5
 42
72.00001022182977
 73
     0
 74
     0
 75
     0
  3
tfrom線あり
100
AcDbAlignedDimension
 13
35.99973588233752
 23
55.93262293277303
 33
0.0
 14
-36.00027433949225
 24
55.99066248218051
 34
0.0
100
AcDbRotatedDimension
1001
ACAD
1000
DSTYLE
1002
{
1070
    41
1040
1.0
1070
   279
1070
     2
1070
   340
1005
2A
1070
     3
1000
φ<>
1002
}
  0
DIMENSION
  5
B1
330
A
100
AcDbEntity
  8
DIM
  6
Continuous
390
1D
100
AcDbDimension
  2
*D4
 10
-56.60079792418219
 20
49.93327826863606
 30
0.0
 11
-58.32242878355719
 21
34.44295344230295
 31
0.0
 70
    32
  1
MAX.50
 71
     5
 42
30.98064965266622
 73
     0
 74
     0
 75
     0
  3
tfrom線あり
100
AcDbAlignedDimension
 13
-31.45148340565629
 23
18.95262861596984
 33
0.0
 14
-31.60079792418219
 24
49.93327826863606
 34
0.0
 50
90.0
100
AcDbRotatedDimension
1001
ACAD
1000
DSTYLE
1002
{
1070
    41
1040
1.0
1070
   279
1070
     2
1070
   340
1005
2A
1002
}
  0
DIMENSION
  5
B2
330
A
100
AcDbEntity
  8
DIM
  6
Continuous
390
1D
100
AcDbDimension
  2
*D5
 10
50.00067361711081
 20
-6.047741822161243
 30
0.0
 11
48.27904275773582
 21
6.452443396904298
 31
0.0
 70
    32
 71
     5
 42
25.00037043813108
 73
     0
 74
     0
 75
     0
  3
tfrom線あり
100
AcDbAlignedDimension
 13
31.45289203318953
 23
18.95262861596984
 33
0.0
 14
25.00067361711081
 24
-6.047741822161242
 34
0.0
 50
90.0
100
AcDbRotatedDimension
1001
ACAD
1000
DSTYLE
1002
{
1070
    41
1040
1.0
1070
   279
1070
     2
1070
   340
1005
2A
1002
}
  0
DIMENSION
  5
B3
330
A
100
AcDbEntity
  8
DIM
  6
Continuous
390
1D
100
AcDbDimension
  2
*D6
 10
50.00067361711081
 20
-6.047741822161243
 30
0.0
 11
48.27904275773581
 21
-11.04784132989494
 31
0.0
 70
    32
 71
     5
 42
10.00019901546739
 73
     0
 74
     0
 75
     0
  3
tfrom線あり
100
AcDbAlignedDimension
 13
19.24959955571012
 23
-16.04794083762863
 33
0.0
 14
25.00067361711081
 24
-6.047741822161242
 34
0.0
 50
90.0
100
AcDbRotatedDimension
1001
ACAD
1000
DSTYLE
1002
{
1070
    41
1040
1.0
1070
   279
1070
     2
1070
   340
1005
2A
1002
}
  0
DIMENSION
  5
B4
330
A
100
AcDbEntity
  8
DIM
  6
Continuous
390
1D
100
AcDbDimension
  2
*D7
 10
-25.00120185243577
 20
-49.54774182216124
 30
0.0
 11
-0.000264117662482
 21
-47.62820676356749
 31
0.0
 70
    32
 71
     5
 42
50.00187546954658
 73
     0
 74
     0
 75
     0
  3
tfrom線あり
100
AcDbAlignedDimension
 13
25.00067361711081
 23
-6.047741822161242
 33
0.0
 14
-25.00120185243577
 24
-6.047741822161242
 34
0.0
100
AcDbRotatedDimension
1001
ACAD
1000
DSTYLE
1002
{
1070
    41
1040
1.0
1070
   279
1070
     2
1070
   340
1005
2A
1070
     3
1000
φ<>
1002
}
  0
DIMENSION
  5
B5
330
A
100
AcDbEntity
  8
DIM
  6
Continuous
390
1D
100
AcDbDimension
  2
*D8
 10
-20.75119650616034
 20
-39.54775251471119
 30
0.0
 11
-0.0003521568833094
 21
-37.56591428228932
 31
0.0
 70
    32
  1
G1 1/4"
 71
     5
 42
41.50168869855406
 73
     0
 74
     0
 75
     0
  3
tfrom線あり
100
AcDbAlignedDimension
 13
20.75049219239372
 23
-14.54775251471119
 33
0.0
 14
-20.75119650616034
 24
-14.54775251471119
 34
0.0
100
AcDbRotatedDimension
1001
ACAD
1000
DSTYLE
1002
{
1070
    41
1040
1.0
1070
   279
1070
     2
1070
   340
1005
2A
1002
}
  0
LWPOLYLINE
  5
B7
330
A
100
AcDbEntity
  8
MODEL
  6
Continuous
390
1D
100
AcDbPolyline
 90
        4
 70
   128
 43
0.0
 10
-25.00120185243577
 20
12.55534667368784
 10
-25.00120185243577
 20
-6.047741822161242
 10
25.00067361711081
 20
-6.047741822161242
 10
25.00067361711081
 20
12.55534667368784
  0
LINE
  5
B8
330
A
100
AcDbEntity
  8
MODEL
  6
Continuous
390
1D
100
AcDbLine
 10
30.95142063135063
 20
12.55534667368784
 30
0.0
 11
-30.95194886667559
 21
12.55534667368784
 31
0.0
  0
LWPOLYLINE
  5
B9
330
A
100
AcDbEntity
  8
MODEL
  6
Continuous
390
1D
100
AcDbPolyline
 90
       34
 70
   128
 43
0.0
 10
-31.45148340565629
 20
15.45254135271216
 10
-31.45148340565629
 20
13.05259219292748
 10
-31.45146728295822
 20
13.04966372918716
 42
0.023199158013714
 10
-31.44913641482799
 20
13.0047893681558
 10
-31.44912136574385
 20
13.00463674541425
 42
0.0228453587782126
 10
-31.44271824956104
 20
12.96046855219583
 10
-31.44270037967999
 20
12.96037545950867
 42
0.0225592004716144
 10
-31.43236274378523
 20
12.91715282250789
 10
-31.43235014989568
 20
12.91710900491398
 42
0.0222922942134623
 10
-31.41821140877437
 20
12.87507134156385
 42
0.0220661019322142
 10
-31.40040524595497
 20
12.83445358556583
 42
0.0218904848885035
 10
-31.37910312796521
 20
12.79555812806848
 10
-31.37908536627765
 20
12.79552881913105
 42
0.021808472346344
 10
-31.35443182514064
 20
12.75858364207988
 10
-31.35195591039064
 20
12.75520245242478
 42
0.0216646390673617
 10
-31.32924629893569
 20
12.72685224459565
 42
0.0144856709331533
 10
-31.30453547702564
 20
12.7002025458014
 10
-31.3044009707246
 20
12.70006566121356
 42
0.0187875685871695
 10
-31.27770152515222
 20
12.67486183873552
 10
-31.27661608959079
 20
12.67391171875079
 42
0.0238141549050472
 10
-31.24562495645478
 20
12.64928813874712
 10
-31.24336136779857
 20
12.64765918598187
 42
0.0234542194862616
 10
-31.20589661239319
 20
12.62328011141744
 10
-31.20585144045344
 20
12.62325364552999
 42
0.0230606026208613
 10
-31.1663754702713
 20
12.60250753128093
 42
0.0226865421371516
 10
-31.1251688041084
 20
12.58545408282498
 42
0.0223584837097442
 10
-31.08259475158229
 20
12.57217638679185
 10
-31.08255417498276
 20
12.57216569657794
 42
0.0220952725074226
 10
-31.03888652356727
 20
12.56270199466871
 10
-31.03751974052102
 20
12.56246845007263
 42
0.0219008930287896
 10
-30.99562274148775
 20
12.5571850435972
 10
-30.99426963324277
 20
12.55707431924429
 42
0.0190613687038246
 10
-30.95478172284948
 20
12.55535433992145
 10
-30.95194886667559
 20
12.55534667368784
  0
LWPOLYLINE
  5
BA
330
A
100
AcDbEntity
  8
MODEL
  6
Continuous
390
1D
100
AcDbPolyline
 90
       49
 70
   128
 43
0.0
 10
-30.95194886667559
 20
15.95542138208475
 10
-30.95284196963439
 20
15.9554183983978
 42
0.0124442569184911
 10
-30.97883213898967
 20
15.9546845522791
 42
0.0140765873539204
 10
-31.0047446130593
 20
15.95257408629095
 10
-31.00559924053687
 20
15.95248019978089
 42
0.0139996459612352
 10
-31.0329253647642
 20
15.94870135558904
 10
-31.03294837727026
 20
15.94869751392389
 42
0.0139362149333324
 10
-31.0599751805612
 20
15.94340764193475
 10
-31.05998946135423
 20
15.94340443116243
 42
0.0138885481933461
 10
-31.08665193311208
 20
15.93662678277542
 42
0.0138552348807121
 10
-31.11289152274549
 20
15.92838286561664
 42
0.0138472540973784
 10
-31.13862973233881
 20
15.91869999643041
 42
0.0138582073893028
 10
-31.16380231063704
 20
15.90760226967723
 42
0.0138787271650143
 10
-31.18832957279938
 20
15.895122172024
 10
-31.18834512488138
 20
15.89511370738273
 42
0.0139214895358298
 10
-31.2121715454341
 20
15.88127220780279
 10
-31.21219397047571
 20
15.88125833141476
 42
0.0139801012180769
 10
-31.23525532314216
 20
15.86608062580081
 10
-31.23528462092054
 20
15.86606014737845
 42
0.0140523261579424
 10
-31.25751661841605
 20
15.84957161281136
 10
-31.26025975378252
 20
15.84741507512626
 42
0.0141350456886951
 10
-31.2763088238853
 20
15.83404701031031
 10
-31.27758773888945
 20
15.83291900946233
 42
0.0070614722258565
 10
-31.29053505215779
 20
15.82117028370203
 42
0.0113561972811683
 10
-31.30303894878671
 20
15.80895466459151
 10
-31.30671847125541
 20
15.805192912645
 42
0.0139520208903816
 10
-31.32545866022519
 20
15.78493280609473
 10
-31.32547893908122
 20
15.78490961686612
 42
0.0134270538476567
 10
-31.34304348278056
 20
15.76370109473919
 10
-31.3430582566989
 20
15.76368224775024
 42
0.0133933836648699
 10
-31.35943202190265
 20
15.74160097547338
 10
-31.3594418916482
 20
15.74158689210299
 42
0.0133728409295846
 10
-31.374591818525
 20
15.71868984004595
 42
0.0133660767598141
 10
-31.38849042561924
 20
15.69502570267377
 42
0.0133895121303139
 10
-31.40109514713004
 20
15.67066695022095
 42
0.013433093692141
 10
-31.41237357819409
 20
15.64567143304384
 42
0.0134969709076652
 10
-31.42229330982263
 20
15.62009697244139
 42
0.0135721521047157
 10
-31.43081748257646
 20
15.59401611039311
 10
-31.43082181244608
 20
15.59400153421757
 42
0.0136676855966053
 10
-31.43792107338413
 20
15.56746599722692
 10
-31.43792654008575
 20
15.56744307154713
 42
0.0137771725287332
 10
-31.44356903347671
 20
15.54051208124292
 10
-31.44357491938717
 20
15.54047954667885
 42
0.0138958801025731
 10
-31.44772903262583
 20
15.51321251009085
 10
-31.44804822729839
 20
15.51063891798685
 42
0.017551892692653
 10
-31.45065143477223
 20
15.48123303499779
 10
-31.45078823442145
 20
15.47866386504757
 42
0.0124073239706574
 10
-31.45148028848416
 20
15.45428773565072
 10
-31.45148340565629
 20
15.45254135271216
  0
LINE
  5
BB
330
A
100
AcDbEntity
  8
MODEL
  6
Continuous
390
1D
100
AcDbLine
 10
31.45289203318953
 20
15.45254135271216
 30
0.0
 11
31.45289203318953
 21
13.05259219292748
 31
0.0
  0
LWPOLYLINE
  5
BC
330
A
100
AcDbEntity
  8
MODEL
  6
Continuous
390
1D
100
AcDbPolyline
 90
       52
 70
   128
 43
0.0
 10
30.95142063135063
 20
12.55534667368784
 10
30.95234500334936
 20
12.55534949910407
 42
0.0117151390183895
 10
30.97841165494992
 20
12.5560400560862
 42
0.0134450653851184
 10
31.00440831909054
 20
12.55804062588686
 10
31.00526417721721
 20
12.55812969096996
 42
0.01355817258414
 10
31.03251436259598
 20
12.56171466759861
 10
31.03257505163401
 20
12.5617243321708
 42
0.013667467108946
 10
31.05946883616889
 20
12.56676431812684
 10
31.05951312697471
 20
12.56677387826812
 42
0.013771529620959
 10
31.08600186210788
 20
12.57325974032119
 10
31.08602951340436
 20
12.57326732373849
 42
0.0138688613981445
 10
31.1120644715611
 20
12.58119002753938
 42
0.013951940231079
 10
31.13760768641441
 20
12.59054427325009
 42
0.0140398451363869
 10
31.16258251678664
 20
12.60131156892749
 42
0.0141029795501801
 10
31.18691792003847
 20
12.61346920198594
 10
31.18693996076581
 20
12.61348100133546
 42
0.0141550022217254
 10
31.2105931352944
 20
12.62701852870532
 10
31.21063100461743
 20
12.6270416496186
 42
0.0141904144239167
 10
31.23355351433565
 20
12.64194586533904
 10
31.2336066237167
 20
12.64198258233318
 42
0.0142070614503121
 10
31.25575023263445
 20
12.65824024114545
 10
31.2558177842493
 20
12.65829285461632
 42
0.0142094280154847
 10
31.27713423671776
 20
12.67589097015571
 10
31.27854101603225
 20
12.6771212142894
 42
0.017743880266795
 10
31.3014084225706
 20
12.69859749826264
 10
31.30392967154785
 20
12.70113962338019
 10
31.30459291534044
 20
12.70178997914854
 42
0.0122183676466702
 10
31.32284236356645
 20
12.72058117078086
 42
0.0139263173605787
 10
31.34008325665218
 20
12.74029868338584
 10
31.3406338630266
 20
12.74096494915602
 42
0.0139437109176372
 10
31.35762139298458
 20
12.76272926852835
 10
31.35765859116964
 20
12.76277976886604
 42
0.0139587312522098
 10
31.37333430033686
 20
12.78535462942182
 10
31.37336063229213
 20
12.78539490537969
 42
0.0139725441846221
 10
31.38770115616717
 20
12.8087277508148
 10
31.38771806227305
 20
12.80875706360393
 42
0.013986144762017
 10
31.40070007167651
 20
12.83279531652079
 10
31.40070896724137
 20
12.83281295048209
 42
0.0140002566255695
 10
31.41230915089545
 20
12.85750401783116
 42
0.0140122621025176
 10
31.42250648741356
 20
12.88280054792267
 42
0.0140352660493547
 10
31.43127016764083
 20
12.90863160828803
 42
0.0140470549583118
 10
31.43857279496115
 20
12.9349218122602
 10
31.438578267921
 20
12.93494390411115
 42
0.0140627337879325
 10
31.4444019009552
 20
12.96164731788485
 10
31.44440885201493
 20
12.96168413563419
 42
0.0140768100856796
 10
31.44873313025619
 20
12.98874677793583
 10
31.44873997316608
 20
12.98879899837584
 42
0.0140915501074954
 10
31.45154440927581
 20
13.0161669031886
 10
31.45167813337139
 20
13.01797230057309
 42
0.0176114419819963
 10
31.45288277357758
 20
13.04907249763437
 10
31.45288898853687
 20
13.05085044364523
 10
31.45289203318953
 20
13.05259219292748
  0
LWPOLYLINE
  5
BD
330
A
100
AcDbEntity
  8
MODEL
  6
Continuous
390
1D
100
AcDbPolyline
 90
       51
 70
   128
 43
0.0
 10
31.45289203318953
 20
15.45254135271216
 10
31.45288905711186
 20
15.45344697914425
 42
0.0123373122097484
 10
31.45216027567221
 20
15.47950573219714
 42
0.0140066973325145
 10
31.45006042145815
 20
15.50548766454949
 10
31.44996713485398
 20
15.50634283259478
 42
0.013974234941058
 10
31.44620870519611
 20
15.53368506076276
 10
31.44620310906612
 20
15.53371876207848
 42
0.0139459821396504
 10
31.44093768140101
 20
15.56074163304402
 10
31.4409328559932
 20
15.56076317834959
 42
0.0139236222881211
 10
31.43418108249625
 20
15.58740801224349
 42
0.0139031831890558
 10
31.42596083487024
 20
15.61362618757857
 42
0.0139017955248024
 10
31.41629884812846
 20
15.63933814681877
 42
0.0139086551979633
 10
31.40521701744274
 20
15.66448586917613
 42
0.0139113727638281
 10
31.39274883270355
 20
15.68899000065403
 10
31.39273722137841
 20
15.68901133105783
 42
0.0139278199099989
 10
31.37890041801984
 20
15.71282564928788
 10
31.37888132415446
 20
15.7128565001467
 42
0.0139504022939569
 10
31.36369913275485
 20
15.73592333452643
 10
31.36367118090766
 20
15.73596332707348
 42
0.0139774514791146
 10
31.3471669326691
 20
15.75822500393724
 10
31.34712863961249
 20
15.75827374637447
 42
0.0140099719554028
 10
31.3293256508623
 20
15.77967250662368
 10
31.32810968824924
 20
15.78105346735856
 42
0.017583942064725
 10
31.30646945439912
 20
15.80395393577146
 10
31.30392967154785
 20
15.80645902044307
 10
31.30327445469084
 20
15.80711989643896
 42
0.0119348480506322
 10
31.28435875192372
 20
15.82530940810011
 42
0.0136412224271385
 10
31.26453954243698
 20
15.84250652623587
 10
31.26386982675285
 20
15.84305634505381
 42
0.0136991230923139
 10
31.24202129644164
 20
15.86001319924526
 10
31.24196962438236
 20
15.86005108077188
 42
0.0137551912727591
 10
31.2193288854578
 20
15.87571047489109
 10
31.21928758814556
 20
15.87573738951005
 42
0.0138095116568848
 10
31.19590252808302
 20
15.89007398542753
 10
31.19587264600978
 20
15.89009118831336
 42
0.0138620333076306
 10
31.17179115050931
 20
15.90307961744702
 10
31.1717737232575
 20
15.9030884022568
 42
0.0139124728231827
 10
31.14704367587728
 20
15.91470325103182
 42
0.0139580351054448
 10
31.12170902750768
 20
15.92492075770724
 42
0.0140101810638839
 10
31.09583613122504
 20
15.9337080002374
 42
0.0140437209049391
 10
31.06950052728098
 20
15.94103422962598
 10
31.069473917918
 20
15.94104083287039
 42
0.0140767707539624
 10
31.04271465932197
 20
15.94688690587782
 10
31.04267132606037
 20
15.94689510220996
 42
0.0141018141122861
 10
31.01553825252722
 20
15.95123864735024
 10
31.01547730407401
 20
15.95124664872219
 42
0.014121391795297
 10
30.98802018665538
 20
15.95406517318816
 10
30.9861948085354
 20
15.95420059493517
 42
0.0176421122147279
 10
30.95496455694501
 20
15.95541206451662
 10
30.95317152801908
 20
15.95541832496792
 10
30.95142063135063
 20
15.95542138208475
  0
LWPOLYLINE
  5
BE
330
A
100
AcDbEntity
  8
MODEL
  6
Continuous
390
1D
100
AcDbPolyline
 90
        5
 70
   128
 43
0.0
 10
31.45289203318953
 20
15.95542138208475
 10
31.45289203318953
 20
18.95262861596984
 10
-31.45148340565629
 20
18.95262861596984
 10
-31.45148340565629
 20
15.95542138208475
 10
31.45289203318953
 20
15.95542138208475
  0
LWPOLYLINE
  5
BF
330
A
100
AcDbEntity
  8
MODEL
  6
Continuous
390
1D
100
AcDbPolyline
 90
        6
 70
   128
 43
0.0
 10
20.75049219239372
 20
-6.047741822161242
 10
20.75049219239372
 20
-14.54775251471119
 10
19.24959955571012
 20
-16.04794083762863
 10
-19.25136034012667
 20
-16.04794083762863
 10
-20.75119650616034
 20
-14.54775251471119
 10
-20.75119650616034
 20
-6.047741822161242
  0
LINE
  5
C0
330
A
100
AcDbEntity
  8
MODEL
  6
Continuous
390
1D
100
AcDbLine
 10
3.999389728950142
 20
54.93284954104456
 30
0.0
 11
3.999389728950142
 21
49.93327826863606
 31
0.0
  0
LINE
  5
CD
330
A
100
AcDbEntity
  8
MODEL
  6
Continuous
390
1D
100
AcDbLine
 10
2.350647196120917
 20
26.61289478032978
 30
0.0
 11
2.350647196120917
 21
18.95262861596984
 31
0.0
  0
LINE
  5
CE
330
A
100
AcDbEntity
  8
MODEL
  6
Continuous
390
1D
100
AcDbLine
 10
1.860796971431228
 20
26.61289478032978
 30
0.0
 11
1.860796971431228
 21
18.95262861596984
 31
0.0
  0
LINE
  5
CF
330
A
100
AcDbEntity
  8
MODEL
  6
Continuous
390
1D
100
AcDbLine
 10
-1.860796971431228
 20
26.61289478032978
 30
0.0
 11
-1.860796971431228
 21
18.95262861596984
 31
0.0
  0
LINE
  5
D0
330
A
100
AcDbEntity
  8
MODEL
  6
Continuous
390
1D
100
AcDbLine
 10
-2.350647196120917
 20
26.61289478032978
 30
0.0
 11
-2.350647196120917
 21
18.95262861596984
 31
0.0
  0
LINE
  5
D2
330
A
100
AcDbEntity
  8
MODEL
  6
Continuous
390
1D
100
AcDbLine
 10
-19.25136034012667
 20
-16.04794083762863
 30
0.0
 11
-19.25136034012667
 21
-6.047741822161242
 31
0.0
  0
LINE
  5
D3
330
A
100
AcDbEntity
  8
MODEL
  6
Continuous
390
1D
100
AcDbLine
 10
19.24959955571012
 20
-16.04794083762863
 30
0.0
 11
19.24959955571012
 21
-6.047741822161242
 31
0.0
  0
LINE
  5
D4
330
A
100
AcDbEntity
  8
MODEL
  6
Continuous
390
1D
100
AcDbLine
 10
-20.75119650616034
 20
-14.54775251471119
 30
0.0
 11
20.75049219239372
 21
-14.54775251471119
 31
0.0
  0
POLYLINE
  5
17F
330
A
100
AcDbEntity
  8
MODEL
  6
Continuous
100
AcDb2dPolyline
 66
     1
 10
0.0
 20
0.0
 30
0.0
  0
VERTEX
  5
180
330
17F
100
AcDbEntity
  8
MODEL
  6
Continuous
100
AcDbVertex
100
AcDb2dVertex
 10
-32.64529277590313
 20
40.44323972966697
 30
0.0
  0
VERTEX
  5
181
330
17F
100
AcDbEntity
  8
MODEL
  6
Continuous
100
AcDbVertex
100
AcDb2dVertex
 10
32.64809473675368
 20
40.44323972966697
 30
0.0
  0
SEQEND
  5
182
330
17F
100
AcDbEntity
  8
MODEL
  6
Continuous
  0
POLYLINE
  5
183
330
A
100
AcDbEntity
  8
MODEL
  6
Continuous
100
AcDb2dPolyline
 66
     1
 10
0.0
 20
0.0
 30
0.0
  0
VERTEX
  5
184
330
183
100
AcDbEntity
  8
MODEL
  6
Continuous
100
AcDbVertex
100
AcDb2dVertex
 10
32.64775022697788
 20
39.23986708281086
 30
0.0
  0
VERTEX
  5
185
330
183
100
AcDbEntity
  8
MODEL
  6
Continuous
100
AcDbVertex
100
AcDb2dVertex
 10
-32.64563728567893
 20
39.23986708281086
 30
0.0
  0
SEQEND
  5
186
330
183
100
AcDbEntity
  8
MODEL
  6
Continuous
  0
POLYLINE
  5
187
330
A
100
AcDbEntity
  8
MODEL
  6
Continuous
100
AcDb2dPolyline
 66
     1
 10
0.0
 20
0.0
 30
0.0
  0
VERTEX
  5
188
330
187
100
AcDbEntity
  8
MODEL
  6
Continuous
100
AcDbVertex
100
AcDb2dVertex
 10
-32.64529277590313
 20
39.23986708281086
 30
0.0
  0
VERTEX
  5
189
330
187
100
AcDbEntity
  8
MODEL
  6
Continuous
100
AcDbVertex
100
AcDb2dVertex
 10
-32.64529277590313
 20
40.44323972966697
 30
0.0
  0
SEQEND
  5
18A
330
187
100
AcDbEntity
  8
MODEL
  6
Continuous
  0
POLYLINE
  5
18D
330
A
100
AcDbEntity
  8
MODEL
  6
Continuous
100
AcDb2dPolyline
 66
     1
 10
0.0
 20
0.0
 30
0.0
  0
VERTEX
  5
18E
330
18D
100
AcDbEntity
  8
MODEL
  6
Continuous
100
AcDbVertex
100
AcDb2dVertex
 10
32.64775022697788
 20
39.23986708281086
 30
0.0
  0
VERTEX
  5
18F
330
18D
100
AcDbEntity
  8
MODEL
  6
Continuous
100
AcDbVertex
100
AcDb2dVertex
 10
32.64775022697788
 20
40.44323972966697
 30
0.0
  0
SEQEND
  5
190
330
18D
100
AcDbEntity
  8
MODEL
  6
Continuous
  0
POLYLINE
  5
191
330
A
100
AcDbEntity
  8
MODEL
  6
Continuous
100
AcDb2dPolyline
 66
     1
 10
0.0
 20
0.0
 30
0.0
  0
VERTEX
  5
192
330
191
100
AcDbEntity
  8
MODEL
  6
Continuous
100
AcDbVertex
100
AcDb2dVertex
 10
16.32177646177317
 20
35.94256401866576
 30
0.0
  0
VERTEX
  5
193
330
191
100
AcDbEntity
  8
MODEL
  6
Continuous
100
AcDbVertex
100
AcDb2dVertex
 10
16.32177646177317
 20
27.38769726609536
 30
0.0
  0
SEQEND
  5
194
330
191
100
AcDbEntity
  8
MODEL
  6
Continuous
  0
POLYLINE
  5
195
330
A
100
AcDbEntity
  8
MODEL
  6
Continuous
100
AcDb2dPolyline
 66
     1
 10
0.0
 20
0.0
 30
0.0
  0
VERTEX
  5
196
330
195
100
AcDbEntity
  8
MODEL
  6
Continuous
100
AcDbVertex
100
AcDb2dVertex
 10
-16.32000803025008
 20
35.94256401866576
 30
0.0
  0
VERTEX
  5
197
330
195
100
AcDbEntity
  8
MODEL
  6
Continuous
100
AcDbVertex
100
AcDb2dVertex
 10
-16.32000803025008
 20
27.38769726609536
 30
0.0
  0
SEQEND
  5
198
330
195
100
AcDbEntity
  8
MODEL
  6
Continuous
  0
SPLINE
  5
199
330
A
100
AcDbEntity
  8
MODEL
  6
Continuous
100
AcDbSpline
210
0.0
220
0.0
230
1.0
 70
     8
 71
     3
 72
     8
 73
     4
 74
     0
 42
0.000000001
 43
0.0000000001
 40
0.0
 40
0.0
 40
0.0
 40
0.0
 40
1.0
 40
1.0
 40
1.0
 40
1.0
 10
15.54628495645611
 20
26.61289478032978
 30
0.0
 10
15.97416609799487
 20
26.61289478032978
 30
0.0
 10
16.32177646177317
 20
26.95395945836796
 30
0.0
 10
16.32177646177317
 20
27.38769726609536
 30
0.0
  0
SPLINE
  5
19A
330
A
100
AcDbEntity
  8
MODEL
  6
Continuous
100
AcDbSpline
210
0.0
220
0.0
230
1.0
 70
     8
 71
     3
 72
     8
 73
     4
 74
     0
 42
0.000000001
 43
0.0000000001
 40
0.0
 40
0.0
 40
0.0
 40
0.0
 40
1.0
 40
1.0
 40
1.0
 40
1.0
 10
-16.32000803025008
 20
27.38804177587116
 30
0.0
 10
-16.32000803025008
 20
26.95447622303166
 30
0.0
 10
-15.97394796046282
 20
26.61289478032978
 30
0.0
 10
-15.5429662309418
 20
26.61289478032978
 30
0.0
  0
POLYLINE
  5
19B
330
A
100
AcDbEntity
  8
MODEL
  6
Continuous
100
AcDb2dPolyline
 66
     1
 10
0.0
 20
0.0
 30
0.0
  0
VERTEX
  5
19C
330
19B
100
AcDbEntity
  8
MODEL
  6
Continuous
100
AcDbVertex
100
AcDb2dVertex
 10
15.54628495645611
 20
26.61289478032978
 30
0.0
  0
VERTEX
  5
19D
330
19B
100
AcDbEntity
  8
MODEL
  6
Continuous
100
AcDbVertex
100
AcDb2dVertex
 10
-15.542621721166
 20
26.61289478032978
 30
0.0
  0
SEQEND
  5
19E
330
19B
100
AcDbEntity
  8
MODEL
  6
Continuous
  0
POLYLINE
  5
1A3
330
A
100
AcDbEntity
  8
MODEL
  6
Continuous
100
AcDb2dPolyline
 66
     1
 10
0.0
 20
0.0
 30
0.0
  0
VERTEX
  5
1A4
330
1A3
100
AcDbEntity
  8
MODEL
  6
Continuous
100
AcDbVertex
100
AcDb2dVertex
 10
32.64775022697788
 20
49.93327826863606
 30
0.0
  0
VERTEX
  5
1A5
330
1A3
100
AcDbEntity
  8
MODEL
  6
Continuous
100
AcDbVertex
100
AcDb2dVertex
 10
-32.64563728567893
 20
49.93327826863606
 30
0.0
  0
SEQEND
  5
1A6
330
1A3
100
AcDbEntity
  8
MODEL
  6
Continuous
  0
POLYLINE
  5
1A7
330
A
100
AcDbEntity
  8
MODEL
  6
Continuous
100
AcDb2dPolyline
 66
     1
 10
0.0
 20
0.0
 30
0.0
  0
VERTEX
  5
1A8
330
1A7
100
AcDbEntity
  8
MODEL
  6
Continuous
100
AcDbVertex
100
AcDb2dVertex
 10
4.666987805266743
 20
-19.16058666194704
 30
0.0
  0
VERTEX
  5
1A9
330
1A7
100
AcDbEntity
  8
MODEL
  6
Continuous
100
AcDbVertex
100
AcDb2dVertex
 10
4.666987805266743
 20
-16.04828534740443
 30
0.0
  0
SEQEND
  5
1AA
330
1A7
100
AcDbEntity
  8
MODEL
  6
Continuous
  0
POLYLINE
  5
1AB
330
A
100
AcDbEntity
  8
MODEL
  6
Continuous
100
AcDb2dPolyline
 66
     1
 10
0.0
 20
0.0
 30
0.0
  0
VERTEX
  5
1AC
330
1AB
100
AcDbEntity
  8
MODEL
  6
Continuous
100
AcDbVertex
100
AcDb2dVertex
 10
-4.671294177464162
 20
-19.16058666194704
 30
0.0
  0
VERTEX
  5
1AD
330
1AB
100
AcDbEntity
  8
MODEL
  6
Continuous
100
AcDbVertex
100
AcDb2dVertex
 10
-4.671294177464162
 20
-16.04828534740443
 30
0.0
  0
SEQEND
  5
1AE
330
1AB
100
AcDbEntity
  8
MODEL
  6
Continuous
  0
SPLINE
  5
1AF
330
A
100
AcDbEntity
  8
MODEL
  6
Continuous
100
AcDbSpline
210
0.0
220
0.0
230
1.0
 70
     8
 71
     3
 72
     8
 73
     4
 74
     0
 42
0.000000001
 43
0.0000000001
 40
0.0
 40
0.0
 40
0.0
 40
0.0
 40
1.0
 40
1.0
 40
1.0
 40
1.0
 10
-4.671294177464162
 20
-19.16058666194704
 30
0.0
 10
-4.671294177464162
 20
-19.58846780348593
 30
0.0
 10
-4.322133519694759
 20
-19.93228855973044
 30
0.0
 10
-3.889601496182635
 20
-19.93228855973044
 30
0.0
  0
SPLINE
  5
1B0
330
A
100
AcDbEntity
  8
MODEL
  6
Continuous
100
AcDbSpline
210
0.0
220
0.0
230
1.0
 70
     8
 71
     3
 72
     8
 73
     4
 74
     0
 42
0.000000001
 43
0.0000000001
 40
0.0
 40
0.0
 40
0.0
 40
0.0
 40
1.0
 40
1.0
 40
1.0
 40
1.0
 10
1.55778707870634
 20
-20.71398124101194
 30
0.0
 10
1.98291214203887
 20
-20.71398124101194
 30
0.0
 10
2.32914446671397
 20
-20.36258126969983
 30
0.0
 10
2.32914446671397
 20
-19.93194404995464
 30
0.0
  0
SPLINE
  5
1B1
330
A
100
AcDbEntity
  8
MODEL
  6
Continuous
100
AcDbSpline
210
0.0
220
0.0
230
1.0
 70
     8
 71
     3
 72
     8
 73
     4
 74
     0
 42
0.000000001
 43
0.0000000001
 40
0.0
 40
0.0
 40
0.0
 40
0.0
 40
1.0
 40
1.0
 40
1.0
 40
1.0
 10
-2.332417309583931
 20
-19.93194404995464
 30
0.0
 10
-2.332417309583931
 20
-20.36258126969983
 30
0.0
 10
-1.983084396926628
 20
-20.71432575078774
 30
0.0
 10
-1.55778707870634
 20
-20.71432575078774
 30
0.0
  0
POLYLINE
  5
1B2
330
A
100
AcDbEntity
  8
MODEL
  6
Continuous
100
AcDb2dPolyline
 66
     1
 10
0.0
 20
0.0
 30
0.0
  0
VERTEX
  5
1B3
330
1B2
100
AcDbEntity
  8
MODEL
  6
Continuous
100
AcDbVertex
100
AcDb2dVertex
 10
1.55778707870634
 20
-20.71398124101194
 30
0.0
  0
VERTEX
  5
1B4
330
1B2
100
AcDbEntity
  8
MODEL
  6
Continuous
100
AcDbVertex
100
AcDb2dVertex
 10
-1.55778707870634
 20
-20.71398124101194
 30
0.0
  0
SEQEND
  5
1B5
330
1B2
100
AcDbEntity
  8
MODEL
  6
Continuous
  0
SPLINE
  5
1B6
330
A
100
AcDbEntity
  8
MODEL
  6
Continuous
100
AcDbSpline
210
0.0
220
0.0
230
1.0
 70
     8
 71
     3
 72
     8
 73
     4
 74
     0
 42
0.000000001
 43
0.0000000001
 40
0.0
 40
0.0
 40
0.0
 40
0.0
 40
1.0
 40
1.0
 40
1.0
 40
1.0
 10
3.887017672864275
 20
-19.93194404995464
 30
0.0
 10
4.321099990367443
 20
-19.93194404995464
 30
0.0
 10
4.667676824818344
 20
-19.58846780348593
 30
0.0
 10
4.667676824818344
 20
-19.16024215217124
 30
0.0
  0
POLYLINE
  5
1B7
330
A
100
AcDbEntity
  8
MODEL
  6
Continuous
100
AcDb2dPolyline
 66
     1
 10
0.0
 20
0.0
 30
0.0
  0
VERTEX
  5
1B8
330
1B7
100
AcDbEntity
  8
MODEL
  6
Continuous
100
AcDbVertex
100
AcDb2dVertex
 10
3.887017672864275
 20
-19.93194404995464
 30
0.0
  0
VERTEX
  5
1B9
330
1B7
100
AcDbEntity
  8
MODEL
  6
Continuous
100
AcDbVertex
100
AcDb2dVertex
 10
-3.889946005958436
 20
-19.93194404995464
 30
0.0
  0
SEQEND
  5
1BA
330
1B7
100
AcDbEntity
  8
MODEL
  6
Continuous
  0
LWPOLYLINE
  5
1D1
330
A
100
AcDbEntity
  8
画層1
  6
Continuous
100
AcDbPolyline
 90
        4
 70
     1
 43
0.0
 10
-104.9999999999764
 20
-150.868027757084
 10
-104.9999999999764
 20
146.1319722429161
 10
105.0000000000237
 20
146.1319722429161
 10
105.0000000000237
 20
-150.868027757084
  0
ARC
  5
1DF
330
A
100
AcDbEntity
  8
MODEL
  6
Continuous
100
AcDbCircle
 10
-30.5027333824648
 20
34.25610491584314
 30
0.0
 40
14.28264130761
100
AcDbArc
 50
6.781164714818399
 51
20.42239735330489
  0
ARC
  5
1E0
330
A
100
AcDbEntity
  8
MODEL
  6
Continuous
100
AcDbCircle
 10
-30.5027333824648
 20
34.25610491584314
 30
0.0
 40
14.28264130761
100
AcDbArc
 50
25.67034315253869
 51
98.6275887280087
  0
ARC
  5
1E2
330
A
100
AcDbEntity
  8
MODEL
  6
Continuous
100
AcDbCircle
 10
30.50639661775491
 20
34.25610491584314
 30
0.0
 40
14.28264130761
100
AcDbArc
 50
159.5776026466951
 51
173.2188352851816
  0
ARC
  5
1E3
330
A
100
AcDbEntity
  8
MODEL
  6
Continuous
100
AcDbCircle
 10
30.50639661775491
 20
34.25610491584314
 30
0.0
 40
14.28264130761
100
AcDbArc
 50
81.37241127199133
 51
154.3296568474613
  0
ARC
  5
1E8
330
A
100
AcDbEntity
  8
MODEL
  6
Continuous
100
AcDbCircle
 10
-32.64150684722794
 20
49.15520294000041
 30
0.0
 40
0.7780845392933852
100
AcDbArc
 50
90.27878537563024
 51
269.7212146243781
  0
ARC
  5
1E9
330
A
100
AcDbEntity
  8
MODEL
  6
Continuous
100
AcDbCircle
 10
32.64517008251805
 20
49.15520294000041
 30
0.0
 40
0.7780845392933852
100
AcDbArc
 50
270.2787853756213
 51
89.72121462437029
  0
INSERT
  5
242
330
A
100
AcDbEntity
  8
template
100
AcDbBlockReference
  2
名称未設定-1
 10
82.36311990133777
 20
-144.7794769318591
 30
0.0
 41
0.0762
 42
0.0762
 43
0.0762
  0
LINE
  5
254
330
A
100
AcDbEntity
  8
MODEL
  6
Continuous
390
1D
100
AcDbLine
 10
-3.999917964275106
 20
54.93284954104456
 30
0.0
 11
-3.999917964275106
 21
49.93327826863606
 31
0.0
  0
LINE
  5
255
330
A
100
AcDbEntity
  8
MODEL
  6
Continuous
100
AcDbLine
 10
35.99991196077917
 20
54.93284954104456
 30
0.0
 11
35.99973588233752
 21
55.93262293277303
 31
0.0
  0
LINE
  5
256
330
A
100
AcDbEntity
  8
MODEL
  6
Continuous
100
AcDbLine
 10
-36.00008803922083
 20
54.93284954104456
 30
0.0
 11
-36.00026411766248
 21
55.93262293277303
 31
0.0
  0
LINE
  5
257
330
A
100
AcDbEntity
  8
MODEL
  6
Continuous
100
AcDbLine
 10
-36.00008803922083
 20
54.93284954104456
 30
0.0
 11
35.99991196077917
 21
54.93284954104456
 31
0.0
  0
LINE
  5
258
330
A
100
AcDbEntity
  8
MODEL
  6
Continuous
100
AcDbLine
 10
-36.00026411766248
 20
55.93262293277303
 30
0.0
 11
35.99973588233752
 21
55.93262293277303
 31
0.0
  0
ARC
  5
259
330
A
100
AcDbEntity
  8
MODEL
  6
Continuous
100
AcDbCircle
 10
-0.0566280975776436
 20
-13.95342702578286
 30
0.0
 40
78.6391846490151
100
AcDbArc
 50
62.70939830928349
 51
117.1982289120085
  0
MTEXT
  5
271
102
{ACAD_XDICTIONARY
360
273
102
}
330
A
100
AcDbEntity
  8
ATB73-1901
  6
Continuous
100
AcDbMText
 10
-97.36185825510779
 20
-139.4955504608009
 30
0.0
 40
2.0
 41
0.0
 46
3.0
 71
     1
 72
     1
  1
{20190517N}
  7
ＭＳ ゴシック
 73
     1
 44
1.0
1001
ACAD
1000
ACAD_MTEXT_DEFINED_HEIGHT_BEGIN
1070
    46
1040
3.0
1000
ACAD_MTEXT_DEFINED_HEIGHT_END
  0
MTEXT
  5
278
330
A
100
AcDbEntity
  8
template
 62
     7
390
1D
100
AcDbMText
 10
22.69798781589551
 20
-107.650804248085
 30
0.0
 40
2.44326171875
 41
0.0
 46
2.72912333984375
 71
     1
 72
     1
  1
{ATB73-1902-092 (ブラッシュドオールドブラス)}
  7
ＭＳ ゴシック
 73
     1
 44
0.7828267384257843
1001
ACAD
1000
ACAD_MTEXT_DEFINED_HEIGHT_BEGIN
1070
    46
1040
2.72912333984375
1000
ACAD_MTEXT_DEFINED_HEIGHT_END
  0
MTEXT
  5
279
330
A
100
AcDbEntity
  8
template
 62
     7
390
1D
100
AcDbMText
 10
22.69798781589551
 20
-96.41579539400429
 30
0.0
 40
2.44326171875
 41
0.0
 46
2.72912333984375
 71
     1
 72
     1
  1
{ATB73-1902-034 (ブラッシュドローズゴールド)}
  7
ＭＳ ゴシック
 73
     1
 44
0.7828267384257843
1001
ACAD
1000
ACAD_MTEXT_DEFINED_HEIGHT_BEGIN
1070
    46
1040
2.72912333984375
1000
ACAD_MTEXT_DEFINED_HEIGHT_END
  0
MTEXT
  5
27A
330
A
100
AcDbEntity
  8
template
 62
     7
390
1D
100
AcDbMText
 10
22.6979878158955
 20
-100.3627169921133
 30
0.0
 40
2.44326171875
 41
0.0
 46
2.72912333984375
 71
     1
 72
     1
  1
{ATB73-1902-075 (ブラッシュドブラックメタリック)}
  7
ＭＳ ゴシック
 73
     1
 44
0.7828267384257843
1001
ACAD
1000
ACAD_MTEXT_DEFINED_HEIGHT_BEGIN
1070
    46
1040
2.72912333984375
1000
ACAD_MTEXT_DEFINED_HEIGHT_END
  0
MTEXT
  5
27B
330
A
100
AcDbEntity
  8
template
 62
     7
390
1D
100
AcDbMText
 10
22.6979878158955
 20
-104.0277156189289
 30
0.0
 40
2.44326171875
 41
0.0
 46
2.72912333984375
 71
     1
 72
     1
  1
{ATB73-1902-077 (ブラッシュドメタリック)}
  7
ＭＳ ゴシック
 73
     1
 44
0.7828267384257843
1001
ACAD
1000
ACAD_MTEXT_DEFINED_HEIGHT_BEGIN
1070
    46
1040
2.72912333984375
1000
ACAD_MTEXT_DEFINED_HEIGHT_END
  0
MTEXT
  5
27C
330
A
100
AcDbEntity
  8
template
 62
     7
390
1D
100
AcDbMText
 10
22.69798781589551
 20
-85.42079951355772
 30
0.0
 40
2.44326171875
 41
0.0
 46
2.72912333984375
 71
     1
 72
     1
  1
{ATB73-1902-002 (ホワイト)}
  7
ＭＳ ゴシック
 73
     1
 44
0.7828267384257843
1001
ACAD
1000
ACAD_MTEXT_DEFINED_HEIGHT_BEGIN
1070
    46
1040
2.72912333984375
1000
ACAD_MTEXT_DEFINED_HEIGHT_END
  0
MTEXT
  5
27D
330
A
100
AcDbEntity
  8
template
 62
     7
390
1D
100
AcDbMText
 10
22.69798781589551
 20
-81.7558008867422
 30
0.0
 40
2.44326171875
 41
0.0
 46
2.72912333984375
 71
     1
 72
     1
  1
{ATB73-1902-001 (クローム)}
  7
ＭＳ ゴシック
 73
     1
 44
0.7828267384257843
1001
ACAD
1000
ACAD_MTEXT_DEFINED_HEIGHT_BEGIN
1070
    46
1040
2.72912333984375
1000
ACAD_MTEXT_DEFINED_HEIGHT_END
  0
MTEXT
  5
283
330
A
100
AcDbEntity
  8
template
 62
     7
390
1D
100
AcDbMText
 10
22.69798781589551
 20
-92.8498482551761
 30
0.0
 40
2.44326171875
 41
0.0
 46
2.72912333984375
 71
     1
 72
     1
  1
{ATB73-1902-024 (マットホワイト)}
  7
ＭＳ ゴシック
 73
     1
 44
0.7828267384257843
1001
ACAD
1000
ACAD_MTEXT_DEFINED_HEIGHT_BEGIN
1070
    46
1040
2.72912333984375
1000
ACAD_MTEXT_DEFINED_HEIGHT_END
  0
MTEXT
  5
284
330
A
100
AcDbEntity
  8
template
 62
     7
390
1D
100
AcDbMText
 10
22.69798781589553
 20
-89.0438881427138
 30
0.0
 40
2.44326171875
 41
0.0
 46
2.72912333984375
 71
     1
 72
     1
  1
{ATB73-1902-013 (マットブラック)}
  7
ＭＳ ゴシック
 73
     1
 44
0.7828267384257843
1001
ACAD
1000
ACAD_MTEXT_DEFINED_HEIGHT_BEGIN
1070
    46
1040
2.72912333984375
1000
ACAD_MTEXT_DEFINED_HEIGHT_END
  0
LWPOLYLINE
  5
2A3
330
A
100
AcDbEntity
  8
BORDER
 62
     4
 48
0.1
100
AcDbPolyline
 90
        4
 70
     1
 43
0.0
 10
105.0000000000235
 20
-147.2641846474552
 10
-104.9999999999763
 20
-147.2641846474552
 10
-104.9999999999762
 20
149.7358153525448
 10
105.0000000000235
 20
149.7358153525448
  0
ENDSEC
  0
SECTION
  2
OBJECTS
  0
DICTIONARY
  5
19
330
0
100
AcDbDictionary
281
     1
  3
ACAD_COLOR
350
1FD
  3
ACAD_DETAILVIEWSTYLE
350
1CE
  3
ACAD_FIELDLIST
350
275
  3
ACAD_GROUP
350
1A
  3
ACAD_IMAGE_VARS
350
118
  3
ACAD_LAYOUT
350
1E
  3
ACAD_MATERIAL
350
110
  3
ACAD_MLEADERSTYLE
350
122
  3
ACAD_MLINESTYLE
350
1B
  3
ACAD_PLOTSETTINGS
350
22
  3
ACAD_PLOTSTYLENAME
350
1F
  3
ACAD_SCALELIST
350
D5
  3
ACAD_SECTIONVIEWSTYLE
350
1CF
  3
ACAD_TABLESTYLE
350
114
  3
ACAD_VISUALSTYLE
350
F7
  3
ACDB_RECOMPOSE_DATA
350
2E4
  3
AcDbVariableDictionary
350
1C6
  3
APPDATA
350
116
  0
SUN
  5
117
330
15
100
AcDbSun
 90
        1
290
     0
 63
     7
421
 16777215
 40
1.0
291
     1
 91
  2455826
 92
 54000000
292
     0
 70
     2
 71
   256
280
     1
  0
DICTIONARY
  5
1D2
330
2
100
AcDbDictionary
280
     1
281
     1
  3
ACAD_LAYERSTATES
360
1D3
  3
ACLYDICTIONARY
360
2C1
  0
DICTIONARY
  5
273
330
271
100
AcDbDictionary
280
     1
281
     1
  3
ACAD_FIELD
360
277
  0
DICTIONARY
  5
1FD
102
{ACAD_REACTORS
330
19
102
}
330
19
100
AcDbDictionary
281
     1
  0
DICTIONARY
  5
1CE
102
{ACAD_REACTORS
330
19
102
}
330
19
100
AcDbDictionary
281
     1
  0
FIELDLIST
  5
275
102
{ACAD_REACTORS
330
19
102
}
330
19
100
AcDbIdSet
 90
        2
330
276
330
272
100
AcDbFieldList
  0
DICTIONARY
  5
1A
102
{ACAD_REACTORS
330
19
102
}
330
19
100
AcDbDictionary
281
     1
  0
RASTERVARIABLES
  5
118
102
{ACAD_REACTORS
330
19
102
}
330
19
100
AcDbRasterVariables
 90
        0
 70
     1
 71
     1
 72
     1
  0
DICTIONARY
  5
1E
102
{ACAD_REACTORS
330
19
102
}
330
19
100
AcDbDictionary
281
     1
  3
Layout1
350
21
  3
Model
350
20
  0
DICTIONARY
  5
110
102
{ACAD_REACTORS
330
19
102
}
330
19
100
AcDbDictionary
281
     1
  3
ByBlock
350
112
  3
ByLayer
350
111
  3
Global
350
113
  0
DICTIONARY
  5
122
102
{ACAD_REACTORS
330
19
102
}
330
19
100
AcDbDictionary
281
     1
  3
Standard
350
270
  0
DICTIONARY
  5
1B
102
{ACAD_REACTORS
330
19
102
}
330
19
100
AcDbDictionary
281
     1
  3
Standard
350
1C
  0
DICTIONARY
  5
22
102
{ACAD_REACTORS
330
19
102
}
330
19
100
AcDbDictionary
281
     1
  0
ACDBDICTIONARYWDFLT
  5
1F
102
{ACAD_REACTORS
330
19
102
}
330
19
100
AcDbDictionary
281
     1
  3
Normal
350
1D
100
AcDbDictionaryWithDefault
340
1D
  0
DICTIONARY
  5
D5
102
{ACAD_REACTORS
330
19
102
}
330
19
100
AcDbDictionary
281
     1
  3
A0
350
D6
  3
A1
350
D7
  3
A2
350
D8
  3
A3
350
D9
  3
A4
350
DA
  3
A5
350
DB
  3
A6
350
DC
  3
A7
350
DD
  3
A8
350
DE
  3
A9
350
DF
  3
B0
350
E0
  3
B1
350
E1
  3
B2
350
E2
  3
B3
350
E3
  3
B4
350
E4
  3
B5
350
E5
  3
B6
350
E6
  3
B7
350
E7
  3
B8
350
E8
  3
B9
350
E9
  3
C0
350
EA
  3
C1
350
EB
  3
C2
350
EC
  3
C3
350
ED
  3
C4
350
EE
  3
C5
350
EF
  3
C6
350
F0
  3
C7
350
F1
  3
C8
350
F2
  3
C9
350
F3
  3
D0
350
F4
  3
D1
350
F5
  3
D2
350
F6
  0
DICTIONARY
  5
1CF
102
{ACAD_REACTORS
330
19
102
}
330
19
100
AcDbDictionary
281
     1
  0
DICTIONARY
  5
114
102
{ACAD_REACTORS
330
19
102
}
330
19
100
AcDbDictionary
281
     1
  3
Standard
350
115
  0
DICTIONARY
  5
F7
102
{ACAD_REACTORS
330
19
102
}
330
19
100
AcDbDictionary
281
     1
  3
2dWireframe
350
FC
  3
Basic
350
FF
  3
Brighten
350
103
  3
ColorChange
350
107
  3
Conceptual
350
101
  3
Dim
350
102
  3
EdgeColorOff
350
10A
  3
Facepattern
350
106
  3
Flat
350
F8
  3
FlatWithEdges
350
F9
  3
Gouraud
350
FA
  3
GouraudWithEdges
350
FB
  3
Hidden
350
FE
  3
JitterOff
350
108
  3
Linepattern
350
105
  3
OverhangOff
350
109
  3
Realistic
350
100
  3
Shaded
350
10F
  3
Shaded with edges
350
10E
  3
Shades of Gray
350
10B
  3
Sketchy
350
10C
  3
Thicken
350
104
  3
Wireframe
350
FD
  3
X-Ray
350
10D
  0
XRECORD
  5
2E4
102
{ACAD_REACTORS
330
19
102
}
330
19
100
AcDbXrecord
280
     1
 90
        1
330
115
  0
DICTIONARY
  5
1C6
102
{ACAD_REACTORS
330
19
102
}
330
19
100
AcDbDictionary
281
     1
  3
CANNOSCALE
350
1C7
  3
CMLEADERSTYLE
350
27E
  3
CTABLESTYLE
350
1CC
  3
LIGHTINGUNITS
350
1C8
  3
MSLTSCALE
350
1CD
  3
XCLIPFRAME
350
1E7
  0
DICTIONARY
  5
116
102
{ACAD_REACTORS
330
19
102
}
330
19
100
AcDbDictionary
281
     1
  0
DICTIONARY
  5
1D3
102
{ACAD_REACTORS
330
1D2
102
}
330
1D2
100
AcDbDictionary
281
     1
  0
DICTIONARY
  5
2C1
102
{ACAD_REACTORS
330
1D2
102
}
330
1D2
100
AcDbDictionary
281
     1
1001
ACAD
1000
<All
  0
DICTIONARY
  5
277
102
{ACAD_REACTORS
330
273
102
}
330
273
100
AcDbDictionary
280
     1
281
     1
  3
TEXT
360
272
  0
LAYOUT
  5
21
102
{ACAD_REACTORS
330
1E
102
}
330
1E
100
AcDbPlotSettings
  1

  2

  4

  6

 40
0.0
 41
0.0
 42
0.0
 43
0.0
 44
0.0
 45
0.0
 46
0.0
 47
0.0
 48
0.0
 49
0.0
140
0.0
141
0.0
142
1.0
143
1.0
 70
     0
 72
     0
 73
     0
 74
     0
  7

 75
     0
 76
     0
 77
     2
 78
   300
147
1.0
148
0.0
149
0.0
100
AcDbLayout
  1
Layout1
 70
     0
 71
     0
 10
0.0
 20
0.0
 11
0.0
 21
0.0
 12
0.0
 22
0.0
 32
0.0
 14
0.0
 24
0.0
 34
0.0
 15
0.0
 25
0.0
 35
0.0
146
0.0
 13
0.0
 23
0.0
 33
0.0
 16
0.0
 26
0.0
 36
0.0
 17
0.0
 27
0.0
 37
0.0
 76
     0
330
B
  0
LAYOUT
  5
20
102
{ACAD_REACTORS
330
1E
102
}
330
1E
100
AcDbPlotSettings
  1

  2

  4

  6

 40
0.0
 41
0.0
 42
0.0
 43
0.0
 44
0.0
 45
0.0
 46
0.0
 47
0.0
 48
0.0
 49
0.0
140
0.0
141
0.0
142
1.0
143
1.0
 70
  1024
 72
     0
 73
     0
 74
     0
  7

 75
     0
 76
     0
 77
     2
 78
   300
147
1.0
148
0.0
149
0.0
100
AcDbLayout
  1
Model
 70
     0
 71
     1
 10
-104.9999999999764
 20
-148.2936494954552
 11
105.0000000000237
 21
148.7063505045448
 12
0.0
 22
0.0
 32
0.0
 14
-104.9999999999764
 24
-150.868027757084
 34
0.0
 15
105.0000000000237
 25
149.7358153525448
 35
0.0
146
0.0
 13
0.0
 23
0.0
 33
0.0
 16
0.0
 26
0.0
 36
0.0
 17
0.0
 27
0.0
 37
0.0
 76
     0
330
A
331
15
  0
MATERIAL
  5
112
102
{ACAD_REACTORS
330
110
102
}
330
110
100
AcDbMaterial
  1
ByBlock
 72
     1
 94
      127
  0
MATERIAL
  5
111
102
{ACAD_REACTORS
330
110
102
}
330
110
100
AcDbMaterial
  1
ByLayer
 72
     1
 94
      127
  0
MATERIAL
  5
113
102
{ACAD_REACTORS
330
110
102
}
330
110
100
AcDbMaterial
  1
Global
 72
     1
 94
      127
  0
MLEADERSTYLE
  5
270
102
{ACAD_REACTORS
330
122
102
}
330
122
100
AcDbMLeaderStyle
170
     2
171
     1
172
     0
 90
        2
 40
0.0
 41
0.0
173
     1
 91
-1056964608
340
11
 92
       -2
290
     1
 42
2.0
291
     1
 43
8.0
  3
Standard
341
0
 44
4.0
300

342
17
174
     1
178
     1
175
     1
176
     0
 93
-1056964608
 45
4.0
292
     0
297
     0
 46
4.0
343
0
 94
-1056964608
 47
1.0
 49
1.0
140
1.0
293
     1
141
0.0
294
     1
177
     0
142
1.0
295
     0
296
     0
143
3.75
1001
ACAD_MLEADERVER
1070
     2
  0
MLINESTYLE
  5
1C
102
{ACAD_REACTORS
330
1B
102
}
330
1B
100
AcDbMlineStyle
  2
Standard
 70
     0
  3

 62
     0
 51
90.0
 52
90.0
 71
     2
 49
0.5
 62
   256
  6
BYLAYER
 49
-0.5
 62
   256
  6
BYLAYER
  0
ACDBPLACEHOLDER
  5
1D
102
{ACAD_REACTORS
330
1F
102
}
330
1F
  0
SCALE
  5
D6
102
{ACAD_REACTORS
330
D5
102
}
330
D5
100
AcDbScale
 70
     0
300
1:1
140
1.0
141
1.0
290
     1
  0
SCALE
  5
D7
102
{ACAD_REACTORS
330
D5
102
}
330
D5
100
AcDbScale
 70
     0
300
1:2
140
1.0
141
2.0
290
     0
  0
SCALE
  5
D8
102
{ACAD_REACTORS
330
D5
102
}
330
D5
100
AcDbScale
 70
     0
300
1:4
140
1.0
141
4.0
290
     0
  0
SCALE
  5
D9
102
{ACAD_REACTORS
330
D5
102
}
330
D5
100
AcDbScale
 70
     0
300
1:5
140
1.0
141
5.0
290
     0
  0
SCALE
  5
DA
102
{ACAD_REACTORS
330
D5
102
}
330
D5
100
AcDbScale
 70
     0
300
1:8
140
1.0
141
8.0
290
     0
  0
SCALE
  5
DB
102
{ACAD_REACTORS
330
D5
102
}
330
D5
100
AcDbScale
 70
     0
300
1:10
140
1.0
141
10.0
290
     0
  0
SCALE
  5
DC
102
{ACAD_REACTORS
330
D5
102
}
330
D5
100
AcDbScale
 70
     0
300
1:16
140
1.0
141
16.0
290
     0
  0
SCALE
  5
DD
102
{ACAD_REACTORS
330
D5
102
}
330
D5
100
AcDbScale
 70
     0
300
1:20
140
1.0
141
20.0
290
     0
  0
SCALE
  5
DE
102
{ACAD_REACTORS
330
D5
102
}
330
D5
100
AcDbScale
 70
     0
300
1:30
140
1.0
141
30.0
290
     0
  0
SCALE
  5
DF
102
{ACAD_REACTORS
330
D5
102
}
330
D5
100
AcDbScale
 70
     0
300
1:40
140
1.0
141
40.0
290
     0
  0
SCALE
  5
E0
102
{ACAD_REACTORS
330
D5
102
}
330
D5
100
AcDbScale
 70
     0
300
1:50
140
1.0
141
50.0
290
     0
  0
SCALE
  5
E1
102
{ACAD_REACTORS
330
D5
102
}
330
D5
100
AcDbScale
 70
     0
300
1:100
140
1.0
141
100.0
290
     0
  0
SCALE
  5
E2
102
{ACAD_REACTORS
330
D5
102
}
330
D5
100
AcDbScale
 70
     0
300
2:1
140
2.0
141
1.0
290
     0
  0
SCALE
  5
E3
102
{ACAD_REACTORS
330
D5
102
}
330
D5
100
AcDbScale
 70
     0
300
4:1
140
4.0
141
1.0
290
     0
  0
SCALE
  5
E4
102
{ACAD_REACTORS
330
D5
102
}
330
D5
100
AcDbScale
 70
     0
300
8:1
140
8.0
141
1.0
290
     0
  0
SCALE
  5
E5
102
{ACAD_REACTORS
330
D5
102
}
330
D5
100
AcDbScale
 70
     0
300
10:1
140
10.0
141
1.0
290
     0
  0
SCALE
  5
E6
102
{ACAD_REACTORS
330
D5
102
}
330
D5
100
AcDbScale
 70
     0
300
100:1
140
100.0
141
1.0
290
     0
  0
SCALE
  5
E7
102
{ACAD_REACTORS
330
D5
102
}
330
D5
100
AcDbScale
 70
     0
300
1/128" = 1'-0"
140
0.0078125
141
12.0
290
     0
  0
SCALE
  5
E8
102
{ACAD_REACTORS
330
D5
102
}
330
D5
100
AcDbScale
 70
     0
300
1/64" = 1'-0"
140
0.015625
141
12.0
290
     0
  0
SCALE
  5
E9
102
{ACAD_REACTORS
330
D5
102
}
330
D5
100
AcDbScale
 70
     0
300
1/32" = 1'-0"
140
0.03125
141
12.0
290
     0
  0
SCALE
  5
EA
102
{ACAD_REACTORS
330
D5
102
}
330
D5
100
AcDbScale
 70
     0
300
1/16" = 1'-0"
140
0.0625
141
12.0
290
     0
  0
SCALE
  5
EB
102
{ACAD_REACTORS
330
D5
102
}
330
D5
100
AcDbScale
 70
     0
300
3/32" = 1'-0"
140
0.09375
141
12.0
290
     0
  0
SCALE
  5
EC
102
{ACAD_REACTORS
330
D5
102
}
330
D5
100
AcDbScale
 70
     0
300
1/8" = 1'-0"
140
0.125
141
12.0
290
     0
  0
SCALE
  5
ED
102
{ACAD_REACTORS
330
D5
102
}
330
D5
100
AcDbScale
 70
     0
300
3/16" = 1'-0"
140
0.1875
141
12.0
290
     0
  0
SCALE
  5
EE
102
{ACAD_REACTORS
330
D5
102
}
330
D5
100
AcDbScale
 70
     0
300
1/4" = 1'-0"
140
0.25
141
12.0
290
     0
  0
SCALE
  5
EF
102
{ACAD_REACTORS
330
D5
102
}
330
D5
100
AcDbScale
 70
     0
300
3/8" = 1'-0"
140
0.375
141
12.0
290
     0
  0
SCALE
  5
F0
102
{ACAD_REACTORS
330
D5
102
}
330
D5
100
AcDbScale
 70
     0
300
1/2" = 1'-0"
140
0.5
141
12.0
290
     0
  0
SCALE
  5
F1
102
{ACAD_REACTORS
330
D5
102
}
330
D5
100
AcDbScale
 70
     0
300
3/4" = 1'-0"
140
0.75
141
12.0
290
     0
  0
SCALE
  5
F2
102
{ACAD_REACTORS
330
D5
102
}
330
D5
100
AcDbScale
 70
     0
300
1" = 1'-0"
140
1.0
141
12.0
290
     0
  0
SCALE
  5
F3
102
{ACAD_REACTORS
330
D5
102
}
330
D5
100
AcDbScale
 70
     0
300
1-1/2" = 1'-0"
140
1.5
141
12.0
290
     0
  0
SCALE
  5
F4
102
{ACAD_REACTORS
330
D5
102
}
330
D5
100
AcDbScale
 70
     0
300
3" = 1'-0"
140
3.0
141
12.0
290
     0
  0
SCALE
  5
F5
102
{ACAD_REACTORS
330
D5
102
}
330
D5
100
AcDbScale
 70
     0
300
6" = 1'-0"
140
6.0
141
12.0
290
     0
  0
SCALE
  5
F6
102
{ACAD_REACTORS
330
D5
102
}
330
D5
100
AcDbScale
 70
     0
300
1'-0" = 1'-0"
140
12.0
141
12.0
290
     0
  0
TABLESTYLE
  5
115
102
{ACAD_REACTORS
330
114
102
}
102
{ACAD_XDICTIONARY
360
2E2
102
}
330
114
100
AcDbTableStyle
  3
Standard
 70
     0
 71
     0
 40
0.06
 41
0.06
280
     0
281
     0
  7
Standard
140
4.5
170
     2
 62
     0
 63
   257
283
     0
 90
        4
 91
        0
  1

274
    -2
284
     1
 64
     0
275
    -2
285
     1
 65
     0
276
    -2
286
     1
 66
     0
277
    -2
287
     1
 67
     0
278
    -2
288
     1
 68
     0
279
    -2
289
     1
 69
     0
  7
Standard
140
6.0
170
     5
 62
     0
 63
   257
283
     0
 90
        4
 91
        0
  1

274
    -2
284
     1
 64
     0
275
    -2
285
     1
 65
     0
276
    -2
286
     1
 66
     0
277
    -2
287
     1
 67
     0
278
    -2
288
     1
 68
     0
279
    -2
289
     1
 69
     0
  7
Standard
140
4.5
170
     5
 62
     0
 63
   257
283
     0
 90
        4
 91
        0
  1

274
    -2
284
     1
 64
     0
275
    -2
285
     1
 65
     0
276
    -2
286
     1
 66
     0
277
    -2
287
     1
 67
     0
278
    -2
288
     1
 68
     0
279
    -2
289
     1
 69
     0
  0
VISUALSTYLE
  5
FC
102
{ACAD_REACTORS
330
F7
102
}
330
F7
100
AcDbVisualStyle
  2
2dWireframe
 70
     4
 71
     0
 72
     2
 73
     0
 90
        0
 40
0.6
 41
30.0
 62
     5
 63
     7
421
 16777215
 74
     1
 91
        4
 64
     7
 65
   257
 75
     1
175
     1
 42
1.0
 92
        0
 66
   257
 43
1.0
 76
     1
 77
     6
 78
     2
 67
     7
 79
     5
170
     0
171
     0
290
     0
174
     0
 93
        1
 44
0.0
173
     0
291
     0
 45
0.0
  0
VISUALSTYLE
  5
FF
102
{ACAD_REACTORS
330
F7
102
}
330
F7
100
AcDbVisualStyle
  2
Basic
 70
     7
 71
     1
 72
     0
 73
     1
 90
        0
 40
0.6
 41
30.0
 62
     5
 63
     7
421
 16777215
 74
     0
 91
        4
 64
     7
 65
   257
 75
     1
175
     1
 42
1.0
 92
        8
 66
     7
 43
1.0
 76
     1
 77
     6
 78
     2
 67
     7
 79
     5
170
     0
171
     0
290
     0
174
     0
 93
        1
 44
0.0
173
     0
291
     1
 45
0.0
  0
VISUALSTYLE
  5
103
102
{ACAD_REACTORS
330
F7
102
}
330
F7
100
AcDbVisualStyle
  2
Brighten
 70
    12
 71
     2
 72
     2
 73
     0
 90
        0
 40
0.6
 41
30.0
 62
     5
 63
     7
421
 16777215
 74
     1
 91
        4
 64
     7
 65
   257
 75
     1
175
     1
 42
1.0
 92
        8
 66
     7
 43
1.0
 76
     1
 77
     6
 78
     2
 67
     7
 79
     5
170
     0
171
     0
290
     0
174
     0
 93
        1
 44
50.0
173
     0
291
     1
 45
0.0
  0
VISUALSTYLE
  5
107
102
{ACAD_REACTORS
330
F7
102
}
330
F7
100
AcDbVisualStyle
  2
ColorChange
 70
    16
 71
     2
 72
     2
 73
     3
 90
        0
 40
0.6
 41
30.0
 62
     5
 63
     8
421
  8421504
 74
     1
 91
        4
 64
     7
 65
   257
 75
     1
175
     1
 42
1.0
 92
        8
 66
     8
424
  8421504
 43
1.0
 76
     1
 77
     6
 78
     2
 67
     7
 79
     5
170
     0
171
     0
290
     0
174
     0
 93
        1
 44
0.0
173
     0
291
     1
 45
0.0
  0
VISUALSTYLE
  5
101
102
{ACAD_REACTORS
330
F7
102
}
330
F7
100
AcDbVisualStyle
  2
Conceptual
 70
     9
 71
     3
 72
     2
 73
     0
 90
        0
 40
0.6
 41
30.0
 62
     5
 63
     7
421
 16777215
 74
     2
 91
        2
 64
     7
 65
   257
 75
     1
175
     1
 42
179.0
 92
        8
 66
     7
 43
1.0
 76
     1
 77
     6
 78
     2
 67
     7
 79
     3
170
     0
171
     0
290
     0
174
     0
 93
        1
 44
0.0
173
     0
291
     0
 45
0.0
  0
VISUALSTYLE
  5
102
102
{ACAD_REACTORS
330
F7
102
}
330
F7
100
AcDbVisualStyle
  2
Dim
 70
    11
 71
     2
 72
     2
 73
     0
 90
        0
 40
0.6
 41
30.0
 62
     5
 63
     7
421
 16777215
 74
     1
 91
        4
 64
     7
 65
   257
 75
     1
175
     1
 42
1.0
 92
        8
 66
     7
 43
1.0
 76
     1
 77
     6
 78
     2
 67
     7
 79
     5
170
     0
171
     0
290
     0
174
     0
 93
        1
 44
-50.0
173
     0
291
     1
 45
0.0
  0
VISUALSTYLE
  5
10A
102
{ACAD_REACTORS
330
F7
102
}
330
F7
100
AcDbVisualStyle
  2
EdgeColorOff
 70
    22
 71
     2
 72
     2
 73
     0
 90
        0
 40
0.6
 41
30.0
 62
     5
 63
     7
421
 16777215
 74
     1
 91
        4
 64
     7
 65
   257
 75
     1
175
     1
 42
1.0
 92
        8
 66
     7
 43
1.0
 76
     1
 77
     6
 78
     2
 67
     7
 79
     5
170
     0
171
     0
290
     0
174
     0
 93
        1
 44
0.0
173
     0
291
     1
 45
0.0
  0
VISUALSTYLE
  5
106
102
{ACAD_REACTORS
330
F7
102
}
330
F7
100
AcDbVisualStyle
  2
Facepattern
 70
    15
 71
     2
 72
     2
 73
     0
 90
        0
 40
0.6
 41
30.0
 62
     5
 63
     7
421
 16777215
 74
     1
 91
        4
 64
     7
 65
   257
 75
     1
175
     1
 42
1.0
 92
        8
 66
     7
 43
1.0
 76
     1
 77
     6
 78
     2
 67
     7
 79
     5
170
     0
171
     0
290
     0
174
     0
 93
        1
 44
0.0
173
     0
291
     1
 45
0.0
  0
VISUALSTYLE
  5
F8
102
{ACAD_REACTORS
330
F7
102
}
330
F7
100
AcDbVisualStyle
  2
Flat
 70
     0
 71
     2
 72
     1
 73
     1
 90
        2
 40
0.6
 41
30.0
 62
     5
 63
     7
421
 16777215
 74
     0
 91
        0
 64
     7
 65
   257
 75
     1
175
     1
 42
1.0
 92
        8
 66
     7
 43
1.0
 76
     1
 77
     6
 78
     2
 67
     7
 79
     5
170
     0
171
     0
290
     0
174
     0
 93
       13
 44
0.0
173
     0
291
     1
 45
0.0
  0
VISUALSTYLE
  5
F9
102
{ACAD_REACTORS
330
F7
102
}
330
F7
100
AcDbVisualStyle
  2
FlatWithEdges
 70
     1
 71
     2
 72
     1
 73
     1
 90
        2
 40
0.6
 41
30.0
 62
     5
 63
     7
421
 16777215
 74
     1
 91
        0
 64
     7
 65
   257
 75
     1
175
     1
 42
1.0
 92
        0
 66
   257
 43
1.0
 76
     1
 77
     6
 78
     2
 67
     7
 79
     5
170
     0
171
     0
290
     0
174
     0
 93
       13
 44
0.0
173
     0
291
     1
 45
0.0
  0
VISUALSTYLE
  5
FA
102
{ACAD_REACTORS
330
F7
102
}
330
F7
100
AcDbVisualStyle
  2
Gouraud
 70
     2
 71
     2
 72
     2
 73
     1
 90
        2
 40
0.6
 41
30.0
 62
     5
 63
     7
421
 16777215
 74
     0
 91
        0
 64
     7
 65
   257
 75
     1
175
     1
 42
1.0
 92
        0
 66
     7
 43
1.0
 76
     1
 77
     6
 78
     2
 67
     7
 79
     5
170
     0
171
     0
290
     0
174
     0
 93
       13
 44
0.0
173
     0
291
     1
 45
0.0
  0
VISUALSTYLE
  5
FB
102
{ACAD_REACTORS
330
F7
102
}
330
F7
100
AcDbVisualStyle
  2
GouraudWithEdges
 70
     3
 71
     2
 72
     2
 73
     1
 90
        2
 40
0.6
 41
30.0
 62
     5
 63
     7
421
 16777215
 74
     1
 91
        0
 64
     7
 65
   257
 75
     1
175
     1
 42
1.0
 92
        0
 66
   257
 43
1.0
 76
     1
 77
     6
 78
     2
 67
     7
 79
     5
170
     0
171
     0
290
     0
174
     0
 93
       13
 44
0.0
173
     0
291
     1
 45
0.0
  0
VISUALSTYLE
  5
FE
102
{ACAD_REACTORS
330
F7
102
}
330
F7
100
AcDbVisualStyle
  2
Hidden
 70
     6
 71
     1
 72
     2
 73
     2
 90
        0
 40
0.6
 41
30.0
 62
     5
 63
     7
421
 16777215
 74
     2
 91
        2
 64
     7
 65
   257
 75
     2
175
     1
 42
40.0
 92
        0
 66
   257
 43
1.0
 76
     1
 77
     6
 78
     2
 67
     7
 79
     3
170
     0
171
     0
290
     0
174
     0
 93
        1
 44
0.0
173
     0
291
     0
 45
0.0
  0
VISUALSTYLE
  5
108
102
{ACAD_REACTORS
330
F7
102
}
330
F7
100
AcDbVisualStyle
  2
JitterOff
 70
    20
 71
     2
 72
     2
 73
     0
 90
        0
 40
0.6
 41
30.0
 62
     5
 63
     7
421
 16777215
 74
     1
 91
        4
 64
     7
 65
   257
 75
     1
175
     1
 42
1.0
 92
       10
 66
     7
 43
1.0
 76
     1
 77
     6
 78
     2
 67
     7
 79
     5
170
     0
171
     0
290
     0
174
     0
 93
        1
 44
0.0
173
     0
291
     1
 45
0.0
  0
VISUALSTYLE
  5
105
102
{ACAD_REACTORS
330
F7
102
}
330
F7
100
AcDbVisualStyle
  2
Linepattern
 70
    14
 71
     2
 72
     2
 73
     0
 90
        0
 40
0.6
 41
30.0
 62
     5
 63
     7
421
 16777215
 74
     1
 91
        4
 64
     7
 65
   257
 75
     7
175
     7
 42
1.0
 92
        8
 66
     7
 43
1.0
 76
     1
 77
     6
 78
     2
 67
     7
 79
     5
170
     0
171
     0
290
     0
174
     0
 93
        1
 44
0.0
173
     0
291
     1
 45
0.0
  0
VISUALSTYLE
  5
109
102
{ACAD_REACTORS
330
F7
102
}
330
F7
100
AcDbVisualStyle
  2
OverhangOff
 70
    21
 71
     2
 72
     2
 73
     0
 90
        0
 40
0.6
 41
30.0
 62
     5
 63
     7
421
 16777215
 74
     1
 91
        4
 64
     7
 65
   257
 75
     1
175
     1
 42
1.0
 92
        9
 66
     7
 43
1.0
 76
     1
 77
     6
 78
     2
 67
     7
 79
     5
170
     0
171
     0
290
     0
174
     0
 93
        1
 44
0.0
173
     0
291
     1
 45
0.0
  0
VISUALSTYLE
  5
100
102
{ACAD_REACTORS
330
F7
102
}
330
F7
100
AcDbVisualStyle
  2
Realistic
 70
     8
 71
     2
 72
     3
 73
     0
 90
        2
 40
0.6
 41
30.0
 62
     5
 63
     7
421
 16777215
 74
     0
 91
        0
 64
     7
 65
   257
 75
     1
175
     1
 42
1.0
 92
        8
 66
   257
 43
1.0
 76
     1
 77
     6
 78
     2
 67
     7
 79
     3
170
     0
171
     0
290
     0
174
     0
 93
       13
 44
0.0
173
     0
291
     0
 45
0.0
  0
VISUALSTYLE
  5
10F
102
{ACAD_REACTORS
330
F7
102
}
330
F7
100
AcDbVisualStyle
  2
Shaded
 70
    27
 71
     2
 72
     2
 73
     1
 90
        2
 40
0.6
 41
30.0
 62
     5
 63
     7
421
 16777215
 74
     0
 91
        4
 64
     7
 65
   257
 75
     1
175
     1
 42
1.0
 92
        8
 66
   257
 43
1.0
 76
     1
 77
     6
 78
     2
 67
     8
425
  7895160
 79
     3
170
     0
171
     0
290
     0
174
     0
 93
        5
 44
0.0
173
     0
291
     0
 45
0.0
  0
VISUALSTYLE
  5
10E
102
{ACAD_REACTORS
330
F7
102
}
330
F7
100
AcDbVisualStyle
  2
Shaded with edges
 70
    26
 71
     2
 72
     2
 73
     1
 90
        2
 40
0.6
 41
30.0
 62
     5
 63
     7
421
 16777215
 74
     1
 91
       10
 64
     7
 65
   257
 75
     2
175
     1
 42
1.0
 92
        8
 66
   257
 43
1.0
 76
     1
 77
     6
 78
     2
 67
     7
 79
     3
170
     0
171
     0
290
     0
174
     0
 93
        5
 44
0.0
173
     0
291
     0
 45
0.0
  0
VISUALSTYLE
  5
10B
102
{ACAD_REACTORS
330
F7
102
}
330
F7
100
AcDbVisualStyle
  2
Shades of Gray
 70
    23
 71
     2
 72
     2
 73
     3
 90
        0
 40
0.6
 41
30.0
 62
     5
 63
     7
421
 16777215
 74
     2
 91
        2
 64
     7
 65
     7
 75
     1
175
     1
 42
40.0
 92
        8
 66
     7
 43
1.0
 76
     1
 77
     6
 78
     2
 67
     7
 79
     3
170
     0
171
     0
290
     0
174
     0
 93
        1
 44
0.0
173
     0
291
     0
 45
0.0
  0
VISUALSTYLE
  5
10C
102
{ACAD_REACTORS
330
F7
102
}
330
F7
100
AcDbVisualStyle
  2
Sketchy
 70
    24
 71
     1
 72
     2
 73
     2
 90
        0
 40
0.6
 41
30.0
 62
     5
 63
     7
421
 16777215
 74
     2
 91
        2
 64
     7
 65
     7
 75
     1
175
     1
 42
40.0
 92
       11
 66
     7
 43
1.0
 76
     1
 77
     6
 78
     2
 67
     7
 79
     6
170
     0
171
     0
290
     0
174
     0
 93
        1
 44
0.0
173
     0
291
     0
 45
0.0
  0
VISUALSTYLE
  5
104
102
{ACAD_REACTORS
330
F7
102
}
330
F7
100
AcDbVisualStyle
  2
Thicken
 70
    13
 71
     2
 72
     2
 73
     0
 90
        0
 40
0.6
 41
30.0
 62
     5
 63
     7
421
 16777215
 74
     1
 91
        4
 64
     7
 65
   257
 75
     1
175
     1
 42
1.0
 92
       12
 66
     7
 43
1.0
 76
     1
 77
     6
 78
     2
 67
     7
 79
     5
170
     0
171
     0
290
     0
174
     0
 93
        1
 44
0.0
173
     0
291
     1
 45
0.0
  0
VISUALSTYLE
  5
FD
102
{ACAD_REACTORS
330
F7
102
}
330
F7
100
AcDbVisualStyle
  2
Wireframe
 70
     5
 71
     0
 72
     2
 73
     0
 90
        0
 40
0.6
 41
30.0
 62
     5
 63
     7
421
 16777215
 74
     1
 91
        4
 64
     7
 65
   257
 75
     1
175
     1
 42
1.0
 92
        0
 66
   257
 43
1.0
 76
     1
 77
     6
 78
     2
 67
     7
 79
     3
170
     0
171
     0
290
     0
174
     0
 93
        1
 44
0.0
173
     0
291
     0
 45
0.0
  0
VISUALSTYLE
  5
10D
102
{ACAD_REACTORS
330
F7
102
}
330
F7
100
AcDbVisualStyle
  2
X-Ray
 70
    25
 71
     2
 72
     2
 73
     1
 90
        1
 40
0.5
 41
30.0
 62
     5
 63
     7
421
 16777215
 74
     1
 91
        0
 64
     7
 65
   257
 75
     1
175
     1
 42
1.0
 92
        8
 66
     7
 43
1.0
 76
     1
 77
     6
 78
     2
 67
     7
 79
     3
170
     0
171
     0
290
     0
174
     0
 93
       13
 44
0.0
173
     0
291
     0
 45
0.0
  0
DICTIONARYVAR
  5
1C7
102
{ACAD_REACTORS
330
1C6
102
}
330
1C6
100
DictionaryVariables
280
     0
  1
1:1
  0
DICTIONARYVAR
  5
27E
102
{ACAD_REACTORS
330
1C6
102
}
330
1C6
100
DictionaryVariables
280
     0
  1
Standard
  0
DICTIONARYVAR
  5
1CC
102
{ACAD_REACTORS
330
1C6
102
}
330
1C6
100
DictionaryVariables
280
     0
  1
Standard
  0
DICTIONARYVAR
  5
1C8
102
{ACAD_REACTORS
330
1C6
102
}
330
1C6
100
DictionaryVariables
280
     0
  1
0
  0
DICTIONARYVAR
  5
1CD
102
{ACAD_REACTORS
330
1C6
102
}
330
1C6
100
DictionaryVariables
280
     0
  1
0
  0
DICTIONARYVAR
  5
1E7
102
{ACAD_REACTORS
330
1C6
102
}
330
1C6
100
DictionaryVariables
280
     0
  1
0
  0
FIELD
  5
272
102
{ACAD_REACTORS
330
277
102
}
330
277
100
AcDbField
  1
_text
  2
{%<\_FldIdx 0>%N}
 90
        1
360
276
 97
        0
 91
       63
 92
        0
 94
       11
 95
        2
 96
        0
300

 93
        1
  6
ACFD_FIELDTEXT_CHECKSUM
 93
        2
 90
        2
140
4549.0
 94
        0
300

302

304
ACVALUE_END
  7
ACFD_FIELD_VALUE
 93
        6
 90
        4
  1
{20190517N}
 94
        0
300

302

304
ACVALUE_END
301
{20190517N}
 98
       11
  0
DICTIONARY
  5
2E2
330
115
100
AcDbDictionary
280
     1
281
     1
  3
ACAD_ROUNDTRIP_2008_TABLESTYLE_CELLSTYLEMAP
360
2E3
  0
FIELD
  5
276
330
272
100
AcDbField
  1
AcVar
  2
\AcVar Date \f "yyyyMMdd"
 90
        0
 97
        0
 91
       63
 92
        0
 94
       11
 95
       64
 96
        0
300
Variable not supported
 93
        1
  6
Variable
 93
        2
 90
        4
  1
Date
 94
        0
300

302

304
ACVALUE_END
  7
ACFD_FIELD_VALUE
 93
        6
 90
        8
 92
       16
310
E3070500000011000B001F002E000000
 94
        0
300
yyyyMMdd
302

304
ACVALUE_END
301
20190517
 98
        8
  0
CELLSTYLEMAP
  5
2E3
102
{ACAD_REACTORS
330
2E2
102
}
330
2E2
100
AcDbCellStyleMap
 90
        3
300
CELLSTYLE
  1
TABLEFORMAT_BEGIN
 90
        5
170
     1
 91
        0
 92
        0
 62
   257
 93
        1
300
CONTENTFORMAT
  1
CONTENTFORMAT_BEGIN
 90
        0
 91
        0
 92
        4
 93
        0
300

 40
0.0
140
1.0
 94
        5
 62
     0
340
17
144
6.0
309
CONTENTFORMAT_END
171
     1
301
MARGIN
  1
CELLMARGIN_BEGIN
 40
1.5
 40
1.5
 40
1.5
 40
1.5
 40
1.5
 40
1.5
309
CELLMARGIN_END
 94
        6
 95
        1
302
GRIDFORMAT
  1
GRIDFORMAT_BEGIN
 90
        0
 91
        1
 62
     0
 92
       -2
340
11
 93
        0
 40
0.045
309
GRIDFORMAT_END
 95
        2
302
GRIDFORMAT
  1
GRIDFORMAT_BEGIN
 90
        0
 91
        1
 62
     0
 92
       -2
340
11
 93
        0
 40
0.045
309
GRIDFORMAT_END
 95
        4
302
GRIDFORMAT
  1
GRIDFORMAT_BEGIN
 90
        0
 91
        1
 62
     0
 92
       -2
340
11
 93
        0
 40
0.045
309
GRIDFORMAT_END
 95
        8
302
GRIDFORMAT
  1
GRIDFORMAT_BEGIN
 90
        0
 91
        1
 62
     0
 92
       -2
340
11
 93
        0
 40
0.045
309
GRIDFORMAT_END
 95
       16
302
GRIDFORMAT
  1
GRIDFORMAT_BEGIN
 90
        0
 91
        1
 62
     0
 92
       -2
340
11
 93
        0
 40
0.045
309
GRIDFORMAT_END
 95
       32
302
GRIDFORMAT
  1
GRIDFORMAT_BEGIN
 90
        0
 91
        1
 62
     0
 92
       -2
340
11
 93
        0
 40
0.045
309
GRIDFORMAT_END
309
TABLEFORMAT_END
  1
CELLSTYLE_BEGIN
 90
        1
 91
        1
300
_TITLE
309
CELLSTYLE_END
300
CELLSTYLE
  1
TABLEFORMAT_BEGIN
 90
        5
170
     1
 91
        0
 92
        0
 62
   257
 93
        1
300
CONTENTFORMAT
  1
CONTENTFORMAT_BEGIN
 90
        0
 91
        0
 92
        4
 93
        0
300

 40
0.0
140
1.0
 94
        5
 62
     0
340
17
144
4.5
309
CONTENTFORMAT_END
171
     1
301
MARGIN
  1
CELLMARGIN_BEGIN
 40
1.5
 40
1.5
 40
1.5
 40
1.5
 40
1.5
 40
1.5
309
CELLMARGIN_END
 94
        6
 95
        1
302
GRIDFORMAT
  1
GRIDFORMAT_BEGIN
 90
        0
 91
        1
 62
     0
 92
       -2
340
11
 93
        0
 40
0.045
309
GRIDFORMAT_END
 95
        2
302
GRIDFORMAT
  1
GRIDFORMAT_BEGIN
 90
        0
 91
        1
 62
     0
 92
       -2
340
11
 93
        0
 40
0.045
309
GRIDFORMAT_END
 95
        4
302
GRIDFORMAT
  1
GRIDFORMAT_BEGIN
 90
        0
 91
        1
 62
     0
 92
       -2
340
11
 93
        0
 40
0.045
309
GRIDFORMAT_END
 95
        8
302
GRIDFORMAT
  1
GRIDFORMAT_BEGIN
 90
        0
 91
        1
 62
     0
 92
       -2
340
11
 93
        0
 40
0.045
309
GRIDFORMAT_END
 95
       16
302
GRIDFORMAT
  1
GRIDFORMAT_BEGIN
 90
        0
 91
        1
 62
     0
 92
       -2
340
11
 93
        0
 40
0.045
309
GRIDFORMAT_END
 95
       32
302
GRIDFORMAT
  1
GRIDFORMAT_BEGIN
 90
        0
 91
        1
 62
     0
 92
       -2
340
11
 93
        0
 40
0.045
309
GRIDFORMAT_END
309
TABLEFORMAT_END
  1
CELLSTYLE_BEGIN
 90
        2
 91
        1
300
_HEADER
309
CELLSTYLE_END
300
CELLSTYLE
  1
TABLEFORMAT_BEGIN
 90
        5
170
     1
 91
        0
 92
        0
 62
   257
 93
        1
300
CONTENTFORMAT
  1
CONTENTFORMAT_BEGIN
 90
        0
 91
        0
 92
        4
 93
        0
300

 40
0.0
140
1.0
 94
        2
 62
     0
340
17
144
4.5
309
CONTENTFORMAT_END
171
     1
301
MARGIN
  1
CELLMARGIN_BEGIN
 40
1.5
 40
1.5
 40
1.5
 40
1.5
 40
1.5
 40
1.5
309
CELLMARGIN_END
 94
        6
 95
        1
302
GRIDFORMAT
  1
GRIDFORMAT_BEGIN
 90
        0
 91
        1
 62
     0
 92
       -2
340
11
 93
        0
 40
0.045
309
GRIDFORMAT_END
 95
        2
302
GRIDFORMAT
  1
GRIDFORMAT_BEGIN
 90
        0
 91
        1
 62
     0
 92
       -2
340
11
 93
        0
 40
0.045
309
GRIDFORMAT_END
 95
        4
302
GRIDFORMAT
  1
GRIDFORMAT_BEGIN
 90
        0
 91
        1
 62
     0
 92
       -2
340
11
 93
        0
 40
0.045
309
GRIDFORMAT_END
 95
        8
302
GRIDFORMAT
  1
GRIDFORMAT_BEGIN
 90
        0
 91
        1
 62
     0
 92
       -2
340
11
 93
        0
 40
0.045
309
GRIDFORMAT_END
 95
       16
302
GRIDFORMAT
  1
GRIDFORMAT_BEGIN
 90
        0
 91
        1
 62
     0
 92
       -2
340
11
 93
        0
 40
0.045
309
GRIDFORMAT_END
 95
       32
302
GRIDFORMAT
  1
GRIDFORMAT_BEGIN
 90
        0
 91
        1
 62
     0
 92
       -2
340
11
 93
        0
 40
0.045
309
GRIDFORMAT_END
309
TABLEFORMAT_END
  1
CELLSTYLE_BEGIN
 90
        3
 91
        2
300
_DATA
309
CELLSTYLE_END
  0
ENDSEC
  0
EOF
