  0
SECTION
  2
HEADER
  9
$ACADVER
  1
AC1021
  9
$ACADMAINTVER
 70
    25
  9
$DWGCODEPAGE
  3
ANSI_932
  9
$LASTSAVEDBY
  1
howeNelson
  9
$INSBASE
 10
0.0
 20
0.0
 30
0.0
  9
$EXTMIN
 10
0.0
 20
0.0
 30
-0.0000000000000071
  9
$EXTMAX
 10
630.0
 20
891.0
 30
0.0000000000000071
  9
$LIMMIN
 10
0.0
 20
0.0
  9
$LIMMAX
 10
630.0
 20
891.0
  9
$ORTHOMODE
 70
     0
  9
$REGENMODE
 70
     1
  9
$FILLMODE
 70
     1
  9
$QTEXTMODE
 70
     0
  9
$MIRRTEXT
 70
     1
  9
$LTSCALE
 40
1.5
  9
$ATTMODE
 70
     1
  9
$TEXTSIZE
 40
2.5
  9
$TRACEWID
 40
1.0
  9
$TEXTSTYLE
  7
ＭＳ ゴシック
  9
$CLAYER
  8
DIM
  9
$CELTYPE
  6
ByLayer
  9
$CECOLOR
 62
   256
  9
$CELTSCALE
 40
1.0
  9
$DISPSILH
 70
     0
  9
$DIMSCALE
 40
1.0
  9
$DIMASZ
 40
3.0
  9
$DIMEXO
 40
10.0
  9
$DIMDLI
 40
0.9999999999999999
  9
$DIMRND
 40
0.0
  9
$DIMDLE
 40
0.0
  9
$DIMEXE
 40
0.0
  9
$DIMTP
 40
0.0
  9
$DIMTM
 40
0.0
  9
$DIMTXT
 40
8.0
  9
$DIMCEN
 40
0.0
  9
$DIMTSZ
 40
0.0
  9
$DIMTOL
 70
     0
  9
$DIMLIM
 70
     0
  9
$DIMTIH
 70
     0
  9
$DIMTOH
 70
     0
  9
$DIMSE1
 70
     0
  9
$DIMSE2
 70
     0
  9
$DIMTAD
 70
     1
  9
$DIMZIN
 70
    11
  9
$DIMBLK
  1
DOT
  9
$DIMASO
 70
     1
  9
$DIMSHO
 70
     1
  9
$DIMPOST
  1
<>
  9
$DIMAPOST
  1
[]
  9
$DIMALT
 70
     0
  9
$DIMALTD
 70
     1
  9
$DIMALTF
 40
1.0
  9
$DIMLFAC
 40
1.0
  9
$DIMTOFL
 70
     0
  9
$DIMTVP
 40
0.0
  9
$DIMTIX
 70
     1
  9
$DIMSOXD
 70
     0
  9
$DIMSAH
 70
     0
  9
$DIMBLK1
  1

  9
$DIMBLK2
  1

  9
$DIMSTYLE
  2
tfrom線あり
  9
$DIMCLRD
 70
     0
  9
$DIMCLRE
 70
     0
  9
$DIMCLRT
 70
     0
  9
$DIMTFAC
 40
1.0
  9
$DIMGAP
 40
6.0
  9
$DIMJUST
 70
     0
  9
$DIMSD1
 70
     0
  9
$DIMSD2
 70
     0
  9
$DIMTOLJ
 70
     1
  9
$DIMTZIN
 70
    11
  9
$DIMALTZ
 70
    11
  9
$DIMALTTZ
 70
    11
  9
$DIMUPT
 70
     0
  9
$DIMDEC
 70
     0
  9
$DIMTDEC
 70
     1
  9
$DIMALTU
 70
     2
  9
$DIMALTTD
 70
     2
  9
$DIMTXSTY
  7
ＭＳ ゴシック
  9
$DIMAUNIT
 70
     0
  9
$DIMADEC
 70
     2
  9
$DIMALTRND
 40
0.0
  9
$DIMAZIN
 70
     0
  9
$DIMDSEP
 70
    46
  9
$DIMATFIT
 70
     0
  9
$DIMFRAC
 70
     2
  9
$DIMLDRBLK
  1
DOT
  9
$DIMLUNIT
 70
     2
  9
$DIMLWD
 70
    -2
  9
$DIMLWE
 70
    -2
  9
$DIMTMOVE
 70
     0
  9
$DIMFXL
 40
1.0
  9
$DIMFXLON
 70
     0
  9
$DIMJOGANG
 40
0.7853981633974483
  9
$DIMTFILL
 70
     0
  9
$DIMTFILLCLR
 70
     0
  9
$DIMARCSYM
 70
     0
  9
$DIMLTYPE
  6

  9
$DIMLTEX1
  6

  9
$DIMLTEX2
  6

  9
$LUNITS
 70
     2
  9
$LUPREC
 70
     0
  9
$SKETCHINC
 40
0.1
  9
$FILLETRAD
 40
0.0
  9
$AUNITS
 70
     0
  9
$AUPREC
 70
     0
  9
$MENU
  1
acad
  9
$ELEVATION
 40
0.0
  9
$PELEVATION
 40
0.0
  9
$THICKNESS
 40
0.0
  9
$LIMCHECK
 70
     0
  9
$CHAMFERA
 40
0.0
  9
$CHAMFERB
 40
0.0
  9
$CHAMFERC
 40
0.0
  9
$CHAMFERD
 40
0.0
  9
$SKPOLY
 70
     0
  9
$TDCREATE
 40
2447893.375
  9
$TDUCREATE
 40
0.0
  9
$TDUPDATE
 40
2458585.480861759
  9
$TDUUPDATE
 40
2458585.105861759
  9
$TDINDWG
 40
0.1552900347
  9
$TDUSRTIMER
 40
0.0325955208
  9
$USRTIMER
 70
     1
  9
$ANGBASE
 50
0.0
  9
$ANGDIR
 70
     0
  9
$PDMODE
 70
     1
  9
$PDSIZE
 40
-2.0
  9
$PLINEWID
 40
0.0
  9
$SPLFRAME
 70
     0
  9
$SPLINETYPE
 70
     6
  9
$SPLINESEGS
 70
     8
  9
$HANDSEED
  5
178B9
  9
$SURFTAB1
 70
     6
  9
$SURFTAB2
 70
     6
  9
$SURFTYPE
 70
     6
  9
$SURFU
 70
     6
  9
$SURFV
 70
     6
  9
$UCSBASE
  2

  9
$UCSNAME
  2

  9
$UCSORG
 10
0.0
 20
0.0
 30
0.0
  9
$UCSXDIR
 10
1.0
 20
0.0
 30
0.0
  9
$UCSYDIR
 10
0.0
 20
1.0
 30
0.0
  9
$UCSORTHOREF
  2

  9
$UCSORTHOVIEW
 70
     0
  9
$UCSORGTOP
 10
0.0
 20
0.0
 30
0.0
  9
$UCSORGBOTTOM
 10
0.0
 20
0.0
 30
0.0
  9
$UCSORGLEFT
 10
0.0
 20
0.0
 30
0.0
  9
$UCSORGRIGHT
 10
0.0
 20
0.0
 30
0.0
  9
$UCSORGFRONT
 10
0.0
 20
0.0
 30
0.0
  9
$UCSORGBACK
 10
0.0
 20
0.0
 30
0.0
  9
$PUCSBASE
  2

  9
$PUCSNAME
  2

  9
$PUCSORG
 10
0.0
 20
0.0
 30
0.0
  9
$PUCSXDIR
 10
1.0
 20
0.0
 30
0.0
  9
$PUCSYDIR
 10
0.0
 20
1.0
 30
0.0
  9
$PUCSORTHOREF
  2

  9
$PUCSORTHOVIEW
 70
     0
  9
$PUCSORGTOP
 10
0.0
 20
0.0
 30
0.0
  9
$PUCSORGBOTTOM
 10
0.0
 20
0.0
 30
0.0
  9
$PUCSORGLEFT
 10
0.0
 20
0.0
 30
0.0
  9
$PUCSORGRIGHT
 10
0.0
 20
0.0
 30
0.0
  9
$PUCSORGFRONT
 10
0.0
 20
0.0
 30
0.0
  9
$PUCSORGBACK
 10
0.0
 20
0.0
 30
0.0
  9
$USERI1
 70
     0
  9
$USERI2
 70
     0
  9
$USERI3
 70
     0
  9
$USERI4
 70
     0
  9
$USERI5
 70
     0
  9
$USERR1
 40
0.0
  9
$USERR2
 40
0.0
  9
$USERR3
 40
0.0
  9
$USERR4
 40
0.0
  9
$USERR5
 40
0.0
  9
$WORLDVIEW
 70
     1
  9
$SHADEDGE
 70
     3
  9
$SHADEDIF
 70
    70
  9
$TILEMODE
 70
     1
  9
$MAXACTVP
 70
    64
  9
$PINSBASE
 10
0.0
 20
0.0
 30
0.0
  9
$PLIMCHECK
 70
     0
  9
$PEXTMIN
 10
0.0
 20
0.0
 30
0.0
  9
$PEXTMAX
 10
0.0
 20
0.0
 30
0.0
  9
$PLIMMIN
 10
-7.5
 20
-20.0
  9
$PLIMMAX
 10
412.5
 20
277.0
  9
$UNITMODE
 70
     0
  9
$VISRETAIN
 70
     0
  9
$PLINEGEN
 70
     1
  9
$PSLTSCALE
 70
     0
  9
$TREEDEPTH
 70
  3020
  9
$CMLSTYLE
  2
Standard
  9
$CMLJUST
 70
     0
  9
$CMLSCALE
 40
1.0
  9
$PROXYGRAPHICS
 70
     0
  9
$MEASUREMENT
 70
     1
  9
$CELWEIGHT
370
    -1
  9
$ENDCAPS
280
     0
  9
$JOINSTYLE
280
     0
  9
$LWDISPLAY
290
     1
  9
$INSUNITS
 70
     4
  9
$HYPERLINKBASE
  1

  9
$STYLESHEET
  1

  9
$XEDIT
290
     1
  9
$CEPSNTYPE
380
     0
  9
$PSTYLEMODE
290
     1
  9
$FINGERPRINTGUID
  2

  9
$VERSIONGUID
  2

  9
$EXTNAMES
290
     1
  9
$PSVPSCALE
 40
0.0
  9
$OLESTARTUP
290
     0
  9
$SORTENTS
280
   127
  9
$INDEXCTL
280
     0
  9
$HIDETEXT
280
     1
  9
$XCLIPFRAME
290
     0
  9
$HALOGAP
280
     0
  9
$OBSCOLOR
 70
   257
  9
$OBSLTYPE
280
     0
  9
$INTERSECTIONDISPLAY
280
     0
  9
$INTERSECTIONCOLOR
 70
   257
  9
$DIMASSOC
280
     2
  9
$PROJECTNAME
  1

  9
$CAMERADISPLAY
290
     0
  9
$LENSLENGTH
 40
50.0
  9
$CAMERAHEIGHT
 40
0.0
  9
$STEPSPERSEC
 40
2.0
  9
$STEPSIZE
 40
6.0
  9
$3DDWFPREC
 40
2.0
  9
$PSOLWIDTH
 40
0.25
  9
$PSOLHEIGHT
 40
4.0
  9
$LOFTANG1
 40
1.570796326794897
  9
$LOFTANG2
 40
1.570796326794897
  9
$LOFTMAG1
 40
0.0
  9
$LOFTMAG2
 40
0.0
  9
$LOFTPARAM
 70
     7
  9
$LOFTNORMALS
280
     1
  9
$LATITUDE
 40
37.795
  9
$LONGITUDE
 40
-122.394
  9
$NORTHDIRECTION
 40
0.0
  9
$TIMEZONE
 70
 -8000
  9
$LIGHTGLYPHDISPLAY
280
     1
  9
$TILEMODELIGHTSYNCH
280
     1
  9
$SOLIDHIST
280
     1
  9
$SHOWHIST
280
     1
  9
$DWFFRAME
280
     2
  9
$DGNFRAME
280
     2
  9
$REALWORLDSCALE
290
     1
  9
$INTERFERECOLOR
 62
   256
  9
$CSHADOW
280
     0
  9
$SHADOWPLANELOCATION
 40
0.0
  0
ENDSEC
  0
SECTION
  2
CLASSES
  0
CLASS
  1
LWPOLYLINE
  2
AcDbPolyline
  3
ObjectDBX Classes
 90
        0
 91
        1
280
     0
281
     1
  0
CLASS
  1
IMAGE
  2
AcDbRasterImage
  3
ISM
 90
      127
 91
        5
280
     0
281
     1
  0
CLASS
  1
OLE2FRAME
  2
AcDbOle2Frame
  3
ObjectDBX Classes
 90
        0
 91
        1
280
     0
281
     1
  0
CLASS
  1
HATCH
  2
AcDbHatch
  3
ObjectDBX Classes
 90
        0
 91
        1
280
     0
281
     1
  0
CLASS
  1
DICTIONARYVAR
  2
AcDbDictionaryVar
  3
ObjectDBX Classes
 90
        0
 91
        5
280
     0
281
     0
  0
CLASS
  1
RASTERVARIABLES
  2
AcDbRasterVariables
  3
ISM
 90
        0
 91
        5
280
     0
281
     0
  0
CLASS
  1
IMAGEDEF
  2
AcDbRasterImageDef
  3
ISM
 90
        0
 91
        4
280
     0
281
     0
  0
CLASS
  1
IMAGEDEF_REACTOR
  2
AcDbRasterImageDefReactor
  3
ISM
 90
        1
 91
        4
280
     0
281
     0
  0
CLASS
  1
IDBUFFER
  2
AcDbIdBuffer
  3
ObjectDBX Classes
 90
        0
 91
        4
280
     0
281
     0
  0
CLASS
  1
SPATIAL_FILTER
  2
AcDbSpatialFilter
  3
ObjectDBX Classes
 90
        0
 91
        4
280
     0
281
     0
  0
CLASS
  1
XRECORD
  2
AcDbXrecord
  3
ObjectDBX Classes
 90
        0
 91
        1
280
     0
281
     0
  0
CLASS
  1
SORTENTSTABLE
  2
AcDbSortentsTable
  3
ObjectDBX Classes
 90
        0
 91
        4
280
     0
281
     0
  0
CLASS
  1
LAYER_INDEX
  2
AcDbLayerIndex
  3
ObjectDBX Classes
 90
        0
 91
        4
280
     0
281
     0
  0
CLASS
  1
SPATIAL_INDEX
  2
AcDbSpatialIndex
  3
AutoCAD 2000
 90
        0
 91
        4
280
     0
281
     0
  0
CLASS
  1
OBJECT_PTR
  2
CAseDLPNTableRecord
  3
ASE-LPNTableRecord
 90
        1
 91
        4
280
     0
281
     0
  0
CLASS
  1
LAYOUT
  2
AcDbLayout
  3
ObjectDBX Classes
 90
        0
 91
        1
280
     0
281
     0
  0
CLASS
  1
PLOTSETTINGS
  2
AcDbPlotSettings
  3
ObjectDBX Classes
 90
        0
 91
        4
280
     0
281
     0
  0
CLASS
  1
ACDBDICTIONARYWDFLT
  2
AcDbDictionaryWithDefault
  3
ObjectDBX Classes
 90
        0
 91
        5
280
     0
281
     0
  0
CLASS
  1
ACDBPLACEHOLDER
  2
AcDbPlaceHolder
  3
ObjectDBX Classes
 90
        0
 91
        1
280
     0
281
     0
  0
CLASS
  1
SCALE
  2
AcDbScale
  3
ObjectDBX Classes
 90
     1153
 91
        5
280
     0
281
     0
  0
CLASS
  1
MATERIAL
  2
AcDbMaterial
  3
ObjectDBX Classes
 90
     1153
 91
        5
280
     0
281
     0
  0
CLASS
  1
VISUALSTYLE
  2
AcDbVisualStyle
  3
ObjectDBX Classes
 90
     4095
 91
        5
280
     0
281
     0
  0
CLASS
  1
TABLESTYLE
  2
AcDbTableStyle
  3
ObjectDBX Classes
 90
     4095
 91
        5
280
     0
281
     0
  0
CLASS
  1
DIMASSOC
  2
AcDbDimAssoc
  3
"AcDbDimAssoc|Product Desc:     AcDim ARX App For Dimension|Company:          Autodesk, Inc.|WEB Address:      www.autodesk.com"
 90
        0
 91
        5
280
     0
281
     0
  0
CLASS
  1
CELLSTYLEMAP
  2
AcDbCellStyleMap
  3
ObjectDBX Classes
 90
     1152
 91
        5
280
     0
281
     0
  0
CLASS
  1
SUN
  2
AcDbSun
  3
SCENEOE
 90
     1153
 91
        5
280
     0
281
     0
  0
CLASS
  1
MLEADERSTYLE
  2
AcDbMLeaderStyle
  3
ACDB_MLEADERSTYLE_CLASS
 90
     4095
 91
        5
280
     0
281
     0
  0
CLASS
  1
FIELD
  2
AcDbField
  3
ObjectDBX Classes
 90
     1152
 91
        4
280
     0
281
     0
  0
CLASS
  1
FIELDLIST
  2
AcDbFieldList
  3
ObjectDBX Classes
 90
     1152
 91
        4
280
     0
281
     0
  0
ENDSEC
  0
SECTION
  2
TABLES
  0
TABLE
  2
VPORT
  5
7
330
0
100
AcDbSymbolTable
 70
     1
  0
VPORT
  5
15
330
7
100
AcDbSymbolTableRecord
100
AcDbViewportTableRecord
  2
*ACTIVE
 70
     0
 10
0.0
 20
0.0
 11
1.0
 21
1.0
 12
406.0201356708999
 22
371.9012854698341
 13
0.0
 23
0.0
 14
1.0
 24
1.0
 15
0.0
 25
0.0
 16
0.0
 26
0.0
 36
1.0
 17
-91.02013567089989
 27
73.59871453016592
 37
-46.86809886248109
 40
908.82
 41
2.341176470588235
 42
50.0
 43
0.0
 44
0.0
 50
0.0
 51
0.0
 71
    16
 72
  2000
 73
     1
 74
     1
 75
     0
 76
     0
 77
     0
 78
     0
281
     0
 65
     1
110
0.0
120
0.0
130
0.0
111
1.0
121
0.0
131
0.0
112
0.0
122
1.0
132
0.0
 79
     0
146
0.0
348
3666
 60
     3
 61
     5
292
     1
282
     1
141
0.0
142
0.0
 63
   256
361
904
  0
ENDTAB
  0
TABLE
  2
LTYPE
  5
4
330
0
100
AcDbSymbolTable
 70
     3
  0
LTYPE
  5
11
330
4
100
AcDbSymbolTableRecord
100
AcDbLinetypeTableRecord
  2
ByBlock
 70
     0
  3

 72
    65
 73
     0
 40
0.0
  0
LTYPE
  5
12
330
4
100
AcDbSymbolTableRecord
100
AcDbLinetypeTableRecord
  2
ByLayer
 70
     0
  3

 72
    65
 73
     0
 40
0.0
  0
LTYPE
  5
13
330
4
100
AcDbSymbolTableRecord
100
AcDbLinetypeTableRecord
  2
Continuous
 70
     0
  3
Solid line
 72
    65
 73
     0
 40
0.0
  0
LTYPE
  5
D6C
330
4
100
AcDbSymbolTableRecord
100
AcDbLinetypeTableRecord
  2
BORDER
 70
     0
  3
Border __  __  . __  __  . __  __  . __  __  . 
 72
    65
 73
     6
 40
44.45
 49
12.7
 74
     0
 49
-6.35
 74
     0
 49
12.7
 74
     0
 49
-6.35
 74
     0
 49
0.0
 74
     0
 49
-6.35
 74
     0
  0
LTYPE
  5
D6D
330
4
100
AcDbSymbolTableRecord
100
AcDbLinetypeTableRecord
  2
HIDDEN
 70
     0
  3
Hidden _ _ _ _ _ _ _ _ _ _ _ _ _ _ _ _ _ _ _ _ 
 72
    65
 73
     2
 40
9.524999999999999
 49
6.35
 74
     0
 49
-3.175
 74
     0
  0
ENDTAB
  0
TABLE
  2
LAYER
  5
2
102
{ACAD_XDICTIONARY
360
2E1
102
}
330
0
100
AcDbSymbolTable
 70
     8
  0
LAYER
  5
14
330
2
100
AcDbSymbolTableRecord
100
AcDbLayerTableRecord
  2
0
 70
     0
 62
     7
  6
Continuous
370
    -3
390
1D
347
266
  0
LAYER
  5
4B
330
2
100
AcDbSymbolTableRecord
100
AcDbLayerTableRecord
  2
TEMPLATE
 70
     0
 62
     7
  6
Continuous
370
    20
390
1D
347
266
  0
LAYER
  5
4C
330
2
100
AcDbSymbolTableRecord
100
AcDbLayerTableRecord
  2
DIM
 70
     0
 62
     3
  6
Continuous
370
    13
390
1D
347
266
  0
LAYER
  5
4D
330
2
100
AcDbSymbolTableRecord
100
AcDbLayerTableRecord
  2
MODEL
 70
     0
 62
     7
  6
Continuous
370
    20
390
1D
347
266
  0
LAYER
  5
88C
330
2
100
AcDbSymbolTableRecord
100
AcDbLayerTableRecord
  2
HIDDEN
 70
     0
 62
     8
  6
HIDDEN
370
    20
390
1D
347
266
1001
AcAecLayerStandard
1000

1000

  0
LAYER
  5
D6B
330
2
100
AcDbSymbolTableRecord
100
AcDbLayerTableRecord
  2
BORDER
 70
     0
 62
     4
  6
BORDER
290
     0
370
    20
390
1D
347
266
1001
AcAecLayerStandard
1000

1000

  0
LAYER
  5
A5DF
330
2
100
AcDbSymbolTableRecord
100
AcDbLayerTableRecord
  2
Defpoints
 70
     0
 62
     7
  6
Continuous
290
     0
370
    -3
390
1D
347
266
  0
LAYER
  5
173FE
330
2
100
AcDbSymbolTableRecord
100
AcDbLayerTableRecord
  2
レイヤー 1
 70
     0
 62
     7
  6
Continuous
370
    -3
390
1D
347
266
  0
ENDTAB
  0
TABLE
  2
STYLE
  5
3
330
0
100
AcDbSymbolTable
 70
     2
  0
STYLE
  5
17
330
3
100
AcDbSymbolTableRecord
100
AcDbTextStyleTableRecord
  2
Standard
 70
     0
 40
0.0
 41
1.0
 50
0.0
 71
     0
 42
2.5
  3
txt
  4
BIGFONT.SHX
  0
STYLE
  5
39
330
3
100
AcDbSymbolTableRecord
100
AcDbTextStyleTableRecord
  2
ＭＳ ゴシック
 70
     0
 40
0.0
 41
1.0
 50
0.0
 71
     0
 42
2.5
  3
msgothic.ttc
  4
ＭＳ ゴシック
1001
ACAD
1000
ＭＳ ゴシック
1071
        0
  0
ENDTAB
  0
TABLE
  2
VIEW
  5
5
330
0
100
AcDbSymbolTable
 70
     0
  0
ENDTAB
  0
TABLE
  2
UCS
  5
6
330
0
100
AcDbSymbolTable
 70
     0
  0
ENDTAB
  0
TABLE
  2
APPID
  5
8
330
0
100
AcDbSymbolTable
 70
     3
  0
APPID
  5
16
330
8
100
AcDbSymbolTableRecord
100
AcDbRegAppTableRecord
  2
ACAD
 70
     0
  0
APPID
  5
7AC
330
8
100
AcDbSymbolTableRecord
100
AcDbRegAppTableRecord
  2
AcAecLayerStandard
 70
     0
  0
APPID
  5
E29
330
8
100
AcDbSymbolTableRecord
100
AcDbRegAppTableRecord
  2
ACAD_MLEADERVER
 70
     0
  0
ENDTAB
  0
TABLE
  2
DIMSTYLE
  5
9
330
0
100
AcDbSymbolTable
 70
     2
100
AcDbDimStyleTable
  0
DIMSTYLE
105
18
330
9
100
AcDbSymbolTableRecord
100
AcDbDimStyleTableRecord
  2
Standard
 70
     0
178
     0
340
17
  0
DIMSTYLE
105
57
102
{ACAD_REACTORS
330
176F7
330
177BF
330
177D2
330
177E1
330
177F4
330
17806
330
1781B
330
1782C
330
1784D
330
1785E
330
17870
330
17882
330
17891
102
}
330
9
100
AcDbSymbolTableRecord
100
AcDbDimStyleTableRecord
  2
tfrom線あり
 70
     0
  3
<>
  4
[]
 41
3.0
 42
10.0
 43
0.9999999999999999
 44
0.0
 73
     0
 74
     0
 77
     1
 78
    11
140
8.0
141
0.0
143
1.0
147
6.0
171
     1
174
     1
178
     0
179
     2
271
     0
272
     1
276
     2
284
    11
285
    11
286
    11
289
     0
340
39
341
4E
342
4E
  0
ENDTAB
  0
TABLE
  2
BLOCK_RECORD
  5
1
330
0
100
AcDbSymbolTable
 70
    38
  0
BLOCK_RECORD
  5
A
102
{ACAD_XDICTIONARY
360
1733E
102
}
330
1
100
AcDbSymbolTableRecord
100
AcDbBlockTableRecord
  2
*MODEL_SPACE
340
20
 70
     0
280
     1
281
     0
  0
BLOCK_RECORD
  5
B
330
1
100
AcDbSymbolTableRecord
100
AcDbBlockTableRecord
  2
*PAPER_SPACE
340
21
 70
     0
280
     1
281
     0
  0
BLOCK_RECORD
  5
4E
330
1
100
AcDbSymbolTableRecord
100
AcDbBlockTableRecord
  2
_DOT
340
0
102
{BLKREFS
331
17326
331
17327
331
17335
331
17336
331
173AB
331
173AC
331
173BA
331
173BB
331
173D8
331
173D9
331
173E4
331
173E5
331
17693
331
0
331
0
331
17692
331
176A3
331
176A2
331
176B2
331
0
331
176B3
331
176C2
331
176C1
331
176D1
331
176D0
331
176FF
331
176FE
331
1770E
331
1770D
331
17721
331
17720
331
1772E
331
1772D
331
17744
331
17743
331
1775D
331
1775C
331
1776D
331
1776C
331
1777C
331
1777B
331
1779E
331
1779D
331
177AB
331
177AA
331
177BA
331
177B9
331
177C9
331
0
331
0
331
177DC
331
177DB
331
177EB
331
177EA
331
177FE
331
177FD
331
0
331
0
331
0
331
17811
331
17826
331
17827
331
17836
331
17835
331
17848
331
17847
331
17855
331
17854
331
17868
331
17867
331
1787A
331
17879
331
1788C
331
1788B
331
1789B
331
1789A
102
}
 70
     0
280
     1
281
     0
  0
BLOCK_RECORD
  5
68D
330
1
100
AcDbSymbolTableRecord
100
AcDbBlockTableRecord
  2
block 2
340
0
102
{BLKREFS
331
0
331
0
102
}
 70
     0
280
     1
281
     0
  0
BLOCK_RECORD
  5
17320
330
1
100
AcDbSymbolTableRecord
100
AcDbBlockTableRecord
  2
*D2
340
0
 70
     0
280
     1
281
     0
  0
BLOCK_RECORD
  5
1732F
330
1
100
AcDbSymbolTableRecord
100
AcDbBlockTableRecord
  2
*D3
340
0
 70
     0
280
     1
281
     0
  0
BLOCK_RECORD
  5
173A6
330
1
100
AcDbSymbolTableRecord
100
AcDbBlockTableRecord
  2
*D4
340
0
 70
     0
280
     1
281
     0
  0
BLOCK_RECORD
  5
173B5
330
1
100
AcDbSymbolTableRecord
100
AcDbBlockTableRecord
  2
*D5
340
0
 70
     0
280
     1
281
     0
  0
BLOCK_RECORD
  5
173D2
330
1
100
AcDbSymbolTableRecord
100
AcDbBlockTableRecord
  2
*D6
340
0
 70
     0
280
     1
281
     0
  0
BLOCK_RECORD
  5
173DE
330
1
100
AcDbSymbolTableRecord
100
AcDbBlockTableRecord
  2
*D7
340
0
 70
     0
280
     1
281
     0
  0
BLOCK_RECORD
  5
1768C
330
1
100
AcDbSymbolTableRecord
100
AcDbBlockTableRecord
  2
*D9
340
0
 70
     0
280
     1
281
     0
  0
BLOCK_RECORD
  5
1769C
330
1
100
AcDbSymbolTableRecord
100
AcDbBlockTableRecord
  2
*D10
340
0
 70
     0
280
     1
281
     0
  0
BLOCK_RECORD
  5
176AB
330
1
100
AcDbSymbolTableRecord
100
AcDbBlockTableRecord
  2
*D11
340
0
 70
     0
280
     1
281
     0
  0
BLOCK_RECORD
  5
176BB
330
1
100
AcDbSymbolTableRecord
100
AcDbBlockTableRecord
  2
*D12
340
0
 70
     0
280
     1
281
     0
  0
BLOCK_RECORD
  5
176CA
330
1
100
AcDbSymbolTableRecord
100
AcDbBlockTableRecord
  2
*D13
340
0
 70
     0
280
     1
281
     0
  0
BLOCK_RECORD
  5
176F8
330
1
100
AcDbSymbolTableRecord
100
AcDbBlockTableRecord
  2
*D14
340
0
 70
     0
280
     1
281
     0
  0
BLOCK_RECORD
  5
17707
330
1
100
AcDbSymbolTableRecord
100
AcDbBlockTableRecord
  2
*D15
340
0
 70
     0
280
     1
281
     0
  0
BLOCK_RECORD
  5
1771A
330
1
100
AcDbSymbolTableRecord
100
AcDbBlockTableRecord
  2
*D16
340
0
 70
     0
280
     1
281
     0
  0
BLOCK_RECORD
  5
17727
330
1
100
AcDbSymbolTableRecord
100
AcDbBlockTableRecord
  2
*D17
340
0
 70
     0
280
     1
281
     0
  0
BLOCK_RECORD
  5
1773D
330
1
100
AcDbSymbolTableRecord
100
AcDbBlockTableRecord
  2
*D18
340
0
 70
     0
280
     1
281
     0
  0
BLOCK_RECORD
  5
17756
330
1
100
AcDbSymbolTableRecord
100
AcDbBlockTableRecord
  2
*D19
340
0
 70
     0
280
     1
281
     0
  0
BLOCK_RECORD
  5
17766
330
1
100
AcDbSymbolTableRecord
100
AcDbBlockTableRecord
  2
*D20
340
0
 70
     0
280
     1
281
     0
  0
BLOCK_RECORD
  5
17775
330
1
100
AcDbSymbolTableRecord
100
AcDbBlockTableRecord
  2
*D21
340
0
 70
     0
280
     1
281
     0
  0
BLOCK_RECORD
  5
17797
330
1
100
AcDbSymbolTableRecord
100
AcDbBlockTableRecord
  2
*D22
340
0
 70
     0
280
     1
281
     0
  0
BLOCK_RECORD
  5
177A4
330
1
100
AcDbSymbolTableRecord
100
AcDbBlockTableRecord
  2
*D23
340
0
 70
     0
280
     1
281
     0
  0
BLOCK_RECORD
  5
177B3
330
1
100
AcDbSymbolTableRecord
100
AcDbBlockTableRecord
  2
*D24
340
0
 70
     0
280
     1
281
     0
  0
BLOCK_RECORD
  5
177C2
330
1
100
AcDbSymbolTableRecord
100
AcDbBlockTableRecord
  2
*D25
340
0
 70
     0
280
     1
281
     0
  0
BLOCK_RECORD
  5
177D5
330
1
100
AcDbSymbolTableRecord
100
AcDbBlockTableRecord
  2
*D26
340
0
 70
     0
280
     1
281
     0
  0
BLOCK_RECORD
  5
177E4
330
1
100
AcDbSymbolTableRecord
100
AcDbBlockTableRecord
  2
*D27
340
0
 70
     0
280
     1
281
     0
  0
BLOCK_RECORD
  5
177F7
330
1
100
AcDbSymbolTableRecord
100
AcDbBlockTableRecord
  2
*D28
340
0
 70
     0
280
     1
281
     0
  0
BLOCK_RECORD
  5
17809
330
1
100
AcDbSymbolTableRecord
100
AcDbBlockTableRecord
  2
*D29
340
0
 70
     0
280
     1
281
     0
  0
BLOCK_RECORD
  5
1781E
330
1
100
AcDbSymbolTableRecord
100
AcDbBlockTableRecord
  2
*D30
340
0
 70
     0
280
     1
281
     0
  0
BLOCK_RECORD
  5
1782F
330
1
100
AcDbSymbolTableRecord
100
AcDbBlockTableRecord
  2
*D31
340
0
 70
     0
280
     1
281
     0
  0
BLOCK_RECORD
  5
17841
330
1
100
AcDbSymbolTableRecord
100
AcDbBlockTableRecord
  2
*D32
340
0
 70
     0
280
     1
281
     0
  0
BLOCK_RECORD
  5
1784E
330
1
100
AcDbSymbolTableRecord
100
AcDbBlockTableRecord
  2
*D33
340
0
 70
     0
280
     1
281
     0
  0
BLOCK_RECORD
  5
17861
330
1
100
AcDbSymbolTableRecord
100
AcDbBlockTableRecord
  2
*D34
340
0
 70
     0
280
     1
281
     0
  0
BLOCK_RECORD
  5
17873
330
1
100
AcDbSymbolTableRecord
100
AcDbBlockTableRecord
  2
*D35
340
0
 70
     0
280
     1
281
     0
  0
BLOCK_RECORD
  5
17885
330
1
100
AcDbSymbolTableRecord
100
AcDbBlockTableRecord
  2
*D36
340
0
 70
     0
280
     1
281
     0
  0
BLOCK_RECORD
  5
17894
330
1
100
AcDbSymbolTableRecord
100
AcDbBlockTableRecord
  2
*D37
340
0
 70
     0
280
     1
281
     0
  0
ENDTAB
  0
ENDSEC
  0
SECTION
  2
BLOCKS
  0
BLOCK
  5
D
330
A
100
AcDbEntity
  8
0
390
1D
100
AcDbBlockBegin
  2
*MODEL_SPACE
 70
     0
 10
0.0
 20
0.0
 30
0.0
  3
*MODEL_SPACE
  1
*MODEL_SPACE
  0
ENDBLK
  5
E
330
A
100
AcDbEntity
  8
0
390
1D
100
AcDbBlockEnd
  0
BLOCK
  5
F
330
B
100
AcDbEntity
 67
     1
  8
0
390
1D
100
AcDbBlockBegin
  2
*PAPER_SPACE
 70
     0
 10
0.0
 20
0.0
 30
0.0
  3
*PAPER_SPACE
  1
*PAPER_SPACE
  0
ENDBLK
  5
10
330
B
100
AcDbEntity
 67
     1
  8
0
390
1D
100
AcDbBlockEnd
  0
BLOCK
  5
369F
330
4E
100
AcDbEntity
  8
0
390
1D
100
AcDbBlockBegin
  2
_DOT
 70
     0
 10
0.0
 20
0.0
 30
0.0
  3
_DOT
  1
_DOT
  0
POLYLINE
  5
36A1
330
4E
100
AcDbEntity
  8
0
  6
ByBlock
 62
     0
370
    -2
390
1D
100
AcDb2dPolyline
 66
     1
 10
0.0
 20
0.0
 30
0.0
 70
     1
 40
0.5
 41
0.5
  0
VERTEX
  5
36A2
330
36A1
100
AcDbEntity
  8
0
  6
ByBlock
 62
     0
370
    -2
390
1D
100
AcDbVertex
100
AcDb2dVertex
 10
-0.25
 20
0.0
 30
0.0
 42
1.0
  0
VERTEX
  5
36A3
330
36A1
100
AcDbEntity
  8
0
  6
ByBlock
 62
     0
370
    -2
390
1D
100
AcDbVertex
100
AcDb2dVertex
 10
0.25
 20
0.0
 30
0.0
 42
1.0
  0
SEQEND
  5
36A4
330
36A1
100
AcDbEntity
  8
0
390
1D
  0
LINE
  5
36A5
330
4E
100
AcDbEntity
  8
0
  6
ByBlock
 62
     0
370
    -2
390
1D
100
AcDbLine
 10
-0.5
 20
0.0
 30
0.0
 11
-1.0
 21
0.0
 31
0.0
  0
ENDBLK
  5
36A6
330
4E
100
AcDbEntity
  8
0
390
1D
100
AcDbBlockEnd
  0
BLOCK
  5
68E
330
68D
100
AcDbEntity
  8
0
100
AcDbBlockBegin
  2
block 2
 70
     0
 10
0.0
 20
0.0
 30
0.0
  3
block 2
  1
block 2
  0
ENDBLK
  5
6B0
330
68D
100
AcDbEntity
  8
0
100
AcDbBlockEnd
  0
BLOCK
  5
17321
330
17320
100
AcDbEntity
  8
0
100
AcDbBlockBegin
  2
*D2
 70
     1
 10
0.0
 20
0.0
 30
0.0
  3
*D2
  1

  0
LINE
  5
17323
330
17320
100
AcDbEntity
  8
DIM
 62
     0
370
    -2
100
AcDbLine
 10
405.9245501690548
 20
309.7529598971253
 30
0.0
 11
405.9245501690548
 21
297.8784471131835
 31
0.0
  0
LINE
  5
17324
330
17320
100
AcDbEntity
  8
DIM
 62
     0
370
    -2
100
AcDbLine
 10
370.465565794055
 20
307.7217551386165
 30
0.0
 11
370.465565794055
 21
297.8784471131835
 31
0.0
  0
LINE
  5
17325
330
17320
100
AcDbEntity
  8
DIM
 62
     0
370
    -2
100
AcDbLine
 10
402.9245501690548
 20
297.8784471131835
 30
0.0
 11
373.465565794055
 21
297.8784471131835
 31
0.0
  0
INSERT
  5
17326
330
17320
100
AcDbEntity
  8
DIM
 62
     0
370
    -2
100
AcDbBlockReference
  2
_DOT
 10
405.9245501690548
 20
297.8784471131835
 30
0.0
 41
3.0
 42
3.0
 43
3.0
  0
INSERT
  5
17327
330
17320
100
AcDbEntity
  8
DIM
 62
     0
370
    -2
100
AcDbBlockReference
  2
_DOT
 10
370.465565794055
 20
297.8784471131835
 30
0.0
 41
3.0
 42
3.0
 43
3.0
 50
180.0
  0
MTEXT
  5
17328
330
17320
100
AcDbEntity
  8
DIM
 62
     0
100
AcDbMText
 10
388.1950579815549
 20
307.8784471131835
 30
0.0
 40
8.0
 41
0.0
 46
0.0
 71
     5
 72
     1
  1
\A1;35
  7
ＭＳ ゴシック
 73
     1
 44
1.0
  0
POINT
  5
17329
330
17320
100
AcDbEntity
  8
Defpoints
 62
     0
100
AcDbPoint
 10
405.9245501690548
 20
319.7529598971253
 30
0.0
  0
POINT
  5
1732A
330
17320
100
AcDbEntity
  8
Defpoints
 62
     0
100
AcDbPoint
 10
370.465565794055
 20
317.7217551386165
 30
0.0
  0
POINT
  5
1732B
330
17320
100
AcDbEntity
  8
Defpoints
 62
     0
100
AcDbPoint
 10
370.465565794055
 20
297.8784471131835
 30
0.0
  0
ENDBLK
  5
17322
330
17320
100
AcDbEntity
  8
0
100
AcDbBlockEnd
  0
BLOCK
  5
17330
330
1732F
100
AcDbEntity
  8
0
100
AcDbBlockBegin
  2
*D3
 70
     1
 10
0.0
 20
0.0
 30
0.0
  3
*D3
  1

  0
LINE
  5
17332
330
1732F
100
AcDbEntity
  8
DIM
 62
     0
370
    -2
100
AcDbLine
 10
336.4182475173941
 20
457.0429158371509
 30
0.0
 11
315.1384266419193
 21
457.0429158371509
 31
0.0
  0
LINE
  5
17333
330
1732F
100
AcDbEntity
  8
DIM
 62
     0
370
    -2
100
AcDbLine
 10
331.4592515249408
 20
386.1825642746509
 30
0.0
 11
315.1384266419193
 21
386.1825642746509
 31
0.0
  0
LINE
  5
17334
330
1732F
100
AcDbEntity
  8
DIM
 62
     0
370
    -2
100
AcDbLine
 10
315.1384266419193
 20
454.0429158371509
 30
0.0
 11
315.1384266419193
 21
389.1825642746509
 31
0.0
  0
INSERT
  5
17335
330
1732F
100
AcDbEntity
  8
DIM
 62
     0
370
    -2
100
AcDbBlockReference
  2
_DOT
 10
315.1384266419193
 20
457.0429158371509
 30
0.0
 41
3.0
 42
3.0
 43
3.0
 50
90.0
  0
INSERT
  5
17336
330
1732F
100
AcDbEntity
  8
DIM
 62
     0
370
    -2
100
AcDbBlockReference
  2
_DOT
 10
315.1384266419193
 20
386.1825642746509
 30
0.0
 41
3.0
 42
3.0
 43
3.0
 50
270.0
  0
MTEXT
  5
17337
330
1732F
100
AcDbEntity
  8
DIM
 62
     0
100
AcDbMText
 10
305.1384266419193
 20
421.6127400559009
 30
0.0
 40
8.0
 41
0.0
 46
0.0
 71
     5
 72
     1
  1
\A1;71
  7
ＭＳ ゴシック
 11
0.0
 21
1.0
 31
0.0
 73
     1
 44
1.0
  0
POINT
  5
17338
330
1732F
100
AcDbEntity
  8
Defpoints
 62
     0
100
AcDbPoint
 10
346.4182475173941
 20
457.0429158371509
 30
0.0
  0
POINT
  5
17339
330
1732F
100
AcDbEntity
  8
Defpoints
 62
     0
100
AcDbPoint
 10
341.4592515249408
 20
386.1825642746509
 30
0.0
  0
POINT
  5
1733A
330
1732F
100
AcDbEntity
  8
Defpoints
 62
     0
100
AcDbPoint
 10
315.1384266419193
 20
386.1825642746509
 30
0.0
  0
ENDBLK
  5
17331
330
1732F
100
AcDbEntity
  8
0
100
AcDbBlockEnd
  0
BLOCK
  5
173A7
330
173A6
100
AcDbEntity
  8
0
100
AcDbBlockBegin
  2
*D4
 70
     1
 10
0.0
 20
0.0
 30
0.0
  3
*D4
  1

  0
LINE
  5
173A8
330
173A6
100
AcDbEntity
  8
DIM
 62
     0
370
    -2
100
AcDbLine
 10
1.0
 20
135.0035410091185
 30
0.0
 11
1.0
 21
195.1497860279634
 31
0.0
  0
LINE
  5
173A9
330
173A6
100
AcDbEntity
  8
DIM
 62
     0
370
    -2
100
AcDbLine
 10
115.1779939209723
 20
135.0035410091185
 30
0.0
 11
115.1779939209723
 21
195.1497860279634
 31
0.0
  0
LINE
  5
173AA
330
173A6
100
AcDbEntity
  8
DIM
 62
     0
370
    -2
100
AcDbLine
 10
4.0
 20
195.1497860279634
 30
0.0
 11
112.1779939209723
 21
195.1497860279634
 31
0.0
  0
INSERT
  5
173AB
330
173A6
100
AcDbEntity
  8
DIM
 62
     0
370
    -2
100
AcDbBlockReference
  2
_DOT
 10
1.0
 20
195.1497860279634
 30
0.0
 41
3.0
 42
3.0
 43
3.0
 50
180.0
  0
INSERT
  5
173AC
330
173A6
100
AcDbEntity
  8
DIM
 62
     0
370
    -2
100
AcDbBlockReference
  2
_DOT
 10
115.1779939209723
 20
195.1497860279634
 30
0.0
 41
3.0
 42
3.0
 43
3.0
  0
MTEXT
  5
173AD
330
173A6
100
AcDbEntity
  8
DIM
 62
     0
100
AcDbMText
 10
58.08899696048616
 20
205.1497860279634
 30
0.0
 40
8.0
 41
0.0
 46
0.0
 71
     5
 72
     1
  1
\A1;114
  7
ＭＳ ゴシック
 73
     1
 44
1.0
  0
POINT
  5
173AE
330
173A6
100
AcDbEntity
  8
Defpoints
 62
     0
100
AcDbPoint
 10
1.0
 20
125.0035410091185
 30
0.0
  0
POINT
  5
173AF
330
173A6
100
AcDbEntity
  8
Defpoints
 62
     0
100
AcDbPoint
 10
115.1779939209723
 20
125.0035410091185
 30
0.0
  0
POINT
  5
173B0
330
173A6
100
AcDbEntity
  8
Defpoints
 62
     0
100
AcDbPoint
 10
115.1779939209723
 20
195.1497860279634
 30
0.0
  0
ENDBLK
  5
173B1
330
173A6
100
AcDbEntity
  8
0
100
AcDbBlockEnd
  0
BLOCK
  5
173B6
330
173B5
100
AcDbEntity
  8
0
100
AcDbBlockBegin
  2
*D5
 70
     1
 10
0.0
 20
0.0
 30
0.0
  3
*D5
  1

  0
LINE
  5
173B7
330
173B5
100
AcDbEntity
  8
DIM
 62
     0
370
    -2
100
AcDbLine
 10
20.20208557550177
 20
115.0035410091185
 30
0.0
 11
20.20208557550177
 21
38.30487537993926
 31
0.0
  0
LINE
  5
173B8
330
173B5
100
AcDbEntity
  8
DIM
 62
     0
370
    -2
100
AcDbLine
 10
95.97590834547054
 20
115.0035410091185
 30
0.0
 11
95.97590834547054
 21
38.30487537993926
 31
0.0
  0
LINE
  5
173B9
330
173B5
100
AcDbEntity
  8
DIM
 62
     0
370
    -2
100
AcDbLine
 10
23.20208557550177
 20
38.30487537993926
 30
0.0
 11
92.97590834547054
 21
38.30487537993926
 31
0.0
  0
INSERT
  5
173BA
330
173B5
100
AcDbEntity
  8
DIM
 62
     0
370
    -2
100
AcDbBlockReference
  2
_DOT
 10
20.20208557550177
 20
38.30487537993926
 30
0.0
 41
3.0
 42
3.0
 43
3.0
 50
180.0
  0
INSERT
  5
173BB
330
173B5
100
AcDbEntity
  8
DIM
 62
     0
370
    -2
100
AcDbBlockReference
  2
_DOT
 10
95.97590834547054
 20
38.30487537993926
 30
0.0
 41
3.0
 42
3.0
 43
3.0
  0
MTEXT
  5
173BC
330
173B5
100
AcDbEntity
  8
DIM
 62
     0
100
AcDbMText
 10
58.08899696048616
 20
48.30487537993926
 30
0.0
 40
8.0
 41
0.0
 46
0.0
 71
     5
 72
     1
  1
\A1;76
  7
ＭＳ ゴシック
 73
     1
 44
1.0
  0
POINT
  5
173BD
330
173B5
100
AcDbEntity
  8
Defpoints
 62
     0
100
AcDbPoint
 10
20.20208557550177
 20
125.0035410091185
 30
0.0
  0
POINT
  5
173BE
330
173B5
100
AcDbEntity
  8
Defpoints
 62
     0
100
AcDbPoint
 10
95.97590834547054
 20
125.0035410091185
 30
0.0
  0
POINT
  5
173BF
330
173B5
100
AcDbEntity
  8
Defpoints
 62
     0
100
AcDbPoint
 10
95.97590834547054
 20
38.30487537993926
 30
0.0
  0
ENDBLK
  5
173C0
330
173B5
100
AcDbEntity
  8
0
100
AcDbBlockEnd
  0
BLOCK
  5
173D3
330
173D2
100
AcDbEntity
  8
0
100
AcDbBlockBegin
  2
*D6
 70
     1
 10
0.0
 20
0.0
 30
0.0
  3
*D6
  1

  0
LINE
  5
173D5
330
173D2
100
AcDbEntity
  8
DIM
 62
     0
370
    -2
100
AcDbLine
 10
228.7947264437692
 20
485.5501747355622
 30
0.0
 11
228.7947264437692
 21
580.7695422638294
 31
0.0
  0
LINE
  5
173D6
330
173D2
100
AcDbEntity
  8
DIM
 62
     0
370
    -2
100
AcDbLine
 10
400.0617173252274
 20
485.5501747355622
 30
0.0
 11
400.0617173252274
 21
580.7695422638294
 31
0.0
  0
LINE
  5
173D7
330
173D2
100
AcDbEntity
  8
DIM
 62
     0
370
    -2
100
AcDbLine
 10
231.7947264437692
 20
580.7695422638294
 30
0.0
 11
397.0617173252274
 21
580.7695422638294
 31
0.0
  0
INSERT
  5
173D8
330
173D2
100
AcDbEntity
  8
DIM
 62
     0
370
    -2
100
AcDbBlockReference
  2
_DOT
 10
228.7947264437692
 20
580.7695422638294
 30
0.0
 41
3.0
 42
3.0
 43
3.0
 50
180.0
  0
INSERT
  5
173D9
330
173D2
100
AcDbEntity
  8
DIM
 62
     0
370
    -2
100
AcDbBlockReference
  2
_DOT
 10
400.0617173252274
 20
580.7695422638294
 30
0.0
 41
3.0
 42
3.0
 43
3.0
  0
MTEXT
  5
173DA
330
173D2
100
AcDbEntity
  8
DIM
 62
     0
100
AcDbMText
 10
314.4282218844983
 20
590.7695422638294
 30
0.0
 40
8.0
 41
0.0
 46
0.0
 71
     5
 72
     1
  1
\A1;171
  7
ＭＳ ゴシック
 73
     1
 44
1.0
  0
POINT
  5
173DB
330
173D2
100
AcDbEntity
  8
Defpoints
 62
     0
100
AcDbPoint
 10
228.7947264437692
 20
475.5501747355622
 30
0.0
  0
POINT
  5
173DC
330
173D2
100
AcDbEntity
  8
Defpoints
 62
     0
100
AcDbPoint
 10
400.0617173252274
 20
475.5501747355622
 30
0.0
  0
POINT
  5
173DD
330
173D2
100
AcDbEntity
  8
Defpoints
 62
     0
100
AcDbPoint
 10
400.0617173252274
 20
580.7695422638294
 30
0.0
  0
ENDBLK
  5
173D4
330
173D2
100
AcDbEntity
  8
0
100
AcDbBlockEnd
  0
BLOCK
  5
173DF
330
173DE
100
AcDbEntity
  8
0
100
AcDbBlockBegin
  2
*D7
 70
     1
 10
0.0
 20
0.0
 30
0.0
  3
*D7
  1

  0
LINE
  5
173E1
330
173DE
100
AcDbEntity
  8
DIM
 62
     0
370
    -2
100
AcDbLine
 10
257.5978548070218
 20
465.5501747355622
 30
0.0
 11
257.5978548070218
 21
345.5021762917933
 31
0.0
  0
LINE
  5
173E2
330
173DE
100
AcDbEntity
  8
DIM
 62
     0
370
    -2
100
AcDbLine
 10
371.2585889619747
 20
465.5501747355622
 30
0.0
 11
371.2585889619747
 21
345.5021762917933
 31
0.0
  0
LINE
  5
173E3
330
173DE
100
AcDbEntity
  8
DIM
 62
     0
370
    -2
100
AcDbLine
 10
260.5978548070218
 20
345.5021762917933
 30
0.0
 11
368.2585889619747
 21
345.5021762917933
 31
0.0
  0
INSERT
  5
173E4
330
173DE
100
AcDbEntity
  8
DIM
 62
     0
370
    -2
100
AcDbBlockReference
  2
_DOT
 10
257.5978548070218
 20
345.5021762917933
 30
0.0
 41
3.0
 42
3.0
 43
3.0
 50
180.0
  0
INSERT
  5
173E5
330
173DE
100
AcDbEntity
  8
DIM
 62
     0
370
    -2
100
AcDbBlockReference
  2
_DOT
 10
371.2585889619747
 20
345.5021762917933
 30
0.0
 41
3.0
 42
3.0
 43
3.0
  0
MTEXT
  5
173E6
330
173DE
100
AcDbEntity
  8
DIM
 62
     0
100
AcDbMText
 10
314.4282218844983
 20
355.5021762917933
 30
0.0
 40
8.0
 41
0.0
 46
0.0
 71
     5
 72
     1
  1
\A1;114
  7
ＭＳ ゴシック
 73
     1
 44
1.0
  0
POINT
  5
173E7
330
173DE
100
AcDbEntity
  8
Defpoints
 62
     0
100
AcDbPoint
 10
257.5978548070218
 20
475.5501747355622
 30
0.0
  0
POINT
  5
173E8
330
173DE
100
AcDbEntity
  8
Defpoints
 62
     0
100
AcDbPoint
 10
371.2585889619747
 20
475.5501747355622
 30
0.0
  0
POINT
  5
173E9
330
173DE
100
AcDbEntity
  8
Defpoints
 62
     0
100
AcDbPoint
 10
371.2585889619747
 20
345.5021762917933
 30
0.0
  0
ENDBLK
  5
173E0
330
173DE
100
AcDbEntity
  8
0
100
AcDbBlockEnd
  0
BLOCK
  5
1768D
330
1768C
100
AcDbEntity
  8
0
100
AcDbBlockBegin
  2
*D9
 70
     1
 10
0.0
 20
0.0
 30
0.0
  3
*D9
  1

  0
LINE
  5
1768F
330
1768C
100
AcDbEntity
  8
DIM
 62
     0
370
    -2
100
AcDbLine
 10
821.0874286310432
 20
503.4845418534635
 30
0.0
 11
756.0595053316497
 21
503.4845418534635
 31
0.0
  0
LINE
  5
17690
330
1768C
100
AcDbEntity
  8
DIM
 62
     0
370
    -2
100
AcDbLine
 10
821.11437605224
 20
403.4845418465607
 30
0.0
 11
756.0595053316497
 21
403.4845418465607
 31
0.0
  0
LINE
  5
17691
330
1768C
100
AcDbEntity
  8
DIM
 62
     0
370
    -2
100
AcDbLine
 10
756.0595053316497
 20
500.4845418534635
 30
0.0
 11
756.0595053316497
 21
406.4845418465607
 31
0.0
  0
INSERT
  5
17692
330
1768C
100
AcDbEntity
  8
DIM
 62
     0
370
    -2
100
AcDbBlockReference
  2
_DOT
 10
756.0595053316497
 20
503.4845418534635
 30
0.0
 41
3.0
 42
3.0
 43
3.0
 50
90.0
  0
INSERT
  5
17693
330
1768C
100
AcDbEntity
  8
DIM
 62
     0
370
    -2
100
AcDbBlockReference
  2
_DOT
 10
756.0595053316497
 20
403.4845418465607
 30
0.0
 41
3.0
 42
3.0
 43
3.0
 50
270.0
  0
MTEXT
  5
17694
330
1768C
100
AcDbEntity
  8
DIM
 62
     0
100
AcDbMText
 10
746.0595053316497
 20
453.4845418500121
 30
0.0
 40
8.0
 41
0.0
 46
0.0
 71
     5
 72
     1
  1
\A1;100.00000001
  7
ＭＳ ゴシック
 11
0.0
 21
1.0
 31
0.0
 73
     1
 44
1.0
  0
POINT
  5
17695
330
1768C
100
AcDbEntity
  8
Defpoints
 62
     0
100
AcDbPoint
 10
831.0874286310432
 20
503.4845418534635
 30
0.0
  0
POINT
  5
17696
330
1768C
100
AcDbEntity
  8
Defpoints
 62
     0
100
AcDbPoint
 10
831.11437605224
 20
403.4845418465607
 30
0.0
  0
POINT
  5
17697
330
1768C
100
AcDbEntity
  8
Defpoints
 62
     0
100
AcDbPoint
 10
756.0595053316497
 20
403.4845418465607
 30
0.0
  0
ENDBLK
  5
1768E
330
1768C
100
AcDbEntity
  8
0
100
AcDbBlockEnd
  0
BLOCK
  5
1769D
330
1769C
100
AcDbEntity
  8
0
100
AcDbBlockBegin
  2
*D10
 70
     1
 10
0.0
 20
0.0
 30
0.0
  3
*D10
  1

  0
LINE
  5
1769F
330
1769C
100
AcDbEntity
  8
DIM
 62
     0
370
    -2
100
AcDbLine
 10
906.569662138792
 20
375.577667119499
 30
0.0
 11
906.569662138792
 21
337.5203108115059
 31
0.0
  0
LINE
  5
176A0
330
1769C
100
AcDbEntity
  8
DIM
 62
     0
370
    -2
100
AcDbLine
 10
851.4158111604906
 20
367.8575442888601
 30
0.0
 11
851.4158111604906
 21
337.5203108115059
 31
0.0
  0
LINE
  5
176A1
330
1769C
100
AcDbEntity
  8
DIM
 62
     0
370
    -2
100
AcDbLine
 10
903.569662138792
 20
337.5203108115059
 30
0.0
 11
854.4158111604906
 21
337.5203108115059
 31
0.0
  0
INSERT
  5
176A2
330
1769C
100
AcDbEntity
  8
DIM
 62
     0
370
    -2
100
AcDbBlockReference
  2
_DOT
 10
906.569662138792
 20
337.5203108115059
 30
0.0
 41
3.0
 42
3.0
 43
3.0
  0
INSERT
  5
176A3
330
1769C
100
AcDbEntity
  8
DIM
 62
     0
370
    -2
100
AcDbBlockReference
  2
_DOT
 10
851.4158111604906
 20
337.5203108115059
 30
0.0
 41
3.0
 42
3.0
 43
3.0
 50
180.0
  0
MTEXT
  5
176A4
330
1769C
100
AcDbEntity
  8
DIM
 62
     0
100
AcDbMText
 10
878.9927366496413
 20
347.5203108115059
 30
0.0
 40
8.0
 41
0.0
 46
0.0
 71
     5
 72
     1
  1
\A1;55
  7
ＭＳ ゴシック
 73
     1
 44
1.0
  0
POINT
  5
176A5
330
1769C
100
AcDbEntity
  8
Defpoints
 62
     0
100
AcDbPoint
 10
906.569662138792
 20
385.577667119499
 30
0.0
  0
POINT
  5
176A6
330
1769C
100
AcDbEntity
  8
Defpoints
 62
     0
100
AcDbPoint
 10
851.4158111604906
 20
377.8575442888601
 30
0.0
  0
POINT
  5
176A7
330
1769C
100
AcDbEntity
  8
Defpoints
 62
     0
100
AcDbPoint
 10
851.4158111604906
 20
337.5203108115059
 30
0.0
  0
ENDBLK
  5
1769E
330
1769C
100
AcDbEntity
  8
0
100
AcDbBlockEnd
  0
BLOCK
  5
176AC
330
176AB
100
AcDbEntity
  8
0
100
AcDbBlockBegin
  2
*D11
 70
     1
 10
0.0
 20
0.0
 30
0.0
  3
*D11
  1

  0
LINE
  5
176AE
330
176AB
100
AcDbEntity
  8
DIM
 62
     0
370
    -2
100
AcDbLine
 10
1100.138160546027
 20
407.5090010190542
 30
0.0
 11
1100.138160546027
 21
405.7882594448469
 31
0.0
  0
LINE
  5
176AF
330
176AB
100
AcDbEntity
  8
DIM
 62
     0
370
    -2
100
AcDbLine
 10
1068.138160540357
 20
407.5090010190542
 30
0.0
 11
1068.138160540357
 21
405.7882594448469
 31
0.0
  0
LINE
  5
176B0
330
176AB
100
AcDbEntity
  8
DIM
 62
     0
370
    -2
100
AcDbLine
 10
1103.138160546027
 20
405.7882594448469
 30
0.0
 11
1106.138160546027
 21
405.7882594448469
 31
0.0
  0
LINE
  5
176B1
330
176AB
100
AcDbEntity
  8
DIM
 62
     0
370
    -2
100
AcDbLine
 10
1065.138160540357
 20
405.7882594448469
 30
0.0
 11
1062.138160540357
 21
405.7882594448469
 31
0.0
  0
INSERT
  5
176B2
330
176AB
100
AcDbEntity
  8
DIM
 62
     0
370
    -2
100
AcDbBlockReference
  2
_DOT
 10
1100.138160546027
 20
405.7882594448469
 30
0.0
 41
3.0
 42
3.0
 43
3.0
 50
180.0
  0
INSERT
  5
176B3
330
176AB
100
AcDbEntity
  8
DIM
 62
     0
370
    -2
100
AcDbBlockReference
  2
_DOT
 10
1068.138160540357
 20
405.7882594448469
 30
0.0
 41
3.0
 42
3.0
 43
3.0
  0
MTEXT
  5
176B4
330
176AB
100
AcDbEntity
  8
DIM
 62
     0
100
AcDbMText
 10
1084.138160543192
 20
415.7882594448469
 30
0.0
 40
8.0
 41
0.0
 46
0.0
 71
     5
 72
     1
  1
\A1;32.00000001
  7
ＭＳ ゴシック
 73
     1
 44
1.0
  0
POINT
  5
176B5
330
176AB
100
AcDbEntity
  8
Defpoints
 62
     0
100
AcDbPoint
 10
1100.138160546027
 20
397.5090010190542
 30
0.0
  0
POINT
  5
176B6
330
176AB
100
AcDbEntity
  8
Defpoints
 62
     0
100
AcDbPoint
 10
1068.138160540357
 20
397.5090010190542
 30
0.0
  0
POINT
  5
176B7
330
176AB
100
AcDbEntity
  8
Defpoints
 62
     0
100
AcDbPoint
 10
1068.138160540357
 20
405.7882594448469
 30
0.0
  0
ENDBLK
  5
176AD
330
176AB
100
AcDbEntity
  8
0
100
AcDbBlockEnd
  0
BLOCK
  5
176BC
330
176BB
100
AcDbEntity
  8
0
100
AcDbBlockBegin
  2
*D12
 70
     1
 10
0.0
 20
0.0
 30
0.0
  3
*D12
  1

  0
LINE
  5
176BE
330
176BB
100
AcDbEntity
  8
DIM
 62
     0
370
    -2
100
AcDbLine
 10
1201.833333901024
 20
699.7429600146289
 30
0.0
 11
1201.833333901024
 21
762.8639816784914
 31
0.0
  0
LINE
  5
176BF
330
176BB
100
AcDbEntity
  8
DIM
 62
     0
370
    -2
100
AcDbLine
 10
904.3296319137485
 20
699.7429600146289
 30
0.0
 11
904.3296319137485
 21
762.8639816784914
 31
0.0
  0
LINE
  5
176C0
330
176BB
100
AcDbEntity
  8
DIM
 62
     0
370
    -2
100
AcDbLine
 10
1198.833333901024
 20
762.8639816784914
 30
0.0
 11
907.3296319137485
 21
762.8639816784914
 31
0.0
  0
INSERT
  5
176C1
330
176BB
100
AcDbEntity
  8
DIM
 62
     0
370
    -2
100
AcDbBlockReference
  2
_DOT
 10
1201.833333901024
 20
762.8639816784914
 30
0.0
 41
3.0
 42
3.0
 43
3.0
  0
INSERT
  5
176C2
330
176BB
100
AcDbEntity
  8
DIM
 62
     0
370
    -2
100
AcDbBlockReference
  2
_DOT
 10
904.3296319137485
 20
762.8639816784914
 30
0.0
 41
3.0
 42
3.0
 43
3.0
 50
180.0
  0
MTEXT
  5
176C3
330
176BB
100
AcDbEntity
  8
DIM
 62
     0
100
AcDbMText
 10
1053.081482907386
 20
772.8639816784914
 30
0.0
 40
8.0
 41
0.0
 46
0.0
 71
     5
 72
     1
  1
\A1;298
  7
ＭＳ ゴシック
 73
     1
 44
1.0
  0
POINT
  5
176C4
330
176BB
100
AcDbEntity
  8
Defpoints
 62
     0
100
AcDbPoint
 10
1201.833333901024
 20
689.7429600146289
 30
0.0
  0
POINT
  5
176C5
330
176BB
100
AcDbEntity
  8
Defpoints
 62
     0
100
AcDbPoint
 10
904.3296319137485
 20
689.7429600146289
 30
0.0
  0
POINT
  5
176C6
330
176BB
100
AcDbEntity
  8
Defpoints
 62
     0
100
AcDbPoint
 10
904.3296319137485
 20
762.8639816784914
 30
0.0
  0
ENDBLK
  5
176BD
330
176BB
100
AcDbEntity
  8
0
100
AcDbBlockEnd
  0
BLOCK
  5
176CB
330
176CA
100
AcDbEntity
  8
0
100
AcDbBlockBegin
  2
*D13
 70
     1
 10
0.0
 20
0.0
 30
0.0
  3
*D13
  1

  0
LINE
  5
176CD
330
176CA
100
AcDbEntity
  8
DIM
 62
     0
370
    -2
100
AcDbLine
 10
863.6261210395667
 20
651.7108606509709
 30
0.0
 11
863.6261210395667
 21
671.7278435629898
 31
0.0
  0
LINE
  5
176CE
330
176CA
100
AcDbEntity
  8
DIM
 62
     0
370
    -2
100
AcDbLine
 10
941.9500761525617
 20
656.2698340797072
 30
0.0
 11
941.9500761525617
 21
671.7278435629898
 31
0.0
  0
LINE
  5
176CF
330
176CA
100
AcDbEntity
  8
DIM
 62
     0
370
    -2
100
AcDbLine
 10
866.6261210395667
 20
671.7278435629898
 30
0.0
 11
938.9500761525617
 21
671.7278435629898
 31
0.0
  0
INSERT
  5
176D0
330
176CA
100
AcDbEntity
  8
DIM
 62
     0
370
    -2
100
AcDbBlockReference
  2
_DOT
 10
863.6261210395667
 20
671.7278435629898
 30
0.0
 41
3.0
 42
3.0
 43
3.0
 50
180.0
  0
INSERT
  5
176D1
330
176CA
100
AcDbEntity
  8
DIM
 62
     0
370
    -2
100
AcDbBlockReference
  2
_DOT
 10
941.9500761525617
 20
671.7278435629898
 30
0.0
 41
3.0
 42
3.0
 43
3.0
  0
MTEXT
  5
176D2
330
176CA
100
AcDbEntity
  8
DIM
 62
     0
100
AcDbMText
 10
902.7880985960642
 20
681.7278435629898
 30
0.0
 40
8.0
 41
0.0
 46
0.0
 71
     5
 72
     1
  1
\A1;78
  7
ＭＳ ゴシック
 73
     1
 44
1.0
  0
POINT
  5
176D3
330
176CA
100
AcDbEntity
  8
Defpoints
 62
     0
100
AcDbPoint
 10
863.6261210395667
 20
641.7108606509709
 30
0.0
  0
POINT
  5
176D4
330
176CA
100
AcDbEntity
  8
Defpoints
 62
     0
100
AcDbPoint
 10
941.9500761525617
 20
646.2698340797072
 30
0.0
  0
POINT
  5
176D5
330
176CA
100
AcDbEntity
  8
Defpoints
 62
     0
100
AcDbPoint
 10
941.9500761525617
 20
671.7278435629898
 30
0.0
  0
ENDBLK
  5
176CC
330
176CA
100
AcDbEntity
  8
0
100
AcDbBlockEnd
  0
BLOCK
  5
176F9
330
176F8
100
AcDbEntity
  8
0
100
AcDbBlockBegin
  2
*D14
 70
     1
 10
0.0
 20
0.0
 30
0.0
  3
*D14
  1

  0
LINE
  5
176FB
330
176F8
100
AcDbEntity
  8
DIM
 62
     0
370
    -2
100
AcDbLine
 10
142.3609554989696
 20
608.924149183778
 30
0.0
 11
142.3609554989696
 21
652.6118606965231
 31
0.0
  0
LINE
  5
176FC
330
176F8
100
AcDbEntity
  8
DIM
 62
     0
370
    -2
100
AcDbLine
 10
205.8609554989696
 20
608.924149183778
 30
0.0
 11
205.8609554989696
 21
652.6118606965231
 31
0.0
  0
LINE
  5
176FD
330
176F8
100
AcDbEntity
  8
DIM
 62
     0
370
    -2
100
AcDbLine
 10
145.3609554989696
 20
652.6118606965231
 30
0.0
 11
202.8609554989696
 21
652.6118606965231
 31
0.0
  0
INSERT
  5
176FE
330
176F8
100
AcDbEntity
  8
DIM
 62
     0
370
    -2
100
AcDbBlockReference
  2
_DOT
 10
142.3609554989696
 20
652.6118606965231
 30
0.0
 41
3.0
 42
3.0
 43
3.0
 50
180.0
  0
INSERT
  5
176FF
330
176F8
100
AcDbEntity
  8
DIM
 62
     0
370
    -2
100
AcDbBlockReference
  2
_DOT
 10
205.8609554989696
 20
652.6118606965231
 30
0.0
 41
3.0
 42
3.0
 43
3.0
  0
MTEXT
  5
17700
330
176F8
100
AcDbEntity
  8
DIM
 62
     0
100
AcDbMText
 10
174.1109554989696
 20
662.6118606965231
 30
0.0
 40
8.0
 41
0.0
 46
0.0
 71
     5
 72
     1
  1
\A1;%%c63.5
  7
ＭＳ ゴシック
 73
     1
 44
1.0
  0
POINT
  5
17701
330
176F8
100
AcDbEntity
  8
Defpoints
 62
     0
100
AcDbPoint
 10
142.3609554989696
 20
598.924149183778
 30
0.0
  0
POINT
  5
17702
330
176F8
100
AcDbEntity
  8
Defpoints
 62
     0
100
AcDbPoint
 10
205.8609554989696
 20
598.924149183778
 30
0.0
  0
POINT
  5
17703
330
176F8
100
AcDbEntity
  8
Defpoints
 62
     0
100
AcDbPoint
 10
205.8609554989696
 20
652.6118606965231
 30
0.0
  0
ENDBLK
  5
176FA
330
176F8
100
AcDbEntity
  8
0
100
AcDbBlockEnd
  0
BLOCK
  5
17708
330
17707
100
AcDbEntity
  8
0
100
AcDbBlockBegin
  2
*D15
 70
     1
 10
0.0
 20
0.0
 30
0.0
  3
*D15
  1

  0
LINE
  5
1770A
330
17707
100
AcDbEntity
  8
DIM
 62
     0
370
    -2
100
AcDbLine
 10
1558.076001091141
 20
629.3372125319077
 30
0.0
 11
1558.076001091141
 21
672.7794201471199
 31
0.0
  0
LINE
  5
1770B
330
17707
100
AcDbEntity
  8
DIM
 62
     0
370
    -2
100
AcDbLine
 10
1621.576001092207
 20
629.3372125319077
 30
0.0
 11
1621.576001092207
 21
672.7794201471199
 31
0.0
  0
LINE
  5
1770C
330
17707
100
AcDbEntity
  8
DIM
 62
     0
370
    -2
100
AcDbLine
 10
1561.076001091141
 20
672.7794201471199
 30
0.0
 11
1618.576001092207
 21
672.7794201471199
 31
0.0
  0
INSERT
  5
1770D
330
17707
100
AcDbEntity
  8
DIM
 62
     0
370
    -2
100
AcDbBlockReference
  2
_DOT
 10
1558.076001091141
 20
672.7794201471199
 30
0.0
 41
3.0
 42
3.0
 43
3.0
 50
180.0
  0
INSERT
  5
1770E
330
17707
100
AcDbEntity
  8
DIM
 62
     0
370
    -2
100
AcDbBlockReference
  2
_DOT
 10
1621.576001092207
 20
672.7794201471199
 30
0.0
 41
3.0
 42
3.0
 43
3.0
  0
MTEXT
  5
1770F
330
17707
100
AcDbEntity
  8
DIM
 62
     0
100
AcDbMText
 10
1589.826001091674
 20
682.7794201471199
 30
0.0
 40
8.0
 41
0.0
 46
0.0
 71
     5
 72
     1
  1
\A1;63.5
  7
ＭＳ ゴシック
 73
     1
 44
1.0
  0
POINT
  5
17710
330
17707
100
AcDbEntity
  8
Defpoints
 62
     0
100
AcDbPoint
 10
1558.076001091141
 20
619.3372125319077
 30
0.0
  0
POINT
  5
17711
330
17707
100
AcDbEntity
  8
Defpoints
 62
     0
100
AcDbPoint
 10
1621.576001092207
 20
619.3372125319077
 30
0.0
  0
POINT
  5
17712
330
17707
100
AcDbEntity
  8
Defpoints
 62
     0
100
AcDbPoint
 10
1621.576001092207
 20
672.7794201471199
 30
0.0
  0
ENDBLK
  5
17709
330
17707
100
AcDbEntity
  8
0
100
AcDbBlockEnd
  0
BLOCK
  5
1771B
330
1771A
100
AcDbEntity
  8
0
100
AcDbBlockBegin
  2
*D16
 70
     1
 10
0.0
 20
0.0
 30
0.0
  3
*D16
  1

  0
LINE
  5
1771D
330
1771A
100
AcDbEntity
  8
DIM
 62
     0
370
    -2
100
AcDbLine
 10
1589.826001091674
 20
413.3276745779281
 30
0.0
 11
1589.826001091674
 21
320.1625879374312
 31
0.0
  0
LINE
  5
1771E
330
1771A
100
AcDbEntity
  8
DIM
 62
     0
370
    -2
100
AcDbLine
 10
1909.826001091674
 20
413.3276745779281
 30
0.0
 11
1909.826001091674
 21
320.1625879374312
 31
0.0
  0
LINE
  5
1771F
330
1771A
100
AcDbEntity
  8
DIM
 62
     0
370
    -2
100
AcDbLine
 10
1592.826001091674
 20
320.1625879374312
 30
0.0
 11
1906.826001091674
 21
320.1625879374312
 31
0.0
  0
INSERT
  5
17720
330
1771A
100
AcDbEntity
  8
DIM
 62
     0
370
    -2
100
AcDbBlockReference
  2
_DOT
 10
1589.826001091674
 20
320.1625879374312
 30
0.0
 41
3.0
 42
3.0
 43
3.0
 50
180.0
  0
INSERT
  5
17721
330
1771A
100
AcDbEntity
  8
DIM
 62
     0
370
    -2
100
AcDbBlockReference
  2
_DOT
 10
1909.826001091674
 20
320.1625879374312
 30
0.0
 41
3.0
 42
3.0
 43
3.0
  0
MTEXT
  5
17722
330
1771A
100
AcDbEntity
  8
DIM
 62
     0
100
AcDbMText
 10
1749.826001091674
 20
330.1625879374312
 30
0.0
 40
8.0
 41
0.0
 46
0.0
 71
     5
 72
     1
  1
\A1;320
  7
ＭＳ ゴシック
 73
     1
 44
1.0
  0
POINT
  5
17723
330
1771A
100
AcDbEntity
  8
Defpoints
 62
     0
100
AcDbPoint
 10
1589.826001091674
 20
423.3276745779281
 30
0.0
  0
POINT
  5
17724
330
1771A
100
AcDbEntity
  8
Defpoints
 62
     0
100
AcDbPoint
 10
1909.826001091674
 20
423.3276745779281
 30
0.0
  0
POINT
  5
17725
330
1771A
100
AcDbEntity
  8
Defpoints
 62
     0
100
AcDbPoint
 10
1909.826001091674
 20
320.1625879374312
 30
0.0
  0
ENDBLK
  5
1771C
330
1771A
100
AcDbEntity
  8
0
100
AcDbBlockEnd
  0
BLOCK
  5
17728
330
17727
100
AcDbEntity
  8
0
100
AcDbBlockBegin
  2
*D17
 70
     1
 10
0.0
 20
0.0
 30
0.0
  3
*D17
  1

  0
LINE
  5
1772A
330
17727
100
AcDbEntity
  8
DIM
 62
     0
370
    -2
100
AcDbLine
 10
1589.826001091674
 20
413.3276745779281
 30
0.0
 11
1589.826001091674
 21
318.8366499435102
 31
0.0
  0
LINE
  5
1772B
330
17727
100
AcDbEntity
  8
DIM
 62
     0
370
    -2
100
AcDbLine
 10
1779.826001091674
 20
413.3276745779283
 30
0.0
 11
1779.826001091674
 21
318.8366499435102
 31
0.0
  0
LINE
  5
1772C
330
17727
100
AcDbEntity
  8
DIM
 62
     0
370
    -2
100
AcDbLine
 10
1592.826001091674
 20
318.8366499435102
 30
0.0
 11
1776.826001091674
 21
318.8366499435102
 31
0.0
  0
INSERT
  5
1772D
330
17727
100
AcDbEntity
  8
DIM
 62
     0
370
    -2
100
AcDbBlockReference
  2
_DOT
 10
1589.826001091674
 20
318.8366499435102
 30
0.0
 41
3.0
 42
3.0
 43
3.0
 50
180.0
  0
INSERT
  5
1772E
330
17727
100
AcDbEntity
  8
DIM
 62
     0
370
    -2
100
AcDbBlockReference
  2
_DOT
 10
1779.826001091674
 20
318.8366499435102
 30
0.0
 41
3.0
 42
3.0
 43
3.0
  0
MTEXT
  5
1772F
330
17727
100
AcDbEntity
  8
DIM
 62
     0
100
AcDbMText
 10
1684.826001091674
 20
328.8366499435102
 30
0.0
 40
8.0
 41
0.0
 46
0.0
 71
     5
 72
     1
  1
\A1;190
  7
ＭＳ ゴシック
 73
     1
 44
1.0
  0
POINT
  5
17730
330
17727
100
AcDbEntity
  8
Defpoints
 62
     0
100
AcDbPoint
 10
1589.826001091674
 20
423.3276745779281
 30
0.0
  0
POINT
  5
17731
330
17727
100
AcDbEntity
  8
Defpoints
 62
     0
100
AcDbPoint
 10
1779.826001091674
 20
423.3276745779283
 30
0.0
  0
POINT
  5
17732
330
17727
100
AcDbEntity
  8
Defpoints
 62
     0
100
AcDbPoint
 10
1779.826001091674
 20
318.8366499435102
 30
0.0
  0
ENDBLK
  5
17729
330
17727
100
AcDbEntity
  8
0
100
AcDbBlockEnd
  0
BLOCK
  5
1773E
330
1773D
100
AcDbEntity
  8
0
100
AcDbBlockBegin
  2
*D18
 70
     1
 10
0.0
 20
0.0
 30
0.0
  3
*D18
  1

  0
LINE
  5
17740
330
1773D
100
AcDbEntity
  8
DIM
 62
     0
370
    -2
100
AcDbLine
 10
1716.628579847485
 20
491.8408821195185
 30
0.0
 11
1685.677979358731
 21
491.8408821195185
 31
0.0
  0
LINE
  5
17741
330
1773D
100
AcDbEntity
  8
DIM
 62
     0
370
    -2
100
AcDbLine
 10
1716.628579847486
 20
241.8408821195185
 30
0.0
 11
1685.677979358731
 21
241.8408821195185
 31
0.0
  0
LINE
  5
17742
330
1773D
100
AcDbEntity
  8
DIM
 62
     0
370
    -2
100
AcDbLine
 10
1685.677979358731
 20
488.8408821195185
 30
0.0
 11
1685.677979358731
 21
244.8408821195185
 31
0.0
  0
INSERT
  5
17743
330
1773D
100
AcDbEntity
  8
DIM
 62
     0
370
    -2
100
AcDbBlockReference
  2
_DOT
 10
1685.677979358731
 20
491.8408821195185
 30
0.0
 41
3.0
 42
3.0
 43
3.0
 50
90.0
  0
INSERT
  5
17744
330
1773D
100
AcDbEntity
  8
DIM
 62
     0
370
    -2
100
AcDbBlockReference
  2
_DOT
 10
1685.677979358731
 20
241.8408821195185
 30
0.0
 41
3.0
 42
3.0
 43
3.0
 50
270.0
  0
MTEXT
  5
17745
330
1773D
100
AcDbEntity
  8
DIM
 62
     0
100
AcDbMText
 10
1675.677979358731
 20
366.8408821195185
 30
0.0
 40
8.0
 41
0.0
 46
0.0
 71
     5
 72
     1
  1
\A1;250
  7
ＭＳ ゴシック
 11
0.0
 21
1.0
 31
0.0
 73
     1
 44
1.0
  0
POINT
  5
17746
330
1773D
100
AcDbEntity
  8
Defpoints
 62
     0
100
AcDbPoint
 10
1726.628579847485
 20
491.8408821195185
 30
0.0
  0
POINT
  5
17747
330
1773D
100
AcDbEntity
  8
Defpoints
 62
     0
100
AcDbPoint
 10
1726.628579847486
 20
241.8408821195185
 30
0.0
  0
POINT
  5
17748
330
1773D
100
AcDbEntity
  8
Defpoints
 62
     0
100
AcDbPoint
 10
1685.677979358731
 20
241.8408821195185
 30
0.0
  0
ENDBLK
  5
1773F
330
1773D
100
AcDbEntity
  8
0
100
AcDbBlockEnd
  0
BLOCK
  5
17757
330
17756
100
AcDbEntity
  8
0
100
AcDbBlockBegin
  2
*D19
 70
     1
 10
0.0
 20
0.0
 30
0.0
  3
*D19
  1

  0
LINE
  5
17759
330
17756
100
AcDbEntity
  8
DIM
 62
     0
370
    -2
100
AcDbLine
 10
1589.826001091674
 20
609.023466359316
 30
0.0
 11
1589.826001091674
 21
673.0247736528845
 31
0.0
  0
LINE
  5
1775A
330
17756
100
AcDbEntity
  8
DIM
 62
     0
370
    -2
100
AcDbLine
 10
1969.826001091674
 20
609.0234663593158
 30
0.0
 11
1969.826001091674
 21
673.0247736528845
 31
0.0
  0
LINE
  5
1775B
330
17756
100
AcDbEntity
  8
DIM
 62
     0
370
    -2
100
AcDbLine
 10
1592.826001091674
 20
673.0247736528845
 30
0.0
 11
1966.826001091674
 21
673.0247736528845
 31
0.0
  0
INSERT
  5
1775C
330
17756
100
AcDbEntity
  8
DIM
 62
     0
370
    -2
100
AcDbBlockReference
  2
_DOT
 10
1589.826001091674
 20
673.0247736528845
 30
0.0
 41
3.0
 42
3.0
 43
3.0
 50
180.0
  0
INSERT
  5
1775D
330
17756
100
AcDbEntity
  8
DIM
 62
     0
370
    -2
100
AcDbBlockReference
  2
_DOT
 10
1969.826001091674
 20
673.0247736528845
 30
0.0
 41
3.0
 42
3.0
 43
3.0
  0
MTEXT
  5
1775E
330
17756
100
AcDbEntity
  8
DIM
 62
     0
100
AcDbMText
 10
1779.826001091674
 20
683.0247736528845
 30
0.0
 40
8.0
 41
0.0
 46
0.0
 71
     5
 72
     1
  1
\A1;380
  7
ＭＳ ゴシック
 73
     1
 44
1.0
  0
POINT
  5
1775F
330
17756
100
AcDbEntity
  8
Defpoints
 62
     0
100
AcDbPoint
 10
1589.826001091674
 20
599.023466359316
 30
0.0
  0
POINT
  5
17760
330
17756
100
AcDbEntity
  8
Defpoints
 62
     0
100
AcDbPoint
 10
1969.826001091674
 20
599.0234663593158
 30
0.0
  0
POINT
  5
17761
330
17756
100
AcDbEntity
  8
Defpoints
 62
     0
100
AcDbPoint
 10
1969.826001091674
 20
673.0247736528845
 30
0.0
  0
ENDBLK
  5
17758
330
17756
100
AcDbEntity
  8
0
100
AcDbBlockEnd
  0
BLOCK
  5
17767
330
17766
100
AcDbEntity
  8
0
100
AcDbBlockBegin
  2
*D20
 70
     1
 10
0.0
 20
0.0
 30
0.0
  3
*D20
  1

  0
LINE
  5
17769
330
17766
100
AcDbEntity
  8
DIM
 62
     0
370
    -2
100
AcDbLine
 10
1589.826001091674
 20
403.3276745779281
 30
0.0
 11
1589.826001091674
 21
374.2467456893585
 31
0.0
  0
LINE
  5
1776A
330
17766
100
AcDbEntity
  8
DIM
 62
     0
370
    -2
100
AcDbLine
 10
1969.826001091674
 20
403.3276745779282
 30
0.0
 11
1969.826001091674
 21
374.2467456893585
 31
0.0
  0
LINE
  5
1776B
330
17766
100
AcDbEntity
  8
DIM
 62
     0
370
    -2
100
AcDbLine
 10
1592.826001091674
 20
374.2467456893585
 30
0.0
 11
1966.826001091674
 21
374.2467456893585
 31
0.0
  0
INSERT
  5
1776C
330
17766
100
AcDbEntity
  8
DIM
 62
     0
370
    -2
100
AcDbBlockReference
  2
_DOT
 10
1589.826001091674
 20
374.2467456893585
 30
0.0
 41
3.0
 42
3.0
 43
3.0
 50
180.0
  0
INSERT
  5
1776D
330
17766
100
AcDbEntity
  8
DIM
 62
     0
370
    -2
100
AcDbBlockReference
  2
_DOT
 10
1969.826001091674
 20
374.2467456893585
 30
0.0
 41
3.0
 42
3.0
 43
3.0
  0
MTEXT
  5
1776E
330
17766
100
AcDbEntity
  8
DIM
 62
     0
100
AcDbMText
 10
1779.826001091674
 20
384.2467456893585
 30
0.0
 40
8.0
 41
0.0
 46
0.0
 71
     5
 72
     1
  1
\A1;380
  7
ＭＳ ゴシック
 73
     1
 44
1.0
  0
POINT
  5
1776F
330
17766
100
AcDbEntity
  8
Defpoints
 62
     0
100
AcDbPoint
 10
1589.826001091674
 20
413.3276745779281
 30
0.0
  0
POINT
  5
17770
330
17766
100
AcDbEntity
  8
Defpoints
 62
     0
100
AcDbPoint
 10
1969.826001091674
 20
413.3276745779282
 30
0.0
  0
POINT
  5
17771
330
17766
100
AcDbEntity
  8
Defpoints
 62
     0
100
AcDbPoint
 10
1969.826001091674
 20
374.2467456893585
 30
0.0
  0
ENDBLK
  5
17768
330
17766
100
AcDbEntity
  8
0
100
AcDbBlockEnd
  0
BLOCK
  5
17776
330
17775
100
AcDbEntity
  8
0
100
AcDbBlockBegin
  2
*D21
 70
     1
 10
0.0
 20
0.0
 30
0.0
  3
*D21
  1

  0
LINE
  5
17778
330
17775
100
AcDbEntity
  8
DIM
 62
     0
370
    -2
100
AcDbLine
 10
1589.826001091674
 20
413.3276745779281
 30
0.0
 11
1589.826001091674
 21
232.0354760480212
 31
0.0
  0
LINE
  5
17779
330
17775
100
AcDbEntity
  8
DIM
 62
     0
370
    -2
100
AcDbLine
 10
1899.826001091674
 20
275.8408821195183
 30
0.0
 11
1899.826001091674
 21
232.0354760480212
 31
0.0
  0
LINE
  5
1777A
330
17775
100
AcDbEntity
  8
DIM
 62
     0
370
    -2
100
AcDbLine
 10
1592.826001091674
 20
232.0354760480212
 30
0.0
 11
1896.826001091674
 21
232.0354760480212
 31
0.0
  0
INSERT
  5
1777B
330
17775
100
AcDbEntity
  8
DIM
 62
     0
370
    -2
100
AcDbBlockReference
  2
_DOT
 10
1589.826001091674
 20
232.0354760480212
 30
0.0
 41
3.0
 42
3.0
 43
3.0
 50
180.0
  0
INSERT
  5
1777C
330
17775
100
AcDbEntity
  8
DIM
 62
     0
370
    -2
100
AcDbBlockReference
  2
_DOT
 10
1899.826001091674
 20
232.0354760480212
 30
0.0
 41
3.0
 42
3.0
 43
3.0
  0
MTEXT
  5
1777D
330
17775
100
AcDbEntity
  8
DIM
 62
     0
100
AcDbMText
 10
1744.826001091674
 20
242.0354760480212
 30
0.0
 40
8.0
 41
0.0
 46
0.0
 71
     5
 72
     1
  1
\A1;310
  7
ＭＳ ゴシック
 73
     1
 44
1.0
  0
POINT
  5
1777E
330
17775
100
AcDbEntity
  8
Defpoints
 62
     0
100
AcDbPoint
 10
1589.826001091674
 20
423.3276745779281
 30
0.0
  0
POINT
  5
1777F
330
17775
100
AcDbEntity
  8
Defpoints
 62
     0
100
AcDbPoint
 10
1899.826001091674
 20
285.8408821195183
 30
0.0
  0
POINT
  5
17780
330
17775
100
AcDbEntity
  8
Defpoints
 62
     0
100
AcDbPoint
 10
1899.826001091674
 20
232.0354760480212
 30
0.0
  0
ENDBLK
  5
17777
330
17775
100
AcDbEntity
  8
0
100
AcDbBlockEnd
  0
BLOCK
  5
17798
330
17797
100
AcDbEntity
  8
0
100
AcDbBlockBegin
  2
*D22
 70
     1
 10
0.0
 20
0.0
 30
0.0
  3
*D22
  1

  0
LINE
  5
1779A
330
17797
100
AcDbEntity
  8
DIM
 62
     0
370
    -2
100
AcDbLine
 10
1716.628579847485
 20
491.8408821195185
 30
0.0
 11
1693.564465883216
 21
491.8408821195185
 31
0.0
  0
LINE
  5
1779B
330
17797
100
AcDbEntity
  8
DIM
 62
     0
370
    -2
100
AcDbLine
 10
1918.715069137681
 20
301.8408821195186
 30
0.0
 11
1693.564465883216
 21
301.8408821195186
 31
0.0
  0
LINE
  5
1779C
330
17797
100
AcDbEntity
  8
DIM
 62
     0
370
    -2
100
AcDbLine
 10
1693.564465883216
 20
488.8408821195185
 30
0.0
 11
1693.564465883216
 21
304.8408821195186
 31
0.0
  0
INSERT
  5
1779D
330
17797
100
AcDbEntity
  8
DIM
 62
     0
370
    -2
100
AcDbBlockReference
  2
_DOT
 10
1693.564465883216
 20
491.8408821195185
 30
0.0
 41
3.0
 42
3.0
 43
3.0
 50
90.0
  0
INSERT
  5
1779E
330
17797
100
AcDbEntity
  8
DIM
 62
     0
370
    -2
100
AcDbBlockReference
  2
_DOT
 10
1693.564465883216
 20
301.8408821195186
 30
0.0
 41
3.0
 42
3.0
 43
3.0
 50
270.0
  0
MTEXT
  5
1779F
330
17797
100
AcDbEntity
  8
DIM
 62
     0
100
AcDbMText
 10
1683.564465883216
 20
396.8408821195185
 30
0.0
 40
8.0
 41
0.0
 46
0.0
 71
     5
 72
     1
  1
\A1;190
  7
ＭＳ ゴシック
 11
0.0
 21
1.0
 31
0.0
 73
     1
 44
1.0
  0
POINT
  5
177A0
330
17797
100
AcDbEntity
  8
Defpoints
 62
     0
100
AcDbPoint
 10
1726.628579847485
 20
491.8408821195185
 30
0.0
  0
POINT
  5
177A1
330
17797
100
AcDbEntity
  8
Defpoints
 62
     0
100
AcDbPoint
 10
1928.715069137681
 20
301.8408821195186
 30
0.0
  0
POINT
  5
177A2
330
17797
100
AcDbEntity
  8
Defpoints
 62
     0
100
AcDbPoint
 10
1693.564465883216
 20
301.8408821195186
 30
0.0
  0
ENDBLK
  5
17799
330
17797
100
AcDbEntity
  8
0
100
AcDbBlockEnd
  0
BLOCK
  5
177A5
330
177A4
100
AcDbEntity
  8
0
100
AcDbBlockBegin
  2
*D23
 70
     1
 10
0.0
 20
0.0
 30
0.0
  3
*D23
  1

  0
LINE
  5
177A7
330
177A4
100
AcDbEntity
  8
DIM
 62
     0
370
    -2
100
AcDbLine
 10
1589.826001091674
 20
413.3276745779281
 30
0.0
 11
1589.826001091674
 21
319.3579907790523
 31
0.0
  0
LINE
  5
177A8
330
177A4
100
AcDbEntity
  8
DIM
 62
     0
370
    -2
100
AcDbLine
 10
1779.826001091674
 20
413.3276745779281
 30
0.0
 11
1779.826001091674
 21
319.3579907790523
 31
0.0
  0
LINE
  5
177A9
330
177A4
100
AcDbEntity
  8
DIM
 62
     0
370
    -2
100
AcDbLine
 10
1592.826001091674
 20
319.3579907790523
 30
0.0
 11
1776.826001091674
 21
319.3579907790523
 31
0.0
  0
INSERT
  5
177AA
330
177A4
100
AcDbEntity
  8
DIM
 62
     0
370
    -2
100
AcDbBlockReference
  2
_DOT
 10
1589.826001091674
 20
319.3579907790523
 30
0.0
 41
3.0
 42
3.0
 43
3.0
 50
180.0
  0
INSERT
  5
177AB
330
177A4
100
AcDbEntity
  8
DIM
 62
     0
370
    -2
100
AcDbBlockReference
  2
_DOT
 10
1779.826001091674
 20
319.3579907790523
 30
0.0
 41
3.0
 42
3.0
 43
3.0
  0
MTEXT
  5
177AC
330
177A4
100
AcDbEntity
  8
DIM
 62
     0
100
AcDbMText
 10
1684.826001091674
 20
329.3579907790523
 30
0.0
 40
8.0
 41
0.0
 46
0.0
 71
     5
 72
     1
  1
\A1;190
  7
ＭＳ ゴシック
 73
     1
 44
1.0
  0
POINT
  5
177AD
330
177A4
100
AcDbEntity
  8
Defpoints
 62
     0
100
AcDbPoint
 10
1589.826001091674
 20
423.3276745779281
 30
0.0
  0
POINT
  5
177AE
330
177A4
100
AcDbEntity
  8
Defpoints
 62
     0
100
AcDbPoint
 10
1779.826001091674
 20
423.3276745779281
 30
0.0
  0
POINT
  5
177AF
330
177A4
100
AcDbEntity
  8
Defpoints
 62
     0
100
AcDbPoint
 10
1779.826001091674
 20
319.3579907790523
 30
0.0
  0
ENDBLK
  5
177A6
330
177A4
100
AcDbEntity
  8
0
100
AcDbBlockEnd
  0
BLOCK
  5
177B4
330
177B3
100
AcDbEntity
  8
0
100
AcDbBlockBegin
  2
*D24
 70
     1
 10
0.0
 20
0.0
 30
0.0
  3
*D24
  1

  0
LINE
  5
177B6
330
177B3
100
AcDbEntity
  8
DIM
 62
     0
370
    -2
100
AcDbLine
 10
1602.49840332292
 20
491.8408821195185
 30
0.0
 11
1554.648594136103
 21
491.8408821195185
 31
0.0
  0
LINE
  5
177B7
330
177B3
100
AcDbEntity
  8
DIM
 62
     0
370
    -2
100
AcDbLine
 10
1798.71506913768
 20
301.8408821195186
 30
0.0
 11
1554.648594136103
 21
301.8408821195186
 31
0.0
  0
LINE
  5
177B8
330
177B3
100
AcDbEntity
  8
DIM
 62
     0
370
    -2
100
AcDbLine
 10
1554.648594136103
 20
488.8408821195185
 30
0.0
 11
1554.648594136103
 21
304.8408821195186
 31
0.0
  0
INSERT
  5
177B9
330
177B3
100
AcDbEntity
  8
DIM
 62
     0
370
    -2
100
AcDbBlockReference
  2
_DOT
 10
1554.648594136103
 20
491.8408821195185
 30
0.0
 41
3.0
 42
3.0
 43
3.0
 50
90.0
  0
INSERT
  5
177BA
330
177B3
100
AcDbEntity
  8
DIM
 62
     0
370
    -2
100
AcDbBlockReference
  2
_DOT
 10
1554.648594136103
 20
301.8408821195186
 30
0.0
 41
3.0
 42
3.0
 43
3.0
 50
270.0
  0
MTEXT
  5
177BB
330
177B3
100
AcDbEntity
  8
DIM
 62
     0
100
AcDbMText
 10
1544.648594136103
 20
396.8408821195185
 30
0.0
 40
8.0
 41
0.0
 46
0.0
 71
     5
 72
     1
  1
\A1;190
  7
ＭＳ ゴシック
 11
0.0
 21
1.0
 31
0.0
 73
     1
 44
1.0
  0
POINT
  5
177BC
330
177B3
100
AcDbEntity
  8
Defpoints
 62
     0
100
AcDbPoint
 10
1612.49840332292
 20
491.8408821195185
 30
0.0
  0
POINT
  5
177BD
330
177B3
100
AcDbEntity
  8
Defpoints
 62
     0
100
AcDbPoint
 10
1808.71506913768
 20
301.8408821195186
 30
0.0
  0
POINT
  5
177BE
330
177B3
100
AcDbEntity
  8
Defpoints
 62
     0
100
AcDbPoint
 10
1554.648594136103
 20
301.8408821195186
 30
0.0
  0
ENDBLK
  5
177B5
330
177B3
100
AcDbEntity
  8
0
100
AcDbBlockEnd
  0
BLOCK
  5
177C3
330
177C2
100
AcDbEntity
  8
0
100
AcDbBlockBegin
  2
*D25
 70
     1
 10
0.0
 20
0.0
 30
0.0
  3
*D25
  1

  0
LINE
  5
177C5
330
177C2
100
AcDbEntity
  8
DIM
 62
     0
370
    -2
100
AcDbLine
 10
153.010348373678
 20
617.4019716888633
 30
0.0
 11
153.010348373678
 21
627.7195847573133
 31
0.0
  0
LINE
  5
177C6
330
177C2
100
AcDbEntity
  8
DIM
 62
     0
370
    -2
100
AcDbLine
 10
195.2115626242605
 20
617.4019716888633
 30
0.0
 11
195.2115626242605
 21
627.7195847573133
 31
0.0
  0
LINE
  5
177C7
330
177C2
100
AcDbEntity
  8
DIM
 62
     0
370
    -2
100
AcDbLine
 10
156.010348373678
 20
627.7195847573133
 30
0.0
 11
192.2115626242605
 21
627.7195847573133
 31
0.0
  0
INSERT
  5
177C8
330
177C2
100
AcDbEntity
  8
DIM
 62
     0
370
    -2
100
AcDbBlockReference
  2
_DOT
 10
153.010348373678
 20
627.7195847573133
 30
0.0
 41
3.0
 42
3.0
 43
3.0
 50
180.0
  0
INSERT
  5
177C9
330
177C2
100
AcDbEntity
  8
DIM
 62
     0
370
    -2
100
AcDbBlockReference
  2
_DOT
 10
195.2115626242605
 20
627.7195847573133
 30
0.0
 41
3.0
 42
3.0
 43
3.0
  0
MTEXT
  5
177CA
330
177C2
100
AcDbEntity
  8
DIM
 62
     0
100
AcDbMText
 10
174.1109554989694
 20
638.5715847573133
 30
0.0
 40
8.0
 41
0.0
 46
0.0
 71
     5
 72
     1
  1
\A1;G1 1/4"
  7
ＭＳ ゴシック
 73
     1
 44
1.0
  0
POINT
  5
177CB
330
177C2
100
AcDbEntity
  8
Defpoints
 62
     0
100
AcDbPoint
 10
153.010348373678
 20
607.4019716888633
 30
0.0
  0
POINT
  5
177CC
330
177C2
100
AcDbEntity
  8
Defpoints
 62
     0
100
AcDbPoint
 10
195.2115626242605
 20
607.4019716888633
 30
0.0
  0
POINT
  5
177CD
330
177C2
100
AcDbEntity
  8
Defpoints
 62
     0
100
AcDbPoint
 10
195.2115626242605
 20
627.7195847573133
 30
0.0
  0
ENDBLK
  5
177C4
330
177C2
100
AcDbEntity
  8
0
100
AcDbBlockEnd
  0
BLOCK
  5
177D6
330
177D5
100
AcDbEntity
  8
0
100
AcDbBlockBegin
  2
*D26
 70
     1
 10
0.0
 20
0.0
 30
0.0
  3
*D26
  1

  0
LINE
  5
177D8
330
177D5
100
AcDbEntity
  8
DIM
 62
     0
370
    -2
100
AcDbLine
 10
133.1109554989698
 20
466.4897186508765
 30
0.0
 11
113.1218848783783
 21
466.4897186508765
 31
0.0
  0
LINE
  5
177D9
330
177D5
100
AcDbEntity
  8
DIM
 62
     0
370
    -2
100
AcDbLine
 10
133.1109554989698
 20
566.4897186508763
 30
0.0
 11
113.1218848783783
 21
566.4897186508763
 31
0.0
  0
LINE
  5
177DA
330
177D5
100
AcDbEntity
  8
DIM
 62
     0
370
    -2
100
AcDbLine
 10
113.1218848783783
 20
469.4897186508765
 30
0.0
 11
113.1218848783783
 21
563.4897186508763
 31
0.0
  0
INSERT
  5
177DB
330
177D5
100
AcDbEntity
  8
DIM
 62
     0
370
    -2
100
AcDbBlockReference
  2
_DOT
 10
113.1218848783783
 20
466.4897186508765
 30
0.0
 41
3.0
 42
3.0
 43
3.0
 50
270.0
  0
INSERT
  5
177DC
330
177D5
100
AcDbEntity
  8
DIM
 62
     0
370
    -2
100
AcDbBlockReference
  2
_DOT
 10
113.1218848783783
 20
566.4897186508763
 30
0.0
 41
3.0
 42
3.0
 43
3.0
 50
90.0
  0
MTEXT
  5
177DD
330
177D5
100
AcDbEntity
  8
DIM
 62
     0
100
AcDbMText
 10
103.1218848783783
 20
516.4897186508764
 30
0.0
 40
8.0
 41
0.0
 46
0.0
 71
     5
 72
     1
  1
\A1;100
  7
ＭＳ ゴシック
 11
0.0
 21
1.0
 31
0.0
 73
     1
 44
1.0
  0
POINT
  5
177DE
330
177D5
100
AcDbEntity
  8
Defpoints
 62
     0
100
AcDbPoint
 10
143.1109554989698
 20
466.4897186508765
 30
0.0
  0
POINT
  5
177DF
330
177D5
100
AcDbEntity
  8
Defpoints
 62
     0
100
AcDbPoint
 10
143.1109554989698
 20
566.4897186508763
 30
0.0
  0
POINT
  5
177E0
330
177D5
100
AcDbEntity
  8
Defpoints
 62
     0
100
AcDbPoint
 10
113.1218848783783
 20
566.4897186508763
 30
0.0
  0
ENDBLK
  5
177D7
330
177D5
100
AcDbEntity
  8
0
100
AcDbBlockEnd
  0
BLOCK
  5
177E5
330
177E4
100
AcDbEntity
  8
0
100
AcDbBlockBegin
  2
*D27
 70
     1
 10
0.0
 20
0.0
 30
0.0
  3
*D27
  1

  0
LINE
  5
177E7
330
177E4
100
AcDbEntity
  8
DIM
 62
     0
370
    -2
100
AcDbLine
 10
123.1109554989698
 20
566.4897186508763
 30
0.0
 11
113.1218848783783
 21
566.4897186508763
 31
0.0
  0
LINE
  5
177E8
330
177E4
100
AcDbEntity
  8
DIM
 62
     0
370
    -2
100
AcDbLine
 10
133.5251752676481
 20
593.8517507637292
 30
0.0
 11
113.1218848783783
 21
593.8517507637292
 31
0.0
  0
LINE
  5
177E9
330
177E4
100
AcDbEntity
  8
DIM
 62
     0
370
    -2
100
AcDbLine
 10
113.1218848783783
 20
569.4897186508763
 30
0.0
 11
113.1218848783783
 21
590.8517507637292
 31
0.0
  0
INSERT
  5
177EA
330
177E4
100
AcDbEntity
  8
DIM
 62
     0
370
    -2
100
AcDbBlockReference
  2
_DOT
 10
113.1218848783783
 20
566.4897186508763
 30
0.0
 41
3.0
 42
3.0
 43
3.0
 50
270.0
  0
INSERT
  5
177EB
330
177E4
100
AcDbEntity
  8
DIM
 62
     0
370
    -2
100
AcDbBlockReference
  2
_DOT
 10
113.1218848783783
 20
593.8517507637292
 30
0.0
 41
3.0
 42
3.0
 43
3.0
 50
90.0
  0
MTEXT
  5
177EC
330
177E4
100
AcDbEntity
  8
DIM
 62
     0
100
AcDbMText
 10
103.1218848783783
 20
580.1707347073027
 30
0.0
 40
8.0
 41
0.0
 46
0.0
 71
     5
 72
     1
  1
\A1; 
  7
ＭＳ ゴシック
 11
0.0
 21
1.0
 31
0.0
 73
     1
 44
1.0
  0
POINT
  5
177ED
330
177E4
100
AcDbEntity
  8
Defpoints
 62
     0
100
AcDbPoint
 10
133.1109554989698
 20
566.4897186508763
 30
0.0
  0
POINT
  5
177EE
330
177E4
100
AcDbEntity
  8
Defpoints
 62
     0
100
AcDbPoint
 10
143.5251752676481
 20
593.8517507637292
 30
0.0
  0
POINT
  5
177EF
330
177E4
100
AcDbEntity
  8
Defpoints
 62
     0
100
AcDbPoint
 10
113.1218848783783
 20
593.8517507637292
 30
0.0
  0
ENDBLK
  5
177E6
330
177E4
100
AcDbEntity
  8
0
100
AcDbBlockEnd
  0
BLOCK
  5
177F8
330
177F7
100
AcDbEntity
  8
0
100
AcDbBlockBegin
  2
*D28
 70
     1
 10
0.0
 20
0.0
 30
0.0
  3
*D28
  1

  0
LINE
  5
177FA
330
177F7
100
AcDbEntity
  8
DIM
 62
     0
370
    -2
100
AcDbLine
 10
174.1109554989696
 20
675.8712406357329
 30
0.0
 11
174.1109554989696
 21
690.2949779277334
 31
0.0
  0
LINE
  5
177FB
330
177F7
100
AcDbEntity
  8
DIM
 62
     0
370
    -2
100
AcDbLine
 10
434.1109554989698
 20
401.8086968788938
 30
0.0
 11
434.1109554989698
 21
690.2949779277334
 31
0.0
  0
LINE
  5
177FC
330
177F7
100
AcDbEntity
  8
DIM
 62
     0
370
    -2
100
AcDbLine
 10
177.1109554989696
 20
690.2949779277334
 30
0.0
 11
431.1109554989698
 21
690.2949779277334
 31
0.0
  0
INSERT
  5
177FD
330
177F7
100
AcDbEntity
  8
DIM
 62
     0
370
    -2
100
AcDbBlockReference
  2
_DOT
 10
174.1109554989696
 20
690.2949779277334
 30
0.0
 41
3.0
 42
3.0
 43
3.0
 50
180.0
  0
INSERT
  5
177FE
330
177F7
100
AcDbEntity
  8
DIM
 62
     0
370
    -2
100
AcDbBlockReference
  2
_DOT
 10
434.1109554989698
 20
690.2949779277334
 30
0.0
 41
3.0
 42
3.0
 43
3.0
  0
MTEXT
  5
177FF
330
177F7
100
AcDbEntity
  8
DIM
 62
     0
100
AcDbMText
 10
304.1109554989698
 20
700.2949779277334
 30
0.0
 40
8.0
 41
0.0
 46
0.0
 71
     5
 72
     1
  1
\A1;MAX. 380
  7
ＭＳ ゴシック
 73
     1
 44
1.0
  0
POINT
  5
17800
330
177F7
100
AcDbEntity
  8
Defpoints
 62
     0
100
AcDbPoint
 10
174.1109554989696
 20
665.8712406357329
 30
0.0
  0
POINT
  5
17801
330
177F7
100
AcDbEntity
  8
Defpoints
 62
     0
100
AcDbPoint
 10
434.1109554989698
 20
391.8086968788938
 30
0.0
  0
POINT
  5
17802
330
177F7
100
AcDbEntity
  8
Defpoints
 62
     0
100
AcDbPoint
 10
434.1109554989698
 20
690.2949779277334
 30
0.0
  0
ENDBLK
  5
177F9
330
177F7
100
AcDbEntity
  8
0
100
AcDbBlockEnd
  0
BLOCK
  5
1780A
330
17809
100
AcDbEntity
  8
0
100
AcDbBlockBegin
  2
*D29
 70
     1
 10
0.0
 20
0.0
 30
0.0
  3
*D29
  1

  0
LINE
  5
1780C
330
17809
100
AcDbEntity
  8
DIM
 62
     0
370
    -2
100
AcDbLine
 10
239.6051023859773
 20
551.0029261924668
 30
0.0
 11
244.3013504102933
 21
551.0029261924668
 31
0.0
  0
LINE
  5
1780D
330
17809
100
AcDbEntity
  8
DIM
 62
     0
370
    -2
100
AcDbLine
 10
239.6051023859773
 20
519.0029261924669
 30
0.0
 11
244.3013504102933
 21
519.0029261924669
 31
0.0
  0
LINE
  5
1780E
330
17809
100
AcDbEntity
  8
DIM
 62
     0
370
    -2
100
AcDbLine
 10
244.3013504102933
 20
551.0029261924668
 30
0.0
 11
244.3013504102933
 21
586.4322227147602
 31
0.0
  0
LINE
  5
1780F
330
17809
100
AcDbEntity
  8
DIM
 62
     0
370
    -2
100
AcDbLine
 10
244.3013504102933
 20
548.0029261924668
 30
0.0
 11
244.3013504102933
 21
522.0029261924669
 31
0.0
  0
LINE
  5
17810
330
17809
100
AcDbEntity
  8
DIM
 62
     0
370
    -2
100
AcDbLine
 10
244.3013504102933
 20
548.0029261924668
 30
0.0
 11
244.3013504102933
 21
545.0029261924668
 31
0.0
  0
INSERT
  5
17811
330
17809
100
AcDbEntity
  8
DIM
 62
     0
370
    -2
100
AcDbBlockReference
  2
_DOT
 10
244.3013504102933
 20
551.0029261924668
 30
0.0
 41
3.0
 42
3.0
 43
3.0
 50
90.0
  0
INSERT
  5
17812
330
17809
100
AcDbEntity
  8
DIM
 62
     0
370
    -2
100
AcDbBlockReference
  2
_DOT
 10
244.3013504102933
 20
519.0029261924669
 30
0.0
 41
3.0
 42
3.0
 43
3.0
 50
270.0
  0
MTEXT
  5
17813
330
17809
100
AcDbEntity
  8
DIM
 62
     0
100
AcDbMText
 10
234.3013504102933
 20
573.0202227147602
 30
0.0
 40
8.0
 41
0.0
 46
0.0
 71
     5
 72
     1
  1
\A1;%%c32
  7
ＭＳ ゴシック
 11
0.0
 21
1.0
 31
0.0
 73
     1
 44
1.0
  0
POINT
  5
17814
330
17809
100
AcDbEntity
  8
Defpoints
 62
     0
100
AcDbPoint
 10
249.6051023859773
 20
551.0029261924668
 30
0.0
  0
POINT
  5
17815
330
17809
100
AcDbEntity
  8
Defpoints
 62
     0
100
AcDbPoint
 10
249.6051023859773
 20
519.0029261924669
 30
0.0
  0
POINT
  5
17816
330
17809
100
AcDbEntity
  8
Defpoints
 62
     0
100
AcDbPoint
 10
244.3013504102933
 20
519.0029261924669
 30
0.0
  0
ENDBLK
  5
1780B
330
17809
100
AcDbEntity
  8
0
100
AcDbBlockEnd
  0
BLOCK
  5
1781F
330
1781E
100
AcDbEntity
  8
0
100
AcDbBlockBegin
  2
*D30
 70
     1
 10
0.0
 20
0.0
 30
0.0
  3
*D30
  1

  0
LINE
  5
17821
330
1781E
100
AcDbEntity
  8
DIM
 62
     0
370
    -2
100
AcDbLine
 10
380.1109554989698
 20
444.9359193464811
 30
0.0
 11
380.1109554989698
 21
440.2396713221651
 31
0.0
  0
LINE
  5
17822
330
1781E
100
AcDbEntity
  8
DIM
 62
     0
370
    -2
100
AcDbLine
 10
348.1109554989698
 20
444.9359193464811
 30
0.0
 11
348.1109554989698
 21
440.2396713221651
 31
0.0
  0
LINE
  5
17823
330
1781E
100
AcDbEntity
  8
DIM
 62
     0
370
    -2
100
AcDbLine
 10
380.1109554989698
 20
440.2396713221651
 30
0.0
 11
415.540252021263
 21
440.2396713221651
 31
0.0
  0
LINE
  5
17824
330
1781E
100
AcDbEntity
  8
DIM
 62
     0
370
    -2
100
AcDbLine
 10
377.1109554989698
 20
440.2396713221651
 30
0.0
 11
351.1109554989698
 21
440.2396713221651
 31
0.0
  0
LINE
  5
17825
330
1781E
100
AcDbEntity
  8
DIM
 62
     0
370
    -2
100
AcDbLine
 10
377.1109554989698
 20
440.2396713221651
 30
0.0
 11
374.1109554989698
 21
440.2396713221651
 31
0.0
  0
INSERT
  5
17826
330
1781E
100
AcDbEntity
  8
DIM
 62
     0
370
    -2
100
AcDbBlockReference
  2
_DOT
 10
380.1109554989698
 20
440.2396713221651
 30
0.0
 41
3.0
 42
3.0
 43
3.0
  0
INSERT
  5
17827
330
1781E
100
AcDbEntity
  8
DIM
 62
     0
370
    -2
100
AcDbBlockReference
  2
_DOT
 10
348.1109554989698
 20
440.2396713221651
 30
0.0
 41
3.0
 42
3.0
 43
3.0
 50
180.0
  0
MTEXT
  5
17828
330
1781E
100
AcDbEntity
  8
DIM
 62
     0
100
AcDbMText
 10
402.1282520212631
 20
450.2396713221651
 30
0.0
 40
8.0
 41
0.0
 46
0.0
 71
     5
 72
     1
  1
\A1;%%c32
  7
ＭＳ ゴシック
 73
     1
 44
1.0
  0
POINT
  5
17829
330
1781E
100
AcDbEntity
  8
Defpoints
 62
     0
100
AcDbPoint
 10
380.1109554989698
 20
434.9359193464811
 30
0.0
  0
POINT
  5
1782A
330
1781E
100
AcDbEntity
  8
Defpoints
 62
     0
100
AcDbPoint
 10
348.1109554989698
 20
434.9359193464811
 30
0.0
  0
POINT
  5
1782B
330
1781E
100
AcDbEntity
  8
Defpoints
 62
     0
100
AcDbPoint
 10
348.1109554989698
 20
440.2396713221651
 30
0.0
  0
ENDBLK
  5
17820
330
1781E
100
AcDbEntity
  8
0
100
AcDbBlockEnd
  0
BLOCK
  5
17830
330
1782F
100
AcDbEntity
  8
0
100
AcDbBlockBegin
  2
*D31
 70
     1
 10
0.0
 20
0.0
 30
0.0
  3
*D31
  1

  0
LINE
  5
17832
330
1782F
100
AcDbEntity
  8
DIM
 62
     0
370
    -2
100
AcDbLine
 10
143.1109554989698
 20
456.4897186508765
 30
0.0
 11
143.1109554989698
 21
434.085602557997
 31
0.0
  0
LINE
  5
17833
330
1782F
100
AcDbEntity
  8
DIM
 62
     0
370
    -2
100
AcDbLine
 10
205.1109554989698
 20
456.4897186508765
 30
0.0
 11
205.1109554989698
 21
434.085602557997
 31
0.0
  0
LINE
  5
17834
330
1782F
100
AcDbEntity
  8
DIM
 62
     0
370
    -2
100
AcDbLine
 10
146.1109554989698
 20
434.085602557997
 30
0.0
 11
202.1109554989698
 21
434.085602557997
 31
0.0
  0
INSERT
  5
17835
330
1782F
100
AcDbEntity
  8
DIM
 62
     0
370
    -2
100
AcDbBlockReference
  2
_DOT
 10
143.1109554989698
 20
434.085602557997
 30
0.0
 41
3.0
 42
3.0
 43
3.0
 50
180.0
  0
INSERT
  5
17836
330
1782F
100
AcDbEntity
  8
DIM
 62
     0
370
    -2
100
AcDbBlockReference
  2
_DOT
 10
205.1109554989698
 20
434.085602557997
 30
0.0
 41
3.0
 42
3.0
 43
3.0
  0
MTEXT
  5
17837
330
1782F
100
AcDbEntity
  8
DIM
 62
     0
100
AcDbMText
 10
174.1109554989698
 20
444.085602557997
 30
0.0
 40
8.0
 41
0.0
 46
0.0
 71
     5
 72
     1
  1
\A1;%%c62
  7
ＭＳ ゴシック
 73
     1
 44
1.0
  0
POINT
  5
17838
330
1782F
100
AcDbEntity
  8
Defpoints
 62
     0
100
AcDbPoint
 10
143.1109554989698
 20
466.4897186508765
 30
0.0
  0
POINT
  5
17839
330
1782F
100
AcDbEntity
  8
Defpoints
 62
     0
100
AcDbPoint
 10
205.1109554989698
 20
466.4897186508765
 30
0.0
  0
POINT
  5
1783A
330
1782F
100
AcDbEntity
  8
Defpoints
 62
     0
100
AcDbPoint
 10
205.1109554989698
 20
434.085602557997
 30
0.0
  0
ENDBLK
  5
17831
330
1782F
100
AcDbEntity
  8
0
100
AcDbBlockEnd
  0
BLOCK
  5
17842
330
17841
100
AcDbEntity
  8
0
100
AcDbBlockBegin
  2
*D32
 70
     1
 10
0.0
 20
0.0
 30
0.0
  3
*D32
  1

  0
LINE
  5
17844
330
17841
100
AcDbEntity
  8
DIM
 62
     0
370
    -2
100
AcDbLine
 10
1824.71506913768
 20
255.8408821195186
 30
0.0
 11
1824.71506913768
 21
224.9939100084528
 31
0.0
  0
LINE
  5
17845
330
17841
100
AcDbEntity
  8
DIM
 62
     0
370
    -2
100
AcDbLine
 10
1779.826001091674
 20
312.8408821195181
 30
0.0
 11
1779.826001091674
 21
224.9939100084528
 31
0.0
  0
LINE
  5
17846
330
17841
100
AcDbEntity
  8
DIM
 62
     0
370
    -2
100
AcDbLine
 10
1821.71506913768
 20
224.9939100084528
 30
0.0
 11
1782.826001091674
 21
224.9939100084528
 31
0.0
  0
INSERT
  5
17847
330
17841
100
AcDbEntity
  8
DIM
 62
     0
370
    -2
100
AcDbBlockReference
  2
_DOT
 10
1824.71506913768
 20
224.9939100084528
 30
0.0
 41
3.0
 42
3.0
 43
3.0
  0
INSERT
  5
17848
330
17841
100
AcDbEntity
  8
DIM
 62
     0
370
    -2
100
AcDbBlockReference
  2
_DOT
 10
1779.826001091674
 20
224.9939100084528
 30
0.0
 41
3.0
 42
3.0
 43
3.0
 50
180.0
  0
MTEXT
  5
17849
330
17841
100
AcDbEntity
  8
DIM
 62
     0
100
AcDbMText
 10
1802.270535114677
 20
234.9939100084528
 30
0.0
 40
8.0
 41
0.0
 46
0.0
 71
     5
 72
     1
  1
\A1;45
  7
ＭＳ ゴシック
 73
     1
 44
1.0
  0
POINT
  5
1784A
330
17841
100
AcDbEntity
  8
Defpoints
 62
     0
100
AcDbPoint
 10
1824.71506913768
 20
265.8408821195186
 30
0.0
  0
POINT
  5
1784B
330
17841
100
AcDbEntity
  8
Defpoints
 62
     0
100
AcDbPoint
 10
1779.826001091674
 20
322.8408821195181
 30
0.0
  0
POINT
  5
1784C
330
17841
100
AcDbEntity
  8
Defpoints
 62
     0
100
AcDbPoint
 10
1779.826001091674
 20
224.9939100084528
 30
0.0
  0
ENDBLK
  5
17843
330
17841
100
AcDbEntity
  8
0
100
AcDbBlockEnd
  0
BLOCK
  5
1784F
330
1784E
100
AcDbEntity
  8
0
100
AcDbBlockBegin
  2
*D33
 70
     1
 10
0.0
 20
0.0
 30
0.0
  3
*D33
  1

  0
LINE
  5
17851
330
1784E
100
AcDbEntity
  8
DIM
 62
     0
370
    -2
100
AcDbLine
 10
364.1109554989698
 20
356.0029261924665
 30
0.0
 11
364.1109554989698
 21
276.8456213183616
 31
0.0
  0
LINE
  5
17852
330
1784E
100
AcDbEntity
  8
DIM
 62
     0
370
    -2
100
AcDbLine
 10
414.1109554989698
 20
299.0029261924669
 30
0.0
 11
414.1109554989698
 21
276.8456213183616
 31
0.0
  0
LINE
  5
17853
330
1784E
100
AcDbEntity
  8
DIM
 62
     0
370
    -2
100
AcDbLine
 10
367.1109554989698
 20
276.8456213183616
 30
0.0
 11
411.1109554989698
 21
276.8456213183616
 31
0.0
  0
INSERT
  5
17854
330
1784E
100
AcDbEntity
  8
DIM
 62
     0
370
    -2
100
AcDbBlockReference
  2
_DOT
 10
364.1109554989698
 20
276.8456213183616
 30
0.0
 41
3.0
 42
3.0
 43
3.0
 50
180.0
  0
INSERT
  5
17855
330
1784E
100
AcDbEntity
  8
DIM
 62
     0
370
    -2
100
AcDbBlockReference
  2
_DOT
 10
414.1109554989698
 20
276.8456213183616
 30
0.0
 41
3.0
 42
3.0
 43
3.0
  0
MTEXT
  5
17856
330
1784E
100
AcDbEntity
  8
DIM
 62
     0
100
AcDbMText
 10
389.1109554989698
 20
286.8456213183616
 30
0.0
 40
8.0
 41
0.0
 46
0.0
 71
     5
 72
     1
  1
\A1;MIN. 50
  7
ＭＳ ゴシック
 73
     1
 44
1.0
  0
POINT
  5
17857
330
1784E
100
AcDbEntity
  8
Defpoints
 62
     0
100
AcDbPoint
 10
364.1109554989698
 20
366.0029261924665
 30
0.0
  0
POINT
  5
17858
330
1784E
100
AcDbEntity
  8
Defpoints
 62
     0
100
AcDbPoint
 10
414.1109554989698
 20
309.0029261924669
 30
0.0
  0
POINT
  5
17859
330
1784E
100
AcDbEntity
  8
Defpoints
 62
     0
100
AcDbPoint
 10
414.1109554989698
 20
276.8456213183616
 30
0.0
  0
ENDBLK
  5
17850
330
1784E
100
AcDbEntity
  8
0
100
AcDbBlockEnd
  0
BLOCK
  5
17862
330
17861
100
AcDbEntity
  8
0
100
AcDbBlockBegin
  2
*D34
 70
     1
 10
0.0
 20
0.0
 30
0.0
  3
*D34
  1

  0
LINE
  5
17864
330
17861
100
AcDbEntity
  8
DIM
 62
     0
370
    -2
100
AcDbLine
 10
444.1109554989691
 20
361.0029261924664
 30
0.0
 11
469.2353103330647
 21
361.0029261924664
 31
0.0
  0
LINE
  5
17865
330
17861
100
AcDbEntity
  8
DIM
 62
     0
370
    -2
100
AcDbLine
 10
444.1109554989691
 20
329.0029261924664
 30
0.0
 11
469.2353103330647
 21
329.0029261924664
 31
0.0
  0
LINE
  5
17866
330
17861
100
AcDbEntity
  8
DIM
 62
     0
370
    -2
100
AcDbLine
 10
469.2353103330647
 20
358.0029261924664
 30
0.0
 11
469.2353103330647
 21
332.0029261924664
 31
0.0
  0
INSERT
  5
17867
330
17861
100
AcDbEntity
  8
DIM
 62
     0
370
    -2
100
AcDbBlockReference
  2
_DOT
 10
469.2353103330647
 20
361.0029261924664
 30
0.0
 41
3.0
 42
3.0
 43
3.0
 50
90.0
  0
INSERT
  5
17868
330
17861
100
AcDbEntity
  8
DIM
 62
     0
370
    -2
100
AcDbBlockReference
  2
_DOT
 10
469.2353103330647
 20
329.0029261924664
 30
0.0
 41
3.0
 42
3.0
 43
3.0
 50
270.0
  0
MTEXT
  5
17869
330
17861
100
AcDbEntity
  8
DIM
 62
     0
100
AcDbMText
 10
459.2353103330647
 20
345.0029261924664
 30
0.0
 40
8.0
 41
0.0
 46
0.0
 71
     5
 72
     1
  1
\A1;%%c32
  7
ＭＳ ゴシック
 11
0.0
 21
1.0
 31
0.0
 73
     1
 44
1.0
  0
POINT
  5
1786A
330
17861
100
AcDbEntity
  8
Defpoints
 62
     0
100
AcDbPoint
 10
434.1109554989691
 20
361.0029261924664
 30
0.0
  0
POINT
  5
1786B
330
17861
100
AcDbEntity
  8
Defpoints
 62
     0
100
AcDbPoint
 10
434.1109554989691
 20
329.0029261924664
 30
0.0
  0
POINT
  5
1786C
330
17861
100
AcDbEntity
  8
Defpoints
 62
     0
100
AcDbPoint
 10
469.2353103330647
 20
329.0029261924664
 30
0.0
  0
ENDBLK
  5
17863
330
17861
100
AcDbEntity
  8
0
100
AcDbBlockEnd
  0
BLOCK
  5
17874
330
17873
100
AcDbEntity
  8
0
100
AcDbBlockBegin
  2
*D35
 70
     1
 10
0.0
 20
0.0
 30
0.0
  3
*D35
  1

  0
LINE
  5
17876
330
17873
100
AcDbEntity
  8
DIM
 62
     0
370
    -2
100
AcDbLine
 10
424.11095549897
 20
381.0029261924669
 30
0.0
 11
495.9662202905115
 21
381.0029261924669
 31
0.0
  0
LINE
  5
17877
330
17873
100
AcDbEntity
  8
DIM
 62
     0
370
    -2
100
AcDbLine
 10
424.1109554989698
 20
309.0029261924669
 30
0.0
 11
495.9662202905115
 21
309.0029261924669
 31
0.0
  0
LINE
  5
17878
330
17873
100
AcDbEntity
  8
DIM
 62
     0
370
    -2
100
AcDbLine
 10
495.9662202905115
 20
378.0029261924669
 30
0.0
 11
495.9662202905115
 21
312.0029261924669
 31
0.0
  0
INSERT
  5
17879
330
17873
100
AcDbEntity
  8
DIM
 62
     0
370
    -2
100
AcDbBlockReference
  2
_DOT
 10
495.9662202905115
 20
381.0029261924669
 30
0.0
 41
3.0
 42
3.0
 43
3.0
 50
90.0
  0
INSERT
  5
1787A
330
17873
100
AcDbEntity
  8
DIM
 62
     0
370
    -2
100
AcDbBlockReference
  2
_DOT
 10
495.9662202905115
 20
309.0029261924669
 30
0.0
 41
3.0
 42
3.0
 43
3.0
 50
270.0
  0
MTEXT
  5
1787B
330
17873
100
AcDbEntity
  8
DIM
 62
     0
100
AcDbMText
 10
485.9662202905115
 20
345.0029261924669
 30
0.0
 40
8.0
 41
0.0
 46
0.0
 71
     5
 72
     1
  1
\A1;%%c72
  7
ＭＳ ゴシック
 11
0.0
 21
1.0
 31
0.0
 73
     1
 44
1.0
  0
POINT
  5
1787C
330
17873
100
AcDbEntity
  8
Defpoints
 62
     0
100
AcDbPoint
 10
414.11095549897
 20
381.0029261924669
 30
0.0
  0
POINT
  5
1787D
330
17873
100
AcDbEntity
  8
Defpoints
 62
     0
100
AcDbPoint
 10
414.1109554989698
 20
309.0029261924669
 30
0.0
  0
POINT
  5
1787E
330
17873
100
AcDbEntity
  8
Defpoints
 62
     0
100
AcDbPoint
 10
495.9662202905115
 20
309.0029261924669
 30
0.0
  0
ENDBLK
  5
17875
330
17873
100
AcDbEntity
  8
0
100
AcDbBlockEnd
  0
BLOCK
  5
17886
330
17885
100
AcDbEntity
  8
0
100
AcDbBlockBegin
  2
*D36
 70
     1
 10
0.0
 20
0.0
 30
0.0
  3
*D36
  1

  0
LINE
  5
17888
330
17885
100
AcDbEntity
  8
DIM
 62
     0
370
    -2
100
AcDbLine
 10
505.9662202905115
 20
345.0029261924669
 30
0.0
 11
528.8581043189624
 21
345.0029261924669
 31
0.0
  0
LINE
  5
17889
330
17885
100
AcDbEntity
  8
DIM
 62
     0
370
    -2
100
AcDbLine
 10
361.8738866151316
 20
535.0029261924669
 30
0.0
 11
528.8581043189624
 21
535.0029261924669
 31
0.0
  0
LINE
  5
1788A
330
17885
100
AcDbEntity
  8
DIM
 62
     0
370
    -2
100
AcDbLine
 10
528.8581043189624
 20
348.0029261924669
 30
0.0
 11
528.8581043189624
 21
532.0029261924669
 31
0.0
  0
INSERT
  5
1788B
330
17885
100
AcDbEntity
  8
DIM
 62
     0
370
    -2
100
AcDbBlockReference
  2
_DOT
 10
528.8581043189624
 20
345.0029261924669
 30
0.0
 41
3.0
 42
3.0
 43
3.0
 50
270.0
  0
INSERT
  5
1788C
330
17885
100
AcDbEntity
  8
DIM
 62
     0
370
    -2
100
AcDbBlockReference
  2
_DOT
 10
528.8581043189624
 20
535.0029261924669
 30
0.0
 41
3.0
 42
3.0
 43
3.0
 50
90.0
  0
MTEXT
  5
1788D
330
17885
100
AcDbEntity
  8
DIM
 62
     0
100
AcDbMText
 10
518.8581043189624
 20
440.0029261924669
 30
0.0
 40
8.0
 41
0.0
 46
0.0
 71
     5
 72
     1
  1
\A1;MIN.110 - MAX.360
  7
ＭＳ ゴシック
 11
0.0
 21
1.0
 31
0.0
 73
     1
 44
1.0
  0
POINT
  5
1788E
330
17885
100
AcDbEntity
  8
Defpoints
 62
     0
100
AcDbPoint
 10
495.9662202905115
 20
345.0029261924669
 30
0.0
  0
POINT
  5
1788F
330
17885
100
AcDbEntity
  8
Defpoints
 62
     0
100
AcDbPoint
 10
351.8738866151316
 20
535.0029261924669
 30
0.0
  0
POINT
  5
17890
330
17885
100
AcDbEntity
  8
Defpoints
 62
     0
100
AcDbPoint
 10
528.8581043189624
 20
535.0029261924669
 30
0.0
  0
ENDBLK
  5
17887
330
17885
100
AcDbEntity
  8
0
100
AcDbBlockEnd
  0
BLOCK
  5
17895
330
17894
100
AcDbEntity
  8
0
100
AcDbBlockBegin
  2
*D37
 70
     1
 10
0.0
 20
0.0
 30
0.0
  3
*D37
  1

  0
LINE
  5
17897
330
17894
100
AcDbEntity
  8
DIM
 62
     0
370
    -2
100
AcDbLine
 10
174.1109554989698
 20
424.085602557997
 30
0.0
 11
174.1109554989698
 21
276.8456213183616
 31
0.0
  0
LINE
  5
17898
330
17894
100
AcDbEntity
  8
DIM
 62
     0
370
    -2
100
AcDbLine
 10
364.1109554989698
 20
319.0029261924666
 30
0.0
 11
364.1109554989698
 21
276.8456213183616
 31
0.0
  0
LINE
  5
17899
330
17894
100
AcDbEntity
  8
DIM
 62
     0
370
    -2
100
AcDbLine
 10
177.1109554989698
 20
276.8456213183616
 30
0.0
 11
361.1109554989698
 21
276.8456213183616
 31
0.0
  0
INSERT
  5
1789A
330
17894
100
AcDbEntity
  8
DIM
 62
     0
370
    -2
100
AcDbBlockReference
  2
_DOT
 10
174.1109554989698
 20
276.8456213183616
 30
0.0
 41
3.0
 42
3.0
 43
3.0
 50
180.0
  0
INSERT
  5
1789B
330
17894
100
AcDbEntity
  8
DIM
 62
     0
370
    -2
100
AcDbBlockReference
  2
_DOT
 10
364.1109554989698
 20
276.8456213183616
 30
0.0
 41
3.0
 42
3.0
 43
3.0
  0
MTEXT
  5
1789C
330
17894
100
AcDbEntity
  8
DIM
 62
     0
100
AcDbMText
 10
269.1109554989698
 20
286.8456213183616
 30
0.0
 40
8.0
 41
0.0
 46
0.0
 71
     5
 72
     1
  1
\A1;MIN.110 - MAX.320
  7
ＭＳ ゴシック
 73
     1
 44
1.0
  0
POINT
  5
1789D
330
17894
100
AcDbEntity
  8
Defpoints
 62
     0
100
AcDbPoint
 10
174.1109554989698
 20
434.085602557997
 30
0.0
  0
POINT
  5
1789E
330
17894
100
AcDbEntity
  8
Defpoints
 62
     0
100
AcDbPoint
 10
364.1109554989698
 20
329.0029261924666
 30
0.0
  0
POINT
  5
1789F
330
17894
100
AcDbEntity
  8
Defpoints
 62
     0
100
AcDbPoint
 10
364.1109554989698
 20
276.8456213183616
 30
0.0
  0
ENDBLK
  5
17896
330
17894
100
AcDbEntity
  8
0
100
AcDbBlockEnd
  0
ENDSEC
  0
SECTION
  2
ENTITIES
  0
MTEXT
  5
177
330
A
100
AcDbEntity
  8
TEMPLATE
390
1D
100
AcDbMText
 10
23.76064336431923
 20
103.1195254894285
 30
0.0
 40
4.886523437499998
 41
0.0
 46
0.0
 71
     1
 72
     1
  1
品名
  7
ＭＳ ゴシック
 73
     1
 44
0.7828267384257843
  0
MTEXT
  5
178
330
A
100
AcDbEntity
  8
TEMPLATE
390
1D
100
AcDbMText
 10
23.76064336431923
 20
77.6195254894284
 30
0.0
 40
4.886523437499998
 41
0.0
 46
0.0
 71
     1
 72
     1
  1
仕様
  7
ＭＳ ゴシック
 73
     1
 44
0.7828267384257843
  0
LINE
  5
179
330
A
100
AcDbEntity
  8
TEMPLATE
390
1D
100
AcDbLine
 10
606.6606433641745
 20
80.14400205192852
 30
0.0
 11
21.66064336417462
 21
80.14400205192852
 31
0.0
  0
LWPOLYLINE
  5
17A
330
A
100
AcDbEntity
  8
TEMPLATE
390
1D
100
AcDbPolyline
 90
        5
 70
   128
 43
0.0
 10
606.6606433641745
 20
869.1440020519278
 10
21.66064336417462
 20
869.1440020519278
 10
21.66064336417462
 20
29.14400205192847
 10
606.6606433641745
 20
29.14400205192847
 10
606.6606433641745
 20
869.1440020519278
  0
LINE
  5
17B
330
A
100
AcDbEntity
  8
TEMPLATE
390
1D
100
AcDbLine
 10
606.6606433641745
 20
105.6440020519285
 30
0.0
 11
21.66064336417462
 21
105.6440020519285
 31
0.0
  0
LINE
  5
17C
330
A
100
AcDbEntity
  8
TEMPLATE
390
1D
100
AcDbLine
 10
606.6606433643196
 20
54.64400205192847
 30
0.0
 11
380.760643364319
 21
54.64400205192847
 31
0.0
  0
MTEXT
  5
17E
330
A
100
AcDbEntity
  8
TEMPLATE
390
1D
100
AcDbMText
 10
389.7220652399973
 20
45.67088370993605
 30
0.0
 40
7.329785156250001
 41
0.0
 46
0.0
 71
     1
 72
     1
  1
大洋金物株式会社 ティーフォルム事業部
  7
ＭＳ ゴシック
 73
     1
 44
0.7828267384257843
  0
MTEXT
  5
180
330
A
100
AcDbEntity
  8
TEMPLATE
390
1D
100
AcDbMText
 10
549.360643364397
 20
69.04478720817846
 30
0.0
 40
7.329785156250001
 41
0.0
 46
7.329785156250001
 71
     1
 72
     1
  1
{1:3}
  7
ＭＳ ゴシック
 73
     1
 44
0.7828267384257843
1001
ACAD
1000
ACAD_MTEXT_DEFINED_HEIGHT_BEGIN
1070
    46
1040
7.329785156250001
1000
ACAD_MTEXT_DEFINED_HEIGHT_END
  0
MTEXT
  5
181
330
A
100
AcDbEntity
  8
TEMPLATE
390
1D
100
AcDbMText
 10
533.4606433643969
 20
77.6195254894284
 30
0.0
 40
4.886523437499998
 41
0.0
 46
0.0
 71
     1
 72
     1
  1
縮尺
  7
ＭＳ ゴシック
 73
     1
 44
0.7828267384257843
  0
LINE
  5
182
330
A
100
AcDbEntity
  8
TEMPLATE
390
1D
100
AcDbLine
 10
531.360643364397
 20
54.64400205192847
 30
0.0
 11
531.360643364397
 21
80.14400205192852
 31
0.0
  0
MTEXT
  5
183
330
A
100
AcDbEntity
  8
TEMPLATE
390
1D
100
AcDbMText
 10
458.1606433643969
 20
77.6195254894284
 30
0.0
 40
4.886523437499998
 41
0.0
 46
0.0
 71
     1
 72
     1
  1
容量
  7
ＭＳ ゴシック
 73
     1
 44
0.7828267384257843
  0
LINE
  5
184
330
A
100
AcDbEntity
  8
TEMPLATE
390
1D
100
AcDbLine
 10
456.060643364397
 20
54.64400205192847
 30
0.0
 11
456.060643364397
 21
80.14400205192852
 31
0.0
  0
MTEXT
  5
185
330
A
100
AcDbEntity
  8
TEMPLATE
390
1D
100
AcDbMText
 10
382.860643364397
 20
103.1195254894285
 30
0.0
 40
4.886523437499998
 41
0.0
 46
0.0
 71
     1
 72
     1
  1
品番
  7
ＭＳ ゴシック
 73
     1
 44
0.7828267384257843
  0
MTEXT
  5
186
330
A
100
AcDbEntity
  8
TEMPLATE
390
1D
100
AcDbMText
 10
382.860643364397
 20
77.6195254894284
 30
0.0
 40
4.886523437499998
 41
0.0
 46
0.0
 71
     1
 72
     1
  1
重量
  7
ＭＳ ゴシック
 73
     1
 44
0.7828267384257843
  0
MTEXT
  5
187
330
A
100
AcDbEntity
  8
TEMPLATE
390
1D
100
AcDbMText
 10
398.760643364397
 20
94.54478720817846
 30
0.0
 40
7.329785156250001
 41
0.0
 46
7.329785156250001
 71
     1
 72
     1
  1
{ATB73-9975}
  7
ＭＳ ゴシック
 73
     1
 44
0.7828267384257843
1001
ACAD
1000
ACAD_MTEXT_DEFINED_HEIGHT_BEGIN
1070
    46
1040
7.329785156250001
1000
ACAD_MTEXT_DEFINED_HEIGHT_END
  0
LINE
  5
188
330
A
100
AcDbEntity
  8
TEMPLATE
390
1D
100
AcDbLine
 10
380.760643364397
 20
29.14400205192847
 30
0.0
 11
380.760643364397
 21
105.6440020519285
 31
0.0
  0
MTEXT
  5
189
330
A
100
AcDbEntity
  8
TEMPLATE
390
1D
100
AcDbMText
 10
39.66064336431923
 20
94.54478720817846
 30
0.0
 40
7.329785156250001
 41
0.0
 46
8.18737001953125
 71
     1
 72
     1
  1
{プッシュ式ポップアップ付スペースセービングトラップ (オーバーフロー無用)}
  7
ＭＳ ゴシック
 73
     1
 44
0.7828267384257843
1001
ACAD
1000
ACAD_MTEXT_DEFINED_HEIGHT_BEGIN
1070
    46
1040
8.18737001953125
1000
ACAD_MTEXT_DEFINED_HEIGHT_END
  0
LWPOLYLINE
  5
D69
330
A
100
AcDbEntity
  8
BORDER
100
AcDbPolyline
 90
        4
 70
     1
 43
0.0
 10
0.0
 20
0.0
 10
0.0
 20
891.0
 10
630.0
 20
891.0
 10
630.0
 20
0.0
  0
MTEXT
  5
36AC
102
{ACAD_XDICTIONARY
360
36AE
102
}
330
A
100
AcDbEntity
  8
TEMPLATE
 48
0.05
100
AcDbMText
 10
22.06848147481188
 20
25.15049698669364
 30
0.0
 40
7.0
 41
0.0
 46
7.0
 71
     1
 72
     1
  1
{20190411N}
  7
ＭＳ ゴシック
 73
     1
 44
1.0
1001
ACAD
1000
ACAD_MTEXT_DEFINED_HEIGHT_BEGIN
1070
    46
1040
7.0
1000
ACAD_MTEXT_DEFINED_HEIGHT_END
  0
HATCH
  5
172F9
102
{ACAD_REACTORS
330
1730A
102
}
330
A
100
AcDbEntity
  8
TEMPLATE
100
AcDbHatch
 10
0.0
 20
0.0
 30
0.0
210
0.0
220
0.0
230
1.0
  2
SOLID
 70
     1
 71
     1
 91
        6
 92
        1
 93
        8
 72
     1
 10
580.3195574690816
 20
45.81237511424545
 11
580.3195574690816
 21
44.03955282504737
 72
     1
 10
580.3195574690816
 20
44.03955282504737
 11
577.5113800039879
 21
44.03955282504737
 72
     1
 10
577.5113800039879
 20
44.03955282504737
 11
577.5113800039879
 21
36.81237511467916
 72
     1
 10
577.5113800039879
 20
36.81237511467916
 11
575.0415960580052
 21
36.81237511467916
 72
     1
 10
575.0415960580052
 20
36.81237511467916
 11
575.0415960580052
 21
44.03955282504737
 72
     1
 10
575.0415960580052
 20
44.03955282504737
 11
572.2831856276422
 21
44.03955282504737
 72
     1
 10
572.2831856276422
 20
44.03955282504737
 11
572.2831856276422
 21
45.81237511424545
 72
     1
 10
572.2831856276422
 20
45.81237511424545
 11
580.3195574690816
 21
45.81237511424545
 97
        1
330
172FA
 92
        1
 93
        1
 72
     4
 94
        3
 73
     0
 74
     1
 95
       56
 96
       52
 40
0.0
 40
0.0
 40
0.0
 40
0.0
 40
1.0
 40
1.0
 40
1.0
 40
2.0
 40
2.0
 40
2.0
 40
3.0
 40
3.0
 40
3.0
 40
4.0
 40
4.0
 40
4.0
 40
5.0
 40
5.0
 40
5.0
 40
6.0
 40
6.0
 40
6.0
 40
7.0
 40
7.0
 40
7.0
 40
8.0
 40
8.0
 40
8.0
 40
9.0
 40
9.0
 40
9.0
 40
10.0
 40
10.0
 40
10.0
 40
11.0
 40
11.0
 40
11.0
 40
12.0
 40
12.0
 40
12.0
 40
13.0
 40
13.0
 40
13.0
 40
14.0
 40
14.0
 40
14.0
 40
15.0
 40
15.0
 40
15.0
 40
16.0
 40
16.0
 40
16.0
 40
17.0
 40
17.0
 40
17.0
 40
17.0
 10
584.0822130993691
 20
45.59806442612169
 10
584.4283729539446
 20
45.69550069232489
 10
584.8752496819451
 20
45.61399880405779
 10
584.8752496819451
 20
45.61399880405779
 10
584.8752496819451
 20
45.61399880405779
 10
584.6605596038704
 20
44.96972771633077
 10
584.6605596038704
 20
44.96972771633077
 10
584.6605596038704
 20
44.96972771633077
 10
584.2218509183414
 20
45.07124800376958
 10
583.8834797162866
 20
44.80442528303579
 10
583.6205401632852
 20
44.59576081006296
 10
583.4501940753495
 20
44.04131587246591
 10
583.3848497355779
 20
43.83050896212374
 10
583.3848497355779
 20
43.83050896212374
 10
583.0935228874299
 20
42.93630916500408
 10
583.0935228874299
 20
42.93630916500408
 10
583.0935228874299
 20
42.93630916500408
 10
584.0487598325259
 20
42.93630916500408
 10
584.0487598325259
 20
42.93630916500408
 10
584.0487598325259
 20
42.93630916500408
 10
583.9001951911804
 20
42.37351764848811
 10
583.9001951911804
 20
42.37351764848811
 10
583.9001951911804
 20
42.37351764848811
 10
582.9371695935639
 20
42.37351764848811
 10
582.9371695935639
 20
42.37351764848811
 10
582.9371695935639
 20
42.37351764848811
 10
581.2141366561519
 20
36.81237511467916
 10
581.2141366561519
 20
36.81237511467916
 10
581.2141366561519
 20
36.81237511467916
 10
580.6746664630858
 20
36.81237511467916
 10
580.6746664630858
 20
36.81237511467916
 10
580.6746664630858
 20
36.81237511467916
 10
582.3992615944129
 20
42.37351764848811
 10
582.3992615944129
 20
42.37351764848811
 10
582.3992615944129
 20
42.37351764848811
 10
581.6886418993973
 20
42.37351764848811
 10
581.6886418993973
 20
42.37351764848811
 10
581.6886418993973
 20
42.37351764848811
 10
581.8376082477495
 20
42.93630916500408
 10
581.8376082477495
 20
42.93630916500408
 10
581.8376082477495
 20
42.93630916500408
 10
582.5556148882789
 20
42.93630916500408
 10
582.5556148882789
 20
42.93630916500408
 10
582.5556148882789
 20
42.93630916500408
 10
582.8095829847954
 20
43.71615636752356
 10
582.8095829847954
 20
43.71615636752356
 10
583.0149445334899
 20
44.36997915518985
 10
583.1891961062141
 20
44.72100412795849
 10
583.3385641615731
 20
44.98566209426688
 10
583.4863477059606
 20
45.25054323113452
 10
583.7788350410173
 20
45.51073778625616
 10
584.0822130993691
 20
45.59806442612169
 97
        1
330
17305
 92
        1
 93
        1
 72
     4
 94
        3
 73
     0
 74
     1
 95
       32
 96
       28
 40
0.0
 40
0.0
 40
0.0
 40
0.0
 40
1.0
 40
1.0
 40
1.0
 40
2.0
 40
2.0
 40
2.0
 40
3.0
 40
3.0
 40
3.0
 40
4.0
 40
4.0
 40
4.0
 40
5.0
 40
5.0
 40
5.0
 40
6.0
 40
6.0
 40
6.0
 40
7.0
 40
7.0
 40
7.0
 40
8.0
 40
8.0
 40
8.0
 40
9.0
 40
9.0
 40
9.0
 40
9.0
 10
585.394880012287
 20
42.5961972325865
 10
585.0701222143513
 20
42.17612328876155
 10
584.8200372855671
 20
41.79807236125814
 10
584.4151612568324
 20
40.60984535222244
 10
584.0429350809274
 20
39.52296009417805
 10
583.8060618492556
 20
38.73222216836346
 10
583.7702876085951
 20
37.76919657074652
 10
583.7430608003568
 20
37.0525512706291
 10
584.1794485120689
 20
36.81237511467916
 10
584.8192785056652
 20
36.81237511467916
 10
585.0950280487724
 20
36.81237511467916
 10
585.7908738527602
 20
36.82991632064248
 10
586.2864017626947
 20
37.44247487188884
 10
586.6332980801157
 20
37.87283697849896
 10
586.9530122234106
 20
38.3189549265978
 10
587.3816335996579
 20
39.78237355234214
 10
587.7383047875777
 20
41.00579455858404
 10
587.985265328531
 20
41.79651016734281
 10
587.9670099767781
 20
42.24671213667737
 10
587.9670099767781
 20
42.24671213667737
 10
587.9670099767781
 20
42.24671213667737
 10
587.9670099767781
 20
42.24671213667737
 10
587.8506934812557
 20
42.9977703370432
 10
587.305398536591
 20
43.1564669217822
 10
586.9938524357677
 20
43.1564669217822
 10
586.6869929166902
 20
43.1564669217822
 10
585.8647433078983
 20
43.20955919784658
 10
585.394880012287
 20
42.5961972325865
 97
        1
330
17308
 92
        1
 93
        1
 72
     4
 94
        3
 73
     0
 74
     1
 95
       38
 96
       34
 40
0.0
 40
0.0
 40
0.0
 40
0.0
 40
1.0
 40
1.0
 40
1.0
 40
2.0
 40
2.0
 40
2.0
 40
3.0
 40
3.0
 40
3.0
 40
4.0
 40
4.0
 40
4.0
 40
5.0
 40
5.0
 40
5.0
 40
6.0
 40
6.0
 40
6.0
 40
7.0
 40
7.0
 40
7.0
 40
8.0
 40
8.0
 40
8.0
 40
9.0
 40
9.0
 40
9.0
 40
10.0
 40
10.0
 40
10.0
 40
11.0
 40
11.0
 40
11.0
 40
11.0
 10
589.9393467460162
 20
42.91472857191693
 10
589.9393467460162
 20
42.91472857191693
 10
590.4939702200608
 20
42.91472857191693
 10
590.4939702200608
 20
42.91472857191693
 10
590.4939702200608
 20
42.91472857191693
 10
590.2462062650937
 20
42.12146881878184
 10
590.2462062650937
 20
42.12146881878184
 10
590.4344729489438
 20
42.34414840288034
 10
590.7316022316344
 20
42.6407197591727
 10
590.9867754491712
 20
42.79026635097919
 10
591.3679507645053
 20
43.01294593507769
 10
591.5857652304104
 20
43.04231518068534
 10
591.8253165087943
 20
43.03646811203098
 10
591.8253165087943
 20
43.03646811203098
 10
591.591210592058
 20
42.28639186212602
 10
591.591210592058
 20
42.28639186212602
 10
591.4387404659245
 20
42.35095510493986
 10
590.968877170313
 20
42.22805507791734
 10
590.6993317687555
 20
42.03416449597226
 10
590.4562543955343
 20
41.85933267979383
 10
590.2882069643596
 20
41.71056718494513
 10
590.0890941913261
 20
41.33657796162161
 10
589.8914989780961
 20
40.96203081189956
 10
589.735547391237
 20
40.36480407807901
 10
589.4671624765878
 20
39.49841133265191
 10
589.4671624765878
 20
39.49841133265191
 10
588.6289784898598
 20
36.81237511467916
 10
588.6289784898598
 20
36.81237511467916
 10
588.6289784898598
 20
36.81237511467916
 10
588.0906911007581
 20
36.81237511467916
 10
588.0906911007581
 20
36.81237511467916
 10
588.0906911007581
 20
36.81237511467916
 10
589.9393467460162
 20
42.91472857191693
 10
589.9393467460162
 20
42.91472857191693
 97
        1
330
17306
 92
        1
 93
        1
 72
     4
 94
        3
 73
     0
 74
     1
 95
      104
 96
      100
 40
0.0
 40
0.0
 40
0.0
 40
0.0
 40
1.0
 40
1.0
 40
1.0
 40
2.0
 40
2.0
 40
2.0
 40
3.0
 40
3.0
 40
3.0
 40
4.0
 40
4.0
 40
4.0
 40
5.0
 40
5.0
 40
5.0
 40
6.0
 40
6.0
 40
6.0
 40
7.0
 40
7.0
 40
7.0
 40
8.0
 40
8.0
 40
8.0
 40
9.0
 40
9.0
 40
9.0
 40
10.0
 40
10.0
 40
10.0
 40
11.0
 40
11.0
 40
11.0
 40
12.0
 40
12.0
 40
12.0
 40
13.0
 40
13.0
 40
13.0
 40
14.0
 40
14.0
 40
14.0
 40
15.0
 40
15.0
 40
15.0
 40
16.0
 40
16.0
 40
16.0
 40
17.0
 40
17.0
 40
17.0
 40
18.0
 40
18.0
 40
18.0
 40
19.0
 40
19.0
 40
19.0
 40
20.0
 40
20.0
 40
20.0
 40
21.0
 40
21.0
 40
21.0
 40
22.0
 40
22.0
 40
22.0
 40
23.0
 40
23.0
 40
23.0
 40
24.0
 40
24.0
 40
24.0
 40
25.0
 40
25.0
 40
25.0
 40
26.0
 40
26.0
 40
26.0
 40
27.0
 40
27.0
 40
27.0
 40
28.0
 40
28.0
 40
28.0
 40
29.0
 40
29.0
 40
29.0
 40
30.0
 40
30.0
 40
30.0
 40
31.0
 40
31.0
 40
31.0
 40
32.0
 40
32.0
 40
32.0
 40
33.0
 40
33.0
 40
33.0
 40
33.0
 10
592.9921860953021
 20
42.91803149619498
 10
592.9921860953021
 20
42.91803149619498
 10
593.4764215749343
 20
42.91803149619498
 10
593.4764215749343
 20
42.91803149619498
 10
593.4764215749343
 20
42.91803149619498
 10
593.2317820077977
 20
42.12401296315816
 10
593.2317820077977
 20
42.12401296315816
 10
593.4441064779436
 20
42.4569388035653
 10
593.6346941356106
 20
42.6053249084632
 10
593.8879034522253
 20
42.79707305303871
 10
594.1418715487417
 20
42.98609851679041
 10
594.4433303402833
 20
43.02461775533059
 10
594.6525750567104
 20
43.02461775533059
 10
594.9116314419795
 20
43.02461775533059
 10
595.1617163707637
 20
42.97346706313235
 10
595.2931638302083
 20
42.68952716049805
 10
595.3939030206897
 20
42.46686989345537
 10
595.3985896024354
 20
42.44060271862234
 10
595.369800600282
 20
42.0010906190797
 10
595.6330972261784
 20
42.451694295421
 10
595.8275680515779
 20
42.64578573086951
 10
596.1581729181679
 20
42.83226705024479
 10
596.5051138697007
 20
43.02461775533059
 10
596.7073510305648
 20
43.0390122564073
 10
596.9423049954265
 20
43.00437618559952
 10
597.2884425329456
 20
42.95324781045711
 10
597.5093813866816
 20
42.82974522292441
 10
597.6248944681903
 20
42.45441697624481
 10
597.7408092567058
 20
42.0802492164738
 10
597.678187597758
 20
41.87955193246919
 10
597.5350460010044
 20
41.28388739256386
 10
597.4697016612328
 20
41.01260126064356
 10
597.3751666123011
 20
40.68411651436711
 10
597.251485488321
 20
40.29325559675826
 10
597.251485488321
 20
40.29325559675826
 10
596.1581729181679
 20
36.81237511467916
 10
596.1581729181679
 20
36.81237511467916
 10
596.1581729181679
 20
36.81237511467916
 10
595.5895343329975
 20
36.81237511467916
 10
595.5895343329975
 20
36.81237511467916
 10
595.5895343329975
 20
36.81237511467916
 10
596.5467574960716
 20
39.85548422757834
 10
596.5467574960716
 20
39.85548422757834
 10
596.7466736831187
 20
40.49218983334411
 10
596.8820043102957
 20
40.95716569370618
 10
596.952035231813
 20
41.24869339535778
 10
597.0399197980768
 20
41.61234982178448
 10
597.0749129417799
 20
41.73234863153571
 10
597.0333139495209
 20
41.99702891489992
 10
596.9951964179876
 20
42.24340921239921
 10
596.8707118799938
 20
42.40384652750092
 10
596.6575839958344
 20
42.40384652750092
 10
596.4304410005492
 20
42.40384652750092
 10
596.2464591914385
 20
42.37856130312887
 10
595.9890096341963
 20
42.11992894192245
 10
595.7315154428426
 20
41.85933267979383
 10
595.5187446315782
 20
41.55343279412157
 10
595.3519023214238
 20
41.20162672439526
 10
595.1854170841642
 20
40.8476782172995
 10
595.0166108730879
 20
40.39903844188016
 10
594.8454836881943
 20
39.85548422757834
 10
594.8454836881943
 20
39.85548422757834
 10
593.8879034522253
 20
36.81237511467916
 10
593.8879034522253
 20
36.81237511467916
 10
593.8879034522253
 20
36.81237511467916
 10
593.3530975238492
 20
36.81237511467916
 10
593.3530975238492
 20
36.81237511467916
 10
593.3530975238492
 20
36.81237511467916
 10
594.4479722879174
 20
40.29169340284293
 10
594.4479722879174
 20
40.29169340284293
 10
594.5634853694261
 20
40.66197799488166
 10
594.6502540828932
 20
40.96379385931832
 10
594.7074303801934
 20
41.19968514052912
 10
594.804643475837
 20
41.60574397322828
 10
594.8318702840753
 20
41.88033302942674
 10
594.7583579018323
 20
42.12401296315816
 10
594.6860060064979
 20
42.36691179993202
 10
594.5588434217922
 20
42.42895321542549
 10
594.3464743175347
 20
42.42895321542549
 10
594.1683395770782
 20
42.42895321542549
 10
593.9944897113609
 20
42.3525172988552
 10
593.7961357182293
 20
42.20042656267251
 10
593.5464078623398
 20
42.00908012510374
 10
593.4464720858722
 20
41.85194573428019
 10
593.3239514488008
 20
41.66524124434543
 10
593.1586266984499
 20
41.41825838633597
 10
593.0812311484743
 20
41.25199631963583
 10
592.941615646558
 20
40.88715708924472
 10
592.8019555105301
 20
40.52017542148403
 10
592.6697492711836
 20
40.09311623915196
 10
592.5775351960687
 20
39.7977276868239
 10
592.5775351960687
 20
39.7977276868239
 10
591.6382549459648
 20
36.81237511467916
 10
591.6382549459648
 20
36.81237511467916
 10
591.6382549459648
 20
36.81237511467916
 10
591.0781861102724
 20
36.81237511467916
 10
591.0781861102724
 20
36.81237511467916
 10
591.0781861102724
 20
36.81237511467916
 10
592.9921860953021
 20
42.91803149619498
 10
592.9921860953021
 20
42.91803149619498
 97
        1
330
17307
 92
       16
 93
        1
 72
     4
 94
        3
 73
     0
 74
     1
 95
       29
 96
       25
 40
0.0
 40
0.0
 40
0.0
 40
0.0
 40
1.0
 40
1.0
 40
1.0
 40
2.0
 40
2.0
 40
2.0
 40
3.0
 40
3.0
 40
3.0
 40
4.0
 40
4.0
 40
4.0
 40
5.0
 40
5.0
 40
5.0
 40
6.0
 40
6.0
 40
6.0
 40
7.0
 40
7.0
 40
7.0
 40
8.0
 40
8.0
 40
8.0
 40
8.0
 10
584.3513791109762
 20
37.94925057801331
 10
584.3490135030473
 20
38.37439049353518
 10
584.4832282774277
 20
39.12973356864027
 10
584.82704484113
 20
40.1403837636178
 10
585.2953459428262
 20
41.50888795047954
 10
585.5761837746858
 20
42.00908012510374
 10
585.821939194619
 20
42.25255920533161
 10
586.1809759904676
 20
42.60708795588196
 10
586.6636492761844
 20
42.62476306418078
 10
586.8060320930364
 20
42.60708795588196
 10
587.0086709609071
 20
42.58276236491495
 10
587.2949095203024
 20
42.45013210150578
 10
587.3120043851471
 20
42.00363476345613
 10
587.325662423378
 20
41.621499814717
 10
587.2155500694051
 20
40.90583646506057
 10
586.8301345134438
 20
39.78237355234214
 10
586.3859358321553
 20
38.47687041437903
 10
586.1191131114214
 20
37.96366739614584
 10
585.9052264473606
 20
37.74000586158636
 10
585.5022696854361
 20
37.32071301471897
 10
585.0701222143513
 20
37.36097298362186
 10
585.006340068495
 20
37.36097298362186
 10
584.923499156872
 20
37.36097298362186
 10
584.3525395978846
 20
37.45086608491963
 10
584.3513791109762
 20
37.94925057801331
 97
        1
330
17309
 75
     0
 76
     1
 98
        1
 10
557.776987685974
 20
21.56103299246715
1001
ACAD
1010
0.0
1020
0.0
1030
0.0
  0
POLYLINE
  5
172FA
102
{ACAD_REACTORS
330
172F9
330
1730A
102
}
330
A
100
AcDbEntity
  8
TEMPLATE
100
AcDb2dPolyline
 66
     1
 10
0.0
 20
0.0
 30
0.0
  0
VERTEX
  5
172FB
330
172FA
100
AcDbEntity
  8
TEMPLATE
100
AcDbVertex
100
AcDb2dVertex
 10
580.3195574690816
 20
45.81237511424545
 30
0.0
  0
VERTEX
  5
172FC
330
172FA
100
AcDbEntity
  8
TEMPLATE
100
AcDbVertex
100
AcDb2dVertex
 10
580.3195574690816
 20
44.03955282504737
 30
0.0
  0
VERTEX
  5
172FD
330
172FA
100
AcDbEntity
  8
TEMPLATE
100
AcDbVertex
100
AcDb2dVertex
 10
577.5113800039879
 20
44.03955282504737
 30
0.0
  0
VERTEX
  5
172FE
330
172FA
100
AcDbEntity
  8
TEMPLATE
100
AcDbVertex
100
AcDb2dVertex
 10
577.5113800039879
 20
36.81237511467916
 30
0.0
  0
VERTEX
  5
172FF
330
172FA
100
AcDbEntity
  8
TEMPLATE
100
AcDbVertex
100
AcDb2dVertex
 10
575.0415960580052
 20
36.81237511467916
 30
0.0
  0
VERTEX
  5
17300
330
172FA
100
AcDbEntity
  8
TEMPLATE
100
AcDbVertex
100
AcDb2dVertex
 10
575.0415960580052
 20
44.03955282504737
 30
0.0
  0
VERTEX
  5
17301
330
172FA
100
AcDbEntity
  8
TEMPLATE
100
AcDbVertex
100
AcDb2dVertex
 10
572.2831856276422
 20
44.03955282504737
 30
0.0
  0
VERTEX
  5
17302
330
172FA
100
AcDbEntity
  8
TEMPLATE
100
AcDbVertex
100
AcDb2dVertex
 10
572.2831856276422
 20
45.81237511424545
 30
0.0
  0
VERTEX
  5
17303
330
172FA
100
AcDbEntity
  8
TEMPLATE
100
AcDbVertex
100
AcDb2dVertex
 10
580.3195574690816
 20
45.81237511424545
 30
0.0
  0
SEQEND
  5
17304
330
172FA
100
AcDbEntity
  8
TEMPLATE
  0
SPLINE
  5
17305
102
{ACAD_REACTORS
330
172F9
330
1730A
102
}
330
A
100
AcDbEntity
  8
TEMPLATE
100
AcDbSpline
210
0.0
220
0.0
230
1.0
 70
    11
 71
     3
 72
    56
 73
    52
 74
     0
 42
0.000000001
 43
0.0000000001
 40
0.0
 40
0.0
 40
0.0
 40
0.0
 40
1.0
 40
1.0
 40
1.0
 40
2.0
 40
2.0
 40
2.0
 40
3.0
 40
3.0
 40
3.0
 40
4.0
 40
4.0
 40
4.0
 40
5.0
 40
5.0
 40
5.0
 40
6.0
 40
6.0
 40
6.0
 40
7.0
 40
7.0
 40
7.0
 40
8.0
 40
8.0
 40
8.0
 40
9.0
 40
9.0
 40
9.0
 40
10.0
 40
10.0
 40
10.0
 40
11.0
 40
11.0
 40
11.0
 40
12.0
 40
12.0
 40
12.0
 40
13.0
 40
13.0
 40
13.0
 40
14.0
 40
14.0
 40
14.0
 40
15.0
 40
15.0
 40
15.0
 40
16.0
 40
16.0
 40
16.0
 40
17.0
 40
17.0
 40
17.0
 40
17.0
 10
584.0822130993691
 20
45.59806442612169
 30
0.0
 10
584.4283729539446
 20
45.69550069232489
 30
0.0
 10
584.8752496819451
 20
45.61399880405779
 30
0.0
 10
584.8752496819451
 20
45.61399880405779
 30
0.0
 10
584.8752496819451
 20
45.61399880405779
 30
0.0
 10
584.6605596038704
 20
44.96972771633077
 30
0.0
 10
584.6605596038704
 20
44.96972771633077
 30
0.0
 10
584.6605596038704
 20
44.96972771633077
 30
0.0
 10
584.2218509183414
 20
45.07124800376958
 30
0.0
 10
583.8834797162866
 20
44.80442528303579
 30
0.0
 10
583.6205401632852
 20
44.59576081006296
 30
0.0
 10
583.4501940753495
 20
44.04131587246591
 30
0.0
 10
583.3848497355779
 20
43.83050896212374
 30
0.0
 10
583.3848497355779
 20
43.83050896212374
 30
0.0
 10
583.0935228874299
 20
42.93630916500408
 30
0.0
 10
583.0935228874299
 20
42.93630916500408
 30
0.0
 10
583.0935228874299
 20
42.93630916500408
 30
0.0
 10
584.0487598325259
 20
42.93630916500408
 30
0.0
 10
584.0487598325259
 20
42.93630916500408
 30
0.0
 10
584.0487598325259
 20
42.93630916500408
 30
0.0
 10
583.9001951911804
 20
42.37351764848811
 30
0.0
 10
583.9001951911804
 20
42.37351764848811
 30
0.0
 10
583.9001951911804
 20
42.37351764848811
 30
0.0
 10
582.9371695935639
 20
42.37351764848811
 30
0.0
 10
582.9371695935639
 20
42.37351764848811
 30
0.0
 10
582.9371695935639
 20
42.37351764848811
 30
0.0
 10
581.2141366561519
 20
36.81237511467916
 30
0.0
 10
581.2141366561519
 20
36.81237511467916
 30
0.0
 10
581.2141366561519
 20
36.81237511467916
 30
0.0
 10
580.6746664630858
 20
36.81237511467916
 30
0.0
 10
580.6746664630858
 20
36.81237511467916
 30
0.0
 10
580.6746664630858
 20
36.81237511467916
 30
0.0
 10
582.3992615944129
 20
42.37351764848811
 30
0.0
 10
582.3992615944129
 20
42.37351764848811
 30
0.0
 10
582.3992615944129
 20
42.37351764848811
 30
0.0
 10
581.6886418993973
 20
42.37351764848811
 30
0.0
 10
581.6886418993973
 20
42.37351764848811
 30
0.0
 10
581.6886418993973
 20
42.37351764848811
 30
0.0
 10
581.8376082477495
 20
42.93630916500408
 30
0.0
 10
581.8376082477495
 20
42.93630916500408
 30
0.0
 10
581.8376082477495
 20
42.93630916500408
 30
0.0
 10
582.5556148882789
 20
42.93630916500408
 30
0.0
 10
582.5556148882789
 20
42.93630916500408
 30
0.0
 10
582.5556148882789
 20
42.93630916500408
 30
0.0
 10
582.8095829847954
 20
43.71615636752356
 30
0.0
 10
582.8095829847954
 20
43.71615636752356
 30
0.0
 10
583.0149445334899
 20
44.36997915518985
 30
0.0
 10
583.1891961062141
 20
44.72100412795849
 30
0.0
 10
583.3385641615731
 20
44.98566209426688
 30
0.0
 10
583.4863477059606
 20
45.25054323113452
 30
0.0
 10
583.7788350410173
 20
45.51073778625616
 30
0.0
 10
584.0822130993691
 20
45.59806442612169
 30
0.0
  0
SPLINE
  5
17306
102
{ACAD_REACTORS
330
172F9
330
1730A
102
}
330
A
100
AcDbEntity
  8
TEMPLATE
100
AcDbSpline
210
0.0
220
0.0
230
1.0
 70
    11
 71
     3
 72
    38
 73
    34
 74
     0
 42
0.000000001
 43
0.0000000001
 40
0.0
 40
0.0
 40
0.0
 40
0.0
 40
1.0
 40
1.0
 40
1.0
 40
2.0
 40
2.0
 40
2.0
 40
3.0
 40
3.0
 40
3.0
 40
4.0
 40
4.0
 40
4.0
 40
5.0
 40
5.0
 40
5.0
 40
6.0
 40
6.0
 40
6.0
 40
7.0
 40
7.0
 40
7.0
 40
8.0
 40
8.0
 40
8.0
 40
9.0
 40
9.0
 40
9.0
 40
10.0
 40
10.0
 40
10.0
 40
11.0
 40
11.0
 40
11.0
 40
11.0
 10
589.9393467460162
 20
42.91472857191693
 30
0.0
 10
589.9393467460162
 20
42.91472857191693
 30
0.0
 10
590.4939702200608
 20
42.91472857191693
 30
0.0
 10
590.4939702200608
 20
42.91472857191693
 30
0.0
 10
590.4939702200608
 20
42.91472857191693
 30
0.0
 10
590.2462062650937
 20
42.12146881878184
 30
0.0
 10
590.2462062650937
 20
42.12146881878184
 30
0.0
 10
590.4344729489438
 20
42.34414840288034
 30
0.0
 10
590.7316022316344
 20
42.6407197591727
 30
0.0
 10
590.9867754491712
 20
42.79026635097919
 30
0.0
 10
591.3679507645053
 20
43.01294593507769
 30
0.0
 10
591.5857652304104
 20
43.04231518068534
 30
0.0
 10
591.8253165087943
 20
43.03646811203098
 30
0.0
 10
591.8253165087943
 20
43.03646811203098
 30
0.0
 10
591.591210592058
 20
42.28639186212602
 30
0.0
 10
591.591210592058
 20
42.28639186212602
 30
0.0
 10
591.4387404659245
 20
42.35095510493986
 30
0.0
 10
590.968877170313
 20
42.22805507791734
 30
0.0
 10
590.6993317687555
 20
42.03416449597226
 30
0.0
 10
590.4562543955343
 20
41.85933267979383
 30
0.0
 10
590.2882069643596
 20
41.71056718494513
 30
0.0
 10
590.0890941913261
 20
41.33657796162161
 30
0.0
 10
589.8914989780961
 20
40.96203081189956
 30
0.0
 10
589.735547391237
 20
40.36480407807901
 30
0.0
 10
589.4671624765878
 20
39.49841133265191
 30
0.0
 10
589.4671624765878
 20
39.49841133265191
 30
0.0
 10
588.6289784898598
 20
36.81237511467916
 30
0.0
 10
588.6289784898598
 20
36.81237511467916
 30
0.0
 10
588.6289784898598
 20
36.81237511467916
 30
0.0
 10
588.0906911007581
 20
36.81237511467916
 30
0.0
 10
588.0906911007581
 20
36.81237511467916
 30
0.0
 10
588.0906911007581
 20
36.81237511467916
 30
0.0
 10
589.9393467460162
 20
42.91472857191693
 30
0.0
 10
589.9393467460162
 20
42.91472857191693
 30
0.0
  0
SPLINE
  5
17307
102
{ACAD_REACTORS
330
172F9
330
1730A
102
}
330
A
100
AcDbEntity
  8
TEMPLATE
100
AcDbSpline
210
0.0
220
0.0
230
1.0
 70
    11
 71
     3
 72
   104
 73
   100
 74
     0
 42
0.000000001
 43
0.0000000001
 40
0.0
 40
0.0
 40
0.0
 40
0.0
 40
1.0
 40
1.0
 40
1.0
 40
2.0
 40
2.0
 40
2.0
 40
3.0
 40
3.0
 40
3.0
 40
4.0
 40
4.0
 40
4.0
 40
5.0
 40
5.0
 40
5.0
 40
6.0
 40
6.0
 40
6.0
 40
7.0
 40
7.0
 40
7.0
 40
8.0
 40
8.0
 40
8.0
 40
9.0
 40
9.0
 40
9.0
 40
10.0
 40
10.0
 40
10.0
 40
11.0
 40
11.0
 40
11.0
 40
12.0
 40
12.0
 40
12.0
 40
13.0
 40
13.0
 40
13.0
 40
14.0
 40
14.0
 40
14.0
 40
15.0
 40
15.0
 40
15.0
 40
16.0
 40
16.0
 40
16.0
 40
17.0
 40
17.0
 40
17.0
 40
18.0
 40
18.0
 40
18.0
 40
19.0
 40
19.0
 40
19.0
 40
20.0
 40
20.0
 40
20.0
 40
21.0
 40
21.0
 40
21.0
 40
22.0
 40
22.0
 40
22.0
 40
23.0
 40
23.0
 40
23.0
 40
24.0
 40
24.0
 40
24.0
 40
25.0
 40
25.0
 40
25.0
 40
26.0
 40
26.0
 40
26.0
 40
27.0
 40
27.0
 40
27.0
 40
28.0
 40
28.0
 40
28.0
 40
29.0
 40
29.0
 40
29.0
 40
30.0
 40
30.0
 40
30.0
 40
31.0
 40
31.0
 40
31.0
 40
32.0
 40
32.0
 40
32.0
 40
33.0
 40
33.0
 40
33.0
 40
33.0
 10
592.9921860953021
 20
42.91803149619498
 30
0.0
 10
592.9921860953021
 20
42.91803149619498
 30
0.0
 10
593.4764215749343
 20
42.91803149619498
 30
0.0
 10
593.4764215749343
 20
42.91803149619498
 30
0.0
 10
593.4764215749343
 20
42.91803149619498
 30
0.0
 10
593.2317820077977
 20
42.12401296315816
 30
0.0
 10
593.2317820077977
 20
42.12401296315816
 30
0.0
 10
593.4441064779436
 20
42.4569388035653
 30
0.0
 10
593.6346941356106
 20
42.6053249084632
 30
0.0
 10
593.8879034522253
 20
42.79707305303871
 30
0.0
 10
594.1418715487417
 20
42.98609851679041
 30
0.0
 10
594.4433303402833
 20
43.02461775533059
 30
0.0
 10
594.6525750567104
 20
43.02461775533059
 30
0.0
 10
594.9116314419795
 20
43.02461775533059
 30
0.0
 10
595.1617163707637
 20
42.97346706313235
 30
0.0
 10
595.2931638302083
 20
42.68952716049805
 30
0.0
 10
595.3939030206897
 20
42.46686989345537
 30
0.0
 10
595.3985896024354
 20
42.44060271862234
 30
0.0
 10
595.369800600282
 20
42.0010906190797
 30
0.0
 10
595.6330972261784
 20
42.451694295421
 30
0.0
 10
595.8275680515779
 20
42.64578573086951
 30
0.0
 10
596.1581729181679
 20
42.83226705024479
 30
0.0
 10
596.5051138697007
 20
43.02461775533059
 30
0.0
 10
596.7073510305648
 20
43.0390122564073
 30
0.0
 10
596.9423049954265
 20
43.00437618559952
 30
0.0
 10
597.2884425329456
 20
42.95324781045711
 30
0.0
 10
597.5093813866816
 20
42.82974522292441
 30
0.0
 10
597.6248944681903
 20
42.45441697624481
 30
0.0
 10
597.7408092567058
 20
42.0802492164738
 30
0.0
 10
597.678187597758
 20
41.87955193246919
 30
0.0
 10
597.5350460010044
 20
41.28388739256386
 30
0.0
 10
597.4697016612328
 20
41.01260126064356
 30
0.0
 10
597.3751666123011
 20
40.68411651436711
 30
0.0
 10
597.251485488321
 20
40.29325559675826
 30
0.0
 10
597.251485488321
 20
40.29325559675826
 30
0.0
 10
596.1581729181679
 20
36.81237511467916
 30
0.0
 10
596.1581729181679
 20
36.81237511467916
 30
0.0
 10
596.1581729181679
 20
36.81237511467916
 30
0.0
 10
595.5895343329975
 20
36.81237511467916
 30
0.0
 10
595.5895343329975
 20
36.81237511467916
 30
0.0
 10
595.5895343329975
 20
36.81237511467916
 30
0.0
 10
596.5467574960716
 20
39.85548422757834
 30
0.0
 10
596.5467574960716
 20
39.85548422757834
 30
0.0
 10
596.7466736831187
 20
40.49218983334411
 30
0.0
 10
596.8820043102957
 20
40.95716569370618
 30
0.0
 10
596.952035231813
 20
41.24869339535778
 30
0.0
 10
597.0399197980768
 20
41.61234982178448
 30
0.0
 10
597.0749129417799
 20
41.73234863153571
 30
0.0
 10
597.0333139495209
 20
41.99702891489992
 30
0.0
 10
596.9951964179876
 20
42.24340921239921
 30
0.0
 10
596.8707118799938
 20
42.40384652750092
 30
0.0
 10
596.6575839958344
 20
42.40384652750092
 30
0.0
 10
596.4304410005492
 20
42.40384652750092
 30
0.0
 10
596.2464591914385
 20
42.37856130312887
 30
0.0
 10
595.9890096341963
 20
42.11992894192245
 30
0.0
 10
595.7315154428426
 20
41.85933267979383
 30
0.0
 10
595.5187446315782
 20
41.55343279412157
 30
0.0
 10
595.3519023214238
 20
41.20162672439526
 30
0.0
 10
595.1854170841642
 20
40.8476782172995
 30
0.0
 10
595.0166108730879
 20
40.39903844188016
 30
0.0
 10
594.8454836881943
 20
39.85548422757834
 30
0.0
 10
594.8454836881943
 20
39.85548422757834
 30
0.0
 10
593.8879034522253
 20
36.81237511467916
 30
0.0
 10
593.8879034522253
 20
36.81237511467916
 30
0.0
 10
593.8879034522253
 20
36.81237511467916
 30
0.0
 10
593.3530975238492
 20
36.81237511467916
 30
0.0
 10
593.3530975238492
 20
36.81237511467916
 30
0.0
 10
593.3530975238492
 20
36.81237511467916
 30
0.0
 10
594.4479722879174
 20
40.29169340284293
 30
0.0
 10
594.4479722879174
 20
40.29169340284293
 30
0.0
 10
594.5634853694261
 20
40.66197799488166
 30
0.0
 10
594.6502540828932
 20
40.96379385931832
 30
0.0
 10
594.7074303801934
 20
41.19968514052912
 30
0.0
 10
594.804643475837
 20
41.60574397322828
 30
0.0
 10
594.8318702840753
 20
41.88033302942674
 30
0.0
 10
594.7583579018323
 20
42.12401296315816
 30
0.0
 10
594.6860060064979
 20
42.36691179993202
 30
0.0
 10
594.5588434217922
 20
42.42895321542549
 30
0.0
 10
594.3464743175347
 20
42.42895321542549
 30
0.0
 10
594.1683395770782
 20
42.42895321542549
 30
0.0
 10
593.9944897113609
 20
42.3525172988552
 30
0.0
 10
593.7961357182293
 20
42.20042656267251
 30
0.0
 10
593.5464078623398
 20
42.00908012510374
 30
0.0
 10
593.4464720858722
 20
41.85194573428019
 30
0.0
 10
593.3239514488008
 20
41.66524124434543
 30
0.0
 10
593.1586266984499
 20
41.41825838633597
 30
0.0
 10
593.0812311484743
 20
41.25199631963583
 30
0.0
 10
592.941615646558
 20
40.88715708924472
 30
0.0
 10
592.8019555105301
 20
40.52017542148403
 30
0.0
 10
592.6697492711836
 20
40.09311623915196
 30
0.0
 10
592.5775351960687
 20
39.7977276868239
 30
0.0
 10
592.5775351960687
 20
39.7977276868239
 30
0.0
 10
591.6382549459648
 20
36.81237511467916
 30
0.0
 10
591.6382549459648
 20
36.81237511467916
 30
0.0
 10
591.6382549459648
 20
36.81237511467916
 30
0.0
 10
591.0781861102724
 20
36.81237511467916
 30
0.0
 10
591.0781861102724
 20
36.81237511467916
 30
0.0
 10
591.0781861102724
 20
36.81237511467916
 30
0.0
 10
592.9921860953021
 20
42.91803149619498
 30
0.0
 10
592.9921860953021
 20
42.91803149619498
 30
0.0
  0
SPLINE
  5
17308
102
{ACAD_REACTORS
330
172F9
330
1730A
102
}
330
A
100
AcDbEntity
  8
TEMPLATE
100
AcDbSpline
210
0.0
220
0.0
230
1.0
 70
    11
 71
     3
 72
    32
 73
    28
 74
     0
 42
0.000000001
 43
0.0000000001
 40
0.0
 40
0.0
 40
0.0
 40
0.0
 40
1.0
 40
1.0
 40
1.0
 40
2.0
 40
2.0
 40
2.0
 40
3.0
 40
3.0
 40
3.0
 40
4.0
 40
4.0
 40
4.0
 40
5.0
 40
5.0
 40
5.0
 40
6.0
 40
6.0
 40
6.0
 40
7.0
 40
7.0
 40
7.0
 40
8.0
 40
8.0
 40
8.0
 40
9.0
 40
9.0
 40
9.0
 40
9.0
 10
585.394880012287
 20
42.5961972325865
 30
0.0
 10
585.0701222143513
 20
42.17612328876155
 30
0.0
 10
584.8200372855671
 20
41.79807236125814
 30
0.0
 10
584.4151612568324
 20
40.60984535222244
 30
0.0
 10
584.0429350809274
 20
39.52296009417805
 30
0.0
 10
583.8060618492556
 20
38.73222216836346
 30
0.0
 10
583.7702876085951
 20
37.76919657074652
 30
0.0
 10
583.7430608003568
 20
37.0525512706291
 30
0.0
 10
584.1794485120689
 20
36.81237511467916
 30
0.0
 10
584.8192785056652
 20
36.81237511467916
 30
0.0
 10
585.0950280487724
 20
36.81237511467916
 30
0.0
 10
585.7908738527602
 20
36.82991632064248
 30
0.0
 10
586.2864017626947
 20
37.44247487188884
 30
0.0
 10
586.6332980801157
 20
37.87283697849896
 30
0.0
 10
586.9530122234106
 20
38.3189549265978
 30
0.0
 10
587.3816335996579
 20
39.78237355234214
 30
0.0
 10
587.7383047875777
 20
41.00579455858404
 30
0.0
 10
587.985265328531
 20
41.79651016734281
 30
0.0
 10
587.9670099767781
 20
42.24671213667737
 30
0.0
 10
587.9670099767781
 20
42.24671213667737
 30
0.0
 10
587.9670099767781
 20
42.24671213667737
 30
0.0
 10
587.9670099767781
 20
42.24671213667737
 30
0.0
 10
587.8506934812557
 20
42.9977703370432
 30
0.0
 10
587.305398536591
 20
43.1564669217822
 30
0.0
 10
586.9938524357677
 20
43.1564669217822
 30
0.0
 10
586.6869929166902
 20
43.1564669217822
 30
0.0
 10
585.8647433078983
 20
43.20955919784658
 30
0.0
 10
585.394880012287
 20
42.5961972325865
 30
0.0
  0
SPLINE
  5
17309
102
{ACAD_REACTORS
330
172F9
330
1730A
102
}
330
A
100
AcDbEntity
  8
TEMPLATE
100
AcDbSpline
210
0.0
220
0.0
230
1.0
 70
    11
 71
     3
 72
    29
 73
    25
 74
     0
 42
0.000000001
 43
0.0000000001
 40
0.0
 40
0.0
 40
0.0
 40
0.0
 40
1.0
 40
1.0
 40
1.0
 40
2.0
 40
2.0
 40
2.0
 40
3.0
 40
3.0
 40
3.0
 40
4.0
 40
4.0
 40
4.0
 40
5.0
 40
5.0
 40
5.0
 40
6.0
 40
6.0
 40
6.0
 40
7.0
 40
7.0
 40
7.0
 40
8.0
 40
8.0
 40
8.0
 40
8.0
 10
584.3513791109762
 20
37.94925057801331
 30
0.0
 10
584.3490135030473
 20
38.37439049353518
 30
0.0
 10
584.4832282774277
 20
39.12973356864027
 30
0.0
 10
584.82704484113
 20
40.1403837636178
 30
0.0
 10
585.2953459428262
 20
41.50888795047954
 30
0.0
 10
585.5761837746858
 20
42.00908012510374
 30
0.0
 10
585.821939194619
 20
42.25255920533161
 30
0.0
 10
586.1809759904676
 20
42.60708795588196
 30
0.0
 10
586.6636492761844
 20
42.62476306418078
 30
0.0
 10
586.8060320930364
 20
42.60708795588196
 30
0.0
 10
587.0086709609071
 20
42.58276236491495
 30
0.0
 10
587.2949095203024
 20
42.45013210150578
 30
0.0
 10
587.3120043851471
 20
42.00363476345613
 30
0.0
 10
587.325662423378
 20
41.621499814717
 30
0.0
 10
587.2155500694051
 20
40.90583646506057
 30
0.0
 10
586.8301345134438
 20
39.78237355234214
 30
0.0
 10
586.3859358321553
 20
38.47687041437903
 30
0.0
 10
586.1191131114214
 20
37.96366739614584
 30
0.0
 10
585.9052264473606
 20
37.74000586158636
 30
0.0
 10
585.5022696854361
 20
37.32071301471897
 30
0.0
 10
585.0701222143513
 20
37.36097298362186
 30
0.0
 10
585.006340068495
 20
37.36097298362186
 30
0.0
 10
584.923499156872
 20
37.36097298362186
 30
0.0
 10
584.3525395978846
 20
37.45086608491963
 30
0.0
 10
584.3513791109762
 20
37.94925057801331
 30
0.0
  0
MTEXT
  5
17353
330
A
100
AcDbEntity
  8
TEMPLATE
390
1D
100
AcDbMText
 10
39.66064336431923
 20
69.04478720817849
 30
0.0
 40
7.329785156250001
 41
0.0
 46
7.439731933593751
 71
     1
 72
     1
  1
{クローム}
  7
ＭＳ ゴシック
 73
     1
 44
0.7828267384257843
1001
ACAD
1000
ACAD_MTEXT_DEFINED_HEIGHT_BEGIN
1070
    46
1040
7.439731933593751
1000
ACAD_MTEXT_DEFINED_HEIGHT_END
  0
MTEXT
  5
17687
330
A
100
AcDbEntity
  8
DIM
100
AcDbMText
 10
93.50946725351073
 20
567.5796049461632
 30
0.0
 40
8.0
 41
0.0
 46
0.0
 71
     7
 72
     1
  1
MIN.3
  7
ＭＳ ゴシック
 11
-6.123234530114913E-17
 21
1.0
 31
0.0
 73
     1
 44
1.0
  0
MTEXT
  5
17688
330
A
100
AcDbEntity
  8
DIM
100
AcDbMText
 10
106.1552408385599
 20
564.701697607852
 30
0.0
 40
8.0
 41
0.0
 46
0.0
 71
     7
 72
     1
  1
MAX.64
  7
ＭＳ ゴシック
 11
-6.123234530114913E-17
 21
1.0
 31
0.0
 73
     1
 44
1.0
  0
LINE
  5
176D7
102
{ACAD_REACTORS
330
177D4
330
1782E
102
}
330
A
100
AcDbEntity
  8
MODEL
100
AcDbLine
 10
143.1109554989698
 20
466.4897186508765
 30
0.0
 11
205.1109554989698
 21
466.4897186508765
 31
0.0
  0
LINE
  5
176D8
330
A
100
AcDbEntity
  8
MODEL
100
AcDbLine
 10
205.1109554989698
 20
466.4897186508765
 30
0.0
 11
205.1109554989698
 21
519.0029261924669
 31
0.0
  0
LINE
  5
176D9
102
{ACAD_REACTORS
330
177D4
102
}
330
A
100
AcDbEntity
  8
MODEL
100
AcDbLine
 10
205.1109554989698
 20
566.4897186508764
 30
0.0
 11
143.1109554989698
 21
566.4897186508763
 31
0.0
  0
LINE
  5
176DA
330
A
100
AcDbEntity
  8
MODEL
100
AcDbLine
 10
143.1109554989698
 20
566.4897186508763
 30
0.0
 11
143.1109554989698
 21
466.4897186508765
 31
0.0
  0
SPLINE
  5
176DC
102
{ACAD_REACTORS
102
}
330
A
100
AcDbEntity
  8
MODEL
100
AcDbSpline
210
0.0
220
0.0
230
1.0
 70
     8
 71
     3
 72
    11
 73
     7
 74
     0
 42
0.000000001
 43
0.0000000001
 40
1.021680142764368
 40
1.021680142764368
 40
1.021680142764368
 40
1.021680142764368
 40
2.0
 40
2.0
 40
2.0
 40
2.490219087086089
 40
2.490219087086089
 40
2.490219087086089
 40
2.490219087086089
 10
174.1109554989698
 20
608.1929200885387
 30
0.0
 10
159.7941899635732
 20
608.0296925125259
 30
0.0
 10
151.6273969810795
 20
604.1998343217018
 30
0.0
 10
142.3609554984366
 20
598.1657999359037
 30
0.0
 10
142.3609554984366
 20
598.1657999359037
 30
0.0
 10
158.0821874976195
 20
598.1435952385485
 30
0.0
 10
174.1109554989694
 20
598.1209561767711
 30
0.0
  0
POLYLINE
  5
176DD
330
A
100
AcDbEntity
  8
MODEL
100
AcDb2dPolyline
 66
     1
 10
0.0
 20
0.0
 30
0.0
  0
VERTEX
  5
176EA
330
176DD
100
AcDbEntity
  8
MODEL
100
AcDbVertex
100
AcDb2dVertex
 10
174.1109554989698
 20
598.0096785109139
 30
0.0
  0
VERTEX
  5
176EB
330
176DD
100
AcDbEntity
  8
MODEL
100
AcDbVertex
100
AcDb2dVertex
 10
155.7090187199349
 20
598.0096785109139
 30
0.0
  0
VERTEX
  5
176EC
330
176DD
100
AcDbEntity
  8
MODEL
100
AcDbVertex
100
AcDb2dVertex
 10
155.7090187199349
 20
593.9339534732138
 30
0.0
  0
VERTEX
  5
176ED
330
176DD
100
AcDbEntity
  8
MODEL
100
AcDbVertex
100
AcDb2dVertex
 10
174.1109554989698
 20
593.9339534732138
 30
0.0
  0
SEQEND
  5
176EE
330
176DD
100
AcDbEntity
  8
MODEL
  0
SPLINE
  5
176E4
102
{ACAD_REACTORS
330
177E3
102
}
330
A
100
AcDbEntity
  8
MODEL
100
AcDbSpline
210
0.0
220
0.0
230
1.0
 70
     8
 71
     3
 72
    14
 73
    10
 74
     0
 42
0.000000001
 43
0.0000000001
 40
0.0
 40
0.0
 40
0.0
 40
0.0
 40
1.0
 40
1.0
 40
1.0
 40
2.0
 40
2.0
 40
2.0
 40
3.0
 40
3.0
 40
3.0
 40
3.0
 10
155.7090187199349
 20
593.8517507637292
 30
0.0
 10
155.7090187199349
 20
593.8517507637292
 30
0.0
 10
143.5251752676481
 20
593.8517507637292
 30
0.0
 10
143.5251752676481
 20
593.8517507637292
 30
0.0
 10
143.5251752676481
 20
593.8517507637292
 30
0.0
 10
153.0103483736784
 20
591.4474808188819
 30
0.0
 10
153.0103483736784
 20
584.0715400259835
 30
0.0
 10
153.0103483736784
 20
584.0715400259835
 30
0.0
 10
153.0103483736784
 20
566.4897186508764
 30
0.0
 10
153.0103483736784
 20
566.4897186508764
 30
0.0
  0
SPLINE
  5
176EF
330
A
100
AcDbEntity
  8
MODEL
100
AcDbSpline
210
0.0
220
0.0
230
1.0
 70
     8
 71
     3
 72
    14
 73
    10
 74
     0
 42
0.000000001
 43
0.0000000001
 40
0.0
 40
0.0
 40
0.0
 40
0.0
 40
1.0
 40
1.0
 40
1.0
 40
2.0
 40
2.0
 40
2.0
 40
3.0
 40
3.0
 40
3.0
 40
3.0
 10
192.5128922780045
 20
593.8517507637292
 30
0.0
 10
192.5128922780045
 20
593.8517507637292
 30
0.0
 10
204.6967357302913
 20
593.8517507637292
 30
0.0
 10
204.6967357302913
 20
593.8517507637292
 30
0.0
 10
204.6967357302913
 20
593.8517507637292
 30
0.0
 10
195.211562624261
 20
591.4474808188819
 30
0.0
 10
195.211562624261
 20
584.0715400259835
 30
0.0
 10
195.211562624261
 20
584.0715400259835
 30
0.0
 10
195.211562624261
 20
566.4897186508764
 30
0.0
 10
195.211562624261
 20
566.4897186508764
 30
0.0
  0
POLYLINE
  5
176F0
330
A
100
AcDbEntity
  8
MODEL
100
AcDb2dPolyline
 66
     1
 10
0.0
 20
0.0
 30
0.0
  0
VERTEX
  5
176F1
330
176F0
100
AcDbEntity
  8
MODEL
100
AcDbVertex
100
AcDb2dVertex
 10
174.1109554989698
 20
598.0096785109139
 30
0.0
  0
VERTEX
  5
176F2
330
176F0
100
AcDbEntity
  8
MODEL
100
AcDbVertex
100
AcDb2dVertex
 10
192.5128922780045
 20
598.0096785109139
 30
0.0
  0
VERTEX
  5
176F3
330
176F0
100
AcDbEntity
  8
MODEL
100
AcDbVertex
100
AcDb2dVertex
 10
192.5128922780045
 20
593.9339534732138
 30
0.0
  0
VERTEX
  5
176F4
330
176F0
100
AcDbEntity
  8
MODEL
100
AcDbVertex
100
AcDb2dVertex
 10
174.1109554989698
 20
593.9339534732138
 30
0.0
  0
SEQEND
  5
176F5
330
176F0
100
AcDbEntity
  8
MODEL
  0
SPLINE
  5
176F6
102
{ACAD_REACTORS
102
}
330
A
100
AcDbEntity
  8
MODEL
100
AcDbSpline
210
0.0
220
0.0
230
1.0
 70
     8
 71
     3
 72
    11
 73
     7
 74
     0
 42
0.000000001
 43
0.0000000001
 40
1.021680142764368
 40
1.021680142764368
 40
1.021680142764368
 40
1.021680142764368
 40
2.0
 40
2.0
 40
2.0
 40
2.490219087086089
 40
2.490219087086089
 40
2.490219087086089
 40
2.490219087086089
 10
174.1109554989698
 20
608.1929200885387
 30
0.0
 10
188.4277210343662
 20
608.0296925125259
 30
0.0
 10
196.5945140168599
 20
604.1998343217018
 30
0.0
 10
205.8609554995028
 20
598.1657999359037
 30
0.0
 10
205.8609554995028
 20
598.1657999359037
 30
0.0
 10
190.1397235003199
 20
598.1435952385485
 30
0.0
 10
174.11095549897
 20
598.1209561767711
 30
0.0
  0
DIMENSION
  5
176F7
330
A
100
AcDbEntity
  8
DIM
100
AcDbDimension
  2
*D14
 10
205.8609554989696
 20
652.6118606965231
 30
0.0
 11
174.1109554989696
 21
662.6118606965231
 31
0.0
 70
    32
 71
     5
 42
63.5
 73
     0
 74
     0
 75
     0
  3
tfrom線あり
100
AcDbAlignedDimension
 13
142.3609554989696
 23
598.924149183778
 33
0.0
 14
205.8609554989696
 24
598.924149183778
 34
0.0
100
AcDbRotatedDimension
1001
ACAD
1000
DSTYLE
1002
{
1070
     3
1000
%%c<>
1070
   271
1070
     8
1070
   144
1040
1.0
1002
}
  0
ARC
  5
17717
330
A
100
AcDbEntity
  8
MODEL
100
AcDbCircle
 10
216.3177356884614
 20
535.0029261924668
 30
0.0
 40
19.53437795824529
100
AcDbArc
 50
125.0083120990697
 51
234.9916879009304
  0
LINE
  5
17718
330
A
100
AcDbEntity
  8
MODEL
100
AcDbLine
 10
205.1109554989698
 20
551.0029261924667
 30
0.0
 11
205.1109554989698
 21
566.4897186508764
 31
0.0
  0
LINE
  5
17734
102
{ACAD_REACTORS
330
17808
102
}
330
A
100
AcDbEntity
  8
MODEL
100
AcDbLine
 10
205.1109554989698
 20
551.0029261924667
 30
0.0
 11
375.1109554989694
 21
551.0029261924668
 31
0.0
  0
LINE
  5
17735
102
{ACAD_REACTORS
330
17808
102
}
330
A
100
AcDbEntity
  8
MODEL
100
AcDbLine
 10
205.1109554989698
 20
519.0029261924669
 30
0.0
 11
343.1109554989696
 21
519.0029261924669
 31
0.0
  0
LINE
  5
17736
330
A
100
AcDbEntity
  8
MODEL
100
AcDbLine
 10
348.1109554989696
 20
514.0029261924669
 30
0.0
 11
348.11095549897
 21
334.0029261924666
 31
0.0
  0
LINE
  5
17737
330
A
100
AcDbEntity
  8
MODEL
100
AcDbLine
 10
380.1109554989694
 20
546.0029261924668
 30
0.0
 11
380.1109554989698
 21
366.0029261924665
 31
0.0
  0
LINE
  5
1774A
330
A
100
AcDbEntity
  8
MODEL
100
AcDbLine
 10
353.11095549897
 20
329.0029261924666
 30
0.0
 11
398.1109554989698
 21
329.0029261924665
 31
0.0
  0
LINE
  5
1774B
330
A
100
AcDbEntity
  8
MODEL
100
AcDbLine
 10
385.1109554989696
 20
361.0029261924665
 30
0.0
 11
398.11095549897
 21
361.0029261924665
 31
0.0
  0
LINE
  5
1774D
102
{ACAD_REACTORS
330
17751
102
}
330
A
100
AcDbEntity
  8
MODEL
100
AcDbLine
 10
398.1109554989698
 20
309.0029261924669
 30
0.0
 11
414.1109554989698
 21
309.0029261924669
 31
0.0
  0
LINE
  5
1774E
102
{ACAD_REACTORS
330
17751
330
17872
102
}
330
A
100
AcDbEntity
  8
MODEL
100
AcDbLine
 10
414.1109554989698
 20
309.0029261924669
 30
0.0
 11
414.11095549897
 21
381.0029261924669
 31
0.0
  0
LINE
  5
1774F
102
{ACAD_REACTORS
330
17751
330
17872
102
}
330
A
100
AcDbEntity
  8
MODEL
100
AcDbLine
 10
414.11095549897
 20
381.0029261924669
 30
0.0
 11
398.11095549897
 21
381.002926192467
 31
0.0
  0
LINE
  5
17750
102
{ACAD_REACTORS
330
17751
102
}
330
A
100
AcDbEntity
  8
MODEL
100
AcDbLine
 10
398.11095549897
 20
381.002926192467
 30
0.0
 11
398.1109554989698
 21
309.0029261924669
 31
0.0
  0
LINE
  5
17752
330
A
100
AcDbEntity
  8
MODEL
100
AcDbLine
 10
434.1109554989691
 20
361.0029261924666
 30
0.0
 11
434.1109554989691
 21
329.0029261924666
 31
0.0
  0
LINE
  5
17762
102
{ACAD_REACTORS
102
}
330
A
100
AcDbEntity
  8
MODEL
100
AcDbLine
 10
434.1109554989691
 20
361.0029261924664
 30
0.0
 11
434.1109554989691
 21
329.0029261924664
 31
0.0
  0
ARC
  5
17782
330
A
100
AcDbEntity
  8
MODEL
100
AcDbCircle
 10
343.1109554989696
 20
514.0029261924669
 30
0.0
 40
5.0
100
AcDbArc
 50
0.0
 51
90.0
  0
ARC
  5
17783
330
A
100
AcDbEntity
  8
MODEL
100
AcDbCircle
 10
375.1109554989694
 20
546.0029261924668
 30
0.0
 40
5.0
100
AcDbArc
 50
0.0
 51
90.0
  0
LINE
  5
17784
330
A
100
AcDbEntity
  8
MODEL
100
AcDbLine
 10
343.1109554989696
 20
519.0029261924669
 30
0.0
 11
343.1109554989696
 21
551.0029261924668
 31
0.0
  0
LINE
  5
17785
330
A
100
AcDbEntity
  8
MODEL
100
AcDbLine
 10
348.1109554989696
 20
514.0029261924669
 30
0.0
 11
380.1109554989694
 21
514.0029261924669
 31
0.0
  0
LINE
  5
17787
330
A
100
AcDbEntity
  8
MODEL
100
AcDbLine
 10
320.1109554989696
 20
519.0029261924669
 30
0.0
 11
320.1109554989696
 21
551.0029261924668
 31
0.0
  0
LINE
  5
1778B
330
A
100
AcDbEntity
  8
MODEL
100
AcDbLine
 10
380.1109554989694
 20
491.002926192467
 30
0.0
 11
348.1109554989696
 21
491.0029261924669
 31
0.0
  0
ARC
  5
1778D
330
A
100
AcDbEntity
  8
MODEL
100
AcDbCircle
 10
385.1109554989696
 20
366.0029261924665
 30
0.0
 40
5.0
100
AcDbArc
 50
180.0
 51
270.0
  0
ARC
  5
1778E
330
A
100
AcDbEntity
  8
MODEL
100
AcDbCircle
 10
353.11095549897
 20
334.0029261924666
 30
0.0
 40
5.0
100
AcDbArc
 50
180.0
 51
270.0
  0
LINE
  5
1778F
102
{ACAD_REACTORS
330
17860
102
}
330
A
100
AcDbEntity
  8
MODEL
100
AcDbLine
 10
414.11095549897
 20
361.0029261924665
 30
0.0
 11
434.1109554989691
 21
361.0029261924664
 31
0.0
  0
LINE
  5
17790
102
{ACAD_REACTORS
330
17860
102
}
330
A
100
AcDbEntity
  8
MODEL
100
AcDbLine
 10
414.1109554989698
 20
329.0029261924665
 30
0.0
 11
434.1109554989691
 21
329.0029261924664
 31
0.0
  0
LINE
  5
17791
102
{ACAD_REACTORS
102
}
330
A
100
AcDbEntity
  8
MODEL
100
AcDbLine
 10
380.1109554989696
 20
366.0029261924665
 30
0.0
 11
348.11095549897
 21
366.0029261924665
 31
0.0
  0
LINE
  5
17793
330
A
100
AcDbEntity
  8
MODEL
100
AcDbLine
 10
380.1109554989696
 20
389.0029261924665
 30
0.0
 11
348.11095549897
 21
389.0029261924665
 31
0.0
  0
DIMENSION
  5
177BF
102
{ACAD_XDICTIONARY
360
177C0
102
}
330
A
100
AcDbEntity
  8
DIM
100
AcDbDimension
  2
*D25
 10
195.2115626242605
 20
627.7195847573133
 30
0.0
 11
174.1109554989694
 21
627.7195847573133
 31
0.0
 70
   160
  1
G1 1/4"
 71
     5
 42
42.20121425058255
 73
     0
 74
     0
 75
     0
  3
tfrom線あり
100
AcDbAlignedDimension
 13
153.010348373678
 23
607.4019716888633
 33
0.0
 14
195.2115626242605
 24
607.4019716888633
 34
0.0
100
AcDbRotatedDimension
1001
ACAD
1000
DSTYLE
1002
{
1070
   144
1040
1.0
1002
}
  0
DIMENSION
  5
177D2
102
{ACAD_REACTORS
330
177D4
102
}
102
{ACAD_XDICTIONARY
360
177D3
102
}
330
A
100
AcDbEntity
  8
DIM
100
AcDbDimension
  2
*D26
 10
113.1218848783783
 20
566.4897186508763
 30
0.0
 11
103.1218848783783
 21
516.4897186508764
 31
0.0
 70
    32
 71
     5
 42
99.99999999999983
 73
     0
 74
     0
 75
     0
  3
tfrom線あり
100
AcDbAlignedDimension
 13
143.1109554989698
 23
466.4897186508765
 33
0.0
 14
143.1109554989698
 24
566.4897186508763
 34
0.0
 50
90.0
100
AcDbRotatedDimension
1001
ACAD
1000
DSTYLE
1002
{
1070
   144
1040
1.0
1002
}
  0
DIMENSION
  5
177E1
102
{ACAD_REACTORS
330
177E3
102
}
102
{ACAD_XDICTIONARY
360
177E2
102
}
330
A
100
AcDbEntity
  8
DIM
100
AcDbDimension
  2
*D27
 10
113.1218848783783
 20
593.8517507637292
 30
0.0
 11
103.1218848783783
 21
580.1707347073027
 31
0.0
 70
    32
  1
 
 71
     5
 42
27.36203211285294
 73
     0
 74
     0
 75
     0
  3
tfrom線あり
100
AcDbAlignedDimension
 13
133.1109554989698
 23
566.4897186508763
 33
0.0
 14
143.5251752676481
 24
593.8517507637292
 34
0.0
 50
90.0
100
AcDbRotatedDimension
1001
ACAD
1000
DSTYLE
1002
{
1070
   144
1040
1.0
1002
}
  0
DIMENSION
  5
177F4
102
{ACAD_XDICTIONARY
360
177F5
102
}
330
A
100
AcDbEntity
  8
DIM
100
AcDbDimension
  2
*D28
 10
434.1109554989698
 20
690.2949779277334
 30
0.0
 11
304.1109554989698
 21
690.2949779277334
 31
0.0
 70
   160
  1
MAX. 380
 71
     5
 42
260.0000000000002
 73
     0
 74
     0
 75
     0
  3
tfrom線あり
100
AcDbAlignedDimension
 13
174.1109554989696
 23
665.8712406357329
 33
0.0
 14
434.1109554989698
 24
391.8086968788938
 34
0.0
100
AcDbRotatedDimension
1001
ACAD
1000
DSTYLE
1002
{
1070
   144
1040
1.0
1002
}
  0
DIMENSION
  5
17806
102
{ACAD_REACTORS
330
17808
102
}
102
{ACAD_XDICTIONARY
360
17807
102
}
330
A
100
AcDbEntity
  8
DIM
100
AcDbDimension
  2
*D29
 10
244.3013504102933
 20
519.0029261924669
 30
0.0
 11
244.3013504102933
 21
573.0202227147602
 31
0.0
 70
   160
 71
     5
 42
31.99999999999989
 73
     0
 74
     1
 75
     1
  3
tfrom線あり
100
AcDbAlignedDimension
 13
249.6051023859773
 23
551.0029261924668
 33
0.0
 14
249.6051023859773
 24
519.0029261924669
 34
0.0
 50
90.0
100
AcDbRotatedDimension
1001
ACAD
1000
DSTYLE
1002
{
1070
   172
1070
     1
1070
     3
1000
%%c<>
1070
   144
1040
1.0
1002
}
  0
DIMENSION
  5
1781B
102
{ACAD_XDICTIONARY
360
1781C
102
}
330
A
100
AcDbEntity
  8
DIM
100
AcDbDimension
  2
*D30
 10
348.1109554989698
 20
440.2396713221651
 30
0.0
 11
402.1282520212631
 21
440.2396713221651
 31
0.0
 70
   160
 71
     5
 42
32.0
 73
     0
 74
     1
 75
     1
  3
tfrom線あり
100
AcDbAlignedDimension
 13
380.1109554989698
 23
434.9359193464811
 33
0.0
 14
348.1109554989698
 24
434.9359193464811
 34
0.0
 50
-0.000000000000014
100
AcDbRotatedDimension
1001
ACAD
1000
DSTYLE
1002
{
1070
   172
1070
     1
1070
     3
1000
%%c<>
1070
   144
1040
1.0
1002
}
  0
DIMENSION
  5
1782C
102
{ACAD_REACTORS
330
1782E
102
}
102
{ACAD_XDICTIONARY
360
1782D
102
}
330
A
100
AcDbEntity
  8
DIM
100
AcDbDimension
  2
*D31
 10
205.1109554989698
 20
434.085602557997
 30
0.0
 11
174.1109554989698
 21
444.085602557997
 31
0.0
 70
    32
 71
     5
 42
62.0
 73
     0
 74
     0
 75
     0
  3
tfrom線あり
100
AcDbAlignedDimension
 13
143.1109554989698
 23
466.4897186508765
 33
0.0
 14
205.1109554989698
 24
466.4897186508765
 34
0.0
100
AcDbRotatedDimension
1001
ACAD
1000
DSTYLE
1002
{
1070
     3
1000
%%c<>
1070
   144
1040
1.0
1002
}
  0
DIMENSION
  5
1784D
102
{ACAD_REACTORS
102
}
330
A
100
AcDbEntity
  8
DIM
100
AcDbDimension
  2
*D33
 10
414.1109554989698
 20
276.8456213183616
 30
0.0
 11
389.1109554989698
 21
286.8456213183616
 31
0.0
 70
    32
  1
MIN. 50
 71
     5
 42
50.0
 73
     0
 74
     0
 75
     0
  3
tfrom線あり
100
AcDbAlignedDimension
 13
364.1109554989698
 23
366.0029261924665
 33
0.0
 14
414.1109554989698
 24
309.0029261924669
 34
0.0
100
AcDbRotatedDimension
1001
ACAD
1000
DSTYLE
1002
{
1070
   144
1040
1.0
1002
}
  0
LINE
  5
1785D
330
A
100
AcDbEntity
  8
MODEL
100
AcDbLine
 10
385.1109554989696
 20
361.0029261924665
 30
0.0
 11
385.1109554989696
 21
329.0029261924665
 31
0.0
  0
DIMENSION
  5
1785E
102
{ACAD_REACTORS
330
17860
102
}
102
{ACAD_XDICTIONARY
360
1785F
102
}
330
A
100
AcDbEntity
  8
DIM
100
AcDbDimension
  2
*D34
 10
469.2353103330647
 20
329.0029261924664
 30
0.0
 11
459.2353103330647
 21
345.0029261924664
 31
0.0
 70
    32
 71
     5
 42
32.0
 73
     0
 74
     0
 75
     0
  3
tfrom線あり
100
AcDbAlignedDimension
 13
434.1109554989691
 23
361.0029261924664
 33
0.0
 14
434.1109554989691
 24
329.0029261924664
 34
0.0
 50
90.0
100
AcDbRotatedDimension
1001
ACAD
1000
DSTYLE
1002
{
1070
     3
1000
%%c<>
1070
   144
1040
1.0
1002
}
  0
DIMENSION
  5
17870
102
{ACAD_REACTORS
330
17872
102
}
102
{ACAD_XDICTIONARY
360
17871
102
}
330
A
100
AcDbEntity
  8
DIM
100
AcDbDimension
  2
*D35
 10
495.9662202905115
 20
309.0029261924669
 30
0.0
 11
485.9662202905115
 21
345.0029261924669
 31
0.0
 70
    32
 71
     5
 42
72.0
 73
     0
 74
     0
 75
     0
  3
tfrom線あり
100
AcDbAlignedDimension
 13
414.11095549897
 23
381.0029261924669
 33
0.0
 14
414.1109554989698
 24
309.0029261924669
 34
0.0
 50
90.0
100
AcDbRotatedDimension
1001
ACAD
1000
DSTYLE
1002
{
1070
     3
1000
%%c<>
1070
   144
1040
1.0
1002
}
  0
DIMENSION
  5
17882
102
{ACAD_XDICTIONARY
360
17883
102
}
330
A
100
AcDbEntity
  8
DIM
100
AcDbDimension
  2
*D36
 10
528.8581043189624
 20
535.0029261924669
 30
0.0
 11
518.8581043189624
 21
440.0029261924669
 31
0.0
 70
    32
  1
MIN.110 - MAX.360
 71
     5
 42
190.0
 73
     0
 74
     0
 75
     0
  3
tfrom線あり
100
AcDbAlignedDimension
 13
495.9662202905115
 23
345.0029261924669
 33
0.0
 14
351.8738866151316
 24
535.0029261924669
 34
0.0
 50
90.0
100
AcDbRotatedDimension
1001
ACAD
1000
DSTYLE
1002
{
1070
   144
1040
1.0
1002
}
  0
DIMENSION
  5
17891
102
{ACAD_XDICTIONARY
360
17892
102
}
330
A
100
AcDbEntity
  8
DIM
100
AcDbDimension
  2
*D37
 10
364.1109554989698
 20
276.8456213183616
 30
0.0
 11
269.1109554989698
 21
286.8456213183616
 31
0.0
 70
    32
  1
MIN.110 - MAX.320
 71
     5
 42
190.0
 73
     0
 74
     0
 75
     0
  3
tfrom線あり
100
AcDbAlignedDimension
 13
174.1109554989698
 23
434.085602557997
 33
0.0
 14
364.1109554989698
 24
329.0029261924666
 34
0.0
100
AcDbRotatedDimension
1001
ACAD
1000
DSTYLE
1002
{
1070
   144
1040
1.0
1002
}
  0
VIEWPORT
  5
349
330
B
100
AcDbEntity
 67
     1
  8
0
100
AcDbViewport
 10
202.5
 20
128.5
 30
0.0
 40
486.0
 41
308.4
 68
     1
 69
     1
 12
202.5
 22
128.5
 13
0.0
 23
0.0
 14
0.5
 24
0.5
 15
0.0
 25
0.0
 16
0.0
 26
0.0
 36
1.0
 17
0.0
 27
0.0
 37
0.0
 42
50.0
 43
0.0
 44
0.0
 45
308.4
 50
0.0
 51
0.0
 72
   100
 90
   557152
  1

281
     0
 71
     1
 74
     0
110
0.0
120
0.0
130
0.0
111
1.0
121
0.0
131
0.0
112
0.0
122
1.0
132
0.0
 79
     0
146
0.0
170
     0
 61
     5
348
26C
292
     1
282
     1
141
0.0
142
0.0
 63
   256
  0
VIEWPORT
  5
34A
330
B
100
AcDbEntity
 67
     1
  8
0
100
AcDbViewport
 10
202.5
 20
128.5
 30
0.0
 40
324.0
 41
205.6
 68
     2
 69
     2
 12
986.6781359294573
 22
1427.077061889956
 13
0.0
 23
0.0
 14
0.5
 24
0.5
 15
0.0
 25
0.0
 16
0.0
 26
0.0
 36
1.0
 17
0.0
 27
0.0
 37
0.0
 42
50.0
 43
0.0
 44
0.0
 45
2890.021615685494
 50
0.0
 51
0.0
 72
   100
 90
   557152
  1

281
     0
 71
     1
 74
     0
110
0.0
120
0.0
130
0.0
111
1.0
121
0.0
131
0.0
112
0.0
122
1.0
132
0.0
 79
     0
146
0.0
170
     0
 61
     5
348
26C
292
     1
282
     1
141
0.0
142
0.0
 63
   256
  0
ENDSEC
  0
SECTION
  2
OBJECTS
  0
DICTIONARY
  5
19
330
0
100
AcDbDictionary
281
     1
  3
ACAD_COLOR
350
674
  3
ACAD_DETAILVIEWSTYLE
350
BBF
  3
ACAD_FIELDLIST
350
36B0
  3
ACAD_GROUP
350
1A
  3
ACAD_IMAGE_VARS
350
27B
  3
ACAD_LAYOUT
350
1E
  3
ACAD_MATERIAL
350
263
  3
ACAD_MLEADERSTYLE
350
336
  3
ACAD_MLINESTYLE
350
1B
  3
ACAD_PLOTSETTINGS
350
22
  3
ACAD_PLOTSTYLENAME
350
1F
  3
ACAD_SCALELIST
350
241
  3
ACAD_SECTIONVIEWSTYLE
350
BC0
  3
ACAD_TABLESTYLE
350
278
  3
ACAD_VISUALSTYLE
350
267
  3
ACDB_RECOMPOSE_DATA
350
178B8
  3
AcDbVariableDictionary
350
330
  3
APPDATA
350
27A
  3
CENTERLINE
350
366B
  3
DimOffsetDictionary
350
E38
  0
SUN
  5
904
330
15
100
AcDbSun
 90
        1
290
     0
 63
     7
421
 16777215
 40
1.0
291
     1
 91
  2455826
 92
 54000000
292
     0
 70
     2
 71
   256
280
     1
  0
DICTIONARY
  5
2E1
330
2
100
AcDbDictionary
280
     1
281
     1
  3
ACAD_LAYERSTATES
360
2E2
  3
ACLYDICTIONARY
360
DDE
  0
DICTIONARY
  5
1733E
330
A
100
AcDbDictionary
280
     1
281
     1
  3
ACAD_SORTENTS
360
1733F
  0
DICTIONARY
  5
36AE
330
36AC
100
AcDbDictionary
280
     1
281
     1
  3
ACAD_FIELD
360
178A6
  0
DICTIONARY
  5
177C0
330
177BF
100
AcDbDictionary
280
     1
281
     1
  0
DICTIONARY
  5
177D3
330
177D2
100
AcDbDictionary
280
     1
281
     1
  3
ACAD_DIMASSOC
360
177D4
  0
DICTIONARY
  5
177E2
330
177E1
100
AcDbDictionary
280
     1
281
     1
  3
ACAD_DIMASSOC
360
177E3
  0
DICTIONARY
  5
177F5
330
177F4
100
AcDbDictionary
280
     1
281
     1
  0
DICTIONARY
  5
17807
330
17806
100
AcDbDictionary
280
     1
281
     1
  3
ACAD_DIMASSOC
360
17808
  0
DICTIONARY
  5
1781C
330
1781B
100
AcDbDictionary
280
     1
281
     1
  3
ACAD_DIMASSOC
360
1781D
  0
DICTIONARY
  5
1782D
330
1782C
100
AcDbDictionary
280
     1
281
     1
  3
ACAD_DIMASSOC
360
1782E
  0
DICTIONARY
  5
1785F
330
1785E
100
AcDbDictionary
280
     1
281
     1
  3
ACAD_DIMASSOC
360
17860
  0
DICTIONARY
  5
17871
330
17870
100
AcDbDictionary
280
     1
281
     1
  3
ACAD_DIMASSOC
360
17872
  0
DICTIONARY
  5
17883
330
17882
100
AcDbDictionary
280
     1
281
     1
  0
DICTIONARY
  5
17892
330
17891
100
AcDbDictionary
280
     1
281
     1
  0
DICTIONARY
  5
674
102
{ACAD_REACTORS
330
19
102
}
330
19
100
AcDbDictionary
281
     1
  0
DICTIONARY
  5
BBF
102
{ACAD_REACTORS
330
19
102
}
330
19
100
AcDbDictionary
281
     1
  0
FIELDLIST
  5
36B0
102
{ACAD_REACTORS
330
19
102
}
330
19
100
AcDbIdSet
 90
        2
330
36B1
330
36AD
100
AcDbFieldList
  0
DICTIONARY
  5
1A
102
{ACAD_REACTORS
330
19
102
}
330
19
100
AcDbDictionary
281
     1
  3
*A1
350
172B8
  3
*A2
350
1730A
  3
*A3
350
17751
  0
RASTERVARIABLES
  5
27B
102
{ACAD_REACTORS
330
19
102
}
330
19
100
AcDbRasterVariables
 90
        0
 70
     1
 71
     1
 72
     1
  0
DICTIONARY
  5
1E
102
{ACAD_REACTORS
330
19
102
}
330
19
100
AcDbDictionary
281
     1
  3
Layout1
350
21
  3
Model
350
20
  0
DICTIONARY
  5
263
102
{ACAD_REACTORS
330
19
102
}
330
19
100
AcDbDictionary
281
     1
  3
ByBlock
350
265
  3
ByLayer
350
264
  3
Global
350
266
  0
DICTIONARY
  5
336
102
{ACAD_REACTORS
330
19
102
}
330
19
100
AcDbDictionary
281
     1
  3
Standard
350
D59
  0
DICTIONARY
  5
1B
102
{ACAD_REACTORS
330
19
102
}
330
19
100
AcDbDictionary
281
     1
  3
Standard
350
1C
  0
DICTIONARY
  5
22
102
{ACAD_REACTORS
330
19
102
}
330
19
100
AcDbDictionary
281
     1
  0
ACDBDICTIONARYWDFLT
  5
1F
102
{ACAD_REACTORS
330
19
102
}
330
19
100
AcDbDictionary
281
     1
  3
Normal
350
1D
100
AcDbDictionaryWithDefault
340
1D
  0
DICTIONARY
  5
241
102
{ACAD_REACTORS
330
19
102
}
330
19
100
AcDbDictionary
281
     1
  3
A0
350
242
  3
A1
350
243
  3
A2
350
244
  3
A3
350
245
  3
A4
350
246
  3
A5
350
247
  3
A6
350
248
  3
A7
350
249
  3
A8
350
24A
  3
A9
350
24B
  3
B0
350
24C
  3
B1
350
24D
  3
B2
350
24E
  3
B3
350
24F
  3
B4
350
250
  3
B5
350
251
  3
B6
350
252
  3
B7
350
253
  3
B8
350
254
  3
B9
350
255
  3
C0
350
256
  3
C1
350
257
  3
C2
350
258
  3
C3
350
259
  3
C4
350
25A
  3
C5
350
25B
  3
C6
350
25C
  3
C7
350
25D
  3
C8
350
25E
  3
C9
350
25F
  3
D0
350
260
  3
D1
350
261
  3
D2
350
262
  0
DICTIONARY
  5
BC0
102
{ACAD_REACTORS
330
19
102
}
330
19
100
AcDbDictionary
281
     1
  0
DICTIONARY
  5
278
102
{ACAD_REACTORS
330
19
102
}
330
19
100
AcDbDictionary
281
     1
  3
Standard
350
279
  0
DICTIONARY
  5
267
102
{ACAD_REACTORS
330
19
102
}
330
19
100
AcDbDictionary
281
     1
  3
*A1
350
3666
  3
2dWireframe
350
26C
  3
3D Hidden
350
26E
  3
3dWireframe
350
26D
  3
Basic
350
26F
  3
Brighten
350
273
  3
ColorChange
350
277
  3
Conceptual
350
271
  3
Dim
350
272
  3
EdgeColorOff
350
8FE
  3
Facepattern
350
276
  3
Flat
350
268
  3
FlatWithEdges
350
269
  3
Gouraud
350
26A
  3
GouraudWithEdges
350
26B
  3
Hidden
350
8FB
  3
JitterOff
350
8FC
  3
Linepattern
350
275
  3
OverhangOff
350
8FD
  3
Realistic
350
270
  3
Shaded
350
903
  3
Shaded with edges
350
902
  3
Shades of Gray
350
8FF
  3
Sketchy
350
900
  3
Thicken
350
274
  3
Wireframe
350
8FA
  3
X-Ray
350
901
  0
XRECORD
  5
178B8
102
{ACAD_REACTORS
330
19
102
}
330
19
100
AcDbXrecord
280
     1
 90
        1
330
279
  0
DICTIONARY
  5
330
102
{ACAD_REACTORS
330
19
102
}
330
19
100
AcDbDictionary
281
     1
  3
CANNOSCALE
350
331
  3
CMLEADERSTYLE
350
D5E
  3
CTABLESTYLE
350
335
  3
HPTRANSPARENCY
350
D52
  3
XCLIPFRAME
350
896
  0
DICTIONARY
  5
27A
102
{ACAD_REACTORS
330
19
102
}
330
19
100
AcDbDictionary
281
     1
  0
DICTIONARY
  5
366B
102
{ACAD_REACTORS
330
19
102
}
330
19
100
AcDbDictionary
281
     1
  3
CLEXTENSION
350
36AB
  0
DICTIONARY
  5
E38
102
{ACAD_REACTORS
330
19
102
}
330
19
100
AcDbDictionary
281
     1
  3
DIMRAILANGLE
350
36A9
  3
DIMRAILFIRSTOFFSET
350
36A7
  3
DIMRAILOFFSET
350
36A8
  3
DIMRAILSENABLED
350
36AA
  0
DICTIONARY
  5
2E2
102
{ACAD_REACTORS
330
2E1
102
}
330
2E1
100
AcDbDictionary
281
     1
  0
DICTIONARY
  5
DDE
102
{ACAD_REACTORS
330
2E1
102
}
330
2E1
100
AcDbDictionary
281
     1
1001
ACAD
1000
<All
  0
SORTENTSTABLE
  5
1733F
102
{ACAD_REACTORS
330
1733E
102
}
330
1733E
100
AcDbSortentsTable
330
A
331
0
  5
172B6
331
0
  5
173D0
331
0
  5
173D1
331
172F9
  5
172B7
331
172FA
  5
172F8
331
17305
  5
172F9
331
17306
  5
172FA
331
17307
  5
17305
331
17308
  5
17306
331
17309
  5
17307
331
0
  5
1731D
331
0
  5
1732C
331
17353
  5
1734E
331
0
  5
17353
331
0
  5
173C6
331
0
  5
173C7
331
0
  5
173C8
331
0
  5
173C9
331
0
  5
173CC
331
0
  5
173CF
  0
DICTIONARY
  5
178A6
102
{ACAD_REACTORS
330
36AE
102
}
330
36AE
100
AcDbDictionary
280
     1
281
     1
  3
TEXT
360
36AD
  0
DIMASSOC
  5
177D4
102
{ACAD_REACTORS
330
177D3
102
}
330
177D3
100
AcDbDimAssoc
330
177D2
 90
        3
 70
     0
 71
     1
  1
AcDbOsnapPointRef
 72
    13
331
176D7
 73
     0
 91
        0
 40
0.0
 10
0.0
 20
0.0
 30
0.0
 75
     0
  1
AcDbOsnapPointRef
 72
     1
331
176D9
 73
     0
 91
        0
 40
0.0
 10
0.0
 20
0.0
 30
0.0
 75
     0
  0
DIMASSOC
  5
177E3
102
{ACAD_REACTORS
330
177E2
102
}
330
177E2
100
AcDbDimAssoc
330
177E1
 90
        2
 70
     0
 71
     1
  1
AcDbOsnapPointRef
 72
    10
331
176E4
 73
     0
 91
        0
 40
1.0
 10
0.0
 20
0.0
 30
0.0
 75
     0
  0
DIMASSOC
  5
17808
102
{ACAD_REACTORS
330
17807
102
}
330
17807
100
AcDbDimAssoc
330
17806
 90
        3
 70
     0
 71
     1
  1
AcDbOsnapPointRef
 72
    10
331
17734
 73
     0
 91
        0
 40
0.2617302758059268
 10
0.0
 20
0.0
 30
0.0
 75
     0
  1
AcDbOsnapPointRef
 72
     8
331
17735
 73
     0
 91
        0
 40
0.3224213542536777
 10
0.0
 20
0.0
 30
0.0
 75
     1
  1
AcDbOsnapPointRef
 72
    10
331
17734
 73
     0
 91
        0
 40
0.2617302758059268
 10
0.0
 20
0.0
 30
0.0
 75
     0
  0
DIMASSOC
  5
1781D
102
{ACAD_REACTORS
330
1781C
102
}
330
1781C
100
AcDbDimAssoc
330
1781B
 90
        0
 70
     0
 71
     1
  0
DIMASSOC
  5
1782E
102
{ACAD_REACTORS
330
1782D
102
}
330
1782D
100
AcDbDimAssoc
330
1782C
 90
        3
 70
     0
 71
     1
  1
AcDbOsnapPointRef
 72
    13
331
176D7
 73
     0
 91
        0
 40
0.0
 10
0.0
 20
0.0
 30
0.0
 75
     0
  1
AcDbOsnapPointRef
 72
     1
331
176D7
 73
     0
 91
        0
 40
0.0
 10
0.0
 20
0.0
 30
0.0
 75
     0
  0
DIMASSOC
  5
17860
102
{ACAD_REACTORS
330
1785F
102
}
330
1785F
100
AcDbDimAssoc
330
1785E
 90
        3
 70
     0
 71
     1
  1
AcDbOsnapPointRef
 72
     1
331
1778F
 73
     0
 91
        0
 40
0.0
 10
0.0
 20
0.0
 30
0.0
 75
     0
  1
AcDbOsnapPointRef
 72
     1
331
17790
 73
     0
 91
        0
 40
0.0
 10
0.0
 20
0.0
 30
0.0
 75
     0
  0
DIMASSOC
  5
17872
102
{ACAD_REACTORS
330
17871
102
}
330
17871
100
AcDbDimAssoc
330
17870
 90
        3
 70
     0
 71
     1
  1
AcDbOsnapPointRef
 72
    13
331
1774F
 73
     0
 91
        0
 40
0.0
 10
0.0
 20
0.0
 30
0.0
 75
     0
  1
AcDbOsnapPointRef
 72
    13
331
1774E
 73
     0
 91
        0
 40
0.0
 10
0.0
 20
0.0
 30
0.0
 75
     0
  0
GROUP
  5
172B8
102
{ACAD_REACTORS
330
1A
102
}
330
1A
100
AcDbGroup
300

 70
     1
 71
     1
  0
GROUP
  5
1730A
102
{ACAD_REACTORS
330
1A
102
}
330
1A
100
AcDbGroup
300

 70
     1
 71
     1
340
172F9
340
172FA
340
17305
340
17306
340
17307
340
17308
340
17309
  0
GROUP
  5
17751
102
{ACAD_REACTORS
330
1A
102
}
330
1A
100
AcDbGroup
300

 70
     1
 71
     1
340
1774D
340
1774E
340
1774F
340
17750
  0
LAYOUT
  5
21
102
{ACAD_REACTORS
330
1E
102
}
330
1E
100
AcDbPlotSettings
  1

  2
none_device
  4
ISO_A3_(420.00_x_297.00_MM)
  6

 40
7.5
 41
20.0
 42
7.5
 43
20.0
 44
420.0
 45
297.0
 46
0.0
 47
0.0
 48
0.0
 49
0.0
140
0.0
141
0.0
142
1.0
143
1.0
 70
     0
 72
     1
 73
     0
 74
     0
  7

 75
     0
 76
     0
 77
     2
 78
   300
147
1.0
148
0.0
149
0.0
100
AcDbLayout
  1
Layout1
 70
     0
 71
     0
 10
-7.5
 20
-20.0
 11
412.5
 21
277.0
 12
0.0
 22
0.0
 32
0.0
 14
0.0
 24
0.0
 34
0.0
 15
0.0
 25
0.0
 35
0.0
146
0.0
 13
0.0
 23
0.0
 33
0.0
 16
0.0
 26
0.0
 36
0.0
 17
0.0
 27
0.0
 37
0.0
 76
     0
330
B
331
349
  0
LAYOUT
  5
20
102
{ACAD_REACTORS
330
1E
102
}
330
1E
100
AcDbPlotSettings
  1

  2
none_device
  4
ISO_A3_(420.00_x_297.00_MM)
  6

 40
7.5
 41
20.0
 42
7.5
 43
20.0
 44
420.0
 45
297.0
 46
0.0
 47
0.0
 48
0.0
 49
0.0
140
0.0
141
0.0
142
1.0
143
1.0
 70
  1024
 72
     1
 73
     0
 74
     0
  7

 75
     0
 76
     0
 77
     2
 78
   300
147
1.0
148
0.0
149
0.0
100
AcDbLayout
  1
Model
 70
     0
 71
     1
 10
0.0
 20
0.0
 11
630.0
 21
891.0
 12
0.0
 22
0.0
 32
0.0
 14
0.0
 24
0.0
 34
-0.0000000000000071
 15
630.0
 25
891.0
 35
0.0000000000000071
146
0.0
 13
0.0
 23
0.0
 33
0.0
 16
0.0
 26
0.0
 36
0.0
 17
0.0
 27
0.0
 37
0.0
 76
     0
330
A
331
15
  0
MATERIAL
  5
265
102
{ACAD_REACTORS
330
263
102
}
330
263
100
AcDbMaterial
  1
ByBlock
 72
     1
 94
      127
  0
MATERIAL
  5
264
102
{ACAD_REACTORS
330
263
102
}
330
263
100
AcDbMaterial
  1
ByLayer
 72
     1
 94
      127
  0
MATERIAL
  5
266
102
{ACAD_REACTORS
330
263
102
}
330
263
100
AcDbMaterial
  1
Global
 72
     1
 94
      127
  0
MLEADERSTYLE
  5
D59
102
{ACAD_REACTORS
330
336
102
}
330
336
100
AcDbMLeaderStyle
170
     2
171
     1
172
     0
 90
        2
 40
0.0
 41
0.0
173
     1
 91
-1056964608
340
11
 92
       -2
290
     1
 42
2.0
291
     1
 43
8.0
  3
Standard
341
0
 44
4.0
300

342
17
174
     1
178
     6
175
     1
176
     0
 93
-1056964608
 45
4.0
292
     0
297
     0
 46
4.0
343
0
 94
-1056964608
 47
1.0
 49
1.0
140
1.0
293
     1
141
0.0
294
     1
177
     0
142
1.0
295
     0
296
     0
143
3.75
1001
ACAD_MLEADERVER
1070
     2
  0
MLINESTYLE
  5
1C
102
{ACAD_REACTORS
330
1B
102
}
330
1B
100
AcDbMlineStyle
  2
Standard
 70
     0
  3

 62
     0
 51
90.0
 52
90.0
 71
     2
 49
0.5
 62
   256
  6
BYLAYER
 49
-0.5
 62
   256
  6
BYLAYER
  0
ACDBPLACEHOLDER
  5
1D
102
{ACAD_REACTORS
330
1F
102
}
330
1F
  0
SCALE
  5
242
102
{ACAD_REACTORS
330
241
102
}
330
241
100
AcDbScale
 70
     0
300
1:1
140
1.0
141
1.0
290
     1
  0
SCALE
  5
243
102
{ACAD_REACTORS
330
241
102
}
330
241
100
AcDbScale
 70
     0
300
1:2
140
1.0
141
2.0
290
     0
  0
SCALE
  5
244
102
{ACAD_REACTORS
330
241
102
}
330
241
100
AcDbScale
 70
     0
300
1:4
140
1.0
141
4.0
290
     0
  0
SCALE
  5
245
102
{ACAD_REACTORS
330
241
102
}
330
241
100
AcDbScale
 70
     0
300
1:5
140
1.0
141
5.0
290
     0
  0
SCALE
  5
246
102
{ACAD_REACTORS
330
241
102
}
330
241
100
AcDbScale
 70
     0
300
1:8
140
1.0
141
8.0
290
     0
  0
SCALE
  5
247
102
{ACAD_REACTORS
330
241
102
}
330
241
100
AcDbScale
 70
     0
300
1:10
140
1.0
141
10.0
290
     0
  0
SCALE
  5
248
102
{ACAD_REACTORS
330
241
102
}
330
241
100
AcDbScale
 70
     0
300
1:16
140
1.0
141
16.0
290
     0
  0
SCALE
  5
249
102
{ACAD_REACTORS
330
241
102
}
330
241
100
AcDbScale
 70
     0
300
1:20
140
1.0
141
20.0
290
     0
  0
SCALE
  5
24A
102
{ACAD_REACTORS
330
241
102
}
330
241
100
AcDbScale
 70
     0
300
1:30
140
1.0
141
30.0
290
     0
  0
SCALE
  5
24B
102
{ACAD_REACTORS
330
241
102
}
330
241
100
AcDbScale
 70
     0
300
1:40
140
1.0
141
40.0
290
     0
  0
SCALE
  5
24C
102
{ACAD_REACTORS
330
241
102
}
330
241
100
AcDbScale
 70
     0
300
1:50
140
1.0
141
50.0
290
     0
  0
SCALE
  5
24D
102
{ACAD_REACTORS
330
241
102
}
330
241
100
AcDbScale
 70
     0
300
1:100
140
1.0
141
100.0
290
     0
  0
SCALE
  5
24E
102
{ACAD_REACTORS
330
241
102
}
330
241
100
AcDbScale
 70
     0
300
2:1
140
2.0
141
1.0
290
     0
  0
SCALE
  5
24F
102
{ACAD_REACTORS
330
241
102
}
330
241
100
AcDbScale
 70
     0
300
4:1
140
4.0
141
1.0
290
     0
  0
SCALE
  5
250
102
{ACAD_REACTORS
330
241
102
}
330
241
100
AcDbScale
 70
     0
300
8:1
140
8.0
141
1.0
290
     0
  0
SCALE
  5
251
102
{ACAD_REACTORS
330
241
102
}
330
241
100
AcDbScale
 70
     0
300
10:1
140
10.0
141
1.0
290
     0
  0
SCALE
  5
252
102
{ACAD_REACTORS
330
241
102
}
330
241
100
AcDbScale
 70
     0
300
100:1
140
100.0
141
1.0
290
     0
  0
SCALE
  5
253
102
{ACAD_REACTORS
330
241
102
}
330
241
100
AcDbScale
 70
     0
300
1/128" = 1'-0"
140
0.0078125
141
12.0
290
     0
  0
SCALE
  5
254
102
{ACAD_REACTORS
330
241
102
}
330
241
100
AcDbScale
 70
     0
300
1/64" = 1'-0"
140
0.015625
141
12.0
290
     0
  0
SCALE
  5
255
102
{ACAD_REACTORS
330
241
102
}
330
241
100
AcDbScale
 70
     0
300
1/32" = 1'-0"
140
0.03125
141
12.0
290
     0
  0
SCALE
  5
256
102
{ACAD_REACTORS
330
241
102
}
330
241
100
AcDbScale
 70
     0
300
1/16" = 1'-0"
140
0.0625
141
12.0
290
     0
  0
SCALE
  5
257
102
{ACAD_REACTORS
330
241
102
}
330
241
100
AcDbScale
 70
     0
300
3/32" = 1'-0"
140
0.09375
141
12.0
290
     0
  0
SCALE
  5
258
102
{ACAD_REACTORS
330
241
102
}
330
241
100
AcDbScale
 70
     0
300
1/8" = 1'-0"
140
0.125
141
12.0
290
     0
  0
SCALE
  5
259
102
{ACAD_REACTORS
330
241
102
}
330
241
100
AcDbScale
 70
     0
300
3/16" = 1'-0"
140
0.1875
141
12.0
290
     0
  0
SCALE
  5
25A
102
{ACAD_REACTORS
330
241
102
}
330
241
100
AcDbScale
 70
     0
300
1/4" = 1'-0"
140
0.25
141
12.0
290
     0
  0
SCALE
  5
25B
102
{ACAD_REACTORS
330
241
102
}
330
241
100
AcDbScale
 70
     0
300
3/8" = 1'-0"
140
0.375
141
12.0
290
     0
  0
SCALE
  5
25C
102
{ACAD_REACTORS
330
241
102
}
330
241
100
AcDbScale
 70
     0
300
1/2" = 1'-0"
140
0.5
141
12.0
290
     0
  0
SCALE
  5
25D
102
{ACAD_REACTORS
330
241
102
}
330
241
100
AcDbScale
 70
     0
300
3/4" = 1'-0"
140
0.75
141
12.0
290
     0
  0
SCALE
  5
25E
102
{ACAD_REACTORS
330
241
102
}
330
241
100
AcDbScale
 70
     0
300
1" = 1'-0"
140
1.0
141
12.0
290
     0
  0
SCALE
  5
25F
102
{ACAD_REACTORS
330
241
102
}
330
241
100
AcDbScale
 70
     0
300
1-1/2" = 1'-0"
140
1.5
141
12.0
290
     0
  0
SCALE
  5
260
102
{ACAD_REACTORS
330
241
102
}
330
241
100
AcDbScale
 70
     0
300
3" = 1'-0"
140
3.0
141
12.0
290
     0
  0
SCALE
  5
261
102
{ACAD_REACTORS
330
241
102
}
330
241
100
AcDbScale
 70
     0
300
6" = 1'-0"
140
6.0
141
12.0
290
     0
  0
SCALE
  5
262
102
{ACAD_REACTORS
330
241
102
}
330
241
100
AcDbScale
 70
     0
300
1'-0" = 1'-0"
140
12.0
141
12.0
290
     0
  0
TABLESTYLE
  5
279
102
{ACAD_REACTORS
330
278
102
}
102
{ACAD_XDICTIONARY
360
178B6
102
}
330
278
100
AcDbTableStyle
  3
Standard
 70
     0
 71
     0
 40
0.06
 41
0.06
280
     0
281
     0
  7
Standard
140
4.5
170
     2
 62
     0
 63
   257
283
     0
 90
        4
 91
        0
  1

274
    -2
284
     1
 64
     0
275
    -2
285
     1
 65
     0
276
    -2
286
     1
 66
     0
277
    -2
287
     1
 67
     0
278
    -2
288
     1
 68
     0
279
    -2
289
     1
 69
     0
  7
Standard
140
6.0
170
     5
 62
     0
 63
   257
283
     0
 90
        4
 91
        0
  1

274
    -2
284
     1
 64
     0
275
    -2
285
     1
 65
     0
276
    -2
286
     1
 66
     0
277
    -2
287
     1
 67
     0
278
    -2
288
     1
 68
     0
279
    -2
289
     1
 69
     0
  7
Standard
140
4.5
170
     5
 62
     0
 63
   257
283
     0
 90
        4
 91
        0
  1

274
    -2
284
     1
 64
     0
275
    -2
285
     1
 65
     0
276
    -2
286
     1
 66
     0
277
    -2
287
     1
 67
     0
278
    -2
288
     1
 68
     0
279
    -2
289
     1
 69
     0
  0
VISUALSTYLE
  5
3666
102
{ACAD_REACTORS
330
267
102
}
330
267
100
AcDbVisualStyle
  2
*
 70
    10
 71
     0
 72
     2
 73
     0
 90
        0
 40
-0.6
 41
-30.0
 62
     5
 63
     7
421
 16777215
 74
     1
 91
        4
 64
     7
 65
   257
 75
     1
175
     1
 42
1.0
 92
        8
 66
     7
 43
1.0
 76
     1
 77
     6
 78
     2
 67
     7
 79
     5
170
     0
171
     0
290
     0
174
     0
 93
        1
 44
0.0
173
     0
291
     0
 45
0.0
  0
VISUALSTYLE
  5
26C
102
{ACAD_REACTORS
330
267
102
}
330
267
100
AcDbVisualStyle
  2
2dWireframe
 70
     4
 71
     0
 72
     2
 73
     0
 90
        0
 40
-0.6
 41
-30.0
 62
     5
 63
     7
421
 16777215
 74
     1
 91
        4
 64
     7
 65
   257
 75
     1
175
     1
 42
1.0
 92
        0
 66
   257
 43
1.0
 76
     1
 77
     6
 78
     2
 67
     7
 79
     5
170
     0
171
     0
290
     0
174
     0
 93
        1
 44
0.0
173
     0
291
     0
 45
0.0
  0
VISUALSTYLE
  5
26E
102
{ACAD_REACTORS
330
267
102
}
330
267
100
AcDbVisualStyle
  2
3D Hidden
 70
     6
 71
     1
 72
     2
 73
     2
 90
        0
 40
-0.6
 41
-30.0
 62
     5
 63
     7
421
 16777215
 74
     2
 91
        2
 64
     7
 65
   257
 75
     2
175
     1
 42
40.0
 92
        0
 66
   257
 43
1.0
 76
     1
 77
     6
 78
     2
 67
     7
 79
     3
170
     0
171
     0
290
     0
174
     0
 93
        1
 44
0.0
173
     0
291
     0
 45
0.0
  0
VISUALSTYLE
  5
26D
102
{ACAD_REACTORS
330
267
102
}
330
267
100
AcDbVisualStyle
  2
3dWireframe
 70
     5
 71
     0
 72
     2
 73
     0
 90
        0
 40
-0.6
 41
-30.0
 62
     5
 63
     7
421
 16777215
 74
     1
 91
        4
 64
     7
 65
   257
 75
     1
175
     1
 42
1.0
 92
        0
 66
   257
 43
1.0
 76
     1
 77
     6
 78
     2
 67
     7
 79
     5
170
     0
171
     0
290
     0
174
     0
 93
        1
 44
0.0
173
     0
291
     0
 45
0.0
  0
VISUALSTYLE
  5
26F
102
{ACAD_REACTORS
330
267
102
}
330
267
100
AcDbVisualStyle
  2
Basic
 70
     7
 71
     1
 72
     0
 73
     1
 90
        0
 40
-0.6
 41
-30.0
 62
     5
 63
     7
421
 16777215
 74
     0
 91
        4
 64
     7
 65
   257
 75
     1
175
     1
 42
1.0
 92
        8
 66
     7
 43
1.0
 76
     1
 77
     6
 78
     2
 67
     7
 79
     5
170
     0
171
     0
290
     0
174
     0
 93
        1
 44
0.0
173
     0
291
     1
 45
0.0
  0
VISUALSTYLE
  5
273
102
{ACAD_REACTORS
330
267
102
}
330
267
100
AcDbVisualStyle
  2
Brighten
 70
    12
 71
     2
 72
     2
 73
     0
 90
        0
 40
-0.6
 41
-30.0
 62
     5
 63
     7
421
 16777215
 74
     1
 91
        4
 64
     7
 65
   257
 75
     1
175
     1
 42
1.0
 92
        8
 66
     7
 43
1.0
 76
     1
 77
     6
 78
     2
 67
     7
 79
     5
170
     0
171
     0
290
     0
174
     0
 93
        1
 44
50.0
173
     0
291
     1
 45
0.0
  0
VISUALSTYLE
  5
277
102
{ACAD_REACTORS
330
267
102
}
330
267
100
AcDbVisualStyle
  2
ColorChange
 70
    16
 71
     2
 72
     2
 73
     3
 90
        0
 40
-0.6
 41
-30.0
 62
     5
 63
     8
421
  8421504
 74
     1
 91
        4
 64
     7
 65
   257
 75
     1
175
     1
 42
1.0
 92
        8
 66
     8
424
  8421504
 43
1.0
 76
     1
 77
     6
 78
     2
 67
     7
 79
     5
170
     0
171
     0
290
     0
174
     0
 93
        1
 44
0.0
173
     0
291
     1
 45
0.0
  0
VISUALSTYLE
  5
271
102
{ACAD_REACTORS
330
267
102
}
330
267
100
AcDbVisualStyle
  2
Conceptual
 70
     9
 71
     3
 72
     2
 73
     0
 90
        0
 40
-0.6
 41
-30.0
 62
     5
 63
     7
421
 16777215
 74
     2
 91
        2
 64
     7
 65
   257
 75
     1
175
     1
 42
40.0
 92
        8
 66
     7
 43
1.0
 76
     1
 77
     6
 78
     2
 67
     7
 79
     3
170
     0
171
     0
290
     0
174
     0
 93
        1
 44
0.0
173
     0
291
     0
 45
0.0
  0
VISUALSTYLE
  5
272
102
{ACAD_REACTORS
330
267
102
}
330
267
100
AcDbVisualStyle
  2
Dim
 70
    11
 71
     2
 72
     2
 73
     0
 90
        0
 40
-0.6
 41
-30.0
 62
     5
 63
     7
421
 16777215
 74
     1
 91
        4
 64
     7
 65
   257
 75
     1
175
     1
 42
1.0
 92
        8
 66
     7
 43
1.0
 76
     1
 77
     6
 78
     2
 67
     7
 79
     5
170
     0
171
     0
290
     0
174
     0
 93
        1
 44
-50.0
173
     0
291
     1
 45
0.0
  0
VISUALSTYLE
  5
8FE
102
{ACAD_REACTORS
330
267
102
}
330
267
100
AcDbVisualStyle
  2
EdgeColorOff
 70
    22
 71
     2
 72
     2
 73
     0
 90
        0
 40
0.6
 41
30.0
 62
     5
 63
     7
421
 16777215
 74
     1
 91
        4
 64
     7
 65
   257
 75
     1
175
     1
 42
1.0
 92
        8
 66
     7
 43
1.0
 76
     1
 77
     6
 78
     2
 67
     7
 79
     5
170
     0
171
     0
290
     0
174
     0
 93
        1
 44
0.0
173
     0
291
     1
 45
0.0
  0
VISUALSTYLE
  5
276
102
{ACAD_REACTORS
330
267
102
}
330
267
100
AcDbVisualStyle
  2
Facepattern
 70
    15
 71
     2
 72
     2
 73
     0
 90
        0
 40
-0.6
 41
-30.0
 62
     5
 63
     7
421
 16777215
 74
     1
 91
        4
 64
     7
 65
   257
 75
     1
175
     1
 42
1.0
 92
        8
 66
     7
 43
1.0
 76
     1
 77
     6
 78
     2
 67
     7
 79
     5
170
     0
171
     0
290
     0
174
     0
 93
        1
 44
0.0
173
     0
291
     1
 45
0.0
  0
VISUALSTYLE
  5
268
102
{ACAD_REACTORS
330
267
102
}
330
267
100
AcDbVisualStyle
  2
Flat
 70
     0
 71
     2
 72
     1
 73
     1
 90
        2
 40
-0.6
 41
30.0
 62
     5
 63
     7
421
 16777215
 74
     0
 91
        4
 64
     7
 65
   257
 75
     1
175
     1
 42
1.0
 92
        8
 66
     7
 43
1.0
 76
     1
 77
     6
 78
     2
 67
     7
 79
     5
170
     0
171
     0
290
     0
174
     0
 93
       13
 44
0.0
173
     0
291
     1
 45
0.0
  0
VISUALSTYLE
  5
269
102
{ACAD_REACTORS
330
267
102
}
330
267
100
AcDbVisualStyle
  2
FlatWithEdges
 70
     1
 71
     2
 72
     1
 73
     1
 90
        2
 40
-0.6
 41
30.0
 62
     5
 63
     7
421
 16777215
 74
     1
 91
        4
 64
     7
 65
   257
 75
     1
175
     1
 42
1.0
 92
        0
 66
   257
 43
1.0
 76
     1
 77
     6
 78
     2
 67
     7
 79
     5
170
     0
171
     0
290
     0
174
     0
 93
       13
 44
0.0
173
     0
291
     1
 45
0.0
  0
VISUALSTYLE
  5
26A
102
{ACAD_REACTORS
330
267
102
}
330
267
100
AcDbVisualStyle
  2
Gouraud
 70
     2
 71
     2
 72
     2
 73
     1
 90
        2
 40
-0.6
 41
30.0
 62
     5
 63
     7
421
 16777215
 74
     0
 91
        4
 64
     7
 65
   257
 75
     1
175
     1
 42
1.0
 92
        0
 66
     7
 43
1.0
 76
     1
 77
     6
 78
     2
 67
     7
 79
     5
170
     0
171
     0
290
     0
174
     0
 93
       13
 44
0.0
173
     0
291
     1
 45
0.0
  0
VISUALSTYLE
  5
26B
102
{ACAD_REACTORS
330
267
102
}
330
267
100
AcDbVisualStyle
  2
GouraudWithEdges
 70
     3
 71
     2
 72
     2
 73
     1
 90
        2
 40
-0.6
 41
30.0
 62
     5
 63
     7
421
 16777215
 74
     1
 91
        4
 64
     7
 65
   257
 75
     1
175
     1
 42
1.0
 92
        0
 66
   257
 43
1.0
 76
     1
 77
     6
 78
     2
 67
     7
 79
     5
170
     0
171
     0
290
     0
174
     0
 93
       13
 44
0.0
173
     0
291
     1
 45
0.0
  0
VISUALSTYLE
  5
8FB
102
{ACAD_REACTORS
330
267
102
}
330
267
100
AcDbVisualStyle
  2
Hidden
 70
     6
 71
     1
 72
     2
 73
     2
 90
        0
 40
0.6
 41
30.0
 62
     5
 63
     7
421
 16777215
 74
     2
 91
        2
 64
     7
 65
   257
 75
     2
175
     1
 42
40.0
 92
        0
 66
   257
 43
1.0
 76
     1
 77
     6
 78
     2
 67
     7
 79
     3
170
     0
171
     0
290
     0
174
     0
 93
        1
 44
0.0
173
     0
291
     0
 45
0.0
  0
VISUALSTYLE
  5
8FC
102
{ACAD_REACTORS
330
267
102
}
330
267
100
AcDbVisualStyle
  2
JitterOff
 70
    20
 71
     2
 72
     2
 73
     0
 90
        0
 40
0.6
 41
30.0
 62
     5
 63
     7
421
 16777215
 74
     1
 91
        4
 64
     7
 65
   257
 75
     1
175
     1
 42
1.0
 92
       10
 66
     7
 43
1.0
 76
     1
 77
     6
 78
     2
 67
     7
 79
     5
170
     0
171
     0
290
     0
174
     0
 93
        1
 44
0.0
173
     0
291
     1
 45
0.0
  0
VISUALSTYLE
  5
275
102
{ACAD_REACTORS
330
267
102
}
330
267
100
AcDbVisualStyle
  2
Linepattern
 70
    14
 71
     2
 72
     2
 73
     0
 90
        0
 40
-0.6
 41
-30.0
 62
     5
 63
     7
421
 16777215
 74
     1
 91
        4
 64
     7
 65
   257
 75
     7
175
     7
 42
1.0
 92
        8
 66
     7
 43
1.0
 76
     1
 77
     6
 78
     2
 67
     7
 79
     5
170
     0
171
     0
290
     0
174
     0
 93
        1
 44
0.0
173
     0
291
     1
 45
0.0
  0
VISUALSTYLE
  5
8FD
102
{ACAD_REACTORS
330
267
102
}
330
267
100
AcDbVisualStyle
  2
OverhangOff
 70
    21
 71
     2
 72
     2
 73
     0
 90
        0
 40
0.6
 41
30.0
 62
     5
 63
     7
421
 16777215
 74
     1
 91
        4
 64
     7
 65
   257
 75
     1
175
     1
 42
1.0
 92
        9
 66
     7
 43
1.0
 76
     1
 77
     6
 78
     2
 67
     7
 79
     5
170
     0
171
     0
290
     0
174
     0
 93
        1
 44
0.0
173
     0
291
     1
 45
0.0
  0
VISUALSTYLE
  5
270
102
{ACAD_REACTORS
330
267
102
}
330
267
100
AcDbVisualStyle
  2
Realistic
 70
     8
 71
     2
 72
     2
 73
     0
 90
        0
 40
-0.6
 41
-30.0
 62
     5
 63
     7
421
 16777215
 74
     1
 91
        0
 64
     7
 65
   257
 75
     1
175
     1
 42
1.0
 92
        8
 66
     8
424
  7895160
 43
1.0
 76
     1
 77
     6
 78
     2
 67
     7
 79
     5
170
     0
171
     0
290
     0
174
     0
 93
       13
 44
0.0
173
     0
291
     0
 45
0.0
  0
VISUALSTYLE
  5
903
102
{ACAD_REACTORS
330
267
102
}
330
267
100
AcDbVisualStyle
  2
Shaded
 70
    27
 71
     2
 72
     2
 73
     1
 90
        2
 40
0.6
 41
30.0
 62
     5
 63
     7
421
 16777215
 74
     0
 91
        4
 64
     7
 65
   257
 75
     1
175
     1
 42
1.0
 92
        8
 66
   257
 43
1.0
 76
     1
 77
     6
 78
     2
 67
     8
425
  7895160
 79
     3
170
     0
171
     0
290
     0
174
     0
 93
        5
 44
0.0
173
     0
291
     0
 45
0.0
  0
VISUALSTYLE
  5
902
102
{ACAD_REACTORS
330
267
102
}
330
267
100
AcDbVisualStyle
  2
Shaded with edges
 70
    26
 71
     2
 72
     2
 73
     1
 90
        2
 40
0.6
 41
30.0
 62
     5
 63
     7
421
 16777215
 74
     1
 91
       10
 64
     7
 65
   257
 75
     2
175
     1
 42
1.0
 92
        8
 66
   257
 43
1.0
 76
     1
 77
     6
 78
     2
 67
     7
 79
     3
170
     0
171
     0
290
     0
174
     0
 93
        5
 44
0.0
173
     0
291
     0
 45
0.0
  0
VISUALSTYLE
  5
8FF
102
{ACAD_REACTORS
330
267
102
}
330
267
100
AcDbVisualStyle
  2
Shades of Gray
 70
    23
 71
     2
 72
     2
 73
     3
 90
        0
 40
0.6
 41
30.0
 62
     5
 63
     7
421
 16777215
 74
     2
 91
        2
 64
     7
 65
     7
 75
     1
175
     1
 42
40.0
 92
        8
 66
     7
 43
1.0
 76
     1
 77
     6
 78
     2
 67
     7
 79
     3
170
     0
171
     0
290
     0
174
     0
 93
        1
 44
0.0
173
     0
291
     0
 45
0.0
  0
VISUALSTYLE
  5
900
102
{ACAD_REACTORS
330
267
102
}
330
267
100
AcDbVisualStyle
  2
Sketchy
 70
    24
 71
     1
 72
     2
 73
     2
 90
        0
 40
0.6
 41
30.0
 62
     5
 63
     7
421
 16777215
 74
     2
 91
        2
 64
     7
 65
     7
 75
     1
175
     1
 42
40.0
 92
       11
 66
     7
 43
1.0
 76
     1
 77
     6
 78
     2
 67
     7
 79
     6
170
     0
171
     0
290
     0
174
     0
 93
        1
 44
0.0
173
     0
291
     0
 45
0.0
  0
VISUALSTYLE
  5
274
102
{ACAD_REACTORS
330
267
102
}
330
267
100
AcDbVisualStyle
  2
Thicken
 70
    13
 71
     2
 72
     2
 73
     0
 90
        0
 40
-0.6
 41
-30.0
 62
     5
 63
     7
421
 16777215
 74
     1
 91
        4
 64
     7
 65
   257
 75
     1
175
     1
 42
1.0
 92
       12
 66
     7
 43
1.0
 76
     1
 77
     6
 78
     2
 67
     7
 79
     5
170
     0
171
     0
290
     0
174
     0
 93
        1
 44
0.0
173
     0
291
     1
 45
0.0
  0
VISUALSTYLE
  5
8FA
102
{ACAD_REACTORS
330
267
102
}
330
267
100
AcDbVisualStyle
  2
Wireframe
 70
     5
 71
     0
 72
     2
 73
     0
 90
        0
 40
0.6
 41
30.0
 62
     5
 63
     7
421
 16777215
 74
     1
 91
        4
 64
     7
 65
   257
 75
     1
175
     1
 42
1.0
 92
        0
 66
   257
 43
1.0
 76
     1
 77
     6
 78
     2
 67
     7
 79
     3
170
     0
171
     0
290
     0
174
     0
 93
        1
 44
0.0
173
     0
291
     0
 45
0.0
  0
VISUALSTYLE
  5
901
102
{ACAD_REACTORS
330
267
102
}
330
267
100
AcDbVisualStyle
  2
X-Ray
 70
    25
 71
     2
 72
     2
 73
     1
 90
        1
 40
0.5
 41
30.0
 62
     5
 63
     7
421
 16777215
 74
     1
 91
        0
 64
     7
 65
   257
 75
     1
175
     1
 42
1.0
 92
        8
 66
     7
 43
1.0
 76
     1
 77
     6
 78
     2
 67
     7
 79
     3
170
     0
171
     0
290
     0
174
     0
 93
       13
 44
0.0
173
     0
291
     0
 45
0.0
  0
DICTIONARYVAR
  5
331
102
{ACAD_REACTORS
330
330
102
}
330
330
100
DictionaryVariables
280
     0
  1
1:1
  0
DICTIONARYVAR
  5
D5E
102
{ACAD_REACTORS
330
330
102
}
330
330
100
DictionaryVariables
280
     0
  1
Standard
  0
DICTIONARYVAR
  5
335
102
{ACAD_REACTORS
330
330
102
}
330
330
100
DictionaryVariables
280
     0
  1
Standard
  0
DICTIONARYVAR
  5
D52
102
{ACAD_REACTORS
330
330
102
}
330
330
100
DictionaryVariables
280
     0
  1
ByLayer
  0
DICTIONARYVAR
  5
896
102
{ACAD_REACTORS
330
330
102
}
330
330
100
DictionaryVariables
280
     0
  1
0
  0
DICTIONARYVAR
  5
36AB
102
{ACAD_REACTORS
330
366B
102
}
330
366B
100
DictionaryVariables
280
     0
  1
0.250000
  0
DICTIONARYVAR
  5
36A9
102
{ACAD_REACTORS
330
E38
102
}
330
E38
100
DictionaryVariables
280
     0
  1
0.261799
  0
DICTIONARYVAR
  5
36A7
102
{ACAD_REACTORS
330
E38
102
}
330
E38
100
DictionaryVariables
280
     0
  1
0.400000
  0
DICTIONARYVAR
  5
36A8
102
{ACAD_REACTORS
330
E38
102
}
330
E38
100
DictionaryVariables
280
     0
  1
0.250000
  0
DICTIONARYVAR
  5
36AA
102
{ACAD_REACTORS
330
E38
102
}
330
E38
100
DictionaryVariables
280
     0
  1
1
  0
FIELD
  5
36AD
102
{ACAD_REACTORS
330
17354
330
178A6
102
}
330
178A6
100
AcDbField
  1
_text
  2
{%<\_FldIdx 0>%N}
 90
        1
360
36B1
 97
        0
 91
       63
 92
        0
 94
       11
 95
        2
 96
        0
300

 93
        1
  6
ACFD_FIELDTEXT_CHECKSUM
 93
        2
 90
        2
140
4488.0
 94
        0
300

302

304
ACVALUE_END
  7
ACFD_FIELD_VALUE
 93
        6
 90
        4
  1
{20190411N}
 94
        0
300

302

304
ACVALUE_END
301
{20190411N}
 98
       11
  0
DICTIONARY
  5
178B6
330
279
100
AcDbDictionary
280
     1
281
     1
  3
ACAD_ROUNDTRIP_2008_TABLESTYLE_CELLSTYLEMAP
360
178B7
  0
FIELD
  5
36B1
330
36AD
100
AcDbField
  1
AcVar
  2
\AcVar Date \f "yyyyMMdd"
 90
        0
 97
        0
 91
       63
 92
        0
 94
        8
 95
       64
 96
        0
300
Variable not supported
 93
        1
  6
Variable
 93
        2
 90
        4
  1
Date
 94
        0
300

302

304
ACVALUE_END
  7
ACFD_FIELD_VALUE
 93
        6
 90
        8
 92
       16
310
E307040000000B000B001C0009000000
 94
        0
300
yyyyMMdd
302

304
ACVALUE_END
301
20190411
 98
        8
  0
CELLSTYLEMAP
  5
178B7
102
{ACAD_REACTORS
330
178B6
102
}
330
178B6
100
AcDbCellStyleMap
 90
        3
300
CELLSTYLE
  1
TABLEFORMAT_BEGIN
 90
        5
170
     1
 91
        0
 92
    32768
 62
   257
 93
        1
300
CONTENTFORMAT
  1
CONTENTFORMAT_BEGIN
 90
        0
 91
        0
 92
        4
 93
        0
300

 40
0.0
140
1.0
 94
        5
 62
     0
340
17
144
6.0
309
CONTENTFORMAT_END
171
     1
301
MARGIN
  1
CELLMARGIN_BEGIN
 40
0.06
 40
0.06
 40
0.06
 40
0.06
 40
0.18
 40
0.18
309
CELLMARGIN_END
 94
        6
 95
        1
302
GRIDFORMAT
  1
GRIDFORMAT_BEGIN
 90
        0
 91
        1
 62
     0
 92
       -2
340
0
 93
        0
 40
0.045
309
GRIDFORMAT_END
 95
        2
302
GRIDFORMAT
  1
GRIDFORMAT_BEGIN
 90
        0
 91
        1
 62
     0
 92
       -2
340
0
 93
        0
 40
0.045
309
GRIDFORMAT_END
 95
        4
302
GRIDFORMAT
  1
GRIDFORMAT_BEGIN
 90
        0
 91
        1
 62
     0
 92
       -2
340
0
 93
        0
 40
0.045
309
GRIDFORMAT_END
 95
        8
302
GRIDFORMAT
  1
GRIDFORMAT_BEGIN
 90
        0
 91
        1
 62
     0
 92
       -2
340
0
 93
        0
 40
0.045
309
GRIDFORMAT_END
 95
       16
302
GRIDFORMAT
  1
GRIDFORMAT_BEGIN
 90
        0
 91
        1
 62
     0
 92
       -2
340
0
 93
        0
 40
0.045
309
GRIDFORMAT_END
 95
       32
302
GRIDFORMAT
  1
GRIDFORMAT_BEGIN
 90
        0
 91
        1
 62
     0
 92
       -2
340
0
 93
        0
 40
0.045
309
GRIDFORMAT_END
309
TABLEFORMAT_END
  1
CELLSTYLE_BEGIN
 90
        1
 91
        1
300
_TITLE
309
CELLSTYLE_END
300
CELLSTYLE
  1
TABLEFORMAT_BEGIN
 90
        5
170
     1
 91
        0
 92
        0
 62
   257
 93
        1
300
CONTENTFORMAT
  1
CONTENTFORMAT_BEGIN
 90
        0
 91
        0
 92
        4
 93
        0
300

 40
0.0
140
1.0
 94
        5
 62
     0
340
17
144
4.5
309
CONTENTFORMAT_END
171
     1
301
MARGIN
  1
CELLMARGIN_BEGIN
 40
0.06
 40
0.06
 40
0.06
 40
0.06
 40
0.18
 40
0.18
309
CELLMARGIN_END
 94
        6
 95
        1
302
GRIDFORMAT
  1
GRIDFORMAT_BEGIN
 90
        0
 91
        1
 62
     0
 92
       -2
340
0
 93
        0
 40
0.045
309
GRIDFORMAT_END
 95
        2
302
GRIDFORMAT
  1
GRIDFORMAT_BEGIN
 90
        0
 91
        1
 62
     0
 92
       -2
340
0
 93
        0
 40
0.045
309
GRIDFORMAT_END
 95
        4
302
GRIDFORMAT
  1
GRIDFORMAT_BEGIN
 90
        0
 91
        1
 62
     0
 92
       -2
340
0
 93
        0
 40
0.045
309
GRIDFORMAT_END
 95
        8
302
GRIDFORMAT
  1
GRIDFORMAT_BEGIN
 90
        0
 91
        1
 62
     0
 92
       -2
340
0
 93
        0
 40
0.045
309
GRIDFORMAT_END
 95
       16
302
GRIDFORMAT
  1
GRIDFORMAT_BEGIN
 90
        0
 91
        1
 62
     0
 92
       -2
340
0
 93
        0
 40
0.045
309
GRIDFORMAT_END
 95
       32
302
GRIDFORMAT
  1
GRIDFORMAT_BEGIN
 90
        0
 91
        1
 62
     0
 92
       -2
340
0
 93
        0
 40
0.045
309
GRIDFORMAT_END
309
TABLEFORMAT_END
  1
CELLSTYLE_BEGIN
 90
        2
 91
        1
300
_HEADER
309
CELLSTYLE_END
300
CELLSTYLE
  1
TABLEFORMAT_BEGIN
 90
        5
170
     1
 91
        0
 92
        0
 62
   257
 93
        1
300
CONTENTFORMAT
  1
CONTENTFORMAT_BEGIN
 90
        0
 91
        0
 92
        4
 93
        0
300

 40
0.0
140
1.0
 94
        2
 62
     0
340
17
144
4.5
309
CONTENTFORMAT_END
171
     1
301
MARGIN
  1
CELLMARGIN_BEGIN
 40
0.06
 40
0.06
 40
0.06
 40
0.06
 40
0.18
 40
0.18
309
CELLMARGIN_END
 94
        6
 95
        1
302
GRIDFORMAT
  1
GRIDFORMAT_BEGIN
 90
        0
 91
        1
 62
     0
 92
       -2
340
0
 93
        0
 40
0.045
309
GRIDFORMAT_END
 95
        2
302
GRIDFORMAT
  1
GRIDFORMAT_BEGIN
 90
        0
 91
        1
 62
     0
 92
       -2
340
0
 93
        0
 40
0.045
309
GRIDFORMAT_END
 95
        4
302
GRIDFORMAT
  1
GRIDFORMAT_BEGIN
 90
        0
 91
        1
 62
     0
 92
       -2
340
0
 93
        0
 40
0.045
309
GRIDFORMAT_END
 95
        8
302
GRIDFORMAT
  1
GRIDFORMAT_BEGIN
 90
        0
 91
        1
 62
     0
 92
       -2
340
0
 93
        0
 40
0.045
309
GRIDFORMAT_END
 95
       16
302
GRIDFORMAT
  1
GRIDFORMAT_BEGIN
 90
        0
 91
        1
 62
     0
 92
       -2
340
0
 93
        0
 40
0.045
309
GRIDFORMAT_END
 95
       32
302
GRIDFORMAT
  1
GRIDFORMAT_BEGIN
 90
        0
 91
        1
 62
     0
 92
       -2
340
0
 93
        0
 40
0.045
309
GRIDFORMAT_END
309
TABLEFORMAT_END
  1
CELLSTYLE_BEGIN
 90
        3
 91
        2
300
_DATA
309
CELLSTYLE_END
  0
ENDSEC
  0
EOF
