  0
SECTION
  2
HEADER
  9
$ACADVER
  1
AC1032
  9
$ACADMAINTVER
 90
      228
  9
$DWGCODEPAGE
  3
ANSI_932
  9
$LASTSAVEDBY
  1
T-HOWE-PC
  9
$REQUIREDVERSIONS
160
                 0
  9
$INSBASE
 10
0.0
 20
0.0
 30
0.0
  9
$EXTMIN
 10
-0.0640820246935618
 20
-0.0906302920675444
 30
-0.0015258207003583
  9
$EXTMAX
 10
2100.064091803581
 20
2970.090644122207
 30
0.0000000349246037
  9
$LIMMIN
 10
0.0
 20
0.0
  9
$LIMMAX
 10
2100.0
 20
2970.0
  9
$ORTHOMODE
 70
     0
  9
$REGENMODE
 70
     1
  9
$FILLMODE
 70
     1
  9
$QTEXTMODE
 70
     0
  9
$MIRRTEXT
 70
     1
  9
$LTSCALE
 40
50.0
  9
$ATTMODE
 70
     1
  9
$TEXTSIZE
 40
2.5
  9
$TRACEWID
 40
1.0
  9
$TEXTSTYLE
  7
ＭＳ ゴシック
  9
$CLAYER
  8
MODEL
  9
$CELTYPE
  6
ByLayer
  9
$CECOLOR
 62
   256
  9
$CELTSCALE
 40
0.05
  9
$DISPSILH
 70
     0
  9
$DIMSCALE
 40
1.0
  9
$DIMASZ
 40
10.0
  9
$DIMEXO
 40
30.0
  9
$DIMDLI
 40
1.0
  9
$DIMRND
 40
0.0
  9
$DIMDLE
 40
0.0
  9
$DIMEXE
 40
0.0
  9
$DIMTP
 40
0.0
  9
$DIMTM
 40
0.0
  9
$DIMTXT
 40
24.0
  9
$DIMCEN
 40
0.0
  9
$DIMTSZ
 40
0.0
  9
$DIMTOL
 70
     0
  9
$DIMLIM
 70
     0
  9
$DIMTIH
 70
     0
  9
$DIMTOH
 70
     0
  9
$DIMSE1
 70
     0
  9
$DIMSE2
 70
     0
  9
$DIMTAD
 70
     1
  9
$DIMZIN
 70
    11
  9
$DIMBLK
  1
DOT
  9
$DIMASO
 70
     1
  9
$DIMSHO
 70
     1
  9
$DIMPOST
  1
<>
  9
$DIMAPOST
  1
[]
  9
$DIMALT
 70
     0
  9
$DIMALTD
 70
     1
  9
$DIMALTF
 40
1.0
  9
$DIMLFAC
 40
1.0
  9
$DIMTOFL
 70
     0
  9
$DIMTVP
 40
0.0
  9
$DIMTIX
 70
     1
  9
$DIMSOXD
 70
     0
  9
$DIMSAH
 70
     0
  9
$DIMBLK1
  1

  9
$DIMBLK2
  1

  9
$DIMSTYLE
  2
tfrom線あり
  9
$DIMCLRD
 70
     0
  9
$DIMCLRE
 70
     0
  9
$DIMCLRT
 70
     0
  9
$DIMTFAC
 40
1.0
  9
$DIMGAP
 40
20.0
  9
$DIMJUST
 70
     0
  9
$DIMSD1
 70
     0
  9
$DIMSD2
 70
     0
  9
$DIMTOLJ
 70
     1
  9
$DIMTZIN
 70
    11
  9
$DIMALTZ
 70
    11
  9
$DIMALTTZ
 70
    11
  9
$DIMUPT
 70
     0
  9
$DIMDEC
 70
     0
  9
$DIMTDEC
 70
     1
  9
$DIMALTU
 70
     2
  9
$DIMALTTD
 70
     2
  9
$DIMTXSTY
  7
ＭＳ ゴシック
  9
$DIMAUNIT
 70
     0
  9
$DIMADEC
 70
     2
  9
$DIMALTRND
 40
0.0
  9
$DIMAZIN
 70
     0
  9
$DIMDSEP
 70
    46
  9
$DIMATFIT
 70
     0
  9
$DIMFRAC
 70
     2
  9
$DIMLDRBLK
  1
DOT
  9
$DIMLUNIT
 70
     2
  9
$DIMLWD
 70
    -2
  9
$DIMLWE
 70
    -2
  9
$DIMTMOVE
 70
     0
  9
$DIMFXL
 40
1.0
  9
$DIMFXLON
 70
     0
  9
$DIMJOGANG
 40
0.7853981633974483
  9
$DIMTFILL
 70
     0
  9
$DIMTFILLCLR
 70
     0
  9
$DIMARCSYM
 70
     0
  9
$DIMLTYPE
  6

  9
$DIMLTEX1
  6

  9
$DIMLTEX2
  6

  9
$DIMTXTDIRECTION
 70
     0
  9
$LUNITS
 70
     2
  9
$LUPREC
 70
     0
  9
$SKETCHINC
 40
0.1
  9
$FILLETRAD
 40
0.0
  9
$AUNITS
 70
     0
  9
$AUPREC
 70
     0
  9
$MENU
  1
acad
  9
$ELEVATION
 40
0.0
  9
$PELEVATION
 40
0.0
  9
$THICKNESS
 40
0.0
  9
$LIMCHECK
 70
     0
  9
$CHAMFERA
 40
0.0
  9
$CHAMFERB
 40
0.0
  9
$CHAMFERC
 40
0.0
  9
$CHAMFERD
 40
0.0
  9
$SKPOLY
 70
     0
  9
$TDCREATE
 40
2460283.729965278
  9
$TDUCREATE
 40
2460283.354965278
  9
$TDUPDATE
 40
2460283.731828703
  9
$TDUUPDATE
 40
2460283.356828703
  9
$TDINDWG
 40
0.2550665162
  9
$TDUSRTIMER
 40
2457569.294565856
  9
$USRTIMER
 70
     1
  9
$ANGBASE
 50
0.0
  9
$ANGDIR
 70
     0
  9
$PDMODE
 70
     1
  9
$PDSIZE
 40
-2.0
  9
$PLINEWID
 40
0.0
  9
$SPLFRAME
 70
     0
  9
$SPLINETYPE
 70
     6
  9
$SPLINESEGS
 70
     8
  9
$HANDSEED
  5
1D2B
  9
$SURFTAB1
 70
     6
  9
$SURFTAB2
 70
     6
  9
$SURFTYPE
 70
     6
  9
$SURFU
 70
     6
  9
$SURFV
 70
     6
  9
$UCSBASE
  2

  9
$UCSNAME
  2

  9
$UCSORG
 10
0.0
 20
0.0
 30
0.0
  9
$UCSXDIR
 10
1.0
 20
0.0
 30
0.0
  9
$UCSYDIR
 10
0.0
 20
1.0
 30
0.0
  9
$UCSORTHOREF
  2

  9
$UCSORTHOVIEW
 70
     0
  9
$UCSORGTOP
 10
0.0
 20
0.0
 30
0.0
  9
$UCSORGBOTTOM
 10
0.0
 20
0.0
 30
0.0
  9
$UCSORGLEFT
 10
0.0
 20
0.0
 30
0.0
  9
$UCSORGRIGHT
 10
0.0
 20
0.0
 30
0.0
  9
$UCSORGFRONT
 10
0.0
 20
0.0
 30
0.0
  9
$UCSORGBACK
 10
0.0
 20
0.0
 30
0.0
  9
$PUCSBASE
  2

  9
$PUCSNAME
  2

  9
$PUCSORG
 10
0.0
 20
0.0
 30
0.0
  9
$PUCSXDIR
 10
1.0
 20
0.0
 30
0.0
  9
$PUCSYDIR
 10
0.0
 20
1.0
 30
0.0
  9
$PUCSORTHOREF
  2

  9
$PUCSORTHOVIEW
 70
     0
  9
$PUCSORGTOP
 10
0.0
 20
0.0
 30
0.0
  9
$PUCSORGBOTTOM
 10
0.0
 20
0.0
 30
0.0
  9
$PUCSORGLEFT
 10
0.0
 20
0.0
 30
0.0
  9
$PUCSORGRIGHT
 10
0.0
 20
0.0
 30
0.0
  9
$PUCSORGFRONT
 10
0.0
 20
0.0
 30
0.0
  9
$PUCSORGBACK
 10
0.0
 20
0.0
 30
0.0
  9
$USERI1
 70
     0
  9
$USERI2
 70
     0
  9
$USERI3
 70
     0
  9
$USERI4
 70
     0
  9
$USERI5
 70
     0
  9
$USERR1
 40
0.0
  9
$USERR2
 40
0.0
  9
$USERR3
 40
0.0
  9
$USERR4
 40
0.0
  9
$USERR5
 40
0.0
  9
$WORLDVIEW
 70
     1
  9
$SHADEDGE
 70
     3
  9
$SHADEDIF
 70
    70
  9
$TILEMODE
 70
     1
  9
$MAXACTVP
 70
    64
  9
$PINSBASE
 10
0.0
 20
0.0
 30
0.0
  9
$PLIMCHECK
 70
     0
  9
$PEXTMIN
 10
0.0
 20
0.0
 30
0.0
  9
$PEXTMAX
 10
0.0
 20
0.0
 30
0.0
  9
$PLIMMIN
 10
-95.87226993865028
 20
-25.69999999999999
  9
$PLIMMAX
 10
201.1277300613496
 20
184.3
  9
$UNITMODE
 70
     0
  9
$VISRETAIN
 70
     0
  9
$PLINEGEN
 70
     1
  9
$PSLTSCALE
 70
     0
  9
$TREEDEPTH
 70
  3020
  9
$CMLSTYLE
  2
Standard
  9
$CMLJUST
 70
     0
  9
$CMLSCALE
 40
1.0
  9
$PROXYGRAPHICS
 70
     0
  9
$MEASUREMENT
 70
     1
  9
$CELWEIGHT
370
    -1
  9
$ENDCAPS
280
     0
  9
$JOINSTYLE
280
     0
  9
$LWDISPLAY
290
     1
  9
$INSUNITS
 70
     4
  9
$HYPERLINKBASE
  1

  9
$STYLESHEET
  1

  9
$XEDIT
290
     1
  9
$CEPSNTYPE
380
     0
  9
$PSTYLEMODE
290
     1
  9
$FINGERPRINTGUID
  2

  9
$VERSIONGUID
  2
{8141D7E8-2ED6-AF42-9667-1215C22A5972}
  9
$EXTNAMES
290
     1
  9
$PSVPSCALE
 40
0.0
  9
$OLESTARTUP
290
     0
  9
$SORTENTS
280
   127
  9
$INDEXCTL
280
     0
  9
$HIDETEXT
280
     1
  9
$XCLIPFRAME
280
     0
  9
$HALOGAP
280
     0
  9
$OBSCOLOR
 70
   257
  9
$OBSLTYPE
280
     0
  9
$INTERSECTIONDISPLAY
280
     0
  9
$INTERSECTIONCOLOR
 70
   257
  9
$DIMASSOC
280
     2
  9
$PROJECTNAME
  1

  9
$CAMERADISPLAY
290
     0
  9
$LENSLENGTH
 40
50.0
  9
$CAMERAHEIGHT
 40
0.0
  9
$STEPSPERSEC
 40
2.0
  9
$STEPSIZE
 40
6.0
  9
$3DDWFPREC
 40
2.0
  9
$PSOLWIDTH
 40
0.25
  9
$PSOLHEIGHT
 40
4.0
  9
$LOFTANG1
 40
1.570796326794897
  9
$LOFTANG2
 40
1.570796326794897
  9
$LOFTMAG1
 40
0.0
  9
$LOFTMAG2
 40
0.0
  9
$LOFTPARAM
 70
     7
  9
$LOFTNORMALS
280
     1
  9
$LATITUDE
 40
37.795
  9
$LONGITUDE
 40
-122.394
  9
$NORTHDIRECTION
 40
0.0
  9
$TIMEZONE
 70
 -8000
  9
$LIGHTGLYPHDISPLAY
280
     1
  9
$TILEMODELIGHTSYNCH
280
     1
  9
$CMATERIAL
347
264
  9
$SOLIDHIST
280
     1
  9
$SHOWHIST
280
     1
  9
$DWFFRAME
280
     2
  9
$DGNFRAME
280
     2
  9
$REALWORLDSCALE
290
     1
  9
$INTERFERECOLOR
 62
   256
  9
$INTERFEREOBJVS
345
270
  9
$INTERFEREVPVS
346
8FA
  9
$CSHADOW
280
     0
  9
$SHADOWPLANELOCATION
 40
0.0
  0
ENDSEC
  0
SECTION
  2
CLASSES
  0
CLASS
  1
IMAGE
  2
AcDbRasterImage
  3
ISM
 90
     2175
 91
        0
280
     0
281
     1
  0
CLASS
  1
DICTIONARYVAR
  2
AcDbDictionaryVar
  3
ObjectDBX Classes
 90
        0
 91
       30
280
     0
281
     0
  0
CLASS
  1
RASTERVARIABLES
  2
AcDbRasterVariables
  3
ISM
 90
        0
 91
        1
280
     0
281
     0
  0
CLASS
  1
IMAGEDEF
  2
AcDbRasterImageDef
  3
ISM
 90
        0
 91
        0
280
     0
281
     0
  0
CLASS
  1
IMAGEDEF_REACTOR
  2
AcDbRasterImageDefReactor
  3
ISM
 90
        1
 91
        0
280
     0
281
     0
  0
CLASS
  1
IDBUFFER
  2
AcDbIdBuffer
  3
ObjectDBX Classes
 90
        0
 91
        0
280
     0
281
     0
  0
CLASS
  1
SPATIAL_FILTER
  2
AcDbSpatialFilter
  3
ObjectDBX Classes
 90
        0
 91
        0
280
     0
281
     0
  0
CLASS
  1
SORTENTSTABLE
  2
AcDbSortentsTable
  3
ObjectDBX Classes
 90
        0
 91
        0
280
     0
281
     0
  0
CLASS
  1
LAYER_INDEX
  2
AcDbLayerIndex
  3
ObjectDBX Classes
 90
        0
 91
        0
280
     0
281
     0
  0
CLASS
  1
SPATIAL_INDEX
  2
AcDbSpatialIndex
  3
ObjectDBX Classes
 90
        0
 91
        0
280
     0
281
     0
  0
CLASS
  1
OBJECT_PTR
  2
CAseDLPNTableRecord
  3
ASE-LPNTableRecord
 90
        1
 91
        0
280
     0
281
     0
  0
CLASS
  1
PLOTSETTINGS
  2
AcDbPlotSettings
  3
ObjectDBX Classes
 90
        0
 91
        0
280
     0
281
     0
  0
CLASS
  1
ACDBDICTIONARYWDFLT
  2
AcDbDictionaryWithDefault
  3
ObjectDBX Classes
 90
        0
 91
        1
280
     0
281
     0
  0
CLASS
  1
SCALE
  2
AcDbScale
  3
ObjectDBX Classes
 90
     1153
 91
       33
280
     0
281
     0
  0
CLASS
  1
MATERIAL
  2
AcDbMaterial
  3
ObjectDBX Classes
 90
     1153
 91
        3
280
     0
281
     0
  0
CLASS
  1
VISUALSTYLE
  2
AcDbVisualStyle
  3
ObjectDBX Classes
 90
     4095
 91
       26
280
     0
281
     0
  0
CLASS
  1
TABLESTYLE
  2
AcDbTableStyle
  3
ObjectDBX Classes
 90
     4095
 91
        1
280
     0
281
     0
  0
CLASS
  1
DIMASSOC
  2
AcDbDimAssoc
  3
"AcDbDimAssoc|Product Desc:     AcDim ARX App For Dimension|Company:          Autodesk, Inc.|WEB Address:      www.autodesk.com"
 90
        0
 91
        1
280
     0
281
     0
  0
CLASS
  1
CELLSTYLEMAP
  2
AcDbCellStyleMap
  3
ObjectDBX Classes
 90
     1152
 91
        6
280
     0
281
     0
  0
CLASS
  1
SUN
  2
AcDbSun
  3
SCENEOE
 90
     1153
 91
        1
280
     0
281
     0
  0
CLASS
  1
MLEADERSTYLE
  2
AcDbMLeaderStyle
  3
ACDB_MLEADERSTYLE_CLASS
 90
     4095
 91
        1
280
     0
281
     0
  0
CLASS
  1
FIELD
  2
AcDbField
  3
ObjectDBX Classes
 90
     1152
 91
        2
280
     0
281
     0
  0
CLASS
  1
FIELDLIST
  2
AcDbFieldList
  3
ObjectDBX Classes
 90
     1152
 91
        1
280
     0
281
     0
  0
CLASS
  1
ACDBSECTIONVIEWSTYLE
  2
AcDbSectionViewStyle
  3
ObjectDBX Classes
 90
     1025
 91
        1
280
     0
281
     0
  0
CLASS
  1
ACDBDETAILVIEWSTYLE
  2
AcDbDetailViewStyle
  3
ObjectDBX Classes
 90
     1025
 91
        1
280
     0
281
     0
  0
ENDSEC
  0
SECTION
  2
TABLES
  0
TABLE
  2
VPORT
  5
7
330
0
100
AcDbSymbolTable
 70
     1
  0
VPORT
  5
15
330
7
100
AcDbSymbolTableRecord
100
AcDbViewportTableRecord
  2
*ACTIVE
 70
     0
 10
0.0
 20
0.0
 11
1.0
 21
1.0
 12
1145.724696842294
 22
1300.060000638687
 13
0.0
 23
0.0
 14
1.0
 24
1.0
 15
0.0
 25
0.0
 16
0.0
 26
0.0
 36
1.0
 17
-91.02013567089851
 27
73.59871453016603
 37
-46.86809886248109
 40
2979.55586136097
 41
1.841052631578947
 42
50.0
 43
0.0
 44
0.0
 50
0.0
 51
0.0
 71
    16
 72
  2000
 73
     1
 74
     1
 75
     0
 76
     0
 77
     0
 78
     0
281
     0
 65
     1
110
0.0
120
0.0
130
0.0
111
1.0
121
0.0
131
0.0
112
0.0
122
1.0
132
0.0
 79
     0
146
0.0
348
26C
 60
     3
 61
     5
292
     1
282
     1
141
0.0
142
0.0
361
904
1001
ACAD_NAV_VCDISPLAY
1070
     3
  0
ENDTAB
  0
TABLE
  2
LTYPE
  5
4
330
0
100
AcDbSymbolTable
 70
    21
  0
LTYPE
  5
11
330
4
100
AcDbSymbolTableRecord
100
AcDbLinetypeTableRecord
  2
ByBlock
 70
     0
  3

 72
    65
 73
     0
 40
0.0
  0
LTYPE
  5
12
330
4
100
AcDbSymbolTableRecord
100
AcDbLinetypeTableRecord
  2
ByLayer
 70
     0
  3

 72
    65
 73
     0
 40
0.0
  0
LTYPE
  5
13
330
4
100
AcDbSymbolTableRecord
100
AcDbLinetypeTableRecord
  2
Continuous
 70
     0
  3
Solid line
 72
    65
 73
     0
 40
0.0
  0
LTYPE
  5
3A
330
4
100
AcDbSymbolTableRecord
100
AcDbLinetypeTableRecord
  2
STYLE_01
 70
     0
  3

 72
    65
 73
     2
 40
0.2460629921259842
 49
0.1230314960629921
 74
     0
 49
-0.1230314960629921
 74
     0
  0
LTYPE
  5
3B
330
4
100
AcDbSymbolTableRecord
100
AcDbLinetypeTableRecord
  2
STYLE_02
 70
     0
  3

 72
    65
 73
     2
 40
0.6944250000000001
 49
0.48607
 74
     0
 49
-0.2083550000000001
 74
     0
  0
LTYPE
  5
3C
330
4
100
AcDbSymbolTableRecord
100
AcDbLinetypeTableRecord
  2
STYLE_03
 70
     0
  3

 72
    65
 73
     2
 40
1.25
 49
1.041639999999999
 74
     0
 49
-0.2083599999999999
 74
     0
  0
LTYPE
  5
3D
330
4
100
AcDbSymbolTableRecord
100
AcDbLinetypeTableRecord
  2
STYLE_04
 70
     0
  3

 72
    65
 73
     2
 40
1.52771
 49
1.319425
 74
     0
 49
-0.208285
 74
     0
  0
LTYPE
  5
3E
330
4
100
AcDbSymbolTableRecord
100
AcDbLinetypeTableRecord
  2
STYLE_05
 70
     0
  3

 72
    65
 73
     2
 40
0.20828
 49
0.069425
 74
     0
 49
-0.138855
 74
     0
  0
LTYPE
  5
3F
330
4
100
AcDbSymbolTableRecord
100
AcDbLinetypeTableRecord
  2
STYLE_06
 70
     0
  3

 72
    65
 73
     4
 40
1.041639999999999
 49
0.625
 74
     0
 49
-0.20828
 74
     0
 49
0.06943
 74
     0
 49
-0.13893
 74
     0
  0
LTYPE
  5
40
330
4
100
AcDbSymbolTableRecord
100
AcDbLinetypeTableRecord
  2
STYLE_07
 70
     0
  3

 72
    65
 73
     6
 40
1.875
 49
0.625
 74
     0
 49
-0.20828
 74
     0
 49
0.6250000000000001
 74
     0
 49
-0.2083599999999999
 74
     0
 49
0.06943
 74
     0
 49
-0.1389299999999999
 74
     0
  0
LTYPE
  5
41
330
4
100
AcDbSymbolTableRecord
100
AcDbLinetypeTableRecord
  2
STYLE_08
 70
     0
  3

 72
    65
 73
     6
 40
1.25
 49
0.625
 74
     0
 49
-0.20828
 74
     0
 49
0.06943
 74
     0
 49
-0.13893
 74
     0
 49
0.0694299999999999
 74
     0
 49
-0.13893
 74
     0
  0
LTYPE
  5
42
330
4
100
AcDbSymbolTableRecord
100
AcDbLinetypeTableRecord
  2
STYLE_09
 70
     0
  3

 72
    65
 73
     4
 40
5.0
 49
3.75
 74
     0
 49
-0.2777849999999998
 74
     0
 49
0.6944300000000004
 74
     0
 49
-0.2777849999999998
 74
     0
  0
LTYPE
  5
43
330
4
100
AcDbSymbolTableRecord
100
AcDbLinetypeTableRecord
  2
STYLE_10
 70
     0
  3

 72
    65
 73
     6
 40
5.9375
 49
3.75
 74
     0
 49
-0.2777849999999998
 74
     0
 49
0.6944300000000004
 74
     0
 49
-0.2777849999999998
 74
     0
 49
0.625
 74
     0
 49
-0.3125
 74
     0
  0
LTYPE
  5
44
330
4
100
AcDbSymbolTableRecord
100
AcDbLinetypeTableRecord
  2
STYLE_11
 70
     0
  3

 72
    65
 73
     2
 40
0.0694444881889764
 49
0.0347222440944882
 74
     0
 49
-0.0347222440944882
 74
     0
  0
LTYPE
  5
45
330
4
100
AcDbSymbolTableRecord
100
AcDbLinetypeTableRecord
  2
STYLE_12
 70
     0
  3

 72
    65
 73
     2
 40
0.3937007874015748
 49
0.1968503937007874
 74
     0
 49
-0.1968503937007874
 74
     0
  0
LTYPE
  5
46
330
4
100
AcDbSymbolTableRecord
100
AcDbLinetypeTableRecord
  2
STYLE_13
 70
     0
  3

 72
    65
 73
     2
 40
0.5905511811023622
 49
0.2952755905511811
 74
     0
 49
-0.2952755905511811
 74
     0
  0
LTYPE
  5
47
330
4
100
AcDbSymbolTableRecord
100
AcDbLinetypeTableRecord
  2
STYLE_14
 70
     0
  3

 72
    65
 73
     2
 40
1.968503937007873
 49
0.9842519685039368
 74
     0
 49
-0.9842519685039368
 74
     0
  0
LTYPE
  5
48
330
4
100
AcDbSymbolTableRecord
100
AcDbLinetypeTableRecord
  2
STYLE_15
 70
     0
  3

 72
    65
 73
     2
 40
0.1875
 49
0.125
 74
     0
 49
-0.0625
 74
     0
  0
LTYPE
  5
49
330
4
100
AcDbSymbolTableRecord
100
AcDbLinetypeTableRecord
  2
STYLE_16
 70
     0
  3

 72
    65
 73
     2
 40
0.3690944881889764
 49
0.2460629921259843
 74
     0
 49
-0.1230314960629922
 74
     0
  0
LTYPE
  5
908
330
4
100
AcDbSymbolTableRecord
100
AcDbLinetypeTableRecord
  2
AI-LINETYPE-1
 70
     0
  3
Adobe Illustrator Linetype No. 1
 72
    65
 73
     4
 40
2.11666806249166
 49
1.05833403124583
 74
     0
 49
-0.3527780104152769
 74
     0
 49
0.3527780104152769
 74
     0
 49
-0.3527780104152769
 74
     0
  0
LTYPE
  5
909
330
4
100
AcDbSymbolTableRecord
100
AcDbLinetypeTableRecord
  2
AI-LINETYPE-2
 70
     0
  3
Adobe Illustrator Linetype No. 2
 72
    65
 73
     4
 40
2.11666806249166
 49
1.05833403124583
 74
     0
 49
-0.3527780104152769
 74
     0
 49
0.3527780104152769
 74
     0
 49
-0.3527780104152769
 74
     0
  0
LTYPE
  5
DAF
330
4
100
AcDbSymbolTableRecord
100
AcDbLinetypeTableRecord
  2
BORDER
 70
     0
  3
Border __  __  . __  __  . __  __  . __  __  . 
 72
    65
 73
     6
 40
44.45
 49
12.7
 74
     0
 49
-6.349999999999999
 74
     0
 49
12.7
 74
     0
 49
-6.349999999999999
 74
     0
 49
0.0
 74
     0
 49
-6.349999999999999
 74
     0
  0
LTYPE
  5
DF8
330
4
100
AcDbSymbolTableRecord
100
AcDbLinetypeTableRecord
  2
HIDDEN
 70
     0
  3
Hidden _ _ _ _ _ _ _ _ _ _ _ _ _ _ _ _ _ _ _ _ 
 72
    65
 73
     2
 40
9.525
 49
6.349999999999999
 74
     0
 49
-3.174999999999999
 74
     0
  0
ENDTAB
  0
TABLE
  2
LAYER
  5
2
102
{ACAD_XDICTIONARY
360
2E1
102
}
330
0
100
AcDbSymbolTable
 70
     8
  0
LAYER
  5
14
102
{ACAD_XDICTIONARY
360
15DE
102
}
330
2
100
AcDbSymbolTableRecord
100
AcDbLayerTableRecord
  2
0
 70
     0
 62
     7
  6
Continuous
370
    -3
390
1D
347
266
348
0
  0
LAYER
  5
4B
102
{ACAD_XDICTIONARY
360
15E0
102
}
330
2
100
AcDbSymbolTableRecord
100
AcDbLayerTableRecord
  2
TEMPLATE
 70
     0
 62
     7
  6
Continuous
370
    20
390
1D
347
266
348
0
  0
LAYER
  5
4C
102
{ACAD_XDICTIONARY
360
15E2
102
}
330
2
100
AcDbSymbolTableRecord
100
AcDbLayerTableRecord
  2
DIM
 70
     0
 62
     3
  6
Continuous
370
    13
390
1D
347
266
348
0
  0
LAYER
  5
4D
102
{ACAD_XDICTIONARY
360
15E4
102
}
330
2
100
AcDbSymbolTableRecord
100
AcDbLayerTableRecord
  2
MODEL
 70
     0
 62
     7
  6
Continuous
370
    20
390
1D
347
266
348
0
  0
LAYER
  5
667
102
{ACAD_XDICTIONARY
360
15E6
102
}
330
2
100
AcDbSymbolTableRecord
100
AcDbLayerTableRecord
  2
LOGO
 70
     0
 62
     7
  6
Continuous
370
    -3
390
1D
347
266
348
0
  0
LAYER
  5
88C
102
{ACAD_XDICTIONARY
360
15E8
102
}
330
2
100
AcDbSymbolTableRecord
100
AcDbLayerTableRecord
  2
HIDDEN
 70
     0
 62
     8
  6
HIDDEN
370
    20
390
1D
347
266
348
0
1001
AcAecLayerStandard
1000

1000

  0
LAYER
  5
D5D
330
2
100
AcDbSymbolTableRecord
100
AcDbLayerTableRecord
  2
Defpoints
 70
     0
 62
     7
  6
Continuous
290
     0
370
    -3
390
1D
347
266
348
0
  0
LAYER
  5
DAE
102
{ACAD_XDICTIONARY
360
15EA
102
}
330
2
100
AcDbSymbolTableRecord
100
AcDbLayerTableRecord
  2
BORDER
 70
     0
 62
     4
  6
BORDER
290
     0
370
    20
390
1D
347
266
348
0
1001
AcAecLayerStandard
1000

1000

  0
ENDTAB
  0
TABLE
  2
STYLE
  5
3
330
0
100
AcDbSymbolTable
 70
     4
  0
STYLE
  5
17
330
3
100
AcDbSymbolTableRecord
100
AcDbTextStyleTableRecord
  2
Standard
 70
     0
 40
0.0
 41
1.0
 50
0.0
 71
     0
 42
2.5
  3
txt
  4
BIGFONT.SHX
  0
STYLE
  5
39
330
3
100
AcDbSymbolTableRecord
100
AcDbTextStyleTableRecord
  2
ＭＳ ゴシック
 70
     0
 40
0.0
 41
1.0
 50
0.0
 71
     0
 42
2.5
  3
MS Gothic.ttf
  4
ＭＳ ゴシック
1001
ACAD
1000
ＭＳ ゴシック
1071
        0
  0
STYLE
  5
384
330
3
100
AcDbSymbolTableRecord
100
AcDbTextStyleTableRecord
  2
ARIAL
 70
     0
 40
0.0
 41
1.0
 50
0.0
 71
     0
 42
12.0
  3
ARIAL.TTF
  4

1001
ACAD
1000
Arial
1071
       34
  0
STYLE
  5
385
330
3
100
AcDbSymbolTableRecord
100
AcDbTextStyleTableRecord
  2
ROMANS
 70
     0
 40
0.0
 41
1.0
 50
0.0
 71
     0
 42
5.0
  3
romans.shx
  4

  0
ENDTAB
  0
TABLE
  2
VIEW
  5
5
330
0
100
AcDbSymbolTable
 70
     1
  0
ENDTAB
  0
TABLE
  2
UCS
  5
6
330
0
100
AcDbSymbolTable
 70
     0
  0
ENDTAB
  0
TABLE
  2
APPID
  5
8
330
0
100
AcDbSymbolTable
 70
     5
  0
APPID
  5
16
330
8
100
AcDbSymbolTableRecord
100
AcDbRegAppTableRecord
  2
ACAD
 70
     0
  0
APPID
  5
7AC
330
8
100
AcDbSymbolTableRecord
100
AcDbRegAppTableRecord
  2
AcAecLayerStandard
 70
     0
  0
APPID
  5
F3A
330
8
100
AcDbSymbolTableRecord
100
AcDbRegAppTableRecord
  2
ACAD_MLEADERVER
 70
     0
  0
APPID
  5
15EE
330
8
100
AcDbSymbolTableRecord
100
AcDbRegAppTableRecord
  2
DCO15
 70
     0
  0
APPID
  5
15F4
330
8
100
AcDbSymbolTableRecord
100
AcDbRegAppTableRecord
  2
ACAD_NAV_VCDISPLAY
 70
     0
  0
ENDTAB
  0
TABLE
  2
DIMSTYLE
  5
9
330
0
100
AcDbSymbolTable
 70
     5
100
AcDbDimStyleTable
 71
     0
  0
DIMSTYLE
105
18
330
9
100
AcDbSymbolTableRecord
100
AcDbDimStyleTableRecord
  2
Standard
 70
     0
340
17
  0
DIMSTYLE
105
56
330
9
100
AcDbSymbolTableRecord
100
AcDbDimStyleTableRecord
  2
tform線あり
 70
     0
  3
<>
  4
[]
 41
9.999389648437498
 42
25.0
 43
1.0
 44
0.0
 73
     0
 74
     0
 77
     1
 78
    11
140
24.4326171875
141
0.0
143
1.0
146
0.8
147
0.5
171
     1
172
     1
174
     1
179
     2
271
     1
272
     1
276
     2
284
    11
285
    11
286
    11
289
     0
340
39
341
4E
342
4E
  0
DIMSTYLE
105
57
102
{ACAD_REACTORS
330
1173
330
1176
330
1177
330
1178
330
1179
330
117A
330
117B
330
1191
330
1199
330
119E
330
1291
330
12B4
330
12CF
330
12E6
102
}
330
9
100
AcDbSymbolTableRecord
100
AcDbDimStyleTableRecord
  2
tfrom線あり
 70
     0
  3
<>
  4
[]
 41
10.0
 42
30.0
 43
1.0
 44
0.0
 73
     0
 74
     0
 77
     1
 78
    11
140
24.0
141
0.0
143
1.0
147
20.0
171
     1
174
     1
179
     2
271
     0
272
     1
276
     2
284
    11
285
    11
286
    11
289
     0
340
39
341
4E
342
4E
  0
DIMSTYLE
105
5C
330
9
100
AcDbSymbolTableRecord
100
AcDbDimStyleTableRecord
  2
JIS
 70
     0
  3
<>
  4
[]
 41
9.0
 42
0.0
 43
6.99999999999994
 44
19.9999999999962
 73
     0
 74
     0
 77
     1
 78
    11
140
24.4326171875
141
0.0
143
1.0
147
10.0
171
     1
174
     1
179
     2
271
     1
272
     1
276
     2
284
    11
285
    11
286
    11
289
     0
340
39
341
4E
342
4E
  0
DIMSTYLE
105
383
330
9
100
AcDbSymbolTableRecord
100
AcDbDimStyleTableRecord
  2
ARIAL
 70
     0
 41
10.0
 42
3.0
 43
0.5
 44
3.0
 73
     0
 74
     0
 77
     1
 78
     8
140
12.0
141
0.0
146
0.5
147
4.0
171
     1
172
     1
271
     1
289
     0
340
384
  0
ENDTAB
  0
TABLE
  2
BLOCK_RECORD
  5
1
330
0
100
AcDbSymbolTable
 70
    46
  0
BLOCK_RECORD
  5
A
330
1
100
AcDbSymbolTableRecord
100
AcDbBlockTableRecord
  2
*MODEL_SPACE
340
20
 70
     0
280
     1
281
     0
  0
BLOCK_RECORD
  5
B
330
1
100
AcDbSymbolTableRecord
100
AcDbBlockTableRecord
  2
*PAPER_SPACE
340
21
 70
     0
280
     1
281
     0
  0
BLOCK_RECORD
  5
4E
330
1
100
AcDbSymbolTableRecord
100
AcDbBlockTableRecord
  2
_DOT
340
0
102
{BLKREFS
331
D65
331
D66
331
D7D
331
D7E
331
D8F
331
D90
331
E1A
331
E1B
331
E2D
331
E2E
331
E4C
331
E4D
331
E8C
331
E8D
331
E9B
331
E9C
331
EAF
331
EB0
331
ED9
331
EDA
331
EE8
331
EE9
331
13D5
331
13D6
331
13E7
331
13E8
331
1479
331
147A
331
1021
331
1022
331
1030
331
1031
331
103D
331
103E
331
104A
331
104B
331
1057
331
1058
331
1064
331
1065
331
1070
331
1071
331
1094
331
1095
331
10A8
331
10A9
331
10B8
331
10B9
331
11A7
331
11A8
331
11B3
331
11B4
331
11BF
331
11C0
331
11CB
331
11CC
331
11D7
331
11D8
331
11E3
331
11E4
331
11EE
331
11EF
331
11FA
331
11FB
331
1206
331
1207
331
1212
331
1213
331
1279
331
127A
331
1298
331
1299
331
12BC
331
12BD
331
12D6
331
12D7
331
12ED
331
12EE
331
13AC
331
13AD
102
}
 70
     0
280
     1
281
     0
  0
BLOCK_RECORD
  5
68A
330
1
100
AcDbSymbolTableRecord
100
AcDbBlockTableRecord
  2
名称未設定-1
340
0
102
{BLKREFS
331
6B5
102
}
 70
     1
280
     1
281
     0
  0
BLOCK_RECORD
  5
68D
330
1
100
AcDbSymbolTableRecord
100
AcDbBlockTableRecord
  2
block 2
340
0
102
{BLKREFS
331
68C
102
}
 70
     0
280
     1
281
     0
  0
BLOCK_RECORD
  5
690
330
1
100
AcDbSymbolTableRecord
100
AcDbBlockTableRecord
  2
block 3
340
0
102
{BLKREFS
331
68F
102
}
 70
     0
280
     1
281
     0
  0
BLOCK_RECORD
  5
693
330
1
100
AcDbSymbolTableRecord
100
AcDbBlockTableRecord
  2
block 4
340
0
102
{BLKREFS
331
692
102
}
 70
     0
280
     1
281
     0
  0
BLOCK_RECORD
  5
6A2
330
1
100
AcDbSymbolTableRecord
100
AcDbBlockTableRecord
  2
block 5
340
0
102
{BLKREFS
331
6A1
102
}
 70
     0
280
     1
281
     0
  0
BLOCK_RECORD
  5
D5F
330
1
100
AcDbSymbolTableRecord
100
AcDbBlockTableRecord
  2
*D6
340
0
 70
     0
280
     1
281
     0
  0
BLOCK_RECORD
  5
D77
330
1
100
AcDbSymbolTableRecord
100
AcDbBlockTableRecord
  2
*D7
340
0
 70
     0
280
     1
281
     0
  0
BLOCK_RECORD
  5
D89
330
1
100
AcDbSymbolTableRecord
100
AcDbBlockTableRecord
  2
*D8
340
0
 70
     0
280
     1
281
     0
  0
BLOCK_RECORD
  5
E14
330
1
100
AcDbSymbolTableRecord
100
AcDbBlockTableRecord
  2
*D9
340
0
 70
     0
280
     1
281
     0
  0
BLOCK_RECORD
  5
E27
330
1
100
AcDbSymbolTableRecord
100
AcDbBlockTableRecord
  2
*D10
340
0
 70
     0
280
     1
281
     0
  0
BLOCK_RECORD
  5
E46
330
1
100
AcDbSymbolTableRecord
100
AcDbBlockTableRecord
  2
*D11
340
0
 70
     0
280
     1
281
     0
  0
BLOCK_RECORD
  5
E85
330
1
100
AcDbSymbolTableRecord
100
AcDbBlockTableRecord
  2
*D12
340
0
 70
     0
280
     1
281
     0
  0
BLOCK_RECORD
  5
E95
330
1
100
AcDbSymbolTableRecord
100
AcDbBlockTableRecord
  2
*D13
340
0
 70
     0
280
     1
281
     0
  0
BLOCK_RECORD
  5
EA9
330
1
100
AcDbSymbolTableRecord
100
AcDbBlockTableRecord
  2
*D14
340
0
 70
     0
280
     1
281
     0
  0
BLOCK_RECORD
  5
ED3
330
1
100
AcDbSymbolTableRecord
100
AcDbBlockTableRecord
  2
*D15
340
0
 70
     0
280
     1
281
     0
  0
BLOCK_RECORD
  5
EE2
330
1
100
AcDbSymbolTableRecord
100
AcDbBlockTableRecord
  2
*D16
340
0
 70
     0
280
     1
281
     0
  0
BLOCK_RECORD
  5
101C
330
1
100
AcDbSymbolTableRecord
100
AcDbBlockTableRecord
  2
*D17
340
0
 70
     0
280
     1
281
     0
  0
BLOCK_RECORD
  5
102B
330
1
100
AcDbSymbolTableRecord
100
AcDbBlockTableRecord
  2
*D18
340
0
 70
     0
280
     1
281
     0
  0
BLOCK_RECORD
  5
1038
330
1
100
AcDbSymbolTableRecord
100
AcDbBlockTableRecord
  2
*D19
340
0
 70
     0
280
     1
281
     0
  0
BLOCK_RECORD
  5
1045
330
1
100
AcDbSymbolTableRecord
100
AcDbBlockTableRecord
  2
*D20
340
0
 70
     0
280
     1
281
     0
  0
BLOCK_RECORD
  5
1052
330
1
100
AcDbSymbolTableRecord
100
AcDbBlockTableRecord
  2
*D21
340
0
 70
     0
280
     1
281
     0
  0
BLOCK_RECORD
  5
105F
330
1
100
AcDbSymbolTableRecord
100
AcDbBlockTableRecord
  2
*D22
340
0
 70
     0
280
     1
281
     0
  0
BLOCK_RECORD
  5
106C
330
1
100
AcDbSymbolTableRecord
100
AcDbBlockTableRecord
  2
*D23
340
0
 70
     0
280
     1
281
     0
  0
BLOCK_RECORD
  5
108F
330
1
100
AcDbSymbolTableRecord
100
AcDbBlockTableRecord
  2
*D24
340
0
 70
     0
280
     1
281
     0
  0
BLOCK_RECORD
  5
10A3
330
1
100
AcDbSymbolTableRecord
100
AcDbBlockTableRecord
  2
*D25
340
0
 70
     0
280
     1
281
     0
  0
BLOCK_RECORD
  5
10B3
330
1
100
AcDbSymbolTableRecord
100
AcDbBlockTableRecord
  2
*D26
340
0
 70
     0
280
     1
281
     0
  0
BLOCK_RECORD
  5
11A1
330
1
100
AcDbSymbolTableRecord
100
AcDbBlockTableRecord
  2
*D27
340
0
 70
     0
280
     1
281
     0
  0
BLOCK_RECORD
  5
11AD
330
1
100
AcDbSymbolTableRecord
100
AcDbBlockTableRecord
  2
*D28
340
0
 70
     0
280
     1
281
     0
  0
BLOCK_RECORD
  5
11B9
330
1
100
AcDbSymbolTableRecord
100
AcDbBlockTableRecord
  2
*D29
340
0
 70
     0
280
     1
281
     0
  0
BLOCK_RECORD
  5
11C5
330
1
100
AcDbSymbolTableRecord
100
AcDbBlockTableRecord
  2
*D30
340
0
 70
     0
280
     1
281
     0
  0
BLOCK_RECORD
  5
11D1
330
1
100
AcDbSymbolTableRecord
100
AcDbBlockTableRecord
  2
*D31
340
0
 70
     0
280
     1
281
     0
  0
BLOCK_RECORD
  5
11DD
330
1
100
AcDbSymbolTableRecord
100
AcDbBlockTableRecord
  2
*D32
340
0
 70
     0
280
     1
281
     0
  0
BLOCK_RECORD
  5
11E9
330
1
100
AcDbSymbolTableRecord
100
AcDbBlockTableRecord
  2
*D33
340
0
 70
     0
280
     1
281
     0
  0
BLOCK_RECORD
  5
11F4
330
1
100
AcDbSymbolTableRecord
100
AcDbBlockTableRecord
  2
*D34
340
0
 70
     0
280
     1
281
     0
  0
BLOCK_RECORD
  5
1200
330
1
100
AcDbSymbolTableRecord
100
AcDbBlockTableRecord
  2
*D35
340
0
 70
     0
280
     1
281
     0
  0
BLOCK_RECORD
  5
120C
330
1
100
AcDbSymbolTableRecord
100
AcDbBlockTableRecord
  2
*D36
340
0
 70
     0
280
     1
281
     0
  0
BLOCK_RECORD
  5
1273
330
1
100
AcDbSymbolTableRecord
100
AcDbBlockTableRecord
  2
*D37
340
0
 70
     0
280
     1
281
     0
  0
BLOCK_RECORD
  5
1292
330
1
100
AcDbSymbolTableRecord
100
AcDbBlockTableRecord
  2
*D38
340
0
 70
     0
280
     1
281
     0
  0
BLOCK_RECORD
  5
12B7
330
1
100
AcDbSymbolTableRecord
100
AcDbBlockTableRecord
  2
*D39
340
0
 70
     0
280
     1
281
     0
  0
BLOCK_RECORD
  5
12D0
330
1
100
AcDbSymbolTableRecord
100
AcDbBlockTableRecord
  2
*D40
340
0
 70
     0
280
     1
281
     0
  0
BLOCK_RECORD
  5
12E7
330
1
100
AcDbSymbolTableRecord
100
AcDbBlockTableRecord
  2
*D41
340
0
 70
     0
280
     1
281
     0
  0
BLOCK_RECORD
  5
13A7
330
1
100
AcDbSymbolTableRecord
100
AcDbBlockTableRecord
  2
*D42
340
0
 70
     0
280
     1
281
     0
  0
BLOCK_RECORD
  5
13CD
330
1
100
AcDbSymbolTableRecord
100
AcDbBlockTableRecord
  2
*D43
340
0
 70
     0
280
     1
281
     0
  0
BLOCK_RECORD
  5
13E0
330
1
100
AcDbSymbolTableRecord
100
AcDbBlockTableRecord
  2
*D44
340
0
 70
     0
280
     1
281
     0
  0
BLOCK_RECORD
  5
1473
330
1
100
AcDbSymbolTableRecord
100
AcDbBlockTableRecord
  2
*D45
340
0
 70
     0
280
     1
281
     0
  0
ENDTAB
  0
ENDSEC
  0
SECTION
  2
BLOCKS
  0
BLOCK
  5
D
330
A
100
AcDbEntity
  8
0
390
1D
100
AcDbBlockBegin
  2
*MODEL_SPACE
 70
     0
 10
0.0
 20
0.0
 30
0.0
  3
*MODEL_SPACE
  1
*MODEL_SPACE
  0
ENDBLK
  5
E
330
A
100
AcDbEntity
  8
0
390
1D
100
AcDbBlockEnd
  0
BLOCK
  5
F
330
B
100
AcDbEntity
 67
     1
  8
0
390
1D
100
AcDbBlockBegin
  2
*PAPER_SPACE
 70
     0
 10
0.0
 20
0.0
 30
0.0
  3
*PAPER_SPACE
  1
*PAPER_SPACE
  0
ENDBLK
  5
10
330
B
100
AcDbEntity
 67
     1
  8
0
390
1D
100
AcDbBlockEnd
  0
BLOCK
  5
EC4
330
4E
100
AcDbEntity
  8
0
390
1D
100
AcDbBlockBegin
  2
_DOT
 70
     0
 10
0.0
 20
0.0
 30
0.0
  3
_DOT
  1
_DOT
  0
POLYLINE
  5
EC6
330
4E
100
AcDbEntity
  8
0
  6
ByBlock
 62
     0
370
    -2
390
1D
100
AcDb2dPolyline
 66
     1
 10
0.0
 20
0.0
 30
0.0
 70
     1
 40
0.5
 41
0.5
  0
VERTEX
  5
EC7
330
EC6
100
AcDbEntity
  8
0
  6
ByBlock
 62
     0
370
    -2
390
1D
100
AcDbVertex
100
AcDb2dVertex
 10
-0.25
 20
0.0
 30
0.0
 42
1.0
  0
VERTEX
  5
EC8
330
EC6
100
AcDbEntity
  8
0
  6
ByBlock
 62
     0
370
    -2
390
1D
100
AcDbVertex
100
AcDb2dVertex
 10
0.25
 20
0.0
 30
0.0
 42
1.0
  0
SEQEND
  5
EC9
330
EC6
100
AcDbEntity
  8
0
390
1D
  0
LINE
  5
ECA
330
4E
100
AcDbEntity
  8
0
  6
ByBlock
 62
     0
370
    -2
390
1D
100
AcDbLine
 10
-0.5
 20
0.0
 30
0.0
 11
-1.0
 21
0.0
 31
0.0
  0
ENDBLK
  5
ECB
330
4E
100
AcDbEntity
  8
0
390
1D
100
AcDbBlockEnd
  0
BLOCK
  5
68B
330
68A
100
AcDbEntity
  8
0
100
AcDbBlockBegin
  2
名称未設定-1
 70
     0
 10
0.0
 20
0.0
 30
0.0
  3
名称未設定-1
  1
名称未設定-1
  0
INSERT
  5
68F
330
68A
100
AcDbEntity
  8
LOGO
100
AcDbBlockReference
  2
block 3
 10
0.0
 20
0.0
 30
0.0
  0
ENDBLK
  5
6B1
330
68A
100
AcDbEntity
  8
0
100
AcDbBlockEnd
  0
BLOCK
  5
68E
330
68D
100
AcDbEntity
  8
0
100
AcDbBlockBegin
  2
block 2
 70
     0
 10
0.0
 20
0.0
 30
0.0
  3
block 2
  1
block 2
  0
ENDBLK
  5
6B0
330
68D
100
AcDbEntity
  8
0
100
AcDbBlockEnd
  0
BLOCK
  5
691
330
690
100
AcDbEntity
  8
0
100
AcDbBlockBegin
  2
block 3
 70
     0
 10
0.0
 20
0.0
 30
0.0
  3
block 3
  1
block 3
  0
INSERT
  5
692
330
690
100
AcDbEntity
  8
LOGO
100
AcDbBlockReference
  2
block 4
 10
0.0
 20
0.0
 30
0.0
  0
INSERT
  5
6A1
330
690
100
AcDbEntity
  8
LOGO
100
AcDbBlockReference
  2
block 5
 10
0.0
 20
0.0
 30
0.0
  0
ENDBLK
  5
6AF
330
690
100
AcDbEntity
  8
0
100
AcDbBlockEnd
  0
BLOCK
  5
694
330
693
100
AcDbEntity
  8
0
100
AcDbBlockBegin
  2
block 4
 70
     0
 10
0.0
 20
0.0
 30
0.0
  3
block 4
  1
block 4
  0
POLYLINE
  5
695
330
693
100
AcDbEntity
  8
LOGO
370
     0
100
AcDb2dPolyline
 66
     1
 10
0.0
 20
0.0
 30
0.0
  0
VERTEX
  5
696
330
695
100
AcDbEntity
  8
LOGO
370
     0
100
AcDbVertex
100
AcDb2dVertex
 10
83.79545727667794
 20
167.6444858234922
 30
0.0
  0
VERTEX
  5
697
330
695
100
AcDbEntity
  8
LOGO
370
     0
100
AcDbVertex
100
AcDb2dVertex
 10
83.79545727667794
 20
159.7968976406313
 30
0.0
  0
VERTEX
  5
698
330
695
100
AcDbEntity
  8
LOGO
370
     0
100
AcDbVertex
100
AcDb2dVertex
 10
71.36313299752159
 20
159.7968976406313
 30
0.0
  0
VERTEX
  5
699
330
695
100
AcDbEntity
  8
LOGO
370
     0
100
AcDbVertex
100
AcDb2dVertex
 10
71.36313299752159
 20
127.8027915271048
 30
0.0
  0
VERTEX
  5
69A
330
695
100
AcDbEntity
  8
LOGO
370
     0
100
AcDbVertex
100
AcDb2dVertex
 10
60.43011526263017
 20
127.8027915271048
 30
0.0
  0
VERTEX
  5
69B
330
695
100
AcDbEntity
  8
LOGO
370
     0
100
AcDbVertex
100
AcDb2dVertex
 10
60.43011526263017
 20
159.7968976406313
 30
0.0
  0
VERTEX
  5
69C
330
695
100
AcDbEntity
  8
LOGO
370
     0
100
AcDbVertex
100
AcDb2dVertex
 10
48.21793273020759
 20
159.7968976406313
 30
0.0
  0
VERTEX
  5
69D
330
695
100
AcDbEntity
  8
LOGO
370
     0
100
AcDbVertex
100
AcDb2dVertex
 10
48.21793273020759
 20
167.6444858234922
 30
0.0
  0
VERTEX
  5
69E
330
695
100
AcDbEntity
  8
LOGO
370
     0
100
AcDbVertex
100
AcDb2dVertex
 10
83.79545727667794
 20
167.6444858234922
 30
0.0
  0
SEQEND
  5
69F
330
695
100
AcDbEntity
  8
LOGO
370
     0
  0
HATCH
  5
6A0
330
693
100
AcDbEntity
  8
LOGO
 62
   250
420
  2234388
100
AcDbHatch
 10
0.0
 20
0.0
 30
0.0
210
0.0
220
0.0
230
1.0
  2
SOLID
 70
     1
 71
     0
 91
        1
 92
        1
 93
        8
 72
     1
 10
83.79545727667794
 20
167.6444858234922
 11
83.79545727667794
 21
159.7968976406313
 72
     1
 10
83.79545727667794
 20
159.7968976406313
 11
71.36313299752159
 21
159.7968976406313
 72
     1
 10
71.36313299752159
 20
159.7968976406313
 11
71.36313299752159
 21
127.8027915271048
 72
     1
 10
71.36313299752159
 20
127.8027915271048
 11
60.43011526263017
 21
127.8027915271048
 72
     1
 10
60.43011526263017
 20
127.8027915271048
 11
60.43011526263017
 21
159.7968976406313
 72
     1
 10
60.43011526263017
 20
159.7968976406313
 11
48.21793273020759
 21
159.7968976406313
 72
     1
 10
48.21793273020759
 20
159.7968976406313
 11
48.21793273020759
 21
167.6444858234922
 72
     1
 10
48.21793273020759
 20
167.6444858234922
 11
83.79545727667794
 21
167.6444858234922
 97
        0
 75
     2
 76
     1
 98
        0
450
        0
451
        0
460
0.0
461
0.0
452
        0
462
0.0
453
        0
470

  0
ENDBLK
  5
6AE
330
693
100
AcDbEntity
  8
0
100
AcDbBlockEnd
  0
BLOCK
  5
6A3
330
6A2
100
AcDbEntity
  8
0
100
AcDbBlockBegin
  2
block 5
 70
     0
 10
0.0
 20
0.0
 30
0.0
  3
block 5
  1
block 5
  0
SPLINE
  5
6A4
330
6A2
100
AcDbEntity
  8
LOGO
370
     0
100
AcDbSpline
210
0.0
220
0.0
230
1.0
 70
     9
 71
     3
 72
    56
 73
    52
 74
     0
 42
0.000000001
 43
0.0000000001
 40
0.0
 40
0.0
 40
0.0
 40
0.0
 40
1.0
 40
1.0
 40
1.0
 40
2.0
 40
2.0
 40
2.0
 40
3.0
 40
3.0
 40
3.0
 40
4.0
 40
4.0
 40
4.0
 40
5.0
 40
5.0
 40
5.0
 40
6.0
 40
6.0
 40
6.0
 40
7.0
 40
7.0
 40
7.0
 40
8.0
 40
8.0
 40
8.0
 40
9.0
 40
9.0
 40
9.0
 40
10.0
 40
10.0
 40
10.0
 40
11.0
 40
11.0
 40
11.0
 40
12.0
 40
12.0
 40
12.0
 40
13.0
 40
13.0
 40
13.0
 40
14.0
 40
14.0
 40
14.0
 40
15.0
 40
15.0
 40
15.0
 40
16.0
 40
16.0
 40
16.0
 40
17.0
 40
17.0
 40
17.0
 40
17.0
 10
100.4504378777679
 20
166.69157178364
 30
0.0
 10
101.9848844191641
 20
167.1313385124438
 30
0.0
 10
103.9637485713373
 20
166.7649523658846
 30
0.0
 10
103.9637485713373
 20
166.7649523658846
 30
0.0
 10
103.9637485713373
 20
166.7649523658846
 30
0.0
 10
103.0132460999156
 20
163.9112056380769
 30
0.0
 10
103.0132460999156
 20
163.9112056380769
 30
0.0
 10
103.0132460999156
 20
163.9112056380769
 30
0.0
 10
101.0674548862189
 20
164.3601018759394
 30
0.0
 10
99.57090442016031
 20
163.1805004036133
 30
0.0
 10
98.40508333886608
 20
162.258247733807
 30
0.0
 10
97.65301849830306
 20
159.804132345923
 30
0.0
 10
97.35984067910051
 20
158.8699940888517
 30
0.0
 10
97.35984067910051
 20
158.8699940888517
 30
0.0
 10
96.0713741176228
 20
154.9119212747295
 30
0.0
 10
96.0713741176228
 20
154.9119212747295
 30
0.0
 10
96.0713741176228
 20
154.9119212747295
 30
0.0
 10
100.3012651448482
 20
154.9119212747295
 30
0.0
 10
100.3012651448482
 20
154.9119212747295
 30
0.0
 10
100.3012651448482
 20
154.9119212747295
 30
0.0
 10
99.64152892419852
 20
152.4199098115079
 30
0.0
 10
99.64152892419852
 20
152.4199098115079
 30
0.0
 10
99.64152892419852
 20
152.4199098115079
 30
0.0
 10
95.38097652692732
 20
152.4199098115079
 30
0.0
 10
95.38097652692732
 20
152.4199098115079
 30
0.0
 10
95.38097652692732
 20
152.4199098115079
 30
0.0
 10
87.75353009080012
 20
127.8027915271048
 30
0.0
 10
87.75353009080012
 20
127.8027915271048
 30
0.0
 10
87.75353009080012
 20
127.8027915271048
 30
0.0
 10
85.36538832498107
 20
127.8027915271048
 30
0.0
 10
85.36538832498107
 20
127.8027915271048
 30
0.0
 10
85.36538832498107
 20
127.8027915271048
 30
0.0
 10
93.00006946639999
 20
152.4199098115079
 30
0.0
 10
93.00006946639999
 20
152.4199098115079
 30
0.0
 10
93.00006946639999
 20
152.4199098115079
 30
0.0
 10
89.85297266450199
 20
152.4199098115079
 30
0.0
 10
89.85297266450199
 20
152.4199098115079
 30
0.0
 10
89.85297266450199
 20
152.4199098115079
 30
0.0
 10
90.51270888515164
 20
154.9119212747295
 30
0.0
 10
90.51270888515164
 20
154.9119212747295
 30
0.0
 10
90.51270888515164
 20
154.9119212747295
 30
0.0
 10
93.6904670570955
 20
154.9119212747295
 30
0.0
 10
93.6904670570955
 20
154.9119212747295
 30
0.0
 10
93.6904670570955
 20
154.9119212747295
 30
0.0
 10
94.81598049462158
 20
158.3616699146644
 30
0.0
 10
94.81598049462158
 20
158.3616699146644
 30
0.0
 10
95.7237637538445
 20
161.2605474231013
 30
0.0
 10
96.49684369073108
 20
162.8139420021662
 30
0.0
 10
97.15657991138078
 20
163.9844139654337
 30
0.0
 10
97.81183750494509
 20
165.1523021053827
 30
0.0
 10
99.10478269350809
 20
166.3084769129547
 30
0.0
 10
100.4504378777679
 20
166.69157178364
 30
0.0
  0
HATCH
  5
6A5
330
6A2
100
AcDbEntity
  8
LOGO
 62
   250
420
  2234388
100
AcDbHatch
 10
0.0
 20
0.0
 30
0.0
210
0.0
220
0.0
230
1.0
  2
SOLID
 70
     1
 71
     0
 91
        1
 92
        1
 93
        1
 72
     4
 94
        3
 73
     0
 74
     0
 95
       56
 96
       52
 40
0.0
 40
0.0
 40
0.0
 40
0.0
 40
1.0
 40
1.0
 40
1.0
 40
2.0
 40
2.0
 40
2.0
 40
3.0
 40
3.0
 40
3.0
 40
4.0
 40
4.0
 40
4.0
 40
5.0
 40
5.0
 40
5.0
 40
6.0
 40
6.0
 40
6.0
 40
7.0
 40
7.0
 40
7.0
 40
8.0
 40
8.0
 40
8.0
 40
9.0
 40
9.0
 40
9.0
 40
10.0
 40
10.0
 40
10.0
 40
11.0
 40
11.0
 40
11.0
 40
12.0
 40
12.0
 40
12.0
 40
13.0
 40
13.0
 40
13.0
 40
14.0
 40
14.0
 40
14.0
 40
15.0
 40
15.0
 40
15.0
 40
16.0
 40
16.0
 40
16.0
 40
17.0
 40
17.0
 40
17.0
 40
17.0
 10
100.4504378777679
 20
166.69157178364
 10
101.9848844191641
 20
167.1313385124438
 10
103.9637485713373
 20
166.7649523658846
 10
103.9637485713373
 20
166.7649523658846
 10
103.9637485713373
 20
166.7649523658846
 10
103.0132460999156
 20
163.9112056380769
 10
103.0132460999156
 20
163.9112056380769
 10
103.0132460999156
 20
163.9112056380769
 10
101.0674548862189
 20
164.3601018759394
 10
99.57090442016031
 20
163.1805004036133
 10
98.40508333886608
 20
162.258247733807
 10
97.65301849830306
 20
159.804132345923
 10
97.35984067910051
 20
158.8699940888517
 10
97.35984067910051
 20
158.8699940888517
 10
96.0713741176228
 20
154.9119212747295
 10
96.0713741176228
 20
154.9119212747295
 10
96.0713741176228
 20
154.9119212747295
 10
100.3012651448482
 20
154.9119212747295
 10
100.3012651448482
 20
154.9119212747295
 10
100.3012651448482
 20
154.9119212747295
 10
99.64152892419852
 20
152.4199098115079
 10
99.64152892419852
 20
152.4199098115079
 10
99.64152892419852
 20
152.4199098115079
 10
95.38097652692732
 20
152.4199098115079
 10
95.38097652692732
 20
152.4199098115079
 10
95.38097652692732
 20
152.4199098115079
 10
87.75353009080012
 20
127.8027915271048
 10
87.75353009080012
 20
127.8027915271048
 10
87.75353009080012
 20
127.8027915271048
 10
85.36538832498107
 20
127.8027915271048
 10
85.36538832498107
 20
127.8027915271048
 10
85.36538832498107
 20
127.8027915271048
 10
93.00006946639999
 20
152.4199098115079
 10
93.00006946639999
 20
152.4199098115079
 10
93.00006946639999
 20
152.4199098115079
 10
89.85297266450199
 20
152.4199098115079
 10
89.85297266450199
 20
152.4199098115079
 10
89.85297266450199
 20
152.4199098115079
 10
90.51270888515164
 20
154.9119212747295
 10
90.51270888515164
 20
154.9119212747295
 10
90.51270888515164
 20
154.9119212747295
 10
93.6904670570955
 20
154.9119212747295
 10
93.6904670570955
 20
154.9119212747295
 10
93.6904670570955
 20
154.9119212747295
 10
94.81598049462158
 20
158.3616699146644
 10
94.81598049462158
 20
158.3616699146644
 10
95.7237637538445
 20
161.2605474231013
 10
96.49684369073108
 20
162.8139420021662
 10
97.15657991138078
 20
163.9844139654337
 10
97.81183750494509
 20
165.1523021053827
 10
99.10478269350809
 20
166.3084769129547
 10
100.4504378777679
 20
166.69157178364
 97
        0
 97
        0
 75
     2
 76
     1
 98
        0
450
        0
451
        0
460
0.0
461
0.0
452
        0
462
0.0
453
        0
470

  0
SPLINE
  5
6A6
330
6A2
100
AcDbEntity
  8
LOGO
370
     0
100
AcDbSpline
210
0.0
220
0.0
230
1.0
 70
    11
 71
     3
 72
    38
 73
    34
 74
     0
 42
0.000000001
 43
0.0000000001
 40
0.0
 40
0.0
 40
0.0
 40
0.0
 40
1.0
 40
1.0
 40
1.0
 40
2.0
 40
2.0
 40
2.0
 40
3.0
 40
3.0
 40
3.0
 40
4.0
 40
4.0
 40
4.0
 40
5.0
 40
5.0
 40
5.0
 40
6.0
 40
6.0
 40
6.0
 40
7.0
 40
7.0
 40
7.0
 40
8.0
 40
8.0
 40
8.0
 40
9.0
 40
9.0
 40
9.0
 40
10.0
 40
10.0
 40
10.0
 40
11.0
 40
11.0
 40
11.0
 40
11.0
 10
126.377554584636
 20
154.8151140277308
 30
0.0
 10
126.377554584636
 20
154.8151140277308
 30
0.0
 10
128.8311532078563
 20
154.8151140277308
 30
0.0
 10
128.8311532078563
 20
154.8151140277308
 30
0.0
 10
128.8311532078563
 20
154.8151140277308
 30
0.0
 10
127.7345785914971
 20
151.3062819612468
 30
0.0
 10
127.7345785914971
 20
151.3062819612468
 30
0.0
 10
128.571392836906
 20
152.2922689395754
 30
0.0
 10
129.8860421413442
 20
153.604506675583
 30
0.0
 10
131.0163787157314
 20
154.2664822097754
 30
0.0
 10
132.7044766171327
 20
155.2500576196734
 30
0.0
 10
133.6642808525008
 20
155.3847609420097
 30
0.0
 10
134.7284715499351
 20
155.3565111403944
 30
0.0
 10
134.7284715499351
 20
155.3565111403944
 30
0.0
 10
133.6877075172549
 20
152.0345756272799
 30
0.0
 10
133.6877075172549
 20
152.0345756272799
 30
0.0
 10
133.011434827367
 20
152.3184516825359
 30
0.0
 10
130.930940291334
 20
151.7768823149844
 30
0.0
 10
129.739280976855
 20
150.9162968950455
 30
0.0
 10
128.66613302525
 20
150.1454562717016
 30
0.0
 10
127.9192358313239
 20
149.4857200510519
 30
0.0
 10
127.0393578639405
 20
147.8282835196966
 30
0.0
 10
126.164647543194
 20
146.1699857139017
 30
0.0
 10
125.4742499524985
 20
143.5262176944419
 30
0.0
 10
124.2822461282437
 20
139.6959580071401
 30
0.0
 10
124.2822461282437
 20
139.6959580071401
 30
0.0
 10
120.5753209406769
 20
127.8027915271048
 30
0.0
 10
120.5753209406769
 20
127.8027915271048
 30
0.0
 10
120.5753209406769
 20
127.8027915271048
 30
0.0
 10
118.1964809388044
 20
127.8027915271048
 30
0.0
 10
118.1964809388044
 20
127.8027915271048
 30
0.0
 10
118.1964809388044
 20
127.8027915271048
 30
0.0
 10
126.377554584636
 20
154.8151140277308
 30
0.0
 10
126.377554584636
 20
154.8151140277308
 30
0.0
  0
HATCH
  5
6A7
330
6A2
100
AcDbEntity
  8
LOGO
 62
   250
420
  2234388
100
AcDbHatch
 10
0.0
 20
0.0
 30
0.0
210
0.0
220
0.0
230
1.0
  2
SOLID
 70
     1
 71
     0
 91
        1
 92
        1
 93
        1
 72
     4
 94
        3
 73
     0
 74
     0
 95
       38
 96
       34
 40
0.0
 40
0.0
 40
0.0
 40
0.0
 40
1.0
 40
1.0
 40
1.0
 40
2.0
 40
2.0
 40
2.0
 40
3.0
 40
3.0
 40
3.0
 40
4.0
 40
4.0
 40
4.0
 40
5.0
 40
5.0
 40
5.0
 40
6.0
 40
6.0
 40
6.0
 40
7.0
 40
7.0
 40
7.0
 40
8.0
 40
8.0
 40
8.0
 40
9.0
 40
9.0
 40
9.0
 40
10.0
 40
10.0
 40
10.0
 40
11.0
 40
11.0
 40
11.0
 40
11.0
 10
126.377554584636
 20
154.8151140277308
 10
126.377554584636
 20
154.8151140277308
 10
128.8311532078563
 20
154.8151140277308
 10
128.8311532078563
 20
154.8151140277308
 10
128.8311532078563
 20
154.8151140277308
 10
127.7345785914971
 20
151.3062819612468
 10
127.7345785914971
 20
151.3062819612468
 10
128.571392836906
 20
152.2922689395754
 10
129.8860421413442
 20
153.604506675583
 10
131.0163787157314
 20
154.2664822097754
 10
132.7044766171327
 20
155.2500576196734
 10
133.6642808525008
 20
155.3847609420097
 10
134.7284715499351
 20
155.3565111403944
 10
134.7284715499351
 20
155.3565111403944
 10
133.6877075172549
 20
152.0345756272799
 10
133.6877075172549
 20
152.0345756272799
 10
133.011434827367
 20
152.3184516825359
 10
130.930940291334
 20
151.7768823149844
 10
129.739280976855
 20
150.9162968950455
 10
128.66613302525
 20
150.1454562717016
 10
127.9192358313239
 20
149.4857200510519
 10
127.0393578639405
 20
147.8282835196966
 10
126.164647543194
 20
146.1699857139017
 10
125.4742499524985
 20
143.5262176944419
 10
124.2822461282437
 20
139.6959580071401
 10
124.2822461282437
 20
139.6959580071401
 10
120.5753209406769
 20
127.8027915271048
 10
120.5753209406769
 20
127.8027915271048
 10
120.5753209406769
 20
127.8027915271048
 10
118.1964809388044
 20
127.8027915271048
 10
118.1964809388044
 20
127.8027915271048
 10
118.1964809388044
 20
127.8027915271048
 10
126.377554584636
 20
154.8151140277308
 10
126.377554584636
 20
154.8151140277308
 97
        0
 97
        0
 75
     2
 76
     1
 98
        0
450
        0
451
        0
460
0.0
461
0.0
452
        0
462
0.0
453
        0
470

  0
SPLINE
  5
6A8
330
6A2
100
AcDbEntity
  8
LOGO
370
     0
100
AcDbSpline
210
0.0
220
0.0
230
1.0
 70
    11
 71
     3
 72
   104
 73
   100
 74
     0
 42
0.000000001
 43
0.0000000001
 40
0.0
 40
0.0
 40
0.0
 40
0.0
 40
1.0
 40
1.0
 40
1.0
 40
2.0
 40
2.0
 40
2.0
 40
3.0
 40
3.0
 40
3.0
 40
4.0
 40
4.0
 40
4.0
 40
5.0
 40
5.0
 40
5.0
 40
6.0
 40
6.0
 40
6.0
 40
7.0
 40
7.0
 40
7.0
 40
8.0
 40
8.0
 40
8.0
 40
9.0
 40
9.0
 40
9.0
 40
10.0
 40
10.0
 40
10.0
 40
11.0
 40
11.0
 40
11.0
 40
12.0
 40
12.0
 40
12.0
 40
13.0
 40
13.0
 40
13.0
 40
14.0
 40
14.0
 40
14.0
 40
15.0
 40
15.0
 40
15.0
 40
16.0
 40
16.0
 40
16.0
 40
17.0
 40
17.0
 40
17.0
 40
18.0
 40
18.0
 40
18.0
 40
19.0
 40
19.0
 40
19.0
 40
20.0
 40
20.0
 40
20.0
 40
21.0
 40
21.0
 40
21.0
 40
22.0
 40
22.0
 40
22.0
 40
23.0
 40
23.0
 40
23.0
 40
24.0
 40
24.0
 40
24.0
 40
25.0
 40
25.0
 40
25.0
 40
26.0
 40
26.0
 40
26.0
 40
27.0
 40
27.0
 40
27.0
 40
28.0
 40
28.0
 40
28.0
 40
29.0
 40
29.0
 40
29.0
 40
30.0
 40
30.0
 40
30.0
 40
31.0
 40
31.0
 40
31.0
 40
32.0
 40
32.0
 40
32.0
 40
33.0
 40
33.0
 40
33.0
 40
33.0
 10
139.8926730891197
 20
154.8294111834263
 30
0.0
 10
139.8926730891197
 20
154.8294111834263
 30
0.0
 10
142.0344903652445
 20
154.8294111834263
 30
0.0
 10
142.0344903652445
 20
154.8294111834263
 30
0.0
 10
142.0344903652445
 20
154.8294111834263
 30
0.0
 10
140.9516961399171
 20
151.3157559800812
 30
0.0
 10
140.9516961399171
 20
151.3157559800812
 30
0.0
 10
141.8928968473923
 20
152.7887075264977
 30
0.0
 10
142.7341897198865
 20
153.4484437471474
 30
0.0
 10
143.8552245303271
 20
154.2926649527359
 30
0.0
 10
144.9803934580775
 20
155.1296514530327
 30
0.0
 10
146.3139908001845
 20
155.3044901642492
 30
0.0
 10
147.241066606852
 20
155.3044901642492
 30
0.0
 10
148.3855280820469
 20
155.3044901642492
 30
0.0
 10
149.4969166187653
 20
155.0752189084569
 30
0.0
 10
150.0784491203092
 20
153.8172414621372
 30
0.0
 10
150.5228667310863
 20
152.833838307127
 30
0.0
 10
150.5414702589793
 20
152.7201500811143
 30
0.0
 10
150.4140016419347
 20
150.7765981809602
 30
0.0
 10
151.5818897818837
 20
152.7699317437168
 30
0.0
 10
152.4424752018226
 20
153.6256940267945
 30
0.0
 10
153.9038856707499
 20
154.4507949398263
 30
0.0
 10
155.4455669174378
 20
155.3044901642492
 30
0.0
 10
156.339225275853
 20
155.3659851592288
 30
0.0
 10
157.3748216618963
 20
155.2147453676543
 30
0.0
 10
158.911679771723
 20
154.9877134254046
 30
0.0
 10
159.8859534176746
 20
154.4390816074493
 30
0.0
 10
160.3965169054045
 20
152.7816450760939
 30
0.0
 10
160.9070803931344
 20
151.1219692311958
 30
0.0
 10
160.6328506116007
 20
150.2303779314354
 30
0.0
 10
159.9992971339115
 20
147.597634224801
 30
0.0
 10
159.7105979417943
 20
146.4014962832367
 30
0.0
 10
159.2947746424084
 20
144.9400858143094
 30
0.0
 10
158.7463150793409
 20
143.2092687007094
 30
0.0
 10
158.7463150793409
 20
143.2092687007094
 30
0.0
 10
153.9038856707499
 20
127.8027915271048
 30
0.0
 10
153.9038856707499
 20
127.8027915271048
 30
0.0
 10
153.9038856707499
 20
127.8027915271048
 30
0.0
 10
151.3882752878863
 20
127.8027915271048
 30
0.0
 10
151.3882752878863
 20
127.8027915271048
 30
0.0
 10
151.3882752878863
 20
127.8027915271048
 30
0.0
 10
155.6250565106276
 20
141.2751908193897
 30
0.0
 10
155.6250565106276
 20
141.2751908193897
 30
0.0
 10
156.5094131050963
 20
144.0936252951782
 30
0.0
 10
157.109893644309
 20
146.1506931664571
 30
0.0
 10
157.4220195011804
 20
147.4415712963654
 30
0.0
 10
157.8095929989511
 20
149.0530157726519
 30
0.0
 10
157.9656559273866
 20
149.5826995529385
 30
0.0
 10
157.7816877071116
 20
150.7529992613181
 30
0.0
 10
157.6111553680925
 20
151.8430281919371
 30
0.0
 10
157.0582171779396
 20
152.5547853887321
 30
0.0
 10
156.1170164704645
 20
152.5547853887321
 30
0.0
 10
155.1096698860365
 20
152.5547853887321
 30
0.0
 10
154.2962823053817
 20
152.4412694176073
 30
0.0
 10
153.156643967048
 20
151.2945686288697
 30
0.0
 10
152.0170056287143
 20
150.1476955852443
 30
0.0
 10
151.076149431015
 20
148.7930831468136
 30
0.0
 10
150.3337308641742
 20
147.2290087646991
 30
0.0
 10
149.5957909244188
 20
145.6683794803425
 30
0.0
 10
148.8530278478023
 20
143.6822806228776
 30
0.0
 10
148.0964843801539
 20
141.2751908193897
 30
0.0
 10
148.0964843801539
 20
141.2751908193897
 30
0.0
 10
143.8552245303271
 20
127.8027915271048
 30
0.0
 10
143.8552245303271
 20
127.8027915271048
 30
0.0
 10
143.8552245303271
 20
127.8027915271048
 30
0.0
 10
141.486030802177
 20
127.8027915271048
 30
0.0
 10
141.486030802177
 20
127.8027915271048
 30
0.0
 10
141.486030802177
 20
127.8027915271048
 30
0.0
 10
146.3329388378533
 20
143.2092687007094
 30
0.0
 10
146.3329388378533
 20
143.2092687007094
 30
0.0
 10
146.8483254624444
 20
144.8408669988801
 30
0.0
 10
147.2314203331297
 20
146.1837661049335
 30
0.0
 10
147.4867020769946
 20
147.224185627838
 30
0.0
 10
147.9169947869641
 20
149.0197705792876
 30
0.0
 10
148.0306830129768
 20
150.2400242051576
 30
0.0
 10
147.709255392159
 20
151.3157559800812
 30
0.0
 10
147.3874832615654
 20
152.3916600098926
 30
0.0
 10
146.8245542879144
 20
152.6683013598569
 30
0.0
 10
145.8840425999909
 20
152.6683013598569
 30
0.0
 10
145.0989048209514
 20
152.6683013598569
 30
0.0
 10
144.3282364524954
 20
152.3275811915945
 30
0.0
 10
143.4531816219731
 20
151.6538923250251
 30
0.0
 10
142.34627171234
 20
150.8074318058939
 30
0.0
 10
141.901854101563
 20
150.1097995099067
 30
0.0
 10
141.3578731655808
 20
149.289521733736
 30
0.0
 10
140.6299240093235
 20
148.192602607601
 30
0.0
 10
140.2850697237515
 20
147.455696197173
 30
0.0
 10
139.6652966370942
 20
145.8385673095858
 30
0.0
 10
139.0506911970739
 20
144.2214384219986
 30
0.0
 10
138.463991048893
 20
142.3252566160164
 30
0.0
 10
138.0571250036777
 20
141.0154304484394
 30
0.0
 10
138.0571250036777
 20
141.0154304484394
 30
0.0
 10
133.9009590684727
 20
127.8027915271048
 30
0.0
 10
133.9009590684727
 20
127.8027915271048
 30
0.0
 10
133.9009590684727
 20
127.8027915271048
 30
0.0
 10
131.4180771143097
 20
127.8027915271048
 30
0.0
 10
131.4180771143097
 20
127.8027915271048
 30
0.0
 10
131.4180771143097
 20
127.8027915271048
 30
0.0
 10
139.8926730891197
 20
154.8294111834263
 30
0.0
 10
139.8926730891197
 20
154.8294111834263
 30
0.0
  0
HATCH
  5
6A9
330
6A2
100
AcDbEntity
  8
LOGO
 62
   250
420
  2234388
100
AcDbHatch
 10
0.0
 20
0.0
 30
0.0
210
0.0
220
0.0
230
1.0
  2
SOLID
 70
     1
 71
     0
 91
        1
 92
        1
 93
        1
 72
     4
 94
        3
 73
     0
 74
     0
 95
      104
 96
      100
 40
0.0
 40
0.0
 40
0.0
 40
0.0
 40
1.0
 40
1.0
 40
1.0
 40
2.0
 40
2.0
 40
2.0
 40
3.0
 40
3.0
 40
3.0
 40
4.0
 40
4.0
 40
4.0
 40
5.0
 40
5.0
 40
5.0
 40
6.0
 40
6.0
 40
6.0
 40
7.0
 40
7.0
 40
7.0
 40
8.0
 40
8.0
 40
8.0
 40
9.0
 40
9.0
 40
9.0
 40
10.0
 40
10.0
 40
10.0
 40
11.0
 40
11.0
 40
11.0
 40
12.0
 40
12.0
 40
12.0
 40
13.0
 40
13.0
 40
13.0
 40
14.0
 40
14.0
 40
14.0
 40
15.0
 40
15.0
 40
15.0
 40
16.0
 40
16.0
 40
16.0
 40
17.0
 40
17.0
 40
17.0
 40
18.0
 40
18.0
 40
18.0
 40
19.0
 40
19.0
 40
19.0
 40
20.0
 40
20.0
 40
20.0
 40
21.0
 40
21.0
 40
21.0
 40
22.0
 40
22.0
 40
22.0
 40
23.0
 40
23.0
 40
23.0
 40
24.0
 40
24.0
 40
24.0
 40
25.0
 40
25.0
 40
25.0
 40
26.0
 40
26.0
 40
26.0
 40
27.0
 40
27.0
 40
27.0
 40
28.0
 40
28.0
 40
28.0
 40
29.0
 40
29.0
 40
29.0
 40
30.0
 40
30.0
 40
30.0
 40
31.0
 40
31.0
 40
31.0
 40
32.0
 40
32.0
 40
32.0
 40
33.0
 40
33.0
 40
33.0
 40
33.0
 10
139.8926730891197
 20
154.8294111834263
 10
139.8926730891197
 20
154.8294111834263
 10
142.0344903652445
 20
154.8294111834263
 10
142.0344903652445
 20
154.8294111834263
 10
142.0344903652445
 20
154.8294111834263
 10
140.9516961399171
 20
151.3157559800812
 10
140.9516961399171
 20
151.3157559800812
 10
141.8928968473923
 20
152.7887075264977
 10
142.7341897198865
 20
153.4484437471474
 10
143.8552245303271
 20
154.2926649527359
 10
144.9803934580775
 20
155.1296514530327
 10
146.3139908001845
 20
155.3044901642492
 10
147.241066606852
 20
155.3044901642492
 10
148.3855280820469
 20
155.3044901642492
 10
149.4969166187653
 20
155.0752189084569
 10
150.0784491203092
 20
153.8172414621372
 10
150.5228667310863
 20
152.833838307127
 10
150.5414702589793
 20
152.7201500811143
 10
150.4140016419347
 20
150.7765981809602
 10
151.5818897818837
 20
152.7699317437168
 10
152.4424752018226
 20
153.6256940267945
 10
153.9038856707499
 20
154.4507949398263
 10
155.4455669174378
 20
155.3044901642492
 10
156.339225275853
 20
155.3659851592288
 10
157.3748216618963
 20
155.2147453676543
 10
158.911679771723
 20
154.9877134254046
 10
159.8859534176746
 20
154.4390816074493
 10
160.3965169054045
 20
152.7816450760939
 10
160.9070803931344
 20
151.1219692311958
 10
160.6328506116007
 20
150.2303779314354
 10
159.9992971339115
 20
147.597634224801
 10
159.7105979417943
 20
146.4014962832367
 10
159.2947746424084
 20
144.9400858143094
 10
158.7463150793409
 20
143.2092687007094
 10
158.7463150793409
 20
143.2092687007094
 10
153.9038856707499
 20
127.8027915271048
 10
153.9038856707499
 20
127.8027915271048
 10
153.9038856707499
 20
127.8027915271048
 10
151.3882752878863
 20
127.8027915271048
 10
151.3882752878863
 20
127.8027915271048
 10
151.3882752878863
 20
127.8027915271048
 10
155.6250565106276
 20
141.2751908193897
 10
155.6250565106276
 20
141.2751908193897
 10
156.5094131050963
 20
144.0936252951782
 10
157.109893644309
 20
146.1506931664571
 10
157.4220195011804
 20
147.4415712963654
 10
157.8095929989511
 20
149.0530157726519
 10
157.9656559273866
 20
149.5826995529385
 10
157.7816877071116
 20
150.7529992613181
 10
157.6111553680925
 20
151.8430281919371
 10
157.0582171779396
 20
152.5547853887321
 10
156.1170164704645
 20
152.5547853887321
 10
155.1096698860365
 20
152.5547853887321
 10
154.2962823053817
 20
152.4412694176073
 10
153.156643967048
 20
151.2945686288697
 10
152.0170056287143
 20
150.1476955852443
 10
151.076149431015
 20
148.7930831468136
 10
150.3337308641742
 20
147.2290087646991
 10
149.5957909244188
 20
145.6683794803425
 10
148.8530278478023
 20
143.6822806228776
 10
148.0964843801539
 20
141.2751908193897
 10
148.0964843801539
 20
141.2751908193897
 10
143.8552245303271
 20
127.8027915271048
 10
143.8552245303271
 20
127.8027915271048
 10
143.8552245303271
 20
127.8027915271048
 10
141.486030802177
 20
127.8027915271048
 10
141.486030802177
 20
127.8027915271048
 10
141.486030802177
 20
127.8027915271048
 10
146.3329388378533
 20
143.2092687007094
 10
146.3329388378533
 20
143.2092687007094
 10
146.8483254624444
 20
144.8408669988801
 10
147.2314203331297
 20
146.1837661049335
 10
147.4867020769946
 20
147.224185627838
 10
147.9169947869641
 20
149.0197705792876
 10
148.0306830129768
 20
150.2400242051576
 10
147.709255392159
 20
151.3157559800812
 10
147.3874832615654
 20
152.3916600098926
 10
146.8245542879144
 20
152.6683013598569
 10
145.8840425999909
 20
152.6683013598569
 10
145.0989048209514
 20
152.6683013598569
 10
144.3282364524954
 20
152.3275811915945
 10
143.4531816219731
 20
151.6538923250251
 10
142.34627171234
 20
150.8074318058939
 10
141.901854101563
 20
150.1097995099067
 10
141.3578731655808
 20
149.289521733736
 10
140.6299240093235
 20
148.192602607601
 10
140.2850697237515
 20
147.455696197173
 10
139.6652966370942
 20
145.8385673095858
 10
139.0506911970739
 20
144.2214384219986
 10
138.463991048893
 20
142.3252566160164
 10
138.0571250036777
 20
141.0154304484394
 10
138.0571250036777
 20
141.0154304484394
 10
133.9009590684727
 20
127.8027915271048
 10
133.9009590684727
 20
127.8027915271048
 10
133.9009590684727
 20
127.8027915271048
 10
131.4180771143097
 20
127.8027915271048
 10
131.4180771143097
 20
127.8027915271048
 10
131.4180771143097
 20
127.8027915271048
 10
139.8926730891197
 20
154.8294111834263
 10
139.8926730891197
 20
154.8294111834263
 97
        0
 97
        0
 75
     2
 76
     1
 98
        0
450
        0
451
        0
460
0.0
461
0.0
452
        0
462
0.0
453
        0
470

  0
SPLINE
  5
6AA
330
6A2
100
AcDbEntity
  8
LOGO
370
     0
100
AcDbSpline
210
0.0
220
0.0
230
1.0
 70
     9
 71
     3
 72
    29
 73
    25
 74
     0
 42
0.000000001
 43
0.0000000001
 40
0.0
 40
0.0
 40
0.0
 40
0.0
 40
1.0
 40
1.0
 40
1.0
 40
2.0
 40
2.0
 40
2.0
 40
3.0
 40
3.0
 40
3.0
 40
4.0
 40
4.0
 40
4.0
 40
5.0
 40
5.0
 40
5.0
 40
6.0
 40
6.0
 40
6.0
 40
7.0
 40
7.0
 40
7.0
 40
8.0
 40
8.0
 40
8.0
 40
8.0
 10
101.6420971922469
 20
132.8388354296931
 30
0.0
 10
101.630039350094
 20
134.7164137077823
 30
0.0
 10
102.2236296937908
 20
138.0598810818841
 30
0.0
 10
103.7487744712405
 20
142.5378191476827
 30
0.0
 10
105.819967243327
 20
148.5896501242061
 30
0.0
 10
107.0602024361932
 20
150.8074318058939
 30
0.0
 10
108.1522984254671
 20
151.8833358357054
 30
0.0
 10
109.741177511439
 20
153.4532668840085
 30
0.0
 10
111.8740375333931
 20
153.5290590346837
 30
0.0
 10
112.5075910110823
 20
153.4532668840085
 30
0.0
 10
113.4012493694975
 20
153.3490526768302
 30
0.0
 10
114.6683563248758
 20
152.7580461564518
 30
0.0
 10
114.7493161221879
 20
150.7838328862519
 30
0.0
 10
114.8106388622796
 20
149.0909118479895
 30
0.0
 10
114.3186789024427
 20
145.9191825971221
 30
0.0
 10
112.6164561002338
 20
140.9489400617108
 30
0.0
 10
110.6444821435766
 20
135.1746117095912
 30
0.0
 10
109.4669477299053
 20
132.8960240524753
 30
0.0
 10
108.5212683953448
 20
131.9072809959403
 30
0.0
 10
106.7346406980658
 20
130.0538184021569
 30
0.0
 10
104.8222669326213
 20
130.2336525051225
 30
0.0
 10
104.5408024457958
 20
130.2336525051225
 30
0.0
 10
104.1721769856939
 20
130.2336525051225
 30
0.0
 10
101.6465758193322
 20
130.6305277668397
 30
0.0
 10
101.6420971922469
 20
132.8388354296931
 30
0.0
  0
SPLINE
  5
6AB
330
6A2
100
AcDbEntity
  8
LOGO
370
     0
100
AcDbSpline
210
0.0
220
0.0
230
1.0
 70
     9
 71
     3
 72
    32
 73
    28
 74
     0
 42
0.000000001
 43
0.0000000001
 40
0.0
 40
0.0
 40
0.0
 40
0.0
 40
1.0
 40
1.0
 40
1.0
 40
2.0
 40
2.0
 40
2.0
 40
3.0
 40
3.0
 40
3.0
 40
4.0
 40
4.0
 40
4.0
 40
5.0
 40
5.0
 40
5.0
 40
6.0
 40
6.0
 40
6.0
 40
7.0
 40
7.0
 40
7.0
 40
8.0
 40
8.0
 40
8.0
 40
9.0
 40
9.0
 40
9.0
 40
9.0
 10
106.2595617172429
 20
153.4105476718098
 30
0.0
 10
104.8222669326213
 20
151.5474388043041
 30
0.0
 10
103.7177685914188
 20
149.8758773721411
 30
0.0
 10
101.9232171692965
 20
144.6141795664062
 30
0.0
 10
100.2754269116635
 20
139.7999999594306
 30
0.0
 10
99.22777268346731
 20
136.3052927937542
 30
0.0
 10
99.06964269637688
 20
132.039572749846
 30
0.0
 10
98.94665270641764
 20
128.8673267343149
 30
0.0
 10
100.8807305877373
 20
127.8027915271048
 30
0.0
 10
103.7129454545577
 20
127.8027915271048
 30
0.0
 10
104.9352661390825
 20
127.8027915271048
 30
0.0
 10
108.0151835347002
 20
127.8827177950895
 30
0.0
 10
110.2045431598849
 20
130.5926316915021
 30
0.0
 10
111.7417457794874
 20
132.4984597712065
 30
0.0
 10
113.155269389579
 20
134.475256864725
 30
0.0
 10
115.0562743324223
 20
140.9489400617108
 30
0.0
 10
116.6361961642235
 20
146.3680788349845
 30
0.0
 10
117.7282921534974
 20
149.8639917848761
 30
0.0
 10
117.6480213757369
 20
151.8595646611754
 30
0.0
 10
117.6480213757369
 20
151.8595646611754
 30
0.0
 10
117.6480213757369
 20
151.8595646611754
 30
0.0
 10
117.6480213757369
 20
151.8595646611754
 30
0.0
 10
117.13229024137
 20
155.18150017429
 30
0.0
 10
114.7162431837115
 20
155.886194920681
 30
0.0
 10
113.3351034925446
 20
155.886194920681
 30
0.0
 10
111.9829026225447
 20
155.886194920681
 30
0.0
 10
108.3414342923792
 20
156.1251124501957
 30
0.0
 10
106.2595617172429
 20
153.4105476718098
 30
0.0
  0
HATCH
  5
6AC
330
6A2
100
AcDbEntity
  8
LOGO
 62
   250
420
  2234388
100
AcDbHatch
 10
0.0
 20
0.0
 30
0.0
210
0.0
220
0.0
230
1.0
  2
SOLID
 70
     1
 71
     0
 91
        2
 92
        1
 93
        1
 72
     4
 94
        3
 73
     0
 74
     0
 95
       29
 96
       25
 40
0.0
 40
0.0
 40
0.0
 40
0.0
 40
1.0
 40
1.0
 40
1.0
 40
2.0
 40
2.0
 40
2.0
 40
3.0
 40
3.0
 40
3.0
 40
4.0
 40
4.0
 40
4.0
 40
5.0
 40
5.0
 40
5.0
 40
6.0
 40
6.0
 40
6.0
 40
7.0
 40
7.0
 40
7.0
 40
8.0
 40
8.0
 40
8.0
 40
8.0
 10
101.6420971922469
 20
132.8388354296931
 10
101.630039350094
 20
134.7164137077823
 10
102.2236296937908
 20
138.0598810818841
 10
103.7487744712405
 20
142.5378191476827
 10
105.819967243327
 20
148.5896501242061
 10
107.0602024361932
 20
150.8074318058939
 10
108.1522984254671
 20
151.8833358357054
 10
109.741177511439
 20
153.4532668840085
 10
111.8740375333931
 20
153.5290590346837
 10
112.5075910110823
 20
153.4532668840085
 10
113.4012493694975
 20
153.3490526768302
 10
114.6683563248758
 20
152.7580461564518
 10
114.7493161221879
 20
150.7838328862519
 10
114.8106388622796
 20
149.0909118479895
 10
114.3186789024427
 20
145.9191825971221
 10
112.6164561002338
 20
140.9489400617108
 10
110.6444821435766
 20
135.1746117095912
 10
109.4669477299053
 20
132.8960240524753
 10
108.5212683953448
 20
131.9072809959403
 10
106.7346406980658
 20
130.0538184021569
 10
104.8222669326213
 20
130.2336525051225
 10
104.5408024457958
 20
130.2336525051225
 10
104.1721769856939
 20
130.2336525051225
 10
101.6465758193322
 20
130.6305277668397
 10
101.6420971922469
 20
132.8388354296931
 97
        0
 97
        0
 92
        1
 93
        1
 72
     4
 94
        3
 73
     0
 74
     0
 95
       32
 96
       28
 40
0.0
 40
0.0
 40
0.0
 40
0.0
 40
1.0
 40
1.0
 40
1.0
 40
2.0
 40
2.0
 40
2.0
 40
3.0
 40
3.0
 40
3.0
 40
4.0
 40
4.0
 40
4.0
 40
5.0
 40
5.0
 40
5.0
 40
6.0
 40
6.0
 40
6.0
 40
7.0
 40
7.0
 40
7.0
 40
8.0
 40
8.0
 40
8.0
 40
9.0
 40
9.0
 40
9.0
 40
9.0
 10
106.2595617172429
 20
153.4105476718098
 10
104.8222669326213
 20
151.5474388043041
 10
103.7177685914188
 20
149.8758773721411
 10
101.9232171692965
 20
144.6141795664062
 10
100.2754269116635
 20
139.7999999594306
 10
99.22777268346731
 20
136.3052927937542
 10
99.06964269637688
 20
132.039572749846
 10
98.94665270641764
 20
128.8673267343149
 10
100.8807305877373
 20
127.8027915271048
 10
103.7129454545577
 20
127.8027915271048
 10
104.9352661390825
 20
127.8027915271048
 10
108.0151835347002
 20
127.8827177950895
 10
110.2045431598849
 20
130.5926316915021
 10
111.7417457794874
 20
132.4984597712065
 10
113.155269389579
 20
134.475256864725
 10
115.0562743324223
 20
140.9489400617108
 10
116.6361961642235
 20
146.3680788349845
 10
117.7282921534974
 20
149.8639917848761
 10
117.6480213757369
 20
151.8595646611754
 10
117.6480213757369
 20
151.8595646611754
 10
117.6480213757369
 20
151.8595646611754
 10
117.6480213757369
 20
151.8595646611754
 10
117.13229024137
 20
155.18150017429
 10
114.7162431837115
 20
155.886194920681
 10
113.3351034925446
 20
155.886194920681
 10
111.9829026225447
 20
155.886194920681
 10
108.3414342923792
 20
156.1251124501957
 10
106.2595617172429
 20
153.4105476718098
 97
        0
 97
        0
 75
     2
 76
     1
 98
        0
450
        0
451
        0
460
0.0
461
0.0
452
        0
462
0.0
453
        0
470

  0
ENDBLK
  5
6AD
330
6A2
100
AcDbEntity
  8
0
100
AcDbBlockEnd
  0
BLOCK
  5
D60
330
D5F
100
AcDbEntity
  8
0
100
AcDbBlockBegin
  2
*D6
 70
     1
 10
0.0
 20
0.0
 30
0.0
  3
*D6
  1
*D6
  0
LINE
  5
D62
330
D5F
100
AcDbEntity
  8
MODEL
  6
Continuous
 62
     0
370
    -2
100
AcDbLine
 10
405.04681122449
 20
974.9479591836735
 30
0.0
 11
990.1075255102048
 21
974.9479591836735
 31
0.0
  0
LINE
  5
D63
330
D5F
100
AcDbEntity
  8
MODEL
  6
Continuous
 62
     0
370
    -2
100
AcDbLine
 10
405.04681122449
 20
1643.425255102041
 30
0.0
 11
990.1075255102048
 21
1643.425255102041
 31
0.0
  0
LINE
  5
D64
330
D5F
100
AcDbEntity
  8
MODEL
  6
Continuous
 62
     0
370
    -2
100
AcDbLine
 10
990.1075255102048
 20
986.9479591836734
 30
0.0
 11
990.1075255102048
 21
1631.425255102041
 31
0.0
  0
INSERT
  5
D65
330
D5F
100
AcDbEntity
  8
MODEL
 62
     0
370
    -2
100
AcDbBlockReference
  2
_DOT
 10
990.1075255102048
 20
974.9479591836735
 30
0.0
 41
12.0
 42
12.0
 43
12.0
 50
270.0
  0
INSERT
  5
D66
330
D5F
100
AcDbEntity
  8
MODEL
 62
     0
370
    -2
100
AcDbBlockReference
  2
_DOT
 10
990.1075255102048
 20
1643.425255102041
 30
0.0
 41
12.0
 42
12.0
 43
12.0
 50
90.0
  0
MTEXT
  5
D67
330
D5F
100
AcDbEntity
  8
MODEL
  6
Continuous
 62
     0
100
AcDbMText
 10
958.1075255102048
 20
1309.186607142857
 30
0.0
 40
24.0
 41
0.0
 46
0.0
 71
     5
 72
     1
  1
\A1;668
  7
ＭＳ ゴシック
 11
0.0
 21
1.0
 31
0.0
 73
     1
 44
1.0
  0
POINT
  5
D68
330
D5F
100
AcDbEntity
  8
Defpoints
 62
     0
100
AcDbPoint
 10
395.0468112244901
 20
974.9479591836735
 30
0.0
  0
POINT
  5
D69
330
D5F
100
AcDbEntity
  8
Defpoints
 62
     0
100
AcDbPoint
 10
395.0468112244901
 20
1643.425255102041
 30
0.0
  0
POINT
  5
D6A
330
D5F
100
AcDbEntity
  8
Defpoints
 62
     0
100
AcDbPoint
 10
990.1075255102048
 20
1643.425255102041
 30
0.0
  0
ENDBLK
  5
D61
330
D5F
100
AcDbEntity
  8
0
100
AcDbBlockEnd
  0
BLOCK
  5
D78
330
D77
100
AcDbEntity
  8
0
100
AcDbBlockBegin
  2
*D7
 70
     1
 10
0.0
 20
0.0
 30
0.0
  3
*D7
  1
*D7
  0
LINE
  5
D7A
330
D77
100
AcDbEntity
  8
MODEL
  6
Continuous
 62
     0
370
    -2
100
AcDbLine
 10
462.9311929069921
 20
2176.112294228638
 30
0.0
 11
462.9311929069921
 21
2427.836190547095
 31
0.0
  0
LINE
  5
D7B
330
D77
100
AcDbEntity
  8
MODEL
  6
Continuous
 62
     0
370
    -2
100
AcDbLine
 10
1222.299117436598
 20
2176.112294228638
 30
0.0
 11
1222.299117436598
 21
2427.836190547095
 31
0.0
  0
LINE
  5
D7C
330
D77
100
AcDbEntity
  8
MODEL
  6
Continuous
 62
     0
370
    -2
100
AcDbLine
 10
474.9311929069921
 20
2427.836190547095
 30
0.0
 11
1210.299117436598
 21
2427.836190547095
 31
0.0
  0
INSERT
  5
D7D
330
D77
100
AcDbEntity
  8
MODEL
 62
     0
370
    -2
100
AcDbBlockReference
  2
_DOT
 10
462.9311929069921
 20
2427.836190547095
 30
0.0
 41
12.0
 42
12.0
 43
12.0
 50
180.0
  0
INSERT
  5
D7E
330
D77
100
AcDbEntity
  8
MODEL
 62
     0
370
    -2
100
AcDbBlockReference
  2
_DOT
 10
1222.299117436598
 20
2427.836190547095
 30
0.0
 41
12.0
 42
12.0
 43
12.0
  0
MTEXT
  5
D7F
330
D77
100
AcDbEntity
  8
MODEL
  6
Continuous
 62
     0
100
AcDbMText
 10
842.6151551717952
 20
2459.836190547096
 30
0.0
 40
24.0
 41
0.0
 46
0.0
 71
     5
 72
     1
  1
\A1;759
  7
ＭＳ ゴシック
 73
     1
 44
1.0
  0
POINT
  5
D80
330
D77
100
AcDbEntity
  8
Defpoints
 62
     0
100
AcDbPoint
 10
462.9311929069921
 20
2166.112294228638
 30
0.0
  0
POINT
  5
D81
330
D77
100
AcDbEntity
  8
Defpoints
 62
     0
100
AcDbPoint
 10
1222.299117436598
 20
2166.112294228638
 30
0.0
  0
POINT
  5
D82
330
D77
100
AcDbEntity
  8
Defpoints
 62
     0
100
AcDbPoint
 10
1222.299117436598
 20
2427.836190547095
 30
0.0
  0
ENDBLK
  5
D79
330
D77
100
AcDbEntity
  8
0
100
AcDbBlockEnd
  0
BLOCK
  5
D8A
330
D89
100
AcDbEntity
  8
0
100
AcDbBlockBegin
  2
*D8
 70
     1
 10
0.0
 20
0.0
 30
0.0
  3
*D8
  1
*D8
  0
LINE
  5
D8C
330
D89
100
AcDbEntity
  8
MODEL
  6
Continuous
 62
     0
370
    -2
100
AcDbLine
 10
581.4610059718598
 20
2044.835716437608
 30
0.0
 11
581.4610059718598
 21
2208.031762863991
 31
0.0
  0
LINE
  5
D8D
330
D89
100
AcDbEntity
  8
MODEL
  6
Continuous
 62
     0
370
    -2
100
AcDbLine
 10
1441.49369157876
 20
2044.835716437608
 30
0.0
 11
1441.49369157876
 21
2208.031762863991
 31
0.0
  0
LINE
  5
D8E
330
D89
100
AcDbEntity
  8
MODEL
  6
Continuous
 62
     0
370
    -2
100
AcDbLine
 10
593.4610059718598
 20
2208.031762863991
 30
0.0
 11
1429.49369157876
 21
2208.031762863991
 31
0.0
  0
INSERT
  5
D8F
330
D89
100
AcDbEntity
  8
MODEL
 62
     0
370
    -2
100
AcDbBlockReference
  2
_DOT
 10
581.4610059718598
 20
2208.031762863991
 30
0.0
 41
12.0
 42
12.0
 43
12.0
 50
180.0
  0
INSERT
  5
D90
330
D89
100
AcDbEntity
  8
MODEL
 62
     0
370
    -2
100
AcDbBlockReference
  2
_DOT
 10
1441.49369157876
 20
2208.031762863991
 30
0.0
 41
12.0
 42
12.0
 43
12.0
  0
MTEXT
  5
D91
330
D89
100
AcDbEntity
  8
MODEL
  6
Continuous
 62
     0
100
AcDbMText
 10
1011.47734877531
 20
2240.031762863991
 30
0.0
 40
24.0
 41
0.0
 46
0.0
 71
     5
 72
     1
  1
\A1;860
  7
ＭＳ ゴシック
 73
     1
 44
1.0
  0
POINT
  5
D92
330
D89
100
AcDbEntity
  8
Defpoints
 62
     0
100
AcDbPoint
 10
581.4610059718598
 20
2034.835716437608
 30
0.0
  0
POINT
  5
D93
330
D89
100
AcDbEntity
  8
Defpoints
 62
     0
100
AcDbPoint
 10
1441.49369157876
 20
2034.835716437608
 30
0.0
  0
POINT
  5
D94
330
D89
100
AcDbEntity
  8
Defpoints
 62
     0
100
AcDbPoint
 10
1441.49369157876
 20
2208.031762863991
 30
0.0
  0
ENDBLK
  5
D8B
330
D89
100
AcDbEntity
  8
0
100
AcDbBlockEnd
  0
BLOCK
  5
E15
330
E14
100
AcDbEntity
  8
0
100
AcDbBlockBegin
  2
*D9
 70
     1
 10
0.0
 20
0.0
 30
0.0
  3
*D9
  1
*D9
  0
LINE
  5
E17
330
E14
100
AcDbEntity
  8
DIM
  6
HIDDEN
 62
     0
 48
0.05
370
    -2
100
AcDbLine
 10
257.3217201166183
 20
2040.252478134111
 30
0.0
 11
257.3217201166183
 21
1865.746546184592
 31
0.0
  0
LINE
  5
E18
330
E14
100
AcDbEntity
  8
DIM
  6
HIDDEN
 62
     0
 48
0.05
370
    -2
100
AcDbLine
 10
862.3185131195338
 20
2040.252478134111
 30
0.0
 11
862.3185131195338
 21
1865.746546184592
 31
0.0
  0
LINE
  5
E19
330
E14
100
AcDbEntity
  8
DIM
  6
HIDDEN
 62
     0
 48
0.05
370
    -2
100
AcDbLine
 10
269.3217201166183
 20
1865.746546184592
 30
0.0
 11
850.3185131195337
 21
1865.746546184592
 31
0.0
  0
INSERT
  5
E1A
330
E14
100
AcDbEntity
  8
DIM
 62
     0
370
    -2
100
AcDbBlockReference
  2
_DOT
 10
257.3217201166183
 20
1865.746546184592
 30
0.0
 41
12.0
 42
12.0
 43
12.0
 50
180.0
  0
INSERT
  5
E1B
330
E14
100
AcDbEntity
  8
DIM
 62
     0
370
    -2
100
AcDbBlockReference
  2
_DOT
 10
862.3185131195338
 20
1865.746546184592
 30
0.0
 41
12.0
 42
12.0
 43
12.0
  0
MTEXT
  5
E1C
330
E14
100
AcDbEntity
  8
DIM
  6
HIDDEN
 62
     0
 48
0.05
100
AcDbMText
 10
559.8201166180761
 20
1897.746546184592
 30
0.0
 40
24.0
 41
0.0
 46
0.0
 71
     5
 72
     1
  1
\A1;605
  7
ＭＳ ゴシック
 73
     1
 44
1.0
  0
POINT
  5
E1D
330
E14
100
AcDbEntity
  8
Defpoints
 62
     0
100
AcDbPoint
 10
257.3217201166183
 20
2050.252478134111
 30
0.0
  0
POINT
  5
E1E
330
E14
100
AcDbEntity
  8
Defpoints
 62
     0
100
AcDbPoint
 10
862.3185131195338
 20
2050.252478134111
 30
0.0
  0
POINT
  5
E1F
330
E14
100
AcDbEntity
  8
Defpoints
 62
     0
100
AcDbPoint
 10
862.3185131195338
 20
1865.746546184592
 30
0.0
  0
ENDBLK
  5
E16
330
E14
100
AcDbEntity
  8
0
100
AcDbBlockEnd
  0
BLOCK
  5
E28
330
E27
100
AcDbEntity
  8
0
100
AcDbBlockBegin
  2
*D10
 70
     1
 10
0.0
 20
0.0
 30
0.0
  3
*D10
  1
*D10
  0
LINE
  5
E2A
330
E27
100
AcDbEntity
  8
DIM
 62
     0
 48
0.05
370
    -2
100
AcDbLine
 10
257.3217201166183
 20
2020.252478134111
 30
0.0
 11
257.3217201166183
 21
1956.400653342984
 31
0.0
  0
LINE
  5
E2B
330
E27
100
AcDbEntity
  8
DIM
 62
     0
 48
0.05
370
    -2
100
AcDbLine
 10
862.3185131195338
 20
2020.252478134111
 30
0.0
 11
862.3185131195338
 21
1956.400653342984
 31
0.0
  0
LINE
  5
E2C
330
E27
100
AcDbEntity
  8
DIM
 62
     0
 48
0.05
370
    -2
100
AcDbLine
 10
267.3217201166183
 20
1956.400653342984
 30
0.0
 11
852.3185131195338
 21
1956.400653342984
 31
0.0
  0
INSERT
  5
E2D
330
E27
100
AcDbEntity
  8
DIM
 62
     0
370
    -2
100
AcDbBlockReference
  2
_DOT
 10
257.3217201166183
 20
1956.400653342984
 30
0.0
 41
10.0
 42
10.0
 43
10.0
 50
180.0
  0
INSERT
  5
E2E
330
E27
100
AcDbEntity
  8
DIM
 62
     0
370
    -2
100
AcDbBlockReference
  2
_DOT
 10
862.3185131195338
 20
1956.400653342984
 30
0.0
 41
10.0
 42
10.0
 43
10.0
  0
MTEXT
  5
E2F
330
E27
100
AcDbEntity
  8
DIM
 62
     0
 48
0.05
100
AcDbMText
 10
559.8201166180761
 20
1988.400653342984
 30
0.0
 40
24.0
 41
0.0
 46
0.0
 71
     5
 72
     1
  1
\A1;605
  7
ＭＳ ゴシック
 73
     1
 44
1.0
  0
POINT
  5
E30
330
E27
100
AcDbEntity
  8
Defpoints
 62
     0
100
AcDbPoint
 10
257.3217201166183
 20
2050.252478134111
 30
0.0
  0
POINT
  5
E31
330
E27
100
AcDbEntity
  8
Defpoints
 62
     0
100
AcDbPoint
 10
862.3185131195338
 20
2050.252478134111
 30
0.0
  0
POINT
  5
E32
330
E27
100
AcDbEntity
  8
Defpoints
 62
     0
100
AcDbPoint
 10
862.3185131195338
 20
1956.400653342984
 30
0.0
  0
ENDBLK
  5
E29
330
E27
100
AcDbEntity
  8
0
100
AcDbBlockEnd
  0
BLOCK
  5
E47
330
E46
100
AcDbEntity
  8
0
100
AcDbBlockBegin
  2
*D11
 70
     1
 10
0.0
 20
0.0
 30
0.0
  3
*D11
  1
*D11
  0
LINE
  5
E49
330
E46
100
AcDbEntity
  8
DIM
 62
     0
 48
0.05
370
    -2
100
AcDbLine
 10
892.3185131195337
 20
2456.527696793004
 30
0.0
 11
971.1251380287206
 21
2456.527696793004
 31
0.0
  0
LINE
  5
E4A
330
E46
100
AcDbEntity
  8
DIM
 62
     0
 48
0.05
370
    -2
100
AcDbLine
 10
892.3185131195337
 20
2050.252478134111
 30
0.0
 11
971.1251380287206
 21
2050.252478134111
 31
0.0
  0
LINE
  5
E4B
330
E46
100
AcDbEntity
  8
DIM
 62
     0
 48
0.05
370
    -2
100
AcDbLine
 10
971.1251380287206
 20
2446.527696793004
 30
0.0
 11
971.1251380287206
 21
2060.252478134112
 31
0.0
  0
INSERT
  5
E4C
330
E46
100
AcDbEntity
  8
DIM
 62
     0
370
    -2
100
AcDbBlockReference
  2
_DOT
 10
971.1251380287206
 20
2456.527696793004
 30
0.0
 41
10.0
 42
10.0
 43
10.0
 50
90.0
  0
INSERT
  5
E4D
330
E46
100
AcDbEntity
  8
DIM
 62
     0
370
    -2
100
AcDbBlockReference
  2
_DOT
 10
971.1251380287206
 20
2050.252478134111
 30
0.0
 41
10.0
 42
10.0
 43
10.0
 50
270.0
  0
MTEXT
  5
E4E
330
E46
100
AcDbEntity
  8
DIM
 62
     0
 48
0.05
100
AcDbMText
 10
939.1251380287206
 20
2253.390087463557
 30
0.0
 40
24.0
 41
0.0
 46
0.0
 71
     5
 72
     1
  1
\A1;406
  7
ＭＳ ゴシック
 11
0.0
 21
1.0
 31
0.0
 73
     1
 44
1.0
  0
POINT
  5
E4F
330
E46
100
AcDbEntity
  8
Defpoints
 62
     0
100
AcDbPoint
 10
862.3185131195338
 20
2456.527696793004
 30
0.0
  0
POINT
  5
E50
330
E46
100
AcDbEntity
  8
Defpoints
 62
     0
100
AcDbPoint
 10
862.3185131195338
 20
2050.252478134111
 30
0.0
  0
POINT
  5
E51
330
E46
100
AcDbEntity
  8
Defpoints
 62
     0
100
AcDbPoint
 10
971.1251380287206
 20
2050.252478134111
 30
0.0
  0
ENDBLK
  5
E48
330
E46
100
AcDbEntity
  8
0
100
AcDbBlockEnd
  0
BLOCK
  5
E86
330
E85
100
AcDbEntity
  8
0
100
AcDbBlockBegin
  2
*D12
 70
     1
 10
0.0
 20
0.0
 30
0.0
  3
*D12
  1
*D12
  0
LINE
  5
E88
330
E85
100
AcDbEntity
  8
HIDDEN
 62
     0
 48
0.05
370
    -2
100
AcDbLine
 10
659.345043731779
 20
2246.638192419825
 30
0.0
 11
659.345043731779
 21
2195.315239972956
 31
0.0
  0
LINE
  5
E89
330
E85
100
AcDbEntity
  8
HIDDEN
 62
     0
 48
0.05
370
    -2
100
AcDbLine
 10
694.345043731779
 20
2246.638192419825
 30
0.0
 11
694.345043731779
 21
2195.315239972956
 31
0.0
  0
LINE
  5
E8A
330
E85
100
AcDbEntity
  8
HIDDEN
 62
     0
 48
0.05
370
    -2
100
AcDbLine
 10
649.345043731779
 20
2195.315239972956
 30
0.0
 11
639.345043731779
 21
2195.315239972956
 31
0.0
  0
LINE
  5
E8B
330
E85
100
AcDbEntity
  8
HIDDEN
 62
     0
 48
0.05
370
    -2
100
AcDbLine
 10
704.3450437317789
 20
2195.315239972956
 30
0.0
 11
714.345043731779
 21
2195.315239972956
 31
0.0
  0
INSERT
  5
E8C
330
E85
100
AcDbEntity
  8
HIDDEN
 62
     0
370
    -2
100
AcDbBlockReference
  2
_DOT
 10
659.345043731779
 20
2195.315239972956
 30
0.0
 41
10.0
 42
10.0
 43
10.0
  0
INSERT
  5
E8D
330
E85
100
AcDbEntity
  8
HIDDEN
 62
     0
370
    -2
100
AcDbBlockReference
  2
_DOT
 10
694.345043731779
 20
2195.315239972956
 30
0.0
 41
10.0
 42
10.0
 43
10.0
 50
180.0
  0
MTEXT
  5
E8E
330
E85
100
AcDbEntity
  8
HIDDEN
 62
     0
 48
0.05
100
AcDbMText
 10
676.845043731779
 20
2227.315239972955
 30
0.0
 40
24.0
 41
0.0
 46
0.0
 71
     5
 72
     1
  1
\A1;35
  7
ＭＳ ゴシック
 73
     1
 44
1.0
  0
POINT
  5
E8F
330
E85
100
AcDbEntity
  8
Defpoints
 62
     0
100
AcDbPoint
 10
659.345043731779
 20
2266.638192419825
 30
0.0
  0
POINT
  5
E90
330
E85
100
AcDbEntity
  8
Defpoints
 62
     0
100
AcDbPoint
 10
694.345043731779
 20
2266.638192419825
 30
0.0
  0
POINT
  5
E91
330
E85
100
AcDbEntity
  8
Defpoints
 62
     0
100
AcDbPoint
 10
694.345043731779
 20
2195.315239972956
 30
0.0
  0
ENDBLK
  5
E87
330
E85
100
AcDbEntity
  8
0
100
AcDbBlockEnd
  0
BLOCK
  5
E96
330
E95
100
AcDbEntity
  8
0
100
AcDbBlockBegin
  2
*D13
 70
     1
 10
0.0
 20
0.0
 30
0.0
  3
*D13
  1
*D13
  0
LINE
  5
E98
330
E95
100
AcDbEntity
  8
DIM
 62
     0
 48
0.05
370
    -2
100
AcDbLine
 10
659.345043731779
 20
2246.638192419825
 30
0.0
 11
659.345043731779
 21
2187.906362691555
 31
0.0
  0
LINE
  5
E99
330
E95
100
AcDbEntity
  8
DIM
 62
     0
 48
0.05
370
    -2
100
AcDbLine
 10
694.345043731779
 20
2246.638192419825
 30
0.0
 11
694.345043731779
 21
2187.906362691555
 31
0.0
  0
LINE
  5
E9A
330
E95
100
AcDbEntity
  8
DIM
 62
     0
 48
0.05
370
    -2
100
AcDbLine
 10
669.345043731779
 20
2187.906362691555
 30
0.0
 11
684.345043731779
 21
2187.906362691555
 31
0.0
  0
INSERT
  5
E9B
330
E95
100
AcDbEntity
  8
DIM
 62
     0
370
    -2
100
AcDbBlockReference
  2
_DOT
 10
659.345043731779
 20
2187.906362691555
 30
0.0
 41
10.0
 42
10.0
 43
10.0
 50
180.0
  0
INSERT
  5
E9C
330
E95
100
AcDbEntity
  8
DIM
 62
     0
370
    -2
100
AcDbBlockReference
  2
_DOT
 10
694.345043731779
 20
2187.906362691555
 30
0.0
 41
10.0
 42
10.0
 43
10.0
  0
MTEXT
  5
E9D
330
E95
100
AcDbEntity
  8
DIM
 62
     0
 48
0.05
100
AcDbMText
 10
676.845043731779
 20
2219.906362691555
 30
0.0
 40
24.0
 41
0.0
 46
0.0
 71
     5
 72
     1
  1
\A1;35
  7
ＭＳ ゴシック
 73
     1
 44
1.0
  0
POINT
  5
E9E
330
E95
100
AcDbEntity
  8
Defpoints
 62
     0
100
AcDbPoint
 10
659.345043731779
 20
2266.638192419825
 30
0.0
  0
POINT
  5
E9F
330
E95
100
AcDbEntity
  8
Defpoints
 62
     0
100
AcDbPoint
 10
694.345043731779
 20
2266.638192419825
 30
0.0
  0
POINT
  5
EA0
330
E95
100
AcDbEntity
  8
Defpoints
 62
     0
100
AcDbPoint
 10
694.345043731779
 20
2187.906362691555
 30
0.0
  0
ENDBLK
  5
E97
330
E95
100
AcDbEntity
  8
0
100
AcDbBlockEnd
  0
BLOCK
  5
EAA
330
EA9
100
AcDbEntity
  8
0
100
AcDbBlockBegin
  2
*D14
 70
     1
 10
0.0
 20
0.0
 30
0.0
  3
*D14
  1
*D14
  0
LINE
  5
EAC
330
EA9
100
AcDbEntity
  8
DIM
 62
     0
 48
0.05
370
    -2
100
AcDbLine
 10
206.2786306067267
 20
2508.362716361517
 30
0.0
 11
206.2786306067267
 21
2562.407600005534
 31
0.0
  0
LINE
  5
EAD
330
EA9
100
AcDbEntity
  8
DIM
 62
     0
 48
0.05
370
    -2
100
AcDbLine
 10
308.3648096265098
 20
2508.362716361517
 30
0.0
 11
308.3648096265098
 21
2562.407600005534
 31
0.0
  0
LINE
  5
EAE
330
EA9
100
AcDbEntity
  8
DIM
 62
     0
 48
0.05
370
    -2
100
AcDbLine
 10
216.2786306067267
 20
2562.407600005534
 30
0.0
 11
298.3648096265099
 21
2562.407600005534
 31
0.0
  0
INSERT
  5
EAF
330
EA9
100
AcDbEntity
  8
DIM
 62
     0
370
    -2
100
AcDbBlockReference
  2
_DOT
 10
206.2786306067267
 20
2562.407600005534
 30
0.0
 41
10.0
 42
10.0
 43
10.0
 50
180.0
  0
INSERT
  5
EB0
330
EA9
100
AcDbEntity
  8
DIM
 62
     0
370
    -2
100
AcDbBlockReference
  2
_DOT
 10
308.3648096265098
 20
2562.407600005534
 30
0.0
 41
10.0
 42
10.0
 43
10.0
  0
MTEXT
  5
EB1
330
EA9
100
AcDbEntity
  8
DIM
 62
     0
 48
0.05
100
AcDbMText
 10
257.3217201166183
 20
2594.407600005534
 30
0.0
 40
24.0
 41
0.0
 46
0.0
 71
     5
 72
     1
  1
\A1;102
  7
ＭＳ ゴシック
 73
     1
 44
1.0
  0
POINT
  5
EB2
330
EA9
100
AcDbEntity
  8
Defpoints
 62
     0
100
AcDbPoint
 10
206.2786306067267
 20
2488.362716361517
 30
0.0
  0
POINT
  5
EB3
330
EA9
100
AcDbEntity
  8
Defpoints
 62
     0
100
AcDbPoint
 10
308.3648096265098
 20
2488.362716361517
 30
0.0
  0
POINT
  5
EB4
330
EA9
100
AcDbEntity
  8
Defpoints
 62
     0
100
AcDbPoint
 10
308.3648096265098
 20
2562.407600005534
 30
0.0
  0
ENDBLK
  5
EAB
330
EA9
100
AcDbEntity
  8
0
100
AcDbBlockEnd
  0
BLOCK
  5
ED4
330
ED3
100
AcDbEntity
  8
0
100
AcDbBlockBegin
  2
*D15
 70
     1
 10
0.0
 20
0.0
 30
0.0
  3
*D15
  1
*D15
  0
LINE
  5
ED6
330
ED3
100
AcDbEntity
  8
MODEL
 62
     0
 48
0.05
370
    -2
100
AcDbLine
 10
892.3185131195337
 20
2456.527696793004
 30
0.0
 11
999.525827304914
 21
2456.527696793004
 31
0.0
  0
LINE
  5
ED7
330
ED3
100
AcDbEntity
  8
MODEL
 62
     0
 48
0.05
370
    -2
100
AcDbLine
 10
892.3185131195337
 20
2050.252478134111
 30
0.0
 11
999.525827304914
 21
2050.252478134111
 31
0.0
  0
LINE
  5
ED8
330
ED3
100
AcDbEntity
  8
MODEL
 62
     0
 48
0.05
370
    -2
100
AcDbLine
 10
999.525827304914
 20
2446.527696793004
 30
0.0
 11
999.525827304914
 21
2060.252478134112
 31
0.0
  0
INSERT
  5
ED9
330
ED3
100
AcDbEntity
  8
MODEL
 62
     0
370
    -2
100
AcDbBlockReference
  2
_DOT
 10
999.525827304914
 20
2456.527696793004
 30
0.0
 41
10.0
 42
10.0
 43
10.0
 50
90.0
  0
INSERT
  5
EDA
330
ED3
100
AcDbEntity
  8
MODEL
 62
     0
370
    -2
100
AcDbBlockReference
  2
_DOT
 10
999.525827304914
 20
2050.252478134111
 30
0.0
 41
10.0
 42
10.0
 43
10.0
 50
270.0
  0
MTEXT
  5
EDB
330
ED3
100
AcDbEntity
  8
MODEL
 62
     0
 48
0.05
100
AcDbMText
 10
967.525827304914
 20
2253.390087463557
 30
0.0
 40
24.0
 41
0.0
 46
0.0
 71
     5
 72
     1
  1
\A1;406
  7
ＭＳ ゴシック
 11
0.0
 21
1.0
 31
0.0
 73
     1
 44
1.0
  0
POINT
  5
EDC
330
ED3
100
AcDbEntity
  8
Defpoints
 62
     0
100
AcDbPoint
 10
862.3185131195338
 20
2456.527696793004
 30
0.0
  0
POINT
  5
EDD
330
ED3
100
AcDbEntity
  8
Defpoints
 62
     0
100
AcDbPoint
 10
862.3185131195338
 20
2050.252478134111
 30
0.0
  0
POINT
  5
EDE
330
ED3
100
AcDbEntity
  8
Defpoints
 62
     0
100
AcDbPoint
 10
999.525827304914
 20
2050.252478134111
 30
0.0
  0
ENDBLK
  5
ED5
330
ED3
100
AcDbEntity
  8
0
100
AcDbBlockEnd
  0
BLOCK
  5
EE3
330
EE2
100
AcDbEntity
  8
0
100
AcDbBlockBegin
  2
*D16
 70
     1
 10
0.0
 20
0.0
 30
0.0
  3
*D16
  1
*D16
  0
LINE
  5
EE5
330
EE2
100
AcDbEntity
  8
DIM
 62
     0
 48
0.05
370
    -2
100
AcDbLine
 10
892.3185131195337
 20
2456.527696793004
 30
0.0
 11
999.525827304914
 21
2456.527696793004
 31
0.0
  0
LINE
  5
EE6
330
EE2
100
AcDbEntity
  8
DIM
 62
     0
 48
0.05
370
    -2
100
AcDbLine
 10
892.3185131195337
 20
2050.252478134111
 30
0.0
 11
999.525827304914
 21
2050.252478134111
 31
0.0
  0
LINE
  5
EE7
330
EE2
100
AcDbEntity
  8
DIM
 62
     0
 48
0.05
370
    -2
100
AcDbLine
 10
999.525827304914
 20
2446.527696793004
 30
0.0
 11
999.525827304914
 21
2060.252478134112
 31
0.0
  0
INSERT
  5
EE8
330
EE2
100
AcDbEntity
  8
DIM
 62
     0
370
    -2
100
AcDbBlockReference
  2
_DOT
 10
999.525827304914
 20
2456.527696793004
 30
0.0
 41
10.0
 42
10.0
 43
10.0
 50
90.0
  0
INSERT
  5
EE9
330
EE2
100
AcDbEntity
  8
DIM
 62
     0
370
    -2
100
AcDbBlockReference
  2
_DOT
 10
999.525827304914
 20
2050.252478134111
 30
0.0
 41
10.0
 42
10.0
 43
10.0
 50
270.0
  0
MTEXT
  5
EEA
330
EE2
100
AcDbEntity
  8
DIM
 62
     0
 48
0.05
100
AcDbMText
 10
967.525827304914
 20
2253.390087463557
 30
0.0
 40
24.0
 41
0.0
 46
0.0
 71
     5
 72
     1
  1
\A1;406
  7
ＭＳ ゴシック
 11
0.0
 21
1.0
 31
0.0
 73
     1
 44
1.0
  0
POINT
  5
EEB
330
EE2
100
AcDbEntity
  8
Defpoints
 62
     0
100
AcDbPoint
 10
862.3185131195338
 20
2456.527696793004
 30
0.0
  0
POINT
  5
EEC
330
EE2
100
AcDbEntity
  8
Defpoints
 62
     0
100
AcDbPoint
 10
862.3185131195338
 20
2050.252478134111
 30
0.0
  0
POINT
  5
EED
330
EE2
100
AcDbEntity
  8
Defpoints
 62
     0
100
AcDbPoint
 10
999.525827304914
 20
2050.252478134111
 30
0.0
  0
ENDBLK
  5
EE4
330
EE2
100
AcDbEntity
  8
0
100
AcDbBlockEnd
  0
BLOCK
  5
101D
330
101C
100
AcDbEntity
  8
0
100
AcDbBlockBegin
  2
*D17
 70
     1
 10
0.0
 20
0.0
 30
0.0
  3
*D17
  1
*D58
  0
LINE
  5
101E
330
101C
100
AcDbEntity
  8
DIM
  6
Continuous
 62
     0
370
    -2
100
AcDbLine
 10
320.6770734920548
 20
842.480572462081
 30
0.0
 11
153.940495231631
 21
842.480572462081
 31
0.0
  0
LINE
  5
101F
330
101C
100
AcDbEntity
  8
DIM
  6
Continuous
 62
     0
370
    -2
100
AcDbLine
 10
320.6770734920548
 20
2.5
 30
0.0
 11
153.9404952316309
 21
2.5
 31
0.0
  0
LINE
  5
1020
330
101C
100
AcDbEntity
  8
DIM
  6
Continuous
 62
     0
370
    -2
100
AcDbLine
 10
153.940495231631
 20
832.480572462081
 30
0.0
 11
153.9404952316309
 21
12.5
 31
0.0
  0
INSERT
  5
1021
330
101C
100
AcDbEntity
  8
DIM
 62
     0
370
    -2
100
AcDbBlockReference
  2
_DOT
 10
153.940495231631
 20
842.480572462081
 30
0.0
 41
10.0
 42
10.0
 43
10.0
 50
90.0
  0
INSERT
  5
1022
330
101C
100
AcDbEntity
  8
DIM
 62
     0
370
    -2
100
AcDbBlockReference
  2
_DOT
 10
153.9404952316309
 20
2.5
 30
0.0
 41
10.0
 42
10.0
 43
10.0
 50
270.0
  0
MTEXT
  5
1023
330
101C
100
AcDbEntity
  8
DIM
  6
HIDDEN
 62
     0
 48
0.05
100
AcDbMText
 10
121.940495231631
 20
422.4902862310409
 30
0.0
 40
24.0
 41
0.0
 46
0.0
 71
     5
 72
     1
  1
\A1;840
  7
ＭＳ ゴシック
 11
0.0000000000000001
 21
1.0
 31
0.0
 73
     1
 44
1.0
  0
POINT
  5
1024
330
101C
100
AcDbEntity
  8
Defpoints
 62
     0
100
AcDbPoint
 10
350.6770734920548
 20
842.480572462081
 30
0.0
  0
POINT
  5
1025
330
101C
100
AcDbEntity
  8
Defpoints
 62
     0
100
AcDbPoint
 10
350.6770734920548
 20
2.5
 30
0.0
  0
POINT
  5
1026
330
101C
100
AcDbEntity
  8
Defpoints
 62
     0
100
AcDbPoint
 10
153.9404952316308
 20
2.500000000000011
 30
0.0
  0
ENDBLK
  5
1027
330
101C
100
AcDbEntity
  8
0
100
AcDbBlockEnd
  0
BLOCK
  5
102C
330
102B
100
AcDbEntity
  8
0
100
AcDbBlockBegin
  2
*D18
 70
     1
 10
0.0
 20
0.0
 30
0.0
  3
*D18
  1
*D60
  0
LINE
  5
102D
330
102B
100
AcDbEntity
  8
DIM
  6
Continuous
 62
     0
370
    -2
100
AcDbLine
 10
244.0915485803517
 20
874.1672089340028
 30
0.0
 11
244.0915485803517
 21
990.7831072275889
 31
0.0
  0
LINE
  5
102E
330
102B
100
AcDbEntity
  8
DIM
  6
Continuous
 62
     0
370
    -2
100
AcDbLine
 10
624.0915485803522
 20
874.1672089340028
 30
0.0
 11
624.0915485803522
 21
990.7831072275889
 31
0.0
  0
LINE
  5
102F
330
102B
100
AcDbEntity
  8
DIM
  6
Continuous
 62
     0
370
    -2
100
AcDbLine
 10
254.0915485803517
 20
990.7831072275889
 30
0.0
 11
614.0915485803522
 21
990.7831072275889
 31
0.0
  0
INSERT
  5
1030
330
102B
100
AcDbEntity
  8
DIM
 62
     0
370
    -2
100
AcDbBlockReference
  2
_DOT
 10
244.0915485803517
 20
990.7831072275889
 30
0.0
 41
10.0
 42
10.0
 43
10.0
 50
180.0
  0
INSERT
  5
1031
330
102B
100
AcDbEntity
  8
DIM
 62
     0
370
    -2
100
AcDbBlockReference
  2
_DOT
 10
624.0915485803522
 20
990.7831072275889
 30
0.0
 41
10.0
 42
10.0
 43
10.0
  0
MTEXT
  5
1032
330
102B
100
AcDbEntity
  8
DIM
  6
HIDDEN
 62
     0
 48
0.05
100
AcDbMText
 10
434.0915485803519
 20
1022.783107227589
 30
0.0
 40
24.0
 41
0.0
 46
0.0
 71
     5
 72
     1
  1
\A1;380
  7
ＭＳ ゴシック
 73
     1
 44
1.0
  0
POINT
  5
1033
330
102B
100
AcDbEntity
  8
Defpoints
 62
     0
100
AcDbPoint
 10
244.0915485803517
 20
844.1672089340027
 30
0.0
  0
POINT
  5
1034
330
102B
100
AcDbEntity
  8
Defpoints
 62
     0
100
AcDbPoint
 10
624.0915485803522
 20
844.1672089340027
 30
0.0
  0
POINT
  5
1035
330
102B
100
AcDbEntity
  8
Defpoints
 62
     0
100
AcDbPoint
 10
624.0915485803522
 20
990.7831072275889
 30
0.0
  0
ENDBLK
  5
1036
330
102B
100
AcDbEntity
  8
0
100
AcDbBlockEnd
  0
BLOCK
  5
1039
330
1038
100
AcDbEntity
  8
0
100
AcDbBlockBegin
  2
*D19
 70
     1
 10
0.0
 20
0.0
 30
0.0
  3
*D19
  1
*D61
  0
LINE
  5
103A
330
1038
100
AcDbEntity
  8
DIM
  6
Continuous
 62
     0
370
    -2
100
AcDbLine
 10
1175.203833519444
 20
2.586516141891025
 30
0.0
 11
1389.352190817606
 21
2.586516141891025
 31
0.0
  0
LINE
  5
103B
330
1038
100
AcDbEntity
  8
DIM
  6
Continuous
 62
     0
370
    -2
100
AcDbLine
 10
1357.062590392494
 20
282.586516141891
 30
0.0
 11
1389.352190817606
 21
282.586516141891
 31
0.0
  0
LINE
  5
103C
330
1038
100
AcDbEntity
  8
DIM
  6
Continuous
 62
     0
370
    -2
100
AcDbLine
 10
1389.352190817606
 20
12.58651614189102
 30
0.0
 11
1389.352190817606
 21
272.5865161418909
 31
0.0
  0
INSERT
  5
103D
330
1038
100
AcDbEntity
  8
DIM
 62
     0
370
    -2
100
AcDbBlockReference
  2
_DOT
 10
1389.352190817606
 20
2.586516141891025
 30
0.0
 41
10.0
 42
10.0
 43
10.0
 50
270.0
  0
INSERT
  5
103E
330
1038
100
AcDbEntity
  8
DIM
 62
     0
370
    -2
100
AcDbBlockReference
  2
_DOT
 10
1389.352190817606
 20
282.586516141891
 30
0.0
 41
10.0
 42
10.0
 43
10.0
 50
90.0
  0
MTEXT
  5
103F
330
1038
100
AcDbEntity
  8
DIM
  6
HIDDEN
 62
     0
 48
0.05
100
AcDbMText
 10
1357.352190817606
 20
142.586516141891
 30
0.0
 40
24.0
 41
0.0
 46
0.0
 71
     5
 72
     1
  1
\A1;280
  7
ＭＳ ゴシック
 11
0.0
 21
1.0
 31
0.0
 73
     1
 44
1.0
  0
POINT
  5
1040
330
1038
100
AcDbEntity
  8
Defpoints
 62
     0
100
AcDbPoint
 10
1145.203833519444
 20
2.586516141891025
 30
0.0
  0
POINT
  5
1041
330
1038
100
AcDbEntity
  8
Defpoints
 62
     0
100
AcDbPoint
 10
1327.062590392494
 20
282.586516141891
 30
0.0
  0
POINT
  5
1042
330
1038
100
AcDbEntity
  8
Defpoints
 62
     0
100
AcDbPoint
 10
1389.352190817606
 20
282.586516141891
 30
0.0
  0
ENDBLK
  5
1043
330
1038
100
AcDbEntity
  8
0
100
AcDbBlockEnd
  0
BLOCK
  5
1046
330
1045
100
AcDbEntity
  8
0
100
AcDbBlockBegin
  2
*D20
 70
     1
 10
0.0
 20
0.0
 30
0.0
  3
*D20
  1
*D62
  0
LINE
  5
1047
330
1045
100
AcDbEntity
  8
DIM
  6
Continuous
 62
     0
370
    -2
100
AcDbLine
 10
1118.845538008185
 20
872.4805724620809
 30
0.0
 11
1118.845538008185
 21
1017.775787496294
 31
0.0
  0
LINE
  5
1048
330
1045
100
AcDbEntity
  8
DIM
  6
Continuous
 62
     0
370
    -2
100
AcDbLine
 10
1228.845538008185
 20
352.7766489174642
 30
0.0
 11
1228.845538008185
 21
1017.775787496294
 31
0.0
  0
LINE
  5
1049
330
1045
100
AcDbEntity
  8
DIM
  6
Continuous
 62
     0
370
    -2
100
AcDbLine
 10
1128.845538008185
 20
1017.775787496294
 30
0.0
 11
1218.845538008185
 21
1017.775787496294
 31
0.0
  0
INSERT
  5
104A
330
1045
100
AcDbEntity
  8
DIM
 62
     0
370
    -2
100
AcDbBlockReference
  2
_DOT
 10
1118.845538008185
 20
1017.775787496294
 30
0.0
 41
10.0
 42
10.0
 43
10.0
 50
180.0
  0
INSERT
  5
104B
330
1045
100
AcDbEntity
  8
DIM
 62
     0
370
    -2
100
AcDbBlockReference
  2
_DOT
 10
1228.845538008185
 20
1017.775787496294
 30
0.0
 41
10.0
 42
10.0
 43
10.0
  0
MTEXT
  5
104C
330
1045
100
AcDbEntity
  8
DIM
  6
HIDDEN
 62
     0
 48
0.05
100
AcDbMText
 10
1173.845538008185
 20
1049.775787496294
 30
0.0
 40
24.0
 41
0.0
 46
0.0
 71
     5
 72
     1
  1
\A1;110
  7
ＭＳ ゴシック
 73
     1
 44
1.0
  0
POINT
  5
104D
330
1045
100
AcDbEntity
  8
Defpoints
 62
     0
100
AcDbPoint
 10
1118.845538008185
 20
842.480572462081
 30
0.0
  0
POINT
  5
104E
330
1045
100
AcDbEntity
  8
Defpoints
 62
     0
100
AcDbPoint
 10
1228.845538008185
 20
322.7766489174642
 30
0.0
  0
POINT
  5
104F
330
1045
100
AcDbEntity
  8
Defpoints
 62
     0
100
AcDbPoint
 10
1228.845538008185
 20
1017.775787496294
 30
0.0
  0
ENDBLK
  5
1050
330
1045
100
AcDbEntity
  8
0
100
AcDbBlockEnd
  0
BLOCK
  5
1053
330
1052
100
AcDbEntity
  8
0
100
AcDbBlockBegin
  2
*D21
 70
     1
 10
0.0
 20
0.0
 30
0.0
  3
*D21
  1
*D63
  0
LINE
  5
1054
330
1052
100
AcDbEntity
  8
DIM
  6
Continuous
 62
     0
370
    -2
100
AcDbLine
 10
1118.845538008185
 20
872.559369802475
 30
0.0
 11
1118.845538008185
 21
957.2874077620801
 31
0.0
  0
LINE
  5
1055
330
1052
100
AcDbEntity
  8
DIM
  6
Continuous
 62
     0
370
    -2
100
AcDbLine
 10
1208.845538008185
 20
503.3803698883647
 30
0.0
 11
1208.845538008185
 21
957.2874077620801
 31
0.0
  0
LINE
  5
1056
330
1052
100
AcDbEntity
  8
DIM
  6
Continuous
 62
     0
370
    -2
100
AcDbLine
 10
1128.845538008185
 20
957.2874077620801
 30
0.0
 11
1198.845538008185
 21
957.2874077620801
 31
0.0
  0
INSERT
  5
1057
330
1052
100
AcDbEntity
  8
DIM
 62
     0
370
    -2
100
AcDbBlockReference
  2
_DOT
 10
1118.845538008185
 20
957.2874077620801
 30
0.0
 41
10.0
 42
10.0
 43
10.0
 50
180.0
  0
INSERT
  5
1058
330
1052
100
AcDbEntity
  8
DIM
 62
     0
370
    -2
100
AcDbBlockReference
  2
_DOT
 10
1208.845538008185
 20
957.2874077620801
 30
0.0
 41
10.0
 42
10.0
 43
10.0
  0
MTEXT
  5
1059
330
1052
100
AcDbEntity
  8
DIM
  6
HIDDEN
 62
     0
 48
0.05
100
AcDbMText
 10
1163.845538008185
 20
989.2874077620801
 30
0.0
 40
24.0
 41
0.0
 46
0.0
 71
     5
 72
     1
  1
\A1;90
  7
ＭＳ ゴシック
 73
     1
 44
1.0
  0
POINT
  5
105A
330
1052
100
AcDbEntity
  8
Defpoints
 62
     0
100
AcDbPoint
 10
1118.845538008185
 20
842.559369802475
 30
0.0
  0
POINT
  5
105B
330
1052
100
AcDbEntity
  8
Defpoints
 62
     0
100
AcDbPoint
 10
1208.845538008185
 20
473.3803698883647
 30
0.0
  0
POINT
  5
105C
330
1052
100
AcDbEntity
  8
Defpoints
 62
     0
100
AcDbPoint
 10
1208.845538008185
 20
957.2874077620801
 30
0.0
  0
ENDBLK
  5
105D
330
1052
100
AcDbEntity
  8
0
100
AcDbBlockEnd
  0
BLOCK
  5
1060
330
105F
100
AcDbEntity
  8
0
100
AcDbBlockBegin
  2
*D22
 70
     1
 10
0.0
 20
0.0
 30
0.0
  3
*D22
  1
*D64
  0
LINE
  5
1061
330
105F
100
AcDbEntity
  8
DIM
  6
Continuous
 62
     0
370
    -2
100
AcDbLine
 10
1239.333094865808
 20
1703.92228941891
 30
0.0
 11
1365.944234656804
 21
1703.92228941891
 31
0.0
  0
LINE
  5
1062
330
105F
100
AcDbEntity
  8
DIM
  6
Continuous
 62
     0
370
    -2
100
AcDbLine
 10
1313.596133096516
 20
1646.92228941891
 30
0.0
 11
1365.944234656804
 21
1646.92228941891
 31
0.0
  0
LINE
  5
1063
330
105F
100
AcDbEntity
  8
DIM
  6
Continuous
 62
     0
370
    -2
100
AcDbLine
 10
1365.944234656804
 20
1693.92228941891
 30
0.0
 11
1365.944234656804
 21
1656.92228941891
 31
0.0
  0
INSERT
  5
1064
330
105F
100
AcDbEntity
  8
DIM
 62
     0
370
    -2
100
AcDbBlockReference
  2
_DOT
 10
1365.944234656804
 20
1703.92228941891
 30
0.0
 41
10.0
 42
10.0
 43
10.0
 50
90.0
  0
INSERT
  5
1065
330
105F
100
AcDbEntity
  8
DIM
 62
     0
370
    -2
100
AcDbBlockReference
  2
_DOT
 10
1365.944234656804
 20
1646.92228941891
 30
0.0
 41
10.0
 42
10.0
 43
10.0
 50
270.0
  0
MTEXT
  5
1066
330
105F
100
AcDbEntity
  8
DIM
  6
HIDDEN
 62
     0
 48
0.05
100
AcDbMText
 10
1333.944234656804
 20
1675.42228941891
 30
0.0
 40
24.0
 41
0.0
 46
0.0
 71
     5
 72
     1
  1
\A1;57
  7
ＭＳ ゴシック
 11
0.0
 21
1.0
 31
0.0
 73
     1
 44
1.0
  0
POINT
  5
1067
330
105F
100
AcDbEntity
  8
Defpoints
 62
     0
100
AcDbPoint
 10
1209.333094865808
 20
1703.92228941891
 30
0.0
  0
POINT
  5
1068
330
105F
100
AcDbEntity
  8
Defpoints
 62
     0
100
AcDbPoint
 10
1283.596133096516
 20
1646.92228941891
 30
0.0
  0
POINT
  5
1069
330
105F
100
AcDbEntity
  8
Defpoints
 62
     0
100
AcDbPoint
 10
1365.944234656804
 20
1646.92228941891
 30
0.0
  0
ENDBLK
  5
106A
330
105F
100
AcDbEntity
  8
0
100
AcDbBlockEnd
  0
BLOCK
  5
106D
330
106C
100
AcDbEntity
  8
0
100
AcDbBlockBegin
  2
*D23
 70
     1
 10
0.0
 20
0.0
 30
0.0
  3
*D23
  1
*D65
  0
LINE
  5
106E
330
106C
100
AcDbEntity
  8
DIM
  6
Continuous
 62
     0
370
    -2
100
AcDbLine
 10
1118.845538008185
 20
1608.65413081155
 30
0.0
 11
939.8334113344686
 21
1608.65413081155
 31
0.0
  0
LINE
  5
106F
330
106C
100
AcDbEntity
  8
DIM
  6
Continuous
 62
     0
370
    -2
100
AcDbLine
 10
1128.845538008185
 20
1608.65413081155
 30
0.0
 11
1179.845538008185
 21
1608.65413081155
 31
0.0
  0
INSERT
  5
1070
330
106C
100
AcDbEntity
  8
DIM
 62
     0
370
    -2
100
AcDbBlockReference
  2
_DOT
 10
1118.845538008185
 20
1608.65413081155
 30
0.0
 41
10.0
 42
10.0
 43
10.0
 50
180.0
  0
INSERT
  5
1071
330
106C
100
AcDbEntity
  8
DIM
 62
     0
370
    -2
100
AcDbBlockReference
  2
_DOT
 10
1189.845538008185
 20
1608.65413081155
 30
0.0
 41
10.0
 42
10.0
 43
10.0
  0
MTEXT
  5
1072
330
106C
100
AcDbEntity
  8
DIM
  6
HIDDEN
 62
     0
 48
0.05
100
AcDbMText
 10
1017.901411334469
 20
1642.77813081155
 30
0.0
 40
24.0
 41
0.0
 46
0.0
 71
     5
 72
     1
  1
\A1;50(深さ)
  7
ＭＳ ゴシック
 73
     1
 44
1.0
  0
POINT
  5
1073
330
106C
100
AcDbEntity
  8
Defpoints
 62
     0
100
AcDbPoint
 10
1118.845538008185
 20
1631.155831179514
 30
0.0
  0
POINT
  5
1074
330
106C
100
AcDbEntity
  8
Defpoints
 62
     0
100
AcDbPoint
 10
1189.845538008185
 20
1621.818340918579
 30
0.0
  0
POINT
  5
1075
330
106C
100
AcDbEntity
  8
Defpoints
 62
     0
100
AcDbPoint
 10
1189.845538008185
 20
1608.65413081155
 30
0.0
  0
ENDBLK
  5
1076
330
106C
100
AcDbEntity
  8
0
100
AcDbBlockEnd
  0
BLOCK
  5
1090
330
108F
100
AcDbEntity
  8
0
100
AcDbBlockBegin
  2
*D24
 70
     1
 10
0.0
 20
0.0
 30
0.0
  3
*D24
  1
*D67
  0
LINE
  5
1091
330
108F
100
AcDbEntity
  8
DIM
  6
Continuous
 62
     0
370
    -2
100
AcDbLine
 10
271.2323480669103
 20
1302.980583343308
 30
0.0
 11
178.8034669950985
 21
1302.980583343308
 31
0.0
  0
LINE
  5
1092
330
108F
100
AcDbEntity
  8
DIM
  6
Continuous
 62
     0
370
    -2
100
AcDbLine
 10
271.2323480669107
 20
1602.980583343308
 30
0.0
 11
178.8034669950986
 21
1602.980583343308
 31
0.0
  0
LINE
  5
1093
330
108F
100
AcDbEntity
  8
DIM
  6
Continuous
 62
     0
370
    -2
100
AcDbLine
 10
178.8034669950985
 20
1312.980583343308
 30
0.0
 11
178.8034669950986
 21
1592.980583343308
 31
0.0
  0
INSERT
  5
1094
330
108F
100
AcDbEntity
  8
DIM
 62
     0
370
    -2
100
AcDbBlockReference
  2
_DOT
 10
178.8034669950985
 20
1302.980583343308
 30
0.0
 41
10.0
 42
10.0
 43
10.0
 50
270.0
  0
INSERT
  5
1095
330
108F
100
AcDbEntity
  8
DIM
 62
     0
370
    -2
100
AcDbBlockReference
  2
_DOT
 10
178.8034669950986
 20
1602.980583343308
 30
0.0
 41
10.0
 42
10.0
 43
10.0
 50
90.0
  0
MTEXT
  5
1096
330
108F
100
AcDbEntity
  8
DIM
  6
HIDDEN
 62
     0
 48
0.05
100
AcDbMText
 10
146.8034669950986
 20
1452.980583343308
 30
0.0
 40
24.0
 41
0.0
 46
0.0
 71
     5
 72
     1
  1
\A1;300
  7
ＭＳ ゴシック
 11
0.0000000000000001
 21
1.0
 31
0.0
 73
     1
 44
1.0
  0
POINT
  5
1097
330
108F
100
AcDbEntity
  8
Defpoints
 62
     0
100
AcDbPoint
 10
301.2323480669103
 20
1302.980583343308
 30
0.0
  0
POINT
  5
1098
330
108F
100
AcDbEntity
  8
Defpoints
 62
     0
100
AcDbPoint
 10
301.2323480669107
 20
1602.980583343308
 30
0.0
  0
POINT
  5
1099
330
108F
100
AcDbEntity
  8
Defpoints
 62
     0
100
AcDbPoint
 10
178.8034669950986
 20
1602.980583343308
 30
0.0
  0
ENDBLK
  5
109A
330
108F
100
AcDbEntity
  8
0
100
AcDbBlockEnd
  0
BLOCK
  5
10A4
330
10A3
100
AcDbEntity
  8
0
100
AcDbBlockBegin
  2
*D25
 70
     1
 10
0.0
 20
0.0
 30
0.0
  3
*D25
  1
*D69
  0
LINE
  5
10A5
330
10A3
100
AcDbEntity
  8
DIM
  6
Continuous
 62
     0
370
    -2
100
AcDbLine
 10
1238.845541584467
 20
1694.780520158742
 30
0.0
 11
1297.759646560495
 21
1694.780520158742
 31
0.0
  0
LINE
  5
10A6
330
10A3
100
AcDbEntity
  8
DIM
  6
Continuous
 62
     0
370
    -2
100
AcDbLine
 10
1238.845541584467
 20
1598.78051974151
 30
0.0
 11
1297.759646560495
 21
1598.78051974151
 31
0.0
  0
LINE
  5
10A7
330
10A3
100
AcDbEntity
  8
DIM
  6
Continuous
 62
     0
370
    -2
100
AcDbLine
 10
1297.759646560495
 20
1684.780520158742
 30
0.0
 11
1297.759646560495
 21
1608.78051974151
 31
0.0
  0
INSERT
  5
10A8
330
10A3
100
AcDbEntity
  8
DIM
 62
     0
370
    -2
100
AcDbBlockReference
  2
_DOT
 10
1297.759646560495
 20
1694.780520158742
 30
0.0
 41
10.0
 42
10.0
 43
10.0
 50
90.0
  0
INSERT
  5
10A9
330
10A3
100
AcDbEntity
  8
DIM
 62
     0
370
    -2
100
AcDbBlockReference
  2
_DOT
 10
1297.759646560495
 20
1598.78051974151
 30
0.0
 41
10.0
 42
10.0
 43
10.0
 50
270.0
  0
MTEXT
  5
10AA
330
10A3
100
AcDbEntity
  8
DIM
  6
HIDDEN
 62
     0
 48
0.05
100
AcDbMText
 10
1265.759646560495
 20
1646.780519950126
 30
0.0
 40
24.0
 41
0.0
 46
0.0
 71
     5
 72
     1
  1
\A1;96
  7
ＭＳ ゴシック
 11
0.0
 21
1.0
 31
0.0
 73
     1
 44
1.0
  0
POINT
  5
10AB
330
10A3
100
AcDbEntity
  8
Defpoints
 62
     0
100
AcDbPoint
 10
1208.845541584467
 20
1694.780520158742
 30
0.0
  0
POINT
  5
10AC
330
10A3
100
AcDbEntity
  8
Defpoints
 62
     0
100
AcDbPoint
 10
1208.845541584467
 20
1598.78051974151
 30
0.0
  0
POINT
  5
10AD
330
10A3
100
AcDbEntity
  8
Defpoints
 62
     0
100
AcDbPoint
 10
1297.759646560495
 20
1598.78051974151
 30
0.0
  0
ENDBLK
  5
10AE
330
10A3
100
AcDbEntity
  8
0
100
AcDbBlockEnd
  0
BLOCK
  5
10B4
330
10B3
100
AcDbEntity
  8
0
100
AcDbBlockBegin
  2
*D26
 70
     1
 10
0.0
 20
0.0
 30
0.0
  3
*D26
  1
*D27
  0
LINE
  5
10B5
330
10B3
100
AcDbEntity
  8
DIM
 62
     0
 48
0.05
370
    -2
100
AcDbLine
 10
1241.294720318053
 20
258.3885933240956
 30
0.0
 11
1268.473433065238
 21
258.3885933240956
 31
0.0
  0
LINE
  5
10B6
330
10B3
100
AcDbEntity
  8
DIM
 62
     0
 48
0.05
370
    -2
100
AcDbLine
 10
1241.294720318053
 20
305.3512597952543
 30
0.0
 11
1268.473433065238
 21
305.3512597952543
 31
0.0
  0
LINE
  5
10B7
330
10B3
100
AcDbEntity
  8
DIM
 62
     0
 48
0.05
370
    -2
100
AcDbLine
 10
1268.473433065238
 20
268.3885933240957
 30
0.0
 11
1268.473433065238
 21
295.3512597952543
 31
0.0
  0
INSERT
  5
10B8
330
10B3
100
AcDbEntity
  8
DIM
 62
     0
370
    -2
100
AcDbBlockReference
  2
_DOT
 10
1268.473433065238
 20
258.3885933240956
 30
0.0
 41
10.0
 42
10.0
 43
10.0
 50
270.0
  0
INSERT
  5
10B9
330
10B3
100
AcDbEntity
  8
DIM
 62
     0
370
    -2
100
AcDbBlockReference
  2
_DOT
 10
1268.473433065238
 20
305.3512597952543
 30
0.0
 41
10.0
 42
10.0
 43
10.0
 50
90.0
  0
MTEXT
  5
10BA
330
10B3
100
AcDbEntity
  8
DIM
  6
HIDDEN
 62
     0
 48
0.05
100
AcDbMText
 10
1303.029433065238
 20
281.869926559675
 30
0.0
 40
24.0
 41
0.0
 46
0.0
 71
     5
 72
     1
  1
\A1;G1 1/4"
  7
ＭＳ ゴシック
 11
0.0
 21
1.0
 31
0.0
 73
     1
 44
1.0
  0
POINT
  5
10BB
330
10B3
100
AcDbEntity
  8
Defpoints
 62
     0
100
AcDbPoint
 10
1211.294720318053
 20
258.3885933240956
 30
0.0
  0
POINT
  5
10BC
330
10B3
100
AcDbEntity
  8
Defpoints
 62
     0
100
AcDbPoint
 10
1211.294720318053
 20
305.3512597952543
 30
0.0
  0
POINT
  5
10BD
330
10B3
100
AcDbEntity
  8
Defpoints
 62
     0
100
AcDbPoint
 10
1268.473433065238
 20
305.3512597952543
 30
0.0
  0
ENDBLK
  5
10BE
330
10B3
100
AcDbEntity
  8
0
100
AcDbBlockEnd
  0
BLOCK
  5
11A2
330
11A1
100
AcDbEntity
  8
0
100
AcDbBlockBegin
  2
*D27
 70
     1
 10
0.0
 20
0.0
 30
0.0
  3
*D27
  1
*D28
  0
LINE
  5
11A4
330
11A1
100
AcDbEntity
  8
DIM
  6
Continuous
 62
     0
440
 16777216
370
    -2
100
AcDbLine
 10
734.1017406583297
 20
1488.43392523176
 30
0.0
 11
481.9187751150135
 21
1488.43392523176
 31
0.0
  0
LINE
  5
11A5
330
11A1
100
AcDbEntity
  8
DIM
  6
Continuous
 62
     0
440
 16777216
370
    -2
100
AcDbLine
 10
734.1017406583297
 20
648.4533527696785
 30
0.0
 11
481.9187751150135
 21
648.4533527696785
 31
0.0
  0
LINE
  5
11A6
330
11A1
100
AcDbEntity
  8
DIM
  6
Continuous
 62
     0
440
 16777216
370
    -2
100
AcDbLine
 10
481.9187751150135
 20
1478.43392523176
 30
0.0
 11
481.9187751150135
 21
658.4533527696785
 31
0.0
  0
INSERT
  5
11A7
330
11A1
100
AcDbEntity
  8
DIM
 62
     0
440
 16777216
370
    -2
100
AcDbBlockReference
  2
_DOT
 10
481.9187751150135
 20
1488.43392523176
 30
0.0
 41
10.0
 42
10.0
 43
10.0
 50
90.0
  0
INSERT
  5
11A8
330
11A1
100
AcDbEntity
  8
DIM
 62
     0
440
 16777216
370
    -2
100
AcDbBlockReference
  2
_DOT
 10
481.9187751150135
 20
648.4533527696785
 30
0.0
 41
10.0
 42
10.0
 43
10.0
 50
270.0
  0
MTEXT
  5
11A9
330
11A1
100
AcDbEntity
  8
DIM
 62
     0
440
 16777216
 48
0.05
100
AcDbMText
 10
449.9187751150135
 20
1068.443639000719
 30
0.0
 40
24.0
 41
0.0
 46
0.0
 71
     5
 72
     1
  1
\A1;840
  7
ＭＳ ゴシック
 11
0.0000000000000001
 21
1.0
 31
0.0
 73
     1
 44
1.0
  0
POINT
  5
11AA
330
11A1
100
AcDbEntity
  8
Defpoints
 62
     0
440
 16777216
100
AcDbPoint
 10
764.1017406583297
 20
1488.43392523176
 30
0.0
  0
POINT
  5
11AB
330
11A1
100
AcDbEntity
  8
Defpoints
 62
     0
440
 16777216
100
AcDbPoint
 10
764.1017406583297
 20
648.4533527696785
 30
0.0
  0
POINT
  5
11AC
330
11A1
100
AcDbEntity
  8
Defpoints
 62
     0
440
 16777216
100
AcDbPoint
 10
481.9187751150135
 20
648.4533527696785
 30
0.0
  0
ENDBLK
  5
11A3
330
11A1
100
AcDbEntity
  8
0
100
AcDbBlockEnd
  0
BLOCK
  5
11AE
330
11AD
100
AcDbEntity
  8
0
100
AcDbBlockBegin
  2
*D28
 70
     1
 10
0.0
 20
0.0
 30
0.0
  3
*D28
  1
*D29
  0
LINE
  5
11B0
330
11AD
100
AcDbEntity
  8
DIM
  6
Continuous
 62
     0
440
 16777216
370
    -2
100
AcDbLine
 10
572.0698284637343
 20
1027.294677908985
 30
0.0
 11
572.0698284637343
 21
1636.736459997268
 31
0.0
  0
LINE
  5
11B1
330
11AD
100
AcDbEntity
  8
DIM
  6
Continuous
 62
     0
440
 16777216
370
    -2
100
AcDbLine
 10
952.0698284637347
 20
1027.294677908985
 30
0.0
 11
952.0698284637347
 21
1636.736459997268
 31
0.0
  0
LINE
  5
11B2
330
11AD
100
AcDbEntity
  8
DIM
  6
Continuous
 62
     0
440
 16777216
370
    -2
100
AcDbLine
 10
582.0698284637343
 20
1636.736459997268
 30
0.0
 11
942.0698284637348
 21
1636.736459997268
 31
0.0
  0
INSERT
  5
11B3
330
11AD
100
AcDbEntity
  8
DIM
 62
     0
440
 16777216
370
    -2
100
AcDbBlockReference
  2
_DOT
 10
572.0698284637343
 20
1636.736459997268
 30
0.0
 41
10.0
 42
10.0
 43
10.0
 50
180.0
  0
INSERT
  5
11B4
330
11AD
100
AcDbEntity
  8
DIM
 62
     0
440
 16777216
370
    -2
100
AcDbBlockReference
  2
_DOT
 10
952.0698284637347
 20
1636.736459997268
 30
0.0
 41
10.0
 42
10.0
 43
10.0
  0
MTEXT
  5
11B5
330
11AD
100
AcDbEntity
  8
DIM
 62
     0
440
 16777216
 48
0.05
100
AcDbMText
 10
762.0698284637344
 20
1668.736459997268
 30
0.0
 40
24.0
 41
0.0
 46
0.0
 71
     5
 72
     1
  1
\A1;380
  7
ＭＳ ゴシック
 73
     1
 44
1.0
  0
POINT
  5
11B6
330
11AD
100
AcDbEntity
  8
Defpoints
 62
     0
440
 16777216
100
AcDbPoint
 10
572.0698284637343
 20
997.2946779089847
 30
0.0
  0
POINT
  5
11B7
330
11AD
100
AcDbEntity
  8
Defpoints
 62
     0
440
 16777216
100
AcDbPoint
 10
952.0698284637347
 20
997.2946779089847
 30
0.0
  0
POINT
  5
11B8
330
11AD
100
AcDbEntity
  8
Defpoints
 62
     0
440
 16777216
100
AcDbPoint
 10
952.0698284637347
 20
1636.736459997268
 30
0.0
  0
ENDBLK
  5
11AF
330
11AD
100
AcDbEntity
  8
0
100
AcDbBlockEnd
  0
BLOCK
  5
11BA
330
11B9
100
AcDbEntity
  8
0
100
AcDbBlockBegin
  2
*D29
 70
     1
 10
0.0
 20
0.0
 30
0.0
  3
*D29
  1
*D30
  0
LINE
  5
11BC
330
11B9
100
AcDbEntity
  8
DIM
  6
Continuous
 62
     0
440
 16777216
370
    -2
100
AcDbLine
 10
1486.689903464219
 20
648.5398689115696
 30
0.0
 11
1825.491494768625
 21
648.5398689115696
 31
0.0
  0
LINE
  5
11BD
330
11B9
100
AcDbEntity
  8
DIM
  6
Continuous
 62
     0
440
 16777216
370
    -2
100
AcDbLine
 10
1745.816816724856
 20
928.5398689115696
 30
0.0
 11
1825.491494768625
 21
928.5398689115696
 31
0.0
  0
LINE
  5
11BE
330
11B9
100
AcDbEntity
  8
DIM
  6
Continuous
 62
     0
440
 16777216
370
    -2
100
AcDbLine
 10
1825.491494768625
 20
658.5398689115695
 30
0.0
 11
1825.491494768625
 21
918.5398689115697
 31
0.0
  0
INSERT
  5
11BF
330
11B9
100
AcDbEntity
  8
DIM
 62
     0
440
 16777216
370
    -2
100
AcDbBlockReference
  2
_DOT
 10
1825.491494768625
 20
648.5398689115696
 30
0.0
 41
10.0
 42
10.0
 43
10.0
 50
270.0
  0
INSERT
  5
11C0
330
11B9
100
AcDbEntity
  8
DIM
 62
     0
440
 16777216
370
    -2
100
AcDbBlockReference
  2
_DOT
 10
1825.491494768625
 20
928.5398689115696
 30
0.0
 41
10.0
 42
10.0
 43
10.0
 50
90.0
  0
MTEXT
  5
11C1
330
11B9
100
AcDbEntity
  8
DIM
 62
     0
440
 16777216
 48
0.05
100
AcDbMText
 10
1793.491494768625
 20
788.5398689115697
 30
0.0
 40
24.0
 41
0.0
 46
0.0
 71
     5
 72
     1
  1
\A1;280
  7
ＭＳ ゴシック
 11
0.0
 21
1.0
 31
0.0
 73
     1
 44
1.0
  0
POINT
  5
11C2
330
11B9
100
AcDbEntity
  8
Defpoints
 62
     0
440
 16777216
100
AcDbPoint
 10
1456.689903464219
 20
648.5398689115696
 30
0.0
  0
POINT
  5
11C3
330
11B9
100
AcDbEntity
  8
Defpoints
 62
     0
440
 16777216
100
AcDbPoint
 10
1715.816816724856
 20
928.5398689115696
 30
0.0
  0
POINT
  5
11C4
330
11B9
100
AcDbEntity
  8
Defpoints
 62
     0
440
 16777216
100
AcDbPoint
 10
1825.491494768625
 20
928.5398689115696
 30
0.0
  0
ENDBLK
  5
11BB
330
11B9
100
AcDbEntity
  8
0
100
AcDbBlockEnd
  0
BLOCK
  5
11C6
330
11C5
100
AcDbEntity
  8
0
100
AcDbBlockBegin
  2
*D30
 70
     1
 10
0.0
 20
0.0
 30
0.0
  3
*D30
  1
*D31
  0
LINE
  5
11C8
330
11C5
100
AcDbEntity
  8
DIM
  6
Continuous
 62
     0
440
 16777216
370
    -2
100
AcDbLine
 10
1446.823817891568
 20
1518.43392523176
 30
0.0
 11
1446.823817891568
 21
1663.729140265973
 31
0.0
  0
LINE
  5
11C9
330
11C5
100
AcDbEntity
  8
DIM
  6
Continuous
 62
     0
440
 16777216
370
    -2
100
AcDbLine
 10
1556.823817891568
 20
979.9639815579807
 30
0.0
 11
1556.823817891568
 21
1663.729140265973
 31
0.0
  0
LINE
  5
11CA
330
11C5
100
AcDbEntity
  8
DIM
  6
Continuous
 62
     0
440
 16777216
370
    -2
100
AcDbLine
 10
1456.823817891568
 20
1663.729140265973
 30
0.0
 11
1546.823817891568
 21
1663.729140265973
 31
0.0
  0
INSERT
  5
11CB
330
11C5
100
AcDbEntity
  8
DIM
 62
     0
440
 16777216
370
    -2
100
AcDbBlockReference
  2
_DOT
 10
1446.823817891568
 20
1663.729140265973
 30
0.0
 41
10.0
 42
10.0
 43
10.0
 50
180.0
  0
INSERT
  5
11CC
330
11C5
100
AcDbEntity
  8
DIM
 62
     0
440
 16777216
370
    -2
100
AcDbBlockReference
  2
_DOT
 10
1556.823817891568
 20
1663.729140265973
 30
0.0
 41
10.0
 42
10.0
 43
10.0
  0
MTEXT
  5
11CD
330
11C5
100
AcDbEntity
  8
DIM
 62
     0
440
 16777216
 48
0.05
100
AcDbMText
 10
1501.823817891568
 20
1695.729140265973
 30
0.0
 40
24.0
 41
0.0
 46
0.0
 71
     5
 72
     1
  1
\A1;110
  7
ＭＳ ゴシック
 73
     1
 44
1.0
  0
POINT
  5
11CE
330
11C5
100
AcDbEntity
  8
Defpoints
 62
     0
440
 16777216
100
AcDbPoint
 10
1446.823817891568
 20
1488.43392523176
 30
0.0
  0
POINT
  5
11CF
330
11C5
100
AcDbEntity
  8
Defpoints
 62
     0
440
 16777216
100
AcDbPoint
 10
1556.823817891568
 20
949.9639815579806
 30
0.0
  0
POINT
  5
11D0
330
11C5
100
AcDbEntity
  8
Defpoints
 62
     0
440
 16777216
100
AcDbPoint
 10
1556.823817891568
 20
1663.729140265973
 30
0.0
  0
ENDBLK
  5
11C7
330
11C5
100
AcDbEntity
  8
0
100
AcDbBlockEnd
  0
BLOCK
  5
11D2
330
11D1
100
AcDbEntity
  8
0
100
AcDbBlockBegin
  2
*D31
 70
     1
 10
0.0
 20
0.0
 30
0.0
  3
*D31
  1
*D32
  0
LINE
  5
11D4
330
11D1
100
AcDbEntity
  8
DIM
  6
Continuous
 62
     0
440
 16777216
370
    -2
100
AcDbLine
 10
1446.823817891568
 20
1518.512722572154
 30
0.0
 11
1446.823817891568
 21
1603.240760531758
 31
0.0
  0
LINE
  5
11D5
330
11D1
100
AcDbEntity
  8
DIM
  6
Continuous
 62
     0
440
 16777216
370
    -2
100
AcDbLine
 10
1536.823817891568
 20
1121.029004995825
 30
0.0
 11
1536.823817891568
 21
1603.240760531758
 31
0.0
  0
LINE
  5
11D6
330
11D1
100
AcDbEntity
  8
DIM
  6
Continuous
 62
     0
440
 16777216
370
    -2
100
AcDbLine
 10
1456.823817891568
 20
1603.240760531758
 30
0.0
 11
1526.823817891568
 21
1603.240760531758
 31
0.0
  0
INSERT
  5
11D7
330
11D1
100
AcDbEntity
  8
DIM
 62
     0
440
 16777216
370
    -2
100
AcDbBlockReference
  2
_DOT
 10
1446.823817891568
 20
1603.240760531758
 30
0.0
 41
10.0
 42
10.0
 43
10.0
 50
180.0
  0
INSERT
  5
11D8
330
11D1
100
AcDbEntity
  8
DIM
 62
     0
440
 16777216
370
    -2
100
AcDbBlockReference
  2
_DOT
 10
1536.823817891568
 20
1603.240760531758
 30
0.0
 41
10.0
 42
10.0
 43
10.0
  0
MTEXT
  5
11D9
330
11D1
100
AcDbEntity
  8
DIM
 62
     0
440
 16777216
 48
0.05
100
AcDbMText
 10
1491.823817891568
 20
1635.240760531758
 30
0.0
 40
24.0
 41
0.0
 46
0.0
 71
     5
 72
     1
  1
\A1;90
  7
ＭＳ ゴシック
 73
     1
 44
1.0
  0
POINT
  5
11DA
330
11D1
100
AcDbEntity
  8
Defpoints
 62
     0
440
 16777216
100
AcDbPoint
 10
1446.823817891568
 20
1488.512722572154
 30
0.0
  0
POINT
  5
11DB
330
11D1
100
AcDbEntity
  8
Defpoints
 62
     0
440
 16777216
100
AcDbPoint
 10
1536.823817891568
 20
1091.029004995825
 30
0.0
  0
POINT
  5
11DC
330
11D1
100
AcDbEntity
  8
Defpoints
 62
     0
440
 16777216
100
AcDbPoint
 10
1536.823817891568
 20
1603.240760531758
 30
0.0
  0
ENDBLK
  5
11D3
330
11D1
100
AcDbEntity
  8
0
100
AcDbBlockEnd
  0
BLOCK
  5
11DE
330
11DD
100
AcDbEntity
  8
0
100
AcDbBlockBegin
  2
*D32
 70
     1
 10
0.0
 20
0.0
 30
0.0
  3
*D32
  1
*D33
  0
LINE
  5
11E0
330
11DD
100
AcDbEntity
  8
DIM
  6
Continuous
 62
     0
440
 16777216
370
    -2
100
AcDbLine
 10
1487.165779584928
 20
2349.875642188588
 30
0.0
 11
1693.922514540187
 21
2349.875642188588
 31
0.0
  0
LINE
  5
11E1
330
11DD
100
AcDbEntity
  8
DIM
  6
Continuous
 62
     0
440
 16777216
370
    -2
100
AcDbLine
 10
1641.574412979899
 20
2292.875642188588
 30
0.0
 11
1693.922514540187
 21
2292.875642188588
 31
0.0
  0
LINE
  5
11E2
330
11DD
100
AcDbEntity
  8
DIM
  6
Continuous
 62
     0
440
 16777216
370
    -2
100
AcDbLine
 10
1693.922514540187
 20
2339.875642188588
 30
0.0
 11
1693.922514540187
 21
2302.875642188588
 31
0.0
  0
INSERT
  5
11E3
330
11DD
100
AcDbEntity
  8
DIM
 62
     0
440
 16777216
370
    -2
100
AcDbBlockReference
  2
_DOT
 10
1693.922514540187
 20
2349.875642188588
 30
0.0
 41
10.0
 42
10.0
 43
10.0
 50
90.0
  0
INSERT
  5
11E4
330
11DD
100
AcDbEntity
  8
DIM
 62
     0
440
 16777216
370
    -2
100
AcDbBlockReference
  2
_DOT
 10
1693.922514540187
 20
2292.875642188588
 30
0.0
 41
10.0
 42
10.0
 43
10.0
 50
270.0
  0
MTEXT
  5
11E5
330
11DD
100
AcDbEntity
  8
DIM
 62
     0
440
 16777216
 48
0.05
100
AcDbMText
 10
1661.922514540187
 20
2321.375642188588
 30
0.0
 40
24.0
 41
0.0
 46
0.0
 71
     5
 72
     1
  1
\A1;57
  7
ＭＳ ゴシック
 11
0.0
 21
1.0
 31
0.0
 73
     1
 44
1.0
  0
POINT
  5
11E6
330
11DD
100
AcDbEntity
  8
Defpoints
 62
     0
440
 16777216
100
AcDbPoint
 10
1457.165779584928
 20
2349.875642188588
 30
0.0
  0
POINT
  5
11E7
330
11DD
100
AcDbEntity
  8
Defpoints
 62
     0
440
 16777216
100
AcDbPoint
 10
1611.574412979899
 20
2292.875642188588
 30
0.0
  0
POINT
  5
11E8
330
11DD
100
AcDbEntity
  8
Defpoints
 62
     0
440
 16777216
100
AcDbPoint
 10
1693.922514540187
 20
2292.875642188588
 30
0.0
  0
ENDBLK
  5
11DF
330
11DD
100
AcDbEntity
  8
0
100
AcDbBlockEnd
  0
BLOCK
  5
11EA
330
11E9
100
AcDbEntity
  8
0
100
AcDbBlockBegin
  2
*D33
 70
     1
 10
0.0
 20
0.0
 30
0.0
  3
*D33
  1
*D34
  0
LINE
  5
11EC
330
11E9
100
AcDbEntity
  8
DIM
  6
Continuous
 62
     0
440
 16777216
370
    -2
100
AcDbLine
 10
1446.823817891568
 20
2254.607483581228
 30
0.0
 11
1268.111691217851
 21
2254.607483581228
 31
0.0
  0
LINE
  5
11ED
330
11E9
100
AcDbEntity
  8
DIM
  6
Continuous
 62
     0
440
 16777216
370
    -2
100
AcDbLine
 10
1456.823817891568
 20
2254.607483581228
 30
0.0
 11
1507.823817891568
 21
2254.607483581228
 31
0.0
  0
INSERT
  5
11EE
330
11E9
100
AcDbEntity
  8
DIM
 62
     0
440
 16777216
370
    -2
100
AcDbBlockReference
  2
_DOT
 10
1446.823817891568
 20
2254.607483581228
 30
0.0
 41
10.0
 42
10.0
 43
10.0
 50
180.0
  0
INSERT
  5
11EF
330
11E9
100
AcDbEntity
  8
DIM
 62
     0
440
 16777216
370
    -2
100
AcDbBlockReference
  2
_DOT
 10
1517.823817891568
 20
2254.607483581228
 30
0.0
 41
10.0
 42
10.0
 43
10.0
  0
MTEXT
  5
11F0
330
11E9
100
AcDbEntity
  8
DIM
 62
     0
440
 16777216
 48
0.05
100
AcDbMText
 10
1345.879691217851
 20
2288.731483581228
 30
0.0
 40
24.0
 41
0.0
 46
0.0
 71
     5
 72
     1
  1
\A1;71(深さ)
  7
ＭＳ ゴシック
 73
     1
 44
1.0
  0
POINT
  5
11F1
330
11E9
100
AcDbEntity
  8
Defpoints
 62
     0
440
 16777216
100
AcDbPoint
 10
1446.823817891568
 20
2277.109183949192
 30
0.0
  0
POINT
  5
11F2
330
11E9
100
AcDbEntity
  8
Defpoints
 62
     0
440
 16777216
100
AcDbPoint
 10
1517.823817891568
 20
2267.771693688258
 30
0.0
  0
POINT
  5
11F3
330
11E9
100
AcDbEntity
  8
Defpoints
 62
     0
440
 16777216
100
AcDbPoint
 10
1517.823817891568
 20
2254.607483581228
 30
0.0
  0
ENDBLK
  5
11EB
330
11E9
100
AcDbEntity
  8
0
100
AcDbBlockEnd
  0
BLOCK
  5
11F5
330
11F4
100
AcDbEntity
  8
0
100
AcDbBlockBegin
  2
*D34
 70
     1
 10
0.0
 20
0.0
 30
0.0
  3
*D34
  1
*D35
  0
LINE
  5
11F7
330
11F4
100
AcDbEntity
  8
DIM
  6
Continuous
 62
     0
440
 16777216
370
    -2
100
AcDbLine
 10
577.139256602271
 20
1948.933936112986
 30
0.0
 11
473.5025485698283
 21
1948.933936112986
 31
0.0
  0
LINE
  5
11F8
330
11F4
100
AcDbEntity
  8
DIM
  6
Continuous
 62
     0
440
 16777216
370
    -2
100
AcDbLine
 10
577.1392566022712
 20
2248.933936112986
 30
0.0
 11
473.5025485698283
 21
2248.933936112986
 31
0.0
  0
LINE
  5
11F9
330
11F4
100
AcDbEntity
  8
DIM
  6
Continuous
 62
     0
440
 16777216
370
    -2
100
AcDbLine
 10
473.5025485698283
 20
1958.933936112986
 30
0.0
 11
473.5025485698283
 21
2238.933936112986
 31
0.0
  0
INSERT
  5
11FA
330
11F4
100
AcDbEntity
  8
DIM
 62
     0
440
 16777216
370
    -2
100
AcDbBlockReference
  2
_DOT
 10
473.5025485698283
 20
1948.933936112986
 30
0.0
 41
10.0
 42
10.0
 43
10.0
 50
270.0
  0
INSERT
  5
11FB
330
11F4
100
AcDbEntity
  8
DIM
 62
     0
440
 16777216
370
    -2
100
AcDbBlockReference
  2
_DOT
 10
473.5025485698283
 20
2248.933936112986
 30
0.0
 41
10.0
 42
10.0
 43
10.0
 50
90.0
  0
MTEXT
  5
11FC
330
11F4
100
AcDbEntity
  8
DIM
 62
     0
440
 16777216
 48
0.05
100
AcDbMText
 10
441.5025485698283
 20
2098.933936112986
 30
0.0
 40
24.0
 41
0.0
 46
0.0
 71
     5
 72
     1
  1
\A1;300
  7
ＭＳ ゴシック
 11
0.0
 21
1.0
 31
0.0
 73
     1
 44
1.0
  0
POINT
  5
11FD
330
11F4
100
AcDbEntity
  8
Defpoints
 62
     0
440
 16777216
100
AcDbPoint
 10
607.1392566022709
 20
1948.933936112986
 30
0.0
  0
POINT
  5
11FE
330
11F4
100
AcDbEntity
  8
Defpoints
 62
     0
440
 16777216
100
AcDbPoint
 10
607.1392566022713
 20
2248.933936112986
 30
0.0
  0
POINT
  5
11FF
330
11F4
100
AcDbEntity
  8
Defpoints
 62
     0
440
 16777216
100
AcDbPoint
 10
473.5025485698283
 20
2248.933936112986
 30
0.0
  0
ENDBLK
  5
11F6
330
11F4
100
AcDbEntity
  8
0
100
AcDbBlockEnd
  0
BLOCK
  5
1201
330
1200
100
AcDbEntity
  8
0
100
AcDbBlockBegin
  2
*D35
 70
     1
 10
0.0
 20
0.0
 30
0.0
  3
*D35
  1
*D36
  0
LINE
  5
1203
330
1200
100
AcDbEntity
  8
DIM
  6
Continuous
 62
     0
440
 16777216
370
    -2
100
AcDbLine
 10
1566.823821467849
 20
2340.733872928421
 30
0.0
 11
1625.737926443877
 21
2340.733872928421
 31
0.0
  0
LINE
  5
1204
330
1200
100
AcDbEntity
  8
DIM
  6
Continuous
 62
     0
440
 16777216
370
    -2
100
AcDbLine
 10
1566.823821467849
 20
2244.733872511189
 30
0.0
 11
1625.737926443877
 21
2244.733872511189
 31
0.0
  0
LINE
  5
1205
330
1200
100
AcDbEntity
  8
DIM
  6
Continuous
 62
     0
440
 16777216
370
    -2
100
AcDbLine
 10
1625.737926443877
 20
2330.733872928421
 30
0.0
 11
1625.737926443877
 21
2254.733872511189
 31
0.0
  0
INSERT
  5
1206
330
1200
100
AcDbEntity
  8
DIM
 62
     0
440
 16777216
370
    -2
100
AcDbBlockReference
  2
_DOT
 10
1625.737926443877
 20
2340.733872928421
 30
0.0
 41
10.0
 42
10.0
 43
10.0
 50
90.0
  0
INSERT
  5
1207
330
1200
100
AcDbEntity
  8
DIM
 62
     0
440
 16777216
370
    -2
100
AcDbBlockReference
  2
_DOT
 10
1625.737926443877
 20
2244.733872511189
 30
0.0
 41
10.0
 42
10.0
 43
10.0
 50
270.0
  0
MTEXT
  5
1208
330
1200
100
AcDbEntity
  8
DIM
  6
HIDDEN
 62
     0
440
 16777216
 48
0.05
100
AcDbMText
 10
1593.737926443877
 20
2292.733872719805
 30
0.0
 40
24.0
 41
0.0
 46
0.0
 71
     5
 72
     1
  1
\A1;96
  7
ＭＳ ゴシック
 11
0.0
 21
1.0
 31
0.0
 73
     1
 44
1.0
  0
POINT
  5
1209
330
1200
100
AcDbEntity
  8
Defpoints
 62
     0
440
 16777216
100
AcDbPoint
 10
1536.823821467849
 20
2340.733872928421
 30
0.0
  0
POINT
  5
120A
330
1200
100
AcDbEntity
  8
Defpoints
 62
     0
440
 16777216
100
AcDbPoint
 10
1536.823821467849
 20
2244.733872511189
 30
0.0
  0
POINT
  5
120B
330
1200
100
AcDbEntity
  8
Defpoints
 62
     0
440
 16777216
100
AcDbPoint
 10
1625.737926443877
 20
2244.733872511189
 30
0.0
  0
ENDBLK
  5
1202
330
1200
100
AcDbEntity
  8
0
100
AcDbBlockEnd
  0
BLOCK
  5
120D
330
120C
100
AcDbEntity
  8
0
100
AcDbBlockBegin
  2
*D36
 70
     1
 10
0.0
 20
0.0
 30
0.0
  3
*D36
  1
*D37
  0
LINE
  5
120F
330
120C
100
AcDbEntity
  8
DIM
 62
     0
440
 16777216
 48
0.05
370
    -2
100
AcDbLine
 10
1563.729513495392
 20
910.0955597721387
 30
0.0
 11
1596.45171294862
 21
910.0955597721387
 31
0.0
  0
LINE
  5
1210
330
120C
100
AcDbEntity
  8
DIM
 62
     0
440
 16777216
 48
0.05
370
    -2
100
AcDbLine
 10
1563.729513495392
 20
946.8161942894903
 30
0.0
 11
1596.45171294862
 21
946.8161942894903
 31
0.0
  0
LINE
  5
1211
330
120C
100
AcDbEntity
  8
DIM
 62
     0
440
 16777216
 48
0.05
370
    -2
100
AcDbLine
 10
1596.45171294862
 20
920.0955597721387
 30
0.0
 11
1596.45171294862
 21
936.8161942894904
 31
0.0
  0
INSERT
  5
1212
330
120C
100
AcDbEntity
  8
DIM
 62
     0
440
 16777216
370
    -2
100
AcDbBlockReference
  2
_DOT
 10
1596.45171294862
 20
910.0955597721387
 30
0.0
 41
10.0
 42
10.0
 43
10.0
 50
270.0
  0
INSERT
  5
1213
330
120C
100
AcDbEntity
  8
DIM
 62
     0
440
 16777216
370
    -2
100
AcDbBlockReference
  2
_DOT
 10
1596.45171294862
 20
946.8161942894903
 30
0.0
 41
10.0
 42
10.0
 43
10.0
 50
90.0
  0
MTEXT
  5
1214
330
120C
100
AcDbEntity
  8
DIM
 62
     0
440
 16777216
 48
0.05
100
AcDbMText
 10
1631.00771294862
 20
927.8232793293536
 30
0.0
 40
24.0
 41
0.0
 46
0.0
 71
     5
 72
     1
  1
\A1;G1 1/4"
  7
ＭＳ ゴシック
 11
0.0
 21
1.0
 31
0.0
 73
     1
 44
1.0
  0
POINT
  5
1215
330
120C
100
AcDbEntity
  8
Defpoints
 62
     0
440
 16777216
100
AcDbPoint
 10
1548.729513495392
 20
910.0955597721387
 30
0.0
  0
POINT
  5
1216
330
120C
100
AcDbEntity
  8
Defpoints
 62
     0
440
 16777216
100
AcDbPoint
 10
1548.729513495392
 20
946.8161942894903
 30
0.0
  0
POINT
  5
1217
330
120C
100
AcDbEntity
  8
Defpoints
 62
     0
440
 16777216
100
AcDbPoint
 10
1596.45171294862
 20
946.8161942894903
 30
0.0
  0
ENDBLK
  5
120E
330
120C
100
AcDbEntity
  8
0
100
AcDbBlockEnd
  0
BLOCK
  5
1274
330
1273
100
AcDbEntity
  8
0
100
AcDbBlockBegin
  2
*D37
 70
     1
 10
0.0
 20
0.0
 30
0.0
  3
*D37
  1
*D38
  0
LINE
  5
1276
330
1273
100
AcDbEntity
  8
DIM
 62
     0
 48
0.05
370
    -2
100
AcDbLine
 10
1601.552933724409
 20
765.9533599222354
 30
0.0
 11
1721.499384420487
 21
765.9533599222354
 31
0.0
  0
LINE
  5
1277
330
1273
100
AcDbEntity
  8
DIM
 62
     0
 48
0.05
370
    -2
100
AcDbLine
 10
1572.053392316526
 20
1089.611786441189
 30
0.0
 11
1721.499384420487
 21
1089.611786441189
 31
0.0
  0
LINE
  5
1278
330
1273
100
AcDbEntity
  8
DIM
 62
     0
 48
0.05
370
    -2
100
AcDbLine
 10
1721.499384420487
 20
775.9533599222354
 30
0.0
 11
1721.499384420487
 21
1079.611786441189
 31
0.0
  0
INSERT
  5
1279
330
1273
100
AcDbEntity
  8
DIM
 62
     0
370
    -2
100
AcDbBlockReference
  2
_DOT
 10
1721.499384420487
 20
765.9533599222354
 30
0.0
 41
10.0
 42
10.0
 43
10.0
 50
270.0
  0
INSERT
  5
127A
330
1273
100
AcDbEntity
  8
DIM
 62
     0
370
    -2
100
AcDbBlockReference
  2
_DOT
 10
1721.499384420487
 20
1089.611786441189
 30
0.0
 41
10.0
 42
10.0
 43
10.0
 50
90.0
  0
MTEXT
  5
127B
330
1273
100
AcDbEntity
  8
DIM
  6
HIDDEN
 62
     0
 48
0.05
100
AcDbMText
 10
1689.499384420487
 20
927.782573181712
 30
0.0
 40
24.0
 41
0.0
 46
0.0
 71
     5
 72
     1
  1
\A1;324
  7
ＭＳ ゴシック
 11
0.0
 21
1.0
 31
0.0
 73
     1
 44
1.0
  0
POINT
  5
127C
330
1273
100
AcDbEntity
  8
Defpoints
 62
     0
100
AcDbPoint
 10
1571.552933724409
 20
765.9533599222354
 30
0.0
  0
POINT
  5
127D
330
1273
100
AcDbEntity
  8
Defpoints
 62
     0
100
AcDbPoint
 10
1542.053392316526
 20
1089.611786441189
 30
0.0
  0
POINT
  5
127E
330
1273
100
AcDbEntity
  8
Defpoints
 62
     0
100
AcDbPoint
 10
1721.499384420487
 20
1089.611786441189
 30
0.0
  0
ENDBLK
  5
1275
330
1273
100
AcDbEntity
  8
0
100
AcDbBlockEnd
  0
BLOCK
  5
1293
330
1292
100
AcDbEntity
  8
0
100
AcDbBlockBegin
  2
*D38
 70
     1
 10
0.0
 20
0.0
 30
0.0
  3
*D38
  1
*D39
  0
LINE
  5
1295
330
1292
100
AcDbEntity
  8
DIM
 62
     0
440
 16777216
 48
0.05
370
    -2
100
AcDbLine
 10
1566.823821467849
 20
765.9533599222354
 30
0.0
 11
1713.978361047426
 21
765.9533599222354
 31
0.0
  0
LINE
  5
1296
330
1292
100
AcDbEntity
  8
DIM
 62
     0
440
 16777216
 48
0.05
370
    -2
100
AcDbLine
 10
1566.823821467849
 20
1090.953359922235
 30
0.0
 11
1713.978361047426
 21
1090.953359922235
 31
0.0
  0
LINE
  5
1297
330
1292
100
AcDbEntity
  8
DIM
 62
     0
440
 16777216
 48
0.05
370
    -2
100
AcDbLine
 10
1713.978361047426
 20
775.9533599222354
 30
0.0
 11
1713.978361047426
 21
1080.953359922235
 31
0.0
  0
INSERT
  5
1298
330
1292
100
AcDbEntity
  8
DIM
 62
     0
440
 16777216
370
    -2
100
AcDbBlockReference
  2
_DOT
 10
1713.978361047426
 20
765.9533599222354
 30
0.0
 41
10.0
 42
10.0
 43
10.0
 50
270.0
  0
INSERT
  5
1299
330
1292
100
AcDbEntity
  8
DIM
 62
     0
440
 16777216
370
    -2
100
AcDbBlockReference
  2
_DOT
 10
1713.978361047426
 20
1090.953359922235
 30
0.0
 41
10.0
 42
10.0
 43
10.0
 50
90.0
  0
MTEXT
  5
129A
330
1292
100
AcDbEntity
  8
DIM
 62
     0
440
 16777216
 48
0.05
100
AcDbMText
 10
1681.978361047426
 20
928.4533599222354
 30
0.0
 40
24.0
 41
0.0
 46
0.0
 71
     5
 72
     1
  1
\A1;325
  7
ＭＳ ゴシック
 11
0.0
 21
1.0
 31
0.0
 73
     1
 44
1.0
  0
POINT
  5
129B
330
1292
100
AcDbEntity
  8
Defpoints
 62
     0
440
 16777216
100
AcDbPoint
 10
1536.823821467849
 20
765.9533599222354
 30
0.0
  0
POINT
  5
129C
330
1292
100
AcDbEntity
  8
Defpoints
 62
     0
440
 16777216
100
AcDbPoint
 10
1536.823821467849
 20
1090.953359922235
 30
0.0
  0
POINT
  5
129D
330
1292
100
AcDbEntity
  8
Defpoints
 62
     0
440
 16777216
100
AcDbPoint
 10
1713.978361047426
 20
1090.953359922235
 30
0.0
  0
ENDBLK
  5
1294
330
1292
100
AcDbEntity
  8
0
100
AcDbBlockEnd
  0
BLOCK
  5
12B8
330
12B7
100
AcDbEntity
  8
0
100
AcDbBlockBegin
  2
*D39
 70
     1
 10
0.0
 20
0.0
 30
0.0
  3
*D39
  1
*D40
  0
LINE
  5
12BA
330
12B7
100
AcDbEntity
  8
DIM
 62
     0
440
 16777216
 48
0.05
370
    -2
100
AcDbLine
 10
694.2106279502933
 20
2105.727648137788
 30
0.0
 11
763.3864982148102
 21
2105.727648137788
 31
0.0
  0
LINE
  5
12BB
330
12B7
100
AcDbEntity
  8
DIM
 62
     0
440
 16777216
 48
0.05
370
    -2
100
AcDbLine
 10
763.3864982148102
 20
2095.727648137788
 30
0.0
 11
763.3864982148102
 21
1835.727648137788
 31
0.0
  0
INSERT
  5
12BC
330
12B7
100
AcDbEntity
  8
DIM
 62
     0
440
 16777216
370
    -2
100
AcDbBlockReference
  2
_DOT
 10
763.3864982148102
 20
2105.727648137788
 30
0.0
 41
10.0
 42
10.0
 43
10.0
 50
90.0
  0
INSERT
  5
12BD
330
12B7
100
AcDbEntity
  8
DIM
 62
     0
440
 16777216
370
    -2
100
AcDbBlockReference
  2
_DOT
 10
763.3864982148102
 20
1825.727648137788
 30
0.0
 41
10.0
 42
10.0
 43
10.0
 50
270.0
  0
MTEXT
  5
12BE
330
12B7
100
AcDbEntity
  8
DIM
 62
     0
440
 16777216
 48
0.05
100
AcDbMText
 10
731.3864982148102
 20
1965.727648137788
 30
0.0
 40
24.0
 41
0.0
 46
0.0
 71
     5
 72
     1
  1
\A1;280
  7
ＭＳ ゴシック
 11
0.0
 21
1.0
 31
0.0
 73
     1
 44
1.0
  0
POINT
  5
12BF
330
12B7
100
AcDbEntity
  8
Defpoints
 62
     0
440
 16777216
100
AcDbPoint
 10
664.2106279502932
 20
2105.727648137788
 30
0.0
  0
POINT
  5
12C0
330
12B7
100
AcDbEntity
  8
Defpoints
 62
     0
440
 16777216
100
AcDbPoint
 10
692.7126697451377
 20
1825.727648137788
 30
0.0
  0
POINT
  5
12C1
330
12B7
100
AcDbEntity
  8
Defpoints
 62
     0
440
 16777216
100
AcDbPoint
 10
763.3864982148102
 20
1825.727648137788
 30
0.0
  0
ENDBLK
  5
12B9
330
12B7
100
AcDbEntity
  8
0
100
AcDbBlockEnd
  0
BLOCK
  5
12D1
330
12D0
100
AcDbEntity
  8
0
100
AcDbBlockBegin
  2
*D40
 70
     1
 10
0.0
 20
0.0
 30
0.0
  3
*D40
  1
*D41
  0
LINE
  5
12D3
330
12D0
100
AcDbEntity
  8
DIM
 62
     0
440
 16777216
 48
0.05
370
    -2
100
AcDbLine
 10
572.0535710371443
 20
2065.03683829597
 30
0.0
 11
572.0535710371443
 21
1848.467944287944
 31
0.0
  0
LINE
  5
12D4
330
12D0
100
AcDbEntity
  8
DIM
 62
     0
440
 16777216
 48
0.05
370
    -2
100
AcDbLine
 10
629.2106279502933
 20
2040.727648137788
 30
0.0
 11
629.2106279502933
 21
1848.467944287944
 31
0.0
  0
LINE
  5
12D5
330
12D0
100
AcDbEntity
  8
DIM
 62
     0
440
 16777216
 48
0.05
370
    -2
100
AcDbLine
 10
582.0535710371443
 20
1848.467944287944
 30
0.0
 11
619.2106279502933
 21
1848.467944287944
 31
0.0
  0
INSERT
  5
12D6
330
12D0
100
AcDbEntity
  8
DIM
 62
     0
440
 16777216
370
    -2
100
AcDbBlockReference
  2
_DOT
 10
572.0535710371443
 20
1848.467944287944
 30
0.0
 41
10.0
 42
10.0
 43
10.0
 50
180.0
  0
INSERT
  5
12D7
330
12D0
100
AcDbEntity
  8
DIM
 62
     0
440
 16777216
370
    -2
100
AcDbBlockReference
  2
_DOT
 10
629.2106279502933
 20
1848.467944287944
 30
0.0
 41
10.0
 42
10.0
 43
10.0
  0
MTEXT
  5
12D8
330
12D0
100
AcDbEntity
  8
DIM
 62
     0
440
 16777216
 48
0.05
100
AcDbMText
 10
600.5535710371443
 20
1880.467944287944
 30
0.0
 40
24.0
 41
0.0
 46
0.0
 71
     5
 72
     1
  1
\A1;57
  7
ＭＳ ゴシック
 73
     1
 44
1.0
  0
POINT
  5
12D9
330
12D0
100
AcDbEntity
  8
Defpoints
 62
     0
440
 16777216
100
AcDbPoint
 10
572.0535710371443
 20
2095.03683829597
 30
0.0
  0
POINT
  5
12DA
330
12D0
100
AcDbEntity
  8
Defpoints
 62
     0
440
 16777216
100
AcDbPoint
 10
629.2106279502933
 20
2070.727648137788
 30
0.0
  0
POINT
  5
12DB
330
12D0
100
AcDbEntity
  8
Defpoints
 62
     0
440
 16777216
100
AcDbPoint
 10
629.2106279502933
 20
1848.467944287944
 30
0.0
  0
ENDBLK
  5
12D2
330
12D0
100
AcDbEntity
  8
0
100
AcDbBlockEnd
  0
BLOCK
  5
12E8
330
12E7
100
AcDbEntity
  8
0
100
AcDbBlockBegin
  2
*D41
 70
     1
 10
0.0
 20
0.0
 30
0.0
  3
*D41
  1
*D42
  0
LINE
  5
12EA
330
12E7
100
AcDbEntity
  8
DIM
 62
     0
440
 16777216
 48
0.05
370
    -2
100
AcDbLine
 10
572.1392566022712
 20
2130.048350510715
 30
0.0
 11
572.1392566022712
 21
2304.590145901579
 31
0.0
  0
LINE
  5
12EB
330
12E7
100
AcDbEntity
  8
DIM
 62
     0
440
 16777216
 48
0.05
370
    -2
100
AcDbLine
 10
612.1392566022713
 20
2283.933936112986
 30
0.0
 11
612.1392566022713
 21
2304.590145901579
 31
0.0
  0
LINE
  5
12EC
330
12E7
100
AcDbEntity
  8
DIM
 62
     0
440
 16777216
 48
0.05
370
    -2
100
AcDbLine
 10
582.1392566022713
 20
2304.590145901579
 30
0.0
 11
602.1392566022712
 21
2304.590145901579
 31
0.0
  0
INSERT
  5
12ED
330
12E7
100
AcDbEntity
  8
DIM
 62
     0
440
 16777216
370
    -2
100
AcDbBlockReference
  2
_DOT
 10
572.1392566022712
 20
2304.590145901579
 30
0.0
 41
10.0
 42
10.0
 43
10.0
 50
180.0
  0
INSERT
  5
12EE
330
12E7
100
AcDbEntity
  8
DIM
 62
     0
440
 16777216
370
    -2
100
AcDbBlockReference
  2
_DOT
 10
612.1392566022713
 20
2304.590145901579
 30
0.0
 41
10.0
 42
10.0
 43
10.0
  0
MTEXT
  5
12EF
330
12E7
100
AcDbEntity
  8
DIM
 62
     0
440
 16777216
 48
0.05
100
AcDbMText
 10
592.1392566022713
 20
2336.590145901579
 30
0.0
 40
24.0
 41
0.0
 46
0.0
 71
     5
 72
     1
  1
\A1; 
  7
ＭＳ ゴシック
 73
     1
 44
1.0
  0
POINT
  5
12F0
330
12E7
100
AcDbEntity
  8
Defpoints
 62
     0
440
 16777216
100
AcDbPoint
 10
572.1392566022712
 20
2100.048350510715
 30
0.0
  0
POINT
  5
12F1
330
12E7
100
AcDbEntity
  8
Defpoints
 62
     0
440
 16777216
100
AcDbPoint
 10
612.1392566022713
 20
2253.933936112986
 30
0.0
  0
POINT
  5
12F2
330
12E7
100
AcDbEntity
  8
Defpoints
 62
     0
440
 16777216
100
AcDbPoint
 10
612.1392566022713
 20
2304.590145901579
 30
0.0
  0
ENDBLK
  5
12E9
330
12E7
100
AcDbEntity
  8
0
100
AcDbBlockEnd
  0
BLOCK
  5
13A8
330
13A7
100
AcDbEntity
  8
0
100
AcDbBlockBegin
  2
*D42
 70
     1
 10
0.0
 20
0.0
 30
0.0
  3
*D42
  1
*D33
  0
LINE
  5
13A9
330
13A7
100
AcDbEntity
  8
DIM
 62
     0
 48
0.05
370
    -2
100
AcDbLine
 10
3.080666764420698
 20
29.53124864930226
 30
0.0
 11
3.080666764420698
 21
24.12999999999994
 31
0.0
  0
LINE
  5
13AA
330
13A7
100
AcDbEntity
  8
DIM
 62
     0
 48
0.05
370
    -2
100
AcDbLine
 10
50.04333323557933
 20
29.53124864930226
 30
0.0
 11
50.04333323557933
 21
24.12999999999994
 31
0.0
  0
LINE
  5
13AB
330
13A7
100
AcDbEntity
  8
DIM
 62
     0
 48
0.05
370
    -2
100
AcDbLine
 10
13.0806667644207
 20
24.12999999999994
 30
0.0
 11
40.04333323557932
 21
24.12999999999994
 31
0.0
  0
INSERT
  5
13AC
330
13A7
100
AcDbEntity
  8
DIM
 62
     0
370
    -2
100
AcDbBlockReference
  2
_DOT
 10
3.080666764420698
 20
24.12999999999994
 30
0.0
 41
10.0
 42
10.0
 43
10.0
 50
180.0
  0
INSERT
  5
13AD
330
13A7
100
AcDbEntity
  8
DIM
 62
     0
370
    -2
100
AcDbBlockReference
  2
_DOT
 10
50.04333323557933
 20
24.12999999999994
 30
0.0
 41
10.0
 42
10.0
 43
10.0
  0
MTEXT
  5
13AE
330
13A7
100
AcDbEntity
  8
DIM
 62
     0
 48
0.05
100
AcDbMText
 10
26.56200000000001
 20
-10.42600000000006
 30
0.0
 40
24.0
 41
0.0
 46
0.0
 71
     5
 72
     1
  1
\A1;G1 1/4"
  7
ＭＳ ゴシック
 73
     1
 44
1.0
  0
POINT
  5
13AF
330
13A7
100
AcDbEntity
  8
Defpoints
 62
     0
100
AcDbPoint
 10
3.080666764420698
 20
59.53124864930225
 30
0.0
  0
POINT
  5
13B0
330
13A7
100
AcDbEntity
  8
Defpoints
 62
     0
100
AcDbPoint
 10
50.04333323557933
 20
59.53124864930225
 30
0.0
  0
POINT
  5
13B1
330
13A7
100
AcDbEntity
  8
Defpoints
 62
     0
100
AcDbPoint
 10
50.04333323557933
 20
24.12999999999994
 30
0.0
  0
ENDBLK
  5
13B2
330
13A7
100
AcDbEntity
  8
0
100
AcDbBlockEnd
  0
BLOCK
  5
13CE
330
13CD
100
AcDbEntity
  8
0
100
AcDbBlockBegin
  2
*D43
 70
     1
 10
0.0
 20
0.0
 30
0.0
  3
*D43
  1
*D46
  0
LINE
  5
13D0
330
13CD
100
AcDbEntity
  8
DIM
 62
     0
 48
0.05
370
    -2
100
AcDbLine
 10
1650.441093585219
 20
2425.682895053303
 30
0.0
 11
1650.441093585219
 21
2420.281646404
 31
0.0
  0
LINE
  5
13D1
330
13CD
100
AcDbEntity
  8
DIM
 62
     0
 48
0.05
370
    -2
100
AcDbLine
 10
1650.441093585219
 20
2472.64556152446
 30
0.0
 11
1650.441093585219
 21
2420.281646404
 31
0.0
  0
LINE
  5
13D2
330
13CD
100
AcDbEntity
  8
DIM
 62
     0
 48
0.05
370
    -2
100
AcDbLine
 10
1650.441093585219
 20
2420.281646404
 30
0.0
 11
1816.689093585219
 21
2420.281646404
 31
0.0
  0
LINE
  5
13D3
330
13CD
100
AcDbEntity
  8
DIM
 62
     0
 48
0.05
370
    -2
100
AcDbLine
 10
1640.441093585219
 20
2420.281646404
 30
0.0
 11
1630.441093585219
 21
2420.281646404
 31
0.0
  0
LINE
  5
13D4
330
13CD
100
AcDbEntity
  8
DIM
 62
     0
 48
0.05
370
    -2
100
AcDbLine
 10
1660.441093585219
 20
2420.281646404
 30
0.0
 11
1670.441093585219
 21
2420.281646404
 31
0.0
  0
INSERT
  5
13D5
330
13CD
100
AcDbEntity
  8
DIM
 62
     0
370
    -2
100
AcDbBlockReference
  2
_DOT
 10
1650.441093585219
 20
2420.281646404
 30
0.0
 41
10.0
 42
10.0
 43
10.0
  0
INSERT
  5
13D6
330
13CD
100
AcDbEntity
  8
DIM
 62
     0
370
    -2
100
AcDbBlockReference
  2
_DOT
 10
1650.441093585219
 20
2420.281646404
 30
0.0
 41
10.0
 42
10.0
 43
10.0
 50
180.0
  0
MTEXT
  5
13D7
330
13CD
100
AcDbEntity
  8
DIM
 62
     0
 48
0.05
100
AcDbMText
 10
1743.565093585219
 20
2385.725646404
 30
0.0
 40
24.0
 41
0.0
 46
0.0
 71
     5
 72
     1
  1
\A1;G1 1/4"
  7
ＭＳ ゴシック
 73
     1
 44
1.0
  0
POINT
  5
13D8
330
13CD
100
AcDbEntity
  8
Defpoints
 62
     0
100
AcDbPoint
 10
1650.441093585219
 20
2455.682895053302
 30
0.0
  0
POINT
  5
13D9
330
13CD
100
AcDbEntity
  8
Defpoints
 62
     0
100
AcDbPoint
 10
1650.441093585219
 20
2502.64556152446
 30
0.0
  0
POINT
  5
13DA
330
13CD
100
AcDbEntity
  8
Defpoints
 62
     0
100
AcDbPoint
 10
1650.441093585219
 20
2420.281646404
 30
0.0
  0
ENDBLK
  5
13CF
330
13CD
100
AcDbEntity
  8
0
100
AcDbBlockEnd
  0
BLOCK
  5
13E1
330
13E0
100
AcDbEntity
  8
0
100
AcDbBlockBegin
  2
*D44
 70
     1
 10
0.0
 20
0.0
 30
0.0
  3
*D44
  1
*D47
  0
LINE
  5
13E3
330
13E0
100
AcDbEntity
  8
DIM
 62
     0
 48
0.05
370
    -2
100
AcDbLine
 10
1768.612660335697
 20
2327.86125580351
 30
0.0
 11
1759.746100645502
 21
2327.86125580351
 31
0.0
  0
LINE
  5
13E4
330
13E0
100
AcDbEntity
  8
DIM
 62
     0
 48
0.05
370
    -2
100
AcDbLine
 10
1768.612660335697
 20
2291.140621286158
 30
0.0
 11
1759.746100645502
 21
2291.140621286158
 31
0.0
  0
LINE
  5
13E5
330
13E0
100
AcDbEntity
  8
DIM
 62
     0
 48
0.05
370
    -2
100
AcDbLine
 10
1759.746100645502
 20
2337.86125580351
 30
0.0
 11
1759.746100645502
 21
2347.86125580351
 31
0.0
  0
LINE
  5
13E6
330
13E0
100
AcDbEntity
  8
DIM
 62
     0
 48
0.05
370
    -2
100
AcDbLine
 10
1759.746100645502
 20
2281.140621286158
 30
0.0
 11
1759.746100645502
 21
2271.140621286158
 31
0.0
  0
INSERT
  5
13E7
330
13E0
100
AcDbEntity
  8
DIM
 62
     0
370
    -2
100
AcDbBlockReference
  2
_DOT
 10
1759.746100645502
 20
2327.86125580351
 30
0.0
 41
10.0
 42
10.0
 43
10.0
 50
270.0
  0
INSERT
  5
13E8
330
13E0
100
AcDbEntity
  8
DIM
 62
     0
370
    -2
100
AcDbBlockReference
  2
_DOT
 10
1759.746100645502
 20
2291.140621286158
 30
0.0
 41
10.0
 42
10.0
 43
10.0
 50
90.0
  0
MTEXT
  5
13E9
330
13E0
100
AcDbEntity
  8
DIM
 62
     0
 48
0.05
100
AcDbMText
 10
1727.746100645502
 20
2309.500938544834
 30
0.0
 40
24.0
 41
0.0
 46
0.0
 71
     5
 72
     1
  1
\A1;37
  7
ＭＳ ゴシック
 11
0.0
 21
1.0
 31
0.0
 73
     1
 44
1.0
  0
POINT
  5
13EA
330
13E0
100
AcDbEntity
  8
Defpoints
 62
     0
100
AcDbPoint
 10
1738.612660335697
 20
2327.86125580351
 30
0.0
  0
POINT
  5
13EB
330
13E0
100
AcDbEntity
  8
Defpoints
 62
     0
100
AcDbPoint
 10
1738.612660335697
 20
2291.140621286158
 30
0.0
  0
POINT
  5
13EC
330
13E0
100
AcDbEntity
  8
Defpoints
 62
     0
100
AcDbPoint
 10
1759.746100645502
 20
2291.140621286158
 30
0.0
  0
ENDBLK
  5
13E2
330
13E0
100
AcDbEntity
  8
0
100
AcDbBlockEnd
  0
BLOCK
  5
1474
330
1473
100
AcDbEntity
  8
0
100
AcDbBlockBegin
  2
*D45
 70
     1
 10
0.0
 20
0.0
 30
0.0
  3
*D45
  1
*D45
  0
LINE
  5
1476
330
1473
100
AcDbEntity
  8
DIM
 62
     0
 48
0.05
370
    -2
100
AcDbLine
 10
794.3218415654828
 20
1825.737263959655
 30
0.0
 11
850.4408062712531
 21
1825.737263959655
 31
0.0
  0
LINE
  5
1477
330
1473
100
AcDbEntity
  8
DIM
 62
     0
 48
0.05
370
    -2
100
AcDbLine
 10
694.2106279502933
 20
2098.933936112986
 30
0.0
 11
850.4408062712531
 21
2098.933936112986
 31
0.0
  0
LINE
  5
1478
330
1473
100
AcDbEntity
  8
DIM
 62
     0
 48
0.05
370
    -2
100
AcDbLine
 10
850.4408062712531
 20
1835.737263959655
 30
0.0
 11
850.4408062712531
 21
2088.933936112986
 31
0.0
  0
INSERT
  5
1479
330
1473
100
AcDbEntity
  8
DIM
 62
     0
370
    -2
100
AcDbBlockReference
  2
_DOT
 10
850.4408062712531
 20
1825.737263959655
 30
0.0
 41
10.0
 42
10.0
 43
10.0
 50
270.0
  0
INSERT
  5
147A
330
1473
100
AcDbEntity
  8
DIM
 62
     0
370
    -2
100
AcDbBlockReference
  2
_DOT
 10
850.4408062712531
 20
2098.933936112986
 30
0.0
 41
10.0
 42
10.0
 43
10.0
 50
90.0
  0
MTEXT
  5
147B
330
1473
100
AcDbEntity
  8
DIM
 62
     0
 48
0.05
100
AcDbMText
 10
818.4408062712531
 20
1962.335600036321
 30
0.0
 40
24.0
 41
0.0
 46
0.0
 71
     5
 72
     1
  1
\A1;273
  7
ＭＳ ゴシック
 11
0.0
 21
1.0
 31
0.0
 73
     1
 44
1.0
  0
POINT
  5
147C
330
1473
100
AcDbEntity
  8
Defpoints
 62
     0
100
AcDbPoint
 10
764.3218415654828
 20
1825.737263959655
 30
0.0
  0
POINT
  5
147D
330
1473
100
AcDbEntity
  8
Defpoints
 62
     0
100
AcDbPoint
 10
664.2106279502932
 20
2098.933936112986
 30
0.0
  0
POINT
  5
147E
330
1473
100
AcDbEntity
  8
Defpoints
 62
     0
100
AcDbPoint
 10
850.4408062712531
 20
2098.933936112986
 30
0.0
  0
ENDBLK
  5
1475
330
1473
100
AcDbEntity
  8
0
100
AcDbBlockEnd
  0
ENDSEC
  0
SECTION
  2
ENTITIES
  0
MTEXT
  5
177
330
A
100
AcDbEntity
  8
TEMPLATE
390
1D
100
AcDbMText
 10
79.20214454773075
 20
343.7317516314282
 30
0.0
 40
16.28841145833333
 41
0.0
 46
0.0
 71
     1
 72
     1
  1
品名
  7
ＭＳ ゴシック
 73
     1
 44
0.7828267384257844
  0
MTEXT
  5
178
330
A
100
AcDbEntity
  8
TEMPLATE
390
1D
100
AcDbMText
 10
79.20214454773075
 20
258.731751631428
 30
0.0
 40
16.28841145833333
 41
0.0
 46
0.0
 71
     1
 72
     1
  1
仕様
  7
ＭＳ ゴシック
 73
     1
 44
0.7828267384257844
  0
LINE
  5
179
330
A
100
AcDbEntity
  8
TEMPLATE
390
1D
100
AcDbLine
 10
2022.202144547248
 20
267.1466735064284
 30
0.0
 11
72.20214454724874
 21
267.1466735064284
 31
0.0
  0
LWPOLYLINE
  5
17A
330
A
100
AcDbEntity
  8
TEMPLATE
390
1D
100
AcDbPolyline
 90
        5
 70
   128
 43
0.0
 10
2022.202144547248
 20
2897.146673506426
 10
72.20214454724874
 20
2897.146673506426
 10
72.20214454724874
 20
97.14667350642827
 10
2022.202144547248
 20
97.14667350642827
 10
2022.202144547248
 20
2897.146673506426
  0
LINE
  5
17B
330
A
100
AcDbEntity
  8
TEMPLATE
390
1D
100
AcDbLine
 10
2022.202144547248
 20
352.1466735064282
 30
0.0
 11
72.20214454724874
 21
352.1466735064282
 31
0.0
  0
LINE
  5
17C
330
A
100
AcDbEntity
  8
TEMPLATE
390
1D
100
AcDbLine
 10
2022.202144547732
 20
182.1466735064282
 30
0.0
 11
1269.20214454773
 21
182.1466735064282
 31
0.0
  0
MTEXT
  5
17E
330
A
100
AcDbEntity
  8
TEMPLATE
390
1D
100
AcDbMText
 10
1299.073550799991
 20
152.2362790331201
 30
0.0
 40
24.4326171875
 41
0.0
 46
0.0
 71
     1
 72
     1
  1
大洋金物株式会社 ティーフォルム事業部
  7
ＭＳ ゴシック
 73
     1
 44
0.7828267384257844
  0
MTEXT
  5
180
330
A
100
AcDbEntity
  8
TEMPLATE
390
1D
100
AcDbMText
 10
1831.202144547989
 20
230.1492906939282
 30
0.0
 40
24.4326171875
 41
0.0
 46
24.4326171875
 71
     1
 72
     1
  1
{1:10}
  7
ＭＳ ゴシック
 73
     1
 44
0.7828267384257844
1001
ACAD
1000
ACAD_MTEXT_DEFINED_HEIGHT_BEGIN
1070
    46
1040
24.4326171875
1000
ACAD_MTEXT_DEFINED_HEIGHT_END
  0
MTEXT
  5
181
330
A
100
AcDbEntity
  8
TEMPLATE
390
1D
100
AcDbMText
 10
1778.20214454799
 20
258.731751631428
 30
0.0
 40
16.28841145833333
 41
0.0
 46
0.0
 71
     1
 72
     1
  1
縮尺
  7
ＭＳ ゴシック
 73
     1
 44
0.7828267384257844
  0
LINE
  5
182
330
A
100
AcDbEntity
  8
TEMPLATE
390
1D
100
AcDbLine
 10
1771.20214454799
 20
182.1466735064282
 30
0.0
 11
1771.20214454799
 21
267.1466735064284
 31
0.0
  0
MTEXT
  5
183
330
A
100
AcDbEntity
  8
TEMPLATE
390
1D
100
AcDbMText
 10
1527.20214454799
 20
258.731751631428
 30
0.0
 40
16.28841145833333
 41
0.0
 46
0.0
 71
     1
 72
     1
  1
容量
  7
ＭＳ ゴシック
 73
     1
 44
0.7828267384257844
  0
LINE
  5
184
330
A
100
AcDbEntity
  8
TEMPLATE
390
1D
100
AcDbLine
 10
1520.20214454799
 20
182.1466735064282
 30
0.0
 11
1520.20214454799
 21
267.1466735064284
 31
0.0
  0
MTEXT
  5
185
330
A
100
AcDbEntity
  8
TEMPLATE
390
1D
100
AcDbMText
 10
1276.20214454799
 20
343.7317516314282
 30
0.0
 40
16.28841145833333
 41
0.0
 46
0.0
 71
     1
 72
     1
  1
品番
  7
ＭＳ ゴシック
 73
     1
 44
0.7828267384257844
  0
MTEXT
  5
186
330
A
100
AcDbEntity
  8
TEMPLATE
390
1D
100
AcDbMText
 10
1276.20214454799
 20
258.731751631428
 30
0.0
 40
16.28841145833333
 41
0.0
 46
0.0
 71
     1
 72
     1
  1
重量
  7
ＭＳ ゴシック
 73
     1
 44
0.7828267384257844
  0
MTEXT
  5
187
330
A
100
AcDbEntity
  8
TEMPLATE
390
1D
100
AcDbMText
 10
1329.20214454799
 20
315.1492906939282
 30
0.0
 40
24.4326171875
 41
0.0
 46
24.4326171875
 71
     1
 72
     1
  1
{BRS70-0101-006}
  7
ＭＳ ゴシック
 73
     1
 44
0.7828267384257844
1001
ACAD
1000
ACAD_MTEXT_DEFINED_HEIGHT_BEGIN
1070
    46
1040
24.4326171875
1000
ACAD_MTEXT_DEFINED_HEIGHT_END
  0
LINE
  5
188
330
A
100
AcDbEntity
  8
TEMPLATE
390
1D
100
AcDbLine
 10
1269.20214454799
 20
97.14667350642827
 30
0.0
 11
1269.20214454799
 21
352.1466735064282
 31
0.0
  0
MTEXT
  5
189
330
A
100
AcDbEntity
  8
TEMPLATE
390
1D
100
AcDbMText
 10
132.2021445477307
 20
315.1492906939282
 30
0.0
 40
24.4326171875
 41
0.0
 46
27.5355595703125
 71
     1
 72
     1
  1
{手洗器　-CLOU, First-}
  7
ＭＳ ゴシック
 73
     1
 44
0.7828267384257844
1001
ACAD
1000
ACAD_MTEXT_DEFINED_HEIGHT_BEGIN
1070
    46
1040
27.5355595703125
1000
ACAD_MTEXT_DEFINED_HEIGHT_END
  0
INSERT
  5
6B5
330
A
100
AcDbEntity
  8
TEMPLATE
100
AcDbBlockReference
  2
名称未設定-1
 10
1870.75074808845
 20
25.94676575665382
 30
0.0
 41
0.7619999999999998
 42
0.7619999999999998
 43
0.7619999999999998
  0
MTEXT
  5
7D9
330
A
100
AcDbEntity
  8
TEMPLATE
390
1D
100
AcDbMText
 10
125.2543452760364
 20
226.8119760293952
 30
0.0
 40
24.4326171875
 41
0.0
 46
101.556517578125
 71
     1
 72
     1
  1
{カウンター置き/オーバーフローなし/\P排水目皿(水溜め不可)、カウンター固定金具付属/\Pcristalplant(人工大理石)/ホワイト}
  7
ＭＳ ゴシック
 73
     1
 44
0.9331787841240656
1001
ACAD
1000
ACAD_MTEXT_DEFINED_HEIGHT_BEGIN
1070
    46
1040
101.556517578125
1000
ACAD_MTEXT_DEFINED_HEIGHT_END
  0
INSERT
  5
68C
330
A
100
AcDbEntity
  8
TEMPLATE
100
AcDbBlockReference
  2
block 2
 10
919.2743017702575
 20
8.373076514336366
 30
0.0
 41
0.3809999999999999
 42
0.3809999999999999
 43
0.3809999999999999
  0
LWPOLYLINE
  5
DAC
330
A
100
AcDbEntity
  8
BORDER
 48
0.1
100
AcDbPolyline
 90
        4
 70
     1
 43
0.0
 10
0.0
 20
0.0
 10
0.0
 20
2970.0
 10
2100.0
 20
2970.0
 10
2100.0
 20
0.0
  0
LINE
  5
10D6
330
A
100
AcDbEntity
  8
MODEL
100
AcDbLine
 10
1536.823821467849
 20
907.4983538890531
 30
0.0
 11
1540.573821384027
 21
907.5034000271404
 31
0.0
  0
LINE
  5
10D7
330
A
100
AcDbEntity
  8
MODEL
100
AcDbLine
 10
1540.573821384027
 20
949.4083540344886
 30
0.0
 11
1536.823821467849
 21
949.4083540344886
 31
0.0
  0
LINE
  5
10F8
330
A
100
AcDbEntity
  8
MODEL
100
AcDbLine
 10
1446.823817891568
 20
648.4533527696785
 30
0.0
 11
1456.833821935146
 21
648.4533527696785
 31
0.0
  0
LINE
  5
10F9
330
A
100
AcDbEntity
  8
MODEL
100
AcDbLine
 10
1456.833821935146
 20
1488.512722572154
 30
0.0
 11
1446.823817891568
 21
1488.512722572154
 31
0.0
  0
SPLINE
  5
10FA
330
A
100
AcDbEntity
  8
MODEL
100
AcDbSpline
210
0.0
220
0.0
230
1.0
 70
     8
 71
     3
 72
    38
 73
    34
 74
     0
 42
0.000000001
 43
0.0000000001
 40
0.0
 40
0.0
 40
0.0
 40
0.0
 40
0.0161377165964918
 40
0.0398062082122918
 40
0.0602738001213429
 40
0.0737452512812724
 40
0.0858193823794113
 40
0.0967459361534682
 40
0.1068275135922035
 40
0.119544195589881
 40
0.1323445599775458
 40
0.1468140157597798
 40
0.1720085692964879
 40
0.2015147462448111
 40
0.2348154064527306
 40
0.2676143663493838
 40
0.2991887214228316
 40
0.3294951260120865
 40
0.3618951484927924
 40
0.3926350930152246
 40
0.4250225852489842
 40
0.4640809294500267
 40
0.4995927759905962
 40
0.5394359203958112
 40
0.5836980049450573
 40
0.6324734864680688
 40
0.6868703056234722
 40
0.7461332044775078
 40
0.8103436702429032
 40
0.8795691414483119
 40
0.9538500816299883
 40
0.9976792397676208
 40
1.0
 40
1.0
 40
1.0
 40
1.0
 10
1456.886125010937
 20
654.8841873014626
 30
0.0
 10
1456.890522100915
 20
654.8748566524245
 30
0.0
 10
1456.901368212752
 20
654.8518411436326
 30
0.0
 10
1456.937113550216
 20
655.3197898950975
 30
0.0
 10
1456.995951485002
 20
656.1469604534086
 30
0.0
 10
1457.074867481504
 20
657.1788927719476
 30
0.0
 10
1457.167322714024
 20
658.2630655712063
 30
0.0
 10
1457.287927446156
 20
659.5099779278768
 30
0.0
 10
1457.458428660691
 20
661.0505625451856
 30
0.0
 10
1457.706569402766
 20
662.9748950193116
 30
0.0
 10
1458.07993127685
 20
665.3870158609434
 30
0.0
 10
1458.644601764206
 20
668.4727321994516
 30
0.0
 10
1459.523172940685
 20
672.4134136728626
 30
0.0
 10
1460.844605532639
 20
677.1529972027865
 30
0.0
 10
1462.428129608962
 20
681.8275333675865
 30
0.0
 10
1464.318900723444
 20
686.5326131770725
 30
0.0
 10
1466.423213961006
 20
691.0368321167274
 30
0.0
 10
1468.779798033425
 20
695.4503076899795
 30
0.0
 10
1471.371536258997
 20
699.7482753927114
 30
0.0
 10
1474.334452453198
 20
704.0256933256765
 30
0.0
 10
1477.438110547806
 20
708.6514108454151
 30
0.0
 10
1480.572166020134
 20
713.5545688448705
 30
0.0
 10
1483.801353673928
 20
718.8501671083153
 30
0.0
 10
1487.045088776053
 20
724.4340463177738
 30
0.0
 10
1490.486732782524
 20
730.6868466352475
 30
0.0
 10
1494.111294446961
 20
737.6755308791125
 30
0.0
 10
1497.868419224837
 20
745.4282916308166
 30
0.0
 10
1501.694748692702
 20
753.9706828008283
 30
0.0
 10
1505.505010140354
 20
763.2807275213212
 30
0.0
 10
1509.235250045739
 20
773.3408410587668
 30
0.0
 10
1512.21066312326
 20
782.5166594693964
 30
0.0
 10
1513.974184567571
 20
788.2908908829712
 30
0.0
 10
1514.65465035335
 20
790.8318037211074
 30
0.0
 10
1514.688869220704
 20
790.9595796669173
 30
0.0
  0
SPLINE
  5
10FB
330
A
100
AcDbEntity
  8
MODEL
100
AcDbSpline
210
0.0
220
0.0
230
1.0
 70
     8
 71
     3
 72
    23
 73
    19
 74
     0
 42
0.000000001
 43
0.0000000001
 40
0.0
 40
0.0
 40
0.0
 40
0.0
 40
0.0022956111255211
 40
0.0093641284963299
 40
0.0162427362261735
 40
0.0233820038460139
 40
0.0312087541599497
 40
0.0501788612667941
 40
0.0918273852574694
 40
0.1442381341640388
 40
0.1966183688952349
 40
0.3189445173737894
 40
0.4370148439835645
 40
0.5739733539806357
 40
0.6983983466229776
 40
0.8346484895199996
 40
0.9646072199934637
 40
1.0
 40
1.0
 40
1.0
 40
1.0
 10
1457.156066996547
 20
1365.748343786066
 30
0.0
 10
1457.156136796767
 20
1365.74461570885
 30
0.0
 10
1457.156421521909
 20
1365.729408344786
 30
0.0
 10
1457.155602515853
 20
1365.815952580228
 30
0.0
 10
1457.153382677661
 20
1366.030131489732
 30
0.0
 10
1457.150244019831
 20
1366.324843748917
 30
0.0
 10
1457.144498585803
 20
1366.853094264953
 30
0.0
 10
1457.131677628507
 20
1368.024702789554
 30
0.0
 10
1457.111118549798
 20
1369.946290070076
 30
0.0
 10
1457.086561419801
 20
1372.371416903168
 30
0.0
 10
1457.050319219172
 20
1376.165559086121
 30
0.0
 10
1457.008341409699
 20
1381.050682573697
 30
0.0
 10
1456.961431763962
 20
1387.404850607077
 30
0.0
 10
1456.921727087461
 20
1393.835174618363
 30
0.0
 10
1456.887534257694
 20
1400.586708034165
 30
0.0
 10
1456.860234383337
 20
1407.224216331387
 30
0.0
 10
1456.842701023464
 20
1412.358671214927
 30
0.0
 10
1456.835755606608
 20
1415.172600178159
 30
0.0
 10
1456.834268969983
 20
1415.774909576242
 30
0.0
  0
SPLINE
  5
10FC
330
A
100
AcDbEntity
  8
MODEL
100
AcDbSpline
210
0.0
220
0.0
230
1.0
 70
     8
 71
     3
 72
    36
 73
    32
 74
     0
 42
0.000000001
 43
0.0000000001
 40
0.0
 40
0.0
 40
0.0
 40
0.0
 40
0.0655897544845622
 40
0.1389994628506125
 40
0.2092362215177721
 40
0.2762729007145714
 40
0.3400908299523036
 40
0.4006696241920979
 40
0.4579960370003712
 40
0.507681907812124
 40
0.5546259075109161
 40
0.5988327940602353
 40
0.6403570566993081
 40
0.6792516829777289
 40
0.7154917856794431
 40
0.7534124601452187
 40
0.7878404933729316
 40
0.8187604234963322
 40
0.8461649152324273
 40
0.8700538595140207
 40
0.8904345728739277
 40
0.9037288863763565
 40
0.9160494424207518
 40
0.927517350591389
 40
0.938258142065942
 40
0.9484067295169296
 40
0.9582631133577525
 40
0.9682859853482019
 40
0.9788554053771918
 40
0.9901495717154523
 40
1.0
 40
1.0
 40
1.0
 40
1.0
 10
1518.937903670162
 20
1067.984355410402
 30
0.0
 10
1518.024701912622
 20
1074.952055290539
 30
0.0
 10
1516.089421703532
 20
1089.718180705336
 30
0.0
 10
1512.552518434165
 20
1111.879753687587
 30
0.0
 10
1508.571211069961
 20
1134.13655056528
 30
0.0
 10
1504.330379172981
 20
1155.320153124145
 30
0.0
 10
1499.908223095732
 20
1175.4312021991
 30
0.0
 10
1495.357230939263
 20
1194.470102989146
 30
0.0
 10
1490.852606072611
 20
1211.982589351247
 30
0.0
 10
1486.452557483371
 20
1228.030808695549
 30
0.0
 10
1482.224080673313
 20
1242.68345199652
 30
0.0
 10
1478.010437309003
 20
1256.449065581496
 30
0.0
 10
1474.141350649771
 20
1269.430011095371
 30
0.0
 10
1470.914161913348
 20
1281.707512964903
 30
0.0
 10
1468.097865390046
 20
1293.702030265385
 30
0.0
 10
1465.678261346922
 20
1305.311450699629
 30
0.0
 10
1463.644882916196
 20
1316.435736619119
 30
0.0
 10
1462.036043390108
 20
1326.499182780871
 30
0.0
 10
1460.783133154018
 20
1335.481199331736
 30
0.0
 10
1459.823937616649
 20
1343.370745727953
 30
0.0
 10
1459.14709504725
 20
1349.748885714879
 30
0.0
 10
1458.661454086844
 20
1354.901856399702
 30
0.0
 10
1458.301924558134
 20
1359.131782606471
 30
0.0
 10
1457.999088536203
 20
1363.085026958049
 30
0.0
 10
1457.746913507399
 20
1366.736965747014
 30
0.0
 10
1457.537925120826
 20
1370.078711021155
 30
0.0
 10
1457.367296787183
 20
1373.078794980139
 30
0.0
 10
1457.232261527094
 20
1375.660792344251
 30
0.0
 10
1457.129712328093
 20
1377.745176115212
 30
0.0
 10
1457.057703788156
 20
1379.25850223197
 30
0.0
 10
1457.031187595407
 20
1379.75027331096
 30
0.0
 10
1457.01883475253
 20
1379.979369958704
 30
0.0
  0
SPLINE
  5
10FD
330
A
100
AcDbEntity
  8
MODEL
100
AcDbSpline
210
0.0
220
0.0
230
1.0
 70
     8
 71
     3
 72
    22
 73
    18
 74
     0
 42
0.000000001
 43
0.0000000001
 40
0.0
 40
0.0
 40
0.0
 40
0.0
 40
0.0644573905943594
 40
0.1451353063273483
 40
0.2336017615151857
 40
0.320230594139458
 40
0.3987066211033459
 40
0.4701559194935112
 40
0.5350951221328907
 40
0.5891227713581398
 40
0.6504816618279189
 40
0.7200556000052565
 40
0.7976181210464415
 40
0.8541220293702945
 40
0.9144623948907245
 40
0.9787200736862232
 40
1.0
 40
1.0
 40
1.0
 40
1.0
 10
1457.343002063724
 20
1373.581675609415
 30
0.0
 10
1457.320480832179
 20
1375.584663893141
 30
0.0
 10
1457.269770963088
 20
1380.094686955644
 30
0.0
 10
1457.198745057417
 20
1387.326191755566
 30
0.0
 10
1457.12939708876
 20
1395.213295726041
 30
0.0
 10
1457.069879326835
 20
1402.989878004207
 30
0.0
 10
1457.021752337434
 20
1410.182966151109
 30
0.0
 10
1456.983622235537
 20
1416.69594361954
 30
0.0
 10
1456.953932057539
 20
1422.468719381942
 30
0.0
 10
1456.929091609029
 20
1427.9345505584
 30
0.0
 10
1456.907566136616
 20
1433.316538528496
 30
0.0
 10
1456.887132002023
 20
1439.168012414224
 30
0.0
 10
1456.87048316655
 20
1444.25465905593
 30
0.0
 10
1456.857058283284
 20
1448.871035921484
 30
0.0
 10
1456.846315683226
 20
1452.778617624472
 30
0.0
 10
1456.838626934049
 20
1455.722909200902
 30
0.0
 10
1456.835017827002
 20
1457.177863148275
 30
0.0
 10
1456.834119958371
 20
1457.539824565713
 30
0.0
  0
ARC
  5
10FE
330
A
100
AcDbEntity
  8
MODEL
100
AcDbCircle
 10
1528.9396703916
 20
1069.181322941733
 30
0.0
 40
9.999999493098236
100
AcDbArc
 50
187.2624315536278
 51
264.9992360158898
  0
LINE
  5
10FF
330
A
100
AcDbEntity
  8
MODEL
100
AcDbLine
 10
1536.823821467849
 20
1090.953348001306
 30
0.0
 11
1515.483749312848
 21
1092.820374091928
 31
0.0
  0
LINE
  5
1100
330
A
100
AcDbEntity
  8
MODEL
100
AcDbLine
 10
1505.410035354584
 20
763.2050046528034
 30
0.0
 11
1536.823821467849
 21
765.9533599222354
 31
0.0
  0
SPLINE
  5
1108
330
A
100
AcDbEntity
  8
MODEL
100
AcDbSpline
210
0.0
220
0.0
230
1.0
 70
    24
 71
     3
 72
    46
 73
    42
 74
     0
 42
0.000000001
 43
0.0000000001
 40
0.0
 40
0.0
 40
0.0
 40
0.0
 40
0.0496976528767766
 40
0.0992429482014078
 40
0.1502291942262827
 40
0.2023437774101627
 40
0.2553438219732395
 40
0.2902839879708739
 40
0.3259003751671834
 40
0.3615815179523205
 40
0.3974726203791078
 40
0.4337512793591882
 40
0.4697073163232666
 40
0.5047765608145284
 40
0.5393539076738408
 40
0.5742911607483526
 40
0.6090023776005859
 40
0.6272787528633232
 40
0.6451999856449769
 40
0.6632608637886542
 40
0.6816159229227809
 40
0.6995330329374426
 40
0.7170183951843389
 40
0.7420627205227432
 40
0.7660966689701765
 40
0.7899848267685165
 40
0.8138265410688545
 40
0.8376018020301627
 40
0.8494498564270742
 40
0.8612787949275318
 40
0.8731317540576366
 40
0.8846415490771089
 40
0.8964211771137652
 40
0.9109456937580151
 40
0.9253954015725911
 40
0.9397686227617304
 40
0.9540637137087266
 40
0.9682792152712917
 40
0.9824137165149519
 40
0.9964663665874715
 40
1.0
 40
1.0
 40
1.0
 40
1.0
 10
1446.823817891568
 20
928.4533626145503
 30
0.0
 10
1446.823817891568
 20
938.8406650787164
 30
0.0
 10
1446.823817891568
 20
959.5834257672198
 30
0.0
 10
1446.823817891568
 20
990.9739655899043
 30
0.0
 10
1446.823817891568
 20
1022.84907395253
 30
0.0
 10
1446.823817891568
 20
1055.411494758768
 30
0.0
 10
1446.823817891568
 20
1084.582770092022
 30
0.0
 10
1446.823817891568
 20
1110.273441206366
 30
0.0
 10
1446.823817891568
 20
1132.327125537305
 30
0.0
 10
1446.823817891568
 20
1154.534664357438
 30
0.0
 10
1446.823817891568
 20
1176.827583169427
 30
0.0
 10
1446.823817891568
 20
1199.115635710427
 30
0.0
 10
1446.823817891568
 20
1221.161865713461
 30
0.0
 10
1446.823817891568
 20
1242.775842373209
 30
0.0
 10
1446.823817891568
 20
1264.086207358167
 30
0.0
 10
1446.823817891568
 20
1285.211463556604
 30
0.0
 10
1446.823817891568
 20
1302.919231818109
 30
0.0
 10
1446.823817891568
 20
1317.115051558214
 30
0.0
 10
1446.823817891568
 20
1327.928230090613
 30
0.0
 10
1446.823817891568
 20
1338.70252603163
 30
0.0
 10
1446.823817891568
 20
1349.414243856774
 30
0.0
 10
1446.823817891568
 20
1359.943731324537
 30
0.0
 10
1446.823817891568
 20
1371.697998679761
 30
0.0
 10
1446.823817891568
 20
1384.514786070818
 30
0.0
 10
1446.823817891568
 20
1398.368879165398
 30
0.0
 10
1446.823817891568
 20
1411.766031536398
 30
0.0
 10
1446.823817891568
 20
1424.836778705686
 30
0.0
 10
1446.823817891568
 20
1435.408936580789
 30
0.0
 10
1446.823817891568
 20
1443.636001001142
 30
0.0
 10
1446.823817891568
 20
1449.670598422556
 30
0.0
 10
1446.823817891568
 20
1455.601292037793
 30
0.0
 10
1446.823817891568
 20
1461.167314049156
 30
0.0
 10
1446.823817891568
 20
1466.538673169752
 30
0.0
 10
1446.823817891568
 20
1471.876307287975
 30
0.0
 10
1446.823817891568
 20
1476.765265564872
 30
0.0
 10
1446.823817891568
 20
1480.85453552937
 30
0.0
 10
1446.823817891568
 20
1484.094330007102
 30
0.0
 10
1446.823817891568
 20
1486.494913817269
 30
0.0
 10
1446.823817891568
 20
1487.95206662683
 30
0.0
 10
1446.823817891568
 20
1488.575065565849
 30
0.0
 10
1446.823817891568
 20
1488.457539822806
 30
0.0
 10
1446.823817891568
 20
1488.43392523176
 30
0.0
  0
SPLINE
  5
1109
330
A
100
AcDbEntity
  8
MODEL
100
AcDbSpline
210
0.0
220
0.0
230
1.0
 70
    24
 71
     3
 72
    37
 73
    33
 74
     0
 42
0.000000001
 43
0.0000000001
 40
0.0
 40
0.0
 40
0.0
 40
0.0
 40
0.0333280602164085
 40
0.0690873283380097
 40
0.1049498393455104
 40
0.1409238754876132
 40
0.1770248032666928
 40
0.213268134903439
 40
0.2496694554439979
 40
0.2862448269276883
 40
0.3230111223839673
 40
0.3599860676975369
 40
0.3971882707376765
 40
0.434637308831131
 40
0.472354038044857
 40
0.5103605791584424
 40
0.5486805133152202
 40
0.5873396627814548
 40
0.6263678013873716
 40
0.6657913016468904
 40
0.6912869371628641
 40
0.7169343672096492
 40
0.7427342788040452
 40
0.7689536416196087
 40
0.7952349112699748
 40
0.8215467297961087
 40
0.8481332888547635
 40
0.8777889029098158
 40
0.9078480482194164
 40
0.9385252286613949
 40
0.9692663773747391
 40
1.0
 40
1.0
 40
1.0
 40
1.0
 10
1446.823817891568
 20
648.4892943704776
 30
0.0
 10
1446.823817891568
 20
648.5669874964748
 30
0.0
 10
1446.823817891568
 20
648.7280412892882
 30
0.0
 10
1446.823817891568
 20
650.5660137223762
 30
0.0
 10
1446.823817891568
 20
653.4247658518593
 30
0.0
 10
1446.823817891568
 20
657.2855639780696
 30
0.0
 10
1446.823817891568
 20
662.2128993194723
 30
0.0
 10
1446.823817891568
 20
668.1630755614256
 30
0.0
 10
1446.823817891568
 20
675.0993040855915
 30
0.0
 10
1446.823817891568
 20
682.9751627521638
 30
0.0
 10
1446.823817891568
 20
691.7429531872485
 30
0.0
 10
1446.823817891568
 20
701.3522010515826
 30
0.0
 10
1446.823817891568
 20
711.7512681191165
 30
0.0
 10
1446.823817891568
 20
722.8886759053074
 30
0.0
 10
1446.823817891568
 20
734.7122550284707
 30
0.0
 10
1446.823817891568
 20
747.1721938131463
 30
0.0
 10
1446.823817891568
 20
760.2156224233127
 30
0.0
 10
1446.823817891568
 20
773.8064119646456
 30
0.0
 10
1446.823817891568
 20
787.8185473543283
 30
0.0
 10
1446.823817891568
 20
800.4523910943252
 30
0.0
 10
1446.823817891568
 20
811.5859749835017
 30
0.0
 10
1446.823817891568
 20
821.1184597737164
 30
0.0
 10
1446.823817891568
 20
830.8054689665523
 30
0.0
 10
1446.823817891568
 20
840.6271113644843
 30
0.0
 10
1446.823817891568
 20
850.5584807698623
 30
0.0
 10
1446.823817891568
 20
860.5707360113248
 30
0.0
 10
1446.823817891568
 20
871.0345190199673
 30
0.0
 10
1446.823817891568
 20
881.9819993459764
 30
0.0
 10
1446.823817891568
 20
893.4496885772105
 30
0.0
 10
1446.823817891568
 20
905.0570728402327
 30
0.0
 10
1446.823817891568
 20
916.7512438568248
 30
0.0
 10
1446.823817891568
 20
924.5529747392733
 30
0.0
 10
1446.823817891568
 20
928.4533626145503
 30
0.0
  0
SPLINE
  5
110A
330
A
100
AcDbEntity
  8
MODEL
100
AcDbSpline
210
0.0
220
0.0
230
1.0
 70
    24
 71
     3
 72
    73
 73
    69
 74
     0
 42
0.000000001
 43
0.0000000001
 40
0.0
 40
0.0
 40
0.0
 40
0.0
 40
0.0045963308849267
 40
0.0152837757169345
 40
0.0261040803210299
 40
0.0396530660062687
 40
0.0532441862886068
 40
0.066883246687927
 40
0.0805761077770161
 40
0.0943286576423802
 40
0.108146964580262
 40
0.1220374032818967
 40
0.1360066706502988
 40
0.1500617968054298
 40
0.1642101781317696
 40
0.1784596941264505
 40
0.1928187020995873
 40
0.2072961110919717
 40
0.2219016768487021
 40
0.2366466480299584
 40
0.2515409882663827
 40
0.2611738116557357
 40
0.2708634388376723
 40
0.2806104730130116
 40
0.2905164983286188
 40
0.3004457261707904
 40
0.3103860992297282
 40
0.3204305267663561
 40
0.331640203261735
 40
0.342991871855563
 40
0.3545806345921305
 40
0.3661947308469132
 40
0.3778062350858215
 40
0.4035810084508166
 40
0.4292890461922915
 40
0.4552910271478268
 40
0.4819015005198796
 40
0.5091319063962662
 40
0.5366812781586129
 40
0.5628765215934849
 40
0.5893619244694487
 40
0.6162255855984853
 40
0.6431539103539404
 40
0.6700560577464099
 40
0.6918764623478295
 40
0.713390063119653
 40
0.73512810580384
 40
0.7567251519594609
 40
0.7782419797516957
 40
0.7998478450045151
 40
0.8165419900803122
 40
0.8333563506609207
 40
0.8500457063943883
 40
0.8663052516469967
 40
0.8826676945375659
 40
0.8989556742721218
 40
0.9081705053178248
 40
0.9173437624448872
 40
0.9264691878906706
 40
0.9355537308882055
 40
0.9445908186083679
 40
0.9535813606174018
 40
0.9625243129984692
 40
0.9714186531007847
 40
0.9802634730527016
 40
0.9890578949772528
 40
0.9978013894780756
 40
1.0
 40
1.0
 40
1.0
 40
1.0
 10
1456.833821935146
 20
648.5398689115696
 30
0.0
 10
1456.833821935146
 20
648.5195464932567
 30
0.0
 10
1456.833821935146
 20
648.4519701391197
 30
0.0
 10
1456.833821935146
 20
649.1074539304112
 30
0.0
 10
1456.833821935146
 20
650.7341231005066
 30
0.0
 10
1456.833821935146
 20
653.4309496606456
 30
0.0
 10
1456.833821935146
 20
657.2838985788784
 30
0.0
 10
1456.833821935146
 20
662.2133481179852
 30
0.0
 10
1456.833821935146
 20
668.1629545424166
 30
0.0
 10
1456.833821935146
 20
675.0993367389398
 30
0.0
 10
1456.833821935146
 20
682.9751539359436
 30
0.0
 10
1456.833821935146
 20
691.7429555691796
 30
0.0
 10
1456.833821935146
 20
701.3522004076166
 30
0.0
 10
1456.833821935146
 20
711.7512682932515
 30
0.0
 10
1456.833821935146
 20
722.8886758585377
 30
0.0
 10
1456.833821935146
 20
734.7122550397125
 30
0.0
 10
1456.833821935146
 20
747.1721938154964
 30
0.0
 10
1456.833821935146
 20
760.2156224022856
 30
0.0
 10
1456.833821935146
 20
773.8064120474896
 30
0.0
 10
1456.833821935146
 20
787.8185470397166
 30
0.0
 10
1456.833821935146
 20
800.4525467030843
 30
0.0
 10
1456.833821935146
 20
811.5862652153246
 30
0.0
 10
1456.833821935146
 20
821.1188046062533
 30
0.0
 10
1456.833821935146
 20
830.8057883537854
 30
0.0
 10
1456.833821935146
 20
840.6274623899676
 30
0.0
 10
1456.833821935146
 20
850.5588233366157
 30
0.0
 10
1456.833821935146
 20
860.5709727456506
 30
0.0
 10
1456.833821935146
 20
871.0365211071927
 30
0.0
 10
1456.833821935146
 20
881.9843052668456
 30
0.0
 10
1456.833821935146
 20
893.4518770851072
 30
0.0
 10
1456.833821935146
 20
905.0572499672643
 30
0.0
 10
1456.833821935146
 20
916.7511073425067
 30
0.0
 10
1456.833821935146
 20
933.2109327890293
 30
0.0
 10
1456.833821935146
 20
954.4058784942695
 30
0.0
 10
1456.833821935146
 20
980.4296836894655
 30
0.0
 10
1456.833821935146
 20
1006.722794850765
 30
0.0
 10
1456.833821935146
 20
1033.508383432295
 30
0.0
 10
1456.833821935146
 20
1060.785952767184
 30
0.0
 10
1456.833821935146
 20
1087.888128610802
 30
0.0
 10
1456.833821935146
 20
1114.696003600592
 30
0.0
 10
1456.833821935146
 20
1141.220956011101
 30
0.0
 10
1456.833821935146
 20
1167.923192748372
 30
0.0
 10
1456.833821935146
 20
1194.681014940136
 30
0.0
 10
1456.833821935146
 20
1219.671749715098
 30
0.0
 10
1456.833821935146
 20
1242.776072018613
 30
0.0
 10
1456.833821935146
 20
1264.086569232438
 30
0.0
 10
1456.833821935146
 20
1285.211843140686
 30
0.0
 10
1456.833821935146
 20
1306.203344533825
 30
0.0
 10
1456.833821935146
 20
1326.99006793563
 30
0.0
 10
1456.833821935146
 20
1346.019009822049
 30
0.0
 10
1456.833821935146
 20
1363.364037173518
 30
0.0
 10
1456.833821935146
 20
1378.982372907464
 30
0.0
 10
1456.833821935146
 20
1394.24854940446
 30
0.0
 10
1456.833821935146
 20
1409.113141261887
 30
0.0
 10
1456.833821935146
 20
1423.535980541522
 30
0.0
 10
1456.833821935146
 20
1435.520193304736
 30
0.0
 10
1456.833821935146
 20
1445.161472773879
 30
0.0
 10
1456.833821935146
 20
1452.62283739877
 30
0.0
 10
1456.833821935146
 20
1459.942296255977
 30
0.0
 10
1456.833821935146
 20
1466.157044780304
 30
0.0
 10
1456.833821935146
 20
1471.879533426212
 30
0.0
 10
1456.833821935146
 20
1476.764407923964
 30
0.0
 10
1456.833821935146
 20
1480.854763479475
 30
0.0
 10
1456.833821935146
 20
1484.094269422591
 30
0.0
 10
1456.833821935146
 20
1486.4949299554
 30
0.0
 10
1456.833821935146
 20
1487.952062183715
 30
0.0
 10
1456.833821935146
 20
1488.575065788865
 30
0.0
 10
1456.833821935146
 20
1488.457539860109
 30
0.0
 10
1456.833821935146
 20
1488.43392523176
 30
0.0
  0
LWPOLYLINE
  5
110B
330
A
100
AcDbEntity
  8
MODEL
100
AcDbPolyline
 90
        4
 70
   128
 43
0.0
 10
1518.914773342698
 20
1067.981345375842
 10
1519.019489390343
 20
1067.918611487215
 10
1519.019489390343
 20
1067.918596586053
 10
1519.019489390343
 20
1067.918596586053
  0
SPLINE
  5
110C
330
A
100
AcDbEntity
  8
MODEL
100
AcDbSpline
210
0.0
220
0.0
230
1.0
 70
     8
 71
     3
 72
     9
 73
     5
 74
     0
 42
0.000000001
 43
0.0000000001
 40
0.0
 40
0.0
 40
0.0
 40
0.0
 40
0.6326527769338489
 40
1.0
 40
1.0
 40
1.0
 40
1.0
 10
1514.484758702606
 20
790.0325933302098
 30
0.0
 10
1514.49347519764
 20
790.0706861340677
 30
0.0
 10
1514.507252889529
 20
790.1308973672285
 30
0.0
 10
1514.640584858721
 20
790.7368177009866
 30
0.0
 10
1514.689563987345
 20
790.9594008529834
 30
0.0
  0
ARC
  5
110D
330
A
100
AcDbEntity
  8
MODEL
100
AcDbCircle
 10
1524.104842906971
 20
787.3023861752167
 30
0.0
 40
10.00000256041002
100
AcDbArc
 50
95.0000153147566
 51
164.1559077712027
  0
LINE
  5
110E
330
A
100
AcDbEntity
  8
MODEL
100
AcDbLine
 10
1526.521820788771
 20
1059.445706924264
 30
0.0
 11
1527.851779227643
 21
1059.238312562768
 31
0.0
  0
LINE
  5
110F
330
A
100
AcDbEntity
  8
MODEL
100
AcDbLine
 10
1536.823821467849
 20
808.4152990782904
 30
0.0
 11
1536.823821467849
 21
1048.491408845251
 31
0.0
  0
SPLINE
  5
1110
330
A
100
AcDbEntity
  8
MODEL
100
AcDbSpline
210
0.0
220
0.0
230
1.0
 70
    24
 71
     3
 72
    27
 73
    23
 74
     0
 42
0.000000001
 43
0.0000000001
 40
0.0
 40
0.0
 40
0.0
 40
0.0
 40
0.1250000000000018
 40
0.1250000000000018
 40
0.1875000000000027
 40
0.1875000000000027
 40
0.2500000000000037
 40
0.2500000000000037
 40
0.3750000000000031
 40
0.3750000000000031
 40
0.5000000000000025
 40
0.5000000000000025
 40
0.6250000000000018
 40
0.6250000000000018
 40
0.6875000000000016
 40
0.6875000000000016
 40
0.7500000000000013
 40
0.8125000000000008
 40
0.8125000000000008
 40
0.8750000000000005
 40
0.8750000000000005
 40
1.0
 40
1.0
 40
1.0
 40
1.0
 10
1536.823821467849
 20
808.4153009426897
 30
0.0
 10
1536.823821467849
 20
807.7573636798057
 30
0.0
 10
1536.823821467849
 20
807.1103044093197
 30
0.0
 10
1536.823821467849
 20
806.1554362490005
 30
0.0
 10
1536.823821467849
 20
805.8397860252744
 30
0.0
 10
1536.823821467849
 20
805.2138934504856
 30
0.0
 10
1536.823821467849
 20
804.9027411991206
 30
0.0
 10
1536.823821467849
 20
803.9975583933646
 30
0.0
 10
1536.823821467849
 20
803.4251361818764
 30
0.0
 10
1536.823821467849
 20
802.3419056764113
 30
0.0
 10
1536.823821467849
 20
801.8288592252442
 30
0.0
 10
1536.823821467849
 20
800.9095750297365
 30
0.0
 10
1536.823821467849
 20
800.4972772116465
 30
0.0
 10
1536.823821467849
 20
799.9514277313224
 30
0.0
 10
1536.823821467849
 20
799.7819241495545
 30
0.0
 10
1536.823821467849
 20
799.4748248130504
 30
0.0
 10
1536.823821467849
 20
799.1974813723446
 30
0.0
 10
1536.823821467849
 20
798.9786561552254
 30
0.0
 10
1536.823821467849
 20
798.7894335380056
 30
0.0
 10
1536.823821467849
 20
798.7093681567726
 30
0.0
 10
1536.823821467849
 20
798.5174275116815
 30
0.0
 10
1536.823821467849
 20
798.4533539617705
 30
0.0
 10
1536.823821467849
 20
798.4533539617705
 30
0.0
  0
LINE
  5
1111
330
A
100
AcDbEntity
  8
MODEL
100
AcDbLine
 10
1536.823821467849
 20
798.4533587301426
 30
0.0
 11
1523.233282593581
 21
797.2643354738408
 31
0.0
  0
SPLINE
  5
1112
330
A
100
AcDbEntity
  8
MODEL
100
AcDbSpline
210
0.0
220
0.0
230
1.0
 70
    24
 71
     3
 72
    27
 73
    23
 74
     0
 42
0.000000001
 43
0.0000000001
 40
0.0
 40
0.0
 40
0.0
 40
0.0
 40
0.1250000000000033
 40
0.1250000000000033
 40
0.1875000000000042
 40
0.1875000000000042
 40
0.2500000000000052
 40
0.2500000000000052
 40
0.3750000000000052
 40
0.3750000000000052
 40
0.5000000000000052
 40
0.5000000000000052
 40
0.625000000000005
 40
0.625000000000005
 40
0.6875000000000047
 40
0.6875000000000047
 40
0.7500000000000044
 40
0.8125000000000039
 40
0.8125000000000039
 40
0.8750000000000035
 40
0.8750000000000035
 40
1.0
 40
1.0
 40
1.0
 40
1.0
 10
1536.823821467849
 20
1058.453353961771
 30
0.0
 10
1536.823821467849
 20
1058.453353961771
 30
0.0
 10
1536.823821467849
 20
1058.389289042078
 30
0.0
 10
1536.823821467849
 20
1058.200605801424
 30
0.0
 10
1536.823821467849
 20
1058.12216828378
 30
0.0
 10
1536.823821467849
 20
1057.933444087686
 30
0.0
 10
1536.823821467849
 20
1057.822604065653
 30
0.0
 10
1536.823821467849
 20
1057.448920302458
 30
0.0
 10
1536.823821467849
 20
1057.143804210167
 30
0.0
 10
1536.823821467849
 20
1056.422400534359
 30
0.0
 10
1536.823821467849
 20
1056.002086569934
 30
0.0
 10
1536.823821467849
 20
1055.083496496955
 30
0.0
 10
1536.823821467849
 20
1054.582155333214
 30
0.0
 10
1536.823821467849
 20
1053.765670474867
 30
0.0
 10
1536.823821467849
 20
1053.482648035578
 30
0.0
 10
1536.823821467849
 20
1052.907435074952
 30
0.0
 10
1536.823821467849
 20
1052.320026477712
 30
0.0
 10
1536.823821467849
 20
1051.708633237535
 30
0.0
 10
1536.823821467849
 20
1051.085107190783
 30
0.0
 10
1536.823821467849
 20
1050.765867874909
 30
0.0
 10
1536.823821467849
 20
1049.800214213138
 30
0.0
 10
1536.823821467849
 20
1049.149362331425
 30
0.0
 10
1536.823821467849
 20
1048.491406980852
 30
0.0
  0
LINE
  5
1113
330
A
100
AcDbEntity
  8
MODEL
100
AcDbLine
 10
1527.851779227643
 20
1059.238312562768
 30
0.0
 11
1536.823821467849
 21
1058.453349193399
 31
0.0
  0
SPLINE
  5
1114
330
A
100
AcDbEntity
  8
MODEL
100
AcDbSpline
210
0.0
220
0.0
230
1.0
 70
    24
 71
     3
 72
    22
 73
    18
 74
     0
 42
0.000000001
 43
0.0000000001
 40
0.0
 40
0.0
 40
0.0
 40
0.0
 40
0.2499999999999998
 40
0.2499999999999998
 40
0.3750000000000011
 40
0.3750000000000011
 40
0.5000000000000023
 40
0.5000000000000023
 40
0.6250000000000036
 40
0.6250000000000036
 40
0.7500000000000048
 40
0.7500000000000048
 40
0.8125000000000055
 40
0.8125000000000055
 40
0.875000000000006
 40
0.875000000000006
 40
1.0
 40
1.0
 40
1.0
 40
1.0
 10
1536.823821467849
 20
798.4533539617705
 30
0.0
 10
1536.823821467849
 20
798.4533539617705
 30
0.0
 10
1536.823821467849
 20
798.3129081643365
 30
0.0
 10
1536.823821467849
 20
797.8916256259995
 30
0.0
 10
1536.823821467849
 20
797.7181401178477
 30
0.0
 10
1536.823821467849
 20
797.3107978778735
 30
0.0
 10
1536.823821467849
 20
797.0764847537375
 30
0.0
 10
1536.823821467849
 20
796.5445142944385
 30
0.0
 10
1536.823821467849
 20
796.2504995295184
 30
0.0
 10
1536.823821467849
 20
795.6189602019962
 30
0.0
 10
1536.823821467849
 20
795.2798902344458
 30
0.0
 10
1536.823821467849
 20
794.7354087998624
 30
0.0
 10
1536.823821467849
 20
794.5476550395706
 30
0.0
 10
1536.823821467849
 20
794.1665484886486
 30
0.0
 10
1536.823821467849
 20
793.9724231506923
 30
0.0
 10
1536.823821467849
 20
793.3794897268175
 30
0.0
 10
1536.823821467849
 20
792.9701956078876
 30
0.0
 10
1536.823821467849
 20
792.5464696610014
 30
0.0
  0
SPLINE
  5
1115
330
A
100
AcDbEntity
  8
MODEL
100
AcDbSpline
210
0.0
220
0.0
230
1.0
 70
    24
 71
     3
 72
    16
 73
    12
 74
     0
 42
0.000000001
 43
0.0000000001
 40
0.0
 40
0.0
 40
0.0
 40
0.0
 40
0.2499999999999982
 40
0.2499999999999982
 40
0.4999999999999964
 40
0.4999999999999964
 40
0.7499999999999948
 40
0.7499999999999948
 40
0.8749999999999973
 40
0.8749999999999973
 40
1.0
 40
1.0
 40
1.0
 40
1.0
 10
1536.823821467849
 20
1060.668435574554
 30
0.0
 10
1536.823821467849
 20
1060.350644290995
 30
0.0
 10
1536.823821467849
 20
1060.055130968374
 30
0.0
 10
1536.823821467849
 20
1059.508648643555
 30
0.0
 10
1536.823821467849
 20
1059.270973805252
 30
0.0
 10
1536.823821467849
 20
1058.871479406415
 30
0.0
 10
1536.823821467849
 20
1058.717552696545
 30
0.0
 10
1536.823821467849
 20
1058.559606967292
 30
0.0
 10
1536.823821467849
 20
1058.519712428498
 30
0.0
 10
1536.823821467849
 20
1058.466784477431
 30
0.0
 10
1536.823821467849
 20
1058.453353961771
 30
0.0
 10
1536.823821467849
 20
1058.453353961771
 30
0.0
  0
LINE
  5
1116
330
A
100
AcDbEntity
  8
MODEL
100
AcDbLine
 10
1536.823821467849
 20
1081.688595732516
 30
0.0
 11
1536.823821467849
 21
1060.668436607187
 31
0.0
  0
LINE
  5
1117
330
A
100
AcDbEntity
  8
MODEL
100
AcDbLine
 10
1536.823821467849
 20
792.5464639270954
 30
0.0
 11
1536.823821467849
 21
775.2181121910266
 31
0.0
  0
LINE
  5
1118
330
A
100
AcDbEntity
  8
MODEL
100
AcDbLine
 10
1536.823821467849
 20
1090.953348001306
 30
0.0
 11
1536.823821467849
 21
1081.688595732516
 31
0.0
  0
LINE
  5
1119
330
A
100
AcDbEntity
  8
MODEL
100
AcDbLine
 10
1536.823821467849
 20
775.2181121910266
 30
0.0
 11
1536.823821467849
 21
765.9533599222354
 31
0.0
  0
SPLINE
  5
111A
330
A
100
AcDbEntity
  8
MODEL
370
     0
100
AcDbSpline
210
0.0
220
0.0
230
1.0
 70
     8
 71
     3
 72
    62
 73
    58
 74
     0
 42
0.000000001
 43
0.0000000001
 40
0.0
 40
0.0
 40
0.0
 40
0.0
 40
0.0000572414921015
 40
0.0002412370880056
 40
0.0004190349458762
 40
0.0007840188626457
 40
0.0016704110076568
 40
0.0078629477956154
 40
0.0165046416684423
 40
0.0256069996489471
 40
0.0364668140635282
 40
0.0525238810460187
 40
0.0737943232955347
 40
0.0954080180142911
 40
0.114036492494934
 40
0.1295975952081666
 40
0.1429848232021856
 40
0.1635418304365409
 40
0.1856673413652108
 40
0.2055244406991845
 40
0.2247832874278315
 40
0.2447883430375144
 40
0.2702546534908501
 40
0.2923969634198572
 40
0.3099915283851526
 40
0.3303000598161795
 40
0.3544978123007403
 40
0.3816701177664274
 40
0.4257560927300145
 40
0.4705065532194685
 40
0.5138162355664728
 40
0.5512569928263748
 40
0.5855213300567418
 40
0.6172243153580227
 40
0.6474459817563777
 40
0.674034774226038
 40
0.703564760608076
 40
0.7349514346355539
 40
0.7669327020247012
 40
0.8003319072314656
 40
0.829566617958158
 40
0.8617822007159558
 40
0.8884731257758669
 40
0.9031765335743711
 40
0.9193243335092017
 40
0.9363155233617806
 40
0.9540684015346126
 40
0.9700924258095872
 40
0.9806120219103602
 40
0.9886182801235648
 40
0.9946889541815435
 40
0.9986239379809454
 40
0.999288561544222
 40
0.9995680241931456
 40
0.9998066561272555
 40
0.9999166578028551
 40
1.0
 40
1.0
 40
1.0
 40
1.0
 10
661.7110784794205
 20
817.9347643459495
 30
0.0
 10
661.7115537092983
 20
817.9342073932877
 30
0.0
 10
661.7135565059944
 20
817.9318601861687
 30
0.0
 10
661.7099435989763
 20
817.9388757649585
 30
0.0
 10
661.7005520900053
 20
817.9560924759007
 30
0.0
 10
661.6605424759401
 20
818.0246027943518
 30
0.0
 10
661.3610709836762
 20
818.5350439464322
 30
0.0
 10
660.7359978926325
 20
819.6743248011134
 30
0.0
 10
659.8380749850554
 20
821.4672239129594
 30
0.0
 10
658.8440341016944
 20
823.6468004338036
 30
0.0
 10
657.6816731003092
 20
826.4425874392413
 30
0.0
 10
656.2760098052642
 20
830.2401847143274
 30
0.0
 10
654.7720458596814
 20
834.9612788835742
 30
0.0
 10
653.4204067829783
 20
839.9515484536546
 30
0.0
 10
652.3520312561965
 20
844.5179165502203
 30
0.0
 10
651.5425087665282
 20
848.4330385282314
 30
0.0
 10
650.7806382270753
 20
852.5216236938227
 30
0.0
 10
650.0216683823784
 20
857.1707470579504
 30
0.0
 10
649.2541941523992
 20
862.3680156204514
 30
0.0
 10
648.5869873087072
 20
867.4696170596442
 30
0.0
 10
648.0408514284132
 20
872.4069094136885
 30
0.0
 10
647.5281029649342
 20
877.8214692970088
 30
0.0
 10
647.0858226318451
 20
883.4856024686537
 30
0.0
 10
646.7386837608942
 20
888.9533464488353
 30
0.0
 10
646.4723955860907
 20
893.9917636468104
 30
0.0
 10
646.2439396534643
 20
899.2049848927354
 30
0.0
 10
646.0365470766634
 20
905.2244698271547
 30
0.0
 10
645.8380774929834
 20
913.2430391066534
 30
0.0
 10
645.7017466392422
 20
922.9902817556668
 30
0.0
 10
645.7009595949462
 20
934.0946441358763
 30
0.0
 10
645.8866441078904
 20
944.6391272519695
 30
0.0
 10
646.2228197204532
 20
954.2980820589956
 30
0.0
 10
646.6573901496271
 20
962.9766166819845
 30
0.0
 10
647.1689314512403
 20
971.0431247793904
 30
0.0
 10
647.7305500813604
 20
978.4595760852251
 30
0.0
 10
648.3571839114484
 20
985.6873040075523
 30
0.0
 10
649.0769511479522
 20
993.0046348650952
 30
0.0
 10
649.9392691836984
 20
1000.762507847424
 30
0.0
 10
650.9470454882833
 20
1008.830518862779
 30
0.0
 10
652.0539439917013
 20
1016.702568393421
 30
0.0
 10
653.2918578287023
 20
1024.574789134569
 30
0.0
 10
654.5753270608802
 20
1031.867166897057
 30
0.0
 10
655.7686114716163
 20
1037.933521683271
 30
0.0
 10
656.7700535957552
 20
1042.661958547769
 30
0.0
 10
657.6452511470234
 20
1046.585041727006
 30
0.0
 10
658.6314888277121
 20
1050.746158892262
 30
0.0
 10
659.6801814991305
 20
1054.881016753098
 30
0.0
 10
660.6608652241594
 20
1058.473062876918
 30
0.0
 10
661.4736019254561
 20
1061.25677669816
 30
0.0
 10
662.0849272627894
 20
1063.234644009239
 30
0.0
 10
662.5468771527853
 20
1064.653647841953
 30
0.0
 10
662.8398953627071
 20
1065.50509228994
 30
0.0
 10
662.9613427497603
 20
1065.8452180553
 30
0.0
 10
662.9875918602193
 20
1065.918257633698
 30
0.0
 10
662.9984784912454
 20
1065.948618185701
 30
0.0
 10
663.0020615008402
 20
1065.959006336228
 30
0.0
 10
663.0020312622583
 20
1065.959275770708
 30
0.0
 10
663.0020182277072
 20
1065.959391912286
 30
0.0
  0
SPLINE
  5
111B
330
A
100
AcDbEntity
  8
MODEL
100
AcDbSpline
210
0.0
220
0.0
230
1.0
 70
     9
 71
     3
 72
   212
 73
   208
 74
     0
 42
0.000000001
 43
0.0000000001
 40
0.0
 40
0.0
 40
0.0
 40
0.0
 40
0.034383055574777
 40
0.0521893370648201
 40
0.0703675102209527
 40
0.0888777241524207
 40
0.1076705155589501
 40
0.1266873306331736
 40
0.1458617607621357
 40
0.1651215201346234
 40
0.1843909767207975
 40
0.2035940026745138
 40
0.2133232871551134
 40
0.2226590869406803
 40
0.2323312774593244
 40
0.2415163360094475
 40
0.2508475099986618
 40
0.2554861188249815
 40
0.2601054084795906
 40
0.2647046526378058
 40
0.2692831332549176
 40
0.2704244750373627
 40
0.2715644598058409
 40
0.2721339613560538
 40
0.2727030646330036
 40
0.2732718589802277
 40
0.2738403090200704
 40
0.2744895077297985
 40
0.2751383224432907
 40
0.2761106399285529
 40
0.2772437249936484
 40
0.2783753745584447
 40
0.2828858985090656
 40
0.2873731915005724
 40
0.291836722064486
 40
0.2962759953523822
 40
0.3006905462552731
 40
0.3050799494765268
 40
0.3094439339462765
 40
0.3116185111172348
 40
0.313783842465359
 40
0.3181130038613514
 40
0.322444609832039
 40
0.3246101200871742
 40
0.3267752431602351
 40
0.3311035304966645
 40
0.3354304034129058
 40
0.3397555890164832
 40
0.3419180702948013
 40
0.3429992002464836
 40
0.3440802037649378
 40
0.3446978657081574
 40
0.3453154487705588
 40
0.3462417608000938
 40
0.3473221856704896
 40
0.3484025139334495
 40
0.3496370265258597
 40
0.3505627844050346
 40
0.3527223775679855
 40
0.357039207471824
 40
0.3613528033400618
 40
0.3656628728090673
 40
0.3740174106551962
 40
0.3828609609169645
 40
0.3912279503912126
 40
0.399980115452392
 40
0.4170006897685711
 40
0.4339080121017885
 40
0.4506862992288245
 40
0.4673211718208897
 40
0.4837996458868026
 40
0.500110127620752
 40
0.5321856039033158
 40
0.5634848972554959
 40
0.59396282387184
 40
0.6087622761544055
 40
0.6235909834436497
 40
0.6306580948363947
 40
0.6377197632671061
 40
0.641120350815719
 40
0.6445174185402614
 40
0.6453579238967472
 40
0.6461933143222137
 40
0.6470269799161387
 40
0.6478606455100637
 40
0.6479643457967941
 40
0.6480679514839782
 40
0.6481722792492018
 40
0.6482766274859319
 40
0.6484793466126061
 40
0.6485281590093532
 40
0.6485767391202418
 40
0.6486755042533261
 40
0.6487800457979793
 40
0.6488333336206621
 40
0.648886030010986
 40
0.6489891308185623
 40
0.6490915899894855
 40
0.6492989516931738
 40
0.6495066162834786
 40
0.6496412684745521
 40
0.6497758839280392
 40
0.6499111488887878
 40
0.6499785821913328
 40
0.650045852951344
 40
0.6501470899255671
 40
0.6502481272228476
 40
0.6502986808530985
 40
0.6503492247707602
 40
0.6504502440881264
 40
0.6511566691397807
 40
0.6554718596560521
 40
0.6597852325781512
 40
0.664100418259194
 40
0.6766613825043148
 40
0.6889410130980052
 40
0.6950020195774993
 40
0.6965106200253707
 40
0.6968493202895757
 40
0.6972638855523068
 40
0.6974524048365114
 40
0.697640924120716
 40
0.6978276425277153
 40
0.6980177086857264
 40
0.6982032290181199
 40
0.698294337817996
 40
0.6983962059684098
 40
0.6984949481683042
 40
0.6985355841990693
 40
0.698572672896812
 40
0.6986617962372943
 40
0.6987244515646769
 40
0.698768771798393
 40
0.6987908901288743
 40
0.6988165948266368
 40
0.698837394784981
 40
0.698864438035678
 40
0.6988801142605813
 40
0.6988867512259396
 40
0.6988946804472728
 40
0.6989032406311999
 40
0.698917337616844
 40
0.6989313477693414
 40
0.6989402057200686
 40
0.6989479921895912
 40
0.6989547255361802
 40
0.6989638523909358
 40
0.6989778986758677
 40
0.6989971837024714
 40
0.6990218239514529
 40
0.6990454242426818
 40
0.6990790234126423
 40
0.6991225431497537
 40
0.6992186989762055
 40
0.6994055053471918
 40
0.6997811890338427
 40
0.7001566476280513
 40
0.7009071701529526
 40
0.7068949414977606
 40
0.7128536314763215
 40
0.7188076110243939
 40
0.7247280134151007
 40
0.7306765807381818
 40
0.7365880353616391
 40
0.7425589789860934
 40
0.7484907248903734
 40
0.7544763685211155
 40
0.7604952186993746
 40
0.7665554089901398
 40
0.7726657191820668
 40
0.7788358595774642
 40
0.7850758716869707
 40
0.7913972557995336
 40
0.7978135981159765
 40
0.8044130550852914
 40
0.8109889941414431
 40
0.8177159859663426
 40
0.8210861732575855
 40
0.8244607191948219
 40
0.8278400104309673
 40
0.8312243205780644
 40
0.8380078126865628
 40
0.8448152323711749
 40
0.8516494957678002
 40
0.8585135600497102
 40
0.8654104408929946
 40
0.8723433285287203
 40
0.8793155594263406
 40
0.8863306367230377
 40
0.8933922635690576
 40
0.9005043694562091
 40
0.9076711211362891
 40
0.914896971077313
 40
0.9185340649844613
 40
0.9221877394321587
 40
0.9258588136023519
 40
0.9295477106103655
 40
0.9369816509533231
 40
0.9444961371243664
 40
0.952097751057142
 40
0.9598398400408708
 40
0.9675918072898076
 40
0.9715322752070647
 40
0.9755016953780536
 40
0.9800751842652458
 40
0.9835323240839423
 40
1.0
 40
1.0
 40
1.0
 40
1.0
 10
952.2094293869857
 20
928.4533626145503
 30
0.0
 10
952.2606715835317
 20
951.5950055234142
 30
0.0
 10
951.6278785604807
 20
986.7257396329897
 30
0.0
 10
949.2922664619616
 20
1034.030166003068
 30
0.0
 10
946.6698891025517
 20
1070.616004340373
 30
0.0
 10
943.1240788753203
 20
1107.791205562135
 30
0.0
 10
938.5738024762323
 20
1145.426193197957
 30
0.0
 10
932.9290888146353
 20
1183.365574895747
 30
0.0
 10
926.0875086175515
 20
1221.428082847176
 30
0.0
 10
917.9285163086674
 20
1259.40614154425
 30
0.0
 10
908.3035524739385
 20
1297.061340406299
 30
0.0
 10
898.8501782889875
 20
1328.110306743846
 30
0.0
 10
890.3285188413503
 20
1352.418833769284
 30
0.0
 10
883.3647045725555
 20
1370.466155521041
 30
0.0
 10
875.9155078821457
 20
1387.922665222266
 30
0.0
 10
867.7663470264999
 20
1405.060719891168
 30
0.0
 10
860.4225042486179
 20
1418.814446929421
 30
0.0
 10
854.0677891389497
 20
1429.593248751627
 30
0.0
 10
849.0803683486374
 20
1437.475862208137
 30
0.0
 10
843.8617708131717
 20
1445.158305589614
 30
0.0
 10
839.7770550136625
 20
1450.776779054148
 30
0.0
 10
836.9868069429946
 20
1454.455052059036
 30
0.0
 10
835.8168540686495
 20
1455.97580889694
 30
0.0
 10
834.8674977468981
 20
1457.180223685014
 30
0.0
 10
834.1392054912468
 20
1458.069225905122
 30
0.0
 10
833.3862348928633
 20
1458.936615273074
 30
0.0
 10
832.5675861234488
 20
1459.817470321608
 30
0.0
 10
831.6849466130184
 20
1460.71149289606
 30
0.0
 10
830.5920481195395
 20
1461.779387321302
 30
0.0
 10
829.2580251753383
 20
1463.06640265589
 30
0.0
 10
827.6766539978785
 20
1464.565164579843
 30
0.0
 10
824.2927942564024
 20
1467.622073633794
 30
0.0
 10
818.9430516167412
 20
1471.869256899475
 30
0.0
 10
811.3039439032215
 20
1476.767383497835
 30
0.0
 10
803.2543682772667
 20
1480.85320781568
 30
0.0
 10
794.8834117268233
 20
1484.09754696276
 30
0.0
 10
786.2804016080846
 20
1486.483480922246
 30
0.0
 10
777.5329858840265
 20
1487.994200648684
 30
0.0
 10
770.1844190391827
 20
1488.520025765633
 30
0.0
 10
764.3246441497833
 20
1488.522537868216
 30
0.0
 10
758.4947149508487
 20
1488.246196533431
 30
0.0
 10
751.2486505934467
 20
1487.37135106943
 30
0.0
 10
744.1240790281518
 20
1485.786152465277
 30
0.0
 10
738.5384876786527
 20
1484.109221136788
 30
0.0
 10
733.0429098000677
 20
1482.164109476043
 30
0.0
 10
726.3616900827216
 20
1479.23554004371
 30
0.0
 10
718.7268134711303
 20
1474.962695226031
 30
0.0
 10
712.7394406974781
 20
1470.8021863474
 30
0.0
 10
708.7779460535094
 20
1467.596993998603
 30
0.0
 10
706.5826983452244
 20
1465.685462442235
 30
0.0
 10
705.2004101245585
 20
1464.424546227493
 30
0.0
 10
704.0600713531386
 20
1463.36164084801
 30
0.0
 10
702.9977757185553
 20
1462.367679174052
 30
0.0
 10
701.7229793413973
 20
1461.145101484954
 30
0.0
 10
700.2762459571022
 20
1459.652206074805
 30
0.0
 10
698.7952387126677
 20
1457.910641105454
 30
0.0
 10
697.4328386044037
 20
1456.207535936243
 30
0.0
 10
695.6318453137217
 20
1453.925115698324
 30
0.0
 10
692.5866246875377
 20
1449.982125109573
 30
0.0
 10
688.2782153290428
 20
1444.134839612489
 30
0.0
 10
683.3223482637404
 20
1436.971453443556
 30
0.0
 10
677.1070953208292
 20
1427.380996166329
 30
0.0
 10
669.7460268679793
 20
1414.90886577681
 30
0.0
 10
661.7098110962544
 20
1399.688653748869
 30
0.0
 10
654.1770953921151
 20
1383.917793354726
 30
0.0
 10
645.0026513466733
 20
1362.847689152842
 30
0.0
 10
634.7493158720681
 20
1335.998165480524
 30
0.0
 10
624.1338318141502
 20
1303.553790042287
 30
0.0
 10
614.9113312089103
 20
1270.958358660814
 30
0.0
 10
606.8948609540163
 20
1238.345000871363
 30
0.0
 10
599.9417363825565
 20
1205.811479284422
 30
0.0
 10
591.9854858086183
 20
1162.882802115972
 30
0.0
 10
584.1624197303391
 20
1109.804921414158
 30
0.0
 10
577.6207737769984
 20
1046.963331007567
 30
0.0
 10
574.2552435693834
 20
995.5223176309672
 30
0.0
 10
572.7030415060613
 20
955.0975670751595
 30
0.0
 10
572.1883845105331
 20
930.4045840072953
 30
0.0
 10
572.0334971344783
 20
910.9158876983064
 30
0.0
 10
572.0382739639132
 20
899.1180035797897
 30
0.0
 10
572.0999074808026
 20
889.7905011221604
 30
0.0
 10
572.1545473056322
 20
884.6500915514207
 30
0.0
 10
572.1996226065531
 20
881.2361518962516
 30
0.0
 10
572.2232861352643
 20
879.5473160015761
 30
0.0
 10
572.2498584553615
 20
877.8631293757227
 30
0.0
 10
572.2655235199924
 20
876.6712754260092
 30
0.0
 10
572.2799144558304
 20
875.9708161501485
 30
0.0
 10
572.2860761845155
 20
875.7611691640137
 30
0.0
 10
572.2863809415862
 20
875.5509301409347
 30
0.0
 10
572.2864020011185
 20
875.2743027364287
 30
0.0
 10
572.2971763188293
 20
875.0335391058335
 30
0.0
 10
572.3386895374683
 20
874.8357113416505
 30
0.0
 10
572.3685274795603
 20
874.7072043621383
 30
0.0
 10
572.3977372929554
 20
874.5393518325302
 30
0.0
 10
572.3919258703063
 20
874.3660660906545
 30
0.0
 10
572.3853168370403
 20
874.2246257872844
 30
0.0
 10
572.3822310611214
 20
874.0838743990407
 30
0.0
 10
572.3895197268944
 20
873.9101356231854
 30
0.0
 10
572.4035528026612
 20
873.6325872776514
 30
0.0
 10
572.4056670648575
 20
873.2842137428024
 30
0.0
 10
572.4089742776993
 20
872.9142859462676
 30
0.0
 10
572.4193168633101
 20
872.5934510224115
 30
0.0
 10
572.4285519622791
 20
872.3213401892076
 30
0.0
 10
572.4313937442931
 20
872.0943260068393
 30
0.0
 10
572.4360374316353
 20
871.9126869124975
 30
0.0
 10
572.4416373666643
 20
871.7539882024803
 30
0.0
 10
572.4448851395501
 20
871.5725995079496
 30
0.0
 10
572.4503379712801
 20
871.4025249932547
 30
0.0
 10
572.4538406228244
 20
871.2665279424637
 30
0.0
 10
572.4575325439542
 20
871.1305480656966
 30
0.0
 10
572.4743035465113
 20
870.5533427670392
 30
0.0
 10
572.5799546194253
 20
867.1072958281083
 30
0.0
 10
572.8819727826413
 20
860.8308496299304
 30
0.0
 10
573.5507657531853
 20
852.1438150793265
 30
0.0
 10
575.0584268543462
 20
837.9612478577197
 30
0.0
 10
578.2388466080343
 20
818.5721081224631
 30
0.0
 10
583.3115888320356
 20
798.3771753902997
 30
0.0
 10
587.3599455294793
 20
785.6426939213576
 30
0.0
 10
589.1000924913352
 20
780.6126127294783
 30
0.0
 10
589.6073323862735
 20
779.1773096572815
 30
0.0
 10
589.8197935154896
 20
778.5801324652075
 30
0.0
 10
589.9989322190882
 20
778.0783808478537
 30
0.0
 10
590.1285007835943
 20
777.7217647079397
 30
0.0
 10
590.2557155297405
 20
777.3631938873236
 30
0.0
 10
590.3868138167492
 20
777.0081710676986
 30
0.0
 10
590.4938476062745
 20
776.7128832730755
 30
0.0
 10
590.5768315431193
 20
776.4719862702345
 30
0.0
 10
590.6496418552993
 20
776.2896380552498
 30
0.0
 10
590.7101608681152
 20
776.1388760997156
 30
0.0
 10
590.7463194609014
 20
776.0256805776894
 30
0.0
 10
590.7755839288402
 20
775.9172730519285
 30
0.0
 10
590.8174867728522
 20
775.7969056810993
 30
0.0
 10
590.8732187786955
 20
775.6772129059913
 30
0.0
 10
590.9096343965435
 20
775.5983466937996
 30
0.0
 10
590.9356622876872
 20
775.5420386804268
 30
0.0
 10
590.9541499401962
 20
775.4997684045466
 30
0.0
 10
590.9735169721536
 20
775.4540194085284
 30
0.0
 10
590.9862837594483
 20
775.4137902132074
 30
0.0
 10
590.9966535749414
 20
775.3809708219137
 30
0.0
 10
590.9869947504262
 20
775.3600142936493
 30
0.0
 10
590.9690893050502
 20
775.3602817824443
 30
0.0
 10
590.9500277836703
 20
775.3663942230205
 30
0.0
 10
590.9269551901854
 20
775.3757325329726
 30
0.0
 10
590.9037709726213
 20
775.3850682107963
 30
0.0
 10
590.8845827718902
 20
775.3914576751644
 30
0.0
 10
590.8670834995132
 20
775.3921399493207
 30
0.0
 10
590.8572146391272
 20
775.3771546812144
 30
0.0
 10
590.8584332551692
 20
775.3566702329345
 30
0.0
 10
590.8632581269562
 20
775.3286055072102
 30
0.0
 10
590.8740629703685
 20
775.2909950495822
 30
0.0
 10
590.8886738317634
 20
775.2479829419476
 30
0.0
 10
590.9081518954922
 20
775.1964466313373
 30
0.0
 10
590.9328887934463
 20
775.1333392220786
 30
0.0
 10
590.9756424272601
 20
775.0248373251825
 30
0.0
 10
591.0533748706654
 20
774.8193089941507
 30
0.0
 10
591.2067418212282
 20
774.4033986869485
 30
0.0
 10
591.4300017889693
 20
773.8129266144473
 30
0.0
 10
591.7888385787667
 20
772.8681141495335
 30
0.0
 10
593.5144697202563
 20
768.4021757219392
 30
0.0
 10
596.8424209941114
 20
760.5258120561424
 30
0.0
 10
602.1543245842332
 20
749.7057289839002
 30
0.0
 10
608.0505801324695
 20
739.2440988173852
 30
0.0
 10
614.5394835372863
 20
729.1474119559516
 30
0.0
 10
621.5923554506883
 20
719.4712370597637
 30
0.0
 10
629.2348178468274
 20
710.2093040457636
 30
0.0
 10
637.4199510607942
 20
701.4381005351182
 30
0.0
 10
646.1742455771853
 20
693.1617256552726
 30
0.0
 10
655.4626612219912
 20
685.4383209106245
 30
0.0
 10
665.3071055929073
 20
678.2884273947725
 30
0.0
 10
675.6808065819933
 20
671.7706066000113
 30
0.0
 10
686.5690661582635
 20
665.9343900698594
 30
0.0
 10
697.9536755885858
 20
660.8327701493553
 30
0.0
 10
709.8124578208154
 20
656.5212961976294
 30
0.0
 10
722.1199935740006
 20
653.0614147072565
 30
0.0
 10
734.8901884223056
 20
650.4897628483686
 30
0.0
 10
747.9902688970765
 20
648.8737240518327
 30
0.0
 10
761.3842791390018
 20
648.2771365501985
 30
0.0
 10
772.6149348283435
 20
648.6700905680136
 30
0.0
 10
781.6328859457686
 20
649.6406096111904
 30
0.0
 10
788.3688495141615
 20
650.6814658645902
 30
0.0
 10
795.0663536287393
 20
651.9938179427563
 30
0.0
 10
803.9471956956695
 20
654.0644898994733
 30
0.0
 10
814.9216757229041
 20
657.2859377221184
 30
0.0
 10
827.7706990416774
 20
662.2128173172614
 30
0.0
 10
840.2387594780558
 20
668.1631011954104
 30
0.0
 10
852.2556432936696
 20
675.0993018101085
 30
0.0
 10
863.7587722071337
 20
682.9751591537148
 30
0.0
 10
874.6904495317723
 20
691.7429551372634
 30
0.0
 10
884.9988660674496
 20
701.3521808473532
 30
0.0
 10
894.6372792002295
 20
711.7512979472604
 30
0.0
 10
903.5630401616073
 20
722.8886235857002
 30
0.0
 10
911.7377650995047
 20
734.7124199162946
 30
0.0
 10
919.1249589820984
 20
747.1716059385666
 30
0.0
 10
924.5847670979166
 20
758.0200008451665
 30
0.0
 10
928.5244520874767
 20
766.9622452509806
 30
0.0
 10
931.2731111600475
 20
773.8100093777557
 30
0.0
 10
933.8452685993942
 20
780.7627420916913
 30
0.0
 10
937.0713911738276
 20
790.1831232982744
 30
0.0
 10
940.6960072987136
 20
802.1973286482117
 30
0.0
 10
944.3436529819376
 20
816.9357474160431
 30
0.0
 10
947.2788834212074
 20
832.0441743312416
 30
0.0
 10
949.4537781738763
 20
847.4421763297804
 30
0.0
 10
950.6065881548604
 20
860.4777640851185
 30
0.0
 10
951.1274981474416
 20
871.0063912527486
 30
0.0
 10
951.4081576645143
 20
879.4034818387453
 30
0.0
 10
951.6343589831889
 20
887.4766718980186
 30
0.0
 10
952.0252626604088
 20
903.9600855165565
 30
0.0
 10
952.1848870689206
 20
917.3697323432516
 30
0.0
 10
952.2094293869857
 20
928.4533626145503
 30
0.0
  0
LINE
  5
111C
330
A
100
AcDbEntity
  8
MODEL
100
AcDbLine
 10
584.5359790767544
 20
794.9101457203087
 30
0.0
 11
584.8453867877834
 21
793.7854954803634
 31
0.0
  0
SPLINE
  5
111D
330
A
100
AcDbEntity
  8
MODEL
100
AcDbSpline
210
0.0
220
0.0
230
1.0
 70
     8
 71
     3
 72
     8
 73
     4
 74
     0
 42
0.000000001
 43
0.0000000001
 40
0.6410206360243793
 40
0.6410206360243793
 40
0.6410206360243793
 40
0.6410206360243793
 40
0.6411659724393275
 40
0.6411659724393275
 40
0.6411659724393275
 40
0.6411659724393275
 10
584.9018398766562
 20
793.5962301359336
 30
0.0
 10
584.8800515776935
 20
793.6691896774363
 30
0.0
 10
584.8582893687163
 20
793.7421630268813
 30
0.0
 10
584.8365532604581
 20
793.8151501894402
 30
0.0
  0
SPLINE
  5
111E
330
A
100
AcDbEntity
  8
MODEL
100
AcDbSpline
210
0.0
220
0.0
230
1.0
 70
     8
 71
     3
 72
     9
 73
     5
 74
     0
 42
0.000000001
 43
0.0000000001
 40
0.0
 40
0.0
 40
0.0
 40
0.0
 40
0.7011884660195889
 40
1.0
 40
1.0
 40
1.0
 40
1.0
 10
582.0192586327904
 20
803.0147829855136
 30
0.0
 10
581.7055133333192
 20
803.7974880035486
 30
0.0
 10
581.2580654435151
 20
804.9137428422637
 30
0.0
 10
581.2206185225692
 20
806.1060140098932
 30
0.0
 10
581.2094289506782
 20
806.4622783864196
 30
0.0
  0
LINE
  5
1132
330
A
100
AcDbEntity
  8
MODEL
100
AcDbLine
 10
1536.823821467849
 20
2313.688872583906
 30
0.0
 11
1540.573821384027
 21
2313.688872583906
 31
0.0
  0
LINE
  5
1133
330
A
100
AcDbEntity
  8
MODEL
100
AcDbLine
 10
1540.573821384027
 20
2271.77887243847
 30
0.0
 11
1536.823821467849
 21
2271.77887243847
 31
0.0
  0
SPLINE
  5
1155
330
A
100
AcDbEntity
  8
MODEL
100
AcDbSpline
210
0.0
220
0.0
230
1.0
 70
     8
 71
     3
 72
    57
 73
    53
 74
     0
 42
0.000000001
 43
0.0000000001
 40
0.0
 40
0.0
 40
0.0
 40
0.0
 40
0.0012926230838763
 40
0.009362846313637
 40
0.0205003538161906
 40
0.0343189177524525
 40
0.050457728448388
 40
0.0685816057852995
 40
0.0981816290586
 40
0.130517619790882
 40
0.1648050293098342
 40
0.2003493935205809
 40
0.2365476672955274
 40
0.2728882743622573
 40
0.3089382697920451
 40
0.3443362488273005
 40
0.3874608330258268
 40
0.4286336226277082
 40
0.4675108048526809
 40
0.503623188736052
 40
0.5364745878943788
 40
0.5643068029526925
 40
0.5888491136029615
 40
0.6102716257801802
 40
0.6289327054887496
 40
0.6502132755486702
 40
0.6677135873149589
 40
0.6819442522770422
 40
0.6933083467323549
 40
0.7021178233433798
 40
0.7182132043459538
 40
0.7360405627914848
 40
0.7503679962607132
 40
0.7651537969800058
 40
0.7801984099175961
 40
0.7944989849325708
 40
0.8066933771426672
 40
0.8172899188479519
 40
0.8268440778570807
 40
0.8359090253410712
 40
0.8419400029677889
 40
0.8481099146827977
 40
0.8548938335721059
 40
0.8663535414694681
 40
0.8813765749692148
 40
0.9000754131946017
 40
0.9225449714676472
 40
0.9386396061328936
 40
0.9562830482484464
 40
0.9754747428866503
 40
0.9933331152841264
 40
1.0
 40
1.0
 40
1.0
 40
1.0
 10
1526.191396852522
 20
2235.123386808435
 30
0.0
 10
1526.18486144815
 20
2234.990934912113
 30
0.0
 10
1526.13752360658
 20
2234.031547164279
 30
0.0
 10
1526.066507178246
 20
2231.924231596608
 30
0.0
 10
1525.936162344464
 20
2228.530822585763
 30
0.0
 10
1525.76319605231
 20
2224.307381995216
 30
0.0
 10
1525.530357642088
 20
2219.367378054176
 30
0.0
 10
1525.176191807278
 20
2212.808089718184
 30
0.0
 10
1524.650663058426
 20
2204.590033974001
 30
0.0
 10
1523.890653906602
 20
2194.722161267102
 30
0.0
 10
1522.933770541611
 20
2184.257703431129
 30
0.0
 10
1521.771122176212
 20
2173.414941651758
 30
0.0
 10
1520.398598524178
 20
2162.384382918191
 30
0.0
 10
1518.817690110736
 20
2151.329752905997
 30
0.0
 10
1517.033858963744
 20
2140.389984858904
 30
0.0
 10
1514.894628454644
 20
2128.804695208234
 30
0.0
 10
1512.355312472264
 20
2116.761764229439
 30
0.0
 10
1509.369038284312
 20
2104.454378067353
 30
0.0
 10
1506.165402973308
 20
2092.94988958792
 30
0.0
 10
1502.861979205689
 20
2082.369108085416
 30
0.0
 10
1499.654734125626
 20
2072.953529434232
 30
0.0
 10
1496.646318746956
 20
2064.731280191253
 30
0.0
 10
1493.899326209757
 20
2057.668155675461
 30
0.0
 10
1491.376114405129
 20
2051.533191825704
 30
0.0
 10
1488.877374636697
 20
2045.755055744758
 30
0.0
 10
1486.438148168457
 20
2040.395238305337
 30
0.0
 10
1484.094193937439
 20
2035.498358592198
 30
0.0
 10
1482.12675392368
 20
2031.554627131056
 30
0.0
 10
1480.516331915856
 20
2028.431153501628
 30
0.0
 10
1478.790127028627
 20
2025.166888902506
 30
0.0
 10
1476.704301727255
 20
2021.340154967086
 30
0.0
 10
1474.26977111413
 20
2017.03956069161
 30
0.0
 10
1471.846171354409
 20
2012.88023682607
 30
0.0
 10
1469.533826583207
 20
2008.980173530352
 30
0.0
 10
1467.216212540884
 20
2005.084311398572
 30
0.0
 10
1465.062120997376
 20
2001.391794307679
 30
0.0
 10
1463.2109595099
 20
1998.059166966432
 30
0.0
 10
1461.718728287928
 20
1995.162101592261
 30
0.0
 10
1460.543356511746
 20
1992.644632751272
 30
0.0
 10
1459.743136961162
 20
1990.720834289208
 30
0.0
 10
1459.202123032355
 20
1989.285295734615
 30
0.0
 10
1458.816720327512
 20
1988.17529496962
 30
0.0
 10
1458.444401376513
 20
1987.010941970231
 30
0.0
 10
1458.090330447008
 20
1985.78065605884
 30
0.0
 10
1457.734618495233
 20
1984.364968922285
 30
0.0
 10
1457.414829908386
 20
1982.834700219126
 30
0.0
 10
1457.185955025339
 20
1981.430381295806
 30
0.0
 10
1457.026372576835
 20
1980.142492948067
 30
0.0
 10
1456.92124914366
 20
1978.983417993997
 30
0.0
 10
1456.856647186916
 20
1977.842745360166
 30
0.0
 10
1456.834885650046
 20
1976.938070574176
 30
0.0
 10
1456.834072721842
 20
1976.45847217958
 30
0.0
 10
1456.833851737469
 20
1976.328099348347
 30
0.0
  0
LINE
  5
1156
330
A
100
AcDbEntity
  8
MODEL
100
AcDbLine
 10
1446.823817891568
 20
2349.902084299128
 30
0.0
 11
1456.833821935146
 21
2349.902084299128
 31
0.0
  0
LINE
  5
1157
330
A
100
AcDbEntity
  8
MODEL
100
AcDbLine
 10
1456.833821935146
 20
1969.729716160098
 30
0.0
 11
1446.823817891568
 21
1969.729716160098
 31
0.0
  0
SPLINE
  5
1158
102
{ACAD_REACTORS
330
119B
102
}
330
A
100
AcDbEntity
  8
MODEL
100
AcDbSpline
210
0.0
220
0.0
230
1.0
 70
     8
 71
     3
 72
    23
 73
    19
 74
     0
 42
0.000000001
 43
0.0000000001
 40
0.0
 40
0.0
 40
0.0
 40
0.0
 40
0.1007998974777278
 40
0.1968068480934145
 40
0.2832057437339193
 40
0.3600440924545991
 40
0.4273731811840111
 40
0.4852572154399929
 40
0.5337893023398182
 40
0.5731229591095738
 40
0.6036288525775492
 40
0.6347631119752223
 40
0.6736742438690781
 40
0.7210668543972611
 40
0.7772764362198331
 40
0.8424596524079117
 40
0.9166854423947004
 40
1.0
 40
1.0
 40
1.0
 40
1.0
 10
1456.840080422848
 20
2349.867476352254
 30
0.0
 10
1460.232798216185
 20
2349.140419225169
 30
0.0
 10
1466.856913042524
 20
2347.720875900745
 30
0.0
 10
1476.433806361489
 20
2346.0218449055
 30
0.0
 10
1485.209586753343
 20
2344.668880778289
 30
0.0
 10
1493.010105859289
 20
2343.645804280514
 30
0.0
 10
1499.825332906083
 20
2342.88340596949
 30
0.0
 10
1505.646367070534
 20
2342.328519299835
 30
0.0
 10
1510.478025589862
 20
2341.934344342797
 30
0.0
 10
1514.303484148873
 20
2341.664496163427
 30
0.0
 10
1517.471781503686
 20
2341.468572253606
 30
0.0
 10
1520.109270980574
 20
2341.328235025456
 30
0.0
 10
1522.649906076767
 20
2341.211165838851
 30
0.0
 10
1525.303284283725
 20
2341.105053758566
 30
0.0
 10
1528.060353781876
 20
2341.008343930324
 30
0.0
 10
1530.923061201623
 20
2340.917931850342
 30
0.0
 10
1533.903149879628
 20
2340.818808297842
 30
0.0
 10
1535.813526655362
 20
2340.763253076283
 30
0.0
 10
1536.823821467849
 20
2340.733872928421
 30
0.0
  0
ARC
  5
1159
102
{ACAD_REACTORS
330
119B
102
}
330
A
100
AcDbEntity
  8
MODEL
100
AcDbCircle
 10
1536.361613402029
 20
2234.563493028149
 30
0.0
 40
10.18087693301142
100
AcDbArc
 50
87.39789829766698
 51
176.8548809772954
  0
LINE
  5
115A
330
A
100
AcDbEntity
  8
MODEL
100
AcDbLine
 10
1540.593746564854
 20
2279.12523617665
 30
0.0
 11
1540.573821384027
 21
2279.14764938573
 31
0.0
  0
LINE
  5
1160
330
A
100
AcDbEntity
  8
MODEL
100
AcDbLine
 10
1540.593746564854
 20
2279.12523617665
 30
0.0
 11
1540.573821384027
 21
2279.12523617665
 31
0.0
  0
LINE
  5
1161
330
A
100
AcDbEntity
  8
MODEL
100
AcDbLine
 10
1540.573821384027
 20
2271.77887243847
 30
0.0
 11
1540.573821384027
 21
2313.688872583906
 31
0.0
  0
LINE
  5
1162
330
A
100
AcDbEntity
  8
MODEL
100
AcDbLine
 10
1540.573821384027
 20
2271.77887243847
 30
0.0
 11
1540.573821384027
 21
2271.784823589722
 31
0.0
  0
LINE
  5
1165
330
A
100
AcDbEntity
  8
MODEL
100
AcDbLine
 10
1526.131332134396
 20
2235.12631488661
 30
0.0
 11
1526.128827807992
 21
2235.122969575922
 31
0.0
  0
LINE
  5
1166
330
A
100
AcDbEntity
  8
MODEL
100
AcDbLine
 10
1446.823817891568
 20
2349.875642188588
 30
0.0
 11
1446.823817891568
 21
1969.733858682911
 31
0.0
  0
SPLINE
  5
1167
330
A
100
AcDbEntity
  8
MODEL
100
AcDbSpline
210
0.0
220
0.0
230
1.0
 70
    24
 71
     3
 72
    14
 73
    10
 74
     0
 42
0.000000001
 43
0.0000000001
 40
0.0
 40
0.0
 40
0.0
 40
0.0
 40
0.1339073749543027
 40
0.2991259559153318
 40
0.4602815136496465
 40
0.6178740866791533
 40
0.7725443313804526
 40
0.8868375902304769
 40
1.0
 40
1.0
 40
1.0
 40
1.0
 10
1456.833821935146
 20
2349.883938410083
 30
0.0
 10
1456.833821935146
 20
2349.878578111068
 30
0.0
 10
1456.833821935146
 20
2349.866604128536
 30
0.0
 10
1456.833821935146
 20
2349.605263753813
 30
0.0
 10
1456.833821935146
 20
2348.632212109802
 30
0.0
 10
1456.833821935146
 20
2346.536324906036
 30
0.0
 10
1456.833821935146
 20
2343.742772327944
 30
0.0
 10
1456.833821935146
 20
2340.576927505147
 30
0.0
 10
1456.833821935146
 20
2338.253735798859
 30
0.0
 10
1456.833821935146
 20
2337.097915091316
 30
0.0
  0
SPLINE
  5
1168
330
A
100
AcDbEntity
  8
MODEL
100
AcDbSpline
210
0.0
220
0.0
230
1.0
 70
    24
 71
     3
 72
    25
 73
    21
 74
     0
 42
0.000000001
 43
0.0000000001
 40
0.6430823997923829
 40
0.6430823997923829
 40
0.6430823997923829
 40
0.6430823997923829
 40
0.6439589535679671
 40
0.6458077305155929
 40
0.6476565074632187
 40
0.6485808959370316
 40
0.6495052844108445
 40
0.6499674786477509
 40
0.6504296728846574
 40
0.6508918671215638
 40
0.6513540613584703
 40
0.6515851584769235
 40
0.6518162555953767
 40
0.6522784498322832
 40
0.6525095469507364
 40
0.6527406440691897
 40
0.6529717411876429
 40
0.6532028383060962
 40
0.6534339354245493
 40
0.6536493623452893
 40
0.6536493623452893
 40
0.6536493623452893
 40
0.6536493623452893
 10
1456.833821467848
 20
2336.165968236882
 30
0.0
 10
1456.833821467848
 20
2336.0304217404
 30
0.0
 10
1456.833821467848
 20
2335.606058568495
 30
0.0
 10
1456.833821467848
 20
2334.878593887177
 30
0.0
 10
1456.833821467848
 20
2334.122697549018
 30
0.0
 10
1456.833821467848
 20
2333.505656566329
 30
0.0
 10
1456.833821467848
 20
2333.114744209936
 30
0.0
 10
1456.833821467848
 20
2332.799146085837
 30
0.0
 10
1456.833821467848
 20
2332.560510153428
 30
0.0
 10
1456.833821467848
 20
2332.321233726992
 30
0.0
 10
1456.833821467848
 20
2332.119048348094
 30
0.0
 10
1456.833821467848
 20
2331.958933738588
 30
0.0
 10
1456.833821467848
 20
2331.793146032837
 30
0.0
 10
1456.833821467848
 20
2331.637533620462
 30
0.0
 10
1456.833821467848
 20
2331.461663487712
 30
0.0
 10
1456.833821467848
 20
2331.36227024518
 30
0.0
 10
1456.833821467848
 20
2331.189692574135
 30
0.0
 10
1456.833821467848
 20
2331.161162929614
 30
0.0
 10
1456.833821467848
 20
2330.852675653417
 30
0.0
 10
1456.833821467848
 20
2331.04022405839
 30
0.0
 10
1456.833821467848
 20
2331.072699101726
 30
0.0
  0
SPLINE
  5
1169
330
A
100
AcDbEntity
  8
MODEL
100
AcDbSpline
210
0.0
220
0.0
230
1.0
 70
    24
 71
     3
 72
     9
 73
     5
 74
     0
 42
0.000000001
 43
0.0000000001
 40
0.0
 40
0.0
 40
0.0
 40
0.0
 40
0.4999717277560072
 40
1.0
 40
1.0
 40
1.0
 40
1.0
 10
1456.833821467848
 20
2336.165978213267
 30
0.0
 10
1456.833821467848
 20
2336.313266456445
 30
0.0
 10
1456.833821467848
 20
2336.607859600419
 30
0.0
 10
1456.833821467848
 20
2336.895286790296
 30
0.0
 10
1456.833821467848
 20
2337.039008511445
 30
0.0
  0
SPLINE
  5
116A
330
A
100
AcDbEntity
  8
MODEL
100
AcDbSpline
210
0.0
220
0.0
230
1.0
 70
    24
 71
     3
 72
    64
 73
    60
 74
     0
 42
0.000000001
 43
0.0000000001
 40
0.0
 40
0.0
 40
0.0
 40
0.0
 40
0.0001034709394276
 40
0.0002873706018239
 40
0.0006989240006598
 40
0.0013455913371578
 40
0.0024266126340755
 40
0.0045862984288533
 40
0.0083110628245931
 40
0.0149406296168941
 40
0.0267430312605559
 40
0.0477478397764101
 40
0.0664759229967065
 40
0.0851045135792669
 40
0.1112549087264724
 40
0.1374106965123026
 40
0.1635408869958265
 40
0.1833007966718154
 40
0.2031703339609605
 40
0.223176346503225
 40
0.2433477948727124
 40
0.2637167794435391
 40
0.2843164142924192
 40
0.305184682741108
 40
0.3263664205215049
 40
0.3438082482088411
 40
0.3611823388573551
 40
0.3789001622797788
 40
0.3965096224322366
 40
0.4143379926140995
 40
0.4366623486487505
 40
0.4590561289022227
 40
0.4815288989977923
 40
0.5040903152681539
 40
0.5267500793797333
 40
0.5495181899264474
 40
0.5724051503422832
 40
0.5954219949622606
 40
0.618580307155396
 40
0.6418922737764344
 40
0.6653708776938688
 40
0.689029889057792
 40
0.7128839870924045
 40
0.7369492461173652
 40
0.7612442002946107
 40
0.7857852664720899
 40
0.8016570508224946
 40
0.8176224294920027
 40
0.8336823963609063
 40
0.8500043293211582
 40
0.8663644925575326
 40
0.8827430195144803
 40
0.8992929946713829
 40
0.9177629240764108
 40
0.9364668106376075
 40
0.9555613518337123
 40
0.9746976344924911
 40
0.9938296463455747
 40
1.0
 40
1.0
 40
1.0
 40
1.0
 10
1456.833821935146
 20
2331.072645463746
 30
0.0
 10
1456.833821935146
 20
2331.076400484552
 30
0.0
 10
1456.833821935146
 20
2331.086829331482
 30
0.0
 10
1456.833821935146
 20
2331.021414681139
 30
0.0
 10
1456.833821935146
 20
2330.938290027331
 30
0.0
 10
1456.833821935146
 20
2330.782738138395
 30
0.0
 10
1456.833821935146
 20
2330.506552662252
 30
0.0
 10
1456.833821935146
 20
2329.999564314855
 30
0.0
 10
1456.833821935146
 20
2329.073134901043
 30
0.0
 10
1456.833821935146
 20
2327.369297427035
 30
0.0
 10
1456.833821935146
 20
2324.144264408414
 30
0.0
 10
1456.833821935146
 20
2319.479339817594
 30
0.0
 10
1456.833821935146
 20
2313.592429082757
 30
0.0
 10
1456.833821935146
 20
2306.574347839585
 30
0.0
 10
1456.833821935146
 20
2297.932323790801
 30
0.0
 10
1456.833821935146
 20
2287.374192608685
 30
0.0
 10
1456.833821935146
 20
2276.79607282292
 30
0.0
 10
1456.833821935146
 20
2266.480683444051
 30
0.0
 10
1456.833821935146
 20
2256.636183268767
 30
0.0
 10
1456.833821935146
 20
2246.262503479641
 30
0.0
 10
1456.833821935146
 20
2235.374227474251
 30
0.0
 10
1456.833821935146
 20
2223.989635392657
 30
0.0
 10
1456.833821935146
 20
2212.130809845632
 30
0.0
 10
1456.833821935146
 20
2199.823427933637
 30
0.0
 10
1456.833821935146
 20
2187.921775545486
 30
0.0
 10
1456.833821935146
 20
2176.59544555409
 30
0.0
 10
1456.833821935146
 20
2165.902939785582
 30
0.0
 10
1456.833821935146
 20
2155.151459486097
 30
0.0
 10
1456.833821935146
 20
2144.325755492722
 30
0.0
 10
1456.833821935146
 20
2132.657415300831
 30
0.0
 10
1456.833821935146
 20
2120.180105947501
 30
0.0
 10
1456.833821935146
 20
2107.02162331581
 30
0.0
 10
1456.833821935146
 20
2094.172599751253
 30
0.0
 10
1456.833821935146
 20
2081.704542540636
 30
0.0
 10
1456.833821935146
 20
2069.687650192962
 30
0.0
 10
1456.833821935146
 20
2058.184531552416
 30
0.0
 10
1456.833821935146
 20
2047.252849588416
 30
0.0
 10
1456.833821935146
 20
2036.944459828341
 30
0.0
 10
1456.833821935146
 20
2027.305980451177
 30
0.0
 10
1456.833821935146
 20
2018.380345341986
 30
0.0
 10
1456.833821935146
 20
2010.205246848429
 30
0.0
 10
1456.833821935146
 20
2002.819378848337
 30
0.0
 10
1456.833821935146
 20
1996.248526956104
 30
0.0
 10
1456.833821935146
 20
1990.561559693535
 30
0.0
 10
1456.833821935146
 20
1985.58906676326
 30
0.0
 10
1456.833821935146
 20
1981.773014155104
 30
0.0
 10
1456.833821935146
 20
1978.910435071256
 30
0.0
 10
1456.833821935146
 20
1976.784935740714
 30
0.0
 10
1456.833821935146
 20
1974.954506656007
 30
0.0
 10
1456.833821935146
 20
1973.431813567029
 30
0.0
 10
1456.833821935146
 20
1972.22959523241
 30
0.0
 10
1456.833821935146
 20
1971.350928125871
 30
0.0
 10
1456.833821935146
 20
1970.796340289086
 30
0.0
 10
1456.833821935146
 20
1970.457790881166
 30
0.0
 10
1456.833821935146
 20
1970.156089214554
 30
0.0
 10
1456.833821935146
 20
1969.930015805501
 30
0.0
 10
1456.833821935146
 20
1969.795365973692
 30
0.0
 10
1456.833821935146
 20
1969.711328287271
 30
0.0
 10
1456.833821935146
 20
1969.745757897949
 30
0.0
 10
1456.833821935146
 20
1969.754154064457
 30
0.0
  0
LINE
  5
116B
330
A
100
AcDbEntity
  8
MODEL
100
AcDbLine
 10
1536.823821467849
 20
2297.659799658457
 30
0.0
 11
1536.823821467849
 21
2321.807945349017
 31
0.0
  0
LINE
  5
116C
330
A
100
AcDbEntity
  8
MODEL
100
AcDbLine
 10
1536.823821467849
 20
2321.807945349017
 30
0.0
 11
1536.823821467849
 21
2326.451065220635
 31
0.0
  0
LINE
  5
116D
330
A
100
AcDbEntity
  8
MODEL
100
AcDbLine
 10
1536.823821467849
 20
2293.016681271136
 30
0.0
 11
1536.823821467849
 21
2297.659799658457
 31
0.0
  0
SPLINE
  5
116E
330
A
100
AcDbEntity
  8
MODEL
100
AcDbSpline
210
0.0
220
0.0
230
1.0
 70
    24
 71
     3
 72
    20
 73
    16
 74
     0
 42
0.000000001
 43
0.0000000001
 40
0.0
 40
0.0
 40
0.0
 40
0.0
 40
0.25
 40
0.25
 40
0.375
 40
0.375
 40
0.5
 40
0.5
 40
0.625
 40
0.625
 40
0.75
 40
0.75
 40
0.875
 40
0.875
 40
1.0
 40
1.0
 40
1.0
 40
1.0
 10
1536.823821467849
 20
2326.451063726473
 30
0.0
 10
1536.823821467849
 20
2326.662244265816
 30
0.0
 10
1536.823821467849
 20
2326.985824501401
 30
0.0
 10
1536.823821467849
 20
2327.637994443784
 30
0.0
 10
1536.823821467849
 20
2327.882615270787
 30
0.0
 10
1536.823821467849
 20
2328.412373034434
 30
0.0
 10
1536.823821467849
 20
2328.699142424947
 30
0.0
 10
1536.823821467849
 20
2329.317013667181
 30
0.0
 10
1536.823821467849
 20
2329.650060202174
 30
0.0
 10
1536.823821467849
 20
2330.339056728186
 30
0.0
 10
1536.823821467849
 20
2330.697301044665
 30
0.0
 10
1536.823821467849
 20
2331.441167433313
 30
0.0
 10
1536.823821467849
 20
2331.830087038823
 30
0.0
 10
1536.823821467849
 20
2332.61687601273
 30
0.0
 10
1536.823821467849
 20
2333.014826246527
 30
0.0
 10
1536.823821467849
 20
2333.417281908461
 30
0.0
  0
SPLINE
  5
116F
330
A
100
AcDbEntity
  8
MODEL
100
AcDbSpline
210
0.0
220
0.0
230
1.0
 70
    24
 71
     3
 72
    26
 73
    22
 74
     0
 42
0.000000001
 43
0.0000000001
 40
0.0
 40
0.0
 40
0.0
 40
0.0
 40
0.1249999999999962
 40
0.1249999999999962
 40
0.1874999999999943
 40
0.1874999999999943
 40
0.2499999999999925
 40
0.2499999999999925
 40
0.3749999999999918
 40
0.3749999999999918
 40
0.4374999999999921
 40
0.4374999999999921
 40
0.4999999999999926
 40
0.4999999999999926
 40
0.6249999999999944
 40
0.6249999999999944
 40
0.7499999999999963
 40
0.7499999999999963
 40
0.874999999999998
 40
0.874999999999998
 40
1.0
 40
1.0
 40
1.0
 40
1.0
 10
1536.82382146786
 20
2333.417281908453
 30
0.0
 10
1536.82382146786
 20
2333.916645876791
 30
0.0
 10
1536.823821467849
 20
2334.403775117299
 30
0.0
 10
1536.823821467849
 20
2335.116939513527
 30
0.0
 10
1536.823821467849
 20
2335.351719601012
 30
0.0
 10
1536.823821467849
 20
2335.815302347908
 30
0.0
 10
1536.823821467849
 20
2336.045265252872
 30
0.0
 10
1536.823821467849
 20
2336.7145626623
 30
0.0
 10
1536.823821467849
 20
2337.134639064094
 30
0.0
 10
1536.823821467849
 20
2337.726582482593
 30
0.0
 10
1536.823821467849
 20
2337.917494081729
 30
0.0
 10
1536.823821467849
 20
2338.286178730862
 30
0.0
 10
1536.823821467849
 20
2338.463444790166
 30
0.0
 10
1536.823821467849
 20
2338.964691434947
 30
0.0
 10
1536.823821467849
 20
2339.262173007778
 30
0.0
 10
1536.823821467849
 20
2339.784203595638
 30
0.0
 10
1536.823821467849
 20
2340.009224154765
 30
0.0
 10
1536.823821467849
 20
2340.367065131415
 30
0.0
 10
1536.823821467849
 20
2340.502800442247
 30
0.0
 10
1536.823821467849
 20
2340.686689765466
 30
0.0
 10
1536.823821467849
 20
2340.733872511189
 30
0.0
 10
1536.823821467849
 20
2340.733872511189
 30
0.0
  0
SPLINE
  5
1170
330
A
100
AcDbEntity
  8
MODEL
100
AcDbSpline
210
0.0
220
0.0
230
1.0
 70
    24
 71
     3
 72
    22
 73
    18
 74
     0
 42
0.000000001
 43
0.0000000001
 40
0.0
 40
0.0
 40
0.0
 40
0.0
 40
0.2499999999999998
 40
0.2499999999999998
 40
0.3750000000000011
 40
0.3750000000000011
 40
0.5000000000000023
 40
0.5000000000000023
 40
0.6250000000000036
 40
0.6250000000000036
 40
0.7500000000000048
 40
0.7500000000000048
 40
0.8125000000000055
 40
0.8125000000000055
 40
0.875000000000006
 40
0.875000000000006
 40
1.0
 40
1.0
 40
1.0
 40
1.0
 10
1536.823821467849
 20
2285.318679790425
 30
0.0
 10
1536.823821467849
 20
2286.196017780309
 30
0.0
 10
1536.823821467849
 20
2287.049484528713
 30
0.0
 10
1536.823821467849
 20
2288.293887112476
 30
0.0
 10
1536.823821467849
 20
2288.693752440941
 30
0.0
 10
1536.823821467849
 20
2289.456811378132
 30
0.0
 10
1536.823821467849
 20
2289.821359160469
 30
0.0
 10
1536.823821467849
 20
2290.515349595863
 30
0.0
 10
1536.823821467849
 20
2290.839308418163
 30
0.0
 10
1536.823821467849
 20
2291.430722935123
 30
0.0
 10
1536.823821467849
 20
2291.70022921063
 30
0.0
 10
1536.823821467849
 20
2292.064145839713
 30
0.0
 10
1536.823821467849
 20
2292.178728362288
 30
0.0
 10
1536.823821467849
 20
2292.390342899836
 30
0.0
 10
1536.823821467849
 20
2292.487929991021
 30
0.0
 10
1536.823821467849
 20
2292.756396117159
 30
0.0
 10
1536.823821467849
 20
2292.903144260335
 30
0.0
 10
1536.823821467849
 20
2293.016681285616
 30
0.0
  0
SPLINE
  5
1171
330
A
100
AcDbEntity
  8
MODEL
100
AcDbSpline
210
0.0
220
0.0
230
1.0
 70
    24
 71
     3
 72
    27
 73
    23
 74
     0
 42
0.000000001
 43
0.0000000001
 40
0.0
 40
0.0
 40
0.0
 40
0.0
 40
0.1250000000000018
 40
0.1250000000000018
 40
0.1875000000000027
 40
0.1875000000000027
 40
0.2500000000000037
 40
0.2500000000000037
 40
0.3750000000000031
 40
0.3750000000000031
 40
0.5000000000000025
 40
0.5000000000000025
 40
0.6250000000000018
 40
0.6250000000000018
 40
0.6875000000000016
 40
0.6875000000000016
 40
0.7500000000000013
 40
0.8125000000000008
 40
0.8125000000000008
 40
0.8750000000000005
 40
0.8750000000000005
 40
1.0
 40
1.0
 40
1.0
 40
1.0
 10
1536.823821467849
 20
2244.733872511189
 30
0.0
 10
1536.823821467849
 20
2244.733872511189
 30
0.0
 10
1536.823821467849
 20
2244.797937430876
 30
0.0
 10
1536.823821467849
 20
2244.986620671535
 30
0.0
 10
1536.823821467849
 20
2245.065058189185
 30
0.0
 10
1536.823821467849
 20
2245.253782385274
 30
0.0
 10
1536.823821467849
 20
2245.364622407306
 30
0.0
 10
1536.823821467849
 20
2245.738306170501
 30
0.0
 10
1536.823821467849
 20
2246.043422262792
 30
0.0
 10
1536.823821467849
 20
2246.764825938601
 30
0.0
 10
1536.823821467849
 20
2247.185139903024
 30
0.0
 10
1536.823821467849
 20
2248.103729976003
 30
0.0
 10
1536.823821467849
 20
2248.605071139744
 30
0.0
 10
1536.823821467849
 20
2249.421555998092
 30
0.0
 10
1536.823821467849
 20
2249.704578437374
 30
0.0
 10
1536.823821467849
 20
2250.279791398014
 30
0.0
 10
1536.823821467849
 20
2250.867200143909
 30
0.0
 10
1536.823821467849
 20
2251.478593235425
 30
0.0
 10
1536.823821467849
 20
2252.102119282176
 30
0.0
 10
1536.823821467849
 20
2252.421358598051
 30
0.0
 10
1536.823821467849
 20
2253.387012259828
 30
0.0
 10
1536.823821467849
 20
2254.037864141527
 30
0.0
 10
1536.823821467849
 20
2254.695819492106
 30
0.0
  0
LINE
  5
1172
330
A
100
AcDbEntity
  8
MODEL
100
AcDbLine
 10
1536.823821467849
 20
2285.318679843793
 30
0.0
 11
1536.823821467849
 21
2254.695819892685
 31
0.0
  0
DIMENSION
  5
1173
330
A
100
AcDbEntity
  8
DIM
  6
Continuous
100
AcDbDimension
280
     0
  2
*D27
 10
481.9187751150135
 20
648.4533527696785
 30
0.0
 11
481.9187751150135
 21
1068.443639000719
 31
0.0
 70
   160
 71
     5
 42
839.9805724620815
 73
     0
 74
     0
 75
     0
  3
tfrom線あり
100
AcDbAlignedDimension
 13
764.1017406583297
 23
1488.43392523176
 33
0.0
 14
764.1017406583297
 24
648.4533527696785
 34
0.0
 50
90.0
100
AcDbRotatedDimension
1001
ACAD
1000
DSTYLE
1002
{
1070
    42
1040
30.0
1002
}
  0
MTEXT
  5
1174
330
A
100
AcDbEntity
  8
DIM
390
1D
100
AcDbMText
 10
258.520055370263
 20
2024.068974520324
 30
0.0
 40
24.0
 41
0.0
 46
0.0
 71
     1
 72
     1
  1
カウンター切込寸法
  7
ＭＳ ゴシック
 11
0.0000000000000001
 21
1.0
 31
0.0
 73
     1
 44
0.7828267384257844
  0
MTEXT
  5
1175
330
A
100
AcDbEntity
  8
DIM
390
1D
100
AcDbMText
 10
1080.965267118444
 20
1898.707553066606
 30
0.0
 40
24.0
 41
949.7161250932048
 46
105.2714765578161
 71
     1
 72
     1
  1
{\C7;※陶器製品には寸法公差がありますので、\P　必ず現物合わせでカウンターに切込を\P　行ってください。}
  7
ＭＳ ゴシック
 11
0.0000000000000001
 21
1.0
 31
0.0
 73
     1
 44
0.9822934569727006
1001
ACAD
1000
ACAD_MTEXT_DEFINED_HEIGHT_BEGIN
1070
    46
1040
105.2714765578161
1000
ACAD_MTEXT_DEFINED_HEIGHT_END
  0
DIMENSION
  5
1176
330
A
100
AcDbEntity
  8
DIM
  6
Continuous
100
AcDbDimension
280
     0
  2
*D28
 10
952.0698284637347
 20
1636.736459997268
 30
0.0
 11
762.0698284637344
 21
1668.736459997268
 31
0.0
 70
    32
 71
     5
 42
380.0000000000005
 73
     0
 74
     0
 75
     0
 52
-270.0
  3
tfrom線あり
100
AcDbAlignedDimension
 13
572.0698284637343
 23
997.2946779089847
 33
0.0
 14
952.0698284637347
 24
997.2946779089847
 34
0.0
 50
180.0
100
AcDbRotatedDimension
  0
DIMENSION
  5
1177
330
A
100
AcDbEntity
  8
DIM
  6
Continuous
100
AcDbDimension
280
     0
  2
*D29
 10
1825.491494768625
 20
928.5398689115696
 30
0.0
 11
1825.491494768625
 21
788.5398689115697
 31
0.0
 70
   160
 71
     5
 42
280.0
 73
     0
 74
     0
 75
     0
  3
tfrom線あり
100
AcDbAlignedDimension
 13
1456.689903464219
 23
648.5398689115696
 33
0.0
 14
1715.816816724856
 24
928.5398689115696
 34
0.0
 50
90.0
100
AcDbRotatedDimension
  0
DIMENSION
  5
1178
330
A
100
AcDbEntity
  8
DIM
  6
Continuous
100
AcDbDimension
280
     0
  2
*D30
 10
1556.823817891568
 20
1663.729140265973
 30
0.0
 11
1501.823817891568
 21
1695.729140265973
 31
0.0
 70
    32
 71
     5
 42
110.0000000000001
 73
     0
 74
     0
 75
     0
 52
-270.0
  3
tfrom線あり
100
AcDbAlignedDimension
 13
1446.823817891568
 23
1488.43392523176
 33
0.0
 14
1556.823817891568
 24
949.9639815579806
 34
0.0
 50
180.0
100
AcDbRotatedDimension
  0
DIMENSION
  5
1179
330
A
100
AcDbEntity
  8
DIM
  6
Continuous
100
AcDbDimension
280
     0
  2
*D31
 10
1536.823817891568
 20
1603.240760531758
 30
0.0
 11
1491.823817891568
 21
1635.240760531758
 31
0.0
 70
    32
 71
     5
 42
90.00000000000005
 73
     0
 74
     0
 75
     0
 52
-270.0
  3
tfrom線あり
100
AcDbAlignedDimension
 13
1446.823817891568
 23
1488.512722572154
 33
0.0
 14
1536.823817891568
 24
1091.029004995825
 34
0.0
 50
180.0
100
AcDbRotatedDimension
  0
DIMENSION
  5
117A
330
A
100
AcDbEntity
  8
DIM
  6
Continuous
100
AcDbDimension
280
     0
  2
*D32
 10
1693.922514540187
 20
2292.875642188588
 30
0.0
 11
1693.922514540187
 21
2321.375642188588
 31
0.0
 70
   160
 71
     5
 42
56.99999999999999
 73
     0
 74
     0
 75
     0
  3
tfrom線あり
100
AcDbAlignedDimension
 13
1457.165779584928
 23
2349.875642188588
 33
0.0
 14
1611.574412979899
 24
2292.875642188588
 34
0.0
 50
90.0
100
AcDbRotatedDimension
  0
DIMENSION
  5
117B
330
A
100
AcDbEntity
  8
DIM
  6
Continuous
100
AcDbDimension
280
     0
  2
*D33
 10
1517.823817891568
 20
2254.607483581228
 30
0.0
 11
1345.879691217851
 21
2254.607483581228
 31
0.0
 70
   160
  1
71(深さ)
 71
     5
 42
71.0
 73
     0
 74
     1
 75
     1
 52
-270.0
  3
tfrom線あり
100
AcDbAlignedDimension
 13
1446.823817891568
 23
2277.109183949192
 33
0.0
 14
1517.823817891568
 24
2267.771693688258
 34
0.0
 50
180.0
100
AcDbRotatedDimension
1001
ACAD
1000
DSTYLE
1002
{
1070
     3
1000
<>
1070
   172
1070
     1
1070
    75
1070
     1
1070
    76
1070
     1
1002
}
  0
SPLINE
  5
117C
330
A
100
AcDbEntity
  8
HIDDEN
  6
HIDDEN
 48
0.05
100
AcDbSpline
210
0.0
220
0.0
230
1.0
 70
     8
 71
     3
 72
    24
 73
    20
 74
     0
 42
0.000000001
 43
0.0000000001
 40
31.11729114409067
 40
31.11729114409067
 40
31.11729114409067
 40
31.11729114409067
 40
35.14129754874698
 40
40.35142052493072
 40
45.61644380487718
 40
50.93638085529264
 40
56.32216326342252
 40
66.40625790333965
 40
76.36608320703587
 40
86.26537510955447
 40
96.09497125203105
 40
105.844016979477
 40
115.5086964361466
 40
125.0956261664544
 40
134.5900166086352
 40
144.0428023856603
 40
148.723507219265
 40
158.5506999373254
 40
170.7299225200791
 40
170.7299225200791
 40
170.7299225200791
 40
170.7299225200791
 10
1456.343262532293
 20
682.5037946457696
 30
0.0
 10
1456.789219292325
 20
683.7689661403297
 30
0.0
 10
1457.874262660423
 20
686.6505813846916
 30
0.0
 10
1459.786492115998
 20
691.0918627267615
 30
0.0
 10
1462.131690630677
 20
695.8080481733637
 30
0.0
 10
1464.737003115681
 20
700.4545973722784
 30
0.0
 10
1468.52137989083
 20
706.2629812899187
 30
0.0
 10
1473.34273917276
 20
713.2358972566135
 30
0.0
 10
1478.573598951749
 20
721.7412789271366
 30
0.0
 10
1483.497205828721
 20
730.3270782979585
 30
0.0
 10
1488.086084515544
 20
739.0180685000736
 30
0.0
 10
1492.355488253158
 20
747.7829497679827
 30
0.0
 10
1496.298592595137
 20
756.6111616554525
 30
0.0
 10
1499.915062506625
 20
765.4859957826892
 30
0.0
 10
1503.233755448051
 20
774.4019996322446
 30
0.0
 10
1505.694485324871
 20
781.8846573111287
 30
0.0
 10
1508.107013718788
 20
789.4991520494154
 30
0.0
 10
1510.366205546371
 20
798.1080630694864
 30
0.0
 10
1511.938575213097
 20
805.2752874483493
 30
0.0
 10
1512.988781014274
 20
809.1968386252414
 30
0.0
  0
SPLINE
  5
117D
330
A
100
AcDbEntity
  8
HIDDEN
  6
HIDDEN
 48
0.05
100
AcDbSpline
210
0.0
220
0.0
230
1.0
 70
  1064
 71
     3
 72
    25
 73
    21
 74
    19
 42
0.000000001
 43
0.0000000001
 44
0.0000000001
 12
-0.1299508053502053
 22
0.9915204426479732
 32
0.0
 13
-0.0538415776929846
 23
0.9985494902665216
 33
0.0
 40
0.0
 40
0.0
 40
0.0
 40
0.0
 40
39.25215697644308
 40
59.22673229501355
 40
79.24257323943755
 40
99.26689686101882
 40
119.315496535989
 40
139.3903032583314
 40
159.4978775224001
 40
179.6455054280246
 40
220.2394649800842
 40
240.9132299728542
 40
261.62653119732
 40
282.4376834315314
 40
303.4296193939804
 40
324.8913967272891
 40
329.9339006198614
 40
334.0941651794173
 40
336.9588015330057
 40
338.4366375457962
 40
338.4366375457962
 40
338.4366375457962
 40
338.4366375457962
 10
1512.988781014274
 20
1047.882899197897
 30
0.0
 10
1511.288497877333
 20
1060.856004551287
 30
0.0
 10
1511.938269512915
 20
1080.760770002982
 30
0.0
 10
1507.197899162032
 20
1106.795022642515
 30
0.0
 10
1503.899638213332
 20
1126.517354868956
 30
0.0
 10
1500.075485683086
 20
1146.18311961265
 30
0.0
 10
1495.928854824741
 20
1165.798827819813
 30
0.0
 10
1491.414360113482
 20
1185.363389537669
 30
0.0
 10
1486.522632792517
 20
1204.869754329529
 30
0.0
 10
1479.570388158837
 20
1230.911083162154
 30
0.0
 10
1471.387213369148
 20
1256.793753774733
 30
0.0
 10
1464.254641404954
 20
1283.18158028823
 30
0.0
 10
1459.835755158281
 20
1303.445845462913
 30
0.0
 10
1456.230716438877
 20
1323.976100275304
 30
0.0
 10
1453.479338249636
 20
1344.890872026062
 30
0.0
 10
1452.105094875598
 20
1360.66874319718
 30
0.0
 10
1451.478185318629
 20
1370.871037045304
 30
0.0
 10
1451.261751794322
 20
1374.88772345866
 30
0.0
 10
1451.124956609902
 20
1377.718661701823
 30
0.0
 10
1451.05406081843
 20
1379.164423026789
 30
0.0
 10
1451.02753781093
 20
1379.656320492546
 30
0.0
 11
1512.988781014274
 21
1047.882899197897
 31
0.0
 11
1510.308172100438
 21
1087.043417110131
 31
0.0
 11
1507.248890665635
 21
1106.78232427998
 31
0.0
 11
1503.813211939639
 21
1126.501097071516
 31
0.0
 11
1500.024007878124
 21
1146.163636812913
 31
0.0
 11
1495.870432198123
 21
1165.777258558978
 31
0.0
 11
1491.355339162546
 21
1185.337723784005
 31
0.0
 11
1486.476590679196
 21
1204.844449701525
 31
0.0
 11
1481.231532036188
 21
1224.297374161742
 31
0.0
 11
1469.748339419649
 21
1263.233293817578
 31
0.0
 11
1464.422874337139
 21
1283.209379035439
 31
0.0
 11
1459.980949601236
 21
1303.440794019469
 31
0.0
 11
1456.388009510979
 21
1323.939448580765
 31
0.0
 11
1453.650860936319
 21
1344.752170486652
 31
0.0
 11
1451.77756184266
 21
1366.132035706298
 31
0.0
 11
1451.467080236789
 21
1371.164971894948
 31
0.0
 11
1451.243064835287
 21
1375.319200861361
 31
0.0
 11
1451.102195938794
 21
1378.180371494564
 31
0.0
 11
1451.02753781093
 21
1379.656320492546
 31
0.0
  0
ARC
  5
117E
330
A
100
AcDbEntity
  8
HIDDEN
  6
HIDDEN
 48
0.05
100
AcDbCircle
 10
42.53657380407651
 20
928.5398689115696
 30
0.0
 40
1475.287244087491
100
AcDbArc
 50
355.3600007038863
 51
4.639999296113631
  0
ARC
  5
117F
330
A
100
AcDbEntity
  8
HIDDEN
  6
HIDDEN
 48
0.05
100
AcDbCircle
 10
1696.881179715041
 20
568.4685805662833
 30
0.0
 40
266.2001496107181
100
AcDbArc
 50
154.6351114233298
 51
159.9440952756433
  0
ARC
  5
1180
330
A
100
AcDbEntity
  8
HIDDEN
  6
HIDDEN
 48
0.05
100
AcDbCircle
 10
-749.7646551359467
 20
1247.053311870368
 30
0.0
 40
2204.783398529565
100
AcDbArc
 50
3.448039649640898
 51
4.941533915378568
  0
LINE
  5
1181
330
A
100
AcDbEntity
  8
HIDDEN
  6
HIDDEN
 48
0.025
100
AcDbLine
 10
1536.823821467849
 20
907.4983538890531
 30
0.0
 11
1523.922836761498
 21
907.4983538890531
 31
0.0
  0
LINE
  5
1182
330
A
100
AcDbEntity
  8
HIDDEN
  6
HIDDEN
 48
0.025
100
AcDbLine
 10
1523.922836761498
 20
907.4983538890531
 30
0.0
 11
1517.602000516436
 21
902.9578540348776
 31
0.0
  0
LINE
  5
1183
330
A
100
AcDbEntity
  8
HIDDEN
  6
HIDDEN
 48
0.025
100
AcDbLine
 10
1536.823821467849
 20
949.4083540344886
 30
0.0
 11
1523.922836761498
 21
949.4083540344886
 31
0.0
  0
LINE
  5
1184
330
A
100
AcDbEntity
  8
HIDDEN
  6
HIDDEN
 48
0.025
100
AcDbLine
 10
1523.922836761498
 20
949.4083540344886
 30
0.0
 11
1517.602000516436
 21
953.9488538886637
 31
0.0
  0
ARC
  5
1185
330
A
100
AcDbEntity
  8
HIDDEN
  6
HIDDEN
 48
0.05
100
AcDbCircle
 10
1549.839210406701
 20
2369.039261928363
 30
0.0
 40
107.6515747469901
100
AcDbArc
 50
196.8763595981878
 51
246.8904969388323
  0
LINE
  5
1186
330
A
100
AcDbEntity
  8
HIDDEN
  6
HIDDEN
 48
0.025
100
AcDbLine
 10
1536.823821467849
 20
2313.688872583905
 30
0.0
 11
1511.033525310144
 21
2311.504926745271
 31
0.0
  0
SPLINE
  5
1187
330
A
100
AcDbEntity
  8
HIDDEN
  6
HIDDEN
 48
0.05
100
AcDbSpline
210
0.0
220
0.0
230
1.0
 70
  1064
 71
     3
 72
    16
 73
    12
 74
    10
 42
0.000000001
 43
0.0000000001
 44
0.0000000001
 40
0.0
 40
0.0
 40
0.0
 40
0.0
 40
3.696157642131152
 40
6.775031557421728
 40
13.55056334817017
 40
17.76905328169041
 40
23.59653687005454
 40
34.66710867983976
 40
41.79064235736748
 40
50.77966635174424
 40
53.39610402792254
 40
53.39610402792254
 40
53.39610402792254
 40
53.39610402792254
 10
1511.033525310144
 20
2311.504926745271
 30
0.0
 10
1509.617672137834
 20
2311.50752213392
 30
0.0
 10
1507.022423002968
 20
2311.512279463477
 30
0.0
 10
1506.019479221734
 20
2306.598321511913
 30
0.0
 10
1506.155846345936
 20
2300.641656461302
 30
0.0
 10
1512.718081475631
 20
2300.333468096829
 30
0.0
 10
1516.845757344044
 20
2293.736061860475
 30
0.0
 10
1516.486603577258
 20
2285.357621096101
 30
0.0
 10
1515.573266114546
 20
2277.032765854162
 30
0.0
 10
1512.500237647197
 20
2269.047588713144
 30
0.0
 10
1508.490964907856
 20
2269.84602850765
 30
0.0
 10
1507.587079086932
 20
2270.026035819707
 30
0.0
 11
1511.033525310144
 21
2311.504926745271
 31
0.0
 11
1507.409144551963
 21
2310.780050593635
 31
0.0
 11
1506.373607192481
 21
2307.88054598709
 31
0.0
 11
1507.769146485693
 21
2301.250289496686
 31
0.0
 11
1511.745609946097
 21
2299.841958687791
 31
0.0
 11
1515.398004409733
 21
2295.30107995624
 31
0.0
 11
1516.301974327812
 21
2284.267476801204
 31
0.0
 11
1515.225015473953
 21
2277.225822756737
 31
0.0
 11
1510.191742093096
 21
2269.778090790222
 31
0.0
 11
1507.587079086932
 21
2270.026035819707
 31
0.0
  0
LINE
  5
1188
330
A
100
AcDbEntity
  8
HIDDEN
  6
HIDDEN
 48
0.05
100
AcDbLine
 10
1517.823817891568
 20
2216.191857428969
 30
0.0
 11
1519.179068808432
 21
2268.856048354714
 31
0.0
  0
LINE
  5
1189
330
A
100
AcDbEntity
  8
HIDDEN
  6
HIDDEN
 48
0.025
100
AcDbLine
 10
1536.823821467849
 20
2271.77887243847
 30
0.0
 11
1522.178075957131
 21
2271.77887243847
 31
0.0
  0
ARC
  5
118A
330
A
100
AcDbEntity
  8
HIDDEN
  6
Continuous
100
AcDbCircle
 10
1522.178075957131
 20
2268.77887243847
 30
0.0
 40
2.999999999999998
100
AcDbArc
 50
90.0
 51
178.5258859498972
  0
SPLINE
  5
118B
330
A
100
AcDbEntity
  8
HIDDEN
  6
HIDDEN
 48
0.05
100
AcDbSpline
210
0.0
220
0.0
230
1.0
 70
     8
 71
     3
 72
    23
 73
    19
 74
     0
 42
0.000000001
 43
0.0000000001
 40
55.58701500949974
 40
55.58701500949974
 40
55.58701500949974
 40
55.58701500949974
 40
76.63362754742026
 40
93.74806719508212
 40
112.8462905540871
 40
131.9185706407777
 40
150.9547177910001
 40
169.9391828360282
 40
188.9049244683967
 40
207.8868146861319
 40
226.8117158048173
 40
236.2378382977359
 40
245.6339235594526
 40
255.0068692649374
 40
264.4679184749513
 40
274.0938716164058
 40
284.038925612395
 40
284.4034447797466
 40
284.4034447797466
 40
284.4034447797466
 40
284.4034447797466
 10
1517.823817891568
 20
2216.191857428969
 30
0.0
 10
1517.856249435531
 20
2209.173702396593
 30
0.0
 10
1517.722229744728
 20
2196.45086389189
 30
0.0
 10
1516.33388714045
 20
2177.402014037561
 30
0.0
 10
1513.936900313132
 20
2159.125136833266
 30
0.0
 10
1511.010927783223
 20
2140.279836950267
 30
0.0
 10
1507.354494638992
 20
2121.597802529995
 30
0.0
 10
1502.914285059726
 20
2103.12081675351
 30
0.0
 10
1497.49217742686
 20
2084.925448195572
 30
0.0
 10
1491.229753113697
 20
2067.025926342959
 30
0.0
 10
1485.318405991999
 20
2052.388707718535
 30
0.0
 10
1480.095986441249
 20
2040.939356812027
 30
0.0
 10
1475.926749910273
 20
2032.514439482826
 30
0.0
 10
1471.478653663361
 20
2024.220341692499
 30
0.0
 10
1466.745265259341
 20
2015.997332686542
 30
0.0
 10
1461.767966852236
 20
2007.699770400797
 30
0.0
 10
1458.447380212661
 20
2001.93855368083
 30
0.0
 10
1456.88872480991
 20
1998.875223026146
 30
0.0
 10
1446.823817891568
 20
1980.25393245544
 30
0.0
  0
SPLINE
  5
118C
330
A
100
AcDbEntity
  8
HIDDEN
  6
HIDDEN
 48
0.05
100
AcDbSpline
210
0.0
220
0.0
230
1.0
 70
     9
 71
     3
 72
   212
 73
   208
 74
     0
 42
0.000000001
 43
0.0000000001
 40
0.0
 40
0.0
 40
0.0
 40
0.0
 40
0.034383055574777
 40
0.0521893370648201
 40
0.0703675102209527
 40
0.0888777241524207
 40
0.1076705155589501
 40
0.1266873306331736
 40
0.1458617607621357
 40
0.1651215201346234
 40
0.1843909767207975
 40
0.2035940026745138
 40
0.2133232871551134
 40
0.2226590869406803
 40
0.2323312774593244
 40
0.2415163360094475
 40
0.2508475099986618
 40
0.2554861188249815
 40
0.2601054084795906
 40
0.2647046526378058
 40
0.2692831332549176
 40
0.2704244750373627
 40
0.2715644598058409
 40
0.2721339613560538
 40
0.2727030646330036
 40
0.2732718589802277
 40
0.2738403090200704
 40
0.2744895077297985
 40
0.2751383224432907
 40
0.2761106399285529
 40
0.2772437249936484
 40
0.2783753745584447
 40
0.2828858985090656
 40
0.2873731915005724
 40
0.291836722064486
 40
0.2962759953523822
 40
0.3006905462552731
 40
0.3050799494765268
 40
0.3094439339462765
 40
0.3116185111172348
 40
0.313783842465359
 40
0.3181130038613514
 40
0.322444609832039
 40
0.3246101200871742
 40
0.3267752431602351
 40
0.3311035304966645
 40
0.3354304034129058
 40
0.3397555890164832
 40
0.3419180702948013
 40
0.3429992002464836
 40
0.3440802037649378
 40
0.3446978657081574
 40
0.3453154487705588
 40
0.3462417608000938
 40
0.3473221856704896
 40
0.3484025139334495
 40
0.3496370265258597
 40
0.3505627844050346
 40
0.3527223775679855
 40
0.357039207471824
 40
0.3613528033400618
 40
0.3656628728090673
 40
0.3740174106551962
 40
0.3828609609169645
 40
0.3912279503912126
 40
0.399980115452392
 40
0.4170006897685711
 40
0.4339080121017885
 40
0.4506862992288245
 40
0.4673211718208897
 40
0.4837996458868026
 40
0.500110127620752
 40
0.5321856039033158
 40
0.5634848972554959
 40
0.59396282387184
 40
0.6087622761544055
 40
0.6235909834436497
 40
0.6306580948363947
 40
0.6377197632671061
 40
0.641120350815719
 40
0.6445174185402614
 40
0.6453579238967472
 40
0.6461933143222137
 40
0.6470269799161387
 40
0.6478606455100637
 40
0.6479643457967941
 40
0.6480679514839782
 40
0.6481722792492018
 40
0.6482766274859319
 40
0.6484793466126061
 40
0.6485281590093532
 40
0.6485767391202418
 40
0.6486755042533261
 40
0.6487800457979793
 40
0.6488333336206621
 40
0.648886030010986
 40
0.6489891308185623
 40
0.6490915899894855
 40
0.6492989516931738
 40
0.6495066162834786
 40
0.6496412684745521
 40
0.6497758839280392
 40
0.6499111488887878
 40
0.6499785821913328
 40
0.650045852951344
 40
0.6501470899255671
 40
0.6502481272228476
 40
0.6502986808530985
 40
0.6503492247707602
 40
0.6504502440881264
 40
0.6511566691397807
 40
0.6554718596560521
 40
0.6597852325781512
 40
0.664100418259194
 40
0.6766613825043148
 40
0.6889410130980052
 40
0.6950020195774993
 40
0.6965106200253707
 40
0.6968493202895757
 40
0.6972638855523068
 40
0.6974524048365114
 40
0.697640924120716
 40
0.6978276425277153
 40
0.6980177086857264
 40
0.6982032290181199
 40
0.698294337817996
 40
0.6983962059684098
 40
0.6984949481683042
 40
0.6985355841990693
 40
0.698572672896812
 40
0.6986617962372943
 40
0.6987244515646769
 40
0.698768771798393
 40
0.6987908901288743
 40
0.6988165948266368
 40
0.698837394784981
 40
0.698864438035678
 40
0.6988801142605813
 40
0.6988867512259396
 40
0.6988946804472728
 40
0.6989032406311999
 40
0.698917337616844
 40
0.6989313477693414
 40
0.6989402057200686
 40
0.6989479921895912
 40
0.6989547255361802
 40
0.6989638523909358
 40
0.6989778986758677
 40
0.6989971837024714
 40
0.6990218239514529
 40
0.6990454242426818
 40
0.6990790234126423
 40
0.6991225431497537
 40
0.6992186989762055
 40
0.6994055053471918
 40
0.6997811890338427
 40
0.7001566476280513
 40
0.7009071701529526
 40
0.7068949414977606
 40
0.7128536314763215
 40
0.7188076110243939
 40
0.7247280134151007
 40
0.7306765807381818
 40
0.7365880353616391
 40
0.7425589789860934
 40
0.7484907248903734
 40
0.7544763685211155
 40
0.7604952186993746
 40
0.7665554089901398
 40
0.7726657191820668
 40
0.7788358595774642
 40
0.7850758716869707
 40
0.7913972557995336
 40
0.7978135981159765
 40
0.8044130550852914
 40
0.8109889941414431
 40
0.8177159859663426
 40
0.8210861732575855
 40
0.8244607191948219
 40
0.8278400104309673
 40
0.8312243205780644
 40
0.8380078126865628
 40
0.8448152323711749
 40
0.8516494957678002
 40
0.8585135600497102
 40
0.8654104408929946
 40
0.8723433285287203
 40
0.8793155594263406
 40
0.8863306367230377
 40
0.8933922635690576
 40
0.9005043694562091
 40
0.9076711211362891
 40
0.914896971077313
 40
0.9185340649844613
 40
0.9221877394321587
 40
0.9258588136023519
 40
0.9295477106103655
 40
0.9369816509533231
 40
0.9444961371243664
 40
0.952097751057142
 40
0.9598398400408708
 40
0.9675918072898076
 40
0.9715322752070647
 40
0.9755016953780536
 40
0.9800751842652458
 40
0.9835323240839423
 40
1.0
 40
1.0
 40
1.0
 40
1.0
 10
952.2094293869857
 20
2105.723040033899
 30
0.0
 10
952.2606715835317
 20
2128.864682942763
 30
0.0
 10
951.6278785604807
 20
2163.995417052339
 30
0.0
 10
949.2922664619616
 20
2211.299843422418
 30
0.0
 10
946.6698891025517
 20
2247.885681759723
 30
0.0
 10
943.1240788753203
 20
2285.060882981486
 30
0.0
 10
938.5738024762323
 20
2322.695870617307
 30
0.0
 10
932.9290888146353
 20
2360.635252315098
 30
0.0
 10
926.0875086175515
 20
2398.697760266527
 30
0.0
 10
917.9285163086674
 20
2436.675818963598
 30
0.0
 10
908.3035524739385
 20
2474.331017825647
 30
0.0
 10
898.8501782889875
 20
2505.379984163195
 30
0.0
 10
890.3285188413503
 20
2529.688511188634
 30
0.0
 10
883.3647045725555
 20
2547.735832940391
 30
0.0
 10
875.9155078821457
 20
2565.192342641614
 30
0.0
 10
867.7663470264999
 20
2582.330397310518
 30
0.0
 10
860.4225042486179
 20
2596.08412434877
 30
0.0
 10
854.0677891389497
 20
2606.862926170978
 30
0.0
 10
849.0803683486374
 20
2614.745539627485
 30
0.0
 10
843.8617708131717
 20
2622.427983008964
 30
0.0
 10
839.7770550136625
 20
2628.046456473498
 30
0.0
 10
836.9868069429946
 20
2631.724729478386
 30
0.0
 10
835.8168540686495
 20
2633.245486316289
 30
0.0
 10
834.8674977468981
 20
2634.449901104364
 30
0.0
 10
834.1392054912468
 20
2635.338903324472
 30
0.0
 10
833.3862348928633
 20
2636.206292692425
 30
0.0
 10
832.5675861234488
 20
2637.087147740956
 30
0.0
 10
831.6849466130184
 20
2637.981170315408
 30
0.0
 10
830.5920481195395
 20
2639.049064740651
 30
0.0
 10
829.2580251753383
 20
2640.336080075238
 30
0.0
 10
827.6766539978785
 20
2641.834841999193
 30
0.0
 10
824.2927942564024
 20
2644.891751053145
 30
0.0
 10
818.9430516167412
 20
2649.138934318826
 30
0.0
 10
811.3039439032215
 20
2654.037060917185
 30
0.0
 10
803.2543682772667
 20
2658.12288523503
 30
0.0
 10
794.8834117268233
 20
2661.36722438211
 30
0.0
 10
786.2804016080846
 20
2663.753158341597
 30
0.0
 10
777.5329858840265
 20
2665.263878068034
 30
0.0
 10
770.1844190391827
 20
2665.789703184983
 30
0.0
 10
764.3246441497833
 20
2665.792215287565
 30
0.0
 10
758.4947149508487
 20
2665.515873952781
 30
0.0
 10
751.2486505934467
 20
2664.641028488781
 30
0.0
 10
744.1240790281518
 20
2663.055829884626
 30
0.0
 10
738.5384876786527
 20
2661.378898556139
 30
0.0
 10
733.0429098000677
 20
2659.433786895393
 30
0.0
 10
726.3616900827216
 20
2656.505217463059
 30
0.0
 10
718.7268134711303
 20
2652.232372645381
 30
0.0
 10
712.7394406974781
 20
2648.071863766751
 30
0.0
 10
708.7779460535094
 20
2644.866671417954
 30
0.0
 10
706.5826983452244
 20
2642.955139861584
 30
0.0
 10
705.2004101245585
 20
2641.694223646843
 30
0.0
 10
704.0600713531386
 20
2640.631318267358
 30
0.0
 10
702.9977757185553
 20
2639.637356593402
 30
0.0
 10
701.7229793413973
 20
2638.414778904304
 30
0.0
 10
700.2762459571022
 20
2636.921883494153
 30
0.0
 10
698.7952387126677
 20
2635.180318524805
 30
0.0
 10
697.4328386044037
 20
2633.477213355593
 30
0.0
 10
695.6318453137217
 20
2631.194793117675
 30
0.0
 10
692.5866246875377
 20
2627.251802528923
 30
0.0
 10
688.2782153290428
 20
2621.40451703184
 30
0.0
 10
683.322348263741
 20
2614.241130862905
 30
0.0
 10
677.1070953208297
 20
2604.650673585679
 30
0.0
 10
669.7460268679797
 20
2592.178543196158
 30
0.0
 10
661.7098110962547
 20
2576.958331168219
 30
0.0
 10
654.1770953921155
 20
2561.187470774075
 30
0.0
 10
645.0026513466736
 20
2540.117366572193
 30
0.0
 10
634.7493158720688
 20
2513.267842899873
 30
0.0
 10
624.1338318141507
 20
2480.823467461636
 30
0.0
 10
614.9113312089107
 20
2448.228036080163
 30
0.0
 10
606.8948609540167
 20
2415.614678290714
 30
0.0
 10
599.9417363825569
 20
2383.081156703773
 30
0.0
 10
591.9854858086188
 20
2340.152479535323
 30
0.0
 10
584.1624197303397
 20
2287.074598833507
 30
0.0
 10
577.6207737769986
 20
2224.233008426917
 30
0.0
 10
574.2552435693839
 20
2172.791995050316
 30
0.0
 10
572.7030415060617
 20
2132.36724449451
 30
0.0
 10
572.1883845105336
 20
2107.674261426645
 30
0.0
 10
572.0334971344787
 20
2088.185565117657
 30
0.0
 10
572.0382739639136
 20
2076.38768099914
 30
0.0
 10
572.0999074808028
 20
2067.060178541511
 30
0.0
 10
572.1545473056328
 20
2061.91976897077
 30
0.0
 10
572.1996226065536
 20
2058.505829315602
 30
0.0
 10
572.2232861352646
 20
2056.816993420925
 30
0.0
 10
572.2498584553619
 20
2055.132806795073
 30
0.0
 10
572.2655235199927
 20
2053.940952845358
 30
0.0
 10
572.2799144558308
 20
2053.240493569499
 30
0.0
 10
572.286076184516
 20
2053.030846583363
 30
0.0
 10
572.2863809415867
 20
2052.820607560285
 30
0.0
 10
572.2864020011189
 20
2052.543980155779
 30
0.0
 10
572.2971763188298
 20
2052.303216525183
 30
0.0
 10
572.3386895374688
 20
2052.105388761001
 30
0.0
 10
572.3685274795607
 20
2051.976881781487
 30
0.0
 10
572.3977372929558
 20
2051.80902925188
 30
0.0
 10
572.3919258703069
 20
2051.635743510004
 30
0.0
 10
572.3853168370408
 20
2051.494303206634
 30
0.0
 10
572.3822310611217
 20
2051.353551818391
 30
0.0
 10
572.3895197268949
 20
2051.179813042535
 30
0.0
 10
572.4035528026616
 20
2050.902264697002
 30
0.0
 10
572.405667064858
 20
2050.553891162152
 30
0.0
 10
572.4089742776997
 20
2050.183963365617
 30
0.0
 10
572.4193168633108
 20
2049.863128441762
 30
0.0
 10
572.4285519622797
 20
2049.591017608557
 30
0.0
 10
572.4313937442936
 20
2049.364003426188
 30
0.0
 10
572.4360374316358
 20
2049.182364331848
 30
0.0
 10
572.4416373666646
 20
2049.023665621829
 30
0.0
 10
572.4448851395505
 20
2048.842276927299
 30
0.0
 10
572.4503379712806
 20
2048.672202412605
 30
0.0
 10
572.4538406228248
 20
2048.536205361815
 30
0.0
 10
572.4575325439547
 20
2048.400225485047
 30
0.0
 10
572.4743035465118
 20
2047.823020186388
 30
0.0
 10
572.5799546194257
 20
2044.376973247458
 30
0.0
 10
572.8819727826418
 20
2038.10052704928
 30
0.0
 10
573.5507657531857
 20
2029.413492498677
 30
0.0
 10
575.0584268543467
 20
2015.230925277069
 30
0.0
 10
578.2388466080346
 20
1995.841785541812
 30
0.0
 10
583.3115888320356
 20
1975.64685280965
 30
0.0
 10
587.3599455294793
 20
1962.912371340708
 30
0.0
 10
589.1000924913352
 20
1957.882290148827
 30
0.0
 10
589.6073323862735
 20
1956.446987076632
 30
0.0
 10
589.8197935154896
 20
1955.849809884558
 30
0.0
 10
589.9989322190882
 20
1955.348058267203
 30
0.0
 10
590.1285007835943
 20
1954.991442127289
 30
0.0
 10
590.2557155297405
 20
1954.632871306673
 30
0.0
 10
590.3868138167492
 20
1954.277848487048
 30
0.0
 10
590.4938476062745
 20
1953.982560692426
 30
0.0
 10
590.5768315431193
 20
1953.741663689584
 30
0.0
 10
590.6496418552993
 20
1953.5593154746
 30
0.0
 10
590.7101608681152
 20
1953.408553519065
 30
0.0
 10
590.7463194609014
 20
1953.295357997039
 30
0.0
 10
590.7755839288402
 20
1953.186950471278
 30
0.0
 10
590.8174867728522
 20
1953.066583100449
 30
0.0
 10
590.8732187786955
 20
1952.946890325341
 30
0.0
 10
590.9096343965435
 20
1952.868024113149
 30
0.0
 10
590.9356622876872
 20
1952.811716099777
 30
0.0
 10
590.9541499401962
 20
1952.769445823896
 30
0.0
 10
590.9735169721536
 20
1952.723696827878
 30
0.0
 10
590.9862837594483
 20
1952.683467632557
 30
0.0
 10
590.9966535749414
 20
1952.650648241264
 30
0.0
 10
590.9869947504262
 20
1952.629691712998
 30
0.0
 10
590.9690893050502
 20
1952.629959201794
 30
0.0
 10
590.9500277836703
 20
1952.636071642371
 30
0.0
 10
590.9269551901854
 20
1952.645409952323
 30
0.0
 10
590.9037709726213
 20
1952.654745630146
 30
0.0
 10
590.8845827718902
 20
1952.661135094515
 30
0.0
 10
590.8670834995132
 20
1952.66181736867
 30
0.0
 10
590.8572146391272
 20
1952.646832100565
 30
0.0
 10
590.8584332551692
 20
1952.626347652284
 30
0.0
 10
590.8632581269562
 20
1952.598282926559
 30
0.0
 10
590.8740629703685
 20
1952.560672468931
 30
0.0
 10
590.8886738317634
 20
1952.517660361297
 30
0.0
 10
590.9081518954922
 20
1952.466124050688
 30
0.0
 10
590.9328887934463
 20
1952.403016641428
 30
0.0
 10
590.9756424272601
 20
1952.294514744533
 30
0.0
 10
591.0533748706654
 20
1952.0889864135
 30
0.0
 10
591.2067418212282
 20
1951.673076106298
 30
0.0
 10
591.4300017889693
 20
1951.082604033797
 30
0.0
 10
591.7888385787667
 20
1950.137791568883
 30
0.0
 10
593.5144697202563
 20
1945.671853141288
 30
0.0
 10
596.8424209941114
 20
1937.795489475493
 30
0.0
 10
602.1543245842332
 20
1926.97540640325
 30
0.0
 10
608.0505801324695
 20
1916.513776236734
 30
0.0
 10
614.5394835372863
 20
1906.417089375301
 30
0.0
 10
621.5923554506883
 20
1896.740914479113
 30
0.0
 10
629.2348178468274
 20
1887.478981465114
 30
0.0
 10
637.4199510607942
 20
1878.707777954467
 30
0.0
 10
646.1742455771853
 20
1870.431403074622
 30
0.0
 10
655.4626612219912
 20
1862.707998329975
 30
0.0
 10
665.3071055929073
 20
1855.558104814123
 30
0.0
 10
675.6808065819933
 20
1849.040284019361
 30
0.0
 10
686.5690661582635
 20
1843.204067489209
 30
0.0
 10
697.9536755885858
 20
1838.102447568705
 30
0.0
 10
709.8124578208154
 20
1833.790973616979
 30
0.0
 10
722.1199935740006
 20
1830.331092126606
 30
0.0
 10
734.8901884223056
 20
1827.759440267718
 30
0.0
 10
747.9902688970765
 20
1826.143401471182
 30
0.0
 10
761.3842791390018
 20
1825.546813969548
 30
0.0
 10
772.6149348283435
 20
1825.939767987363
 30
0.0
 10
781.6328859457686
 20
1826.910287030541
 30
0.0
 10
788.3688495141615
 20
1827.951143283939
 30
0.0
 10
795.0663536287393
 20
1829.263495362105
 30
0.0
 10
803.9471956956695
 20
1831.334167318822
 30
0.0
 10
814.9216757229041
 20
1834.555615141468
 30
0.0
 10
827.7706990416774
 20
1839.482494736611
 30
0.0
 10
840.2387594780558
 20
1845.432778614761
 30
0.0
 10
852.2556432936696
 20
1852.368979229459
 30
0.0
 10
863.7587722071337
 20
1860.244836573065
 30
0.0
 10
874.6904495317723
 20
1869.012632556612
 30
0.0
 10
884.9988660674496
 20
1878.621858266702
 30
0.0
 10
894.6372792002295
 20
1889.020975366609
 30
0.0
 10
903.5630401616073
 20
1900.158301005049
 30
0.0
 10
911.7377650995047
 20
1911.982097335645
 30
0.0
 10
919.1249589820984
 20
1924.441283357917
 30
0.0
 10
924.5847670979166
 20
1935.289678264516
 30
0.0
 10
928.5244520874767
 20
1944.231922670331
 30
0.0
 10
931.2731111600475
 20
1951.079686797106
 30
0.0
 10
933.8452685993942
 20
1958.032419511042
 30
0.0
 10
937.0713911738276
 20
1967.452800717625
 30
0.0
 10
940.6960072987136
 20
1979.467006067561
 30
0.0
 10
944.3436529819376
 20
1994.205424835392
 30
0.0
 10
947.2788834212074
 20
2009.313851750592
 30
0.0
 10
949.4537781738763
 20
2024.71185374913
 30
0.0
 10
950.6065881548604
 20
2037.747441504468
 30
0.0
 10
951.1274981474416
 20
2048.276068672099
 30
0.0
 10
951.4081576645143
 20
2056.673159258095
 30
0.0
 10
951.6343589831889
 20
2064.746349317369
 30
0.0
 10
952.0252626604088
 20
2081.229762935905
 30
0.0
 10
952.1848870689206
 20
2094.639409762602
 30
0.0
 10
952.2094293869857
 20
2105.723040033899
 30
0.0
  0
CIRCLE
  5
118D
330
A
100
AcDbEntity
  8
HIDDEN
  6
HIDDEN
 48
0.05
370
     0
100
AcDbCircle
 10
629.2106279502928
 20
928.5398689115696
 30
0.0
 40
16.4982262989065
  0
CIRCLE
  5
118E
102
{ACAD_REACTORS
330
149B
102
}
330
A
100
AcDbEntity
  8
MODEL
  6
Continuous
100
AcDbCircle
 10
612.1392566022709
 20
1948.933936112986
 30
0.0
 40
5.0
  0
CIRCLE
  5
118F
102
{ACAD_REACTORS
330
149B
102
}
330
A
100
AcDbEntity
  8
MODEL
  6
Continuous
100
AcDbCircle
 10
612.1392566022713
 20
2248.933936112986
 30
0.0
 40
5.0
  0
CIRCLE
  5
1190
102
{ACAD_REACTORS
330
149B
102
}
330
A
100
AcDbEntity
  8
MODEL
  6
Continuous
100
AcDbCircle
 10
629.2106279502933
 20
2105.727648137788
 30
0.0
 40
35.0
  0
DIMENSION
  5
1191
330
A
100
AcDbEntity
  8
DIM
  6
Continuous
100
AcDbDimension
280
     0
  2
*D34
 10
473.5025485698283
 20
2248.933936112986
 30
0.0
 11
473.5025485698283
 21
2098.933936112986
 31
0.0
 70
   160
 71
     5
 42
300.0
 73
     0
 74
     0
 75
     0
  3
tfrom線あり
100
AcDbAlignedDimension
 13
607.1392566022709
 23
1948.933936112986
 33
0.0
 14
607.1392566022713
 24
2248.933936112986
 34
0.0
 50
90.0
100
AcDbRotatedDimension
  0
LINE
  5
1194
330
A
100
AcDbEntity
  8
DIM
  6
Continuous
100
AcDbLine
 10
617.1392566022709
 20
1948.933936112986
 30
0.0
 11
764.7016850027303
 21
2165.061077535806
 31
0.0
  0
LINE
  5
1195
330
A
100
AcDbEntity
  8
DIM
  6
Continuous
100
AcDbLine
 10
764.7016850027303
 20
2165.061077535806
 30
0.0
 11
764.7016850027303
 21
2509.78355656522
 31
0.0
  0
LINE
  5
1196
330
A
100
AcDbEntity
  8
DIM
  6
Continuous
100
AcDbLine
 10
617.1392566022713
 20
2248.933936112986
 30
0.0
 11
764.7016850027303
 21
2165.061077535806
 31
0.0
  0
MTEXT
  5
1197
330
A
100
AcDbEntity
  8
DIM
390
1D
100
AcDbMText
 10
726.6173426197521
 20
2247.899794387242
 30
0.0
 40
24.0
 41
949.7161250932043
 46
26.688
 71
     1
 72
     1
  1
{\C7;φ10固定金具用穴}
  7
ＭＳ ゴシック
 11
0.0000000000000001
 21
1.0
 31
0.0
 73
     1
 44
0.9822934569727006
1001
ACAD
1000
ACAD_MTEXT_DEFINED_HEIGHT_BEGIN
1070
    46
1040
26.688
1000
ACAD_MTEXT_DEFINED_HEIGHT_END
  0
DIMENSION
  5
1199
102
{ACAD_XDICTIONARY
360
119A
102
}
102
{ACAD_REACTORS
330
119B
102
}
330
A
100
AcDbEntity
  8
DIM
  6
Continuous
100
AcDbDimension
280
     0
  2
*D35
 10
1625.737926443877
 20
2244.733872511189
 30
0.0
 11
1593.737926443877
 21
2292.733872719805
 31
0.0
 70
    32
 71
     5
 42
96.00000041723205
 73
     0
 74
     0
 75
     0
  3
tfrom線あり
100
AcDbAlignedDimension
 13
1536.823821467849
 23
2340.733872928421
 33
0.0
 14
1536.823821467849
 24
2244.733872511189
 34
0.0
 50
90.0
100
AcDbRotatedDimension
  0
SPLINE
  5
119C
330
A
100
AcDbEntity
  8
MODEL
370
     0
100
AcDbSpline
210
0.0
220
0.0
230
1.0
 70
     8
 71
     3
 72
    10
 73
     6
 74
     0
 42
0.000000001
 43
0.0000000001
 40
0.4981610431386962
 40
0.4981610431386962
 40
0.4981610431386962
 40
0.4981610431386962
 40
0.5482596424694081
 40
0.9749033134705229
 40
1.0
 40
1.0
 40
1.0
 40
1.0
 10
762.1620421569786
 20
1388.453345479938
 30
0.0
 10
753.8121537721888
 20
1388.450356247669
 30
0.0
 10
674.0504659825878
 20
1380.902283544787
 30
0.0
 10
618.1617935786962
 20
1284.626840008518
 30
0.0
 10
599.85695741094
 20
1204.858214179869
 30
0.0
 10
598.9393157076168
 20
1199.943142084332
 30
0.0
  0
SPLINE
  5
119D
330
A
100
AcDbEntity
  8
MODEL
370
     0
100
AcDbSpline
210
0.0
220
0.0
230
1.0
 70
     8
 71
     3
 72
    10
 73
     6
 74
     0
 42
0.000000001
 43
0.0000000001
 40
0.4981610431386962
 40
0.4981610431386962
 40
0.4981610431386962
 40
0.4981610431386962
 40
0.5482596424694081
 40
0.9749033134705229
 40
1.0
 40
1.0
 40
1.0
 40
1.0
 10
762.1620421569786
 20
1388.453345479938
 30
0.0
 10
770.5119305417682
 20
1388.450356247669
 30
0.0
 10
850.2736183313693
 20
1380.902283544787
 30
0.0
 10
906.1622907352607
 20
1284.626840008518
 30
0.0
 10
924.4671269030172
 20
1204.858214179869
 30
0.0
 10
925.3847686063403
 20
1199.943142084332
 30
0.0
  0
DIMENSION
  5
119E
330
A
100
AcDbEntity
  8
DIM
 48
0.05
100
AcDbDimension
280
     0
  2
*D36
 10
1596.45171294862
 20
946.8161942894903
 30
0.0
 11
1596.45171294862
 21
927.8232793293536
 31
0.0
 70
   160
  1
G1 1/4"
 71
     5
 42
36.72063451735176
 73
     0
 74
     0
 75
     0
  3
tfrom線あり
100
AcDbAlignedDimension
 13
1548.729513495392
 23
910.0955597721387
 33
0.0
 14
1548.729513495392
 24
946.8161942894903
 34
0.0
 50
90.0
100
AcDbRotatedDimension
1001
ACAD
1000
DSTYLE
1002
{
1070
    42
1040
15.0
1070
    77
1070
     2
1002
}
  0
MTEXT
  5
121B
330
A
100
AcDbEntity
  8
TEMPLATE
390
1D
100
AcDbMText
 10
1329.20214454799
 20
227.1688729773101
 30
0.0
 40
24.4326171875
 41
0.0
 46
28.390701171875
 71
     1
 72
     1
  1
{7.6kg}
  7
ＭＳ ゴシック
 73
     1
 44
0.7828267384257844
1001
ACAD
1000
ACAD_MTEXT_DEFINED_HEIGHT_BEGIN
1070
    46
1040
28.390701171875
1000
ACAD_MTEXT_DEFINED_HEIGHT_END
  0
ARC
  5
1244
330
A
100
AcDbEntity
  8
HIDDEN
  6
HIDDEN
 48
0.05
100
AcDbCircle
 10
36.72073073977697
 20
928.5398689115696
 30
0.0
 40
1475.287244087491
100
AcDbArc
 50
355.7003915968775
 51
0.0
  0
ARC
  5
1246
330
A
100
AcDbEntity
  8
HIDDEN
  6
HIDDEN
 48
0.05
100
AcDbCircle
 10
36.72073073977697
 20
928.5398689115696
 30
0.0
 40
1475.287244087491
100
AcDbArc
 50
0.0
 51
5.344714534225686
  0
DIMENSION
  5
1291
330
A
100
AcDbEntity
  8
DIM
 48
0.05
100
AcDbDimension
280
     0
  2
*D38
 10
1713.978361047426
 20
1090.953359922235
 30
0.0
 11
1681.978361047426
 21
928.4533599222354
 31
0.0
 70
    32
 71
     5
 42
325.0
 73
     0
 74
     0
 75
     0
  3
tfrom線あり
100
AcDbAlignedDimension
 13
1536.823821467849
 23
765.9533599222354
 33
0.0
 14
1536.823821467849
 24
1090.953359922235
 34
0.0
 50
90.0
100
AcDbRotatedDimension
  0
DIMENSION
  5
12B4
330
A
100
AcDbEntity
  8
DIM
 48
0.05
100
AcDbDimension
280
     0
  2
*D39
 10
763.3864982148102
 20
1825.727648137788
 30
0.0
 11
763.3864982148102
 21
1965.727648137788
 31
0.0
 70
   160
 71
     5
 42
280.0
 73
     0
 74
     0
 75
     0
  3
tfrom線あり
100
AcDbAlignedDimension
 13
664.2106279502932
 23
2105.727648137788
 33
0.0
 14
692.7126697451377
 24
1825.727648137788
 34
0.0
 50
90.0
100
AcDbRotatedDimension
1001
ACAD
1000
DSTYLE
1002
{
1070
    76
1070
     1
1002
}
  0
DIMENSION
  5
12CF
330
A
100
AcDbEntity
  8
DIM
 48
0.05
100
AcDbDimension
280
     0
  2
*D40
 10
629.2106279502933
 20
1848.467944287944
 30
0.0
 11
600.5535710371443
 21
1848.467944287944
 31
0.0
 70
   160
 71
     5
 42
57.15705691314895
 73
     0
 74
     0
 75
     0
  3
tfrom線あり
100
AcDbAlignedDimension
 13
572.0535710371443
 23
2095.03683829597
 33
0.0
 14
629.2106279502933
 24
2070.727648137788
 34
0.0
100
AcDbRotatedDimension
  0
DIMENSION
  5
12E6
330
A
100
AcDbEntity
  8
DIM
 48
0.05
100
AcDbDimension
280
     0
  2
*D41
 10
612.1392566022713
 20
2304.590145901579
 30
0.0
 11
592.1392566022713
 21
2304.590145901579
 31
0.0
 70
   160
  1
 
 71
     5
 42
40.0
 73
     0
 74
     0
 75
     0
  3
tfrom線あり
100
AcDbAlignedDimension
 13
572.1392566022712
 23
2100.048350510715
 33
0.0
 14
612.1392566022713
 24
2253.933936112986
 34
0.0
100
AcDbRotatedDimension
1001
ACAD
1000
DSTYLE
1002
{
1070
   175
1070
     1
1070
   172
1070
     1
1002
}
  0
LINE
  5
1303
330
A
100
AcDbEntity
  8
DIM
 48
0.05
100
AcDbLine
 10
600.2942669250671
 20
2125.446777557182
 30
0.0
 11
517.0607544004942
 21
2279.7331813223
 31
0.0
  0
MTEXT
  5
1333
330
A
100
AcDbEntity
  8
DIM
390
1D
100
AcDbMText
 10
491.1296839155964
 20
2295.477045545274
 30
0.0
 40
24.0
 41
0.0
 46
27.888
 71
     1
 72
     1
  1
{φ70}
  7
ＭＳ ゴシック
 11
0.0000000000000001
 21
1.0
 31
0.0
 73
     1
 44
0.7828267384257844
1001
ACAD
1000
ACAD_MTEXT_DEFINED_HEIGHT_BEGIN
1070
    46
1040
27.888
1000
ACAD_MTEXT_DEFINED_HEIGHT_END
  0
LINE
  5
13C4
330
A
100
AcDbEntity
  8
HIDDEN
  6
Continuous
 48
0.05
100
AcDbLine
 10
1540.573821384027
 20
2274.373555252513
 30
0.0
 11
1548.729513495392
 21
2274.373555252513
 31
0.0
  0
LINE
  5
13C7
330
A
100
AcDbEntity
  8
HIDDEN
  6
Continuous
 48
0.05
100
AcDbLine
 10
1540.573821384027
 20
2311.094189769864
 30
0.0
 11
1548.729513495392
 21
2311.094189769864
 31
0.0
  0
LINE
  5
13C8
330
A
100
AcDbEntity
  8
HIDDEN
  6
Continuous
 48
0.05
100
AcDbLine
 10
1548.729513495392
 20
2274.373555252513
 30
0.0
 11
1548.729513495392
 21
2311.094189769864
 31
0.0
  0
LINE
  5
13C9
330
A
100
AcDbEntity
  8
HIDDEN
  6
Continuous
 48
0.05
100
AcDbLine
 10
1540.573821384027
 20
2274.373555252513
 30
0.0
 11
1540.573821384027
 21
2311.094189769864
 31
0.0
  0
HATCH
  5
13CA
330
A
100
AcDbEntity
  8
HIDDEN
  6
Continuous
 48
0.05
370
     0
100
AcDbHatch
 10
0.0
 20
0.0
 30
0.0
210
0.0
220
0.0
230
1.0
  2
ANSI31
 70
     0
 71
     0
 91
        1
 92
        1
 93
        4
 72
     1
 10
1540.573821384027
 20
2274.373555252513
 11
1540.573821384027
 21
2311.094189769865
 72
     1
 10
1540.573821384027
 20
2274.373555252513
 11
1548.729513495392
 21
2274.373555252513
 72
     1
 10
1548.729513495392
 20
2274.373555252513
 11
1548.729513495392
 21
2311.094189769865
 72
     1
 10
1540.573821384027
 20
2311.094189769864
 11
1548.729513495392
 21
2311.094189769864
 97
        0
 75
     0
 76
     1
 52
235.0
 41
1.499999999999999
 77
     0
 78
     1
 53
279.9999999999997
 43
1962.560074628951
 44
1978.951839636853
 45
4.690146923720639
 46
0.8269994461387559
 79
     0
 98
        1
 10
1962.560074628951
 20
1978.951839636853
1001
ACAD
1010
0.0
1020
0.0
1030
0.0
  0
LINE
  5
13EE
330
A
100
AcDbEntity
  8
HIDDEN
  6
Continuous
 48
0.05
100
AcDbLine
 10
1540.573821384027
 20
910.0955597721387
 30
0.0
 11
1548.729513495392
 21
910.0955597721387
 31
0.0
  0
LINE
  5
13EF
330
A
100
AcDbEntity
  8
HIDDEN
  6
Continuous
 48
0.05
100
AcDbLine
 10
1540.573821384027
 20
946.8161942894903
 30
0.0
 11
1548.729513495392
 21
946.8161942894903
 31
0.0
  0
LINE
  5
13F0
330
A
100
AcDbEntity
  8
HIDDEN
  6
Continuous
 48
0.05
100
AcDbLine
 10
1548.729513495392
 20
910.0955597721387
 30
0.0
 11
1548.729513495392
 21
946.8161942894903
 31
0.0
  0
LINE
  5
13F1
330
A
100
AcDbEntity
  8
HIDDEN
  6
Continuous
 48
0.05
100
AcDbLine
 10
1540.573821384027
 20
910.0955597721387
 30
0.0
 11
1540.573821384027
 21
946.8161942894903
 31
0.0
  0
HATCH
  5
13F2
330
A
100
AcDbEntity
  8
HIDDEN
  6
Continuous
 48
0.05
370
     0
100
AcDbHatch
 10
0.0
 20
0.0
 30
0.0
210
0.0
220
0.0
230
1.0
  2
ANSI31
 70
     0
 71
     0
 91
        1
 92
        1
 93
        4
 72
     1
 10
1540.573821384027
 20
910.0955597721387
 11
1540.573821384027
 21
946.8161942894907
 72
     1
 10
1540.573821384027
 20
910.0955597721387
 11
1548.729513495392
 21
910.0955597721387
 72
     1
 10
1548.729513495392
 20
910.0955597721387
 11
1548.729513495392
 21
946.8161942894907
 72
     1
 10
1540.573821384027
 20
946.8161942894903
 11
1548.729513495392
 21
946.8161942894903
 97
        0
 75
     0
 76
     1
 52
235.0
 41
1.499999999999999
 77
     0
 78
     1
 53
279.9999999999997
 43
1962.560074628951
 44
614.6738441564793
 45
4.690146923720639
 46
0.8269994461387559
 79
     0
 98
        1
 10
1962.560074628951
 20
614.6738441564793
1001
ACAD
1010
0.0
1020
0.0
1030
0.0
  0
LINE
  5
13F4
330
A
100
AcDbEntity
  8
MODEL
100
AcDbLine
 10
1540.573821384027
 20
907.5034000271404
 30
0.0
 11
1540.573821384027
 21
949.4083540344886
 31
0.0
  0
LINE
  5
141D
330
A
100
AcDbEntity
  8
DIM
 48
0.05
100
AcDbLine
 10
612.1392566022713
 20
2304.590145901579
 30
0.0
 11
656.4149069907082
 21
2304.590145901579
 31
0.0
  0
MTEXT
  5
1450
330
A
100
AcDbEntity
  8
DIM
390
1D
100
AcDbMText
 10
622.4051967181724
 20
2340.177901224897
 30
0.0
 40
24.0
 41
0.0
 46
24.0
 71
     1
 72
     1
  1
{40}
  7
ＭＳ ゴシック
 73
     1
 44
0.7828267384257844
1001
ACAD
1000
ACAD_MTEXT_DEFINED_HEIGHT_BEGIN
1070
    46
1040
24.0
1000
ACAD_MTEXT_DEFINED_HEIGHT_END
  0
HATCH
  5
149B
330
A
100
AcDbEntity
  8
MODEL
 48
0.05
100
AcDbHatch
 10
0.0
 20
0.0
 30
0.0
210
0.0
220
0.0
230
1.0
  2
ANSI31
 70
     0
 71
     1
 91
        5
 92
        1
 93
        1
 72
     2
 10
629.2106279502933
 20
2105.727648137788
 40
35.0
 50
0.0
 51
360.0
 73
     1
 97
        1
330
1190
 92
       17
 93
        1
 72
     2
 10
612.1392566022713
 20
2248.933936112986
 40
5.0
 50
0.0
 51
360.0
 73
     1
 97
        1
330
118F
 92
        1
 93
        1
 72
     2
 10
612.1392566022709
 20
1948.933936112986
 40
5.0
 50
0.0
 51
360.0
 73
     1
 97
        1
330
118E
 92
       17
 93
        1
 72
     2
 10
612.1392566022709
 20
1948.933936112986
 40
5.0
 50
0.0
 51
360.0
 73
     1
 97
        1
330
118E
 92
       17
 93
        1
 72
     2
 10
612.1392566022713
 20
2248.933936112986
 40
5.0
 50
0.0
 51
360.0
 73
     1
 97
        1
330
118F
 75
     0
 76
     1
 52
0.0
 41
2.0
 77
     0
 78
     1
 53
45.0
 43
0.0
 44
0.0
 45
-4.490128060534575
 46
4.490128060534577
 79
     0
 98
        1
 10
0.0
 20
0.0
1001
ACAD
1010
0.0
1020
0.0
1030
0.0
  0
CIRCLE
  5
14FF
330
A
100
AcDbEntity
  8
HIDDEN
  6
HIDDEN
 48
0.05
370
     0
100
AcDbCircle
 10
629.2106279502933
 20
2105.727648137788
 30
0.0
 40
16.4982262989065
  0
MTEXT
  5
1580
102
{ACAD_XDICTIONARY
360
1581
102
}
330
A
100
AcDbEntity
  8
MODEL
 48
0.05
100
AcDbMText
 10
75.5507921136045
 20
85.48290373470223
 30
0.0
 40
22.0
 41
0.0
 46
11.0
 71
     1
 72
     1
  1
{20231204N}
  7
ＭＳ ゴシック
 73
     1
 44
1.0
1001
ACAD
1000
ACAD_MTEXT_DEFINED_HEIGHT_BEGIN
1070
    46
1040
11.0
1000
ACAD_MTEXT_DEFINED_HEIGHT_END
  0
VIEWPORT
  5
349
330
B
100
AcDbEntity
 67
     1
  8
0
348
26C
100
AcDbViewport
 10
202.5
 20
128.5
 30
0.0
 40
486.0
 41
308.4
 68
     1
 69
     1
 12
202.5
 22
128.5
 13
0.0
 23
0.0
 14
0.5
 24
0.5
 15
0.0
 25
0.0
 16
0.0
 26
0.0
 36
1.0
 17
0.0
 27
0.0
 37
0.0
 42
50.0
 43
0.0
 44
0.0
 45
308.4
 50
0.0
 51
0.0
 72
   100
 90
   557152
  1

281
     0
 71
     1
 74
     0
110
0.0
120
0.0
130
0.0
111
1.0
121
0.0
131
0.0
112
0.0
122
1.0
132
0.0
 79
     0
146
0.0
170
     0
 61
     5
292
     1
282
     1
141
0.0
142
0.0
  0
VIEWPORT
  5
34A
330
B
100
AcDbEntity
 67
     1
  8
0
348
26C
100
AcDbViewport
 10
202.5
 20
128.5
 30
0.0
 40
324.0
 41
205.6
 68
     2
 69
     2
 12
986.6781359294572
 22
1427.077061889956
 13
0.0
 23
0.0
 14
0.5
 24
0.5
 15
0.0
 25
0.0
 16
0.0
 26
0.0
 36
1.0
 17
0.0
 27
0.0
 37
0.0
 42
50.0
 43
0.0
 44
0.0
 45
2890.021615685494
 50
0.0
 51
0.0
 72
   100
 90
   557152
  1

281
     0
 71
     1
 74
     0
110
0.0
120
0.0
130
0.0
111
1.0
121
0.0
131
0.0
112
0.0
122
1.0
132
0.0
 79
     0
146
0.0
170
     0
 61
     5
292
     1
282
     1
141
0.0
142
0.0
  0
ENDSEC
  0
SECTION
  2
OBJECTS
  0
DICTIONARY
  5
19
330
0
100
AcDbDictionary
281
     1
  3
ACAD_CIP_PREVIOUS_PRODUCT_INFO
350
15DC
  3
ACAD_COLOR
350
674
  3
ACAD_DETAILVIEWSTYLE
350
BBF
  3
ACAD_FIELDLIST
350
157E
  3
ACAD_GROUP
350
1A
  3
ACAD_IMAGE_VARS
350
27B
  3
ACAD_LAYOUT
350
1E
  3
ACAD_MATERIAL
350
263
  3
ACAD_MLEADERSTYLE
350
336
  3
ACAD_MLINESTYLE
350
1B
  3
ACAD_PLOTSETTINGS
350
22
  3
ACAD_PLOTSTYLENAME
350
1F
  3
ACAD_SCALELIST
350
241
  3
ACAD_SECTIONVIEWSTYLE
350
BC0
  3
ACAD_TABLESTYLE
350
278
  3
ACAD_VISUALSTYLE
350
267
  3
ACDB_RECOMPOSE_DATA
350
1D2A
  3
AcDbVariableDictionary
350
330
  3
APPDATA
350
27A
  3
ASE_INDEX_DICTIONARY
350
15ED
  3
DimOffsetDictionary
350
E3E
  0
SUN
  5
904
330
15
100
AcDbSun
 90
        1
290
     1
 63
     7
421
 16777215
 40
1.0
291
     1
 91
  2455826
 92
 54000000
292
     0
 70
     0
 71
   256
280
     1
  0
DICTIONARY
  5
2E1
330
2
100
AcDbDictionary
280
     1
281
     1
  3
ACAD_LAYERSTATES
360
2E2
  3
ACLYDICTIONARY
360
DF9
  0
DICTIONARY
  5
15DE
330
14
100
AcDbDictionary
280
     1
281
     1
  3
ADSK_XREC_LAYER_RECONCILED
360
15DF
  0
DICTIONARY
  5
15E0
330
4B
100
AcDbDictionary
280
     1
281
     1
  3
ADSK_XREC_LAYER_RECONCILED
360
15E1
  0
DICTIONARY
  5
15E2
330
4C
100
AcDbDictionary
280
     1
281
     1
  3
ADSK_XREC_LAYER_RECONCILED
360
15E3
  0
DICTIONARY
  5
15E4
330
4D
100
AcDbDictionary
280
     1
281
     1
  3
ADSK_XREC_LAYER_RECONCILED
360
15E5
  0
DICTIONARY
  5
15E6
330
667
100
AcDbDictionary
280
     1
281
     1
  3
ADSK_XREC_LAYER_RECONCILED
360
15E7
  0
DICTIONARY
  5
15E8
330
88C
100
AcDbDictionary
280
     1
281
     1
  3
ADSK_XREC_LAYER_RECONCILED
360
15E9
  0
DICTIONARY
  5
15EA
330
DAE
100
AcDbDictionary
280
     1
281
     1
  3
ADSK_XREC_LAYER_RECONCILED
360
15EB
  0
DICTIONARY
  5
119A
330
1199
100
AcDbDictionary
280
     1
281
     1
  3
ACAD_DIMASSOC
360
119B
  0
DICTIONARY
  5
1581
330
1580
100
AcDbDictionary
280
     1
281
     1
  3
ACAD_FIELD
360
1582
  0
XRECORD
  5
15DC
102
{ACAD_REACTORS
330
19
102
}
330
19
100
AcDbXrecord
280
     1
300
ACD
300
2023
300

  0
DICTIONARY
  5
674
102
{ACAD_REACTORS
330
19
102
}
330
19
100
AcDbDictionary
281
     1
  0
DICTIONARY
  5
BBF
102
{ACAD_REACTORS
330
19
102
}
330
19
100
AcDbDictionary
281
     1
  3
Metric50
350
15D3
  0
FIELDLIST
  5
157E
102
{ACAD_REACTORS
330
19
102
}
330
19
100
AcDbIdSet
 90
        2
330
1583
330
1584
100
AcDbFieldList
  0
DICTIONARY
  5
1A
102
{ACAD_REACTORS
330
19
102
}
330
19
100
AcDbDictionary
281
     1
  0
RASTERVARIABLES
  5
27B
102
{ACAD_REACTORS
330
19
102
}
330
19
100
AcDbRasterVariables
 90
        0
 70
     1
 71
     1
 72
     1
  0
DICTIONARY
  5
1E
102
{ACAD_REACTORS
330
19
102
}
330
19
100
AcDbDictionary
281
     1
  3
Layout1
350
21
  3
Model
350
20
  0
DICTIONARY
  5
263
102
{ACAD_REACTORS
330
19
102
}
330
19
100
AcDbDictionary
281
     1
  3
ByBlock
350
265
  3
ByLayer
350
264
  3
Global
350
266
  0
DICTIONARY
  5
336
102
{ACAD_REACTORS
330
19
102
}
330
19
100
AcDbDictionary
281
     1
  3
Standard
350
DAB
  0
DICTIONARY
  5
1B
102
{ACAD_REACTORS
330
19
102
}
330
19
100
AcDbDictionary
281
     1
  3
Standard
350
1C
  0
DICTIONARY
  5
22
102
{ACAD_REACTORS
330
19
102
}
330
19
100
AcDbDictionary
281
     1
  0
ACDBDICTIONARYWDFLT
  5
1F
102
{ACAD_REACTORS
330
19
102
}
330
19
100
AcDbDictionary
281
     1
  3
Normal
350
1D
100
AcDbDictionaryWithDefault
340
1D
  0
DICTIONARY
  5
241
102
{ACAD_REACTORS
330
19
102
}
330
19
100
AcDbDictionary
281
     1
  3
A0
350
242
  3
A1
350
243
  3
A2
350
244
  3
A3
350
245
  3
A4
350
246
  3
A5
350
247
  3
A6
350
248
  3
A7
350
249
  3
A8
350
24A
  3
A9
350
24B
  3
B0
350
24C
  3
B1
350
24D
  3
B2
350
24E
  3
B3
350
24F
  3
B4
350
250
  3
B5
350
251
  3
B6
350
252
  3
B7
350
253
  3
B8
350
254
  3
B9
350
255
  3
C0
350
256
  3
C1
350
257
  3
C2
350
258
  3
C3
350
259
  3
C4
350
25A
  3
C5
350
25B
  3
C6
350
25C
  3
C7
350
25D
  3
C8
350
25E
  3
C9
350
25F
  3
D0
350
260
  3
D1
350
261
  3
D2
350
262
  0
DICTIONARY
  5
BC0
102
{ACAD_REACTORS
330
19
102
}
330
19
100
AcDbDictionary
281
     1
  3
Metric50
350
15D2
  0
DICTIONARY
  5
278
102
{ACAD_REACTORS
330
19
102
}
330
19
100
AcDbDictionary
281
     1
  3
Standard
350
279
  0
DICTIONARY
  5
267
102
{ACAD_REACTORS
330
19
102
}
330
19
100
AcDbDictionary
281
     1
  3
2dWireframe
350
26C
  3
3D Hidden
350
26E
  3
3dWireframe
350
26D
  3
Basic
350
26F
  3
Brighten
350
273
  3
ColorChange
350
277
  3
Conceptual
350
271
  3
Dim
350
272
  3
EdgeColorOff
350
8FE
  3
Facepattern
350
276
  3
Flat
350
268
  3
FlatWithEdges
350
269
  3
Gouraud
350
26A
  3
GouraudWithEdges
350
26B
  3
Hidden
350
8FB
  3
JitterOff
350
8FC
  3
Linepattern
350
275
  3
OverhangOff
350
8FD
  3
Realistic
350
270
  3
Shaded
350
903
  3
Shaded with edges
350
902
  3
Shades of Gray
350
8FF
  3
Sketchy
350
900
  3
Thicken
350
274
  3
Wireframe
350
8FA
  3
X-Ray
350
901
  0
XRECORD
  5
1D2A
102
{ACAD_REACTORS
330
19
102
}
330
19
100
AcDbXrecord
280
     1
 90
        1
330
279
  0
DICTIONARY
  5
330
102
{ACAD_REACTORS
330
19
102
}
330
19
100
AcDbDictionary
281
     1
  3
CANNOSCALE
350
331
  3
CMLEADERSTYLE
350
DB1
  3
CTABLESTYLE
350
335
  3
CVIEWDETAILSTYLE
350
15F0
  3
CVIEWSECTIONSTYLE
350
15F1
  3
DGNFRAME
350
160D
  3
DIMASSOC
350
160B
  3
HIDETEXT
350
1609
  3
HPTRANSPARENCY
350
D52
  3
INDEXCTL
350
1608
  3
LAYEREVAL
350
15F2
  3
LAYERNOTIFY
350
15F3
  3
LIGHTINGUNITS
350
1606
  3
LOFTANG1
350
160E
  3
LOFTANG2
350
160F
  3
LONGITUDE
350
1610
  3
MSLTSCALE
350
1605
  3
SOLIDHIST
350
160C
  3
SORTENTS
350
1607
  3
XCLIPFRAME
350
160A
  0
DICTIONARY
  5
27A
102
{ACAD_REACTORS
330
19
102
}
330
19
100
AcDbDictionary
281
     1
  0
DICTIONARY
  5
15ED
102
{ACAD_REACTORS
330
19
102
}
330
19
100
AcDbDictionary
281
     1
  3
ASEBlockHierarchyIndexRecord
350
15EF
1001
DCO15
1040
2115116926.0
  0
DICTIONARY
  5
E3E
102
{ACAD_REACTORS
330
19
102
}
330
19
100
AcDbDictionary
281
     1
  3
DIMRAILANGLE
350
ECE
  3
DIMRAILFIRSTOFFSET
350
ECC
  3
DIMRAILOFFSET
350
ECD
  3
DIMRAILSENABLED
350
ECF
  0
DICTIONARY
  5
2E2
102
{ACAD_REACTORS
330
2E1
102
}
330
2E1
100
AcDbDictionary
281
     1
  3
ARGON_LAYERP_9
350
7AA
  0
DICTIONARY
  5
DF9
102
{ACAD_REACTORS
330
2E1
102
}
330
2E1
100
AcDbDictionary
281
     1
1001
ACAD
1000
<All
  0
XRECORD
  5
15DF
102
{ACAD_REACTORS
330
15DE
102
}
330
15DE
100
AcDbXrecord
280
     1
290
     1
  0
XRECORD
  5
15E1
102
{ACAD_REACTORS
330
15E0
102
}
330
15E0
100
AcDbXrecord
280
     1
290
     1
  0
XRECORD
  5
15E3
102
{ACAD_REACTORS
330
15E2
102
}
330
15E2
100
AcDbXrecord
280
     1
290
     1
  0
XRECORD
  5
15E5
102
{ACAD_REACTORS
330
15E4
102
}
330
15E4
100
AcDbXrecord
280
     1
290
     1
  0
XRECORD
  5
15E7
102
{ACAD_REACTORS
330
15E6
102
}
330
15E6
100
AcDbXrecord
280
     1
290
     1
  0
XRECORD
  5
15E9
102
{ACAD_REACTORS
330
15E8
102
}
330
15E8
100
AcDbXrecord
280
     1
290
     1
  0
XRECORD
  5
15EB
102
{ACAD_REACTORS
330
15EA
102
}
330
15EA
100
AcDbXrecord
280
     1
290
     1
  0
DIMASSOC
  5
119B
102
{ACAD_REACTORS
330
119A
102
}
330
119A
100
AcDbDimAssoc
330
1199
 90
        3
 70
     0
 71
     1
  1
AcDbOsnapPointRef
 72
     1
331
1158
 73
     0
 91
        0
 40
0.0
 10
0.0
 20
0.0
 30
0.0
 75
     0
  1
AcDbOsnapPointRef
 72
    13
331
1159
 73
     0
 91
        0
 40
0.0
 10
0.0
 20
0.0
 30
0.0
 75
     0
  0
DICTIONARY
  5
1582
102
{ACAD_REACTORS
330
1581
102
}
330
1581
100
AcDbDictionary
280
     1
281
     1
  3
TEXT
360
1583
  0
ACDBDETAILVIEWSTYLE
  5
15D3
102
{ACAD_REACTORS
330
BBF
102
}
330
BBF
100
AcDbModelDocViewStyle
 70
     0
  3
Metric50
290
     0
300
Metric50
 90
        0
100
AcDbDetailViewStyle
 70
     0
 71
     0
 90
        3
 71
     1
340
17
 62
   256
 40
5.0
340
0
 62
   256
 40
5.0
300

 40
0.0
280
     1
 71
     2
340
13
 90
       25
 62
   256
 71
     3
340
17
 62
   256
 40
5.0
 90
        0
 40
15.0
 90
        1
300
%<\AcVar ViewDetailId>% (%<\AcVar ViewScale \f "%sn">%)
 71
     4
340
13
 90
       25
 62
   256
340
13
 90
       25
 62
   256
280
     0
  0
LAYOUT
  5
21
102
{ACAD_REACTORS
330
1E
102
}
330
1E
100
AcDbPlotSettings
  1

  2
none_device
  4
ISO_A3_(420.00_x_297.00_MM)
  6

 40
7.5
 41
20.0
 42
7.5
 43
20.0
 44
420.0
 45
297.0
 46
0.0
 47
0.0
 48
0.0
 49
0.0
140
0.0
141
0.0
142
1.0
143
1.0
 70
     0
 72
     1
 73
     0
 74
     0
  7

 75
     0
147
1.0
 76
     0
 77
     2
 78
   300
148
0.0
149
0.0
100
AcDbLayout
  1
Layout1
 70
     0
 71
     1
 10
-95.87226993865028
 20
-25.69999999999999
 11
201.1277300613496
 21
184.3
 12
0.0
 22
0.0
 32
0.0
 14
0.0
 24
0.0
 34
0.0
 15
0.0
 25
0.0
 35
0.0
146
0.0
 13
0.0
 23
0.0
 33
0.0
 16
1.0
 26
0.0
 36
0.0
 17
0.0
 27
1.0
 37
0.0
 76
     0
330
B
331
349
  0
LAYOUT
  5
20
102
{ACAD_REACTORS
330
1E
102
}
330
1E
100
AcDbPlotSettings
  1

  2
none_device
  4
ISO_A3_(420.00_x_297.00_MM)
  6

 40
7.5
 41
20.0
 42
7.5
 43
20.0
 44
420.0
 45
297.0
 46
0.0
 47
0.0
 48
0.0
 49
0.0
140
0.0
141
0.0
142
1.0
143
1.0
 70
  1024
 72
     1
 73
     0
 74
     0
  7

 75
     0
147
1.0
 76
     0
 77
     2
 78
   300
148
0.0
149
0.0
100
AcDbLayout
  1
Model
 70
     0
 71
     0
 10
0.0
 20
0.0
 11
2100.0
 21
2970.0
 12
0.0
 22
0.0
 32
0.0
 14
0.0
 24
0.0
 34
-0.0000000000000071
 15
2100.0
 25
2970.0
 35
0.0000000000000071
146
0.0
 13
0.0
 23
0.0
 33
0.0
 16
0.0
 26
0.0
 36
0.0
 17
0.0
 27
0.0
 37
0.0
 76
     0
330
A
331
15
  0
MATERIAL
  5
265
102
{ACAD_REACTORS
330
263
102
}
330
263
100
AcDbMaterial
  1
ByBlock
  0
MATERIAL
  5
264
102
{ACAD_REACTORS
330
263
102
}
330
263
100
AcDbMaterial
  1
ByLayer
  0
MATERIAL
  5
266
102
{ACAD_REACTORS
330
263
102
}
330
263
100
AcDbMaterial
  1
Global
  0
MLEADERSTYLE
  5
DAB
102
{ACAD_REACTORS
330
336
102
}
330
336
100
AcDbMLeaderStyle
179
     2
170
     2
171
     1
172
     0
 90
        2
 40
0.0
 41
0.0
173
     1
 91
-1056964608
340
11
 92
       -2
290
     1
 42
2.0
291
     1
 43
8.0
  3
Standard
 44
4.0
300

342
17
174
     1
178
     6
175
     1
176
     0
 93
-1056964608
 45
4.0
292
     0
297
     0
 46
4.0
 94
-1056964608
 47
1.0
 49
1.0
140
1.0
293
     1
141
0.0
294
     1
177
     0
142
1.0
295
     0
296
     0
143
3.75
271
     0
272
     9
273
     9
298
     0
1001
ACAD_MLEADERVER
1070
     2
  0
MLINESTYLE
  5
1C
102
{ACAD_REACTORS
330
1B
102
}
330
1B
100
AcDbMlineStyle
  2
STANDARD
 70
     0
  3

 62
     0
 51
90.0
 52
90.0
 71
     2
 49
0.5
 62
   256
  6
BYLAYER
 49
-0.5
 62
   256
  6
BYLAYER
  0
ACDBPLACEHOLDER
  5
1D
102
{ACAD_REACTORS
330
1F
102
}
330
1F
  0
SCALE
  5
242
102
{ACAD_REACTORS
330
241
102
}
330
241
100
AcDbScale
 70
     0
300
1:1
140
1.0
141
1.0
290
     1
  0
SCALE
  5
243
102
{ACAD_REACTORS
330
241
102
}
330
241
100
AcDbScale
 70
     0
300
1:2
140
1.0
141
2.0
290
     0
  0
SCALE
  5
244
102
{ACAD_REACTORS
330
241
102
}
330
241
100
AcDbScale
 70
     0
300
1:4
140
1.0
141
4.0
290
     0
  0
SCALE
  5
245
102
{ACAD_REACTORS
330
241
102
}
330
241
100
AcDbScale
 70
     0
300
1:5
140
1.0
141
5.0
290
     0
  0
SCALE
  5
246
102
{ACAD_REACTORS
330
241
102
}
330
241
100
AcDbScale
 70
     0
300
1:8
140
1.0
141
8.0
290
     0
  0
SCALE
  5
247
102
{ACAD_REACTORS
330
241
102
}
330
241
100
AcDbScale
 70
     0
300
1:10
140
1.0
141
10.0
290
     0
  0
SCALE
  5
248
102
{ACAD_REACTORS
330
241
102
}
330
241
100
AcDbScale
 70
     0
300
1:16
140
1.0
141
16.0
290
     0
  0
SCALE
  5
249
102
{ACAD_REACTORS
330
241
102
}
330
241
100
AcDbScale
 70
     0
300
1:20
140
1.0
141
20.0
290
     0
  0
SCALE
  5
24A
102
{ACAD_REACTORS
330
241
102
}
330
241
100
AcDbScale
 70
     0
300
1:30
140
1.0
141
30.0
290
     0
  0
SCALE
  5
24B
102
{ACAD_REACTORS
330
241
102
}
330
241
100
AcDbScale
 70
     0
300
1:40
140
1.0
141
40.0
290
     0
  0
SCALE
  5
24C
102
{ACAD_REACTORS
330
241
102
}
330
241
100
AcDbScale
 70
     0
300
1:50
140
1.0
141
50.0
290
     0
  0
SCALE
  5
24D
102
{ACAD_REACTORS
330
241
102
}
330
241
100
AcDbScale
 70
     0
300
1:100
140
1.0
141
100.0
290
     0
  0
SCALE
  5
24E
102
{ACAD_REACTORS
330
241
102
}
330
241
100
AcDbScale
 70
     0
300
2:1
140
2.0
141
1.0
290
     0
  0
SCALE
  5
24F
102
{ACAD_REACTORS
330
241
102
}
330
241
100
AcDbScale
 70
     0
300
4:1
140
4.0
141
1.0
290
     0
  0
SCALE
  5
250
102
{ACAD_REACTORS
330
241
102
}
330
241
100
AcDbScale
 70
     0
300
8:1
140
8.0
141
1.0
290
     0
  0
SCALE
  5
251
102
{ACAD_REACTORS
330
241
102
}
330
241
100
AcDbScale
 70
     0
300
10:1
140
10.0
141
1.0
290
     0
  0
SCALE
  5
252
102
{ACAD_REACTORS
330
241
102
}
330
241
100
AcDbScale
 70
     0
300
100:1
140
100.0
141
1.0
290
     0
  0
SCALE
  5
253
102
{ACAD_REACTORS
330
241
102
}
330
241
100
AcDbScale
 70
     0
300
1/128" = 1'-0"
140
0.0078125
141
12.0
290
     0
  0
SCALE
  5
254
102
{ACAD_REACTORS
330
241
102
}
330
241
100
AcDbScale
 70
     0
300
1/64" = 1'-0"
140
0.015625
141
12.0
290
     0
  0
SCALE
  5
255
102
{ACAD_REACTORS
330
241
102
}
330
241
100
AcDbScale
 70
     0
300
1/32" = 1'-0"
140
0.03125
141
12.0
290
     0
  0
SCALE
  5
256
102
{ACAD_REACTORS
330
241
102
}
330
241
100
AcDbScale
 70
     0
300
1/16" = 1'-0"
140
0.0625
141
12.0
290
     0
  0
SCALE
  5
257
102
{ACAD_REACTORS
330
241
102
}
330
241
100
AcDbScale
 70
     0
300
3/32" = 1'-0"
140
0.09375
141
12.0
290
     0
  0
SCALE
  5
258
102
{ACAD_REACTORS
330
241
102
}
330
241
100
AcDbScale
 70
     0
300
1/8" = 1'-0"
140
0.125
141
12.0
290
     0
  0
SCALE
  5
259
102
{ACAD_REACTORS
330
241
102
}
330
241
100
AcDbScale
 70
     0
300
3/16" = 1'-0"
140
0.1875
141
12.0
290
     0
  0
SCALE
  5
25A
102
{ACAD_REACTORS
330
241
102
}
330
241
100
AcDbScale
 70
     0
300
1/4" = 1'-0"
140
0.25
141
12.0
290
     0
  0
SCALE
  5
25B
102
{ACAD_REACTORS
330
241
102
}
330
241
100
AcDbScale
 70
     0
300
3/8" = 1'-0"
140
0.375
141
12.0
290
     0
  0
SCALE
  5
25C
102
{ACAD_REACTORS
330
241
102
}
330
241
100
AcDbScale
 70
     0
300
1/2" = 1'-0"
140
0.5
141
12.0
290
     0
  0
SCALE
  5
25D
102
{ACAD_REACTORS
330
241
102
}
330
241
100
AcDbScale
 70
     0
300
3/4" = 1'-0"
140
0.75
141
12.0
290
     0
  0
SCALE
  5
25E
102
{ACAD_REACTORS
330
241
102
}
330
241
100
AcDbScale
 70
     0
300
1" = 1'-0"
140
1.0
141
12.0
290
     0
  0
SCALE
  5
25F
102
{ACAD_REACTORS
330
241
102
}
330
241
100
AcDbScale
 70
     0
300
1-1/2" = 1'-0"
140
1.5
141
12.0
290
     0
  0
SCALE
  5
260
102
{ACAD_REACTORS
330
241
102
}
330
241
100
AcDbScale
 70
     0
300
3" = 1'-0"
140
3.0
141
12.0
290
     0
  0
SCALE
  5
261
102
{ACAD_REACTORS
330
241
102
}
330
241
100
AcDbScale
 70
     0
300
6" = 1'-0"
140
6.0
141
12.0
290
     0
  0
SCALE
  5
262
102
{ACAD_REACTORS
330
241
102
}
330
241
100
AcDbScale
 70
     0
300
1'-0" = 1'-0"
140
12.0
141
12.0
290
     0
  0
ACDBSECTIONVIEWSTYLE
  5
15D2
102
{ACAD_REACTORS
330
BC0
102
}
330
BC0
100
AcDbModelDocViewStyle
 70
     0
  3
Metric50
290
     0
300
Metric50
 90
        0
100
AcDbSectionViewStyle
 70
     0
 71
     0
 90
      102
 71
     1
340
17
 62
   256
 40
5.0
340
0
340
0
 62
   256
 40
5.0
300
I, O, Q, S, X, Z
 40
10.0
 90
        0
 40
2.5
 90
        0
 71
     2
340
13
 90
       25
 62
   256
340
13
 90
       50
 62
   256
 40
5.0
 40
2.5
 40
5.0
 71
     3
340
17
 62
   256
 40
5.0
 90
        0
 40
15.0
 90
        1
300
%<\AcVar ViewSectionStartId>%-%<\AcVar ViewSectionEndId>% (%<\AcVar ViewScale \f "%sn">%)
 71
     4
 62
   256
 62
   257
300
ANSI31
 40
1.0
 90
        0
290
     0
290
     0
 90
        6
 40
0.0
 40
1.570796326794896
 40
0.2617993877991494
 40
1.308996938995747
 40
-0.2617993877991494
 40
1.832595714594046
  0
TABLESTYLE
  5
279
102
{ACAD_XDICTIONARY
360
15CA
102
}
102
{ACAD_REACTORS
330
278
102
}
330
278
100
AcDbTableStyle
280
     0
  3
Standard
 70
     0
 71
     0
 40
0.06
 41
0.06
280
     0
281
     0
  7
Standard
140
4.5
170
     2
 62
     0
 63
     7
283
     0
 90
        4
 91
        0
  1

274
    -2
284
     1
 64
     0
275
    -2
285
     1
 65
     0
276
    -2
286
     1
 66
     0
277
    -2
287
     1
 67
     0
278
    -2
288
     1
 68
     0
279
    -2
289
     1
 69
     0
  7
Standard
140
6.0
170
     5
 62
     0
 63
     7
283
     0
 90
        4
 91
        0
  1

274
    -2
284
     1
 64
     0
275
    -2
285
     1
 65
     0
276
    -2
286
     1
 66
     0
277
    -2
287
     1
 67
     0
278
    -2
288
     1
 68
     0
279
    -2
289
     1
 69
     0
  7
Standard
140
4.5
170
     5
 62
     0
 63
     7
283
     0
 90
        4
 91
        0
  1

274
    -2
284
     1
 64
     0
275
    -2
285
     1
 65
     0
276
    -2
286
     1
 66
     0
277
    -2
287
     1
 67
     0
278
    -2
288
     1
 68
     0
279
    -2
289
     1
 69
     0
  0
VISUALSTYLE
  5
26C
102
{ACAD_REACTORS
330
267
102
}
330
267
100
AcDbVisualStyle
  2

 70
     4
177
     3
291
     0
 70
    58
 90
        0
176
     1
 90
        2
176
     1
 90
        0
176
     1
 90
        0
176
     1
 40
0.6
176
     1
 40
30.0
176
     1
 62
     7
420
 16777215
176
     1
 90
        1
176
     1
 90
        4
176
     1
 62
     7
176
     1
 62
   257
176
     1
 90
        1
176
     1
 90
        1
176
     1
 40
1.0
176
     1
 90
        0
176
     1
 62
   257
176
     1
 40
1.0
176
     1
 90
        1
176
     1
 90
        6
176
     1
 90
        2
176
     1
 62
     7
176
     1
 90
        5
176
     1
 90
        0
176
     1
 90
        0
176
     1
290
     0
176
     1
 90
        1
176
     1
 40
0.0
176
     1
 90
        0
176
     1
290
     1
176
     1
290
     1
176
     1
290
     0
176
     1
290
     0
176
     1
290
     0
176
     1
290
     0
176
     1
290
     0
176
     1
290
     0
176
     1
290
     0
176
     1
 90
       50
176
     1
 40
0.0
176
     1
 40
1.0
176
     1
 90
        0
176
     1
 62
    18
420
        0
176
     1
 90
       50
176
     1
 90
        3
176
     1
 62
     5
420
      255
176
     1
290
     0
176
     1
 90
       50
176
     1
 90
       50
176
     1
 90
       50
176
     1
290
     0
176
     1
 90
       50
176
     1
 62
   256
176
     0
 40
1.0
176
     0
 90
        2
176
     1
  1
strokes_ogs.tif
176
     1
290
     0
176
     1
 40
1.0
176
     1
 40
1.0
176
     1
  0
VISUALSTYLE
  5
26E
102
{ACAD_REACTORS
330
267
102
}
330
267
100
AcDbVisualStyle
  2

 70
     6
177
     3
291
     0
 70
    58
 90
        1
176
     1
 90
        2
176
     1
 90
        2
176
     1
 90
        0
176
     1
 40
0.6
176
     1
 40
30.0
176
     1
 62
     7
420
 16777215
176
     1
 90
        2
176
     1
 90
        2
176
     1
 62
     7
176
     1
 62
   257
176
     1
 90
        2
176
     1
 90
        1
176
     1
 40
40.0
176
     1
 90
        0
176
     1
 62
   257
176
     1
 40
1.0
176
     1
 90
        1
176
     1
 90
        6
176
     1
 90
        2
176
     1
 62
     7
176
     1
 90
        3
176
     1
 90
        0
176
     1
 90
        0
176
     1
290
     0
176
     1
 90
        1
176
     1
 40
0.0
176
     1
 90
        0
176
     1
290
     0
176
     1
290
     1
176
     1
290
     1
176
     1
290
     0
176
     1
290
     0
176
     1
290
     0
176
     1
290
     0
176
     1
290
     0
176
     1
290
     0
176
     1
 90
       50
176
     1
 40
0.0
176
     1
 40
1.0
176
     1
 90
        0
176
     1
 62
    18
420
        0
176
     1
 90
       50
176
     1
 90
        3
176
     1
 62
     5
420
      255
176
     1
290
     0
176
     1
 90
       50
176
     1
 90
       50
176
     1
 90
       50
176
     1
290
     0
176
     1
 90
       50
176
     1
 62
   256
176
     0
 40
1.0
176
     0
 90
        2
176
     1
  1
strokes_ogs.tif
176
     1
290
     0
176
     1
 40
1.0
176
     1
 40
1.0
176
     1
  0
VISUALSTYLE
  5
26D
102
{ACAD_REACTORS
330
267
102
}
330
267
100
AcDbVisualStyle
  2

 70
     5
177
     3
291
     0
 70
    58
 90
        0
176
     1
 90
        2
176
     1
 90
        0
176
     1
 90
        0
176
     1
 40
0.6
176
     1
 40
30.0
176
     1
 62
     7
420
 16777215
176
     1
 90
        1
176
     1
 90
        4
176
     1
 62
     7
176
     1
 62
   257
176
     1
 90
        1
176
     1
 90
        1
176
     1
 40
1.0
176
     1
 90
        0
176
     1
 62
   257
176
     1
 40
1.0
176
     1
 90
        1
176
     1
 90
        6
176
     1
 90
        2
176
     1
 62
     7
176
     1
 90
        5
176
     1
 90
        0
176
     1
 90
        0
176
     1
290
     0
176
     1
 90
        1
176
     1
 40
0.0
176
     1
 90
        0
176
     1
290
     0
176
     1
290
     1
176
     1
290
     1
176
     1
290
     0
176
     1
290
     0
176
     1
290
     0
176
     1
290
     0
176
     1
290
     0
176
     1
290
     0
176
     1
 90
       50
176
     1
 40
0.0
176
     1
 40
1.0
176
     1
 90
        0
176
     1
 62
    18
420
        0
176
     1
 90
       50
176
     1
 90
        3
176
     1
 62
     5
420
      255
176
     1
290
     0
176
     1
 90
       50
176
     1
 90
       50
176
     1
 90
       50
176
     1
290
     0
176
     1
 90
       50
176
     1
 62
   256
176
     0
 40
1.0
176
     0
 90
        2
176
     1
  1
strokes_ogs.tif
176
     1
290
     0
176
     1
 40
1.0
176
     1
 40
1.0
176
     1
  0
VISUALSTYLE
  5
26F
102
{ACAD_REACTORS
330
267
102
}
330
267
100
AcDbVisualStyle
  2

 70
     7
177
     3
291
     1
 70
    58
 90
        1
176
     1
 90
        0
176
     1
 90
        1
176
     1
 90
        0
176
     1
 40
0.6
176
     1
 40
30.0
176
     1
 62
     7
420
 16777215
176
     1
 90
        0
176
     1
 90
        4
176
     1
 62
     7
176
     1
 62
   257
176
     1
 90
        1
176
     1
 90
        1
176
     1
 40
1.0
176
     1
 90
        8
176
     1
 62
     7
176
     1
 40
1.0
176
     1
 90
        1
176
     1
 90
        6
176
     1
 90
        2
176
     1
 62
     7
176
     1
 90
        5
176
     1
 90
        0
176
     1
 90
        0
176
     1
290
     0
176
     1
 90
        1
176
     1
 40
0.0
176
     1
 90
        0
176
     1
290
     0
176
     1
290
     1
176
     1
290
     1
176
     1
290
     0
176
     1
290
     0
176
     1
290
     0
176
     1
290
     0
176
     1
290
     0
176
     1
290
     0
176
     1
 90
       50
176
     1
 40
0.0
176
     1
 40
1.0
176
     1
 90
        0
176
     1
 62
    18
420
        0
176
     1
 90
       50
176
     1
 90
        3
176
     1
 62
     5
420
      255
176
     1
290
     0
176
     1
 90
       50
176
     1
 90
       50
176
     1
 90
       50
176
     1
290
     0
176
     1
 90
       50
176
     1
 62
   256
176
     0
 40
1.0
176
     0
 90
        2
176
     1
  1
strokes_ogs.tif
176
     1
290
     0
176
     1
 40
1.0
176
     1
 40
1.0
176
     1
  0
VISUALSTYLE
  5
273
102
{ACAD_REACTORS
330
267
102
}
330
267
100
AcDbVisualStyle
  2

 70
    12
177
     3
291
     1
 70
    58
 90
        2
176
     1
 90
        2
176
     1
 90
        0
176
     1
 90
        0
176
     1
 40
0.6
176
     1
 40
30.0
176
     1
 62
     7
420
 16777215
176
     1
 90
        1
176
     1
 90
        4
176
     1
 62
     7
176
     1
 62
   257
176
     1
 90
        1
176
     1
 90
        1
176
     1
 40
1.0
176
     1
 90
        8
176
     1
 62
     7
176
     1
 40
1.0
176
     1
 90
        1
176
     1
 90
        6
176
     1
 90
        2
176
     1
 62
     7
176
     1
 90
        5
176
     1
 90
        0
176
     1
 90
        0
176
     1
290
     0
176
     1
 90
        1
176
     1
 40
50.0
176
     1
 90
        0
176
     1
290
     0
176
     1
290
     1
176
     1
290
     1
176
     1
290
     0
176
     1
290
     0
176
     1
290
     0
176
     1
290
     0
176
     1
290
     0
176
     1
290
     0
176
     1
 90
       50
176
     1
 40
0.0
176
     1
 40
1.0
176
     1
 90
        0
176
     1
 62
    18
420
        0
176
     1
 90
       50
176
     1
 90
        3
176
     1
 62
     5
420
      255
176
     1
290
     0
176
     1
 90
       50
176
     1
 90
       50
176
     1
 90
       50
176
     1
290
     0
176
     1
 90
       50
176
     1
 62
   256
176
     0
 40
1.0
176
     0
 90
        2
176
     1
  1
strokes_ogs.tif
176
     1
290
     0
176
     1
 40
1.0
176
     1
 40
1.0
176
     1
  0
VISUALSTYLE
  5
277
102
{ACAD_REACTORS
330
267
102
}
330
267
100
AcDbVisualStyle
  2

 70
    16
177
     3
291
     1
 70
    58
 90
        2
176
     1
 90
        2
176
     1
 90
        3
176
     1
 90
        0
176
     1
 40
0.6
176
     1
 40
30.0
176
     1
 62
     8
420
  8421504
176
     1
 90
        1
176
     1
 90
        4
176
     1
 62
     7
176
     1
 62
   257
176
     1
 90
        1
176
     1
 90
        1
176
     1
 40
1.0
176
     1
 90
        8
176
     1
 62
     8
420
  8421504
176
     1
 40
1.0
176
     1
 90
        1
176
     1
 90
        6
176
     1
 90
        2
176
     1
 62
     7
176
     1
 90
        5
176
     1
 90
        0
176
     1
 90
        0
176
     1
290
     0
176
     1
 90
        1
176
     1
 40
0.0
176
     1
 90
        0
176
     1
290
     0
176
     1
290
     1
176
     1
290
     1
176
     1
290
     0
176
     1
290
     0
176
     1
290
     0
176
     1
290
     0
176
     1
290
     0
176
     1
290
     0
176
     1
 90
       50
176
     1
 40
0.0
176
     1
 40
1.0
176
     1
 90
        0
176
     1
 62
    18
420
        0
176
     1
 90
       50
176
     1
 90
        3
176
     1
 62
     5
420
      255
176
     1
290
     0
176
     1
 90
       50
176
     1
 90
       50
176
     1
 90
       50
176
     1
290
     0
176
     1
 90
       50
176
     1
 62
   256
176
     0
 40
1.0
176
     0
 90
        2
176
     1
  1
strokes_ogs.tif
176
     1
290
     0
176
     1
 40
1.0
176
     1
 40
1.0
176
     1
  0
VISUALSTYLE
  5
271
102
{ACAD_REACTORS
330
267
102
}
330
267
100
AcDbVisualStyle
  2

 70
     9
177
     3
291
     0
 70
    58
 90
        3
176
     1
 90
        2
176
     1
 90
        0
176
     1
 90
        0
176
     1
 40
0.6
176
     1
 40
30.0
176
     1
 62
     7
420
 16777215
176
     1
 90
        2
176
     1
 90
        2
176
     1
 62
     7
176
     1
 62
   257
176
     1
 90
        1
176
     1
 90
        1
176
     1
 40
40.0
176
     1
 90
        8
176
     1
 62
     7
176
     1
 40
1.0
176
     1
 90
        1
176
     1
 90
        6
176
     1
 90
        2
176
     1
 62
     7
176
     1
 90
        3
176
     1
 90
        0
176
     1
 90
        0
176
     1
290
     0
176
     1
 90
        1
176
     1
 40
0.0
176
     1
 90
        0
176
     1
290
     0
176
     1
290
     1
176
     1
290
     1
176
     1
290
     0
176
     1
290
     0
176
     1
290
     0
176
     1
290
     0
176
     1
290
     0
176
     1
290
     0
176
     1
 90
       50
176
     1
 40
0.0
176
     1
 40
1.0
176
     1
 90
        0
176
     1
 62
    18
420
        0
176
     1
 90
       50
176
     1
 90
        3
176
     1
 62
     5
420
      255
176
     1
290
     0
176
     1
 90
       50
176
     1
 90
       50
176
     1
 90
       50
176
     1
290
     0
176
     1
 90
       50
176
     1
 62
   256
176
     0
 40
1.0
176
     0
 90
        2
176
     1
  1
strokes_ogs.tif
176
     1
290
     0
176
     1
 40
1.0
176
     1
 40
1.0
176
     1
  0
VISUALSTYLE
  5
272
102
{ACAD_REACTORS
330
267
102
}
330
267
100
AcDbVisualStyle
  2

 70
    11
177
     3
291
     1
 70
    58
 90
        2
176
     1
 90
        2
176
     1
 90
        0
176
     1
 90
        0
176
     1
 40
0.6
176
     1
 40
30.0
176
     1
 62
     7
420
 16777215
176
     1
 90
        1
176
     1
 90
        4
176
     1
 62
     7
176
     1
 62
   257
176
     1
 90
        1
176
     1
 90
        1
176
     1
 40
1.0
176
     1
 90
        8
176
     1
 62
     7
176
     1
 40
1.0
176
     1
 90
        1
176
     1
 90
        6
176
     1
 90
        2
176
     1
 62
     7
176
     1
 90
        5
176
     1
 90
        0
176
     1
 90
        0
176
     1
290
     0
176
     1
 90
        1
176
     1
 40
-50.0
176
     1
 90
        0
176
     1
290
     0
176
     1
290
     1
176
     1
290
     1
176
     1
290
     0
176
     1
290
     0
176
     1
290
     0
176
     1
290
     0
176
     1
290
     0
176
     1
290
     0
176
     1
 90
       50
176
     1
 40
0.0
176
     1
 40
1.0
176
     1
 90
        0
176
     1
 62
    18
420
        0
176
     1
 90
       50
176
     1
 90
        3
176
     1
 62
     5
420
      255
176
     1
290
     0
176
     1
 90
       50
176
     1
 90
       50
176
     1
 90
       50
176
     1
290
     0
176
     1
 90
       50
176
     1
 62
   256
176
     0
 40
1.0
176
     0
 90
        2
176
     1
  1
strokes_ogs.tif
176
     1
290
     0
176
     1
 40
1.0
176
     1
 40
1.0
176
     1
  0
VISUALSTYLE
  5
8FE
102
{ACAD_REACTORS
330
267
102
}
330
267
100
AcDbVisualStyle
  2

 70
    22
177
     3
291
     1
 70
    58
 90
        2
176
     1
 90
        2
176
     1
 90
        0
176
     1
 90
        0
176
     1
 40
0.6
176
     1
 40
30.0
176
     1
 62
     7
420
 16777215
176
     1
 90
        1
176
     1
 90
        4
176
     1
 62
     7
176
     1
 62
   257
176
     1
 90
        1
176
     1
 90
        1
176
     1
 40
1.0
176
     1
 90
        8
176
     1
 62
     7
176
     1
 40
1.0
176
     1
 90
        1
176
     1
 90
        6
176
     1
 90
        2
176
     1
 62
     7
176
     1
 90
        5
176
     1
 90
        0
176
     1
 90
        0
176
     1
290
     0
176
     1
 90
        1
176
     1
 40
0.0
176
     1
 90
        0
176
     1
290
     0
176
     1
290
     1
176
     1
290
     1
176
     1
290
     0
176
     1
290
     0
176
     1
290
     0
176
     1
290
     0
176
     1
290
     0
176
     1
290
     0
176
     1
 90
       50
176
     1
 40
0.0
176
     1
 40
1.0
176
     1
 90
        0
176
     1
 62
    18
420
        0
176
     1
 90
       50
176
     1
 90
        3
176
     1
 62
     5
420
      255
176
     1
290
     0
176
     1
 90
       50
176
     1
 90
       50
176
     1
 90
       50
176
     1
290
     0
176
     1
 90
       50
176
     1
 62
   256
176
     0
 40
1.0
176
     0
 90
        2
176
     1
  1
strokes_ogs.tif
176
     1
290
     0
176
     1
 40
1.0
176
     1
 40
1.0
176
     1
  0
VISUALSTYLE
  5
276
102
{ACAD_REACTORS
330
267
102
}
330
267
100
AcDbVisualStyle
  2

 70
    15
177
     3
291
     1
 70
    58
 90
        2
176
     1
 90
        2
176
     1
 90
        0
176
     1
 90
        0
176
     1
 40
0.6
176
     1
 40
30.0
176
     1
 62
     7
420
 16777215
176
     1
 90
        1
176
     1
 90
        4
176
     1
 62
     7
176
     1
 62
   257
176
     1
 90
        1
176
     1
 90
        1
176
     1
 40
1.0
176
     1
 90
        8
176
     1
 62
     7
176
     1
 40
1.0
176
     1
 90
        1
176
     1
 90
        6
176
     1
 90
        2
176
     1
 62
     7
176
     1
 90
        5
176
     1
 90
        0
176
     1
 90
        0
176
     1
290
     0
176
     1
 90
        1
176
     1
 40
0.0
176
     1
 90
        0
176
     1
290
     0
176
     1
290
     1
176
     1
290
     1
176
     1
290
     0
176
     1
290
     0
176
     1
290
     0
176
     1
290
     0
176
     1
290
     0
176
     1
290
     0
176
     1
 90
       50
176
     1
 40
0.0
176
     1
 40
1.0
176
     1
 90
        0
176
     1
 62
    18
420
        0
176
     1
 90
       50
176
     1
 90
        3
176
     1
 62
     5
420
      255
176
     1
290
     0
176
     1
 90
       50
176
     1
 90
       50
176
     1
 90
       50
176
     1
290
     0
176
     1
 90
       50
176
     1
 62
   256
176
     0
 40
1.0
176
     0
 90
        2
176
     1
  1
strokes_ogs.tif
176
     1
290
     0
176
     1
 40
1.0
176
     1
 40
1.0
176
     1
  0
VISUALSTYLE
  5
268
102
{ACAD_REACTORS
330
267
102
}
330
267
100
AcDbVisualStyle
  2

 70
     0
177
     3
291
     1
 70
    58
 90
        2
176
     1
 90
        1
176
     1
 90
        1
176
     1
 90
        2
176
     1
 40
0.6
176
     1
 40
30.0
176
     1
 62
     7
420
 16777215
176
     1
 90
        0
176
     1
 90
        4
176
     1
 62
     7
176
     1
 62
   257
176
     1
 90
        1
176
     1
 90
        1
176
     1
 40
1.0
176
     1
 90
        8
176
     1
 62
     7
176
     1
 40
1.0
176
     1
 90
        1
176
     1
 90
        6
176
     1
 90
        2
176
     1
 62
     7
176
     1
 90
        5
176
     1
 90
        0
176
     1
 90
        0
176
     1
290
     0
176
     1
 90
       13
176
     1
 40
0.0
176
     1
 90
        0
176
     1
290
     0
176
     1
290
     1
176
     1
290
     1
176
     1
290
     0
176
     1
290
     0
176
     1
290
     0
176
     1
290
     0
176
     1
290
     0
176
     1
290
     0
176
     1
 90
       50
176
     1
 40
0.0
176
     1
 40
1.0
176
     1
 90
        0
176
     1
 62
    18
420
        0
176
     1
 90
       50
176
     1
 90
        3
176
     1
 62
     5
420
      255
176
     1
290
     0
176
     1
 90
       50
176
     1
 90
       50
176
     1
 90
       50
176
     1
290
     0
176
     1
 90
       50
176
     1
 62
   256
176
     0
 40
1.0
176
     0
 90
        2
176
     1
  1
strokes_ogs.tif
176
     1
290
     0
176
     1
 40
1.0
176
     1
 40
1.0
176
     1
  0
VISUALSTYLE
  5
269
102
{ACAD_REACTORS
330
267
102
}
330
267
100
AcDbVisualStyle
  2

 70
     1
177
     3
291
     1
 70
    58
 90
        2
176
     1
 90
        1
176
     1
 90
        1
176
     1
 90
        2
176
     1
 40
0.6
176
     1
 40
30.0
176
     1
 62
     7
420
 16777215
176
     1
 90
        1
176
     1
 90
        4
176
     1
 62
     7
176
     1
 62
   257
176
     1
 90
        1
176
     1
 90
        1
176
     1
 40
1.0
176
     1
 90
        0
176
     1
 62
   257
176
     1
 40
1.0
176
     1
 90
        1
176
     1
 90
        6
176
     1
 90
        2
176
     1
 62
     7
176
     1
 90
        5
176
     1
 90
        0
176
     1
 90
        0
176
     1
290
     0
176
     1
 90
       13
176
     1
 40
0.0
176
     1
 90
        0
176
     1
290
     0
176
     1
290
     1
176
     1
290
     1
176
     1
290
     0
176
     1
290
     0
176
     1
290
     0
176
     1
290
     0
176
     1
290
     0
176
     1
290
     0
176
     1
 90
       50
176
     1
 40
0.0
176
     1
 40
1.0
176
     1
 90
        0
176
     1
 62
    18
420
        0
176
     1
 90
       50
176
     1
 90
        3
176
     1
 62
     5
420
      255
176
     1
290
     0
176
     1
 90
       50
176
     1
 90
       50
176
     1
 90
       50
176
     1
290
     0
176
     1
 90
       50
176
     1
 62
   256
176
     0
 40
1.0
176
     0
 90
        2
176
     1
  1
strokes_ogs.tif
176
     1
290
     0
176
     1
 40
1.0
176
     1
 40
1.0
176
     1
  0
VISUALSTYLE
  5
26A
102
{ACAD_REACTORS
330
267
102
}
330
267
100
AcDbVisualStyle
  2

 70
     2
177
     3
291
     1
 70
    58
 90
        2
176
     1
 90
        2
176
     1
 90
        1
176
     1
 90
        2
176
     1
 40
0.6
176
     1
 40
30.0
176
     1
 62
     7
420
 16777215
176
     1
 90
        0
176
     1
 90
        4
176
     1
 62
     7
176
     1
 62
   257
176
     1
 90
        1
176
     1
 90
        1
176
     1
 40
1.0
176
     1
 90
        0
176
     1
 62
     7
176
     1
 40
1.0
176
     1
 90
        1
176
     1
 90
        6
176
     1
 90
        2
176
     1
 62
     7
176
     1
 90
        5
176
     1
 90
        0
176
     1
 90
        0
176
     1
290
     0
176
     1
 90
       13
176
     1
 40
0.0
176
     1
 90
        0
176
     1
290
     0
176
     1
290
     1
176
     1
290
     1
176
     1
290
     0
176
     1
290
     0
176
     1
290
     0
176
     1
290
     0
176
     1
290
     0
176
     1
290
     0
176
     1
 90
       50
176
     1
 40
0.0
176
     1
 40
1.0
176
     1
 90
        0
176
     1
 62
    18
420
        0
176
     1
 90
       50
176
     1
 90
        3
176
     1
 62
     5
420
      255
176
     1
290
     0
176
     1
 90
       50
176
     1
 90
       50
176
     1
 90
       50
176
     1
290
     0
176
     1
 90
       50
176
     1
 62
   256
176
     0
 40
1.0
176
     0
 90
        2
176
     1
  1
strokes_ogs.tif
176
     1
290
     0
176
     1
 40
1.0
176
     1
 40
1.0
176
     1
  0
VISUALSTYLE
  5
26B
102
{ACAD_REACTORS
330
267
102
}
330
267
100
AcDbVisualStyle
  2

 70
     3
177
     3
291
     1
 70
    58
 90
        2
176
     1
 90
        2
176
     1
 90
        1
176
     1
 90
        2
176
     1
 40
0.6
176
     1
 40
30.0
176
     1
 62
     7
420
 16777215
176
     1
 90
        1
176
     1
 90
        4
176
     1
 62
     7
176
     1
 62
   257
176
     1
 90
        1
176
     1
 90
        1
176
     1
 40
1.0
176
     1
 90
        0
176
     1
 62
   257
176
     1
 40
1.0
176
     1
 90
        1
176
     1
 90
        6
176
     1
 90
        2
176
     1
 62
     7
176
     1
 90
        5
176
     1
 90
        0
176
     1
 90
        0
176
     1
290
     0
176
     1
 90
       13
176
     1
 40
0.0
176
     1
 90
        0
176
     1
290
     0
176
     1
290
     1
176
     1
290
     1
176
     1
290
     0
176
     1
290
     0
176
     1
290
     0
176
     1
290
     0
176
     1
290
     0
176
     1
290
     0
176
     1
 90
       50
176
     1
 40
0.0
176
     1
 40
1.0
176
     1
 90
        0
176
     1
 62
    18
420
        0
176
     1
 90
       50
176
     1
 90
        3
176
     1
 62
     5
420
      255
176
     1
290
     0
176
     1
 90
       50
176
     1
 90
       50
176
     1
 90
       50
176
     1
290
     0
176
     1
 90
       50
176
     1
 62
   256
176
     0
 40
1.0
176
     0
 90
        2
176
     1
  1
strokes_ogs.tif
176
     1
290
     0
176
     1
 40
1.0
176
     1
 40
1.0
176
     1
  0
VISUALSTYLE
  5
8FB
102
{ACAD_REACTORS
330
267
102
}
330
267
100
AcDbVisualStyle
  2

 70
     6
177
     3
291
     0
 70
    58
 90
        1
176
     1
 90
        2
176
     1
 90
        2
176
     1
 90
        0
176
     1
 40
0.6
176
     1
 40
30.0
176
     1
 62
     7
420
 16777215
176
     1
 90
        2
176
     1
 90
        2
176
     1
 62
     7
176
     1
 62
   257
176
     1
 90
        2
176
     1
 90
        1
176
     1
 40
40.0
176
     1
 90
        0
176
     1
 62
   257
176
     1
 40
1.0
176
     1
 90
        1
176
     1
 90
        6
176
     1
 90
        2
176
     1
 62
     7
176
     1
 90
        3
176
     1
 90
        0
176
     1
 90
        0
176
     1
290
     0
176
     1
 90
        1
176
     1
 40
0.0
176
     1
 90
        0
176
     1
290
     0
176
     1
290
     1
176
     1
290
     1
176
     1
290
     0
176
     1
290
     0
176
     1
290
     0
176
     1
290
     0
176
     1
290
     0
176
     1
290
     0
176
     1
 90
       50
176
     1
 40
0.0
176
     1
 40
1.0
176
     1
 90
        0
176
     1
 62
    18
420
        0
176
     1
 90
       50
176
     1
 90
        3
176
     1
 62
     5
420
      255
176
     1
290
     0
176
     1
 90
       50
176
     1
 90
       50
176
     1
 90
       50
176
     1
290
     0
176
     1
 90
       50
176
     1
 62
   256
176
     0
 40
1.0
176
     0
 90
        2
176
     1
  1
strokes_ogs.tif
176
     1
290
     0
176
     1
 40
1.0
176
     1
 40
1.0
176
     1
  0
VISUALSTYLE
  5
8FC
102
{ACAD_REACTORS
330
267
102
}
330
267
100
AcDbVisualStyle
  2

 70
    20
177
     3
291
     1
 70
    58
 90
        2
176
     1
 90
        2
176
     1
 90
        0
176
     1
 90
        0
176
     1
 40
0.6
176
     1
 40
30.0
176
     1
 62
     7
420
 16777215
176
     1
 90
        1
176
     1
 90
        4
176
     1
 62
     7
176
     1
 62
   257
176
     1
 90
        1
176
     1
 90
        1
176
     1
 40
1.0
176
     1
 90
       10
176
     1
 62
     7
176
     1
 40
1.0
176
     1
 90
        1
176
     1
 90
        6
176
     1
 90
        2
176
     1
 62
     7
176
     1
 90
        5
176
     1
 90
        0
176
     1
 90
        0
176
     1
290
     0
176
     1
 90
        1
176
     1
 40
0.0
176
     1
 90
        0
176
     1
290
     0
176
     1
290
     1
176
     1
290
     1
176
     1
290
     0
176
     1
290
     0
176
     1
290
     0
176
     1
290
     0
176
     1
290
     0
176
     1
290
     0
176
     1
 90
       50
176
     1
 40
0.0
176
     1
 40
1.0
176
     1
 90
        0
176
     1
 62
    18
420
        0
176
     1
 90
       50
176
     1
 90
        3
176
     1
 62
     5
420
      255
176
     1
290
     0
176
     1
 90
       50
176
     1
 90
       50
176
     1
 90
       50
176
     1
290
     0
176
     1
 90
       50
176
     1
 62
   256
176
     0
 40
1.0
176
     0
 90
        2
176
     1
  1
strokes_ogs.tif
176
     1
290
     0
176
     1
 40
1.0
176
     1
 40
1.0
176
     1
  0
VISUALSTYLE
  5
275
102
{ACAD_REACTORS
330
267
102
}
330
267
100
AcDbVisualStyle
  2

 70
    14
177
     3
291
     1
 70
    58
 90
        2
176
     1
 90
        2
176
     1
 90
        0
176
     1
 90
        0
176
     1
 40
0.6
176
     1
 40
30.0
176
     1
 62
     7
420
 16777215
176
     1
 90
        1
176
     1
 90
        4
176
     1
 62
     7
176
     1
 62
   257
176
     1
 90
        7
176
     1
 90
        7
176
     1
 40
1.0
176
     1
 90
        8
176
     1
 62
     7
176
     1
 40
1.0
176
     1
 90
        1
176
     1
 90
        6
176
     1
 90
        2
176
     1
 62
     7
176
     1
 90
        5
176
     1
 90
        0
176
     1
 90
        0
176
     1
290
     0
176
     1
 90
        1
176
     1
 40
0.0
176
     1
 90
        0
176
     1
290
     0
176
     1
290
     1
176
     1
290
     1
176
     1
290
     0
176
     1
290
     0
176
     1
290
     0
176
     1
290
     0
176
     1
290
     0
176
     1
290
     0
176
     1
 90
       50
176
     1
 40
0.0
176
     1
 40
1.0
176
     1
 90
        0
176
     1
 62
    18
420
        0
176
     1
 90
       50
176
     1
 90
        3
176
     1
 62
     5
420
      255
176
     1
290
     0
176
     1
 90
       50
176
     1
 90
       50
176
     1
 90
       50
176
     1
290
     0
176
     1
 90
       50
176
     1
 62
   256
176
     0
 40
1.0
176
     0
 90
        2
176
     1
  1
strokes_ogs.tif
176
     1
290
     0
176
     1
 40
1.0
176
     1
 40
1.0
176
     1
  0
VISUALSTYLE
  5
8FD
102
{ACAD_REACTORS
330
267
102
}
330
267
100
AcDbVisualStyle
  2

 70
    21
177
     3
291
     1
 70
    58
 90
        2
176
     1
 90
        2
176
     1
 90
        0
176
     1
 90
        0
176
     1
 40
0.6
176
     1
 40
30.0
176
     1
 62
     7
420
 16777215
176
     1
 90
        1
176
     1
 90
        4
176
     1
 62
     7
176
     1
 62
   257
176
     1
 90
        1
176
     1
 90
        1
176
     1
 40
1.0
176
     1
 90
        9
176
     1
 62
     7
176
     1
 40
1.0
176
     1
 90
        1
176
     1
 90
        6
176
     1
 90
        2
176
     1
 62
     7
176
     1
 90
        5
176
     1
 90
        0
176
     1
 90
        0
176
     1
290
     0
176
     1
 90
        1
176
     1
 40
0.0
176
     1
 90
        0
176
     1
290
     0
176
     1
290
     1
176
     1
290
     1
176
     1
290
     0
176
     1
290
     0
176
     1
290
     0
176
     1
290
     0
176
     1
290
     0
176
     1
290
     0
176
     1
 90
       50
176
     1
 40
0.0
176
     1
 40
1.0
176
     1
 90
        0
176
     1
 62
    18
420
        0
176
     1
 90
       50
176
     1
 90
        3
176
     1
 62
     5
420
      255
176
     1
290
     0
176
     1
 90
       50
176
     1
 90
       50
176
     1
 90
       50
176
     1
290
     0
176
     1
 90
       50
176
     1
 62
   256
176
     0
 40
1.0
176
     0
 90
        2
176
     1
  1
strokes_ogs.tif
176
     1
290
     0
176
     1
 40
1.0
176
     1
 40
1.0
176
     1
  0
VISUALSTYLE
  5
270
102
{ACAD_REACTORS
330
267
102
}
330
267
100
AcDbVisualStyle
  2

 70
     8
177
     3
291
     0
 70
    58
 90
        2
176
     1
 90
        2
176
     1
 90
        0
176
     1
 90
        0
176
     1
 40
0.6
176
     1
 40
30.0
176
     1
 62
     7
420
 16777215
176
     1
 90
        1
176
     1
 90
        0
176
     1
 62
     7
176
     1
 62
   257
176
     1
 90
        1
176
     1
 90
        1
176
     1
 40
1.0
176
     1
 90
        8
176
     1
 62
     8
420
  7895160
176
     1
 40
1.0
176
     1
 90
        1
176
     1
 90
        6
176
     1
 90
        2
176
     1
 62
     7
176
     1
 90
        5
176
     1
 90
        0
176
     1
 90
        0
176
     1
290
     0
176
     1
 90
       13
176
     1
 40
0.0
176
     1
 90
        0
176
     1
290
     0
176
     1
290
     1
176
     1
290
     1
176
     1
290
     0
176
     1
290
     0
176
     1
290
     0
176
     1
290
     0
176
     1
290
     0
176
     1
290
     0
176
     1
 90
       50
176
     1
 40
0.0
176
     1
 40
1.0
176
     1
 90
        0
176
     1
 62
    18
420
        0
176
     1
 90
       50
176
     1
 90
        3
176
     1
 62
     5
420
      255
176
     1
290
     0
176
     1
 90
       50
176
     1
 90
       50
176
     1
 90
       50
176
     1
290
     0
176
     1
 90
       50
176
     1
 62
   256
176
     0
 40
1.0
176
     0
 90
        2
176
     1
  1
strokes_ogs.tif
176
     1
290
     0
176
     1
 40
1.0
176
     1
 40
1.0
176
     1
  0
VISUALSTYLE
  5
903
102
{ACAD_REACTORS
330
267
102
}
330
267
100
AcDbVisualStyle
  2

 70
    27
177
     3
291
     0
 70
    58
 90
        2
176
     1
 90
        2
176
     1
 90
        1
176
     1
 90
        2
176
     1
 40
0.6
176
     1
 40
30.0
176
     1
 62
     7
420
 16777215
176
     1
 90
        0
176
     1
 90
        4
176
     1
 62
     7
176
     1
 62
   257
176
     1
 90
        1
176
     1
 90
        1
176
     1
 40
1.0
176
     1
 90
        8
176
     1
 62
   257
176
     1
 40
1.0
176
     1
 90
        1
176
     1
 90
        6
176
     1
 90
        2
176
     1
 62
     8
420
  7895160
176
     1
 90
        3
176
     1
 90
        0
176
     1
 90
        0
176
     1
290
     0
176
     1
 90
        5
176
     1
 40
0.0
176
     1
 90
        0
176
     1
290
     0
176
     1
290
     1
176
     1
290
     1
176
     1
290
     0
176
     1
290
     0
176
     1
290
     0
176
     1
290
     0
176
     1
290
     0
176
     1
290
     0
176
     1
 90
       50
176
     1
 40
0.0
176
     1
 40
1.0
176
     1
 90
        0
176
     1
 62
    18
420
        0
176
     1
 90
       50
176
     1
 90
        3
176
     1
 62
     5
420
      255
176
     1
290
     0
176
     1
 90
       50
176
     1
 90
       50
176
     1
 90
       50
176
     1
290
     0
176
     1
 90
       50
176
     1
 62
   256
176
     0
 40
1.0
176
     0
 90
        2
176
     1
  1
strokes_ogs.tif
176
     1
290
     0
176
     1
 40
1.0
176
     1
 40
1.0
176
     1
  0
VISUALSTYLE
  5
902
102
{ACAD_REACTORS
330
267
102
}
330
267
100
AcDbVisualStyle
  2

 70
    26
177
     3
291
     0
 70
    58
 90
        2
176
     1
 90
        2
176
     1
 90
        1
176
     1
 90
        2
176
     1
 40
0.6
176
     1
 40
30.0
176
     1
 62
     7
420
 16777215
176
     1
 90
        1
176
     1
 90
        2
176
     1
 62
     7
176
     1
 62
   257
176
     1
 90
        2
176
     1
 90
        1
176
     1
 40
1.0
176
     1
 90
        8
176
     1
 62
   257
176
     1
 40
1.0
176
     1
 90
        1
176
     1
 90
        6
176
     1
 90
        2
176
     1
 62
     7
176
     1
 90
        3
176
     1
 90
        0
176
     1
 90
        0
176
     1
290
     0
176
     1
 90
        5
176
     1
 40
0.0
176
     1
 90
        0
176
     1
290
     0
176
     1
290
     1
176
     1
290
     1
176
     1
290
     0
176
     1
290
     0
176
     1
290
     0
176
     1
290
     0
176
     1
290
     0
176
     1
290
     0
176
     1
 90
       50
176
     1
 40
0.0
176
     1
 40
1.0
176
     1
 90
        0
176
     1
 62
    18
420
        0
176
     1
 90
       50
176
     1
 90
        3
176
     1
 62
     5
420
      255
176
     1
290
     0
176
     1
 90
       50
176
     1
 90
       50
176
     1
 90
       50
176
     1
290
     0
176
     1
 90
       50
176
     1
 62
   256
176
     0
 40
1.0
176
     0
 90
        2
176
     1
  1
strokes_ogs.tif
176
     1
290
     0
176
     1
 40
1.0
176
     1
 40
1.0
176
     1
  0
VISUALSTYLE
  5
8FF
102
{ACAD_REACTORS
330
267
102
}
330
267
100
AcDbVisualStyle
  2

 70
    23
177
     3
291
     0
 70
    58
 90
        2
176
     1
 90
        2
176
     1
 90
        3
176
     1
 90
        0
176
     1
 40
0.6
176
     1
 40
30.0
176
     1
 62
     7
420
 16777215
176
     1
 90
        2
176
     1
 90
        2
176
     1
 62
     7
176
     1
 62
     7
176
     1
 90
        1
176
     1
 90
        1
176
     1
 40
40.0
176
     1
 90
        8
176
     1
 62
     7
176
     1
 40
1.0
176
     1
 90
        1
176
     1
 90
        6
176
     1
 90
        2
176
     1
 62
     7
176
     1
 90
        3
176
     1
 90
        0
176
     1
 90
        0
176
     1
290
     0
176
     1
 90
        1
176
     1
 40
0.0
176
     1
 90
        0
176
     1
290
     0
176
     1
290
     1
176
     1
290
     1
176
     1
290
     0
176
     1
290
     0
176
     1
290
     0
176
     1
290
     0
176
     1
290
     0
176
     1
290
     0
176
     1
 90
       50
176
     1
 40
0.0
176
     1
 40
1.0
176
     1
 90
        0
176
     1
 62
    18
420
        0
176
     1
 90
       50
176
     1
 90
        3
176
     1
 62
     5
420
      255
176
     1
290
     0
176
     1
 90
       50
176
     1
 90
       50
176
     1
 90
       50
176
     1
290
     0
176
     1
 90
       50
176
     1
 62
   256
176
     0
 40
1.0
176
     0
 90
        2
176
     1
  1
strokes_ogs.tif
176
     1
290
     0
176
     1
 40
1.0
176
     1
 40
1.0
176
     1
  0
VISUALSTYLE
  5
900
102
{ACAD_REACTORS
330
267
102
}
330
267
100
AcDbVisualStyle
  2

 70
    24
177
     3
291
     0
 70
    58
 90
        1
176
     1
 90
        2
176
     1
 90
        2
176
     1
 90
        0
176
     1
 40
0.6
176
     1
 40
30.0
176
     1
 62
     7
420
 16777215
176
     1
 90
        2
176
     1
 90
        2
176
     1
 62
     7
176
     1
 62
     7
176
     1
 90
        1
176
     1
 90
        1
176
     1
 40
40.0
176
     1
 90
       11
176
     1
 62
     7
176
     1
 40
1.0
176
     1
 90
        1
176
     1
 90
        6
176
     1
 90
        2
176
     1
 62
     7
176
     1
 90
        6
176
     1
 90
        0
176
     1
 90
        0
176
     1
290
     0
176
     1
 90
        1
176
     1
 40
0.0
176
     1
 90
        0
176
     1
290
     0
176
     1
290
     1
176
     1
290
     1
176
     1
290
     0
176
     1
290
     0
176
     1
290
     0
176
     1
290
     0
176
     1
290
     0
176
     1
290
     0
176
     1
 90
       50
176
     1
 40
0.0
176
     1
 40
1.0
176
     1
 90
        0
176
     1
 62
    18
420
        0
176
     1
 90
       50
176
     1
 90
        3
176
     1
 62
     5
420
      255
176
     1
290
     0
176
     1
 90
       50
176
     1
 90
       50
176
     1
 90
       50
176
     1
290
     0
176
     1
 90
       50
176
     1
 62
   256
176
     0
 40
1.0
176
     0
 90
        2
176
     1
  1
strokes_ogs.tif
176
     1
290
     0
176
     1
 40
1.0
176
     1
 40
1.0
176
     1
  0
VISUALSTYLE
  5
274
102
{ACAD_REACTORS
330
267
102
}
330
267
100
AcDbVisualStyle
  2

 70
    13
177
     3
291
     1
 70
    58
 90
        2
176
     1
 90
        2
176
     1
 90
        0
176
     1
 90
        0
176
     1
 40
0.6
176
     1
 40
30.0
176
     1
 62
     7
420
 16777215
176
     1
 90
        1
176
     1
 90
        4
176
     1
 62
     7
176
     1
 62
   257
176
     1
 90
        1
176
     1
 90
        1
176
     1
 40
1.0
176
     1
 90
       12
176
     1
 62
     7
176
     1
 40
1.0
176
     1
 90
        1
176
     1
 90
        6
176
     1
 90
        2
176
     1
 62
     7
176
     1
 90
        5
176
     1
 90
        0
176
     1
 90
        0
176
     1
290
     0
176
     1
 90
        1
176
     1
 40
0.0
176
     1
 90
        0
176
     1
290
     0
176
     1
290
     1
176
     1
290
     1
176
     1
290
     0
176
     1
290
     0
176
     1
290
     0
176
     1
290
     0
176
     1
290
     0
176
     1
290
     0
176
     1
 90
       50
176
     1
 40
0.0
176
     1
 40
1.0
176
     1
 90
        0
176
     1
 62
    18
420
        0
176
     1
 90
       50
176
     1
 90
        3
176
     1
 62
     5
420
      255
176
     1
290
     0
176
     1
 90
       50
176
     1
 90
       50
176
     1
 90
       50
176
     1
290
     0
176
     1
 90
       50
176
     1
 62
   256
176
     0
 40
1.0
176
     0
 90
        2
176
     1
  1
strokes_ogs.tif
176
     1
290
     0
176
     1
 40
1.0
176
     1
 40
1.0
176
     1
  0
VISUALSTYLE
  5
8FA
102
{ACAD_REACTORS
330
267
102
}
330
267
100
AcDbVisualStyle
  2

 70
     5
177
     3
291
     0
 70
    58
 90
        0
176
     1
 90
        2
176
     1
 90
        0
176
     1
 90
        0
176
     1
 40
0.6
176
     1
 40
30.0
176
     1
 62
     7
420
 16777215
176
     1
 90
        1
176
     1
 90
        4
176
     1
 62
     7
176
     1
 62
   257
176
     1
 90
        1
176
     1
 90
        1
176
     1
 40
1.0
176
     1
 90
        0
176
     1
 62
   257
176
     1
 40
1.0
176
     1
 90
        1
176
     1
 90
        6
176
     1
 90
        2
176
     1
 62
     7
176
     1
 90
        3
176
     1
 90
        0
176
     1
 90
        0
176
     1
290
     0
176
     1
 90
        1
176
     1
 40
0.0
176
     1
 90
        0
176
     1
290
     0
176
     1
290
     1
176
     1
290
     1
176
     1
290
     0
176
     1
290
     0
176
     1
290
     0
176
     1
290
     0
176
     1
290
     0
176
     1
290
     0
176
     1
 90
       50
176
     1
 40
0.0
176
     1
 40
1.0
176
     1
 90
        0
176
     1
 62
    18
420
        0
176
     1
 90
       50
176
     1
 90
        3
176
     1
 62
     5
420
      255
176
     1
290
     0
176
     1
 90
       50
176
     1
 90
       50
176
     1
 90
       50
176
     1
290
     0
176
     1
 90
       50
176
     1
 62
   256
176
     0
 40
1.0
176
     0
 90
        2
176
     1
  1
strokes_ogs.tif
176
     1
290
     0
176
     1
 40
1.0
176
     1
 40
1.0
176
     1
  0
VISUALSTYLE
  5
901
102
{ACAD_REACTORS
330
267
102
}
330
267
100
AcDbVisualStyle
  2

 70
    25
177
     3
291
     0
 70
    58
 90
        2
176
     1
 90
        2
176
     1
 90
        1
176
     1
 90
        1
176
     1
 40
0.5
176
     1
 40
30.0
176
     1
 62
     7
420
 16777215
176
     1
 90
        1
176
     1
 90
        0
176
     1
 62
     7
176
     1
 62
   257
176
     1
 90
        1
176
     1
 90
        1
176
     1
 40
1.0
176
     1
 90
        8
176
     1
 62
     7
176
     1
 40
1.0
176
     1
 90
        1
176
     1
 90
        6
176
     1
 90
        2
176
     1
 62
     7
176
     1
 90
        3
176
     1
 90
        0
176
     1
 90
        0
176
     1
290
     0
176
     1
 90
       13
176
     1
 40
0.0
176
     1
 90
        0
176
     1
290
     0
176
     1
290
     1
176
     1
290
     1
176
     1
290
     0
176
     1
290
     0
176
     1
290
     0
176
     1
290
     0
176
     1
290
     0
176
     1
290
     0
176
     1
 90
       50
176
     1
 40
0.0
176
     1
 40
1.0
176
     1
 90
        0
176
     1
 62
    18
420
        0
176
     1
 90
       50
176
     1
 90
        3
176
     1
 62
     5
420
      255
176
     1
290
     0
176
     1
 90
       50
176
     1
 90
       50
176
     1
 90
       50
176
     1
290
     0
176
     1
 90
       50
176
     1
 62
   256
176
     0
 40
1.0
176
     0
 90
        2
176
     1
  1
strokes_ogs.tif
176
     1
290
     0
176
     1
 40
1.0
176
     1
 40
1.0
176
     1
  0
DICTIONARYVAR
  5
331
102
{ACAD_REACTORS
330
330
102
}
330
330
100
DictionaryVariables
280
     0
  1
1:1
  0
DICTIONARYVAR
  5
DB1
102
{ACAD_REACTORS
330
330
102
}
330
330
100
DictionaryVariables
280
     0
  1
STANDARD
  0
DICTIONARYVAR
  5
335
102
{ACAD_REACTORS
330
330
102
}
330
330
100
DictionaryVariables
280
     0
  1
STANDARD
  0
DICTIONARYVAR
  5
15F0
102
{ACAD_REACTORS
330
330
102
}
330
330
100
DictionaryVariables
280
     0
  1
Metric50
  0
DICTIONARYVAR
  5
15F1
102
{ACAD_REACTORS
330
330
102
}
330
330
100
DictionaryVariables
280
     0
  1
Metric50
  0
DICTIONARYVAR
  5
160D
102
{ACAD_REACTORS
330
330
102
}
330
330
100
DictionaryVariables
280
     0
  1
2
  0
DICTIONARYVAR
  5
160B
102
{ACAD_REACTORS
330
330
102
}
330
330
100
DictionaryVariables
280
     0
  1
2
  0
DICTIONARYVAR
  5
1609
102
{ACAD_REACTORS
330
330
102
}
330
330
100
DictionaryVariables
280
     0
  1
1
  0
DICTIONARYVAR
  5
D52
102
{ACAD_REACTORS
330
330
102
}
330
330
100
DictionaryVariables
280
     0
  1
ByLayer
  0
DICTIONARYVAR
  5
1608
102
{ACAD_REACTORS
330
330
102
}
330
330
100
DictionaryVariables
280
     0
  1
0
  0
DICTIONARYVAR
  5
15F2
102
{ACAD_REACTORS
330
330
102
}
330
330
100
DictionaryVariables
280
     0
  1
1
  0
DICTIONARYVAR
  5
15F3
102
{ACAD_REACTORS
330
330
102
}
330
330
100
DictionaryVariables
280
     0
  1
15
  0
DICTIONARYVAR
  5
1606
102
{ACAD_REACTORS
330
330
102
}
330
330
100
DictionaryVariables
280
     0
  1
2
  0
DICTIONARYVAR
  5
160E
102
{ACAD_REACTORS
330
330
102
}
330
330
100
DictionaryVariables
280
     0
  1
1.570796
  0
DICTIONARYVAR
  5
160F
102
{ACAD_REACTORS
330
330
102
}
330
330
100
DictionaryVariables
280
     0
  1
1.570796
  0
DICTIONARYVAR
  5
1610
102
{ACAD_REACTORS
330
330
102
}
330
330
100
DictionaryVariables
280
     0
  1
-122.394000
  0
DICTIONARYVAR
  5
1605
102
{ACAD_REACTORS
330
330
102
}
330
330
100
DictionaryVariables
280
     0
  1
1
  0
DICTIONARYVAR
  5
160C
102
{ACAD_REACTORS
330
330
102
}
330
330
100
DictionaryVariables
280
     0
  1
1
  0
DICTIONARYVAR
  5
1607
102
{ACAD_REACTORS
330
330
102
}
330
330
100
DictionaryVariables
280
     0
  1
127
  0
DICTIONARYVAR
  5
160A
102
{ACAD_REACTORS
330
330
102
}
330
330
100
DictionaryVariables
280
     0
  1
0
  0
XRECORD
  5
15EF
102
{ACAD_REACTORS
330
15ED
102
}
330
15ED
100
AcDbXrecord
280
     1
330
6B5
330
68C
330
68F
330
692
330
6A1
330
D65
330
D66
330
D7D
330
D7E
330
D8F
330
D90
330
E1A
330
E1B
330
E2D
330
E2E
330
E4C
330
E4D
330
E8C
330
E8D
330
E9B
330
E9C
330
EAF
330
EB0
330
ED9
330
EDA
330
EE8
330
EE9
330
1021
330
1022
330
1030
330
1031
330
103D
330
103E
330
104A
330
104B
330
1057
330
1058
330
1064
330
1065
330
1070
330
1071
330
1094
330
1095
330
10A8
330
10A9
330
10B8
330
10B9
330
11A7
330
11A8
330
11B3
330
11B4
330
11BF
330
11C0
330
11CB
330
11CC
330
11D7
330
11D8
330
11E3
330
11E4
330
11EE
330
11EF
330
11FA
330
11FB
330
1206
330
1207
330
1212
330
1213
330
1279
330
127A
330
1298
330
1299
330
12BC
330
12BD
330
12D6
330
12D7
330
12ED
330
12EE
330
13AC
330
13AD
330
13D5
330
13D6
330
13E7
330
13E8
330
1479
330
147A
  0
DICTIONARYVAR
  5
ECE
102
{ACAD_REACTORS
330
E3E
102
}
330
E3E
100
DictionaryVariables
280
     0
  1
0.261799
  0
DICTIONARYVAR
  5
ECC
102
{ACAD_REACTORS
330
E3E
102
}
330
E3E
100
DictionaryVariables
280
     0
  1
0.400000
  0
DICTIONARYVAR
  5
ECD
102
{ACAD_REACTORS
330
E3E
102
}
330
E3E
100
DictionaryVariables
280
     0
  1
0.250000
  0
DICTIONARYVAR
  5
ECF
102
{ACAD_REACTORS
330
E3E
102
}
330
E3E
100
DictionaryVariables
280
     0
  1
1
  0
XRECORD
  5
7AA
102
{ACAD_REACTORS
330
2E2
102
}
330
2E2
100
AcDbXrecord
280
     1
 91
    34815
301

290
     0
302
DIM
330
14
 90
        8
 62
     7
370
    -3
331
13
  1
Color_7
440
 33554687
330
4B
 90
        8
 62
     7
370
    20
331
13
  1
Color_7
440
 33554687
330
4C
 90
        8
 62
     3
370
    13
331
13
  1
Color_3
440
 33554687
330
4D
 90
        8
 62
     7
370
    20
331
13
  1
Color_7
440
 33554687
330
667
 90
        8
 62
     7
370
    -3
331
13
  1
Color_7
440
 33554687
330
88C
 90
        8
 62
     8
370
    20
331
DF8
  1
Color_8
440
 33554687
330
D5D
 90
        0
 62
     7
370
    -3
331
13
  1
Color_7
440
 33554687
330
DAE
 90
        0
 62
     4
370
    20
331
DAF
  1
Color_4
440
 33554687
  0
FIELD
  5
1583
102
{ACAD_REACTORS
330
1582
102
}
330
1582
100
AcDbField
  1
_text
  2
{%<\_FldIdx 0>%N}
 90
        1
360
1584
 97
        0
 91
       63
 92
        0
 94
       13
 95
        2
 96
        0
300

 93
        1
  6
ACFD_FIELDTEXT_CHECKSUM
 93
        2
 90
        2
140
4473.0
 94
        0
300

302

304
ACVALUE_END
  7
ACFD_FIELD_VALUE
 93
        3
 90
        0
 94
        0
300

302

304
ACVALUE_END
301

 98
        0
  0
DICTIONARY
  5
15CA
330
279
100
AcDbDictionary
280
     1
281
     1
  3
ACAD_ROUNDTRIP_2008_TABLESTYLE_CELLSTYLEMAP
360
1D29
  0
FIELD
  5
1584
330
1583
100
AcDbField
  1
AcVar
  2
\AcVar CreateDate \f "yyyyMMdd"
 90
        0
 97
        0
 91
       63
 92
        0
 94
       59
 95
        2
 96
        0
300

 93
        1
  6
Variable
 93
        2
 90
        4
  1
CreateDate
 94
        0
300

302

304
ACVALUE_END
  7
ACFD_FIELD_VALUE
 93
        4
 90
        8
 92
       16
310
E7070C00010004001100200026000000
 94
        0
300
yyyyMMdd
302
20231204
304
ACVALUE_END
301
20231204
 98
        8
  0
CELLSTYLEMAP
  5
1D29
102
{ACAD_REACTORS
330
15CA
102
}
330
15CA
100
AcDbCellStyleMap
 90
        3
300
CELLSTYLE
  1
TABLEFORMAT_BEGIN
 90
        5
170
     1
 91
        0
 92
    32768
 62
   257
 93
        1
300
CONTENTFORMAT
  1
CONTENTFORMAT_BEGIN
 90
        0
 91
        0
 92
        4
 93
        0
300

 40
0.0
140
1.0
 94
        5
 62
     0
340
17
144
6.0
309
CONTENTFORMAT_END
171
     1
301
MARGIN
  1
CELLMARGIN_BEGIN
 40
0.06
 40
0.06
 40
0.06
 40
0.06
 40
0.18
 40
0.18
309
CELLMARGIN_END
 94
        6
 95
        1
302
GRIDFORMAT
  1
GRIDFORMAT_BEGIN
 90
        0
 91
        1
 62
     0
 92
       -2
340
0
 93
        0
 40
0.045
309
GRIDFORMAT_END
 95
        2
302
GRIDFORMAT
  1
GRIDFORMAT_BEGIN
 90
        0
 91
        1
 62
     0
 92
       -2
340
0
 93
        0
 40
0.045
309
GRIDFORMAT_END
 95
        4
302
GRIDFORMAT
  1
GRIDFORMAT_BEGIN
 90
        0
 91
        1
 62
     0
 92
       -2
340
0
 93
        0
 40
0.045
309
GRIDFORMAT_END
 95
        8
302
GRIDFORMAT
  1
GRIDFORMAT_BEGIN
 90
        0
 91
        1
 62
     0
 92
       -2
340
0
 93
        0
 40
0.045
309
GRIDFORMAT_END
 95
       16
302
GRIDFORMAT
  1
GRIDFORMAT_BEGIN
 90
        0
 91
        1
 62
     0
 92
       -2
340
0
 93
        0
 40
0.045
309
GRIDFORMAT_END
 95
       32
302
GRIDFORMAT
  1
GRIDFORMAT_BEGIN
 90
        0
 91
        1
 62
     0
 92
       -2
340
0
 93
        0
 40
0.045
309
GRIDFORMAT_END
309
TABLEFORMAT_END
  1
CELLSTYLE_BEGIN
 90
        1
 91
        1
300
_TITLE
309
CELLSTYLE_END
300
CELLSTYLE
  1
TABLEFORMAT_BEGIN
 90
        5
170
     1
 91
        0
 92
        0
 62
   257
 93
        1
300
CONTENTFORMAT
  1
CONTENTFORMAT_BEGIN
 90
        0
 91
        0
 92
        4
 93
        0
300

 40
0.0
140
1.0
 94
        5
 62
     0
340
17
144
4.5
309
CONTENTFORMAT_END
171
     1
301
MARGIN
  1
CELLMARGIN_BEGIN
 40
0.06
 40
0.06
 40
0.06
 40
0.06
 40
0.18
 40
0.18
309
CELLMARGIN_END
 94
        6
 95
        1
302
GRIDFORMAT
  1
GRIDFORMAT_BEGIN
 90
        0
 91
        1
 62
     0
 92
       -2
340
0
 93
        0
 40
0.045
309
GRIDFORMAT_END
 95
        2
302
GRIDFORMAT
  1
GRIDFORMAT_BEGIN
 90
        0
 91
        1
 62
     0
 92
       -2
340
0
 93
        0
 40
0.045
309
GRIDFORMAT_END
 95
        4
302
GRIDFORMAT
  1
GRIDFORMAT_BEGIN
 90
        0
 91
        1
 62
     0
 92
       -2
340
0
 93
        0
 40
0.045
309
GRIDFORMAT_END
 95
        8
302
GRIDFORMAT
  1
GRIDFORMAT_BEGIN
 90
        0
 91
        1
 62
     0
 92
       -2
340
0
 93
        0
 40
0.045
309
GRIDFORMAT_END
 95
       16
302
GRIDFORMAT
  1
GRIDFORMAT_BEGIN
 90
        0
 91
        1
 62
     0
 92
       -2
340
0
 93
        0
 40
0.045
309
GRIDFORMAT_END
 95
       32
302
GRIDFORMAT
  1
GRIDFORMAT_BEGIN
 90
        0
 91
        1
 62
     0
 92
       -2
340
0
 93
        0
 40
0.045
309
GRIDFORMAT_END
309
TABLEFORMAT_END
  1
CELLSTYLE_BEGIN
 90
        2
 91
        1
300
_HEADER
309
CELLSTYLE_END
300
CELLSTYLE
  1
TABLEFORMAT_BEGIN
 90
        5
170
     1
 91
        0
 92
        0
 62
   257
 93
        1
300
CONTENTFORMAT
  1
CONTENTFORMAT_BEGIN
 90
        0
 91
        0
 92
        4
 93
        0
300

 40
0.0
140
1.0
 94
        2
 62
     0
340
17
144
4.5
309
CONTENTFORMAT_END
171
     1
301
MARGIN
  1
CELLMARGIN_BEGIN
 40
0.06
 40
0.06
 40
0.06
 40
0.06
 40
0.18
 40
0.18
309
CELLMARGIN_END
 94
        6
 95
        1
302
GRIDFORMAT
  1
GRIDFORMAT_BEGIN
 90
        0
 91
        1
 62
     0
 92
       -2
340
0
 93
        0
 40
0.045
309
GRIDFORMAT_END
 95
        2
302
GRIDFORMAT
  1
GRIDFORMAT_BEGIN
 90
        0
 91
        1
 62
     0
 92
       -2
340
0
 93
        0
 40
0.045
309
GRIDFORMAT_END
 95
        4
302
GRIDFORMAT
  1
GRIDFORMAT_BEGIN
 90
        0
 91
        1
 62
     0
 92
       -2
340
0
 93
        0
 40
0.045
309
GRIDFORMAT_END
 95
        8
302
GRIDFORMAT
  1
GRIDFORMAT_BEGIN
 90
        0
 91
        1
 62
     0
 92
       -2
340
0
 93
        0
 40
0.045
309
GRIDFORMAT_END
 95
       16
302
GRIDFORMAT
  1
GRIDFORMAT_BEGIN
 90
        0
 91
        1
 62
     0
 92
       -2
340
0
 93
        0
 40
0.045
309
GRIDFORMAT_END
 95
       32
302
GRIDFORMAT
  1
GRIDFORMAT_BEGIN
 90
        0
 91
        1
 62
     0
 92
       -2
340
0
 93
        0
 40
0.045
309
GRIDFORMAT_END
309
TABLEFORMAT_END
  1
CELLSTYLE_BEGIN
 90
        3
 91
        2
300
_DATA
309
CELLSTYLE_END
  0
ENDSEC
  0
SECTION
  2
ACDSDATA
 70
     2
 71
     8
  0
ACDSSCHEMA
 90
        0
  1
AcDb_Thumbnail_Schema
  2
AcDbDs::ID
280
    10
 91
        8
  2
Thumbnail_Data
280
    15
 91
        0
101
ACDSRECORD
 95
        0
 90
        1
  2
AcDbDs::TreatedAsObjectData
280
     1
291
     1
101
ACDSRECORD
 95
        0
 90
        2
  2
AcDbDs::Legacy
280
     1
291
     1
101
ACDSRECORD
  1
AcDbDs::ID
 90
        3
  2
AcDs:Indexable
280
     1
291
     1
101
ACDSRECORD
  1
AcDbDs::ID
 90
        4
  2
AcDbDs::HandleAttribute
280
     7
282
     1
  0
ACDSSCHEMA
 90
        1
  1
AcDbDs::TreatedAsObjectDataSchema
  2
AcDbDs::TreatedAsObjectData
280
     1
 91
        0
  0
ACDSSCHEMA
 90
        2
  1
AcDbDs::LegacySchema
  2
AcDbDs::Legacy
280
     1
 91
        0
  0
ACDSSCHEMA
 90
        3
  1
AcDbDs::IndexedPropertySchema
  2
AcDs:Indexable
280
     1
 91
        0
  0
ACDSSCHEMA
 90
        4
  1
AcDbDs::HandleAttributeSchema
  2
AcDbDs::HandleAttribute
280
     7
 91
        1
284
     1
  0
ACDSRECORD
 90
        0
  2
AcDbDs::ID
280
    10
320
20
  2
Thumbnail_Data
280
    15
 94
     1746
310
89504E470D0A1A0A0000000D49484452000001000000008B0803000000B9ACB7FB00000300504C5445212830FFFFFF2128300000000000000000000000000000000000000000000000000000330000660000990000CC0000FF0033000033330033660033990033CC0033FF0066000066330066660066990066CC0066FF0099
310
000099330099660099990099CC0099FF00CC0000CC3300CC6600CC9900CCCC00CCFF00FF0000FF3300FF6600FF9900FFCC00FFFF3300003300333300663300993300CC3300FF3333003333333333663333993333CC3333FF3366003366333366663366993366CC3366FF3399003399333399663399993399CC3399FF33CC00
310
33CC3333CC6633CC9933CCCC33CCFF33FF0033FF3333FF6633FF9933FFCC33FFFF6600006600336600666600996600CC6600FF6633006633336633666633996633CC6633FF6666006666336666666666996666CC6666FF6699006699336699666699996699CC6699FF66CC0066CC3366CC6666CC9966CCCC66CCFF66FF0066
310
FF3366FF6666FF9966FFCC66FFFF9900009900339900669900999900CC9900FF9933009933339933669933999933CC9933FF9966009966339966669966999966CC9966FF9999009999339999669999999999CC9999FF99CC0099CC3399CC6699CC9999CCCC99CCFF99FF0099FF3399FF6699FF9999FFCC99FFFFCC0000CC00
310
33CC0066CC0099CC00CCCC00FFCC3300CC3333CC3366CC3399CC33CCCC33FFCC6600CC6633CC6666CC6699CC66CCCC66FFCC9900CC9933CC9966CC9999CC99CCCC99FFCCCC00CCCC33CCCC66CCCC99CCCCCCCCCCFFCCFF00CCFF33CCFF66CCFF99CCFFCCCCFFFFFF0000FF0033FF0066FF0099FF00CCFF00FFFF3300FF3333
310
FF3366FF3399FF33CCFF33FFFF6600FF6633FF6666FF6699FF66CCFF66FFFF9900FF9933FF9966FF9999FF99CCFF99FFFFCC00FFCC33FFCC66FFCC99FFCCCCFFCCFFFFFF00FFFF33FFFF66FFFF99FFFFCCFFFFFF0000000D0D0D1A1A1A2828283535354343435050505D5D5D6B6B6B787878868686939393A1A1A1AEAEAEBB
310
BBBBC9C9C9D6D6D6E4E4E4F1F1F1FFFFFF0000000000000000000000000000000000000000000000000000000000002E4550F10000038D4944415478DAED9D4976A3400C86751C6DDCF73F9436BDD0BE4331D54C51E0D7D1A03C3B0E18B03E7EA96607E055FBFC3C18BE65BC5DE1179B0370000EC03600F83A007005380007
310
201B0011590610BC9F45A0A014D85C9F24A0400194823007E0F4DB2A00780C40744528163E5954C0EA343A00AB00420430631A036C080038802A00560400AC03E8298052003B014300C0010C0120C6C3B4D4048327149E07006CD1F2F376D4A280C5F5ED8E0E00A0D067D250802000D1C75F5C41C27E08ECA2C70020DC7E2D
310
0056D72E006064C450782F1B4078701602540F010EE9A2D0BFBC8A5004E0F80B635D7700A8E80F4801EC7E4777760AC0473A80A70A100C00D73D080500661B00284BEE56006C518FBC00C05A0EC80110AB680ED701D4724001E06E435B4812645E0BC447004497023806A015010A00200C0150D71F702A200670B60552004D
310
01480740A30024F708D573F5DE1A5C33C01500855D62ABE7C40900320460533E252110758B9B0440A01240A7BE167AC50E0044EF9D598A02963C187A3B2DCF115A7A3C9114CF12F389920EC0A7CBBB021CC0D3935486444C0140C4DAB818685931D2BCBF49D31115B6054A9B5180E4C6D0F516DD0A1804100DA53A005DCDE1
310
7700802B402200BC03003402486CEF0233A980D5F72E00D60C60EFFEE40E0052580A9C00F6F7F02C0010AD005E5C0FCEB352055C0258BD5F7FDB03708E8084A961F67240340234AD00D13920DAC3DB7C991A00D61A02C910600700A905004300D80600B007808701B0CE52209F13CDCDB600E92C05F2ED73003E0EC00200B6
310
0E808C03D8164D15C303524B018C9BC3199686027638A84201B701803200E0005E0420B722C4C52EB6A5807B00A0369A221D403E3FB2AB00C403C051189A03107EA2DA80A910D801C47120BB393C9F03D0622910979492147007005B03C03900B005A0D8DE06403180A849283B0714DF93D001C0517338032059014329B0B2
310
785A0B80B114B8748B6B05908E0D36CF51AC28D203E074BBB752B0583CADA426B8391E2647F0C8B74F9F47A3FC52209D26D73F07426B5AB92F9971000EC001F8BFD97105380007E0001C80E152C0152000C0F74CB502F87F06D7CB0A9803707D9C1C0594CA1DBABD5787780E3093031AAFC528E0710EE07AFFB11805F4247C
310
95032A0AE078B9A5889AE01C00453960C491D97A80D58AD09FC5B4E780AE647600226A82C6EB017F837DF30A2214601880F42B3880471F6FB1F2397995EF865BBB05D404DDDCDCDCE4D83F7CE51A3DE8320B3C0000000049454E44AE426082
  0
ENDSEC
  0
EOF
